  0
SECTION
  2
HEADER
  9
$ACADVER
  1
AC1018
  9
$ACADMAINTVER
 70
     0
  9
$DWGCODEPAGE
  3
ANSI_932
  9
$INSBASE
 10
0.0
 20
0.0
 30
0.0
  9
$EXTMIN
 10
236.4547188150987
 20
171.62613327917
 30
-0.0000000000000058
  9
$EXTMAX
 10
491.9140813472958
 20
367.0669803848941
 30
0.0000000000000104
  9
$LIMMIN
 10
0.0
 20
0.0
  9
$LIMMAX
 10
420.0
 20
297.0
  9
$ORTHOMODE
 70
     0
  9
$REGENMODE
 70
     1
  9
$FILLMODE
 70
     1
  9
$QTEXTMODE
 70
     0
  9
$MIRRTEXT
 70
     1
  9
$LTSCALE
 40
1.0
  9
$ATTMODE
 70
     1
  9
$TEXTSIZE
 40
1.0
  9
$TRACEWID
 40
1.0
  9
$TEXTSTYLE
  7
STYLE3
  9
$CLAYER
  8
寸法線
  9
$CELTYPE
  6
BYLAYER
  9
$CECOLOR
 62
   256
  9
$CELTSCALE
 40
1.0
  9
$DISPSILH
 70
     0
  9
$DIMSCALE
 40
1.0
  9
$DIMASZ
 40
2.5
  9
$DIMEXO
 40
0.0
  9
$DIMDLI
 40
3.75
  9
$DIMRND
 40
0.0
  9
$DIMDLE
 40
0.0
  9
$DIMEXE
 40
1.25
  9
$DIMTP
 40
0.0
  9
$DIMTM
 40
0.0
  9
$DIMTXT
 40
2.5
  9
$DIMCEN
 40
2.5
  9
$DIMTSZ
 40
0.0
  9
$DIMTOL
 70
     0
  9
$DIMLIM
 70
     0
  9
$DIMTIH
 70
     0
  9
$DIMTOH
 70
     0
  9
$DIMSE1
 70
     0
  9
$DIMSE2
 70
     0
  9
$DIMTAD
 70
     1
  9
$DIMZIN
 70
     8
  9
$DIMBLK
  1

  9
$DIMASO
 70
     1
  9
$DIMSHO
 70
     1
  9
$DIMPOST
  1

  9
$DIMAPOST
  1

  9
$DIMALT
 70
     0
  9
$DIMALTD
 70
     4
  9
$DIMALTF
 40
0.0394
  9
$DIMLFAC
 40
1.0
  9
$DIMTOFL
 70
     1
  9
$DIMTVP
 40
0.0
  9
$DIMTIX
 70
     0
  9
$DIMSOXD
 70
     0
  9
$DIMSAH
 70
     1
  9
$DIMBLK1
  1
OPEN
  9
$DIMBLK2
  1
OPEN
  9
$DIMSTYLE
  2
STYLE2
  9
$DIMCLRD
 70
     2
  9
$DIMCLRE
 70
     2
  9
$DIMCLRT
 70
     6
  9
$DIMTFAC
 40
1.0
  9
$DIMGAP
 40
0.625
  9
$DIMJUST
 70
     0
  9
$DIMSD1
 70
     0
  9
$DIMSD2
 70
     0
  9
$DIMTOLJ
 70
     1
  9
$DIMTZIN
 70
     0
  9
$DIMALTZ
 70
     0
  9
$DIMALTTZ
 70
     0
  9
$DIMUPT
 70
     0
  9
$DIMDEC
 70
     1
  9
$DIMTDEC
 70
     4
  9
$DIMALTU
 70
     8
  9
$DIMALTTD
 70
     4
  9
$DIMTXSTY
  7
STYLE3
  9
$DIMAUNIT
 70
     0
  9
$DIMADEC
 70
     0
  9
$DIMALTRND
 40
0.0
  9
$DIMAZIN
 70
     0
  9
$DIMDSEP
 70
    46
  9
$DIMATFIT
 70
     3
  9
$DIMFRAC
 70
     0
  9
$DIMLDRBLK
  1
OPEN
  9
$DIMLUNIT
 70
     2
  9
$DIMLWD
 70
    -2
  9
$DIMLWE
 70
    -2
  9
$DIMTMOVE
 70
     0
  9
$LUNITS
 70
     2
  9
$LUPREC
 70
     4
  9
$SKETCHINC
 40
1.0
  9
$FILLETRAD
 40
0.0
  9
$AUNITS
 70
     0
  9
$AUPREC
 70
     0
  9
$MENU
  1
.
  9
$ELEVATION
 40
0.0
  9
$PELEVATION
 40
0.0
  9
$THICKNESS
 40
0.0
  9
$LIMCHECK
 70
     0
  9
$CHAMFERA
 40
0.2
  9
$CHAMFERB
 40
0.2
  9
$CHAMFERC
 40
20.0
  9
$CHAMFERD
 40
0.0
  9
$SKPOLY
 70
     0
  9
$TDCREATE
 40
2450717.578556713
  9
$TDUCREATE
 40
2450717.203556713
  9
$TDUPDATE
 40
2455355.686365555
  9
$TDUUPDATE
 40
2455355.311365555
  9
$TDINDWG
 40
0.5177527199
  9
$TDUSRTIMER
 40
0.5177527199
  9
$USRTIMER
 70
     1
  9
$ANGBASE
 50
0.0
  9
$ANGDIR
 70
     0
  9
$PDMODE
 70
     0
  9
$PDSIZE
 40
0.0
  9
$PLINEWID
 40
0.0
  9
$SPLFRAME
 70
     0
  9
$SPLINETYPE
 70
     6
  9
$SPLINESEGS
 70
     8
  9
$HANDSEED
  5
2032
  9
$SURFTAB1
 70
     6
  9
$SURFTAB2
 70
     6
  9
$SURFTYPE
 70
     6
  9
$SURFU
 70
     6
  9
$SURFV
 70
     6
  9
$UCSBASE
  2

  9
$UCSNAME
  2

  9
$UCSORG
 10
0.0
 20
0.0
 30
0.0
  9
$UCSXDIR
 10
1.0
 20
0.0
 30
0.0
  9
$UCSYDIR
 10
0.0
 20
1.0
 30
0.0
  9
$UCSORTHOREF
  2

  9
$UCSORTHOVIEW
 70
     0
  9
$UCSORGTOP
 10
0.0
 20
0.0
 30
0.0
  9
$UCSORGBOTTOM
 10
0.0
 20
0.0
 30
0.0
  9
$UCSORGLEFT
 10
0.0
 20
0.0
 30
0.0
  9
$UCSORGRIGHT
 10
0.0
 20
0.0
 30
0.0
  9
$UCSORGFRONT
 10
0.0
 20
0.0
 30
0.0
  9
$UCSORGBACK
 10
0.0
 20
0.0
 30
0.0
  9
$PUCSBASE
  2

  9
$PUCSNAME
  2

  9
$PUCSORG
 10
0.0
 20
0.0
 30
0.0
  9
$PUCSXDIR
 10
1.0
 20
0.0
 30
0.0
  9
$PUCSYDIR
 10
0.0
 20
1.0
 30
0.0
  9
$PUCSORTHOREF
  2

  9
$PUCSORTHOVIEW
 70
     0
  9
$PUCSORGTOP
 10
0.0
 20
0.0
 30
0.0
  9
$PUCSORGBOTTOM
 10
0.0
 20
0.0
 30
0.0
  9
$PUCSORGLEFT
 10
0.0
 20
0.0
 30
0.0
  9
$PUCSORGRIGHT
 10
0.0
 20
0.0
 30
0.0
  9
$PUCSORGFRONT
 10
0.0
 20
0.0
 30
0.0
  9
$PUCSORGBACK
 10
0.0
 20
0.0
 30
0.0
  9
$USERI1
 70
     0
  9
$USERI2
 70
     0
  9
$USERI3
 70
     0
  9
$USERI4
 70
     0
  9
$USERI5
 70
     0
  9
$USERR1
 40
0.0
  9
$USERR2
 40
0.0
  9
$USERR3
 40
0.0
  9
$USERR4
 40
0.0
  9
$USERR5
 40
0.0
  9
$WORLDVIEW
 70
     1
  9
$SHADEDGE
 70
     3
  9
$SHADEDIF
 70
    70
  9
$TILEMODE
 70
     1
  9
$MAXACTVP
 70
    48
  9
$PINSBASE
 10
0.0
 20
0.0
 30
0.0
  9
$PLIMCHECK
 70
     0
  9
$PEXTMIN
 10
1.000000000000000E+20
 20
1.000000000000000E+20
 30
1.000000000000000E+20
  9
$PEXTMAX
 10
-1.000000000000000E+20
 20
-1.000000000000000E+20
 30
-1.000000000000000E+20
  9
$PLIMMIN
 10
0.0
 20
0.0
  9
$PLIMMAX
 10
420.0
 20
297.0
  9
$UNITMODE
 70
     0
  9
$VISRETAIN
 70
     1
  9
$PLINEGEN
 70
     0
  9
$PSLTSCALE
 70
     1
  9
$TREEDEPTH
 70
  3020
  9
$CMLSTYLE
  2
STANDARD
  9
$CMLJUST
 70
     0
  9
$CMLSCALE
 40
20.0
  9
$PROXYGRAPHICS
 70
     1
  9
$MEASUREMENT
 70
     1
  9
$CELWEIGHT
370
    -1
  9
$ENDCAPS
280
     0
  9
$JOINSTYLE
280
     0
  9
$LWDISPLAY
290
     0
  9
$INSUNITS
 70
     0
  9
$HYPERLINKBASE
  1

  9
$STYLESHEET
  1

  9
$XEDIT
290
     1
  9
$CEPSNTYPE
380
     0
  9
$PSTYLEMODE
290
     1
  9
$FINGERPRINTGUID
  2
{AB3F18F1-EA1A-4808-A95A-15D322D29CFD}
  9
$VERSIONGUID
  2
{F1FD6EE7-1CBC-4B8E-AD4A-B2C4767FC0D0}
  9
$EXTNAMES
290
     1
  9
$PSVPSCALE
 40
0.0
  9
$OLESTARTUP
290
     0
  9
$SORTENTS
280
    96
  9
$INDEXCTL
280
     0
  9
$HIDETEXT
280
     0
  9
$XCLIPFRAME
290
     0
  9
$HALOGAP
280
     0
  9
$OBSCOLOR
 70
   257
  9
$OBSLTYPE
280
     0
  9
$INTERSECTIONDISPLAY
280
     0
  9
$INTERSECTIONCOLOR
 70
   257
  9
$DIMASSOC
280
     1
  9
$PROJECTNAME
  1

  0
ENDSEC
  0
SECTION
  2
CLASSES
  0
CLASS
  1
HATCH
  2
AcDbHatch
  3
ObjectDBX Classes
 90
        0
 91
       15
280
     0
281
     1
  0
CLASS
  1
LWPOLYLINE
  2
AcDbPolyline
  3
ObjectDBX Classes
 90
        0
 91
        2
280
     0
281
     1
  0
CLASS
  1
IMAGEDEF
  2
AcDbRasterImageDef
  3
ISM
 90
        0
 91
        1
280
     0
281
     0
  0
CLASS
  1
DICTIONARYVAR
  2
AcDbDictionaryVar
  3
ObjectDBX Classes
 90
        0
 91
        2
280
     0
281
     0
  0
CLASS
  1
ACDBDICTIONARYWDFLT
  2
AcDbDictionaryWithDefault
  3
ObjectDBX Classes
 90
        0
 91
        1
280
     0
281
     0
  0
CLASS
  1
TABLESTYLE
  2
AcDbTableStyle
  3
ObjectDBX Classes
 90
     2047
 91
        1
280
     0
281
     0
  0
ENDSEC
  0
SECTION
  2
TABLES
  0
TABLE
  2
VPORT
  5
8
330
0
100
AcDbSymbolTable
 70
     2
  0
VPORT
  5
2031
330
8
100
AcDbSymbolTableRecord
100
AcDbViewportTableRecord
  2
*Active
 70
     0
 10
0.0
 20
0.0
 11
1.0
 21
1.0
 12
364.1844000811973
 22
269.3465568320321
 13
0.0
 23
0.0
 14
10.0
 24
10.0
 15
10.0
 25
10.0
 16
0.0
 26
0.0
 36
1.0
 17
0.0
 27
0.0
 37
0.0
 40
196.9270892890375
 41
1.530456852791878
 42
50.0
 43
0.0
 44
0.0
 50
0.0
 51
0.0
 71
     0
 72
   100
 73
     1
 74
     1
 75
     0
 76
     0
 77
     0
 78
     0
281
     0
 65
     1
110
0.0
120
0.0
130
0.0
111
1.0
121
0.0
131
0.0
112
0.0
122
1.0
132
0.0
 79
     0
146
0.0
  0
ENDTAB
  0
TABLE
  2
LTYPE
  5
5
330
0
100
AcDbSymbolTable
 70
     4
  0
LTYPE
  5
12
330
5
100
AcDbSymbolTableRecord
100
AcDbLinetypeTableRecord
  2
BYBLOCK
 70
     0
  3

 72
    65
 73
     0
 40
0.0
  0
LTYPE
  5
13
330
5
100
AcDbSymbolTableRecord
100
AcDbLinetypeTableRecord
  2
BYLAYER
 70
     0
  3

 72
    65
 73
     0
 40
0.0
  0
LTYPE
  5
14
330
5
100
AcDbSymbolTableRecord
100
AcDbLinetypeTableRecord
  2
CONTINUOUS
 70
     0
  3
Solid line
 72
    65
 73
     0
 40
0.0
  0
LTYPE
  5
22
330
5
100
AcDbSymbolTableRecord
100
AcDbLinetypeTableRecord
  2
CENTER2
 70
     0
  3
Center (.5x) ___ _ ___ _ ___ _ ___ _ ___ _ ___
 72
    65
 73
     4
 40
28.575
 49
19.05
 74
     0
 49
-3.174999999999999
 74
     0
 49
3.174999999999999
 74
     0
 49
-3.174999999999999
 74
     0
  0
LTYPE
  5
24
330
5
100
AcDbSymbolTableRecord
100
AcDbLinetypeTableRecord
  2
PHANTOM2
 70
     0
  3
Phantom (.5x) ___ _ _ ___ _ _ ___ _ _ ___ _ _
 72
    65
 73
     6
 40
31.75
 49
15.875
 74
     0
 49
-3.174999999999999
 74
     0
 49
3.174999999999999
 74
     0
 49
-3.174999999999999
 74
     0
 49
3.174999999999999
 74
     0
 49
-3.174999999999999
 74
     0
  0
ENDTAB
  0
TABLE
  2
LAYER
  5
2
330
0
100
AcDbSymbolTable
 70
    16
  0
LAYER
  5
E
330
2
100
AcDbSymbolTableRecord
100
AcDbLayerTableRecord
  2
0
 70
     0
 62
     7
  6
CONTINUOUS
370
    -3
390
187C
  0
LAYER
  5
25
330
2
100
AcDbSymbolTableRecord
100
AcDbLayerTableRecord
  2
外形線
 70
     0
 62
     7
  6
CONTINUOUS
370
    -3
390
187C
  0
LAYER
  5
26
330
2
100
AcDbSymbolTableRecord
100
AcDbLayerTableRecord
  2
寸法線
 70
     0
 62
     2
  6
CONTINUOUS
370
    -3
390
187C
  0
LAYER
  5
27
330
2
100
AcDbSymbolTableRecord
100
AcDbLayerTableRecord
  2
中心線
 70
     0
 62
     4
  6
CENTER2
370
    -3
390
187C
  0
LAYER
  5
29
330
2
100
AcDbSymbolTableRecord
100
AcDbLayerTableRecord
  2
想像線
 70
     0
 62
     1
  6
PHANTOM2
370
    -3
390
187C
  0
LAYER
  5
2A
330
2
100
AcDbSymbolTableRecord
100
AcDbLayerTableRecord
  2
ﾊｯﾁﾝｸ
 70
     0
 62
     4
  6
CONTINUOUS
370
    -3
390
187C
  0
LAYER
  5
2B
330
2
100
AcDbSymbolTableRecord
100
AcDbLayerTableRecord
  2
文字
 70
     0
 62
     6
  6
CONTINUOUS
370
    -3
390
187C
  0
LAYER
  5
2C
330
2
100
AcDbSymbolTableRecord
100
AcDbLayerTableRecord
  2
目盛
 70
     0
 62
    70
  6
CONTINUOUS
370
    -3
390
187C
  0
LAYER
  5
2D
330
2
100
AcDbSymbolTableRecord
100
AcDbLayerTableRecord
  2
針
 70
     0
 62
     5
  6
CONTINUOUS
370
    -3
390
187C
  0
LAYER
  5
53
330
2
100
AcDbSymbolTableRecord
100
AcDbLayerTableRecord
  2
DEFPOINTS
 70
     0
 62
     7
  6
CONTINUOUS
290
     0
370
    -3
390
187C
  0
LAYER
  5
A5
330
2
100
AcDbSymbolTableRecord
100
AcDbLayerTableRecord
  2
C
 70
     0
 62
     7
  6
CONTINUOUS
370
    -3
390
187C
  0
LAYER
  5
E00
330
2
100
AcDbSymbolTableRecord
100
AcDbLayerTableRecord
  2
ROGO
 70
     0
 62
     6
  6
CONTINUOUS
370
    -3
390
187C
  0
ENDTAB
  0
TABLE
  2
STYLE
  5
3
330
0
100
AcDbSymbolTable
 70
     3
  0
STYLE
  5
F
330
3
100
AcDbSymbolTableRecord
100
AcDbTextStyleTableRecord
  2
STANDARD
 70
     0
 40
0.0
 41
1.0
 50
0.0
 71
     0
 42
2.5
  3
txt
  4

  0
STYLE
  5
3F
330
3
100
AcDbSymbolTableRecord
100
AcDbTextStyleTableRecord
  2
STYLE3
 70
     0
 40
0.0
 41
1.0
 50
0.0
 71
     0
 42
1.0
  3
romans.shx
  4
bigfont.shx
  0
ENDTAB
  0
TABLE
  2
VIEW
  5
6
330
0
100
AcDbSymbolTable
 70
     0
  0
ENDTAB
  0
TABLE
  2
UCS
  5
7
330
0
100
AcDbSymbolTable
 70
     0
  0
ENDTAB
  0
TABLE
  2
APPID
  5
9
330
0
100
AcDbSymbolTable
 70
     2
  0
APPID
  5
10
330
9
100
AcDbSymbolTableRecord
100
AcDbRegAppTableRecord
  2
ACAD
 70
     0
  0
APPID
  5
1889
330
9
100
AcDbSymbolTableRecord
100
AcDbRegAppTableRecord
  2
ACAD_PSEXT
 70
     0
  0
ENDTAB
  0
TABLE
  2
DIMSTYLE
  5
A
330
0
100
AcDbSymbolTable
 70
     5
100
AcDbDimStyleTable
 71
     1
340
66
  0
DIMSTYLE
105
1D
330
A
100
AcDbSymbolTableRecord
100
AcDbDimStyleTableRecord
  2
STANDARD
 70
     0
 41
2.5
 42
0.625
 43
3.75
 44
1.25
 73
     0
 74
     0
 77
     1
 78
     8
140
2.5
141
2.5
143
0.0394
147
0.625
171
     4
172
     1
273
     8
274
     4
277
     6
340
F
  0
DIMSTYLE
105
66
102
{ACAD_REACTORS
330
FB4
330
8BD
330
923
330
1EEB
330
1F24
102
}
330
A
100
AcDbSymbolTableRecord
100
AcDbDimStyleTableRecord
  2
STYLE2
 70
     0
 41
2.5
 42
0.0
 43
3.75
 44
1.25
 73
     0
 74
     0
 77
     1
 78
     8
140
2.5
141
2.5
143
0.0394
147
0.625
171
     4
172
     1
173
     1
176
     2
177
     2
178
     6
271
     1
273
     8
274
     4
340
3F
341
45
343
45
344
45
  0
DIMSTYLE
105
850
102
{ACAD_REACTORS
330
F30
102
}
330
A
100
AcDbSymbolTableRecord
100
AcDbDimStyleTableRecord
  2
STYLE4
 70
     0
 41
2.5
 42
0.0
 43
3.75
 44
1.25
 73
     0
 74
     0
 77
     1
 78
     8
140
2.5
141
2.5
143
0.0394
147
0.625
171
     4
172
     1
173
     1
176
     2
177
     2
178
     6
271
     0
273
     8
274
     4
340
3F
341
45
343
45
344
45
  0
DIMSTYLE
105
18E9
102
{ACAD_REACTORS
330
1EA9
102
}
330
A
100
AcDbSymbolTableRecord
100
AcDbDimStyleTableRecord
  2
.0 type現尺
 70
     0
 41
2.5
 42
0.0
 43
3.75
 44
1.25
 73
     0
 74
     0
 77
     1
 78
     1
140
2.5
141
2.5
143
0.0394
147
0.625
171
     4
172
     1
173
     1
176
     2
177
     2
178
     6
271
     1
272
     1
273
     8
274
     4
340
3F
343
45
344
45
  0
ENDTAB
  0
TABLE
  2
BLOCK_RECORD
  5
1
330
0
100
AcDbSymbolTable
 70
    12
  0
BLOCK_RECORD
  5
18
330
1
100
AcDbSymbolTableRecord
100
AcDbBlockTableRecord
  2
*MODEL_SPACE
340
1883
  0
BLOCK_RECORD
  5
15
330
1
100
AcDbSymbolTableRecord
100
AcDbBlockTableRecord
  2
*PAPER_SPACE
340
1884
  0
BLOCK_RECORD
  5
45
330
1
100
AcDbSymbolTableRecord
100
AcDbBlockTableRecord
  2
_OPEN
340
0
102
{BLKREFS
331
836
331
837
331
83E
331
83F
331
847
331
848
331
900
331
901
331
909
331
90A
331
912
331
913
331
F9D
331
FD7
331
FD8
331
FE0
331
FE1
331
10CC
331
10CD
331
10D5
331
10D6
331
1FD1
331
1FD2
331
1FDA
331
1FDB
331
1FE3
331
1FE4
331
1FEB
331
1FEC
331
1FF6
331
1FF7
331
2001
331
2002
331
200A
331
200B
102
}
  0
BLOCK_RECORD
  5
8B1
330
1
100
AcDbSymbolTableRecord
100
AcDbBlockTableRecord
  2
*D1
340
0
  0
BLOCK_RECORD
  5
918
330
1
100
AcDbSymbolTableRecord
100
AcDbBlockTableRecord
  2
*D2
340
0
  0
BLOCK_RECORD
  5
F24
330
1
100
AcDbSymbolTableRecord
100
AcDbBlockTableRecord
  2
*D3
340
0
  0
BLOCK_RECORD
  5
FA6
330
1
100
AcDbSymbolTableRecord
100
AcDbBlockTableRecord
  2
*D4
340
0
  0
BLOCK_RECORD
  5
1EAA
330
1
100
AcDbSymbolTableRecord
100
AcDbBlockTableRecord
  2
*D6
340
0
  0
BLOCK_RECORD
  5
1EEC
330
1
100
AcDbSymbolTableRecord
100
AcDbBlockTableRecord
  2
*D7
340
0
  0
BLOCK_RECORD
  5
1F25
330
1
100
AcDbSymbolTableRecord
100
AcDbBlockTableRecord
  2
*D8
340
0
  0
BLOCK_RECORD
  5
1F5E
330
1
100
AcDbSymbolTableRecord
100
AcDbBlockTableRecord
  2
A$C16CD0C5E
340
0
102
{BLKREFS
331
1F7B
102
}
  0
ENDTAB
  0
ENDSEC
  0
SECTION
  2
BLOCKS
  0
BLOCK
  5
19
330
18
100
AcDbEntity
  8
0
100
AcDbBlockBegin
  2
*MODEL_SPACE
 70
     0
 10
0.0
 20
0.0
 30
0.0
  3
*MODEL_SPACE
  1

  0
ENDBLK
  5
1A
330
18
100
AcDbEntity
  8
0
100
AcDbBlockEnd
  0
BLOCK
  5
16
330
15
100
AcDbEntity
 67
     1
  8
0
100
AcDbBlockBegin
  2
*PAPER_SPACE
 70
     0
 10
0.0
 20
0.0
 30
0.0
  3
*PAPER_SPACE
  1

  0
ENDBLK
  5
17
330
15
100
AcDbEntity
 67
     1
  8
0
100
AcDbBlockEnd
  0
BLOCK
  5
46
330
45
100
AcDbEntity
  8
0
100
AcDbBlockBegin
  2
_OPEN
 70
     0
 10
0.0
 20
0.0
 30
0.0
  3
_OPEN
  1

  0
LINE
  5
47
330
45
100
AcDbEntity
  8
0
  6
ByBlock
 62
     0
100
AcDbLine
 10
-1.0
 20
0.1666666666666666
 30
0.0
 11
0.0
 21
0.0
 31
0.0
  0
LINE
  5
48
330
45
100
AcDbEntity
  8
0
  6
ByBlock
 62
     0
100
AcDbLine
 10
0.0
 20
0.0
 30
0.0
 11
-1.0
 21
-0.1666666666666666
 31
0.0
  0
LINE
  5
49
330
45
100
AcDbEntity
  8
0
  6
ByBlock
 62
     0
100
AcDbLine
 10
0.0
 20
0.0
 30
0.0
 11
-1.0
 21
0.0
 31
0.0
  0
ENDBLK
  5
4A
330
45
100
AcDbEntity
  8
0
100
AcDbBlockEnd
  0
BLOCK
  5
184A
330
8B1
100
AcDbEntity
  8
0
100
AcDbBlockBegin
  2
*D1
 70
     1
 10
0.0
 20
0.0
 30
0.0
  3
*D1
  1

  0
LINE
  5
1FD7
330
8B1
100
AcDbEntity
  8
文字
 62
     2
370
    -2
100
AcDbLine
 10
399.4647004043691
 20
309.6209544957279
 30
0.0
 11
380.1849326683695
 21
309.620954495728
 31
0.0
  0
LINE
  5
1FD8
330
8B1
100
AcDbEntity
  8
文字
 62
     2
370
    -2
100
AcDbLine
 10
399.4647004043691
 20
256.820954495728
 30
0.0
 11
380.1849326683695
 21
256.820954495728
 31
0.0
  0
LINE
  5
1FD9
330
8B1
100
AcDbEntity
  8
文字
 62
     2
370
    -2
100
AcDbLine
 10
381.4349326683695
 20
307.120954495728
 30
0.0
 11
381.4349326683695
 21
259.320954495728
 31
0.0
  0
INSERT
  5
1FDA
330
8B1
100
AcDbEntity
  8
文字
 62
     2
370
    -2
100
AcDbBlockReference
  2
_OPEN
 10
381.4349326683695
 20
309.620954495728
 30
0.0
 41
2.5
 42
2.5
 43
2.5
 50
90.0
  0
INSERT
  5
1FDB
330
8B1
100
AcDbEntity
  8
文字
 62
     2
370
    -2
100
AcDbBlockReference
  2
_OPEN
 10
381.4349326683695
 20
256.820954495728
 30
0.0
 41
2.5
 42
2.5
 43
2.5
 50
270.0
  0
MTEXT
  5
1FDC
330
8B1
100
AcDbEntity
  8
文字
 62
     6
100
AcDbMText
 10
379.5599326683695
 20
283.220954495728
 30
0.0
 40
2.5
 41
0.0
 71
     5
 72
     1
  1
\A1;φ53
  7
STYLE3
 11
0.0000000000000001
 21
1.0
 31
0.0
 73
     1
 44
1.0
  0
POINT
  5
1FDD
330
8B1
100
AcDbEntity
  8
DEFPOINTS
 62
     0
100
AcDbPoint
 10
399.4647004043691
 20
309.6209544957279
 30
0.0
  0
POINT
  5
1FDE
330
8B1
100
AcDbEntity
  8
DEFPOINTS
 62
     0
100
AcDbPoint
 10
399.4647004043691
 20
256.820954495728
 30
0.0
  0
POINT
  5
1FDF
330
8B1
100
AcDbEntity
  8
DEFPOINTS
 62
     0
100
AcDbPoint
 10
381.4349326683695
 20
256.820954495728
 30
0.0
  0
ENDBLK
  5
1854
330
8B1
100
AcDbEntity
  8
0
100
AcDbBlockEnd
  0
BLOCK
  5
1855
330
918
100
AcDbEntity
  8
0
100
AcDbBlockBegin
  2
*D2
 70
     1
 10
0.0
 20
0.0
 30
0.0
  3
*D2
  1

  0
LINE
  5
1FCF
330
918
100
AcDbEntity
  8
文字
 62
     2
370
    -2
100
AcDbLine
 10
409.7647004043692
 20
218.220954495728
 30
0.0
 11
380.1849326683695
 21
218.220954495728
 31
0.0
  0
LINE
  5
1FD0
330
918
100
AcDbEntity
  8
文字
 62
     2
370
    -2
100
AcDbLine
 10
381.4349326683695
 20
254.320954495728
 30
0.0
 11
381.4349326683695
 21
220.7209544957279
 31
0.0
  0
INSERT
  5
1FD1
330
918
100
AcDbEntity
  8
文字
 62
     2
370
    -2
100
AcDbBlockReference
  2
_OPEN
 10
381.4349326683695
 20
256.820954495728
 30
0.0
 41
2.5
 42
2.5
 43
2.5
 50
90.0
  0
INSERT
  5
1FD2
330
918
100
AcDbEntity
  8
文字
 62
     2
370
    -2
100
AcDbBlockReference
  2
_OPEN
 10
381.4349326683695
 20
218.220954495728
 30
0.0
 41
2.5
 42
2.5
 43
2.5
 50
270.0
  0
MTEXT
  5
1FD3
330
918
100
AcDbEntity
  8
文字
 62
     6
100
AcDbMText
 10
379.5599326683695
 20
237.520954495728
 30
0.0
 40
2.5
 41
0.0
 71
     5
 72
     1
  1
\A1;38.5
  7
STYLE3
 11
0.0000000000000001
 21
1.0
 31
0.0
 73
     1
 44
1.0
  0
POINT
  5
1FD4
330
918
100
AcDbEntity
  8
DEFPOINTS
 62
     0
100
AcDbPoint
 10
399.4647004043691
 20
256.820954495728
 30
0.0
  0
POINT
  5
1FD5
330
918
100
AcDbEntity
  8
DEFPOINTS
 62
     0
100
AcDbPoint
 10
409.7647004043692
 20
218.220954495728
 30
0.0
  0
POINT
  5
1FD6
330
918
100
AcDbEntity
  8
DEFPOINTS
 62
     0
100
AcDbPoint
 10
381.4349326683695
 20
218.220954495728
 30
0.0
  0
ENDBLK
  5
185E
330
918
100
AcDbEntity
  8
0
100
AcDbBlockEnd
  0
BLOCK
  5
185F
330
F24
100
AcDbEntity
  8
0
100
AcDbBlockBegin
  2
*D3
 70
     1
 10
0.0
 20
0.0
 30
0.0
  3
*D3
  1

  0
LINE
  5
1FE0
330
F24
100
AcDbEntity
  8
寸法線
 62
     2
370
    -2
100
AcDbLine
 10
299.1308140152458
 20
283.2209544957279
 30
0.0
 11
299.1308140152458
 21
332.1260199569715
 31
0.0
  0
LINE
  5
1FE1
330
F24
100
AcDbEntity
  8
寸法線
 62
     2
370
    -2
100
AcDbLine
 10
345.1308140152458
 20
283.2209544957279
 30
0.0
 11
345.1308140152458
 21
332.1260199569715
 31
0.0
  0
LINE
  5
1FE2
330
F24
100
AcDbEntity
  8
寸法線
 62
     2
370
    -2
100
AcDbLine
 10
301.6308140152458
 20
330.8760199569714
 30
0.0
 11
342.6308140152458
 21
330.8760199569714
 31
0.0
  0
INSERT
  5
1FE3
330
F24
100
AcDbEntity
  8
寸法線
 62
     2
370
    -2
100
AcDbBlockReference
  2
_OPEN
 10
299.1308140152458
 20
330.8760199569714
 30
0.0
 41
2.5
 42
2.5
 43
2.5
 50
180.0
  0
INSERT
  5
1FE4
330
F24
100
AcDbEntity
  8
寸法線
 62
     2
370
    -2
100
AcDbBlockReference
  2
_OPEN
 10
345.1308140152458
 20
330.8760199569714
 30
0.0
 41
2.5
 42
2.5
 43
2.5
  0
MTEXT
  5
1FE5
330
F24
100
AcDbEntity
  8
寸法線
 62
     6
100
AcDbMText
 10
322.1308140152458
 20
332.7510199569715
 30
0.0
 40
2.5
 41
0.0
 71
     5
 72
     1
  1
\A1;%%c46
  7
STYLE3
 73
     1
 44
1.0
  0
POINT
  5
1FE6
330
F24
100
AcDbEntity
  8
DEFPOINTS
 62
     0
100
AcDbPoint
 10
299.1308140152458
 20
283.2209544957279
 30
0.0
  0
POINT
  5
1FE7
330
F24
100
AcDbEntity
  8
DEFPOINTS
 62
     0
100
AcDbPoint
 10
345.1308140152458
 20
283.2209544957279
 30
0.0
  0
POINT
  5
1FE8
330
F24
100
AcDbEntity
  8
DEFPOINTS
 62
     0
100
AcDbPoint
 10
345.1308140152458
 20
330.8760199569714
 30
0.0
  0
ENDBLK
  5
1869
330
F24
100
AcDbEntity
  8
0
100
AcDbBlockEnd
  0
BLOCK
  5
FA7
330
FA6
100
AcDbEntity
  8
0
100
AcDbBlockBegin
  2
*D4
 70
     1
 10
0.0
 20
0.0
 30
0.0
  3
*D4
  1

  0
LINE
  5
1FFC
330
FA6
100
AcDbEntity
  8
想像線
 62
     2
370
    -2
100
AcDbLine
 10
420.264700404369
 20
291.2225402391808
 30
0.0
 11
420.264700404369
 21
299.4862446829038
 31
0.0
  0
LINE
  5
1FFD
330
FA6
100
AcDbEntity
  8
想像線
 62
     2
370
    -2
100
AcDbLine
 10
425.2647004043691
 20
291.220954495728
 30
0.0
 11
425.2647004043691
 21
299.4862446829038
 31
0.0
  0
LINE
  5
1FFE
330
FA6
100
AcDbEntity
  8
想像線
 62
     2
370
    -2
100
AcDbLine
 10
417.764700404369
 20
298.2362446829037
 30
0.0
 11
415.264700404369
 21
298.2362446829037
 31
0.0
  0
LINE
  5
1FFF
330
FA6
100
AcDbEntity
  8
想像線
 62
     2
370
    -2
100
AcDbLine
 10
427.764700404369
 20
298.2362446829037
 30
0.0
 11
430.2647004043691
 21
298.2362446829037
 31
0.0
  0
LINE
  5
2000
330
FA6
100
AcDbEntity
  8
想像線
 62
     2
370
    -2
100
AcDbLine
 10
420.264700404369
 20
298.2362446829037
 30
0.0
 11
425.2647004043691
 21
298.2362446829037
 31
0.0
  0
INSERT
  5
2001
330
FA6
100
AcDbEntity
  8
想像線
 62
     2
370
    -2
100
AcDbBlockReference
  2
_OPEN
 10
420.264700404369
 20
298.2362446829037
 30
0.0
 41
2.5
 42
2.5
 43
2.5
  0
INSERT
  5
2002
330
FA6
100
AcDbEntity
  8
想像線
 62
     2
370
    -2
100
AcDbBlockReference
  2
_OPEN
 10
425.2647004043691
 20
298.2362446829037
 30
0.0
 41
2.5
 42
2.5
 43
2.5
 50
180.0
  0
MTEXT
  5
2003
330
FA6
100
AcDbEntity
  8
想像線
 62
     6
100
AcDbMText
 10
422.7647004043689
 20
300.1112446829038
 30
0.0
 40
2.5
 41
0.0
 71
     5
 72
     1
  1
\A1;5
  7
STYLE3
 73
     1
 44
1.0
  0
POINT
  5
2004
330
FA6
100
AcDbEntity
  8
DEFPOINTS
 62
     0
100
AcDbPoint
 10
420.264700404369
 20
291.2225402391808
 30
0.0
  0
POINT
  5
2005
330
FA6
100
AcDbEntity
  8
DEFPOINTS
 62
     0
100
AcDbPoint
 10
425.2647004043691
 20
291.220954495728
 30
0.0
  0
POINT
  5
2006
330
FA6
100
AcDbEntity
  8
DEFPOINTS
 62
     0
100
AcDbPoint
 10
425.2647004043691
 20
298.2362446829037
 30
0.0
  0
ENDBLK
  5
FB3
330
FA6
100
AcDbEntity
  8
0
100
AcDbBlockEnd
  0
BLOCK
  5
1EB3
330
1EAA
100
AcDbEntity
  8
0
100
AcDbBlockBegin
  2
*D6
 70
     1
 10
0.0
 20
0.0
 30
0.0
  3
*D6
  1

  0
LINE
  5
1FE9
330
1EAA
100
AcDbEntity
  8
寸法線
 62
     2
370
    -2
100
AcDbLine
 10
320.6308140152458
 20
249.4085160265202
 30
0.0
 11
323.6308140152458
 21
249.4085160265202
 31
0.0
  0
LINE
  5
1FEA
330
1EAA
100
AcDbEntity
  8
寸法線
 62
     2
370
    -2
100
AcDbLine
 10
326.1308140152458
 20
249.4085160265202
 30
0.0
 11
345.1546235390554
 21
249.4085160265202
 31
0.0
  0
INSERT
  5
1FEB
330
1EAA
100
AcDbEntity
  8
寸法線
 62
     2
370
    -2
100
AcDbBlockReference
  2
_OPEN
 10
318.1308140152458
 20
249.4085160265202
 30
0.0
 41
2.5
 42
2.5
 43
2.5
 50
180.0
  0
INSERT
  5
1FEC
330
1EAA
100
AcDbEntity
  8
寸法線
 62
     2
370
    -2
100
AcDbBlockReference
  2
_OPEN
 10
326.1308140152458
 20
249.4085160265202
 30
0.0
 41
2.5
 42
2.5
 43
2.5
  0
MTEXT
  5
1FED
330
1EAA
100
AcDbEntity
  8
寸法線
 62
     6
100
AcDbMText
 10
336.8927187771506
 20
252.0751826931868
 30
0.0
 40
2.5
 41
0.0
 71
     5
 72
     1
  1
%%C8.0{\H1.750000;\S 0^ -0.03;}
  7
STYLE3
 73
     1
 44
1.0
  0
POINT
  5
1FEE
330
1EAA
100
AcDbEntity
  8
DEFPOINTS
 62
     0
100
AcDbPoint
 10
318.1308140152458
 20
246.8184710028716
 30
0.0
  0
POINT
  5
1FEF
330
1EAA
100
AcDbEntity
  8
DEFPOINTS
 62
     0
100
AcDbPoint
 10
326.1308140152458
 20
246.9448143571963
 30
0.0
  0
POINT
  5
1FF0
330
1EAA
100
AcDbEntity
  8
DEFPOINTS
 62
     0
100
AcDbPoint
 10
326.1308140152458
 20
249.4085160265202
 30
0.0
  0
ENDBLK
  5
1EB4
330
1EAA
100
AcDbEntity
  8
0
100
AcDbBlockEnd
  0
BLOCK
  5
1EF8
330
1EEC
100
AcDbEntity
  8
0
100
AcDbBlockBegin
  2
*D7
 70
     1
 10
0.0
 20
0.0
 30
0.0
  3
*D7
  1

  0
LINE
  5
1FF1
330
1EEC
100
AcDbEntity
  8
寸法線
 62
     2
370
    -2
100
AcDbLine
 10
320.1308140152458
 20
231.188752562172
 30
0.0
 11
320.1308140152458
 21
232.4387525621721
 31
0.0
  0
LINE
  5
1FF2
330
1EEC
100
AcDbEntity
  8
寸法線
 62
     2
370
    -2
100
AcDbLine
 10
324.1308140152458
 20
231.188752562172
 30
0.0
 11
324.1308140152458
 21
232.4387525621721
 31
0.0
  0
LINE
  5
1FF3
330
1EEC
100
AcDbEntity
  8
寸法線
 62
     2
370
    -2
100
AcDbLine
 10
317.6308140152458
 20
231.188752562172
 30
0.0
 11
315.1308140152458
 21
231.188752562172
 31
0.0
  0
LINE
  5
1FF4
330
1EEC
100
AcDbEntity
  8
寸法線
 62
     2
370
    -2
100
AcDbLine
 10
326.6308140152458
 20
231.188752562172
 30
0.0
 11
334.4284330628648
 21
231.188752562172
 31
0.0
  0
LINE
  5
1FF5
330
1EEC
100
AcDbEntity
  8
寸法線
 62
     2
370
    -2
100
AcDbLine
 10
320.1308140152458
 20
231.188752562172
 30
0.0
 11
324.1308140152458
 21
231.188752562172
 31
0.0
  0
INSERT
  5
1FF6
330
1EEC
100
AcDbEntity
  8
寸法線
 62
     2
370
    -2
100
AcDbBlockReference
  2
_OPEN
 10
320.1308140152458
 20
231.188752562172
 30
0.0
 41
2.5
 42
2.5
 43
2.5
  0
INSERT
  5
1FF7
330
1EEC
100
AcDbEntity
  8
寸法線
 62
     2
370
    -2
100
AcDbBlockReference
  2
_OPEN
 10
324.1308140152458
 20
231.188752562172
 30
0.0
 41
2.5
 42
2.5
 43
2.5
 50
180.0
  0
MTEXT
  5
1FF8
330
1EEC
100
AcDbEntity
  8
寸法線
 62
     6
100
AcDbMText
 10
331.7796235390553
 20
233.0637525621721
 30
0.0
 40
2.5
 41
0.0
 71
     5
 72
     1
  1
\A1;%%C4
  7
STYLE3
 73
     1
 44
1.0
  0
POINT
  5
1FF9
330
1EEC
100
AcDbEntity
  8
DEFPOINTS
 62
     0
100
AcDbPoint
 10
320.1308140152458
 20
231.188752562172
 30
0.0
  0
POINT
  5
1FFA
330
1EEC
100
AcDbEntity
  8
DEFPOINTS
 62
     0
100
AcDbPoint
 10
324.1308140152458
 20
231.188752562172
 30
0.0
  0
POINT
  5
1FFB
330
1EEC
100
AcDbEntity
  8
DEFPOINTS
 62
     0
100
AcDbPoint
 10
324.1308140152458
 20
231.188752562172
 30
0.0
  0
ENDBLK
  5
1EF9
330
1EEC
100
AcDbEntity
  8
0
100
AcDbBlockEnd
  0
BLOCK
  5
1F2F
330
1F25
100
AcDbEntity
  8
0
100
AcDbBlockBegin
  2
*D8
 70
     1
 10
0.0
 20
0.0
 30
0.0
  3
*D8
  1

  0
LINE
  5
2007
330
1F25
100
AcDbEntity
  8
寸法線
 62
     2
370
    -2
100
AcDbLine
 10
416.264700404369
 20
307.7209544957279
 30
0.0
 11
450.0396413231006
 21
307.7209544957279
 31
0.0
  0
LINE
  5
2008
330
1F25
100
AcDbEntity
  8
寸法線
 62
     2
370
    -2
100
AcDbLine
 10
416.264700404369
 20
258.7209544957279
 30
0.0
 11
450.0396413231006
 21
258.7209544957279
 31
0.0
  0
LINE
  5
2009
330
1F25
100
AcDbEntity
  8
寸法線
 62
     2
370
    -2
100
AcDbLine
 10
448.7896413231005
 20
305.2209544957279
 30
0.0
 11
448.7896413231005
 21
261.2209544957279
 31
0.0
  0
INSERT
  5
200A
330
1F25
100
AcDbEntity
  8
寸法線
 62
     2
370
    -2
100
AcDbBlockReference
  2
_OPEN
 10
448.7896413231005
 20
307.7209544957279
 30
0.0
 41
2.5
 42
2.5
 43
2.5
 50
90.0
  0
INSERT
  5
200B
330
1F25
100
AcDbEntity
  8
寸法線
 62
     2
370
    -2
100
AcDbBlockReference
  2
_OPEN
 10
448.7896413231005
 20
258.7209544957279
 30
0.0
 41
2.5
 42
2.5
 43
2.5
 50
270.0
  0
MTEXT
  5
200C
330
1F25
100
AcDbEntity
  8
寸法線
 62
     6
100
AcDbMText
 10
446.9146413231005
 20
283.220954495728
 30
0.0
 40
2.5
 41
0.0
 71
     5
 72
     1
  1
\A1;%%C49
  7
STYLE3
 11
0.0000000000000001
 21
1.0
 31
0.0
 73
     1
 44
1.0
  0
POINT
  5
200D
330
1F25
100
AcDbEntity
  8
DEFPOINTS
 62
     0
100
AcDbPoint
 10
416.264700404369
 20
307.7209544957279
 30
0.0
  0
POINT
  5
200E
330
1F25
100
AcDbEntity
  8
DEFPOINTS
 62
     0
100
AcDbPoint
 10
416.264700404369
 20
258.7209544957279
 30
0.0
  0
POINT
  5
200F
330
1F25
100
AcDbEntity
  8
DEFPOINTS
 62
     0
100
AcDbPoint
 10
448.7896413231005
 20
258.7209544957279
 30
0.0
  0
ENDBLK
  5
1F30
330
1F25
100
AcDbEntity
  8
0
100
AcDbBlockEnd
  0
BLOCK
  5
1F5F
330
1F5E
100
AcDbEntity
  8
0
100
AcDbBlockBegin
  2
A$C16CD0C5E
 70
     0
 10
0.0
 20
0.0
 30
0.0
  3
A$C16CD0C5E
  1

  0
LINE
  5
1F60
330
1F5E
100
AcDbEntity
  8
外形線
100
AcDbLine
 10
0.0
 20
20.394984
 30
0.0
 11
140.791418
 21
20.394984
 31
0.0
  0
LINE
  5
1F61
330
1F5E
100
AcDbEntity
  8
外形線
100
AcDbLine
 10
0.0
 20
9.614777999999999
 30
0.0
 11
140.791418
 21
9.614777999999999
 31
0.0
  0
TEXT
  5
1F62
330
1F5E
100
AcDbEntity
  8
0
  6
Continuous
100
AcDbText
 10
1.457467
 20
11.512768
 30
0.0
 40
2.1
  1
Design and specifications are subject to change without notice for future improvement.
  7
STYLE3
100
AcDbText
  0
TEXT
  5
1F63
330
1F5E
100
AcDbEntity
  8
0
  6
Continuous
100
AcDbText
 10
1.748960999999999
 20
15.441916
 30
0.0
 40
3.5
  1
仕様及び外観は予告なく変更される場合がございますのでご了承下さい。
  7
STYLE3
100
AcDbText
  0
TEXT
  5
1F64
330
1F5E
100
AcDbEntity
  8
0
  6
Continuous
100
AcDbText
 10
1.165976
 20
1.74814
 30
0.0
 40
2.1
  1
3RD Angle Projection
  7
STYLE3
100
AcDbText
  0
TEXT
  5
1F65
330
1F5E
100
AcDbEntity
  8
0
  6
Continuous
100
AcDbText
 10
3.789419
 20
5.244423
 30
0.0
 40
3.0
  1
三　　角　　法
  7
STYLE3
100
AcDbText
  0
LINE
  5
1F66
330
1F5E
100
AcDbEntity
  8
外形線
100
AcDbLine
 10
0.0
 20
0.0
 30
0.0
 11
0.0
 21
20.394984
 31
0.0
  0
LINE
  5
1F67
330
1F5E
100
AcDbEntity
  8
外形線
100
AcDbLine
 10
102.022767
 20
9.614777999999999
 30
0.0
 11
102.022767
 21
0.0
 31
0.0
  0
LINE
  5
1F68
330
1F5E
100
AcDbEntity
  8
外形線
100
AcDbLine
 10
72.290417
 20
9.614777999999999
 30
0.0
 11
72.290417
 21
0.0
 31
0.0
  0
LINE
  5
1F69
330
1F5E
100
AcDbEntity
  8
外形線
100
AcDbLine
 10
52.76034499999999
 20
9.614777999999999
 30
0.0
 11
52.76034499999999
 21
0.0
 31
0.0
  0
LINE
  5
1F6A
330
1F5E
100
AcDbEntity
  8
外形線
100
AcDbLine
 10
35.27072800000001
 20
9.614777999999999
 30
0.0
 11
35.27072800000001
 21
0.0
 31
0.0
  0
TEXT
  5
1F6B
330
1F5E
100
AcDbEntity
  8
0
  6
Continuous
100
AcDbText
 10
36.728197
 20
5.250377999999999
 30
0.0
 40
3.0
  1
単位
  7
STYLE3
100
AcDbText
  0
TEXT
  5
1F6C
330
1F5E
100
AcDbEntity
  8
0
  6
Continuous
100
AcDbText
 10
36.899918
 20
1.748140999999999
 30
0.0
 40
2.1
  1
Unit
  7
STYLE3
100
AcDbText
  0
TEXT
  5
1F6D
330
1F5E
100
AcDbEntity
  8
0
  6
Continuous
100
AcDbText
 10
54.046093
 20
4.959019999999999
 30
0.0
 40
3.0
  1
尺 度
  7
STYLE3
100
AcDbText
  0
TEXT
  5
1F6E
330
1F5E
100
AcDbEntity
  8
0
  6
Continuous
100
AcDbText
 10
44.770245
 20
3.496283999999999
 30
0.0
 40
2.399999999999999
  1
mm
  7
STYLE3
100
AcDbText
  0
TEXT
  5
1F6F
330
1F5E
100
AcDbEntity
  8
0
  6
Continuous
100
AcDbText
 10
54.509308
 20
2.039498
 30
0.0
 40
2.1
  1
Scale
  7
STYLE3
100
AcDbText
  0
TEXT
  5
1F70
330
1F5E
100
AcDbEntity
  8
0
  6
Continuous
100
AcDbText
 10
64.128597
 20
3.787641
 30
0.0
 40
2.399999999999999
  1
1/1
  7
STYLE3
100
AcDbText
  0
TEXT
  5
1F71
330
1F5E
100
AcDbEntity
  8
0
  6
Continuous
100
AcDbText
 10
74.222368
 20
1.748141999999999
 30
0.0
 40
2.1
  1
Date
  7
STYLE3
100
AcDbText
  0
TEXT
  5
1F72
330
1F5E
100
AcDbEntity
  8
0
  6
Continuous
100
AcDbText
 10
73.83900699999999
 20
5.081224999999999
 30
0.0
 40
3.0
  1
日 付
  7
STYLE3
100
AcDbText
  0
TEXT
  5
1F73
330
1F5E
100
AcDbEntity
  8
0
  6
Continuous
100
AcDbText
 10
82.96717599999999
 20
3.496283
 30
0.0
 40
2.1
  1
2002.11.20
  7
STYLE3
100
AcDbText
  0
TEXT
  5
1F74
330
1F5E
100
AcDbEntity
  8
0
  6
Continuous
100
AcDbText
 10
103.37173
 20
5.535779999999999
 30
0.0
 40
3.0
  1
株式会社　尾崎製作所
  7
STYLE3
100
AcDbText
  0
TEXT
  5
1F75
330
1F5E
100
AcDbEntity
  8
0
  6
Continuous
100
AcDbText
 10
104.246209
 20
1.748140999999999
 30
0.0
 40
2.1
  1
OZAKI MFG. CO., LTD.
  7
STYLE3
100
AcDbText
  0
ENDBLK
  5
1F76
330
1F5E
100
AcDbEntity
  8
0
100
AcDbBlockEnd
  0
ENDSEC
  0
SECTION
  2
ENTITIES
  0
LINE
  5
244
330
18
100
AcDbEntity
  8
中心線
 48
0.5
100
AcDbLine
 10
286.9825935451912
 20
283.2209544957279
 30
0.0
 11
351.731445360878
 21
283.2209544957279
 31
0.0
  0
LINE
  5
245
102
{ACAD_REACTORS
330
2E8
102
}
330
18
100
AcDbEntity
  8
中心線
 48
0.5
100
AcDbLine
 10
322.1308140152457
 20
328.3291720608163
 30
0.0
 11
322.1308140152458
 21
215.3566995107027
 31
0.0
  0
CIRCLE
  5
246
330
18
100
AcDbEntity
  8
外形線
100
AcDbCircle
 10
322.1308140152458
 20
283.2209544957279
 30
0.0
 40
15.5
  0
CIRCLE
  5
247
330
18
100
AcDbEntity
  8
外形線
100
AcDbCircle
 10
322.1308140152458
 20
283.2209544957279
 30
0.0
 40
23.0
  0
CIRCLE
  5
248
330
18
100
AcDbEntity
  8
外形線
100
AcDbCircle
 10
322.1308140152458
 20
283.2209544957279
 30
0.0
 40
26.4
  0
LINE
  5
2A5
330
18
100
AcDbEntity
  8
目盛
100
AcDbLine
 10
327.8506814200376
 20
305.4983672016864
 30
0.0
 11
327.4279086118573
 21
303.8517758277678
 31
0.0
  0
LINE
  5
2A6
330
18
100
AcDbEntity
  8
目盛
100
AcDbLine
 10
326.4405842507176
 20
305.8135612624877
 30
0.0
 11
326.1220360159219
 21
304.143672936249
 31
0.0
  0
LINE
  5
2A7
330
18
100
AcDbEntity
  8
目盛
100
AcDbLine
 10
325.013478387225
 20
306.039592625961
 30
0.0
 11
324.8004118901657
 21
304.3529976337263
 31
0.0
  0
LINE
  5
2A8
330
18
100
AcDbEntity
  8
目盛
100
AcDbLine
 10
323.5749959644202
 20
306.1755692495782
 30
0.0
 11
323.4682520812203
 21
304.4789238112501
 31
0.0
  0
LINE
  5
2AC
330
18
100
AcDbEntity
  8
目盛
100
AcDbLine
 10
322.1308140152458
 20
306.2209544957279
 30
0.0
 11
322.1308140152458
 21
303.5209544957279
 31
0.0
  0
TEXT
  5
2AD
330
18
100
AcDbEntity
  8
文字
100
AcDbText
 10
320.9165034927969
 20
300.1043183570897
 30
0.0
 40
2.5
  1
0
  7
STYLE3
100
AcDbText
  0
TEXT
  5
2AE
330
18
100
AcDbEntity
  8
文字
100
AcDbText
 10
330.4524870730221
 20
296.1905070838357
 30
0.0
 40
2.5
  1
10
  7
STYLE3
100
AcDbText
  0
TEXT
  5
2AF
330
18
100
AcDbEntity
  8
文字
100
AcDbText
 10
337.2558986372176
 20
286.7095949153119
 30
0.0
 40
2.5
  1
20
  7
STYLE3
100
AcDbText
  0
TEXT
  5
2B0
330
18
100
AcDbEntity
  8
文字
100
AcDbText
 10
336.517686408466
 20
275.9721254246922
 30
0.0
 40
2.5
  1
30
  7
STYLE3
100
AcDbText
  0
TEXT
  5
2B1
330
18
100
AcDbEntity
  8
文字
100
AcDbText
 10
330.7201212700905
 20
267.3485253892517
 30
0.0
 40
2.5
  1
40
  7
STYLE3
100
AcDbText
  0
TEXT
  5
2B2
330
18
100
AcDbEntity
  8
文字
100
AcDbText
 10
319.7257815258156
 20
263.9232656721773
 30
0.0
 40
2.5
  1
50
  7
STYLE3
100
AcDbText
  0
TEXT
  5
2B3
330
18
100
AcDbEntity
  8
文字
100
AcDbText
 10
308.5724970059847
 20
267.4105600071173
 30
0.0
 40
2.5
  1
40
  7
STYLE3
100
AcDbText
  0
TEXT
  5
2B4
330
18
100
AcDbEntity
  8
文字
100
AcDbText
 10
302.8381599045259
 20
275.9958106098912
 30
0.0
 40
2.5
  1
30
  7
STYLE3
100
AcDbText
  0
TEXT
  5
2B5
330
18
100
AcDbEntity
  8
文字
100
AcDbText
 10
302.673273316654
 20
288.0006986876258
 30
0.0
 40
2.5
  1
20
  7
STYLE3
100
AcDbText
  0
TEXT
  5
2B6
330
18
100
AcDbEntity
  8
文字
100
AcDbText
 10
308.7391019247172
 20
296.0990937552674
 30
0.0
 40
2.5
  1
10
  7
STYLE3
100
AcDbText
  0
LINE
  5
2D3
330
18
100
AcDbEntity
  8
外形線
100
AcDbLine
 10
318.7308140152457
 20
238.2209544957279
 30
0.0
 11
325.5308140152458
 21
238.2209544957279
 31
0.0
  0
LINE
  5
2D4
330
18
100
AcDbEntity
  8
外形線
100
AcDbLine
 10
319.8808140152458
 20
227.2209544957279
 30
0.0
 11
324.3808140152458
 21
227.2209544957279
 31
0.0
  0
LINE
  5
2D5
330
18
100
AcDbEntity
  8
外形線
100
AcDbLine
 10
326.1308140152458
 20
257.1257442072478
 30
0.0
 11
326.1308140152458
 21
242.720954495728
 31
0.0
  0
LINE
  5
2D6
330
18
100
AcDbEntity
  8
外形線
100
AcDbLine
 10
318.1308140152458
 20
257.1257442072478
 30
0.0
 11
318.1308140152458
 21
242.7209544957279
 31
0.0
  0
LINE
  5
2D9
330
18
100
AcDbEntity
  8
外形線
100
AcDbLine
 10
324.1308140152457
 20
238.2209544957279
 30
0.0
 11
324.1308140152457
 21
227.2209544957279
 31
0.0
  0
LINE
  5
2DA
330
18
100
AcDbEntity
  8
外形線
100
AcDbLine
 10
320.1308140152458
 20
238.2209544957279
 30
0.0
 11
320.1308140152458
 21
227.2209544957279
 31
0.0
  0
LINE
  5
2DB
330
18
100
AcDbEntity
  8
外形線
100
AcDbLine
 10
324.6308140152458
 20
227.020954495728
 30
0.0
 11
324.6308140152457
 21
223.9209544957279
 31
0.0
  0
LINE
  5
2DC
102
{ACAD_REACTORS
330
2E8
102
}
330
18
100
AcDbEntity
  8
外形線
100
AcDbLine
 10
319.6308140152458
 20
227.020954495728
 30
0.0
 11
319.6308140152458
 21
223.9209544957279
 31
0.0
  0
LINE
  5
2DD
330
18
100
AcDbEntity
  8
外形線
100
AcDbLine
 10
319.8808140152458
 20
223.7209544957279
 30
0.0
 11
324.3808140152457
 21
223.7209544957279
 31
0.0
  0
LINE
  5
2DE
102
{ACAD_REACTORS
330
2E8
102
}
330
18
100
AcDbEntity
  8
外形線
100
AcDbLine
 10
319.6308140152457
 20
227.020954495728
 30
0.0
 11
324.6308140152458
 21
227.020954495728
 31
0.0
  0
LINE
  5
2DF
102
{ACAD_REACTORS
330
2E8
102
}
330
18
100
AcDbEntity
  8
外形線
100
AcDbLine
 10
319.6308140152457
 20
223.9209544957279
 30
0.0
 11
324.6308140152458
 21
223.9209544957279
 31
0.0
  0
LINE
  5
2E0
330
18
100
AcDbEntity
  8
外形線
100
AcDbLine
 10
324.3808140152458
 20
227.2209544957279
 30
0.0
 11
324.6308140152458
 21
227.020954495728
 31
0.0
  0
LINE
  5
2E1
330
18
100
AcDbEntity
  8
外形線
100
AcDbLine
 10
319.8808140152458
 20
227.2209544957279
 30
0.0
 11
319.6308140152458
 21
227.020954495728
 31
0.0
  0
LINE
  5
2E2
330
18
100
AcDbEntity
  8
外形線
100
AcDbLine
 10
324.6308140152458
 20
223.9209544957279
 30
0.0
 11
324.3808140152458
 21
223.7209544957279
 31
0.0
  0
LINE
  5
2E3
330
18
100
AcDbEntity
  8
外形線
100
AcDbLine
 10
319.6308140152458
 20
223.9209544957279
 30
0.0
 11
319.8808140152458
 21
223.7209544957279
 31
0.0
  0
LINE
  5
2E5
330
18
100
AcDbEntity
  8
外形線
100
AcDbLine
 10
320.8308140152457
 20
219.2209544957279
 30
0.0
 11
323.4308140152458
 21
219.2209544957279
 31
0.0
  0
LINE
  5
2E6
330
18
100
AcDbEntity
  8
外形線
100
AcDbLine
 10
324.3808140152458
 20
223.7209544957279
 30
0.0
 11
323.4308140152458
 21
219.2209544957279
 31
0.0
  0
LINE
  5
2E7
330
18
100
AcDbEntity
  8
外形線
100
AcDbLine
 10
319.8808140152458
 20
223.7209544957279
 30
0.0
 11
320.8308140152457
 21
219.2209544957279
 31
0.0
  0
HATCH
  5
2E8
330
18
100
AcDbEntity
  8
ﾊｯﾁﾝｸ
100
AcDbHatch
 10
0.0
 20
0.0
 30
0.0
210
0.0
220
0.0
230
1.0
  2
ANSI37
 70
     0
 71
     1
 91
        1
 92
        7
 72
     0
 73
     1
 93
        4
 10
319.6308140152459
 20
223.9209544957279
 10
322.1308140152458
 20
223.9209544957279
 10
322.1308140152459
 20
227.020954495728
 10
319.6308140152458
 20
227.020954495728
 97
        4
330
2DE
330
2DC
330
2DF
330
245
 75
     0
 76
     1
 52
0.0
 41
0.3
 77
     0
 78
     2
 53
45.0
 43
71.82337190173007
 44
153.9213778475811
 45
-0.6735192090801864
 46
0.6735192090801866
 79
     0
 53
135.0
 43
71.82337190173007
 44
153.9213778475811
 45
-0.6735192090801866
 46
-0.6735192090801864
 79
     0
 47
0.0297960672888047
 98
        1
 10
320.1689556988463
 20
225.5095926803999
  0
LINE
  5
5CF
330
18
100
AcDbEntity
  8
外形線
  6
Continuous
100
AcDbLine
 10
325.8308140152458
 20
323.7209544957278
 30
0.0
 11
325.8308140152458
 21
317.2209544957278
 31
0.0
  0
LINE
  5
5D0
330
18
100
AcDbEntity
  8
外形線
  6
Continuous
100
AcDbLine
 10
318.4308140152458
 20
323.7209544957278
 30
0.0
 11
318.4308140152458
 21
317.2209544957278
 31
0.0
  0
LINE
  5
5D1
330
18
100
AcDbEntity
  8
外形線
  6
Continuous
100
AcDbLine
 10
318.4308140152458
 20
323.7209544957278
 30
0.0
 11
325.8308140152458
 21
323.7209544957278
 31
0.0
  0
LINE
  5
5D2
330
18
100
AcDbEntity
  8
外形線
  6
Continuous
100
AcDbLine
 10
318.1308140152458
 20
317.2209544957278
 30
0.0
 11
326.1308140152457
 21
317.2209544957278
 31
0.0
  0
LINE
  5
5D3
330
18
100
AcDbEntity
  8
外形線
  6
Continuous
100
AcDbLine
 10
318.1308140152457
 20
311.2209544957278
 30
0.0
 11
326.1308140152457
 21
311.2209544957278
 31
0.0
  0
LINE
  5
5D4
330
18
100
AcDbEntity
  8
外形線
  6
Continuous
100
AcDbLine
 10
326.1308140152457
 20
317.2209544957278
 30
0.0
 11
326.1308140152457
 21
311.2209544957278
 31
0.0
  0
LINE
  5
5D5
330
18
100
AcDbEntity
  8
外形線
  6
Continuous
100
AcDbLine
 10
318.1308140152458
 20
317.2209544957278
 30
0.0
 11
318.1308140152458
 21
311.2209544957278
 31
0.0
  0
LINE
  5
5D6
330
18
100
AcDbEntity
  8
外形線
  6
Continuous
100
AcDbLine
 10
325.8308140152458
 20
311.2209544957278
 30
0.0
 11
325.8308140152458
 21
309.3603883074998
 31
0.0
  0
LINE
  5
5D7
330
18
100
AcDbEntity
  8
外形線
  6
Continuous
100
AcDbLine
 10
318.4308140152458
 20
311.2209544957278
 30
0.0
 11
318.4308140152458
 21
309.3603883074998
 31
0.0
  0
ARC
  5
5D9
330
18
100
AcDbEntity
  8
外形線
  6
Continuous
100
AcDbCircle
 10
322.1308140152457
 20
317.375954495728
 30
0.0
 40
7.344999999999885
100
AcDbArc
 50
59.75198538337817
 51
120.2480146166212
  0
HATCH
  5
5DA
330
18
100
AcDbEntity
  8
ﾊｯﾁﾝｸ
  6
Continuous
100
AcDbHatch
 10
0.0
 20
0.0
 30
0.0
210
0.0
220
0.0
230
1.0
  2
ANSI37
 70
     0
 71
     0
 91
        1
 92
        7
 72
     0
 73
     1
 93
        4
 10
322.1308140152459
 20
317.2209544957278
 10
318.1308140152458
 20
317.2209544957278
 10
318.1308140152458
 20
311.2209544957278
 10
322.1308140152459
 20
311.2209544957278
 97
        0
 75
     0
 76
     1
 52
0.0
 41
10.0
 77
     0
 78
     2
 53
45.0
 43
129.6578098787876
 44
162.1020162619285
 45
-0.8838834764831842
 46
0.8838834764831844
 79
     0
 53
135.0
 43
129.6578098787876
 44
162.1020162619285
 45
-0.8838834764831844
 46
-0.8838834764831842
 79
     0
 47
0.1856754751158765
 98
        1
 10
320.3839662322897
 20
314.9970005399143
  0
ARC
  5
692
330
18
100
AcDbEntity
  8
外形線
  6
Continuous
100
AcDbCircle
 10
500.9313670710354
 20
283.2209544957279
 30
0.0
 40
105.6666666666664
100
AcDbArc
 50
166.3144531747381
 51
193.685546825262
  0
LINE
  5
693
330
18
100
AcDbEntity
  8
外形線
  6
Continuous
100
AcDbLine
 10
398.2647004043691
 20
308.2209544957279
 30
0.0
 11
398.2647004043691
 21
258.2209544957279
 31
0.0
  0
LINE
  5
694
330
18
100
AcDbEntity
  8
外形線
  6
Continuous
100
AcDbLine
 10
399.4647004043691
 20
309.6209544957279
 30
0.0
 11
399.4647004043691
 21
256.820954495728
 31
0.0
  0
LINE
  5
695
330
18
100
AcDbEntity
  8
外形線
  6
Continuous
100
AcDbLine
 10
403.264700404369
 20
309.6209544957279
 30
0.0
 11
403.264700404369
 21
256.820954495728
 31
0.0
  0
LINE
  5
696
330
18
100
AcDbEntity
  8
外形線
  6
Continuous
100
AcDbLine
 10
404.7647004043691
 20
308.2209544957279
 30
0.0
 11
404.7647004043691
 21
258.2209544957279
 31
0.0
  0
LINE
  5
697
330
18
100
AcDbEntity
  8
外形線
  6
Continuous
100
AcDbLine
 10
416.264700404369
 20
307.720954495728
 30
0.0
 11
416.264700404369
 21
258.7209544957279
 31
0.0
  0
LINE
  5
69C
330
18
100
AcDbEntity
  8
外形線
  6
Continuous
100
AcDbLine
 10
399.4647004043691
 20
257.720954495728
 30
0.0
 11
398.2647004043691
 21
258.2209544957279
 31
0.0
  0
LINE
  5
6AD
330
18
100
AcDbEntity
  8
外形線
  6
CENTER2
100
AcDbLine
 10
404.7647004043691
 20
258.2209544957279
 30
0.0
 11
403.264700404369
 21
258.2209544957279
 31
0.0
  0
LINE
  5
6AE
330
18
100
AcDbEntity
  8
外形線
  6
Continuous
100
AcDbLine
 10
399.4647004043691
 20
256.820954495728
 30
0.0
 11
403.264700404369
 21
256.820954495728
 31
0.0
  0
LINE
  5
6AF
330
18
100
AcDbEntity
  8
外形線
  6
Continuous
 62
     4
100
AcDbLine
 10
399.4647004043691
 20
260.820954495728
 30
0.0
 11
403.264700404369
 21
260.820954495728
 31
0.0
  0
LINE
  5
6B0
330
18
100
AcDbEntity
  8
外形線
  6
Continuous
 62
     4
100
AcDbLine
 10
399.4647004043691
 20
259.8209544957279
 30
0.0
 11
403.264700404369
 21
259.8209544957279
 31
0.0
  0
LINE
  5
6B1
330
18
100
AcDbEntity
  8
外形線
  6
Continuous
 62
     4
100
AcDbLine
 10
399.4647004043691
 20
258.820954495728
 30
0.0
 11
403.264700404369
 21
258.820954495728
 31
0.0
  0
LINE
  5
6B2
330
18
100
AcDbEntity
  8
外形線
  6
Continuous
 62
     4
100
AcDbLine
 10
399.4647004043691
 20
257.8209544957279
 30
0.0
 11
403.264700404369
 21
257.8209544957279
 31
0.0
  0
ARC
  5
6B8
330
18
100
AcDbEntity
  8
外形線
  6
Continuous
100
AcDbCircle
 10
409.764700404369
 20
317.3759544957281
 30
0.0
 40
7.344999999999885
100
AcDbArc
 50
59.75198538337879
 51
120.2480146166218
  0
LINE
  5
6B9
330
18
100
AcDbEntity
  8
外形線
  6
Continuous
100
AcDbLine
 10
399.4647004043691
 20
308.7209544957279
 30
0.0
 11
398.2647004043691
 21
308.2209544957279
 31
0.0
  0
LINE
  5
6BA
330
18
100
AcDbEntity
  8
外形線
  6
Continuous
 62
     4
100
AcDbLine
 10
399.4647004043691
 20
261.8209544957279
 30
0.0
 11
403.264700404369
 21
261.8209544957279
 31
0.0
  0
LINE
  5
6BB
330
18
100
AcDbEntity
  8
外形線
  6
Continuous
 62
     4
100
AcDbLine
 10
403.264700404369
 20
281.220954495728
 30
0.0
 11
399.4647004043691
 21
281.220954495728
 31
0.0
  0
LINE
  5
6BC
330
18
100
AcDbEntity
  8
外形線
  6
Continuous
 62
     4
100
AcDbLine
 10
403.264700404369
 20
282.2209544957279
 30
0.0
 11
399.4647004043691
 21
282.2209544957279
 31
0.0
  0
LINE
  5
6BD
330
18
100
AcDbEntity
  8
外形線
  6
Continuous
 62
     4
100
AcDbLine
 10
403.264700404369
 20
283.2209544957279
 30
0.0
 11
399.4647004043691
 21
283.2209544957279
 31
0.0
  0
LINE
  5
6BE
330
18
100
AcDbEntity
  8
外形線
  6
Continuous
 62
     4
100
AcDbLine
 10
403.264700404369
 20
284.2209544957279
 30
0.0
 11
399.4647004043691
 21
284.2209544957279
 31
0.0
  0
LINE
  5
6BF
330
18
100
AcDbEntity
  8
外形線
  6
Continuous
 62
     4
100
AcDbLine
 10
403.264700404369
 20
286.2209544957279
 30
0.0
 11
399.4647004043691
 21
286.2209544957279
 31
0.0
  0
LINE
  5
6C0
330
18
100
AcDbEntity
  8
外形線
  6
Continuous
 62
     4
100
AcDbLine
 10
403.264700404369
 20
285.2209544957279
 30
0.0
 11
399.4647004043691
 21
285.2209544957279
 31
0.0
  0
LINE
  5
6C1
330
18
100
AcDbEntity
  8
外形線
  6
Continuous
 62
     4
100
AcDbLine
 10
399.4647004043691
 20
304.6209544957279
 30
0.0
 11
403.264700404369
 21
304.6209544957279
 31
0.0
  0
LINE
  5
6C2
330
18
100
AcDbEntity
  8
外形線
  6
Continuous
 62
     4
100
AcDbLine
 10
399.4647004043691
 20
305.6209544957279
 30
0.0
 11
403.264700404369
 21
305.6209544957279
 31
0.0
  0
LINE
  5
6C3
330
18
100
AcDbEntity
  8
外形線
  6
Continuous
 62
     4
100
AcDbLine
 10
399.4647004043691
 20
306.6209544957279
 30
0.0
 11
403.264700404369
 21
306.6209544957279
 31
0.0
  0
LINE
  5
6C4
330
18
100
AcDbEntity
  8
外形線
  6
Continuous
 62
     4
100
AcDbLine
 10
399.4647004043691
 20
307.6209544957279
 30
0.0
 11
403.264700404369
 21
307.6209544957279
 31
0.0
  0
LINE
  5
6C5
330
18
100
AcDbEntity
  8
外形線
  6
Continuous
100
AcDbLine
 10
413.464700404369
 20
323.7209544957279
 30
0.0
 11
406.064700404369
 21
323.7209544957279
 31
0.0
  0
LINE
  5
6C6
330
18
100
AcDbEntity
  8
外形線
  6
Continuous
100
AcDbLine
 10
413.764700404369
 20
317.2209544957279
 30
0.0
 11
405.764700404369
 21
317.2209544957279
 31
0.0
  0
LINE
  5
6C7
330
18
100
AcDbEntity
  8
外形線
  6
Continuous
100
AcDbLine
 10
413.764700404369
 20
311.2209544957279
 30
0.0
 11
405.764700404369
 21
311.2209544957279
 31
0.0
  0
LINE
  5
6C9
330
18
100
AcDbEntity
  8
外形線
  6
Continuous
100
AcDbLine
 10
413.764700404369
 20
317.2209544957279
 30
0.0
 11
413.764700404369
 21
311.2209544957279
 31
0.0
  0
LINE
  5
6CA
330
18
100
AcDbEntity
  8
外形線
  6
Continuous
100
AcDbLine
 10
413.464700404369
 20
311.2209544957279
 30
0.0
 11
413.464700404369
 21
307.720954495728
 31
0.0
  0
LINE
  5
6CB
330
18
100
AcDbEntity
  8
外形線
  6
Continuous
100
AcDbLine
 10
413.464700404369
 20
323.7209544957279
 30
0.0
 11
413.464700404369
 21
317.2209544957279
 31
0.0
  0
LINE
  5
6CC
330
18
100
AcDbEntity
  8
外形線
  6
Continuous
100
AcDbLine
 10
405.764700404369
 20
317.2209544957279
 30
0.0
 11
405.764700404369
 21
311.2209544957279
 31
0.0
  0
LINE
  5
6CD
330
18
100
AcDbEntity
  8
外形線
  6
CENTER2
100
AcDbLine
 10
404.7647004043691
 20
308.2209544957279
 30
0.0
 11
403.264700404369
 21
308.2209544957279
 31
0.0
  0
LINE
  5
6CE
330
18
100
AcDbEntity
  8
外形線
  6
Continuous
100
AcDbLine
 10
406.064700404369
 20
311.2209544957279
 30
0.0
 11
406.0647004043689
 21
307.720954495728
 31
0.0
  0
LINE
  5
6CF
330
18
100
AcDbEntity
  8
外形線
  6
Continuous
 62
     4
100
AcDbLine
 10
399.4647004043691
 20
308.6209544957279
 30
0.0
 11
403.264700404369
 21
308.6209544957279
 31
0.0
  0
LINE
  5
6D0
330
18
100
AcDbEntity
  8
外形線
  6
Continuous
100
AcDbLine
 10
399.4647004043691
 20
309.6209544957279
 30
0.0
 11
403.264700404369
 21
309.6209544957279
 31
0.0
  0
LINE
  5
6D1
330
18
100
AcDbEntity
  8
外形線
  6
Continuous
100
AcDbLine
 10
406.064700404369
 20
323.7209544957279
 30
0.0
 11
406.064700404369
 21
317.2209544957279
 31
0.0
  0
HATCH
  5
6DB
330
18
100
AcDbEntity
  8
ﾊｯﾁﾝｸ
  6
Continuous
100
AcDbHatch
 10
0.0
 20
0.0
 30
0.0
210
0.0
220
0.0
230
1.0
  2
ANSI37
 70
     0
 71
     0
 91
        1
 92
        7
 72
     0
 73
     1
 93
        4
 10
409.764700404369
 20
317.2209544957279
 10
405.764700404369
 20
317.2209544957279
 10
405.764700404369
 20
311.2209544957279
 10
409.764700404369
 20
311.2209544957279
 97
        0
 75
     0
 76
     1
 52
0.0
 41
10.0
 77
     0
 78
     2
 53
45.0
 43
217.2916962679109
 44
162.1020162619285
 45
-0.8838834764831842
 46
0.8838834764831844
 79
     0
 53
135.0
 43
217.2916962679109
 44
162.1020162619285
 45
-0.8838834764831844
 46
-0.8838834764831842
 79
     0
 47
0.1856754751158765
 98
        1
 10
408.0178526214129
 20
314.9970005399144
  0
MTEXT
  5
778
330
18
100
AcDbEntity
  8
DEFPOINTS
  6
Continuous
100
AcDbMText
 10
735.8166661286731
 20
235.565234348894
 30
0.0
 40
1.0
 41
0.0
 71
     4
 72
     1
  1
\A1;
 73
     1
 44
1.0
  0
LINE
  5
789
330
18
100
AcDbEntity
  8
中心線
 48
0.5
100
AcDbLine
 10
409.764700404369
 20
332.0314083867773
 30
0.0
 11
409.7647004043691
 21
215.3023721596797
 31
0.0
  0
LINE
  5
78E
330
18
100
AcDbEntity
  8
外形線
100
AcDbLine
 10
404.7647004043691
 20
258.7209544957279
 30
0.0
 11
416.264700404369
 21
258.7209544957279
 31
0.0
  0
LINE
  5
78F
330
18
100
AcDbEntity
  8
外形線
100
AcDbLine
 10
404.7647004043691
 20
307.720954495728
 30
0.0
 11
416.264700404369
 21
307.720954495728
 31
0.0
  0
LINE
  5
795
330
18
100
AcDbEntity
  8
外形線
100
AcDbLine
 10
318.1308140152458
 20
242.7209544957279
 30
0.0
 11
326.1308140152458
 21
242.720954495728
 31
0.0
  0
LINE
  5
796
330
18
100
AcDbEntity
  8
外形線
100
AcDbLine
 10
318.5308140152458
 20
240.2209544957279
 30
0.0
 11
325.7308140152458
 21
240.220954495728
 31
0.0
  0
LINE
  5
797
330
18
100
AcDbEntity
  8
外形線
100
AcDbLine
 10
318.2808140152458
 20
241.220954495728
 30
0.0
 11
325.9808140152458
 21
241.220954495728
 31
0.0
  0
LINE
  5
79F
330
18
100
AcDbEntity
  8
外形線
100
AcDbLine
 10
318.5308140152458
 20
240.2209544957279
 30
0.0
 11
318.5308140152458
 21
238.4209544957279
 31
0.0
  0
LINE
  5
7A0
330
18
100
AcDbEntity
  8
外形線
100
AcDbLine
 10
325.7308140152458
 20
238.4209544957279
 30
0.0
 11
325.7308140152458
 21
240.2209544957279
 31
0.0
  0
LINE
  5
7A1
330
18
100
AcDbEntity
  8
外形線
100
AcDbLine
 10
325.7308140152458
 20
238.4209544957279
 30
0.0
 11
325.5308140152458
 21
238.2209544957279
 31
0.0
  0
LINE
  5
7A2
330
18
100
AcDbEntity
  8
外形線
100
AcDbLine
 10
318.5308140152458
 20
238.4209544957279
 30
0.0
 11
318.7308140152457
 21
238.2209544957279
 31
0.0
  0
LINE
  5
7A5
330
18
100
AcDbEntity
  8
外形線
100
AcDbLine
 10
318.2808140152458
 20
242.7209544957279
 30
0.0
 11
318.2808140152458
 21
241.220954495728
 31
0.0
  0
LINE
  5
7A6
330
18
100
AcDbEntity
  8
外形線
100
AcDbLine
 10
325.9808140152458
 20
242.7209544957279
 30
0.0
 11
325.9808140152458
 21
241.220954495728
 31
0.0
  0
ARC
  5
7AC
330
18
100
AcDbEntity
  8
外形線
100
AcDbCircle
 10
325.8558140152458
 20
240.7209544957279
 30
0.0
 40
0.5153882032022076
100
AcDbArc
 50
75.96375653207353
 51
255.9637565320735
  0
ARC
  5
7AD
330
18
100
AcDbEntity
  8
外形線
100
AcDbCircle
 10
318.4058140152458
 20
240.7209544957279
 30
0.0
 40
0.5153882032022076
100
AcDbArc
 50
284.0362434679264
 51
104.0362434679264
  0
LINE
  5
7B0
330
18
100
AcDbEntity
  8
外形線
100
AcDbLine
 10
411.764700404369
 20
238.2209544957279
 30
0.0
 11
411.764700404369
 21
227.2209544957279
 31
0.0
  0
LINE
  5
7B1
330
18
100
AcDbEntity
  8
外形線
100
AcDbLine
 10
407.7647004043691
 20
238.2209544957279
 30
0.0
 11
407.7647004043691
 21
227.2209544957279
 31
0.0
  0
LINE
  5
7B2
330
18
100
AcDbEntity
  8
外形線
100
AcDbLine
 10
412.2647004043691
 20
227.020954495728
 30
0.0
 11
412.264700404369
 21
223.9209544957279
 31
0.0
  0
LINE
  5
7B3
330
18
100
AcDbEntity
  8
外形線
100
AcDbLine
 10
407.2647004043691
 20
227.020954495728
 30
0.0
 11
407.2647004043691
 21
223.9209544957279
 31
0.0
  0
HATCH
  5
7B4
330
18
100
AcDbEntity
  8
ﾊｯﾁﾝｸ
100
AcDbHatch
 10
0.0
 20
0.0
 30
0.0
210
0.0
220
0.0
230
1.0
  2
ANSI37
 70
     0
 71
     0
 91
        1
 92
        7
 72
     0
 73
     1
 93
        4
 10
407.2647004043691
 20
223.9209544957279
 10
409.7647004043691
 20
223.9209544957279
 10
409.7647004043691
 20
227.020954495728
 10
407.2647004043692
 20
227.020954495728
 97
        0
 75
     0
 76
     1
 52
0.0
 41
0.3
 77
     0
 78
     2
 53
45.0
 43
159.4572582908534
 44
153.9213778475811
 45
-0.6735192090801864
 46
0.6735192090801866
 79
     0
 53
135.0
 43
159.4572582908534
 44
153.9213778475811
 45
-0.6735192090801866
 46
-0.6735192090801864
 79
     0
 47
0.0297960672888047
 98
        1
 10
407.8028420879697
 20
225.5095926803999
  0
LINE
  5
7B5
330
18
100
AcDbEntity
  8
外形線
100
AcDbLine
 10
408.4647004043691
 20
219.2209544957279
 30
0.0
 11
411.064700404369
 21
219.2209544957279
 31
0.0
  0
LINE
  5
7B7
330
18
100
AcDbEntity
  8
外形線
100
AcDbLine
 10
407.5147004043691
 20
223.7209544957279
 30
0.0
 11
412.014700404369
 21
223.7209544957279
 31
0.0
  0
LINE
  5
7B8
330
18
100
AcDbEntity
  8
外形線
100
AcDbLine
 10
407.264700404369
 20
223.9209544957279
 30
0.0
 11
412.2647004043691
 21
223.9209544957279
 31
0.0
  0
LINE
  5
7B9
330
18
100
AcDbEntity
  8
外形線
100
AcDbLine
 10
407.5147004043691
 20
223.7209544957279
 30
0.0
 11
408.4647004043691
 21
219.2209544957279
 31
0.0
  0
LINE
  5
7BA
330
18
100
AcDbEntity
  8
外形線
100
AcDbLine
 10
407.2647004043691
 20
223.9209544957279
 30
0.0
 11
407.5147004043691
 21
223.7209544957279
 31
0.0
  0
LINE
  5
7BB
330
18
100
AcDbEntity
  8
外形線
100
AcDbLine
 10
412.0147004043691
 20
223.7209544957279
 30
0.0
 11
411.064700404369
 21
219.2209544957279
 31
0.0
  0
LINE
  5
7BC
330
18
100
AcDbEntity
  8
外形線
100
AcDbLine
 10
412.2647004043691
 20
223.9209544957279
 30
0.0
 11
412.0147004043691
 21
223.7209544957279
 31
0.0
  0
LINE
  5
7BD
330
18
100
AcDbEntity
  8
外形線
100
AcDbLine
 10
407.5147004043691
 20
227.2209544957279
 30
0.0
 11
412.0147004043691
 21
227.2209544957279
 31
0.0
  0
LINE
  5
7BE
330
18
100
AcDbEntity
  8
外形線
100
AcDbLine
 10
407.264700404369
 20
227.020954495728
 30
0.0
 11
412.2647004043691
 21
227.020954495728
 31
0.0
  0
LINE
  5
7BF
330
18
100
AcDbEntity
  8
外形線
100
AcDbLine
 10
407.5147004043691
 20
227.2209544957279
 30
0.0
 11
407.2647004043691
 21
227.020954495728
 31
0.0
  0
LINE
  5
7C0
330
18
100
AcDbEntity
  8
外形線
100
AcDbLine
 10
412.0147004043691
 20
227.2209544957279
 30
0.0
 11
412.2647004043691
 21
227.020954495728
 31
0.0
  0
LINE
  5
7C1
330
18
100
AcDbEntity
  8
外形線
100
AcDbLine
 10
413.7647004043691
 20
258.7209544957279
 30
0.0
 11
413.7647004043691
 21
242.720954495728
 31
0.0
  0
LINE
  5
7C2
330
18
100
AcDbEntity
  8
外形線
100
AcDbLine
 10
405.7647004043692
 20
258.7209544957279
 30
0.0
 11
405.7647004043691
 21
242.7209544957279
 31
0.0
  0
LINE
  5
7C3
330
18
100
AcDbEntity
  8
外形線
100
AcDbLine
 10
406.1647004043691
 20
240.2209544957279
 30
0.0
 11
406.1647004043691
 21
238.4209544957279
 31
0.0
  0
LINE
  5
7C4
330
18
100
AcDbEntity
  8
外形線
100
AcDbLine
 10
413.3647004043691
 20
238.4209544957279
 30
0.0
 11
413.3647004043691
 21
240.2209544957279
 31
0.0
  0
LINE
  5
7C5
330
18
100
AcDbEntity
  8
外形線
100
AcDbLine
 10
406.3647004043691
 20
238.2209544957279
 30
0.0
 11
413.1647004043691
 21
238.2209544957279
 31
0.0
  0
LINE
  5
7C6
330
18
100
AcDbEntity
  8
外形線
100
AcDbLine
 10
406.1647004043691
 20
238.4209544957279
 30
0.0
 11
406.3647004043691
 21
238.2209544957279
 31
0.0
  0
LINE
  5
7C7
330
18
100
AcDbEntity
  8
外形線
100
AcDbLine
 10
413.3647004043691
 20
238.4209544957279
 30
0.0
 11
413.1647004043691
 21
238.2209544957279
 31
0.0
  0
LINE
  5
7C8
330
18
100
AcDbEntity
  8
外形線
100
AcDbLine
 10
405.914700404369
 20
241.220954495728
 30
0.0
 11
413.6147004043691
 21
241.220954495728
 31
0.0
  0
LINE
  5
7C9
330
18
100
AcDbEntity
  8
外形線
100
AcDbLine
 10
406.1647004043691
 20
240.2209544957279
 30
0.0
 11
413.3647004043691
 21
240.220954495728
 31
0.0
  0
LINE
  5
7CA
330
18
100
AcDbEntity
  8
外形線
100
AcDbLine
 10
405.7647004043691
 20
242.7209544957279
 30
0.0
 11
413.7647004043691
 21
242.720954495728
 31
0.0
  0
ARC
  5
7CB
330
18
100
AcDbEntity
  8
外形線
100
AcDbCircle
 10
406.0397004043691
 20
240.7209544957279
 30
0.0
 40
0.5153882032022076
100
AcDbArc
 50
284.0362434679264
 51
104.0362434679264
  0
LINE
  5
7CC
330
18
100
AcDbEntity
  8
外形線
100
AcDbLine
 10
405.914700404369
 20
242.7209544957279
 30
0.0
 11
405.914700404369
 21
241.220954495728
 31
0.0
  0
ARC
  5
7CD
330
18
100
AcDbEntity
  8
外形線
100
AcDbCircle
 10
413.4897004043692
 20
240.7209544957279
 30
0.0
 40
0.5153882032022076
100
AcDbArc
 50
75.96375653207353
 51
255.9637565320735
  0
LINE
  5
7CE
330
18
100
AcDbEntity
  8
外形線
100
AcDbLine
 10
413.6147004043691
 20
242.7209544957279
 30
0.0
 11
413.6147004043691
 21
241.220954495728
 31
0.0
  0
LINE
  5
7D6
330
18
100
AcDbEntity
  8
中心線
 48
0.5
100
AcDbLine
 10
391.7880006584151
 20
283.2209544957279
 30
0.0
 11
440.0748885723298
 21
283.2209544957279
 31
0.0
  0
LINE
  5
833
330
18
100
AcDbEntity
  8
0
  6
ByBlock
 62
     2
100
AcDbLine
 10
322.1308140152457
 20
324.7209544957279
 30
0.0
 11
281.4664886788118
 21
324.7209544957279
 31
0.0
  0
LINE
  5
835
330
18
100
AcDbEntity
  8
0
  6
ByBlock
 62
     2
100
AcDbLine
 10
288.2325935451912
 20
322.220954495728
 30
0.0
 11
288.2325935451912
 21
285.7209544957279
 31
0.0
  0
INSERT
  5
836
330
18
100
AcDbEntity
  8
0
  6
ByBlock
 62
     2
100
AcDbBlockReference
  2
_OPEN
 10
288.2325935451912
 20
324.7209544957279
 30
0.0
 41
2.5
 42
2.5
 43
2.5
 50
90.0
  0
INSERT
  5
837
330
18
100
AcDbEntity
  8
0
  6
ByBlock
 62
     2
100
AcDbBlockReference
  2
_OPEN
 10
288.2325935451912
 20
283.2209544957279
 30
0.0
 41
2.5
 42
2.5
 43
2.5
 50
270.0
  0
MTEXT
  5
838
330
18
100
AcDbEntity
  8
0
  6
ByBlock
 62
     6
100
AcDbMText
 10
286.3575935451912
 20
303.9709544957279
 30
0.0
 40
2.5
 41
0.0
 71
     5
 72
     1
  1
\A1;41.5
  7
STYLE3
 11
0.0000000000000001
 21
1.0
 31
0.0
 73
     1
 44
1.0
  0
POINT
  5
839
330
18
100
AcDbEntity
  8
DEFPOINTS
  6
ByBlock
 62
     0
100
AcDbPoint
 10
322.1308140152457
 20
324.7209544957279
 30
0.0
  0
POINT
  5
83A
330
18
100
AcDbEntity
  8
DEFPOINTS
  6
ByBlock
 62
     0
100
AcDbPoint
 10
322.1308140152457
 20
283.2209544957279
 30
0.0
  0
LINE
  5
83C
330
18
100
AcDbEntity
  8
0
  6
ByBlock
 62
     2
100
AcDbLine
 10
322.1308140152458
 20
218.220954495728
 30
0.0
 11
281.466488678812
 21
218.220954495728
 31
0.0
  0
LINE
  5
83D
330
18
100
AcDbEntity
  8
0
  6
ByBlock
 62
     2
100
AcDbLine
 10
288.2325935451912
 20
280.7209544957279
 30
0.0
 11
288.2325935451912
 21
220.7209544957279
 31
0.0
  0
INSERT
  5
83E
330
18
100
AcDbEntity
  8
0
  6
ByBlock
 62
     2
100
AcDbBlockReference
  2
_OPEN
 10
288.2325935451912
 20
283.2209544957279
 30
0.0
 41
2.5
 42
2.5
 43
2.5
 50
90.0
  0
INSERT
  5
83F
330
18
100
AcDbEntity
  8
0
  6
ByBlock
 62
     2
100
AcDbBlockReference
  2
_OPEN
 10
288.2325935451912
 20
218.220954495728
 30
0.0
 41
2.5
 42
2.5
 43
2.5
 50
270.0
  0
MTEXT
  5
840
330
18
100
AcDbEntity
  8
0
  6
ByBlock
 62
     6
100
AcDbMText
 10
286.3575935451912
 20
250.7209544957279
 30
0.0
 40
2.5
 41
0.0
 71
     5
 72
     1
  1
\A1;65
  7
STYLE3
 11
0.0000000000000001
 21
1.0
 31
0.0
 73
     1
 44
1.0
  0
POINT
  5
841
330
18
100
AcDbEntity
  8
DEFPOINTS
  6
ByBlock
 62
     0
100
AcDbPoint
 10
322.1308140152457
 20
283.2209544957279
 30
0.0
  0
POINT
  5
842
330
18
100
AcDbEntity
  8
DEFPOINTS
  6
ByBlock
 62
     0
100
AcDbPoint
 10
322.1308140152458
 20
218.220954495728
 30
0.0
  0
POINT
  5
843
330
18
100
AcDbEntity
  8
DEFPOINTS
  6
ByBlock
 62
     0
100
AcDbPoint
 10
288.2325935451912
 20
218.220954495728
 30
0.0
  0
LINE
  5
846
330
18
100
AcDbEntity
  8
0
  6
ByBlock
 62
     2
100
AcDbLine
 10
282.7164886788119
 20
322.220954495728
 30
0.0
 11
282.7164886788119
 21
220.7209544957279
 31
0.0
  0
INSERT
  5
847
330
18
100
AcDbEntity
  8
0
  6
ByBlock
 62
     2
100
AcDbBlockReference
  2
_OPEN
 10
282.7164886788119
 20
324.7209544957279
 30
0.0
 41
2.5
 42
2.5
 43
2.5
 50
90.0
  0
INSERT
  5
848
330
18
100
AcDbEntity
  8
0
  6
ByBlock
 62
     2
100
AcDbBlockReference
  2
_OPEN
 10
282.7164886788119
 20
218.220954495728
 30
0.0
 41
2.5
 42
2.5
 43
2.5
 50
270.0
  0
MTEXT
  5
849
330
18
100
AcDbEntity
  8
0
  6
ByBlock
 62
     6
100
AcDbMText
 10
280.8414886788118
 20
271.4709544957279
 30
0.0
 40
2.5
 41
0.0
 71
     5
 72
     1
  1
\A1;106.5
  7
STYLE3
 11
0.0000000000000001
 21
1.0
 31
0.0
 73
     1
 44
1.0
  0
POINT
  5
84A
330
18
100
AcDbEntity
  8
DEFPOINTS
  6
ByBlock
 62
     0
100
AcDbPoint
 10
286.9825935451912
 20
324.7209544957279
 30
0.0
  0
POINT
  5
84B
330
18
100
AcDbEntity
  8
DEFPOINTS
  6
ByBlock
 62
     0
100
AcDbPoint
 10
286.9825935451912
 20
218.220954495728
 30
0.0
  0
POINT
  5
84C
330
18
100
AcDbEntity
  8
DEFPOINTS
  6
ByBlock
 62
     0
100
AcDbPoint
 10
282.7164886788119
 20
218.220954495728
 30
0.0
  0
MTEXT
  5
887
330
18
100
AcDbEntity
  8
文字
100
AcDbMText
 10
302.9558756866726
 20
261.6432165871282
 30
0.0
 40
1.0
 41
6.927999999999999
 71
     1
 72
     5
  1

  7
STYLE3
 73
     1
 44
1.0
  0
DIMENSION
  5
8BD
330
18
100
AcDbEntity
  8
文字
100
AcDbDimension
  2
*D1
 10
381.4349326683695
 20
256.820954495728
 30
0.0
 11
379.5599326683695
 21
283.220954495728
 31
0.0
 70
    32
  1
φ53
 71
     5
 42
52.79999999999995
  3
STYLE2
100
AcDbAlignedDimension
 13
399.4647004043691
 23
309.6209544957279
 33
0.0
 14
399.4647004043691
 24
256.820954495728
 34
0.0
 50
90.0
100
AcDbRotatedDimension
  0
LINE
  5
8FD
330
18
100
AcDbEntity
  8
0
  6
ByBlock
 62
     2
100
AcDbLine
 10
407.5147004043691
 20
227.2209544957279
 30
0.0
 11
394.8276394147126
 21
227.2209544957279
 31
0.0
  0
LINE
  5
8FF
330
18
100
AcDbEntity
  8
0
  6
ByBlock
 62
     2
100
AcDbLine
 10
396.0776394147126
 20
224.7209544957279
 30
0.0
 11
396.0776394147126
 21
220.7209544957279
 31
0.0
  0
INSERT
  5
900
330
18
100
AcDbEntity
  8
0
  6
ByBlock
 62
     2
100
AcDbBlockReference
  2
_OPEN
 10
396.0776394147126
 20
227.2209544957279
 30
0.0
 41
2.5
 42
2.5
 43
2.5
 50
90.0
  0
INSERT
  5
901
330
18
100
AcDbEntity
  8
0
  6
ByBlock
 62
     2
100
AcDbBlockReference
  2
_OPEN
 10
396.0776394147126
 20
218.220954495728
 30
0.0
 41
2.5
 42
2.5
 43
2.5
 50
270.0
  0
MTEXT
  5
902
330
18
100
AcDbEntity
  8
0
  6
ByBlock
 62
     6
100
AcDbMText
 10
394.2026394147126
 20
222.7209544957279
 30
0.0
 40
2.5
 41
0.0
 71
     5
 72
     1
  1
\A1;9
  7
STYLE3
 11
0.0000000000000001
 21
1.0
 31
0.0
 73
     1
 44
1.0
  0
POINT
  5
903
330
18
100
AcDbEntity
  8
DEFPOINTS
  6
ByBlock
 62
     0
100
AcDbPoint
 10
407.5147004043691
 20
227.2209544957279
 30
0.0
  0
LINE
  5
907
330
18
100
AcDbEntity
  8
0
  6
ByBlock
 62
     2
100
AcDbLine
 10
405.7647004043691
 20
242.7209544957279
 30
0.0
 11
394.2205022132553
 21
242.7209544957279
 31
0.0
  0
LINE
  5
908
330
18
100
AcDbEntity
  8
0
  6
ByBlock
 62
     2
100
AcDbLine
 10
395.4705022132553
 20
254.320954495728
 30
0.0
 11
395.4705022132553
 21
245.2209544957279
 31
0.0
  0
INSERT
  5
909
330
18
100
AcDbEntity
  8
0
  6
ByBlock
 62
     2
100
AcDbBlockReference
  2
_OPEN
 10
395.4705022132553
 20
256.820954495728
 30
0.0
 41
2.5
 42
2.5
 43
2.5
 50
90.0
  0
INSERT
  5
90A
330
18
100
AcDbEntity
  8
0
  6
ByBlock
 62
     2
100
AcDbBlockReference
  2
_OPEN
 10
395.4705022132553
 20
242.7209544957279
 30
0.0
 41
2.5
 42
2.5
 43
2.5
 50
270.0
  0
MTEXT
  5
90B
330
18
100
AcDbEntity
  8
0
  6
ByBlock
 62
     6
100
AcDbMText
 10
393.5955022132553
 20
249.770954495728
 30
0.0
 40
2.5
 41
0.0
 71
     5
 72
     1
  1
14
  7
STYLE3
 11
0.0000000000000001
 21
1.0
 31
0.0
 73
     1
 44
1.0
  0
POINT
  5
90D
330
18
100
AcDbEntity
  8
DEFPOINTS
  6
ByBlock
 62
     0
100
AcDbPoint
 10
405.7647004043691
 20
242.7209544957279
 30
0.0
  0
POINT
  5
90E
330
18
100
AcDbEntity
  8
DEFPOINTS
  6
ByBlock
 62
     0
100
AcDbPoint
 10
395.4705022132553
 20
242.7209544957279
 30
0.0
  0
LINE
  5
910
330
18
100
AcDbEntity
  8
0
  6
ByBlock
 62
     2
100
AcDbLine
 10
406.3647004043691
 20
238.2209544957279
 30
0.0
 11
387.4592940210505
 21
238.2209544957279
 31
0.0
  0
LINE
  5
911
330
18
100
AcDbEntity
  8
0
  6
ByBlock
 62
     2
100
AcDbLine
 10
388.7092940210505
 20
254.320954495728
 30
0.0
 11
388.7092940210505
 21
240.7209544957279
 31
0.0
  0
INSERT
  5
912
330
18
100
AcDbEntity
  8
0
  6
ByBlock
 62
     2
100
AcDbBlockReference
  2
_OPEN
 10
388.7092940210505
 20
256.820954495728
 30
0.0
 41
2.5
 42
2.5
 43
2.5
 50
90.0
  0
INSERT
  5
913
330
18
100
AcDbEntity
  8
0
  6
ByBlock
 62
     2
100
AcDbBlockReference
  2
_OPEN
 10
388.7092940210505
 20
238.2209544957279
 30
0.0
 41
2.5
 42
2.5
 43
2.5
 50
270.0
  0
MTEXT
  5
914
330
18
100
AcDbEntity
  8
0
  6
ByBlock
 62
     6
100
AcDbMText
 10
386.8342940210506
 20
247.520954495728
 30
0.0
 40
2.5
 41
0.0
 71
     5
 72
     1
  1
18.5
  7
STYLE3
 11
0.0000000000000001
 21
1.0
 31
0.0
 73
     1
 44
1.0
  0
POINT
  5
916
330
18
100
AcDbEntity
  8
DEFPOINTS
  6
ByBlock
 62
     0
100
AcDbPoint
 10
406.3647004043691
 20
238.2209544957279
 30
0.0
  0
POINT
  5
917
330
18
100
AcDbEntity
  8
DEFPOINTS
  6
ByBlock
 62
     0
100
AcDbPoint
 10
388.7092940210505
 20
238.2209544957279
 30
0.0
  0
DIMENSION
  5
923
330
18
100
AcDbEntity
  8
文字
100
AcDbDimension
  2
*D2
 10
381.4349326683695
 20
218.220954495728
 30
0.0
 11
379.5599326683695
 21
237.520954495728
 31
0.0
 70
    32
  1
38.5
 71
     5
 42
38.60000000000005
  3
STYLE2
100
AcDbAlignedDimension
 13
399.4647004043691
 23
256.820954495728
 33
0.0
 14
409.7647004043692
 24
218.220954495728
 34
0.0
 50
90.0
100
AcDbRotatedDimension
1001
ACAD
1000
DSTYLE
1002
{
1070
    75
1070
     1
1070
   279
1070
     1
1002
}
  0
LWPOLYLINE
  5
96E
330
18
100
AcDbEntity
  8
C
100
AcDbPolyline
 90
        5
 70
     0
 43
0.4
 10
236.6915604445414
 20
366.8501752555372
 10
491.6915604445414
 20
366.8501752555372
 10
491.6915604445414
 20
171.8501752555372
 10
236.6915604445414
 20
171.8501752555372
 10
236.6915604445414
 20
366.8501752555372
  0
MTEXT
  5
EB4
330
18
100
AcDbEntity
  8
DEFPOINTS
  6
Continuous
100
AcDbMText
 10
624.6916853418142
 20
184.890767874579
 30
0.0
 40
0.35
 41
0.0
 71
     4
 72
     1
  1
\A1;
 73
     1
 44
1.0
  0
LINE
  5
EB5
102
{ACAD_REACTORS
330
EF3
102
}
330
18
100
AcDbEntity
  8
ROGO
 62
     4
100
AcDbLine
 10
315.463437900404
 20
292.5859211368344
 30
0.0
 11
317.0759362133891
 21
292.5859211368344
 31
0.0
  0
LINE
  5
EB6
102
{ACAD_REACTORS
330
EF2
330
EF3
102
}
330
18
100
AcDbEntity
  8
ROGO
 62
     4
100
AcDbLine
 10
314.4481873603113
 20
290.5340423519285
 30
0.0
 11
328.3373646273351
 21
290.5340423519285
 31
0.0
  0
LINE
  5
EB7
102
{ACAD_REACTORS
330
EF3
102
}
330
18
100
AcDbEntity
  8
ROGO
 62
     4
100
AcDbLine
 10
315.463437900404
 20
292.5859211368344
 30
0.0
 11
314.4481873603113
 21
290.5340423519284
 31
0.0
  0
SPLINE
  5
EB8
102
{ACAD_REACTORS
330
EF3
102
}
330
18
100
AcDbEntity
  8
ROGO
 62
     4
100
AcDbSpline
210
0.0
220
0.0
230
1.0
 70
     8
 71
     3
 72
    18
 73
    14
 74
     0
 42
0.0000000001
 43
0.0000000001
 40
0.1087402787915014
 40
0.1087402787915014
 40
0.1087402787915014
 40
0.1087402787915014
 40
0.5992371417938475
 40
1.083176791562496
 40
1.448211145705696
 40
1.714037220764907
 40
2.164002567013297
 40
2.740236056362883
 40
3.395137510199602
 40
4.071816045172726
 40
4.784906178399433
 40
5.506895915094292
 40
6.060470601257719
 40
6.060470601257719
 40
6.060470601257719
 40
6.060470601257719
 10
317.0759362133891
 20
292.5859211368345
 30
0.0
 10
317.1275957510252
 20
292.5669887819868
 30
0.0
 10
317.2291836988756
 20
292.5269628906715
 30
0.0
 10
317.3531689344228
 20
292.4356105808801
 30
0.0
 10
317.4207851283476
 20
292.3301518037074
 30
0.0
 10
317.4858243368906
 20
292.2262410614045
 30
0.0
 10
317.4949264554015
 20
292.0771635272481
 30
0.0
 10
317.4800165703544
 20
291.8886933916763
 30
0.0
 10
317.3837596994783
 20
291.6920442541556
 30
0.0
 10
317.2292617603969
 20
291.5200472233538
 30
0.0
 10
317.0374417873039
 20
291.382383043012
 30
0.0
 10
316.8351610091967
 20
291.2743202065167
 30
0.0
 10
316.6905706521431
 20
291.2732434859081
 30
0.0
 10
316.6278207352484
 20
291.272776206277
 30
0.0
  0
LINE
  5
EB9
102
{ACAD_REACTORS
330
EF3
102
}
330
18
100
AcDbEntity
  8
ROGO
 62
     4
100
AcDbLine
 10
316.6278207355575
 20
291.272776206277
 30
0.0
 11
315.7362124670763
 21
291.272776206277
 31
0.0
  0
LINE
  5
EBA
102
{ACAD_REACTORS
330
EF3
102
}
330
18
100
AcDbEntity
  8
ROGO
 62
     4
100
AcDbLine
 10
316.1005747557438
 20
292.0781242256211
 30
0.0
 11
315.9425769593864
 21
291.7289025407357
 31
0.0
  0
SPLINE
  5
EBB
102
{ACAD_REACTORS
330
EF3
102
}
330
18
100
AcDbEntity
  8
ROGO
 62
     4
100
AcDbSpline
210
0.0
220
0.0
230
1.0
 70
     8
 71
     3
 72
    15
 73
    11
 74
     9
 42
0.0000000001
 43
0.0000000001
 44
0.0000000001
 40
0.0
 40
0.0
 40
0.0
 40
0.0
 40
0.1539705029175028
 40
0.2241725832587281
 40
0.3038566179396687
 40
0.3581410872474193
 40
0.443992538467216
 40
0.4954152125469665
 40
0.5836396705646186
 40
0.6130478420065743
 40
0.6130478420065743
 40
0.6130478420065743
 40
0.6130478420065743
 10
316.5065617548413
 20
292.0781242256211
 30
0.0
 10
316.5643900899005
 20
292.0783891102635
 30
0.0
 10
316.6485849649586
 20
292.0787747677332
 30
0.0
 10
316.6946257213231
 20
291.9746254638037
 30
0.0
 10
316.6739880590896
 20
291.9075695591663
 30
0.0
 10
316.6480448356655
 20
291.8387240449184
 30
0.0
 10
316.6021972841231
 20
291.7919424796492
 30
0.0
 10
316.5406631545281
 20
291.7468839460122
 30
0.0
 10
316.4825104614723
 20
291.7414294087527
 30
0.0
 10
316.4446886624997
 20
291.7314079152985
 30
0.0
 10
316.4352332082304
 20
291.7289025407357
 30
0.0
 11
316.5065617548413
 21
292.0781242256211
 31
0.0
 11
316.6563518257701
 21
292.0424892649812
 31
0.0
 11
316.6848833264451
 21
291.9783465681758
 31
0.0
 11
316.6706177811842
 21
291.8999498871144
 31
0.0
 11
316.6492192582164
 21
291.8500609422185
 31
0.0
 11
316.5921562568663
 21
291.7859182454131
 31
0.0
 11
316.5493592109304
 21
291.7574102769012
 31
0.0
 11
316.4637647089055
 21
291.7360295328636
 31
0.0
 11
316.4352332082304
 21
291.7289025407357
 31
0.0
  0
LINE
  5
EBC
102
{ACAD_REACTORS
330
EF3
102
}
330
18
100
AcDbEntity
  8
ROGO
 62
     4
100
AcDbLine
 10
316.5065617548413
 20
292.0781242256211
 30
0.0
 11
316.1005747557438
 21
292.0781242256211
 31
0.0
  0
LINE
  5
EBD
102
{ACAD_REACTORS
330
EF3
102
}
330
18
100
AcDbEntity
  8
ROGO
 62
     4
100
AcDbLine
 10
316.4352332082305
 20
291.7289025407357
 30
0.0
 11
315.9425769593864
 21
291.7289025407357
 31
0.0
  0
LINE
  5
EBE
102
{ACAD_REACTORS
330
EF3
102
}
330
18
100
AcDbEntity
  8
ROGO
 62
     4
100
AcDbLine
 10
315.7362124670763
 20
291.272776206277
 30
0.0
 11
315.4019883162478
 21
290.5340423519285
 31
0.0
  0
LINE
  5
EBF
102
{ACAD_REACTORS
330
EEE
102
}
330
18
100
AcDbEntity
  8
ROGO
 62
     4
100
AcDbLine
 10
318.0285602065947
 20
292.5859211368344
 30
0.0
 11
317.3788283073346
 21
291.272776206277
 31
0.0
  0
LINE
  5
EC0
102
{ACAD_REACTORS
330
EEE
102
}
330
18
100
AcDbEntity
  8
ROGO
 62
     4
100
AcDbLine
 10
319.8046433550786
 20
292.5859211368344
 30
0.0
 11
319.6558091593441
 21
292.2851188061423
 31
0.0
  0
LINE
  5
EC1
102
{ACAD_REACTORS
330
EEE
102
}
330
18
100
AcDbEntity
  8
ROGO
 62
     4
100
AcDbLine
 10
317.3788283073346
 20
291.272776206277
 30
0.0
 11
319.1549114558185
 21
291.272776206277
 31
0.0
  0
LINE
  5
EC2
102
{ACAD_REACTORS
330
EEE
102
}
330
18
100
AcDbEntity
  8
ROGO
 62
     4
100
AcDbLine
 10
318.7223447371261
 20
292.2851188061423
 30
0.0
 11
318.6059748910496
 21
292.0499287629582
 31
0.0
  0
LINE
  5
EC3
102
{ACAD_REACTORS
330
EEE
102
}
330
18
100
AcDbEntity
  8
ROGO
 62
     4
100
AcDbLine
 10
318.7223447371261
 20
292.2851188061423
 30
0.0
 11
319.6558091593441
 21
292.2851188061423
 31
0.0
  0
LINE
  5
EC4
102
{ACAD_REACTORS
330
EEE
102
}
330
18
100
AcDbEntity
  8
ROGO
 62
     4
100
AcDbLine
 10
318.6059748910496
 20
292.0499287629582
 30
0.0
 11
319.5394393132676
 21
292.0499287629582
 31
0.0
  0
LINE
  5
EC5
102
{ACAD_REACTORS
330
EEE
102
}
330
18
100
AcDbEntity
  8
ROGO
 62
     4
100
AcDbLine
 10
318.3702737428094
 20
291.573563406277
 30
0.0
 11
319.3037381650274
 21
291.573563406277
 31
0.0
  0
LINE
  5
EC6
102
{ACAD_REACTORS
330
EEE
102
}
330
18
100
AcDbEntity
  8
ROGO
 62
     4
100
AcDbLine
 10
318.4866485154258
 20
291.808763406277
 30
0.0
 11
319.4201129376437
 21
291.808763406277
 31
0.0
  0
LINE
  5
EC7
102
{ACAD_REACTORS
330
EEE
102
}
330
18
100
AcDbEntity
  8
ROGO
 62
     4
100
AcDbLine
 10
319.5394393132676
 20
292.0499287629582
 30
0.0
 11
319.4201129376437
 21
291.808763406277
 31
0.0
  0
LINE
  5
EC8
102
{ACAD_REACTORS
330
EEE
102
}
330
18
100
AcDbEntity
  8
ROGO
 62
     4
100
AcDbLine
 10
319.3037381650274
 20
291.573563406277
 30
0.0
 11
319.1549114558185
 21
291.272776206277
 31
0.0
  0
LINE
  5
EC9
102
{ACAD_REACTORS
330
EEE
102
}
330
18
100
AcDbEntity
  8
ROGO
 62
     4
100
AcDbLine
 10
318.4866485154258
 20
291.808763406277
 30
0.0
 11
318.3702737428094
 21
291.573563406277
 31
0.0
  0
LINE
  5
ECA
102
{ACAD_REACTORS
330
EF7
102
}
330
18
100
AcDbEntity
  8
ROGO
 62
     4
100
AcDbLine
 10
320.3191376202763
 20
292.5859211368344
 30
0.0
 11
319.3722032901772
 21
291.272776206277
 31
0.0
  0
LINE
  5
ECB
102
{ACAD_REACTORS
330
EF7
102
}
330
18
100
AcDbEntity
  8
ROGO
 62
     4
100
AcDbLine
 10
320.793265476908
 20
292.2349121598827
 30
0.0
 11
320.4698987405948
 21
291.7864888880638
 31
0.0
  0
LINE
  5
ECC
102
{ACAD_REACTORS
330
EF7
102
}
330
18
100
AcDbEntity
  8
ROGO
 62
     4
100
AcDbLine
 10
320.2797409794497
 20
291.5227908763678
 30
0.0
 11
321.109617968234
 21
291.5227908763678
 31
0.0
  0
LINE
  5
ECD
102
{ACAD_REACTORS
330
EF7
102
}
330
18
100
AcDbEntity
  8
ROGO
 62
     4
100
AcDbLine
 10
320.4698987405948
 20
291.7864888880639
 30
0.0
 11
320.9924728626335
 21
291.7864888880639
 31
0.0
  0
LINE
  5
ECE
102
{ACAD_REACTORS
330
EF7
102
}
330
18
100
AcDbEntity
  8
ROGO
 62
     4
100
AcDbLine
 10
320.2797409794497
 20
291.5227908763678
 30
0.0
 11
320.0994505418688
 21
291.272776206277
 31
0.0
  0
LINE
  5
ECF
102
{ACAD_REACTORS
330
EF7
102
}
330
18
100
AcDbEntity
  8
ROGO
 62
     4
100
AcDbLine
 10
319.3722032901772
 20
291.272776206277
 30
0.0
 11
320.0994505418687
 21
291.272776206277
 31
0.0
  0
LINE
  5
ED0
102
{ACAD_REACTORS
330
EF7
102
}
330
18
100
AcDbEntity
  8
ROGO
 62
     4
100
AcDbLine
 10
320.3191376202763
 20
292.5859211368344
 30
0.0
 11
321.3695411030478
 21
292.5859211368345
 31
0.0
  0
LINE
  5
ED1
102
{ACAD_REACTORS
330
EF7
102
}
330
18
100
AcDbEntity
  8
ROGO
 62
     4
100
AcDbLine
 10
321.952892113431
 20
291.272776206277
 30
0.0
 11
321.2206843913029
 21
291.272776206277
 31
0.0
  0
LINE
  5
ED2
102
{ACAD_REACTORS
330
EEF
102
}
330
18
100
AcDbEntity
  8
ROGO
 62
     4
100
AcDbLine
 10
322.3125115284369
 20
291.272776206277
 30
0.0
 11
323.4435405434415
 21
291.272776206277
 31
0.0
  0
LINE
  5
ED3
102
{ACAD_REACTORS
330
EEF
102
}
330
18
100
AcDbEntity
  8
ROGO
 62
     4
100
AcDbLine
 10
324.0983170164507
 20
292.5859211368344
 30
0.0
 11
323.8546977159101
 21
292.0973460846176
 31
0.0
  0
LINE
  5
ED4
102
{ACAD_REACTORS
330
EEF
102
}
330
18
100
AcDbEntity
  8
ROGO
 62
     4
100
AcDbLine
 10
323.032930792559
 20
292.0973460846176
 30
0.0
 11
323.8546977159101
 21
292.0973460846176
 31
0.0
  0
LINE
  5
ED5
102
{ACAD_REACTORS
330
EEF
102
}
330
18
100
AcDbEntity
  8
ROGO
 62
     4
100
AcDbLine
 10
322.8474762432481
 20
291.7613460846176
 30
0.0
 11
323.6871572641203
 21
291.7613460846176
 31
0.0
  0
SPLINE
  5
ED6
102
{ACAD_REACTORS
330
EEF
102
}
330
18
100
AcDbEntity
  8
ROGO
 62
     4
100
AcDbSpline
210
0.0
220
0.0
230
1.0
 70
     8
 71
     3
 72
    26
 73
    22
 74
    20
 42
0.0000000001
 43
0.0000000001
 44
0.0000000001
 40
0.0
 40
0.0
 40
0.0
 40
0.0
 40
0.2382195346591896
 40
0.397689067266058
 40
0.5126795869787669
 40
0.5985392873135731
 40
0.7099038249249733
 40
0.7911890807494741
 40
0.9379713068543702
 40
1.057449928673087
 40
1.138714535893316
 40
1.218398644003506
 40
1.36093802187036
 40
1.461730374800257
 40
1.516014844108008
 40
1.593124329220501
 40
1.648806818593631
 40
1.729472362005518
 40
1.775122082164342
 40
1.874460993765092
 40
1.919820003751207
 40
1.919820003751207
 40
1.919820003751207
 40
1.919820003751207
 10
322.7832806743444
 20
292.5859211368344
 30
0.0
 10
322.7024252835858
 20
292.5810971655693
 30
0.0
 10
322.5674434695199
 20
292.5730439190726
 30
0.0
 10
322.4192342588081
 20
292.4830084152143
 30
0.0
 10
322.3106475143978
 20
292.4306657298718
 30
0.0
 10
322.2332035799736
 20
292.3595103084522
 30
0.0
 10
322.1764368621061
 20
292.2860119559309
 30
0.0
 10
322.1048717574086
 20
292.1984392078055
 30
0.0
 10
322.0465124595027
 20
292.096464286341
 30
0.0
 10
322.0167936169695
 20
291.9840701452777
 30
0.0
 10
321.9904689483158
 20
291.8944913627186
 30
0.0
 10
321.9709461333427
 20
291.7946674998264
 30
0.0
 10
321.9759132901558
 20
291.686822611704
 30
0.0
 10
321.9830264860402
 20
291.5866618007002
 30
0.0
 10
322.0147851759643
 20
291.5151619777736
 30
0.0
 10
322.0509526983543
 20
291.4642590308441
 30
0.0
 10
322.0952393342091
 20
291.4081950781455
 30
0.0
 10
322.1436985985267
 20
291.3710641038152
 30
0.0
 10
322.1837783656371
 20
291.3037988486745
 30
0.0
 10
322.2539366458996
 20
291.2952153169984
 30
0.0
 10
322.2985320399754
 20
291.2781315271215
 30
0.0
 10
322.3125115284369
 20
291.272776206277
 30
0.0
 11
322.7832806743444
 21
292.5859211368344
 31
0.0
 11
322.5478961013906
 21
292.5492789547407
 31
0.0
 11
322.4052385980156
 21
292.4780092658073
 31
0.0
 11
322.3053785507298
 21
292.4209935611299
 31
0.0
 11
322.241182981826
 21
292.363977624106
 31
0.0
 11
322.1698544352153
 21
292.2784539509167
 31
0.0
 11
322.1199244115723
 21
292.2143112541113
 31
0.0
 11
322.0485954548081
 21
292.0860256281541
 31
0.0
 11
322.0129313865793
 21
291.9719939864529
 31
0.0
 11
321.9915328636115
 21
291.8935973053914
 31
0.0
 11
321.9772669081972
 21
291.81520062433
 31
0.0
 11
321.9772669081972
 21
291.6726612464632
 31
0.0
 11
321.9915328636115
 21
291.5728835890179
 31
0.0
 11
322.0129313865793
 21
291.5229946441221
 31
0.0
 11
322.0557284325151
 21
291.4588519473166
 31
0.0
 11
322.0913929108973
 21
291.4160899945488
 31
0.0
 11
322.1484555020938
 21
291.3590742898713
 31
0.0
 11
322.1769870027689
 21
291.3234393292314
 31
0.0
 11
322.2697144825011
 21
291.2878046009378
 31
0.0
 11
322.3125115284369
 21
291.272776206277
 31
0.0
  0
SPLINE
  5
ED7
102
{ACAD_REACTORS
330
EEF
102
}
330
18
100
AcDbEntity
  8
ROGO
 62
     4
100
AcDbSpline
210
0.0
220
0.0
230
1.0
 70
     8
 71
     3
 72
    16
 73
    12
 74
    10
 42
0.0000000001
 43
0.0000000001
 44
0.0000000001
 40
0.0
 40
0.0
 40
0.0
 40
0.0
 40
0.1255907025629711
 40
0.1869327038470372
 40
0.2171823804790188
 40
0.2490606136884497
 40
0.2947101524738226
 40
0.3362763310931653
 40
0.3796288870083566
 40
0.452312579561098
 40
0.5242542460842631
 40
0.5242542460842631
 40
0.5242542460842631
 40
0.5242542460842631
 10
323.032930792559
 20
292.0973460846176
 30
0.0
 10
322.9904000849376
 20
292.0908619913137
 30
0.0
 10
322.9270961937264
 20
292.0812108860281
 30
0.0
 10
322.8698504423351
 20
292.0358957790524
 30
0.0
 10
322.8375678132111
 20
292.0089363067359
 30
0.0
 10
322.8265851189594
 20
291.9732343125536
 30
0.0
 10
322.7970890510988
 20
291.9458206615182
 30
0.0
 10
322.7727759012215
 20
291.9081454808019
 30
0.0
 10
322.7669704721599
 20
291.8563980098428
 30
0.0
 10
322.7712317900075
 20
291.7837783207055
 30
0.0
 10
322.8221485045765
 20
291.7687978767061
 30
0.0
 10
322.8474762432482
 20
291.7613460846176
 30
0.0
 11
323.032930792559
 21
292.0973460846176
 31
0.0
 11
322.9116722223052
 21
292.0646446517702
 31
0.0
 11
322.8617421986623
 21
292.0290099234766
 31
0.0
 11
322.8403436756945
 21
292.0076289470926
 31
0.0
 11
322.8260777202802
 21
291.9791209785807
 31
0.0
 11
322.7975462196052
 21
291.9434862502873
 31
0.0
 11
322.7761476966373
 21
291.9078512896474
 31
0.0
 11
322.7690147189302
 21
291.8650895692259
 31
0.0
 11
322.7832806743444
 21
291.7938196479461
 31
0.0
 11
322.8474762432482
 21
291.7613460846176
 31
0.0
  0
LINE
  5
ED8
102
{ACAD_REACTORS
330
EEF
102
}
330
18
100
AcDbEntity
  8
ROGO
 62
     4
100
AcDbLine
 10
323.6871572641203
 20
291.7613460846176
 30
0.0
 11
323.4435405434415
 21
291.272776206277
 31
0.0
  0
LINE
  5
ED9
102
{ACAD_REACTORS
330
EEF
102
}
330
18
100
AcDbEntity
  8
ROGO
 62
     4
100
AcDbLine
 10
322.7832806743448
 20
292.5859211368345
 30
0.0
 11
324.0983170164507
 21
292.5859211368345
 31
0.0
  0
LINE
  5
EDA
102
{ACAD_REACTORS
330
EF0
102
}
330
18
100
AcDbEntity
  8
ROGO
 62
     4
100
AcDbLine
 10
326.5435812993647
 20
291.272776206277
 30
0.0
 11
327.6746103143694
 21
291.272776206277
 31
0.0
  0
LINE
  5
EDB
102
{ACAD_REACTORS
330
EF0
102
}
330
18
100
AcDbEntity
  8
ROGO
 62
     4
100
AcDbLine
 10
327.0143504452726
 20
292.5859211368344
 30
0.0
 11
328.3293867873786
 21
292.5859211368344
 31
0.0
  0
SPLINE
  5
EDC
102
{ACAD_REACTORS
330
EF0
102
}
330
18
100
AcDbEntity
  8
ROGO
 62
     4
100
AcDbSpline
210
0.0
220
0.0
230
1.0
 70
     8
 71
     3
 72
    16
 73
    12
 74
    10
 42
0.0000000001
 43
0.0000000001
 44
0.0000000001
 40
0.0
 40
0.0
 40
0.0
 40
0.0
 40
0.1255907025629163
 40
0.1869327038470616
 40
0.217182380479003
 40
0.2490606136884339
 40
0.2947101524738157
 40
0.3362763310931585
 40
0.3796288870082937
 40
0.4523125795610796
 40
0.5242542460842448
 40
0.5242542460842448
 40
0.5242542460842448
 40
0.5242542460842448
 10
327.2640005634869
 20
292.0973460846176
 30
0.0
 10
327.2214698558654
 20
292.0908619913135
 30
0.0
 10
327.158165964654
 20
292.081210886028
 30
0.0
 10
327.100920213263
 20
292.0358957790524
 30
0.0
 10
327.0686375841389
 20
292.0089363067358
 30
0.0
 10
327.0576548898871
 20
291.9732343125537
 30
0.0
 10
327.0281588220267
 20
291.945820661518
 30
0.0
 10
327.0038456721494
 20
291.9081454808019
 30
0.0
 10
326.9980402430876
 20
291.8563980098427
 30
0.0
 10
327.0023015609352
 20
291.7837783207054
 30
0.0
 10
327.0532182755043
 20
291.7687978767061
 30
0.0
 10
327.078546014176
 20
291.7613460846175
 30
0.0
 11
327.2640005634869
 21
292.0973460846176
 31
0.0
 11
327.1427419932331
 21
292.0646446517702
 31
0.0
 11
327.0928119695902
 21
292.0290099234766
 31
0.0
 11
327.0714134466223
 21
292.0076289470926
 31
0.0
 11
327.0571474912081
 21
291.9791209785807
 31
0.0
 11
327.0286159905331
 21
291.9434862502872
 31
0.0
 11
327.0072174675652
 21
291.9078512896474
 31
0.0
 11
327.0000844898581
 21
291.8650895692259
 31
0.0
 11
327.0143504452723
 21
291.7938196479461
 31
0.0
 11
327.078546014176
 21
291.7613460846175
 31
0.0
  0
SPLINE
  5
EDD
102
{ACAD_REACTORS
330
EF0
102
}
330
18
100
AcDbEntity
  8
ROGO
 62
     4
100
AcDbSpline
210
0.0
220
0.0
230
1.0
 70
     8
 71
     3
 72
    26
 73
    22
 74
    20
 42
0.0000000001
 43
0.0000000001
 44
0.0000000001
 40
0.0
 40
0.0
 40
0.0
 40
0.0
 40
0.2382195346591896
 40
0.397689067266058
 40
0.5126795869787176
 40
0.5985392873135238
 40
0.7099038249250041
 40
0.7911890807494602
 40
0.9379713068544059
 40
1.057449928673177
 40
1.138714535893296
 40
1.218398644003487
 40
1.36093802187034
 40
1.461730374800238
 40
1.51601484410804
 40
1.593124329220486
 40
1.648806818593696
 40
1.729472362005543
 40
1.775122082164332
 40
1.874460993765135
 40
1.919820003751196
 40
1.919820003751196
 40
1.919820003751196
 40
1.919820003751196
 10
327.0143504452723
 20
292.5859211368344
 30
0.0
 10
326.9334950545137
 20
292.5810971655693
 30
0.0
 10
326.7985132404477
 20
292.5730439190727
 30
0.0
 10
326.6503040297359
 20
292.4830084152143
 30
0.0
 10
326.5417172853257
 20
292.4306657298718
 30
0.0
 10
326.4642733509015
 20
292.3595103084522
 30
0.0
 10
326.407506633034
 20
292.2860119559309
 30
0.0
 10
326.3359415283363
 20
292.1984392078055
 30
0.0
 10
326.2775822304305
 20
292.0964642863409
 30
0.0
 10
326.2478633878973
 20
291.9840701452775
 30
0.0
 10
326.2215387192437
 20
291.8944913627188
 30
0.0
 10
326.2020159042706
 20
291.7946674998262
 30
0.0
 10
326.2069830610835
 20
291.6868226117041
 30
0.0
 10
326.2140962569682
 20
291.5866618007002
 30
0.0
 10
326.245854946892
 20
291.5151619777735
 30
0.0
 10
326.2820224692823
 20
291.4642590308442
 30
0.0
 10
326.3263091051369
 20
291.4081950781454
 30
0.0
 10
326.3747683694545
 20
291.3710641038152
 30
0.0
 10
326.4148481365651
 20
291.3037988486746
 30
0.0
 10
326.4850064168276
 20
291.2952153169985
 30
0.0
 10
326.5296018109034
 20
291.2781315271214
 30
0.0
 10
326.5435812993648
 20
291.272776206277
 30
0.0
 11
327.0143504452723
 21
292.5859211368344
 31
0.0
 11
326.7789658723184
 21
292.5492789547407
 31
0.0
 11
326.6363083689435
 21
292.4780092658073
 31
0.0
 11
326.5364483216576
 21
292.4209935611299
 31
0.0
 11
326.4722527527539
 21
292.363977624106
 31
0.0
 11
326.4009242061431
 21
292.2784539509166
 31
0.0
 11
326.3509941825001
 21
292.2143112541113
 31
0.0
 11
326.2796652257359
 21
292.086025628154
 31
0.0
 11
326.2440011575072
 21
291.9719939864527
 31
0.0
 11
326.2226026345393
 21
291.8935973053914
 31
0.0
 11
326.2083366791251
 21
291.81520062433
 31
0.0
 11
326.2083366791251
 21
291.6726612464632
 31
0.0
 11
326.2226026345393
 21
291.5728835890179
 31
0.0
 11
326.2440011575072
 21
291.522994644122
 31
0.0
 11
326.286798203443
 21
291.4588519473166
 31
0.0
 11
326.3224626818252
 21
291.4160899945487
 31
0.0
 11
326.3795252730217
 21
291.3590742898713
 31
0.0
 11
326.4080567736968
 21
291.3234393292314
 31
0.0
 11
326.500784253429
 21
291.2878046009378
 31
0.0
 11
326.5435812993648
 21
291.272776206277
 31
0.0
  0
LINE
  5
EDE
102
{ACAD_REACTORS
330
EF0
102
}
330
18
100
AcDbEntity
  8
ROGO
 62
     4
100
AcDbLine
 10
327.9182270350482
 20
291.7613460846176
 30
0.0
 11
327.6746103143693
 21
291.272776206277
 31
0.0
  0
LINE
  5
EDF
102
{ACAD_REACTORS
330
EF0
102
}
330
18
100
AcDbEntity
  8
ROGO
 62
     4
100
AcDbLine
 10
327.078546014176
 20
291.7613460846176
 30
0.0
 11
327.9182270350482
 21
291.7613460846176
 31
0.0
  0
LINE
  5
EE0
102
{ACAD_REACTORS
330
EF0
102
}
330
18
100
AcDbEntity
  8
ROGO
 62
     4
100
AcDbLine
 10
327.2640005634868
 20
292.0973460846176
 30
0.0
 11
328.085767486838
 21
292.0973460846176
 31
0.0
  0
LINE
  5
EE1
102
{ACAD_REACTORS
330
EF0
102
}
330
18
100
AcDbEntity
  8
ROGO
 62
     4
100
AcDbLine
 10
328.3293867873786
 20
292.5859211368344
 30
0.0
 11
328.085767486838
 21
292.0973460846176
 31
0.0
  0
LINE
  5
EE2
102
{ACAD_REACTORS
330
EF2
102
}
330
18
100
AcDbEntity
  8
ROGO
 62
     4
100
AcDbLine
 10
328.6044139165007
 20
292.5859211368344
 30
0.0
 11
329.3604976590049
 21
292.5859211368344
 31
0.0
  0
LINE
  5
EE3
102
{ACAD_REACTORS
330
EF2
102
}
330
18
100
AcDbEntity
  8
ROGO
 62
     4
100
AcDbLine
 10
328.6044139165007
 20
292.5859211368344
 30
0.0
 11
327.5812808848308
 21
290.5340423519285
 31
0.0
  0
LINE
  5
EE4
102
{ACAD_REACTORS
330
EF2
102
}
330
18
100
AcDbEntity
  8
ROGO
 62
     4
100
AcDbLine
 10
329.3604976590049
 20
292.5859211368344
 30
0.0
 11
329.2487923520839
 21
292.3618977280128
 31
0.0
  0
LINE
  5
EE5
102
{ACAD_REACTORS
330
EF2
102
}
330
18
100
AcDbEntity
  8
ROGO
 62
     4
100
AcDbLine
 10
329.2487923520839
 20
292.3618977280128
 30
0.0
 11
329.6028054351627
 21
292.5859211368344
 31
0.0
  0
LINE
  5
EE6
102
{ACAD_REACTORS
330
EF2
102
}
330
18
100
AcDbEntity
  8
ROGO
 62
     4
100
AcDbLine
 10
328.6044139165007
 20
291.069605914048
 30
0.0
 11
328.8714632056664
 21
290.5340423519285
 31
0.0
  0
LINE
  5
EE7
102
{ACAD_REACTORS
330
EF2
102
}
330
18
100
AcDbEntity
  8
ROGO
 62
     4
100
AcDbLine
 10
329.1159638898315
 20
291.5599817443815
 30
0.0
 11
329.6275304056664
 21
290.5340423519285
 31
0.0
  0
LINE
  5
EE8
102
{ACAD_REACTORS
330
EF2
102
}
330
18
100
AcDbEntity
  8
ROGO
 62
     4
100
AcDbLine
 10
328.6044139165007
 20
291.069605914048
 30
0.0
 11
328.3373646273351
 21
290.5340423519285
 31
0.0
  0
LINE
  5
EE9
102
{ACAD_REACTORS
330
EF2
102
}
330
18
100
AcDbEntity
  8
ROGO
 62
     4
100
AcDbLine
 10
329.1159638898315
 20
291.5599817443815
 30
0.0
 11
330.3588726351628
 21
292.5859211368344
 31
0.0
  0
LINE
  5
EEA
102
{ACAD_REACTORS
330
EF2
102
}
330
18
100
AcDbEntity
  8
ROGO
 62
     4
100
AcDbLine
 10
329.6028054351627
 20
292.5859211368344
 30
0.0
 11
330.3588726351628
 21
292.5859211368344
 31
0.0
  0
LINE
  5
EEB
102
{ACAD_REACTORS
330
EF2
102
}
330
18
100
AcDbEntity
  8
ROGO
 62
     4
100
AcDbLine
 10
328.8714632056664
 20
290.5340423519285
 30
0.0
 11
329.6275304056664
 21
290.5340423519285
 31
0.0
  0
LINE
  5
EEC
102
{ACAD_REACTORS
330
EEE
102
}
330
18
100
AcDbEntity
  8
ROGO
 62
     4
100
AcDbLine
 10
318.0285602065947
 20
292.5859211368344
 30
0.0
 11
319.8046433550786
 21
292.5859211368345
 31
0.0
  0
LINE
  5
EED
330
18
100
AcDbEntity
  8
ROGO
 62
     4
100
AcDbLine
 10
315.4807759047531
 20
290.7397125582197
 30
0.0
 11
327.683834692217
 21
290.7397125582197
 31
0.0
  0
HATCH
  5
EEE
330
18
100
AcDbEntity
  8
ROGO
 62
     4
100
AcDbHatch
 10
0.0
 20
0.0
 30
0.0
210
0.0
220
0.0
230
1.0
  2
SOLID
 70
     1
 71
     1
 91
        1
 92
        1
 93
       12
 72
     1
 10
318.0285602065947
 20
292.5859211368344
 11
319.8046433550786
 21
292.5859211368345
 72
     1
 10
319.8046433550786
 20
292.5859211368344
 11
319.6558091593441
 21
292.2851188061423
 72
     1
 10
319.6558091593441
 20
292.2851188061423
 11
318.7223447371261
 21
292.2851188061423
 72
     1
 10
318.7223447371261
 20
292.2851188061423
 11
318.6059748910496
 21
292.0499287629582
 72
     1
 10
318.6059748910496
 20
292.0499287629582
 11
319.5394393132676
 21
292.0499287629582
 72
     1
 10
319.5394393132676
 20
292.0499287629582
 11
319.4201129376437
 21
291.808763406277
 72
     1
 10
319.4201129376437
 20
291.808763406277
 11
318.4866485154258
 21
291.808763406277
 72
     1
 10
318.4866485154258
 20
291.808763406277
 11
318.3702737428094
 21
291.573563406277
 72
     1
 10
318.3702737428094
 20
291.573563406277
 11
319.3037381650274
 21
291.573563406277
 72
     1
 10
319.3037381650274
 20
291.573563406277
 11
319.1549114558185
 21
291.272776206277
 72
     1
 10
319.1549114558185
 20
291.272776206277
 11
317.3788283073346
 21
291.272776206277
 72
     1
 10
317.3788283073346
 20
291.272776206277
 11
318.0285602065947
 21
292.5859211368344
 97
       12
330
EEC
330
EC0
330
EC3
330
EC2
330
EC4
330
EC7
330
EC6
330
EC9
330
EC5
330
EC8
330
EC1
330
EBF
 75
     0
 76
     1
 98
        1
 10
245.3784312278858
 20
201.7878250887231
450
        0
451
        0
460
0.0
461
0.0
452
        0
462
0.0
453
        0
470

  0
HATCH
  5
EEF
330
18
100
AcDbEntity
  8
ROGO
 62
     4
100
AcDbHatch
 10
0.0
 20
0.0
 30
0.0
210
0.0
220
0.0
230
1.0
  2
SOLID
 70
     1
 71
     1
 91
        1
 92
        5
 93
        8
 72
     1
 10
323.8546977159102
 20
292.0973460846177
 11
324.0983170164507
 21
292.5859211368345
 72
     1
 10
324.0983170164507
 20
292.5859211368345
 11
322.7832806743444
 21
292.5859211368344
 72
     4
 94
        3
 73
     0
 74
     0
 95
       26
 96
       22
 40
0.0
 40
0.0
 40
0.0
 40
0.0
 40
0.2382195346591896
 40
0.397689067266058
 40
0.5126795869787669
 40
0.5985392873135731
 40
0.7099038249249733
 40
0.7911890807494741
 40
0.9379713068543702
 40
1.057449928673087
 40
1.138714535893316
 40
1.218398644003506
 40
1.36093802187036
 40
1.461730374800257
 40
1.516014844108008
 40
1.593124329220501
 40
1.648806818593631
 40
1.729472362005518
 40
1.775122082164342
 40
1.874460993765092
 40
1.919820003751207
 40
1.919820003751207
 40
1.919820003751207
 40
1.919820003751207
 10
322.7832806743444
 20
292.5859211368344
 10
322.7024252835858
 20
292.5810971655693
 10
322.5674434695199
 20
292.5730439190726
 10
322.4192342588081
 20
292.4830084152143
 10
322.3106475143978
 20
292.4306657298718
 10
322.2332035799736
 20
292.3595103084522
 10
322.1764368621061
 20
292.2860119559309
 10
322.1048717574086
 20
292.1984392078055
 10
322.0465124595027
 20
292.096464286341
 10
322.0167936169695
 20
291.9840701452777
 10
321.9904689483158
 20
291.8944913627186
 10
321.9709461333427
 20
291.7946674998264
 10
321.9759132901558
 20
291.686822611704
 10
321.9830264860402
 20
291.5866618007002
 10
322.0147851759643
 20
291.5151619777736
 10
322.0509526983543
 20
291.4642590308441
 10
322.0952393342091
 20
291.4081950781455
 10
322.1436985985267
 20
291.3710641038152
 10
322.1837783656371
 20
291.3037988486745
 10
322.2539366458996
 20
291.2952153169984
 10
322.2985320399754
 20
291.2781315271215
 10
322.3125115284369
 20
291.272776206277
 72
     1
 10
322.3125115284369
 20
291.272776206277
 11
323.4435405434415
 21
291.2727762062769
 72
     1
 10
323.4435405434415
 20
291.2727762062769
 11
323.6871572641203
 21
291.7613460846176
 72
     1
 10
323.6871572641203
 20
291.7613460846176
 11
322.8474762432482
 21
291.7613460846176
 72
     4
 94
        3
 73
     0
 74
     0
 95
       16
 96
       12
 40
0.0
 40
0.0
 40
0.0
 40
0.0
 40
0.0719416665231651
 40
0.1446253590759065
 40
0.1879779149910977
 40
0.2295440936104405
 40
0.2751936323958134
 40
0.3070718656052443
 40
0.3373215422372259
 40
0.3986635435212919
 40
0.5242542460842631
 40
0.5242542460842631
 40
0.5242542460842631
 40
0.5242542460842631
 10
322.8474762432482
 20
291.7613460846176
 10
322.8221485045765
 20
291.7687978767061
 10
322.7712317900075
 20
291.7837783207055
 10
322.7669704721599
 20
291.8563980098428
 10
322.7727759012215
 20
291.9081454808019
 10
322.7970890510988
 20
291.9458206615182
 10
322.8265851189594
 20
291.9732343125536
 10
322.8375678132111
 20
292.0089363067359
 10
322.8698504423351
 20
292.0358957790524
 10
322.9270961937264
 20
292.0812108860281
 10
322.9904000849376
 20
292.0908619913137
 10
323.032930792559
 20
292.0973460846176
 72
     1
 10
323.032930792559
 20
292.0973460846176
 11
323.8546977159102
 21
292.0973460846177
 97
        8
330
ED9
330
ED6
330
ED2
330
ED8
330
ED5
330
ED7
330
ED4
330
ED3
 75
     0
 76
     1
 47
0.0514683685270805
 98
        1
 10
323.2431975715514
 20
292.2935996804875
450
        0
451
        0
460
0.0
461
0.0
452
        0
462
0.0
453
        0
470

  0
HATCH
  5
EF0
330
18
100
AcDbEntity
  8
ROGO
 62
     4
100
AcDbHatch
 10
0.0
 20
0.0
 30
0.0
210
0.0
220
0.0
230
1.0
  2
SOLID
 70
     1
 71
     1
 91
        1
 92
        5
 93
        8
 72
     4
 94
        3
 73
     0
 74
     0
 95
       26
 96
       22
 40
0.0
 40
0.0
 40
0.0
 40
0.0
 40
0.2382195346591896
 40
0.397689067266058
 40
0.5126795869787176
 40
0.5985392873135238
 40
0.7099038249250041
 40
0.7911890807494602
 40
0.9379713068544059
 40
1.057449928673177
 40
1.138714535893296
 40
1.218398644003487
 40
1.36093802187034
 40
1.461730374800238
 40
1.51601484410804
 40
1.593124329220486
 40
1.648806818593696
 40
1.729472362005543
 40
1.775122082164332
 40
1.874460993765135
 40
1.919820003751196
 40
1.919820003751196
 40
1.919820003751196
 40
1.919820003751196
 10
327.0143504452723
 20
292.5859211368344
 10
326.9334950545137
 20
292.5810971655693
 10
326.7985132404477
 20
292.5730439190727
 10
326.6503040297359
 20
292.4830084152143
 10
326.5417172853257
 20
292.4306657298718
 10
326.4642733509015
 20
292.3595103084522
 10
326.407506633034
 20
292.2860119559309
 10
326.3359415283363
 20
292.1984392078055
 10
326.2775822304305
 20
292.0964642863409
 10
326.2478633878973
 20
291.9840701452775
 10
326.2215387192437
 20
291.8944913627188
 10
326.2020159042706
 20
291.7946674998262
 10
326.2069830610835
 20
291.6868226117041
 10
326.2140962569682
 20
291.5866618007002
 10
326.245854946892
 20
291.5151619777735
 10
326.2820224692823
 20
291.4642590308442
 10
326.3263091051369
 20
291.4081950781454
 10
326.3747683694545
 20
291.3710641038152
 10
326.4148481365651
 20
291.3037988486746
 10
326.4850064168276
 20
291.2952153169985
 10
326.5296018109034
 20
291.2781315271214
 10
326.5435812993648
 20
291.272776206277
 72
     1
 10
326.5435812993646
 20
291.2727762062769
 11
327.6746103143694
 21
291.272776206277
 72
     1
 10
327.6746103143694
 20
291.272776206277
 11
327.9182270350482
 21
291.7613460846176
 72
     1
 10
327.9182270350482
 20
291.7613460846176
 11
327.078546014176
 21
291.7613460846176
 72
     4
 94
        3
 73
     0
 74
     0
 95
       16
 96
       12
 40
0.0
 40
0.0
 40
0.0
 40
0.0
 40
0.0719416665231652
 40
0.1446253590759511
 40
0.1879779149910863
 40
0.229544093610429
 40
0.2751936323958108
 40
0.3070718656052417
 40
0.3373215422371831
 40
0.3986635435213285
 40
0.5242542460842448
 40
0.5242542460842448
 40
0.5242542460842448
 40
0.5242542460842448
 10
327.078546014176
 20
291.7613460846175
 10
327.0532182755043
 20
291.7687978767061
 10
327.0023015609352
 20
291.7837783207054
 10
326.9980402430876
 20
291.8563980098427
 10
327.0038456721494
 20
291.9081454808019
 10
327.0281588220267
 20
291.945820661518
 10
327.0576548898871
 20
291.9732343125537
 10
327.0686375841389
 20
292.0089363067358
 10
327.100920213263
 20
292.0358957790524
 10
327.158165964654
 20
292.081210886028
 10
327.2214698558654
 20
292.0908619913135
 10
327.2640005634869
 20
292.0973460846176
 72
     1
 10
327.2640005634869
 20
292.0973460846176
 11
328.0857674868379
 21
292.0973460846176
 72
     1
 10
328.0857674868379
 20
292.0973460846176
 11
328.3293867873786
 21
292.5859211368344
 72
     1
 10
328.3293867873786
 20
292.5859211368344
 11
327.0143504452722
 21
292.5859211368344
 97
        8
330
EDB
330
EDD
330
EDA
330
EDE
330
EDF
330
EDC
330
EE0
330
EE1
 75
     0
 76
     1
 47
0.0514683685270805
 98
        1
 10
327.2412678749571
 20
292.3454798336554
450
        0
451
        0
460
0.0
461
0.0
452
        0
462
0.0
453
        0
470

  0
HATCH
  5
EF1
330
18
100
AcDbEntity
  8
ROGO
 62
     4
100
AcDbHatch
 10
0.0
 20
0.0
 30
0.0
210
0.0
220
0.0
230
1.0
  2
SOLID
 70
     1
 71
     0
 91
        1
 92
        7
 72
     0
 73
     1
 93
        4
 10
315.4950393516698
 20
290.7397125582197
 10
315.4019883162478
 20
290.5340423519285
 10
327.5812808848308
 20
290.5340423519284
 10
327.683834692217
 20
290.7397125582197
 97
        0
 75
     0
 76
     1
 47
0.0514683685270805
 98
        1
 10
323.1912746125581
 20
290.6853160940149
450
        0
451
        0
460
0.0
461
0.0
452
        0
462
0.0
453
        0
470

  0
HATCH
  5
EF2
330
18
100
AcDbEntity
  8
ROGO
 62
     4
100
AcDbHatch
 10
0.0
 20
0.0
 30
0.0
210
0.0
220
0.0
230
1.0
  2
SOLID
 70
     1
 71
     1
 91
        1
 92
        7
 72
     0
 73
     1
 93
       11
 10
327.5812808848309
 20
290.5340423519285
 10
328.337364627335
 20
290.5340423519284
 10
328.6044139165007
 20
291.0696059140479
 10
328.8714632056665
 20
290.5340423519285
 10
329.6275304056664
 20
290.5340423519285
 10
329.1159638898315
 20
291.5599817443815
 10
330.3588726351628
 20
292.5859211368345
 10
329.6028054351628
 20
292.5859211368344
 10
329.2487923520839
 20
292.3618977280128
 10
329.360497659005
 20
292.5859211368344
 10
328.6044139165007
 20
292.5859211368344
 97
       11
330
EEA
330
EE5
330
EE4
330
EE2
330
EE3
330
EB6
330
EE8
330
EE6
330
EEB
330
EE7
330
EE9
 75
     0
 76
     1
 47
0.0514683685270805
 98
        1
 10
328.5393426700969
 20
291.7056251533929
450
        0
451
        0
460
0.0
461
0.0
452
        0
462
0.0
453
        0
470

  0
HATCH
  5
EF3
330
18
100
AcDbEntity
  8
ROGO
 62
     4
100
AcDbHatch
 10
0.0
 20
0.0
 30
0.0
210
0.0
220
0.0
230
1.0
  2
SOLID
 70
     1
 71
     1
 91
        2
 92
        5
 93
        6
 72
     1
 10
314.4481873603113
 20
290.5340423519285
 11
315.4019883162478
 21
290.5340423519285
 72
     1
 10
315.4019883162478
 20
290.5340423519285
 11
315.7362124670763
 21
291.272776206277
 72
     1
 10
315.7362124670763
 20
291.272776206277
 11
316.6278207352485
 21
291.272776206277
 72
     4
 94
        3
 73
     0
 74
     0
 95
       18
 96
       14
 40
0.108740278791501
 40
0.108740278791501
 40
0.108740278791501
 40
0.108740278791501
 40
0.6623149649549278
 40
1.384304701649787
 40
2.097394834876493
 40
2.774073369849618
 40
3.428974823686337
 40
4.005208313035923
 40
4.455173659284313
 40
4.720999734343524
 40
5.086034088486724
 40
5.569973738255373
 40
6.060470601257719
 40
6.060470601257719
 40
6.060470601257719
 40
6.060470601257719
 10
316.6278207352484
 20
291.272776206277
 10
316.6905706521431
 20
291.2732434859081
 10
316.8351610091967
 20
291.2743202065167
 10
317.0374417873039
 20
291.382383043012
 10
317.2292617603969
 20
291.5200472233538
 10
317.3837596994783
 20
291.6920442541556
 10
317.4800165703544
 20
291.8886933916763
 10
317.4949264554015
 20
292.0771635272481
 10
317.4858243368906
 20
292.2262410614045
 10
317.4207851283476
 20
292.3301518037074
 10
317.3531689344228
 20
292.4356105808801
 10
317.2291836988756
 20
292.5269628906715
 10
317.1275957510252
 20
292.5669887819868
 10
317.0759362133891
 20
292.5859211368345
 72
     1
 10
317.0759362133891
 20
292.5859211368344
 11
315.463437900404
 21
292.5859211368344
 72
     1
 10
315.463437900404
 20
292.5859211368344
 11
314.4481873603113
 21
290.5340423519285
 97
        6
330
EB8
330
EB5
330
EB7
330
EB6
330
EBE
330
EB9
 92
       20
 93
        4
 72
     1
 10
315.9425769593864
 20
291.7289025407358
 11
316.1005747557438
 21
292.0781242256211
 72
     1
 10
316.1005747557438
 20
292.0781242256211
 11
316.5065617548412
 21
292.0781242256211
 72
     4
 94
        3
 73
     0
 74
     0
 95
       15
 96
       11
 40
0.0
 40
0.0
 40
0.0
 40
0.0
 40
0.1539705029175028
 40
0.2241725832587281
 40
0.3038566179396687
 40
0.3581410872474193
 40
0.443992538467216
 40
0.4954152125469665
 40
0.5836396705646186
 40
0.6130478420065743
 40
0.6130478420065743
 40
0.6130478420065743
 40
0.6130478420065743
 10
316.5065617548413
 20
292.0781242256211
 10
316.5643900899005
 20
292.0783891102635
 10
316.6485849649586
 20
292.0787747677332
 10
316.6946257213231
 20
291.9746254638037
 10
316.6739880590896
 20
291.9075695591663
 10
316.6480448356655
 20
291.8387240449184
 10
316.6021972841231
 20
291.7919424796492
 10
316.5406631545281
 20
291.7468839460122
 10
316.4825104614723
 20
291.7414294087527
 10
316.4446886624997
 20
291.7314079152985
 10
316.4352332082304
 20
291.7289025407357
 72
     1
 10
316.4352332082304
 20
291.7289025407357
 11
315.9425769593864
 21
291.7289025407358
 97
        4
330
EBA
330
EBC
330
EBB
330
EBD
 75
     0
 76
     1
 47
0.0514683685270805
 98
        2
 10
315.4720564537109
 20
291.9477323799455
 10
315.4720564537109
 20
291.9477323799455
450
        0
451
        0
460
0.0
461
0.0
452
        0
462
0.0
453
        0
470

  0
LINE
  5
EF4
102
{ACAD_REACTORS
330
EF7
102
}
330
18
100
AcDbEntity
  8
ROGO
 62
     4
100
AcDbLine
 10
321.3695411030478
 20
292.5859211368344
 30
0.0
 11
321.952892113431
 21
291.272776206277
 31
0.0
  0
LINE
  5
EF5
102
{ACAD_REACTORS
330
EF7
102
}
330
18
100
AcDbEntity
  8
ROGO
 62
     4
100
AcDbLine
 10
320.7932654769081
 20
292.2349121598827
 30
0.0
 11
320.9924728626335
 21
291.7864888880638
 31
0.0
  0
LINE
  5
EF6
102
{ACAD_REACTORS
330
EF7
102
}
330
18
100
AcDbEntity
  8
ROGO
 62
     4
100
AcDbLine
 10
321.109617968234
 20
291.5227908763678
 30
0.0
 11
321.2206843913029
 21
291.272776206277
 31
0.0
  0
HATCH
  5
EF7
330
18
100
AcDbEntity
  8
ROGO
 62
     4
100
AcDbHatch
 10
0.0
 20
0.0
 30
0.0
210
0.0
220
0.0
230
1.0
  2
SOLID
 70
     1
 71
     1
 91
        2
 92
        7
 72
     0
 73
     1
 93
        8
 10
321.3695411030477
 20
292.5859211368345
 10
320.3191376202763
 20
292.5859211368344
 10
319.3722032901773
 20
291.272776206277
 10
320.0994505418688
 20
291.272776206277
 10
320.2797409794497
 20
291.5227908763678
 10
321.109617968234
 20
291.5227908763678
 10
321.220684391303
 20
291.272776206277
 10
321.9528921134311
 20
291.272776206277
 97
        8
330
ED0
330
ECA
330
ECF
330
ECE
330
ECC
330
EF6
330
ED1
330
EF4
 92
       22
 72
     0
 73
     1
 93
        3
 10
320.9924728626335
 20
291.7864888880639
 10
320.4698987405948
 20
291.7864888880639
 10
320.7932654769079
 20
292.2349121598827
 97
        3
330
ECD
330
ECB
330
EF5
 75
     0
 76
     1
 47
0.0128389261915577
 98
        2
 10
321.287286210552
 20
292.2708792200254
 10
321.287286210552
 20
292.2708792200254
450
        0
451
        0
460
0.0
461
0.0
452
        0
462
0.0
453
        0
470

  0
SPLINE
  5
EF8
102
{ACAD_REACTORS
330
EFF
102
}
330
18
100
AcDbEntity
  8
ROGO
 62
     4
100
AcDbSpline
210
0.0
220
0.0
230
1.0
 70
     8
 71
     3
 72
    38
 73
    34
 74
    32
 42
0.0000000001
 43
0.0000000001
 44
0.0000000001
 40
0.0
 40
0.0
 40
0.0
 40
0.0
 40
0.1807680148264315
 40
0.2375392910068956
 40
0.3104865209606157
 40
0.3712759982447458
 40
0.422566754387306
 40
0.490692583720658
 40
0.5255021974951946
 40
0.5647069597052371
 40
0.622487401681883
 40
0.6879401044674746
 40
0.7303986317551266
 40
0.7765228362185534
 40
0.8277951442290254
 40
0.9056034697002209
 40
0.9795294930264187
 40
1.013897332332996
 40
1.053089255536027
 40
1.099518741889647
 40
1.132570569820733
 40
1.160277520290299
 40
1.19983678629386
 40
1.243305643169139
 40
1.286774258016964
 40
1.324809356515675
 40
1.411916492917645
 40
1.446284332224223
 40
1.5150200516612
 40
1.575779369908399
 40
1.69209852953623
 40
1.835624328519098
 40
2.042896467983898
 40
2.042896467983898
 40
2.042896467983898
 40
2.042896467983898
 10
324.8275423364935
 20
292.5913983560068
 30
0.0
 10
324.7672869388678
 20
292.5871417369059
 30
0.0
 10
324.6881079732467
 20
292.5815483011187
 30
0.0
 10
324.5875692007371
 20
292.5540036749138
 30
0.0
 10
324.532764446296
 20
292.5211891554559
 30
0.0
 10
324.475729144979
 20
292.4970689107553
 30
0.0
 10
324.4271012385938
 20
292.4613516115061
 30
0.0
 10
324.3779151378981
 20
292.4429468313127
 30
0.0
 10
324.3434735245222
 20
292.4097597229401
 30
0.0
 10
324.3036101663893
 20
292.3894876047651
 30
0.0
 10
324.271866266554
 20
292.3441127107507
 30
0.0
 10
324.2363855900223
 20
292.3016888290923
 30
0.0
 10
324.195223541615
 20
292.2707212875148
 30
0.0
 10
324.1614412960558
 20
292.2381963085525
 30
0.0
 10
324.1304507831312
 20
292.1880004933685
 30
0.0
 10
324.1121092105603
 20
292.121305118683
 30
0.0
 10
324.060407396151
 20
292.0791960643978
 30
0.0
 10
324.0526227216678
 20
292.0285684167217
 30
0.0
 10
324.0240248714721
 20
291.9986989565309
 30
0.0
 10
324.0115895260162
 20
291.9601417745461
 30
0.0
 10
324.0068535478924
 20
291.9248165852252
 30
0.0
 10
324.00116924485
 20
291.891825303797
 30
0.0
 10
323.9863001846174
 20
291.8571199330592
 30
0.0
 10
323.9911534971789
 20
291.8142496541242
 30
0.0
 10
323.9897709341367
 20
291.7727369400976
 30
0.0
 10
323.99058457411
 20
291.7166934834862
 30
0.0
 10
323.987648034764
 20
291.6621282865667
 30
0.0
 10
324.011065785279
 20
291.6027484103983
 30
0.0
 10
324.0249236328818
 20
291.5498194657318
 30
0.0
 10
324.0628756028254
 20
291.4765329234803
 30
0.0
 10
324.1283419556434
 20
291.3919760997714
 30
0.0
 10
324.2528317016608
 20
291.2893401364785
 30
0.0
 10
324.3725322322201
 20
291.2789281957612
 30
0.0
 10
324.4432583749504
 20
291.272776206277
 30
0.0
 11
324.8275423364935
 21
292.5913983560068
 31
0.0
 11
324.6480856995462
 21
292.5696638065554
 31
0.0
 11
324.593704913418
 21
292.5533632575081
 31
0.0
 11
324.52844822641
 21
292.5207616753584
 31
0.0
 11
324.4740674402819
 21
292.4935938515854
 31
0.0
 11
324.4305629822766
 21
292.4664257857849
 31
0.0
 11
324.3707442457085
 21
292.4338244456627
 31
0.0
 11
324.3435536390228
 21
292.4120901382389
 31
0.0
 11
324.3109250818974
 21
292.3903555887875
 31
0.0
 11
324.272858574332
 21
292.3468869739396
 31
0.0
 11
324.2293541163267
 21
292.2979848427427
 31
0.0
 11
324.1967255592011
 21
292.2708167769422
 31
0.0
 11
324.1640974293186
 21
292.23821543682
 31
0.0
 11
324.136906822633
 21
292.1947468219722
 31
0.0
 11
324.1042786927506
 21
292.1241101413239
 31
0.0
 11
324.0607738075022
 21
292.0643407354013
 31
0.0
 11
324.0498979066225
 21
292.0317391532517
 31
0.0
 11
324.0281456776198
 21
291.9991378131294
 31
0.0
 11
324.011831399057
 21
291.9556689562542
 31
0.0
 11
324.006393021374
 21
291.923067616132
 31
0.0
 11
324.0009550709341
 21
291.8958995503316
 31
0.0
 11
323.9900791700543
 21
291.8578646938603
 31
0.0
 11
323.9900791700543
 21
291.814395836985
 31
0.0
 11
323.9900791700543
 21
291.7709272221372
 31
0.0
 11
323.9900791700543
 21
291.7328921236385
 31
0.0
 11
323.9955171204943
 21
291.6459548939428
 31
0.0
 11
324.006393021374
 21
291.6133533117932
 31
0.0
 11
324.0281456776198
 21
291.5481503895214
 31
0.0
 11
324.0553358570624
 21
291.4938144999479
 31
0.0
 11
324.1260309217532
 21
291.4014437539031
 31
0.0
 11
324.2402304444496
 21
291.31450628218
 31
0.0
 11
324.4432583749504
 21
291.272776206277
 31
0.0
  0
SPLINE
  5
EF9
102
{ACAD_REACTORS
330
EFF
102
}
330
18
100
AcDbEntity
  8
ROGO
 62
     4
100
AcDbSpline
210
0.0
220
0.0
230
1.0
 70
     8
 71
     3
 72
    25
 73
    21
 74
     0
 42
0.0000000001
 43
0.0000000001
 40
0.0
 40
0.0
 40
0.0
 40
0.0
 40
0.4087168505087288
 40
0.6887487002771746
 40
0.9415836120477687
 40
1.17452070575514
 40
1.41154617586699
 40
1.599156012919487
 40
1.80099909059943
 40
2.178735911501585
 40
2.521686161369157
 40
2.762704659361267
 40
3.06256558063785
 40
3.222432137207705
 40
3.399493810628493
 40
3.567459719866414
 40
3.743172740007509
 40
3.995988754699505
 40
4.17170091132118
 40
4.337226830236035
 40
4.337226830236035
 40
4.337226830236035
 40
4.337226830236035
 10
325.5779961596788
 20
292.5913983560068
 30
0.0
 10
325.6272162101044
 20
292.5898169665506
 30
0.0
 10
325.7101593178229
 20
292.5871520900447
 30
0.0
 10
325.799208976444
 20
292.5175494006691
 30
0.0
 10
325.8673471972034
 20
292.4598434383542
 30
0.0
 10
325.915712552064
 20
292.39007963202
 30
0.0
 10
325.9581061407065
 20
292.3259355283428
 30
0.0
 10
325.9860403014756
 20
292.2582141136767
 30
0.0
 10
326.0240362791504
 20
292.1769546181399
 30
0.0
 10
326.0397647367976
 20
292.0682414857088
 30
0.0
 10
326.029138293461
 20
291.9558764326633
 30
0.0
 10
326.0014082379635
 20
291.8562751489598
 30
0.0
 10
325.9723216392635
 20
291.7798633838156
 30
0.0
 10
325.9380396203461
 20
291.7133422018251
 30
0.0
 10
325.897171073042
 20
291.670269731326
 30
0.0
 10
325.868818117503
 20
291.6155035049785
 30
0.0
 10
325.8143557167858
 20
291.5707076721051
 30
0.0
 10
325.7702055569791
 20
291.5154359016511
 30
0.0
 10
325.7201043203394
 20
291.4679955533125
 30
0.0
 10
325.6918570210355
 20
291.4387254300907
 30
0.0
 10
325.6769643636418
 20
291.4264186861451
 30
0.0
  0
LINE
  5
EFA
102
{ACAD_REACTORS
330
EFF
102
}
330
18
100
AcDbEntity
  8
ROGO
 62
     4
100
AcDbLine
 10
324.8275423364935
 20
292.5913983560068
 30
0.0
 11
325.5779961596788
 21
292.5913983560068
 31
0.0
  0
LINE
  5
EFB
102
{ACAD_REACTORS
330
EFF
102
}
330
18
100
AcDbEntity
  8
ROGO
 62
     4
100
AcDbLine
 10
324.4432583749504
 20
291.272776206277
 30
0.0
 11
325.1937121981357
 21
291.272776206277
 31
0.0
  0
SPLINE
  5
EFC
102
{ACAD_REACTORS
330
EFF
102
}
330
18
100
AcDbEntity
  8
ROGO
 62
     4
100
AcDbSpline
210
0.0
220
0.0
230
1.0
 70
     8
 71
     3
 72
    11
 73
     7
 74
     0
 42
0.0000000001
 43
0.0000000001
 40
0.1647869275458134
 40
0.1647869275458134
 40
0.1647869275458134
 40
0.1647869275458134
 40
0.2895635144633836
 40
0.5387013147903714
 40
0.7953622617455423
 40
0.8850764140209602
 40
0.8850764140209602
 40
0.8850764140209602
 40
0.8850764140209602
 10
325.4437296567537
 20
291.3020526531856
 30
0.0
 10
325.4297511139529
 20
291.2981617204691
 30
0.0
 10
325.3864101025186
 20
291.2912341306851
 30
0.0
 10
325.3137113353806
 20
291.2817217363118
 30
0.0
 10
325.2446147932842
 20
291.2717952057272
 30
0.0
 10
325.2041840984556
 20
291.272574390634
 30
0.0
 10
325.1937121981357
 20
291.272776206277
 30
0.0
  0
SPLINE
  5
EFD
102
{ACAD_REACTORS
330
EFF
102
}
330
18
100
AcDbEntity
  8
ROGO
 62
     4
100
AcDbSpline
210
0.0
220
0.0
230
1.0
 70
     8
 71
     3
 72
     9
 73
     5
 74
     3
 42
0.0000000001
 43
0.0000000001
 44
0.0000000001
 40
0.0
 40
0.0
 40
0.0
 40
0.0
 40
0.1135793343552172
 40
0.2662938392177403
 40
0.2662938392177403
 40
0.2662938392177403
 40
0.2662938392177403
 10
325.4437296567537
 20
291.3020526531856
 30
0.0
 10
325.4802146250717
 20
291.3132149929088
 30
0.0
 10
325.5657559107492
 20
291.3393857951627
 30
0.0
 10
325.6364326079859
 20
291.3946981129372
 30
0.0
 10
325.6769643636418
 20
291.4264186861451
 30
0.0
 11
325.4437296567537
 21
291.3020526531856
 31
0.0
 11
325.5504804209784
 21
291.3408410474553
 31
0.0
 11
325.6769643636418
 21
291.4264186861451
 31
0.0
  0
ELLIPSE
  5
EFE
102
{ACAD_REACTORS
330
EFF
102
}
330
18
100
AcDbEntity
  8
ROGO
 62
     4
100
AcDbEllipse
 10
325.0000007311242
 20
291.9137023637878
 30
0.0
 11
0.1782847090673272
 21
0.1567790921840611
 31
0.0
210
0.0
220
0.0
230
0.9999999999999998
 40
0.6788083417438792
 41
0.0
 42
6.283185307179586
  0
HATCH
  5
EFF
330
18
100
AcDbEntity
  8
ROGO
 62
     4
100
AcDbHatch
 10
0.0
 20
0.0
 30
0.0
210
0.0
220
0.0
230
1.0
  2
SOLID
 70
     1
 71
     1
 91
        2
 92
        5
 93
        6
 72
     4
 94
        3
 73
     0
 74
     0
 95
       38
 96
       34
 40
0.0
 40
0.0
 40
0.0
 40
0.0
 40
0.1807680148264315
 40
0.2375392910068956
 40
0.3104865209606157
 40
0.3712759982447458
 40
0.422566754387306
 40
0.490692583720658
 40
0.5255021974951946
 40
0.5647069597052371
 40
0.622487401681883
 40
0.6879401044674746
 40
0.7303986317551266
 40
0.7765228362185534
 40
0.8277951442290254
 40
0.9056034697002209
 40
0.9795294930264187
 40
1.013897332332996
 40
1.053089255536027
 40
1.099518741889647
 40
1.132570569820733
 40
1.160277520290299
 40
1.19983678629386
 40
1.243305643169139
 40
1.286774258016964
 40
1.324809356515675
 40
1.411916492917645
 40
1.446284332224223
 40
1.5150200516612
 40
1.575779369908399
 40
1.69209852953623
 40
1.835624328519098
 40
2.042896467983898
 40
2.042896467983898
 40
2.042896467983898
 40
2.042896467983898
 10
324.8275423364935
 20
292.5913983560068
 10
324.7672869388678
 20
292.5871417369059
 10
324.6881079732467
 20
292.5815483011187
 10
324.5875692007371
 20
292.5540036749138
 10
324.532764446296
 20
292.5211891554559
 10
324.475729144979
 20
292.4970689107553
 10
324.4271012385938
 20
292.4613516115061
 10
324.3779151378981
 20
292.4429468313127
 10
324.3434735245222
 20
292.4097597229401
 10
324.3036101663893
 20
292.3894876047651
 10
324.271866266554
 20
292.3441127107507
 10
324.2363855900223
 20
292.3016888290923
 10
324.195223541615
 20
292.2707212875148
 10
324.1614412960558
 20
292.2381963085525
 10
324.1304507831312
 20
292.1880004933685
 10
324.1121092105603
 20
292.121305118683
 10
324.060407396151
 20
292.0791960643978
 10
324.0526227216678
 20
292.0285684167217
 10
324.0240248714721
 20
291.9986989565309
 10
324.0115895260162
 20
291.9601417745461
 10
324.0068535478924
 20
291.9248165852252
 10
324.00116924485
 20
291.891825303797
 10
323.9863001846174
 20
291.8571199330592
 10
323.9911534971789
 20
291.8142496541242
 10
323.9897709341367
 20
291.7727369400976
 10
323.99058457411
 20
291.7166934834862
 10
323.987648034764
 20
291.6621282865667
 10
324.011065785279
 20
291.6027484103983
 10
324.0249236328818
 20
291.5498194657318
 10
324.0628756028254
 20
291.4765329234803
 10
324.1283419556434
 20
291.3919760997714
 10
324.2528317016608
 20
291.2893401364785
 10
324.3725322322201
 20
291.2789281957612
 10
324.4432583749504
 20
291.272776206277
 72
     1
 10
324.4432583749504
 20
291.272776206277
 11
325.1937121981356
 21
291.272776206277
 72
     4
 94
        3
 73
     0
 74
     0
 95
       11
 96
        7
 40
0.1647869275458135
 40
0.1647869275458135
 40
0.1647869275458135
 40
0.1647869275458135
 40
0.2545010798212315
 40
0.5111620267764023
 40
0.7602998271033902
 40
0.8850764140209603
 40
0.8850764140209603
 40
0.8850764140209603
 40
0.8850764140209603
 10
325.1937121981357
 20
291.272776206277
 10
325.2041840984556
 20
291.272574390634
 10
325.2446147932842
 20
291.2717952057272
 10
325.3137113353806
 20
291.2817217363118
 10
325.3864101025186
 20
291.2912341306851
 10
325.4297511139529
 20
291.2981617204691
 10
325.4437296567537
 20
291.3020526531856
 72
     4
 94
        3
 73
     0
 74
     0
 95
        9
 96
        5
 40
0.0
 40
0.0
 40
0.0
 40
0.0
 40
0.1135793343552172
 40
0.2662938392177403
 40
0.2662938392177403
 40
0.2662938392177403
 40
0.2662938392177403
 10
325.4437296567537
 20
291.3020526531856
 10
325.4802146250717
 20
291.3132149929088
 10
325.5657559107492
 20
291.3393857951627
 10
325.6364326079859
 20
291.3946981129372
 10
325.6769643636418
 20
291.4264186861451
 72
     4
 94
        3
 73
     0
 74
     0
 95
       25
 96
       21
 40
0.0
 40
0.0
 40
0.0
 40
0.0
 40
0.165525918914855
 40
0.3412380755365305
 40
0.5940540902285263
 40
0.7697671103696209
 40
0.9377330196075423
 40
1.11479469302833
 40
1.274661249598185
 40
1.574522170874768
 40
1.815540668866877
 40
2.15849091873445
 40
2.536227739636605
 40
2.738070817316548
 40
2.925680654369045
 40
3.162706124480894
 40
3.395643218188267
 40
3.648478129958861
 40
3.928509979727306
 40
4.337226830236035
 40
4.337226830236035
 40
4.337226830236035
 40
4.337226830236035
 10
325.6769643636418
 20
291.4264186861451
 10
325.6918570210355
 20
291.4387254300907
 10
325.7201043203394
 20
291.4679955533125
 10
325.7702055569791
 20
291.5154359016511
 10
325.8143557167858
 20
291.5707076721051
 10
325.868818117503
 20
291.6155035049785
 10
325.897171073042
 20
291.670269731326
 10
325.9380396203461
 20
291.7133422018251
 10
325.9723216392635
 20
291.7798633838156
 10
326.0014082379635
 20
291.8562751489598
 10
326.029138293461
 20
291.9558764326633
 10
326.0397647367976
 20
292.0682414857088
 10
326.0240362791504
 20
292.1769546181399
 10
325.9860403014756
 20
292.2582141136767
 10
325.9581061407065
 20
292.3259355283428
 10
325.915712552064
 20
292.39007963202
 10
325.8673471972034
 20
292.4598434383542
 10
325.799208976444
 20
292.5175494006691
 10
325.7101593178229
 20
292.5871520900447
 10
325.6272162101044
 20
292.5898169665506
 10
325.5779961596788
 20
292.5913983560068
 72
     1
 10
325.5779961596788
 20
292.5913983560068
 11
324.8275423364936
 21
292.5913983560068
 97
        6
330
EF9
330
EFA
330
EF8
330
EFB
330
EFC
330
EFD
 92
       20
 93
        1
 72
     3
 10
325.0000007311242
 20
291.9137023637878
 11
0.1782847090673272
 21
0.1567790921840611
 40
0.678808341743879
 50
0.0
 51
360.0
 73
     1
 97
        1
330
EFE
 75
     0
 76
     1
 47
0.088756267210375
 98
        2
 10
325.0524320068929
 20
292.2271896341118
 10
325.0524320068929
 20
292.2271896341118
450
        0
451
        0
460
0.0
461
0.0
452
        0
462
0.0
453
        0
470

  0
DIMENSION
  5
F30
330
18
100
AcDbEntity
  8
寸法線
100
AcDbDimension
  2
*D3
 10
345.1308140152458
 20
330.8760199569714
 30
0.0
 11
322.1308140152458
 21
332.7510199569715
 31
0.0
 70
    32
  1
%%c<>
 71
     5
 42
46.0
  3
STYLE4
100
AcDbAlignedDimension
 13
299.1308140152458
 23
283.2209544957279
 33
0.0
 14
345.1308140152458
 24
283.2209544957279
 34
0.0
100
AcDbRotatedDimension
  0
ARC
  5
F7B
330
18
100
AcDbEntity
  8
外形線
100
AcDbCircle
 10
429.7647004043691
 20
283.2209544957279
 30
0.0
 40
8.0
100
AcDbArc
 50
270.0
 51
90.0
  0
CIRCLE
  5
F7C
330
18
100
AcDbEntity
  8
外形線
100
AcDbCircle
 10
429.7647004043691
 20
283.2209544957279
 30
0.0
 40
3.25
  0
ARC
  5
F7D
330
18
100
AcDbEntity
  8
外形線
100
AcDbCircle
 10
429.7647004043691
 20
283.2209544957279
 30
0.0
 40
7.5
100
AcDbArc
 50
270.0
 51
90.0
  0
LINE
  5
F7E
330
18
100
AcDbEntity
  8
外形線
100
AcDbLine
 10
429.7647004043691
 20
291.220954495728
 30
0.0
 11
419.9334855050819
 21
291.220954495728
 31
0.0
  0
LINE
  5
F7F
330
18
100
AcDbEntity
  8
外形線
100
AcDbLine
 10
429.7647004043691
 20
275.2209544957279
 30
0.0
 11
419.9334855050819
 21
275.2209544957279
 31
0.0
  0
LINE
  5
F8E
330
18
100
AcDbEntity
  8
外形線
100
AcDbLine
 10
416.264700404369
 20
306.3209544957279
 30
0.0
 11
416.4647004043691
 21
306.3209544957278
 31
0.0
  0
LINE
  5
F8F
330
18
100
AcDbEntity
  8
外形線
100
AcDbLine
 10
416.264700404369
 20
260.1209544957279
 30
0.0
 11
416.4647004043691
 21
260.1209544957279
 31
0.0
  0
ARC
  5
F90
330
18
100
AcDbEntity
  8
外形線
100
AcDbCircle
 10
429.7647004043691
 20
283.2209544957279
 30
0.0
 40
8.0
100
AcDbArc
 50
270.0
 51
90.0
  0
LINE
  5
F96
330
18
100
AcDbEntity
  8
外形線
100
AcDbLine
 10
429.7647004043691
 20
290.7209544957279
 30
0.0
 11
418.764700404369
 21
290.7209544957279
 31
0.0
  0
LINE
  5
F97
330
18
100
AcDbEntity
  8
外形線
100
AcDbLine
 10
429.7647004043691
 20
275.7209544957279
 30
0.0
 11
418.764700404369
 21
275.7209544957279
 31
0.0
  0
LINE
  5
F9A
330
18
100
AcDbEntity
  8
中心線
 48
0.5
100
AcDbLine
 10
429.764700404369
 20
295.1559227513056
 30
0.0
 11
429.7647004043692
 21
249.1757219860735
 31
0.0
  0
MTEXT
  5
F9C
330
18
100
AcDbEntity
  8
外形線
 62
     6
100
AcDbMText
 10
435.6784882512366
 20
299.8860482684093
 30
0.0
 40
2.5
 41
0.0
 71
     4
 72
     1
  1
\A1;φ6.5
  7
STYLE3
 73
     1
 44
1.0
  0
INSERT
  5
F9D
330
18
100
AcDbEntity
  8
外形線
 62
     2
100
AcDbBlockReference
  2
_OPEN
 10
431.4945654464645
 20
286.1882330556019
 30
0.0
 41
2.5
 42
2.5
 43
2.5
 50
253.2351141983459
  0
LWPOLYLINE
  5
F9E
330
18
100
AcDbEntity
  8
外形線
 62
     2
100
AcDbPolyline
 90
        3
 70
     0
 43
0.0
 10
432.2156780500389
 20
288.5819741888421
 10
436.0469180538786
 20
298.2362446829037
 10
445.5832210309302
 20
298.2362446829037
  0
LINE
  5
FA4
330
18
100
AcDbEntity
  8
想像線
 48
0.5
100
AcDbLine
 10
425.2647004043691
 20
275.2209544957279
 30
0.0
 11
425.2647004043691
 21
291.220954495728
 31
0.0
  0
LINE
  5
FA5
330
18
100
AcDbEntity
  8
想像線
 48
0.5
100
AcDbLine
 10
420.264700404369
 20
275.219368752275
 30
0.0
 11
420.264700404369
 21
291.2225402391808
 31
0.0
  0
DIMENSION
  5
FB4
330
18
100
AcDbEntity
  8
想像線
100
AcDbDimension
  2
*D4
 10
425.2647004043691
 20
298.2362446829037
 30
0.0
 11
422.7647004043689
 21
300.1112446829038
 31
0.0
 70
    32
 71
     5
 42
5.000000000000056
  3
STYLE2
100
AcDbAlignedDimension
 13
420.264700404369
 23
291.2225402391808
 33
0.0
 14
425.2647004043691
 24
291.220954495728
 34
0.0
100
AcDbRotatedDimension
  0
LINE
  5
FD6
330
18
100
AcDbEntity
  8
0
  6
ByBlock
 62
     2
100
AcDbLine
 10
412.2647004043691
 20
250.4257219860735
 30
0.0
 11
427.264700404369
 21
250.4257219860735
 31
0.0
  0
INSERT
  5
FD7
330
18
100
AcDbEntity
  8
0
  6
ByBlock
 62
     2
100
AcDbBlockReference
  2
_OPEN
 10
409.7647004043691
 20
250.4257219860735
 30
0.0
 41
2.5
 42
2.5
 43
2.5
 50
180.0
  0
INSERT
  5
FD8
330
18
100
AcDbEntity
  8
0
  6
ByBlock
 62
     2
100
AcDbBlockReference
  2
_OPEN
 10
429.7647004043691
 20
250.4257219860735
 30
0.0
 41
2.5
 42
2.5
 43
2.5
  0
MTEXT
  5
FD9
330
18
100
AcDbEntity
  8
0
  6
ByBlock
 62
     6
100
AcDbMText
 10
419.7647004043691
 20
252.3007219860735
 30
0.0
 40
2.5
 41
0.0
 71
     5
 72
     1
  1
\A1;20
  7
STYLE3
 73
     1
 44
1.0
  0
POINT
  5
FDC
330
18
100
AcDbEntity
  8
DEFPOINTS
  6
ByBlock
 62
     0
100
AcDbPoint
 10
429.7647004043691
 20
250.4257219860735
 30
0.0
  0
LINE
  5
FDD
330
18
100
AcDbEntity
  8
0
  6
ByBlock
 62
     2
100
AcDbLine
 10
418.764700404369
 20
290.7209544957279
 30
0.0
 11
418.764700404369
 21
262.1865089803741
 31
0.0
  0
LINE
  5
FDF
330
18
100
AcDbEntity
  8
0
  6
ByBlock
 62
     2
100
AcDbLine
 10
421.2647004043691
 20
263.4365089803741
 30
0.0
 11
427.264700404369
 21
263.4365089803741
 31
0.0
  0
INSERT
  5
FE0
330
18
100
AcDbEntity
  8
0
  6
ByBlock
 62
     2
100
AcDbBlockReference
  2
_OPEN
 10
418.764700404369
 20
263.4365089803741
 30
0.0
 41
2.5
 42
2.5
 43
2.5
 50
180.0
  0
INSERT
  5
FE1
330
18
100
AcDbEntity
  8
0
  6
ByBlock
 62
     2
100
AcDbBlockReference
  2
_OPEN
 10
429.7647004043691
 20
263.4365089803741
 30
0.0
 41
2.5
 42
2.5
 43
2.5
  0
MTEXT
  5
FE2
330
18
100
AcDbEntity
  8
0
  6
ByBlock
 62
     6
100
AcDbMText
 10
424.264700404369
 20
265.3115089803741
 30
0.0
 40
2.5
 41
0.0
 71
     5
 72
     1
  1
\A1;11
  7
STYLE3
 73
     1
 44
1.0
  0
POINT
  5
FE3
330
18
100
AcDbEntity
  8
DEFPOINTS
  6
ByBlock
 62
     0
100
AcDbPoint
 10
418.764700404369
 20
290.7209544957279
 30
0.0
  0
ARC
  5
1008
330
18
100
AcDbEntity
  8
外形線
100
AcDbCircle
 10
269.1397004043658
 20
283.2209544957279
 30
0.0
 40
149.1250000000032
100
AcDbArc
 50
351.0887943333476
 51
356.2059438278885
  0
ARC
  5
100B
330
18
100
AcDbEntity
  8
外形線
100
AcDbCircle
 10
269.1397004043658
 20
283.2209544957279
 30
0.0
 40
149.1250000000032
100
AcDbArc
 50
3.794056172111559
 51
8.911205666652444
  0
ARC
  5
100C
330
18
100
AcDbEntity
  8
外形線
100
AcDbCircle
 10
419.9334855050819
 20
293.2209544957279
 30
0.0
 40
2.0
100
AcDbArc
 50
183.7940561721114
 51
270.0
  0
ARC
  5
100D
330
18
100
AcDbEntity
  8
外形線
100
AcDbCircle
 10
419.9334855050819
 20
273.2209544957279
 30
0.0
 40
2.0
100
AcDbArc
 50
90.0
 51
176.2059438278884
  0
ARC
  5
100F
330
18
100
AcDbEntity
  8
外形線
100
AcDbCircle
 10
269.1397004043647
 20
283.2209544957279
 30
0.0
 40
149.1250000000042
100
AcDbArc
 50
356.2059438278885
 51
3.794056172111511
  0
TEXT
  5
10AC
330
18
100
AcDbEntity
  8
文字
100
AcDbText
 10
315.8526575138619
 20
288.6176298315831
 30
0.0
 40
1.0
  1
MADE  IN  JAPAN
  7
STYLE3
100
AcDbText
  0
TEXT
  5
10AD
330
18
100
AcDbEntity
  8
文字
100
AcDbText
 10
319.4776913816767
 20
286.5229477172961
 30
0.0
 40
1.0
  1
NO.17
  7
STYLE3
100
AcDbText
  0
TEXT
  5
10B0
330
18
100
AcDbEntity
  8
文字
100
AcDbText
 10
316.9279003904062
 20
269.1853007864654
 30
0.0
 40
1.0
  1
S
 50
339.5483790017691
  7
STYLE3
100
AcDbText
  0
TEXT
  5
10B1
330
18
100
AcDbEntity
  8
文字
100
AcDbText
 10
317.7792654750232
 20
268.9412755170177
 30
0.0
 40
1.0
  1
H
 50
341.1382006151093
  7
STYLE3
100
AcDbText
  0
TEXT
  5
10B2
330
18
100
AcDbEntity
  8
文字
100
AcDbText
 10
318.710664160778
 20
268.7147031030843
 30
0.0
 40
1.0
  1
O
 50
341.3093091461099
  7
STYLE3
100
AcDbText
  0
TEXT
  5
10B3
330
18
100
AcDbEntity
  8
文字
100
AcDbText
 10
319.7320821274451
 20
268.5280284632697
 30
0.0
 40
1.0
  1
C
 50
345.2355867804538
  7
STYLE3
100
AcDbText
  0
TEXT
  5
10B4
330
18
100
AcDbEntity
  8
文字
100
AcDbText
 10
320.7545154067858
 20
268.3311129944959
 30
0.0
 40
1.0
  1
K
 50
350.6937655764816
  7
STYLE3
100
AcDbText
  0
TEXT
  5
10B5
330
18
100
AcDbEntity
  8
文字
100
AcDbText
 10
322.4219983148319
 20
268.2919763717557
 30
0.0
 40
1.0
  1
P
 50
2.788911802626474
  7
STYLE3
100
AcDbText
  0
TEXT
  5
10B6
330
18
100
AcDbEntity
  8
文字
100
AcDbText
 10
323.4135219181589
 20
268.4151498087861
 30
0.0
 40
1.0
  1
R
 50
5.610365723542154
  7
STYLE3
100
AcDbText
  0
TEXT
  5
10B7
330
18
100
AcDbEntity
  8
文字
100
AcDbText
 10
324.4473377688915
 20
268.5420757974525
 30
0.0
 40
1.0
  1
O
 50
7.2861564411579
  7
STYLE3
100
AcDbText
  0
TEXT
  5
10B8
330
18
100
AcDbEntity
  8
文字
100
AcDbText
 10
325.540119865846
 20
268.7482552388169
 30
0.0
 40
1.0
  1
O
 50
7.197936770610262
  7
STYLE3
100
AcDbText
  0
TEXT
  5
10B9
330
18
100
AcDbEntity
  8
文字
100
AcDbText
 10
326.6558150850329
 20
268.9197234033138
 30
0.0
 40
1.0
  1
F
 50
14.83992826650595
  7
STYLE3
100
AcDbText
  0
LINE
  5
10CA
330
18
100
AcDbEntity
  8
0
  6
ByBlock
 62
     2
100
AcDbLine
 10
416.264700404369
 20
307.720954495728
 30
0.0
 11
416.264700404369
 21
332.0314083867773
 31
0.0
  0
LINE
  5
10CB
330
18
100
AcDbEntity
  8
0
  6
ByBlock
 62
     2
100
AcDbLine
 10
412.264700404369
 20
330.7814083867773
 30
0.0
 11
413.764700404369
 21
330.7814083867773
 31
0.0
  0
INSERT
  5
10CC
330
18
100
AcDbEntity
  8
0
  6
ByBlock
 62
     2
100
AcDbBlockReference
  2
_OPEN
 10
409.764700404369
 20
330.7814083867773
 30
0.0
 41
2.5
 42
2.5
 43
2.5
 50
180.0
  0
INSERT
  5
10CD
330
18
100
AcDbEntity
  8
0
  6
ByBlock
 62
     2
100
AcDbBlockReference
  2
_OPEN
 10
416.264700404369
 20
330.7814083867773
 30
0.0
 41
2.5
 42
2.5
 43
2.5
  0
MTEXT
  5
10CE
330
18
100
AcDbEntity
  8
0
  6
ByBlock
 62
     6
100
AcDbMText
 10
413.014700404369
 20
332.6564083867773
 30
0.0
 40
2.5
 41
0.0
 71
     5
 72
     1
  1
\A1;6.5
  7
STYLE3
 73
     1
 44
1.0
  0
POINT
  5
10CF
330
18
100
AcDbEntity
  8
DEFPOINTS
  6
ByBlock
 62
     0
100
AcDbPoint
 10
409.764700404369
 20
307.720954495728
 30
0.0
  0
POINT
  5
10D0
330
18
100
AcDbEntity
  8
DEFPOINTS
  6
ByBlock
 62
     0
100
AcDbPoint
 10
416.264700404369
 20
307.720954495728
 30
0.0
  0
POINT
  5
10D1
330
18
100
AcDbEntity
  8
DEFPOINTS
  6
ByBlock
 62
     0
100
AcDbPoint
 10
416.264700404369
 20
330.7814083867773
 30
0.0
  0
LINE
  5
10D2
330
18
100
AcDbEntity
  8
0
  6
ByBlock
 62
     2
100
AcDbLine
 10
395.264700404369
 20
283.2209544957279
 30
0.0
 11
395.264700404369
 21
332.0314083867773
 31
0.0
  0
LINE
  5
10D4
330
18
100
AcDbEntity
  8
0
  6
ByBlock
 62
     2
100
AcDbLine
 10
397.764700404369
 20
330.7814083867773
 30
0.0
 11
407.264700404369
 21
330.7814083867773
 31
0.0
  0
INSERT
  5
10D5
330
18
100
AcDbEntity
  8
0
  6
ByBlock
 62
     2
100
AcDbBlockReference
  2
_OPEN
 10
395.264700404369
 20
330.7814083867773
 30
0.0
 41
2.5
 42
2.5
 43
2.5
 50
180.0
  0
INSERT
  5
10D6
330
18
100
AcDbEntity
  8
0
  6
ByBlock
 62
     2
100
AcDbBlockReference
  2
_OPEN
 10
409.764700404369
 20
330.7814083867773
 30
0.0
 41
2.5
 42
2.5
 43
2.5
  0
MTEXT
  5
10D7
330
18
100
AcDbEntity
  8
0
  6
ByBlock
 62
     6
100
AcDbMText
 10
402.514700404369
 20
332.6564083867773
 30
0.0
 40
2.5
 41
0.0
 71
     5
 72
     1
  1
\A1;14.5
  7
STYLE3
 73
     1
 44
1.0
  0
POINT
  5
10D8
330
18
100
AcDbEntity
  8
DEFPOINTS
  6
ByBlock
 62
     0
100
AcDbPoint
 10
395.264700404369
 20
283.2209544957279
 30
0.0
  0
POINT
  5
10D9
330
18
100
AcDbEntity
  8
DEFPOINTS
  6
ByBlock
 62
     0
100
AcDbPoint
 10
409.764700404369
 20
324.7209544957279
 30
0.0
  0
POINT
  5
10DA
330
18
100
AcDbEntity
  8
DEFPOINTS
  6
ByBlock
 62
     0
100
AcDbPoint
 10
409.764700404369
 20
330.7814083867773
 30
0.0
  0
CIRCLE
  5
111B
330
18
100
AcDbEntity
  8
針
100
AcDbCircle
 10
322.1308140152457
 20
283.2209544957279
 30
0.0
 40
1.9
  0
LINE
  5
1121
330
18
100
AcDbEntity
  8
針
100
AcDbLine
 10
309.272349994305
 20
301.0722290446831
 30
0.0
 11
320.7948010990941
 21
286.0805994890576
 31
0.0
  0
ARC
  5
1122
330
18
100
AcDbEntity
  8
針
100
AcDbCircle
 10
323.221852082219
 20
287.843955245935
 30
0.0
 40
3.0
100
AcDbArc
 50
216.0
 51
245.4722791770396
  0
LINE
  5
1124
330
18
100
AcDbEntity
  8
針
100
AcDbLine
 10
309.1995384648113
 20
301.0193283719769
 30
0.0
 11
309.272349994305
 21
301.0722290446831
 31
0.0
  0
ARC
  5
1126
330
18
100
AcDbEntity
  8
針
100
AcDbCircle
 10
317.3969297227192
 20
283.6119014294292
 30
0.0
 40
3.0
100
AcDbArc
 50
6.527720822960354
 51
36.00000000000001
  0
LINE
  5
1127
330
18
100
AcDbEntity
  8
針
100
AcDbLine
 10
309.1267269353176
 20
300.9664276992705
 30
0.0
 11
319.823980705844
 21
285.3752571863065
 31
0.0
  0
LINE
  5
1128
330
18
100
AcDbEntity
  8
針
100
AcDbLine
 10
309.1995384648112
 20
301.0193283719768
 30
0.0
 11
309.1267269353176
 21
300.9664276992705
 31
0.0
  0
CIRCLE
  5
1129
330
18
100
AcDbEntity
  8
針
100
AcDbCircle
 10
322.1308140152457
 20
283.2209544957279
 30
0.0
 40
0.475
  0
CIRCLE
  5
112B
330
18
100
AcDbEntity
  8
針
100
AcDbCircle
 10
322.1308140152457
 20
283.2209544957279
 30
0.0
 40
1.5
  0
HATCH
  5
1137
330
18
100
AcDbEntity
  8
針
100
AcDbHatch
 10
0.0
 20
0.0
 30
0.0
210
0.0
220
0.0
230
1.0
  2
SOLID
 70
     1
 71
     0
 91
        2
 92
        7
 72
     1
 73
     1
 93
        5
 10
309.272349994305
 20
301.0722290446831
 42
0.0
 10
309.1995384648113
 20
301.0193283719769
 42
0.0
 10
309.1267269353176
 20
300.9664276992705
 42
0.0
 10
312.8067276415129
 20
295.6028531100427
 42
-0.0085634322047721
 10
313.2362298004991
 20
295.9149046944163
 42
0.0
 97
        0
 92
        7
 72
     1
 73
     1
 93
        6
 10
313.2362298004991
 20
295.9149046944163
 42
0.0085634322047721
 10
312.8067276415129
 20
295.6028531100427
 42
0.0
 10
319.8239807058443
 20
285.3752571863061
 42
-0.1293106770632391
 10
320.3774806310786
 20
283.9529531596372
 42
-0.2805221108582334
 10
321.9764517285281
 20
285.1146736629857
 42
-0.1293106770632486
 10
320.7948010990943
 20
286.0805994890573
 42
0.0
 97
        0
 75
     0
 76
     1
 47
0.0423559757596284
 98
        2
 10
312.6193843137927
 20
296.2433048812819
 10
315.3114705396474
 20
292.7543139927741
450
        0
451
        0
460
0.0
461
0.0
452
        0
462
0.0
453
        0
470

  0
CIRCLE
  5
11EF
330
18
100
AcDbEntity
  8
針
100
AcDbCircle
 10
322.1308140152458
 20
283.2209544957279
 30
0.0
 40
0.0000000000000568
  0
LINE
  5
128B
330
18
100
AcDbEntity
  8
目盛
100
AcDbLine
 10
316.4109466104544
 20
305.4983672016866
 30
0.0
 11
316.8337194186345
 21
303.8517758277678
 31
0.0
  0
LINE
  5
128C
330
18
100
AcDbEntity
  8
目盛
100
AcDbLine
 10
315.023423144622
 20
305.0952543705164
 30
0.0
 11
315.8577690294344
 21
302.5274017765195
 31
0.0
  0
LINE
  5
128D
330
18
100
AcDbEntity
  8
目盛
100
AcDbLine
 10
320.6866320660718
 20
306.1755692495781
 30
0.0
 11
320.7933759492715
 21
304.4789238112501
 31
0.0
  0
LINE
  5
128E
330
18
100
AcDbEntity
  8
目盛
100
AcDbLine
 10
319.2481496432669
 20
306.039592625961
 30
0.0
 11
319.4612161403262
 21
304.3529976337264
 31
0.0
  0
LINE
  5
128F
330
18
100
AcDbEntity
  8
目盛
100
AcDbLine
 10
317.8210437797743
 20
305.8135612624878
 30
0.0
 11
318.13959201457
 21
304.1436729362491
 31
0.0
  0
LINE
  5
1290
330
18
100
AcDbEntity
  8
目盛
100
AcDbLine
 10
309.806797730729
 20
302.6404967822744
 30
0.0
 11
310.7177032821933
 21
301.2051393089209
 31
0.0
  0
LINE
  5
1291
330
18
100
AcDbEntity
  8
目盛
100
AcDbLine
 10
308.6117532125189
 20
301.8283453663517
 30
0.0
 11
310.1987733937086
 21
299.6439994815394
 31
0.0
  0
LINE
  5
1292
330
18
100
AcDbEntity
  8
目盛
100
AcDbLine
 10
313.6639493034983
 20
304.6058136711577
 30
0.0
 11
314.2897610430623
 21
303.0251936451478
 31
0.0
  0
LINE
  5
1293
330
18
100
AcDbEntity
  8
目盛
100
AcDbLine
 10
312.3378903092492
 20
304.0319767024464
 30
0.0
 11
313.0617151049098
 21
302.4937707132543
 31
0.0
  0
LINE
  5
1294
330
18
100
AcDbEntity
  8
目盛
100
AcDbLine
 10
311.0504795109065
 20
303.376008136737
 30
0.0
 11
311.8694607568794
 21
301.8862867806624
 31
0.0
  0
LINE
  5
1295
330
18
100
AcDbEntity
  8
目盛
100
AcDbLine
 10
304.4090094314027
 20
297.881706259948
 30
0.0
 11
305.7188819441216
 21
296.7980854773752
 31
0.0
  0
LINE
  5
1296
330
18
100
AcDbEntity
  8
目盛
100
AcDbLine
 10
303.523423144622
 20
296.7400152984548
 30
0.0
 11
305.7077690294343
 21
295.1529951172652
 31
0.0
  0
LINE
  5
1297
330
18
100
AcDbEntity
  8
目盛
100
AcDbLine
 10
307.470062251026
 20
300.9427590795711
 30
0.0
 11
308.5536830335988
 21
299.6328865668523
 31
0.0
  0
LINE
  5
1298
330
18
100
AcDbEntity
  8
目盛
100
AcDbLine
 10
306.3862305788861
 20
299.9872329264205
 30
0.0
 11
307.5499606589648
 21
298.7479862598041
 31
0.0
  0
LINE
  5
1299
330
18
100
AcDbEntity
  8
目盛
100
AcDbLine
 10
305.3645355845534
 20
298.9655379320879
 30
0.0
 11
306.6037822511698
 21
297.8018078520091
 31
0.0
  0
LINE
  5
129A
330
18
100
AcDbEntity
  8
目盛
100
AcDbLine
 10
300.7459548398161
 20
291.6878192074758
 30
0.0
 11
302.3265748658261
 21
291.0620074679117
 31
0.0
  0
LINE
  5
129B
330
18
100
AcDbEntity
  8
目盛
100
AcDbLine
 10
300.2565141404573
 20
290.3283453663517
 30
0.0
 11
302.8243667344542
 21
289.4939994815394
 31
0.0
  0
LINE
  5
129C
330
18
100
AcDbEntity
  8
目盛
100
AcDbLine
 10
302.7112717286996
 20
295.544970780245
 30
0.0
 11
304.146629202053
 21
294.6340652287807
 31
0.0
  0
LINE
  5
129D
330
18
100
AcDbEntity
  8
目盛
100
AcDbLine
 10
301.975760374237
 20
294.3012890000675
 30
0.0
 11
303.4654817303115
 21
293.4823077540946
 31
0.0
  0
LINE
  5
129E
330
18
100
AcDbEntity
  8
目盛
100
AcDbLine
 10
301.3197918085274
 20
293.0138782017248
 30
0.0
 11
302.8579977977196
 21
292.2900534060641
 31
0.0
  0
LINE
  5
129F
330
18
100
AcDbEntity
  8
目盛
100
AcDbLine
 10
299.1761992613956
 20
284.6651364449024
 30
0.0
 11
300.8728446997237
 21
284.5583925617025
 31
0.0
  0
LINE
  5
12A0
330
18
100
AcDbEntity
  8
目盛
100
AcDbLine
 10
299.1308140152458
 20
283.2209544957279
 30
0.0
 11
301.8308140152458
 21
283.2209544957279
 31
0.0
  0
LINE
  5
12A1
330
18
100
AcDbEntity
  8
目盛
100
AcDbLine
 10
299.8534013092874
 20
288.9408219005197
 30
0.0
 11
301.499992683206
 21
288.5180490923395
 31
0.0
  0
LINE
  5
12A2
330
18
100
AcDbEntity
  8
目盛
100
AcDbLine
 10
299.538207248486
 20
287.5307247311997
 30
0.0
 11
301.2080955747248
 21
287.212176496404
 31
0.0
  0
LINE
  5
12A3
330
18
100
AcDbEntity
  8
目盛
100
AcDbLine
 10
299.3121758850128
 20
286.1036188677072
 30
0.0
 11
300.9987708772475
 21
285.8905523706478
 31
0.0
  0
LINE
  5
12A4
330
18
100
AcDbEntity
  8
目盛
100
AcDbLine
 10
299.8534013092872
 20
277.5010870909365
 30
0.0
 11
301.4999926832059
 21
277.9238598991167
 31
0.0
  0
LINE
  5
12A5
330
18
100
AcDbEntity
  8
目盛
100
AcDbLine
 10
300.2565141404572
 20
276.1135636251041
 30
0.0
 11
302.8243667344542
 21
276.9479095099165
 31
0.0
  0
LINE
  5
12A6
330
18
100
AcDbEntity
  8
目盛
100
AcDbLine
 10
299.1761992613955
 20
281.7767725465539
 30
0.0
 11
300.8728446997235
 21
281.8835164297537
 31
0.0
  0
LINE
  5
12A7
330
18
100
AcDbEntity
  8
目盛
100
AcDbLine
 10
299.3121758850128
 20
280.338290123749
 30
0.0
 11
300.9987708772474
 21
280.5513566208084
 31
0.0
  0
LINE
  5
12A8
330
18
100
AcDbEntity
  8
目盛
100
AcDbLine
 10
299.5382072484858
 20
278.9111842602565
 30
0.0
 11
301.2080955747247
 21
279.2297324950522
 31
0.0
  0
LINE
  5
12A9
330
18
100
AcDbEntity
  8
目盛
100
AcDbLine
 10
302.7112717286993
 20
270.8969382112112
 30
0.0
 11
304.1466292020528
 21
271.8078437626755
 31
0.0
  0
LINE
  5
12AA
330
18
100
AcDbEntity
  8
目盛
100
AcDbLine
 10
303.523423144622
 20
269.7018936930011
 30
0.0
 11
305.7077690294344
 21
271.2889138741907
 31
0.0
  0
LINE
  5
12AB
330
18
100
AcDbEntity
  8
目盛
100
AcDbLine
 10
300.745954839816
 20
274.7540897839805
 30
0.0
 11
302.3265748658261
 21
275.3799015235444
 31
0.0
  0
LINE
  5
12AC
330
18
100
AcDbEntity
  8
目盛
100
AcDbLine
 10
301.3197918085274
 20
273.4280307897314
 30
0.0
 11
302.8579977977195
 21
274.151855585392
 31
0.0
  0
LINE
  5
12AD
330
18
100
AcDbEntity
  8
目盛
100
AcDbLine
 10
301.9757603742368
 20
272.1406199913887
 30
0.0
 11
303.4654817303114
 21
272.9596012373615
 31
0.0
  0
LINE
  5
12AE
330
18
100
AcDbEntity
  8
目盛
100
AcDbLine
 10
307.4700622510257
 20
265.499149911885
 30
0.0
 11
308.5536830335986
 21
266.8090224246038
 31
0.0
  0
LINE
  5
12AF
330
18
100
AcDbEntity
  8
目盛
100
AcDbLine
 10
308.6117532125189
 20
264.6135636251041
 30
0.0
 11
310.1987733937085
 21
266.7979095099165
 31
0.0
  0
LINE
  5
12B0
330
18
100
AcDbEntity
  8
目盛
100
AcDbLine
 10
304.4090094314025
 20
268.5602027315082
 30
0.0
 11
305.7188819441214
 21
269.643823514081
 31
0.0
  0
LINE
  5
12B1
330
18
100
AcDbEntity
  8
目盛
100
AcDbLine
 10
305.3645355845532
 20
267.4763710593682
 30
0.0
 11
306.6037822511696
 21
268.640101139447
 31
0.0
  0
LINE
  5
12B2
330
18
100
AcDbEntity
  8
目盛
100
AcDbLine
 10
306.3862305788857
 20
266.4546760650356
 30
0.0
 11
307.5499606589645
 21
267.693922731652
 31
0.0
  0
LINE
  5
12B3
330
18
100
AcDbEntity
  8
目盛
100
AcDbLine
 10
313.6639493034979
 20
261.8360953202982
 30
0.0
 11
314.2897610430619
 21
263.4167153463082
 31
0.0
  0
LINE
  5
12B4
330
18
100
AcDbEntity
  8
目盛
100
AcDbLine
 10
315.023423144622
 20
261.3466546209394
 30
0.0
 11
315.8577690294344
 21
263.9145072149363
 31
0.0
  0
LINE
  5
12B5
330
18
100
AcDbEntity
  8
目盛
100
AcDbLine
 10
309.8067977307288
 20
263.8014122091817
 30
0.0
 11
310.7177032821931
 21
265.2367696825351
 31
0.0
  0
LINE
  5
12B6
330
18
100
AcDbEntity
  8
目盛
100
AcDbLine
 10
311.0504795109063
 20
263.0659008547191
 30
0.0
 11
311.8694607568791
 21
264.5556222107937
 31
0.0
  0
LINE
  5
12B7
330
18
100
AcDbEntity
  8
目盛
100
AcDbLine
 10
312.3378903092489
 20
262.4099322890096
 30
0.0
 11
313.0617151049096
 21
263.9481382782018
 31
0.0
  0
LINE
  5
12B8
330
18
100
AcDbEntity
  8
目盛
100
AcDbLine
 10
320.6866320660714
 20
260.2663397418778
 30
0.0
 11
320.7933759492713
 21
261.9629851802058
 31
0.0
  0
LINE
  5
12B9
330
18
100
AcDbEntity
  8
目盛
100
AcDbLine
 10
322.1308140152459
 20
260.220954495728
 30
0.0
 11
322.1308140152459
 21
262.920954495728
 31
0.0
  0
LINE
  5
12BA
330
18
100
AcDbEntity
  8
目盛
100
AcDbLine
 10
316.4109466104541
 20
260.9435417897695
 30
0.0
 11
316.8337194186343
 21
262.5901331636882
 31
0.0
  0
LINE
  5
12BB
330
18
100
AcDbEntity
  8
目盛
100
AcDbLine
 10
317.8210437797741
 20
260.6283477289682
 30
0.0
 11
318.1395920145698
 21
262.2982360552069
 31
0.0
  0
LINE
  5
12BC
330
18
100
AcDbEntity
  8
目盛
100
AcDbLine
 10
319.2481496432666
 20
260.402316365495
 30
0.0
 11
319.461216140326
 21
262.0889113577296
 31
0.0
  0
LINE
  5
12BD
330
18
100
AcDbEntity
  8
目盛
100
AcDbLine
 10
327.8506814200373
 20
260.9435417897694
 30
0.0
 11
327.4279086118571
 21
262.590133163688
 31
0.0
  0
LINE
  5
12BE
330
18
100
AcDbEntity
  8
目盛
100
AcDbLine
 10
329.2382048858697
 20
261.3466546209394
 30
0.0
 11
328.4038590010573
 21
263.9145072149363
 31
0.0
  0
LINE
  5
12BF
330
18
100
AcDbEntity
  8
目盛
100
AcDbLine
 10
323.5749959644199
 20
260.2663397418778
 30
0.0
 11
323.4682520812201
 21
261.9629851802058
 31
0.0
  0
LINE
  5
12C0
330
18
100
AcDbEntity
  8
目盛
100
AcDbLine
 10
325.0134783872247
 20
260.402316365495
 30
0.0
 11
324.8004118901654
 21
262.0889113577296
 31
0.0
  0
LINE
  5
12C1
330
18
100
AcDbEntity
  8
目盛
100
AcDbLine
 10
326.4405842507173
 20
260.6283477289681
 30
0.0
 11
326.1220360159216
 21
262.2982360552069
 31
0.0
  0
LINE
  5
12C2
330
18
100
AcDbEntity
  8
目盛
100
AcDbLine
 10
334.4548302997625
 20
263.8014122091814
 30
0.0
 11
333.5439247482983
 21
265.2367696825348
 31
0.0
  0
LINE
  5
12C3
330
18
100
AcDbEntity
  8
目盛
100
AcDbLine
 10
335.6498748179727
 20
264.6135636251041
 30
0.0
 11
334.062854636783
 21
266.7979095099164
 31
0.0
  0
LINE
  5
12C4
330
18
100
AcDbEntity
  8
目盛
100
AcDbLine
 10
330.5976787269933
 20
261.8360953202981
 30
0.0
 11
329.9718669874293
 21
263.4167153463081
 31
0.0
  0
LINE
  5
12C5
330
18
100
AcDbEntity
  8
目盛
100
AcDbLine
 10
331.9237377212423
 20
262.4099322890094
 30
0.0
 11
331.1999129255817
 21
263.9481382782015
 31
0.0
  0
LINE
  5
12C6
330
18
100
AcDbEntity
  8
目盛
100
AcDbLine
 10
333.2111485195851
 20
263.0659008547188
 30
0.0
 11
332.3921672736121
 21
264.5556222107934
 31
0.0
  0
LINE
  5
12C7
330
18
100
AcDbEntity
  8
目盛
100
AcDbLine
 10
339.8526185990888
 20
268.560202731508
 30
0.0
 11
338.54274608637
 21
269.6438235140807
 31
0.0
  0
LINE
  5
12C8
330
18
100
AcDbEntity
  8
目盛
100
AcDbLine
 10
340.7382048858695
 20
269.7018936930011
 30
0.0
 11
338.5538590010572
 21
271.2889138741907
 31
0.0
  0
LINE
  5
12C9
330
18
100
AcDbEntity
  8
目盛
100
AcDbLine
 10
336.7915657794655
 20
265.4991499118847
 30
0.0
 11
335.7079449968928
 21
266.8090224246035
 31
0.0
  0
LINE
  5
12CA
330
18
100
AcDbEntity
  8
目盛
100
AcDbLine
 10
337.8753974516055
 20
266.4546760650354
 30
0.0
 11
336.7116673715268
 21
267.6939227316518
 31
0.0
  0
LINE
  5
12CB
330
18
100
AcDbEntity
  8
目盛
100
AcDbLine
 10
338.8970924459381
 20
267.4763710593679
 30
0.0
 11
337.6578457793217
 21
268.6401011394468
 31
0.0
  0
LINE
  5
12CC
330
18
100
AcDbEntity
  8
目盛
100
AcDbLine
 10
343.5156731906754
 20
274.7540897839801
 30
0.0
 11
341.9350531646655
 21
275.3799015235442
 31
0.0
  0
LINE
  5
12CD
330
18
100
AcDbEntity
  8
目盛
100
AcDbLine
 10
344.0051138900343
 20
276.1135636251042
 30
0.0
 11
341.4372612960374
 21
276.9479095099165
 31
0.0
  0
LINE
  5
12CE
330
18
100
AcDbEntity
  8
目盛
100
AcDbLine
 10
341.550356301792
 20
270.8969382112109
 30
0.0
 11
340.1149988284386
 21
271.8078437626752
 31
0.0
  0
LINE
  5
12CF
330
18
100
AcDbEntity
  8
目盛
100
AcDbLine
 10
342.2858676562545
 20
272.1406199913884
 30
0.0
 11
340.79614630018
 21
272.9596012373613
 31
0.0
  0
LINE
  5
12D0
330
18
100
AcDbEntity
  8
目盛
100
AcDbLine
 10
342.9418362219641
 20
273.4280307897311
 30
0.0
 11
341.4036302327719
 21
274.1518555853918
 31
0.0
  0
LINE
  5
12D1
330
18
100
AcDbEntity
  8
目盛
100
AcDbLine
 10
345.085428769096
 20
281.7767725465535
 30
0.0
 11
343.388783330768
 21
281.8835164297534
 31
0.0
  0
LINE
  5
12D2
330
18
100
AcDbEntity
  8
目盛
100
AcDbLine
 10
345.1308140152458
 20
283.2209544957279
 30
0.0
 11
342.4308140152458
 21
283.2209544957279
 31
0.0
  0
LINE
  5
12D3
330
18
100
AcDbEntity
  8
目盛
100
AcDbLine
 10
344.4082267212043
 20
277.5010870909361
 30
0.0
 11
342.7616353472856
 21
277.9238598991164
 31
0.0
  0
LINE
  5
12D4
330
18
100
AcDbEntity
  8
目盛
100
AcDbLine
 10
344.7234207820056
 20
278.9111842602562
 30
0.0
 11
343.0535324557669
 21
279.2297324950518
 31
0.0
  0
LINE
  5
12D5
330
18
100
AcDbEntity
  8
目盛
100
AcDbLine
 10
344.9494521454788
 20
280.3382901237487
 30
0.0
 11
343.2628571532442
 21
280.5513566208081
 31
0.0
  0
LINE
  5
12D6
330
18
100
AcDbEntity
  8
目盛
100
AcDbLine
 10
344.4082267212045
 20
288.9408219005194
 30
0.0
 11
342.7616353472857
 21
288.5180490923392
 31
0.0
  0
LINE
  5
12D7
330
18
100
AcDbEntity
  8
目盛
100
AcDbLine
 10
344.0051138900344
 20
290.3283453663517
 30
0.0
 11
341.4372612960374
 21
289.4939994815394
 31
0.0
  0
LINE
  5
12D8
330
18
100
AcDbEntity
  8
目盛
100
AcDbLine
 10
345.085428769096
 20
284.665136444902
 30
0.0
 11
343.388783330768
 21
284.5583925617022
 31
0.0
  0
LINE
  5
12D9
330
18
100
AcDbEntity
  8
目盛
100
AcDbLine
 10
344.9494521454788
 20
286.1036188677068
 30
0.0
 11
343.2628571532443
 21
285.8905523706474
 31
0.0
  0
LINE
  5
12DA
330
18
100
AcDbEntity
  8
目盛
100
AcDbLine
 10
344.7234207820057
 20
287.5307247311994
 30
0.0
 11
343.053532455767
 21
287.2121764964037
 31
0.0
  0
LINE
  5
12DB
330
18
100
AcDbEntity
  8
目盛
100
AcDbLine
 10
341.5503563017923
 20
295.5449707802446
 30
0.0
 11
340.1149988284388
 21
294.6340652287804
 31
0.0
  0
LINE
  5
12DC
330
18
100
AcDbEntity
  8
目盛
100
AcDbLine
 10
340.7382048858696
 20
296.7400152984548
 30
0.0
 11
338.5538590010572
 21
295.1529951172651
 31
0.0
  0
LINE
  5
12DD
330
18
100
AcDbEntity
  8
目盛
100
AcDbLine
 10
343.5156731906756
 20
291.6878192074754
 30
0.0
 11
341.9350531646656
 21
291.0620074679114
 31
0.0
  0
LINE
  5
12DE
330
18
100
AcDbEntity
  8
目盛
100
AcDbLine
 10
342.9418362219643
 20
293.0138782017245
 30
0.0
 11
341.403630232772
 21
292.2900534060639
 31
0.0
  0
LINE
  5
12DF
330
18
100
AcDbEntity
  8
目盛
100
AcDbLine
 10
342.2858676562548
 20
294.3012890000672
 30
0.0
 11
340.7961463001802
 21
293.4823077540943
 31
0.0
  0
LINE
  5
12E0
330
18
100
AcDbEntity
  8
目盛
100
AcDbLine
 10
336.7915657794659
 20
300.9427590795709
 30
0.0
 11
335.7079449968931
 21
299.6328865668521
 31
0.0
  0
LINE
  5
12E1
330
18
100
AcDbEntity
  8
目盛
100
AcDbLine
 10
335.6498748179727
 20
301.8283453663518
 30
0.0
 11
334.062854636783
 21
299.6439994815394
 31
0.0
  0
LINE
  5
12E2
330
18
100
AcDbEntity
  8
目盛
100
AcDbLine
 10
339.8526185990891
 20
297.8817062599477
 30
0.0
 11
338.5427460863702
 21
296.7980854773749
 31
0.0
  0
LINE
  5
12E3
330
18
100
AcDbEntity
  8
目盛
100
AcDbLine
 10
338.8970924459383
 20
298.9655379320877
 30
0.0
 11
337.657845779322
 21
297.8018078520089
 31
0.0
  0
LINE
  5
12E4
330
18
100
AcDbEntity
  8
目盛
100
AcDbLine
 10
337.8753974516058
 20
299.9872329264202
 30
0.0
 11
336.711667371527
 21
298.7479862598038
 31
0.0
  0
LINE
  5
12E5
330
18
100
AcDbEntity
  8
目盛
100
AcDbLine
 10
330.5976787269936
 20
304.6058136711577
 30
0.0
 11
329.9718669874295
 21
303.0251936451476
 31
0.0
  0
LINE
  5
12E6
330
18
100
AcDbEntity
  8
目盛
100
AcDbLine
 10
329.2382048858696
 20
305.0952543705164
 30
0.0
 11
328.4038590010573
 21
302.5274017765195
 31
0.0
  0
LINE
  5
12E7
330
18
100
AcDbEntity
  8
目盛
100
AcDbLine
 10
334.4548302997628
 20
302.6404967822741
 30
0.0
 11
333.5439247482985
 21
301.2051393089208
 31
0.0
  0
LINE
  5
12E8
330
18
100
AcDbEntity
  8
目盛
100
AcDbLine
 10
333.2111485195853
 20
303.3760081367367
 30
0.0
 11
332.3921672736124
 21
301.8862867806622
 31
0.0
  0
LINE
  5
12E9
330
18
100
AcDbEntity
  8
目盛
100
AcDbLine
 10
331.9237377212427
 20
304.0319767024463
 30
0.0
 11
331.199912925582
 21
302.4937707132541
 31
0.0
  0
MTEXT
  5
16E6
330
18
100
AcDbEntity
  8
DEFPOINTS
  6
Continuous
100
AcDbMText
 10
1403.462062241273
 20
297.4519553003923
 30
0.0
 40
1.0
 41
0.0
 71
     4
 72
     1
  1
\A1;
 73
     1
 44
1.0
  0
TEXT
  5
1731
330
18
100
AcDbEntity
  8
文字
100
AcDbText
 10
318.9830761357862
 20
274.0052645455612
 30
0.0
 40
1.0
  1
0.01mm
  7
STYLE3
100
AcDbText
  0
HATCH
  5
1733
330
18
100
AcDbEntity
  8
外形線
100
AcDbHatch
 10
0.0
 20
0.0
 30
0.0
210
0.0
220
0.0
230
1.0
  2
SOLID
 70
     1
 71
     1
 91
        2
 92
        1
 93
        7
 72
     1
 10
321.5573166101249
 20
276.470954495728
 11
320.3906499434582
 21
276.0463225557507
 72
     1
 10
320.3906499434582
 20
276.0463225557508
 11
320.3906499434582
 21
276.3813711623946
 72
     1
 10
320.3906499434582
 20
276.3813711623946
 11
319.3906499434582
 21
276.3813711623946
 72
     1
 10
319.3906499434582
 20
276.3813711623946
 11
319.3906499434582
 21
276.5605378290613
 72
     1
 10
319.3906499434582
 20
276.5605378290613
 11
320.3906499434582
 21
276.5605378290613
 72
     1
 10
320.3906499434582
 20
276.5605378290613
 11
320.3906499434582
 21
276.8955864357052
 72
     1
 10
320.3906499434582
 20
276.8955864357052
 11
321.5573166101249
 21
276.470954495728
 97
        7
330
1738
330
173B
330
173C
330
1737
330
1745
330
1744
330
1736
 92
        1
 93
        4
 72
     1
 10
321.5573166101249
 20
277.2209544957279
 11
321.5573166101249
 21
275.720954495728
 72
     1
 10
321.5573166101249
 20
275.720954495728
 11
321.7239832767914
 21
275.720954495728
 72
     1
 10
321.7239832767914
 20
275.720954495728
 11
321.7239832767914
 21
277.2209544957279
 72
     1
 10
321.7239832767914
 20
277.2209544957279
 11
321.5573166101249
 21
277.2209544957279
 97
        4
330
1735
330
173D
330
1734
330
1746
 75
     0
 76
     1
 98
        1
 10
413.8868733166051
 20
207.8088036885469
450
        0
451
        0
460
0.0
461
0.0
452
        0
462
0.0
453
        0
470

  0
LINE
  5
1734
102
{ACAD_REACTORS
330
1733
102
}
330
18
100
AcDbEntity
  8
外形線
100
AcDbLine
 10
321.7239832767914
 20
277.2209544957279
 30
0.0
 11
321.7239832767914
 21
275.720954495728
 31
0.0
  0
LINE
  5
1735
102
{ACAD_REACTORS
330
1733
102
}
330
18
100
AcDbEntity
  8
外形線
100
AcDbLine
 10
321.5573166101249
 20
277.2209544957279
 30
0.0
 11
321.5573166101249
 21
275.720954495728
 31
0.0
  0
LINE
  5
1736
102
{ACAD_REACTORS
330
1733
102
}
330
18
100
AcDbEntity
  8
外形線
100
AcDbLine
 10
321.5573166101249
 20
276.470954495728
 30
0.0
 11
320.3906499434582
 21
276.8955864357052
 31
0.0
  0
LINE
  5
1737
102
{ACAD_REACTORS
330
1733
102
}
330
18
100
AcDbEntity
  8
外形線
100
AcDbLine
 10
319.3906499434582
 20
276.5605378290613
 30
0.0
 11
319.3906499434582
 21
276.3813711623946
 31
0.0
  0
LINE
  5
1738
102
{ACAD_REACTORS
330
1733
102
}
330
18
100
AcDbEntity
  8
外形線
100
AcDbLine
 10
321.5573166101249
 20
276.470954495728
 30
0.0
 11
320.3906499434582
 21
276.0463225557507
 31
0.0
  0
POINT
  5
1739
330
18
100
AcDbEntity
  8
DEFPOINTS
  6
ByBlock
 62
     0
100
AcDbPoint
 10
320.3906499434582
 20
276.0463225557507
 30
0.0
  0
POINT
  5
173A
330
18
100
AcDbEntity
  8
DEFPOINTS
  6
ByBlock
 62
     0
100
AcDbPoint
 10
320.3906499434582
 20
276.0463225557507
 30
0.0
  0
LINE
  5
173B
102
{ACAD_REACTORS
330
1733
102
}
330
18
100
AcDbEntity
  8
外形線
100
AcDbLine
 10
320.3906499434582
 20
276.3813711623946
 30
0.0
 11
320.3906499434582
 21
276.0463225557508
 31
0.0
  0
LINE
  5
173C
102
{ACAD_REACTORS
330
1733
102
}
330
18
100
AcDbEntity
  8
外形線
100
AcDbLine
 10
319.3906499434582
 20
276.3813711623946
 30
0.0
 11
320.3906499434582
 21
276.3813711623946
 31
0.0
  0
LINE
  5
173D
102
{ACAD_REACTORS
330
1733
102
}
330
18
100
AcDbEntity
  8
外形線
100
AcDbLine
 10
321.7239832767914
 20
275.720954495728
 30
0.0
 11
321.5573166101249
 21
275.720954495728
 31
0.0
  0
POINT
  5
173E
330
18
100
AcDbEntity
  8
DEFPOINTS
  6
ByBlock
 62
     0
100
AcDbPoint
 10
321.5573166101249
 20
275.720954495728
 30
0.0
  0
POINT
  5
173F
330
18
100
AcDbEntity
  8
DEFPOINTS
  6
ByBlock
 62
     0
100
AcDbPoint
 10
321.7239832767914
 20
275.720954495728
 30
0.0
  0
POINT
  5
1740
330
18
100
AcDbEntity
  8
DEFPOINTS
  6
ByBlock
 62
     0
100
AcDbPoint
 10
321.5573166101249
 20
275.720954495728
 30
0.0
  0
POINT
  5
1741
330
18
100
AcDbEntity
  8
DEFPOINTS
  6
ByBlock
 62
     0
100
AcDbPoint
 10
321.7239832767914
 20
275.720954495728
 30
0.0
  0
POINT
  5
1742
330
18
100
AcDbEntity
  8
DEFPOINTS
  6
ByBlock
 62
     0
100
AcDbPoint
 10
320.3906499434582
 20
276.8955864357052
 30
0.0
  0
POINT
  5
1743
330
18
100
AcDbEntity
  8
DEFPOINTS
  6
ByBlock
 62
     0
100
AcDbPoint
 10
320.3906499434582
 20
276.8955864357052
 30
0.0
  0
LINE
  5
1744
102
{ACAD_REACTORS
330
1733
102
}
330
18
100
AcDbEntity
  8
外形線
100
AcDbLine
 10
320.3906499434582
 20
276.8955864357052
 30
0.0
 11
320.3906499434582
 21
276.5605378290613
 31
0.0
  0
LINE
  5
1745
102
{ACAD_REACTORS
330
1733
102
}
330
18
100
AcDbEntity
  8
外形線
100
AcDbLine
 10
319.3906499434582
 20
276.5605378290613
 30
0.0
 11
320.3906499434582
 21
276.5605378290613
 31
0.0
  0
LINE
  5
1746
102
{ACAD_REACTORS
330
1733
102
}
330
18
100
AcDbEntity
  8
外形線
100
AcDbLine
 10
321.7239832767914
 20
277.2209544957279
 30
0.0
 11
321.5573166101249
 21
277.2209544957279
 31
0.0
  0
HATCH
  5
1747
330
18
100
AcDbEntity
  8
外形線
100
AcDbHatch
 10
0.0
 20
0.0
 30
0.0
210
0.0
220
0.0
230
1.0
  2
SOLID
 70
     1
 71
     1
 91
        2
 92
        1
 93
        7
 72
     1
 10
322.7239832767915
 20
276.470954495728
 11
323.8906499434582
 21
276.0463225557507
 72
     1
 10
323.8906499434582
 20
276.0463225557508
 11
323.8906499434582
 21
276.3813711623946
 72
     1
 10
323.8906499434582
 20
276.3813711623946
 11
324.8906499434582
 21
276.3813711623946
 72
     1
 10
324.8906499434582
 20
276.3813711623946
 11
324.8906499434582
 21
276.5605378290613
 72
     1
 10
324.8906499434582
 20
276.5605378290613
 11
323.8906499434582
 21
276.5605378290613
 72
     1
 10
323.8906499434582
 20
276.5605378290613
 11
323.8906499434582
 21
276.8955864357052
 72
     1
 10
323.8906499434582
 20
276.8955864357052
 11
322.7239832767915
 21
276.470954495728
 97
        7
330
1754
330
174D
330
174C
330
1748
330
1756
330
1757
330
1749
 92
        1
 93
        4
 72
     1
 10
322.7239832767915
 20
277.2209544957279
 11
322.7239832767915
 21
275.720954495728
 72
     1
 10
322.7239832767915
 20
275.720954495728
 11
322.5573166101249
 21
275.720954495728
 72
     1
 10
322.5573166101249
 20
275.720954495728
 11
322.5573166101249
 21
277.2209544957279
 72
     1
 10
322.5573166101249
 20
277.2209544957279
 11
322.7239832767915
 21
277.2209544957279
 97
        4
330
174A
330
1755
330
174B
330
175A
 75
     0
 76
     1
 98
        1
 10
230.3944265703112
 20
207.8088036885469
450
        0
451
        0
460
0.0
461
0.0
452
        0
462
0.0
453
        0
470

  0
LINE
  5
1748
102
{ACAD_REACTORS
330
1747
102
}
330
18
100
AcDbEntity
  8
外形線
100
AcDbLine
 10
324.8906499434582
 20
276.5605378290613
 30
0.0
 11
324.8906499434582
 21
276.3813711623946
 31
0.0
  0
LINE
  5
1749
102
{ACAD_REACTORS
330
1747
102
}
330
18
100
AcDbEntity
  8
外形線
100
AcDbLine
 10
322.7239832767915
 20
276.470954495728
 30
0.0
 11
323.8906499434582
 21
276.8955864357052
 31
0.0
  0
LINE
  5
174A
102
{ACAD_REACTORS
330
1747
102
}
330
18
100
AcDbEntity
  8
外形線
100
AcDbLine
 10
322.7239832767915
 20
277.2209544957279
 30
0.0
 11
322.7239832767915
 21
275.720954495728
 31
0.0
  0
LINE
  5
174B
102
{ACAD_REACTORS
330
1747
102
}
330
18
100
AcDbEntity
  8
外形線
100
AcDbLine
 10
322.5573166101249
 20
277.2209544957279
 30
0.0
 11
322.5573166101249
 21
275.720954495728
 31
0.0
  0
LINE
  5
174C
102
{ACAD_REACTORS
330
1747
102
}
330
18
100
AcDbEntity
  8
外形線
100
AcDbLine
 10
324.8906499434582
 20
276.3813711623946
 30
0.0
 11
323.8906499434582
 21
276.3813711623946
 31
0.0
  0
LINE
  5
174D
102
{ACAD_REACTORS
330
1747
102
}
330
18
100
AcDbEntity
  8
外形線
100
AcDbLine
 10
323.8906499434582
 20
276.3813711623946
 30
0.0
 11
323.8906499434582
 21
276.0463225557508
 31
0.0
  0
POINT
  5
174E
330
18
100
AcDbEntity
  8
DEFPOINTS
  6
ByBlock
 62
     0
100
AcDbPoint
 10
322.5573166101249
 20
275.720954495728
 30
0.0
  0
POINT
  5
174F
330
18
100
AcDbEntity
  8
DEFPOINTS
  6
ByBlock
 62
     0
100
AcDbPoint
 10
322.7239832767915
 20
275.720954495728
 30
0.0
  0
POINT
  5
1750
330
18
100
AcDbEntity
  8
DEFPOINTS
  6
ByBlock
 62
     0
100
AcDbPoint
 10
322.5573166101249
 20
275.720954495728
 30
0.0
  0
POINT
  5
1751
330
18
100
AcDbEntity
  8
DEFPOINTS
  6
ByBlock
 62
     0
100
AcDbPoint
 10
323.8906499434582
 20
276.0463225557507
 30
0.0
  0
POINT
  5
1752
330
18
100
AcDbEntity
  8
DEFPOINTS
  6
ByBlock
 62
     0
100
AcDbPoint
 10
322.7239832767915
 20
275.720954495728
 30
0.0
  0
POINT
  5
1753
330
18
100
AcDbEntity
  8
DEFPOINTS
  6
ByBlock
 62
     0
100
AcDbPoint
 10
323.8906499434582
 20
276.0463225557507
 30
0.0
  0
LINE
  5
1754
102
{ACAD_REACTORS
330
1747
102
}
330
18
100
AcDbEntity
  8
外形線
100
AcDbLine
 10
322.7239832767915
 20
276.470954495728
 30
0.0
 11
323.8906499434582
 21
276.0463225557507
 31
0.0
  0
LINE
  5
1755
102
{ACAD_REACTORS
330
1747
102
}
330
18
100
AcDbEntity
  8
外形線
100
AcDbLine
 10
322.5573166101249
 20
275.720954495728
 30
0.0
 11
322.7239832767915
 21
275.720954495728
 31
0.0
  0
LINE
  5
1756
102
{ACAD_REACTORS
330
1747
102
}
330
18
100
AcDbEntity
  8
外形線
100
AcDbLine
 10
324.8906499434582
 20
276.5605378290613
 30
0.0
 11
323.8906499434582
 21
276.5605378290613
 31
0.0
  0
LINE
  5
1757
102
{ACAD_REACTORS
330
1747
102
}
330
18
100
AcDbEntity
  8
外形線
100
AcDbLine
 10
323.8906499434582
 20
276.8955864357052
 30
0.0
 11
323.8906499434582
 21
276.5605378290613
 31
0.0
  0
POINT
  5
1758
330
18
100
AcDbEntity
  8
DEFPOINTS
  6
ByBlock
 62
     0
100
AcDbPoint
 10
323.8906499434582
 20
276.8955864357052
 30
0.0
  0
POINT
  5
1759
330
18
100
AcDbEntity
  8
DEFPOINTS
  6
ByBlock
 62
     0
100
AcDbPoint
 10
323.8906499434582
 20
276.8955864357052
 30
0.0
  0
LINE
  5
175A
102
{ACAD_REACTORS
330
1747
102
}
330
18
100
AcDbEntity
  8
外形線
100
AcDbLine
 10
322.5573166101249
 20
277.2209544957279
 30
0.0
 11
322.7239832767915
 21
277.2209544957279
 31
0.0
  0
POINT
  5
1EA8
330
18
100
AcDbEntity
  8
DEFPOINTS
  6
ByBlock
 62
     0
100
AcDbPoint
 10
326.1308140152458
 20
247.8413375726847
 30
0.0
  0
DIMENSION
  5
1EA9
330
18
100
AcDbEntity
  8
寸法線
100
AcDbDimension
  2
*D6
 10
326.1308140152458
 20
249.4085160265202
 30
0.0
 11
336.8927187771506
 21
249.4085160265202
 31
0.0
 70
   160
  1
%%C<>
 71
     5
 42
8.0
  3
.0 type現尺
100
AcDbAlignedDimension
 13
318.1308140152458
 23
246.8184710028716
 33
0.0
 14
326.1308140152458
 24
246.9448143571963
 34
0.0
100
AcDbRotatedDimension
1001
ACAD
1000
DSTYLE
1002
{
1070
    76
1070
     1
1070
    75
1070
     1
1070
   146
1040
0.7
1070
   284
1070
     8
1070
   272
1070
     2
1070
   283
1070
     0
1070
    48
1040
0.03
1070
   147
1040
0.625
1070
    72
1070
     0
1070
    71
1070
     1
1002
}
  0
DIMENSION
  5
1EEB
330
18
100
AcDbEntity
  8
寸法線
100
AcDbDimension
  2
*D7
 10
324.1308140152458
 20
231.188752562172
 30
0.0
 11
331.7796235390553
 21
231.188752562172
 31
0.0
 70
   160
  1
%%C<>
 71
     5
 42
4.0
  3
STYLE2
100
AcDbAlignedDimension
 13
320.1308140152458
 23
231.188752562172
 33
0.0
 14
324.1308140152458
 24
231.188752562172
 34
0.0
100
AcDbRotatedDimension
  0
DIMENSION
  5
1F24
330
18
100
AcDbEntity
  8
寸法線
100
AcDbDimension
  2
*D8
 10
448.7896413231005
 20
258.7209544957279
 30
0.0
 11
446.9146413231005
 21
283.220954495728
 31
0.0
 70
    32
  1
%%C<>
 71
     5
 42
49.0
  3
STYLE2
100
AcDbAlignedDimension
 13
416.264700404369
 23
307.7209544957279
 33
0.0
 14
416.264700404369
 24
258.7209544957279
 34
0.0
 50
90.0
100
AcDbRotatedDimension
  0
ARC
  5
1F4C
330
18
100
AcDbEntity
  8
外形線
100
AcDbCircle
 10
322.1308140152458
 20
219.4209544957279
 30
0.0
 40
1.199999999999999
100
AcDbArc
 50
189.59406822686
 51
350.4059317731399
  0
ARC
  5
1F4D
330
18
100
AcDbEntity
  8
外形線
100
AcDbCircle
 10
409.7647004043692
 20
219.4209544957279
 30
0.0
 40
1.199999999999999
100
AcDbArc
 50
189.59406822686
 51
350.4059317731399
  0
TEXT
  5
1F7F
330
18
100
AcDbEntity
  8
文字
100
AcDbText
 10
323.9330149355634
 20
355.0385610002923
 30
0.0
 40
4.0
  1
Model No.17 Dial Gauge
  7
STYLE3
100
AcDbText
  0
LINE
  5
1F80
330
18
100
AcDbEntity
  8
外形線
100
AcDbLine
 10
322.7341299355634
 20
351.6555700002923
 30
0.0
 11
395.5598329355634
 21
351.6555700002923
 31
0.0
  0
LINE
  5
1F81
330
18
100
AcDbEntity
  8
外形線
100
AcDbLine
 10
322.7341299355634
 20
352.6555700002922
 30
0.0
 11
395.5598329355634
 21
352.6555700002922
 31
0.0
  0
LINE
  5
201B
330
18
100
AcDbEntity
  8
外形線
100
AcDbLine
 10
350.4335359355634
 20
192.6507450002922
 30
0.0
 11
491.2249539355634
 21
192.6507450002922
 31
0.0
  0
LINE
  5
201C
330
18
100
AcDbEntity
  8
外形線
100
AcDbLine
 10
350.4335359355634
 20
181.8705390002922
 30
0.0
 11
491.2249539355634
 21
181.8705390002922
 31
0.0
  0
TEXT
  5
201D
330
18
100
AcDbEntity
  8
0
  6
Continuous
100
AcDbText
 10
351.8910029355634
 20
183.7685290002922
 30
0.0
 40
2.1
  1
Design and specifications are subject to change without notice for future improvement.
  7
STYLE3
100
AcDbText
  0
TEXT
  5
201E
330
18
100
AcDbEntity
  8
0
  6
Continuous
100
AcDbText
 10
352.1824969355634
 20
187.6976770002922
 30
0.0
 40
3.5
  1
仕様及び外観は予告なく変更される場合がございますのでご了承下さい。
  7
STYLE3
100
AcDbText
  0
TEXT
  5
201F
330
18
100
AcDbEntity
  8
0
  6
Continuous
100
AcDbText
 10
351.5995119355634
 20
174.0039010002922
 30
0.0
 40
2.1
  1
3RD Angle Projection
  7
STYLE3
100
AcDbText
  0
TEXT
  5
2020
330
18
100
AcDbEntity
  8
0
  6
Continuous
100
AcDbText
 10
354.2229549355635
 20
177.5001840002922
 30
0.0
 40
3.0
  1
三　　角　　法
  7
STYLE3
100
AcDbText
  0
LINE
  5
2021
330
18
100
AcDbEntity
  8
外形線
100
AcDbLine
 10
350.4335359355634
 20
172.2557610002922
 30
0.0
 11
350.4335359355634
 21
192.6507450002922
 31
0.0
  0
LINE
  5
2022
330
18
100
AcDbEntity
  8
外形線
100
AcDbLine
 10
452.4563029355634
 20
181.8705390002922
 30
0.0
 11
452.4563029355634
 21
172.2557610002922
 31
0.0
  0
LINE
  5
2023
330
18
100
AcDbEntity
  8
外形線
100
AcDbLine
 10
422.7239529355633
 20
181.8705390002922
 30
0.0
 11
422.7239529355633
 21
172.2557610002922
 31
0.0
  0
LINE
  5
2024
330
18
100
AcDbEntity
  8
外形線
100
AcDbLine
 10
403.1938809355634
 20
181.8705390002922
 30
0.0
 11
403.1938809355634
 21
172.2557610002922
 31
0.0
  0
LINE
  5
2025
330
18
100
AcDbEntity
  8
外形線
100
AcDbLine
 10
385.7042639355634
 20
181.8705390002922
 30
0.0
 11
385.7042639355634
 21
172.2557610002922
 31
0.0
  0
TEXT
  5
2026
330
18
100
AcDbEntity
  8
0
  6
Continuous
100
AcDbText
 10
387.1617329355635
 20
177.5061390002922
 30
0.0
 40
3.0
  1
単位
  7
STYLE3
100
AcDbText
  0
TEXT
  5
2027
330
18
100
AcDbEntity
  8
0
  6
Continuous
100
AcDbText
 10
387.3334539355635
 20
174.0039020002922
 30
0.0
 40
2.1
  1
Unit
  7
STYLE3
100
AcDbText
  0
TEXT
  5
2028
330
18
100
AcDbEntity
  8
0
  6
Continuous
100
AcDbText
 10
404.4796289355634
 20
177.2147810002922
 30
0.0
 40
3.0
  1
尺 度
  7
STYLE3
100
AcDbText
  0
TEXT
  5
2029
330
18
100
AcDbEntity
  8
0
  6
Continuous
100
AcDbText
 10
395.2037809355634
 20
175.7520450002922
 30
0.0
 40
2.399999999999999
  1
mm
  7
STYLE3
100
AcDbText
  0
TEXT
  5
202A
330
18
100
AcDbEntity
  8
0
  6
Continuous
100
AcDbText
 10
404.9428439355634
 20
174.2952590002922
 30
0.0
 40
2.1
  1
Scale
  7
STYLE3
100
AcDbText
  0
TEXT
  5
202B
330
18
100
AcDbEntity
  8
0
  6
Continuous
100
AcDbText
 10
414.5621329355634
 20
176.0434020002922
 30
0.0
 40
2.399999999999999
  1
1/1
  7
STYLE3
100
AcDbText
  0
TEXT
  5
202C
330
18
100
AcDbEntity
  8
0
  6
Continuous
100
AcDbText
 10
424.6559039355634
 20
174.0039030002922
 30
0.0
 40
2.1
  1
Date
  7
STYLE3
100
AcDbText
  0
TEXT
  5
202D
330
18
100
AcDbEntity
  8
0
  6
Continuous
100
AcDbText
 10
424.2725429355634
 20
177.3369860002922
 30
0.0
 40
3.0
  1
日 付
  7
STYLE3
100
AcDbText
  0
TEXT
  5
202E
330
18
100
AcDbEntity
  8
0
  6
Continuous
100
AcDbText
 10
433.4007119355634
 20
175.7520440002922
 30
0.0
 40
2.1
  1
2010.06.07
  7
STYLE3
100
AcDbText
  0
TEXT
  5
202F
330
18
100
AcDbEntity
  8
0
  6
Continuous
100
AcDbText
 10
453.8052659355634
 20
177.7915410002922
 30
0.0
 40
3.0
  1
株式会社　尾崎製作所
  7
STYLE3
100
AcDbText
  0
TEXT
  5
2030
330
18
100
AcDbEntity
  8
0
  6
Continuous
100
AcDbText
 10
454.6797449355635
 20
174.0039020002922
 30
0.0
 40
2.1
  1
OZAKI MFG. CO., LTD.
  7
STYLE3
100
AcDbText
  0
ENDSEC
  0
SECTION
  2
OBJECTS
  0
DICTIONARY
  5
C
330
0
100
AcDbDictionary
281
     1
  3
ACAD_COLOR
350
187E
  3
ACAD_GROUP
350
D
  3
ACAD_IMAGE_DICT
350
E58
  3
ACAD_LAYOUT
350
1881
  3
ACAD_MATERIAL
350
187D
  3
ACAD_MLINESTYLE
350
1B
  3
ACAD_PLOTSETTINGS
350
1882
  3
ACAD_PLOTSTYLENAME
350
187B
  3
ACAD_TABLESTYLE
350
187F
  3
ACDBVARIABLEDICTIONARY
350
1025
  0
DICTIONARY
  5
187E
102
{ACAD_REACTORS
330
C
102
}
330
C
100
AcDbDictionary
281
     1
  0
DICTIONARY
  5
D
102
{ACAD_REACTORS
330
C
102
}
330
C
100
AcDbDictionary
281
     1
  0
DICTIONARY
  5
E58
102
{ACAD_REACTORS
330
C
102
}
330
C
100
AcDbDictionary
281
     1
  3
ROGO01
350
E59
  0
DICTIONARY
  5
1881
102
{ACAD_REACTORS
330
C
102
}
330
C
100
AcDbDictionary
281
     1
  3
Model
350
1883
  3
レイアウト1
350
1884
  0
DICTIONARY
  5
187D
102
{ACAD_REACTORS
330
C
102
}
330
C
100
AcDbDictionary
281
     1
  0
DICTIONARY
  5
1B
102
{ACAD_REACTORS
330
C
102
}
330
C
100
AcDbDictionary
281
     1
  3
STANDARD
350
1C
  0
DICTIONARY
  5
1882
102
{ACAD_REACTORS
330
C
102
}
330
C
100
AcDbDictionary
281
     1
  0
ACDBDICTIONARYWDFLT
  5
187B
102
{ACAD_REACTORS
330
C
102
}
330
C
100
AcDbDictionary
281
     1
  3
Normal
350
187C
100
AcDbDictionaryWithDefault
340
187C
  0
DICTIONARY
  5
187F
102
{ACAD_REACTORS
330
C
102
}
330
C
100
AcDbDictionary
281
     1
  3
Standard
350
1880
  0
DICTIONARY
  5
1025
102
{ACAD_REACTORS
330
C
102
}
330
C
100
AcDbDictionary
281
     1
  3
CTABLESTYLE
350
1F3D
  3
SORTENTS
350
1026
  0
IMAGEDEF
  5
E59
102
{ACAD_REACTORS
330
E58
102
}
330
E58
100
AcDbRasterImageDef
 90
        0
  1
D:\ﾃｽﾄ\rogo01.TIF
 10
3388.0
 20
4668.0
 11
0.0635
 21
0.0635
280
     1
281
     5
  0
LAYOUT
  5
1883
102
{ACAD_REACTORS
330
1881
102
}
330
1881
100
AcDbPlotSettings
  1

  2
WIDR Printer
  4

  6

 40
0.0
 41
0.0
 42
0.0
 43
0.0
 44
0.0
 45
0.0
 46
0.0
 47
0.0
 48
0.0
 49
0.0
140
0.0
141
0.0
142
1.0
143
1.0
 70
  1712
 72
     0
 73
     0
 74
     0
  7
AutoCad LT 98.ctb
 75
     0
147
1.0
 76
     0
 77
     2
 78
   300
148
0.0
149
0.0
100
AcDbLayout
  1
Model
 70
     1
 71
     0
 10
0.0
 20
0.0
 11
12.0
 21
9.0
 12
0.0
 22
0.0
 32
0.0
 14
0.0
 24
0.0
 34
0.0
 15
0.0
 25
0.0
 35
0.0
146
0.0
 13
0.0
 23
0.0
 33
0.0
 16
1.0
 26
0.0
 36
0.0
 17
0.0
 27
1.0
 37
0.0
 76
     0
330
18
  0
LAYOUT
  5
1884
102
{ACAD_REACTORS
330
1881
102
}
330
1881
100
AcDbPlotSettings
  1

  2
WIDR Printer
  4

  6

 40
0.0
 41
0.0
 42
0.0
 43
0.0
 44
0.0
 45
0.0
 46
0.0
 47
0.0
 48
0.0
 49
0.0
140
0.0
141
0.0
142
1.0
143
1.0
 70
   688
 72
     0
 73
     0
 74
     5
  7
AutoCad LT 98.ctb
 75
    16
147
1.0
 76
     0
 77
     2
 78
   300
148
0.0
149
0.0
100
AcDbLayout
  1
レイアウト1
 70
     1
 71
     1
 10
0.0
 20
0.0
 11
420.0
 21
297.0
 12
0.0
 22
0.0
 32
0.0
 14
1.000000000000000E+20
 24
1.000000000000000E+20
 34
1.000000000000000E+20
 15
-1.000000000000000E+20
 25
-1.000000000000000E+20
 35
-1.000000000000000E+20
146
0.0
 13
0.0
 23
0.0
 33
0.0
 16
1.0
 26
0.0
 36
0.0
 17
0.0
 27
1.0
 37
0.0
 76
     0
330
15
  0
MLINESTYLE
  5
1C
102
{ACAD_REACTORS
330
1B
102
}
330
1B
100
AcDbMlineStyle
  2
STANDARD
 70
     0
  3

 62
   256
 51
90.0
 52
90.0
 71
     2
 49
0.5
 62
   256
  6
BYLAYER
 49
-0.5
 62
   256
  6
BYLAYER
  0
ACDBPLACEHOLDER
  5
187C
102
{ACAD_REACTORS
330
187B
102
}
330
187B
  0
ACAD_PROXY_OBJECT
  5
1880
102
{ACAD_REACTORS
330
187F
102
}
330
187F
100
AcDbProxyObject
 90
      499
 91
      505
 95
  2555929
 70
     0
 93
     1849
310
4214DD185B99185C992420000000000000F83F0000000000003E0FC00000000000004901028000000C1008070000C3001FDFF8000000C1003FBFF000000182007F7FE00000030400FEFFC00000060801FDFF8000000C1003FBFF000000182000000000000000C2020B0000001820100E000186003FBFF000000182007F7FE0
310
0000030400FEFFC00000060801FDFF8000000C1003FBFF000000182007F7FE0000003040000000000000012404160000003040201C00030C007F7FE00000030400FEFFC00000060801FDFF8000000C1003FBFF000000182007F7FE00000030400FEFFC000000608000
340
F
340
F
340
F
 94
        0
  0
DICTIONARYVAR
  5
1F3D
102
{ACAD_REACTORS
330
1025
102
}
330
1025
100
DictionaryVariables
280
     0
  1
STANDARD
  0
DICTIONARYVAR
  5
1026
102
{ACAD_REACTORS
330
1025
102
}
330
1025
100
DictionaryVariables
280
     0
  1
96
  0
ENDSEC
  0
EOF
