  0
SECTION
  2
HEADER
  9
$ACADVER
  1
AC1018
  9
$ACADMAINTVER
 70
     0
  9
$DWGCODEPAGE
  3
ANSI_932
  9
$INSBASE
 10
0.0
 20
0.0
 30
0.0
  9
$EXTMIN
 10
236.4583261120651
 20
171.6287515666504
 30
-0.0000000349181948
  9
$EXTMAX
 10
491.9215858715545
 20
367.0725802714662
 30
0.0000000814935746
  9
$LIMMIN
 10
0.0
 20
0.0
  9
$LIMMAX
 10
420.0
 20
297.0
  9
$ORTHOMODE
 70
     0
  9
$REGENMODE
 70
     1
  9
$FILLMODE
 70
     1
  9
$QTEXTMODE
 70
     0
  9
$MIRRTEXT
 70
     1
  9
$LTSCALE
 40
1.0
  9
$ATTMODE
 70
     1
  9
$TEXTSIZE
 40
1.0
  9
$TRACEWID
 40
1.0
  9
$TEXTSTYLE
  7
STYLE3
  9
$CLAYER
  8
寸法線
  9
$CELTYPE
  6
BYLAYER
  9
$CECOLOR
 62
   256
  9
$CELTSCALE
 40
1.0
  9
$DISPSILH
 70
     0
  9
$DIMSCALE
 40
1.0
  9
$DIMASZ
 40
2.5
  9
$DIMEXO
 40
0.0
  9
$DIMDLI
 40
3.75
  9
$DIMRND
 40
0.0
  9
$DIMDLE
 40
0.0
  9
$DIMEXE
 40
1.25
  9
$DIMTP
 40
0.0
  9
$DIMTM
 40
0.0
  9
$DIMTXT
 40
2.5
  9
$DIMCEN
 40
2.5
  9
$DIMTSZ
 40
0.0
  9
$DIMTOL
 70
     0
  9
$DIMLIM
 70
     0
  9
$DIMTIH
 70
     0
  9
$DIMTOH
 70
     0
  9
$DIMSE1
 70
     0
  9
$DIMSE2
 70
     0
  9
$DIMTAD
 70
     1
  9
$DIMZIN
 70
     8
  9
$DIMBLK
  1

  9
$DIMASO
 70
     1
  9
$DIMSHO
 70
     1
  9
$DIMPOST
  1

  9
$DIMAPOST
  1

  9
$DIMALT
 70
     0
  9
$DIMALTD
 70
     4
  9
$DIMALTF
 40
0.0394
  9
$DIMLFAC
 40
1.0
  9
$DIMTOFL
 70
     1
  9
$DIMTVP
 40
0.0
  9
$DIMTIX
 70
     0
  9
$DIMSOXD
 70
     0
  9
$DIMSAH
 70
     1
  9
$DIMBLK1
  1
OPEN
  9
$DIMBLK2
  1
OPEN
  9
$DIMSTYLE
  2
STYLE2
  9
$DIMCLRD
 70
     2
  9
$DIMCLRE
 70
     2
  9
$DIMCLRT
 70
     6
  9
$DIMTFAC
 40
1.0
  9
$DIMGAP
 40
0.625
  9
$DIMJUST
 70
     0
  9
$DIMSD1
 70
     0
  9
$DIMSD2
 70
     0
  9
$DIMTOLJ
 70
     1
  9
$DIMTZIN
 70
     0
  9
$DIMALTZ
 70
     0
  9
$DIMALTTZ
 70
     0
  9
$DIMUPT
 70
     0
  9
$DIMDEC
 70
     1
  9
$DIMTDEC
 70
     4
  9
$DIMALTU
 70
     8
  9
$DIMALTTD
 70
     4
  9
$DIMTXSTY
  7
STYLE3
  9
$DIMAUNIT
 70
     0
  9
$DIMADEC
 70
     0
  9
$DIMALTRND
 40
0.0
  9
$DIMAZIN
 70
     0
  9
$DIMDSEP
 70
    46
  9
$DIMATFIT
 70
     3
  9
$DIMFRAC
 70
     0
  9
$DIMLDRBLK
  1

  9
$DIMLUNIT
 70
     2
  9
$DIMLWD
 70
    -2
  9
$DIMLWE
 70
    -2
  9
$DIMTMOVE
 70
     0
  9
$LUNITS
 70
     2
  9
$LUPREC
 70
     4
  9
$SKETCHINC
 40
1.0
  9
$FILLETRAD
 40
0.0
  9
$AUNITS
 70
     0
  9
$AUPREC
 70
     0
  9
$MENU
  1
.
  9
$ELEVATION
 40
0.0
  9
$PELEVATION
 40
0.0
  9
$THICKNESS
 40
0.0
  9
$LIMCHECK
 70
     0
  9
$CHAMFERA
 40
0.2
  9
$CHAMFERB
 40
0.2
  9
$CHAMFERC
 40
20.0
  9
$CHAMFERD
 40
0.0
  9
$SKPOLY
 70
     0
  9
$TDCREATE
 40
2450717.578556713
  9
$TDUCREATE
 40
2450717.203556713
  9
$TDUPDATE
 40
2455357.490789560
  9
$TDUUPDATE
 40
2455357.115789560
  9
$TDINDWG
 40
1.0018139236
  9
$TDUSRTIMER
 40
1.0018139236
  9
$USRTIMER
 70
     1
  9
$ANGBASE
 50
0.0
  9
$ANGDIR
 70
     0
  9
$PDMODE
 70
     0
  9
$PDSIZE
 40
0.0
  9
$PLINEWID
 40
0.0
  9
$SPLFRAME
 70
     0
  9
$SPLINETYPE
 70
     6
  9
$SPLINESEGS
 70
     8
  9
$HANDSEED
  5
1E12
  9
$SURFTAB1
 70
     6
  9
$SURFTAB2
 70
     6
  9
$SURFTYPE
 70
     6
  9
$SURFU
 70
     6
  9
$SURFV
 70
     6
  9
$UCSBASE
  2

  9
$UCSNAME
  2

  9
$UCSORG
 10
0.0
 20
0.0
 30
0.0
  9
$UCSXDIR
 10
1.0
 20
0.0
 30
0.0
  9
$UCSYDIR
 10
0.0
 20
1.0
 30
0.0
  9
$UCSORTHOREF
  2

  9
$UCSORTHOVIEW
 70
     0
  9
$UCSORGTOP
 10
0.0
 20
0.0
 30
0.0
  9
$UCSORGBOTTOM
 10
0.0
 20
0.0
 30
0.0
  9
$UCSORGLEFT
 10
0.0
 20
0.0
 30
0.0
  9
$UCSORGRIGHT
 10
0.0
 20
0.0
 30
0.0
  9
$UCSORGFRONT
 10
0.0
 20
0.0
 30
0.0
  9
$UCSORGBACK
 10
0.0
 20
0.0
 30
0.0
  9
$PUCSBASE
  2

  9
$PUCSNAME
  2

  9
$PUCSORG
 10
0.0
 20
0.0
 30
0.0
  9
$PUCSXDIR
 10
1.0
 20
0.0
 30
0.0
  9
$PUCSYDIR
 10
0.0
 20
1.0
 30
0.0
  9
$PUCSORTHOREF
  2

  9
$PUCSORTHOVIEW
 70
     0
  9
$PUCSORGTOP
 10
0.0
 20
0.0
 30
0.0
  9
$PUCSORGBOTTOM
 10
0.0
 20
0.0
 30
0.0
  9
$PUCSORGLEFT
 10
0.0
 20
0.0
 30
0.0
  9
$PUCSORGRIGHT
 10
0.0
 20
0.0
 30
0.0
  9
$PUCSORGFRONT
 10
0.0
 20
0.0
 30
0.0
  9
$PUCSORGBACK
 10
0.0
 20
0.0
 30
0.0
  9
$USERI1
 70
     0
  9
$USERI2
 70
     0
  9
$USERI3
 70
     0
  9
$USERI4
 70
     0
  9
$USERI5
 70
     0
  9
$USERR1
 40
0.0
  9
$USERR2
 40
0.0
  9
$USERR3
 40
0.0
  9
$USERR4
 40
0.0
  9
$USERR5
 40
0.0
  9
$WORLDVIEW
 70
     1
  9
$SHADEDGE
 70
     3
  9
$SHADEDIF
 70
    70
  9
$TILEMODE
 70
     1
  9
$MAXACTVP
 70
    48
  9
$PINSBASE
 10
0.0
 20
0.0
 30
0.0
  9
$PLIMCHECK
 70
     0
  9
$PEXTMIN
 10
1.000000000000000E+20
 20
1.000000000000000E+20
 30
1.000000000000000E+20
  9
$PEXTMAX
 10
-1.000000000000000E+20
 20
-1.000000000000000E+20
 30
-1.000000000000000E+20
  9
$PLIMMIN
 10
0.0
 20
0.0
  9
$PLIMMAX
 10
420.0
 20
297.0
  9
$UNITMODE
 70
     0
  9
$VISRETAIN
 70
     1
  9
$PLINEGEN
 70
     0
  9
$PSLTSCALE
 70
     1
  9
$TREEDEPTH
 70
  3020
  9
$CMLSTYLE
  2
STANDARD
  9
$CMLJUST
 70
     0
  9
$CMLSCALE
 40
20.0
  9
$PROXYGRAPHICS
 70
     1
  9
$MEASUREMENT
 70
     1
  9
$CELWEIGHT
370
    -1
  9
$ENDCAPS
280
     0
  9
$JOINSTYLE
280
     0
  9
$LWDISPLAY
290
     0
  9
$INSUNITS
 70
     0
  9
$HYPERLINKBASE
  1

  9
$STYLESHEET
  1
AutoCAD LT 98.ctb
  9
$XEDIT
290
     1
  9
$CEPSNTYPE
380
     0
  9
$PSTYLEMODE
290
     1
  9
$FINGERPRINTGUID
  2
{1DD19E55-127D-4A0A-9B1D-F46804B8EFB5}
  9
$VERSIONGUID
  2
{73526BAA-D013-4C24-B5E9-DC6AF9F5A88C}
  9
$EXTNAMES
290
     1
  9
$PSVPSCALE
 40
0.0
  9
$OLESTARTUP
290
     0
  9
$SORTENTS
280
    96
  9
$INDEXCTL
280
     0
  9
$HIDETEXT
280
     0
  9
$XCLIPFRAME
290
     0
  9
$HALOGAP
280
     0
  9
$OBSCOLOR
 70
   257
  9
$OBSLTYPE
280
     0
  9
$INTERSECTIONDISPLAY
280
     0
  9
$INTERSECTIONCOLOR
 70
   257
  9
$DIMASSOC
280
     1
  9
$PROJECTNAME
  1

  0
ENDSEC
  0
SECTION
  2
CLASSES
  0
CLASS
  1
HATCH
  2
AcDbHatch
  3
ObjectDBX Classes
 90
        0
 91
       14
280
     0
281
     1
  0
CLASS
  1
LWPOLYLINE
  2
AcDbPolyline
  3
ObjectDBX Classes
 90
        0
 91
        6
280
     0
281
     1
  0
CLASS
  1
IMAGEDEF
  2
AcDbRasterImageDef
  3
ISM
 90
        0
 91
        1
280
     0
281
     0
  0
CLASS
  1
DICTIONARYVAR
  2
AcDbDictionaryVar
  3
ObjectDBX Classes
 90
        0
 91
        2
280
     0
281
     0
  0
CLASS
  1
ACDBDICTIONARYWDFLT
  2
AcDbDictionaryWithDefault
  3
ObjectDBX Classes
 90
        0
 91
        1
280
     0
281
     0
  0
CLASS
  1
TABLESTYLE
  2
AcDbTableStyle
  3
ObjectDBX Classes
 90
     2047
 91
        1
280
     0
281
     0
  0
CLASS
  1
SORTENTSTABLE
  2
AcDbSortentsTable
  3
ObjectDBX Classes
 90
        0
 91
        0
280
     0
281
     0
  0
ENDSEC
  0
SECTION
  2
TABLES
  0
TABLE
  2
VPORT
  5
8
330
0
100
AcDbSymbolTable
 70
     2
  0
VPORT
  5
1E11
330
8
100
AcDbSymbolTableRecord
100
AcDbViewportTableRecord
  2
*Active
 70
     0
 10
0.0
 20
0.0
 11
1.0
 21
1.0
 12
364.1899559918098
 22
269.3506659190583
 13
0.0
 23
0.0
 14
10.0
 24
10.0
 15
10.0
 25
10.0
 16
0.0
 26
0.0
 36
1.0
 17
0.0
 27
0.0
 37
0.0
 40
196.9300935618867
 41
1.530456852791878
 42
50.0
 43
0.0
 44
0.0
 50
0.0
 51
0.0
 71
     0
 72
   100
 73
     1
 74
     1
 75
     0
 76
     0
 77
     0
 78
     0
281
     0
 65
     1
110
0.0
120
0.0
130
0.0
111
1.0
121
0.0
131
0.0
112
0.0
122
1.0
132
0.0
 79
     0
146
0.0
  0
ENDTAB
  0
TABLE
  2
LTYPE
  5
5
330
0
100
AcDbSymbolTable
 70
     5
  0
LTYPE
  5
12
330
5
100
AcDbSymbolTableRecord
100
AcDbLinetypeTableRecord
  2
BYBLOCK
 70
     0
  3

 72
    65
 73
     0
 40
0.0
  0
LTYPE
  5
13
330
5
100
AcDbSymbolTableRecord
100
AcDbLinetypeTableRecord
  2
BYLAYER
 70
     0
  3

 72
    65
 73
     0
 40
0.0
  0
LTYPE
  5
14
330
5
100
AcDbSymbolTableRecord
100
AcDbLinetypeTableRecord
  2
CONTINUOUS
 70
     0
  3
Solid line
 72
    65
 73
     0
 40
0.0
  0
LTYPE
  5
22
330
5
100
AcDbSymbolTableRecord
100
AcDbLinetypeTableRecord
  2
CENTER2
 70
     0
  3
Center (.5x) ___ _ ___ _ ___ _ ___ _ ___ _ ___
 72
    65
 73
     4
 40
28.575
 49
19.05
 74
     0
 49
-3.174999999999999
 74
     0
 49
3.174999999999999
 74
     0
 49
-3.174999999999999
 74
     0
  0
ENDTAB
  0
TABLE
  2
LAYER
  5
2
330
0
100
AcDbSymbolTable
 70
    16
  0
LAYER
  5
E
330
2
100
AcDbSymbolTableRecord
100
AcDbLayerTableRecord
  2
0
 70
     0
 62
     7
  6
CONTINUOUS
370
    -3
390
1A02
  0
LAYER
  5
25
330
2
100
AcDbSymbolTableRecord
100
AcDbLayerTableRecord
  2
外形線
 70
     0
 62
     7
  6
CONTINUOUS
370
    -3
390
1A02
  0
LAYER
  5
27
330
2
100
AcDbSymbolTableRecord
100
AcDbLayerTableRecord
  2
中心線
 70
     0
 62
     4
  6
CENTER2
370
    -3
390
1A02
  0
LAYER
  5
2A
330
2
100
AcDbSymbolTableRecord
100
AcDbLayerTableRecord
  2
ﾊｯﾁﾝｸ
 70
     0
 62
     4
  6
CONTINUOUS
370
    -3
390
1A02
  0
LAYER
  5
2B
330
2
100
AcDbSymbolTableRecord
100
AcDbLayerTableRecord
  2
文字
 70
     0
 62
     6
  6
CONTINUOUS
370
    -3
390
1A02
  0
LAYER
  5
2C
330
2
100
AcDbSymbolTableRecord
100
AcDbLayerTableRecord
  2
目盛
 70
     0
 62
    70
  6
CONTINUOUS
370
    -3
390
1A02
  0
LAYER
  5
2D
330
2
100
AcDbSymbolTableRecord
100
AcDbLayerTableRecord
  2
針
 70
     0
 62
     5
  6
CONTINUOUS
370
    -3
390
1A02
  0
LAYER
  5
53
330
2
100
AcDbSymbolTableRecord
100
AcDbLayerTableRecord
  2
DEFPOINTS
 70
     0
 62
     7
  6
CONTINUOUS
290
     0
370
    -3
390
1A02
  0
LAYER
  5
A5
330
2
100
AcDbSymbolTableRecord
100
AcDbLayerTableRecord
  2
C
 70
     0
 62
     7
  6
CONTINUOUS
370
    -3
390
1A02
  0
LAYER
  5
E00
330
2
100
AcDbSymbolTableRecord
100
AcDbLayerTableRecord
  2
ROGO
 70
     0
 62
     6
  6
CONTINUOUS
370
    -3
390
1A02
  0
LAYER
  5
18DD
330
2
100
AcDbSymbolTableRecord
100
AcDbLayerTableRecord
  2
寸法線
 70
     0
 62
     2
  6
CONTINUOUS
370
    -3
390
1A02
  0
ENDTAB
  0
TABLE
  2
STYLE
  5
3
330
0
100
AcDbSymbolTable
 70
     3
  0
STYLE
  5
F
330
3
100
AcDbSymbolTableRecord
100
AcDbTextStyleTableRecord
  2
STANDARD
 70
     0
 40
0.0
 41
1.0
 50
0.0
 71
     0
 42
2.5
  3
txt
  4

  0
STYLE
  5
3F
330
3
100
AcDbSymbolTableRecord
100
AcDbTextStyleTableRecord
  2
STYLE3
 70
     0
 40
0.0
 41
1.0
 50
0.0
 71
     0
 42
1.0
  3
romans.shx
  4
bigfont.shx
  0
ENDTAB
  0
TABLE
  2
VIEW
  5
6
330
0
100
AcDbSymbolTable
 70
     0
  0
ENDTAB
  0
TABLE
  2
UCS
  5
7
330
0
100
AcDbSymbolTable
 70
     0
  0
ENDTAB
  0
TABLE
  2
APPID
  5
9
330
0
100
AcDbSymbolTable
 70
     2
  0
APPID
  5
10
330
9
100
AcDbSymbolTableRecord
100
AcDbRegAppTableRecord
  2
ACAD
 70
     0
  0
APPID
  5
1A11
330
9
100
AcDbSymbolTableRecord
100
AcDbRegAppTableRecord
  2
ACAD_PSEXT
 70
     0
  0
ENDTAB
  0
TABLE
  2
DIMSTYLE
  5
A
330
0
100
AcDbSymbolTable
 70
     3
100
AcDbDimStyleTable
 71
     1
340
66
  0
DIMSTYLE
105
1D
330
A
100
AcDbSymbolTableRecord
100
AcDbDimStyleTableRecord
  2
STANDARD
 70
     0
 41
2.5
 42
0.625
 43
3.75
 44
1.25
 73
     0
 74
     0
 77
     1
 78
     8
140
2.5
141
2.5
143
0.0394
147
0.625
171
     4
172
     1
273
     8
274
     4
277
     6
340
F
  0
DIMSTYLE
105
66
102
{ACAD_REACTORS
330
1893
330
1CDC
102
}
330
A
100
AcDbSymbolTableRecord
100
AcDbDimStyleTableRecord
  2
STYLE2
 70
     0
 41
2.5
 42
0.0
 43
3.75
 44
1.25
 73
     0
 74
     0
 77
     1
 78
     8
140
2.5
141
2.5
143
0.0394
147
0.625
171
     4
172
     1
173
     1
176
     2
177
     2
178
     6
271
     1
273
     8
274
     4
340
3F
341
45
343
45
344
45
  0
ENDTAB
  0
TABLE
  2
BLOCK_RECORD
  5
1
330
0
100
AcDbSymbolTable
 70
     7
  0
BLOCK_RECORD
  5
18
330
1
100
AcDbSymbolTableRecord
100
AcDbBlockTableRecord
  2
*MODEL_SPACE
340
1A09
  0
BLOCK_RECORD
  5
15
330
1
100
AcDbSymbolTableRecord
100
AcDbBlockTableRecord
  2
*PAPER_SPACE
340
1A0A
  0
BLOCK_RECORD
  5
45
330
1
100
AcDbSymbolTableRecord
100
AcDbBlockTableRecord
  2
_OPEN
340
0
102
{BLKREFS
331
836
331
837
331
83E
331
83F
331
847
331
848
331
875
331
876
331
87E
331
87F
331
900
331
901
331
909
331
90A
331
912
331
913
331
F35
331
F36
331
10D5
331
10D6
331
17F9
331
17FA
331
181C
331
181D
331
1C9D
331
1C9E
331
1DF8
331
1DF9
331
1E01
331
1E02
102
}
  0
BLOCK_RECORD
  5
187F
330
1
100
AcDbSymbolTableRecord
100
AcDbBlockTableRecord
  2
1
340
0
102
{BLKREFS
331
1886
102
}
  0
BLOCK_RECORD
  5
1887
330
1
100
AcDbSymbolTableRecord
100
AcDbBlockTableRecord
  2
*D2
340
0
  0
BLOCK_RECORD
  5
18A9
330
1
100
AcDbSymbolTableRecord
100
AcDbBlockTableRecord
  2
矢印
340
0
102
{BLKREFS
331
18D5
102
}
  0
BLOCK_RECORD
  5
1CDD
330
1
100
AcDbSymbolTableRecord
100
AcDbBlockTableRecord
  2
*D5
340
0
  0
ENDTAB
  0
ENDSEC
  0
SECTION
  2
BLOCKS
  0
BLOCK
  5
19
330
18
100
AcDbEntity
  8
0
100
AcDbBlockBegin
  2
*MODEL_SPACE
 70
     0
 10
0.0
 20
0.0
 30
0.0
  3
*MODEL_SPACE
  1

  0
ENDBLK
  5
1A
330
18
100
AcDbEntity
  8
0
100
AcDbBlockEnd
  0
BLOCK
  5
16
330
15
100
AcDbEntity
 67
     1
  8
0
100
AcDbBlockBegin
  2
*PAPER_SPACE
 70
     0
 10
0.0
 20
0.0
 30
0.0
  3
*PAPER_SPACE
  1

  0
ENDBLK
  5
17
330
15
100
AcDbEntity
 67
     1
  8
0
100
AcDbBlockEnd
  0
BLOCK
  5
46
330
45
100
AcDbEntity
  8
0
100
AcDbBlockBegin
  2
_OPEN
 70
     0
 10
0.0
 20
0.0
 30
0.0
  3
_OPEN
  1

  0
LINE
  5
47
330
45
100
AcDbEntity
  8
0
  6
ByBlock
 62
     0
100
AcDbLine
 10
-1.0
 20
0.1666666666666666
 30
0.0
 11
0.0
 21
0.0
 31
0.0
  0
LINE
  5
48
330
45
100
AcDbEntity
  8
0
  6
ByBlock
 62
     0
100
AcDbLine
 10
0.0
 20
0.0
 30
0.0
 11
-1.0
 21
-0.1666666666666666
 31
0.0
  0
LINE
  5
49
330
45
100
AcDbEntity
  8
0
  6
ByBlock
 62
     0
100
AcDbLine
 10
0.0
 20
0.0
 30
0.0
 11
-1.0
 21
0.0
 31
0.0
  0
ENDBLK
  5
4A
330
45
100
AcDbEntity
  8
0
100
AcDbBlockEnd
  0
BLOCK
  5
1884
330
187F
100
AcDbEntity
  8
0
100
AcDbBlockBegin
  2
1
 70
     0
 10
0.0
 20
0.0
 30
0.0
  3
1
  1

  0
LINE
  5
1880
330
187F
100
AcDbEntity
  8
外形線
  6
Continuous
100
AcDbLine
 10
7.599999999999965
 20
23.0
 30
0.0
 11
7.599999999999965
 21
-23.0
 31
0.0
  0
LINE
  5
1881
330
187F
100
AcDbEntity
  8
外形線
100
AcDbLine
 10
6.499999999999943
 20
-23.0
 30
0.0
 11
7.599999999999965
 21
-23.0
 31
0.0
  0
POINT
  5
1882
330
187F
100
AcDbEntity
  8
DEFPOINTS
  6
ByBlock
 62
     0
100
AcDbPoint
 10
7.599999999999965
 20
23.0
 30
0.0
  0
LINE
  5
1883
330
187F
100
AcDbEntity
  8
外形線
100
AcDbLine
 10
6.500000000000056
 20
23.0
 30
0.0
 11
7.599999999999965
 21
23.0
 31
0.0
  0
ENDBLK
  5
1885
330
187F
100
AcDbEntity
  8
0
100
AcDbBlockEnd
  0
BLOCK
  5
1888
330
1887
100
AcDbEntity
  8
0
100
AcDbBlockBegin
  2
*D2
 70
     1
 10
0.0
 20
0.0
 30
0.0
  3
*D2
  1

  0
LINE
  5
1DFE
330
1887
100
AcDbEntity
  8
針
 62
     2
370
    -2
100
AcDbLine
 10
425.6440033527415
 20
328.4941542553727
 30
0.0
 11
425.6440033527415
 21
335.1069707388104
 31
0.0
  0
LINE
  5
1DFF
330
1887
100
AcDbEntity
  8
針
 62
     2
370
    -2
100
AcDbLine
 10
433.2440033527416
 20
308.7167586623881
 30
0.0
 11
433.2440033527416
 21
335.1069707388104
 31
0.0
  0
LINE
  5
1E00
330
1887
100
AcDbEntity
  8
針
 62
     2
370
    -2
100
AcDbLine
 10
428.1440033527416
 20
333.8569707388105
 30
0.0
 11
430.7440033527416
 21
333.8569707388105
 31
0.0
  0
INSERT
  5
1E01
330
1887
100
AcDbEntity
  8
針
 62
     2
370
    -2
100
AcDbBlockReference
  2
_OPEN
 10
425.6440033527415
 20
333.8569707388105
 30
0.0
 41
2.5
 42
2.5
 43
2.5
 50
180.0
  0
INSERT
  5
1E02
330
1887
100
AcDbEntity
  8
針
 62
     2
370
    -2
100
AcDbBlockReference
  2
_OPEN
 10
433.2440033527416
 20
333.8569707388105
 30
0.0
 41
2.5
 42
2.5
 43
2.5
  0
MTEXT
  5
1E03
330
1887
100
AcDbEntity
  8
針
 62
     6
100
AcDbMText
 10
429.4440033527416
 20
335.7319707388104
 30
0.0
 40
2.5
 41
0.0
 71
     5
 72
     1
  1
\A1;7.6
  7
STYLE3
 73
     1
 44
1.0
  0
POINT
  5
1E04
330
1887
100
AcDbEntity
  8
DEFPOINTS
 62
     0
100
AcDbPoint
 10
425.6440033527415
 20
328.4941542553727
 30
0.0
  0
POINT
  5
1E05
330
1887
100
AcDbEntity
  8
DEFPOINTS
 62
     0
100
AcDbPoint
 10
433.2440033527416
 20
308.7167586623881
 30
0.0
  0
POINT
  5
1E06
330
1887
100
AcDbEntity
  8
DEFPOINTS
 62
     0
100
AcDbPoint
 10
433.2440033527416
 20
333.8569707388105
 30
0.0
  0
ENDBLK
  5
1892
330
1887
100
AcDbEntity
  8
0
100
AcDbBlockEnd
  0
BLOCK
  5
18D3
330
18A9
100
AcDbEntity
  8
0
100
AcDbBlockBegin
  2
矢印
 70
     0
 10
0.0
 20
0.0
 30
0.0
  3
矢印
  1

  0
LINE
  5
18AA
102
{ACAD_REACTORS
330
18AD
102
}
330
18A9
100
AcDbEntity
  8
外形線
100
AcDbLine
 10
11.83878893746754
 20
1.539583333333212
 30
0.0
 11
10.83878893746754
 21
1.539583333333212
 31
0.0
  0
LINE
  5
18AB
102
{ACAD_REACTORS
330
18AD
102
}
330
18A9
100
AcDbEntity
  8
外形線
100
AcDbLine
 10
11.83878893746754
 20
1.360416666666537
 30
0.0
 11
10.83878893746754
 21
1.360416666666594
 31
0.0
  0
TEXT
  5
18AC
330
18A9
100
AcDbEntity
  8
文字
100
AcDbText
 10
6.068535320253829
 20
-1.036290234412604
 30
0.0
 40
1.0
  1
0.01mm
  7
STYLE3
100
AcDbText
  0
HATCH
  5
18AD
330
18A9
100
AcDbEntity
  8
外形線
100
AcDbHatch
 10
0.0
 20
0.0
 30
0.0
210
0.0
220
0.0
230
1.0
  2
SOLID
 70
     1
 71
     1
 91
        2
 92
        1
 93
        7
 72
     1
 10
9.672122270800798
 20
1.449999999999931
 11
10.83878893746754
 21
1.025368060022685
 72
     1
 10
10.83878893746754
 20
1.025368060022742
 11
10.83878893746754
 21
1.360416666666594
 72
     1
 10
10.83878893746754
 20
1.360416666666594
 11
11.83878893746754
 21
1.360416666666537
 72
     1
 10
11.83878893746754
 20
1.360416666666537
 11
11.83878893746754
 21
1.539583333333212
 72
     1
 10
11.83878893746754
 20
1.539583333333212
 11
10.83878893746754
 21
1.539583333333212
 72
     1
 10
10.83878893746754
 20
1.539583333333212
 11
10.83878893746754
 21
1.87463193997712
 72
     1
 10
10.83878893746754
 20
1.87463193997712
 11
9.672122270800798
 21
1.449999999999931
 97
        7
330
18B6
330
18B9
330
18AB
330
18D2
330
18AA
330
18B5
330
18BC
 92
        1
 93
        4
 72
     1
 10
9.672122270800798
 20
2.199999999999931
 11
9.672122270800798
 21
0.6999999999999318
 72
     1
 10
9.672122270800798
 20
0.6999999999999318
 11
9.505455604134169
 21
0.6999999999999318
 72
     1
 10
9.505455604134169
 20
0.6999999999999318
 11
9.505455604134169
 21
2.199999999999931
 72
     1
 10
9.505455604134169
 20
2.199999999999931
 11
9.672122270800798
 21
2.199999999999931
 97
        4
330
18BB
330
18C8
330
18BA
330
18B2
 75
     0
 76
     1
 98
        1
 10
-82.65743443567947
 20
-67.2121508071811
450
        0
451
        0
460
0.0
461
0.0
452
        0
462
0.0
453
        0
470

  0
LINE
  5
18AE
102
{ACAD_REACTORS
330
18B0
102
}
330
18A9
100
AcDbEntity
  8
外形線
100
AcDbLine
 10
6.338788937467541
 20
1.539583333333212
 30
0.0
 11
7.338788937467541
 21
1.539583333333212
 31
0.0
  0
LINE
  5
18AF
102
{ACAD_REACTORS
330
18B0
102
}
330
18A9
100
AcDbEntity
  8
外形線
100
AcDbLine
 10
6.338788937467541
 20
1.360416666666537
 30
0.0
 11
7.338788937467541
 21
1.360416666666594
 31
0.0
  0
HATCH
  5
18B0
330
18A9
100
AcDbEntity
  8
外形線
100
AcDbHatch
 10
0.0
 20
0.0
 30
0.0
210
0.0
220
0.0
230
1.0
  2
SOLID
 70
     1
 71
     1
 91
        2
 92
        1
 93
        7
 72
     1
 10
8.505455604134283
 20
1.449999999999931
 11
7.338788937467541
 21
1.025368060022685
 72
     1
 10
7.338788937467541
 20
1.025368060022742
 11
7.338788937467541
 21
1.360416666666594
 72
     1
 10
7.338788937467541
 20
1.360416666666594
 11
6.338788937467541
 21
1.360416666666537
 72
     1
 10
6.338788937467541
 20
1.360416666666537
 11
6.338788937467541
 21
1.539583333333212
 72
     1
 10
6.338788937467541
 20
1.539583333333212
 11
7.338788937467541
 21
1.539583333333212
 72
     1
 10
7.338788937467541
 20
1.539583333333212
 11
7.338788937467541
 21
1.87463193997712
 72
     1
 10
7.338788937467541
 20
1.87463193997712
 11
8.505455604134283
 21
1.449999999999931
 97
        7
330
18C4
330
18C1
330
18AF
330
18B1
330
18AE
330
18BE
330
18C5
 92
        1
 93
        4
 72
     1
 10
8.505455604134283
 20
2.199999999999931
 11
8.505455604134283
 21
0.6999999999999318
 72
     1
 10
8.505455604134283
 20
0.6999999999999318
 11
8.672122270800798
 21
0.6999999999999318
 72
     1
 10
8.672122270800798
 20
0.6999999999999318
 11
8.672122270800798
 21
2.199999999999931
 72
     1
 10
8.672122270800798
 20
2.199999999999931
 11
8.505455604134283
 21
2.199999999999931
 97
        4
330
18C6
330
18D1
330
18C7
330
18BD
 75
     0
 76
     1
 98
        1
 10
100.8350123106145
 20
-67.2121508071811
450
        0
451
        0
460
0.0
461
0.0
452
        0
462
0.0
453
        0
470

  0
LINE
  5
18B1
102
{ACAD_REACTORS
330
18B0
102
}
330
18A9
100
AcDbEntity
  8
外形線
100
AcDbLine
 10
6.338788937467541
 20
1.539583333333212
 30
0.0
 11
6.338788937467541
 21
1.360416666666537
 31
0.0
  0
LINE
  5
18B2
102
{ACAD_REACTORS
330
18AD
102
}
330
18A9
100
AcDbEntity
  8
外形線
100
AcDbLine
 10
9.505455604134169
 20
2.199999999999931
 30
0.0
 11
9.672122270800798
 21
2.199999999999931
 31
0.0
  0
POINT
  5
18B3
330
18A9
100
AcDbEntity
  8
DEFPOINTS
  6
ByBlock
 62
     0
100
AcDbPoint
 10
10.83878893746754
 20
1.87463193997712
 30
0.0
  0
POINT
  5
18B4
330
18A9
100
AcDbEntity
  8
DEFPOINTS
  6
ByBlock
 62
     0
100
AcDbPoint
 10
10.83878893746754
 20
1.87463193997712
 30
0.0
  0
LINE
  5
18B5
102
{ACAD_REACTORS
330
18AD
102
}
330
18A9
100
AcDbEntity
  8
外形線
100
AcDbLine
 10
10.83878893746754
 20
1.87463193997712
 30
0.0
 11
10.83878893746754
 21
1.539583333333212
 31
0.0
  0
LINE
  5
18B6
102
{ACAD_REACTORS
330
18AD
102
}
330
18A9
100
AcDbEntity
  8
外形線
100
AcDbLine
 10
9.672122270800798
 20
1.449999999999931
 30
0.0
 11
10.83878893746754
 21
1.025368060022685
 31
0.0
  0
POINT
  5
18B7
330
18A9
100
AcDbEntity
  8
DEFPOINTS
  6
ByBlock
 62
     0
100
AcDbPoint
 10
10.83878893746754
 20
1.025368060022685
 30
0.0
  0
POINT
  5
18B8
330
18A9
100
AcDbEntity
  8
DEFPOINTS
  6
ByBlock
 62
     0
100
AcDbPoint
 10
10.83878893746754
 20
1.025368060022685
 30
0.0
  0
LINE
  5
18B9
102
{ACAD_REACTORS
330
18AD
102
}
330
18A9
100
AcDbEntity
  8
外形線
100
AcDbLine
 10
10.83878893746754
 20
1.360416666666594
 30
0.0
 11
10.83878893746754
 21
1.025368060022742
 31
0.0
  0
LINE
  5
18BA
102
{ACAD_REACTORS
330
18AD
102
}
330
18A9
100
AcDbEntity
  8
外形線
100
AcDbLine
 10
9.505455604134169
 20
2.199999999999931
 30
0.0
 11
9.505455604134169
 21
0.6999999999999318
 31
0.0
  0
LINE
  5
18BB
102
{ACAD_REACTORS
330
18AD
102
}
330
18A9
100
AcDbEntity
  8
外形線
100
AcDbLine
 10
9.672122270800798
 20
2.199999999999931
 30
0.0
 11
9.672122270800798
 21
0.6999999999999318
 31
0.0
  0
LINE
  5
18BC
102
{ACAD_REACTORS
330
18AD
102
}
330
18A9
100
AcDbEntity
  8
外形線
100
AcDbLine
 10
9.672122270800798
 20
1.449999999999931
 30
0.0
 11
10.83878893746754
 21
1.87463193997712
 31
0.0
  0
LINE
  5
18BD
102
{ACAD_REACTORS
330
18B0
102
}
330
18A9
100
AcDbEntity
  8
外形線
100
AcDbLine
 10
8.672122270800798
 20
2.199999999999931
 30
0.0
 11
8.505455604134283
 21
2.199999999999931
 31
0.0
  0
LINE
  5
18BE
102
{ACAD_REACTORS
330
18B0
102
}
330
18A9
100
AcDbEntity
  8
外形線
100
AcDbLine
 10
7.338788937467541
 20
1.87463193997712
 30
0.0
 11
7.338788937467541
 21
1.539583333333212
 31
0.0
  0
POINT
  5
18BF
330
18A9
100
AcDbEntity
  8
DEFPOINTS
  6
ByBlock
 62
     0
100
AcDbPoint
 10
7.338788937467541
 20
1.87463193997712
 30
0.0
  0
POINT
  5
18C0
330
18A9
100
AcDbEntity
  8
DEFPOINTS
  6
ByBlock
 62
     0
100
AcDbPoint
 10
7.338788937467541
 20
1.87463193997712
 30
0.0
  0
LINE
  5
18C1
102
{ACAD_REACTORS
330
18B0
102
}
330
18A9
100
AcDbEntity
  8
外形線
100
AcDbLine
 10
7.338788937467541
 20
1.360416666666594
 30
0.0
 11
7.338788937467541
 21
1.025368060022742
 31
0.0
  0
POINT
  5
18C2
330
18A9
100
AcDbEntity
  8
DEFPOINTS
  6
ByBlock
 62
     0
100
AcDbPoint
 10
7.338788937467541
 20
1.025368060022685
 30
0.0
  0
POINT
  5
18C3
330
18A9
100
AcDbEntity
  8
DEFPOINTS
  6
ByBlock
 62
     0
100
AcDbPoint
 10
7.338788937467541
 20
1.025368060022685
 30
0.0
  0
LINE
  5
18C4
102
{ACAD_REACTORS
330
18B0
102
}
330
18A9
100
AcDbEntity
  8
外形線
100
AcDbLine
 10
8.505455604134283
 20
1.449999999999931
 30
0.0
 11
7.338788937467541
 21
1.025368060022685
 31
0.0
  0
LINE
  5
18C5
102
{ACAD_REACTORS
330
18B0
102
}
330
18A9
100
AcDbEntity
  8
外形線
100
AcDbLine
 10
8.505455604134283
 20
1.449999999999931
 30
0.0
 11
7.338788937467541
 21
1.87463193997712
 31
0.0
  0
LINE
  5
18C6
102
{ACAD_REACTORS
330
18B0
102
}
330
18A9
100
AcDbEntity
  8
外形線
100
AcDbLine
 10
8.505455604134283
 20
2.199999999999931
 30
0.0
 11
8.505455604134283
 21
0.6999999999999318
 31
0.0
  0
LINE
  5
18C7
102
{ACAD_REACTORS
330
18B0
102
}
330
18A9
100
AcDbEntity
  8
外形線
100
AcDbLine
 10
8.672122270800798
 20
2.199999999999931
 30
0.0
 11
8.672122270800798
 21
0.6999999999999318
 31
0.0
  0
LINE
  5
18C8
102
{ACAD_REACTORS
330
18AD
102
}
330
18A9
100
AcDbEntity
  8
外形線
100
AcDbLine
 10
9.505455604134169
 20
0.6999999999999318
 30
0.0
 11
9.672122270800798
 21
0.6999999999999318
 31
0.0
  0
POINT
  5
18C9
330
18A9
100
AcDbEntity
  8
DEFPOINTS
  6
ByBlock
 62
     0
100
AcDbPoint
 10
9.672122270800798
 20
0.6999999999999318
 30
0.0
  0
POINT
  5
18CA
330
18A9
100
AcDbEntity
  8
DEFPOINTS
  6
ByBlock
 62
     0
100
AcDbPoint
 10
9.505455604134169
 20
0.6999999999999318
 30
0.0
  0
POINT
  5
18CB
330
18A9
100
AcDbEntity
  8
DEFPOINTS
  6
ByBlock
 62
     0
100
AcDbPoint
 10
9.672122270800798
 20
0.6999999999999318
 30
0.0
  0
POINT
  5
18CC
330
18A9
100
AcDbEntity
  8
DEFPOINTS
  6
ByBlock
 62
     0
100
AcDbPoint
 10
9.505455604134169
 20
0.6999999999999318
 30
0.0
  0
POINT
  5
18CD
330
18A9
100
AcDbEntity
  8
DEFPOINTS
  6
ByBlock
 62
     0
100
AcDbPoint
 10
8.672122270800798
 20
0.6999999999999318
 30
0.0
  0
POINT
  5
18CE
330
18A9
100
AcDbEntity
  8
DEFPOINTS
  6
ByBlock
 62
     0
100
AcDbPoint
 10
8.505455604134283
 20
0.6999999999999318
 30
0.0
  0
POINT
  5
18CF
330
18A9
100
AcDbEntity
  8
DEFPOINTS
  6
ByBlock
 62
     0
100
AcDbPoint
 10
8.672122270800798
 20
0.6999999999999318
 30
0.0
  0
POINT
  5
18D0
330
18A9
100
AcDbEntity
  8
DEFPOINTS
  6
ByBlock
 62
     0
100
AcDbPoint
 10
8.505455604134283
 20
0.6999999999999318
 30
0.0
  0
LINE
  5
18D1
102
{ACAD_REACTORS
330
18B0
102
}
330
18A9
100
AcDbEntity
  8
外形線
100
AcDbLine
 10
8.672122270800798
 20
0.6999999999999318
 30
0.0
 11
8.505455604134283
 21
0.6999999999999318
 31
0.0
  0
LINE
  5
18D2
102
{ACAD_REACTORS
330
18AD
102
}
330
18A9
100
AcDbEntity
  8
外形線
100
AcDbLine
 10
11.83878893746754
 20
1.539583333333212
 30
0.0
 11
11.83878893746754
 21
1.360416666666537
 31
0.0
  0
ENDBLK
  5
18D4
330
18A9
100
AcDbEntity
  8
0
100
AcDbBlockEnd
  0
BLOCK
  5
1CE7
330
1CDD
100
AcDbEntity
  8
0
100
AcDbBlockBegin
  2
*D5
 70
     1
 10
0.0
 20
0.0
 30
0.0
  3
*D5
  1

  0
LINE
  5
1DF5
330
1CDD
100
AcDbEntity
  8
寸法線
 62
     2
370
    -2
100
AcDbLine
 10
326.5704910633777
 20
262.7167586623881
 30
0.0
 11
293.9539216272999
 21
262.7167586623881
 31
0.0
  0
LINE
  5
1DF6
330
1CDD
100
AcDbEntity
  8
寸法線
 62
     2
370
    -2
100
AcDbLine
 10
326.5704910633777
 20
308.7167586623881
 30
0.0
 11
293.9539216272999
 21
308.7167586623881
 31
0.0
  0
LINE
  5
1DF7
330
1CDD
100
AcDbEntity
  8
寸法線
 62
     2
370
    -2
100
AcDbLine
 10
295.2039216272999
 20
265.2167586623881
 30
0.0
 11
295.2039216272999
 21
306.2167586623881
 31
0.0
  0
INSERT
  5
1DF8
330
1CDD
100
AcDbEntity
  8
寸法線
 62
     2
370
    -2
100
AcDbBlockReference
  2
_OPEN
 10
295.2039216272999
 20
262.7167586623881
 30
0.0
 41
2.5
 42
2.5
 43
2.5
 50
270.0
  0
INSERT
  5
1DF9
330
1CDD
100
AcDbEntity
  8
寸法線
 62
     2
370
    -2
100
AcDbBlockReference
  2
_OPEN
 10
295.2039216272999
 20
308.7167586623881
 30
0.0
 41
2.5
 42
2.5
 43
2.5
 50
90.0
  0
MTEXT
  5
1DFA
330
1CDD
100
AcDbEntity
  8
寸法線
 62
     6
100
AcDbMText
 10
293.3289216272998
 20
285.7167586623882
 30
0.0
 40
2.5
 41
0.0
 71
     5
 72
     1
  1
\A1;φ46
  7
STYLE3
 11
0.0000000000000001
 21
1.0
 31
0.0
 73
     1
 44
1.0
  0
POINT
  5
1DFB
330
1CDD
100
AcDbEntity
  8
DEFPOINTS
 62
     0
100
AcDbPoint
 10
326.5704910633777
 20
262.7167586623881
 30
0.0
  0
POINT
  5
1DFC
330
1CDD
100
AcDbEntity
  8
DEFPOINTS
 62
     0
100
AcDbPoint
 10
326.5704910633777
 20
308.7167586623881
 30
0.0
  0
POINT
  5
1DFD
330
1CDD
100
AcDbEntity
  8
DEFPOINTS
 62
     0
100
AcDbPoint
 10
295.2039216272999
 20
308.7167586623881
 30
0.0
  0
ENDBLK
  5
1CE8
330
1CDD
100
AcDbEntity
  8
0
100
AcDbBlockEnd
  0
ENDSEC
  0
SECTION
  2
ENTITIES
  0
LINE
  5
244
330
18
100
AcDbEntity
  8
中心線
100
AcDbLine
 10
285.6751414100817
 20
285.7167586623882
 30
0.0
 11
356.1711224090099
 21
285.7167586623882
 31
0.0
  0
LINE
  5
245
330
18
100
AcDbEntity
  8
中心線
100
AcDbLine
 10
326.5704910633776
 20
330.8249762274765
 30
0.0
 11
326.5704910633777
 21
217.8525036773629
 31
0.0
  0
CIRCLE
  5
247
330
18
100
AcDbEntity
  8
外形線
100
AcDbCircle
 10
326.5704910633777
 20
285.7167586623882
 30
0.0
 40
23.0
  0
CIRCLE
  5
248
330
18
100
AcDbEntity
  8
外形線
100
AcDbCircle
 10
326.5704910633777
 20
285.7167586623882
 30
0.0
 40
26.4
  0
LINE
  5
2A5
330
18
100
AcDbEntity
  8
目盛
100
AcDbLine
 10
332.2903584681695
 20
307.9941713683466
 30
0.0
 11
331.8675856599892
 21
306.347579994428
 31
0.0
  0
LINE
  5
2A6
330
18
100
AcDbEntity
  8
目盛
100
AcDbLine
 10
330.8802612988495
 20
308.3093654291479
 30
0.0
 11
330.5617130640538
 21
306.6394771029092
 31
0.0
  0
LINE
  5
2A7
330
18
100
AcDbEntity
  8
目盛
100
AcDbLine
 10
329.4531554353569
 20
308.5353967926212
 30
0.0
 11
329.2400889382975
 21
306.8488018003865
 31
0.0
  0
LINE
  5
2A8
330
18
100
AcDbEntity
  8
目盛
100
AcDbLine
 10
328.0146730125521
 20
308.6713734162384
 30
0.0
 11
327.9079291293522
 21
306.9747279779103
 31
0.0
  0
LINE
  5
2AC
330
18
100
AcDbEntity
  8
目盛
100
AcDbLine
 10
326.5704910633777
 20
308.7167586623881
 30
0.0
 11
326.5704910633777
 21
306.0167586623882
 31
0.0
  0
TEXT
  5
2AD
330
18
100
AcDbEntity
  8
文字
100
AcDbText
 10
325.3561805409287
 20
302.6001225237499
 30
0.0
 40
2.5
  1
0
  7
STYLE3
100
AcDbText
  0
TEXT
  5
2AE
330
18
100
AcDbEntity
  8
文字
100
AcDbText
 10
334.892164121154
 20
298.6863112504959
 30
0.0
 40
2.5
  1
10
  7
STYLE3
100
AcDbText
  0
TEXT
  5
2AF
330
18
100
AcDbEntity
  8
文字
100
AcDbText
 10
341.6955756853495
 20
289.2053990819721
 30
0.0
 40
2.5
  1
20
  7
STYLE3
100
AcDbText
  0
TEXT
  5
2B0
330
18
100
AcDbEntity
  8
文字
100
AcDbText
 10
340.9573634565979
 20
278.4679295913524
 30
0.0
 40
2.5
  1
30
  7
STYLE3
100
AcDbText
  0
TEXT
  5
2B4
330
18
100
AcDbEntity
  8
文字
100
AcDbText
 10
307.2778369526578
 20
278.4916147765514
 30
0.0
 40
2.5
  1
30
  7
STYLE3
100
AcDbText
  0
TEXT
  5
2B5
330
18
100
AcDbEntity
  8
文字
100
AcDbText
 10
307.1129503647859
 20
290.496502854286
 30
0.0
 40
2.5
  1
20
  7
STYLE3
100
AcDbText
  0
TEXT
  5
2B6
330
18
100
AcDbEntity
  8
文字
100
AcDbText
 10
313.1787789728491
 20
298.5948979219276
 30
0.0
 40
2.5
  1
10
  7
STYLE3
100
AcDbText
  0
LINE
  5
2D3
330
18
100
AcDbEntity
  8
外形線
100
AcDbLine
 10
323.1704910633776
 20
240.7167586623881
 30
0.0
 11
329.9704910633777
 21
240.7167586623881
 31
0.0
  0
LINE
  5
2D4
330
18
100
AcDbEntity
  8
外形線
100
AcDbLine
 10
324.3204910633777
 20
229.7167586623881
 30
0.0
 11
328.8204910633777
 21
229.7167586623881
 31
0.0
  0
LINE
  5
2D5
330
18
100
AcDbEntity
  8
外形線
100
AcDbLine
 10
330.5704910633777
 20
259.621548373908
 30
0.0
 11
330.5704910633777
 21
245.2167586623882
 31
0.0
  0
LINE
  5
2D6
330
18
100
AcDbEntity
  8
外形線
100
AcDbLine
 10
322.5704910633777
 20
259.621548373908
 30
0.0
 11
322.5704910633777
 21
245.2167586623881
 31
0.0
  0
LINE
  5
2D9
330
18
100
AcDbEntity
  8
外形線
100
AcDbLine
 10
328.5704910633776
 20
240.7167586623881
 30
0.0
 11
328.5704910633776
 21
229.7167586623881
 31
0.0
  0
LINE
  5
2DA
330
18
100
AcDbEntity
  8
外形線
100
AcDbLine
 10
324.5704910633777
 20
240.7167586623881
 30
0.0
 11
324.5704910633777
 21
229.7167586623881
 31
0.0
  0
LINE
  5
2DB
330
18
100
AcDbEntity
  8
外形線
100
AcDbLine
 10
329.0704910633777
 20
229.5167586623882
 30
0.0
 11
329.0704910633776
 21
226.4167586623881
 31
0.0
  0
LINE
  5
2DC
330
18
100
AcDbEntity
  8
外形線
100
AcDbLine
 10
324.0704910633777
 20
229.5167586623882
 30
0.0
 11
324.0704910633777
 21
226.4167586623881
 31
0.0
  0
LINE
  5
2DD
330
18
100
AcDbEntity
  8
外形線
100
AcDbLine
 10
324.3204910633777
 20
226.2167586623881
 30
0.0
 11
328.8204910633776
 21
226.2167586623881
 31
0.0
  0
LINE
  5
2DE
330
18
100
AcDbEntity
  8
外形線
100
AcDbLine
 10
324.0704910633776
 20
229.5167586623882
 30
0.0
 11
329.0704910633777
 21
229.5167586623882
 31
0.0
  0
LINE
  5
2DF
330
18
100
AcDbEntity
  8
外形線
100
AcDbLine
 10
324.0704910633776
 20
226.4167586623881
 30
0.0
 11
329.0704910633777
 21
226.4167586623881
 31
0.0
  0
LINE
  5
2E0
330
18
100
AcDbEntity
  8
外形線
100
AcDbLine
 10
328.8204910633777
 20
229.7167586623881
 30
0.0
 11
329.0704910633777
 21
229.5167586623882
 31
0.0
  0
LINE
  5
2E1
330
18
100
AcDbEntity
  8
外形線
100
AcDbLine
 10
324.3204910633777
 20
229.7167586623881
 30
0.0
 11
324.0704910633777
 21
229.5167586623882
 31
0.0
  0
LINE
  5
2E2
330
18
100
AcDbEntity
  8
外形線
100
AcDbLine
 10
329.0704910633777
 20
226.4167586623881
 30
0.0
 11
328.8204910633777
 21
226.2167586623881
 31
0.0
  0
LINE
  5
2E3
330
18
100
AcDbEntity
  8
外形線
100
AcDbLine
 10
324.0704910633777
 20
226.4167586623881
 30
0.0
 11
324.3204910633777
 21
226.2167586623881
 31
0.0
  0
LINE
  5
2E5
330
18
100
AcDbEntity
  8
外形線
100
AcDbLine
 10
325.2704910633776
 20
221.7167586623881
 30
0.0
 11
327.8704910633777
 21
221.7167586623881
 31
0.0
  0
LINE
  5
2E6
330
18
100
AcDbEntity
  8
外形線
100
AcDbLine
 10
328.8204910633777
 20
226.2167586623881
 30
0.0
 11
327.8704910633777
 21
221.7167586623881
 31
0.0
  0
LINE
  5
2E7
330
18
100
AcDbEntity
  8
外形線
100
AcDbLine
 10
324.3204910633777
 20
226.2167586623881
 30
0.0
 11
325.2704910633776
 21
221.7167586623881
 31
0.0
  0
LINE
  5
5CF
330
18
100
AcDbEntity
  8
外形線
  6
Continuous
100
AcDbLine
 10
330.2704910633777
 20
326.216758662388
 30
0.0
 11
330.2704910633777
 21
319.716758662388
 31
0.0
  0
LINE
  5
5D0
330
18
100
AcDbEntity
  8
外形線
  6
Continuous
100
AcDbLine
 10
322.8704910633777
 20
326.216758662388
 30
0.0
 11
322.8704910633777
 21
319.716758662388
 31
0.0
  0
LINE
  5
5D1
330
18
100
AcDbEntity
  8
外形線
  6
Continuous
100
AcDbLine
 10
322.8704910633777
 20
326.216758662388
 30
0.0
 11
330.2704910633777
 21
326.216758662388
 31
0.0
  0
LINE
  5
5D2
330
18
100
AcDbEntity
  8
外形線
  6
Continuous
100
AcDbLine
 10
322.5704910633778
 20
319.716758662388
 30
0.0
 11
330.5704910633776
 21
319.716758662388
 31
0.0
  0
LINE
  5
5D3
330
18
100
AcDbEntity
  8
外形線
  6
Continuous
100
AcDbLine
 10
322.5704910633776
 20
313.716758662388
 30
0.0
 11
330.5704910633776
 21
313.716758662388
 31
0.0
  0
LINE
  5
5D4
330
18
100
AcDbEntity
  8
外形線
  6
Continuous
100
AcDbLine
 10
330.5704910633776
 20
319.716758662388
 30
0.0
 11
330.5704910633776
 21
313.716758662388
 31
0.0
  0
LINE
  5
5D5
330
18
100
AcDbEntity
  8
外形線
  6
Continuous
100
AcDbLine
 10
322.5704910633778
 20
319.716758662388
 30
0.0
 11
322.5704910633778
 21
313.716758662388
 31
0.0
  0
LINE
  5
5D6
330
18
100
AcDbEntity
  8
外形線
  6
Continuous
100
AcDbLine
 10
330.2704910633777
 20
313.716758662388
 30
0.0
 11
330.2704910633777
 21
311.85619247416
 31
0.0
  0
LINE
  5
5D7
330
18
100
AcDbEntity
  8
外形線
  6
Continuous
100
AcDbLine
 10
322.8704910633777
 20
313.716758662388
 30
0.0
 11
322.8704910633777
 21
311.85619247416
 31
0.0
  0
ARC
  5
5D9
330
18
100
AcDbEntity
  8
外形線
  6
Continuous
100
AcDbCircle
 10
326.5704910633776
 20
319.8717586623882
 30
0.0
 40
7.344999999999885
100
AcDbArc
 50
59.75198538337817
 51
120.2480146166212
  0
ARC
  5
692
330
18
100
AcDbEntity
  8
外形線
  6
Continuous
100
AcDbCircle
 10
516.810670019408
 20
285.7167586623882
 30
0.0
 40
105.6666666666664
100
AcDbArc
 50
166.3144531747381
 51
193.685546825262
  0
LINE
  5
693
330
18
100
AcDbEntity
  8
外形線
  6
Continuous
100
AcDbLine
 10
414.1440033527416
 20
310.7167586623881
 30
0.0
 11
414.1440033527416
 21
260.7167586623881
 31
0.0
  0
LINE
  5
694
330
18
100
AcDbEntity
  8
外形線
  6
Continuous
100
AcDbLine
 10
415.3440033527417
 20
312.1167586623881
 30
0.0
 11
415.3440033527417
 21
259.3167586623882
 31
0.0
  0
LINE
  5
695
330
18
100
AcDbEntity
  8
外形線
  6
Continuous
100
AcDbLine
 10
419.1440033527416
 20
312.1167586623881
 30
0.0
 11
419.1440033527416
 21
259.3167586623882
 31
0.0
  0
LINE
  5
696
330
18
100
AcDbEntity
  8
外形線
  6
Continuous
100
AcDbLine
 10
420.6440033527417
 20
310.7167586623881
 30
0.0
 11
420.6440033527417
 21
260.7167586623881
 31
0.0
  0
LINE
  5
697
330
18
100
AcDbEntity
  8
外形線
  6
Continuous
100
AcDbLine
 10
432.1440033527416
 20
310.2167586623882
 30
0.0
 11
432.1440033527416
 21
261.2167586623881
 31
0.0
  0
LINE
  5
69C
330
18
100
AcDbEntity
  8
外形線
  6
Continuous
100
AcDbLine
 10
415.3440033527417
 20
260.2167586623882
 30
0.0
 11
414.1440033527416
 21
260.7167586623881
 31
0.0
  0
LINE
  5
6AD
330
18
100
AcDbEntity
  8
外形線
  6
CENTER2
100
AcDbLine
 10
420.6440033527417
 20
260.7167586623881
 30
0.0
 11
419.1440033527416
 21
260.7167586623881
 31
0.0
  0
LINE
  5
6AE
330
18
100
AcDbEntity
  8
外形線
  6
Continuous
100
AcDbLine
 10
415.3440033527417
 20
259.3167586623882
 30
0.0
 11
419.1440033527416
 21
259.3167586623882
 31
0.0
  0
LINE
  5
6AF
330
18
100
AcDbEntity
  8
外形線
  6
Continuous
 62
     4
100
AcDbLine
 10
415.3440033527417
 20
263.3167586623882
 30
0.0
 11
419.1440033527416
 21
263.3167586623882
 31
0.0
  0
LINE
  5
6B0
330
18
100
AcDbEntity
  8
外形線
  6
Continuous
 62
     4
100
AcDbLine
 10
415.3440033527417
 20
262.3167586623882
 30
0.0
 11
419.1440033527416
 21
262.3167586623882
 31
0.0
  0
LINE
  5
6B1
330
18
100
AcDbEntity
  8
外形線
  6
Continuous
 62
     4
100
AcDbLine
 10
415.3440033527417
 20
261.3167586623882
 30
0.0
 11
419.1440033527416
 21
261.3167586623882
 31
0.0
  0
LINE
  5
6B2
330
18
100
AcDbEntity
  8
外形線
  6
Continuous
 62
     4
100
AcDbLine
 10
415.3440033527417
 20
260.3167586623882
 30
0.0
 11
419.1440033527416
 21
260.3167586623882
 31
0.0
  0
ARC
  5
6B8
330
18
100
AcDbEntity
  8
外形線
  6
Continuous
100
AcDbCircle
 10
425.6440033527415
 20
319.8717586623883
 30
0.0
 40
7.344999999999885
100
AcDbArc
 50
59.75198538337879
 51
120.2480146166218
  0
LINE
  5
6B9
330
18
100
AcDbEntity
  8
外形線
  6
Continuous
100
AcDbLine
 10
415.3440033527417
 20
311.2167586623881
 30
0.0
 11
414.1440033527416
 21
310.7167586623881
 31
0.0
  0
LINE
  5
6BA
330
18
100
AcDbEntity
  8
外形線
  6
Continuous
 62
     4
100
AcDbLine
 10
415.3440033527417
 20
264.3167586623881
 30
0.0
 11
419.1440033527416
 21
264.3167586623881
 31
0.0
  0
LINE
  5
6BB
330
18
100
AcDbEntity
  8
外形線
  6
Continuous
 62
     4
100
AcDbLine
 10
419.1440033527416
 20
283.7167586623881
 30
0.0
 11
415.3440033527417
 21
283.7167586623881
 31
0.0
  0
LINE
  5
6BC
330
18
100
AcDbEntity
  8
外形線
  6
Continuous
 62
     4
100
AcDbLine
 10
419.1440033527416
 20
284.7167586623882
 30
0.0
 11
415.3440033527417
 21
284.7167586623882
 31
0.0
  0
LINE
  5
6BD
330
18
100
AcDbEntity
  8
外形線
  6
Continuous
 62
     4
100
AcDbLine
 10
419.1440033527416
 20
285.7167586623882
 30
0.0
 11
415.3440033527417
 21
285.7167586623882
 31
0.0
  0
LINE
  5
6BE
330
18
100
AcDbEntity
  8
外形線
  6
Continuous
 62
     4
100
AcDbLine
 10
419.1440033527416
 20
286.7167586623882
 30
0.0
 11
415.3440033527417
 21
286.7167586623882
 31
0.0
  0
LINE
  5
6BF
330
18
100
AcDbEntity
  8
外形線
  6
Continuous
 62
     4
100
AcDbLine
 10
419.1440033527416
 20
288.7167586623881
 30
0.0
 11
415.3440033527417
 21
288.7167586623881
 31
0.0
  0
LINE
  5
6C0
330
18
100
AcDbEntity
  8
外形線
  6
Continuous
 62
     4
100
AcDbLine
 10
419.1440033527416
 20
287.7167586623881
 30
0.0
 11
415.3440033527417
 21
287.7167586623881
 31
0.0
  0
LINE
  5
6C1
330
18
100
AcDbEntity
  8
外形線
  6
Continuous
 62
     4
100
AcDbLine
 10
415.3440033527417
 20
307.1167586623881
 30
0.0
 11
419.1440033527416
 21
307.1167586623881
 31
0.0
  0
LINE
  5
6C2
330
18
100
AcDbEntity
  8
外形線
  6
Continuous
 62
     4
100
AcDbLine
 10
415.3440033527417
 20
308.1167586623881
 30
0.0
 11
419.1440033527416
 21
308.1167586623881
 31
0.0
  0
LINE
  5
6C3
330
18
100
AcDbEntity
  8
外形線
  6
Continuous
 62
     4
100
AcDbLine
 10
415.3440033527417
 20
309.1167586623881
 30
0.0
 11
419.1440033527416
 21
309.1167586623881
 31
0.0
  0
LINE
  5
6C4
330
18
100
AcDbEntity
  8
外形線
  6
Continuous
 62
     4
100
AcDbLine
 10
415.3440033527417
 20
310.1167586623881
 30
0.0
 11
419.1440033527416
 21
310.1167586623881
 31
0.0
  0
LINE
  5
6C5
330
18
100
AcDbEntity
  8
外形線
  6
Continuous
100
AcDbLine
 10
429.3440033527416
 20
326.2167586623881
 30
0.0
 11
421.9440033527416
 21
326.2167586623881
 31
0.0
  0
LINE
  5
6C6
330
18
100
AcDbEntity
  8
外形線
  6
Continuous
100
AcDbLine
 10
429.6440033527415
 20
319.7167586623881
 30
0.0
 11
421.6440033527415
 21
319.7167586623881
 31
0.0
  0
LINE
  5
6C7
330
18
100
AcDbEntity
  8
外形線
  6
Continuous
100
AcDbLine
 10
429.6440033527415
 20
313.7167586623881
 30
0.0
 11
421.6440033527415
 21
313.7167586623881
 31
0.0
  0
LINE
  5
6C9
330
18
100
AcDbEntity
  8
外形線
  6
Continuous
100
AcDbLine
 10
429.6440033527415
 20
319.7167586623881
 30
0.0
 11
429.6440033527415
 21
313.7167586623881
 31
0.0
  0
LINE
  5
6CA
330
18
100
AcDbEntity
  8
外形線
  6
Continuous
100
AcDbLine
 10
429.3440033527416
 20
313.7167586623881
 30
0.0
 11
429.3440033527416
 21
310.2167586623882
 31
0.0
  0
LINE
  5
6CB
330
18
100
AcDbEntity
  8
外形線
  6
Continuous
100
AcDbLine
 10
429.3440033527416
 20
326.2167586623881
 30
0.0
 11
429.3440033527416
 21
319.7167586623881
 31
0.0
  0
LINE
  5
6CC
330
18
100
AcDbEntity
  8
外形線
  6
Continuous
100
AcDbLine
 10
421.6440033527415
 20
319.7167586623881
 30
0.0
 11
421.6440033527415
 21
313.7167586623881
 31
0.0
  0
LINE
  5
6CD
330
18
100
AcDbEntity
  8
外形線
  6
CENTER2
100
AcDbLine
 10
420.6440033527417
 20
310.7167586623881
 30
0.0
 11
419.1440033527416
 21
310.7167586623881
 31
0.0
  0
LINE
  5
6CE
330
18
100
AcDbEntity
  8
外形線
  6
Continuous
100
AcDbLine
 10
421.9440033527416
 20
313.7167586623881
 30
0.0
 11
421.9440033527415
 21
310.2167586623882
 31
0.0
  0
LINE
  5
6CF
330
18
100
AcDbEntity
  8
外形線
  6
Continuous
 62
     4
100
AcDbLine
 10
415.3440033527417
 20
311.1167586623881
 30
0.0
 11
419.1440033527416
 21
311.1167586623881
 31
0.0
  0
LINE
  5
6D0
330
18
100
AcDbEntity
  8
外形線
  6
Continuous
100
AcDbLine
 10
415.3440033527417
 20
312.1167586623881
 30
0.0
 11
419.1440033527416
 21
312.1167586623881
 31
0.0
  0
LINE
  5
6D1
330
18
100
AcDbEntity
  8
外形線
  6
Continuous
100
AcDbLine
 10
421.9440033527416
 20
326.2167586623881
 30
0.0
 11
421.9440033527416
 21
319.7167586623881
 31
0.0
  0
MTEXT
  5
778
330
18
100
AcDbEntity
  8
DEFPOINTS
  6
Continuous
100
AcDbMText
 10
735.8166661286731
 20
235.565234348894
 30
0.0
 40
1.0
 41
0.0
 71
     4
 72
     1
  1
\A1;
 73
     1
 44
1.0
  0
LINE
  5
789
330
18
100
AcDbEntity
  8
中心線
100
AcDbLine
 10
425.6440033527415
 20
335.1069707388104
 30
0.0
 11
425.6440033527417
 21
217.7981763263399
 31
0.0
  0
LINE
  5
78E
330
18
100
AcDbEntity
  8
外形線
100
AcDbLine
 10
420.6440033527417
 20
261.2167586623881
 30
0.0
 11
432.1440033527416
 21
261.2167586623881
 31
0.0
  0
LINE
  5
78F
330
18
100
AcDbEntity
  8
外形線
100
AcDbLine
 10
420.6440033527417
 20
310.2167586623882
 30
0.0
 11
432.1440033527416
 21
310.2167586623882
 31
0.0
  0
LINE
  5
795
330
18
100
AcDbEntity
  8
外形線
100
AcDbLine
 10
322.5704910633777
 20
245.2167586623881
 30
0.0
 11
330.5704910633777
 21
245.2167586623882
 31
0.0
  0
LINE
  5
796
330
18
100
AcDbEntity
  8
外形線
100
AcDbLine
 10
322.9704910633777
 20
242.7167586623881
 30
0.0
 11
330.1704910633777
 21
242.7167586623882
 31
0.0
  0
LINE
  5
797
330
18
100
AcDbEntity
  8
外形線
100
AcDbLine
 10
322.7204910633777
 20
243.7167586623882
 30
0.0
 11
330.4204910633777
 21
243.7167586623881
 31
0.0
  0
LINE
  5
79F
330
18
100
AcDbEntity
  8
外形線
100
AcDbLine
 10
322.9704910633777
 20
242.7167586623881
 30
0.0
 11
322.9704910633777
 21
240.9167586623881
 31
0.0
  0
LINE
  5
7A0
330
18
100
AcDbEntity
  8
外形線
100
AcDbLine
 10
330.1704910633777
 20
240.9167586623881
 30
0.0
 11
330.1704910633777
 21
242.7167586623881
 31
0.0
  0
LINE
  5
7A1
330
18
100
AcDbEntity
  8
外形線
100
AcDbLine
 10
330.1704910633777
 20
240.9167586623881
 30
0.0
 11
329.9704910633777
 21
240.7167586623881
 31
0.0
  0
LINE
  5
7A2
330
18
100
AcDbEntity
  8
外形線
100
AcDbLine
 10
322.9704910633777
 20
240.9167586623881
 30
0.0
 11
323.1704910633776
 21
240.7167586623881
 31
0.0
  0
LINE
  5
7A5
330
18
100
AcDbEntity
  8
外形線
100
AcDbLine
 10
322.7204910633777
 20
245.2167586623882
 30
0.0
 11
322.7204910633777
 21
243.7167586623881
 31
0.0
  0
LINE
  5
7A6
330
18
100
AcDbEntity
  8
外形線
100
AcDbLine
 10
330.4204910633777
 20
245.2167586623882
 30
0.0
 11
330.4204910633777
 21
243.7167586623881
 31
0.0
  0
ARC
  5
7AC
330
18
100
AcDbEntity
  8
外形線
100
AcDbCircle
 10
330.2954910633777
 20
243.2167586623882
 30
0.0
 40
0.5153882032022076
100
AcDbArc
 50
75.96375653207353
 51
255.9637565320735
  0
ARC
  5
7AD
330
18
100
AcDbEntity
  8
外形線
100
AcDbCircle
 10
322.8454910633776
 20
243.2167586623882
 30
0.0
 40
0.5153882032022076
100
AcDbArc
 50
284.0362434679264
 51
104.0362434679264
  0
LINE
  5
7B0
330
18
100
AcDbEntity
  8
外形線
100
AcDbLine
 10
427.6440033527416
 20
240.7167586623881
 30
0.0
 11
427.6440033527416
 21
229.7167586623881
 31
0.0
  0
LINE
  5
7B1
330
18
100
AcDbEntity
  8
外形線
100
AcDbLine
 10
423.6440033527417
 20
240.7167586623881
 30
0.0
 11
423.6440033527417
 21
229.7167586623881
 31
0.0
  0
LINE
  5
7B2
330
18
100
AcDbEntity
  8
外形線
100
AcDbLine
 10
428.1440033527417
 20
229.5167586623882
 30
0.0
 11
428.1440033527416
 21
226.4167586623881
 31
0.0
  0
LINE
  5
7B3
330
18
100
AcDbEntity
  8
外形線
100
AcDbLine
 10
423.1440033527417
 20
229.5167586623882
 30
0.0
 11
423.1440033527417
 21
226.4167586623881
 31
0.0
  0
LINE
  5
7B5
330
18
100
AcDbEntity
  8
外形線
100
AcDbLine
 10
424.3440033527416
 20
221.7167586623881
 30
0.0
 11
426.9440033527416
 21
221.7167586623881
 31
0.0
  0
LINE
  5
7B7
330
18
100
AcDbEntity
  8
外形線
100
AcDbLine
 10
423.3940033527416
 20
226.2167586623881
 30
0.0
 11
427.8940033527415
 21
226.2167586623881
 31
0.0
  0
LINE
  5
7B8
330
18
100
AcDbEntity
  8
外形線
100
AcDbLine
 10
423.1440033527416
 20
226.4167586623881
 30
0.0
 11
428.1440033527417
 21
226.4167586623881
 31
0.0
  0
LINE
  5
7B9
330
18
100
AcDbEntity
  8
外形線
100
AcDbLine
 10
423.3940033527416
 20
226.2167586623881
 30
0.0
 11
424.3440033527416
 21
221.7167586623881
 31
0.0
  0
LINE
  5
7BA
330
18
100
AcDbEntity
  8
外形線
100
AcDbLine
 10
423.1440033527417
 20
226.4167586623881
 30
0.0
 11
423.3940033527416
 21
226.2167586623881
 31
0.0
  0
LINE
  5
7BB
330
18
100
AcDbEntity
  8
外形線
100
AcDbLine
 10
427.8940033527417
 20
226.2167586623881
 30
0.0
 11
426.9440033527416
 21
221.7167586623881
 31
0.0
  0
LINE
  5
7BC
330
18
100
AcDbEntity
  8
外形線
100
AcDbLine
 10
428.1440033527417
 20
226.4167586623881
 30
0.0
 11
427.8940033527417
 21
226.2167586623881
 31
0.0
  0
LINE
  5
7BD
330
18
100
AcDbEntity
  8
外形線
100
AcDbLine
 10
423.3940033527416
 20
229.7167586623881
 30
0.0
 11
427.8940033527417
 21
229.7167586623881
 31
0.0
  0
LINE
  5
7BE
330
18
100
AcDbEntity
  8
外形線
100
AcDbLine
 10
423.1440033527416
 20
229.5167586623882
 30
0.0
 11
428.1440033527417
 21
229.5167586623882
 31
0.0
  0
LINE
  5
7BF
330
18
100
AcDbEntity
  8
外形線
100
AcDbLine
 10
423.3940033527416
 20
229.7167586623881
 30
0.0
 11
423.1440033527417
 21
229.5167586623882
 31
0.0
  0
LINE
  5
7C0
330
18
100
AcDbEntity
  8
外形線
100
AcDbLine
 10
427.8940033527417
 20
229.7167586623881
 30
0.0
 11
428.1440033527417
 21
229.5167586623882
 31
0.0
  0
LINE
  5
7C1
330
18
100
AcDbEntity
  8
外形線
100
AcDbLine
 10
429.6440033527416
 20
261.2167586623881
 30
0.0
 11
429.6440033527416
 21
245.2167586623882
 31
0.0
  0
LINE
  5
7C2
330
18
100
AcDbEntity
  8
外形線
100
AcDbLine
 10
421.6440033527418
 20
261.2167586623881
 30
0.0
 11
421.6440033527417
 21
245.2167586623881
 31
0.0
  0
LINE
  5
7C3
330
18
100
AcDbEntity
  8
外形線
100
AcDbLine
 10
422.0440033527417
 20
242.7167586623881
 30
0.0
 11
422.0440033527417
 21
240.9167586623881
 31
0.0
  0
LINE
  5
7C4
330
18
100
AcDbEntity
  8
外形線
100
AcDbLine
 10
429.2440033527417
 20
240.9167586623881
 30
0.0
 11
429.2440033527417
 21
242.7167586623881
 31
0.0
  0
LINE
  5
7C5
330
18
100
AcDbEntity
  8
外形線
100
AcDbLine
 10
422.2440033527417
 20
240.7167586623881
 30
0.0
 11
429.0440033527417
 21
240.7167586623881
 31
0.0
  0
LINE
  5
7C6
330
18
100
AcDbEntity
  8
外形線
100
AcDbLine
 10
422.0440033527417
 20
240.9167586623881
 30
0.0
 11
422.2440033527417
 21
240.7167586623881
 31
0.0
  0
LINE
  5
7C7
330
18
100
AcDbEntity
  8
外形線
100
AcDbLine
 10
429.2440033527417
 20
240.9167586623881
 30
0.0
 11
429.0440033527417
 21
240.7167586623881
 31
0.0
  0
LINE
  5
7C8
330
18
100
AcDbEntity
  8
外形線
100
AcDbLine
 10
421.7940033527416
 20
243.7167586623882
 30
0.0
 11
429.4940033527417
 21
243.7167586623881
 31
0.0
  0
LINE
  5
7C9
330
18
100
AcDbEntity
  8
外形線
100
AcDbLine
 10
422.0440033527417
 20
242.7167586623881
 30
0.0
 11
429.2440033527417
 21
242.7167586623882
 31
0.0
  0
LINE
  5
7CA
330
18
100
AcDbEntity
  8
外形線
100
AcDbLine
 10
421.6440033527417
 20
245.2167586623881
 30
0.0
 11
429.6440033527416
 21
245.2167586623882
 31
0.0
  0
ARC
  5
7CB
330
18
100
AcDbEntity
  8
外形線
100
AcDbCircle
 10
421.9190033527416
 20
243.2167586623882
 30
0.0
 40
0.5153882032022076
100
AcDbArc
 50
284.0362434679264
 51
104.0362434679264
  0
LINE
  5
7CC
330
18
100
AcDbEntity
  8
外形線
100
AcDbLine
 10
421.7940033527416
 20
245.2167586623882
 30
0.0
 11
421.7940033527416
 21
243.7167586623881
 31
0.0
  0
ARC
  5
7CD
330
18
100
AcDbEntity
  8
外形線
100
AcDbCircle
 10
429.3690033527417
 20
243.2167586623882
 30
0.0
 40
0.5153882032022076
100
AcDbArc
 50
75.96375653207353
 51
255.9637565320735
  0
LINE
  5
7CE
330
18
100
AcDbEntity
  8
外形線
100
AcDbLine
 10
429.4940033527417
 20
245.2167586623882
 30
0.0
 11
429.4940033527417
 21
243.7167586623881
 31
0.0
  0
LINE
  5
7D6
330
18
100
AcDbEntity
  8
中心線
100
AcDbLine
 10
407.6673036067877
 20
285.7167586623882
 30
0.0
 11
436.3602784495666
 21
285.7167586623882
 31
0.0
  0
LINE
  5
833
330
18
100
AcDbEntity
  8
0
  6
ByBlock
 62
     2
100
AcDbLine
 10
326.5704910633776
 20
327.2167586623881
 30
0.0
 11
278.5801048006795
 21
327.2167586623881
 31
0.0
  0
LINE
  5
835
330
18
100
AcDbEntity
  8
0
  6
ByBlock
 62
     2
100
AcDbLine
 10
286.9251414100816
 20
324.7167586623882
 30
0.0
 11
286.9251414100816
 21
288.2167586623881
 31
0.0
  0
INSERT
  5
836
330
18
100
AcDbEntity
  8
0
  6
ByBlock
 62
     2
100
AcDbBlockReference
  2
_OPEN
 10
286.9251414100816
 20
327.2167586623881
 30
0.0
 41
2.5
 42
2.5
 43
2.5
 50
90.0
  0
INSERT
  5
837
330
18
100
AcDbEntity
  8
0
  6
ByBlock
 62
     2
100
AcDbBlockReference
  2
_OPEN
 10
286.9251414100816
 20
285.7167586623882
 30
0.0
 41
2.5
 42
2.5
 43
2.5
 50
270.0
  0
MTEXT
  5
838
330
18
100
AcDbEntity
  8
0
  6
ByBlock
 62
     6
100
AcDbMText
 10
285.0501414100817
 20
306.4667586623881
 30
0.0
 40
2.5
 41
0.0
 71
     5
 72
     1
  1
\A1;41.5
  7
STYLE3
 11
0.0000000000000001
 21
1.0
 31
0.0
 73
     1
 44
1.0
  0
POINT
  5
839
330
18
100
AcDbEntity
  8
DEFPOINTS
  6
ByBlock
 62
     0
100
AcDbPoint
 10
326.5704910633776
 20
327.2167586623881
 30
0.0
  0
LINE
  5
83C
330
18
100
AcDbEntity
  8
0
  6
ByBlock
 62
     2
100
AcDbLine
 10
326.5704910633777
 20
220.7167586623882
 30
0.0
 11
278.5801048006796
 21
220.7167586623882
 31
0.0
  0
LINE
  5
83D
330
18
100
AcDbEntity
  8
0
  6
ByBlock
 62
     2
100
AcDbLine
 10
286.9251414100816
 20
283.2167586623882
 30
0.0
 11
286.9251414100816
 21
223.2167586623881
 31
0.0
  0
INSERT
  5
83E
330
18
100
AcDbEntity
  8
0
  6
ByBlock
 62
     2
100
AcDbBlockReference
  2
_OPEN
 10
286.9251414100816
 20
285.7167586623882
 30
0.0
 41
2.5
 42
2.5
 43
2.5
 50
90.0
  0
INSERT
  5
83F
330
18
100
AcDbEntity
  8
0
  6
ByBlock
 62
     2
100
AcDbBlockReference
  2
_OPEN
 10
286.9251414100816
 20
220.7167586623882
 30
0.0
 41
2.5
 42
2.5
 43
2.5
 50
270.0
  0
MTEXT
  5
840
330
18
100
AcDbEntity
  8
0
  6
ByBlock
 62
     6
100
AcDbMText
 10
285.0501414100817
 20
253.2167586623881
 30
0.0
 40
2.5
 41
0.0
 71
     5
 72
     1
  1
\A1;65
  7
STYLE3
 11
0.0000000000000001
 21
1.0
 31
0.0
 73
     1
 44
1.0
  0
POINT
  5
842
330
18
100
AcDbEntity
  8
DEFPOINTS
  6
ByBlock
 62
     0
100
AcDbPoint
 10
326.5704910633777
 20
220.7167586623882
 30
0.0
  0
POINT
  5
843
330
18
100
AcDbEntity
  8
DEFPOINTS
  6
ByBlock
 62
     0
100
AcDbPoint
 10
286.9251414100816
 20
220.7167586623882
 30
0.0
  0
LINE
  5
846
330
18
100
AcDbEntity
  8
0
  6
ByBlock
 62
     2
100
AcDbLine
 10
279.8301048006795
 20
324.7167586623882
 30
0.0
 11
279.8301048006795
 21
223.2167586623881
 31
0.0
  0
INSERT
  5
847
330
18
100
AcDbEntity
  8
0
  6
ByBlock
 62
     2
100
AcDbBlockReference
  2
_OPEN
 10
279.8301048006795
 20
327.2167586623881
 30
0.0
 41
2.5
 42
2.5
 43
2.5
 50
90.0
  0
INSERT
  5
848
330
18
100
AcDbEntity
  8
0
  6
ByBlock
 62
     2
100
AcDbBlockReference
  2
_OPEN
 10
279.8301048006795
 20
220.7167586623882
 30
0.0
 41
2.5
 42
2.5
 43
2.5
 50
270.0
  0
MTEXT
  5
849
330
18
100
AcDbEntity
  8
0
  6
ByBlock
 62
     6
100
AcDbMText
 10
277.9551048006795
 20
273.9667586623881
 30
0.0
 40
2.5
 41
0.0
 71
     5
 72
     1
  1
\A1;106.5
  7
STYLE3
 11
0.0000000000000001
 21
1.0
 31
0.0
 73
     1
 44
1.0
  0
POINT
  5
84A
330
18
100
AcDbEntity
  8
DEFPOINTS
  6
ByBlock
 62
     0
100
AcDbPoint
 10
285.6751414100817
 20
327.2167586623881
 30
0.0
  0
POINT
  5
84B
330
18
100
AcDbEntity
  8
DEFPOINTS
  6
ByBlock
 62
     0
100
AcDbPoint
 10
285.6751414100817
 20
220.7167586623882
 30
0.0
  0
POINT
  5
84C
330
18
100
AcDbEntity
  8
DEFPOINTS
  6
ByBlock
 62
     0
100
AcDbPoint
 10
279.8301048006795
 20
220.7167586623882
 30
0.0
  0
LINE
  5
874
330
18
100
AcDbEntity
  8
0
  6
ByBlock
 62
     2
100
AcDbLine
 10
325.0704910633777
 20
253.1959430375672
 30
0.0
 11
328.0704910633777
 21
253.1959430375672
 31
0.0
  0
INSERT
  5
875
330
18
100
AcDbEntity
  8
0
  6
ByBlock
 62
     2
100
AcDbBlockReference
  2
_OPEN
 10
322.5704910633777
 20
253.1959430375672
 30
0.0
 41
2.5
 42
2.5
 43
2.5
 50
180.0
  0
INSERT
  5
876
330
18
100
AcDbEntity
  8
0
  6
ByBlock
 62
     2
100
AcDbBlockReference
  2
_OPEN
 10
330.5704910633777
 20
253.1959430375672
 30
0.0
 41
2.5
 42
2.5
 43
2.5
  0
MTEXT
  5
877
330
18
100
AcDbEntity
  8
0
  6
ByBlock
 62
     6
100
AcDbMText
 10
327.3815935535188
 20
255.0709430375672
 30
0.0
 40
2.5
 41
0.0
 71
     5
 72
     1
  1
8.0
  7
STYLE3
 73
     1
 44
1.0
  0
POINT
  5
878
330
18
100
AcDbEntity
  8
DEFPOINTS
  6
ByBlock
 62
     0
100
AcDbPoint
 10
322.5704910633777
 20
250.4992280806906
 30
0.0
  0
POINT
  5
879
330
18
100
AcDbEntity
  8
DEFPOINTS
  6
ByBlock
 62
     0
100
AcDbPoint
 10
330.5704910633777
 20
250.3371417393449
 30
0.0
  0
POINT
  5
87A
330
18
100
AcDbEntity
  8
DEFPOINTS
  6
ByBlock
 62
     0
100
AcDbPoint
 10
330.5704910633777
 20
251.0665309579593
 30
0.0
  0
LINE
  5
87B
330
18
100
AcDbEntity
  8
0
  6
ByBlock
 62
     2
100
AcDbLine
 10
322.0704910633777
 20
233.8043121701243
 30
0.0
 11
321.1926952403939
 21
233.8043121701243
 31
0.0
  0
LINE
  5
87C
330
18
100
AcDbEntity
  8
0
  6
ByBlock
 62
     2
100
AcDbLine
 10
331.0704910633776
 20
233.8043121701243
 30
0.0
 11
335.5982472887302
 21
233.8043121701243
 31
0.0
  0
LINE
  5
87D
330
18
100
AcDbEntity
  8
0
  6
ByBlock
 62
     2
100
AcDbLine
 10
324.5704910633777
 20
233.8043121701243
 30
0.0
 11
328.5704910633776
 21
233.8043121701243
 31
0.0
  0
INSERT
  5
87E
330
18
100
AcDbEntity
  8
0
  6
ByBlock
 62
     2
100
AcDbBlockReference
  2
_OPEN
 10
324.5704910633777
 20
233.8043121701243
 30
0.0
 41
2.5
 42
2.5
 43
2.5
  0
INSERT
  5
87F
330
18
100
AcDbEntity
  8
0
  6
ByBlock
 62
     2
100
AcDbBlockReference
  2
_OPEN
 10
328.5704910633776
 20
233.8043121701243
 30
0.0
 41
2.5
 42
2.5
 43
2.5
 50
180.0
  0
MTEXT
  5
880
330
18
100
AcDbEntity
  8
0
  6
ByBlock
 62
     6
100
AcDbMText
 10
334.032634615288
 20
235.6793121701243
 30
0.0
 40
2.5
 41
0.0
 71
     5
 72
     1
  1
\A1;4
  7
STYLE3
 73
     1
 44
1.0
  0
POINT
  5
881
330
18
100
AcDbEntity
  8
DEFPOINTS
  6
ByBlock
 62
     0
100
AcDbPoint
 10
324.5704910633777
 20
234.4526584455855
 30
0.0
  0
POINT
  5
882
330
18
100
AcDbEntity
  8
DEFPOINTS
  6
ByBlock
 62
     0
100
AcDbPoint
 10
328.5704910633776
 20
234.371615047393
 30
0.0
  0
POINT
  5
883
330
18
100
AcDbEntity
  8
DEFPOINTS
  6
ByBlock
 62
     0
100
AcDbPoint
 10
328.5704910633776
 20
233.8043121701243
 30
0.0
  0
TEXT
  5
884
330
18
100
AcDbEntity
  8
文字
100
AcDbText
 10
330.8385023576012
 20
235.1820481192391
 30
0.0
 40
2.5
  1
φ
  7
STYLE3
100
AcDbText
  0
TEXT
  5
885
330
18
100
AcDbEntity
  8
文字
100
AcDbText
 10
322.4373804790011
 20
255.5579011732636
 30
0.0
 40
2.5
  1
φ
  7
STYLE3
100
AcDbText
  0
MTEXT
  5
887
330
18
100
AcDbEntity
  8
文字
100
AcDbMText
 10
302.9558756866726
 20
261.6432165871282
 30
0.0
 40
1.0
 41
6.927999999999999
 71
     1
 72
     5
  1

  7
STYLE3
 73
     1
 44
1.0
  0
LINE
  5
8FD
330
18
100
AcDbEntity
  8
0
  6
ByBlock
 62
     2
100
AcDbLine
 10
423.3940033527416
 20
229.7167586623881
 30
0.0
 11
410.1837584084734
 21
229.7167586623881
 31
0.0
  0
LINE
  5
8FF
330
18
100
AcDbEntity
  8
0
  6
ByBlock
 62
     2
100
AcDbLine
 10
411.4337584084735
 20
227.2167586623881
 30
0.0
 11
411.4337584084735
 21
223.2167586623881
 31
0.0
  0
INSERT
  5
900
330
18
100
AcDbEntity
  8
0
  6
ByBlock
 62
     2
100
AcDbBlockReference
  2
_OPEN
 10
411.4337584084735
 20
229.7167586623881
 30
0.0
 41
2.5
 42
2.5
 43
2.5
 50
90.0
  0
INSERT
  5
901
330
18
100
AcDbEntity
  8
0
  6
ByBlock
 62
     2
100
AcDbBlockReference
  2
_OPEN
 10
411.4337584084735
 20
220.7167586623882
 30
0.0
 41
2.5
 42
2.5
 43
2.5
 50
270.0
  0
MTEXT
  5
902
330
18
100
AcDbEntity
  8
0
  6
ByBlock
 62
     6
100
AcDbMText
 10
409.5587584084734
 20
225.2167586623881
 30
0.0
 40
2.5
 41
0.0
 71
     5
 72
     1
  1
\A1;9
  7
STYLE3
 11
0.0000000000000001
 21
1.0
 31
0.0
 73
     1
 44
1.0
  0
POINT
  5
903
330
18
100
AcDbEntity
  8
DEFPOINTS
  6
ByBlock
 62
     0
100
AcDbPoint
 10
423.3940033527416
 20
229.7167586623881
 30
0.0
  0
LINE
  5
907
330
18
100
AcDbEntity
  8
0
  6
ByBlock
 62
     2
100
AcDbLine
 10
421.6440033527417
 20
245.2167586623881
 30
0.0
 11
410.0998051616278
 21
245.2167586623881
 31
0.0
  0
LINE
  5
908
330
18
100
AcDbEntity
  8
0
  6
ByBlock
 62
     2
100
AcDbLine
 10
411.3498051616279
 20
256.8167586623882
 30
0.0
 11
411.3498051616279
 21
247.7167586623881
 31
0.0
  0
INSERT
  5
909
330
18
100
AcDbEntity
  8
0
  6
ByBlock
 62
     2
100
AcDbBlockReference
  2
_OPEN
 10
411.3498051616279
 20
259.3167586623882
 30
0.0
 41
2.5
 42
2.5
 43
2.5
 50
90.0
  0
INSERT
  5
90A
330
18
100
AcDbEntity
  8
0
  6
ByBlock
 62
     2
100
AcDbBlockReference
  2
_OPEN
 10
411.3498051616279
 20
245.2167586623881
 30
0.0
 41
2.5
 42
2.5
 43
2.5
 50
270.0
  0
MTEXT
  5
90B
330
18
100
AcDbEntity
  8
0
  6
ByBlock
 62
     6
100
AcDbMText
 10
409.4748051616279
 20
252.2667586623882
 30
0.0
 40
2.5
 41
0.0
 71
     5
 72
     1
  1
14
  7
STYLE3
 11
0.0000000000000001
 21
1.0
 31
0.0
 73
     1
 44
1.0
  0
POINT
  5
90D
330
18
100
AcDbEntity
  8
DEFPOINTS
  6
ByBlock
 62
     0
100
AcDbPoint
 10
421.6440033527417
 20
245.2167586623881
 30
0.0
  0
POINT
  5
90E
330
18
100
AcDbEntity
  8
DEFPOINTS
  6
ByBlock
 62
     0
100
AcDbPoint
 10
411.3498051616279
 20
245.2167586623881
 30
0.0
  0
LINE
  5
910
330
18
100
AcDbEntity
  8
0
  6
ByBlock
 62
     2
100
AcDbLine
 10
422.2440033527417
 20
240.7167586623881
 30
0.0
 11
401.9766902621599
 21
240.7167586623881
 31
0.0
  0
LINE
  5
911
330
18
100
AcDbEntity
  8
0
  6
ByBlock
 62
     2
100
AcDbLine
 10
403.2266902621599
 20
256.8167586623882
 30
0.0
 11
403.2266902621599
 21
243.2167586623881
 31
0.0
  0
INSERT
  5
912
330
18
100
AcDbEntity
  8
0
  6
ByBlock
 62
     2
100
AcDbBlockReference
  2
_OPEN
 10
403.2266902621599
 20
259.3167586623882
 30
0.0
 41
2.5
 42
2.5
 43
2.5
 50
90.0
  0
INSERT
  5
913
330
18
100
AcDbEntity
  8
0
  6
ByBlock
 62
     2
100
AcDbBlockReference
  2
_OPEN
 10
403.2266902621599
 20
240.7167586623881
 30
0.0
 41
2.5
 42
2.5
 43
2.5
 50
270.0
  0
MTEXT
  5
914
330
18
100
AcDbEntity
  8
0
  6
ByBlock
 62
     6
100
AcDbMText
 10
401.3516902621599
 20
250.0167586623882
 30
0.0
 40
2.5
 41
0.0
 71
     5
 72
     1
  1
18.5
  7
STYLE3
 11
0.0000000000000001
 21
1.0
 31
0.0
 73
     1
 44
1.0
  0
POINT
  5
916
330
18
100
AcDbEntity
  8
DEFPOINTS
  6
ByBlock
 62
     0
100
AcDbPoint
 10
422.2440033527417
 20
240.7167586623881
 30
0.0
  0
POINT
  5
917
330
18
100
AcDbEntity
  8
DEFPOINTS
  6
ByBlock
 62
     0
100
AcDbPoint
 10
403.2266902621599
 20
240.7167586623881
 30
0.0
  0
TEXT
  5
93E
330
18
100
AcDbEntity
  8
文字
100
AcDbText
 10
444.7902981142169
 20
280.6096763753708
 30
0.0
 40
2.5
  1
φ
 50
90.0
  7
STYLE3
100
AcDbText
  0
LWPOLYLINE
  5
96E
330
18
100
AcDbEntity
  8
C
100
AcDbPolyline
 90
        5
 70
     0
 43
0.4
 10
236.6915604445414
 20
366.8501752555372
 10
491.6915604445414
 20
366.8501752555372
 10
491.6915604445414
 20
171.8501752555372
 10
236.6915604445414
 20
171.8501752555372
 10
236.6915604445414
 20
366.8501752555372
  0
MTEXT
  5
EB4
330
18
100
AcDbEntity
  8
DEFPOINTS
  6
Continuous
100
AcDbMText
 10
624.6916853418142
 20
184.890767874579
 30
0.0
 40
0.35
 41
0.0
 71
     4
 72
     1
  1
\A1;
 73
     1
 44
1.0
  0
LINE
  5
F32
330
18
100
AcDbEntity
  8
0
  6
ByBlock
 62
     2
100
AcDbLine
 10
432.1440033527416
 20
310.2167586623882
 30
0.0
 11
446.8387791592397
 21
310.2167586623882
 31
0.0
  0
LINE
  5
F33
330
18
100
AcDbEntity
  8
0
  6
ByBlock
 62
     2
100
AcDbLine
 10
432.1440033527416
 20
261.2167586623881
 30
0.0
 11
446.8387791592397
 21
261.2167586623881
 31
0.0
  0
LINE
  5
F34
330
18
100
AcDbEntity
  8
0
  6
ByBlock
 62
     2
100
AcDbLine
 10
445.5887791592397
 20
307.7167586623882
 30
0.0
 11
445.5887791592397
 21
263.7167586623881
 31
0.0
  0
INSERT
  5
F35
330
18
100
AcDbEntity
  8
0
  6
ByBlock
 62
     2
100
AcDbBlockReference
  2
_OPEN
 10
445.5887791592397
 20
310.2167586623882
 30
0.0
 41
2.5
 42
2.5
 43
2.5
 50
90.0
  0
INSERT
  5
F36
330
18
100
AcDbEntity
  8
0
  6
ByBlock
 62
     2
100
AcDbBlockReference
  2
_OPEN
 10
445.5887791592397
 20
261.2167586623881
 30
0.0
 41
2.5
 42
2.5
 43
2.5
 50
270.0
  0
MTEXT
  5
F37
330
18
100
AcDbEntity
  8
0
  6
ByBlock
 62
     6
100
AcDbMText
 10
443.5939357227898
 20
285.7167586623882
 30
0.0
 40
2.5
 41
0.0
 71
     5
 72
     1
  1
\A1;49
  7
STYLE3
 11
0.0000000000000001
 21
1.0
 31
0.0
 73
     1
 44
1.0
  0
POINT
  5
F3A
330
18
100
AcDbEntity
  8
DEFPOINTS
  6
ByBlock
 62
     0
100
AcDbPoint
 10
445.5887791592397
 20
261.2167586623881
 30
0.0
  0
POINT
  5
10CF
330
18
100
AcDbEntity
  8
DEFPOINTS
  6
ByBlock
 62
     0
100
AcDbPoint
 10
425.6440033527415
 20
310.2167586623882
 30
0.0
  0
LINE
  5
10D2
330
18
100
AcDbEntity
  8
0
  6
ByBlock
 62
     2
100
AcDbLine
 10
411.1440033527416
 20
285.7167586623882
 30
0.0
 11
411.1440033527416
 21
335.1069707388104
 31
0.0
  0
LINE
  5
10D4
330
18
100
AcDbEntity
  8
0
  6
ByBlock
 62
     2
100
AcDbLine
 10
413.6440033527415
 20
333.8569707388105
 30
0.0
 11
423.1440033527416
 21
333.8569707388105
 31
0.0
  0
INSERT
  5
10D5
330
18
100
AcDbEntity
  8
0
  6
ByBlock
 62
     2
100
AcDbBlockReference
  2
_OPEN
 10
411.1440033527416
 20
333.8569707388105
 30
0.0
 41
2.5
 42
2.5
 43
2.5
 50
180.0
  0
INSERT
  5
10D6
330
18
100
AcDbEntity
  8
0
  6
ByBlock
 62
     2
100
AcDbBlockReference
  2
_OPEN
 10
425.6440033527415
 20
333.8569707388105
 30
0.0
 41
2.5
 42
2.5
 43
2.5
  0
MTEXT
  5
10D7
330
18
100
AcDbEntity
  8
0
  6
ByBlock
 62
     6
100
AcDbMText
 10
418.3940033527416
 20
335.7319707388104
 30
0.0
 40
2.5
 41
0.0
 71
     5
 72
     1
  1
\A1;14.5
  7
STYLE3
 73
     1
 44
1.0
  0
POINT
  5
10D8
330
18
100
AcDbEntity
  8
DEFPOINTS
  6
ByBlock
 62
     0
100
AcDbPoint
 10
411.1440033527416
 20
285.7167586623882
 30
0.0
  0
POINT
  5
10D9
330
18
100
AcDbEntity
  8
DEFPOINTS
  6
ByBlock
 62
     0
100
AcDbPoint
 10
425.6440033527415
 20
327.2167586623881
 30
0.0
  0
POINT
  5
10DA
330
18
100
AcDbEntity
  8
DEFPOINTS
  6
ByBlock
 62
     0
100
AcDbPoint
 10
425.6440033527415
 20
333.8569707388105
 30
0.0
  0
LINE
  5
128B
330
18
100
AcDbEntity
  8
目盛
100
AcDbLine
 10
320.8506236585862
 20
307.9941713683468
 30
0.0
 11
321.2733964667664
 21
306.347579994428
 31
0.0
  0
LINE
  5
128C
330
18
100
AcDbEntity
  8
目盛
100
AcDbLine
 10
319.4631001927539
 20
307.5910585371766
 30
0.0
 11
320.2974460775663
 21
305.0232059431797
 31
0.0
  0
LINE
  5
128D
330
18
100
AcDbEntity
  8
目盛
100
AcDbLine
 10
325.1263091142036
 20
308.6713734162383
 30
0.0
 11
325.2330529974035
 21
306.9747279779103
 31
0.0
  0
LINE
  5
128E
330
18
100
AcDbEntity
  8
目盛
100
AcDbLine
 10
323.6878266913988
 20
308.5353967926212
 30
0.0
 11
323.9008931884582
 21
306.8488018003866
 31
0.0
  0
LINE
  5
128F
330
18
100
AcDbEntity
  8
目盛
100
AcDbLine
 10
322.2607208279062
 20
308.309365429148
 30
0.0
 11
322.5792690627019
 21
306.6394771029093
 31
0.0
  0
LINE
  5
1290
330
18
100
AcDbEntity
  8
目盛
100
AcDbLine
 10
314.246474778861
 20
305.1363009489346
 30
0.0
 11
315.1573803303252
 21
303.7009434755812
 31
0.0
  0
LINE
  5
1291
330
18
100
AcDbEntity
  8
目盛
100
AcDbLine
 10
313.0514302606508
 20
304.3241495330119
 30
0.0
 11
314.6384504418405
 21
302.1398036481997
 31
0.0
  0
LINE
  5
1292
330
18
100
AcDbEntity
  8
目盛
100
AcDbLine
 10
318.1036263516302
 20
307.101617837818
 30
0.0
 11
318.7294380911942
 21
305.520997811808
 31
0.0
  0
LINE
  5
1293
330
18
100
AcDbEntity
  8
目盛
100
AcDbLine
 10
316.7775673573812
 20
306.5277808691066
 30
0.0
 11
317.5013921530418
 21
304.9895748799145
 31
0.0
  0
LINE
  5
1294
330
18
100
AcDbEntity
  8
目盛
100
AcDbLine
 10
315.4901565590384
 20
305.8718123033972
 30
0.0
 11
316.3091378050113
 21
304.3820909473226
 31
0.0
  0
LINE
  5
1295
330
18
100
AcDbEntity
  8
目盛
100
AcDbLine
 10
308.8486864795346
 20
300.3775104266082
 30
0.0
 11
310.1585589922535
 21
299.2938896440353
 31
0.0
  0
LINE
  5
1296
330
18
100
AcDbEntity
  8
目盛
100
AcDbLine
 10
307.9631001927539
 20
299.235819465115
 30
0.0
 11
310.1474460775662
 21
297.6487992839254
 31
0.0
  0
LINE
  5
1297
330
18
100
AcDbEntity
  8
目盛
100
AcDbLine
 10
311.9097392991579
 20
303.4385632462313
 30
0.0
 11
312.9933600817306
 21
302.1286907335126
 31
0.0
  0
LINE
  5
1298
330
18
100
AcDbEntity
  8
目盛
100
AcDbLine
 10
310.825907627018
 20
302.4830370930807
 30
0.0
 11
311.9896377070967
 21
301.2437904264643
 31
0.0
  0
LINE
  5
1299
330
18
100
AcDbEntity
  8
目盛
100
AcDbLine
 10
309.8042126326853
 20
301.4613420987481
 30
0.0
 11
311.0434592993017
 21
300.2976120186693
 31
0.0
  0
LINE
  5
129A
330
18
100
AcDbEntity
  8
目盛
100
AcDbLine
 10
305.185631887948
 20
294.1836233741359
 30
0.0
 11
306.766251913958
 21
293.5578116345719
 31
0.0
  0
LINE
  5
129B
330
18
100
AcDbEntity
  8
目盛
100
AcDbLine
 10
304.6961911885892
 20
292.8241495330119
 30
0.0
 11
307.2640437825861
 21
291.9898036481996
 31
0.0
  0
LINE
  5
129C
330
18
100
AcDbEntity
  8
目盛
100
AcDbLine
 10
307.1509487768314
 20
298.0407749469052
 30
0.0
 11
308.5863062501849
 21
297.1298693954409
 31
0.0
  0
LINE
  5
129D
330
18
100
AcDbEntity
  8
目盛
100
AcDbLine
 10
306.4154374223689
 20
296.7970931667277
 30
0.0
 11
307.9051587784434
 21
295.9781119207548
 31
0.0
  0
LINE
  5
129E
330
18
100
AcDbEntity
  8
目盛
100
AcDbLine
 10
305.7594688566593
 20
295.509682368385
 30
0.0
 11
307.2976748458515
 21
294.7858575727244
 31
0.0
  0
LINE
  5
129F
330
18
100
AcDbEntity
  8
目盛
100
AcDbLine
 10
303.6158763095275
 20
287.1609406115626
 30
0.0
 11
305.3125217478556
 21
287.0541967283627
 31
0.0
  0
LINE
  5
12A0
330
18
100
AcDbEntity
  8
目盛
100
AcDbLine
 10
303.5704910633778
 20
285.7167586623882
 30
0.0
 11
306.2704910633777
 21
285.7167586623882
 31
0.0
  0
LINE
  5
12A1
330
18
100
AcDbEntity
  8
目盛
100
AcDbLine
 10
304.2930783574193
 20
291.4366260671799
 30
0.0
 11
305.9396697313379
 21
291.0138532589997
 31
0.0
  0
LINE
  5
12A2
330
18
100
AcDbEntity
  8
目盛
100
AcDbLine
 10
303.977884296618
 20
290.0265288978599
 30
0.0
 11
305.6477726228567
 21
289.7079806630642
 31
0.0
  0
LINE
  5
12A3
330
18
100
AcDbEntity
  8
目盛
100
AcDbLine
 10
303.7518529331447
 20
288.5994230343674
 30
0.0
 11
305.4384479253794
 21
288.386356537308
 31
0.0
  0
LINE
  5
12A4
330
18
100
AcDbEntity
  8
目盛
100
AcDbLine
 10
304.2930783574191
 20
279.9968912575967
 30
0.0
 11
305.9396697313378
 21
280.4196640657769
 31
0.0
  0
LINE
  5
12A5
330
18
100
AcDbEntity
  8
目盛
100
AcDbLine
 10
304.6961911885891
 20
278.6093677917643
 30
0.0
 11
307.2640437825861
 21
279.4437136765767
 31
0.0
  0
LINE
  5
12A6
330
18
100
AcDbEntity
  8
目盛
100
AcDbLine
 10
303.6158763095274
 20
284.2725767132141
 30
0.0
 11
305.3125217478554
 21
284.3793205964139
 31
0.0
  0
LINE
  5
12A7
330
18
100
AcDbEntity
  8
目盛
100
AcDbLine
 10
303.7518529331447
 20
282.8340942904093
 30
0.0
 11
305.4384479253792
 21
283.0471607874686
 31
0.0
  0
LINE
  5
12A8
330
18
100
AcDbEntity
  8
目盛
100
AcDbLine
 10
303.9778842966177
 20
281.4069884269167
 30
0.0
 11
305.6477726228566
 21
281.7255366617124
 31
0.0
  0
LINE
  5
12A9
330
18
100
AcDbEntity
  8
目盛
100
AcDbLine
 10
307.1509487768312
 20
273.3927423778715
 30
0.0
 11
308.5863062501847
 21
274.3036479293357
 31
0.0
  0
LINE
  5
12AA
330
18
100
AcDbEntity
  8
目盛
100
AcDbLine
 10
307.9631001927539
 20
272.1976978596613
 30
0.0
 11
310.1474460775663
 21
273.7847180408509
 31
0.0
  0
LINE
  5
12AB
330
18
100
AcDbEntity
  8
目盛
100
AcDbLine
 10
305.1856318879479
 20
277.2498939506407
 30
0.0
 11
306.766251913958
 21
277.8757056902047
 31
0.0
  0
LINE
  5
12AC
330
18
100
AcDbEntity
  8
目盛
100
AcDbLine
 10
305.7594688566593
 20
275.9238349563916
 30
0.0
 11
307.2976748458514
 21
276.6476597520522
 31
0.0
  0
LINE
  5
12AD
330
18
100
AcDbEntity
  8
目盛
100
AcDbLine
 10
306.4154374223687
 20
274.6364241580489
 30
0.0
 11
307.9051587784433
 21
275.4554054040217
 31
0.0
  0
LINE
  5
12AE
330
18
100
AcDbEntity
  8
目盛
100
AcDbLine
 10
311.9097392991577
 20
267.9949540785452
 30
0.0
 11
312.9933600817304
 21
269.304826591264
 31
0.0
  0
LINE
  5
12AF
330
18
100
AcDbEntity
  8
目盛
100
AcDbLine
 10
313.0514302606508
 20
267.1093677917643
 30
0.0
 11
314.6384504418404
 21
269.2937136765767
 31
0.0
  0
LINE
  5
12B0
330
18
100
AcDbEntity
  8
目盛
100
AcDbLine
 10
308.8486864795344
 20
271.0560068981684
 30
0.0
 11
310.1585589922532
 21
272.1396276807412
 31
0.0
  0
LINE
  5
12B1
330
18
100
AcDbEntity
  8
目盛
100
AcDbLine
 10
309.8042126326851
 20
269.9721752260284
 30
0.0
 11
311.0434592993015
 21
271.1359053061072
 31
0.0
  0
LINE
  5
12B2
330
18
100
AcDbEntity
  8
目盛
100
AcDbLine
 10
310.8259076270176
 20
268.9504802316958
 30
0.0
 11
311.9896377070964
 21
270.1897268983123
 31
0.0
  0
LINE
  5
12C3
330
18
100
AcDbEntity
  8
目盛
100
AcDbLine
 10
340.0895518661045
 20
267.1093677917643
 30
0.0
 11
338.5025316849148
 21
269.2937136765767
 31
0.0
  0
LINE
  5
12C7
330
18
100
AcDbEntity
  8
目盛
100
AcDbLine
 10
344.2922956472207
 20
271.0560068981682
 30
0.0
 11
342.9824231345019
 21
272.1396276807409
 31
0.0
  0
LINE
  5
12C8
330
18
100
AcDbEntity
  8
目盛
100
AcDbLine
 10
345.1778819340014
 20
272.1976978596613
 30
0.0
 11
342.9935360491891
 21
273.7847180408509
 31
0.0
  0
LINE
  5
12C9
330
18
100
AcDbEntity
  8
目盛
100
AcDbLine
 10
341.2312428275974
 20
267.9949540785449
 30
0.0
 11
340.1476220450247
 21
269.3048265912637
 31
0.0
  0
LINE
  5
12CA
330
18
100
AcDbEntity
  8
目盛
100
AcDbLine
 10
342.3150744997374
 20
268.9504802316956
 30
0.0
 11
341.1513444196587
 21
270.189726898312
 31
0.0
  0
LINE
  5
12CB
330
18
100
AcDbEntity
  8
目盛
100
AcDbLine
 10
343.3367694940701
 20
269.9721752260281
 30
0.0
 11
342.0975228274536
 21
271.135905306107
 31
0.0
  0
LINE
  5
12CC
330
18
100
AcDbEntity
  8
目盛
100
AcDbLine
 10
347.9553502388073
 20
277.2498939506403
 30
0.0
 11
346.3747302127974
 21
277.8757056902044
 31
0.0
  0
LINE
  5
12CD
330
18
100
AcDbEntity
  8
目盛
100
AcDbLine
 10
348.4447909381662
 20
278.6093677917644
 30
0.0
 11
345.8769383441693
 21
279.4437136765767
 31
0.0
  0
LINE
  5
12CE
330
18
100
AcDbEntity
  8
目盛
100
AcDbLine
 10
345.9900333499239
 20
273.3927423778711
 30
0.0
 11
344.5546758765705
 21
274.3036479293355
 31
0.0
  0
LINE
  5
12CF
330
18
100
AcDbEntity
  8
目盛
100
AcDbLine
 10
346.7255447043864
 20
274.6364241580486
 30
0.0
 11
345.2358233483119
 21
275.4554054040215
 31
0.0
  0
LINE
  5
12D0
330
18
100
AcDbEntity
  8
目盛
100
AcDbLine
 10
347.381513270096
 20
275.9238349563913
 30
0.0
 11
345.8433072809038
 21
276.647659752052
 31
0.0
  0
LINE
  5
12D1
330
18
100
AcDbEntity
  8
目盛
100
AcDbLine
 10
349.5251058172279
 20
284.2725767132137
 30
0.0
 11
347.8284603788999
 21
284.3793205964136
 31
0.0
  0
LINE
  5
12D2
330
18
100
AcDbEntity
  8
目盛
100
AcDbLine
 10
349.5704910633777
 20
285.7167586623882
 30
0.0
 11
346.8704910633777
 21
285.7167586623882
 31
0.0
  0
LINE
  5
12D3
330
18
100
AcDbEntity
  8
目盛
100
AcDbLine
 10
348.8479037693362
 20
279.9968912575963
 30
0.0
 11
347.2013123954175
 21
280.4196640657766
 31
0.0
  0
LINE
  5
12D4
330
18
100
AcDbEntity
  8
目盛
100
AcDbLine
 10
349.1630978301375
 20
281.4069884269164
 30
0.0
 11
347.4932095038988
 21
281.725536661712
 31
0.0
  0
LINE
  5
12D5
330
18
100
AcDbEntity
  8
目盛
100
AcDbLine
 10
349.3891291936107
 20
282.8340942904089
 30
0.0
 11
347.7025342013761
 21
283.0471607874683
 31
0.0
  0
LINE
  5
12D6
330
18
100
AcDbEntity
  8
目盛
100
AcDbLine
 10
348.8479037693364
 20
291.4366260671796
 30
0.0
 11
347.2013123954176
 21
291.0138532589994
 31
0.0
  0
LINE
  5
12D7
330
18
100
AcDbEntity
  8
目盛
100
AcDbLine
 10
348.4447909381663
 20
292.8241495330119
 30
0.0
 11
345.8769383441693
 21
291.9898036481996
 31
0.0
  0
LINE
  5
12D8
330
18
100
AcDbEntity
  8
目盛
100
AcDbLine
 10
349.5251058172279
 20
287.1609406115622
 30
0.0
 11
347.8284603789
 21
287.0541967283624
 31
0.0
  0
LINE
  5
12D9
330
18
100
AcDbEntity
  8
目盛
100
AcDbLine
 10
349.3891291936107
 20
288.599423034367
 30
0.0
 11
347.7025342013762
 21
288.3863565373076
 31
0.0
  0
LINE
  5
12DA
330
18
100
AcDbEntity
  8
目盛
100
AcDbLine
 10
349.1630978301377
 20
290.0265288978596
 30
0.0
 11
347.4932095038989
 21
289.7079806630639
 31
0.0
  0
LINE
  5
12DB
330
18
100
AcDbEntity
  8
目盛
100
AcDbLine
 10
345.9900333499242
 20
298.0407749469048
 30
0.0
 11
344.5546758765707
 21
297.1298693954406
 31
0.0
  0
LINE
  5
12DC
330
18
100
AcDbEntity
  8
目盛
100
AcDbLine
 10
345.1778819340015
 20
299.235819465115
 30
0.0
 11
342.9935360491891
 21
297.6487992839253
 31
0.0
  0
LINE
  5
12DD
330
18
100
AcDbEntity
  8
目盛
100
AcDbLine
 10
347.9553502388075
 20
294.1836233741356
 30
0.0
 11
346.3747302127975
 21
293.5578116345716
 31
0.0
  0
LINE
  5
12DE
330
18
100
AcDbEntity
  8
目盛
100
AcDbLine
 10
347.3815132700961
 20
295.5096823683847
 30
0.0
 11
345.8433072809039
 21
294.7858575727241
 31
0.0
  0
LINE
  5
12DF
330
18
100
AcDbEntity
  8
目盛
100
AcDbLine
 10
346.7255447043867
 20
296.7970931667274
 30
0.0
 11
345.2358233483121
 21
295.9781119207545
 31
0.0
  0
LINE
  5
12E0
330
18
100
AcDbEntity
  8
目盛
100
AcDbLine
 10
341.2312428275978
 20
303.4385632462311
 30
0.0
 11
340.1476220450249
 21
302.1286907335123
 31
0.0
  0
LINE
  5
12E1
330
18
100
AcDbEntity
  8
目盛
100
AcDbLine
 10
340.0895518661046
 20
304.324149533012
 30
0.0
 11
338.5025316849149
 21
302.1398036481996
 31
0.0
  0
LINE
  5
12E2
330
18
100
AcDbEntity
  8
目盛
100
AcDbLine
 10
344.292295647221
 20
300.3775104266079
 30
0.0
 11
342.9824231345021
 21
299.2938896440351
 31
0.0
  0
LINE
  5
12E3
330
18
100
AcDbEntity
  8
目盛
100
AcDbLine
 10
343.3367694940702
 20
301.4613420987479
 30
0.0
 11
342.0975228274539
 21
300.2976120186691
 31
0.0
  0
LINE
  5
12E4
330
18
100
AcDbEntity
  8
目盛
100
AcDbLine
 10
342.3150744997377
 20
302.4830370930804
 30
0.0
 11
341.1513444196589
 21
301.243790426464
 31
0.0
  0
LINE
  5
12E5
330
18
100
AcDbEntity
  8
目盛
100
AcDbLine
 10
335.0373557751255
 20
307.1016178378179
 30
0.0
 11
334.4115440355615
 21
305.5209978118079
 31
0.0
  0
LINE
  5
12E6
330
18
100
AcDbEntity
  8
目盛
100
AcDbLine
 10
333.6778819340015
 20
307.5910585371766
 30
0.0
 11
332.8435360491891
 21
305.0232059431797
 31
0.0
  0
LINE
  5
12E7
330
18
100
AcDbEntity
  8
目盛
100
AcDbLine
 10
338.8945073478947
 20
305.1363009489343
 30
0.0
 11
337.9836017964304
 21
303.700943475581
 31
0.0
  0
LINE
  5
12E8
330
18
100
AcDbEntity
  8
目盛
100
AcDbLine
 10
337.6508255677172
 20
305.8718123033969
 30
0.0
 11
336.8318443217443
 21
304.3820909473224
 31
0.0
  0
LINE
  5
12E9
330
18
100
AcDbEntity
  8
目盛
100
AcDbLine
 10
336.3634147693746
 20
306.5277808691065
 30
0.0
 11
335.6395899737139
 21
304.9895748799143
 31
0.0
  0
MTEXT
  5
16E6
330
18
100
AcDbEntity
  8
DEFPOINTS
  6
Continuous
100
AcDbMText
 10
1403.462062241273
 20
297.4519553003923
 30
0.0
 40
1.0
 41
0.0
 71
     4
 72
     1
  1
\A1;
 73
     1
 44
1.0
  0
POINT
  5
17A7
330
18
100
AcDbEntity
  8
DEFPOINTS
  6
ByBlock
 62
     0
100
AcDbPoint
 10
313.0514302606508
 20
267.1093677917643
 30
0.0
  0
POINT
  5
17A8
330
18
100
AcDbEntity
  8
DEFPOINTS
  6
ByBlock
 62
     0
100
AcDbPoint
 10
340.0895518661045
 20
267.1093677917643
 30
0.0
  0
POINT
  5
17A9
330
18
100
AcDbEntity
  8
DEFPOINTS
  6
ByBlock
 62
     0
100
AcDbPoint
 10
338.5025316849148
 20
269.2937136765767
 30
0.0
  0
POINT
  5
17AA
330
18
100
AcDbEntity
  8
DEFPOINTS
  6
ByBlock
 62
     0
100
AcDbPoint
 10
314.6384504418404
 20
269.2937136765767
 30
0.0
  0
LINE
  5
17EC
330
18
100
AcDbEntity
  8
ﾊｯﾁﾝｸ
100
AcDbLine
 10
324.0704910633776
 20
229.1096297669085
 30
0.0
 11
324.4776199588573
 21
229.5167586623882
 31
0.0
  0
LINE
  5
17ED
330
18
100
AcDbEntity
  8
ﾊｯﾁﾝｸ
100
AcDbLine
 10
324.0704910633777
 20
227.7625913487481
 30
0.0
 11
325.8246583770177
 21
229.5167586623881
 31
0.0
  0
LINE
  5
17EE
330
18
100
AcDbEntity
  8
ﾊｯﾁﾝｸ
100
AcDbLine
 10
324.0716967951781
 20
226.4167586623881
 30
0.0
 11
326.5704910633778
 21
228.9155529305878
 31
0.0
  0
LINE
  5
17EF
330
18
100
AcDbEntity
  8
ﾊｯﾁﾝｸ
100
AcDbLine
 10
325.4187352133385
 20
226.4167586623881
 30
0.0
 11
326.5704910633777
 21
227.5685145124274
 31
0.0
  0
LINE
  5
17F0
330
18
100
AcDbEntity
  8
ﾊｯﾁﾝｸ
100
AcDbLine
 10
324.1645389875631
 20
226.4167586623881
 30
0.0
 11
324.0704910633776
 21
226.5108065865736
 31
0.0
  0
LINE
  5
17F1
330
18
100
AcDbEntity
  8
ﾊｯﾁﾝｸ
100
AcDbLine
 10
325.5115774057235
 20
226.4167586623881
 30
0.0
 11
324.0704910633776
 21
227.857845004734
 31
0.0
  0
LINE
  5
17F2
330
18
100
AcDbEntity
  8
ﾊｯﾁﾝｸ
100
AcDbLine
 10
326.5704910633777
 20
226.7048834228943
 30
0.0
 11
324.0704910633776
 21
229.2048834228943
 31
0.0
  0
LINE
  5
17F3
330
18
100
AcDbEntity
  8
ﾊｯﾁﾝｸ
100
AcDbLine
 10
326.5704910633777
 20
228.0519218410546
 30
0.0
 11
325.1056542420442
 21
229.5167586623881
 31
0.0
  0
LINE
  5
17F4
330
18
100
AcDbEntity
  8
ﾊｯﾁﾝｸ
100
AcDbLine
 10
326.5704910633778
 20
229.398960259215
 30
0.0
 11
326.4526926602046
 21
229.5167586623881
 31
0.0
  0
TEXT
  5
17F5
330
18
100
AcDbEntity
  8
文字
100
AcDbText
 10
332.0468475879147
 20
255.5762557338338
 30
0.0
 40
1.0
  1
0
  7
STYLE3
100
AcDbText
  0
TEXT
  5
17F6
330
18
100
AcDbEntity
  8
文字
100
AcDbText
 10
330.8563053842973
 20
254.1644775320226
 30
0.0
 40
1.0
  1
-0.03
  7
STYLE3
100
AcDbText
  0
LINE
  5
17F7
330
18
100
AcDbEntity
  8
0
  6
ByBlock
 62
     2
100
AcDbLine
 10
425.6440033527418
 20
220.7167586623882
 30
0.0
 11
393.321201424512
 21
220.7167586623882
 31
0.0
  0
LINE
  5
17F8
330
18
100
AcDbEntity
  8
0
  6
ByBlock
 62
     2
100
AcDbLine
 10
394.571201424512
 20
256.8167586623882
 30
0.0
 11
394.571201424512
 21
223.2167586623881
 31
0.0
  0
INSERT
  5
17F9
330
18
100
AcDbEntity
  8
0
  6
ByBlock
 62
     2
100
AcDbBlockReference
  2
_OPEN
 10
394.571201424512
 20
259.3167586623882
 30
0.0
 41
2.5
 42
2.5
 43
2.5
 50
90.0
  0
INSERT
  5
17FA
330
18
100
AcDbEntity
  8
0
  6
ByBlock
 62
     2
100
AcDbBlockReference
  2
_OPEN
 10
394.571201424512
 20
220.7167586623882
 30
0.0
 41
2.5
 42
2.5
 43
2.5
 50
270.0
  0
MTEXT
  5
17FB
330
18
100
AcDbEntity
  8
0
  6
ByBlock
 62
     6
100
AcDbMText
 10
392.696201424512
 20
240.0167586623881
 30
0.0
 40
2.5
 41
0.0
 71
     5
 72
     1
  1
\A1;38.5
  7
STYLE3
 11
0.0000000000000001
 21
1.0
 31
0.0
 73
     1
 44
1.0
  0
POINT
  5
17FC
330
18
100
AcDbEntity
  8
DEFPOINTS
  6
ByBlock
 62
     0
100
AcDbPoint
 10
415.3440033527417
 20
259.3167586623882
 30
0.0
  0
POINT
  5
17FD
330
18
100
AcDbEntity
  8
DEFPOINTS
  6
ByBlock
 62
     0
100
AcDbPoint
 10
425.6440033527418
 20
220.7167586623882
 30
0.0
  0
POINT
  5
17FE
330
18
100
AcDbEntity
  8
DEFPOINTS
  6
ByBlock
 62
     0
100
AcDbPoint
 10
394.571201424512
 20
220.7167586623882
 30
0.0
  0
LINE
  5
17FF
330
18
100
AcDbEntity
  8
ﾊｯﾁﾝｸ
100
AcDbLine
 10
423.1440033527417
 20
229.1096297669085
 30
0.0
 11
423.5511322482214
 21
229.5167586623882
 31
0.0
  0
LINE
  5
1800
330
18
100
AcDbEntity
  8
ﾊｯﾁﾝｸ
100
AcDbLine
 10
423.1440033527417
 20
227.7625913487481
 30
0.0
 11
424.8981706663817
 21
229.5167586623882
 31
0.0
  0
LINE
  5
1801
330
18
100
AcDbEntity
  8
ﾊｯﾁﾝｸ
100
AcDbLine
 10
423.145209084542
 20
226.4167586623881
 30
0.0
 11
425.6440033527416
 21
228.9155529305878
 31
0.0
  0
LINE
  5
1802
330
18
100
AcDbEntity
  8
ﾊｯﾁﾝｸ
100
AcDbLine
 10
424.4922475027025
 20
226.4167586623882
 30
0.0
 11
425.6440033527416
 21
227.5685145124274
 31
0.0
  0
LINE
  5
1803
330
18
100
AcDbEntity
  8
ﾊｯﾁﾝｸ
100
AcDbLine
 10
423.2380512769272
 20
226.4167586623881
 30
0.0
 11
423.1440033527417
 21
226.5108065865736
 31
0.0
  0
LINE
  5
1804
330
18
100
AcDbEntity
  8
ﾊｯﾁﾝｸ
100
AcDbLine
 10
424.5850896950875
 20
226.4167586623881
 30
0.0
 11
423.1440033527417
 21
227.8578450047339
 31
0.0
  0
LINE
  5
1805
330
18
100
AcDbEntity
  8
ﾊｯﾁﾝｸ
100
AcDbLine
 10
425.6440033527416
 20
226.7048834228943
 30
0.0
 11
423.1440033527417
 21
229.2048834228942
 31
0.0
  0
LINE
  5
1806
330
18
100
AcDbEntity
  8
ﾊｯﾁﾝｸ
100
AcDbLine
 10
425.6440033527416
 20
228.0519218410546
 30
0.0
 11
424.1791665314081
 21
229.5167586623882
 31
0.0
  0
LINE
  5
1807
330
18
100
AcDbEntity
  8
ﾊｯﾁﾝｸ
100
AcDbLine
 10
425.6440033527417
 20
229.398960259215
 30
0.0
 11
425.5262049495685
 21
229.5167586623882
 31
0.0
  0
POINT
  5
1816
330
18
100
AcDbEntity
  8
DEFPOINTS
  6
ByBlock
 62
     0
100
AcDbPoint
 10
303.5704910633777
 20
285.7167586623882
 30
0.0
  0
POINT
  5
1817
330
18
100
AcDbEntity
  8
DEFPOINTS
  6
ByBlock
 62
     0
100
AcDbPoint
 10
349.5704910633777
 20
285.7167586623882
 30
0.0
  0
LINE
  5
1819
330
18
100
AcDbEntity
  8
0
  6
ByBlock
 62
     2
100
AcDbLine
 10
415.3440033527417
 20
312.1167586623881
 30
0.0
 11
393.321201424512
 21
312.1167586623881
 31
0.0
  0
LINE
  5
181A
330
18
100
AcDbEntity
  8
0
  6
ByBlock
 62
     2
100
AcDbLine
 10
415.3440033527417
 20
259.3167586623882
 30
0.0
 11
393.321201424512
 21
259.3167586623882
 31
0.0
  0
LINE
  5
181B
330
18
100
AcDbEntity
  8
0
  6
ByBlock
 62
     2
100
AcDbLine
 10
394.571201424512
 20
309.6167586623881
 30
0.0
 11
394.571201424512
 21
261.8167586623882
 31
0.0
  0
INSERT
  5
181C
330
18
100
AcDbEntity
  8
0
  6
ByBlock
 62
     2
100
AcDbBlockReference
  2
_OPEN
 10
394.571201424512
 20
312.1167586623881
 30
0.0
 41
2.5
 42
2.5
 43
2.5
 50
90.0
  0
INSERT
  5
181D
330
18
100
AcDbEntity
  8
0
  6
ByBlock
 62
     2
100
AcDbBlockReference
  2
_OPEN
 10
394.571201424512
 20
259.3167586623882
 30
0.0
 41
2.5
 42
2.5
 43
2.5
 50
270.0
  0
MTEXT
  5
181E
330
18
100
AcDbEntity
  8
0
  6
ByBlock
 62
     6
100
AcDbMText
 10
392.696201424512
 20
285.7167586623882
 30
0.0
 40
2.5
 41
0.0
 71
     5
 72
     1
  1
\A1;φ53
  7
STYLE3
 11
0.0000000000000001
 21
1.0
 31
0.0
 73
     1
 44
1.0
  0
POINT
  5
181F
330
18
100
AcDbEntity
  8
DEFPOINTS
  6
ByBlock
 62
     0
100
AcDbPoint
 10
415.3440033527417
 20
312.1167586623881
 30
0.0
  0
POINT
  5
1820
330
18
100
AcDbEntity
  8
DEFPOINTS
  6
ByBlock
 62
     0
100
AcDbPoint
 10
415.3440033527417
 20
259.3167586623882
 30
0.0
  0
POINT
  5
1821
330
18
100
AcDbEntity
  8
DEFPOINTS
  6
ByBlock
 62
     0
100
AcDbPoint
 10
394.571201424512
 20
259.3167586623882
 30
0.0
  0
LINE
  5
1822
330
18
100
AcDbEntity
  8
ﾊｯﾁﾝｸ
  6
Continuous
100
AcDbLine
 10
322.5704910633778
 20
319.4832524586859
 30
0.0
 11
322.8039972670799
 21
319.716758662388
 31
0.0
  0
LINE
  5
1823
330
18
100
AcDbEntity
  8
ﾊｯﾁﾝｸ
  6
Continuous
100
AcDbLine
 10
322.5704910633778
 20
317.7154855057195
 30
0.0
 11
324.5717642200462
 21
319.716758662388
 31
0.0
  0
LINE
  5
1824
330
18
100
AcDbEntity
  8
ﾊｯﾁﾝｸ
  6
Continuous
100
AcDbLine
 10
322.5704910633778
 20
315.9477185527531
 30
0.0
 11
326.3395311730126
 21
319.716758662388
 31
0.0
  0
LINE
  5
1825
330
18
100
AcDbEntity
  8
ﾊｯﾁﾝｸ
  6
Continuous
100
AcDbLine
 10
322.5704910633778
 20
314.1799515997868
 30
0.0
 11
326.5704910633778
 21
318.1799515997868
 31
0.0
  0
LINE
  5
1826
330
18
100
AcDbEntity
  8
ﾊｯﾁﾝｸ
  6
Continuous
100
AcDbLine
 10
323.8750650789453
 20
313.716758662388
 30
0.0
 11
326.5704910633778
 21
316.4121846468205
 31
0.0
  0
LINE
  5
1827
330
18
100
AcDbEntity
  8
ﾊｯﾁﾝｸ
  6
Continuous
100
AcDbLine
 10
325.6428320319118
 20
313.716758662388
 30
0.0
 11
326.5704910633778
 21
314.644417693854
 31
0.0
  0
LINE
  5
1828
330
18
100
AcDbEntity
  8
ﾊｯﾁﾝｸ
  6
Continuous
100
AcDbLine
 10
322.6220367096967
 20
313.716758662388
 30
0.0
 11
322.5704910633778
 21
313.7683043087069
 31
0.0
  0
LINE
  5
1829
330
18
100
AcDbEntity
  8
ﾊｯﾁﾝｸ
  6
Continuous
100
AcDbLine
 10
324.389803662663
 20
313.716758662388
 30
0.0
 11
322.5704910633777
 21
315.5360712616734
 31
0.0
  0
LINE
  5
182A
330
18
100
AcDbEntity
  8
ﾊｯﾁﾝｸ
  6
Continuous
100
AcDbLine
 10
326.1575706156293
 20
313.716758662388
 30
0.0
 11
322.5704910633777
 21
317.3038382146397
 31
0.0
  0
LINE
  5
182B
330
18
100
AcDbEntity
  8
ﾊｯﾁﾝｸ
  6
Continuous
100
AcDbLine
 10
326.5704910633778
 20
315.071605167606
 30
0.0
 11
322.5704910633778
 21
319.071605167606
 31
0.0
  0
LINE
  5
182C
330
18
100
AcDbEntity
  8
ﾊｯﾁﾝｸ
  6
Continuous
100
AcDbLine
 10
326.5704910633777
 20
316.8393721205725
 30
0.0
 11
323.6931045215621
 21
319.716758662388
 31
0.0
  0
LINE
  5
182D
330
18
100
AcDbEntity
  8
ﾊｯﾁﾝｸ
  6
Continuous
100
AcDbLine
 10
326.5704910633777
 20
318.6071390735388
 30
0.0
 11
325.4608714745285
 21
319.716758662388
 31
0.0
  0
LINE
  5
182E
330
18
100
AcDbEntity
  8
ﾊｯﾁﾝｸ
  6
Continuous
100
AcDbLine
 10
421.6440033527415
 20
319.483252458686
 30
0.0
 11
421.8775095564438
 21
319.7167586623881
 31
0.0
  0
LINE
  5
182F
330
18
100
AcDbEntity
  8
ﾊｯﾁﾝｸ
  6
Continuous
100
AcDbLine
 10
421.6440033527415
 20
317.7154855057195
 30
0.0
 11
423.64527650941
 21
319.7167586623881
 31
0.0
  0
LINE
  5
1830
330
18
100
AcDbEntity
  8
ﾊｯﾁﾝｸ
  6
Continuous
100
AcDbLine
 10
421.6440033527415
 20
315.9477185527531
 30
0.0
 11
425.4130434623765
 21
319.7167586623881
 31
0.0
  0
LINE
  5
1831
330
18
100
AcDbEntity
  8
ﾊｯﾁﾝｸ
  6
Continuous
100
AcDbLine
 10
421.6440033527415
 20
314.1799515997868
 30
0.0
 11
425.6440033527415
 21
318.1799515997868
 31
0.0
  0
LINE
  5
1832
330
18
100
AcDbEntity
  8
ﾊｯﾁﾝｸ
  6
Continuous
100
AcDbLine
 10
422.9485773683092
 20
313.7167586623881
 30
0.0
 11
425.6440033527415
 21
316.4121846468205
 31
0.0
  0
LINE
  5
1833
330
18
100
AcDbEntity
  8
ﾊｯﾁﾝｸ
  6
Continuous
100
AcDbLine
 10
424.7163443212756
 20
313.7167586623881
 30
0.0
 11
425.6440033527415
 21
314.644417693854
 31
0.0
  0
LINE
  5
1834
330
18
100
AcDbEntity
  8
ﾊｯﾁﾝｸ
  6
Continuous
100
AcDbLine
 10
421.6955489990604
 20
313.7167586623882
 30
0.0
 11
421.6440033527415
 21
313.7683043087071
 31
0.0
  0
LINE
  5
1835
330
18
100
AcDbEntity
  8
ﾊｯﾁﾝｸ
  6
Continuous
100
AcDbLine
 10
423.4633159520269
 20
313.7167586623881
 30
0.0
 11
421.6440033527415
 21
315.5360712616734
 31
0.0
  0
LINE
  5
1836
330
18
100
AcDbEntity
  8
ﾊｯﾁﾝｸ
  6
Continuous
100
AcDbLine
 10
425.2310829049933
 20
313.7167586623881
 30
0.0
 11
421.6440033527415
 21
317.3038382146398
 31
0.0
  0
LINE
  5
1837
330
18
100
AcDbEntity
  8
ﾊｯﾁﾝｸ
  6
Continuous
100
AcDbLine
 10
425.6440033527415
 20
315.0716051676062
 30
0.0
 11
421.6440033527415
 21
319.0716051676062
 31
0.0
  0
LINE
  5
1838
330
18
100
AcDbEntity
  8
ﾊｯﾁﾝｸ
  6
Continuous
100
AcDbLine
 10
425.6440033527415
 20
316.8393721205725
 30
0.0
 11
422.766616810926
 21
319.716758662388
 31
0.0
  0
LINE
  5
1839
330
18
100
AcDbEntity
  8
ﾊｯﾁﾝｸ
  6
Continuous
100
AcDbLine
 10
425.6440033527415
 20
318.6071390735389
 30
0.0
 11
424.5343837638925
 21
319.716758662388
 31
0.0
  0
INSERT
  5
1886
330
18
100
AcDbEntity
  8
針
100
AcDbBlockReference
  2
1
 10
425.6440033527416
 20
285.7167586623882
 30
0.0
  0
DIMENSION
  5
1893
330
18
100
AcDbEntity
  8
針
100
AcDbDimension
  2
*D2
 10
433.2440033527416
 20
333.8569707388105
 30
0.0
 11
429.4440033527416
 21
335.7319707388104
 31
0.0
 70
    32
 71
     5
 42
7.600000000000022
  3
STYLE2
100
AcDbAlignedDimension
 13
425.6440033527415
 23
328.4941542553727
 33
0.0
 14
433.2440033527416
 24
308.7167586623881
 34
0.0
100
AcDbRotatedDimension
  0
INSERT
  5
18D5
330
18
100
AcDbEntity
  8
針
100
AcDbBlockReference
  2
矢印
 10
317.4817021259102
 20
272.5167586623882
 30
0.0
  0
TEXT
  5
1954
330
18
100
AcDbEntity
  8
文字
100
AcDbText
 10
323.0153101409988
 20
290.1834450262136
 30
0.0
 40
1.3
  1
NO.17Z
  7
STYLE3
100
AcDbText
  0
TEXT
  5
1955
330
18
100
AcDbEntity
  8
文字
100
AcDbText
 10
320.5529359134376
 20
292.49841322416
 30
0.0
 40
1.0
  1
MADE  IN  JAPAN
  7
STYLE3
100
AcDbText
  0
HATCH
  5
1956
330
18
100
AcDbEntity
  8
ROGO
 62
     4
100
AcDbHatch
 10
0.0
 20
0.0
 30
0.0
210
0.0
220
0.0
230
1.0
  2
SOLID
 70
     1
 71
     0
 91
        1
 92
        7
 72
     0
 73
     1
 93
        4
 10
319.9347163998017
 20
294.9404669947853
 10
319.8416653643798
 20
294.7347967884942
 10
332.0209579329628
 20
294.7347967884942
 10
332.1235117403489
 20
294.9404669947854
 97
        0
 75
     0
 76
     1
 47
0.0514683685270805
 98
        1
 10
327.63095166069
 20
294.8860705305806
450
        0
451
        0
460
0.0
461
0.0
452
        0
462
0.0
453
        0
470

  0
HATCH
  5
1957
330
18
100
AcDbEntity
  8
ROGO
 62
     4
100
AcDbHatch
 10
0.0
 20
0.0
 30
0.0
210
0.0
220
0.0
230
1.0
  2
SOLID
 70
     1
 71
     1
 91
        1
 92
        5
 93
        8
 72
     1
 10
328.2943747640421
 20
296.2981005211832
 11
328.5379940645827
 21
296.7866755734002
 72
     1
 10
328.5379940645827
 20
296.7866755734002
 11
327.2229577224765
 21
296.7866755734002
 72
     4
 94
        3
 73
     0
 74
     0
 95
       26
 96
       22
 40
0.0
 40
0.0
 40
0.0
 40
0.0
 40
0.2382195346591896
 40
0.397689067266058
 40
0.5126795869787669
 40
0.5985392873135731
 40
0.7099038249249733
 40
0.7911890807494741
 40
0.9379713068543702
 40
1.057449928673087
 40
1.138714535893316
 40
1.218398644003506
 40
1.36093802187036
 40
1.461730374800257
 40
1.516014844108008
 40
1.593124329220501
 40
1.648806818593631
 40
1.729472362005518
 40
1.775122082164342
 40
1.874460993765092
 40
1.919820003751207
 40
1.919820003751207
 40
1.919820003751207
 40
1.919820003751207
 10
327.2229577224764
 20
296.7866755734002
 10
327.1421023317178
 20
296.7818516021351
 10
327.0071205176517
 20
296.7737983556384
 10
326.8589113069401
 20
296.6837628517799
 10
326.7503245625298
 20
296.6314201664376
 10
326.6728806281056
 20
296.5602647450179
 10
326.616113910238
 20
296.4867663924966
 10
326.5445488055406
 20
296.3991936443713
 10
326.4861895076347
 20
296.2972187229066
 10
326.4564706651015
 20
296.1848245818433
 10
326.4301459964477
 20
296.0952457992844
 10
326.4106231814747
 20
295.995421936392
 10
326.4155903382877
 20
295.8875770482698
 10
326.4227035341722
 20
295.7874162372659
 10
326.4544622240962
 20
295.7159164143393
 10
326.4906297464861
 20
295.66501346741
 10
326.5349163823411
 20
295.6089495147111
 10
326.5833756466586
 20
295.571818540381
 10
326.6234554137691
 20
295.5045532852403
 10
326.6936136940316
 20
295.4959697535642
 10
326.7382090881075
 20
295.4788859636871
 10
326.7521885765689
 20
295.4735306428426
 72
     1
 10
326.7521885765689
 20
295.4735306428426
 11
327.8832175915734
 21
295.4735306428426
 72
     1
 10
327.8832175915734
 20
295.4735306428426
 11
328.1268343122523
 21
295.9621005211833
 72
     1
 10
328.1268343122523
 20
295.9621005211833
 11
327.2871532913801
 21
295.9621005211833
 72
     4
 94
        3
 73
     0
 74
     0
 95
       16
 96
       12
 40
0.0
 40
0.0
 40
0.0
 40
0.0
 40
0.0719416665231651
 40
0.1446253590759065
 40
0.1879779149910977
 40
0.2295440936104405
 40
0.2751936323958134
 40
0.3070718656052443
 40
0.3373215422372259
 40
0.3986635435212919
 40
0.5242542460842631
 40
0.5242542460842631
 40
0.5242542460842631
 40
0.5242542460842631
 10
327.2871532913801
 20
295.9621005211833
 10
327.2618255527084
 20
295.9695523132719
 10
327.2109088381394
 20
295.9845327572712
 10
327.2066475202918
 20
296.0571524464086
 10
327.2124529493534
 20
296.1088999173676
 10
327.2367660992309
 20
296.1465750980839
 10
327.2662621670913
 20
296.1739887491193
 10
327.2772448613431
 20
296.2096907433016
 10
327.309527490467
 20
296.236650215618
 10
327.3667732418583
 20
296.2819653225938
 10
327.4300771330696
 20
296.2916164278793
 10
327.472607840691
 20
296.2981005211833
 72
     1
 10
327.4726078406909
 20
296.2981005211833
 11
328.2943747640421
 21
296.2981005211832
 97
        8
330
1995
330
1959
330
195A
330
1988
330
1997
330
1996
330
1998
330
1999
 75
     0
 76
     1
 47
0.0514683685270805
 98
        1
 10
327.6828746196833
 20
296.4943541170532
450
        0
451
        0
460
0.0
461
0.0
452
        0
462
0.0
453
        0
470

  0
LINE
  5
1958
330
18
100
AcDbEntity
  8
ROGO
 62
     4
100
AcDbLine
 10
319.920452952885
 20
294.9404669947854
 30
0.0
 11
332.123511740349
 21
294.9404669947854
 31
0.0
  0
SPLINE
  5
1959
102
{ACAD_REACTORS
330
1957
102
}
330
18
100
AcDbEntity
  8
ROGO
 62
     4
100
AcDbSpline
210
0.0
220
0.0
230
1.0
 70
     8
 71
     3
 72
    26
 73
    22
 74
    20
 42
0.0000000001
 43
0.0000000001
 44
0.0000000001
 40
0.0
 40
0.0
 40
0.0
 40
0.0
 40
0.2382195346591896
 40
0.397689067266058
 40
0.5126795869787669
 40
0.5985392873135731
 40
0.7099038249249733
 40
0.7911890807494741
 40
0.9379713068543702
 40
1.057449928673087
 40
1.138714535893316
 40
1.218398644003506
 40
1.36093802187036
 40
1.461730374800257
 40
1.516014844108008
 40
1.593124329220501
 40
1.648806818593631
 40
1.729472362005518
 40
1.775122082164342
 40
1.874460993765092
 40
1.919820003751207
 40
1.919820003751207
 40
1.919820003751207
 40
1.919820003751207
 10
327.2229577224764
 20
296.7866755734002
 30
0.0
 10
327.1421023317178
 20
296.7818516021351
 30
0.0
 10
327.0071205176517
 20
296.7737983556384
 30
0.0
 10
326.8589113069401
 20
296.6837628517799
 30
0.0
 10
326.7503245625298
 20
296.6314201664376
 30
0.0
 10
326.6728806281056
 20
296.5602647450179
 30
0.0
 10
326.616113910238
 20
296.4867663924966
 30
0.0
 10
326.5445488055406
 20
296.3991936443713
 30
0.0
 10
326.4861895076347
 20
296.2972187229066
 30
0.0
 10
326.4564706651015
 20
296.1848245818433
 30
0.0
 10
326.4301459964477
 20
296.0952457992844
 30
0.0
 10
326.4106231814747
 20
295.995421936392
 30
0.0
 10
326.4155903382877
 20
295.8875770482698
 30
0.0
 10
326.4227035341722
 20
295.7874162372659
 30
0.0
 10
326.4544622240962
 20
295.7159164143393
 30
0.0
 10
326.4906297464861
 20
295.66501346741
 30
0.0
 10
326.5349163823411
 20
295.6089495147111
 30
0.0
 10
326.5833756466586
 20
295.571818540381
 30
0.0
 10
326.6234554137691
 20
295.5045532852403
 30
0.0
 10
326.6936136940316
 20
295.4959697535642
 30
0.0
 10
326.7382090881075
 20
295.4788859636871
 30
0.0
 10
326.7521885765689
 20
295.4735306428426
 30
0.0
 11
327.2229577224764
 21
296.7866755734002
 31
0.0
 11
326.9875731495226
 21
296.7500333913065
 31
0.0
 11
326.8449156461476
 21
296.678763702373
 31
0.0
 11
326.7450555988617
 21
296.6217479976956
 31
0.0
 11
326.6808600299579
 21
296.5647320606718
 31
0.0
 11
326.6095314833472
 21
296.4792083874824
 31
0.0
 11
326.5596014597043
 21
296.415065690677
 31
0.0
 11
326.4882725029401
 21
296.2867800647198
 31
0.0
 11
326.4526084347113
 21
296.1727484230186
 31
0.0
 11
326.4312099117435
 21
296.0943517419571
 31
0.0
 11
326.4169439563292
 21
296.0159550608958
 31
0.0
 11
326.4169439563292
 21
295.8734156830289
 31
0.0
 11
326.4312099117435
 21
295.7736380255836
 31
0.0
 11
326.4526084347113
 21
295.7237490806878
 31
0.0
 11
326.4954054806471
 21
295.6596063838823
 31
0.0
 11
326.5310699590293
 21
295.6168444311145
 31
0.0
 11
326.5881325502258
 21
295.559828726437
 31
0.0
 11
326.6166640509009
 21
295.5241937657971
 31
0.0
 11
326.709391530633
 21
295.4885590375036
 31
0.0
 11
326.7521885765689
 21
295.4735306428426
 31
0.0
  0
LINE
  5
195A
102
{ACAD_REACTORS
330
1957
102
}
330
18
100
AcDbEntity
  8
ROGO
 62
     4
100
AcDbLine
 10
326.7521885765688
 20
295.4735306428426
 30
0.0
 11
327.8832175915734
 21
295.4735306428426
 31
0.0
  0
LINE
  5
195B
102
{ACAD_REACTORS
330
195F
330
1982
102
}
330
18
100
AcDbEntity
  8
ROGO
 62
     4
100
AcDbLine
 10
318.8878644084433
 20
294.7347967884942
 30
0.0
 11
332.777041675467
 21
294.7347967884942
 31
0.0
  0
HATCH
  5
195C
330
18
100
AcDbEntity
  8
ROGO
 62
     4
100
AcDbHatch
 10
0.0
 20
0.0
 30
0.0
210
0.0
220
0.0
230
1.0
  2
SOLID
 70
     1
 71
     1
 91
        2
 92
        7
 72
     0
 73
     1
 93
        8
 10
325.8092181511797
 20
296.7866755734002
 10
324.7588146684082
 20
296.7866755734001
 10
323.8118803383091
 20
295.4735306428426
 10
324.5391275900008
 20
295.4735306428426
 10
324.7194180275816
 20
295.7235453129335
 10
325.549295016366
 20
295.7235453129335
 10
325.6603614394349
 20
295.4735306428426
 10
326.3925691615629
 20
295.4735306428427
 97
        8
330
197B
330
1962
330
196A
330
1961
330
197D
330
195D
330
196B
330
195E
 92
       22
 72
     0
 73
     1
 93
        3
 10
325.4321499107654
 20
295.9872433246296
 10
324.9095757887267
 20
295.9872433246296
 10
325.23294252504
 20
296.4356665964485
 97
        3
330
197C
330
197E
330
197A
 75
     0
 76
     1
 47
0.0128389261915577
 98
        2
 10
325.726963258684
 20
296.4716336565911
 10
325.726963258684
 20
296.4716336565911
450
        0
451
        0
460
0.0
461
0.0
452
        0
462
0.0
453
        0
470

  0
LINE
  5
195D
102
{ACAD_REACTORS
330
195C
102
}
330
18
100
AcDbEntity
  8
ROGO
 62
     4
100
AcDbLine
 10
325.549295016366
 20
295.7235453129335
 30
0.0
 11
325.6603614394349
 21
295.4735306428426
 31
0.0
  0
LINE
  5
195E
102
{ACAD_REACTORS
330
195C
102
}
330
18
100
AcDbEntity
  8
ROGO
 62
     4
100
AcDbLine
 10
325.8092181511797
 20
296.7866755734002
 30
0.0
 11
326.392569161563
 21
295.4735306428426
 31
0.0
  0
HATCH
  5
195F
330
18
100
AcDbEntity
  8
ROGO
 62
     4
100
AcDbHatch
 10
0.0
 20
0.0
 30
0.0
210
0.0
220
0.0
230
1.0
  2
SOLID
 70
     1
 71
     1
 91
        2
 92
        5
 93
        6
 72
     1
 10
318.8878644084433
 20
294.7347967884942
 11
319.8416653643798
 21
294.7347967884942
 72
     1
 10
319.8416653643798
 20
294.7347967884942
 11
320.1758895152082
 21
295.4735306428426
 72
     1
 10
320.1758895152082
 20
295.4735306428426
 11
321.0674977833804
 21
295.4735306428426
 72
     4
 94
        3
 73
     0
 74
     0
 95
       18
 96
       14
 40
0.108740278791501
 40
0.108740278791501
 40
0.108740278791501
 40
0.108740278791501
 40
0.6623149649549278
 40
1.384304701649787
 40
2.097394834876493
 40
2.774073369849618
 40
3.428974823686337
 40
4.005208313035923
 40
4.455173659284313
 40
4.720999734343524
 40
5.086034088486724
 40
5.569973738255373
 40
6.060470601257719
 40
6.060470601257719
 40
6.060470601257719
 40
6.060470601257719
 10
321.0674977833804
 20
295.4735306428426
 10
321.130247700275
 20
295.4739979224738
 10
321.2748380573286
 20
295.4750746430824
 10
321.4771188354359
 20
295.5831374795778
 10
321.6689388085289
 20
295.7208016599195
 10
321.8234367476103
 20
295.8927986907213
 10
321.9196936184864
 20
296.0894478282421
 10
321.9346035035335
 20
296.2779179638138
 10
321.9255013850226
 20
296.4269954979702
 10
321.8604621764795
 20
296.5309062402731
 10
321.7928459825548
 20
296.6363650174458
 10
321.6688607470076
 20
296.7277173272372
 10
321.5672727991571
 20
296.7677432185525
 10
321.5156132615211
 20
296.7866755734002
 72
     1
 10
321.5156132615212
 20
296.7866755734001
 11
319.903114948536
 21
296.7866755734002
 72
     1
 10
319.903114948536
 20
296.7866755734002
 11
318.8878644084433
 21
294.7347967884942
 97
        6
330
1965
330
1970
330
1966
330
195B
330
1968
330
1969
 92
       20
 93
        4
 72
     1
 10
320.3822540075184
 20
295.9296569773014
 11
320.5402518038757
 21
296.2788786621868
 72
     1
 10
320.5402518038757
 20
296.2788786621868
 11
320.9462388029732
 21
296.2788786621868
 72
     4
 94
        3
 73
     0
 74
     0
 95
       15
 96
       11
 40
0.0
 40
0.0
 40
0.0
 40
0.0
 40
0.1539705029175028
 40
0.2241725832587281
 40
0.3038566179396687
 40
0.3581410872474193
 40
0.443992538467216
 40
0.4954152125469665
 40
0.5836396705646186
 40
0.6130478420065743
 40
0.6130478420065743
 40
0.6130478420065743
 40
0.6130478420065743
 10
320.9462388029732
 20
296.2788786621868
 10
321.0040671380324
 20
296.2791435468292
 10
321.0882620130905
 20
296.279529204299
 10
321.1343027694551
 20
296.1753799003694
 10
321.1136651072217
 20
296.1083239957321
 10
321.0877218837975
 20
296.0394784814841
 10
321.0418743322552
 20
295.9926969162149
 10
320.98034020266
 20
295.947638382578
 10
320.9221875096043
 20
295.9421838453184
 10
320.8843657106317
 20
295.9321623518643
 10
320.8749102563624
 20
295.9296569773014
 72
     1
 10
320.8749102563623
 20
295.9296569773014
 11
320.3822540075184
 21
295.9296569773014
 97
        4
330
196F
330
196D
330
196E
330
196C
 75
     0
 76
     1
 47
0.0514683685270805
 98
        2
 10
319.9117335018428
 20
296.1484868165112
 10
319.9117335018428
 20
296.1484868165112
450
        0
451
        0
460
0.0
461
0.0
452
        0
462
0.0
453
        0
470

  0
HATCH
  5
1960
330
18
100
AcDbEntity
  8
ROGO
 62
     4
100
AcDbHatch
 10
0.0
 20
0.0
 30
0.0
210
0.0
220
0.0
230
1.0
  2
SOLID
 70
     1
 71
     1
 91
        1
 92
        1
 93
       12
 72
     1
 10
322.4682372547267
 20
296.7866755734002
 11
324.2443204032106
 21
296.7866755734002
 72
     1
 10
324.2443204032106
 20
296.7866755734002
 11
324.095486207476
 21
296.4858732427081
 72
     1
 10
324.095486207476
 20
296.4858732427081
 11
323.162021785258
 21
296.4858732427081
 72
     1
 10
323.162021785258
 20
296.4858732427081
 11
323.0456519391816
 21
296.2506831995239
 72
     1
 10
323.0456519391816
 20
296.2506831995239
 11
323.9791163613995
 21
296.2506831995239
 72
     1
 10
323.9791163613995
 20
296.2506831995239
 11
323.8597899857757
 21
296.0095178428427
 72
     1
 10
323.8597899857757
 20
296.0095178428427
 11
322.9263255635577
 21
296.0095178428427
 72
     1
 10
322.9263255635577
 20
296.0095178428427
 11
322.8099507909413
 21
295.7743178428427
 72
     1
 10
322.8099507909414
 20
295.7743178428427
 11
323.7434152131593
 21
295.7743178428427
 72
     1
 10
323.7434152131593
 20
295.7743178428427
 11
323.5945885039505
 21
295.4735306428426
 72
     1
 10
323.5945885039505
 20
295.4735306428426
 11
321.8185053554666
 21
295.4735306428426
 72
     1
 10
321.8185053554666
 20
295.4735306428426
 11
322.4682372547267
 21
296.7866755734002
 97
       12
330
1971
330
1979
330
1977
330
1978
330
1976
330
1973
330
1974
330
1972
330
1975
330
1963
330
1967
330
1964
 75
     0
 76
     1
 98
        1
 10
249.8181082760177
 20
205.9885795252888
450
        0
451
        0
460
0.0
461
0.0
452
        0
462
0.0
453
        0
470

  0
LINE
  5
1961
102
{ACAD_REACTORS
330
195C
102
}
330
18
100
AcDbEntity
  8
ROGO
 62
     4
100
AcDbLine
 10
324.7194180275816
 20
295.7235453129335
 30
0.0
 11
324.5391275900008
 21
295.4735306428427
 31
0.0
  0
LINE
  5
1962
102
{ACAD_REACTORS
330
195C
102
}
330
18
100
AcDbEntity
  8
ROGO
 62
     4
100
AcDbLine
 10
324.7588146684083
 20
296.7866755734002
 30
0.0
 11
323.8118803383092
 21
295.4735306428426
 31
0.0
  0
LINE
  5
1963
102
{ACAD_REACTORS
330
1960
102
}
330
18
100
AcDbEntity
  8
ROGO
 62
     4
100
AcDbLine
 10
323.7434152131593
 20
295.7743178428427
 30
0.0
 11
323.5945885039505
 21
295.4735306428426
 31
0.0
  0
LINE
  5
1964
102
{ACAD_REACTORS
330
1960
102
}
330
18
100
AcDbEntity
  8
ROGO
 62
     4
100
AcDbLine
 10
322.4682372547267
 20
296.7866755734002
 30
0.0
 11
321.8185053554666
 21
295.4735306428426
 31
0.0
  0
SPLINE
  5
1965
102
{ACAD_REACTORS
330
195F
102
}
330
18
100
AcDbEntity
  8
ROGO
 62
     4
100
AcDbSpline
210
0.0
220
0.0
230
1.0
 70
     8
 71
     3
 72
    18
 73
    14
 74
     0
 42
0.0000000001
 43
0.0000000001
 40
0.1087402787915014
 40
0.1087402787915014
 40
0.1087402787915014
 40
0.1087402787915014
 40
0.5992371417938475
 40
1.083176791562496
 40
1.448211145705696
 40
1.714037220764907
 40
2.164002567013297
 40
2.740236056362883
 40
3.395137510199602
 40
4.071816045172726
 40
4.784906178399433
 40
5.506895915094292
 40
6.060470601257719
 40
6.060470601257719
 40
6.060470601257719
 40
6.060470601257719
 10
321.5156132615211
 20
296.7866755734002
 30
0.0
 10
321.5672727991571
 20
296.7677432185525
 30
0.0
 10
321.6688607470076
 20
296.7277173272372
 30
0.0
 10
321.7928459825548
 20
296.6363650174458
 30
0.0
 10
321.8604621764795
 20
296.5309062402731
 30
0.0
 10
321.9255013850226
 20
296.4269954979702
 30
0.0
 10
321.9346035035335
 20
296.2779179638138
 30
0.0
 10
321.9196936184864
 20
296.0894478282421
 30
0.0
 10
321.8234367476103
 20
295.8927986907213
 30
0.0
 10
321.6689388085289
 20
295.7208016599195
 30
0.0
 10
321.4771188354359
 20
295.5831374795778
 30
0.0
 10
321.2748380573286
 20
295.4750746430824
 30
0.0
 10
321.130247700275
 20
295.4739979224738
 30
0.0
 10
321.0674977833804
 20
295.4735306428426
 30
0.0
  0
LINE
  5
1966
102
{ACAD_REACTORS
330
195F
102
}
330
18
100
AcDbEntity
  8
ROGO
 62
     4
100
AcDbLine
 10
319.9031149485359
 20
296.7866755734002
 30
0.0
 11
318.8878644084433
 21
294.7347967884941
 31
0.0
  0
LINE
  5
1967
102
{ACAD_REACTORS
330
1960
102
}
330
18
100
AcDbEntity
  8
ROGO
 62
     4
100
AcDbLine
 10
321.8185053554666
 20
295.4735306428426
 30
0.0
 11
323.5945885039505
 21
295.4735306428426
 31
0.0
  0
LINE
  5
1968
102
{ACAD_REACTORS
330
195F
102
}
330
18
100
AcDbEntity
  8
ROGO
 62
     4
100
AcDbLine
 10
320.1758895152082
 20
295.4735306428426
 30
0.0
 11
319.8416653643798
 21
294.7347967884942
 31
0.0
  0
LINE
  5
1969
102
{ACAD_REACTORS
330
195F
102
}
330
18
100
AcDbEntity
  8
ROGO
 62
     4
100
AcDbLine
 10
321.0674977836895
 20
295.4735306428426
 30
0.0
 11
320.1758895152082
 21
295.4735306428426
 31
0.0
  0
LINE
  5
196A
102
{ACAD_REACTORS
330
195C
102
}
330
18
100
AcDbEntity
  8
ROGO
 62
     4
100
AcDbLine
 10
323.8118803383092
 20
295.4735306428426
 30
0.0
 11
324.5391275900007
 21
295.4735306428426
 31
0.0
  0
LINE
  5
196B
102
{ACAD_REACTORS
330
195C
102
}
330
18
100
AcDbEntity
  8
ROGO
 62
     4
100
AcDbLine
 10
326.392569161563
 20
295.4735306428427
 30
0.0
 11
325.6603614394349
 21
295.4735306428426
 31
0.0
  0
LINE
  5
196C
102
{ACAD_REACTORS
330
195F
102
}
330
18
100
AcDbEntity
  8
ROGO
 62
     4
100
AcDbLine
 10
320.8749102563625
 20
295.9296569773014
 30
0.0
 11
320.3822540075184
 21
295.9296569773014
 31
0.0
  0
LINE
  5
196D
102
{ACAD_REACTORS
330
195F
102
}
330
18
100
AcDbEntity
  8
ROGO
 62
     4
100
AcDbLine
 10
320.9462388029733
 20
296.2788786621868
 30
0.0
 11
320.5402518038758
 21
296.2788786621868
 31
0.0
  0
SPLINE
  5
196E
102
{ACAD_REACTORS
330
195F
102
}
330
18
100
AcDbEntity
  8
ROGO
 62
     4
100
AcDbSpline
210
0.0
220
0.0
230
1.0
 70
     8
 71
     3
 72
    15
 73
    11
 74
     9
 42
0.0000000001
 43
0.0000000001
 44
0.0000000001
 40
0.0
 40
0.0
 40
0.0
 40
0.0
 40
0.1539705029175028
 40
0.2241725832587281
 40
0.3038566179396687
 40
0.3581410872474193
 40
0.443992538467216
 40
0.4954152125469665
 40
0.5836396705646186
 40
0.6130478420065743
 40
0.6130478420065743
 40
0.6130478420065743
 40
0.6130478420065743
 10
320.9462388029732
 20
296.2788786621868
 30
0.0
 10
321.0040671380324
 20
296.2791435468292
 30
0.0
 10
321.0882620130905
 20
296.279529204299
 30
0.0
 10
321.1343027694551
 20
296.1753799003694
 30
0.0
 10
321.1136651072217
 20
296.1083239957321
 30
0.0
 10
321.0877218837975
 20
296.0394784814841
 30
0.0
 10
321.0418743322552
 20
295.9926969162149
 30
0.0
 10
320.98034020266
 20
295.947638382578
 30
0.0
 10
320.9221875096043
 20
295.9421838453184
 30
0.0
 10
320.8843657106317
 20
295.9321623518643
 30
0.0
 10
320.8749102563624
 20
295.9296569773014
 30
0.0
 11
320.9462388029732
 21
296.2788786621868
 31
0.0
 11
321.096028873902
 21
296.2432437015469
 31
0.0
 11
321.124560374577
 21
296.1791010047415
 31
0.0
 11
321.1102948293162
 21
296.1007043236801
 31
0.0
 11
321.0888963063483
 21
296.0508153787842
 31
0.0
 11
321.0318333049983
 21
295.9866726819789
 31
0.0
 11
320.9890362590624
 21
295.9581647134669
 31
0.0
 11
320.9034417570374
 21
295.9367839694294
 31
0.0
 11
320.8749102563624
 21
295.9296569773014
 31
0.0
  0
LINE
  5
196F
102
{ACAD_REACTORS
330
195F
102
}
330
18
100
AcDbEntity
  8
ROGO
 62
     4
100
AcDbLine
 10
320.5402518038758
 20
296.2788786621868
 30
0.0
 11
320.3822540075184
 21
295.9296569773014
 31
0.0
  0
LINE
  5
1970
102
{ACAD_REACTORS
330
195F
102
}
330
18
100
AcDbEntity
  8
ROGO
 62
     4
100
AcDbLine
 10
319.9031149485359
 20
296.7866755734002
 30
0.0
 11
321.5156132615211
 21
296.7866755734002
 31
0.0
  0
LINE
  5
1971
102
{ACAD_REACTORS
330
1960
102
}
330
18
100
AcDbEntity
  8
ROGO
 62
     4
100
AcDbLine
 10
322.4682372547267
 20
296.7866755734002
 30
0.0
 11
324.2443204032106
 21
296.7866755734002
 31
0.0
  0
LINE
  5
1972
102
{ACAD_REACTORS
330
1960
102
}
330
18
100
AcDbEntity
  8
ROGO
 62
     4
100
AcDbLine
 10
322.9263255635577
 20
296.0095178428427
 30
0.0
 11
322.8099507909413
 21
295.7743178428427
 31
0.0
  0
LINE
  5
1973
102
{ACAD_REACTORS
330
1960
102
}
330
18
100
AcDbEntity
  8
ROGO
 62
     4
100
AcDbLine
 10
323.9791163613995
 20
296.2506831995239
 30
0.0
 11
323.8597899857757
 21
296.0095178428427
 31
0.0
  0
LINE
  5
1974
102
{ACAD_REACTORS
330
1960
102
}
330
18
100
AcDbEntity
  8
ROGO
 62
     4
100
AcDbLine
 10
322.9263255635577
 20
296.0095178428427
 30
0.0
 11
323.8597899857757
 21
296.0095178428427
 31
0.0
  0
LINE
  5
1975
102
{ACAD_REACTORS
330
1960
102
}
330
18
100
AcDbEntity
  8
ROGO
 62
     4
100
AcDbLine
 10
322.8099507909414
 20
295.7743178428427
 30
0.0
 11
323.7434152131593
 21
295.7743178428427
 31
0.0
  0
LINE
  5
1976
102
{ACAD_REACTORS
330
1960
102
}
330
18
100
AcDbEntity
  8
ROGO
 62
     4
100
AcDbLine
 10
323.0456519391816
 20
296.2506831995239
 30
0.0
 11
323.9791163613995
 21
296.2506831995239
 31
0.0
  0
LINE
  5
1977
102
{ACAD_REACTORS
330
1960
102
}
330
18
100
AcDbEntity
  8
ROGO
 62
     4
100
AcDbLine
 10
323.162021785258
 20
296.4858732427081
 30
0.0
 11
324.095486207476
 21
296.4858732427081
 31
0.0
  0
LINE
  5
1978
102
{ACAD_REACTORS
330
1960
102
}
330
18
100
AcDbEntity
  8
ROGO
 62
     4
100
AcDbLine
 10
323.162021785258
 20
296.4858732427081
 30
0.0
 11
323.0456519391816
 21
296.2506831995239
 31
0.0
  0
LINE
  5
1979
102
{ACAD_REACTORS
330
1960
102
}
330
18
100
AcDbEntity
  8
ROGO
 62
     4
100
AcDbLine
 10
324.2443204032106
 20
296.7866755734002
 30
0.0
 11
324.095486207476
 21
296.4858732427081
 31
0.0
  0
LINE
  5
197A
102
{ACAD_REACTORS
330
195C
102
}
330
18
100
AcDbEntity
  8
ROGO
 62
     4
100
AcDbLine
 10
325.23294252504
 20
296.4356665964484
 30
0.0
 11
325.4321499107654
 21
295.9872433246295
 31
0.0
  0
LINE
  5
197B
102
{ACAD_REACTORS
330
195C
102
}
330
18
100
AcDbEntity
  8
ROGO
 62
     4
100
AcDbLine
 10
324.7588146684083
 20
296.7866755734002
 30
0.0
 11
325.8092181511797
 21
296.7866755734002
 31
0.0
  0
LINE
  5
197C
102
{ACAD_REACTORS
330
195C
102
}
330
18
100
AcDbEntity
  8
ROGO
 62
     4
100
AcDbLine
 10
324.9095757887267
 20
295.9872433246296
 30
0.0
 11
325.4321499107654
 21
295.9872433246296
 31
0.0
  0
LINE
  5
197D
102
{ACAD_REACTORS
330
195C
102
}
330
18
100
AcDbEntity
  8
ROGO
 62
     4
100
AcDbLine
 10
324.7194180275816
 20
295.7235453129335
 30
0.0
 11
325.549295016366
 21
295.7235453129335
 31
0.0
  0
LINE
  5
197E
102
{ACAD_REACTORS
330
195C
102
}
330
18
100
AcDbEntity
  8
ROGO
 62
     4
100
AcDbLine
 10
325.23294252504
 20
296.4356665964484
 30
0.0
 11
324.9095757887267
 21
295.9872433246295
 31
0.0
  0
HATCH
  5
197F
330
18
100
AcDbEntity
  8
ROGO
 62
     4
100
AcDbHatch
 10
0.0
 20
0.0
 30
0.0
210
0.0
220
0.0
230
1.0
  2
SOLID
 70
     1
 71
     1
 91
        1
 92
        5
 93
        6
 72
     4
 94
        3
 73
     0
 74
     0
 95
       38
 96
       34
 40
0.0
 40
0.0
 40
0.0
 40
0.0
 40
0.1807680148264315
 40
0.2375392910068956
 40
0.3104865209606157
 40
0.3712759982447458
 40
0.422566754387306
 40
0.490692583720658
 40
0.5255021974951946
 40
0.5647069597052371
 40
0.622487401681883
 40
0.6879401044674746
 40
0.7303986317551266
 40
0.7765228362185534
 40
0.8277951442290254
 40
0.9056034697002209
 40
0.9795294930264187
 40
1.013897332332996
 40
1.053089255536027
 40
1.099518741889647
 40
1.132570569820733
 40
1.160277520290299
 40
1.19983678629386
 40
1.243305643169139
 40
1.286774258016964
 40
1.324809356515675
 40
1.411916492917645
 40
1.446284332224223
 40
1.5150200516612
 40
1.575779369908399
 40
1.69209852953623
 40
1.835624328519098
 40
2.042896467983898
 40
2.042896467983898
 40
2.042896467983898
 40
2.042896467983898
 10
329.2672193846254
 20
296.7921527925725
 10
329.2069639869998
 20
296.7878961734716
 10
329.1277850213786
 20
296.7823027376844
 10
329.0272462488691
 20
296.7547581114796
 10
328.972441494428
 20
296.7219435920215
 10
328.9154061931109
 20
296.6978233473211
 10
328.8667782867258
 20
296.6621060480717
 10
328.81759218603
 20
296.6437012678785
 10
328.7831505726542
 20
296.6105141595059
 10
328.7432872145213
 20
296.5902420413309
 10
328.711543314686
 20
296.5448671473163
 10
328.6760626381542
 20
296.5024432656581
 10
328.634900589747
 20
296.4714757240805
 10
328.6011183441877
 20
296.4389507451182
 10
328.5701278312633
 20
296.3887549299343
 10
328.5517862586922
 20
296.3220595552487
 10
328.5000844442828
 20
296.2799505009635
 10
328.4922997697997
 20
296.2293228532874
 10
328.4637019196041
 20
296.1994533930966
 10
328.4512665741482
 20
296.1608962111118
 10
328.4465305960243
 20
296.1255710217909
 10
328.4408462929819
 20
296.0925797403627
 10
328.4259772327495
 20
296.0578743696248
 10
328.4308305453107
 20
296.0150040906898
 10
328.4294479822686
 20
295.9734913766634
 10
328.4302616222419
 20
295.9174479200518
 10
328.4273250828959
 20
295.8628827231325
 10
328.4507428334109
 20
295.803502846964
 10
328.4646006810137
 20
295.7505739022975
 10
328.5025526509573
 20
295.677287360046
 10
328.5680190037752
 20
295.5927305363371
 10
328.6925087497928
 20
295.4900945730443
 10
328.8122092803521
 20
295.479682632327
 10
328.8829354230823
 20
295.4735306428426
 72
     1
 10
328.8829354230824
 20
295.4735306428426
 11
329.6333892462686
 21
295.4735306428427
 72
     4
 94
        3
 73
     0
 74
     0
 95
       11
 96
        7
 40
0.1647869275458135
 40
0.1647869275458135
 40
0.1647869275458135
 40
0.1647869275458135
 40
0.2545010798212315
 40
0.5111620267764023
 40
0.7602998271033902
 40
0.8850764140209603
 40
0.8850764140209603
 40
0.8850764140209603
 40
0.8850764140209603
 10
329.6333892462677
 20
295.4735306428426
 10
329.6438611465876
 20
295.4733288271997
 10
329.6842918414161
 20
295.4725496422929
 10
329.7533883835125
 20
295.4824761728775
 10
329.8260871506506
 20
295.4919885672509
 10
329.8694281620848
 20
295.4989161570348
 10
329.8834067048856
 20
295.5028070897513
 72
     4
 94
        3
 73
     0
 74
     0
 95
        9
 96
        5
 40
0.0
 40
0.0
 40
0.0
 40
0.0
 40
0.1135793343552172
 40
0.2662938392177403
 40
0.2662938392177403
 40
0.2662938392177403
 40
0.2662938392177403
 10
329.8834067048856
 20
295.5028070897513
 10
329.9198916732037
 20
295.5139694294745
 10
330.0054329588811
 20
295.5401402317284
 10
330.0761096561179
 20
295.5954525495029
 10
330.1166414117738
 20
295.6271731227108
 72
     4
 94
        3
 73
     0
 74
     0
 95
       25
 96
       21
 40
0.0
 40
0.0
 40
0.0
 40
0.0
 40
0.165525918914855
 40
0.3412380755365305
 40
0.5940540902285263
 40
0.7697671103696209
 40
0.9377330196075423
 40
1.11479469302833
 40
1.274661249598185
 40
1.574522170874768
 40
1.815540668866877
 40
2.15849091873445
 40
2.536227739636605
 40
2.738070817316548
 40
2.925680654369045
 40
3.162706124480894
 40
3.395643218188267
 40
3.648478129958861
 40
3.928509979727306
 40
4.337226830236035
 40
4.337226830236035
 40
4.337226830236035
 40
4.337226830236035
 10
330.1166414117738
 20
295.6271731227108
 10
330.1315340691675
 20
295.6394798666565
 10
330.1597813684714
 20
295.6687499898782
 10
330.2098826051111
 20
295.7161903382168
 10
330.2540327649177
 20
295.7714621086708
 10
330.3084951656349
 20
295.8162579415443
 10
330.336848121174
 20
295.8710241678917
 10
330.3777166684781
 20
295.9140966383908
 10
330.4119986873954
 20
295.9806178203814
 10
330.4410852860954
 20
296.0570295855255
 10
330.4688153415929
 20
296.156630869229
 10
330.4794417849296
 20
296.2689959222745
 10
330.4637133272823
 20
296.3777090547056
 10
330.4257173496076
 20
296.4589685502424
 10
330.3977831888384
 20
296.5266899649085
 10
330.355389600196
 20
296.5908340685857
 10
330.3070242453354
 20
296.6605978749198
 10
330.238886024576
 20
296.7183038372348
 10
330.1498363659549
 20
296.7879065266103
 10
330.0668932582364
 20
296.7905714031163
 10
330.0176732078108
 20
296.7921527925725
 72
     1
 10
330.0176732078108
 20
296.7921527925725
 11
329.2672193846254
 21
296.7921527925725
 97
        6
330
1980
330
1994
330
1981
330
198A
330
198C
330
198B
 75
     0
 76
     1
 47
0.088756267210375
 98
        1
 10
329.4921090550248
 20
296.4279440706775
450
        0
451
        0
460
0.0
461
0.0
452
        0
462
0.0
453
        0
470

  0
SPLINE
  5
1980
102
{ACAD_REACTORS
330
197F
102
}
330
18
100
AcDbEntity
  8
ROGO
 62
     4
100
AcDbSpline
210
0.0
220
0.0
230
1.0
 70
     8
 71
     3
 72
    25
 73
    21
 74
     0
 42
0.0000000001
 43
0.0000000001
 40
0.0
 40
0.0
 40
0.0
 40
0.0
 40
0.4087168505087288
 40
0.6887487002771746
 40
0.9415836120477687
 40
1.17452070575514
 40
1.41154617586699
 40
1.599156012919487
 40
1.80099909059943
 40
2.178735911501585
 40
2.521686161369157
 40
2.762704659361267
 40
3.06256558063785
 40
3.222432137207705
 40
3.399493810628493
 40
3.567459719866414
 40
3.743172740007509
 40
3.995988754699505
 40
4.17170091132118
 40
4.337226830236035
 40
4.337226830236035
 40
4.337226830236035
 40
4.337226830236035
 10
330.0176732078108
 20
296.7921527925725
 30
0.0
 10
330.0668932582364
 20
296.7905714031163
 30
0.0
 10
330.1498363659549
 20
296.7879065266103
 30
0.0
 10
330.238886024576
 20
296.7183038372348
 30
0.0
 10
330.3070242453354
 20
296.6605978749198
 30
0.0
 10
330.355389600196
 20
296.5908340685857
 30
0.0
 10
330.3977831888384
 20
296.5266899649085
 30
0.0
 10
330.4257173496076
 20
296.4589685502424
 30
0.0
 10
330.4637133272823
 20
296.3777090547056
 30
0.0
 10
330.4794417849296
 20
296.2689959222745
 30
0.0
 10
330.4688153415929
 20
296.156630869229
 30
0.0
 10
330.4410852860954
 20
296.0570295855255
 30
0.0
 10
330.4119986873954
 20
295.9806178203814
 30
0.0
 10
330.3777166684781
 20
295.9140966383908
 30
0.0
 10
330.336848121174
 20
295.8710241678917
 30
0.0
 10
330.3084951656349
 20
295.8162579415443
 30
0.0
 10
330.2540327649177
 20
295.7714621086708
 30
0.0
 10
330.2098826051111
 20
295.7161903382168
 30
0.0
 10
330.1597813684714
 20
295.6687499898782
 30
0.0
 10
330.1315340691675
 20
295.6394798666565
 30
0.0
 10
330.1166414117738
 20
295.6271731227108
 30
0.0
  0
SPLINE
  5
1981
102
{ACAD_REACTORS
330
197F
102
}
330
18
100
AcDbEntity
  8
ROGO
 62
     4
100
AcDbSpline
210
0.0
220
0.0
230
1.0
 70
     8
 71
     3
 72
    38
 73
    34
 74
    32
 42
0.0000000001
 43
0.0000000001
 44
0.0000000001
 40
0.0
 40
0.0
 40
0.0
 40
0.0
 40
0.1807680148264315
 40
0.2375392910068956
 40
0.3104865209606157
 40
0.3712759982447458
 40
0.422566754387306
 40
0.490692583720658
 40
0.5255021974951946
 40
0.5647069597052371
 40
0.622487401681883
 40
0.6879401044674746
 40
0.7303986317551266
 40
0.7765228362185534
 40
0.8277951442290254
 40
0.9056034697002209
 40
0.9795294930264187
 40
1.013897332332996
 40
1.053089255536027
 40
1.099518741889647
 40
1.132570569820733
 40
1.160277520290299
 40
1.19983678629386
 40
1.243305643169139
 40
1.286774258016964
 40
1.324809356515675
 40
1.411916492917645
 40
1.446284332224223
 40
1.5150200516612
 40
1.575779369908399
 40
1.69209852953623
 40
1.835624328519098
 40
2.042896467983898
 40
2.042896467983898
 40
2.042896467983898
 40
2.042896467983898
 10
329.2672193846254
 20
296.7921527925725
 30
0.0
 10
329.2069639869998
 20
296.7878961734716
 30
0.0
 10
329.1277850213786
 20
296.7823027376844
 30
0.0
 10
329.0272462488691
 20
296.7547581114796
 30
0.0
 10
328.972441494428
 20
296.7219435920215
 30
0.0
 10
328.9154061931109
 20
296.6978233473211
 30
0.0
 10
328.8667782867258
 20
296.6621060480717
 30
0.0
 10
328.81759218603
 20
296.6437012678785
 30
0.0
 10
328.7831505726542
 20
296.6105141595059
 30
0.0
 10
328.7432872145213
 20
296.5902420413309
 30
0.0
 10
328.711543314686
 20
296.5448671473163
 30
0.0
 10
328.6760626381542
 20
296.5024432656581
 30
0.0
 10
328.634900589747
 20
296.4714757240805
 30
0.0
 10
328.6011183441877
 20
296.4389507451182
 30
0.0
 10
328.5701278312633
 20
296.3887549299343
 30
0.0
 10
328.5517862586922
 20
296.3220595552487
 30
0.0
 10
328.5000844442828
 20
296.2799505009635
 30
0.0
 10
328.4922997697997
 20
296.2293228532874
 30
0.0
 10
328.4637019196041
 20
296.1994533930966
 30
0.0
 10
328.4512665741482
 20
296.1608962111118
 30
0.0
 10
328.4465305960243
 20
296.1255710217909
 30
0.0
 10
328.4408462929819
 20
296.0925797403627
 30
0.0
 10
328.4259772327495
 20
296.0578743696248
 30
0.0
 10
328.4308305453107
 20
296.0150040906898
 30
0.0
 10
328.4294479822686
 20
295.9734913766634
 30
0.0
 10
328.4302616222419
 20
295.9174479200518
 30
0.0
 10
328.4273250828959
 20
295.8628827231325
 30
0.0
 10
328.4507428334109
 20
295.803502846964
 30
0.0
 10
328.4646006810137
 20
295.7505739022975
 30
0.0
 10
328.5025526509573
 20
295.677287360046
 30
0.0
 10
328.5680190037752
 20
295.5927305363371
 30
0.0
 10
328.6925087497928
 20
295.4900945730443
 30
0.0
 10
328.8122092803521
 20
295.479682632327
 30
0.0
 10
328.8829354230823
 20
295.4735306428426
 30
0.0
 11
329.2672193846254
 21
296.7921527925725
 31
0.0
 11
329.0877627476782
 21
296.7704182431211
 31
0.0
 11
329.03338196155
 21
296.7541176940738
 31
0.0
 11
328.968125274542
 21
296.7215161119241
 31
0.0
 11
328.9137444884139
 21
296.6943482881511
 31
0.0
 11
328.8702400304085
 21
296.6671802223506
 31
0.0
 11
328.8104212938405
 21
296.6345788822285
 31
0.0
 11
328.7832306871548
 21
296.6128445748046
 31
0.0
 11
328.7506021300294
 21
296.5911100253531
 31
0.0
 11
328.7125356224639
 21
296.5476414105053
 31
0.0
 11
328.6690311644586
 21
296.4987392793084
 31
0.0
 11
328.636402607333
 21
296.4715712135079
 31
0.0
 11
328.6037744774506
 21
296.4389698733858
 31
0.0
 11
328.576583870765
 21
296.3955012585379
 31
0.0
 11
328.5439557408826
 21
296.3248645778896
 31
0.0
 11
328.5004508556341
 21
296.265095171967
 31
0.0
 11
328.4895749547544
 21
296.2324935898174
 31
0.0
 11
328.4678227257517
 21
296.1998922496952
 31
0.0
 11
328.451508447189
 21
296.15642339282
 31
0.0
 11
328.446070069506
 21
296.1238220526977
 31
0.0
 11
328.4406321190661
 21
296.0966539868973
 31
0.0
 11
328.4297562181863
 21
296.058619130426
 31
0.0
 11
328.4297562181863
 21
296.0151502735507
 31
0.0
 11
328.4297562181863
 21
295.9716816587029
 31
0.0
 11
328.4297562181863
 21
295.9336465602042
 31
0.0
 11
328.4351941686263
 21
295.8467093305085
 31
0.0
 11
328.446070069506
 21
295.8141077483589
 31
0.0
 11
328.4678227257517
 21
295.7489048260871
 31
0.0
 11
328.4950129051943
 21
295.6945689365136
 31
0.0
 11
328.5657079698852
 21
295.6021981904688
 31
0.0
 11
328.6799074925815
 21
295.5152607187457
 31
0.0
 11
328.8829354230823
 21
295.4735306428426
 31
0.0
  0
HATCH
  5
1982
330
18
100
AcDbEntity
  8
ROGO
 62
     4
100
AcDbHatch
 10
0.0
 20
0.0
 30
0.0
210
0.0
220
0.0
230
1.0
  2
SOLID
 70
     1
 71
     1
 91
        1
 92
        7
 72
     0
 73
     1
 93
       11
 10
332.0209579329628
 20
294.7347967884942
 10
332.777041675467
 20
294.7347967884941
 10
333.0440909646327
 20
295.2703603506137
 10
333.3111402537983
 20
294.7347967884942
 10
334.0672074537984
 20
294.7347967884942
 10
333.5556409379635
 20
295.7607361809472
 10
334.7985496832947
 20
296.7866755734002
 10
334.0424824832947
 20
296.7866755734002
 10
333.6884694002158
 20
296.5626521645785
 10
333.8001747071369
 20
296.7866755734002
 10
333.0440909646326
 20
296.7866755734001
 97
       11
330
199B
330
199D
330
199E
330
199F
330
1985
330
195B
330
198E
330
198F
330
198D
330
1984
330
199C
 75
     0
 76
     1
 47
0.0514683685270805
 98
        1
 10
332.9790197182288
 20
295.9063795899587
450
        0
451
        0
460
0.0
461
0.0
452
        0
462
0.0
453
        0
470

  0
HATCH
  5
1983
330
18
100
AcDbEntity
  8
ROGO
 62
     4
100
AcDbHatch
 10
0.0
 20
0.0
 30
0.0
210
0.0
220
0.0
230
1.0
  2
SOLID
 70
     1
 71
     1
 91
        1
 92
        5
 93
        8
 72
     4
 94
        3
 73
     0
 74
     0
 95
       26
 96
       22
 40
0.0
 40
0.0
 40
0.0
 40
0.0
 40
0.2382195346591896
 40
0.397689067266058
 40
0.5126795869787176
 40
0.5985392873135238
 40
0.7099038249250041
 40
0.7911890807494602
 40
0.9379713068544059
 40
1.057449928673177
 40
1.138714535893296
 40
1.218398644003487
 40
1.36093802187034
 40
1.461730374800238
 40
1.51601484410804
 40
1.593124329220486
 40
1.648806818593696
 40
1.729472362005543
 40
1.775122082164332
 40
1.874460993765135
 40
1.919820003751196
 40
1.919820003751196
 40
1.919820003751196
 40
1.919820003751196
 10
331.4540274934042
 20
296.7866755734002
 10
331.3731721026456
 20
296.7818516021351
 10
331.2381902885797
 20
296.7737983556384
 10
331.0899810778679
 20
296.68376285178
 10
330.9813943334575
 20
296.6314201664375
 10
330.9039503990335
 20
296.5602647450179
 10
330.8471836811659
 20
296.4867663924966
 10
330.7756185764683
 20
296.3991936443711
 10
330.7172592785625
 20
296.2972187229066
 10
330.6875404360293
 20
296.1848245818432
 10
330.6612157673757
 20
296.0952457992845
 10
330.6416929524025
 20
295.9954219363919
 10
330.6466601092155
 20
295.8875770482698
 10
330.6537733051001
 20
295.7874162372659
 10
330.685531995024
 20
295.7159164143392
 10
330.7216995174141
 20
295.66501346741
 10
330.7659861532689
 20
295.6089495147111
 10
330.8144454175864
 20
295.571818540381
 10
330.8545251846971
 20
295.5045532852403
 10
330.9246834649596
 20
295.4959697535642
 10
330.9692788590352
 20
295.4788859636871
 10
330.9832583474967
 20
295.4735306428426
 72
     1
 10
330.9832583474968
 20
295.4735306428427
 11
332.1142873625013
 21
295.4735306428426
 72
     1
 10
332.1142873625013
 20
295.4735306428426
 11
332.3579040831801
 21
295.9621005211833
 72
     1
 10
332.3579040831801
 20
295.9621005211833
 11
331.5182230623079
 21
295.9621005211833
 72
     4
 94
        3
 73
     0
 74
     0
 95
       16
 96
       12
 40
0.0
 40
0.0
 40
0.0
 40
0.0
 40
0.0719416665231652
 40
0.1446253590759511
 40
0.1879779149910863
 40
0.229544093610429
 40
0.2751936323958108
 40
0.3070718656052417
 40
0.3373215422371831
 40
0.3986635435213285
 40
0.5242542460842448
 40
0.5242542460842448
 40
0.5242542460842448
 40
0.5242542460842448
 10
331.518223062308
 20
295.9621005211833
 10
331.4928953236362
 20
295.9695523132718
 10
331.4419786090672
 20
295.9845327572712
 10
331.4377172912197
 20
296.0571524464084
 10
331.4435227202813
 20
296.1088999173676
 10
331.4678358701588
 20
296.1465750980837
 10
331.4973319380191
 20
296.1739887491194
 10
331.5083146322708
 20
296.2096907433016
 10
331.5405972613949
 20
296.236650215618
 10
331.597843012786
 20
296.2819653225938
 10
331.6611469039973
 20
296.2916164278793
 10
331.7036776116188
 20
296.2981005211833
 72
     1
 10
331.7036776116188
 20
296.2981005211832
 11
332.5254445349699
 21
296.2981005211833
 72
     1
 10
332.5254445349699
 20
296.2981005211833
 11
332.7690638355106
 21
296.7866755734002
 72
     1
 10
332.7690638355106
 20
296.7866755734002
 11
331.4540274934044
 21
296.7866755734002
 97
        8
330
1992
330
1987
330
1989
330
1986
330
1991
330
199A
330
1990
330
19A0
 75
     0
 76
     1
 47
0.0514683685270805
 98
        1
 10
331.6809449230891
 20
296.5462342702211
450
        0
451
        0
460
0.0
461
0.0
452
        0
462
0.0
453
        0
470

  0
LINE
  5
1984
102
{ACAD_REACTORS
330
1982
102
}
330
18
100
AcDbEntity
  8
ROGO
 62
     4
100
AcDbLine
 10
333.5556409379635
 20
295.7607361809472
 30
0.0
 11
334.0672074537983
 21
294.7347967884942
 31
0.0
  0
LINE
  5
1985
102
{ACAD_REACTORS
330
1982
102
}
330
18
100
AcDbEntity
  8
ROGO
 62
     4
100
AcDbLine
 10
333.0440909646327
 20
296.7866755734002
 30
0.0
 11
332.0209579329628
 21
294.7347967884942
 31
0.0
  0
LINE
  5
1986
102
{ACAD_REACTORS
330
1983
102
}
330
18
100
AcDbEntity
  8
ROGO
 62
     4
100
AcDbLine
 10
332.3579040831802
 20
295.9621005211833
 30
0.0
 11
332.1142873625013
 21
295.4735306428426
 31
0.0
  0
SPLINE
  5
1987
102
{ACAD_REACTORS
330
1983
102
}
330
18
100
AcDbEntity
  8
ROGO
 62
     4
100
AcDbSpline
210
0.0
220
0.0
230
1.0
 70
     8
 71
     3
 72
    26
 73
    22
 74
    20
 42
0.0000000001
 43
0.0000000001
 44
0.0000000001
 40
0.0
 40
0.0
 40
0.0
 40
0.0
 40
0.2382195346591896
 40
0.397689067266058
 40
0.5126795869787176
 40
0.5985392873135238
 40
0.7099038249250041
 40
0.7911890807494602
 40
0.9379713068544059
 40
1.057449928673177
 40
1.138714535893296
 40
1.218398644003487
 40
1.36093802187034
 40
1.461730374800238
 40
1.51601484410804
 40
1.593124329220486
 40
1.648806818593696
 40
1.729472362005543
 40
1.775122082164332
 40
1.874460993765135
 40
1.919820003751196
 40
1.919820003751196
 40
1.919820003751196
 40
1.919820003751196
 10
331.4540274934042
 20
296.7866755734002
 30
0.0
 10
331.3731721026456
 20
296.7818516021351
 30
0.0
 10
331.2381902885797
 20
296.7737983556384
 30
0.0
 10
331.0899810778679
 20
296.68376285178
 30
0.0
 10
330.9813943334575
 20
296.6314201664375
 30
0.0
 10
330.9039503990335
 20
296.5602647450179
 30
0.0
 10
330.8471836811659
 20
296.4867663924966
 30
0.0
 10
330.7756185764683
 20
296.3991936443711
 30
0.0
 10
330.7172592785625
 20
296.2972187229066
 30
0.0
 10
330.6875404360293
 20
296.1848245818432
 30
0.0
 10
330.6612157673757
 20
296.0952457992845
 30
0.0
 10
330.6416929524025
 20
295.9954219363919
 30
0.0
 10
330.6466601092155
 20
295.8875770482698
 30
0.0
 10
330.6537733051001
 20
295.7874162372659
 30
0.0
 10
330.685531995024
 20
295.7159164143392
 30
0.0
 10
330.7216995174141
 20
295.66501346741
 30
0.0
 10
330.7659861532689
 20
295.6089495147111
 30
0.0
 10
330.8144454175864
 20
295.571818540381
 30
0.0
 10
330.8545251846971
 20
295.5045532852403
 30
0.0
 10
330.9246834649596
 20
295.4959697535642
 30
0.0
 10
330.9692788590352
 20
295.4788859636871
 30
0.0
 10
330.9832583474967
 20
295.4735306428426
 30
0.0
 11
331.4540274934042
 21
296.7866755734002
 31
0.0
 11
331.2186429204504
 21
296.7500333913065
 31
0.0
 11
331.0759854170754
 21
296.678763702373
 31
0.0
 11
330.9761253697896
 21
296.6217479976956
 31
0.0
 11
330.9119298008858
 21
296.5647320606718
 31
0.0
 11
330.8406012542751
 21
296.4792083874824
 31
0.0
 11
330.7906712306321
 21
296.415065690677
 31
0.0
 11
330.7193422738679
 21
296.2867800647197
 31
0.0
 11
330.6836782056391
 21
296.1727484230184
 31
0.0
 11
330.6622796826713
 21
296.0943517419571
 31
0.0
 11
330.648013727257
 21
296.0159550608958
 31
0.0
 11
330.648013727257
 21
295.8734156830289
 31
0.0
 11
330.6622796826713
 21
295.7736380255836
 31
0.0
 11
330.6836782056391
 21
295.7237490806877
 31
0.0
 11
330.7264752515749
 21
295.6596063838823
 31
0.0
 11
330.7621397299572
 21
295.6168444311144
 31
0.0
 11
330.8192023211537
 21
295.559828726437
 31
0.0
 11
330.8477338218287
 21
295.5241937657971
 31
0.0
 11
330.9404613015609
 21
295.4885590375036
 31
0.0
 11
330.9832583474967
 21
295.4735306428426
 31
0.0
  0
LINE
  5
1988
102
{ACAD_REACTORS
330
1957
102
}
330
18
100
AcDbEntity
  8
ROGO
 62
     4
100
AcDbLine
 10
328.1268343122523
 20
295.9621005211833
 30
0.0
 11
327.8832175915734
 21
295.4735306428426
 31
0.0
  0
LINE
  5
1989
102
{ACAD_REACTORS
330
1983
102
}
330
18
100
AcDbEntity
  8
ROGO
 62
     4
100
AcDbLine
 10
330.9832583474967
 20
295.4735306428426
 30
0.0
 11
332.1142873625013
 21
295.4735306428426
 31
0.0
  0
LINE
  5
198A
102
{ACAD_REACTORS
330
197F
102
}
330
18
100
AcDbEntity
  8
ROGO
 62
     4
100
AcDbLine
 10
328.8829354230823
 20
295.4735306428426
 30
0.0
 11
329.6333892462677
 21
295.4735306428426
 31
0.0
  0
SPLINE
  5
198B
102
{ACAD_REACTORS
330
197F
102
}
330
18
100
AcDbEntity
  8
ROGO
 62
     4
100
AcDbSpline
210
0.0
220
0.0
230
1.0
 70
     8
 71
     3
 72
     9
 73
     5
 74
     3
 42
0.0000000001
 43
0.0000000001
 44
0.0000000001
 40
0.0
 40
0.0
 40
0.0
 40
0.0
 40
0.1135793343552172
 40
0.2662938392177403
 40
0.2662938392177403
 40
0.2662938392177403
 40
0.2662938392177403
 10
329.8834067048856
 20
295.5028070897513
 30
0.0
 10
329.9198916732037
 20
295.5139694294745
 30
0.0
 10
330.0054329588811
 20
295.5401402317284
 30
0.0
 10
330.0761096561179
 20
295.5954525495029
 30
0.0
 10
330.1166414117738
 20
295.6271731227108
 30
0.0
 11
329.8834067048856
 21
295.5028070897513
 31
0.0
 11
329.9901574691103
 21
295.541595484021
 31
0.0
 11
330.1166414117738
 21
295.6271731227108
 31
0.0
  0
SPLINE
  5
198C
102
{ACAD_REACTORS
330
197F
102
}
330
18
100
AcDbEntity
  8
ROGO
 62
     4
100
AcDbSpline
210
0.0
220
0.0
230
1.0
 70
     8
 71
     3
 72
    11
 73
     7
 74
     0
 42
0.0000000001
 43
0.0000000001
 40
0.1647869275458134
 40
0.1647869275458134
 40
0.1647869275458134
 40
0.1647869275458134
 40
0.2895635144633836
 40
0.5387013147903714
 40
0.7953622617455423
 40
0.8850764140209602
 40
0.8850764140209602
 40
0.8850764140209602
 40
0.8850764140209602
 10
329.8834067048856
 20
295.5028070897513
 30
0.0
 10
329.8694281620848
 20
295.4989161570348
 30
0.0
 10
329.8260871506506
 20
295.4919885672509
 30
0.0
 10
329.7533883835125
 20
295.4824761728775
 30
0.0
 10
329.6842918414161
 20
295.4725496422929
 30
0.0
 10
329.6438611465876
 20
295.4733288271997
 30
0.0
 10
329.6333892462677
 20
295.4735306428426
 30
0.0
  0
LINE
  5
198D
102
{ACAD_REACTORS
330
1982
102
}
330
18
100
AcDbEntity
  8
ROGO
 62
     4
100
AcDbLine
 10
333.3111402537984
 20
294.7347967884942
 30
0.0
 11
334.0672074537983
 21
294.7347967884942
 31
0.0
  0
LINE
  5
198E
102
{ACAD_REACTORS
330
1982
102
}
330
18
100
AcDbEntity
  8
ROGO
 62
     4
100
AcDbLine
 10
333.0440909646327
 20
295.2703603506137
 30
0.0
 11
332.777041675467
 21
294.7347967884942
 31
0.0
  0
LINE
  5
198F
102
{ACAD_REACTORS
330
1982
102
}
330
18
100
AcDbEntity
  8
ROGO
 62
     4
100
AcDbLine
 10
333.0440909646327
 20
295.2703603506137
 30
0.0
 11
333.3111402537984
 21
294.7347967884942
 31
0.0
  0
LINE
  5
1990
102
{ACAD_REACTORS
330
1983
102
}
330
18
100
AcDbEntity
  8
ROGO
 62
     4
100
AcDbLine
 10
331.7036776116187
 20
296.2981005211833
 30
0.0
 11
332.5254445349699
 21
296.2981005211833
 31
0.0
  0
LINE
  5
1991
102
{ACAD_REACTORS
330
1983
102
}
330
18
100
AcDbEntity
  8
ROGO
 62
     4
100
AcDbLine
 10
331.518223062308
 20
295.9621005211833
 30
0.0
 11
332.3579040831802
 21
295.9621005211833
 31
0.0
  0
LINE
  5
1992
102
{ACAD_REACTORS
330
1983
102
}
330
18
100
AcDbEntity
  8
ROGO
 62
     4
100
AcDbLine
 10
331.4540274934046
 20
296.7866755734002
 30
0.0
 11
332.7690638355105
 21
296.7866755734002
 31
0.0
  0
ELLIPSE
  5
1993
330
18
100
AcDbEntity
  8
ROGO
 62
     4
100
AcDbEllipse
 10
329.4396777792562
 20
296.1144568003535
 30
0.0
 11
0.1782847090673272
 21
0.1567790921840611
 31
0.0
210
0.0
220
0.0
230
0.9999999999999998
 40
0.6788083417438792
 41
0.0
 42
6.283185307179586
  0
LINE
  5
1994
102
{ACAD_REACTORS
330
197F
102
}
330
18
100
AcDbEntity
  8
ROGO
 62
     4
100
AcDbLine
 10
329.2672193846254
 20
296.7921527925725
 30
0.0
 11
330.0176732078108
 21
296.7921527925725
 31
0.0
  0
LINE
  5
1995
102
{ACAD_REACTORS
330
1957
102
}
330
18
100
AcDbEntity
  8
ROGO
 62
     4
100
AcDbLine
 10
327.2229577224768
 20
296.7866755734002
 30
0.0
 11
328.5379940645827
 21
296.7866755734002
 31
0.0
  0
SPLINE
  5
1996
102
{ACAD_REACTORS
330
1957
102
}
330
18
100
AcDbEntity
  8
ROGO
 62
     4
100
AcDbSpline
210
0.0
220
0.0
230
1.0
 70
     8
 71
     3
 72
    16
 73
    12
 74
    10
 42
0.0000000001
 43
0.0000000001
 44
0.0000000001
 40
0.0
 40
0.0
 40
0.0
 40
0.0
 40
0.1255907025629711
 40
0.1869327038470372
 40
0.2171823804790188
 40
0.2490606136884497
 40
0.2947101524738226
 40
0.3362763310931653
 40
0.3796288870083566
 40
0.452312579561098
 40
0.5242542460842631
 40
0.5242542460842631
 40
0.5242542460842631
 40
0.5242542460842631
 10
327.472607840691
 20
296.2981005211833
 30
0.0
 10
327.4300771330696
 20
296.2916164278793
 30
0.0
 10
327.3667732418583
 20
296.2819653225938
 30
0.0
 10
327.309527490467
 20
296.236650215618
 30
0.0
 10
327.2772448613431
 20
296.2096907433016
 30
0.0
 10
327.2662621670913
 20
296.1739887491193
 30
0.0
 10
327.2367660992309
 20
296.1465750980839
 30
0.0
 10
327.2124529493534
 20
296.1088999173676
 30
0.0
 10
327.2066475202918
 20
296.0571524464086
 30
0.0
 10
327.2109088381394
 20
295.9845327572712
 30
0.0
 10
327.2618255527084
 20
295.9695523132719
 30
0.0
 10
327.2871532913801
 20
295.9621005211833
 30
0.0
 11
327.472607840691
 21
296.2981005211833
 31
0.0
 11
327.3513492704372
 21
296.2653990883359
 31
0.0
 11
327.3014192467943
 21
296.2297643600424
 31
0.0
 11
327.2800207238264
 21
296.2083833836583
 31
0.0
 11
327.2657547684122
 21
296.1798754151465
 31
0.0
 11
327.2372232677372
 21
296.144240686853
 31
0.0
 11
327.2158247447692
 21
296.1086057262131
 31
0.0
 11
327.2086917670621
 21
296.0658440057916
 31
0.0
 11
327.2229577224764
 21
295.9945740845118
 31
0.0
 11
327.2871532913801
 21
295.9621005211833
 31
0.0
  0
LINE
  5
1997
102
{ACAD_REACTORS
330
1957
102
}
330
18
100
AcDbEntity
  8
ROGO
 62
     4
100
AcDbLine
 10
327.2871532913801
 20
295.9621005211833
 30
0.0
 11
328.1268343122523
 21
295.9621005211833
 31
0.0
  0
LINE
  5
1998
102
{ACAD_REACTORS
330
1957
102
}
330
18
100
AcDbEntity
  8
ROGO
 62
     4
100
AcDbLine
 10
327.4726078406909
 20
296.2981005211833
 30
0.0
 11
328.2943747640421
 21
296.2981005211833
 31
0.0
  0
LINE
  5
1999
102
{ACAD_REACTORS
330
1957
102
}
330
18
100
AcDbEntity
  8
ROGO
 62
     4
100
AcDbLine
 10
328.5379940645827
 20
296.7866755734002
 30
0.0
 11
328.2943747640421
 21
296.2981005211833
 31
0.0
  0
SPLINE
  5
199A
102
{ACAD_REACTORS
330
1983
102
}
330
18
100
AcDbEntity
  8
ROGO
 62
     4
100
AcDbSpline
210
0.0
220
0.0
230
1.0
 70
     8
 71
     3
 72
    16
 73
    12
 74
    10
 42
0.0000000001
 43
0.0000000001
 44
0.0000000001
 40
0.0
 40
0.0
 40
0.0
 40
0.0
 40
0.1255907025629163
 40
0.1869327038470616
 40
0.217182380479003
 40
0.2490606136884339
 40
0.2947101524738157
 40
0.3362763310931585
 40
0.3796288870082937
 40
0.4523125795610796
 40
0.5242542460842448
 40
0.5242542460842448
 40
0.5242542460842448
 40
0.5242542460842448
 10
331.7036776116188
 20
296.2981005211833
 30
0.0
 10
331.6611469039973
 20
296.2916164278793
 30
0.0
 10
331.597843012786
 20
296.2819653225938
 30
0.0
 10
331.5405972613949
 20
296.236650215618
 30
0.0
 10
331.5083146322708
 20
296.2096907433016
 30
0.0
 10
331.4973319380191
 20
296.1739887491194
 30
0.0
 10
331.4678358701588
 20
296.1465750980837
 30
0.0
 10
331.4435227202813
 20
296.1088999173676
 30
0.0
 10
331.4377172912197
 20
296.0571524464084
 30
0.0
 10
331.4419786090672
 20
295.9845327572712
 30
0.0
 10
331.4928953236362
 20
295.9695523132718
 30
0.0
 10
331.518223062308
 20
295.9621005211833
 30
0.0
 11
331.7036776116188
 21
296.2981005211833
 31
0.0
 11
331.5824190413651
 21
296.2653990883359
 31
0.0
 11
331.5324890177221
 21
296.2297643600423
 31
0.0
 11
331.5110904947543
 21
296.2083833836583
 31
0.0
 11
331.49682453934
 21
296.1798754151465
 31
0.0
 11
331.4682930386651
 21
296.1442406868529
 31
0.0
 11
331.4468945156971
 21
296.108605726213
 31
0.0
 11
331.43976153799
 21
296.0658440057916
 31
0.0
 11
331.4540274934042
 21
295.9945740845118
 31
0.0
 11
331.518223062308
 21
295.9621005211833
 31
0.0
  0
LINE
  5
199B
102
{ACAD_REACTORS
330
1982
102
}
330
18
100
AcDbEntity
  8
ROGO
 62
     4
100
AcDbLine
 10
334.0424824832947
 20
296.7866755734002
 30
0.0
 11
334.7985496832947
 21
296.7866755734002
 31
0.0
  0
LINE
  5
199C
102
{ACAD_REACTORS
330
1982
102
}
330
18
100
AcDbEntity
  8
ROGO
 62
     4
100
AcDbLine
 10
333.5556409379635
 20
295.7607361809472
 30
0.0
 11
334.7985496832947
 21
296.7866755734002
 31
0.0
  0
LINE
  5
199D
102
{ACAD_REACTORS
330
1982
102
}
330
18
100
AcDbEntity
  8
ROGO
 62
     4
100
AcDbLine
 10
333.6884694002159
 20
296.5626521645786
 30
0.0
 11
334.0424824832947
 21
296.7866755734002
 31
0.0
  0
LINE
  5
199E
102
{ACAD_REACTORS
330
1982
102
}
330
18
100
AcDbEntity
  8
ROGO
 62
     4
100
AcDbLine
 10
333.8001747071369
 20
296.7866755734002
 30
0.0
 11
333.6884694002159
 21
296.5626521645786
 31
0.0
  0
LINE
  5
199F
102
{ACAD_REACTORS
330
1982
102
}
330
18
100
AcDbEntity
  8
ROGO
 62
     4
100
AcDbLine
 10
333.0440909646327
 20
296.7866755734002
 30
0.0
 11
333.8001747071369
 21
296.7866755734002
 31
0.0
  0
LINE
  5
19A0
102
{ACAD_REACTORS
330
1983
102
}
330
18
100
AcDbEntity
  8
ROGO
 62
     4
100
AcDbLine
 10
332.7690638355105
 20
296.7866755734002
 30
0.0
 11
332.5254445349699
 21
296.2981005211833
 31
0.0
  0
TEXT
  5
19BA
330
18
100
AcDbEntity
  8
文字
100
AcDbText
 10
324.9146251091003
 20
263.7707106443856
 30
0.0
 40
1.0
  1
K
 50
353.6455809133917
  7
STYLE3
100
AcDbText
  0
TEXT
  5
19BD
330
18
100
AcDbEntity
  8
文字
100
AcDbText
 10
319.7460092039382
 20
264.8036800084372
 30
0.0
 40
1.0
  1
S
 50
344.4973999529939
  7
STYLE3
100
AcDbText
  0
TEXT
  5
19C2
330
18
100
AcDbEntity
  8
文字
100
AcDbText
 10
323.5141286255122
 20
263.9130022029753
 30
0.0
 40
1.0
  1
C
 50
350.6768417010405
  7
STYLE3
100
AcDbText
  0
TEXT
  5
19C3
330
18
100
AcDbEntity
  8
文字
100
AcDbText
 10
322.2025270229166
 20
264.1074004485175
 30
0.0
 40
1.0
  1
O
 50
350.9822597134087
  7
STYLE3
100
AcDbText
  0
TEXT
  5
19C4
330
18
100
AcDbEntity
  8
文字
100
AcDbText
 10
320.8820029346741
 20
264.4748845506243
 30
0.0
 40
1.0
  1
H
 50
345.4595335720517
  7
STYLE3
100
AcDbText
  0
TEXT
  5
19C7
330
18
100
AcDbEntity
  8
文字
100
AcDbText
 10
330.0081070598593
 20
263.9981319463781
 30
0.0
 40
1.0
  1
O
 50
7.644753597278161
  7
STYLE3
100
AcDbText
  0
TEXT
  5
19C8
330
18
100
AcDbEntity
  8
文字
100
AcDbText
 10
328.7337083057885
 20
263.7782627874445
 30
0.0
 40
1.0
  1
R
 50
8.048213749573502
  7
STYLE3
100
AcDbText
  0
TEXT
  5
19C9
330
18
100
AcDbEntity
  8
文字
100
AcDbText
 10
327.4310986536022
 20
263.6717816467587
 30
0.0
 40
1.0
  1
P
 50
3.74008244012971
  7
STYLE3
100
AcDbText
  0
TEXT
  5
19CA
330
18
100
AcDbEntity
  8
文字
100
AcDbText
 10
332.776405116028
 20
264.6331969232123
 30
0.0
 40
1.0
  1
F
 50
18.03465481715045
  7
STYLE3
100
AcDbText
  0
TEXT
  5
19CB
330
18
100
AcDbEntity
  8
文字
100
AcDbText
 10
331.3421671015918
 20
264.2907753001667
 30
0.0
 40
1.0
  1
O
 50
8.010914976539879
  7
STYLE3
100
AcDbText
  0
LINE
  5
1BE2
330
18
100
AcDbEntity
  8
外形線
100
AcDbLine
 10
327.3794717173512
 20
283.9975872627029
 30
0.0
 11
336.3634147693742
 21
264.9057364556698
 31
0.0
  0
CIRCLE
  5
1BE5
330
18
100
AcDbEntity
  8
針
100
AcDbCircle
 10
326.5704910633776
 20
285.7167586623882
 30
0.0
 40
1.9
  0
CIRCLE
  5
1BE6
330
18
100
AcDbEntity
  8
針
100
AcDbCircle
 10
326.5704910633776
 20
285.7167586623882
 30
0.0
 40
1.5
  0
POINT
  5
1BE7
330
18
100
AcDbEntity
  8
DEFPOINTS
  6
ByBlock
 62
     0
100
AcDbPoint
 10
326.5704910633776
 20
285.7167586623881
 30
0.0
  0
POINT
  5
1BE8
330
18
100
AcDbEntity
  8
DEFPOINTS
  6
ByBlock
 62
     0
100
AcDbPoint
 10
326.5704910633776
 20
285.7167586623881
 30
0.0
  0
CIRCLE
  5
1BE9
330
18
100
AcDbEntity
  8
針
100
AcDbCircle
 10
326.5704910633776
 20
285.7167586623882
 30
0.0
 40
0.475
  0
ARC
  5
1BEA
330
18
100
AcDbEntity
  8
針
100
AcDbCircle
 10
329.9688126462777
 20
282.3980374599979
 30
0.0
 40
3.0
100
AcDbArc
 50
146.9277208229601
 51
176.4000000000007
  0
HATCH
  5
1BEB
330
18
100
AcDbEntity
  8
針
100
AcDbHatch
 10
0.0
 20
0.0
 30
0.0
210
0.0
220
0.0
230
1.0
  2
SOLID
 70
     1
 71
     0
 91
        2
 92
        7
 72
     1
 73
     1
 93
        5
 10
325.0992772281742
 20
263.7658217837237
 42
0.0
 10
325.1890996337327
 20
263.7601706369661
 42
0.0
 10
325.2789220392912
 20
263.7545194902085
 42
0.0
 10
325.8623038757237
 20
270.2329454722452
 42
-0.0085634322047721
 10
325.3324576085051
 20
270.2662805738428
 42
0.0
 97
        0
 92
        7
 72
     1
 73
     1
 93
        6
 10
325.3324576085051
 20
270.2662805738428
 42
0.0085634322047721
 10
325.8623038757237
 20
270.2329454722452
 42
0.0
 10
326.974732460993
 20
282.5864090185862
 42
-0.1293106770632391
 10
327.4548641460395
 20
284.0351272370565
 42
-0.2805221108582334
 10
325.4823272224216
 20
284.1592287412514
 42
-0.1293106770632486
 10
325.7771003868789
 20
282.6617576420213
 42
0.0
 97
        0
 75
     0
 76
     1
 47
0.0423559757596284
 98
        2
 10
325.5984150674129
 20
269.620051769738
 10
325.748093472047
 20
274.024365796089
450
        0
451
        0
460
0.0
461
0.0
452
        0
462
0.0
453
        0
470

  0
LINE
  5
1BEC
330
18
100
AcDbEntity
  8
針
100
AcDbLine
 10
325.2789220392912
 20
263.7545194902085
 30
0.0
 11
326.9747324609929
 21
282.5864090185857
 31
0.0
  0
ARC
  5
1BED
330
18
100
AcDbEntity
  8
針
100
AcDbCircle
 10
322.783020201594
 20
282.8501292006091
 30
0.0
 40
3.0
100
AcDbArc
 50
356.4000000000007
 51
25.87227917703909
  0
LINE
  5
1BEE
330
18
100
AcDbEntity
  8
針
100
AcDbLine
 10
325.1890996337327
 20
263.7601706369661
 30
0.0
 11
325.2789220392912
 21
263.7545194902085
 31
0.0
  0
LINE
  5
1BEF
330
18
100
AcDbEntity
  8
針
100
AcDbLine
 10
325.1890996337327
 20
263.7601706369661
 30
0.0
 11
325.0992772281742
 21
263.7658217837237
 31
0.0
  0
LINE
  5
1BF0
330
18
100
AcDbEntity
  8
針
100
AcDbLine
 10
325.0992772281742
 20
263.7658217837237
 30
0.0
 11
325.7771003868787
 21
282.661757642021
 31
0.0
  0
POINT
  5
1BF1
330
18
100
AcDbEntity
  8
DEFPOINTS
  6
ByBlock
 62
     0
100
AcDbPoint
 10
325.8710544132768
 20
283.9501833392005
 30
0.0
  0
POINT
  5
1BF2
330
18
100
AcDbEntity
  8
DEFPOINTS
  6
ByBlock
 62
     0
100
AcDbPoint
 10
328.4667418473913
 20
285.5974566752824
 30
0.0
  0
LINE
  5
1C40
330
18
100
AcDbEntity
  8
目盛
100
AcDbLine
 10
316.3091378050111
 20
267.0514263774539
 30
0.0
 11
315.4901565590381
 21
265.5617050213793
 31
0.0
  0
LINE
  5
1C41
330
18
100
AcDbEntity
  8
目盛
100
AcDbLine
 10
317.5013921530415
 20
266.443942444862
 30
0.0
 11
316.7775673573808
 21
264.9057364556697
 31
0.0
  0
LINE
  5
1C42
330
18
100
AcDbEntity
  8
目盛
100
AcDbLine
 10
315.157380330325
 20
267.7325738491953
 30
0.0
 11
314.2464747788606
 21
266.2972163758419
 31
0.0
  0
POINT
  5
1C47
330
18
100
AcDbEntity
  8
DEFPOINTS
  6
ByBlock
 62
     0
100
AcDbPoint
 10
325.8710544132768
 20
283.9501833392005
 30
0.0
  0
POINT
  5
1C48
330
18
100
AcDbEntity
  8
DEFPOINTS
  6
ByBlock
 62
     0
100
AcDbPoint
 10
328.0344662246515
 20
284.5056530818656
 30
0.0
  0
LINE
  5
1C83
330
18
100
AcDbEntity
  8
目盛
100
AcDbLine
 10
336.8318443217443
 20
267.0514263774539
 30
0.0
 11
337.6508255677173
 21
265.5617050213793
 31
0.0
  0
LINE
  5
1C84
330
18
100
AcDbEntity
  8
目盛
100
AcDbLine
 10
337.9836017964304
 20
267.7325738491953
 30
0.0
 11
338.8945073478947
 21
266.2972163758419
 31
0.0
  0
LINE
  5
1C86
330
18
100
AcDbEntity
  8
外形線
100
AcDbLine
 10
325.7615104094042
 20
283.9975872627029
 30
0.0
 11
316.7775673573812
 21
264.9057364556697
 31
0.0
  0
LINE
  5
1C87
330
18
100
AcDbEntity
  8
目盛
100
AcDbLine
 10
335.6395899737139
 20
266.443942444862
 30
0.0
 11
336.3634147693745
 21
264.9057364556697
 31
0.0
  0
TEXT
  5
1C88
330
18
100
AcDbEntity
  8
文字
100
AcDbText
 10
313.4013837181956
 20
269.9215469466601
 30
0.0
 40
2.5
  1
40
  7
STYLE3
100
AcDbText
  0
TEXT
  5
1C89
330
18
100
AcDbEntity
  8
文字
100
AcDbText
 10
334.3133020645703
 20
269.9868644451968
 30
0.0
 40
2.5
  1
40
  7
STYLE3
100
AcDbText
  0
CIRCLE
  5
1C8A
330
18
100
AcDbEntity
  8
針
100
AcDbCircle
 10
326.5704910633776
 20
285.7167586623882
 30
0.0
 40
1.9
  0
CIRCLE
  5
1C8B
330
18
100
AcDbEntity
  8
針
100
AcDbCircle
 10
326.5704910633776
 20
285.7167586623882
 30
0.0
 40
1.5
  0
POINT
  5
1C8C
330
18
100
AcDbEntity
  8
DEFPOINTS
  6
ByBlock
 62
     0
100
AcDbPoint
 10
326.5704910633776
 20
285.7167586623881
 30
0.0
  0
POINT
  5
1C8D
330
18
100
AcDbEntity
  8
DEFPOINTS
  6
ByBlock
 62
     0
100
AcDbPoint
 10
326.5704910633776
 20
285.7167586623881
 30
0.0
  0
CIRCLE
  5
1C8E
330
18
100
AcDbEntity
  8
針
100
AcDbCircle
 10
326.5704910633776
 20
285.7167586623882
 30
0.0
 40
0.475
  0
ARC
  5
1C8F
330
18
100
AcDbEntity
  8
針
100
AcDbCircle
 10
329.9688126462777
 20
282.3980374599979
 30
0.0
 40
3.0
100
AcDbArc
 50
146.9277208229601
 51
176.4000000000007
  0
HATCH
  5
1C90
330
18
100
AcDbEntity
  8
針
100
AcDbHatch
 10
0.0
 20
0.0
 30
0.0
210
0.0
220
0.0
230
1.0
  2
SOLID
 70
     1
 71
     0
 91
        2
 92
        7
 72
     1
 73
     1
 93
        5
 10
325.0992772281742
 20
263.7658217837237
 42
0.0
 10
325.1890996337327
 20
263.7601706369661
 42
0.0
 10
325.2789220392912
 20
263.7545194902085
 42
0.0
 10
325.8623038757237
 20
270.2329454722452
 42
-0.0085634322047721
 10
325.3324576085051
 20
270.2662805738428
 42
0.0
 97
        0
 92
        7
 72
     1
 73
     1
 93
        6
 10
325.3324576085051
 20
270.2662805738428
 42
0.0085634322047721
 10
325.8623038757237
 20
270.2329454722452
 42
0.0
 10
326.974732460993
 20
282.5864090185862
 42
-0.1293106770632391
 10
327.4548641460395
 20
284.0351272370565
 42
-0.2805221108582334
 10
325.4823272224216
 20
284.1592287412514
 42
-0.1293106770632486
 10
325.7771003868789
 20
282.6617576420213
 42
0.0
 97
        0
 75
     0
 76
     1
 47
0.0423559757596284
 98
        2
 10
325.5984150674129
 20
269.620051769738
 10
325.748093472047
 20
274.024365796089
450
        0
451
        0
460
0.0
461
0.0
452
        0
462
0.0
453
        0
470

  0
LINE
  5
1C91
330
18
100
AcDbEntity
  8
針
100
AcDbLine
 10
325.2789220392912
 20
263.7545194902085
 30
0.0
 11
326.9747324609929
 21
282.5864090185857
 31
0.0
  0
ARC
  5
1C92
330
18
100
AcDbEntity
  8
針
100
AcDbCircle
 10
322.783020201594
 20
282.8501292006091
 30
0.0
 40
3.0
100
AcDbArc
 50
356.4000000000007
 51
25.87227917703909
  0
LINE
  5
1C93
330
18
100
AcDbEntity
  8
針
100
AcDbLine
 10
325.1890996337327
 20
263.7601706369661
 30
0.0
 11
325.2789220392912
 21
263.7545194902085
 31
0.0
  0
LINE
  5
1C94
330
18
100
AcDbEntity
  8
針
100
AcDbLine
 10
325.1890996337327
 20
263.7601706369661
 30
0.0
 11
325.0992772281742
 21
263.7658217837237
 31
0.0
  0
LINE
  5
1C95
330
18
100
AcDbEntity
  8
針
100
AcDbLine
 10
325.0992772281742
 20
263.7658217837237
 30
0.0
 11
325.7771003868787
 21
282.661757642021
 31
0.0
  0
POINT
  5
1C96
330
18
100
AcDbEntity
  8
DEFPOINTS
  6
ByBlock
 62
     0
100
AcDbPoint
 10
325.8710544132768
 20
283.9501833392005
 30
0.0
  0
POINT
  5
1C97
330
18
100
AcDbEntity
  8
DEFPOINTS
  6
ByBlock
 62
     0
100
AcDbPoint
 10
328.4667418473913
 20
285.5974566752824
 30
0.0
  0
POINT
  5
1C98
330
18
100
AcDbEntity
  8
DEFPOINTS
  6
ByBlock
 62
     0
100
AcDbPoint
 10
325.8710544132768
 20
283.9501833392005
 30
0.0
  0
POINT
  5
1C99
330
18
100
AcDbEntity
  8
DEFPOINTS
  6
ByBlock
 62
     0
100
AcDbPoint
 10
328.0344662246515
 20
284.5056530818656
 30
0.0
  0
LINE
  5
1C9A
330
18
100
AcDbEntity
  8
寸法線
 62
     2
100
AcDbLine
 10
316.7775673573812
 20
264.9057364556697
 30
0.0
 11
310.9158744755888
 21
252.4490050040351
 31
0.0
  0
LINE
  5
1C9B
330
18
100
AcDbEntity
  8
寸法線
 62
     2
100
AcDbLine
 10
336.3634147693742
 20
264.9057364556698
 30
0.0
 11
342.2251076511666
 21
252.4490050040351
 31
0.0
  0
ARC
  5
1C9C
330
18
100
AcDbEntity
  8
寸法線
 62
     2
100
AcDbCircle
 10
326.5704910633777
 20
285.716758662388
 30
0.0
 40
35.51697504532476
100
AcDbArc
 50
248.8338186360021
 51
291.166181363998
  0
INSERT
  5
1C9D
330
18
100
AcDbEntity
  8
寸法線
 62
     2
100
AcDbBlockReference
  2
_OPEN
 10
311.4480985900451
 20
253.5800388196177
 30
0.0
 41
2.499999999999998
 42
2.5
 43
2.5
 50
156.8169093180022
  0
INSERT
  5
1C9E
330
18
100
AcDbEntity
  8
寸法線
 62
     2
100
AcDbBlockReference
  2
_OPEN
 10
341.6928835367103
 20
253.5800388196177
 30
0.0
 41
2.499999999999998
 42
2.5
 43
2.5
 50
23.18309068199776
  0
MTEXT
  5
1C9F
330
18
100
AcDbEntity
  8
寸法線
 62
     6
100
AcDbMText
 10
329.0910852630502
 20
248.3668223469792
 30
0.0
 40
2.499999999999999
 41
0.0
 71
     5
 72
     1
  1
\A1;50.4°
  7
STYLE3
 11
0.9971892405550995
 21
0.0749240850537643
 31
0.0
 73
     1
 44
1.0
  0
ARC
  5
1CC3
330
18
100
AcDbEntity
  8
針
100
AcDbCircle
 10
329.9688126462777
 20
282.3980374599979
 30
0.0
 40
3.0
100
AcDbArc
 50
146.9277208229601
 51
176.4000000000007
  0
HATCH
  5
1CC4
330
18
100
AcDbEntity
  8
針
100
AcDbHatch
 10
0.0
 20
0.0
 30
0.0
210
0.0
220
0.0
230
1.0
  2
SOLID
 70
     1
 71
     0
 91
        2
 92
        7
 72
     1
 73
     1
 93
        5
 10
325.0992772281742
 20
263.7658217837237
 42
0.0
 10
325.1890996337327
 20
263.7601706369661
 42
0.0
 10
325.2789220392912
 20
263.7545194902085
 42
0.0
 10
325.8623038757237
 20
270.2329454722452
 42
-0.0085634322047721
 10
325.3324576085051
 20
270.2662805738428
 42
0.0
 97
        0
 92
        7
 72
     1
 73
     1
 93
        6
 10
325.3324576085051
 20
270.2662805738428
 42
0.0085634322047721
 10
325.8623038757237
 20
270.2329454722452
 42
0.0
 10
326.974732460993
 20
282.5864090185862
 42
-0.1293106770632391
 10
327.4548641460395
 20
284.0351272370565
 42
-0.2805221108582334
 10
325.4823272224216
 20
284.1592287412514
 42
-0.1293106770632486
 10
325.7771003868789
 20
282.6617576420213
 42
0.0
 97
        0
 75
     0
 76
     1
 47
0.0423559757596284
 98
        2
 10
325.5984150674129
 20
269.620051769738
 10
325.748093472047
 20
274.024365796089
450
        0
451
        0
460
0.0
461
0.0
452
        0
462
0.0
453
        0
470

  0
LINE
  5
1CC5
330
18
100
AcDbEntity
  8
針
100
AcDbLine
 10
325.2789220392912
 20
263.7545194902085
 30
0.0
 11
326.9747324609929
 21
282.5864090185857
 31
0.0
  0
ARC
  5
1CC6
330
18
100
AcDbEntity
  8
針
100
AcDbCircle
 10
322.783020201594
 20
282.8501292006091
 30
0.0
 40
3.0
100
AcDbArc
 50
356.4000000000007
 51
25.87227917703909
  0
LINE
  5
1CC7
330
18
100
AcDbEntity
  8
針
100
AcDbLine
 10
325.0992772281742
 20
263.7658217837237
 30
0.0
 11
325.7771003868787
 21
282.661757642021
 31
0.0
  0
POINT
  5
1CC8
330
18
100
AcDbEntity
  8
DEFPOINTS
  6
ByBlock
 62
     0
100
AcDbPoint
 10
325.8710544132768
 20
283.9501833392005
 30
0.0
  0
POINT
  5
1CC9
330
18
100
AcDbEntity
  8
DEFPOINTS
  6
ByBlock
 62
     0
100
AcDbPoint
 10
325.8710544132768
 20
283.9501833392005
 30
0.0
  0
POINT
  5
1CCA
330
18
100
AcDbEntity
  8
DEFPOINTS
  6
ByBlock
 62
     0
100
AcDbPoint
 10
328.0344662246515
 20
284.5056530818656
 30
0.0
  0
ARC
  5
1CCB
330
18
100
AcDbEntity
  8
針
100
AcDbCircle
 10
329.9688126462777
 20
282.3980374599979
 30
0.0
 40
3.0
100
AcDbArc
 50
146.9277208229601
 51
176.4000000000007
  0
HATCH
  5
1CCC
330
18
100
AcDbEntity
  8
針
100
AcDbHatch
 10
0.0
 20
0.0
 30
0.0
210
0.0
220
0.0
230
1.0
  2
SOLID
 70
     1
 71
     0
 91
        2
 92
        7
 72
     1
 73
     1
 93
        5
 10
325.0992772281742
 20
263.7658217837237
 42
0.0
 10
325.1890996337327
 20
263.7601706369661
 42
0.0
 10
325.2789220392912
 20
263.7545194902085
 42
0.0
 10
325.8623038757237
 20
270.2329454722452
 42
-0.0085634322047721
 10
325.3324576085051
 20
270.2662805738428
 42
0.0
 97
        0
 92
        7
 72
     1
 73
     1
 93
        6
 10
325.3324576085051
 20
270.2662805738428
 42
0.0085634322047721
 10
325.8623038757237
 20
270.2329454722452
 42
0.0
 10
326.974732460993
 20
282.5864090185862
 42
-0.1293106770632391
 10
327.4548641460395
 20
284.0351272370565
 42
-0.2805221108582334
 10
325.4823272224216
 20
284.1592287412514
 42
-0.1293106770632486
 10
325.7771003868789
 20
282.6617576420213
 42
0.0
 97
        0
 75
     0
 76
     1
 47
0.0423559757596284
 98
        2
 10
325.5984150674129
 20
269.620051769738
 10
325.748093472047
 20
274.024365796089
450
        0
451
        0
460
0.0
461
0.0
452
        0
462
0.0
453
        0
470

  0
LINE
  5
1CCD
330
18
100
AcDbEntity
  8
針
100
AcDbLine
 10
325.2789220392912
 20
263.7545194902085
 30
0.0
 11
326.9747324609929
 21
282.5864090185857
 31
0.0
  0
ARC
  5
1CCE
330
18
100
AcDbEntity
  8
針
100
AcDbCircle
 10
322.783020201594
 20
282.8501292006091
 30
0.0
 40
3.0
100
AcDbArc
 50
356.4000000000007
 51
25.87227917703909
  0
LINE
  5
1CCF
330
18
100
AcDbEntity
  8
針
100
AcDbLine
 10
325.0992772281742
 20
263.7658217837237
 30
0.0
 11
325.7771003868787
 21
282.661757642021
 31
0.0
  0
POINT
  5
1CD0
330
18
100
AcDbEntity
  8
DEFPOINTS
  6
ByBlock
 62
     0
100
AcDbPoint
 10
325.8710544132768
 20
283.9501833392005
 30
0.0
  0
POINT
  5
1CD1
330
18
100
AcDbEntity
  8
DEFPOINTS
  6
ByBlock
 62
     0
100
AcDbPoint
 10
325.8710544132768
 20
283.9501833392005
 30
0.0
  0
POINT
  5
1CD2
330
18
100
AcDbEntity
  8
DEFPOINTS
  6
ByBlock
 62
     0
100
AcDbPoint
 10
328.0344662246515
 20
284.5056530818656
 30
0.0
  0
DIMENSION
  5
1CDC
330
18
100
AcDbEntity
  8
寸法線
100
AcDbDimension
  2
*D5
 10
295.2039216272999
 20
308.7167586623881
 30
0.0
 11
293.3289216272998
 21
285.7167586623882
 31
0.0
 70
    32
  1
φ<>
 71
     5
 42
46.0
  3
STYLE2
100
AcDbAlignedDimension
 13
326.5704910633777
 23
262.7167586623881
 33
0.0
 14
326.5704910633777
 24
308.7167586623881
 34
0.0
 50
90.0
100
AcDbRotatedDimension
1001
ACAD
1000
DSTYLE
1002
{
1070
   341
1005
0
1002
}
  0
ARC
  5
1D7C
330
18
100
AcDbEntity
  8
外形線
100
AcDbCircle
 10
326.5704910633777
 20
221.9167586623882
 30
0.0
 40
1.199999999999999
100
AcDbArc
 50
189.59406822686
 51
350.40593177314
  0
ARC
  5
1D7D
330
18
100
AcDbEntity
  8
外形線
100
AcDbCircle
 10
425.6440033527418
 20
221.9167586623882
 30
0.0
 40
1.199999999999999
100
AcDbArc
 50
189.59406822686
 51
350.40593177314
  0
TEXT
  5
1DA4
330
18
100
AcDbEntity
  8
文字
100
AcDbText
 10
309.6123409902389
 20
356.5497536403821
 30
0.0
 40
3.5
  1
Model No.17Z One Revolution Dial Gauge
  7
STYLE3
100
AcDbText
  0
LINE
  5
1DA5
330
18
100
AcDbEntity
  8
外形線
100
AcDbLine
 10
309.7544329902389
 20
353.1667626403821
 30
0.0
 11
415.7544329902389
 21
353.1667626403821
 31
0.0
  0
LINE
  5
1DA6
330
18
100
AcDbEntity
  8
外形線
100
AcDbLine
 10
309.7544329902389
 20
354.1667626403821
 30
0.0
 11
415.7544329902389
 21
354.1667626403821
 31
0.0
  0
TEXT
  5
1DA7
330
18
100
AcDbEntity
  8
0
  6
Continuous
100
AcDbText
 10
351.730117990239
 20
183.7711568132332
 30
0.0
 40
2.1
  1
Design and specifications are subject to change without notice for future improvement.
  7
STYLE3
100
AcDbText
  0
LINE
  5
1DA8
330
18
100
AcDbEntity
  8
外形線
100
AcDbLine
 10
350.2726499902389
 20
172.2583888132332
 30
0.0
 11
350.2726499902389
 21
192.6533718132332
 31
0.0
  0
TEXT
  5
1DA9
330
18
100
AcDbEntity
  8
0
  6
Continuous
100
AcDbText
 10
395.042894990239
 20
175.7546718132332
 30
0.0
 40
2.399999999999999
  1
mm
  7
STYLE3
100
AcDbText
  0
LINE
  5
1DAA
330
18
100
AcDbEntity
  8
外形線
100
AcDbLine
 10
350.2726499902389
 20
181.8731668132332
 30
0.0
 11
491.0640679902389
 21
181.8731668132332
 31
0.0
  0
TEXT
  5
1DAB
330
18
100
AcDbEntity
  8
0
  6
Continuous
100
AcDbText
 10
354.0620689902389
 20
177.5028118132332
 30
0.0
 40
3.0
  1
三　　角　　法
  7
STYLE3
100
AcDbText
  0
TEXT
  5
1DAC
330
18
100
AcDbEntity
  8
0
  6
Continuous
100
AcDbText
 10
351.4386259902389
 20
174.0065288132332
 30
0.0
 40
2.1
  1
3RD Angle Projection
  7
STYLE3
100
AcDbText
  0
TEXT
  5
1DAD
330
18
100
AcDbEntity
  8
0
  6
Continuous
100
AcDbText
 10
387.172567990239
 20
174.0065298132332
 30
0.0
 40
2.1
  1
Unit
  7
STYLE3
100
AcDbText
  0
TEXT
  5
1DAE
330
18
100
AcDbEntity
  8
0
  6
Continuous
100
AcDbText
 10
387.0008469902389
 20
177.5087658132332
 30
0.0
 40
3.0
  1
単位
  7
STYLE3
100
AcDbText
  0
LINE
  5
1DAF
330
18
100
AcDbEntity
  8
外形線
100
AcDbLine
 10
385.5433779902389
 20
181.8731668132332
 30
0.0
 11
385.5433779902389
 21
172.2583888132332
 31
0.0
  0
TEXT
  5
1DB0
330
18
100
AcDbEntity
  8
0
  6
Continuous
100
AcDbText
 10
453.6443799902389
 20
177.7941688132332
 30
0.0
 40
3.0
  1
株式会社　尾崎製作所
  7
STYLE3
100
AcDbText
  0
TEXT
  5
1DB1
330
18
100
AcDbEntity
  8
0
  6
Continuous
100
AcDbText
 10
454.5188589902389
 20
174.0065298132332
 30
0.0
 40
2.1
  1
OZAKI MFG. CO., LTD.
  7
STYLE3
100
AcDbText
  0
TEXT
  5
1DB2
330
18
100
AcDbEntity
  8
0
  6
Continuous
100
AcDbText
 10
433.2398259902389
 20
175.7546708132332
 30
0.0
 40
2.1
  1
2010.06.09
  7
STYLE3
100
AcDbText
  0
TEXT
  5
1DB3
330
18
100
AcDbEntity
  8
0
  6
Continuous
100
AcDbText
 10
414.4012469902389
 20
176.0460288132332
 30
0.0
 40
2.399999999999999
  1
1/1
  7
STYLE3
100
AcDbText
  0
TEXT
  5
1DB4
330
18
100
AcDbEntity
  8
0
  6
Continuous
100
AcDbText
 10
404.7819579902389
 20
174.2978868132332
 30
0.0
 40
2.1
  1
Scale
  7
STYLE3
100
AcDbText
  0
TEXT
  5
1DB5
330
18
100
AcDbEntity
  8
0
  6
Continuous
100
AcDbText
 10
404.3187429902389
 20
177.2174088132332
 30
0.0
 40
3.0
  1
尺 度
  7
STYLE3
100
AcDbText
  0
LINE
  5
1DB6
330
18
100
AcDbEntity
  8
外形線
100
AcDbLine
 10
403.0329949902389
 20
181.8731668132332
 30
0.0
 11
403.0329949902389
 21
172.2583888132332
 31
0.0
  0
TEXT
  5
1DB7
330
18
100
AcDbEntity
  8
0
  6
Continuous
100
AcDbText
 10
424.4950189902389
 20
174.0065308132332
 30
0.0
 40
2.1
  1
Date
  7
STYLE3
100
AcDbText
  0
TEXT
  5
1DB8
330
18
100
AcDbEntity
  8
0
  6
Continuous
100
AcDbText
 10
424.1116579902389
 20
177.3396138132332
 30
0.0
 40
3.0
  1
日 付
  7
STYLE3
100
AcDbText
  0
LINE
  5
1DB9
330
18
100
AcDbEntity
  8
外形線
100
AcDbLine
 10
422.5630679902389
 20
181.8731668132332
 30
0.0
 11
422.5630679902389
 21
172.2583888132332
 31
0.0
  0
LINE
  5
1DBA
330
18
100
AcDbEntity
  8
外形線
100
AcDbLine
 10
452.2954169902389
 20
181.8731668132332
 30
0.0
 11
452.2954169902389
 21
172.2583888132332
 31
0.0
  0
LINE
  5
1DBB
330
18
100
AcDbEntity
  8
外形線
100
AcDbLine
 10
350.2726499902389
 20
192.6533718132332
 30
0.0
 11
491.0640679902389
 21
192.6533718132332
 31
0.0
  0
TEXT
  5
1DBC
330
18
100
AcDbEntity
  8
0
  6
Continuous
100
AcDbText
 10
352.021611990239
 20
187.7003048132332
 30
0.0
 40
3.5
  1
仕様及び外観は予告なく変更される場合がございますのでご了承下さい。
  7
STYLE3
100
AcDbText
  0
ENDSEC
  0
SECTION
  2
OBJECTS
  0
DICTIONARY
  5
C
330
0
100
AcDbDictionary
281
     1
  3
ACAD_COLOR
350
1A04
  3
ACAD_GROUP
350
D
  3
ACAD_IMAGE_DICT
350
E58
  3
ACAD_LAYOUT
350
1A07
  3
ACAD_MATERIAL
350
1A03
  3
ACAD_MLINESTYLE
350
1B
  3
ACAD_PLOTSETTINGS
350
1A08
  3
ACAD_PLOTSTYLENAME
350
1A01
  3
ACAD_TABLESTYLE
350
1A05
  3
ACDBVARIABLEDICTIONARY
350
1025
  0
DICTIONARY
  5
1A04
102
{ACAD_REACTORS
330
C
102
}
330
C
100
AcDbDictionary
281
     1
  0
DICTIONARY
  5
D
102
{ACAD_REACTORS
330
C
102
}
330
C
100
AcDbDictionary
281
     1
  0
DICTIONARY
  5
E58
102
{ACAD_REACTORS
330
C
102
}
330
C
100
AcDbDictionary
281
     1
  3
ROGO01
350
E59
  0
DICTIONARY
  5
1A07
102
{ACAD_REACTORS
330
C
102
}
330
C
100
AcDbDictionary
281
     1
  3
Model
350
1A09
  3
レイアウト1
350
1A0A
  0
DICTIONARY
  5
1A03
102
{ACAD_REACTORS
330
C
102
}
330
C
100
AcDbDictionary
281
     1
  0
DICTIONARY
  5
1B
102
{ACAD_REACTORS
330
C
102
}
330
C
100
AcDbDictionary
281
     1
  3
STANDARD
350
1C
  0
DICTIONARY
  5
1A08
102
{ACAD_REACTORS
330
C
102
}
330
C
100
AcDbDictionary
281
     1
  0
ACDBDICTIONARYWDFLT
  5
1A01
102
{ACAD_REACTORS
330
C
102
}
330
C
100
AcDbDictionary
281
     1
  3
Normal
350
1A02
100
AcDbDictionaryWithDefault
340
1A02
  0
DICTIONARY
  5
1A05
102
{ACAD_REACTORS
330
C
102
}
330
C
100
AcDbDictionary
281
     1
  3
Standard
350
1A06
  0
DICTIONARY
  5
1025
102
{ACAD_REACTORS
330
C
102
}
330
C
100
AcDbDictionary
281
     1
  3
CTABLESTYLE
350
1A10
  3
SORTENTS
350
1026
  0
IMAGEDEF
  5
E59
102
{ACAD_REACTORS
330
E58
102
}
330
E58
100
AcDbRasterImageDef
 90
        0
  1
D:\ﾃｽﾄ\rogo01.TIF
 10
3388.0
 20
4668.0
 11
0.0635
 21
0.0635
280
     1
281
     5
  0
LAYOUT
  5
1A09
102
{ACAD_REACTORS
330
1A07
102
}
330
1A07
100
AcDbPlotSettings
  1

  2
A4 EPSON LP-6100.pc3
  4
A4
  6

 40
5.873749732971191
 41
5.873747825622558
 42
5.873748779296875
 43
5.873748779296875
 44
209.9733276367187
 45
297.0106506347656
 46
1.5
 47
25.0
 48
0.0
 49
0.0
140
0.0
141
0.0
142
1.0
143
1.0
 70
 28336
 72
     1
 73
     1
 74
     1
  7
AutoCAD LT 98.ctb
 75
    16
147
1.0
 76
     1
 77
     2
 78
   300
148
-236.47376829221
149
-171.6235136330668
100
AcDbLayout
  1
Model
 70
     1
 71
     0
 10
0.0
 20
0.0
 11
12.0
 21
9.0
 12
0.0
 22
0.0
 32
0.0
 14
0.0
 24
0.0
 34
0.0
 15
0.0
 25
0.0
 35
0.0
146
0.0
 13
0.0
 23
0.0
 33
0.0
 16
1.0
 26
0.0
 36
0.0
 17
0.0
 27
1.0
 37
0.0
 76
     0
330
18
1001
ACAD_PSEXT
1000
A4 EPSON LP-6100.pc3
1000
EPSON LP-6100
1000
USB002
1000

1070
     0
  0
LAYOUT
  5
1A0A
102
{ACAD_REACTORS
330
1A07
102
}
330
1A07
100
AcDbPlotSettings
  1

  2
C:\Documents and Settings\佐藤\Application Data\Autodesk\AutoCAD LT 2005\R10\jpn\plotters\PEACOCK EPSON LP-6100.pc3
  4

  6

 40
0.0
 41
0.0
 42
0.0
 43
0.0
 44
0.0
 45
0.0
 46
0.0
 47
0.0
 48
0.0
 49
0.0
140
0.0
141
0.0
142
1.0
143
1.0
 70
   688
 72
     0
 73
     0
 74
     5
  7
AutoCAD LT 98.ctb
 75
    16
147
1.0
 76
     0
 77
     2
 78
   300
148
0.0
149
0.0
100
AcDbLayout
  1
レイアウト1
 70
     1
 71
     1
 10
0.0
 20
0.0
 11
420.0
 21
297.0
 12
0.0
 22
0.0
 32
0.0
 14
1.000000000000000E+20
 24
1.000000000000000E+20
 34
1.000000000000000E+20
 15
-1.000000000000000E+20
 25
-1.000000000000000E+20
 35
-1.000000000000000E+20
146
0.0
 13
0.0
 23
0.0
 33
0.0
 16
1.0
 26
0.0
 36
0.0
 17
0.0
 27
1.0
 37
0.0
 76
     0
330
15
  0
MLINESTYLE
  5
1C
102
{ACAD_REACTORS
330
1B
102
}
330
1B
100
AcDbMlineStyle
  2
STANDARD
 70
     0
  3

 62
   256
 51
90.0
 52
90.0
 71
     2
 49
0.5
 62
   256
  6
BYLAYER
 49
-0.5
 62
   256
  6
BYLAYER
  0
ACDBPLACEHOLDER
  5
1A02
102
{ACAD_REACTORS
330
1A01
102
}
330
1A01
  0
ACAD_PROXY_OBJECT
  5
1A06
102
{ACAD_REACTORS
330
1A05
102
}
330
1A05
100
AcDbProxyObject
 90
      499
 91
      505
 95
  2555929
 70
     0
 93
     1849
310
4214DD185B99185C992420000000000000F83F0000000000003E0FC00000000000004901028000000C1008070000C3001FDFF8000000C1003FBFF000000182007F7FE00000030400FEFFC00000060801FDFF8000000C1003FBFF000000182000000000000000C2020B0000001820100E000186003FBFF000000182007F7FE0
310
0000030400FEFFC00000060801FDFF8000000C1003FBFF000000182007F7FE0000003040000000000000012404160000003040201C00030C007F7FE00000030400FEFFC00000060801FDFF8000000C1003FBFF000000182007F7FE00000030400FEFFC000000608000
340
F
340
F
340
F
 94
        0
  0
DICTIONARYVAR
  5
1A10
102
{ACAD_REACTORS
330
1025
102
}
330
1025
100
DictionaryVariables
280
     0
  1
STANDARD
  0
DICTIONARYVAR
  5
1026
102
{ACAD_REACTORS
330
1025
102
}
330
1025
100
DictionaryVariables
280
     0
  1
96
  0
ENDSEC
  0
EOF
