  0
SECTION
  2
HEADER
  9
$ACADVER
  1
AC1018
  9
$ACADMAINTVER
 70
     0
  9
$DWGCODEPAGE
  3
ANSI_932
  9
$INSBASE
 10
0.0
 20
0.0
 30
0.0
  9
$EXTMIN
 10
-0.2192307289083146
 20
-0.2136015531452813
 30
-1.000045764259152
  9
$EXTMAX
 10
255.2285122392454
 20
195.2214160090128
 30
0.0000457828865983
  9
$LIMMIN
 10
0.0
 20
0.0
  9
$LIMMAX
 10
420.0
 20
297.0
  9
$ORTHOMODE
 70
     0
  9
$REGENMODE
 70
     1
  9
$FILLMODE
 70
     1
  9
$QTEXTMODE
 70
     0
  9
$MIRRTEXT
 70
     1
  9
$LTSCALE
 40
1.0
  9
$ATTMODE
 70
     1
  9
$TEXTSIZE
 40
1.0
  9
$TRACEWID
 40
1.0
  9
$TEXTSTYLE
  7
STYLE3
  9
$CLAYER
  8
寸法線
  9
$CELTYPE
  6
BYLAYER
  9
$CECOLOR
 62
   256
  9
$CELTSCALE
 40
1.0
  9
$DISPSILH
 70
     0
  9
$DIMSCALE
 40
1.0
  9
$DIMASZ
 40
2.5
  9
$DIMEXO
 40
0.0
  9
$DIMDLI
 40
3.75
  9
$DIMRND
 40
0.0
  9
$DIMDLE
 40
0.0
  9
$DIMEXE
 40
1.25
  9
$DIMTP
 40
0.0
  9
$DIMTM
 40
0.0
  9
$DIMTXT
 40
2.5
  9
$DIMCEN
 40
2.5
  9
$DIMTSZ
 40
0.0
  9
$DIMTOL
 70
     0
  9
$DIMLIM
 70
     0
  9
$DIMTIH
 70
     0
  9
$DIMTOH
 70
     0
  9
$DIMSE1
 70
     0
  9
$DIMSE2
 70
     0
  9
$DIMTAD
 70
     1
  9
$DIMZIN
 70
     8
  9
$DIMBLK
  1

  9
$DIMASO
 70
     1
  9
$DIMSHO
 70
     1
  9
$DIMPOST
  1

  9
$DIMAPOST
  1

  9
$DIMALT
 70
     0
  9
$DIMALTD
 70
     4
  9
$DIMALTF
 40
0.0394
  9
$DIMLFAC
 40
1.0
  9
$DIMTOFL
 70
     1
  9
$DIMTVP
 40
0.0
  9
$DIMTIX
 70
     0
  9
$DIMSOXD
 70
     0
  9
$DIMSAH
 70
     1
  9
$DIMBLK1
  1
OPEN
  9
$DIMBLK2
  1
OPEN
  9
$DIMSTYLE
  2
STYLE3
  9
$DIMCLRD
 70
     2
  9
$DIMCLRE
 70
     2
  9
$DIMCLRT
 70
     6
  9
$DIMTFAC
 40
1.0
  9
$DIMGAP
 40
0.625
  9
$DIMJUST
 70
     0
  9
$DIMSD1
 70
     0
  9
$DIMSD2
 70
     0
  9
$DIMTOLJ
 70
     1
  9
$DIMTZIN
 70
     0
  9
$DIMALTZ
 70
     0
  9
$DIMALTTZ
 70
     0
  9
$DIMUPT
 70
     0
  9
$DIMDEC
 70
     2
  9
$DIMTDEC
 70
     4
  9
$DIMALTU
 70
     8
  9
$DIMALTTD
 70
     4
  9
$DIMTXSTY
  7
STYLE3
  9
$DIMAUNIT
 70
     0
  9
$DIMADEC
 70
     0
  9
$DIMALTRND
 40
0.0
  9
$DIMAZIN
 70
     0
  9
$DIMDSEP
 70
    46
  9
$DIMATFIT
 70
     3
  9
$DIMFRAC
 70
     0
  9
$DIMLDRBLK
  1

  9
$DIMLUNIT
 70
     2
  9
$DIMLWD
 70
    -2
  9
$DIMLWE
 70
    -2
  9
$DIMTMOVE
 70
     0
  9
$LUNITS
 70
     2
  9
$LUPREC
 70
     4
  9
$SKETCHINC
 40
1.0
  9
$FILLETRAD
 40
0.0
  9
$AUNITS
 70
     0
  9
$AUPREC
 70
     0
  9
$MENU
  1
.
  9
$ELEVATION
 40
0.0
  9
$PELEVATION
 40
0.0
  9
$THICKNESS
 40
0.0
  9
$LIMCHECK
 70
     0
  9
$CHAMFERA
 40
0.3
  9
$CHAMFERB
 40
0.3
  9
$CHAMFERC
 40
20.0
  9
$CHAMFERD
 40
0.0
  9
$SKPOLY
 70
     0
  9
$TDCREATE
 40
2451223.640404514
  9
$TDUCREATE
 40
2451223.265404514
  9
$TDUPDATE
 40
2455357.442077361
  9
$TDUUPDATE
 40
2455357.067077361
  9
$TDINDWG
 40
0.2509624074
  9
$TDUSRTIMER
 40
0.2509624074
  9
$USRTIMER
 70
     1
  9
$ANGBASE
 50
0.0
  9
$ANGDIR
 70
     0
  9
$PDMODE
 70
     0
  9
$PDSIZE
 40
0.0
  9
$PLINEWID
 40
0.0
  9
$SPLFRAME
 70
     0
  9
$SPLINETYPE
 70
     6
  9
$SPLINESEGS
 70
     8
  9
$HANDSEED
  5
D1C
  9
$SURFTAB1
 70
     6
  9
$SURFTAB2
 70
     6
  9
$SURFTYPE
 70
     6
  9
$SURFU
 70
     6
  9
$SURFV
 70
     6
  9
$UCSBASE
  2

  9
$UCSNAME
  2

  9
$UCSORG
 10
0.0
 20
0.0
 30
0.0
  9
$UCSXDIR
 10
1.0
 20
0.0
 30
0.0
  9
$UCSYDIR
 10
0.0
 20
1.0
 30
0.0
  9
$UCSORTHOREF
  2

  9
$UCSORTHOVIEW
 70
     0
  9
$UCSORGTOP
 10
0.0
 20
0.0
 30
0.0
  9
$UCSORGBOTTOM
 10
0.0
 20
0.0
 30
0.0
  9
$UCSORGLEFT
 10
0.0
 20
0.0
 30
0.0
  9
$UCSORGRIGHT
 10
0.0
 20
0.0
 30
0.0
  9
$UCSORGFRONT
 10
0.0
 20
0.0
 30
0.0
  9
$UCSORGBACK
 10
0.0
 20
0.0
 30
0.0
  9
$PUCSBASE
  2

  9
$PUCSNAME
  2

  9
$PUCSORG
 10
0.0
 20
0.0
 30
0.0
  9
$PUCSXDIR
 10
1.0
 20
0.0
 30
0.0
  9
$PUCSYDIR
 10
0.0
 20
1.0
 30
0.0
  9
$PUCSORTHOREF
  2

  9
$PUCSORTHOVIEW
 70
     0
  9
$PUCSORGTOP
 10
0.0
 20
0.0
 30
0.0
  9
$PUCSORGBOTTOM
 10
0.0
 20
0.0
 30
0.0
  9
$PUCSORGLEFT
 10
0.0
 20
0.0
 30
0.0
  9
$PUCSORGRIGHT
 10
0.0
 20
0.0
 30
0.0
  9
$PUCSORGFRONT
 10
0.0
 20
0.0
 30
0.0
  9
$PUCSORGBACK
 10
0.0
 20
0.0
 30
0.0
  9
$USERI1
 70
     0
  9
$USERI2
 70
     0
  9
$USERI3
 70
     0
  9
$USERI4
 70
     0
  9
$USERI5
 70
     0
  9
$USERR1
 40
0.0
  9
$USERR2
 40
0.0
  9
$USERR3
 40
0.0
  9
$USERR4
 40
0.0
  9
$USERR5
 40
0.0
  9
$WORLDVIEW
 70
     1
  9
$SHADEDGE
 70
     3
  9
$SHADEDIF
 70
    70
  9
$TILEMODE
 70
     1
  9
$MAXACTVP
 70
    48
  9
$PINSBASE
 10
0.0
 20
0.0
 30
0.0
  9
$PLIMCHECK
 70
     0
  9
$PEXTMIN
 10
-0.2
 20
-0.2
 30
0.0
  9
$PEXTMAX
 10
255.2
 20
195.2
 30
0.0
  9
$PLIMMIN
 10
0.0
 20
0.0
  9
$PLIMMAX
 10
420.0
 20
297.0
  9
$UNITMODE
 70
     0
  9
$VISRETAIN
 70
     1
  9
$PLINEGEN
 70
     0
  9
$PSLTSCALE
 70
     1
  9
$TREEDEPTH
 70
  3020
  9
$CMLSTYLE
  2
STANDARD
  9
$CMLJUST
 70
     0
  9
$CMLSCALE
 40
20.0
  9
$PROXYGRAPHICS
 70
     1
  9
$MEASUREMENT
 70
     1
  9
$CELWEIGHT
370
    -1
  9
$ENDCAPS
280
     0
  9
$JOINSTYLE
280
     0
  9
$LWDISPLAY
290
     0
  9
$INSUNITS
 70
     0
  9
$HYPERLINKBASE
  1

  9
$STYLESHEET
  1
AutoCAD LT 98.ctb
  9
$XEDIT
290
     1
  9
$CEPSNTYPE
380
     0
  9
$PSTYLEMODE
290
     1
  9
$FINGERPRINTGUID
  2
{292C7771-5A16-4A82-A96D-347EFF8D5EFB}
  9
$VERSIONGUID
  2
{8D7AB85F-8BBA-4B09-8479-27C96C6F2FC5}
  9
$EXTNAMES
290
     1
  9
$PSVPSCALE
 40
0.0
  9
$OLESTARTUP
290
     0
  9
$SORTENTS
280
    96
  9
$INDEXCTL
280
     0
  9
$HIDETEXT
280
     0
  9
$XCLIPFRAME
290
     0
  9
$HALOGAP
280
     0
  9
$OBSCOLOR
 70
   257
  9
$OBSLTYPE
280
     0
  9
$INTERSECTIONDISPLAY
280
     0
  9
$INTERSECTIONCOLOR
 70
   257
  9
$DIMASSOC
280
     1
  9
$PROJECTNAME
  1

  0
ENDSEC
  0
SECTION
  2
CLASSES
  0
CLASS
  1
HATCH
  2
AcDbHatch
  3
ObjectDBX Classes
 90
        0
 91
       12
280
     0
281
     1
  0
CLASS
  1
DICTIONARYVAR
  2
AcDbDictionaryVar
  3
ObjectDBX Classes
 90
        0
 91
        2
280
     0
281
     0
  0
CLASS
  1
ACDBDICTIONARYWDFLT
  2
AcDbDictionaryWithDefault
  3
ObjectDBX Classes
 90
        0
 91
        1
280
     0
281
     0
  0
CLASS
  1
TABLESTYLE
  2
AcDbTableStyle
  3
ObjectDBX Classes
 90
     2047
 91
        1
280
     0
281
     0
  0
CLASS
  1
SORTENTSTABLE
  2
AcDbSortentsTable
  3
ObjectDBX Classes
 90
        0
 91
        0
280
     0
281
     0
  0
ENDSEC
  0
SECTION
  2
TABLES
  0
TABLE
  2
VPORT
  5
8
330
0
100
AcDbSymbolTable
 70
     3
  0
VPORT
  5
D1B
330
8
100
AcDbSymbolTableRecord
100
AcDbViewportTableRecord
  2
*Active
 70
     0
 10
0.0
 20
0.0
 11
1.0
 21
1.0
 12
127.5046407551685
 22
97.50390722793376
 13
0.0
 23
0.0
 14
10.0
 24
10.0
 15
10.0
 25
10.0
 16
0.0
 26
0.0
 36
1.0
 17
0.0
 27
0.0
 37
0.0
 40
196.9212154143418
 41
1.530456852791878
 42
50.0
 43
0.0
 44
0.0
 50
0.0
 51
0.0
 71
     0
 72
   100
 73
     1
 74
     1
 75
     0
 76
     0
 77
     0
 78
     0
281
     0
 65
     1
110
0.0
120
0.0
130
0.0
111
1.0
121
0.0
131
0.0
112
0.0
122
1.0
132
0.0
 79
     0
146
0.0
  0
ENDTAB
  0
TABLE
  2
LTYPE
  5
5
330
0
100
AcDbSymbolTable
 70
     4
  0
LTYPE
  5
12
330
5
100
AcDbSymbolTableRecord
100
AcDbLinetypeTableRecord
  2
BYBLOCK
 70
     0
  3

 72
    65
 73
     0
 40
0.0
  0
LTYPE
  5
13
330
5
100
AcDbSymbolTableRecord
100
AcDbLinetypeTableRecord
  2
BYLAYER
 70
     0
  3

 72
    65
 73
     0
 40
0.0
  0
LTYPE
  5
14
330
5
100
AcDbSymbolTableRecord
100
AcDbLinetypeTableRecord
  2
CONTINUOUS
 70
     0
  3
Solid line
 72
    65
 73
     0
 40
0.0
  0
LTYPE
  5
22
330
5
100
AcDbSymbolTableRecord
100
AcDbLinetypeTableRecord
  2
CENTER2
 70
     0
  3
Center (.5x) ___ _ ___ _ ___ _ ___ _ ___ _ ___
 72
    65
 73
     4
 40
28.575
 49
19.05
 74
     0
 49
-3.174999999999999
 74
     0
 49
3.174999999999999
 74
     0
 49
-3.174999999999999
 74
     0
  0
LTYPE
  5
908
330
5
100
AcDbSymbolTableRecord
100
AcDbLinetypeTableRecord
  2
PHANTOM2
 70
     0
  3
Phantom (.5x) ___ _ _ ___ _ _ ___ _ _ ___ _ _
 72
    65
 73
     6
 40
31.75
 49
15.875
 74
     0
 49
-3.174999999999999
 74
     0
 49
3.174999999999999
 74
     0
 49
-3.174999999999999
 74
     0
 49
3.174999999999999
 74
     0
 49
-3.174999999999999
 74
     0
  0
ENDTAB
  0
TABLE
  2
LAYER
  5
2
330
0
100
AcDbSymbolTable
 70
    16
  0
LAYER
  5
E
330
2
100
AcDbSymbolTableRecord
100
AcDbLayerTableRecord
  2
0
 70
     0
 62
     7
  6
CONTINUOUS
370
    -3
390
921
  0
LAYER
  5
25
330
2
100
AcDbSymbolTableRecord
100
AcDbLayerTableRecord
  2
外形線
 70
     0
 62
     7
  6
CONTINUOUS
370
    -3
390
921
  0
LAYER
  5
27
330
2
100
AcDbSymbolTableRecord
100
AcDbLayerTableRecord
  2
中心線
 70
     0
 62
     4
  6
CENTER2
370
    -3
390
921
  0
LAYER
  5
2A
330
2
100
AcDbSymbolTableRecord
100
AcDbLayerTableRecord
  2
ﾊｯﾁﾝｸ
 70
     0
 62
     4
  6
CONTINUOUS
370
    -3
390
921
  0
LAYER
  5
2B
330
2
100
AcDbSymbolTableRecord
100
AcDbLayerTableRecord
  2
文字
 70
     0
 62
     6
  6
CONTINUOUS
370
    -3
390
921
  0
LAYER
  5
2C
330
2
100
AcDbSymbolTableRecord
100
AcDbLayerTableRecord
  2
目盛
 70
     0
 62
    70
  6
CONTINUOUS
370
    -3
390
921
  0
LAYER
  5
2D
330
2
100
AcDbSymbolTableRecord
100
AcDbLayerTableRecord
  2
針
 70
     0
 62
     5
  6
CONTINUOUS
370
    -3
390
921
  0
LAYER
  5
53
330
2
100
AcDbSymbolTableRecord
100
AcDbLayerTableRecord
  2
DEFPOINTS
 70
     0
 62
     7
  6
CONTINUOUS
290
     0
370
    -3
390
921
  0
LAYER
  5
A5
330
2
100
AcDbSymbolTableRecord
100
AcDbLayerTableRecord
  2
C
 70
     0
 62
     7
  6
CONTINUOUS
370
    -3
390
921
  0
LAYER
  5
5B5
330
2
100
AcDbSymbolTableRecord
100
AcDbLayerTableRecord
  2
ROGO
 70
     0
 62
     6
  6
CONTINUOUS
370
    -3
390
921
  0
LAYER
  5
909
330
2
100
AcDbSymbolTableRecord
100
AcDbLayerTableRecord
  2
寸法線
 70
     0
 62
     2
  6
CONTINUOUS
370
    -3
390
921
  0
LAYER
  5
90B
330
2
100
AcDbSymbolTableRecord
100
AcDbLayerTableRecord
  2
想像線
 70
     0
 62
     1
  6
PHANTOM2
370
    -3
390
921
  0
ENDTAB
  0
TABLE
  2
STYLE
  5
3
330
0
100
AcDbSymbolTable
 70
     3
  0
STYLE
  5
F
330
3
100
AcDbSymbolTableRecord
100
AcDbTextStyleTableRecord
  2
STANDARD
 70
     0
 40
0.0
 41
1.0
 50
0.0
 71
     0
 42
2.5
  3
txt
  4

  0
STYLE
  5
3F
330
3
100
AcDbSymbolTableRecord
100
AcDbTextStyleTableRecord
  2
STYLE3
 70
     0
 40
0.0
 41
1.0
 50
0.0
 71
     0
 42
1.0
  3
romans.shx
  4
bigfont.shx
  0
ENDTAB
  0
TABLE
  2
VIEW
  5
6
330
0
100
AcDbSymbolTable
 70
     0
  0
ENDTAB
  0
TABLE
  2
UCS
  5
7
330
0
100
AcDbSymbolTable
 70
     0
  0
ENDTAB
  0
TABLE
  2
APPID
  5
9
330
0
100
AcDbSymbolTable
 70
     2
  0
APPID
  5
10
330
9
100
AcDbSymbolTableRecord
100
AcDbRegAppTableRecord
  2
ACAD
 70
     0
  0
APPID
  5
97A
330
9
100
AcDbSymbolTableRecord
100
AcDbRegAppTableRecord
  2
ACAD_PSEXT
 70
     0
  0
ENDTAB
  0
TABLE
  2
DIMSTYLE
  5
A
330
0
100
AcDbSymbolTable
 70
     3
100
AcDbDimStyleTable
 71
     1
340
8F
  0
DIMSTYLE
105
1D
330
A
100
AcDbSymbolTableRecord
100
AcDbDimStyleTableRecord
  2
STANDARD
 70
     0
 41
2.5
 42
0.625
 43
3.75
 44
1.25
 73
     0
 74
     0
 77
     1
 78
     8
140
2.5
141
2.5
143
0.0394
147
0.625
171
     4
172
     1
273
     8
274
     4
277
     6
340
F
  0
DIMSTYLE
105
8F
102
{ACAD_REACTORS
330
B58
330
BF1
330
BFE
330
C14
330
C23
330
C32
102
}
330
A
100
AcDbSymbolTableRecord
100
AcDbDimStyleTableRecord
  2
STYLE3
 70
     0
 41
2.5
 42
0.0
 43
3.75
 44
1.25
 73
     0
 74
     0
 77
     1
 78
     8
140
2.5
141
2.5
143
0.0394
147
0.625
171
     4
172
     1
173
     1
176
     2
177
     2
178
     6
271
     1
273
     8
274
     4
340
3F
341
45
343
45
344
45
  0
ENDTAB
  0
TABLE
  2
BLOCK_RECORD
  5
1
330
0
100
AcDbSymbolTable
 70
     9
  0
BLOCK_RECORD
  5
18
330
1
100
AcDbSymbolTableRecord
100
AcDbBlockTableRecord
  2
*MODEL_SPACE
340
928
  0
BLOCK_RECORD
  5
15
330
1
100
AcDbSymbolTableRecord
100
AcDbBlockTableRecord
  2
*PAPER_SPACE
340
929
  0
BLOCK_RECORD
  5
45
330
1
100
AcDbSymbolTableRecord
100
AcDbBlockTableRecord
  2
_OPEN
340
0
102
{BLKREFS
331
772
331
773
331
780
331
781
331
78D
331
78E
331
795
331
796
331
7EF
331
7F0
331
814
331
815
331
82F
331
830
331
84D
331
84E
331
855
331
856
331
85E
331
85F
331
8B9
331
8BA
331
8C2
331
8C3
331
CDD
331
CDE
331
CE6
331
CE7
331
CEF
331
CF0
331
CFA
331
CFB
331
D03
331
D04
331
D0E
331
D0F
102
}
  0
BLOCK_RECORD
  5
B99
330
1
100
AcDbSymbolTableRecord
100
AcDbBlockTableRecord
  2
*D1
340
0
  0
BLOCK_RECORD
  5
BF2
330
1
100
AcDbSymbolTableRecord
100
AcDbBlockTableRecord
  2
*D2
340
0
  0
BLOCK_RECORD
  5
BFF
330
1
100
AcDbSymbolTableRecord
100
AcDbBlockTableRecord
  2
*D3
340
0
  0
BLOCK_RECORD
  5
C15
330
1
100
AcDbSymbolTableRecord
100
AcDbBlockTableRecord
  2
*D4
340
0
  0
BLOCK_RECORD
  5
C24
330
1
100
AcDbSymbolTableRecord
100
AcDbBlockTableRecord
  2
*D5
340
0
  0
BLOCK_RECORD
  5
C33
330
1
100
AcDbSymbolTableRecord
100
AcDbBlockTableRecord
  2
*D6
340
0
  0
ENDTAB
  0
ENDSEC
  0
SECTION
  2
BLOCKS
  0
BLOCK
  5
19
330
18
100
AcDbEntity
  8
0
100
AcDbBlockBegin
  2
*MODEL_SPACE
 70
     0
 10
0.0
 20
0.0
 30
0.0
  3
*MODEL_SPACE
  1

  0
ENDBLK
  5
1A
330
18
100
AcDbEntity
  8
0
100
AcDbBlockEnd
  0
BLOCK
  5
16
330
15
100
AcDbEntity
 67
     1
  8
0
100
AcDbBlockBegin
  2
*PAPER_SPACE
 70
     0
 10
0.0
 20
0.0
 30
0.0
  3
*PAPER_SPACE
  1

  0
ENDBLK
  5
17
330
15
100
AcDbEntity
 67
     1
  8
0
100
AcDbBlockEnd
  0
BLOCK
  5
46
330
45
100
AcDbEntity
  8
0
100
AcDbBlockBegin
  2
_OPEN
 70
     0
 10
0.0
 20
0.0
 30
0.0
  3
_OPEN
  1

  0
LINE
  5
47
330
45
100
AcDbEntity
  8
0
  6
ByBlock
 62
     0
100
AcDbLine
 10
-1.0
 20
0.1666666666666666
 30
0.0
 11
0.0
 21
0.0
 31
0.0
  0
LINE
  5
48
330
45
100
AcDbEntity
  8
0
  6
ByBlock
 62
     0
100
AcDbLine
 10
0.0
 20
0.0
 30
0.0
 11
-1.0
 21
-0.1666666666666666
 31
0.0
  0
LINE
  5
49
330
45
100
AcDbEntity
  8
0
  6
ByBlock
 62
     0
100
AcDbLine
 10
0.0
 20
0.0
 30
0.0
 11
-1.0
 21
0.0
 31
0.0
  0
ENDBLK
  5
4A
330
45
100
AcDbEntity
  8
0
100
AcDbBlockEnd
  0
BLOCK
  5
BA3
330
B99
100
AcDbEntity
  8
0
100
AcDbBlockBegin
  2
*D1
 70
     1
 10
0.0
 20
0.0
 30
0.0
  3
*D1
  1

  0
LINE
  5
CEC
330
B99
100
AcDbEntity
  8
寸法線
 62
     2
370
    -2
100
AcDbLine
 10
113.4983411875732
 20
50.19730418256489
 30
0.0
 11
98.71750636627963
 21
50.19730418256489
 31
0.0
  0
LINE
  5
CED
330
B99
100
AcDbEntity
  8
寸法線
 62
     2
370
    -2
100
AcDbLine
 10
113.4983411875732
 20
58.19730418256489
 30
0.0
 11
98.71750636627963
 21
58.1973041825649
 31
0.0
  0
LINE
  5
CEE
330
B99
100
AcDbEntity
  8
寸法線
 62
     2
370
    -2
100
AcDbLine
 10
99.96750636627963
 20
52.69730418256489
 30
0.0
 11
99.96750636627963
 21
55.6973041825649
 31
0.0
  0
INSERT
  5
CEF
330
B99
100
AcDbEntity
  8
寸法線
 62
     2
370
    -2
100
AcDbBlockReference
  2
_OPEN
 10
99.96750636627963
 20
50.19730418256489
 30
0.0
 41
2.5
 42
2.5
 43
2.5
 50
270.0
  0
INSERT
  5
CF0
330
B99
100
AcDbEntity
  8
寸法線
 62
     2
370
    -2
100
AcDbBlockReference
  2
_OPEN
 10
99.96750636627963
 20
58.1973041825649
 30
0.0
 41
2.5
 42
2.5
 43
2.5
 50
90.0
  0
MTEXT
  5
CF1
330
B99
100
AcDbEntity
  8
寸法線
 62
     6
100
AcDbMText
 10
98.09250636627961
 20
54.19730418256492
 30
0.0
 40
2.5
 41
0.0
 71
     5
 72
     1
  1
\A1;8
  7
STYLE3
 11
0.0000000000000001
 21
1.0
 31
0.0
 73
     1
 44
1.0
  0
POINT
  5
CF2
330
B99
100
AcDbEntity
  8
DEFPOINTS
 62
     0
100
AcDbPoint
 10
113.4983411875732
 20
50.19730418256489
 30
0.0
  0
POINT
  5
CF3
330
B99
100
AcDbEntity
  8
DEFPOINTS
 62
     0
100
AcDbPoint
 10
113.4983411875732
 20
58.19730418256489
 30
0.0
  0
POINT
  5
CF4
330
B99
100
AcDbEntity
  8
DEFPOINTS
 62
     0
100
AcDbPoint
 10
99.96750636627963
 20
58.1973041825649
 30
0.0
  0
ENDBLK
  5
BA4
330
B99
100
AcDbEntity
  8
0
100
AcDbBlockEnd
  0
BLOCK
  5
BFC
330
BF2
100
AcDbEntity
  8
0
100
AcDbBlockBegin
  2
*D2
 70
     1
 10
0.0
 20
0.0
 30
0.0
  3
*D2
  1

  0
LINE
  5
CE3
330
BF2
100
AcDbEntity
  8
寸法線
 62
     2
370
    -2
100
AcDbLine
 10
119.2983411875732
 20
124.7850477637223
 30
0.0
 11
119.2983411875732
 21
128.8138375693589
 31
0.0
  0
LINE
  5
CE4
330
BF2
100
AcDbEntity
  8
寸法線
 62
     2
370
    -2
100
AcDbLine
 10
107.4983411875732
 20
129.3379877172897
 30
0.0
 11
107.4983411875732
 21
126.3138375693589
 31
0.0
  0
LINE
  5
CE5
330
BF2
100
AcDbEntity
  8
寸法線
 62
     2
370
    -2
100
AcDbLine
 10
116.7983411875732
 20
127.5638375693589
 30
0.0
 11
109.9983411875732
 21
127.5638375693589
 31
0.0
  0
INSERT
  5
CE6
330
BF2
100
AcDbEntity
  8
寸法線
 62
     2
370
    -2
100
AcDbBlockReference
  2
_OPEN
 10
119.2983411875732
 20
127.5638375693589
 30
0.0
 41
2.5
 42
2.5
 43
2.5
  0
INSERT
  5
CE7
330
BF2
100
AcDbEntity
  8
寸法線
 62
     2
370
    -2
100
AcDbBlockReference
  2
_OPEN
 10
107.4983411875732
 20
127.5638375693589
 30
0.0
 41
2.5
 42
2.5
 43
2.5
 50
180.0
  0
MTEXT
  5
CE8
330
BF2
100
AcDbEntity
  8
寸法線
 62
     6
100
AcDbMText
 10
113.3983411875732
 20
129.4388375693589
 30
0.0
 40
2.5
 41
0.0
 71
     5
 72
     1
  1
\A1;11.8
  7
STYLE3
 73
     1
 44
1.0
  0
POINT
  5
CE9
330
BF2
100
AcDbEntity
  8
DEFPOINTS
 62
     0
100
AcDbPoint
 10
119.2983411875732
 20
124.7850477637223
 30
0.0
  0
POINT
  5
CEA
330
BF2
100
AcDbEntity
  8
DEFPOINTS
 62
     0
100
AcDbPoint
 10
107.4983411875732
 20
129.3379877172897
 30
0.0
  0
POINT
  5
CEB
330
BF2
100
AcDbEntity
  8
DEFPOINTS
 62
     0
100
AcDbPoint
 10
107.4983411875732
 20
127.5638375693589
 30
0.0
  0
ENDBLK
  5
BFD
330
BF2
100
AcDbEntity
  8
0
100
AcDbBlockEnd
  0
BLOCK
  5
C09
330
BFF
100
AcDbEntity
  8
0
100
AcDbBlockBegin
  2
*D3
 70
     1
 10
0.0
 20
0.0
 30
0.0
  3
*D3
  1

  0
LINE
  5
D00
330
BFF
100
AcDbEntity
  8
寸法線
 62
     2
370
    -2
100
AcDbLine
 10
108.4983411875732
 20
121.2850477637223
 30
0.0
 11
63.16576583004032
 21
121.2850477637223
 31
0.0
  0
LINE
  5
D01
330
BFF
100
AcDbEntity
  8
寸法線
 62
     2
370
    -2
100
AcDbLine
 10
108.4983411875732
 20
91.28504776372233
 30
0.0
 11
63.16576583004031
 21
91.28504776372235
 31
0.0
  0
LINE
  5
D02
330
BFF
100
AcDbEntity
  8
寸法線
 62
     2
370
    -2
100
AcDbLine
 10
64.41576583004032
 20
118.7850477637223
 30
0.0
 11
64.4157658300403
 21
93.78504776372235
 31
0.0
  0
INSERT
  5
D03
330
BFF
100
AcDbEntity
  8
寸法線
 62
     2
370
    -2
100
AcDbBlockReference
  2
_OPEN
 10
64.41576583004032
 20
121.2850477637223
 30
0.0
 41
2.5
 42
2.5
 43
2.5
 50
90.0
  0
INSERT
  5
D04
330
BFF
100
AcDbEntity
  8
寸法線
 62
     2
370
    -2
100
AcDbBlockReference
  2
_OPEN
 10
64.4157658300403
 20
91.28504776372235
 30
0.0
 41
2.5
 42
2.5
 43
2.5
 50
270.0
  0
MTEXT
  5
D05
330
BFF
100
AcDbEntity
  8
寸法線
 62
     6
100
AcDbMText
 10
62.54076583004029
 20
106.2850477637223
 30
0.0
 40
2.5
 41
0.0
 71
     5
 72
     1
  1
\A1;φ30
  7
STYLE3
 11
0.0000000000000001
 21
1.0
 31
0.0
 73
     1
 44
1.0
  0
POINT
  5
D06
330
BFF
100
AcDbEntity
  8
DEFPOINTS
 62
     0
100
AcDbPoint
 10
108.4983411875732
 20
121.2850477637223
 30
0.0
  0
POINT
  5
D07
330
BFF
100
AcDbEntity
  8
DEFPOINTS
 62
     0
100
AcDbPoint
 10
108.4983411875732
 20
91.28504776372233
 30
0.0
  0
POINT
  5
D08
330
BFF
100
AcDbEntity
  8
DEFPOINTS
 62
     0
100
AcDbPoint
 10
64.4157658300403
 20
91.28504776372235
 30
0.0
  0
ENDBLK
  5
C0A
330
BFF
100
AcDbEntity
  8
0
100
AcDbBlockEnd
  0
BLOCK
  5
C21
330
C15
100
AcDbEntity
  8
0
100
AcDbBlockBegin
  2
*D4
 70
     1
 10
0.0
 20
0.0
 30
0.0
  3
*D4
  1

  0
LINE
  5
D09
330
C15
100
AcDbEntity
  8
寸法線
 62
     2
370
    -2
100
AcDbLine
 10
109.9933411875732
 20
90.28504776372235
 30
0.0
 11
99.29952078720681
 21
90.28504776372235
 31
0.0
  0
LINE
  5
D0A
330
C15
100
AcDbEntity
  8
寸法線
 62
     2
370
    -2
100
AcDbLine
 10
101.0566610960125
 20
91.28504776372233
 30
0.0
 11
99.29952078720681
 21
91.28504776372233
 31
0.0
  0
LINE
  5
D0B
330
C15
100
AcDbEntity
  8
寸法線
 62
     2
370
    -2
100
AcDbLine
 10
100.5495207872068
 20
87.78504776372235
 30
0.0
 11
100.5495207872068
 21
85.28504776372235
 31
0.0
  0
LINE
  5
D0C
330
C15
100
AcDbEntity
  8
寸法線
 62
     2
370
    -2
100
AcDbLine
 10
100.5495207872068
 20
93.78504776372233
 30
0.0
 11
100.5495207872068
 21
98.13028585896043
 31
0.0
  0
LINE
  5
D0D
330
C15
100
AcDbEntity
  8
寸法線
 62
     2
370
    -2
100
AcDbLine
 10
100.5495207872068
 20
90.28504776372235
 30
0.0
 11
100.5495207872068
 21
91.28504776372233
 31
0.0
  0
INSERT
  5
D0E
330
C15
100
AcDbEntity
  8
寸法線
 62
     2
370
    -2
100
AcDbBlockReference
  2
_OPEN
 10
100.5495207872068
 20
90.28504776372235
 30
0.0
 41
2.5
 42
2.5
 43
2.5
 50
90.0
  0
INSERT
  5
D0F
330
C15
100
AcDbEntity
  8
寸法線
 62
     2
370
    -2
100
AcDbBlockReference
  2
_OPEN
 10
100.5495207872068
 20
91.28504776372233
 30
0.0
 41
2.5
 42
2.5
 43
2.5
 50
270.0
  0
MTEXT
  5
D10
330
C15
100
AcDbEntity
  8
寸法線
 62
     6
100
AcDbMText
 10
98.67452078720679
 20
97.20766681134142
 30
0.0
 40
2.5
 41
0.0
 71
     5
 72
     1
  1
\A1;1
  7
STYLE3
 11
0.0000000000000001
 21
1.0
 31
0.0
 73
     1
 44
1.0
  0
POINT
  5
D11
330
C15
100
AcDbEntity
  8
DEFPOINTS
 62
     0
100
AcDbPoint
 10
109.9933411875732
 20
90.28504776372235
 30
0.0
  0
POINT
  5
D12
330
C15
100
AcDbEntity
  8
DEFPOINTS
 62
     0
100
AcDbPoint
 10
101.0566610960125
 20
91.28504776372233
 30
0.0
  0
POINT
  5
D13
330
C15
100
AcDbEntity
  8
DEFPOINTS
 62
     0
100
AcDbPoint
 10
100.5495207872068
 20
91.28504776372233
 30
0.0
  0
ENDBLK
  5
C22
330
C15
100
AcDbEntity
  8
0
100
AcDbBlockEnd
  0
BLOCK
  5
C30
330
C24
100
AcDbEntity
  8
0
100
AcDbBlockBegin
  2
*D5
 70
     1
 10
0.0
 20
0.0
 30
0.0
  3
*D5
  1

  0
LINE
  5
CF5
330
C24
100
AcDbEntity
  8
寸法線
 62
     2
370
    -2
100
AcDbLine
 10
93.39834118757327
 20
106.7850477637223
 30
0.0
 11
93.39834118757327
 21
98.94123543915164
 31
0.0
  0
LINE
  5
CF6
330
C24
100
AcDbEntity
  8
寸法線
 62
     2
370
    -2
100
AcDbLine
 10
88.89834118757326
 20
107.8850477637223
 30
0.0
 11
88.89834118757326
 21
98.94123543915164
 31
0.0
  0
LINE
  5
CF7
330
C24
100
AcDbEntity
  8
寸法線
 62
     2
370
    -2
100
AcDbLine
 10
95.89834118757327
 20
100.1912354391516
 30
0.0
 11
98.39834118757327
 21
100.1912354391516
 31
0.0
  0
LINE
  5
CF8
330
C24
100
AcDbEntity
  8
寸法線
 62
     2
370
    -2
100
AcDbLine
 10
86.39834118757326
 20
100.1912354391516
 30
0.0
 11
77.41024594947802
 21
100.1912354391516
 31
0.0
  0
LINE
  5
CF9
330
C24
100
AcDbEntity
  8
寸法線
 62
     2
370
    -2
100
AcDbLine
 10
93.39834118757327
 20
100.1912354391516
 30
0.0
 11
88.89834118757326
 21
100.1912354391516
 31
0.0
  0
INSERT
  5
CFA
330
C24
100
AcDbEntity
  8
寸法線
 62
     2
370
    -2
100
AcDbBlockReference
  2
_OPEN
 10
93.39834118757327
 20
100.1912354391516
 30
0.0
 41
2.5
 42
2.5
 43
2.5
 50
180.0
  0
INSERT
  5
CFB
330
C24
100
AcDbEntity
  8
寸法線
 62
     2
370
    -2
100
AcDbBlockReference
  2
_OPEN
 10
88.89834118757326
 20
100.1912354391516
 30
0.0
 41
2.5
 42
2.5
 43
2.5
  0
MTEXT
  5
CFC
330
C24
100
AcDbEntity
  8
寸法線
 62
     6
100
AcDbMText
 10
80.65429356852565
 20
102.0662354391516
 30
0.0
 40
2.5
 41
0.0
 71
     5
 72
     1
  1
\A1;4.5
  7
STYLE3
 73
     1
 44
1.0
  0
POINT
  5
CFD
330
C24
100
AcDbEntity
  8
DEFPOINTS
 62
     0
100
AcDbPoint
 10
93.39834118757327
 20
106.7850477637223
 30
0.0
  0
POINT
  5
CFE
330
C24
100
AcDbEntity
  8
DEFPOINTS
 62
     0
100
AcDbPoint
 10
88.89834118757326
 20
107.8850477637223
 30
0.0
  0
POINT
  5
CFF
330
C24
100
AcDbEntity
  8
DEFPOINTS
 62
     0
100
AcDbPoint
 10
88.89834118757326
 20
100.1912354391516
 30
0.0
  0
ENDBLK
  5
C31
330
C24
100
AcDbEntity
  8
0
100
AcDbBlockEnd
  0
BLOCK
  5
C3D
330
C33
100
AcDbEntity
  8
0
100
AcDbBlockBegin
  2
*D6
 70
     1
 10
0.0
 20
0.0
 30
0.0
  3
*D6
  1

  0
LINE
  5
CDA
330
C33
100
AcDbEntity
  8
寸法線
 62
     2
370
    -2
100
AcDbLine
 10
109.4933411875732
 20
90.78504776372234
 30
0.0
 11
109.4933411875732
 21
79.0454083237509
 31
0.0
  0
LINE
  5
CDB
330
C33
100
AcDbEntity
  8
寸法線
 62
     2
370
    -2
100
AcDbLine
 10
119.2983411875732
 20
87.78504776372233
 30
0.0
 11
119.2983411875732
 21
79.0454083237509
 31
0.0
  0
LINE
  5
CDC
330
C33
100
AcDbEntity
  8
寸法線
 62
     2
370
    -2
100
AcDbLine
 10
111.9933411875732
 20
80.2954083237509
 30
0.0
 11
116.7983411875732
 21
80.2954083237509
 31
0.0
  0
INSERT
  5
CDD
330
C33
100
AcDbEntity
  8
寸法線
 62
     2
370
    -2
100
AcDbBlockReference
  2
_OPEN
 10
109.4933411875732
 20
80.2954083237509
 30
0.0
 41
2.5
 42
2.5
 43
2.5
 50
180.0
  0
INSERT
  5
CDE
330
C33
100
AcDbEntity
  8
寸法線
 62
     2
370
    -2
100
AcDbBlockReference
  2
_OPEN
 10
119.2983411875732
 20
80.2954083237509
 30
0.0
 41
2.5
 42
2.5
 43
2.5
  0
MTEXT
  5
CDF
330
C33
100
AcDbEntity
  8
寸法線
 62
     6
100
AcDbMText
 10
114.3958411875732
 20
82.1704083237509
 30
0.0
 40
2.5
 41
0.0
 71
     5
 72
     1
  1
\A1;9.8
  7
STYLE3
 73
     1
 44
1.0
  0
POINT
  5
CE0
330
C33
100
AcDbEntity
  8
DEFPOINTS
 62
     0
100
AcDbPoint
 10
109.4933411875732
 20
90.78504776372234
 30
0.0
  0
POINT
  5
CE1
330
C33
100
AcDbEntity
  8
DEFPOINTS
 62
     0
100
AcDbPoint
 10
119.2983411875732
 20
87.78504776372233
 30
0.0
  0
POINT
  5
CE2
330
C33
100
AcDbEntity
  8
DEFPOINTS
 62
     0
100
AcDbPoint
 10
119.2983411875732
 20
80.2954083237509
 30
0.0
  0
ENDBLK
  5
C3E
330
C33
100
AcDbEntity
  8
0
100
AcDbBlockEnd
  0
ENDSEC
  0
SECTION
  2
ENTITIES
  0
LWPOLYLINE
  5
26C
330
18
100
AcDbEntity
  8
C
100
AcDbPolyline
 90
        5
 70
     0
 43
0.4
 10
0.0
 20
195.0
 10
255.0
 20
195.0
 10
255.0
 20
0.0
 10
0.0
 20
0.0
 10
0.0
 20
195.0
  0
LINE
  5
2C7
330
18
100
AcDbEntity
  8
中心線
 48
0.5
100
AcDbLine
 10
103.1228299955057
 20
106.2850477637223
 30
0.0
 11
131.7206278776394
 21
106.2850477637223
 31
0.0
  0
LINE
  5
2C8
330
18
100
AcDbEntity
  8
中心線
 48
0.5
100
AcDbLine
 10
113.4983411875732
 20
124.1975533581991
 30
0.0
 11
113.4983411875732
 21
87.58292251442867
 31
0.0
  0
LINE
  5
2CB
330
18
100
AcDbEntity
  8
外形線
100
AcDbLine
 10
108.4983411875732
 20
121.2850477637223
 30
0.0
 11
119.2983411875732
 21
121.2850477637223
 31
0.0
  0
LINE
  5
2CC
330
18
100
AcDbEntity
  8
外形線
100
AcDbLine
 10
108.4983411875732
 20
91.28504776372233
 30
0.0
 11
119.2983411875732
 21
91.28504776372235
 31
0.0
  0
LINE
  5
2CD
330
18
100
AcDbEntity
  8
外形線
100
AcDbLine
 10
107.4983411875732
 20
104.2850477637223
 30
0.0
 11
107.4983411875732
 21
92.28504776372233
 31
0.0
  0
LINE
  5
2CE
330
18
100
AcDbEntity
  8
外形線
100
AcDbLine
 10
109.9933411875732
 20
90.28504776372235
 30
0.0
 11
119.2983411875732
 21
90.28504776372235
 31
0.0
  0
ARC
  5
2CF
330
18
100
AcDbEntity
  8
外形線
100
AcDbCircle
 10
108.4983411875732
 20
92.28504776372233
 30
0.0
 40
1.0
100
AcDbArc
 50
180.0
 51
270.0
  0
LINE
  5
2D0
330
18
100
AcDbEntity
  8
中心線
 48
0.5
100
AcDbLine
 10
67.71397191938195
 20
110.7850477637223
 30
0.0
 11
109.5078670999459
 21
110.7850477637223
 31
0.0
  0
LINE
  5
2D1
330
18
100
AcDbEntity
  8
外形線
100
AcDbLine
 10
105.3983411875732
 20
115.2850477637223
 30
0.0
 11
105.3983411875732
 21
106.2850477637223
 31
0.0
  0
LINE
  5
2D3
330
18
100
AcDbEntity
  8
外形線
100
AcDbLine
 10
105.8983411875732
 20
105.7850477637223
 30
0.0
 11
105.9983411875732
 21
105.7850477637223
 31
0.0
  0
LINE
  5
2D4
330
18
100
AcDbEntity
  8
外形線
100
AcDbLine
 10
105.8983411875732
 20
115.7850477637223
 30
0.0
 11
105.9983411875732
 21
115.7850477637223
 31
0.0
  0
ARC
  5
2D5
330
18
100
AcDbEntity
  8
外形線
100
AcDbCircle
 10
105.8983411875732
 20
106.2850477637223
 30
0.0
 40
0.5
100
AcDbArc
 50
180.0
 51
270.0
  0
ARC
  5
2D6
330
18
100
AcDbEntity
  8
外形線
100
AcDbCircle
 10
105.8983411875732
 20
115.2850477637223
 30
0.0
 40
0.5
100
AcDbArc
 50
90.0
 51
180.0
  0
ARC
  5
2D7
330
18
100
AcDbEntity
  8
外形線
100
AcDbCircle
 10
105.9983411875732
 20
104.2850477637223
 30
0.0
 40
1.5
100
AcDbArc
 50
0.0
 51
90.0000000000001
  0
ARC
  5
2D8
330
18
100
AcDbEntity
  8
外形線
100
AcDbCircle
 10
105.9983411875732
 20
117.2850477637223
 30
0.0
 40
1.5
100
AcDbArc
 50
269.9999999999999
 51
0.0
  0
LINE
  5
2D9
330
18
100
AcDbEntity
  8
外形線
100
AcDbLine
 10
107.4983411875732
 20
104.2850477637223
 30
0.0
 11
107.4983411875732
 21
120.2850477637223
 31
0.0
  0
ARC
  5
2DA
330
18
100
AcDbEntity
  8
外形線
100
AcDbCircle
 10
108.4983411875732
 20
120.2850477637223
 30
0.0
 40
1.0
100
AcDbArc
 50
90.0
 51
180.0
  0
LINE
  5
30C
330
18
100
AcDbEntity
  8
外形線
100
AcDbLine
 10
109.4933411875732
 20
91.28504776372233
 30
0.0
 11
109.4933411875732
 21
90.78504776372234
 31
0.0
  0
ARC
  5
30D
330
18
100
AcDbEntity
  8
外形線
100
AcDbCircle
 10
109.9933411875732
 20
90.78504776372234
 30
0.0
 40
0.5
100
AcDbArc
 50
180.0
 51
270.0
  0
LINE
  5
322
330
18
100
AcDbEntity
  8
外形線
100
AcDbLine
 10
119.2983411875732
 20
124.7850477637223
 30
0.0
 11
119.2983411875732
 21
106.2850477637223
 31
0.0
  0
LINE
  5
324
330
18
100
AcDbEntity
  8
外形線
100
AcDbLine
 10
120.4983411875733
 20
124.7850477637223
 30
0.0
 11
120.4983411875732
 21
106.2850477637223
 31
0.0
  0
LINE
  5
325
330
18
100
AcDbEntity
  8
外形線
100
AcDbLine
 10
125.5983411875732
 20
124.9850477637223
 30
0.0
 11
125.5983411875732
 21
106.2850477637223
 31
0.0
  0
LINE
  5
326
330
18
100
AcDbEntity
  8
外形線
100
AcDbLine
 10
119.2983411875732
 20
124.7850477637223
 30
0.0
 11
120.4983411875732
 21
124.7850477637223
 31
0.0
  0
LINE
  5
327
330
18
100
AcDbEntity
  8
外形線
100
AcDbLine
 10
120.9983411875733
 20
125.2850477637223
 30
0.0
 11
125.2983411875733
 21
125.2850477637223
 31
0.0
  0
LINE
  5
328
330
18
100
AcDbEntity
  8
外形線
100
AcDbLine
 10
120.4983411875733
 20
124.7850477637223
 30
0.0
 11
120.9983411875733
 21
125.2850477637223
 31
0.0
  0
LINE
  5
329
330
18
100
AcDbEntity
  8
外形線
100
AcDbLine
 10
125.2983411875733
 20
125.2850477637223
 30
0.0
 11
125.5983411875732
 21
124.9850477637223
 31
0.0
  0
LINE
  5
32B
330
18
100
AcDbEntity
  8
外形線
100
AcDbLine
 10
126.0983411875733
 20
124.0350477637222
 30
0.0
 11
126.0983411875732
 21
106.2850477637223
 31
0.0
  0
LINE
  5
32D
330
18
100
AcDbEntity
  8
外形線
100
AcDbLine
 10
125.5983411875732
 20
124.7850477637223
 30
0.0
 11
126.0983411875733
 21
124.0350477637222
 31
0.0
  0
LINE
  5
32E
330
18
100
AcDbEntity
  8
外形線
100
AcDbLine
 10
120.9983411875733
 20
125.2850477637223
 30
0.0
 11
120.9983411875733
 21
106.2850477637223
 31
0.0
  0
LINE
  5
32F
330
18
100
AcDbEntity
  8
ﾊｯﾁﾝｸ
100
AcDbLine
 10
120.9983411875733
 20
124.3850477637223
 30
0.0
 11
125.5983411875732
 21
124.3850477637223
 31
0.0
  0
LINE
  5
330
330
18
100
AcDbEntity
  8
ﾊｯﾁﾝｸ
100
AcDbLine
 10
120.9983411875733
 20
123.3850477637223
 30
0.0
 11
125.5983411875732
 21
123.3850477637223
 31
0.0
  0
LINE
  5
331
330
18
100
AcDbEntity
  8
ﾊｯﾁﾝｸ
100
AcDbLine
 10
120.9983411875733
 20
122.2850477637223
 30
0.0
 11
125.5983411875732
 21
122.2850477637223
 31
0.0
  0
LINE
  5
332
330
18
100
AcDbEntity
  8
ﾊｯﾁﾝｸ
100
AcDbLine
 10
120.9983411875733
 20
121.0850477637223
 30
0.0
 11
125.5983411875732
 21
121.0850477637223
 31
0.0
  0
LINE
  5
333
330
18
100
AcDbEntity
  8
外形線
100
AcDbLine
 10
119.2983411875732
 20
87.78504776372233
 30
0.0
 11
119.2983411875732
 21
106.2850477637223
 31
0.0
  0
LINE
  5
334
330
18
100
AcDbEntity
  8
外形線
100
AcDbLine
 10
120.9983411875733
 20
87.28504776372231
 30
0.0
 11
120.9983411875733
 21
106.2850477637223
 31
0.0
  0
LINE
  5
335
330
18
100
AcDbEntity
  8
外形線
100
AcDbLine
 10
120.4983411875733
 20
87.7850477637223
 30
0.0
 11
120.4983411875732
 21
106.2850477637223
 31
0.0
  0
LINE
  5
336
330
18
100
AcDbEntity
  8
外形線
100
AcDbLine
 10
125.5983411875732
 20
87.58504776372232
 30
0.0
 11
125.5983411875732
 21
106.2850477637223
 31
0.0
  0
LINE
  5
337
330
18
100
AcDbEntity
  8
外形線
100
AcDbLine
 10
126.0983411875733
 20
88.53504776372238
 30
0.0
 11
126.0983411875732
 21
106.2850477637223
 31
0.0
  0
LINE
  5
338
330
18
100
AcDbEntity
  8
外形線
100
AcDbLine
 10
119.2983411875732
 20
87.78504776372233
 30
0.0
 11
120.4983411875732
 21
87.78504776372233
 31
0.0
  0
LINE
  5
339
330
18
100
AcDbEntity
  8
ﾊｯﾁﾝｸ
100
AcDbLine
 10
120.9983411875733
 20
91.48504776372229
 30
0.0
 11
125.5983411875732
 21
91.48504776372229
 31
0.0
  0
LINE
  5
33A
330
18
100
AcDbEntity
  8
ﾊｯﾁﾝｸ
100
AcDbLine
 10
120.9983411875733
 20
90.2850477637223
 30
0.0
 11
125.5983411875732
 21
90.28504776372233
 31
0.0
  0
LINE
  5
33B
330
18
100
AcDbEntity
  8
ﾊｯﾁﾝｸ
100
AcDbLine
 10
120.9983411875733
 20
89.1850477637223
 30
0.0
 11
125.5983411875732
 21
89.1850477637223
 31
0.0
  0
LINE
  5
33C
330
18
100
AcDbEntity
  8
ﾊｯﾁﾝｸ
100
AcDbLine
 10
120.9983411875733
 20
88.18504776372231
 30
0.0
 11
125.5983411875732
 21
88.18504776372231
 31
0.0
  0
LINE
  5
33D
330
18
100
AcDbEntity
  8
外形線
100
AcDbLine
 10
120.9983411875733
 20
87.28504776372231
 30
0.0
 11
125.2983411875733
 21
87.28504776372231
 31
0.0
  0
LINE
  5
33E
330
18
100
AcDbEntity
  8
外形線
100
AcDbLine
 10
120.4983411875733
 20
87.7850477637223
 30
0.0
 11
120.9983411875733
 21
87.28504776372231
 31
0.0
  0
LINE
  5
33F
330
18
100
AcDbEntity
  8
外形線
100
AcDbLine
 10
125.5983411875732
 20
87.78504776372233
 30
0.0
 11
126.0983411875733
 21
88.53504776372238
 31
0.0
  0
LINE
  5
340
330
18
100
AcDbEntity
  8
外形線
100
AcDbLine
 10
125.2983411875733
 20
87.28504776372231
 30
0.0
 11
125.5983411875732
 21
87.58504776372232
 31
0.0
  0
LINE
  5
341
330
18
100
AcDbEntity
  8
ﾊｯﾁﾝｸ
100
AcDbLine
 10
120.9983411875733
 20
106.2850477637223
 30
0.0
 11
125.5983411875732
 21
106.2850477637223
 31
0.0
  0
LINE
  5
342
330
18
100
AcDbEntity
  8
ﾊｯﾁﾝｸ
100
AcDbLine
 10
120.9983411875733
 20
107.3850477637223
 30
0.0
 11
125.5983411875732
 21
107.3850477637223
 31
0.0
  0
LINE
  5
343
330
18
100
AcDbEntity
  8
ﾊｯﾁﾝｸ
100
AcDbLine
 10
120.9983411875733
 20
105.1850477637223
 30
0.0
 11
125.5983411875732
 21
105.1850477637223
 31
0.0
  0
LINE
  5
344
330
18
100
AcDbEntity
  8
ﾊｯﾁﾝｸ
100
AcDbLine
 10
120.9983411875733
 20
108.3850477637223
 30
0.0
 11
125.5983411875732
 21
108.3850477637223
 31
0.0
  0
LINE
  5
345
330
18
100
AcDbEntity
  8
ﾊｯﾁﾝｸ
100
AcDbLine
 10
120.9983411875733
 20
104.1850477637223
 30
0.0
 11
125.5983411875732
 21
104.1850477637223
 31
0.0
  0
ARC
  5
34B
330
18
100
AcDbEntity
  8
外形線
100
AcDbCircle
 10
82.66311391484583
 20
106.2850477637223
 30
0.0
 40
46.73522727272742
100
AcDbArc
 50
338.339840913186
 51
21.66015908681389
  0
LINE
  5
34F
330
18
100
AcDbEntity
  8
中心線
 48
0.5
100
AcDbLine
 10
156.4171100990651
 20
106.2850477637223
 30
0.0
 11
199.1198767494417
 21
106.2850477637223
 31
0.0
  0
LINE
  5
350
330
18
100
AcDbEntity
  8
中心線
 48
0.5
100
AcDbLine
 10
177.8191733332288
 20
126.8516926896387
 30
0.0
 11
177.8191733332288
 21
83.43624838848972
 31
0.0
  0
CIRCLE
  5
388
330
18
100
AcDbEntity
  8
外形線
100
AcDbCircle
 10
177.8191733332288
 20
106.2850477637223
 30
0.0
 40
19.0
  0
CIRCLE
  5
389
330
18
100
AcDbEntity
  8
外形線
100
AcDbCircle
 10
177.8191733332288
 20
106.2850477637223
 30
0.0
 40
16.5
  0
POINT
  5
3DF
330
18
100
AcDbEntity
  8
DEFPOINTS
  6
ByBlock
 62
     0
100
AcDbPoint
 10
107.4983411875732
 20
120.2850477637223
 30
0.0
  0
POINT
  5
3E0
330
18
100
AcDbEntity
  8
DEFPOINTS
  6
ByBlock
 62
     0
100
AcDbPoint
 10
113.4983411875732
 20
124.1975533581991
 30
0.0
  0
POINT
  5
3EC
330
18
100
AcDbEntity
  8
DEFPOINTS
  6
ByBlock
 62
     0
100
AcDbPoint
 10
105.3983411875732
 20
115.2850477637223
 30
0.0
  0
POINT
  5
3ED
330
18
100
AcDbEntity
  8
DEFPOINTS
  6
ByBlock
 62
     0
100
AcDbPoint
 10
107.4983411875732
 20
120.2850477637223
 30
0.0
  0
POINT
  5
3FA
330
18
100
AcDbEntity
  8
DEFPOINTS
  6
ByBlock
 62
     0
100
AcDbPoint
 10
105.3983411875732
 20
115.2850477637223
 30
0.0
  0
POINT
  5
452
330
18
100
AcDbEntity
  8
DEFPOINTS
  6
ByBlock
 62
     0
100
AcDbPoint
 10
103.1228299955057
 20
106.2850477637223
 30
0.0
  0
POINT
  5
45E
330
18
100
AcDbEntity
  8
DEFPOINTS
  6
ByBlock
 62
     0
100
AcDbPoint
 10
103.1228299955057
 20
106.2850477637223
 30
0.0
  0
CIRCLE
  5
4FC
330
18
100
AcDbEntity
  8
外形線
100
AcDbCircle
 10
177.8191733332288
 20
106.2850477637223
 30
0.0
 40
10.5
  0
LINE
  5
4FF
330
18
100
AcDbEntity
  8
目盛
100
AcDbLine
 10
177.8191733332288
 20
122.7850477637223
 30
0.0
 11
177.8191733332288
 21
119.7850477637223
 31
0.0
  0
LINE
  5
500
330
18
100
AcDbEntity
  8
目盛
100
AcDbLine
 10
178.8552169054625
 20
122.7524887827888
 30
0.0
 11
178.7421939703097
 21
120.9560406716179
 31
0.0
  0
LINE
  5
501
330
18
100
AcDbEntity
  8
目盛
100
AcDbLine
 10
179.8871716870398
 20
122.6549403354112
 30
0.0
 11
179.6615718666241
 21
120.8691338730451
 31
0.0
  0
LINE
  5
502
330
18
100
AcDbEntity
  8
目盛
100
AcDbLine
 10
180.9109650238933
 20
122.4927874007456
 30
0.0
 11
180.573678657639
 21
120.724670349434
 31
0.0
  0
LINE
  5
503
330
18
100
AcDbEntity
  8
目盛
100
AcDbLine
 10
181.9225564714489
 20
122.2666699223447
 30
0.0
 11
181.4749146745522
 21
120.5232202323132
 31
0.0
  0
LINE
  5
504
330
18
100
AcDbEntity
  8
目盛
100
AcDbLine
 10
182.9179537404155
 20
121.9774802825923
 30
0.0
 11
181.9909027572906
 21
119.1243107337069
 31
0.0
  0
LINE
  5
505
330
18
100
AcDbEntity
  8
目盛
100
AcDbLine
 10
183.893228452526
 20
121.6263597808785
 30
0.0
 11
183.2306042576936
 21
119.9527621062796
 31
0.0
  0
LINE
  5
506
330
18
100
AcDbEntity
  8
目盛
100
AcDbLine
 10
184.8445316440525
 20
121.2146941294117
 30
0.0
 11
184.0781289192354
 21
119.5860054349728
 31
0.0
  0
LINE
  5
507
330
18
100
AcDbEntity
  8
目盛
100
AcDbLine
 10
185.7681089559071
 20
120.7441079844461
 30
0.0
 11
184.900952342524
 21
119.1667559603671
 31
0.0
  0
LINE
  5
508
330
18
100
AcDbEntity
  8
目盛
100
AcDbLine
 10
186.6603154503822
 20
120.2164585345056
 30
0.0
 11
185.6958272194201
 21
118.6966682686019
 31
0.0
  0
LINE
  5
50A
330
18
100
AcDbEntity
  8
目盛
100
AcDbLine
 10
171.7451182139316
 20
121.6263597808785
 30
0.0
 11
172.4077424087641
 21
119.9527621062796
 31
0.0
  0
LINE
  5
50B
330
18
100
AcDbEntity
  8
目盛
100
AcDbLine
 10
170.7938150224051
 20
121.2146941294116
 30
0.0
 11
171.5602177472222
 21
119.5860054349728
 31
0.0
  0
LINE
  5
50C
330
18
100
AcDbEntity
  8
目盛
100
AcDbLine
 10
169.8702377105505
 20
120.744107984446
 30
0.0
 11
170.7373943239336
 21
119.1667559603671
 31
0.0
  0
LINE
  5
50D
330
18
100
AcDbEntity
  8
目盛
100
AcDbLine
 10
168.9780312160754
 20
120.2164585345056
 30
0.0
 11
169.9425194470376
 21
118.6966682686019
 31
0.0
  0
LINE
  5
50E
330
18
100
AcDbEntity
  8
目盛
100
AcDbLine
 10
168.120716670403
 20
119.6338281709089
 30
0.0
 11
169.8840724272804
 21
117.2067771877841
 31
0.0
  0
LINE
  5
50F
330
18
100
AcDbEntity
  8
目盛
100
AcDbLine
 10
176.7831297609951
 20
122.7524887827888
 30
0.0
 11
176.8961526961479
 21
120.9560406716179
 31
0.0
  0
LINE
  5
510
330
18
100
AcDbEntity
  8
目盛
100
AcDbLine
 10
175.7511749794178
 20
122.6549403354112
 30
0.0
 11
175.9767747998335
 21
120.8691338730451
 31
0.0
  0
LINE
  5
511
330
18
100
AcDbEntity
  8
目盛
100
AcDbLine
 10
174.7273816425643
 20
122.4927874007457
 30
0.0
 11
175.0646680088187
 21
120.724670349434
 31
0.0
  0
LINE
  5
512
330
18
100
AcDbEntity
  8
目盛
100
AcDbLine
 10
173.7157901950087
 20
122.2666699223447
 30
0.0
 11
174.1634319919054
 21
120.5232202323132
 31
0.0
  0
LINE
  5
513
330
18
100
AcDbEntity
  8
目盛
100
AcDbLine
 10
172.7203929260422
 20
121.9774802825923
 30
0.0
 11
173.647443909167
 21
119.1243107337069
 31
0.0
  0
LINE
  5
514
330
18
100
AcDbEntity
  8
目盛
100
AcDbLine
 10
163.8877625624455
 20
115.1261898808758
 30
0.0
 11
165.4075528283492
 21
114.1617016499135
 31
0.0
  0
LINE
  5
515
330
18
100
AcDbEntity
  8
目盛
100
AcDbLine
 10
163.3601131125051
 20
114.2339833864006
 30
0.0
 11
164.937465136584
 21
113.3668267730175
 31
0.0
  0
LINE
  5
516
330
18
100
AcDbEntity
  8
目盛
100
AcDbLine
 10
162.8895269675395
 20
113.310406074546
 30
0.0
 11
164.5182156619783
 21
112.5440033497289
 31
0.0
  0
LINE
  5
517
330
18
100
AcDbEntity
  8
目盛
100
AcDbLine
 10
162.4778613160726
 20
112.3591028830195
 30
0.0
 11
164.1514589906715
 21
111.6964786881871
 31
0.0
  0
LINE
  5
518
330
18
100
AcDbEntity
  8
目盛
100
AcDbLine
 10
162.1267408143588
 20
111.3838281709089
 30
0.0
 11
164.9799103632443
 21
110.4567771877841
 31
0.0
  0
LINE
  5
519
330
18
100
AcDbEntity
  8
目盛
100
AcDbLine
 10
167.3016775023755
 20
118.9985162695228
 30
0.0
 11
168.4490406839231
 21
117.6115924325264
 31
0.0
  0
LINE
  5
51A
330
18
100
AcDbEntity
  8
目盛
100
AcDbLine
 10
166.5241460854055
 20
118.3130301161756
 30
0.0
 11
167.7563308760771
 21
117.0008865868171
 31
0.0
  0
LINE
  5
51B
330
18
100
AcDbEntity
  8
目盛
100
AcDbLine
 10
165.7911909807755
 20
117.5800750115457
 30
0.0
 11
167.1033345101341
 21
116.347890220874
 31
0.0
  0
LINE
  5
51C
330
18
100
AcDbEntity
  8
目盛
100
AcDbLine
 10
165.1057048274283
 20
116.8025435945757
 30
0.0
 11
166.4926286644247
 21
115.655180413028
 31
0.0
  0
LINE
  5
51D
330
18
100
AcDbEntity
  8
目盛
100
AcDbLine
 10
164.4703929260422
 20
115.9835044265481
 30
0.0
 11
166.897443909167
 21
114.2201486696707
 31
0.0
  0
LINE
  5
51E
330
18
100
AcDbEntity
  8
目盛
100
AcDbLine
 10
161.3517323141623
 20
105.2490041914886
 30
0.0
 11
163.1481804253333
 21
105.3620271266414
 31
0.0
  0
LINE
  5
51F
330
18
100
AcDbEntity
  8
目盛
100
AcDbLine
 10
161.4492807615399
 20
104.2170494099113
 30
0.0
 11
163.235087223906
 21
104.442649230327
 31
0.0
  0
LINE
  5
520
330
18
100
AcDbEntity
  8
目盛
100
AcDbLine
 10
161.6114336962055
 20
103.1932560730579
 30
0.0
 11
163.3795507475171
 21
103.5305424393121
 31
0.0
  0
LINE
  5
521
330
18
100
AcDbEntity
  8
目盛
100
AcDbLine
 10
161.8375511746064
 20
102.1816646255022
 30
0.0
 11
163.5810008646379
 21
102.629306422399
 31
0.0
  0
LINE
  5
522
330
18
100
AcDbEntity
  8
目盛
100
AcDbLine
 10
162.1267408143588
 20
101.1862673565357
 30
0.0
 11
164.9799103632443
 21
102.1133183396605
 31
0.0
  0
LINE
  5
523
330
18
100
AcDbEntity
  8
目盛
100
AcDbLine
 10
161.8375511746064
 20
110.3884309019424
 30
0.0
 11
163.5810008646379
 21
109.9407891050457
 31
0.0
  0
LINE
  5
524
330
18
100
AcDbEntity
  8
目盛
100
AcDbLine
 10
161.6114336962055
 20
109.3768394543868
 30
0.0
 11
163.3795507475171
 21
109.0395530881324
 31
0.0
  0
LINE
  5
525
330
18
100
AcDbEntity
  8
目盛
100
AcDbLine
 10
161.4492807615399
 20
108.3530461175333
 30
0.0
 11
163.235087223906
 21
108.1274462971176
 31
0.0
  0
LINE
  5
526
330
18
100
AcDbEntity
  8
目盛
100
AcDbLine
 10
161.3517323141623
 20
107.3210913359559
 30
0.0
 11
163.1481804253332
 21
107.2080684008032
 31
0.0
  0
LINE
  5
527
330
18
100
AcDbEntity
  8
目盛
100
AcDbLine
 10
161.3191733332288
 20
106.2850477637223
 30
0.0
 11
164.3191733332288
 21
106.2850477637223
 31
0.0
  0
LINE
  5
528
330
18
100
AcDbEntity
  8
目盛
100
AcDbLine
 10
165.1057048274282
 20
95.76755193286894
 30
0.0
 11
166.4926286644247
 21
96.91491511441659
 31
0.0
  0
LINE
  5
529
330
18
100
AcDbEntity
  8
目盛
100
AcDbLine
 10
165.7911909807755
 20
94.99002051589897
 30
0.0
 11
167.103334510134
 21
96.2222053065706
 31
0.0
  0
LINE
  5
52A
330
18
100
AcDbEntity
  8
目盛
100
AcDbLine
 10
166.5241460854054
 20
94.25706541126904
 30
0.0
 11
167.7563308760771
 21
95.56920894062754
 31
0.0
  0
LINE
  5
52B
330
18
100
AcDbEntity
  8
目盛
100
AcDbLine
 10
167.3016775023754
 20
93.57157925792177
 30
0.0
 11
168.449040683923
 21
94.95850309491823
 31
0.0
  0
LINE
  5
52C
330
18
100
AcDbEntity
  8
目盛
100
AcDbLine
 10
168.120716670403
 20
92.93626735653568
 30
0.0
 11
169.8840724272804
 21
95.36331833966052
 31
0.0
  0
LINE
  5
52D
330
18
100
AcDbEntity
  8
目盛
100
AcDbLine
 10
162.4778613160726
 20
100.2109926444251
 30
0.0
 11
164.1514589906714
 21
100.8736168392575
 31
0.0
  0
LINE
  5
52E
330
18
100
AcDbEntity
  8
目盛
100
AcDbLine
 10
162.8895269675394
 20
99.25968945289861
 30
0.0
 11
164.5182156619783
 21
100.0260921777158
 31
0.0
  0
LINE
  5
52F
330
18
100
AcDbEntity
  8
目盛
100
AcDbLine
 10
163.360113112505
 20
98.33611214104401
 30
0.0
 11
164.937465136584
 21
99.20326875442713
 31
0.0
  0
LINE
  5
530
330
18
100
AcDbEntity
  8
目盛
100
AcDbLine
 10
163.8877625624455
 20
97.44390564656887
 30
0.0
 11
165.4075528283492
 21
98.40839387753106
 31
0.0
  0
LINE
  5
531
330
18
100
AcDbEntity
  8
目盛
100
AcDbLine
 10
164.4703929260422
 20
96.58659110089653
 30
0.0
 11
166.897443909167
 21
98.34994685777395
 31
0.0
  0
LINE
  5
532
330
18
100
AcDbEntity
  8
目盛
100
AcDbLine
 10
173.7157901950087
 20
90.30342560509993
 30
0.0
 11
174.1634319919054
 21
92.04687529513149
 31
0.0
  0
LINE
  5
533
330
18
100
AcDbEntity
  8
目盛
100
AcDbLine
 10
174.7273816425643
 20
90.07730812669903
 30
0.0
 11
175.0646680088186
 21
91.84542517801062
 31
0.0
  0
LINE
  5
534
330
18
100
AcDbEntity
  8
目盛
100
AcDbLine
 10
175.7511749794178
 20
89.9151551920335
 30
0.0
 11
175.9767747998335
 21
91.70096165439952
 31
0.0
  0
LINE
  5
535
330
18
100
AcDbEntity
  8
目盛
100
AcDbLine
 10
176.7831297609951
 20
89.81760674465588
 30
0.0
 11
176.8961526961479
 21
91.61405485582676
 31
0.0
  0
LINE
  5
536
330
18
100
AcDbEntity
  8
目盛
100
AcDbLine
 10
177.8191733332288
 20
89.78504776372236
 30
0.0
 11
177.8191733332288
 21
92.78504776372235
 31
0.0
  0
LINE
  5
537
330
18
100
AcDbEntity
  8
目盛
100
AcDbLine
 10
168.9780312160753
 20
92.35363699293911
 30
0.0
 11
169.9425194470375
 21
93.87342725884275
 31
0.0
  0
LINE
  5
538
330
18
100
AcDbEntity
  8
目盛
100
AcDbLine
 10
169.8702377105505
 20
91.8259875429986
 30
0.0
 11
170.7373943239336
 21
93.40333956707757
 31
0.0
  0
LINE
  5
539
330
18
100
AcDbEntity
  8
目盛
100
AcDbLine
 10
170.7938150224051
 20
91.35540139803302
 30
0.0
 11
171.5602177472222
 21
92.98409009247189
 31
0.0
  0
LINE
  5
53A
330
18
100
AcDbEntity
  8
目盛
100
AcDbLine
 10
171.7451182139316
 20
90.9437357465662
 30
0.0
 11
172.407742408764
 21
92.61733342116505
 31
0.0
  0
LINE
  5
53B
330
18
100
AcDbEntity
  8
目盛
100
AcDbLine
 10
172.7203929260421
 20
90.59261524485235
 30
0.0
 11
173.647443909167
 21
93.4457847937378
 31
0.0
  0
LINE
  5
53C
330
18
100
AcDbEntity
  8
目盛
100
AcDbLine
 10
183.893228452526
 20
90.94373574656618
 30
0.0
 11
183.2306042576936
 21
92.61733342116505
 31
0.0
  0
LINE
  5
53D
330
18
100
AcDbEntity
  8
目盛
100
AcDbLine
 10
184.8445316440525
 20
91.35540139803305
 30
0.0
 11
184.0781289192354
 21
92.98409009247183
 31
0.0
  0
LINE
  5
53E
330
18
100
AcDbEntity
  8
目盛
100
AcDbLine
 10
185.7681089559071
 20
91.82598754299863
 30
0.0
 11
184.900952342524
 21
93.40333956707755
 31
0.0
  0
LINE
  5
53F
330
18
100
AcDbEntity
  8
目盛
100
AcDbLine
 10
186.6603154503822
 20
92.35363699293907
 30
0.0
 11
185.69582721942
 21
93.8734272588427
 31
0.0
  0
LINE
  5
540
330
18
100
AcDbEntity
  8
目盛
100
AcDbLine
 10
187.5176299960546
 20
92.93626735653573
 30
0.0
 11
185.7542742391772
 21
95.36331833966057
 31
0.0
  0
LINE
  5
541
330
18
100
AcDbEntity
  8
目盛
100
AcDbLine
 10
178.8552169054624
 20
89.81760674465585
 30
0.0
 11
178.7421939703097
 21
91.61405485582674
 31
0.0
  0
LINE
  5
542
330
18
100
AcDbEntity
  8
目盛
100
AcDbLine
 10
179.8871716870398
 20
89.91515519203346
 30
0.0
 11
179.661571866624
 21
91.70096165439952
 31
0.0
  0
LINE
  5
543
330
18
100
AcDbEntity
  8
目盛
100
AcDbLine
 10
180.9109650238932
 20
90.07730812669896
 30
0.0
 11
180.5736786576389
 21
91.84542517801062
 31
0.0
  0
LINE
  5
544
330
18
100
AcDbEntity
  8
目盛
100
AcDbLine
 10
181.9225564714489
 20
90.30342560509991
 30
0.0
 11
181.4749146745522
 21
92.04687529513149
 31
0.0
  0
LINE
  5
545
330
18
100
AcDbEntity
  8
目盛
100
AcDbLine
 10
182.9179537404154
 20
90.59261524485231
 30
0.0
 11
181.9909027572906
 21
93.44578479373778
 31
0.0
  0
LINE
  5
546
330
18
100
AcDbEntity
  8
目盛
100
AcDbLine
 10
191.7505841040121
 20
97.44390564656889
 30
0.0
 11
190.2307938381085
 21
98.4083938775311
 31
0.0
  0
LINE
  5
547
330
18
100
AcDbEntity
  8
目盛
100
AcDbLine
 10
192.2782335539525
 20
98.33611214104406
 30
0.0
 11
190.7008815298736
 21
99.20326875442714
 31
0.0
  0
LINE
  5
548
330
18
100
AcDbEntity
  8
目盛
100
AcDbLine
 10
192.7488196989181
 20
99.25968945289866
 30
0.0
 11
191.1201310044793
 21
100.0260921777158
 31
0.0
  0
LINE
  5
549
330
18
100
AcDbEntity
  8
目盛
100
AcDbLine
 10
193.160485350385
 20
100.2109926444251
 30
0.0
 11
191.4868876757861
 21
100.8736168392575
 31
0.0
  0
LINE
  5
54A
330
18
100
AcDbEntity
  8
目盛
100
AcDbLine
 10
193.5116058520988
 20
101.1862673565357
 30
0.0
 11
190.6584363032134
 21
102.1133183396605
 31
0.0
  0
LINE
  5
54B
330
18
100
AcDbEntity
  8
目盛
100
AcDbLine
 10
188.3366691640822
 20
93.57157925792183
 30
0.0
 11
187.1893059825345
 21
94.95850309491823
 31
0.0
  0
LINE
  5
54C
330
18
100
AcDbEntity
  8
目盛
100
AcDbLine
 10
189.1142005810522
 20
94.25706541126903
 30
0.0
 11
187.8820157903805
 21
95.56920894062759
 31
0.0
  0
LINE
  5
54D
330
18
100
AcDbEntity
  8
目盛
100
AcDbLine
 10
189.8471556856821
 20
94.99002051589901
 30
0.0
 11
188.5350121563235
 21
96.22220530657063
 31
0.0
  0
LINE
  5
54E
330
18
100
AcDbEntity
  8
目盛
100
AcDbLine
 10
190.5326418390293
 20
95.76755193286897
 30
0.0
 11
189.1457180020329
 21
96.91491511441661
 31
0.0
  0
LINE
  5
54F
330
18
100
AcDbEntity
  8
目盛
100
AcDbLine
 10
191.1679537404154
 20
96.58659110089656
 30
0.0
 11
188.7409027572906
 21
98.34994685777397
 31
0.0
  0
LINE
  5
550
330
18
100
AcDbEntity
  8
目盛
100
AcDbLine
 10
194.2866143522953
 20
107.3210913359559
 30
0.0
 11
192.4901662411244
 21
107.2080684008032
 31
0.0
  0
LINE
  5
551
330
18
100
AcDbEntity
  8
目盛
100
AcDbLine
 10
194.1890659049177
 20
108.3530461175333
 30
0.0
 11
192.4032594425517
 21
108.1274462971176
 31
0.0
  0
LINE
  5
552
330
18
100
AcDbEntity
  8
目盛
100
AcDbLine
 10
194.0269129702521
 20
109.3768394543867
 30
0.0
 11
192.2587959189406
 21
109.0395530881325
 31
0.0
  0
LINE
  5
553
330
18
100
AcDbEntity
  8
目盛
100
AcDbLine
 10
193.8007954918512
 20
110.3884309019424
 30
0.0
 11
192.0573458018197
 21
109.9407891050456
 31
0.0
  0
LINE
  5
554
330
18
100
AcDbEntity
  8
目盛
100
AcDbLine
 10
193.5116058520988
 20
111.3838281709089
 30
0.0
 11
190.6584363032134
 21
110.4567771877841
 31
0.0
  0
LINE
  5
555
330
18
100
AcDbEntity
  8
目盛
100
AcDbLine
 10
193.8007954918512
 20
102.1816646255022
 30
0.0
 11
192.0573458018197
 21
102.6293064223989
 31
0.0
  0
LINE
  5
556
330
18
100
AcDbEntity
  8
目盛
100
AcDbLine
 10
194.0269129702522
 20
103.1932560730579
 30
0.0
 11
192.2587959189405
 21
103.5305424393121
 31
0.0
  0
LINE
  5
557
330
18
100
AcDbEntity
  8
目盛
100
AcDbLine
 10
194.1890659049177
 20
104.2170494099113
 30
0.0
 11
192.4032594425516
 21
104.442649230327
 31
0.0
  0
LINE
  5
558
330
18
100
AcDbEntity
  8
目盛
100
AcDbLine
 10
194.2866143522953
 20
105.2490041914886
 30
0.0
 11
192.4901662411244
 21
105.3620271266414
 31
0.0
  0
LINE
  5
559
330
18
100
AcDbEntity
  8
目盛
100
AcDbLine
 10
194.3191733332288
 20
106.2850477637223
 30
0.0
 11
191.3191733332288
 21
106.2850477637223
 31
0.0
  0
LINE
  5
55A
330
18
100
AcDbEntity
  8
目盛
100
AcDbLine
 10
190.5326418390294
 20
116.8025435945757
 30
0.0
 11
189.1457180020329
 21
115.655180413028
 31
0.0
  0
LINE
  5
55B
330
18
100
AcDbEntity
  8
目盛
100
AcDbLine
 10
189.8471556856821
 20
117.5800750115457
 30
0.0
 11
188.5350121563236
 21
116.347890220874
 31
0.0
  0
LINE
  5
55C
330
18
100
AcDbEntity
  8
目盛
100
AcDbLine
 10
189.1142005810521
 20
118.3130301161756
 30
0.0
 11
187.8820157903805
 21
117.0008865868171
 31
0.0
  0
LINE
  5
55D
330
18
100
AcDbEntity
  8
目盛
100
AcDbLine
 10
188.3366691640822
 20
118.9985162695228
 30
0.0
 11
187.1893059825345
 21
117.6115924325264
 31
0.0
  0
LINE
  5
55E
330
18
100
AcDbEntity
  8
目盛
100
AcDbLine
 10
187.5176299960546
 20
119.6338281709089
 30
0.0
 11
185.7542742391772
 21
117.2067771877841
 31
0.0
  0
LINE
  5
55F
330
18
100
AcDbEntity
  8
目盛
100
AcDbLine
 10
193.160485350385
 20
112.3591028830195
 30
0.0
 11
191.4868876757861
 21
111.6964786881871
 31
0.0
  0
LINE
  5
560
330
18
100
AcDbEntity
  8
目盛
100
AcDbLine
 10
192.7488196989181
 20
113.310406074546
 30
0.0
 11
191.1201310044793
 21
112.5440033497289
 31
0.0
  0
LINE
  5
561
330
18
100
AcDbEntity
  8
目盛
100
AcDbLine
 10
192.2782335539526
 20
114.2339833864006
 30
0.0
 11
190.7008815298736
 21
113.3668267730175
 31
0.0
  0
LINE
  5
562
330
18
100
AcDbEntity
  8
目盛
100
AcDbLine
 10
191.750584104012
 20
115.1261898808758
 30
0.0
 11
190.2307938381084
 21
114.1617016499136
 31
0.0
  0
LINE
  5
563
330
18
100
AcDbEntity
  8
目盛
100
AcDbLine
 10
191.1679537404154
 20
115.9835044265481
 30
0.0
 11
188.7409027572906
 21
114.2201486696707
 31
0.0
  0
TEXT
  5
566
330
18
100
AcDbEntity
  8
文字
100
AcDbText
 10
177.0537395288708
 20
117.4325308911052
 30
0.0
 40
1.9
  1
0
 41
0.8
  7
STYLE3
100
AcDbText
  0
TEXT
  5
567
330
18
100
AcDbEntity
  8
文字
100
AcDbText
 10
183.6651670293633
 20
114.9489081145109
 30
0.0
 40
1.9
  1
10
 41
0.8
  7
STYLE3
100
AcDbText
  0
TEXT
  5
568
330
18
100
AcDbEntity
  8
文字
100
AcDbText
 10
187.800152990933
 20
109.4006139698872
 30
0.0
 40
1.9
  1
20
 41
0.8
  7
STYLE3
100
AcDbText
  0
TEXT
  5
569
330
18
100
AcDbEntity
  8
文字
100
AcDbText
 10
187.6871457770803
 20
101.2758443639789
 30
0.0
 40
1.9
  1
30
 41
0.8
  7
STYLE3
100
AcDbText
  0
TEXT
  5
56A
330
18
100
AcDbEntity
  8
文字
100
AcDbText
 10
183.8270782568611
 20
95.64522424212674
 30
0.0
 40
1.9
  1
40
 41
0.8
  7
STYLE3
100
AcDbText
  0
TEXT
  5
56B
330
18
100
AcDbEntity
  8
文字
100
AcDbText
 10
176.4056228281028
 20
93.37121611458877
 30
0.0
 40
1.9
  1
50
 41
0.8
  7
STYLE3
100
AcDbText
  0
TEXT
  5
56C
330
18
100
AcDbEntity
  8
文字
100
AcDbText
 10
168.8956697946766
 20
95.83530326577744
 30
0.0
 40
1.9
  1
60
 41
0.8
  7
STYLE3
100
AcDbText
  0
TEXT
  5
56D
330
18
100
AcDbEntity
  8
文字
100
AcDbText
 10
164.9236789254607
 20
101.1644410701622
 30
0.0
 40
1.9
  1
70
 41
0.8
  7
STYLE3
100
AcDbText
  0
TEXT
  5
56E
330
18
100
AcDbEntity
  8
文字
100
AcDbText
 10
165.0241060968935
 20
109.3493112282431
 30
0.0
 40
1.9
  1
80
 41
0.8
  7
STYLE3
100
AcDbText
  0
TEXT
  5
56F
330
18
100
AcDbEntity
  8
文字
100
AcDbText
 10
169.1412086801941
 20
115.0245792034632
 30
0.0
 40
1.9
  1
90
 41
0.8
  7
STYLE3
100
AcDbText
  0
LINE
  5
573
330
18
100
AcDbEntity
  8
中心線
 48
0.5
100
AcDbLine
 10
167.0751788777795
 20
106.6750477637223
 30
0.0
 11
177.0609739153383
 21
106.6750477637223
 31
0.0
  0
ARC
  5
574
330
18
100
AcDbEntity
  8
外形線
100
AcDbCircle
 10
172.2127216924849
 20
106.6750477637223
 30
0.0
 40
4.0
100
AcDbArc
 50
30.00000000000032
 51
330.0000000000002
  0
LINE
  5
576
330
18
100
AcDbEntity
  8
中心線
100
AcDbLine
 10
172.2127216924849
 20
101.9008804153919
 30
0.0
 11
172.2127216924849
 21
111.330572062585
 31
0.0
  0
LINE
  5
579
330
18
100
AcDbEntity
  8
目盛
100
AcDbLine
 10
172.2127216924849
 20
110.6750477637223
 30
0.0
 11
172.2127216924849
 21
110.1750477637223
 31
0.0
  0
LINE
  5
57A
330
18
100
AcDbEntity
  8
目盛
100
AcDbLine
 10
168.7486200773471
 20
108.6750477637223
 30
0.0
 11
169.1816327792394
 21
108.4250477637223
 31
0.0
  0
LINE
  5
57B
330
18
100
AcDbEntity
  8
目盛
100
AcDbLine
 10
168.7486200773471
 20
104.6750477637223
 30
0.0
 11
169.1816327792394
 21
104.9250477637223
 31
0.0
  0
LINE
  5
57C
330
18
100
AcDbEntity
  8
目盛
100
AcDbLine
 10
172.2127216924849
 20
102.6750477637223
 30
0.0
 11
172.2127216924849
 21
103.1750477637223
 31
0.0
  0
LINE
  5
57D
330
18
100
AcDbEntity
  8
目盛
100
AcDbLine
 10
175.6768233076226
 20
104.6750477637223
 30
0.0
 11
175.2438106057304
 21
104.9250477637223
 31
0.0
  0
LINE
  5
57E
330
18
100
AcDbEntity
  8
目盛
100
AcDbLine
 10
175.6768233076226
 20
108.6750477637223
 30
0.0
 11
175.2438106057304
 21
108.4250477637223
 31
0.0
  0
TEXT
  5
57F
330
18
100
AcDbEntity
  8
文字
100
AcDbText
 10
171.5714182774884
 20
108.7763920921794
 30
0.0
 40
1.0
  1
1
  7
STYLE3
100
AcDbText
  0
TEXT
  5
580
330
18
100
AcDbEntity
  8
文字
100
AcDbText
 10
174.0270120439335
 20
107.6305924927464
 30
0.0
 40
1.0
  1
0
  7
STYLE3
100
AcDbText
  0
TEXT
  5
581
330
18
100
AcDbEntity
  8
文字
100
AcDbText
 10
173.9075643373943
 20
104.7899629637122
 30
0.0
 40
1.0
  1
5
  7
STYLE3
100
AcDbText
  0
TEXT
  5
582
330
18
100
AcDbEntity
  8
文字
100
AcDbText
 10
171.4758602689982
 20
103.69190457824
 30
0.0
 40
1.0
  1
4
  7
STYLE3
100
AcDbText
  0
TEXT
  5
583
330
18
100
AcDbEntity
  8
文字
100
AcDbText
 10
169.6313507067333
 20
104.7660919017589
 30
0.0
 40
1.0
  1
3
  7
STYLE3
100
AcDbText
  0
TEXT
  5
584
330
18
100
AcDbEntity
  8
文字
100
AcDbText
 10
169.4402346897527
 20
107.5351091548793
 30
0.0
 40
1.0
  1
2
  7
STYLE3
100
AcDbText
  0
TEXT
  5
60E
330
18
100
AcDbEntity
  8
文字
100
AcDbText
 10
174.9057819259002
 20
99.77773879187424
 30
0.0
 40
1.0
  1
NO.196
  7
STYLE3
100
AcDbText
  0
CIRCLE
  5
610
330
18
100
AcDbEntity
  8
針
100
AcDbCircle
 10
177.8191733332288
 20
106.2850477637223
 30
0.0
 40
1.5
  0
LINE
  5
612
330
18
100
AcDbEntity
  8
針
100
AcDbLine
 10
169.0023945488417
 20
118.4203026793465
 30
0.0
 11
169.059025738448
 21
118.461447647007
 31
0.0
  0
CIRCLE
  5
614
330
18
100
AcDbEntity
  8
針
100
AcDbCircle
 10
177.8191733332288
 20
106.2850477637223
 30
0.0
 40
1.3
  0
LINE
  5
616
330
18
100
AcDbEntity
  8
針
100
AcDbLine
 10
176.8218720325682
 20
108.0782129742899
 30
0.0
 11
169.059025738448
 21
118.461447647007
 31
0.0
  0
ARC
  5
619
330
18
100
AcDbEntity
  8
針
100
AcDbCircle
 10
177.6227811693064
 20
108.6769988748332
 30
0.0
 40
1.0
100
AcDbArc
 50
216.7829935738394
 51
254.6754659060525
  0
LINE
  5
61A
330
18
100
AcDbEntity
  8
針
100
AcDbLine
 10
176.4219549253411
 20
107.7876561882126
 30
0.0
 11
168.9457633592355
 21
118.3791577116861
 31
0.0
  0
ARC
  5
61B
330
18
100
AcDbEntity
  8
針
100
AcDbCircle
 10
175.6049811585615
 20
107.2109813540174
 30
0.0
 40
1.0
100
AcDbArc
 50
357.3245340939475
 51
35.21700642616058
  0
LINE
  5
61C
330
18
100
AcDbEntity
  8
針
100
AcDbLine
 10
169.0023945488417
 20
118.4203026793465
 30
0.0
 11
168.9457633592355
 21
118.3791577116861
 31
0.0
  0
CIRCLE
  5
61D
330
18
100
AcDbEntity
  8
針
100
AcDbCircle
 10
177.8191733332288
 20
106.2850477637223
 30
0.0
 40
0.3
  0
HATCH
  5
627
330
18
100
AcDbEntity
  8
針
100
AcDbHatch
 10
0.0
 20
0.0
 30
0.0
210
0.0
220
0.0
230
1.0
  2
SOLID
 70
     1
 71
     0
 91
        1
 92
        7
 72
     1
 73
     1
 93
        7
 10
176.4219549253411
 20
107.7876561882125
 42
-0.166860330303522
 10
176.6038911129628
 20
107.1643026329754
 42
-0.1594072402788452
 10
177.3584951193655
 20
107.7125545354301
 42
-0.1668603303035367
 10
176.8218720325682
 20
108.0782129742899
 42
0.0
 10
169.0590257384479
 20
118.461447647007
 42
0.0
 10
169.0023945488417
 20
118.4203026793465
 42
0.0
 10
168.9457633592355
 20
118.3791577116861
 42
0.0
 97
        0
 75
     0
 76
     1
 47
0.0506089553640833
 98
        1
 10
174.9921935307962
 20
110.0923133402095
450
        0
451
        0
460
0.0
461
0.0
452
        0
462
0.0
453
        0
470

  0
CIRCLE
  5
628
330
18
100
AcDbEntity
  8
針
100
AcDbCircle
 10
172.2127216924849
 20
106.6750477637223
 30
0.0
 40
0.7
  0
CIRCLE
  5
629
330
18
100
AcDbEntity
  8
針
100
AcDbCircle
 10
172.2127216924849
 20
106.6750477637223
 30
0.0
 40
0.275
  0
CIRCLE
  5
62A
330
18
100
AcDbEntity
  8
針
100
AcDbCircle
 10
172.2127216924849
 20
106.6750477637223
 30
0.0
 40
0.4
  0
LINE
  5
62C
330
18
100
AcDbEntity
  8
針
100
AcDbLine
 10
175.4566106886027
 20
108.454706208724
 30
0.0
 11
175.5047095654946
 21
108.3670335331533
 31
0.0
  0
LINE
  5
62F
330
18
100
AcDbEntity
  8
針
100
AcDbLine
 10
173.1643695659673
 20
107.0416265671702
 30
0.0
 11
175.5047095654946
 21
108.3670335331532
 31
0.0
  0
ARC
  5
631
330
18
100
AcDbEntity
  8
針
100
AcDbCircle
 10
173.4107652831017
 20
106.6065528371223
 30
0.0
 40
0.5
100
AcDbArc
 50
119.5242201649264
 51
176.7278297118104
  0
LINE
  5
632
330
18
100
AcDbEntity
  8
針
100
AcDbLine
 10
173.0332111492353
 20
107.2806967921225
 30
0.0
 11
175.4085118117107
 21
108.5423788842947
 31
0.0
  0
ARC
  5
633
330
18
100
AcDbEntity
  8
針
100
AcDbCircle
 10
172.7986620093297
 20
107.7222697769953
 30
0.0
 40
0.5
100
AcDbArc
 50
240.7721702881896
 51
297.9757798350735
  0
LINE
  5
634
330
18
100
AcDbEntity
  8
針
100
AcDbLine
 10
175.4566106886027
 20
108.454706208724
 30
0.0
 11
175.4085118117107
 21
108.5423788842947
 31
0.0
  0
HATCH
  5
63C
330
18
100
AcDbEntity
  8
針
100
AcDbHatch
 10
0.0
 20
0.0
 30
0.0
210
0.0
220
0.0
230
1.0
  2
SOLID
 70
     1
 71
     0
 91
        1
 92
        7
 72
     1
 73
     1
 93
        8
 10
175.5047095654946
 20
108.3670335331532
 42
0.0
 10
175.4566106886027
 20
108.454706208724
 42
0.0
 10
175.4085118117107
 20
108.5423788842947
 42
0.0
 10
173.0332111492354
 20
107.2806967921225
 42
-0.2549126604385726
 10
172.554521712333
 20
107.285926431243
 42
-0.2715629374459081
 10
172.9127216924849
 20
106.6750477637223
 42
-0.0142778933762944
 10
172.9115805516544
 20
106.6350941035601
 42
-0.2549126627183762
 10
173.1643695659673
 20
107.0416265671702
 42
0.0
 97
        0
 75
     0
 76
     1
 47
0.0080572292577995
 98
        1
 10
173.827676337443
 20
107.5359745928853
450
        0
451
        0
460
0.0
461
0.0
452
        0
462
0.0
453
        0
470

  0
LINE
  5
6CF
330
18
100
AcDbEntity
  8
外形線
100
AcDbLine
 10
83.39834118757327
 20
108.5350477637223
 30
0.0
 11
83.39834118757327
 21
113.0350477637223
 31
0.0
  0
LINE
  5
6EC
330
18
100
AcDbEntity
  8
外形線
100
AcDbLine
 10
93.39834118757325
 20
114.7850477637223
 30
0.0
 11
105.3983411875732
 21
114.7850477637223
 31
0.0
  0
LINE
  5
6ED
330
18
100
AcDbEntity
  8
外形線
100
AcDbLine
 10
93.39834118757327
 20
106.7850477637223
 30
0.0
 11
105.3983411875732
 21
106.7850477637223
 31
0.0
  0
LINE
  5
6EE
330
18
100
AcDbEntity
  8
外形線
100
AcDbLine
 10
93.39834118757327
 20
106.7850477637223
 30
0.0
 11
93.39834118757325
 21
114.7850477637223
 31
0.0
  0
LINE
  5
700
330
18
100
AcDbEntity
  8
外形線
100
AcDbLine
 10
89.89834118757325
 20
114.6850477637223
 30
0.0
 11
93.39834118757323
 21
114.6850477637223
 31
0.0
  0
LINE
  5
701
330
18
100
AcDbEntity
  8
外形線
100
AcDbLine
 10
89.89834118757327
 20
106.8850477637223
 30
0.0
 11
93.39834118757327
 21
106.8850477637223
 31
0.0
  0
LINE
  5
702
330
18
100
AcDbEntity
  8
外形線
100
AcDbLine
 10
88.89834118757326
 20
107.8850477637223
 30
0.0
 11
88.89834118757326
 21
113.6850477637223
 31
0.0
  0
ARC
  5
703
330
18
100
AcDbEntity
  8
外形線
100
AcDbCircle
 10
89.89834118757325
 20
113.6850477637223
 30
0.0
 40
1.0
100
AcDbArc
 50
90.0
 51
180.0000000000001
  0
ARC
  5
704
330
18
100
AcDbEntity
  8
外形線
100
AcDbCircle
 10
89.89834118757327
 20
107.8850477637223
 30
0.0
 40
1.0
100
AcDbArc
 50
180.0000000000001
 51
270.0
  0
LINE
  5
705
330
18
100
AcDbEntity
  8
外形線
100
AcDbLine
 10
83.39834118757327
 20
112.5350477637223
 30
0.0
 11
88.89834118757324
 21
112.5350477637223
 31
0.0
  0
LINE
  5
706
330
18
100
AcDbEntity
  8
外形線
100
AcDbLine
 10
83.39834118757327
 20
109.0350477637223
 30
0.0
 11
88.89834118757326
 21
109.0350477637223
 31
0.0
  0
LINE
  5
709
330
18
100
AcDbEntity
  8
外形線
100
AcDbLine
 10
71.89834118757326
 20
109.4850477637223
 30
0.0
 11
71.89834118757326
 21
112.0850477637223
 31
0.0
  0
LINE
  5
70A
330
18
100
AcDbEntity
  8
外形線
100
AcDbLine
 10
71.89834118757326
 20
112.0850477637223
 30
0.0
 11
78.39834118757318
 21
113.2850477637223
 31
0.0
  0
LINE
  5
70B
330
18
100
AcDbEntity
  8
外形線
100
AcDbLine
 10
71.89834118757326
 20
109.4850477637223
 30
0.0
 11
78.39834118757335
 21
108.2850477637223
 31
0.0
  0
LINE
  5
70C
330
18
100
AcDbEntity
  8
外形線
100
AcDbLine
 10
78.39834118757327
 20
108.2850477637223
 30
0.0
 11
78.39834118757327
 21
113.2850477637223
 31
0.0
  0
LINE
  5
70D
330
18
100
AcDbEntity
  8
外形線
100
AcDbLine
 10
78.39834118757318
 20
113.2850477637223
 30
0.0
 11
82.89834118757326
 21
113.2850477637223
 31
0.0
  0
LINE
  5
70E
330
18
100
AcDbEntity
  8
外形線
100
AcDbLine
 10
78.39834118757335
 20
108.2850477637223
 30
0.0
 11
82.89834118757326
 21
108.2850477637223
 31
0.0
  0
LINE
  5
70F
330
18
100
AcDbEntity
  8
外形線
100
AcDbLine
 10
82.89834118757326
 20
108.2850477637223
 30
0.0
 11
82.89834118757326
 21
113.2850477637223
 31
0.0
  0
LINE
  5
710
330
18
100
AcDbEntity
  8
外形線
100
AcDbLine
 10
82.89834118757326
 20
113.0350477637223
 30
0.0
 11
83.39834118757327
 21
113.0350477637223
 31
0.0
  0
LINE
  5
711
330
18
100
AcDbEntity
  8
外形線
100
AcDbLine
 10
82.89834118757326
 20
108.5350477637223
 30
0.0
 11
83.39834118757327
 21
108.5350477637223
 31
0.0
  0
LINE
  5
712
330
18
100
AcDbEntity
  8
外形線
 62
     4
100
AcDbLine
 10
78.72017293509478
 20
110.7850477637223
 30
0.0
 11
82.89834118757326
 21
113.1973143290103
 31
0.0
  0
LINE
  5
713
330
18
100
AcDbEntity
  8
外形線
 62
     4
100
AcDbLine
 10
78.39834118757327
 20
111.7539386560363
 30
0.0
 11
81.05029995401693
 21
113.2850477637223
 31
0.0
  0
LINE
  5
714
330
18
100
AcDbEntity
  8
外形線
 62
     4
100
AcDbLine
 10
78.39834118757327
 20
112.9086391944155
 30
0.0
 11
79.05029995401696
 21
113.2850477637223
 31
0.0
  0
LINE
  5
715
330
18
100
AcDbEntity
  8
外形線
 62
     4
100
AcDbLine
 10
80.72017293509476
 20
110.7850477637223
 30
0.0
 11
82.89834118757326
 21
112.0426137906311
 31
0.0
  0
LINE
  5
716
330
18
100
AcDbEntity
  8
外形線
 62
     4
100
AcDbLine
 10
82.72017293509478
 20
110.7850477637223
 30
0.0
 11
82.89834118757326
 21
110.8879132522518
 31
0.0
  0
LINE
  5
718
330
18
100
AcDbEntity
  8
外形線
 62
     4
100
AcDbLine
 10
81.99480740102009
 20
110.7850477637223
 30
0.0
 11
78.39834118757327
 21
112.8614685001872
 31
0.0
  0
LINE
  5
719
330
18
100
AcDbEntity
  8
外形線
 62
     4
100
AcDbLine
 10
79.99480740102011
 20
110.7850477637223
 30
0.0
 11
78.39834118757327
 21
111.706767961808
 31
0.0
  0
LINE
  5
71A
330
18
100
AcDbEntity
  8
外形線
 62
     4
100
AcDbLine
 10
82.89834118757326
 20
112.5727933655924
 30
0.0
 11
81.6646803820979
 21
113.2850477637223
 31
0.0
  0
LINE
  5
71B
330
18
100
AcDbEntity
  8
外形線
 62
     4
100
AcDbLine
 10
82.89834118757326
 20
111.4180928272132
 30
0.0
 11
79.66468038209794
 21
113.2850477637223
 31
0.0
  0
LINE
  5
770
330
18
100
AcDbEntity
  8
0
  6
ByBlock
 62
     2
100
AcDbLine
 10
105.3983411875732
 20
114.7850477637223
 30
0.0
 11
105.3983411875732
 21
135.2153328956045
 31
0.0
  0
LINE
  5
771
330
18
100
AcDbEntity
  8
0
  6
ByBlock
 62
     2
100
AcDbLine
 10
91.39834118757326
 20
133.9653328956045
 30
0.0
 11
102.8983411875732
 21
133.9653328956045
 31
0.0
  0
INSERT
  5
772
330
18
100
AcDbEntity
  8
0
  6
ByBlock
 62
     2
100
AcDbBlockReference
  2
_OPEN
 10
88.89834118757326
 20
133.9653328956045
 30
0.0
 41
2.5
 42
2.5
 43
2.5
 50
180.0
  0
INSERT
  5
773
330
18
100
AcDbEntity
  8
0
  6
ByBlock
 62
     2
100
AcDbBlockReference
  2
_OPEN
 10
105.3983411875732
 20
133.9653328956045
 30
0.0
 41
2.5
 42
2.5
 43
2.5
  0
MTEXT
  5
774
330
18
100
AcDbEntity
  8
0
  6
ByBlock
 62
     6
100
AcDbMText
 10
97.14834118757327
 20
135.8403328956045
 30
0.0
 40
2.5
 41
0.0
 71
     5
 72
     1
  1
\A1;16.5
  7
STYLE3
 73
     1
 44
1.0
  0
POINT
  5
775
330
18
100
AcDbEntity
  8
DEFPOINTS
  6
ByBlock
 62
     0
100
AcDbPoint
 10
88.89834118757326
 20
113.6850477637223
 30
0.0
  0
POINT
  5
776
330
18
100
AcDbEntity
  8
DEFPOINTS
  6
ByBlock
 62
     0
100
AcDbPoint
 10
105.3983411875732
 20
114.7850477637223
 30
0.0
  0
POINT
  5
777
330
18
100
AcDbEntity
  8
DEFPOINTS
  6
ByBlock
 62
     0
100
AcDbPoint
 10
105.3983411875732
 20
133.9653328956045
 30
0.0
  0
LINE
  5
778
330
18
100
AcDbEntity
  8
0
  6
ByBlock
 62
     2
100
AcDbLine
 10
107.4983411875732
 20
120.2850477637223
 30
0.0
 11
107.4983411875732
 21
135.2153328956045
 31
0.0
  0
LINE
  5
779
330
18
100
AcDbEntity
  8
0
  6
ByBlock
 62
     2
100
AcDbLine
 10
102.8983411875732
 20
133.9653328956045
 30
0.0
 11
100.3983411875732
 21
133.9653328956045
 31
0.0
  0
LINE
  5
77A
330
18
100
AcDbEntity
  8
0
  6
ByBlock
 62
     2
100
AcDbLine
 10
109.9983411875732
 20
133.9653328956045
 30
0.0
 11
115.7647117232586
 21
133.9653328956045
 31
0.0
  0
MTEXT
  5
77D
330
18
100
AcDbEntity
  8
0
  6
ByBlock
 62
     6
100
AcDbMText
 10
110.4801329631012
 20
135.9192767945879
 30
0.0
 40
2.5
 41
0.0
 71
     4
 72
     1
  1
\A1;2.1
  7
STYLE3
 73
     1
 44
1.0
  0
LINE
  5
77E
330
18
100
AcDbEntity
  8
0
  6
ByBlock
 62
     2
100
AcDbLine
 10
105.3983411875732
 20
133.9653328956045
 30
0.0
 11
107.4983411875732
 21
133.9653328956045
 31
0.0
  0
LINE
  5
77F
330
18
100
AcDbEntity
  8
0
  6
ByBlock
 62
     2
100
AcDbLine
 10
105.3983411875732
 20
133.9653328956045
 30
0.0
 11
107.4983411875732
 21
133.9653328956045
 31
0.0
  0
INSERT
  5
780
330
18
100
AcDbEntity
  8
0
  6
ByBlock
 62
     2
100
AcDbBlockReference
  2
_OPEN
 10
105.3983411875732
 20
133.9653328956045
 30
0.0
 41
2.5
 42
2.5
 43
2.5
  0
INSERT
  5
781
330
18
100
AcDbEntity
  8
0
  6
ByBlock
 62
     2
100
AcDbBlockReference
  2
_OPEN
 10
107.4983411875732
 20
133.9653328956045
 30
0.0
 41
2.5
 42
2.5
 43
2.5
 50
180.0
  0
POINT
  5
782
330
18
100
AcDbEntity
  8
DEFPOINTS
  6
ByBlock
 62
     0
100
AcDbPoint
 10
105.3983411875732
 20
114.7850477637223
 30
0.0
  0
POINT
  5
783
330
18
100
AcDbEntity
  8
DEFPOINTS
  6
ByBlock
 62
     0
100
AcDbPoint
 10
107.4983411875732
 20
120.2850477637223
 30
0.0
  0
POINT
  5
784
330
18
100
AcDbEntity
  8
DEFPOINTS
  6
ByBlock
 62
     0
100
AcDbPoint
 10
107.4983411875732
 20
133.9653328956045
 30
0.0
  0
LINE
  5
785
330
18
100
AcDbEntity
  8
0
  6
ByBlock
 62
     2
100
AcDbLine
 10
88.89834118757326
 20
113.6850477637223
 30
0.0
 11
88.89834118757326
 21
135.2153328956045
 31
0.0
  0
LINE
  5
786
330
18
100
AcDbEntity
  8
0
  6
ByBlock
 62
     2
100
AcDbLine
 10
80.89834118757327
 20
133.9653328956045
 30
0.0
 11
78.39834118757327
 21
133.9653328956045
 31
0.0
  0
LINE
  5
787
330
18
100
AcDbEntity
  8
0
  6
ByBlock
 62
     2
100
AcDbLine
 10
91.39834118757326
 20
133.9653328956045
 30
0.0
 11
93.89834118757326
 21
133.9653328956045
 31
0.0
  0
MTEXT
  5
78A
330
18
100
AcDbEntity
  8
0
  6
ByBlock
 62
     6
100
AcDbMText
 10
83.49892162037306
 20
131.3202525594036
 30
0.0
 40
2.5
 41
0.0
 71
     4
 72
     1
  1
\A1;5.5
  7
STYLE3
 73
     1
 44
1.0
  0
LINE
  5
78B
330
18
100
AcDbEntity
  8
0
  6
ByBlock
 62
     2
100
AcDbLine
 10
83.39834118757327
 20
133.9653328956045
 30
0.0
 11
88.89834118757326
 21
133.9653328956045
 31
0.0
  0
LINE
  5
78C
330
18
100
AcDbEntity
  8
0
  6
ByBlock
 62
     2
100
AcDbLine
 10
83.39834118757327
 20
133.9653328956045
 30
0.0
 11
88.89834118757326
 21
133.9653328956045
 31
0.0
  0
INSERT
  5
78D
330
18
100
AcDbEntity
  8
0
  6
ByBlock
 62
     2
100
AcDbBlockReference
  2
_OPEN
 10
83.39834118757327
 20
133.9653328956045
 30
0.0
 41
2.5
 42
2.5
 43
2.5
  0
INSERT
  5
78E
330
18
100
AcDbEntity
  8
0
  6
ByBlock
 62
     2
100
AcDbBlockReference
  2
_OPEN
 10
88.89834118757326
 20
133.9653328956045
 30
0.0
 41
2.5
 42
2.5
 43
2.5
 50
180.0
  0
POINT
  5
78F
330
18
100
AcDbEntity
  8
DEFPOINTS
  6
ByBlock
 62
     0
100
AcDbPoint
 10
83.39834118757327
 20
113.0350477637223
 30
0.0
  0
POINT
  5
790
330
18
100
AcDbEntity
  8
DEFPOINTS
  6
ByBlock
 62
     0
100
AcDbPoint
 10
88.89834118757326
 20
113.6850477637223
 30
0.0
  0
POINT
  5
791
330
18
100
AcDbEntity
  8
DEFPOINTS
  6
ByBlock
 62
     0
100
AcDbPoint
 10
88.89834118757326
 20
133.9653328956045
 30
0.0
  0
LINE
  5
792
330
18
100
AcDbEntity
  8
0
  6
ByBlock
 62
     2
100
AcDbLine
 10
70.89834118757327
 20
110.7850477637223
 30
0.0
 11
70.89834118757327
 21
135.2153328956045
 31
0.0
  0
LINE
  5
793
330
18
100
AcDbEntity
  8
0
  6
ByBlock
 62
     2
100
AcDbLine
 10
83.39834118757327
 20
113.0350477637223
 30
0.0
 11
83.39834118757327
 21
135.2153328956045
 31
0.0
  0
LINE
  5
794
330
18
100
AcDbEntity
  8
0
  6
ByBlock
 62
     2
100
AcDbLine
 10
73.39834118757327
 20
133.9653328956045
 30
0.0
 11
80.89834118757327
 21
133.9653328956045
 31
0.0
  0
INSERT
  5
795
330
18
100
AcDbEntity
  8
0
  6
ByBlock
 62
     2
100
AcDbBlockReference
  2
_OPEN
 10
70.89834118757327
 20
133.9653328956045
 30
0.0
 41
2.5
 42
2.5
 43
2.5
 50
180.0
  0
INSERT
  5
796
330
18
100
AcDbEntity
  8
0
  6
ByBlock
 62
     2
100
AcDbBlockReference
  2
_OPEN
 10
83.39834118757327
 20
133.9653328956045
 30
0.0
 41
2.5
 42
2.5
 43
2.5
  0
MTEXT
  5
797
330
18
100
AcDbEntity
  8
0
  6
ByBlock
 62
     6
100
AcDbMText
 10
77.14834118757327
 20
135.8403328956045
 30
0.0
 40
2.5
 41
0.0
 71
     5
 72
     1
  1
\A1;12.5
  7
STYLE3
 73
     1
 44
1.0
  0
POINT
  5
798
330
18
100
AcDbEntity
  8
DEFPOINTS
  6
ByBlock
 62
     0
100
AcDbPoint
 10
70.89834118757327
 20
110.7850477637223
 30
0.0
  0
POINT
  5
799
330
18
100
AcDbEntity
  8
DEFPOINTS
  6
ByBlock
 62
     0
100
AcDbPoint
 10
83.39834118757327
 20
113.0350477637223
 30
0.0
  0
POINT
  5
79A
330
18
100
AcDbEntity
  8
DEFPOINTS
  6
ByBlock
 62
     0
100
AcDbPoint
 10
83.39834118757327
 20
133.9653328956045
 30
0.0
  0
LINE
  5
7EB
330
18
100
AcDbEntity
  8
0
  6
ByBlock
 62
     2
100
AcDbLine
 10
99.14604285459404
 20
106.7850477637223
 30
0.0
 11
97.85891373772711
 21
106.7850477637223
 31
0.0
  0
LINE
  5
7EC
330
18
100
AcDbEntity
  8
0
  6
ByBlock
 62
     2
100
AcDbLine
 10
100.248765225975
 20
114.7850477637223
 30
0.0
 11
97.85891373772711
 21
114.7850477637223
 31
0.0
  0
LINE
  5
7ED
330
18
100
AcDbEntity
  8
0
  6
ByBlock
 62
     2
100
AcDbLine
 10
99.10891373772711
 20
109.2850477637223
 30
0.0
 11
99.10891373772711
 21
112.2850477637223
 31
0.0
  0
LINE
  5
7EE
330
18
100
AcDbEntity
  8
0
  6
ByBlock
 62
     2
100
AcDbLine
 10
99.10891373772711
 20
114.7850477637223
 30
0.0
 11
99.10891373772713
 21
124.0379625403402
 31
0.0
  0
INSERT
  5
7EF
330
18
100
AcDbEntity
  8
0
  6
ByBlock
 62
     2
100
AcDbBlockReference
  2
_OPEN
 10
99.10891373772711
 20
106.7850477637223
 30
0.0
 41
2.5
 42
2.5
 43
2.5
 50
270.0
  0
INSERT
  5
7F0
330
18
100
AcDbEntity
  8
0
  6
ByBlock
 62
     2
100
AcDbBlockReference
  2
_OPEN
 10
99.10891373772711
 20
114.7850477637223
 30
0.0
 41
2.5
 42
2.5
 43
2.5
 50
90.0
  0
MTEXT
  5
7F1
330
18
100
AcDbEntity
  8
0
  6
ByBlock
 62
     6
100
AcDbMText
 10
97.23391373772711
 20
118.9441127227
 30
0.0
 40
2.5
 41
0.0
 71
     5
 72
     1
  1
\A1;φ8.0
  7
STYLE3
 11
0.0000000000000001
 21
1.0
 31
0.0
 73
     1
 44
1.0
  0
POINT
  5
7F2
330
18
100
AcDbEntity
  8
DEFPOINTS
  6
ByBlock
 62
     0
100
AcDbPoint
 10
99.14604285459404
 20
106.7850477637223
 30
0.0
  0
POINT
  5
7F3
330
18
100
AcDbEntity
  8
DEFPOINTS
  6
ByBlock
 62
     0
100
AcDbPoint
 10
100.248765225975
 20
114.7850477637223
 30
0.0
  0
POINT
  5
7F4
330
18
100
AcDbEntity
  8
DEFPOINTS
  6
ByBlock
 62
     0
100
AcDbPoint
 10
99.10891373772711
 20
114.7850477637223
 30
0.0
  0
TEXT
  5
7F5
330
18
100
AcDbEntity
  8
文字
100
AcDbText
 10
96.53920535542273
 20
125.4203214598444
 30
0.0
 40
1.0
  1
0
 50
90.0
  7
STYLE3
100
AcDbText
  0
TEXT
  5
7F6
330
18
100
AcDbEntity
  8
文字
100
AcDbText
 10
97.84418016733731
 20
124.1757688924719
 30
0.0
 40
1.0
  1
-0.03
 50
90.0
  7
STYLE3
100
AcDbText
  0
LINE
  5
80F
330
18
100
AcDbEntity
  8
0
  6
ByBlock
 62
     2
100
AcDbLine
 10
110.9808361035343
 20
106.2850477637223
 30
0.0
 11
113.1300211670634
 21
106.2850477637223
 31
0.0
  0
LINE
  5
810
330
18
100
AcDbEntity
  8
0
  6
ByBlock
 62
     2
100
AcDbLine
 10
109.5078670999459
 20
110.7850477637223
 30
0.0
 11
113.1300211670634
 21
110.7850477637223
 31
0.0
  0
LINE
  5
811
330
18
100
AcDbEntity
  8
0
  6
ByBlock
 62
     2
100
AcDbLine
 10
111.8800211670634
 20
103.7850477637223
 30
0.0
 11
111.8800211670634
 21
101.2850477637223
 31
0.0
  0
LINE
  5
812
330
18
100
AcDbEntity
  8
0
  6
ByBlock
 62
     2
100
AcDbLine
 10
111.8800211670634
 20
113.2850477637223
 30
0.0
 11
111.8800211670634
 21
119.1777830966084
 31
0.0
  0
LINE
  5
813
330
18
100
AcDbEntity
  8
0
  6
ByBlock
 62
     2
100
AcDbLine
 10
111.8800211670634
 20
106.2850477637223
 30
0.0
 11
111.8800211670634
 21
110.7850477637223
 31
0.0
  0
INSERT
  5
814
330
18
100
AcDbEntity
  8
0
  6
ByBlock
 62
     2
100
AcDbBlockReference
  2
_OPEN
 10
111.8800211670634
 20
106.2850477637223
 30
0.0
 41
2.5
 42
2.5
 43
2.5
 50
90.0
  0
INSERT
  5
815
330
18
100
AcDbEntity
  8
0
  6
ByBlock
 62
     2
100
AcDbBlockReference
  2
_OPEN
 10
111.8800211670634
 20
110.7850477637223
 30
0.0
 41
2.5
 42
2.5
 43
2.5
 50
270.0
  0
MTEXT
  5
816
330
18
100
AcDbEntity
  8
0
  6
ByBlock
 62
     6
100
AcDbMText
 10
110.0050211670634
 20
115.948578853372
 30
0.0
 40
2.5
 41
0.0
 71
     5
 72
     1
  1
\A1;4.5
  7
STYLE3
 11
0.0000000000000001
 21
1.0
 31
0.0
 73
     1
 44
1.0
  0
POINT
  5
817
330
18
100
AcDbEntity
  8
DEFPOINTS
  6
ByBlock
 62
     0
100
AcDbPoint
 10
110.9808361035343
 20
106.2850477637223
 30
0.0
  0
POINT
  5
818
330
18
100
AcDbEntity
  8
DEFPOINTS
  6
ByBlock
 62
     0
100
AcDbPoint
 10
109.5078670999459
 20
110.7850477637223
 30
0.0
  0
POINT
  5
819
330
18
100
AcDbEntity
  8
DEFPOINTS
  6
ByBlock
 62
     0
100
AcDbPoint
 10
111.8800211670634
 20
110.7850477637223
 30
0.0
  0
LINE
  5
82A
330
18
100
AcDbEntity
  8
0
  6
ByBlock
 62
     2
100
AcDbLine
 10
86.31747470068308
 20
109.0350477637223
 30
0.0
 11
88.85202445177492
 21
109.0350477637223
 31
0.0
  0
LINE
  5
82B
330
18
100
AcDbEntity
  8
0
  6
ByBlock
 62
     2
100
AcDbLine
 10
85.8036543247165
 20
112.5350477637223
 30
0.0
 11
88.85202445177492
 21
112.5350477637223
 31
0.0
  0
LINE
  5
82C
330
18
100
AcDbEntity
  8
0
  6
ByBlock
 62
     2
100
AcDbLine
 10
87.60202445177492
 20
106.5350477637223
 30
0.0
 11
87.60202445177492
 21
104.0350477637223
 31
0.0
  0
LINE
  5
82D
330
18
100
AcDbEntity
  8
0
  6
ByBlock
 62
     2
100
AcDbLine
 10
87.60202445177492
 20
115.0350477637223
 30
0.0
 11
87.60202445177492
 21
124.0231430018176
 31
0.0
  0
LINE
  5
82E
330
18
100
AcDbEntity
  8
0
  6
ByBlock
 62
     2
100
AcDbLine
 10
87.60202445177492
 20
109.0350477637223
 30
0.0
 11
87.60202445177492
 21
112.5350477637223
 31
0.0
  0
INSERT
  5
82F
330
18
100
AcDbEntity
  8
0
  6
ByBlock
 62
     2
100
AcDbBlockReference
  2
_OPEN
 10
87.60202445177492
 20
109.0350477637223
 30
0.0
 41
2.5
 42
2.5
 43
2.5
 50
90.0
  0
INSERT
  5
830
330
18
100
AcDbEntity
  8
0
  6
ByBlock
 62
     2
100
AcDbBlockReference
  2
_OPEN
 10
87.60202445177492
 20
112.5350477637223
 30
0.0
 41
2.5
 42
2.5
 43
2.5
 50
270.0
  0
MTEXT
  5
831
330
18
100
AcDbEntity
  8
0
  6
ByBlock
 62
     6
100
AcDbMText
 10
85.72702445177492
 20
119.1104821284814
 30
0.0
 40
2.5
 41
0.0
 71
     5
 72
     1
  1
\A1;φ3.5
  7
STYLE3
 11
0.0000000000000001
 21
1.0
 31
0.0
 73
     1
 44
1.0
  0
POINT
  5
832
330
18
100
AcDbEntity
  8
DEFPOINTS
  6
ByBlock
 62
     0
100
AcDbPoint
 10
86.31747470068308
 20
109.0350477637223
 30
0.0
  0
POINT
  5
833
330
18
100
AcDbEntity
  8
DEFPOINTS
  6
ByBlock
 62
     0
100
AcDbPoint
 10
85.8036543247165
 20
112.5350477637223
 30
0.0
  0
POINT
  5
834
330
18
100
AcDbEntity
  8
DEFPOINTS
  6
ByBlock
 62
     0
100
AcDbPoint
 10
87.60202445177492
 20
112.5350477637223
 30
0.0
  0
LINE
  5
84A
330
18
100
AcDbEntity
  8
0
  6
ByBlock
 62
     2
100
AcDbLine
 10
70.89834118757327
 20
142.1880465243778
 30
0.0
 11
70.89834118757327
 21
148.5673378047537
 31
0.0
  0
LINE
  5
84B
330
18
100
AcDbEntity
  8
0
  6
ByBlock
 62
     2
100
AcDbLine
 10
129.3983411875732
 20
142.1880465243778
 30
0.0
 11
129.3983411875732
 21
148.5673378047537
 31
0.0
  0
LINE
  5
84C
330
18
100
AcDbEntity
  8
0
  6
ByBlock
 62
     2
100
AcDbLine
 10
73.39834118757327
 20
147.3173378047538
 30
0.0
 11
126.8983411875732
 21
147.3173378047538
 31
0.0
  0
INSERT
  5
84D
330
18
100
AcDbEntity
  8
0
  6
ByBlock
 62
     2
100
AcDbBlockReference
  2
_OPEN
 10
70.89834118757327
 20
147.3173378047538
 30
0.0
 41
2.5
 42
2.5
 43
2.5
 50
180.0
  0
INSERT
  5
84E
330
18
100
AcDbEntity
  8
0
  6
ByBlock
 62
     2
100
AcDbBlockReference
  2
_OPEN
 10
129.3983411875732
 20
147.3173378047538
 30
0.0
 41
2.5
 42
2.5
 43
2.5
  0
MTEXT
  5
84F
330
18
100
AcDbEntity
  8
0
  6
ByBlock
 62
     6
100
AcDbMText
 10
100.1483411875732
 20
149.1923378047538
 30
0.0
 40
2.5
 41
0.0
 71
     5
 72
     1
  1
\A1;58.5
  7
STYLE3
 73
     1
 44
1.0
  0
POINT
  5
850
330
18
100
AcDbEntity
  8
DEFPOINTS
  6
ByBlock
 62
     0
100
AcDbPoint
 10
70.89834118757327
 20
142.1880465243778
 30
0.0
  0
POINT
  5
851
330
18
100
AcDbEntity
  8
DEFPOINTS
  6
ByBlock
 62
     0
100
AcDbPoint
 10
129.3983411875732
 20
142.1880465243778
 30
0.0
  0
POINT
  5
852
330
18
100
AcDbEntity
  8
DEFPOINTS
  6
ByBlock
 62
     0
100
AcDbPoint
 10
129.3983411875732
 20
147.3173378047538
 30
0.0
  0
LINE
  5
853
330
18
100
AcDbEntity
  8
0
  6
ByBlock
 62
     2
100
AcDbLine
 10
129.3983411875732
 20
106.2850477637223
 30
0.0
 11
129.3983411875732
 21
142.1880465243778
 31
0.0
  0
LINE
  5
854
330
18
100
AcDbEntity
  8
0
  6
ByBlock
 62
     2
100
AcDbLine
 10
109.9983411875732
 20
140.9380465243778
 30
0.0
 11
126.8983411875732
 21
140.9380465243778
 31
0.0
  0
INSERT
  5
855
330
18
100
AcDbEntity
  8
0
  6
ByBlock
 62
     2
100
AcDbBlockReference
  2
_OPEN
 10
107.4983411875732
 20
140.9380465243778
 30
0.0
 41
2.5
 42
2.5
 43
2.5
 50
180.0
  0
INSERT
  5
856
330
18
100
AcDbEntity
  8
0
  6
ByBlock
 62
     2
100
AcDbBlockReference
  2
_OPEN
 10
129.3983411875732
 20
140.9380465243778
 30
0.0
 41
2.5
 42
2.5
 43
2.5
  0
MTEXT
  5
857
330
18
100
AcDbEntity
  8
0
  6
ByBlock
 62
     6
100
AcDbMText
 10
118.4483411875732
 20
142.8130465243778
 30
0.0
 40
2.5
 41
0.0
 71
     5
 72
     1
  1
\A1;21.9
  7
STYLE3
 73
     1
 44
1.0
  0
POINT
  5
858
330
18
100
AcDbEntity
  8
DEFPOINTS
  6
ByBlock
 62
     0
100
AcDbPoint
 10
107.4983411875732
 20
135.2153328956045
 30
0.0
  0
POINT
  5
859
330
18
100
AcDbEntity
  8
DEFPOINTS
  6
ByBlock
 62
     0
100
AcDbPoint
 10
129.3983411875732
 20
106.2850477637223
 30
0.0
  0
POINT
  5
85A
330
18
100
AcDbEntity
  8
DEFPOINTS
  6
ByBlock
 62
     0
100
AcDbPoint
 10
129.3983411875732
 20
140.9380465243778
 30
0.0
  0
LINE
  5
85B
330
18
100
AcDbEntity
  8
0
  6
ByBlock
 62
     2
100
AcDbLine
 10
70.89834118757327
 20
135.2153328956045
 30
0.0
 11
70.89834118757327
 21
142.1880465243778
 31
0.0
  0
LINE
  5
85C
330
18
100
AcDbEntity
  8
0
  6
ByBlock
 62
     2
100
AcDbLine
 10
107.4983411875732
 20
135.2153328956045
 30
0.0
 11
107.4983411875732
 21
142.1880465243778
 31
0.0
  0
LINE
  5
85D
330
18
100
AcDbEntity
  8
0
  6
ByBlock
 62
     2
100
AcDbLine
 10
73.39834118757327
 20
140.9380465243778
 30
0.0
 11
104.9983411875732
 21
140.9380465243778
 31
0.0
  0
INSERT
  5
85E
330
18
100
AcDbEntity
  8
0
  6
ByBlock
 62
     2
100
AcDbBlockReference
  2
_OPEN
 10
70.89834118757327
 20
140.9380465243778
 30
0.0
 41
2.5
 42
2.5
 43
2.5
 50
180.0
  0
INSERT
  5
85F
330
18
100
AcDbEntity
  8
0
  6
ByBlock
 62
     2
100
AcDbBlockReference
  2
_OPEN
 10
107.4983411875732
 20
140.9380465243778
 30
0.0
 41
2.5
 42
2.5
 43
2.5
  0
MTEXT
  5
860
330
18
100
AcDbEntity
  8
0
  6
ByBlock
 62
     6
100
AcDbMText
 10
89.19834118757327
 20
142.8130465243778
 30
0.0
 40
2.5
 41
0.0
 71
     5
 72
     1
  1
\A1;36.6
  7
STYLE3
 73
     1
 44
1.0
  0
POINT
  5
861
330
18
100
AcDbEntity
  8
DEFPOINTS
  6
ByBlock
 62
     0
100
AcDbPoint
 10
70.89834118757327
 20
135.2153328956045
 30
0.0
  0
POINT
  5
862
330
18
100
AcDbEntity
  8
DEFPOINTS
  6
ByBlock
 62
     0
100
AcDbPoint
 10
107.4983411875732
 20
135.2153328956045
 30
0.0
  0
POINT
  5
863
330
18
100
AcDbEntity
  8
DEFPOINTS
  6
ByBlock
 62
     0
100
AcDbPoint
 10
107.4983411875732
 20
140.9380465243778
 30
0.0
  0
HATCH
  5
864
330
18
100
AcDbEntity
  8
ROGO
 62
     4
100
AcDbHatch
 10
0.0
 20
0.0
 30
0.0
210
0.0
220
0.0
230
1.0
  2
SOLID
 70
     1
 71
     1
 91
        1
 92
        7
 72
     0
 73
     1
 93
       11
 10
182.0788585556882
 20
111.4081015480078
 10
182.6904995895246
 20
111.4081015480078
 10
182.9065316163073
 20
111.8413507139467
 10
183.1225636430899
 20
111.4081015480078
 10
183.7341912947125
 20
111.4081015480078
 10
183.3203547644029
 20
112.2380448404996
 10
184.3258174495823
 20
113.0679881329915
 10
183.7141897979598
 20
113.0679881329915
 10
183.4278075945695
 20
112.8867622955977
 10
183.5181726501437
 20
113.0679881329915
 10
182.9065316163073
 20
113.0679881329915
 97
       11
330
8B2
330
8B5
330
8B4
330
8B3
330
869
330
866
330
8AF
330
8AE
330
8B0
330
8AD
330
8B1
 75
     0
 76
     1
 47
0.0514683685270805
 98
        1
 10
182.8538916213093
 20
112.3558644420219
450
        0
451
        0
460
0.0
461
0.0
452
        0
462
0.0
453
        0
470

  0
HATCH
  5
865
330
18
100
AcDbEntity
  8
ROGO
 62
     4
100
AcDbHatch
 10
0.0
 20
0.0
 30
0.0
210
0.0
220
0.0
230
1.0
  2
SOLID
 70
     1
 71
     1
 91
        1
 92
        5
 93
        8
 72
     4
 94
        3
 73
     0
 74
     0
 95
       26
 96
       22
 40
0.0
 40
0.0
 40
0.0
 40
0.0
 40
0.1927099265173959
 40
0.3217143003795198
 40
0.4147369596493893
 40
0.4841939694029859
 40
0.5742833564486608
 40
0.6400398264178261
 40
0.758780684707237
 40
0.8554340362639557
 40
0.9211738023510461
 40
0.9856350088615965
 40
1.100943575280585
 40
1.18248049438522
 40
1.226394424896
 40
1.288772865988462
 40
1.333817737941422
 40
1.399072885742904
 40
1.436001654955427
 40
1.516362799066885
 40
1.553056395558953
 40
1.553056395558953
 40
1.553056395558953
 40
1.553056395558953
 10
181.6202348600953
 20
113.0679881329915
 10
181.5548261335023
 20
113.0640857361988
 10
181.4456313291927
 20
113.0575709869242
 10
181.3257360983237
 20
112.9847359217507
 10
181.2378938331376
 20
112.9423928155882
 10
181.1752448361379
 20
112.8848309701555
 10
181.1293228673769
 20
112.8253737886369
 10
181.0714296048147
 20
112.7545309928085
 10
181.0242193034968
 20
112.672037423798
 10
181.0001779671349
 20
112.5811151293847
 10
180.9788823795621
 20
112.5086495331893
 10
180.9630892153105
 20
112.4278960831828
 10
180.9671074433948
 20
112.3406539495977
 10
180.972861729911
 20
112.2596279222566
 10
180.998553219949
 20
112.2017874699952
 10
181.0278112763552
 20
112.1606090537234
 10
181.0636373657374
 20
112.115255593436
 10
181.1028389420442
 20
112.0852181435479
 10
181.1352618455049
 20
112.0308032846075
 10
181.1920170442476
 20
112.0238595561641
 10
181.2280929064881
 20
112.0100394641363
 10
181.2394017447746
 20
112.0057072271184
 72
     1
 10
181.2394017447747
 20
112.0057072271184
 11
182.1543582729301
 21
112.0057072271184
 72
     1
 10
182.1543582729301
 20
112.0057072271184
 11
182.3514343036914
 21
112.400940411871
 72
     1
 10
182.3514343036914
 20
112.400940411871
 11
181.6721664675677
 21
112.400940411871
 72
     4
 94
        3
 73
     0
 74
     0
 95
       16
 96
       12
 40
0.0
 40
0.0
 40
0.0
 40
0.0
 40
0.0581978857823591
 40
0.1169960404798265
 40
0.1520664971353318
 40
0.1856918471252166
 40
0.2226204696139885
 40
0.248408665313774
 40
0.2728794248980376
 40
0.3225026120845838
 40
0.4241003886766465
 40
0.4241003886766465
 40
0.4241003886766465
 40
0.4241003886766465
 10
181.6721664675677
 20
112.400940411871
 10
181.6516773558529
 20
112.4069686089618
 10
181.6104878021199
 20
112.4190871796174
 10
181.6070405690856
 20
112.4778335581518
 10
181.6117369253669
 20
112.5196951600572
 10
181.6314052759617
 20
112.5501728508046
 10
181.6552663966634
 20
112.5723493808873
 10
181.6641509501707
 20
112.6012308438841
 10
181.690266285738
 20
112.6230399618328
 10
181.73657577316
 20
112.6596980425729
 10
181.7877860496013
 20
112.6675053946989
 10
181.8221916643726
 20
112.6727507627832
 72
     1
 10
181.8221916643727
 20
112.6727507627832
 11
182.4869677233132
 21
112.6727507627832
 72
     1
 10
182.4869677233132
 20
112.6727507627832
 11
182.6840458410779
 21
113.0679881329915
 72
     1
 10
182.6840458410779
 20
113.0679881329915
 11
181.6202348600953
 21
113.0679881329915
 97
        8
330
867
330
88B
330
897
330
890
330
8AB
330
8AA
330
8AC
330
868
 75
     0
 76
     1
 47
0.0514683685270805
 98
        1
 10
181.8038018428058
 20
112.8734808859948
450
        0
451
        0
460
0.0
461
0.0
452
        0
462
0.0
453
        0
470

  0
LINE
  5
866
102
{ACAD_REACTORS
330
864
330
86F
102
}
330
18
100
AcDbEntity
  8
ROGO
 62
     4
100
AcDbLine
 10
171.4547193906229
 20
111.4081015480078
 30
0.0
 11
182.6904995895247
 21
111.4081015480078
 31
0.0
  0
LINE
  5
867
102
{ACAD_REACTORS
330
865
102
}
330
18
100
AcDbEntity
  8
ROGO
 62
     4
100
AcDbLine
 10
181.6202348600956
 20
113.0679881329915
 30
0.0
 11
182.6840458410779
 21
113.0679881329915
 31
0.0
  0
LINE
  5
868
102
{ACAD_REACTORS
330
865
102
}
330
18
100
AcDbEntity
  8
ROGO
 62
     4
100
AcDbLine
 10
182.6840458410779
 20
113.0679881329915
 30
0.0
 11
182.4869677233133
 21
112.6727507627832
 31
0.0
  0
LINE
  5
869
102
{ACAD_REACTORS
330
864
102
}
330
18
100
AcDbEntity
  8
ROGO
 62
     4
100
AcDbLine
 10
182.9065316163073
 20
113.0679881329915
 30
0.0
 11
182.0788585556882
 21
111.4081015480078
 31
0.0
  0
HATCH
  5
86A
330
18
100
AcDbEntity
  8
ROGO
 62
     4
100
AcDbHatch
 10
0.0
 20
0.0
 30
0.0
210
0.0
220
0.0
230
1.0
  2
SOLID
 70
     1
 71
     0
 91
        1
 92
        7
 72
     0
 73
     1
 93
        4
 10
182.1618204198935
 20
111.5744803901037
 10
172.3015801261118
 20
111.5744803901037
 10
172.2263056184011
 20
111.4081015480078
 10
182.0788585556882
 20
111.4081015480078
 97
        0
 75
     0
 76
     1
 47
0.0514683685270805
 98
        1
 10
178.5275218135064
 20
111.5304758602707
450
        0
451
        0
460
0.0
461
0.0
452
        0
462
0.0
453
        0
470

  0
HATCH
  5
86B
330
18
100
AcDbEntity
  8
ROGO
 62
     4
100
AcDbHatch
 10
0.0
 20
0.0
 30
0.0
210
0.0
220
0.0
230
1.0
  2
SOLID
 70
     1
 71
     1
 91
        2
 92
        7
 72
     0
 73
     1
 93
        8
 10
176.8180364755684
 20
113.0679881329915
 10
176.2040796595186
 20
113.0679881329915
 10
175.4380482531048
 20
112.0057072271184
 10
176.026361737278
 20
112.0057072271184
 10
176.1722093774714
 20
112.2079589390546
 10
176.8499067576156
 20
112.2079589390546
 10
176.995754397809
 20
112.0057072271184
 10
177.5840678819822
 20
112.0057072271184
 97
        8
330
86D
330
875
330
87A
330
876
330
86C
330
88E
330
894
330
88D
 92
       22
 72
     0
 73
     1
 93
        3
 10
176.696076853492
 20
112.4212799185009
 10
176.326039281595
 20
112.4212799185009
 10
176.5110580675435
 20
112.6778515445404
 97
        3
330
899
330
898
330
89A
 75
     0
 76
     1
 47
0.0514683685270805
 98
        2
 10
176.8893817988567
 20
112.5237399997529
 10
176.8893817988567
 20
112.5237399997529
450
        0
451
        0
460
0.0
461
0.0
452
        0
462
0.0
453
        0
470

  0
LINE
  5
86C
102
{ACAD_REACTORS
330
86B
102
}
330
18
100
AcDbEntity
  8
ROGO
 62
     4
100
AcDbLine
 10
176.1722093774714
 20
112.2079589390546
 30
0.0
 11
176.8499067576156
 21
112.2079589390546
 31
0.0
  0
LINE
  5
86D
102
{ACAD_REACTORS
330
86B
102
}
330
18
100
AcDbEntity
  8
ROGO
 62
     4
100
AcDbLine
 10
176.2040796595186
 20
113.0679881329915
 30
0.0
 11
176.8180364755684
 21
113.0679881329915
 31
0.0
  0
LINE
  5
86E
330
18
100
AcDbEntity
  8
ROGO
 62
     4
100
AcDbLine
 10
172.2900415769699
 20
111.5744803901037
 30
0.0
 11
182.1618204198936
 21
111.5744803901037
 31
0.0
  0
HATCH
  5
86F
330
18
100
AcDbEntity
  8
ROGO
 62
     4
100
AcDbHatch
 10
0.0
 20
0.0
 30
0.0
210
0.0
220
0.0
230
1.0
  2
SOLID
 70
     1
 71
     1
 91
        2
 92
        5
 93
        6
 72
     1
 10
171.4547193906229
 20
111.4081015480078
 11
172.2263056184011
 21
111.4081015480078
 72
     1
 10
172.2263056184011
 20
111.4081015480078
 11
172.4966793794725
 21
112.0057072271184
 72
     1
 10
172.4966793794725
 20
112.0057072271184
 11
173.2179542492585
 21
112.0057072271184
 72
     4
 94
        3
 73
     0
 74
     0
 95
       18
 96
       14
 40
0.108740278791501
 40
0.108740278791501
 40
0.108740278791501
 40
0.108740278791501
 40
0.6623149649549278
 40
1.384304701649787
 40
2.097394834876493
 40
2.774073369849618
 40
3.428974823686337
 40
4.005208313035923
 40
4.455173659284313
 40
4.720999734343524
 40
5.086034088486724
 40
5.569973738255373
 40
6.060470601257719
 40
6.060470601257719
 40
6.060470601257719
 40
6.060470601257719
 10
173.2179542492584
 20
112.0057072271184
 10
173.2687163829812
 20
112.006085237358
 10
173.3856841082468
 20
112.0069562605916
 10
173.5493210406281
 20
112.0943747055569
 10
173.7044956066947
 20
112.2057394352198
 10
173.8294781633522
 20
112.344878046226
 10
173.9073460617169
 20
112.5039592101429
 10
173.9194075530464
 20
112.6564238937328
 10
173.9120443089199
 20
112.7770215629953
 10
173.8594302312499
 20
112.8610811324264
 10
173.8047314770891
 20
112.9463929991827
 10
173.704432458095
 20
113.0202933068644
 10
173.6222519350185
 20
113.0526726269953
 10
173.5804614675995
 20
113.0679881329915
 72
     1
 10
173.5804614675995
 20
113.0679881329915
 11
172.2760158357609
 21
113.0679881329915
 72
     1
 10
172.2760158357609
 20
113.0679881329915
 11
171.4547193906229
 21
111.4081015480078
 97
        6
330
871
330
87B
330
872
330
866
330
878
330
877
 92
       20
 93
        4
 72
     1
 10
172.6636198707542
 20
112.3746949028015
 11
172.7914336697757
 21
112.6572010596909
 72
     1
 10
172.7914336697757
 20
112.6572010596909
 11
173.1198606599259
 21
112.6572010596909
 72
     4
 94
        3
 73
     0
 74
     0
 95
       15
 96
       11
 40
0.0
 40
0.0
 40
0.0
 40
0.0
 40
0.1245558822265106
 40
0.1813465134536237
 40
0.2458076605629357
 40
0.2897215910737034
 40
0.3591719276284023
 40
0.4007707820523276
 40
0.4721407847095294
 40
0.4959308007789738
 40
0.4959308007789738
 40
0.4959308007789738
 40
0.4959308007789738
 10
173.1198606599259
 20
112.6572010596909
 10
173.1666414338697
 20
112.6574153406064
 10
173.2347516676034
 20
112.6577273218331
 10
173.2719967692217
 20
112.5734747657369
 10
173.2553017388237
 20
112.5192292628492
 10
173.2343147249467
 20
112.4635360384849
 10
173.1972259181813
 20
112.4256916525561
 10
173.1474473069958
 20
112.3892411292244
 10
173.100404140609
 20
112.3848286301573
 10
173.069807841648
 20
112.3767216490487
 10
173.0621587632463
 20
112.3746949028015
 72
     1
 10
173.0621587632463
 20
112.3746949028015
 11
172.6636198707542
 21
112.3746949028015
 97
        4
330
87E
330
87C
330
880
330
87D
 75
     0
 76
     1
 47
0.0514683685270805
 98
        2
 10
172.2829878952808
 20
112.5517193533541
 10
172.2829878952808
 20
112.5517193533541
450
        0
451
        0
460
0.0
461
0.0
452
        0
462
0.0
453
        0
470

  0
HATCH
  5
870
330
18
100
AcDbEntity
  8
ROGO
 62
     4
100
AcDbHatch
 10
0.0
 20
0.0
 30
0.0
210
0.0
220
0.0
230
1.0
  2
SOLID
 70
     1
 71
     1
 91
        1
 92
        1
 93
       12
 72
     1
 10
174.3510955803392
 20
113.0679881329915
 11
175.7878746989065
 21
113.0679881329915
 72
     1
 10
175.7878746989065
 20
113.0679881329915
 11
175.6674738805423
 21
112.8246512667397
 72
     1
 10
175.6674738805423
 20
112.8246512667397
 11
174.912339082426
 21
112.8246512667397
 72
     1
 10
174.912339082426
 20
112.8246512667397
 11
174.8182006041592
 21
112.6343920757607
 72
     1
 10
174.8182006041592
 20
112.6343920757607
 11
175.5733354022756
 21
112.6343920757607
 72
     1
 10
175.5733354022756
 20
112.6343920757607
 11
175.4768052117059
 21
112.4392990988935
 72
     1
 10
175.4768052117059
 20
112.4392990988935
 11
174.7216704135896
 21
112.4392990988935
 72
     1
 10
174.7216704135896
 20
112.4392990988935
 11
174.6275279499521
 21
112.249031853255
 72
     1
 10
174.6275279499522
 20
112.249031853255
 11
175.3826627480685
 21
112.249031853255
 72
     1
 10
175.3826627480685
 20
112.249031853255
 11
175.2622679859996
 21
112.0057072271184
 72
     1
 10
175.2622679859996
 20
112.0057072271184
 11
173.8254888674323
 21
112.0057072271184
 72
     1
 10
173.8254888674323
 20
112.0057072271184
 11
174.3510955803392
 21
113.0679881329915
 97
       12
330
87F
330
881
330
883
330
882
330
884
330
887
330
886
330
888
330
885
330
874
330
879
330
873
 75
     0
 76
     1
 98
        1
 10
115.5800924508248
 20
39.61601685622517
450
        0
451
        0
460
0.0
461
0.0
452
        0
462
0.0
453
        0
470

  0
SPLINE
  5
871
102
{ACAD_REACTORS
330
86F
102
}
330
18
100
AcDbEntity
  8
ROGO
 62
     4
100
AcDbSpline
210
0.0
220
0.0
230
1.0
 70
     8
 71
     3
 72
    18
 73
    14
 74
     0
 42
0.0000000001
 43
0.0000000001
 40
0.1087402787915014
 40
0.1087402787915014
 40
0.1087402787915014
 40
0.1087402787915014
 40
0.5992371417938475
 40
1.083176791562496
 40
1.448211145705696
 40
1.714037220764907
 40
2.164002567013297
 40
2.740236056362883
 40
3.395137510199602
 40
4.071816045172726
 40
4.784906178399433
 40
5.506895915094292
 40
6.060470601257719
 40
6.060470601257719
 40
6.060470601257719
 40
6.060470601257719
 10
173.5804614675995
 20
113.0679881329915
 30
0.0
 10
173.6222519350185
 20
113.0526726269953
 30
0.0
 10
173.704432458095
 20
113.0202933068644
 30
0.0
 10
173.8047314770891
 20
112.9463929991827
 30
0.0
 10
173.8594302312499
 20
112.8610811324264
 30
0.0
 10
173.9120443089199
 20
112.7770215629953
 30
0.0
 10
173.9194075530464
 20
112.6564238937328
 30
0.0
 10
173.9073460617169
 20
112.5039592101429
 30
0.0
 10
173.8294781633522
 20
112.344878046226
 30
0.0
 10
173.7044956066947
 20
112.2057394352198
 30
0.0
 10
173.5493210406281
 20
112.0943747055569
 30
0.0
 10
173.3856841082468
 20
112.0069562605916
 30
0.0
 10
173.2687163829812
 20
112.006085237358
 30
0.0
 10
173.2179542492584
 20
112.0057072271184
 30
0.0
  0
LINE
  5
872
102
{ACAD_REACTORS
330
86F
102
}
330
18
100
AcDbEntity
  8
ROGO
 62
     4
100
AcDbLine
 10
172.2760158357609
 20
113.0679881329915
 30
0.0
 11
171.4547193906229
 21
111.4081015480078
 31
0.0
  0
LINE
  5
873
102
{ACAD_REACTORS
330
870
102
}
330
18
100
AcDbEntity
  8
ROGO
 62
     4
100
AcDbLine
 10
174.3510955803392
 20
113.0679881329915
 30
0.0
 11
173.8254888674323
 21
112.0057072271184
 31
0.0
  0
LINE
  5
874
102
{ACAD_REACTORS
330
870
102
}
330
18
100
AcDbEntity
  8
ROGO
 62
     4
100
AcDbLine
 10
175.3826627480685
 20
112.249031853255
 30
0.0
 11
175.2622679859996
 21
112.0057072271184
 31
0.0
  0
LINE
  5
875
102
{ACAD_REACTORS
330
86B
102
}
330
18
100
AcDbEntity
  8
ROGO
 62
     4
100
AcDbLine
 10
176.2040796595186
 20
113.0679881329915
 30
0.0
 11
175.4380482531049
 21
112.0057072271184
 31
0.0
  0
LINE
  5
876
102
{ACAD_REACTORS
330
86B
102
}
330
18
100
AcDbEntity
  8
ROGO
 62
     4
100
AcDbLine
 10
176.1722093774714
 20
112.2079589390546
 30
0.0
 11
176.0263617372781
 21
112.0057072271185
 31
0.0
  0
LINE
  5
877
102
{ACAD_REACTORS
330
86F
102
}
330
18
100
AcDbEntity
  8
ROGO
 62
     4
100
AcDbLine
 10
173.2179542495084
 20
112.0057072271184
 30
0.0
 11
172.4966793794725
 21
112.0057072271184
 31
0.0
  0
LINE
  5
878
102
{ACAD_REACTORS
330
86F
102
}
330
18
100
AcDbEntity
  8
ROGO
 62
     4
100
AcDbLine
 10
172.4966793794725
 20
112.0057072271184
 30
0.0
 11
172.2263056184011
 21
111.4081015480078
 31
0.0
  0
LINE
  5
879
102
{ACAD_REACTORS
330
870
102
}
330
18
100
AcDbEntity
  8
ROGO
 62
     4
100
AcDbLine
 10
173.8254888674323
 20
112.0057072271184
 30
0.0
 11
175.2622679859996
 21
112.0057072271184
 31
0.0
  0
LINE
  5
87A
102
{ACAD_REACTORS
330
86B
102
}
330
18
100
AcDbEntity
  8
ROGO
 62
     4
100
AcDbLine
 10
175.4380482531049
 20
112.0057072271184
 30
0.0
 11
176.0263617372781
 21
112.0057072271184
 31
0.0
  0
LINE
  5
87B
102
{ACAD_REACTORS
330
86F
102
}
330
18
100
AcDbEntity
  8
ROGO
 62
     4
100
AcDbLine
 10
172.2760158357609
 20
113.0679881329915
 30
0.0
 11
173.5804614675995
 21
113.0679881329915
 31
0.0
  0
LINE
  5
87C
102
{ACAD_REACTORS
330
86F
102
}
330
18
100
AcDbEntity
  8
ROGO
 62
     4
100
AcDbLine
 10
173.1198606599259
 20
112.6572010596909
 30
0.0
 11
172.7914336697757
 21
112.6572010596909
 31
0.0
  0
LINE
  5
87D
102
{ACAD_REACTORS
330
86F
102
}
330
18
100
AcDbEntity
  8
ROGO
 62
     4
100
AcDbLine
 10
173.0621587632463
 20
112.3746949028015
 30
0.0
 11
172.6636198707541
 21
112.3746949028015
 31
0.0
  0
LINE
  5
87E
102
{ACAD_REACTORS
330
86F
102
}
330
18
100
AcDbEntity
  8
ROGO
 62
     4
100
AcDbLine
 10
172.7914336697757
 20
112.6572010596909
 30
0.0
 11
172.6636198707541
 21
112.3746949028015
 31
0.0
  0
LINE
  5
87F
102
{ACAD_REACTORS
330
870
102
}
330
18
100
AcDbEntity
  8
ROGO
 62
     4
100
AcDbLine
 10
174.3510955803392
 20
113.0679881329915
 30
0.0
 11
175.7878746989065
 21
113.0679881329915
 31
0.0
  0
SPLINE
  5
880
102
{ACAD_REACTORS
330
86F
102
}
330
18
100
AcDbEntity
  8
ROGO
 62
     4
100
AcDbSpline
210
0.0
220
0.0
230
1.0
 70
     8
 71
     3
 72
    15
 73
    11
 74
     9
 42
0.0000000001
 43
0.0000000001
 44
0.0000000001
 40
0.0
 40
0.0
 40
0.0
 40
0.0
 40
0.1245558822265106
 40
0.1813465134536237
 40
0.2458076605629357
 40
0.2897215910737034
 40
0.3591719276284023
 40
0.4007707820523276
 40
0.4721407847095294
 40
0.4959308007789738
 40
0.4959308007789738
 40
0.4959308007789738
 40
0.4959308007789738
 10
173.1198606599259
 20
112.6572010596909
 30
0.0
 10
173.1666414338697
 20
112.6574153406064
 30
0.0
 10
173.2347516676034
 20
112.6577273218331
 30
0.0
 10
173.2719967692217
 20
112.5734747657369
 30
0.0
 10
173.2553017388237
 20
112.5192292628492
 30
0.0
 10
173.2343147249467
 20
112.4635360384849
 30
0.0
 10
173.1972259181813
 20
112.4256916525561
 30
0.0
 10
173.1474473069958
 20
112.3892411292244
 30
0.0
 10
173.100404140609
 20
112.3848286301573
 30
0.0
 10
173.069807841648
 20
112.3767216490487
 30
0.0
 10
173.0621587632463
 20
112.3746949028015
 30
0.0
 11
173.1198606599259
 21
112.6572010596909
 31
0.0
 11
173.2410347424923
 21
112.6283738241067
 31
0.0
 11
173.2641155675236
 21
112.5764849880141
 31
0.0
 11
173.2525753209066
 21
112.5130652576878
 31
0.0
 11
173.2352647850825
 21
112.47270712787
 31
0.0
 11
173.1891031350199
 21
112.4208182917773
 31
0.0
 11
173.1544820633716
 21
112.39775650331
 31
0.0
 11
173.0852395882777
 21
112.3804603499183
 31
0.0
 11
173.0621587632463
 21
112.3746949028015
 31
0.0
  0
LINE
  5
881
102
{ACAD_REACTORS
330
870
102
}
330
18
100
AcDbEntity
  8
ROGO
 62
     4
100
AcDbLine
 10
175.7878746989065
 20
113.0679881329915
 30
0.0
 11
175.6674738805423
 21
112.8246512667397
 31
0.0
  0
LINE
  5
882
102
{ACAD_REACTORS
330
870
102
}
330
18
100
AcDbEntity
  8
ROGO
 62
     4
100
AcDbLine
 10
174.912339082426
 20
112.8246512667397
 30
0.0
 11
174.8182006041592
 21
112.6343920757607
 31
0.0
  0
LINE
  5
883
102
{ACAD_REACTORS
330
870
102
}
330
18
100
AcDbEntity
  8
ROGO
 62
     4
100
AcDbLine
 10
174.912339082426
 20
112.8246512667397
 30
0.0
 11
175.6674738805423
 21
112.8246512667397
 31
0.0
  0
LINE
  5
884
102
{ACAD_REACTORS
330
870
102
}
330
18
100
AcDbEntity
  8
ROGO
 62
     4
100
AcDbLine
 10
174.8182006041592
 20
112.6343920757607
 30
0.0
 11
175.5733354022756
 21
112.6343920757607
 31
0.0
  0
LINE
  5
885
102
{ACAD_REACTORS
330
870
102
}
330
18
100
AcDbEntity
  8
ROGO
 62
     4
100
AcDbLine
 10
174.6275279499522
 20
112.249031853255
 30
0.0
 11
175.3826627480685
 21
112.249031853255
 31
0.0
  0
LINE
  5
886
102
{ACAD_REACTORS
330
870
102
}
330
18
100
AcDbEntity
  8
ROGO
 62
     4
100
AcDbLine
 10
174.7216704135896
 20
112.4392990988935
 30
0.0
 11
175.4768052117059
 21
112.4392990988935
 31
0.0
  0
LINE
  5
887
102
{ACAD_REACTORS
330
870
102
}
330
18
100
AcDbEntity
  8
ROGO
 62
     4
100
AcDbLine
 10
175.5733354022756
 20
112.6343920757607
 30
0.0
 11
175.4768052117059
 21
112.4392990988935
 31
0.0
  0
LINE
  5
888
102
{ACAD_REACTORS
330
870
102
}
330
18
100
AcDbEntity
  8
ROGO
 62
     4
100
AcDbLine
 10
174.7216704135896
 20
112.4392990988935
 30
0.0
 11
174.6275279499521
 21
112.249031853255
 31
0.0
  0
HATCH
  5
889
330
18
100
AcDbEntity
  8
ROGO
 62
     4
100
AcDbHatch
 10
0.0
 20
0.0
 30
0.0
210
0.0
220
0.0
230
1.0
  2
SOLID
 70
     1
 71
     1
 91
        2
 92
        7
 72
     1
 73
     1
 93
        4
 10
180.229253809812
 20
113.0679881329915
 42
0.0
 10
179.7997058462649
 20
113.0679881329915
 42
0.959739618504987
 10
179.7997058462652
 20
112.0057072271184
 42
0.0
 10
180.260123022405
 20
112.0057072271184
 42
0.97136276557683
 97
        4
330
8A9
330
891
330
896
330
892
 92
       22
 72
     1
 73
     1
 93
        2
 10
180.1576175688085
 20
112.4854372504971
 42
0.1034173650202341
 10
180.1639433349428
 20
112.530694673731
 42
0.0
 97
        8
330
8A1
330
8A7
330
8A3
330
8A6
330
8A2
330
8A5
330
8A0
330
8A4
 75
     0
 76
     1
 47
0.0514683685270805
 98
        2
 10
180.3336760865415
 20
112.6356570382402
 10
180.3336760865415
 20
112.6356570382402
450
        0
451
        0
460
0.0
461
0.0
452
        0
462
0.0
453
        0
470

  0
HATCH
  5
88A
330
18
100
AcDbEntity
  8
ROGO
 62
     4
100
AcDbHatch
 10
0.0
 20
0.0
 30
0.0
210
0.0
220
0.0
230
1.0
  2
SOLID
 70
     1
 71
     1
 91
        1
 92
        5
 93
        8
 72
     1
 10
179.0642041543557
 20
112.6727507627832
 11
179.2612822721203
 21
113.0679881329916
 72
     1
 10
179.2612822721203
 20
113.0679881329916
 11
178.1974712911379
 21
113.0679881329916
 72
     4
 94
        3
 73
     0
 74
     0
 95
       26
 96
       22
 40
0.0
 40
0.0
 40
0.0
 40
0.0
 40
0.1927099265173915
 40
0.3217143003795154
 40
0.414736959649385
 40
0.4841939694030216
 40
0.5742833564486675
 40
0.640039826417844
 40
0.7587806847072299
 40
0.8554340362639674
 40
0.9211738023510241
 40
0.9856350088616164
 40
1.100943575280605
 40
1.182480494385226
 40
1.226394424896031
 40
1.288772865988476
 40
1.333817737941426
 40
1.399072885742908
 40
1.436001654955431
 40
1.516362799066878
 40
1.55305639555896
 40
1.55305639555896
 40
1.55305639555896
 40
1.55305639555896
 10
178.1974712911377
 20
113.0679881329915
 10
178.1320625645447
 20
113.0640857361988
 10
178.0228677602351
 20
113.0575709869242
 10
177.9029725293661
 20
112.9847359217508
 10
177.81513026418
 20
112.9423928155882
 10
177.7524812671803
 20
112.8848309701555
 10
177.7065592984193
 20
112.8253737886369
 10
177.6486660358572
 20
112.7545309928085
 10
177.6014557345393
 20
112.6720374237981
 10
177.5774143981773
 20
112.5811151293847
 10
177.5561188106046
 20
112.5086495331894
 10
177.5403256463529
 20
112.4278960831828
 10
177.5443438744373
 20
112.3406539495977
 10
177.5500981609534
 20
112.2596279222566
 10
177.5757896509914
 20
112.2017874699952
 10
177.6050477073976
 20
112.1606090537234
 10
177.6408737967799
 20
112.115255593436
 10
177.6800753730866
 20
112.0852181435479
 10
177.7124982765473
 20
112.0308032846075
 10
177.76925347529
 20
112.0238595561642
 10
177.8053293375305
 20
112.0100394641362
 10
177.816638175817
 20
112.0057072271184
 72
     1
 10
177.8166381758171
 20
112.0057072271184
 11
178.7315947039725
 21
112.0057072271184
 72
     1
 10
178.7315947039725
 20
112.0057072271184
 11
178.9286707347338
 21
112.400940411871
 72
     1
 10
178.9286707347338
 20
112.400940411871
 11
178.2494028986102
 21
112.400940411871
 72
     4
 94
        3
 73
     0
 74
     0
 95
       16
 96
       12
 40
0.0
 40
0.0
 40
0.0
 40
0.0
 40
0.0581978857823273
 40
0.1169960404798281
 40
0.1520664971353054
 40
0.1856918471251902
 40
0.2226204696139844
 40
0.2484086653137572
 40
0.2728794248980106
 40
0.3225026120845569
 40
0.4241003886766307
 40
0.4241003886766307
 40
0.4241003886766307
 40
0.4241003886766307
 10
178.2494028986102
 20
112.400940411871
 10
178.2289137868953
 20
112.4069686089619
 10
178.1877242331623
 20
112.4190871796174
 10
178.184277000128
 20
112.4778335581518
 10
178.1889733564092
 20
112.5196951600572
 10
178.2086417070042
 20
112.5501728508046
 10
178.2325028277058
 20
112.5723493808873
 10
178.2413873812131
 20
112.6012308438841
 10
178.2675027167804
 20
112.6230399618328
 10
178.3138122042025
 20
112.6596980425728
 10
178.3650224806438
 20
112.6675053946989
 10
178.399428095415
 20
112.6727507627832
 72
     1
 10
178.399428095415
 20
112.6727507627832
 11
179.0642041543557
 21
112.6727507627832
 97
        8
330
89F
330
88C
330
893
330
88F
330
89E
330
89B
330
89D
330
89C
 75
     0
 76
     1
 47
0.0514683685270805
 98
        1
 10
178.5695253781027
 20
112.8315119495724
450
        0
451
        0
460
0.0
461
0.0
452
        0
462
0.0
453
        0
470

  0
SPLINE
  5
88B
102
{ACAD_REACTORS
330
865
102
}
330
18
100
AcDbEntity
  8
ROGO
 62
     4
100
AcDbSpline
210
0.0
220
0.0
230
1.0
 70
     8
 71
     3
 72
    26
 73
    22
 74
    20
 42
0.0000000001
 43
0.0000000001
 44
0.0000000001
 40
0.0
 40
0.0
 40
0.0
 40
0.0
 40
0.1927099265173959
 40
0.3217143003795198
 40
0.4147369596493893
 40
0.4841939694029859
 40
0.5742833564486608
 40
0.6400398264178261
 40
0.758780684707237
 40
0.8554340362639557
 40
0.9211738023510461
 40
0.9856350088615965
 40
1.100943575280585
 40
1.18248049438522
 40
1.226394424896
 40
1.288772865988462
 40
1.333817737941422
 40
1.399072885742904
 40
1.436001654955427
 40
1.516362799066885
 40
1.553056395558953
 40
1.553056395558953
 40
1.553056395558953
 40
1.553056395558953
 10
181.6202348600953
 20
113.0679881329915
 30
0.0
 10
181.5548261335023
 20
113.0640857361988
 30
0.0
 10
181.4456313291927
 20
113.0575709869242
 30
0.0
 10
181.3257360983237
 20
112.9847359217507
 30
0.0
 10
181.2378938331376
 20
112.9423928155882
 30
0.0
 10
181.1752448361379
 20
112.8848309701555
 30
0.0
 10
181.1293228673769
 20
112.8253737886369
 30
0.0
 10
181.0714296048147
 20
112.7545309928085
 30
0.0
 10
181.0242193034968
 20
112.672037423798
 30
0.0
 10
181.0001779671349
 20
112.5811151293847
 30
0.0
 10
180.9788823795621
 20
112.5086495331893
 30
0.0
 10
180.9630892153105
 20
112.4278960831828
 30
0.0
 10
180.9671074433948
 20
112.3406539495977
 30
0.0
 10
180.972861729911
 20
112.2596279222566
 30
0.0
 10
180.998553219949
 20
112.2017874699952
 30
0.0
 10
181.0278112763552
 20
112.1606090537234
 30
0.0
 10
181.0636373657374
 20
112.115255593436
 30
0.0
 10
181.1028389420442
 20
112.0852181435479
 30
0.0
 10
181.1352618455049
 20
112.0308032846075
 30
0.0
 10
181.1920170442476
 20
112.0238595561641
 30
0.0
 10
181.2280929064881
 20
112.0100394641363
 30
0.0
 10
181.2394017447746
 20
112.0057072271184
 30
0.0
 11
181.6202348600953
 21
113.0679881329915
 31
0.0
 11
181.4298183024349
 21
113.0383460961668
 31
0.0
 11
181.3144141772783
 21
112.9806918129574
 31
0.0
 11
181.2336314555674
 21
112.9345684239815
 31
0.0
 11
181.181699848095
 21
112.8884448470469
 31
0.0
 11
181.1239979514154
 21
112.8192596696037
 31
0.0
 11
181.08360659056
 21
112.7673708335111
 31
0.0
 11
181.0259043620829
 21
112.663592973367
 31
0.0
 11
180.9970535796418
 21
112.5713460074566
 31
0.0
 11
180.9797430438177
 21
112.5079262771302
 31
0.0
 11
180.9682024654033
 21
112.4445065468039
 31
0.0
 11
180.9682024654033
 21
112.3291979803849
 31
0.0
 11
180.9797430438177
 21
112.2484819087081
 31
0.0
 11
180.9970535796418
 21
112.2081237788904
 31
0.0
 11
181.0316746512901
 21
112.1562349427977
 31
0.0
 11
181.0605257655287
 21
112.1216422600967
 31
0.0
 11
181.1066870837938
 21
112.0755188711209
 31
0.0
 11
181.1297679088252
 21
112.0466916355367
 31
0.0
 11
181.2047806731264
 21
112.0178645879114
 31
0.0
 11
181.2394017447746
 21
112.0057072271184
 31
0.0
  0
SPLINE
  5
88C
102
{ACAD_REACTORS
330
88A
102
}
330
18
100
AcDbEntity
  8
ROGO
 62
     4
100
AcDbSpline
210
0.0
220
0.0
230
1.0
 70
     8
 71
     3
 72
    26
 73
    22
 74
    20
 42
0.0000000001
 43
0.0000000001
 44
0.0000000001
 40
0.0
 40
0.0
 40
0.0
 40
0.0
 40
0.1927099265173915
 40
0.3217143003795154
 40
0.414736959649385
 40
0.4841939694030216
 40
0.5742833564486675
 40
0.640039826417844
 40
0.7587806847072299
 40
0.8554340362639674
 40
0.9211738023510241
 40
0.9856350088616164
 40
1.100943575280605
 40
1.182480494385226
 40
1.226394424896031
 40
1.288772865988476
 40
1.333817737941426
 40
1.399072885742908
 40
1.436001654955431
 40
1.516362799066878
 40
1.55305639555896
 40
1.55305639555896
 40
1.55305639555896
 40
1.55305639555896
 10
178.1974712911377
 20
113.0679881329915
 30
0.0
 10
178.1320625645447
 20
113.0640857361988
 30
0.0
 10
178.0228677602351
 20
113.0575709869242
 30
0.0
 10
177.9029725293661
 20
112.9847359217508
 30
0.0
 10
177.81513026418
 20
112.9423928155882
 30
0.0
 10
177.7524812671803
 20
112.8848309701555
 30
0.0
 10
177.7065592984193
 20
112.8253737886369
 30
0.0
 10
177.6486660358572
 20
112.7545309928085
 30
0.0
 10
177.6014557345393
 20
112.6720374237981
 30
0.0
 10
177.5774143981773
 20
112.5811151293847
 30
0.0
 10
177.5561188106046
 20
112.5086495331894
 30
0.0
 10
177.5403256463529
 20
112.4278960831828
 30
0.0
 10
177.5443438744373
 20
112.3406539495977
 30
0.0
 10
177.5500981609534
 20
112.2596279222566
 30
0.0
 10
177.5757896509914
 20
112.2017874699952
 30
0.0
 10
177.6050477073976
 20
112.1606090537234
 30
0.0
 10
177.6408737967799
 20
112.115255593436
 30
0.0
 10
177.6800753730866
 20
112.0852181435479
 30
0.0
 10
177.7124982765473
 20
112.0308032846075
 30
0.0
 10
177.76925347529
 20
112.0238595561642
 30
0.0
 10
177.8053293375305
 20
112.0100394641362
 30
0.0
 10
177.816638175817
 20
112.0057072271184
 30
0.0
 11
178.1974712911377
 21
113.0679881329915
 31
0.0
 11
178.0070547334774
 21
113.0383460961669
 31
0.0
 11
177.8916506083208
 21
112.9806918129574
 31
0.0
 11
177.8108678866099
 21
112.9345684239815
 31
0.0
 11
177.7589362791374
 21
112.8884448470469
 31
0.0
 11
177.7012343824578
 21
112.8192596696038
 31
0.0
 11
177.6608430216024
 21
112.7673708335111
 31
0.0
 11
177.6031407931254
 21
112.663592973367
 31
0.0
 11
177.5742900106842
 21
112.5713460074566
 31
0.0
 11
177.5569794748601
 21
112.5079262771302
 31
0.0
 11
177.5454388964458
 21
112.4445065468039
 31
0.0
 11
177.5454388964458
 21
112.3291979803849
 31
0.0
 11
177.5569794748601
 21
112.2484819087081
 31
0.0
 11
177.5742900106842
 21
112.2081237788904
 31
0.0
 11
177.6089110823325
 21
112.1562349427977
 31
0.0
 11
177.6377621965711
 21
112.1216422600967
 31
0.0
 11
177.6839235148362
 21
112.0755188711209
 31
0.0
 11
177.7070043398676
 21
112.0466916355367
 31
0.0
 11
177.7820171041688
 21
112.0178645879114
 31
0.0
 11
177.816638175817
 21
112.0057072271184
 31
0.0
  0
LINE
  5
88D
102
{ACAD_REACTORS
330
86B
102
}
330
18
100
AcDbEntity
  8
ROGO
 62
     4
100
AcDbLine
 10
176.8180364755684
 20
113.0679881329915
 30
0.0
 11
177.5840678819821
 21
112.0057072271184
 31
0.0
  0
LINE
  5
88E
102
{ACAD_REACTORS
330
86B
102
}
330
18
100
AcDbEntity
  8
ROGO
 62
     4
100
AcDbLine
 10
176.8499067576156
 20
112.2079589390546
 30
0.0
 11
176.9957543978089
 21
112.0057072271185
 31
0.0
  0
LINE
  5
88F
102
{ACAD_REACTORS
330
88A
102
}
330
18
100
AcDbEntity
  8
ROGO
 62
     4
100
AcDbLine
 10
178.9286707347338
 20
112.400940411871
 30
0.0
 11
178.7315947039725
 21
112.0057072271184
 31
0.0
  0
LINE
  5
890
102
{ACAD_REACTORS
330
865
102
}
330
18
100
AcDbEntity
  8
ROGO
 62
     4
100
AcDbLine
 10
182.3514343036913
 20
112.400940411871
 30
0.0
 11
182.1543582729301
 21
112.0057072271184
 31
0.0
  0
ARC
  5
891
102
{ACAD_REACTORS
330
889
102
}
330
18
100
AcDbEntity
  8
ROGO
 62
     4
100
AcDbCircle
 10
179.8215382834438
 20
112.536847680055
 30
0.0
 40
0.5315889728529103
100
AcDbArc
 50
92.3538081120337
 51
270.0
  0
ARC
  5
892
102
{ACAD_REACTORS
330
889
102
}
330
18
100
AcDbEntity
  8
ROGO
 62
     4
100
AcDbCircle
 10
180.229253809812
 20
112.5363991601386
 30
0.0
 40
0.5315889728529103
100
AcDbArc
 50
273.3290215232082
 51
90.0000000000006
  0
LINE
  5
893
102
{ACAD_REACTORS
330
88A
102
}
330
18
100
AcDbEntity
  8
ROGO
 62
     4
100
AcDbLine
 10
177.816638175817
 20
112.0057072271184
 30
0.0
 11
178.7315947039725
 21
112.0057072271184
 31
0.0
  0
LINE
  5
894
102
{ACAD_REACTORS
330
86B
102
}
330
18
100
AcDbEntity
  8
ROGO
 62
     4
100
AcDbLine
 10
177.5840678819821
 20
112.0057072271184
 30
0.0
 11
176.9957543978089
 21
112.0057072271184
 31
0.0
  0
LINE
  5
895
330
18
100
AcDbEntity
  8
ROGO
 62
     4
100
AcDbLine
 10
179.7997058462653
 20
112.0057072271184
 30
0.0
 11
180.2601230224046
 21
112.0057072271184
 31
0.0
  0
LINE
  5
896
102
{ACAD_REACTORS
330
889
102
}
330
18
100
AcDbEntity
  8
ROGO
 62
     4
100
AcDbLine
 10
179.7997058462649
 20
112.0057072271184
 30
0.0
 11
180.260123022405
 21
112.0057072271184
 31
0.0
  0
LINE
  5
897
102
{ACAD_REACTORS
330
865
102
}
330
18
100
AcDbEntity
  8
ROGO
 62
     4
100
AcDbLine
 10
181.2394017447746
 20
112.0057072271184
 30
0.0
 11
182.1543582729301
 21
112.0057072271184
 31
0.0
  0
LINE
  5
898
102
{ACAD_REACTORS
330
86B
102
}
330
18
100
AcDbEntity
  8
ROGO
 62
     4
100
AcDbLine
 10
176.5110580675435
 20
112.6778515445404
 30
0.0
 11
176.326039281595
 21
112.4212799185009
 31
0.0
  0
LINE
  5
899
102
{ACAD_REACTORS
330
86B
102
}
330
18
100
AcDbEntity
  8
ROGO
 62
     4
100
AcDbLine
 10
176.326039281595
 20
112.4212799185009
 30
0.0
 11
176.696076853492
 21
112.4212799185009
 31
0.0
  0
LINE
  5
89A
102
{ACAD_REACTORS
330
86B
102
}
330
18
100
AcDbEntity
  8
ROGO
 62
     4
100
AcDbLine
 10
176.5110580675435
 20
112.6778515445404
 30
0.0
 11
176.696076853492
 21
112.4212799185009
 31
0.0
  0
SPLINE
  5
89B
102
{ACAD_REACTORS
330
88A
102
}
330
18
100
AcDbEntity
  8
ROGO
 62
     4
100
AcDbSpline
210
0.0
220
0.0
230
1.0
 70
     8
 71
     3
 72
    16
 73
    12
 74
    10
 42
0.0000000001
 43
0.0000000001
 44
0.0000000001
 40
0.0
 40
0.0
 40
0.0
 40
0.0
 40
0.1015977765920737
 40
0.15122096377862
 40
0.1756917233628735
 40
0.2014799190626463
 40
0.2384085415514404
 40
0.2720338915413252
 40
0.3071043481968025
 40
0.3659025028943033
 40
0.4241003886766307
 40
0.4241003886766307
 40
0.4241003886766307
 40
0.4241003886766307
 10
178.399428095415
 20
112.6727507627832
 30
0.0
 10
178.3650224806438
 20
112.6675053946989
 30
0.0
 10
178.3138122042025
 20
112.6596980425728
 30
0.0
 10
178.2675027167804
 20
112.6230399618328
 30
0.0
 10
178.2413873812131
 20
112.6012308438841
 30
0.0
 10
178.2325028277058
 20
112.5723493808873
 30
0.0
 10
178.2086417070042
 20
112.5501728508046
 30
0.0
 10
178.1889733564092
 20
112.5196951600572
 30
0.0
 10
178.184277000128
 20
112.4778335581518
 30
0.0
 10
178.1877242331623
 20
112.4190871796174
 30
0.0
 10
178.2289137868953
 20
112.4069686089619
 30
0.0
 10
178.2494028986102
 20
112.400940411871
 30
0.0
 11
178.399428095415
 21
112.6727507627832
 31
0.0
 11
178.3013348378799
 21
112.6462966320165
 31
0.0
 11
178.2609434770245
 21
112.6174695843912
 31
0.0
 11
178.2436329412004
 21
112.6001732430407
 31
0.0
 11
178.232092362786
 21
112.5771114545734
 31
0.0
 11
178.2090115377547
 21
112.548284406948
 31
0.0
 11
178.1917010019305
 21
112.5194571713639
 31
0.0
 11
178.1859307127233
 21
112.4848646766217
 31
0.0
 11
178.1974712911377
 21
112.4272102054534
 31
0.0
 11
178.2494028986102
 21
112.400940411871
 31
0.0
  0
LINE
  5
89C
102
{ACAD_REACTORS
330
88A
102
}
330
18
100
AcDbEntity
  8
ROGO
 62
     4
100
AcDbLine
 10
179.2612822721203
 20
113.0679881329915
 30
0.0
 11
179.0642041543557
 21
112.6727507627832
 31
0.0
  0
LINE
  5
89D
102
{ACAD_REACTORS
330
88A
102
}
330
18
100
AcDbEntity
  8
ROGO
 62
     4
100
AcDbLine
 10
178.399428095415
 20
112.6727507627832
 30
0.0
 11
179.0642041543557
 21
112.6727507627832
 31
0.0
  0
LINE
  5
89E
102
{ACAD_REACTORS
330
88A
102
}
330
18
100
AcDbEntity
  8
ROGO
 62
     4
100
AcDbLine
 10
178.2494028986101
 20
112.400940411871
 30
0.0
 11
178.9286707347338
 21
112.400940411871
 31
0.0
  0
LINE
  5
89F
102
{ACAD_REACTORS
330
88A
102
}
330
18
100
AcDbEntity
  8
ROGO
 62
     4
100
AcDbLine
 10
178.197471291138
 20
113.0679881329915
 30
0.0
 11
179.2612822721203
 21
113.0679881329915
 31
0.0
  0
LINE
  5
8A0
102
{ACAD_REACTORS
330
889
102
}
330
18
100
AcDbEntity
  8
ROGO
 62
     4
100
AcDbLine
 10
180.0330351779753
 20
112.6385987139134
 30
0.0
 11
180.0715315485697
 21
112.633217960437
 31
0.0
  0
LINE
  5
8A1
102
{ACAD_REACTORS
330
889
102
}
330
18
100
AcDbEntity
  8
ROGO
 62
     4
100
AcDbLine
 10
180.1639433349428
 20
112.5306946737313
 30
0.0
 11
180.1498066084045
 21
112.4295540683872
 31
0.0
  0
LINE
  5
8A2
102
{ACAD_REACTORS
330
889
102
}
330
18
100
AcDbEntity
  8
ROGO
 62
     4
100
AcDbLine
 10
179.8967881779513
 20
112.4669379758612
 30
0.0
 11
179.9109249044896
 21
112.5680785812052
 31
0.0
  0
LINE
  5
8A3
102
{ACAD_REACTORS
330
889
102
}
330
18
100
AcDbEntity
  8
ROGO
 62
     4
100
AcDbLine
 10
179.9963228586776
 20
112.3759419958058
 30
0.0
 11
180.034819229272
 21
112.3705612423294
 31
0.0
  0
ARC
  5
8A4
102
{ACAD_REACTORS
330
889
102
}
330
18
100
AcDbEntity
  8
ROGO
 62
     4
100
AcDbCircle
 10
180.0525457559128
 20
112.5231942510302
 30
0.0
 40
0.1116497960339707
100
AcDbArc
 50
3.851923331663601
 51
80.20940670206341
  0
ARC
  5
8A5
102
{ACAD_REACTORS
330
889
102
}
330
18
100
AcDbEntity
  8
ROGO
 62
     4
100
AcDbCircle
 10
180.0180528750934
 20
112.5235604887986
 30
0.0
 40
0.1160097523366473
100
AcDbArc
 50
82.57970078354313
 51
157.4341870372611
  0
ARC
  5
8A6
102
{ACAD_REACTORS
330
889
102
}
330
18
100
AcDbEntity
  8
ROGO
 62
     4
100
AcDbCircle
 10
180.0027254940805
 20
112.48288072861
 30
0.0
 40
0.107130230625527
100
AcDbArc
 50
188.5583509056651
 51
266.5736774635929
  0
ARC
  5
8A7
102
{ACAD_REACTORS
330
889
102
}
330
18
100
AcDbEntity
  8
ROGO
 62
     4
100
AcDbCircle
 10
180.0578614406898
 20
112.4672096371205
 30
0.0
 40
0.0993572127362309
100
AcDbArc
 50
256.5902863289752
 51
337.7287536965499
  0
LINE
  5
8A8
330
18
100
AcDbEntity
  8
ROGO
 62
     4
100
AcDbLine
 10
179.7997058462651
 20
113.0679881329915
 30
0.0
 11
180.1007489210546
 21
113.0679881329915
 31
0.0
  0
LINE
  5
8A9
102
{ACAD_REACTORS
330
889
102
}
330
18
100
AcDbEntity
  8
ROGO
 62
     4
100
AcDbLine
 10
179.7997058462649
 20
113.0679881329915
 30
0.0
 11
180.229253809812
 21
113.0679881329915
 31
0.0
  0
SPLINE
  5
8AA
102
{ACAD_REACTORS
330
865
102
}
330
18
100
AcDbEntity
  8
ROGO
 62
     4
100
AcDbSpline
210
0.0
220
0.0
230
1.0
 70
     8
 71
     3
 72
    16
 73
    12
 74
    10
 42
0.0000000001
 43
0.0000000001
 44
0.0000000001
 40
0.0
 40
0.0
 40
0.0
 40
0.0
 40
0.1015977765920626
 40
0.1512209637786089
 40
0.1756917233628724
 40
0.2014799190626579
 40
0.2384085415514299
 40
0.2720338915413147
 40
0.30710434819682
 40
0.3659025028942874
 40
0.4241003886766465
 40
0.4241003886766465
 40
0.4241003886766465
 40
0.4241003886766465
 10
181.8221916643726
 20
112.6727507627832
 30
0.0
 10
181.7877860496013
 20
112.6675053946989
 30
0.0
 10
181.73657577316
 20
112.6596980425729
 30
0.0
 10
181.690266285738
 20
112.6230399618328
 30
0.0
 10
181.6641509501707
 20
112.6012308438841
 30
0.0
 10
181.6552663966634
 20
112.5723493808873
 30
0.0
 10
181.6314052759617
 20
112.5501728508046
 30
0.0
 10
181.6117369253669
 20
112.5196951600572
 30
0.0
 10
181.6070405690856
 20
112.4778335581518
 30
0.0
 10
181.6104878021199
 20
112.4190871796174
 30
0.0
 10
181.6516773558529
 20
112.4069686089618
 30
0.0
 10
181.6721664675677
 20
112.400940411871
 30
0.0
 11
181.8221916643726
 21
112.6727507627832
 31
0.0
 11
181.7240984068375
 21
112.6462966320165
 31
0.0
 11
181.6837070459821
 21
112.6174695843912
 31
0.0
 11
181.666396510158
 21
112.6001732430407
 31
0.0
 11
181.6548559317436
 21
112.5771114545733
 31
0.0
 11
181.6317751067122
 21
112.548284406948
 31
0.0
 11
181.6144645708881
 21
112.5194571713639
 31
0.0
 11
181.6086942816809
 21
112.4848646766217
 31
0.0
 11
181.6202348600953
 21
112.4272102054534
 31
0.0
 11
181.6721664675677
 21
112.400940411871
 31
0.0
  0
LINE
  5
8AB
102
{ACAD_REACTORS
330
865
102
}
330
18
100
AcDbEntity
  8
ROGO
 62
     4
100
AcDbLine
 10
181.6721664675677
 20
112.400940411871
 30
0.0
 11
182.3514343036914
 21
112.400940411871
 31
0.0
  0
LINE
  5
8AC
102
{ACAD_REACTORS
330
865
102
}
330
18
100
AcDbEntity
  8
ROGO
 62
     4
100
AcDbLine
 10
181.8221916643725
 20
112.6727507627832
 30
0.0
 11
182.4869677233133
 21
112.6727507627832
 31
0.0
  0
LINE
  5
8AD
102
{ACAD_REACTORS
330
864
102
}
330
18
100
AcDbEntity
  8
ROGO
 62
     4
100
AcDbLine
 10
183.3203547644029
 20
112.2380448404996
 30
0.0
 11
183.7341912947125
 21
111.4081015480078
 31
0.0
  0
LINE
  5
8AE
102
{ACAD_REACTORS
330
864
102
}
330
18
100
AcDbEntity
  8
ROGO
 62
     4
100
AcDbLine
 10
182.9065316163073
 20
111.8413507139468
 30
0.0
 11
183.1225636430899
 21
111.4081015480078
 31
0.0
  0
LINE
  5
8AF
102
{ACAD_REACTORS
330
864
102
}
330
18
100
AcDbEntity
  8
ROGO
 62
     4
100
AcDbLine
 10
182.9065316163073
 20
111.8413507139468
 30
0.0
 11
182.6904995895247
 21
111.4081015480078
 31
0.0
  0
LINE
  5
8B0
102
{ACAD_REACTORS
330
864
102
}
330
18
100
AcDbEntity
  8
ROGO
 62
     4
100
AcDbLine
 10
183.1225636430899
 20
111.4081015480078
 30
0.0
 11
183.7341912947125
 21
111.4081015480078
 31
0.0
  0
LINE
  5
8B1
102
{ACAD_REACTORS
330
864
102
}
330
18
100
AcDbEntity
  8
ROGO
 62
     4
100
AcDbLine
 10
183.3203547644029
 20
112.2380448404996
 30
0.0
 11
184.3258174495824
 21
113.0679881329915
 31
0.0
  0
LINE
  5
8B2
102
{ACAD_REACTORS
330
864
102
}
330
18
100
AcDbEntity
  8
ROGO
 62
     4
100
AcDbLine
 10
183.7141897979598
 20
113.0679881329915
 30
0.0
 11
184.3258174495823
 21
113.0679881329915
 31
0.0
  0
LINE
  5
8B3
102
{ACAD_REACTORS
330
864
102
}
330
18
100
AcDbEntity
  8
ROGO
 62
     4
100
AcDbLine
 10
182.9065316163073
 20
113.0679881329915
 30
0.0
 11
183.5181726501437
 21
113.0679881329915
 31
0.0
  0
LINE
  5
8B4
102
{ACAD_REACTORS
330
864
102
}
330
18
100
AcDbEntity
  8
ROGO
 62
     4
100
AcDbLine
 10
183.5181726501437
 20
113.0679881329915
 30
0.0
 11
183.4278075945695
 21
112.8867622955977
 31
0.0
  0
LINE
  5
8B5
102
{ACAD_REACTORS
330
864
102
}
330
18
100
AcDbEntity
  8
ROGO
 62
     4
100
AcDbLine
 10
183.4278075945695
 20
112.8867622955977
 30
0.0
 11
183.7141897979598
 21
113.0679881329915
 31
0.0
  0
LINE
  5
8B6
330
18
100
AcDbEntity
  8
0
  6
ByBlock
 62
     2
100
AcDbLine
 10
161.3191733332288
 20
106.2850477637223
 30
0.0
 11
161.3191733332288
 21
137.0676851803976
 31
0.0
  0
LINE
  5
8B7
330
18
100
AcDbEntity
  8
0
  6
ByBlock
 62
     2
100
AcDbLine
 10
194.3191733332288
 20
106.2850477637223
 30
0.0
 11
194.3191733332288
 21
137.0676851803976
 31
0.0
  0
LINE
  5
8B8
330
18
100
AcDbEntity
  8
0
  6
ByBlock
 62
     2
100
AcDbLine
 10
163.8191733332288
 20
135.8176851803976
 30
0.0
 11
191.8191733332288
 21
135.8176851803976
 31
0.0
  0
INSERT
  5
8B9
330
18
100
AcDbEntity
  8
0
  6
ByBlock
 62
     2
100
AcDbBlockReference
  2
_OPEN
 10
161.3191733332288
 20
135.8176851803976
 30
0.0
 41
2.5
 42
2.5
 43
2.5
 50
180.0
  0
INSERT
  5
8BA
330
18
100
AcDbEntity
  8
0
  6
ByBlock
 62
     2
100
AcDbBlockReference
  2
_OPEN
 10
194.3191733332288
 20
135.8176851803976
 30
0.0
 41
2.5
 42
2.5
 43
2.5
  0
MTEXT
  5
8BB
330
18
100
AcDbEntity
  8
0
  6
ByBlock
 62
     6
100
AcDbMText
 10
177.8191733332288
 20
137.6926851803975
 30
0.0
 40
2.5
 41
0.0
 71
     5
 72
     1
  1
\A1;φ33
  7
STYLE3
 73
     1
 44
1.0
  0
POINT
  5
8BC
330
18
100
AcDbEntity
  8
DEFPOINTS
  6
ByBlock
 62
     0
100
AcDbPoint
 10
161.3191733332288
 20
106.2850477637223
 30
0.0
  0
POINT
  5
8BD
330
18
100
AcDbEntity
  8
DEFPOINTS
  6
ByBlock
 62
     0
100
AcDbPoint
 10
194.3191733332288
 20
106.2850477637223
 30
0.0
  0
POINT
  5
8BE
330
18
100
AcDbEntity
  8
DEFPOINTS
  6
ByBlock
 62
     0
100
AcDbPoint
 10
194.3191733332288
 20
135.8176851803976
 30
0.0
  0
LINE
  5
8BF
330
18
100
AcDbEntity
  8
0
  6
ByBlock
 62
     2
100
AcDbLine
 10
125.2983411875733
 20
125.2850477637223
 30
0.0
 11
142.0986378482737
 21
125.2850477637223
 31
0.0
  0
LINE
  5
8C0
330
18
100
AcDbEntity
  8
0
  6
ByBlock
 62
     2
100
AcDbLine
 10
125.2983411875733
 20
87.28504776372231
 30
0.0
 11
142.0986378482737
 21
87.28504776372229
 31
0.0
  0
LINE
  5
8C1
330
18
100
AcDbEntity
  8
0
  6
ByBlock
 62
     2
100
AcDbLine
 10
140.8486378482737
 20
122.7850477637223
 30
0.0
 11
140.8486378482737
 21
89.78504776372229
 31
0.0
  0
INSERT
  5
8C2
330
18
100
AcDbEntity
  8
0
  6
ByBlock
 62
     2
100
AcDbBlockReference
  2
_OPEN
 10
140.8486378482737
 20
125.2850477637223
 30
0.0
 41
2.5
 42
2.5
 43
2.5
 50
90.0
  0
INSERT
  5
8C3
330
18
100
AcDbEntity
  8
0
  6
ByBlock
 62
     2
100
AcDbBlockReference
  2
_OPEN
 10
140.8486378482737
 20
87.28504776372229
 30
0.0
 41
2.5
 42
2.5
 43
2.5
 50
270.0
  0
MTEXT
  5
8C4
330
18
100
AcDbEntity
  8
0
  6
ByBlock
 62
     6
100
AcDbMText
 10
138.9736378482737
 20
106.2850477637223
 30
0.0
 40
2.5
 41
0.0
 71
     5
 72
     1
  1
\A1;φ38
  7
STYLE3
 11
0.0000000000000001
 21
1.0
 31
0.0
 73
     1
 44
1.0
  0
POINT
  5
8C5
330
18
100
AcDbEntity
  8
DEFPOINTS
  6
ByBlock
 62
     0
100
AcDbPoint
 10
125.2983411875733
 20
125.2850477637223
 30
0.0
  0
POINT
  5
8C6
330
18
100
AcDbEntity
  8
DEFPOINTS
  6
ByBlock
 62
     0
100
AcDbPoint
 10
125.2983411875733
 20
87.28504776372231
 30
0.0
  0
POINT
  5
8C7
330
18
100
AcDbEntity
  8
DEFPOINTS
  6
ByBlock
 62
     0
100
AcDbPoint
 10
140.8486378482737
 20
87.28504776372229
 30
0.0
  0
LINE
  5
8C8
102
{ACAD_REACTORS
330
8CB
102
}
330
18
100
AcDbEntity
  8
外形線
100
AcDbLine
 10
185.5873895641556
 20
107.8246310970555
 30
0.0
 11
184.5873895641555
 21
107.8246310970555
 31
0.0
  0
LINE
  5
8C9
102
{ACAD_REACTORS
330
8CB
102
}
330
18
100
AcDbEntity
  8
外形線
100
AcDbLine
 10
185.5873895641556
 20
107.6454644303888
 30
0.0
 11
184.5873895641555
 21
107.6454644303889
 31
0.0
  0
TEXT
  5
8CA
330
18
100
AcDbEntity
  8
文字
100
AcDbText
 10
179.8171359469418
 20
105.2487575293097
 30
0.0
 40
1.0
  1
0.01mm
  7
STYLE3
100
AcDbText
  0
HATCH
  5
8CB
330
18
100
AcDbEntity
  8
外形線
100
AcDbHatch
 10
0.0
 20
0.0
 30
0.0
210
0.0
220
0.0
230
1.0
  2
SOLID
 70
     1
 71
     1
 91
        2
 92
        1
 93
        7
 72
     1
 10
183.4207228974888
 20
107.7350477637222
 11
184.5873895641555
 21
107.310415823745
 72
     1
 10
184.5873895641555
 20
107.310415823745
 11
184.5873895641555
 21
107.6454644303889
 72
     1
 10
184.5873895641555
 20
107.6454644303889
 11
185.5873895641556
 21
107.6454644303888
 72
     1
 10
185.5873895641556
 20
107.6454644303888
 11
185.5873895641556
 21
107.8246310970555
 72
     1
 10
185.5873895641556
 20
107.8246310970555
 11
184.5873895641555
 21
107.8246310970555
 72
     1
 10
184.5873895641555
 20
107.8246310970555
 11
184.5873895641555
 21
108.1596797036994
 72
     1
 10
184.5873895641555
 20
108.1596797036994
 11
183.4207228974888
 21
107.7350477637222
 97
        7
330
8D4
330
8D7
330
8C9
330
8F0
330
8C8
330
8D3
330
8DA
 92
        1
 93
        4
 72
     1
 10
183.4207228974888
 20
108.4850477637222
 11
183.4207228974888
 21
106.9850477637222
 72
     1
 10
183.4207228974888
 20
106.9850477637222
 11
183.2540562308222
 21
106.9850477637222
 72
     1
 10
183.2540562308222
 20
106.9850477637222
 11
183.2540562308222
 21
108.4850477637222
 72
     1
 10
183.2540562308222
 20
108.4850477637222
 11
183.4207228974888
 21
108.4850477637222
 97
        4
330
8D9
330
8E6
330
8D8
330
8D0
 75
     0
 76
     1
 98
        1
 10
91.09116619100854
 20
39.07289695654123
450
        0
451
        0
460
0.0
461
0.0
452
        0
462
0.0
453
        0
470

  0
LINE
  5
8CC
102
{ACAD_REACTORS
330
8CE
102
}
330
18
100
AcDbEntity
  8
外形線
100
AcDbLine
 10
180.0873895641555
 20
107.8246310970555
 30
0.0
 11
181.0873895641555
 21
107.8246310970555
 31
0.0
  0
LINE
  5
8CD
102
{ACAD_REACTORS
330
8CE
102
}
330
18
100
AcDbEntity
  8
外形線
100
AcDbLine
 10
180.0873895641555
 20
107.6454644303888
 30
0.0
 11
181.0873895641555
 21
107.6454644303889
 31
0.0
  0
HATCH
  5
8CE
330
18
100
AcDbEntity
  8
外形線
100
AcDbHatch
 10
0.0
 20
0.0
 30
0.0
210
0.0
220
0.0
230
1.0
  2
SOLID
 70
     1
 71
     1
 91
        2
 92
        1
 93
        7
 72
     1
 10
182.2540562308223
 20
107.7350477637222
 11
181.0873895641555
 21
107.310415823745
 72
     1
 10
181.0873895641555
 20
107.310415823745
 11
181.0873895641555
 21
107.6454644303889
 72
     1
 10
181.0873895641555
 20
107.6454644303889
 11
180.0873895641555
 21
107.6454644303888
 72
     1
 10
180.0873895641555
 20
107.6454644303888
 11
180.0873895641555
 21
107.8246310970555
 72
     1
 10
180.0873895641555
 20
107.8246310970555
 11
181.0873895641555
 21
107.8246310970555
 72
     1
 10
181.0873895641555
 20
107.8246310970555
 11
181.0873895641555
 21
108.1596797036994
 72
     1
 10
181.0873895641555
 20
108.1596797036994
 11
182.2540562308223
 21
107.7350477637222
 97
        7
330
8E2
330
8DF
330
8CD
330
8CF
330
8CC
330
8DC
330
8E3
 92
        1
 93
        4
 72
     1
 10
182.2540562308223
 20
108.4850477637222
 11
182.2540562308223
 21
106.9850477637222
 72
     1
 10
182.2540562308223
 20
106.9850477637222
 11
182.4207228974888
 21
106.9850477637222
 72
     1
 10
182.4207228974888
 20
106.9850477637222
 11
182.4207228974888
 21
108.4850477637222
 72
     1
 10
182.4207228974888
 20
108.4850477637222
 11
182.2540562308223
 21
108.4850477637222
 97
        4
330
8E4
330
8EF
330
8E5
330
8DB
 75
     0
 76
     1
 98
        1
 10
274.5836129373026
 20
39.07289695654123
450
        0
451
        0
460
0.0
461
0.0
452
        0
462
0.0
453
        0
470

  0
LINE
  5
8CF
102
{ACAD_REACTORS
330
8CE
102
}
330
18
100
AcDbEntity
  8
外形線
100
AcDbLine
 10
180.0873895641555
 20
107.8246310970555
 30
0.0
 11
180.0873895641555
 21
107.6454644303888
 31
0.0
  0
LINE
  5
8D0
102
{ACAD_REACTORS
330
8CB
102
}
330
18
100
AcDbEntity
  8
外形線
100
AcDbLine
 10
183.2540562308222
 20
108.4850477637222
 30
0.0
 11
183.4207228974888
 21
108.4850477637222
 31
0.0
  0
POINT
  5
8D1
330
18
100
AcDbEntity
  8
DEFPOINTS
  6
ByBlock
 62
     0
100
AcDbPoint
 10
184.5873895641555
 20
108.1596797036994
 30
0.0
  0
POINT
  5
8D2
330
18
100
AcDbEntity
  8
DEFPOINTS
  6
ByBlock
 62
     0
100
AcDbPoint
 10
184.5873895641555
 20
108.1596797036994
 30
0.0
  0
LINE
  5
8D3
102
{ACAD_REACTORS
330
8CB
102
}
330
18
100
AcDbEntity
  8
外形線
100
AcDbLine
 10
184.5873895641555
 20
108.1596797036994
 30
0.0
 11
184.5873895641555
 21
107.8246310970555
 31
0.0
  0
LINE
  5
8D4
102
{ACAD_REACTORS
330
8CB
102
}
330
18
100
AcDbEntity
  8
外形線
100
AcDbLine
 10
183.4207228974888
 20
107.7350477637222
 30
0.0
 11
184.5873895641555
 21
107.310415823745
 31
0.0
  0
POINT
  5
8D5
330
18
100
AcDbEntity
  8
DEFPOINTS
  6
ByBlock
 62
     0
100
AcDbPoint
 10
184.5873895641555
 20
107.310415823745
 30
0.0
  0
POINT
  5
8D6
330
18
100
AcDbEntity
  8
DEFPOINTS
  6
ByBlock
 62
     0
100
AcDbPoint
 10
184.5873895641555
 20
107.310415823745
 30
0.0
  0
LINE
  5
8D7
102
{ACAD_REACTORS
330
8CB
102
}
330
18
100
AcDbEntity
  8
外形線
100
AcDbLine
 10
184.5873895641555
 20
107.6454644303889
 30
0.0
 11
184.5873895641555
 21
107.310415823745
 31
0.0
  0
LINE
  5
8D8
102
{ACAD_REACTORS
330
8CB
102
}
330
18
100
AcDbEntity
  8
外形線
100
AcDbLine
 10
183.2540562308222
 20
108.4850477637222
 30
0.0
 11
183.2540562308222
 21
106.9850477637222
 31
0.0
  0
LINE
  5
8D9
102
{ACAD_REACTORS
330
8CB
102
}
330
18
100
AcDbEntity
  8
外形線
100
AcDbLine
 10
183.4207228974888
 20
108.4850477637222
 30
0.0
 11
183.4207228974888
 21
106.9850477637222
 31
0.0
  0
LINE
  5
8DA
102
{ACAD_REACTORS
330
8CB
102
}
330
18
100
AcDbEntity
  8
外形線
100
AcDbLine
 10
183.4207228974888
 20
107.7350477637222
 30
0.0
 11
184.5873895641555
 21
108.1596797036994
 31
0.0
  0
LINE
  5
8DB
102
{ACAD_REACTORS
330
8CE
102
}
330
18
100
AcDbEntity
  8
外形線
100
AcDbLine
 10
182.4207228974888
 20
108.4850477637222
 30
0.0
 11
182.2540562308223
 21
108.4850477637222
 31
0.0
  0
LINE
  5
8DC
102
{ACAD_REACTORS
330
8CE
102
}
330
18
100
AcDbEntity
  8
外形線
100
AcDbLine
 10
181.0873895641555
 20
108.1596797036994
 30
0.0
 11
181.0873895641555
 21
107.8246310970555
 31
0.0
  0
POINT
  5
8DD
330
18
100
AcDbEntity
  8
DEFPOINTS
  6
ByBlock
 62
     0
100
AcDbPoint
 10
181.0873895641555
 20
108.1596797036994
 30
0.0
  0
POINT
  5
8DE
330
18
100
AcDbEntity
  8
DEFPOINTS
  6
ByBlock
 62
     0
100
AcDbPoint
 10
181.0873895641555
 20
108.1596797036994
 30
0.0
  0
LINE
  5
8DF
102
{ACAD_REACTORS
330
8CE
102
}
330
18
100
AcDbEntity
  8
外形線
100
AcDbLine
 10
181.0873895641555
 20
107.6454644303889
 30
0.0
 11
181.0873895641555
 21
107.310415823745
 31
0.0
  0
POINT
  5
8E0
330
18
100
AcDbEntity
  8
DEFPOINTS
  6
ByBlock
 62
     0
100
AcDbPoint
 10
181.0873895641555
 20
107.310415823745
 30
0.0
  0
POINT
  5
8E1
330
18
100
AcDbEntity
  8
DEFPOINTS
  6
ByBlock
 62
     0
100
AcDbPoint
 10
181.0873895641555
 20
107.310415823745
 30
0.0
  0
LINE
  5
8E2
102
{ACAD_REACTORS
330
8CE
102
}
330
18
100
AcDbEntity
  8
外形線
100
AcDbLine
 10
182.2540562308223
 20
107.7350477637222
 30
0.0
 11
181.0873895641555
 21
107.310415823745
 31
0.0
  0
LINE
  5
8E3
102
{ACAD_REACTORS
330
8CE
102
}
330
18
100
AcDbEntity
  8
外形線
100
AcDbLine
 10
182.2540562308223
 20
107.7350477637222
 30
0.0
 11
181.0873895641555
 21
108.1596797036994
 31
0.0
  0
LINE
  5
8E4
102
{ACAD_REACTORS
330
8CE
102
}
330
18
100
AcDbEntity
  8
外形線
100
AcDbLine
 10
182.2540562308223
 20
108.4850477637222
 30
0.0
 11
182.2540562308223
 21
106.9850477637222
 31
0.0
  0
LINE
  5
8E5
102
{ACAD_REACTORS
330
8CE
102
}
330
18
100
AcDbEntity
  8
外形線
100
AcDbLine
 10
182.4207228974888
 20
108.4850477637222
 30
0.0
 11
182.4207228974888
 21
106.9850477637222
 31
0.0
  0
LINE
  5
8E6
102
{ACAD_REACTORS
330
8CB
102
}
330
18
100
AcDbEntity
  8
外形線
100
AcDbLine
 10
183.2540562308222
 20
106.9850477637222
 30
0.0
 11
183.4207228974888
 21
106.9850477637222
 31
0.0
  0
POINT
  5
8E7
330
18
100
AcDbEntity
  8
DEFPOINTS
  6
ByBlock
 62
     0
100
AcDbPoint
 10
183.4207228974888
 20
106.9850477637222
 30
0.0
  0
POINT
  5
8E8
330
18
100
AcDbEntity
  8
DEFPOINTS
  6
ByBlock
 62
     0
100
AcDbPoint
 10
183.2540562308222
 20
106.9850477637222
 30
0.0
  0
POINT
  5
8E9
330
18
100
AcDbEntity
  8
DEFPOINTS
  6
ByBlock
 62
     0
100
AcDbPoint
 10
183.4207228974888
 20
106.9850477637222
 30
0.0
  0
POINT
  5
8EA
330
18
100
AcDbEntity
  8
DEFPOINTS
  6
ByBlock
 62
     0
100
AcDbPoint
 10
183.2540562308222
 20
106.9850477637222
 30
0.0
  0
POINT
  5
8EB
330
18
100
AcDbEntity
  8
DEFPOINTS
  6
ByBlock
 62
     0
100
AcDbPoint
 10
182.4207228974888
 20
106.9850477637222
 30
0.0
  0
POINT
  5
8EC
330
18
100
AcDbEntity
  8
DEFPOINTS
  6
ByBlock
 62
     0
100
AcDbPoint
 10
182.2540562308223
 20
106.9850477637222
 30
0.0
  0
POINT
  5
8ED
330
18
100
AcDbEntity
  8
DEFPOINTS
  6
ByBlock
 62
     0
100
AcDbPoint
 10
182.4207228974888
 20
106.9850477637222
 30
0.0
  0
POINT
  5
8EE
330
18
100
AcDbEntity
  8
DEFPOINTS
  6
ByBlock
 62
     0
100
AcDbPoint
 10
182.2540562308223
 20
106.9850477637222
 30
0.0
  0
LINE
  5
8EF
102
{ACAD_REACTORS
330
8CE
102
}
330
18
100
AcDbEntity
  8
外形線
100
AcDbLine
 10
182.4207228974888
 20
106.9850477637222
 30
0.0
 11
182.2540562308223
 21
106.9850477637222
 31
0.0
  0
LINE
  5
8F0
102
{ACAD_REACTORS
330
8CB
102
}
330
18
100
AcDbEntity
  8
外形線
100
AcDbLine
 10
185.5873895641556
 20
107.8246310970555
 30
0.0
 11
185.5873895641556
 21
107.6454644303888
 31
0.0
  0
LINE
  5
B43
330
18
100
AcDbEntity
  8
中心線
 48
0.5
100
AcDbLine
 10
113.4983411875732
 20
66.55086652604069
 30
0.0
 11
113.4983411875732
 21
41.37595004619123
 31
0.0
  0
LINE
  5
B44
330
18
100
AcDbEntity
  8
中心線
 48
0.5
100
AcDbLine
 10
103.6597361274084
 20
54.19730418256489
 30
0.0
 11
133.9324808094391
 21
54.19730418256489
 31
0.0
  0
CIRCLE
  5
B45
330
18
100
AcDbEntity
  8
外形線
100
AcDbCircle
 10
113.4983411875732
 20
54.19730418256489
 30
0.0
 40
3.174999999999999
  0
ARC
  5
B46
330
18
100
AcDbEntity
  8
外形線
100
AcDbCircle
 10
113.4983411875732
 20
54.19730418256489
 30
0.0
 40
4.0
100
AcDbArc
 50
90.0
 51
270.0
  0
LINE
  5
B47
330
18
100
AcDbEntity
  8
外形線
100
AcDbLine
 10
119.2983411875733
 20
63.53165779018912
 30
0.0
 11
119.2983411875732
 21
54.19730418256489
 31
0.0
  0
LINE
  5
B48
330
18
100
AcDbEntity
  8
外形線
100
AcDbLine
 10
120.4983411875732
 20
63.6397146454222
 30
0.0
 11
120.4983411875732
 21
54.19730418256489
 31
0.0
  0
LINE
  5
B49
330
18
100
AcDbEntity
  8
外形線
100
AcDbLine
 10
125.5983411875732
 20
64.0989562801629
 30
0.0
 11
125.5983411875732
 21
54.19730418256489
 31
0.0
  0
LINE
  5
B4A
330
18
100
AcDbEntity
  8
外形線
100
AcDbLine
 10
126.0983411875733
 20
64.14397996984334
 30
0.0
 11
126.0983411875732
 21
54.19730418256489
 31
0.0
  0
LINE
  5
B4B
330
18
100
AcDbEntity
  8
外形線
100
AcDbLine
 10
120.9983411875733
 20
63.68473833510268
 30
0.0
 11
120.9983411875733
 21
54.19730418256489
 31
0.0
  0
LINE
  5
B4C
330
18
100
AcDbEntity
  8
外形線
100
AcDbLine
 10
119.2983411875732
 20
45.32533489439027
 30
0.0
 11
119.2983411875732
 21
54.19730418256489
 31
0.0
  0
LINE
  5
B4D
330
18
100
AcDbEntity
  8
外形線
100
AcDbLine
 10
120.9983411875733
 20
45.47841543930383
 30
0.0
 11
120.9983411875733
 21
54.19730418256489
 31
0.0
  0
LINE
  5
B4E
330
18
100
AcDbEntity
  8
外形線
100
AcDbLine
 10
120.4983411875733
 20
45.43339174962336
 30
0.0
 11
120.4983411875732
 21
54.19730418256489
 31
0.0
  0
LINE
  5
B4F
330
18
100
AcDbEntity
  8
外形線
100
AcDbLine
 10
125.5983411875732
 20
45.89263338436404
 30
0.0
 11
125.5983411875732
 21
54.19730418256489
 31
0.0
  0
LINE
  5
B50
330
18
100
AcDbEntity
  8
外形線
100
AcDbLine
 10
126.0983411875733
 20
45.9376570740445
 30
0.0
 11
126.0983411875732
 21
54.19730418256489
 31
0.0
  0
ARC
  5
B51
330
18
100
AcDbEntity
  8
外形線
100
AcDbCircle
 10
82.66311391484583
 20
54.19730418256489
 30
0.0
 40
46.73522727272742
100
AcDbArc
 50
350.112629563719
 51
12.53536269707479
  0
LINE
  5
B52
330
18
100
AcDbEntity
  8
外形線
100
AcDbLine
 10
107.4983411875732
 20
52.50386509561053
 30
0.0
 11
107.4983411875732
 21
44.26277581793144
 31
0.0
  0
LINE
  5
B53
330
18
100
AcDbEntity
  8
外形線
100
AcDbLine
 10
107.4983411875732
 20
52.50386509561053
 30
0.0
 11
107.4983411875732
 21
62.46909871373029
 31
0.0
  0
LINE
  5
B54
330
18
100
AcDbEntity
  8
想像線
 48
0.5
100
AcDbLine
 10
103.9162855489814
 20
62.1465439907501
 30
0.0
 11
132.3931886331802
 21
64.71081448579702
 31
0.0
  0
LINE
  5
B55
330
18
100
AcDbEntity
  8
想像線
 48
0.5
100
AcDbLine
 10
103.9162855489814
 20
43.94022109495125
 30
0.0
 11
132.3931886331802
 21
46.50449158999816
 31
0.0
  0
LINE
  5
B56
330
18
100
AcDbEntity
  8
外形線
100
AcDbLine
 10
113.4983411875732
 20
58.19730418256489
 30
0.0
 11
119.2983411875732
 21
58.19730418256487
 31
0.0
  0
LINE
  5
B57
330
18
100
AcDbEntity
  8
外形線
100
AcDbLine
 10
113.4983411875732
 20
50.19730418256489
 30
0.0
 11
119.2983411875732
 21
50.19730418256488
 31
0.0
  0
DIMENSION
  5
B58
330
18
100
AcDbEntity
  8
寸法線
100
AcDbDimension
  2
*D1
 10
99.96750636627963
 20
58.1973041825649
 30
0.0
 11
98.09250636627961
 21
54.19730418256492
 31
0.0
 70
    32
 71
     5
 42
8.0
  3
STYLE3
100
AcDbAlignedDimension
 13
113.4983411875732
 23
50.19730418256489
 33
0.0
 14
113.4983411875732
 24
58.19730418256489
 34
0.0
 50
90.0
100
AcDbRotatedDimension
1001
ACAD
1000
DSTYLE
1002
{
1070
   271
1070
     2
1070
   341
1005
0
1002
}
  0
DIMENSION
  5
BF1
330
18
100
AcDbEntity
  8
寸法線
100
AcDbDimension
  2
*D2
 10
107.4983411875732
 20
127.5638375693589
 30
0.0
 11
113.3983411875732
 21
129.4388375693589
 31
0.0
 70
    32
 71
     5
 42
11.79999999999999
  3
STYLE3
100
AcDbAlignedDimension
 13
119.2983411875732
 23
124.7850477637223
 33
0.0
 14
107.4983411875732
 24
129.3379877172897
 34
0.0
100
AcDbRotatedDimension
1001
ACAD
1000
DSTYLE
1002
{
1070
   271
1070
     2
1070
   341
1005
0
1002
}
  0
DIMENSION
  5
BFE
330
18
100
AcDbEntity
  8
寸法線
100
AcDbDimension
  2
*D3
 10
64.4157658300403
 20
91.28504776372235
 30
0.0
 11
62.54076583004029
 21
106.2850477637223
 31
0.0
 70
    32
  1
φ<>
 71
     5
 42
30.0
  3
STYLE3
100
AcDbAlignedDimension
 13
108.4983411875732
 23
121.2850477637223
 33
0.0
 14
108.4983411875732
 24
91.28504776372233
 34
0.0
 50
90.0
100
AcDbRotatedDimension
1001
ACAD
1000
DSTYLE
1002
{
1070
   271
1070
     2
1070
   341
1005
0
1002
}
  0
DIMENSION
  5
C14
330
18
100
AcDbEntity
  8
寸法線
100
AcDbDimension
  2
*D4
 10
100.5495207872068
 20
91.28504776372233
 30
0.0
 11
98.67452078720679
 21
97.20766681134142
 31
0.0
 70
    32
 71
     5
 42
0.9999999999999857
  3
STYLE3
100
AcDbAlignedDimension
 13
109.9933411875732
 23
90.28504776372235
 33
0.0
 14
101.0566610960125
 24
91.28504776372233
 34
0.0
 50
90.0
100
AcDbRotatedDimension
1001
ACAD
1000
DSTYLE
1002
{
1070
   271
1070
     2
1070
   341
1005
0
1002
}
  0
DIMENSION
  5
C23
330
18
100
AcDbEntity
  8
寸法線
100
AcDbDimension
  2
*D5
 10
88.89834118757326
 20
100.1912354391516
 30
0.0
 11
80.65429356852565
 21
102.0662354391516
 31
0.0
 70
    32
 71
     5
 42
4.5
  3
STYLE3
100
AcDbAlignedDimension
 13
93.39834118757327
 23
106.7850477637223
 33
0.0
 14
88.89834118757326
 24
107.8850477637223
 34
0.0
100
AcDbRotatedDimension
1001
ACAD
1000
DSTYLE
1002
{
1070
   271
1070
     2
1070
   341
1005
0
1002
}
  0
DIMENSION
  5
C32
330
18
100
AcDbEntity
  8
寸法線
100
AcDbDimension
  2
*D6
 10
119.2983411875732
 20
80.2954083237509
 30
0.0
 11
114.3958411875732
 21
82.1704083237509
 31
0.0
 70
    32
 71
     5
 42
9.804999999999992
  3
STYLE3
100
AcDbAlignedDimension
 13
109.4933411875732
 23
90.78504776372234
 33
0.0
 14
119.2983411875732
 24
87.78504776372233
 34
0.0
100
AcDbRotatedDimension
1001
ACAD
1000
DSTYLE
1002
{
1070
   271
1070
     2
1070
   341
1005
0
1002
}
  0
ARC
  5
C93
330
18
100
AcDbEntity
  8
外形線
100
AcDbCircle
 10
72.09834118757327
 20
110.7850477637223
 30
0.0
 40
1.199999999999999
100
AcDbArc
 50
99.59406822685991
 51
260.4059317731401
  0
TEXT
  5
CC0
330
18
100
AcDbEntity
  8
文字
100
AcDbText
 10
68.06143143111585
 20
182.0326679412795
 30
0.0
 40
3.5
  1
Model No.196B Back Plunger Type Dial Gauge
  7
STYLE3
100
AcDbText
  0
LINE
  5
CC1
330
18
100
AcDbEntity
  8
外形線
100
AcDbLine
 10
67.32863343111585
 20
178.6229689412795
 30
0.0
 11
187.3286334311158
 21
178.6229689412795
 31
0.0
  0
LINE
  5
CC2
330
18
100
AcDbEntity
  8
外形線
100
AcDbLine
 10
67.32863343111585
 20
179.6229689412795
 30
0.0
 11
187.3286334311158
 21
179.6229689412795
 31
0.0
  0
LINE
  5
CC4
330
18
100
AcDbEntity
  8
外形線
100
AcDbLine
 10
113.5264654311158
 20
20.56140794127949
 30
0.0
 11
254.3178834311158
 21
20.56140794127949
 31
0.0
  0
LINE
  5
CC5
330
18
100
AcDbEntity
  8
外形線
100
AcDbLine
 10
113.5264654311158
 20
9.781201941279485
 30
0.0
 11
254.3178834311158
 21
9.781201941279485
 31
0.0
  0
TEXT
  5
CC6
330
18
100
AcDbEntity
  8
0
  6
Continuous
100
AcDbText
 10
114.9839324311158
 20
11.67919194127948
 30
0.0
 40
2.1
  1
Design and specifications are subject to change without notice for future improvement.
  7
STYLE3
100
AcDbText
  0
TEXT
  5
CC7
330
18
100
AcDbEntity
  8
0
  6
Continuous
100
AcDbText
 10
115.2754264311158
 20
15.60833994127948
 30
0.0
 40
3.5
  1
仕様及び外観は予告なく変更される場合がございますのでご了承下さい。
  7
STYLE3
100
AcDbText
  0
TEXT
  5
CC8
330
18
100
AcDbEntity
  8
0
  6
Continuous
100
AcDbText
 10
114.6924414311158
 20
1.914563941279487
 30
0.0
 40
2.1
  1
3RD Angle Projection
  7
STYLE3
100
AcDbText
  0
TEXT
  5
CC9
330
18
100
AcDbEntity
  8
0
  6
Continuous
100
AcDbText
 10
117.3158844311158
 20
5.410846941279487
 30
0.0
 40
3.0
  1
三　　角　　法
  7
STYLE3
100
AcDbText
  0
LINE
  5
CCA
330
18
100
AcDbEntity
  8
外形線
100
AcDbLine
 10
113.5264654311158
 20
0.1664239412794871
 30
0.0
 11
113.5264654311158
 21
20.56140794127949
 31
0.0
  0
LINE
  5
CCB
330
18
100
AcDbEntity
  8
外形線
100
AcDbLine
 10
215.5492324311159
 20
9.781201941279485
 30
0.0
 11
215.5492324311159
 21
0.1664239412794871
 31
0.0
  0
LINE
  5
CCC
330
18
100
AcDbEntity
  8
外形線
100
AcDbLine
 10
185.8168824311158
 20
9.781201941279485
 30
0.0
 11
185.8168824311158
 21
0.1664239412794871
 31
0.0
  0
LINE
  5
CCD
330
18
100
AcDbEntity
  8
外形線
100
AcDbLine
 10
166.2868104311158
 20
9.781201941279485
 30
0.0
 11
166.2868104311158
 21
0.1664239412794871
 31
0.0
  0
LINE
  5
CCE
330
18
100
AcDbEntity
  8
外形線
100
AcDbLine
 10
148.7971934311158
 20
9.781201941279485
 30
0.0
 11
148.7971934311158
 21
0.1664239412794871
 31
0.0
  0
TEXT
  5
CCF
330
18
100
AcDbEntity
  8
0
  6
Continuous
100
AcDbText
 10
150.2546624311158
 20
5.416801941279486
 30
0.0
 40
3.0
  1
単位
  7
STYLE3
100
AcDbText
  0
TEXT
  5
CD0
330
18
100
AcDbEntity
  8
0
  6
Continuous
100
AcDbText
 10
150.4263834311158
 20
1.914564941279487
 30
0.0
 40
2.1
  1
Unit
  7
STYLE3
100
AcDbText
  0
TEXT
  5
CD1
330
18
100
AcDbEntity
  8
0
  6
Continuous
100
AcDbText
 10
167.5725584311158
 20
5.125443941279486
 30
0.0
 40
3.0
  1
尺 度
  7
STYLE3
100
AcDbText
  0
TEXT
  5
CD2
330
18
100
AcDbEntity
  8
0
  6
Continuous
100
AcDbText
 10
158.2967104311158
 20
3.662707941279486
 30
0.0
 40
2.399999999999999
  1
mm
  7
STYLE3
100
AcDbText
  0
TEXT
  5
CD3
330
18
100
AcDbEntity
  8
0
  6
Continuous
100
AcDbText
 10
168.0357734311158
 20
2.205921941279487
 30
0.0
 40
2.1
  1
Scale
  7
STYLE3
100
AcDbText
  0
TEXT
  5
CD4
330
18
100
AcDbEntity
  8
0
  6
Continuous
100
AcDbText
 10
177.6550624311158
 20
3.954064941279487
 30
0.0
 40
2.399999999999999
  1
1/1
  7
STYLE3
100
AcDbText
  0
TEXT
  5
CD5
330
18
100
AcDbEntity
  8
0
  6
Continuous
100
AcDbText
 10
187.7488334311158
 20
1.914565941279487
 30
0.0
 40
2.1
  1
Date
  7
STYLE3
100
AcDbText
  0
TEXT
  5
CD6
330
18
100
AcDbEntity
  8
0
  6
Continuous
100
AcDbText
 10
187.3654724311158
 20
5.247648941279487
 30
0.0
 40
3.0
  1
日 付
  7
STYLE3
100
AcDbText
  0
TEXT
  5
CD7
330
18
100
AcDbEntity
  8
0
  6
Continuous
100
AcDbText
 10
196.4936414311159
 20
3.662706941279487
 30
0.0
 40
2.1
  1
2010.06.09
  7
STYLE3
100
AcDbText
  0
TEXT
  5
CD8
330
18
100
AcDbEntity
  8
0
  6
Continuous
100
AcDbText
 10
216.8981954311159
 20
5.702203941279487
 30
0.0
 40
3.0
  1
株式会社　尾崎製作所
  7
STYLE3
100
AcDbText
  0
TEXT
  5
CD9
330
18
100
AcDbEntity
  8
0
  6
Continuous
100
AcDbText
 10
217.7726744311158
 20
1.914564941279487
 30
0.0
 40
2.1
  1
OZAKI MFG. CO., LTD.
  7
STYLE3
100
AcDbText
  0
VIEWPORT
  5
177
330
15
100
AcDbEntity
 67
     1
  8
0
100
AcDbViewport
 10
127.5041203589828
 20
97.49391214526822
 30
0.0
 40
418.3086347473814
 41
243.0346063651093
 68
     1
 69
     1
 12
127.5041203589828
 22
97.49391214526822
 13
0.0
 23
0.0
 14
10.0
 24
10.0
 15
10.0
 25
10.0
 16
0.0
 26
0.0
 36
1.0
 17
0.0
 27
0.0
 37
0.0
 42
50.0
 43
0.0
 44
0.0
 45
243.0346063651093
 50
0.0
 51
0.0
 72
   100
 90
    32800
  1

281
     0
 71
     1
 74
     0
110
0.0
120
0.0
130
0.0
111
1.0
121
0.0
131
0.0
112
0.0
122
1.0
132
0.0
 79
     0
146
0.0
170
     0
  0
ENDSEC
  0
SECTION
  2
OBJECTS
  0
DICTIONARY
  5
C
330
0
100
AcDbDictionary
281
     1
  3
ACAD_COLOR
350
923
  3
ACAD_GROUP
350
D
  3
ACAD_LAYOUT
350
926
  3
ACAD_MATERIAL
350
922
  3
ACAD_MLINESTYLE
350
1B
  3
ACAD_PLOTSETTINGS
350
927
  3
ACAD_PLOTSTYLENAME
350
920
  3
ACAD_TABLESTYLE
350
924
  3
ACDBVARIABLEDICTIONARY
350
61E
  0
DICTIONARY
  5
923
102
{ACAD_REACTORS
330
C
102
}
330
C
100
AcDbDictionary
281
     1
  0
DICTIONARY
  5
D
102
{ACAD_REACTORS
330
C
102
}
330
C
100
AcDbDictionary
281
     1
  0
DICTIONARY
  5
926
102
{ACAD_REACTORS
330
C
102
}
330
C
100
AcDbDictionary
281
     1
  3
Model
350
928
  3
レイアウト1
350
929
  0
DICTIONARY
  5
922
102
{ACAD_REACTORS
330
C
102
}
330
C
100
AcDbDictionary
281
     1
  0
DICTIONARY
  5
1B
102
{ACAD_REACTORS
330
C
102
}
330
C
100
AcDbDictionary
281
     1
  3
STANDARD
350
1C
  0
DICTIONARY
  5
927
102
{ACAD_REACTORS
330
C
102
}
330
C
100
AcDbDictionary
281
     1
  0
ACDBDICTIONARYWDFLT
  5
920
102
{ACAD_REACTORS
330
C
102
}
330
C
100
AcDbDictionary
281
     1
  3
Normal
350
921
100
AcDbDictionaryWithDefault
340
921
  0
DICTIONARY
  5
924
102
{ACAD_REACTORS
330
C
102
}
330
C
100
AcDbDictionary
281
     1
  3
Standard
350
925
  0
DICTIONARY
  5
61E
102
{ACAD_REACTORS
330
C
102
}
330
C
100
AcDbDictionary
281
     1
  3
CTABLESTYLE
350
C79
  3
SORTENTS
350
61F
  0
LAYOUT
  5
928
102
{ACAD_REACTORS
330
926
102
}
330
926
100
AcDbPlotSettings
  1

  2
Mytalk FAX
  4
A4
  6

 40
3.174999952316284
 41
6.635754585266113
 42
3.175003051757812
 43
3.17498779296875
 44
210.0579986572266
 45
296.9259948730469
 46
3.5
 47
25.0
 48
0.0
 49
0.0
140
0.0
141
0.0
142
1.0
143
1.0
 70
 28336
 72
     1
 73
     1
 74
     1
  7
AutoCAD LT 98.ctb
 75
    16
147
1.0
 76
     1
 77
     2
 78
   300
148
0.2128225079886761
149
0.2090691322566727
100
AcDbLayout
  1
Model
 70
     1
 71
     0
 10
0.0
 20
0.0
 11
12.0
 21
9.0
 12
0.0
 22
0.0
 32
0.0
 14
0.0
 24
0.0
 34
0.0
 15
0.0
 25
0.0
 35
0.0
146
0.0
 13
0.0
 23
0.0
 33
0.0
 16
1.0
 26
0.0
 36
0.0
 17
0.0
 27
1.0
 37
0.0
 76
     0
330
18
1001
ACAD_PSEXT
1000
Mytalk FAX
1000
Mytalk FAX
1000
NULL
1000

1070
     0
  0
LAYOUT
  5
929
102
{ACAD_REACTORS
330
926
102
}
330
926
100
AcDbPlotSettings
  1

  2
C:\Documents and Settings\佐藤\Application Data\Autodesk\AutoCAD LT 2005\R10\jpn\plotters\PEACOCK EPSON LP-6100.pc3
  4

  6

 40
0.0
 41
0.0
 42
0.0
 43
0.0
 44
0.0
 45
0.0
 46
0.0
 47
0.0
 48
0.0
 49
0.0
140
0.0
141
0.0
142
1.0
143
1.0
 70
   688
 72
     0
 73
     0
 74
     5
  7
AutoCAD LT 98.ctb
 75
    16
147
1.0
 76
     0
 77
     2
 78
   300
148
0.0
149
0.0
100
AcDbLayout
  1
レイアウト1
 70
     1
 71
     1
 10
0.0
 20
0.0
 11
420.0
 21
297.0
 12
0.0
 22
0.0
 32
0.0
 14
-0.2
 24
-0.2
 34
0.0
 15
255.2
 25
195.2
 35
0.0
146
0.0
 13
0.0
 23
0.0
 33
0.0
 16
1.0
 26
0.0
 36
0.0
 17
0.0
 27
1.0
 37
0.0
 76
     0
330
15
331
177
  0
MLINESTYLE
  5
1C
102
{ACAD_REACTORS
330
1B
102
}
330
1B
100
AcDbMlineStyle
  2
STANDARD
 70
     0
  3

 62
   256
 51
90.0
 52
90.0
 71
     2
 49
0.5
 62
   256
  6
BYLAYER
 49
-0.5
 62
   256
  6
BYLAYER
  0
ACDBPLACEHOLDER
  5
921
102
{ACAD_REACTORS
330
920
102
}
330
920
  0
ACAD_PROXY_OBJECT
  5
925
102
{ACAD_REACTORS
330
924
102
}
330
924
100
AcDbProxyObject
 90
      499
 91
      503
 95
  2555929
 70
     0
 93
     1849
310
4214DD185B99185C992420000000000000F83F0000000000003E0FC00000000000004901028000000C1008070000C3001FDFF8000000C1003FBFF000000182007F7FE00000030400FEFFC00000060801FDFF8000000C1003FBFF000000182000000000000000C2020B0000001820100E000186003FBFF000000182007F7FE0
310
0000030400FEFFC00000060801FDFF8000000C1003FBFF000000182007F7FE0000003040000000000000012404160000003040201C00030C007F7FE00000030400FEFFC00000060801FDFF8000000C1003FBFF000000182007F7FE00000030400FEFFC000000608000
340
F
340
F
340
F
 94
        0
  0
DICTIONARYVAR
  5
C79
102
{ACAD_REACTORS
330
61E
102
}
330
61E
100
DictionaryVariables
280
     0
  1
STANDARD
  0
DICTIONARYVAR
  5
61F
102
{ACAD_REACTORS
330
61E
102
}
330
61E
100
DictionaryVariables
280
     0
  1
96
  0
ENDSEC
  0
EOF
