  0
SECTION
  2
HEADER
  9
$ACADVER
  1
AC1018
  9
$ACADMAINTVER
 70
   104
  9
$DWGCODEPAGE
  3
ANSI_932
  9
$LASTSAVEDBY
  1
Kudo
  9
$INSBASE
 10
0.0
 20
0.0
 30
0.0
  9
$EXTMIN
 10
-0.2256390475530452
 20
-0.2181340431527587
 30
-0.0000152487762435
  9
$EXTMAX
 10
255.2259994837125
 20
195.2198638915711
 30
0.0000610486609247
  9
$LIMMIN
 10
0.0
 20
0.0
  9
$LIMMAX
 10
420.0
 20
297.0
  9
$ORTHOMODE
 70
     1
  9
$REGENMODE
 70
     1
  9
$FILLMODE
 70
     1
  9
$QTEXTMODE
 70
     0
  9
$MIRRTEXT
 70
     1
  9
$LTSCALE
 40
1.0
  9
$ATTMODE
 70
     1
  9
$TEXTSIZE
 40
2.5
  9
$TRACEWID
 40
1.0
  9
$TEXTSTYLE
  7
STYLE3
  9
$CLAYER
  8
寸法線
  9
$CELTYPE
  6
BYLAYER
  9
$CECOLOR
 62
   256
  9
$CELTSCALE
 40
1.0
  9
$DISPSILH
 70
     0
  9
$DIMSCALE
 40
1.0
  9
$DIMASZ
 40
2.5
  9
$DIMEXO
 40
0.0
  9
$DIMDLI
 40
3.75
  9
$DIMRND
 40
0.0
  9
$DIMDLE
 40
0.0
  9
$DIMEXE
 40
1.25
  9
$DIMTP
 40
0.0
  9
$DIMTM
 40
0.0
  9
$DIMTXT
 40
2.5
  9
$DIMCEN
 40
2.5
  9
$DIMTSZ
 40
0.0
  9
$DIMTOL
 70
     0
  9
$DIMLIM
 70
     0
  9
$DIMTIH
 70
     0
  9
$DIMTOH
 70
     0
  9
$DIMSE1
 70
     0
  9
$DIMSE2
 70
     0
  9
$DIMTAD
 70
     1
  9
$DIMZIN
 70
     8
  9
$DIMBLK
  1

  9
$DIMASO
 70
     1
  9
$DIMSHO
 70
     1
  9
$DIMPOST
  1

  9
$DIMAPOST
  1

  9
$DIMALT
 70
     0
  9
$DIMALTD
 70
     4
  9
$DIMALTF
 40
0.0394
  9
$DIMLFAC
 40
1.0
  9
$DIMTOFL
 70
     1
  9
$DIMTVP
 40
0.0
  9
$DIMTIX
 70
     0
  9
$DIMSOXD
 70
     0
  9
$DIMSAH
 70
     1
  9
$DIMBLK1
  1
OPEN
  9
$DIMBLK2
  1
OPEN
  9
$DIMSTYLE
  2
STYLE3
  9
$DIMCLRD
 70
     2
  9
$DIMCLRE
 70
     2
  9
$DIMCLRT
 70
     6
  9
$DIMTFAC
 40
1.0
  9
$DIMGAP
 40
0.625
  9
$DIMJUST
 70
     0
  9
$DIMSD1
 70
     0
  9
$DIMSD2
 70
     0
  9
$DIMTOLJ
 70
     1
  9
$DIMTZIN
 70
     0
  9
$DIMALTZ
 70
     0
  9
$DIMALTTZ
 70
     0
  9
$DIMUPT
 70
     0
  9
$DIMDEC
 70
     2
  9
$DIMTDEC
 70
     2
  9
$DIMALTU
 70
     8
  9
$DIMALTTD
 70
     4
  9
$DIMTXSTY
  7
STYLE3
  9
$DIMAUNIT
 70
     0
  9
$DIMADEC
 70
     1
  9
$DIMALTRND
 40
0.0
  9
$DIMAZIN
 70
     0
  9
$DIMDSEP
 70
    46
  9
$DIMATFIT
 70
     3
  9
$DIMFRAC
 70
     0
  9
$DIMLDRBLK
  1
OPEN
  9
$DIMLUNIT
 70
     2
  9
$DIMLWD
 70
    -2
  9
$DIMLWE
 70
    -2
  9
$DIMTMOVE
 70
     0
  9
$LUNITS
 70
     2
  9
$LUPREC
 70
     4
  9
$SKETCHINC
 40
1.0
  9
$FILLETRAD
 40
0.0
  9
$AUNITS
 70
     0
  9
$AUPREC
 70
     0
  9
$MENU
  1
.
  9
$ELEVATION
 40
0.0
  9
$PELEVATION
 40
0.0
  9
$THICKNESS
 40
0.0
  9
$LIMCHECK
 70
     0
  9
$CHAMFERA
 40
0.3
  9
$CHAMFERB
 40
0.3
  9
$CHAMFERC
 40
20.0
  9
$CHAMFERD
 40
0.0
  9
$SKPOLY
 70
     0
  9
$TDCREATE
 40
2451223.640404514
  9
$TDUCREATE
 40
2451223.265404514
  9
$TDUPDATE
 40
2458522.455532419
  9
$TDUUPDATE
 40
2458522.080532419
  9
$TDINDWG
 40
0.4773494213
  9
$TDUSRTIMER
 40
0.4773491898
  9
$USRTIMER
 70
     1
  9
$ANGBASE
 50
0.0
  9
$ANGDIR
 70
     0
  9
$PDMODE
 70
     0
  9
$PDSIZE
 40
0.0
  9
$PLINEWID
 40
0.0
  9
$SPLFRAME
 70
     0
  9
$SPLINETYPE
 70
     6
  9
$SPLINESEGS
 70
     8
  9
$HANDSEED
  5
1108
  9
$SURFTAB1
 70
     6
  9
$SURFTAB2
 70
     6
  9
$SURFTYPE
 70
     6
  9
$SURFU
 70
     6
  9
$SURFV
 70
     6
  9
$UCSBASE
  2

  9
$UCSNAME
  2

  9
$UCSORG
 10
0.0
 20
0.0
 30
0.0
  9
$UCSXDIR
 10
1.0
 20
0.0
 30
0.0
  9
$UCSYDIR
 10
0.0
 20
1.0
 30
0.0
  9
$UCSORTHOREF
  2

  9
$UCSORTHOVIEW
 70
     0
  9
$UCSORGTOP
 10
0.0
 20
0.0
 30
0.0
  9
$UCSORGBOTTOM
 10
0.0
 20
0.0
 30
0.0
  9
$UCSORGLEFT
 10
0.0
 20
0.0
 30
0.0
  9
$UCSORGRIGHT
 10
0.0
 20
0.0
 30
0.0
  9
$UCSORGFRONT
 10
0.0
 20
0.0
 30
0.0
  9
$UCSORGBACK
 10
0.0
 20
0.0
 30
0.0
  9
$PUCSBASE
  2

  9
$PUCSNAME
  2

  9
$PUCSORG
 10
0.0
 20
0.0
 30
0.0
  9
$PUCSXDIR
 10
1.0
 20
0.0
 30
0.0
  9
$PUCSYDIR
 10
0.0
 20
1.0
 30
0.0
  9
$PUCSORTHOREF
  2

  9
$PUCSORTHOVIEW
 70
     0
  9
$PUCSORGTOP
 10
0.0
 20
0.0
 30
0.0
  9
$PUCSORGBOTTOM
 10
0.0
 20
0.0
 30
0.0
  9
$PUCSORGLEFT
 10
0.0
 20
0.0
 30
0.0
  9
$PUCSORGRIGHT
 10
0.0
 20
0.0
 30
0.0
  9
$PUCSORGFRONT
 10
0.0
 20
0.0
 30
0.0
  9
$PUCSORGBACK
 10
0.0
 20
0.0
 30
0.0
  9
$USERI1
 70
     0
  9
$USERI2
 70
     0
  9
$USERI3
 70
     0
  9
$USERI4
 70
     0
  9
$USERI5
 70
     0
  9
$USERR1
 40
0.0
  9
$USERR2
 40
0.0
  9
$USERR3
 40
0.0
  9
$USERR4
 40
0.0
  9
$USERR5
 40
0.0
  9
$WORLDVIEW
 70
     1
  9
$SHADEDGE
 70
     3
  9
$SHADEDIF
 70
    70
  9
$TILEMODE
 70
     1
  9
$MAXACTVP
 70
    48
  9
$PINSBASE
 10
0.0
 20
0.0
 30
0.0
  9
$PLIMCHECK
 70
     0
  9
$PEXTMIN
 10
-0.2
 20
-0.2
 30
0.0
  9
$PEXTMAX
 10
255.2
 20
195.2
 30
0.0
  9
$PLIMMIN
 10
0.0
 20
0.0
  9
$PLIMMAX
 10
420.0
 20
297.0
  9
$UNITMODE
 70
     0
  9
$VISRETAIN
 70
     1
  9
$PLINEGEN
 70
     0
  9
$PSLTSCALE
 70
     1
  9
$TREEDEPTH
 70
  3020
  9
$CMLSTYLE
  2
STANDARD
  9
$CMLJUST
 70
     0
  9
$CMLSCALE
 40
20.0
  9
$PROXYGRAPHICS
 70
     1
  9
$MEASUREMENT
 70
     1
  9
$CELWEIGHT
370
    -1
  9
$ENDCAPS
280
     0
  9
$JOINSTYLE
280
     0
  9
$LWDISPLAY
290
     0
  9
$INSUNITS
 70
     0
  9
$HYPERLINKBASE
  1

  9
$STYLESHEET
  1
AUTOCAD LT 98.CTB
  9
$XEDIT
290
     1
  9
$CEPSNTYPE
380
     0
  9
$PSTYLEMODE
290
     1
  9
$FINGERPRINTGUID
  2
{E622DE20-A6B5-4D0F-915D-5D105A2A8F14}
  9
$VERSIONGUID
  2
{5E60332E-5DE2-4D94-9526-1B554BBF7739}
  9
$EXTNAMES
290
     1
  9
$PSVPSCALE
 40
0.0
  9
$OLESTARTUP
290
     0
  9
$SORTENTS
280
    96
  9
$INDEXCTL
280
     0
  9
$HIDETEXT
280
     0
  9
$XCLIPFRAME
290
     0
  9
$HALOGAP
280
     0
  9
$OBSCOLOR
 70
   257
  9
$OBSLTYPE
280
     0
  9
$INTERSECTIONDISPLAY
280
     0
  9
$INTERSECTIONCOLOR
 70
   257
  9
$DIMASSOC
280
     1
  9
$PROJECTNAME
  1

  0
ENDSEC
  0
SECTION
  2
CLASSES
  0
CLASS
  1
HATCH
  2
AcDbHatch
  3
ObjectDBX Classes
 90
        0
 91
       11
280
     0
281
     1
  0
CLASS
  1
DICTIONARYVAR
  2
AcDbDictionaryVar
  3
ObjectDBX Classes
 90
        0
 91
        6
280
     0
281
     0
  0
CLASS
  1
ACDBDICTIONARYWDFLT
  2
AcDbDictionaryWithDefault
  3
ObjectDBX Classes
 90
        0
 91
        1
280
     0
281
     0
  0
CLASS
  1
TABLESTYLE
  2
AcDbTableStyle
  3
ObjectDBX Classes
 90
     4095
 91
        2
280
     0
281
     0
  0
CLASS
  1
SORTENTSTABLE
  2
AcDbSortentsTable
  3
ObjectDBX Classes
 90
        0
 91
        0
280
     0
281
     0
  0
CLASS
  1
MATERIAL
  2
AcDbMaterial
  3
ObjectDBX Classes
 90
     1153
 91
        3
280
     0
281
     0
  0
CLASS
  1
VISUALSTYLE
  2
AcDbVisualStyle
  3
ObjectDBX Classes
 90
     4095
 91
       24
280
     0
281
     0
  0
CLASS
  1
SCALE
  2
AcDbScale
  3
ObjectDBX Classes
 90
     1153
 91
       17
280
     0
281
     0
  0
CLASS
  1
MLEADERSTYLE
  2
AcDbMLeaderStyle
  3
ACDB_MLEADERSTYLE_CLASS
 90
     4095
 91
        1
280
     0
281
     0
  0
CLASS
  1
ACDBSECTIONVIEWSTYLE
  2
AcDbSectionViewStyle
  3
ObjectDBX Classes
 90
     1025
 91
        1
280
     0
281
     0
  0
CLASS
  1
ACDBDETAILVIEWSTYLE
  2
AcDbDetailViewStyle
  3
ObjectDBX Classes
 90
     1025
 91
        1
280
     0
281
     0
  0
CLASS
  1
CELLSTYLEMAP
  2
AcDbCellStyleMap
  3
ObjectDBX Classes
 90
     1152
 91
        1
280
     0
281
     0
  0
ENDSEC
  0
SECTION
  2
TABLES
  0
TABLE
  2
VPORT
  5
8
330
0
100
AcDbSymbolTable
 70
     1
  0
VPORT
  5
D40
330
8
100
AcDbSymbolTableRecord
100
AcDbViewportTableRecord
  2
*Active
 70
     0
 10
0.0
 20
0.0
 11
1.0
 21
1.0
 12
127.5001802180797
 22
97.50086492420917
 13
0.0
 23
0.0
 14
10.0
 24
10.0
 15
10.0
 25
10.0
 16
0.0
 26
0.0
 36
1.0
 17
0.0
 27
0.0
 37
0.0
 40
196.989093156428
 41
2.541721854304635
 42
50.0
 43
0.0
 44
0.0
 50
0.0
 51
0.0
 71
     0
 72
   100
 73
     1
 74
     1
 75
     0
 76
     0
 77
     0
 78
     0
281
     0
 65
     1
110
0.0
120
0.0
130
0.0
111
1.0
121
0.0
131
0.0
112
0.0
122
1.0
132
0.0
 79
     0
146
0.0
1001
ACAD_NAV_VCDISPLAY
1070
     3
  0
ENDTAB
  0
TABLE
  2
LTYPE
  5
5
330
0
100
AcDbSymbolTable
 70
     3
  0
LTYPE
  5
12
330
5
100
AcDbSymbolTableRecord
100
AcDbLinetypeTableRecord
  2
BYBLOCK
 70
     0
  3

 72
    65
 73
     0
 40
0.0
  0
LTYPE
  5
13
330
5
100
AcDbSymbolTableRecord
100
AcDbLinetypeTableRecord
  2
BYLAYER
 70
     0
  3

 72
    65
 73
     0
 40
0.0
  0
LTYPE
  5
14
330
5
100
AcDbSymbolTableRecord
100
AcDbLinetypeTableRecord
  2
CONTINUOUS
 70
     0
  3
Solid line
 72
    65
 73
     0
 40
0.0
  0
LTYPE
  5
22
330
5
100
AcDbSymbolTableRecord
100
AcDbLinetypeTableRecord
  2
CENTER2
 70
     0
  3
Center (.5x) ___ _ ___ _ ___ _ ___ _ ___ _ ___
 72
    65
 73
     4
 40
28.575
 49
19.05
 74
     0
 49
-3.174999999999998
 74
     0
 49
3.174999999999998
 74
     0
 49
-3.174999999999998
 74
     0
  0
ENDTAB
  0
TABLE
  2
LAYER
  5
2
102
{ACAD_XDICTIONARY
360
E36
102
}
330
0
100
AcDbSymbolTable
 70
    12
  0
LAYER
  5
E
102
{ACAD_XDICTIONARY
360
10B3
102
}
330
2
100
AcDbSymbolTableRecord
100
AcDbLayerTableRecord
  2
0
 70
     0
 62
     7
  6
CONTINUOUS
370
    -3
390
B26
  0
LAYER
  5
25
102
{ACAD_XDICTIONARY
360
10B5
102
}
330
2
100
AcDbSymbolTableRecord
100
AcDbLayerTableRecord
  2
外形線
 70
     0
 62
     7
  6
CONTINUOUS
370
    -3
390
B26
  0
LAYER
  5
27
102
{ACAD_XDICTIONARY
360
10B7
102
}
330
2
100
AcDbSymbolTableRecord
100
AcDbLayerTableRecord
  2
中心線
 70
     0
 62
     4
  6
CENTER2
370
    -3
390
B26
  0
LAYER
  5
2A
102
{ACAD_XDICTIONARY
360
10B9
102
}
330
2
100
AcDbSymbolTableRecord
100
AcDbLayerTableRecord
  2
ﾊｯﾁﾝｸ
 70
     0
 62
     4
  6
CONTINUOUS
370
    -3
390
B26
  0
LAYER
  5
2B
102
{ACAD_XDICTIONARY
360
10BB
102
}
330
2
100
AcDbSymbolTableRecord
100
AcDbLayerTableRecord
  2
文字
 70
     0
 62
     6
  6
CONTINUOUS
370
    -3
390
B26
  0
LAYER
  5
2C
102
{ACAD_XDICTIONARY
360
10BD
102
}
330
2
100
AcDbSymbolTableRecord
100
AcDbLayerTableRecord
  2
目盛
 70
     0
 62
    70
  6
CONTINUOUS
370
    -3
390
B26
  0
LAYER
  5
2D
102
{ACAD_XDICTIONARY
360
10BF
102
}
330
2
100
AcDbSymbolTableRecord
100
AcDbLayerTableRecord
  2
針
 70
     0
 62
     5
  6
CONTINUOUS
370
    -3
390
B26
  0
LAYER
  5
53
330
2
100
AcDbSymbolTableRecord
100
AcDbLayerTableRecord
  2
DEFPOINTS
 70
     0
 62
     7
  6
CONTINUOUS
290
     0
370
    -3
390
B26
  0
LAYER
  5
A5
102
{ACAD_XDICTIONARY
360
10C1
102
}
330
2
100
AcDbSymbolTableRecord
100
AcDbLayerTableRecord
  2
C
 70
     0
 62
     7
  6
CONTINUOUS
370
    -3
390
B26
  0
LAYER
  5
5B5
102
{ACAD_XDICTIONARY
360
10C3
102
}
330
2
100
AcDbSymbolTableRecord
100
AcDbLayerTableRecord
  2
ROGO
 70
     0
 62
     6
  6
CONTINUOUS
370
    -3
390
B26
  0
LAYER
  5
B0F
102
{ACAD_XDICTIONARY
360
10C5
102
}
330
2
100
AcDbSymbolTableRecord
100
AcDbLayerTableRecord
  2
寸法線
 70
     0
 62
     2
  6
CONTINUOUS
370
    -3
390
B26
  0
LAYER
  5
E32
102
{ACAD_XDICTIONARY
360
E33
102
}
330
2
100
AcDbSymbolTableRecord
100
AcDbLayerTableRecord
  2
ﾊｯﾁﾝｸﾞ
 70
     0
 62
     4
  6
CONTINUOUS
370
    -3
390
B26
  0
ENDTAB
  0
TABLE
  2
STYLE
  5
3
330
0
100
AcDbSymbolTable
 70
     3
  0
STYLE
  5
F
330
3
100
AcDbSymbolTableRecord
100
AcDbTextStyleTableRecord
  2
STANDARD
 70
     0
 40
0.0
 41
1.0
 50
0.0
 71
     0
 42
2.5
  3
txt
  4

  0
STYLE
  5
3F
330
3
100
AcDbSymbolTableRecord
100
AcDbTextStyleTableRecord
  2
STYLE3
 70
     0
 40
0.0
 41
1.0
 50
0.0
 71
     0
 42
2.5
  3
romans.shx
  4
bigfont.shx
  0
STYLE
  5
E34
330
3
100
AcDbSymbolTableRecord
100
AcDbTextStyleTableRecord
  2
BIGFONT
 70
     0
 40
0.0
 41
1.0
 50
0.0
 71
     0
 42
3.0
  3
txt.shx
  4
bigfont
  0
ENDTAB
  0
TABLE
  2
VIEW
  5
6
330
0
100
AcDbSymbolTable
 70
     0
  0
ENDTAB
  0
TABLE
  2
UCS
  5
7
330
0
100
AcDbSymbolTable
 70
     0
  0
ENDTAB
  0
TABLE
  2
APPID
  5
9
330
0
100
AcDbSymbolTable
 70
     6
  0
APPID
  5
10
330
9
100
AcDbSymbolTableRecord
100
AcDbRegAppTableRecord
  2
ACAD
 70
     0
  0
APPID
  5
B4A
330
9
100
AcDbSymbolTableRecord
100
AcDbRegAppTableRecord
  2
ACAD_PSEXT
 70
     0
  0
APPID
  5
C1C
330
9
100
AcDbSymbolTableRecord
100
AcDbRegAppTableRecord
  2
ACAD_DSTYLE_DIMTEXT_FILL
 70
     0
  0
APPID
  5
E35
330
9
100
AcDbSymbolTableRecord
100
AcDbRegAppTableRecord
  2
ACAD_NAV_VCDISPLAY
 70
     0
  0
APPID
  5
10B1
330
9
100
AcDbSymbolTableRecord
100
AcDbRegAppTableRecord
  2
ACAD_EXEMPT_FROM_CAD_STANDARDS
 70
     0
  0
APPID
  5
1103
330
9
100
AcDbSymbolTableRecord
100
AcDbRegAppTableRecord
  2
ACAD_MLEADERVER
 70
     0
  0
ENDTAB
  0
TABLE
  2
DIMSTYLE
  5
A
330
0
100
AcDbSymbolTable
 70
     2
100
AcDbDimStyleTable
 71
     1
340
8F
  0
DIMSTYLE
105
1D
330
A
100
AcDbSymbolTableRecord
100
AcDbDimStyleTableRecord
  2
STANDARD
 70
     0
 41
2.5
 42
0.625
 43
3.75
 44
1.25
 73
     0
 74
     0
 77
     1
 78
     8
140
2.5
141
2.5
143
0.0394
147
0.625
171
     4
172
     1
273
     8
274
     4
277
     6
340
F
  0
DIMSTYLE
105
8F
102
{ACAD_REACTORS
330
C7D
330
F1E
330
F1F
330
F20
330
F21
330
F22
330
F23
330
F24
330
F25
330
F26
330
F27
330
F28
330
F29
102
}
330
A
100
AcDbSymbolTableRecord
100
AcDbDimStyleTableRecord
  2
STYLE3
 70
     0
 41
2.5
 42
0.0
 43
3.75
 44
1.25
 73
     0
 74
     0
 77
     1
 78
     8
140
2.5
141
2.5
143
0.0394
147
0.625
171
     4
172
     1
173
     1
176
     2
177
     2
178
     6
271
     1
273
     8
274
     4
340
3F
341
45
343
45
344
45
  0
ENDTAB
  0
TABLE
  2
BLOCK_RECORD
  5
1
330
0
100
AcDbSymbolTable
 70
    28
  0
BLOCK_RECORD
  5
18
330
1
100
AcDbSymbolTableRecord
100
AcDbBlockTableRecord
  2
*MODEL_SPACE
340
B2D
  0
BLOCK_RECORD
  5
15
330
1
100
AcDbSymbolTableRecord
100
AcDbBlockTableRecord
  2
*PAPER_SPACE
340
B2E
  0
BLOCK_RECORD
  5
45
330
1
100
AcDbSymbolTableRecord
100
AcDbBlockTableRecord
  2
_OPEN
340
0
102
{BLKREFS
331
DFB
331
DFC
331
E07
331
E08
331
E13
331
E14
331
E1F
331
E20
331
E2B
331
E2C
331
8B9
331
8BA
331
D25
331
D26
331
D2E
331
D2F
331
DB8
331
DB9
331
DC5
331
DC6
331
DD3
331
DD4
331
DE1
331
DE2
331
DED
331
DEE
331
D9E
331
D9F
331
DAA
331
DAB
331
103F
331
1040
331
1048
331
1049
331
1053
331
1054
331
105D
331
105E
331
1068
331
1069
331
1073
331
1074
331
107C
331
107D
331
1087
331
1088
331
1090
331
1091
331
1099
331
109A
331
10A2
331
10A3
331
10AB
331
10AC
102
}
  0
BLOCK_RECORD
  5
AED
330
1
100
AcDbSymbolTableRecord
100
AcDbBlockTableRecord
  2
*D1
340
0
  0
BLOCK_RECORD
  5
C7E
330
1
100
AcDbSymbolTableRecord
100
AcDbBlockTableRecord
  2
*D2
340
0
  0
BLOCK_RECORD
  5
D99
330
1
100
AcDbSymbolTableRecord
100
AcDbBlockTableRecord
  2
*D3
340
0
  0
BLOCK_RECORD
  5
DA5
330
1
100
AcDbSymbolTableRecord
100
AcDbBlockTableRecord
  2
*D4
340
0
  0
BLOCK_RECORD
  5
DB1
330
1
100
AcDbSymbolTableRecord
100
AcDbBlockTableRecord
  2
*D5
340
0
  0
BLOCK_RECORD
  5
DBF
330
1
100
AcDbSymbolTableRecord
100
AcDbBlockTableRecord
  2
*D6
340
0
  0
BLOCK_RECORD
  5
DCC
330
1
100
AcDbSymbolTableRecord
100
AcDbBlockTableRecord
  2
*D7
340
0
  0
BLOCK_RECORD
  5
DDA
330
1
100
AcDbSymbolTableRecord
100
AcDbBlockTableRecord
  2
*D8
340
0
  0
BLOCK_RECORD
  5
DE8
330
1
100
AcDbSymbolTableRecord
100
AcDbBlockTableRecord
  2
*D9
340
0
  0
BLOCK_RECORD
  5
DF4
330
1
100
AcDbSymbolTableRecord
100
AcDbBlockTableRecord
  2
*D10
340
0
  0
BLOCK_RECORD
  5
E02
330
1
100
AcDbSymbolTableRecord
100
AcDbBlockTableRecord
  2
*D11
340
0
  0
BLOCK_RECORD
  5
E0E
330
1
100
AcDbSymbolTableRecord
100
AcDbBlockTableRecord
  2
*D12
340
0
  0
BLOCK_RECORD
  5
E1A
330
1
100
AcDbSymbolTableRecord
100
AcDbBlockTableRecord
  2
*D13
340
0
  0
BLOCK_RECORD
  5
E26
330
1
100
AcDbSymbolTableRecord
100
AcDbBlockTableRecord
  2
*D14
340
0
  0
BLOCK_RECORD
  5
F2C
330
1
100
AcDbSymbolTableRecord
100
AcDbBlockTableRecord
  2
*D16
340
0
  0
BLOCK_RECORD
  5
F38
330
1
100
AcDbSymbolTableRecord
100
AcDbBlockTableRecord
  2
*D17
340
0
  0
BLOCK_RECORD
  5
F44
330
1
100
AcDbSymbolTableRecord
100
AcDbBlockTableRecord
  2
*D18
340
0
  0
BLOCK_RECORD
  5
F52
330
1
100
AcDbSymbolTableRecord
100
AcDbBlockTableRecord
  2
*D19
340
0
  0
BLOCK_RECORD
  5
F5F
330
1
100
AcDbSymbolTableRecord
100
AcDbBlockTableRecord
  2
*D20
340
0
  0
BLOCK_RECORD
  5
F6D
330
1
100
AcDbSymbolTableRecord
100
AcDbBlockTableRecord
  2
*D21
340
0
  0
BLOCK_RECORD
  5
F7B
330
1
100
AcDbSymbolTableRecord
100
AcDbBlockTableRecord
  2
*D22
340
0
  0
BLOCK_RECORD
  5
F87
330
1
100
AcDbSymbolTableRecord
100
AcDbBlockTableRecord
  2
*D23
340
0
  0
BLOCK_RECORD
  5
F95
330
1
100
AcDbSymbolTableRecord
100
AcDbBlockTableRecord
  2
*D24
340
0
  0
BLOCK_RECORD
  5
FA1
330
1
100
AcDbSymbolTableRecord
100
AcDbBlockTableRecord
  2
*D25
340
0
  0
BLOCK_RECORD
  5
FAD
330
1
100
AcDbSymbolTableRecord
100
AcDbBlockTableRecord
  2
*D26
340
0
  0
BLOCK_RECORD
  5
FB9
330
1
100
AcDbSymbolTableRecord
100
AcDbBlockTableRecord
  2
*D27
340
0
  0
ENDTAB
  0
ENDSEC
  0
SECTION
  2
BLOCKS
  0
BLOCK
  5
19
330
18
100
AcDbEntity
  8
0
100
AcDbBlockBegin
  2
*MODEL_SPACE
 70
     0
 10
0.0
 20
0.0
 30
0.0
  3
*MODEL_SPACE
  1

  0
ENDBLK
  5
1A
330
18
100
AcDbEntity
  8
0
100
AcDbBlockEnd
  0
BLOCK
  5
16
330
15
100
AcDbEntity
 67
     1
  8
0
100
AcDbBlockBegin
  2
*PAPER_SPACE
 70
     0
 10
0.0
 20
0.0
 30
0.0
  3
*PAPER_SPACE
  1

  0
ENDBLK
  5
17
330
15
100
AcDbEntity
 67
     1
  8
0
100
AcDbBlockEnd
  0
BLOCK
  5
46
330
45
100
AcDbEntity
  8
0
100
AcDbBlockBegin
  2
_OPEN
 70
     0
 10
0.0
 20
0.0
 30
0.0
  3
_OPEN
  1

  0
LINE
  5
47
330
45
100
AcDbEntity
  8
0
  6
ByBlock
 62
     0
100
AcDbLine
 10
-1.0
 20
0.1666666666666666
 30
0.0
 11
0.0
 21
0.0
 31
0.0
  0
LINE
  5
48
330
45
100
AcDbEntity
  8
0
  6
ByBlock
 62
     0
100
AcDbLine
 10
0.0
 20
0.0
 30
0.0
 11
-1.0
 21
-0.1666666666666666
 31
0.0
  0
LINE
  5
49
330
45
100
AcDbEntity
  8
0
  6
ByBlock
 62
     0
100
AcDbLine
 10
0.0
 20
0.0
 30
0.0
 11
-1.0
 21
0.0
 31
0.0
  0
ENDBLK
  5
4A
330
45
100
AcDbEntity
  8
0
100
AcDbBlockEnd
  0
BLOCK
  5
AFB
330
AED
100
AcDbEntity
  8
0
100
AcDbBlockBegin
  2
*D1
 70
     1
 10
0.0
 20
0.0
 30
0.0
  3
*D1
  1

  0
LINE
  5
D22
330
AED
100
AcDbEntity
  8
文字
 62
     2
440
 16777216
370
    -2
100
AcDbLine
 10
62.8416560805247
 20
109.287520722003
 30
0.0
 11
62.8416560805247
 21
82.1441319167893
 31
0.0
  0
LINE
  5
D23
330
AED
100
AcDbEntity
  8
文字
 62
     2
440
 16777216
370
    -2
100
AcDbLine
 10
97.34165608052471
 20
105.2875207220031
 30
0.0
 11
97.34165608052471
 21
82.1441319167893
 31
0.0
  0
LINE
  5
D24
330
AED
100
AcDbEntity
  8
文字
 62
     2
440
 16777216
370
    -2
100
AcDbLine
 10
65.3416560805247
 20
83.3941319167893
 30
0.0
 11
94.84165608052469
 21
83.3941319167893
 31
0.0
  0
INSERT
  5
D25
330
AED
100
AcDbEntity
  8
文字
 62
     2
440
 16777216
370
    -2
100
AcDbBlockReference
  2
_OPEN
 10
62.8416560805247
 20
83.3941319167893
 30
0.0
 41
2.5
 42
2.5
 43
2.5
 50
180.0
  0
INSERT
  5
D26
330
AED
100
AcDbEntity
  8
文字
 62
     2
440
 16777216
370
    -2
100
AcDbBlockReference
  2
_OPEN
 10
97.34165608052471
 20
83.3941319167893
 30
0.0
 41
2.5
 42
2.5
 43
2.5
  0
MTEXT
  5
D27
330
AED
100
AcDbEntity
  8
文字
 62
     6
440
 16777216
100
AcDbMText
 10
80.0916560805247
 20
85.2691319167893
 30
0.0
 40
2.5
 41
0.0
 71
     5
 72
     1
  1
\A1;34.5
  7
STYLE3
 73
     1
 44
1.0
  0
POINT
  5
D28
330
AED
100
AcDbEntity
  8
DEFPOINTS
 62
     0
440
 16777216
100
AcDbPoint
 10
62.8416560805247
 20
109.287520722003
 30
0.0
  0
POINT
  5
D29
330
AED
100
AcDbEntity
  8
DEFPOINTS
 62
     0
440
 16777216
100
AcDbPoint
 10
97.34165608052471
 20
105.2875207220031
 30
0.0
  0
POINT
  5
D2A
330
AED
100
AcDbEntity
  8
DEFPOINTS
 62
     0
440
 16777216
100
AcDbPoint
 10
97.34165608052471
 20
83.3941319167893
 30
0.0
  0
ENDBLK
  5
B05
330
AED
100
AcDbEntity
  8
0
100
AcDbBlockEnd
  0
BLOCK
  5
C8A
330
C7E
100
AcDbEntity
  8
0
100
AcDbBlockBegin
  2
*D2
 70
     1
 10
0.0
 20
0.0
 30
0.0
  3
*D2
  1

  0
LINE
  5
D2B
330
C7E
100
AcDbEntity
  8
寸法線
 62
     2
440
 16777216
370
    -2
100
AcDbLine
 10
164.2687852008353
 20
89.85787435631378
 30
0.0
 11
158.1413872300033
 21
76.83649084831208
 31
0.0
  0
LINE
  5
D2C
330
C7E
100
AcDbEntity
  8
寸法線
 62
     2
440
 16777216
370
    -2
100
AcDbLine
 10
178.3195018224827
 20
89.85787435631376
 30
0.0
 11
184.4468997933146
 21
76.83649084831201
 31
0.0
  0
ARC
  5
D2D
330
C7E
100
AcDbEntity
  8
寸法線
 62
     2
440
 16777216
370
    -2
100
AcDbCircle
 10
171.294143511659
 20
104.787520722003
 30
0.0
 40
29.64101922573281
100
AcDbArc
 50
249.6339073059202
 51
290.3660926940796
  0
INSERT
  5
D2E
330
C7E
100
AcDbEntity
  8
寸法線
 62
     2
440
 16777216
370
    -2
100
AcDbBlockReference
  2
_OPEN
 10
158.6736113444597
 20
77.9675246638946
 30
0.0
 41
2.5
 42
2.5
 43
2.5
 50
157.21695365296
  0
INSERT
  5
D2F
330
C7E
100
AcDbEntity
  8
寸法線
 62
     2
440
 16777216
370
    -2
100
AcDbBlockReference
  2
_OPEN
 10
183.9146756788583
 20
77.96752466389455
 30
0.0
 41
2.5
 42
2.5
 43
2.5
 50
22.78304634703982
  0
MTEXT
  5
D30
330
C7E
100
AcDbEntity
  8
寸法線
 62
     6
440
 16777216
100
AcDbMText
 10
171.294143511659
 20
77.02150149627017
 30
0.0
 40
2.5
 41
0.0
 71
     5
 72
     1
  1
\A1;50.4\U+00B0
  7
STYLE3
 73
     1
 44
1.0
  0
POINT
  5
D31
330
C7E
100
AcDbEntity
  8
DEFPOINTS
 62
     0
440
 16777216
100
AcDbPoint
 10
166.9640936534872
 20
75.46448048116151
 30
0.0
  0
POINT
  5
D32
330
C7E
100
AcDbEntity
  8
DEFPOINTS
 62
     0
440
 16777216
100
AcDbPoint
 10
164.2687852008353
 20
89.85787435631378
 30
0.0
  0
POINT
  5
D33
330
C7E
100
AcDbEntity
  8
DEFPOINTS
 62
     0
440
 16777216
100
AcDbPoint
 10
178.3195018224827
 20
89.85787435631376
 30
0.0
  0
POINT
  5
D34
330
C7E
100
AcDbEntity
  8
DEFPOINTS
 62
     0
440
 16777216
100
AcDbPoint
 10
171.9328124490066
 20
103.430280143304
 30
0.0
  0
POINT
  5
D35
330
C7E
100
AcDbEntity
  8
DEFPOINTS
 62
     0
440
 16777216
100
AcDbPoint
 10
170.6554745743115
 20
103.430280143304
 30
0.0
  0
ENDBLK
  5
C8B
330
C7E
100
AcDbEntity
  8
0
100
AcDbBlockEnd
  0
BLOCK
  5
D9A
330
D99
100
AcDbEntity
  8
0
100
AcDbBlockBegin
  2
*D3
 70
     1
 10
0.0
 20
0.0
 30
0.0
  3
*D3
  1

  0
LINE
  5
D9B
330
D99
100
AcDbEntity
  8
寸法線
 62
     2
440
 16777216
370
    -2
100
AcDbLine
 10
109.0383357100937
 20
106.0403032553003
 30
0.0
 11
125.31270446873
 21
106.0403032553003
 31
0.0
  0
LINE
  5
D9C
330
D99
100
AcDbEntity
  8
寸法線
 62
     2
440
 16777216
370
    -2
100
AcDbLine
 10
109.0383357100937
 20
68.0403032553002
 30
0.0
 11
125.31270446873
 21
68.0403032553002
 31
0.0
  0
LINE
  5
D9D
330
D99
100
AcDbEntity
  8
寸法線
 62
     2
440
 16777216
370
    -2
100
AcDbLine
 10
124.06270446873
 20
103.5403032553003
 30
0.0
 11
124.06270446873
 21
70.5403032553002
 31
0.0
  0
INSERT
  5
D9E
330
D99
100
AcDbEntity
  8
寸法線
 62
     2
440
 16777216
370
    -2
100
AcDbBlockReference
  2
_OPEN
 10
124.06270446873
 20
106.0403032553003
 30
0.0
 41
2.5
 42
2.5
 43
2.5
 50
90.0
  0
INSERT
  5
D9F
330
D99
100
AcDbEntity
  8
寸法線
 62
     2
440
 16777216
370
    -2
100
AcDbBlockReference
  2
_OPEN
 10
124.06270446873
 20
68.0403032553002
 30
0.0
 41
2.5
 42
2.5
 43
2.5
 50
270.0
  0
MTEXT
  5
DA0
330
D99
100
AcDbEntity
  8
寸法線
 62
     6
440
 16777216
100
AcDbMText
 10
122.18770446873
 20
87.04030325530018
 30
0.0
 40
2.5
 41
0.0
 71
     5
 72
     1
  1
\A1;\U+03C638
  7
STYLE3
 11
0.0000000000000001
 21
1.0
 31
0.0
 73
     1
 44
1.0
  0
POINT
  5
DA1
330
D99
100
AcDbEntity
  8
DEFPOINTS
 62
     0
440
 16777216
100
AcDbPoint
 10
109.0383357100937
 20
106.0403032553003
 30
0.0
  0
POINT
  5
DA2
330
D99
100
AcDbEntity
  8
DEFPOINTS
 62
     0
440
 16777216
100
AcDbPoint
 10
109.0383357100937
 20
68.0403032553002
 30
0.0
  0
POINT
  5
DA3
330
D99
100
AcDbEntity
  8
DEFPOINTS
 62
     0
440
 16777216
100
AcDbPoint
 10
124.06270446873
 20
68.0403032553002
 30
0.0
  0
ENDBLK
  5
DA4
330
D99
100
AcDbEntity
  8
0
100
AcDbBlockEnd
  0
BLOCK
  5
DA6
330
DA5
100
AcDbEntity
  8
0
100
AcDbBlockBegin
  2
*D4
 70
     1
 10
0.0
 20
0.0
 30
0.0
  3
*D4
  1

  0
LINE
  5
DA7
330
DA5
100
AcDbEntity
  8
寸法線
 62
     2
440
 16777216
370
    -2
100
AcDbLine
 10
89.13833571009368
 20
87.04030325530021
 30
0.0
 11
89.13833571009368
 21
65.43372237607821
 31
0.0
  0
LINE
  5
DA8
330
DA5
100
AcDbEntity
  8
寸法線
 62
     2
440
 16777216
370
    -2
100
AcDbLine
 10
55.23833571009369
 20
91.54030325530021
 30
0.0
 11
55.23833571009369
 21
65.43372237607821
 31
0.0
  0
LINE
  5
DA9
330
DA5
100
AcDbEntity
  8
寸法線
 62
     2
440
 16777216
370
    -2
100
AcDbLine
 10
86.63833571009368
 20
66.68372237607821
 30
0.0
 11
57.73833571009369
 21
66.68372237607821
 31
0.0
  0
INSERT
  5
DAA
330
DA5
100
AcDbEntity
  8
寸法線
 62
     2
440
 16777216
370
    -2
100
AcDbBlockReference
  2
_OPEN
 10
89.13833571009368
 20
66.68372237607821
 30
0.0
 41
2.5
 42
2.5
 43
2.5
  0
INSERT
  5
DAB
330
DA5
100
AcDbEntity
  8
寸法線
 62
     2
440
 16777216
370
    -2
100
AcDbBlockReference
  2
_OPEN
 10
55.23833571009369
 20
66.68372237607821
 30
0.0
 41
2.5
 42
2.5
 43
2.5
 50
180.0
  0
MTEXT
  5
DAC
330
DA5
100
AcDbEntity
  8
寸法線
 62
     6
440
 16777216
100
AcDbMText
 10
72.18833571009369
 20
69.2134842808401
 30
0.0
 40
2.5
 41
0.0
 71
     5
 72
     1
  1
\A1;(33.9)
  7
STYLE3
 73
     1
 44
1.0
  0
POINT
  5
DAD
330
DA5
100
AcDbEntity
  8
DEFPOINTS
 62
     0
440
 16777216
100
AcDbPoint
 10
89.13833571009368
 20
87.04030325530021
 30
0.0
  0
POINT
  5
DAE
330
DA5
100
AcDbEntity
  8
DEFPOINTS
 62
     0
440
 16777216
100
AcDbPoint
 10
55.23833571009369
 20
91.54030325530021
 30
0.0
  0
POINT
  5
DAF
330
DA5
100
AcDbEntity
  8
DEFPOINTS
 62
     0
440
 16777216
100
AcDbPoint
 10
55.23833571009369
 20
66.68372237607821
 30
0.0
  0
ENDBLK
  5
DB0
330
DA5
100
AcDbEntity
  8
0
100
AcDbBlockEnd
  0
BLOCK
  5
DB2
330
DB1
100
AcDbEntity
  8
0
100
AcDbBlockBegin
  2
*D5
 70
     1
 10
0.0
 20
0.0
 30
0.0
  3
*D5
  1

  0
LINE
  5
DB3
330
DB1
100
AcDbEntity
  8
寸法線
 62
     2
440
 16777216
370
    -2
100
AcDbLine
 10
93.24786162246633
 20
91.54030325530024
 30
0.0
 11
96.80282845038592
 21
91.54030325530026
 31
0.0
  0
LINE
  5
DB4
330
DB1
100
AcDbEntity
  8
寸法線
 62
     2
440
 16777216
370
    -2
100
AcDbLine
 10
93.64156060833298
 20
87.04030325530025
 30
0.0
 11
96.80282845038592
 21
87.04030325530025
 31
0.0
  0
LINE
  5
DB5
330
DB1
100
AcDbEntity
  8
寸法線
 62
     2
440
 16777216
370
    -2
100
AcDbLine
 10
95.5528284503859
 20
94.04030325530024
 30
0.0
 11
95.55282845038588
 21
96.54030325530026
 31
0.0
  0
LINE
  5
DB6
330
DB1
100
AcDbEntity
  8
寸法線
 62
     2
440
 16777216
370
    -2
100
AcDbLine
 10
95.5528284503859
 20
84.54030325530025
 30
0.0
 11
95.5528284503859
 21
75.552208017205
 31
0.0
  0
LINE
  5
DB7
330
DB1
100
AcDbEntity
  8
寸法線
 62
     2
440
 16777216
370
    -2
100
AcDbLine
 10
95.5528284503859
 20
91.54030325530024
 30
0.0
 11
95.5528284503859
 21
87.04030325530025
 31
0.0
  0
INSERT
  5
DB8
330
DB1
100
AcDbEntity
  8
寸法線
 62
     2
440
 16777216
370
    -2
100
AcDbBlockReference
  2
_OPEN
 10
95.5528284503859
 20
91.54030325530024
 30
0.0
 41
2.5
 42
2.5
 43
2.5
 50
270.0
  0
INSERT
  5
DB9
330
DB1
100
AcDbEntity
  8
寸法線
 62
     2
440
 16777216
370
    -2
100
AcDbBlockReference
  2
_OPEN
 10
95.5528284503859
 20
87.04030325530025
 30
0.0
 41
2.5
 42
2.5
 43
2.5
 50
90.0
  0
MTEXT
  5
DBA
330
DB1
100
AcDbEntity
  8
寸法線
 62
     6
440
 16777216
100
AcDbMText
 10
93.6778284503859
 20
78.7962556362526
 30
0.0
 40
2.5
 41
0.0
 71
     5
 72
     1
  1
\A1;4.5
  7
STYLE3
 11
0.0000000000000001
 21
1.0
 31
0.0
 73
     1
 44
1.0
  0
POINT
  5
DBB
330
DB1
100
AcDbEntity
  8
DEFPOINTS
 62
     0
440
 16777216
100
AcDbPoint
 10
93.24786162246633
 20
91.54030325530024
 30
0.0
  0
POINT
  5
DBC
330
DB1
100
AcDbEntity
  8
DEFPOINTS
 62
     0
440
 16777216
100
AcDbPoint
 10
93.64156060833298
 20
87.04030325530025
 30
0.0
  0
POINT
  5
DBD
330
DB1
100
AcDbEntity
  8
DEFPOINTS
 62
     0
440
 16777216
100
AcDbPoint
 10
95.5528284503859
 20
87.04030325530025
 30
0.0
  0
ENDBLK
  5
DBE
330
DB1
100
AcDbEntity
  8
0
100
AcDbBlockEnd
  0
BLOCK
  5
DC0
330
DBF
100
AcDbEntity
  8
0
100
AcDbBlockBegin
  2
*D6
 70
     1
 10
0.0
 20
0.0
 30
0.0
  3
*D6
  1

  0
LINE
  5
DC1
330
DBF
100
AcDbEntity
  8
寸法線
 62
     2
440
 16777216
370
    -2
100
AcDbLine
 10
83.13833571009372
 20
87.54030325530024
 30
0.0
 11
81.51181796586286
 21
87.54030325530024
 31
0.0
  0
LINE
  5
DC2
330
DBF
100
AcDbEntity
  8
寸法線
 62
     2
440
 16777216
370
    -2
100
AcDbLine
 10
83.13833571009372
 20
95.54030325530025
 30
0.0
 11
81.51181796586286
 21
95.54030325530025
 31
0.0
  0
LINE
  5
DC3
330
DBF
100
AcDbEntity
  8
寸法線
 62
     2
440
 16777216
370
    -2
100
AcDbLine
 10
82.76181796586286
 20
90.04030325530024
 30
0.0
 11
82.76181796586286
 21
93.04030325530025
 31
0.0
  0
LINE
  5
DC4
330
DBF
100
AcDbEntity
  8
寸法線
 62
     2
440
 16777216
370
    -2
100
AcDbLine
 10
82.76181796586286
 20
95.54030325530025
 30
0.0
 11
82.76181796586284
 21
103.8141127791098
 31
0.0
  0
INSERT
  5
DC5
330
DBF
100
AcDbEntity
  8
寸法線
 62
     2
440
 16777216
370
    -2
100
AcDbBlockReference
  2
_OPEN
 10
82.76181796586286
 20
87.54030325530024
 30
0.0
 41
2.5
 42
2.5
 43
2.5
 50
270.0
  0
INSERT
  5
DC6
330
DBF
100
AcDbEntity
  8
寸法線
 62
     2
440
 16777216
370
    -2
100
AcDbBlockReference
  2
_OPEN
 10
82.76181796586286
 20
95.54030325530025
 30
0.0
 41
2.5
 42
2.5
 43
2.5
 50
90.0
  0
MTEXT
  5
DC7
330
DBF
100
AcDbEntity
  8
寸法線
 62
     6
440
 16777216
100
AcDbMText
 10
80.88681796586286
 20
100.927208017205
 30
0.0
 40
2.5
 41
0.0
 71
     5
 72
     1
  1
\A1;\U+03C68
  7
STYLE3
 11
0.0000000000000001
 21
1.0
 31
0.0
 73
     1
 44
1.0
  0
POINT
  5
DC8
330
DBF
100
AcDbEntity
  8
DEFPOINTS
 62
     0
440
 16777216
100
AcDbPoint
 10
83.13833571009372
 20
87.54030325530024
 30
0.0
  0
POINT
  5
DC9
330
DBF
100
AcDbEntity
  8
DEFPOINTS
 62
     0
440
 16777216
100
AcDbPoint
 10
83.13833571009372
 20
95.54030325530025
 30
0.0
  0
POINT
  5
DCA
330
DBF
100
AcDbEntity
  8
DEFPOINTS
 62
     0
440
 16777216
100
AcDbPoint
 10
82.76181796586286
 20
95.54030325530025
 30
0.0
  0
ENDBLK
  5
DCB
330
DBF
100
AcDbEntity
  8
0
100
AcDbBlockEnd
  0
BLOCK
  5
DCD
330
DCC
100
AcDbEntity
  8
0
100
AcDbBlockBegin
  2
*D7
 70
     1
 10
0.0
 20
0.0
 30
0.0
  3
*D7
  1

  0
LINE
  5
DCE
330
DCC
100
AcDbEntity
  8
寸法線
 62
     2
440
 16777216
370
    -2
100
AcDbLine
 10
70.18833571009371
 20
89.79030325530024
 30
0.0
 11
72.59725625600194
 21
89.79030325530024
 31
0.0
  0
LINE
  5
DCF
330
DCC
100
AcDbEntity
  8
寸法線
 62
     2
440
 16777216
370
    -2
100
AcDbLine
 10
71.34725625600188
 20
93.29030325530025
 30
0.0
 11
70.09725625600182
 21
93.29030325530025
 31
0.0
  0
LINE
  5
DD0
330
DCC
100
AcDbEntity
  8
寸法線
 62
     2
440
 16777216
370
    -2
100
AcDbLine
 10
71.34725625600194
 20
87.29030325530024
 30
0.0
 11
71.34725625600194
 21
84.79030325530024
 31
0.0
  0
LINE
  5
DD1
330
DCC
100
AcDbEntity
  8
寸法線
 62
     2
440
 16777216
370
    -2
100
AcDbLine
 10
71.34725625600194
 20
95.79030325530025
 30
0.0
 11
71.34725625600193
 21
107.6355413505383
 31
0.0
  0
LINE
  5
DD2
330
DCC
100
AcDbEntity
  8
寸法線
 62
     2
440
 16777216
370
    -2
100
AcDbLine
 10
71.34725625600194
 20
89.79030325530024
 30
0.0
 11
71.34725625600194
 21
93.29030325530025
 31
0.0
  0
INSERT
  5
DD3
330
DCC
100
AcDbEntity
  8
寸法線
 62
     2
440
 16777216
370
    -2
100
AcDbBlockReference
  2
_OPEN
 10
71.34725625600194
 20
89.79030325530024
 30
0.0
 41
2.5
 42
2.5
 43
2.5
 50
90.0
  0
INSERT
  5
DD4
330
DCC
100
AcDbEntity
  8
寸法線
 62
     2
440
 16777216
370
    -2
100
AcDbBlockReference
  2
_OPEN
 10
71.34725625600194
 20
93.29030325530025
 30
0.0
 41
2.5
 42
2.5
 43
2.5
 50
270.0
  0
MTEXT
  5
DD5
330
DCC
100
AcDbEntity
  8
寸法線
 62
     6
440
 16777216
100
AcDbMText
 10
69.47225625600194
 20
102.9629223029193
 30
0.0
 40
2.5
 41
0.0
 71
     5
 72
     1
  1
\A1;\U+03C63.5
  7
STYLE3
 11
0.0000000000000001
 21
1.0
 31
0.0
 73
     1
 44
1.0
  0
POINT
  5
DD6
330
DCC
100
AcDbEntity
  8
DEFPOINTS
 62
     0
440
 16777216
100
AcDbPoint
 10
70.18833571009371
 20
89.79030325530024
 30
0.0
  0
POINT
  5
DD7
330
DCC
100
AcDbEntity
  8
DEFPOINTS
 62
     0
440
 16777216
100
AcDbPoint
 10
71.34725625600188
 20
93.29030325530025
 30
0.0
  0
POINT
  5
DD8
330
DCC
100
AcDbEntity
  8
DEFPOINTS
 62
     0
440
 16777216
100
AcDbPoint
 10
71.34725625600194
 20
93.29030325530025
 30
0.0
  0
ENDBLK
  5
DD9
330
DCC
100
AcDbEntity
  8
0
100
AcDbBlockEnd
  0
BLOCK
  5
DDB
330
DDA
100
AcDbEntity
  8
0
100
AcDbBlockBegin
  2
*D8
 70
     1
 10
0.0
 20
0.0
 30
0.0
  3
*D8
  1

  0
LINE
  5
DDC
330
DDA
100
AcDbEntity
  8
寸法線
 62
     2
440
 16777216
370
    -2
100
AcDbLine
 10
89.13833571009368
 20
96.04030325530022
 30
0.0
 11
89.13833571009368
 21
113.7670281426646
 31
0.0
  0
LINE
  5
DDD
330
DDA
100
AcDbEntity
  8
寸法線
 62
     2
440
 16777216
370
    -2
100
AcDbLine
 10
91.23833571009368
 20
101.0403032553002
 30
0.0
 11
91.23833571009368
 21
113.7670281426646
 31
0.0
  0
LINE
  5
DDE
330
DDA
100
AcDbEntity
  8
寸法線
 62
     2
440
 16777216
370
    -2
100
AcDbLine
 10
86.63833571009368
 20
112.5170281426646
 30
0.0
 11
84.13833571009368
 21
112.5170281426646
 31
0.0
  0
LINE
  5
DDF
330
DDA
100
AcDbEntity
  8
寸法線
 62
     2
440
 16777216
370
    -2
100
AcDbLine
 10
93.73833571009368
 20
112.5170281426646
 30
0.0
 11
102.0121452339032
 21
112.5170281426646
 31
0.0
  0
LINE
  5
DE0
330
DDA
100
AcDbEntity
  8
寸法線
 62
     2
440
 16777216
370
    -2
100
AcDbLine
 10
89.13833571009368
 20
112.5170281426646
 30
0.0
 11
91.23833571009368
 21
112.5170281426646
 31
0.0
  0
INSERT
  5
DE1
330
DDA
100
AcDbEntity
  8
寸法線
 62
     2
440
 16777216
370
    -2
100
AcDbBlockReference
  2
_OPEN
 10
89.13833571009368
 20
112.5170281426646
 30
0.0
 41
2.5
 42
2.5
 43
2.5
  0
INSERT
  5
DE2
330
DDA
100
AcDbEntity
  8
寸法線
 62
     2
440
 16777216
370
    -2
100
AcDbBlockReference
  2
_OPEN
 10
91.23833571009368
 20
112.5170281426646
 30
0.0
 41
2.5
 42
2.5
 43
2.5
 50
180.0
  0
MTEXT
  5
DE3
330
DDA
100
AcDbEntity
  8
寸法線
 62
     6
440
 16777216
100
AcDbMText
 10
99.12524047199845
 20
114.3920281426646
 30
0.0
 40
2.5
 41
0.0
 71
     5
 72
     1
  1
\A1;2.1
  7
STYLE3
 73
     1
 44
1.0
  0
POINT
  5
DE4
330
DDA
100
AcDbEntity
  8
DEFPOINTS
 62
     0
440
 16777216
100
AcDbPoint
 10
89.13833571009368
 20
96.04030325530022
 30
0.0
  0
POINT
  5
DE5
330
DDA
100
AcDbEntity
  8
DEFPOINTS
 62
     0
440
 16777216
100
AcDbPoint
 10
91.23833571009368
 20
101.0403032553002
 30
0.0
  0
POINT
  5
DE6
330
DDA
100
AcDbEntity
  8
DEFPOINTS
 62
     0
440
 16777216
100
AcDbPoint
 10
91.23833571009368
 20
112.5170281426646
 30
0.0
  0
ENDBLK
  5
DE7
330
DDA
100
AcDbEntity
  8
0
100
AcDbBlockEnd
  0
BLOCK
  5
DE9
330
DE8
100
AcDbEntity
  8
0
100
AcDbBlockBegin
  2
*D9
 70
     1
 10
0.0
 20
0.0
 30
0.0
  3
*D9
  1

  0
LINE
  5
DEA
330
DE8
100
AcDbEntity
  8
寸法線
 62
     2
440
 16777216
370
    -2
100
AcDbLine
 10
89.13833571009368
 20
96.04030325530022
 30
0.0
 11
89.13833571009368
 21
113.7670281426646
 31
0.0
  0
LINE
  5
DEB
330
DE8
100
AcDbEntity
  8
寸法線
 62
     2
440
 16777216
370
    -2
100
AcDbLine
 10
72.63833571009367
 20
94.44030325530023
 30
0.0
 11
72.63833571009367
 21
113.7670281426646
 31
0.0
  0
LINE
  5
DEC
330
DE8
100
AcDbEntity
  8
寸法線
 62
     2
440
 16777216
370
    -2
100
AcDbLine
 10
86.63833571009368
 20
112.5170281426646
 30
0.0
 11
75.13833571009367
 21
112.5170281426646
 31
0.0
  0
INSERT
  5
DED
330
DE8
100
AcDbEntity
  8
寸法線
 62
     2
440
 16777216
370
    -2
100
AcDbBlockReference
  2
_OPEN
 10
89.13833571009368
 20
112.5170281426646
 30
0.0
 41
2.5
 42
2.5
 43
2.5
  0
INSERT
  5
DEE
330
DE8
100
AcDbEntity
  8
寸法線
 62
     2
440
 16777216
370
    -2
100
AcDbBlockReference
  2
_OPEN
 10
72.63833571009367
 20
112.5170281426646
 30
0.0
 41
2.5
 42
2.5
 43
2.5
 50
180.0
  0
MTEXT
  5
DEF
330
DE8
100
AcDbEntity
  8
寸法線
 62
     6
440
 16777216
100
AcDbMText
 10
80.88833571009368
 20
114.3920281426646
 30
0.0
 40
2.5
 41
0.0
 71
     5
 72
     1
  1
\A1;16.5
  7
STYLE3
 73
     1
 44
1.0
  0
POINT
  5
DF0
330
DE8
100
AcDbEntity
  8
DEFPOINTS
 62
     0
440
 16777216
100
AcDbPoint
 10
89.13833571009368
 20
96.04030325530022
 30
0.0
  0
POINT
  5
DF1
330
DE8
100
AcDbEntity
  8
DEFPOINTS
 62
     0
440
 16777216
100
AcDbPoint
 10
72.63833571009367
 20
94.44030325530023
 30
0.0
  0
POINT
  5
DF2
330
DE8
100
AcDbEntity
  8
DEFPOINTS
 62
     0
440
 16777216
100
AcDbPoint
 10
72.63833571009367
 20
112.5170281426646
 30
0.0
  0
ENDBLK
  5
DF3
330
DE8
100
AcDbEntity
  8
0
100
AcDbBlockEnd
  0
BLOCK
  5
DF5
330
DF4
100
AcDbEntity
  8
0
100
AcDbBlockBegin
  2
*D10
 70
     1
 10
0.0
 20
0.0
 30
0.0
  3
*D10
  1

  0
LINE
  5
DF6
330
DF4
100
AcDbEntity
  8
寸法線
 62
     2
440
 16777216
370
    -2
100
AcDbLine
 10
72.63833571009367
 20
94.44030325530023
 30
0.0
 11
72.63833571009367
 21
113.7670281426646
 31
0.0
  0
LINE
  5
DF7
330
DF4
100
AcDbEntity
  8
寸法線
 62
     2
440
 16777216
370
    -2
100
AcDbLine
 10
67.73833571009368
 20
93.79030325530022
 30
0.0
 11
67.73833571009368
 21
113.7670281426646
 31
0.0
  0
LINE
  5
DF8
330
DF4
100
AcDbEntity
  8
寸法線
 62
     2
440
 16777216
370
    -2
100
AcDbLine
 10
75.13833571009367
 20
112.5170281426646
 30
0.0
 11
77.63833571009367
 21
112.5170281426646
 31
0.0
  0
LINE
  5
DF9
330
DF4
100
AcDbEntity
  8
寸法線
 62
     2
440
 16777216
370
    -2
100
AcDbLine
 10
65.23833571009368
 20
112.5170281426646
 30
0.0
 11
56.36928809104606
 21
112.5170281426646
 31
0.0
  0
LINE
  5
DFA
330
DF4
100
AcDbEntity
  8
寸法線
 62
     2
440
 16777216
370
    -2
100
AcDbLine
 10
72.63833571009367
 20
112.5170281426646
 30
0.0
 11
67.73833571009368
 21
112.5170281426646
 31
0.0
  0
INSERT
  5
DFB
330
DF4
100
AcDbEntity
  8
寸法線
 62
     2
440
 16777216
370
    -2
100
AcDbBlockReference
  2
_OPEN
 10
72.63833571009367
 20
112.5170281426646
 30
0.0
 41
2.5
 42
2.5
 43
2.5
 50
180.0
  0
INSERT
  5
DFC
330
DF4
100
AcDbEntity
  8
寸法線
 62
     2
440
 16777216
370
    -2
100
AcDbBlockReference
  2
_OPEN
 10
67.73833571009368
 20
112.5170281426646
 30
0.0
 41
2.5
 42
2.5
 43
2.5
  0
MTEXT
  5
DFD
330
DF4
100
AcDbEntity
  8
寸法線
 62
     6
440
 16777216
100
AcDbMText
 10
59.55381190056987
 20
114.3920281426646
 30
0.0
 40
2.5
 41
0.0
 71
     5
 72
     1
  1
\A1;4.9
  7
STYLE3
 73
     1
 44
1.0
  0
POINT
  5
DFE
330
DF4
100
AcDbEntity
  8
DEFPOINTS
 62
     0
440
 16777216
100
AcDbPoint
 10
72.63833571009367
 20
94.44030325530023
 30
0.0
  0
POINT
  5
DFF
330
DF4
100
AcDbEntity
  8
DEFPOINTS
 62
     0
440
 16777216
100
AcDbPoint
 10
67.73833571009368
 20
93.79030325530022
 30
0.0
  0
POINT
  5
E00
330
DF4
100
AcDbEntity
  8
DEFPOINTS
 62
     0
440
 16777216
100
AcDbPoint
 10
67.73833571009368
 20
112.5170281426646
 30
0.0
  0
ENDBLK
  5
E01
330
DF4
100
AcDbEntity
  8
0
100
AcDbBlockEnd
  0
BLOCK
  5
E03
330
E02
100
AcDbEntity
  8
0
100
AcDbBlockBegin
  2
*D11
 70
     1
 10
0.0
 20
0.0
 30
0.0
  3
*D11
  1

  0
LINE
  5
E04
330
E02
100
AcDbEntity
  8
寸法線
 62
     2
440
 16777216
370
    -2
100
AcDbLine
 10
67.73833571009368
 20
93.79030325530022
 30
0.0
 11
67.73833571009368
 21
105.0286656989824
 31
0.0
  0
LINE
  5
E05
330
E02
100
AcDbEntity
  8
寸法線
 62
     2
440
 16777216
370
    -2
100
AcDbLine
 10
55.23833571009369
 20
91.54030325530021
 30
0.0
 11
55.23833571009369
 21
105.0286656989824
 31
0.0
  0
LINE
  5
E06
330
E02
100
AcDbEntity
  8
寸法線
 62
     2
440
 16777216
370
    -2
100
AcDbLine
 10
65.23833571009368
 20
103.7786656989824
 30
0.0
 11
57.73833571009369
 21
103.7786656989824
 31
0.0
  0
INSERT
  5
E07
330
E02
100
AcDbEntity
  8
寸法線
 62
     2
440
 16777216
370
    -2
100
AcDbBlockReference
  2
_OPEN
 10
67.73833571009368
 20
103.7786656989824
 30
0.0
 41
2.5
 42
2.5
 43
2.5
  0
INSERT
  5
E08
330
E02
100
AcDbEntity
  8
寸法線
 62
     2
440
 16777216
370
    -2
100
AcDbBlockReference
  2
_OPEN
 10
55.23833571009369
 20
103.7786656989824
 30
0.0
 41
2.5
 42
2.5
 43
2.5
 50
180.0
  0
MTEXT
  5
E09
330
E02
100
AcDbEntity
  8
寸法線
 62
     6
440
 16777216
100
AcDbMText
 10
61.48833571009368
 20
105.6536656989824
 30
0.0
 40
2.5
 41
0.0
 71
     5
 72
     1
  1
\A1;12.5
  7
STYLE3
 73
     1
 44
1.0
  0
POINT
  5
E0A
330
E02
100
AcDbEntity
  8
DEFPOINTS
 62
     0
440
 16777216
100
AcDbPoint
 10
67.73833571009368
 20
93.79030325530022
 30
0.0
  0
POINT
  5
E0B
330
E02
100
AcDbEntity
  8
DEFPOINTS
 62
     0
440
 16777216
100
AcDbPoint
 10
55.23833571009369
 20
91.54030325530021
 30
0.0
  0
POINT
  5
E0C
330
E02
100
AcDbEntity
  8
DEFPOINTS
 62
     0
440
 16777216
100
AcDbPoint
 10
55.23833571009369
 20
103.7786656989824
 30
0.0
  0
ENDBLK
  5
E0D
330
E02
100
AcDbEntity
  8
0
100
AcDbBlockEnd
  0
BLOCK
  5
E0F
330
E0E
100
AcDbEntity
  8
0
100
AcDbBlockBegin
  2
*D12
 70
     1
 10
0.0
 20
0.0
 30
0.0
  3
*D12
  1

  0
LINE
  5
E10
330
E0E
100
AcDbEntity
  8
寸法線
 62
     2
440
 16777216
370
    -2
100
AcDbLine
 10
91.23833571009368
 20
101.0403032553002
 30
0.0
 11
91.23833571009368
 21
123.5788228441425
 31
0.0
  0
LINE
  5
E11
330
E0E
100
AcDbEntity
  8
寸法線
 62
     2
440
 16777216
370
    -2
100
AcDbLine
 10
113.1383357100937
 20
87.04030325530023
 30
0.0
 11
113.1383357100937
 21
123.5788228441425
 31
0.0
  0
LINE
  5
E12
330
E0E
100
AcDbEntity
  8
寸法線
 62
     2
440
 16777216
370
    -2
100
AcDbLine
 10
93.73833571009368
 20
122.3288228441425
 30
0.0
 11
110.6383357100937
 21
122.3288228441425
 31
0.0
  0
INSERT
  5
E13
330
E0E
100
AcDbEntity
  8
寸法線
 62
     2
440
 16777216
370
    -2
100
AcDbBlockReference
  2
_OPEN
 10
91.23833571009368
 20
122.3288228441425
 30
0.0
 41
2.5
 42
2.5
 43
2.5
 50
180.0
  0
INSERT
  5
E14
330
E0E
100
AcDbEntity
  8
寸法線
 62
     2
440
 16777216
370
    -2
100
AcDbBlockReference
  2
_OPEN
 10
113.1383357100937
 20
122.3288228441425
 30
0.0
 41
2.5
 42
2.5
 43
2.5
  0
MTEXT
  5
E15
330
E0E
100
AcDbEntity
  8
寸法線
 62
     6
440
 16777216
100
AcDbMText
 10
102.1883357100937
 20
124.2038228441425
 30
0.0
 40
2.5
 41
0.0
 71
     5
 72
     1
  1
\A1;21.9
  7
STYLE3
 73
     1
 44
1.0
  0
POINT
  5
E16
330
E0E
100
AcDbEntity
  8
DEFPOINTS
 62
     0
440
 16777216
100
AcDbPoint
 10
91.23833571009368
 20
101.0403032553002
 30
0.0
  0
POINT
  5
E17
330
E0E
100
AcDbEntity
  8
DEFPOINTS
 62
     0
440
 16777216
100
AcDbPoint
 10
113.1383357100937
 20
87.04030325530023
 30
0.0
  0
POINT
  5
E18
330
E0E
100
AcDbEntity
  8
DEFPOINTS
 62
     0
440
 16777216
100
AcDbPoint
 10
113.1383357100937
 20
122.3288228441425
 30
0.0
  0
ENDBLK
  5
E19
330
E0E
100
AcDbEntity
  8
0
100
AcDbBlockEnd
  0
BLOCK
  5
E1B
330
E1A
100
AcDbEntity
  8
0
100
AcDbBlockBegin
  2
*D13
 70
     1
 10
0.0
 20
0.0
 30
0.0
  3
*D13
  1

  0
LINE
  5
E1C
330
E1A
100
AcDbEntity
  8
寸法線
 62
     2
440
 16777216
370
    -2
100
AcDbLine
 10
91.23833571009368
 20
101.0403032553002
 30
0.0
 11
91.23833571009368
 21
123.5788228441425
 31
0.0
  0
LINE
  5
E1D
330
E1A
100
AcDbEntity
  8
寸法線
 62
     2
440
 16777216
370
    -2
100
AcDbLine
 10
55.23833571009369
 20
91.54030325530021
 30
0.0
 11
55.23833571009369
 21
123.5788228441425
 31
0.0
  0
LINE
  5
E1E
330
E1A
100
AcDbEntity
  8
寸法線
 62
     2
440
 16777216
370
    -2
100
AcDbLine
 10
88.73833571009368
 20
122.3288228441425
 30
0.0
 11
57.73833571009369
 21
122.3288228441425
 31
0.0
  0
INSERT
  5
E1F
330
E1A
100
AcDbEntity
  8
寸法線
 62
     2
440
 16777216
370
    -2
100
AcDbBlockReference
  2
_OPEN
 10
91.23833571009368
 20
122.3288228441425
 30
0.0
 41
2.5
 42
2.5
 43
2.5
  0
INSERT
  5
E20
330
E1A
100
AcDbEntity
  8
寸法線
 62
     2
440
 16777216
370
    -2
100
AcDbBlockReference
  2
_OPEN
 10
55.23833571009369
 20
122.3288228441425
 30
0.0
 41
2.5
 42
2.5
 43
2.5
 50
180.0
  0
MTEXT
  5
E21
330
E1A
100
AcDbEntity
  8
寸法線
 62
     6
440
 16777216
100
AcDbMText
 10
73.23833571009368
 20
124.8585847489044
 30
0.0
 40
2.5
 41
0.0
 71
     5
 72
     1
  1
\A1;(36)
  7
STYLE3
 73
     1
 44
1.0
  0
POINT
  5
E22
330
E1A
100
AcDbEntity
  8
DEFPOINTS
 62
     0
440
 16777216
100
AcDbPoint
 10
91.23833571009368
 20
101.0403032553002
 30
0.0
  0
POINT
  5
E23
330
E1A
100
AcDbEntity
  8
DEFPOINTS
 62
     0
440
 16777216
100
AcDbPoint
 10
55.23833571009369
 20
91.54030325530021
 30
0.0
  0
POINT
  5
E24
330
E1A
100
AcDbEntity
  8
DEFPOINTS
 62
     0
440
 16777216
100
AcDbPoint
 10
55.23833571009369
 20
122.3288228441425
 30
0.0
  0
ENDBLK
  5
E25
330
E1A
100
AcDbEntity
  8
0
100
AcDbBlockEnd
  0
BLOCK
  5
E27
330
E26
100
AcDbEntity
  8
0
100
AcDbBlockBegin
  2
*D14
 70
     1
 10
0.0
 20
0.0
 30
0.0
  3
*D14
  1

  0
LINE
  5
E28
330
E26
100
AcDbEntity
  8
寸法線
 62
     2
440
 16777216
370
    -2
100
AcDbLine
 10
55.23833571009369
 20
91.54030325530021
 30
0.0
 11
55.23833571009369
 21
132.8206468557258
 31
0.0
  0
LINE
  5
E29
330
E26
100
AcDbEntity
  8
寸法線
 62
     2
440
 16777216
370
    -2
100
AcDbLine
 10
113.1383357100937
 20
87.04030325530021
 30
0.0
 11
113.1383357100937
 21
132.8206468557258
 31
0.0
  0
LINE
  5
E2A
330
E26
100
AcDbEntity
  8
寸法線
 62
     2
440
 16777216
370
    -2
100
AcDbLine
 10
57.73833571009369
 20
131.5706468557258
 30
0.0
 11
110.6383357100937
 21
131.5706468557258
 31
0.0
  0
INSERT
  5
E2B
330
E26
100
AcDbEntity
  8
寸法線
 62
     2
440
 16777216
370
    -2
100
AcDbBlockReference
  2
_OPEN
 10
55.23833571009369
 20
131.5706468557258
 30
0.0
 41
2.5
 42
2.5
 43
2.5
 50
180.0
  0
INSERT
  5
E2C
330
E26
100
AcDbEntity
  8
寸法線
 62
     2
440
 16777216
370
    -2
100
AcDbBlockReference
  2
_OPEN
 10
113.1383357100937
 20
131.5706468557258
 30
0.0
 41
2.5
 42
2.5
 43
2.5
  0
MTEXT
  5
E2D
330
E26
100
AcDbEntity
  8
寸法線
 62
     6
440
 16777216
100
AcDbMText
 10
84.18833571009368
 20
134.1004087604876
 30
0.0
 40
2.5
 41
0.0
 71
     5
 72
     1
  1
\A1;(57.9)
  7
STYLE3
 73
     1
 44
1.0
  0
POINT
  5
E2E
330
E26
100
AcDbEntity
  8
DEFPOINTS
 62
     0
440
 16777216
100
AcDbPoint
 10
55.23833571009369
 20
91.54030325530021
 30
0.0
  0
POINT
  5
E2F
330
E26
100
AcDbEntity
  8
DEFPOINTS
 62
     0
440
 16777216
100
AcDbPoint
 10
113.1383357100937
 20
87.04030325530021
 30
0.0
  0
POINT
  5
E30
330
E26
100
AcDbEntity
  8
DEFPOINTS
 62
     0
440
 16777216
100
AcDbPoint
 10
113.1383357100937
 20
131.5706468557258
 30
0.0
  0
ENDBLK
  5
E31
330
E26
100
AcDbEntity
  8
0
100
AcDbBlockEnd
  0
BLOCK
  5
F2D
330
F2C
100
AcDbEntity
  8
0
100
AcDbBlockBegin
  2
*D16
 70
     1
 10
0.0
 20
0.0
 30
0.0
  3
*D16
  1

  0
LINE
  5
103C
330
F2C
100
AcDbEntity
  8
寸法線
 62
     2
440
 16777216
370
    -2
100
AcDbLine
 10
117.2416560805247
 20
123.787520722003
 30
0.0
 11
133.516024839161
 21
123.787520722003
 31
0.0
  0
LINE
  5
103D
330
F2C
100
AcDbEntity
  8
寸法線
 62
     2
440
 16777216
370
    -2
100
AcDbLine
 10
117.2416560805247
 20
85.787520722003
 30
0.0
 11
133.516024839161
 21
85.787520722003
 31
0.0
  0
LINE
  5
103E
330
F2C
100
AcDbEntity
  8
寸法線
 62
     2
440
 16777216
370
    -2
100
AcDbLine
 10
132.266024839161
 20
121.287520722003
 30
0.0
 11
132.266024839161
 21
88.287520722003
 31
0.0
  0
INSERT
  5
103F
330
F2C
100
AcDbEntity
  8
寸法線
 62
     2
440
 16777216
370
    -2
100
AcDbBlockReference
  2
_OPEN
 10
132.266024839161
 20
123.787520722003
 30
0.0
 41
2.5
 42
2.5
 43
2.5
 50
90.0
  0
INSERT
  5
1040
330
F2C
100
AcDbEntity
  8
寸法線
 62
     2
440
 16777216
370
    -2
100
AcDbBlockReference
  2
_OPEN
 10
132.266024839161
 20
85.787520722003
 30
0.0
 41
2.5
 42
2.5
 43
2.5
 50
270.0
  0
MTEXT
  5
1041
330
F2C
100
AcDbEntity
  8
寸法線
 62
     6
440
 16777216
100
AcDbMText
 10
130.391024839161
 20
104.787520722003
 30
0.0
 40
2.5
 41
0.0
 71
     5
 72
     1
  1
\A1;\U+03C638
  7
STYLE3
 11
0.0000000000000001
 21
1.0
 31
0.0
 73
     1
 44
1.0
  0
POINT
  5
1042
330
F2C
100
AcDbEntity
  8
DEFPOINTS
 62
     0
440
 16777216
100
AcDbPoint
 10
117.2416560805247
 20
123.787520722003
 30
0.0
  0
POINT
  5
1043
330
F2C
100
AcDbEntity
  8
DEFPOINTS
 62
     0
440
 16777216
100
AcDbPoint
 10
117.2416560805247
 20
85.787520722003
 30
0.0
  0
POINT
  5
1044
330
F2C
100
AcDbEntity
  8
DEFPOINTS
 62
     0
440
 16777216
100
AcDbPoint
 10
132.266024839161
 20
85.787520722003
 30
0.0
  0
ENDBLK
  5
F2E
330
F2C
100
AcDbEntity
  8
0
100
AcDbBlockEnd
  0
BLOCK
  5
F39
330
F38
100
AcDbEntity
  8
0
100
AcDbBlockBegin
  2
*D17
 70
     1
 10
0.0
 20
0.0
 30
0.0
  3
*D17
  1

  0
LINE
  5
1045
330
F38
100
AcDbEntity
  8
寸法線
 62
     2
440
 16777216
370
    -2
100
AcDbLine
 10
97.34165608052471
 20
104.787520722003
 30
0.0
 11
97.34165608052471
 21
83.18093984278103
 31
0.0
  0
LINE
  5
1046
330
F38
100
AcDbEntity
  8
寸法線
 62
     2
440
 16777216
370
    -2
100
AcDbLine
 10
63.44165608052472
 20
109.287520722003
 30
0.0
 11
63.44165608052472
 21
83.18093984278103
 31
0.0
  0
LINE
  5
1047
330
F38
100
AcDbEntity
  8
寸法線
 62
     2
440
 16777216
370
    -2
100
AcDbLine
 10
94.84165608052469
 20
84.43093984278103
 30
0.0
 11
65.94165608052472
 21
84.43093984278103
 31
0.0
  0
INSERT
  5
1048
330
F38
100
AcDbEntity
  8
寸法線
 62
     2
440
 16777216
370
    -2
100
AcDbBlockReference
  2
_OPEN
 10
97.34165608052471
 20
84.43093984278103
 30
0.0
 41
2.5
 42
2.5
 43
2.5
  0
INSERT
  5
1049
330
F38
100
AcDbEntity
  8
寸法線
 62
     2
440
 16777216
370
    -2
100
AcDbBlockReference
  2
_OPEN
 10
63.44165608052472
 20
84.43093984278103
 30
0.0
 41
2.5
 42
2.5
 43
2.5
 50
180.0
  0
MTEXT
  5
104A
330
F38
100
AcDbEntity
  8
寸法線
 62
     6
440
 16777216
100
AcDbMText
 10
80.39165608052471
 20
86.96070174754295
 30
0.0
 40
2.5
 41
0.0
 71
     5
 72
     1
  1
\A1;(33.9)
  7
STYLE3
 73
     1
 44
1.0
  0
POINT
  5
104B
330
F38
100
AcDbEntity
  8
DEFPOINTS
 62
     0
440
 16777216
100
AcDbPoint
 10
97.34165608052471
 20
104.787520722003
 30
0.0
  0
POINT
  5
104C
330
F38
100
AcDbEntity
  8
DEFPOINTS
 62
     0
440
 16777216
100
AcDbPoint
 10
63.44165608052472
 20
109.287520722003
 30
0.0
  0
POINT
  5
104D
330
F38
100
AcDbEntity
  8
DEFPOINTS
 62
     0
440
 16777216
100
AcDbPoint
 10
63.44165608052472
 20
84.43093984278103
 30
0.0
  0
ENDBLK
  5
F3A
330
F38
100
AcDbEntity
  8
0
100
AcDbBlockEnd
  0
BLOCK
  5
F45
330
F44
100
AcDbEntity
  8
0
100
AcDbBlockBegin
  2
*D18
 70
     1
 10
0.0
 20
0.0
 30
0.0
  3
*D18
  1

  0
LINE
  5
104E
330
F44
100
AcDbEntity
  8
寸法線
 62
     2
440
 16777216
370
    -2
100
AcDbLine
 10
101.4511819928973
 20
109.287520722003
 30
0.0
 11
105.0061488208169
 21
109.287520722003
 31
0.0
  0
LINE
  5
104F
330
F44
100
AcDbEntity
  8
寸法線
 62
     2
440
 16777216
370
    -2
100
AcDbLine
 10
101.844880978764
 20
104.787520722003
 30
0.0
 11
105.0061488208169
 21
104.787520722003
 31
0.0
  0
LINE
  5
1050
330
F44
100
AcDbEntity
  8
寸法線
 62
     2
440
 16777216
370
    -2
100
AcDbLine
 10
103.7561488208169
 20
111.787520722003
 30
0.0
 11
103.7561488208169
 21
114.287520722003
 31
0.0
  0
LINE
  5
1051
330
F44
100
AcDbEntity
  8
寸法線
 62
     2
440
 16777216
370
    -2
100
AcDbLine
 10
103.7561488208169
 20
102.287520722003
 30
0.0
 11
103.7561488208169
 21
93.2994254839078
 31
0.0
  0
LINE
  5
1052
330
F44
100
AcDbEntity
  8
寸法線
 62
     2
440
 16777216
370
    -2
100
AcDbLine
 10
103.7561488208169
 20
109.287520722003
 30
0.0
 11
103.7561488208169
 21
104.787520722003
 31
0.0
  0
INSERT
  5
1053
330
F44
100
AcDbEntity
  8
寸法線
 62
     2
440
 16777216
370
    -2
100
AcDbBlockReference
  2
_OPEN
 10
103.7561488208169
 20
109.287520722003
 30
0.0
 41
2.5
 42
2.5
 43
2.5
 50
270.0
  0
INSERT
  5
1054
330
F44
100
AcDbEntity
  8
寸法線
 62
     2
440
 16777216
370
    -2
100
AcDbBlockReference
  2
_OPEN
 10
103.7561488208169
 20
104.787520722003
 30
0.0
 41
2.5
 42
2.5
 43
2.5
 50
90.0
  0
MTEXT
  5
1055
330
F44
100
AcDbEntity
  8
寸法線
 62
     6
440
 16777216
100
AcDbMText
 10
101.8811488208169
 20
96.54347310295545
 30
0.0
 40
2.5
 41
0.0
 71
     5
 72
     1
  1
\A1;4.5
  7
STYLE3
 11
0.0000000000000001
 21
1.0
 31
0.0
 73
     1
 44
1.0
  0
POINT
  5
1056
330
F44
100
AcDbEntity
  8
DEFPOINTS
 62
     0
440
 16777216
100
AcDbPoint
 10
101.4511819928973
 20
109.287520722003
 30
0.0
  0
POINT
  5
1057
330
F44
100
AcDbEntity
  8
DEFPOINTS
 62
     0
440
 16777216
100
AcDbPoint
 10
101.844880978764
 20
104.787520722003
 30
0.0
  0
POINT
  5
1058
330
F44
100
AcDbEntity
  8
DEFPOINTS
 62
     0
440
 16777216
100
AcDbPoint
 10
103.7561488208169
 20
104.787520722003
 30
0.0
  0
ENDBLK
  5
F46
330
F44
100
AcDbEntity
  8
0
100
AcDbBlockEnd
  0
BLOCK
  5
F53
330
F52
100
AcDbEntity
  8
0
100
AcDbBlockBegin
  2
*D19
 70
     1
 10
0.0
 20
0.0
 30
0.0
  3
*D19
  1

  0
LINE
  5
1059
330
F52
100
AcDbEntity
  8
寸法線
 62
     2
440
 16777216
370
    -2
100
AcDbLine
 10
91.3416560805247
 20
105.287520722003
 30
0.0
 11
89.71513833629392
 21
105.287520722003
 31
0.0
  0
LINE
  5
105A
330
F52
100
AcDbEntity
  8
寸法線
 62
     2
440
 16777216
370
    -2
100
AcDbLine
 10
91.3416560805247
 20
113.287520722003
 30
0.0
 11
89.71513833629392
 21
113.287520722003
 31
0.0
  0
LINE
  5
105B
330
F52
100
AcDbEntity
  8
寸法線
 62
     2
440
 16777216
370
    -2
100
AcDbLine
 10
90.96513833629392
 20
107.787520722003
 30
0.0
 11
90.96513833629392
 21
110.787520722003
 31
0.0
  0
LINE
  5
105C
330
F52
100
AcDbEntity
  8
寸法線
 62
     2
440
 16777216
370
    -2
100
AcDbLine
 10
90.96513833629392
 20
113.287520722003
 30
0.0
 11
90.96513833629392
 21
121.5613302458126
 31
0.0
  0
INSERT
  5
105D
330
F52
100
AcDbEntity
  8
寸法線
 62
     2
440
 16777216
370
    -2
100
AcDbBlockReference
  2
_OPEN
 10
90.96513833629392
 20
105.287520722003
 30
0.0
 41
2.5
 42
2.5
 43
2.5
 50
270.0
  0
INSERT
  5
105E
330
F52
100
AcDbEntity
  8
寸法線
 62
     2
440
 16777216
370
    -2
100
AcDbBlockReference
  2
_OPEN
 10
90.96513833629392
 20
113.287520722003
 30
0.0
 41
2.5
 42
2.5
 43
2.5
 50
90.0
  0
MTEXT
  5
105F
330
F52
100
AcDbEntity
  8
寸法線
 62
     6
440
 16777216
100
AcDbMText
 10
89.09013833629391
 20
118.6744254839078
 30
0.0
 40
2.5
 41
0.0
 71
     5
 72
     1
  1
\A1;\U+03C68
  7
STYLE3
 11
0.0000000000000001
 21
1.0
 31
0.0
 73
     1
 44
1.0
  0
POINT
  5
1060
330
F52
100
AcDbEntity
  8
DEFPOINTS
 62
     0
440
 16777216
100
AcDbPoint
 10
91.3416560805247
 20
105.287520722003
 30
0.0
  0
POINT
  5
1061
330
F52
100
AcDbEntity
  8
DEFPOINTS
 62
     0
440
 16777216
100
AcDbPoint
 10
91.3416560805247
 20
113.287520722003
 30
0.0
  0
POINT
  5
1062
330
F52
100
AcDbEntity
  8
DEFPOINTS
 62
     0
440
 16777216
100
AcDbPoint
 10
90.96513833629392
 20
113.287520722003
 30
0.0
  0
ENDBLK
  5
F54
330
F52
100
AcDbEntity
  8
0
100
AcDbBlockEnd
  0
BLOCK
  5
F60
330
F5F
100
AcDbEntity
  8
0
100
AcDbBlockBegin
  2
*D20
 70
     1
 10
0.0
 20
0.0
 30
0.0
  3
*D20
  1

  0
LINE
  5
1063
330
F5F
100
AcDbEntity
  8
寸法線
 62
     2
440
 16777216
370
    -2
100
AcDbLine
 10
78.39165608052471
 20
107.537520722003
 30
0.0
 11
80.80057662643302
 21
107.537520722003
 31
0.0
  0
LINE
  5
1064
330
F5F
100
AcDbEntity
  8
寸法線
 62
     2
440
 16777216
370
    -2
100
AcDbLine
 10
79.5505766264329
 20
111.037520722003
 30
0.0
 11
80.80057662643302
 21
111.037520722003
 31
0.0
  0
LINE
  5
1065
330
F5F
100
AcDbEntity
  8
寸法線
 62
     2
440
 16777216
370
    -2
100
AcDbLine
 10
79.55057662643302
 20
105.037520722003
 30
0.0
 11
79.55057662643302
 21
102.537520722003
 31
0.0
  0
LINE
  5
1066
330
F5F
100
AcDbEntity
  8
寸法線
 62
     2
440
 16777216
370
    -2
100
AcDbLine
 10
79.55057662643302
 20
113.537520722003
 30
0.0
 11
79.55057662643302
 21
125.3827588172411
 31
0.0
  0
LINE
  5
1067
330
F5F
100
AcDbEntity
  8
寸法線
 62
     2
440
 16777216
370
    -2
100
AcDbLine
 10
79.55057662643302
 20
107.537520722003
 30
0.0
 11
79.55057662643302
 21
111.037520722003
 31
0.0
  0
INSERT
  5
1068
330
F5F
100
AcDbEntity
  8
寸法線
 62
     2
440
 16777216
370
    -2
100
AcDbBlockReference
  2
_OPEN
 10
79.55057662643302
 20
107.537520722003
 30
0.0
 41
2.5
 42
2.5
 43
2.5
 50
90.0
  0
INSERT
  5
1069
330
F5F
100
AcDbEntity
  8
寸法線
 62
     2
440
 16777216
370
    -2
100
AcDbBlockReference
  2
_OPEN
 10
79.55057662643302
 20
111.037520722003
 30
0.0
 41
2.5
 42
2.5
 43
2.5
 50
270.0
  0
MTEXT
  5
106A
330
F5F
100
AcDbEntity
  8
寸法線
 62
     6
440
 16777216
100
AcDbMText
 10
77.675576626433
 20
120.7101397696221
 30
0.0
 40
2.5
 41
0.0
 71
     5
 72
     1
  1
\A1;\U+03C63.5
  7
STYLE3
 11
0.0000000000000001
 21
1.0
 31
0.0
 73
     1
 44
1.0
  0
POINT
  5
106B
330
F5F
100
AcDbEntity
  8
DEFPOINTS
 62
     0
440
 16777216
100
AcDbPoint
 10
78.39165608052471
 20
107.537520722003
 30
0.0
  0
POINT
  5
106C
330
F5F
100
AcDbEntity
  8
DEFPOINTS
 62
     0
440
 16777216
100
AcDbPoint
 10
79.5505766264329
 20
111.037520722003
 30
0.0
  0
POINT
  5
106D
330
F5F
100
AcDbEntity
  8
DEFPOINTS
 62
     0
440
 16777216
100
AcDbPoint
 10
79.55057662643302
 20
111.037520722003
 30
0.0
  0
ENDBLK
  5
F61
330
F5F
100
AcDbEntity
  8
0
100
AcDbBlockEnd
  0
BLOCK
  5
F6E
330
F6D
100
AcDbEntity
  8
0
100
AcDbBlockBegin
  2
*D21
 70
     1
 10
0.0
 20
0.0
 30
0.0
  3
*D21
  1

  0
LINE
  5
106E
330
F6D
100
AcDbEntity
  8
寸法線
 62
     2
440
 16777216
370
    -2
100
AcDbLine
 10
97.34165608052471
 20
113.787520722003
 30
0.0
 11
97.34165608052471
 21
131.5142456093674
 31
0.0
  0
LINE
  5
106F
330
F6D
100
AcDbEntity
  8
寸法線
 62
     2
440
 16777216
370
    -2
100
AcDbLine
 10
99.44165608052472
 20
118.787520722003
 30
0.0
 11
99.44165608052472
 21
131.5142456093674
 31
0.0
  0
LINE
  5
1070
330
F6D
100
AcDbEntity
  8
寸法線
 62
     2
440
 16777216
370
    -2
100
AcDbLine
 10
94.84165608052469
 20
130.2642456093674
 30
0.0
 11
92.34165608052469
 21
130.2642456093674
 31
0.0
  0
LINE
  5
1071
330
F6D
100
AcDbEntity
  8
寸法線
 62
     2
440
 16777216
370
    -2
100
AcDbLine
 10
101.9416560805247
 20
130.2642456093674
 30
0.0
 11
110.2154656043342
 21
130.2642456093674
 31
0.0
  0
LINE
  5
1072
330
F6D
100
AcDbEntity
  8
寸法線
 62
     2
440
 16777216
370
    -2
100
AcDbLine
 10
97.34165608052471
 20
130.2642456093674
 30
0.0
 11
99.44165608052472
 21
130.2642456093674
 31
0.0
  0
INSERT
  5
1073
330
F6D
100
AcDbEntity
  8
寸法線
 62
     2
440
 16777216
370
    -2
100
AcDbBlockReference
  2
_OPEN
 10
97.34165608052471
 20
130.2642456093674
 30
0.0
 41
2.5
 42
2.5
 43
2.5
  0
INSERT
  5
1074
330
F6D
100
AcDbEntity
  8
寸法線
 62
     2
440
 16777216
370
    -2
100
AcDbBlockReference
  2
_OPEN
 10
99.44165608052472
 20
130.2642456093674
 30
0.0
 41
2.5
 42
2.5
 43
2.5
 50
180.0
  0
MTEXT
  5
1075
330
F6D
100
AcDbEntity
  8
寸法線
 62
     6
440
 16777216
100
AcDbMText
 10
107.3285608424294
 20
132.1392456093674
 30
0.0
 40
2.5
 41
0.0
 71
     5
 72
     1
  1
\A1;2.1
  7
STYLE3
 73
     1
 44
1.0
  0
POINT
  5
1076
330
F6D
100
AcDbEntity
  8
DEFPOINTS
 62
     0
440
 16777216
100
AcDbPoint
 10
97.34165608052471
 20
113.787520722003
 30
0.0
  0
POINT
  5
1077
330
F6D
100
AcDbEntity
  8
DEFPOINTS
 62
     0
440
 16777216
100
AcDbPoint
 10
99.44165608052472
 20
118.787520722003
 30
0.0
  0
POINT
  5
1078
330
F6D
100
AcDbEntity
  8
DEFPOINTS
 62
     0
440
 16777216
100
AcDbPoint
 10
99.44165608052472
 20
130.2642456093674
 30
0.0
  0
ENDBLK
  5
F6F
330
F6D
100
AcDbEntity
  8
0
100
AcDbBlockEnd
  0
BLOCK
  5
F7C
330
F7B
100
AcDbEntity
  8
0
100
AcDbBlockBegin
  2
*D22
 70
     1
 10
0.0
 20
0.0
 30
0.0
  3
*D22
  1

  0
LINE
  5
1079
330
F7B
100
AcDbEntity
  8
寸法線
 62
     2
440
 16777216
370
    -2
100
AcDbLine
 10
97.34165608052471
 20
113.787520722003
 30
0.0
 11
97.34165608052471
 21
131.5142456093674
 31
0.0
  0
LINE
  5
107A
330
F7B
100
AcDbEntity
  8
寸法線
 62
     2
440
 16777216
370
    -2
100
AcDbLine
 10
80.84165608052471
 20
112.187520722003
 30
0.0
 11
80.84165608052471
 21
131.5142456093674
 31
0.0
  0
LINE
  5
107B
330
F7B
100
AcDbEntity
  8
寸法線
 62
     2
440
 16777216
370
    -2
100
AcDbLine
 10
94.84165608052469
 20
130.2642456093674
 30
0.0
 11
83.34165608052471
 21
130.2642456093674
 31
0.0
  0
INSERT
  5
107C
330
F7B
100
AcDbEntity
  8
寸法線
 62
     2
440
 16777216
370
    -2
100
AcDbBlockReference
  2
_OPEN
 10
97.34165608052471
 20
130.2642456093674
 30
0.0
 41
2.5
 42
2.5
 43
2.5
  0
INSERT
  5
107D
330
F7B
100
AcDbEntity
  8
寸法線
 62
     2
440
 16777216
370
    -2
100
AcDbBlockReference
  2
_OPEN
 10
80.84165608052471
 20
130.2642456093674
 30
0.0
 41
2.5
 42
2.5
 43
2.5
 50
180.0
  0
MTEXT
  5
107E
330
F7B
100
AcDbEntity
  8
寸法線
 62
     6
440
 16777216
100
AcDbMText
 10
89.0916560805247
 20
132.1392456093674
 30
0.0
 40
2.5
 41
0.0
 71
     5
 72
     1
  1
\A1;16.5
  7
STYLE3
 73
     1
 44
1.0
  0
POINT
  5
107F
330
F7B
100
AcDbEntity
  8
DEFPOINTS
 62
     0
440
 16777216
100
AcDbPoint
 10
97.34165608052471
 20
113.787520722003
 30
0.0
  0
POINT
  5
1080
330
F7B
100
AcDbEntity
  8
DEFPOINTS
 62
     0
440
 16777216
100
AcDbPoint
 10
80.84165608052471
 20
112.187520722003
 30
0.0
  0
POINT
  5
1081
330
F7B
100
AcDbEntity
  8
DEFPOINTS
 62
     0
440
 16777216
100
AcDbPoint
 10
80.84165608052471
 20
130.2642456093674
 30
0.0
  0
ENDBLK
  5
F7D
330
F7B
100
AcDbEntity
  8
0
100
AcDbBlockEnd
  0
BLOCK
  5
F88
330
F87
100
AcDbEntity
  8
0
100
AcDbBlockBegin
  2
*D23
 70
     1
 10
0.0
 20
0.0
 30
0.0
  3
*D23
  1

  0
LINE
  5
1082
330
F87
100
AcDbEntity
  8
寸法線
 62
     2
440
 16777216
370
    -2
100
AcDbLine
 10
80.84165608052471
 20
112.187520722003
 30
0.0
 11
80.84165608052471
 21
131.5142456093674
 31
0.0
  0
LINE
  5
1083
330
F87
100
AcDbEntity
  8
寸法線
 62
     2
440
 16777216
370
    -2
100
AcDbLine
 10
75.94165608052472
 20
111.537520722003
 30
0.0
 11
75.94165608052472
 21
131.5142456093674
 31
0.0
  0
LINE
  5
1084
330
F87
100
AcDbEntity
  8
寸法線
 62
     2
440
 16777216
370
    -2
100
AcDbLine
 10
83.34165608052471
 20
130.2642456093674
 30
0.0
 11
85.84165608052471
 21
130.2642456093674
 31
0.0
  0
LINE
  5
1085
330
F87
100
AcDbEntity
  8
寸法線
 62
     2
440
 16777216
370
    -2
100
AcDbLine
 10
73.44165608052472
 20
130.2642456093674
 30
0.0
 11
64.5726084614771
 21
130.2642456093674
 31
0.0
  0
LINE
  5
1086
330
F87
100
AcDbEntity
  8
寸法線
 62
     2
440
 16777216
370
    -2
100
AcDbLine
 10
80.84165608052471
 20
130.2642456093674
 30
0.0
 11
75.94165608052472
 21
130.2642456093674
 31
0.0
  0
INSERT
  5
1087
330
F87
100
AcDbEntity
  8
寸法線
 62
     2
440
 16777216
370
    -2
100
AcDbBlockReference
  2
_OPEN
 10
80.84165608052471
 20
130.2642456093674
 30
0.0
 41
2.5
 42
2.5
 43
2.5
 50
180.0
  0
INSERT
  5
1088
330
F87
100
AcDbEntity
  8
寸法線
 62
     2
440
 16777216
370
    -2
100
AcDbBlockReference
  2
_OPEN
 10
75.94165608052472
 20
130.2642456093674
 30
0.0
 41
2.5
 42
2.5
 43
2.5
  0
MTEXT
  5
1089
330
F87
100
AcDbEntity
  8
寸法線
 62
     6
440
 16777216
100
AcDbMText
 10
67.75713227100091
 20
132.1392456093674
 30
0.0
 40
2.5
 41
0.0
 71
     5
 72
     1
  1
\A1;4.9
  7
STYLE3
 73
     1
 44
1.0
  0
POINT
  5
108A
330
F87
100
AcDbEntity
  8
DEFPOINTS
 62
     0
440
 16777216
100
AcDbPoint
 10
80.84165608052471
 20
112.187520722003
 30
0.0
  0
POINT
  5
108B
330
F87
100
AcDbEntity
  8
DEFPOINTS
 62
     0
440
 16777216
100
AcDbPoint
 10
75.94165608052472
 20
111.537520722003
 30
0.0
  0
POINT
  5
108C
330
F87
100
AcDbEntity
  8
DEFPOINTS
 62
     0
440
 16777216
100
AcDbPoint
 10
75.94165608052472
 20
130.2642456093674
 30
0.0
  0
ENDBLK
  5
F89
330
F87
100
AcDbEntity
  8
0
100
AcDbBlockEnd
  0
BLOCK
  5
F96
330
F95
100
AcDbEntity
  8
0
100
AcDbBlockBegin
  2
*D24
 70
     1
 10
0.0
 20
0.0
 30
0.0
  3
*D24
  1

  0
LINE
  5
108D
330
F95
100
AcDbEntity
  8
寸法線
 62
     2
440
 16777216
370
    -2
100
AcDbLine
 10
75.94165608052472
 20
111.537520722003
 30
0.0
 11
75.94165608052472
 21
122.7758831656852
 31
0.0
  0
LINE
  5
108E
330
F95
100
AcDbEntity
  8
寸法線
 62
     2
440
 16777216
370
    -2
100
AcDbLine
 10
63.44165608052472
 20
109.287520722003
 30
0.0
 11
63.44165608052472
 21
122.7758831656852
 31
0.0
  0
LINE
  5
108F
330
F95
100
AcDbEntity
  8
寸法線
 62
     2
440
 16777216
370
    -2
100
AcDbLine
 10
73.44165608052472
 20
121.5258831656852
 30
0.0
 11
65.94165608052472
 21
121.5258831656852
 31
0.0
  0
INSERT
  5
1090
330
F95
100
AcDbEntity
  8
寸法線
 62
     2
440
 16777216
370
    -2
100
AcDbBlockReference
  2
_OPEN
 10
75.94165608052472
 20
121.5258831656852
 30
0.0
 41
2.5
 42
2.5
 43
2.5
  0
INSERT
  5
1091
330
F95
100
AcDbEntity
  8
寸法線
 62
     2
440
 16777216
370
    -2
100
AcDbBlockReference
  2
_OPEN
 10
63.44165608052472
 20
121.5258831656852
 30
0.0
 41
2.5
 42
2.5
 43
2.5
 50
180.0
  0
MTEXT
  5
1092
330
F95
100
AcDbEntity
  8
寸法線
 62
     6
440
 16777216
100
AcDbMText
 10
69.69165608052472
 20
123.4008831656852
 30
0.0
 40
2.5
 41
0.0
 71
     5
 72
     1
  1
\A1;12.5
  7
STYLE3
 73
     1
 44
1.0
  0
POINT
  5
1093
330
F95
100
AcDbEntity
  8
DEFPOINTS
 62
     0
440
 16777216
100
AcDbPoint
 10
75.94165608052472
 20
111.537520722003
 30
0.0
  0
POINT
  5
1094
330
F95
100
AcDbEntity
  8
DEFPOINTS
 62
     0
440
 16777216
100
AcDbPoint
 10
63.44165608052472
 20
109.287520722003
 30
0.0
  0
POINT
  5
1095
330
F95
100
AcDbEntity
  8
DEFPOINTS
 62
     0
440
 16777216
100
AcDbPoint
 10
63.44165608052472
 20
121.5258831656852
 30
0.0
  0
ENDBLK
  5
F97
330
F95
100
AcDbEntity
  8
0
100
AcDbBlockEnd
  0
BLOCK
  5
FA2
330
FA1
100
AcDbEntity
  8
0
100
AcDbBlockBegin
  2
*D25
 70
     1
 10
0.0
 20
0.0
 30
0.0
  3
*D25
  1

  0
LINE
  5
1096
330
FA1
100
AcDbEntity
  8
寸法線
 62
     2
440
 16777216
370
    -2
100
AcDbLine
 10
99.44165608052472
 20
118.787520722003
 30
0.0
 11
99.44165608052472
 21
141.3260403108453
 31
0.0
  0
LINE
  5
1097
330
FA1
100
AcDbEntity
  8
寸法線
 62
     2
440
 16777216
370
    -2
100
AcDbLine
 10
121.3416560805247
 20
104.787520722003
 30
0.0
 11
121.3416560805247
 21
141.3260403108453
 31
0.0
  0
LINE
  5
1098
330
FA1
100
AcDbEntity
  8
寸法線
 62
     2
440
 16777216
370
    -2
100
AcDbLine
 10
101.9416560805247
 20
140.0760403108453
 30
0.0
 11
118.8416560805247
 21
140.0760403108453
 31
0.0
  0
INSERT
  5
1099
330
FA1
100
AcDbEntity
  8
寸法線
 62
     2
440
 16777216
370
    -2
100
AcDbBlockReference
  2
_OPEN
 10
99.44165608052472
 20
140.0760403108453
 30
0.0
 41
2.5
 42
2.5
 43
2.5
 50
180.0
  0
INSERT
  5
109A
330
FA1
100
AcDbEntity
  8
寸法線
 62
     2
440
 16777216
370
    -2
100
AcDbBlockReference
  2
_OPEN
 10
121.3416560805247
 20
140.0760403108453
 30
0.0
 41
2.5
 42
2.5
 43
2.5
  0
MTEXT
  5
109B
330
FA1
100
AcDbEntity
  8
寸法線
 62
     6
440
 16777216
100
AcDbMText
 10
110.3916560805247
 20
141.9510403108453
 30
0.0
 40
2.5
 41
0.0
 71
     5
 72
     1
  1
\A1;21.9
  7
STYLE3
 73
     1
 44
1.0
  0
POINT
  5
109C
330
FA1
100
AcDbEntity
  8
DEFPOINTS
 62
     0
440
 16777216
100
AcDbPoint
 10
99.44165608052472
 20
118.787520722003
 30
0.0
  0
POINT
  5
109D
330
FA1
100
AcDbEntity
  8
DEFPOINTS
 62
     0
440
 16777216
100
AcDbPoint
 10
121.3416560805247
 20
104.787520722003
 30
0.0
  0
POINT
  5
109E
330
FA1
100
AcDbEntity
  8
DEFPOINTS
 62
     0
440
 16777216
100
AcDbPoint
 10
121.3416560805247
 20
140.0760403108453
 30
0.0
  0
ENDBLK
  5
FA3
330
FA1
100
AcDbEntity
  8
0
100
AcDbBlockEnd
  0
BLOCK
  5
FAE
330
FAD
100
AcDbEntity
  8
0
100
AcDbBlockBegin
  2
*D26
 70
     1
 10
0.0
 20
0.0
 30
0.0
  3
*D26
  1

  0
LINE
  5
109F
330
FAD
100
AcDbEntity
  8
寸法線
 62
     2
440
 16777216
370
    -2
100
AcDbLine
 10
99.44165608052472
 20
118.787520722003
 30
0.0
 11
99.44165608052472
 21
141.3260403108453
 31
0.0
  0
LINE
  5
10A0
330
FAD
100
AcDbEntity
  8
寸法線
 62
     2
440
 16777216
370
    -2
100
AcDbLine
 10
63.44165608052472
 20
109.287520722003
 30
0.0
 11
63.44165608052472
 21
141.3260403108453
 31
0.0
  0
LINE
  5
10A1
330
FAD
100
AcDbEntity
  8
寸法線
 62
     2
440
 16777216
370
    -2
100
AcDbLine
 10
96.94165608052472
 20
140.0760403108453
 30
0.0
 11
65.94165608052472
 21
140.0760403108453
 31
0.0
  0
INSERT
  5
10A2
330
FAD
100
AcDbEntity
  8
寸法線
 62
     2
440
 16777216
370
    -2
100
AcDbBlockReference
  2
_OPEN
 10
99.44165608052472
 20
140.0760403108453
 30
0.0
 41
2.5
 42
2.5
 43
2.5
  0
INSERT
  5
10A3
330
FAD
100
AcDbEntity
  8
寸法線
 62
     2
440
 16777216
370
    -2
100
AcDbBlockReference
  2
_OPEN
 10
63.44165608052472
 20
140.0760403108453
 30
0.0
 41
2.5
 42
2.5
 43
2.5
 50
180.0
  0
MTEXT
  5
10A4
330
FAD
100
AcDbEntity
  8
寸法線
 62
     6
440
 16777216
100
AcDbMText
 10
81.44165608052473
 20
142.6058022156072
 30
0.0
 40
2.5
 41
0.0
 71
     5
 72
     1
  1
\A1;(36)
  7
STYLE3
 73
     1
 44
1.0
  0
POINT
  5
10A5
330
FAD
100
AcDbEntity
  8
DEFPOINTS
 62
     0
440
 16777216
100
AcDbPoint
 10
99.44165608052472
 20
118.787520722003
 30
0.0
  0
POINT
  5
10A6
330
FAD
100
AcDbEntity
  8
DEFPOINTS
 62
     0
440
 16777216
100
AcDbPoint
 10
63.44165608052472
 20
109.287520722003
 30
0.0
  0
POINT
  5
10A7
330
FAD
100
AcDbEntity
  8
DEFPOINTS
 62
     0
440
 16777216
100
AcDbPoint
 10
63.44165608052472
 20
140.0760403108453
 30
0.0
  0
ENDBLK
  5
FAF
330
FAD
100
AcDbEntity
  8
0
100
AcDbBlockEnd
  0
BLOCK
  5
FBA
330
FB9
100
AcDbEntity
  8
0
100
AcDbBlockBegin
  2
*D27
 70
     1
 10
0.0
 20
0.0
 30
0.0
  3
*D27
  1

  0
LINE
  5
10A8
330
FB9
100
AcDbEntity
  8
寸法線
 62
     2
440
 16777216
370
    -2
100
AcDbLine
 10
63.44165608052472
 20
109.287520722003
 30
0.0
 11
63.44165608052472
 21
150.5678643224286
 31
0.0
  0
LINE
  5
10A9
330
FB9
100
AcDbEntity
  8
寸法線
 62
     2
440
 16777216
370
    -2
100
AcDbLine
 10
121.3416560805247
 20
104.787520722003
 30
0.0
 11
121.3416560805247
 21
150.5678643224286
 31
0.0
  0
LINE
  5
10AA
330
FB9
100
AcDbEntity
  8
寸法線
 62
     2
440
 16777216
370
    -2
100
AcDbLine
 10
65.94165608052472
 20
149.3178643224286
 30
0.0
 11
118.8416560805247
 21
149.3178643224286
 31
0.0
  0
INSERT
  5
10AB
330
FB9
100
AcDbEntity
  8
寸法線
 62
     2
440
 16777216
370
    -2
100
AcDbBlockReference
  2
_OPEN
 10
63.44165608052472
 20
149.3178643224286
 30
0.0
 41
2.5
 42
2.5
 43
2.5
 50
180.0
  0
INSERT
  5
10AC
330
FB9
100
AcDbEntity
  8
寸法線
 62
     2
440
 16777216
370
    -2
100
AcDbBlockReference
  2
_OPEN
 10
121.3416560805247
 20
149.3178643224286
 30
0.0
 41
2.5
 42
2.5
 43
2.5
  0
MTEXT
  5
10AD
330
FB9
100
AcDbEntity
  8
寸法線
 62
     6
440
 16777216
100
AcDbMText
 10
92.39165608052472
 20
151.8476262271905
 30
0.0
 40
2.5
 41
0.0
 71
     5
 72
     1
  1
\A1;(57.9)
  7
STYLE3
 73
     1
 44
1.0
  0
POINT
  5
10AE
330
FB9
100
AcDbEntity
  8
DEFPOINTS
 62
     0
440
 16777216
100
AcDbPoint
 10
63.44165608052472
 20
109.287520722003
 30
0.0
  0
POINT
  5
10AF
330
FB9
100
AcDbEntity
  8
DEFPOINTS
 62
     0
440
 16777216
100
AcDbPoint
 10
121.3416560805247
 20
104.787520722003
 30
0.0
  0
POINT
  5
10B0
330
FB9
100
AcDbEntity
  8
DEFPOINTS
 62
     0
440
 16777216
100
AcDbPoint
 10
121.3416560805247
 20
149.3178643224286
 30
0.0
  0
ENDBLK
  5
FBB
330
FB9
100
AcDbEntity
  8
0
100
AcDbBlockEnd
  0
ENDSEC
  0
SECTION
  2
ENTITIES
  0
LWPOLYLINE
  5
26C
330
18
100
AcDbEntity
  8
C
100
AcDbPolyline
 90
        5
 70
     0
 43
0.4
 10
0.0
 20
195.0
 10
255.0
 20
195.0
 10
255.0
 20
0.0
 10
0.0
 20
0.0
 10
0.0
 20
195.0
  0
LINE
  5
34F
330
18
100
AcDbEntity
  8
中心線
 48
0.5
100
AcDbLine
 10
149.8920802774953
 20
104.7875207220031
 30
0.0
 11
192.5948469278719
 21
104.7875207220031
 31
0.0
  0
LINE
  5
350
330
18
100
AcDbEntity
  8
中心線
 48
0.5
100
AcDbLine
 10
171.294143511659
 20
125.3541656479195
 30
0.0
 11
171.294143511659
 21
81.93872134677048
 31
0.0
  0
CIRCLE
  5
388
330
18
100
AcDbEntity
  8
外形線
100
AcDbCircle
 10
171.294143511659
 20
104.7875207220031
 30
0.0
 40
19.0
  0
CIRCLE
  5
610
330
18
100
AcDbEntity
  8
針
100
AcDbCircle
 10
171.294143511659
 20
104.7875207220031
 30
0.0
 40
1.5
  0
LINE
  5
612
330
18
100
AcDbEntity
  8
針
100
AcDbLine
 10
170.5368503580034
 20
89.80664934950189
 30
0.0
 11
170.4669396249317
 21
89.81018338421892
 31
0.0
  0
CIRCLE
  5
614
330
18
100
AcDbEntity
  8
針
100
AcDbCircle
 10
171.294143511659
 20
104.7875207220031
 30
0.0
 40
1.3
  0
LINE
  5
616
330
18
100
AcDbEntity
  8
針
100
AcDbLine
 10
170.9444609705065
 20
102.765696427683
 30
0.0
 11
170.4669396249317
 21
89.81018338421892
 31
0.0
  0
ARC
  5
619
330
18
100
AcDbEntity
  8
針
100
AcDbCircle
 10
169.9451395552922
 20
102.8025299598832
 30
0.0
 40
1.0
100
AcDbArc
 50
357.8891165676457
 51
35.78158889985871
  0
LINE
  5
61A
330
18
100
AcDbEntity
  8
針
100
AcDbLine
 10
171.4381553168294
 20
102.7407398454408
 30
0.0
 11
170.606761091075
 21
89.80311531478482
 31
0.0
  0
ARC
  5
61B
330
18
100
AcDbEntity
  8
針
100
AcDbCircle
 10
172.4360969044848
 20
102.6766103855349
 30
0.0
 40
1.0
100
AcDbArc
 50
138.4306570877538
 51
176.3231294199668
  0
LINE
  5
61C
330
18
100
AcDbEntity
  8
針
100
AcDbLine
 10
170.5368503580034
 20
89.80664934950189
 30
0.0
 11
170.606761091075
 21
89.80311531478482
 31
0.0
  0
CIRCLE
  5
61D
330
18
100
AcDbEntity
  8
針
100
AcDbCircle
 10
171.294143511659
 20
104.7875207220031
 30
0.0
 40
0.3
  0
HATCH
  5
627
330
18
100
AcDbEntity
  8
針
100
AcDbHatch
 10
0.0
 20
0.0
 30
0.0
210
0.0
220
0.0
230
1.0
  2
SOLID
 70
     1
 71
     0
 91
        1
 92
        7
 72
     1
 73
     1
 93
        7
 10
171.4381553168294
 20
102.7407398454408
 42
-0.166860330303523
 10
171.6879436759626
 20
103.3401363809953
 42
-0.1594072402788492
 10
170.7563912993794
 20
103.3872269820369
 42
-0.166860330303539
 10
170.9444609705065
 20
102.765696427683
 42
0.0
 10
170.4669396249317
 20
89.81018338421892
 42
0.0
 10
170.5368503580034
 20
89.80664934950189
 42
0.0
 10
170.606761091075
 20
89.80311531478479
 42
0.0
 97
        0
 75
     0
 76
     1
 47
0.0506089553640833
 98
        1
 10
171.1039053985452
 20
100.0492831347154
450
        0
451
        0
460
0.0
461
0.0
452
        0
462
0.0
453
        0
470

  0
LINE
  5
8B6
330
18
100
AcDbEntity
  8
0
  6
ByBlock
 62
     2
100
AcDbLine
 10
154.794143511659
 20
104.7875207220031
 30
0.0
 11
154.794143511659
 21
133.3169193336927
 31
0.0
  0
LINE
  5
8B7
330
18
100
AcDbEntity
  8
0
  6
ByBlock
 62
     2
100
AcDbLine
 10
187.794143511659
 20
104.7875207220031
 30
0.0
 11
187.794143511659
 21
133.3169193336927
 31
0.0
  0
LINE
  5
8B8
330
18
100
AcDbEntity
  8
0
  6
ByBlock
 62
     2
100
AcDbLine
 10
157.294143511659
 20
132.0669193336927
 30
0.0
 11
185.294143511659
 21
132.0669193336927
 31
0.0
  0
INSERT
  5
8B9
330
18
100
AcDbEntity
  8
0
  6
ByBlock
 62
     2
100
AcDbBlockReference
  2
_OPEN
 10
154.794143511659
 20
132.0669193336927
 30
0.0
 41
2.5
 42
2.5
 43
2.5
 50
180.0
  0
INSERT
  5
8BA
330
18
100
AcDbEntity
  8
0
  6
ByBlock
 62
     2
100
AcDbBlockReference
  2
_OPEN
 10
187.794143511659
 20
132.0669193336927
 30
0.0
 41
2.5
 42
2.5
 43
2.5
  0
MTEXT
  5
8BB
330
18
100
AcDbEntity
  8
0
  6
ByBlock
 62
     6
100
AcDbMText
 10
171.294143511659
 20
133.9419193336927
 30
0.0
 40
2.5
 41
0.0
 71
     5
 72
     1
  1
\A1;\U+03C633
  7
STYLE3
 73
     1
 44
1.0
  0
POINT
  5
8BE
330
18
100
AcDbEntity
  8
DEFPOINTS
  6
ByBlock
 62
     0
100
AcDbPoint
 10
187.794143511659
 20
132.0669193336927
 30
0.0
  0
CIRCLE
  5
9DE
330
18
100
AcDbEntity
  8
外形線
100
AcDbCircle
 10
171.294143511659
 20
104.7875207220031
 30
0.0
 40
16.5
  0
TEXT
  5
9DF
330
18
100
AcDbEntity
  8
文字
100
AcDbText
 10
165.2967105699598
 20
89.89169230902252
 30
0.0
 40
1.0
  1
S
 50
345.8484330647098
  7
STYLE3
100
AcDbText
  0
LINE
  5
9E2
330
18
100
AcDbEntity
  8
目盛
100
AcDbLine
 10
161.5956868488331
 20
91.43874031481646
 30
0.0
 11
163.3590426057106
 21
93.8657912979413
 31
0.0
  0
LINE
  5
9E3
330
18
100
AcDbEntity
  8
目盛
100
AcDbLine
 10
156.3644971459697
 20
97.76216241117941
 30
0.0
 11
158.1741512509017
 21
98.61372099430958
 31
0.0
  0
LINE
  5
9E4
330
18
100
AcDbEntity
  8
目盛
100
AcDbLine
 10
155.9528314945029
 20
98.71346560270588
 30
0.0
 11
157.8123844662794
 21
99.44971470807521
 31
0.0
  0
LINE
  5
9E5
330
18
100
AcDbEntity
  8
目盛
100
AcDbLine
 10
155.3125213530366
 20
100.684137583783
 30
0.0
 11
157.2496876752939
 21
101.1815173581126
 31
0.0
  0
LINE
  5
9E6
330
18
100
AcDbEntity
  8
目盛
100
AcDbLine
 10
155.0864038746357
 20
101.6957290313386
 30
0.0
 11
157.0509783760931
 21
102.07049166051
 31
0.0
  0
LINE
  5
9E7
330
18
100
AcDbEntity
  8
目盛
100
AcDbLine
 10
154.9242509399701
 20
102.719522368192
 30
0.0
 11
156.9084803425991
 21
102.9701888353206
 31
0.0
  0
LINE
  5
9E8
330
18
100
AcDbEntity
  8
目盛
100
AcDbLine
 10
154.8267024925926
 20
103.7514771497693
 30
0.0
 11
156.8227559494491
 21
103.877058188828
 31
0.0
  0
LINE
  5
9E9
330
18
100
AcDbEntity
  8
目盛
100
AcDbLine
 10
154.794143511659
 20
104.787520722003
 30
0.0
 11
157.794143511659
 21
104.787520722003
 31
0.0
  0
LINE
  5
9EA
330
18
100
AcDbEntity
  8
目盛
100
AcDbLine
 10
155.601710992789
 20
99.68874031481639
 30
0.0
 11
158.4548805416745
 21
100.6157912979412
 31
0.0
  0
LINE
  5
9EB
330
18
100
AcDbEntity
  8
目盛
100
AcDbLine
 10
160.7766476808056
 20
92.07405221620261
 30
0.0
 11
162.0514956603029
 21
93.61507870175415
 31
0.0
  0
LINE
  5
9EC
330
18
100
AcDbEntity
  8
目盛
100
AcDbLine
 10
159.9991162638356
 20
92.75953836954984
 30
0.0
 11
161.368210475693
 21
94.21747562439264
 31
0.0
  0
LINE
  5
9ED
330
18
100
AcDbEntity
  8
目盛
100
AcDbLine
 10
159.2661611592057
 20
93.49249347417972
 30
0.0
 11
160.7240984140485
 21
94.86158768603706
 31
0.0
  0
LINE
  5
9EE
330
18
100
AcDbEntity
  8
目盛
100
AcDbLine
 10
158.5806750058585
 20
94.27002489114977
 30
0.0
 11
160.1217014914101
 21
95.54487287064713
 31
0.0
  0
LINE
  5
9EF
330
18
100
AcDbEntity
  8
目盛
100
AcDbLine
 10
157.9453631044724
 20
95.08906405917723
 30
0.0
 11
160.3724140875972
 21
96.85241981605472
 31
0.0
  0
LINE
  5
9F0
330
18
100
AcDbEntity
  8
目盛
100
AcDbLine
 10
157.3627327408758
 20
95.94637860484963
 30
0.0
 11
159.0513885918798
 21
97.01803219480765
 31
0.0
  0
LINE
  5
9F1
330
18
100
AcDbEntity
  8
目盛
100
AcDbLine
 10
156.8350832909352
 20
96.83858509932486
 30
0.0
 11
158.5876966510229
 21
97.80209244752832
 31
0.0
  0
TEXT
  5
9F2
330
18
100
AcDbEntity
  8
文字
100
AcDbText
 10
158.6171183542514
 20
99.81474311516322
 30
0.0
 40
2.0
  1
30
  7
STYLE3
100
AcDbText
  0
LINE
  5
9F3
330
18
100
AcDbEntity
  8
目盛
100
AcDbLine
 10
187.794143511659
 20
104.7875207220031
 30
0.0
 11
184.794143511659
 21
104.7875207220031
 31
0.0
  0
LINE
  5
9F4
330
18
100
AcDbEntity
  8
目盛
100
AcDbLine
 10
186.6354555288152
 20
98.71346560270588
 30
0.0
 11
184.7759025570386
 21
99.44971470807523
 31
0.0
  0
LINE
  5
9F5
330
18
100
AcDbEntity
  8
目盛
100
AcDbLine
 10
186.2237898773484
 20
97.76216241117936
 30
0.0
 11
184.4141357724162
 21
98.61372099430951
 31
0.0
  0
LINE
  5
9F6
330
18
100
AcDbEntity
  8
目盛
100
AcDbLine
 10
185.7532037323828
 20
96.83858509932477
 30
0.0
 11
184.0005903722951
 21
97.80209244752823
 31
0.0
  0
LINE
  5
9F7
330
18
100
AcDbEntity
  8
目盛
100
AcDbLine
 10
185.2255542824423
 20
95.94637860484963
 30
0.0
 11
183.5368984314382
 21
97.01803219480765
 31
0.0
  0
LINE
  5
9F8
330
18
100
AcDbEntity
  8
目盛
100
AcDbLine
 10
184.6429239188456
 20
95.08906405917729
 30
0.0
 11
182.2158729357208
 21
96.85241981605472
 31
0.0
  0
LINE
  5
9F9
330
18
100
AcDbEntity
  8
目盛
100
AcDbLine
 10
186.9865760305291
 20
99.68874031481645
 30
0.0
 11
184.1334064816436
 21
100.6157912979413
 31
0.0
  0
LINE
  5
9FA
330
18
100
AcDbEntity
  8
目盛
100
AcDbLine
 10
180.9926001744848
 20
91.4387403148164
 30
0.0
 11
179.2292444176074
 21
93.86579129794121
 31
0.0
  0
TEXT
  5
9FB
330
18
100
AcDbEntity
  8
文字
100
AcDbText
 10
169.9414418042033
 20
88.84790220642168
 30
0.0
 40
1.0
  1
K
 50
354.7200953262751
  7
STYLE3
100
AcDbText
  0
TEXT
  5
9FC
330
18
100
AcDbEntity
  8
文字
100
AcDbText
 10
167.5122217839307
 20
89.20194248968465
 30
0.0
 40
1.0
  1
O
 50
350.4947503214161
  7
STYLE3
100
AcDbText
  0
TEXT
  5
9FD
330
18
100
AcDbEntity
  8
文字
100
AcDbText
 10
166.2988161710124
 20
89.57471876030565
 30
0.0
 40
1.0
  1
H
 50
344.6229585359305
  7
STYLE3
100
AcDbText
  0
TEXT
  5
9FE
330
18
100
AcDbEntity
  8
文字
100
AcDbText
 10
168.6363842592844
 20
89.04748081958491
 30
0.0
 40
1.0
  1
C
 50
347.7012929681235
  7
STYLE3
100
AcDbText
  0
TEXT
  5
9FF
330
18
100
AcDbEntity
  8
文字
100
AcDbText
 10
171.8513440364401
 20
88.7958909284775
 30
0.0
 40
1.0
  1
P
 50
3.042400095064535
  7
STYLE3
100
AcDbText
  0
TEXT
  5
A00
330
18
100
AcDbEntity
  8
文字
100
AcDbText
 10
174.0846429471344
 20
89.03123255420331
 30
0.0
 40
1.0
  1
O
 50
10.8247941537484
  7
STYLE3
100
AcDbText
  0
TEXT
  5
A01
330
18
100
AcDbEntity
  8
文字
100
AcDbText
 10
172.912554717906
 20
88.85172591588759
 30
0.0
 40
1.0
  1
R
 50
8.344327197595317
  7
STYLE3
100
AcDbText
  0
TEXT
  5
A02
330
18
100
AcDbEntity
  8
文字
100
AcDbText
 10
176.4585341776506
 20
89.65350308742575
 30
0.0
 40
1.0
  1
F
 50
19.84093951139782
  7
STYLE3
100
AcDbText
  0
TEXT
  5
A03
330
18
100
AcDbEntity
  8
文字
100
AcDbText
 10
175.2795270081725
 20
89.30211739315707
 30
0.0
 40
1.0
  1
O
 50
14.44164602464228
  7
STYLE3
100
AcDbText
  0
LINE
  5
A05
102
{ACAD_REACTORS
330
A07
102
}
330
18
100
AcDbEntity
  8
外形線
100
AcDbLine
 10
170.6804113641821
 20
96.03491571021507
 30
0.0
 11
169.5137446975155
 21
95.61028377023779
 31
0.0
  0
TEXT
  5
A06
330
18
100
AcDbEntity
  8
文字
100
AcDbText
 10
168.0975268334279
 20
93.58718874684567
 30
0.0
 40
1.0
  1
0.01mm
  7
STYLE3
100
AcDbText
  0
HATCH
  5
A07
330
18
100
AcDbEntity
  8
外形線
100
AcDbHatch
 10
0.0
 20
0.0
 30
0.0
210
0.0
220
0.0
230
1.0
  2
SOLID
 70
     1
 71
     1
 91
        2
 92
        1
 93
        4
 72
     1
 10
170.8470780308489
 20
95.28491571021506
 11
170.6804113641821
 21
95.28491571021506
 72
     1
 10
170.6804113641821
 20
95.28491571021506
 11
170.6804113641821
 21
96.78491571021501
 72
     1
 10
170.6804113641821
 20
96.78491571021501
 11
170.8470780308489
 21
96.78491571021501
 72
     1
 10
170.8470780308489
 20
96.78491571021501
 11
170.8470780308489
 21
95.28491571021506
 97
        4
330
A14
330
A15
330
A12
330
A18
 92
        1
 93
        7
 72
     1
 10
169.5137446975155
 20
95.86824904354836
 11
169.5137446975155
 21
95.61028377023786
 72
     1
 10
169.5137446975155
 20
95.61028377023779
 11
170.6804113641821
 21
96.03491571021507
 72
     1
 10
170.6804113641821
 20
96.03491571021507
 11
169.5137446975155
 21
96.45954765019224
 72
     1
 10
169.5137446975155
 20
96.45954765019224
 11
169.5137446975155
 21
96.20158237688173
 72
     1
 10
169.5137446975155
 20
96.20158237688169
 11
168.5137446975155
 21
96.20158237688162
 72
     1
 10
168.5137446975155
 20
96.20158237688162
 11
168.5137446975155
 21
95.86824904354836
 72
     1
 10
168.5137446975155
 20
95.86824904354836
 11
169.5137446975155
 21
95.86824904354836
 97
        7
330
A09
330
A05
330
A08
330
A0D
330
A0C
330
A0A
330
A0B
 75
     0
 76
     1
 98
        1
 10
536.8491331344455
 20
-141.7249973436234
450
        0
451
        0
460
0.0
461
0.0
452
        0
462
0.0
453
        0
470

  0
LINE
  5
A08
102
{ACAD_REACTORS
330
A07
102
}
330
18
100
AcDbEntity
  8
外形線
100
AcDbLine
 10
170.6804113641821
 20
96.03491571021507
 30
0.0
 11
169.5137446975155
 21
96.45954765019224
 31
0.0
  0
LINE
  5
A09
102
{ACAD_REACTORS
330
A07
102
}
330
18
100
AcDbEntity
  8
外形線
100
AcDbLine
 10
169.5137446975155
 20
95.86824904354836
 30
0.0
 11
169.5137446975155
 21
95.61028377023786
 31
0.0
  0
LINE
  5
A0A
102
{ACAD_REACTORS
330
A07
102
}
330
18
100
AcDbEntity
  8
外形線
100
AcDbLine
 10
168.5137446975155
 20
96.20158237688162
 30
0.0
 11
168.5137446975155
 21
95.86824904354836
 31
0.0
  0
LINE
  5
A0B
102
{ACAD_REACTORS
330
A07
102
}
330
18
100
AcDbEntity
  8
外形線
100
AcDbLine
 10
169.5137446975155
 20
95.86824904354836
 30
0.0
 11
168.5137446975155
 21
95.86824904354836
 31
0.0
  0
LINE
  5
A0C
102
{ACAD_REACTORS
330
A07
102
}
330
18
100
AcDbEntity
  8
外形線
100
AcDbLine
 10
169.5137446975155
 20
96.20158237688169
 30
0.0
 11
168.5137446975155
 21
96.20158237688162
 31
0.0
  0
LINE
  5
A0D
102
{ACAD_REACTORS
330
A07
102
}
330
18
100
AcDbEntity
  8
外形線
100
AcDbLine
 10
169.5137446975155
 20
96.45954765019224
 30
0.0
 11
169.5137446975155
 21
96.20158237688173
 31
0.0
  0
LINE
  5
A0E
102
{ACAD_REACTORS
330
A0F
102
}
330
18
100
AcDbEntity
  8
外形線
100
AcDbLine
 10
171.8470780308487
 20
96.03491571021507
 30
0.0
 11
173.0137446975154
 21
95.61028377023779
 31
0.0
  0
HATCH
  5
A0F
330
18
100
AcDbEntity
  8
外形線
100
AcDbHatch
 10
0.0
 20
0.0
 30
0.0
210
0.0
220
0.0
230
1.0
  2
SOLID
 70
     1
 71
     1
 91
        2
 92
        1
 93
        4
 72
     1
 10
171.6804113641821
 20
95.28491571021506
 11
171.8470780308487
 21
95.28491571021506
 72
     1
 10
171.8470780308487
 20
95.28491571021506
 11
171.8470780308487
 21
96.78491571021501
 72
     1
 10
171.8470780308487
 20
96.78491571021501
 11
171.6804113641821
 21
96.78491571021501
 72
     1
 10
171.6804113641821
 20
96.78491571021501
 11
171.6804113641821
 21
95.28491571021506
 97
        4
330
A13
330
A16
330
A11
330
A17
 92
        1
 93
        7
 72
     1
 10
173.0137446975154
 20
95.86824904354836
 11
173.0137446975154
 21
95.61028377023786
 72
     1
 10
173.0137446975154
 20
95.61028377023779
 11
171.8470780308487
 21
96.03491571021507
 72
     1
 10
171.8470780308487
 20
96.03491571021507
 11
173.0137446975154
 21
96.45954765019224
 72
     1
 10
173.0137446975154
 20
96.45954765019224
 11
173.0137446975154
 21
96.20158237688173
 72
     1
 10
173.0137446975154
 20
96.20158237688169
 11
174.0137446975154
 21
96.20158237688162
 72
     1
 10
174.0137446975154
 20
96.20158237688162
 11
174.0137446975154
 21
95.86824904354836
 72
     1
 10
174.0137446975154
 20
95.86824904354836
 11
173.0137446975154
 21
95.86824904354836
 97
        7
330
A1A
330
A0E
330
A10
330
A1D
330
A1C
330
A19
330
A1B
 75
     0
 76
     1
 98
        1
 10
-194.3216437394145
 20
-141.7249973436234
450
        0
451
        0
460
0.0
461
0.0
452
        0
462
0.0
453
        0
470

  0
LINE
  5
A10
102
{ACAD_REACTORS
330
A0F
102
}
330
18
100
AcDbEntity
  8
外形線
100
AcDbLine
 10
171.8470780308487
 20
96.03491571021507
 30
0.0
 11
173.0137446975154
 21
96.45954765019224
 31
0.0
  0
LINE
  5
A11
102
{ACAD_REACTORS
330
A0F
102
}
330
18
100
AcDbEntity
  8
外形線
100
AcDbLine
 10
171.6804113641821
 20
96.78491571021501
 30
0.0
 11
171.8470780308487
 21
96.78491571021501
 31
0.0
  0
LINE
  5
A12
102
{ACAD_REACTORS
330
A07
102
}
330
18
100
AcDbEntity
  8
外形線
100
AcDbLine
 10
170.8470780308489
 20
96.78491571021501
 30
0.0
 11
170.6804113641821
 21
96.78491571021501
 31
0.0
  0
LINE
  5
A13
102
{ACAD_REACTORS
330
A0F
102
}
330
18
100
AcDbEntity
  8
外形線
100
AcDbLine
 10
171.6804113641821
 20
95.28491571021506
 30
0.0
 11
171.8470780308487
 21
95.28491571021506
 31
0.0
  0
LINE
  5
A14
102
{ACAD_REACTORS
330
A07
102
}
330
18
100
AcDbEntity
  8
外形線
100
AcDbLine
 10
170.8470780308489
 20
95.28491571021506
 30
0.0
 11
170.6804113641821
 21
95.28491571021506
 31
0.0
  0
LINE
  5
A15
102
{ACAD_REACTORS
330
A07
102
}
330
18
100
AcDbEntity
  8
外形線
100
AcDbLine
 10
170.6804113641821
 20
96.78491571021501
 30
0.0
 11
170.6804113641821
 21
95.28491571021506
 31
0.0
  0
LINE
  5
A16
102
{ACAD_REACTORS
330
A0F
102
}
330
18
100
AcDbEntity
  8
外形線
100
AcDbLine
 10
171.8470780308487
 20
96.78491571021501
 30
0.0
 11
171.8470780308487
 21
95.28491571021506
 31
0.0
  0
LINE
  5
A17
102
{ACAD_REACTORS
330
A0F
102
}
330
18
100
AcDbEntity
  8
外形線
100
AcDbLine
 10
171.6804113641821
 20
96.78491571021501
 30
0.0
 11
171.6804113641821
 21
95.28491571021506
 31
0.0
  0
LINE
  5
A18
102
{ACAD_REACTORS
330
A07
102
}
330
18
100
AcDbEntity
  8
外形線
100
AcDbLine
 10
170.8470780308489
 20
96.78491571021501
 30
0.0
 11
170.8470780308489
 21
95.28491571021506
 31
0.0
  0
LINE
  5
A19
102
{ACAD_REACTORS
330
A0F
102
}
330
18
100
AcDbEntity
  8
外形線
100
AcDbLine
 10
174.0137446975154
 20
96.20158237688162
 30
0.0
 11
174.0137446975154
 21
95.86824904354836
 31
0.0
  0
LINE
  5
A1A
102
{ACAD_REACTORS
330
A0F
102
}
330
18
100
AcDbEntity
  8
外形線
100
AcDbLine
 10
173.0137446975154
 20
95.86824904354836
 30
0.0
 11
173.0137446975154
 21
95.61028377023786
 31
0.0
  0
LINE
  5
A1B
102
{ACAD_REACTORS
330
A0F
102
}
330
18
100
AcDbEntity
  8
外形線
100
AcDbLine
 10
173.0137446975154
 20
95.86824904354836
 30
0.0
 11
174.0137446975154
 21
95.86824904354836
 31
0.0
  0
LINE
  5
A1C
102
{ACAD_REACTORS
330
A0F
102
}
330
18
100
AcDbEntity
  8
外形線
100
AcDbLine
 10
173.0137446975154
 20
96.20158237688169
 30
0.0
 11
174.0137446975154
 21
96.20158237688162
 31
0.0
  0
LINE
  5
A1D
102
{ACAD_REACTORS
330
A0F
102
}
330
18
100
AcDbEntity
  8
外形線
100
AcDbLine
 10
173.0137446975154
 20
96.45954765019224
 30
0.0
 11
173.0137446975154
 21
96.20158237688173
 31
0.0
  0
LINE
  5
A1E
330
18
100
AcDbEntity
  8
目盛
100
AcDbLine
 10
184.0076120174596
 20
94.27002489114974
 30
0.0
 11
182.466585531908
 21
95.54487287064713
 31
0.0
  0
LINE
  5
A1F
330
18
100
AcDbEntity
  8
目盛
100
AcDbLine
 10
183.3221258641123
 20
93.49249347417972
 30
0.0
 11
181.8641886092695
 21
94.86158768603701
 31
0.0
  0
LINE
  5
A20
330
18
100
AcDbEntity
  8
目盛
100
AcDbLine
 10
182.5891707594824
 20
92.75953836954977
 30
0.0
 11
181.2200765476249
 21
94.21747562439259
 31
0.0
  0
LINE
  5
A21
330
18
100
AcDbEntity
  8
目盛
100
AcDbLine
 10
181.8116393425125
 20
92.07405221620261
 30
0.0
 11
180.5367913630151
 21
93.61507870175415
 31
0.0
  0
TEXT
  5
A22
330
18
100
AcDbEntity
  8
文字
100
AcDbText
 10
180.1850113513103
 20
99.87920565871959
 30
0.0
 40
2.0
  1
30
  7
STYLE3
100
AcDbText
  0
LINE
  5
A23
330
18
100
AcDbEntity
  8
目盛
100
AcDbLine
 10
187.5018831486824
 20
101.6957290313385
 30
0.0
 11
185.537308647225
 21
102.07049166051
 31
0.0
  0
LINE
  5
A24
330
18
100
AcDbEntity
  8
目盛
100
AcDbLine
 10
187.2757656702814
 20
100.684137583783
 30
0.0
 11
185.3385993480241
 21
101.1815173581127
 31
0.0
  0
LINE
  5
A25
330
18
100
AcDbEntity
  8
目盛
100
AcDbLine
 10
187.7615845307255
 20
103.7514771497694
 30
0.0
 11
185.7655310738689
 21
103.877058188828
 31
0.0
  0
LINE
  5
A26
330
18
100
AcDbEntity
  8
目盛
100
AcDbLine
 10
187.6640360833479
 20
102.7195223681919
 30
0.0
 11
185.6798066807189
 21
102.9701888353206
 31
0.0
  0
TEXT
  5
A27
330
18
100
AcDbEntity
  8
文字
100
AcDbText
 10
162.713514102693
 20
113.3595224746961
 30
0.0
 40
2.0
  1
10
  7
STYLE3
100
AcDbText
  0
LINE
  5
A28
330
18
100
AcDbEntity
  8
目盛
100
AcDbLine
 10
165.2200883923619
 20
120.1288327391592
 30
0.0
 11
165.9563374977312
 21
118.2692797673827
 31
0.0
  0
LINE
  5
A29
330
18
100
AcDbEntity
  8
目盛
100
AcDbLine
 10
163.3452078889808
 20
119.2465809427268
 30
0.0
 11
164.3087152371841
 21
117.4939675826391
 31
0.0
  0
LINE
  5
A2A
330
18
100
AcDbEntity
  8
目盛
100
AcDbLine
 10
164.2687852008353
 20
119.7171670876924
 30
0.0
 11
165.1203437839654
 21
117.9075129827603
 31
0.0
  0
LINE
  5
A2B
330
18
100
AcDbEntity
  8
目盛
100
AcDbLine
 10
154.8267024925926
 20
105.8235642942367
 30
0.0
 11
156.8227559494492
 21
105.697983255178
 31
0.0
  0
LINE
  5
A2C
330
18
100
AcDbEntity
  8
目盛
100
AcDbLine
 10
154.9242509399701
 20
106.8555190758141
 30
0.0
 11
156.9084803425992
 21
106.6048526086855
 31
0.0
  0
LINE
  5
A2D
330
18
100
AcDbEntity
  8
目盛
100
AcDbLine
 10
155.0864038746357
 20
107.8793124126675
 30
0.0
 11
157.0509783760931
 21
107.5045497834961
 31
0.0
  0
LINE
  5
A2E
330
18
100
AcDbEntity
  8
目盛
100
AcDbLine
 10
155.3125213530366
 20
108.8909038602231
 30
0.0
 11
157.2496876752939
 21
108.3935240858934
 31
0.0
  0
LINE
  5
A2F
330
18
100
AcDbEntity
  8
目盛
100
AcDbLine
 10
155.9528314945029
 20
110.8615758413003
 30
0.0
 11
157.8123844662794
 21
110.1253267359309
 31
0.0
  0
LINE
  5
A30
330
18
100
AcDbEntity
  8
目盛
100
AcDbLine
 10
156.3644971459697
 20
111.8128790328268
 30
0.0
 11
158.1741512509018
 21
110.9613204496967
 31
0.0
  0
LINE
  5
A31
330
18
100
AcDbEntity
  8
目盛
100
AcDbLine
 10
155.601710992789
 20
109.8863011291897
 30
0.0
 11
158.4548805416744
 21
108.9592501460649
 31
0.0
  0
LINE
  5
A32
330
18
100
AcDbEntity
  8
目盛
100
AcDbLine
 10
156.8350832909353
 20
112.7364563446814
 30
0.0
 11
158.587696651023
 21
111.7729489964779
 31
0.0
  0
LINE
  5
A33
330
18
100
AcDbEntity
  8
目盛
100
AcDbLine
 10
157.3627327408758
 20
113.6286628391566
 30
0.0
 11
159.0513885918798
 21
112.5570092491986
 31
0.0
  0
TEXT
  5
A34
330
18
100
AcDbEntity
  8
文字
100
AcDbText
 10
158.5426377399466
 20
107.8523041697903
 30
0.0
 40
2.0
  1
20
  7
STYLE3
100
AcDbText
  0
LINE
  5
A35
330
18
100
AcDbEntity
  8
目盛
100
AcDbLine
 10
159.9991162638356
 20
116.8155030744564
 30
0.0
 11
161.3682104756931
 21
115.3575658196135
 31
0.0
  0
LINE
  5
A36
330
18
100
AcDbEntity
  8
目盛
100
AcDbLine
 10
160.7766476808057
 20
117.5009892278036
 30
0.0
 11
162.051495660303
 21
115.959962742252
 31
0.0
  0
LINE
  5
A37
330
18
100
AcDbEntity
  8
目盛
100
AcDbLine
 10
159.2661611592058
 20
116.0825479698265
 30
0.0
 11
160.7240984140486
 21
114.7134537579691
 31
0.0
  0
LINE
  5
A38
330
18
100
AcDbEntity
  8
目盛
100
AcDbLine
 10
158.5806750058585
 20
115.3050165528564
 30
0.0
 11
160.1217014914101
 21
114.030168573359
 31
0.0
  0
LINE
  5
A39
330
18
100
AcDbEntity
  8
目盛
100
AcDbLine
 10
157.9453631044724
 20
114.4859773848289
 30
0.0
 11
160.3724140875973
 21
112.7226216279515
 31
0.0
  0
LINE
  5
A3A
330
18
100
AcDbEntity
  8
目盛
100
AcDbLine
 10
161.5956868488331
 20
118.1363011291897
 30
0.0
 11
163.3590426057106
 21
115.7092501460648
 31
0.0
  0
LINE
  5
A3B
330
18
100
AcDbEntity
  8
目盛
100
AcDbLine
 10
162.4530013945056
 20
118.7189314927863
 30
0.0
 11
163.5246549844636
 21
117.0302756417822
 31
0.0
  0
LINE
  5
A3C
330
18
100
AcDbEntity
  8
目盛
100
AcDbLine
 10
185.2255542824423
 20
113.6286628391565
 30
0.0
 11
183.5368984314382
 21
112.5570092491985
 31
0.0
  0
LINE
  5
A3D
330
18
100
AcDbEntity
  8
目盛
100
AcDbLine
 10
185.7532037323828
 20
112.7364563446813
 30
0.0
 11
184.0005903722951
 21
111.7729489964778
 31
0.0
  0
LINE
  5
A3E
330
18
100
AcDbEntity
  8
目盛
100
AcDbLine
 10
184.6429239188456
 20
114.4859773848289
 30
0.0
 11
182.2158729357208
 21
112.7226216279515
 31
0.0
  0
LINE
  5
A3F
330
18
100
AcDbEntity
  8
目盛
100
AcDbLine
 10
186.2237898773484
 20
111.8128790328267
 30
0.0
 11
184.4141357724164
 21
110.9613204496965
 31
0.0
  0
LINE
  5
A40
330
18
100
AcDbEntity
  8
目盛
100
AcDbLine
 10
186.6354555288152
 20
110.8615758413003
 30
0.0
 11
184.7759025570386
 21
110.1253267359309
 31
0.0
  0
LINE
  5
A41
330
18
100
AcDbEntity
  8
目盛
100
AcDbLine
 10
186.9865760305291
 20
109.8863011291897
 30
0.0
 11
184.1334064816434
 21
108.9592501460648
 31
0.0
  0
LINE
  5
A42
330
18
100
AcDbEntity
  8
目盛
100
AcDbLine
 10
167.1907603734389
 20
120.7691428806255
 30
0.0
 11
167.6881401477686
 21
118.8319765583682
 31
0.0
  0
LINE
  5
A43
330
18
100
AcDbEntity
  8
目盛
100
AcDbLine
 10
168.2023518209946
 20
120.9952603590264
 30
0.0
 11
168.5771144501661
 21
119.0306858575691
 31
0.0
  0
LINE
  5
A44
330
18
100
AcDbEntity
  8
目盛
100
AcDbLine
 10
166.1953631044724
 20
120.4799532408731
 30
0.0
 11
167.1224140875973
 21
117.6267836919876
 31
0.0
  0
LINE
  5
A45
330
18
100
AcDbEntity
  8
目盛
100
AcDbLine
 10
169.226145157848
 20
121.157413293692
 30
0.0
 11
169.4768116249767
 21
119.173183891063
 31
0.0
  0
LINE
  5
A46
330
18
100
AcDbEntity
  8
目盛
100
AcDbLine
 10
170.2580999394253
 20
121.2549617410696
 30
0.0
 11
170.383680978484
 21
119.258908284213
 31
0.0
  0
LINE
  5
A47
330
18
100
AcDbEntity
  8
目盛
100
AcDbLine
 10
179.2430791343373
 20
119.2465809427268
 30
0.0
 11
178.279571786134
 21
117.4939675826391
 31
0.0
  0
LINE
  5
A48
330
18
100
AcDbEntity
  8
目盛
100
AcDbLine
 10
178.3195018224828
 20
119.7171670876923
 30
0.0
 11
177.4679432393527
 21
117.9075129827603
 31
0.0
  0
LINE
  5
A49
330
18
100
AcDbEntity
  8
目盛
100
AcDbLine
 10
177.3681986309562
 20
120.1288327391592
 30
0.0
 11
176.6319495255868
 21
118.2692797673827
 31
0.0
  0
LINE
  5
A4A
330
18
100
AcDbEntity
  8
目盛
100
AcDbLine
 10
176.3929239188456
 20
120.4799532408731
 30
0.0
 11
175.4658729357208
 21
117.6267836919876
 31
0.0
  0
LINE
  5
A4B
330
18
100
AcDbEntity
  8
目盛
100
AcDbLine
 10
175.3975266498791
 20
120.7691428806255
 30
0.0
 11
174.9001468755493
 21
118.8319765583682
 31
0.0
  0
LINE
  5
A4C
330
18
100
AcDbEntity
  8
目盛
100
AcDbLine
 10
174.3859352023235
 20
120.9952603590264
 30
0.0
 11
174.011172573152
 21
119.0306858575691
 31
0.0
  0
LINE
  5
A4D
330
18
100
AcDbEntity
  8
目盛
100
AcDbLine
 10
173.36214186547
 20
121.1574132936919
 30
0.0
 11
173.1114753983415
 21
119.173183891063
 31
0.0
  0
LINE
  5
A4E
330
18
100
AcDbEntity
  8
目盛
100
AcDbLine
 10
172.3301870838928
 20
121.2549617410696
 30
0.0
 11
172.2046060448341
 21
119.258908284213
 31
0.0
  0
LINE
  5
A4F
330
18
100
AcDbEntity
  8
目盛
100
AcDbLine
 10
171.294143511659
 20
121.2875207220031
 30
0.0
 11
171.294143511659
 21
118.2875207220031
 31
0.0
  0
LINE
  5
A50
102
{ACAD_REACTORS
330
A52
102
}
330
18
100
AcDbEntity
  8
ROGO
 62
     4
100
AcDbLine
 10
175.4045426582261
 20
111.6980911817072
 30
0.0
 11
174.7614273534586
 21
110.4083325586794
 31
0.0
  0
LINE
  5
A51
102
{ACAD_REACTORS
330
A52
102
}
330
18
100
AcDbEntity
  8
ROGO
 62
     4
100
AcDbLine
 10
175.4045426582261
 20
110.7449741417517
 30
0.0
 11
175.2366822923953
 21
110.4083325586794
 31
0.0
  0
HATCH
  5
A52
330
18
100
AcDbEntity
  8
ROGO
 62
     4
100
AcDbHatch
 10
0.0
 20
0.0
 30
0.0
210
0.0
220
0.0
230
1.0
  2
SOLID
 70
     1
 71
     1
 91
        1
 92
        7
 72
     0
 73
     1
 93
       11
 10
175.7638482614069
 20
111.4655564332462
 10
175.8797975971629
 20
111.6980911817072
 10
175.4045426582261
 20
111.6980911817072
 10
174.7614273534586
 20
110.4083325586794
 10
175.2366822923953
 20
110.4083325586794
 10
175.4045426582261
 20
110.7449741417517
 10
175.572403024057
 20
110.4083325586794
 10
176.0476475647979
 20
110.4083325586794
 10
175.7260899124141
 20
111.0532118701933
 10
176.5073506202689
 20
111.6980911817072
 10
176.032106079528
 20
111.6980911817072
 97
       11
330
A98
330
A99
330
A97
330
A9C
330
A50
330
A5A
330
A51
330
A9B
330
A9F
330
A9D
330
A9E
 75
     0
 76
     1
 47
0.015942268611278
 98
        1
 10
175.6610887757519
 20
111.2796686745525
450
        0
451
        0
460
0.0
461
0.0
452
        0
462
0.0
453
        0
470

  0
TEXT
  5
A53
330
18
100
AcDbEntity
  8
文字
100
AcDbText
 10
168.118233241302
 20
107.0468743711697
 30
0.0
 40
1.1
  1
NO.196Z
  7
STYLE3
100
AcDbText
  0
TEXT
  5
A54
330
18
100
AcDbEntity
  8
文字
100
AcDbText
 10
168.0551996553129
 20
109.1883443652109
 30
0.0
 40
0.6
  1
MADE IN JAPAN
  7
STYLE3
100
AcDbText
  0
LINE
  5
A55
102
{ACAD_REACTORS
330
A59
102
}
330
18
100
AcDbEntity
  8
ROGO
 62
     4
100
AcDbLine
 10
170.4946541551501
 20
111.4774558994897
 30
0.0
 11
170.2913940797361
 21
111.1955884783491
 31
0.0
  0
LINE
  5
A56
102
{ACAD_REACTORS
330
A59
102
}
330
18
100
AcDbEntity
  8
ROGO
 62
     4
100
AcDbLine
 10
170.171865765502
 20
111.0298346399829
 30
0.0
 11
170.6935052552275
 21
111.0298346399829
 31
0.0
  0
LINE
  5
A57
102
{ACAD_REACTORS
330
A59
102
}
330
18
100
AcDbEntity
  8
ROGO
 62
     4
100
AcDbLine
 10
170.2913940797361
 20
111.1955884783492
 30
0.0
 11
170.619870832373
 21
111.1955884783492
 31
0.0
  0
LINE
  5
A58
102
{ACAD_REACTORS
330
A59
102
}
330
18
100
AcDbEntity
  8
ROGO
 62
     4
100
AcDbLine
 10
170.1966294881928
 20
111.6980911817072
 30
0.0
 11
170.856886302352
 21
111.6980911817072
 31
0.0
  0
HATCH
  5
A59
330
18
100
AcDbEntity
  8
ROGO
 62
     4
100
AcDbHatch
 10
0.0
 20
0.0
 30
0.0
210
0.0
220
0.0
230
1.0
  2
SOLID
 70
     1
 71
     1
 91
        2
 92
        7
 72
     0
 73
     1
 93
        8
 10
170.856886302352
 20
111.6980911817072
 10
170.1966294881928
 20
111.6980911817072
 10
169.6014107420023
 20
110.8726818008361
 10
170.0585397989635
 20
110.8726818008361
 10
170.171865765502
 20
111.0298346399829
 10
170.6935052552275
 20
111.0298346399829
 10
170.7633187734215
 20
110.8726818008361
 10
171.2235658554663
 20
110.8726818008361
 97
        8
330
A58
330
A6B
330
A6D
330
A6C
330
A56
330
A84
330
A7B
330
A82
 92
       22
 72
     0
 73
     1
 93
        3
 10
170.4946541551501
 20
111.4774558994898
 10
170.6198708323729
 20
111.1955884783492
 10
170.2913940797362
 20
111.1955884783492
 97
        3
330
A57
330
A55
330
A83
 75
     0
 76
     1
 47
0.0128389261915577
 98
        2
 10
170.8051829767643
 20
111.5000638753143
 10
170.8051829767643
 20
111.5000638753143
450
        0
451
        0
460
0.0
461
0.0
452
        0
462
0.0
453
        0
470

  0
LINE
  5
A5A
102
{ACAD_REACTORS
330
A5F
330
A52
102
}
330
18
100
AcDbEntity
  8
ROGO
 62
     4
100
AcDbLine
 10
166.5063000306929
 20
110.4083325586794
 30
0.0
 11
175.2366822923954
 21
110.4083325586794
 31
0.0
  0
LINE
  5
A5B
330
18
100
AcDbEntity
  8
ROGO
 62
     4
100
AcDbLine
 10
167.1553588294048
 20
110.5376115999246
 30
0.0
 11
174.8258900587478
 21
110.5376115999246
 31
0.0
  0
HATCH
  5
A5C
330
18
100
AcDbEntity
  8
ROGO
 62
     4
100
AcDbHatch
 10
0.0
 20
0.0
 30
0.0
210
0.0
220
0.0
230
1.0
  2
SOLID
 70
     1
 71
     0
 91
        1
 92
        7
 72
     0
 73
     1
 93
        4
 10
167.1643244680138
 20
110.5376115999246
 10
167.1058349625907
 20
110.4083325586794
 10
174.7614273534586
 20
110.4083325586794
 10
174.8258900587478
 20
110.5376115999246
 97
        0
 75
     0
 76
     1
 47
0.0514683685270805
 98
        1
 10
172.0019814805048
 20
110.5034193711797
450
        0
451
        0
460
0.0
461
0.0
452
        0
462
0.0
453
        0
470

  0
LINE
  5
A5D
102
{ACAD_REACTORS
330
A5F
102
}
330
18
100
AcDbEntity
  8
ROGO
 62
     4
100
AcDbLine
 10
167.1444606024823
 20
111.6980911817072
 30
0.0
 11
168.1580358775372
 21
111.6980911817072
 31
0.0
  0
SPLINE
  5
A5E
102
{ACAD_REACTORS
330
A5F
102
}
330
18
100
AcDbEntity
  8
ROGO
 62
     4
100
AcDbSpline
210
0.0
220
0.0
230
1.0
 70
     8
 71
     3
 72
    18
 73
    14
 74
     0
 42
0.000000001
 43
0.0000000001
 40
0.1087402787915014
 40
0.1087402787915014
 40
0.1087402787915014
 40
0.1087402787915014
 40
0.5992371417938475
 40
1.083176791562495
 40
1.448211145705696
 40
1.714037220764907
 40
2.164002567013296
 40
2.740236056362883
 40
3.395137510199602
 40
4.071816045172726
 40
4.784906178399433
 40
5.506895915094291
 40
6.060470601257718
 40
6.060470601257718
 40
6.060470601257718
 40
6.060470601257718
 10
168.1580358775373
 20
111.6980911817073
 30
0.0
 10
168.1905077441103
 20
111.6861907867626
 30
0.0
 10
168.2543633347524
 20
111.6610315332783
 30
0.0
 10
168.3322972886738
 20
111.603609803421
 30
0.0
 10
168.3747991020422
 20
111.5373211082831
 30
0.0
 10
168.415681088186
 20
111.4720054683457
 30
0.0
 10
168.4214024475196
 20
111.3782991360844
 30
0.0
 10
168.4120304744043
 20
111.2598316202034
 30
0.0
 10
168.3515258626546
 20
111.1362229924941
 30
0.0
 10
168.2544124022318
 20
111.0281100497394
 30
0.0
 10
168.1338392640009
 20
110.9415778603217
 30
0.0
 10
168.0066907307854
 20
110.8736523199709
 30
0.0
 10
167.9158049235007
 20
110.8729755208833
 30
0.0
 10
167.8763619276452
 20
110.8726818008361
 30
0.0
  0
HATCH
  5
A5F
330
18
100
AcDbEntity
  8
ROGO
 62
     4
100
AcDbHatch
 10
0.0
 20
0.0
 30
0.0
210
0.0
220
0.0
230
1.0
  2
SOLID
 70
     1
 71
     1
 91
        2
 92
        5
 93
        6
 72
     1
 10
166.5063000306929
 20
110.4083325586794
 11
167.1058349625908
 21
110.4083325586794
 72
     1
 10
167.1058349625908
 20
110.4083325586794
 11
167.3159197315967
 21
110.8726818008361
 72
     1
 10
167.3159197315967
 20
110.8726818008361
 11
167.8763619276452
 21
110.8726818008361
 72
     4
 94
        3
 73
     0
 74
     0
 95
       18
 96
       14
 40
0.108740278791501
 40
0.108740278791501
 40
0.108740278791501
 40
0.108740278791501
 40
0.6623149649549278
 40
1.384304701649786
 40
2.097394834876493
 40
2.774073369849617
 40
3.428974823686336
 40
4.005208313035923
 40
4.455173659284312
 40
4.720999734343523
 40
5.086034088486723
 40
5.569973738255372
 40
6.060470601257718
 40
6.060470601257718
 40
6.060470601257718
 40
6.060470601257718
 10
167.8763619276452
 20
110.8726818008361
 10
167.9158049235007
 20
110.8729755208833
 10
168.0066907307854
 20
110.8736523199709
 10
168.1338392640009
 20
110.9415778603217
 10
168.2544124022318
 20
111.0281100497394
 10
168.3515258626546
 20
111.1362229924941
 10
168.4120304744043
 20
111.2598316202034
 10
168.4214024475196
 20
111.3782991360844
 10
168.415681088186
 20
111.4720054683457
 10
168.3747991020422
 20
111.5373211082831
 10
168.3322972886738
 20
111.603609803421
 10
168.2543633347524
 20
111.6610315332783
 10
168.1905077441103
 20
111.6861907867626
 10
168.1580358775373
 20
111.6980911817073
 72
     1
 10
168.1580358775374
 20
111.6980911817072
 11
167.1444606024823
 21
111.6980911817072
 72
     1
 10
167.1444606024823
 20
111.6980911817072
 11
166.5063000306929
 21
110.4083325586794
 97
        6
330
A5E
330
A5D
330
A60
330
A5A
330
A66
330
A61
 92
       20
 93
        4
 72
     1
 10
167.4456351833094
 20
111.1593911705054
 11
167.5449485646701
 21
111.3789030065567
 72
     1
 10
167.5449485646701
 20
111.3789030065567
 11
167.8001416281078
 21
111.3789030065567
 72
     4
 94
        3
 73
     0
 74
     0
 95
       15
 96
       11
 40
0.0
 40
0.0
 40
0.0
 40
0.0
 40
0.0967819275146062
 40
0.1409091630709244
 40
0.1909965130662987
 40
0.2251183446779506
 40
0.279082375265317
 40
0.3114053554536581
 40
0.3668609975351972
 40
0.3853462233602185
 40
0.3853462233602185
 40
0.3853462233602185
 40
0.3853462233602185
 10
167.8001416281079
 20
111.3789030065566
 10
167.8364910432617
 20
111.3790695062808
 10
167.8894137923635
 20
111.3793119207211
 10
167.9183538364679
 20
111.3138463270352
 10
167.9053815288343
 20
111.2716966972094
 10
167.8890742808787
 20
111.2284221644684
 10
167.8602556803933
 20
111.1990164667983
 10
167.8215768973971
 20
111.1706938228259
 10
167.7850235990871
 20
111.1672652399501
 10
167.7612497817825
 20
111.1609659849974
 10
167.7553063246114
 20
111.1593911705054
 72
     1
 10
167.7553063246114
 20
111.1593911705054
 11
167.4456351833094
 21
111.1593911705054
 97
        4
330
A62
330
A64
330
A63
330
A65
 75
     0
 76
     1
 47
0.0514683685270805
 98
        2
 10
167.1498780050732
 20
111.296942021059
 10
167.1498780050732
 20
111.296942021059
450
        0
451
        0
460
0.0
461
0.0
452
        0
462
0.0
453
        0
470

  0
LINE
  5
A60
102
{ACAD_REACTORS
330
A5F
102
}
330
18
100
AcDbEntity
  8
ROGO
 62
     4
100
AcDbLine
 10
167.1444606024823
 20
111.6980911817072
 30
0.0
 11
166.5063000306929
 21
110.4083325586793
 31
0.0
  0
LINE
  5
A61
102
{ACAD_REACTORS
330
A5F
102
}
330
18
100
AcDbEntity
  8
ROGO
 62
     4
100
AcDbLine
 10
167.8763619278394
 20
110.8726818008361
 30
0.0
 11
167.3159197315967
 21
110.8726818008361
 31
0.0
  0
LINE
  5
A62
102
{ACAD_REACTORS
330
A5F
102
}
330
18
100
AcDbEntity
  8
ROGO
 62
     4
100
AcDbLine
 10
167.5449485646701
 20
111.3789030065567
 30
0.0
 11
167.4456351833094
 21
111.1593911705054
 31
0.0
  0
SPLINE
  5
A63
102
{ACAD_REACTORS
330
A5F
102
}
330
18
100
AcDbEntity
  8
ROGO
 62
     4
100
AcDbSpline
210
0.0
220
0.0
230
1.0
 70
  1064
 71
     3
 72
    15
 73
    11
 74
     9
 42
0.000000001
 43
0.0000000001
 44
0.0000000001
 40
0.0
 40
0.0
 40
0.0
 40
0.0
 40
0.0967819275146062
 40
0.1409091630709244
 40
0.1909965130662987
 40
0.2251183446779506
 40
0.279082375265317
 40
0.3114053554536581
 40
0.3668609975351972
 40
0.3853462233602185
 40
0.3853462233602185
 40
0.3853462233602185
 40
0.3853462233602185
 10
167.8001416281079
 20
111.3789030065566
 30
0.0
 10
167.8364910432617
 20
111.3790695062808
 30
0.0
 10
167.8894137923635
 20
111.3793119207211
 30
0.0
 10
167.9183538364679
 20
111.3138463270352
 30
0.0
 10
167.9053815288343
 20
111.2716966972094
 30
0.0
 10
167.8890742808787
 20
111.2284221644684
 30
0.0
 10
167.8602556803933
 20
111.1990164667983
 30
0.0
 10
167.8215768973971
 20
111.1706938228259
 30
0.0
 10
167.7850235990871
 20
111.1672652399501
 30
0.0
 10
167.7612497817825
 20
111.1609659849974
 30
0.0
 10
167.7553063246114
 20
111.1593911705054
 30
0.0
 11
167.8001416281079
 21
111.3789030065566
 31
0.0
 11
167.8942958427942
 21
111.3565037800017
 31
0.0
 11
167.9122300157552
 21
111.3161853182497
 31
0.0
 11
167.9032630581807
 21
111.2669071658755
 31
0.0
 11
167.889812492913
 21
111.2355482486985
 31
0.0
 11
167.8539441469909
 21
111.1952297869465
 31
0.0
 11
167.8270430164554
 21
111.1773104057025
 31
0.0
 11
167.7732404975723
 21
111.1638710158164
 31
0.0
 11
167.7553063246114
 21
111.1593911705054
 31
0.0
  0
LINE
  5
A64
102
{ACAD_REACTORS
330
A5F
102
}
330
18
100
AcDbEntity
  8
ROGO
 62
     4
100
AcDbLine
 10
167.8001416281079
 20
111.3789030065567
 30
0.0
 11
167.5449485646701
 21
111.3789030065567
 31
0.0
  0
LINE
  5
A65
102
{ACAD_REACTORS
330
A5F
102
}
330
18
100
AcDbEntity
  8
ROGO
 62
     4
100
AcDbLine
 10
167.7553063246114
 20
111.1593911705054
 30
0.0
 11
167.4456351833094
 21
111.1593911705054
 31
0.0
  0
LINE
  5
A66
102
{ACAD_REACTORS
330
A5F
102
}
330
18
100
AcDbEntity
  8
ROGO
 62
     4
100
AcDbLine
 10
167.3159197315967
 20
110.8726818008361
 30
0.0
 11
167.1058349625908
 21
110.4083325586794
 31
0.0
  0
POINT
  5
A67
330
18
100
AcDbEntity
  8
DEFPOINTS
  6
ByBlock
 62
     0
100
AcDbPoint
 10
166.5063000306929
 20
110.4083325586793
 30
0.0
  0
LINE
  5
A68
102
{ACAD_REACTORS
330
A77
102
}
330
18
100
AcDbEntity
  8
ROGO
 62
     4
100
AcDbLine
 10
169.8732315273002
 20
111.6980911817072
 30
0.0
 11
169.7796781513591
 21
111.5090145156338
 31
0.0
  0
LINE
  5
A69
102
{ACAD_REACTORS
330
A77
102
}
330
18
100
AcDbEntity
  8
ROGO
 62
     4
100
AcDbLine
 10
169.7065310368504
 20
111.3611800585115
 30
0.0
 11
169.6315255233435
 21
111.2095896718652
 31
0.0
  0
LINE
  5
A6A
102
{ACAD_REACTORS
330
A77
102
}
330
18
100
AcDbEntity
  8
ROGO
 62
     4
100
AcDbLine
 10
169.5583753121377
 20
111.0617489561429
 30
0.0
 11
169.4648266420353
 21
110.8726818008361
 31
0.0
  0
LINE
  5
A6B
102
{ACAD_REACTORS
330
A59
102
}
330
18
100
AcDbEntity
  8
ROGO
 62
     4
100
AcDbLine
 10
170.1966294881928
 20
111.6980911817072
 30
0.0
 11
169.6014107420023
 21
110.8726818008361
 31
0.0
  0
LINE
  5
A6C
102
{ACAD_REACTORS
330
A59
102
}
330
18
100
AcDbEntity
  8
ROGO
 62
     4
100
AcDbLine
 10
170.171865765502
 20
111.0298346399829
 30
0.0
 11
170.0585397989635
 21
110.8726818008361
 31
0.0
  0
LINE
  5
A6D
102
{ACAD_REACTORS
330
A59
102
}
330
18
100
AcDbEntity
  8
ROGO
 62
     4
100
AcDbLine
 10
169.6014107420023
 20
110.8726818008361
 30
0.0
 11
170.0585397989635
 21
110.8726818008361
 31
0.0
  0
LINE
  5
A6E
102
{ACAD_REACTORS
330
A77
102
}
330
18
100
AcDbEntity
  8
ROGO
 62
     4
100
AcDbLine
 10
168.7568310007085
 20
111.6980911817072
 30
0.0
 11
168.3484261154436
 21
110.8726818008361
 31
0.0
  0
LINE
  5
A6F
102
{ACAD_REACTORS
330
A77
102
}
330
18
100
AcDbEntity
  8
ROGO
 62
     4
100
AcDbLine
 10
169.1929262453976
 20
111.5090145156338
 30
0.0
 11
169.119779130889
 21
111.3611800585115
 31
0.0
  0
LINE
  5
A70
102
{ACAD_REACTORS
330
A77
102
}
330
18
100
AcDbEntity
  8
ROGO
 62
     4
100
AcDbLine
 10
169.0447736173822
 20
111.2095896718652
 30
0.0
 11
168.9716234061761
 21
111.0617489561429
 31
0.0
  0
LINE
  5
A71
102
{ACAD_REACTORS
330
A77
102
}
330
18
100
AcDbEntity
  8
ROGO
 62
     4
100
AcDbLine
 10
168.3484261154436
 20
110.8726818008361
 30
0.0
 11
169.4648266420353
 21
110.8726818008361
 31
0.0
  0
LINE
  5
A72
102
{ACAD_REACTORS
330
A77
102
}
330
18
100
AcDbEntity
  8
ROGO
 62
     4
100
AcDbLine
 10
169.1929262453976
 20
111.5090145156338
 30
0.0
 11
169.7796781513591
 21
111.5090145156338
 31
0.0
  0
LINE
  5
A73
102
{ACAD_REACTORS
330
A77
102
}
330
18
100
AcDbEntity
  8
ROGO
 62
     4
100
AcDbLine
 10
169.119779130889
 20
111.3611800585115
 30
0.0
 11
169.7065310368504
 21
111.3611800585115
 31
0.0
  0
LINE
  5
A74
102
{ACAD_REACTORS
330
A77
102
}
330
18
100
AcDbEntity
  8
ROGO
 62
     4
100
AcDbLine
 10
168.9716234061761
 20
111.0617489561429
 30
0.0
 11
169.5583753121377
 21
111.0617489561429
 31
0.0
  0
LINE
  5
A75
102
{ACAD_REACTORS
330
A77
102
}
330
18
100
AcDbEntity
  8
ROGO
 62
     4
100
AcDbLine
 10
169.0447736173822
 20
111.2095896718652
 30
0.0
 11
169.6315255233435
 21
111.2095896718654
 31
0.0
  0
LINE
  5
A76
102
{ACAD_REACTORS
330
A77
102
}
330
18
100
AcDbEntity
  8
ROGO
 62
     4
100
AcDbLine
 10
168.7568310007085
 20
111.6980911817072
 30
0.0
 11
169.8732315273002
 21
111.6980911817073
 31
0.0
  0
HATCH
  5
A77
330
18
100
AcDbEntity
  8
ROGO
 62
     4
100
AcDbHatch
 10
0.0
 20
0.0
 30
0.0
210
0.0
220
0.0
230
1.0
  2
SOLID
 70
     1
 71
     1
 91
        1
 92
        1
 93
       12
 72
     1
 10
168.7568310007085
 20
111.6980911817072
 11
169.8732315273002
 21
111.6980911817073
 72
     1
 10
169.8732315273002
 20
111.6980911817072
 11
169.7796781513591
 21
111.5090145156338
 72
     1
 10
169.7796781513591
 20
111.5090145156338
 11
169.1929262453976
 21
111.5090145156338
 72
     1
 10
169.1929262453976
 20
111.5090145156338
 11
169.119779130889
 21
111.3611800585115
 72
     1
 10
169.119779130889
 20
111.3611800585115
 11
169.7065310368504
 21
111.3611800585115
 72
     1
 10
169.7065310368504
 20
111.3611800585115
 11
169.6315255233435
 21
111.2095896718652
 72
     1
 10
169.6315255233435
 20
111.2095896718654
 11
169.0447736173822
 21
111.2095896718652
 72
     1
 10
169.0447736173822
 20
111.2095896718652
 11
168.9716234061761
 21
111.0617489561429
 72
     1
 10
168.9716234061761
 20
111.0617489561429
 11
169.5583753121377
 21
111.0617489561429
 72
     1
 10
169.5583753121377
 20
111.0617489561429
 11
169.4648266420353
 21
110.8726818008361
 72
     1
 10
169.4648266420353
 20
110.8726818008361
 11
168.3484261154436
 21
110.8726818008361
 72
     1
 10
168.3484261154436
 20
110.8726818008361
 11
168.7568310007085
 21
111.6980911817072
 97
       12
330
A76
330
A68
330
A72
330
A6F
330
A73
330
A69
330
A75
330
A70
330
A74
330
A6A
330
A71
330
A6E
 75
     0
 76
     1
 98
        1
 10
123.0908145655945
 20
54.62472593516707
450
        0
451
        0
460
0.0
461
0.0
452
        0
462
0.0
453
        0
470

  0
SPLINE
  5
A78
102
{ACAD_REACTORS
330
A7A
102
}
330
18
100
AcDbEntity
  8
ROGO
 62
     4
100
AcDbSpline
210
0.0
220
0.0
230
1.0
 70
  1064
 71
     3
 72
    38
 73
    34
 74
    32
 42
0.000000001
 43
0.0000000001
 44
0.0000000001
 40
0.0
 40
0.0
 40
0.0
 40
0.0
 40
0.1136261594034074
 40
0.1493111343310236
 40
0.1951639008544896
 40
0.2333746144177548
 40
0.2656146743584471
 40
0.3084368315346996
 40
0.3303172661198519
 40
0.3549603788106195
 40
0.3912796895954514
 40
0.4324215876642971
 40
0.4591099340193893
 40
0.4881024314683056
 40
0.5203308953842921
 40
0.5692392224540811
 40
0.6157072335045122
 40
0.6373099799368789
 40
0.6619450223555641
 40
0.6911294122075144
 40
0.7119049474848174
 40
0.7293208292362826
 40
0.7541867739616756
 40
0.7815101877035439
 40
0.808833449313068
 40
0.8327413412544593
 40
0.8874946634917735
 40
0.9090974099242256
 40
0.9523029284499415
 40
0.9904946848125792
 40
1.063609939113566
 40
1.153826592371498
 40
1.284112567914926
 40
1.284112567914926
 40
1.284112567914926
 40
1.284112567914926
 10
173.0304976004883
 20
111.7015340218544
 30
0.0
 10
172.9926225957641
 20
111.6988584197522
 30
0.0
 10
172.9428527192863
 20
111.6953425288078
 30
0.0
 10
172.8796566134799
 20
111.6780286799453
 30
0.0
 10
172.8452077439156
 20
111.6574023107159
 30
0.0
 10
172.8093568095269
 20
111.6422409406484
 30
0.0
 10
172.7787905489656
 20
111.6197899581454
 30
0.0
 10
172.7478734217101
 20
111.6082211831603
 30
0.0
 10
172.726224302781
 20
111.5873606140509
 30
0.0
 10
172.7011672135062
 20
111.5746180780804
 30
0.0
 10
172.6812138084402
 20
111.5460965780512
 30
0.0
 10
172.6589115609369
 20
111.5194300090541
 30
0.0
 10
172.6330381481093
 20
111.4999646029699
 30
0.0
 10
172.611803490957
 20
111.4795202315045
 30
0.0
 10
172.5923236456705
 20
111.4479684234984
 30
0.0
 10
172.5807946013832
 20
111.4060454135965
 30
0.0
 10
172.5482961607097
 20
111.3795767370493
 30
0.0
 10
172.5434029130598
 20
111.3477534901626
 30
0.0
 10
172.5254270344839
 20
111.3289783100059
 30
0.0
 10
172.5176104937846
 20
111.304742249713
 30
0.0
 10
172.514633578838
 20
111.2825377375012
 30
0.0
 10
172.5110605710566
 20
111.2618002602097
 30
0.0
 10
172.5017142593775
 20
111.2399853501362
 30
0.0
 10
172.5047649277564
 20
111.2130381872069
 30
0.0
 10
172.5038958839227
 20
111.1869443549226
 30
0.0
 10
172.504407317239
 20
111.1517168687959
 30
0.0
 10
172.502561483571
 20
111.1174185789739
 30
0.0
 10
172.5172812837277
 20
111.0800939046873
 30
0.0
 10
172.5259919729621
 20
111.0468241212607
 30
0.0
 10
172.5498476124157
 20
111.0007580716888
 30
0.0
 10
172.5909980905468
 20
110.9476078109053
 30
0.0
 10
172.6692491668702
 20
110.8830934645102
 30
0.0
 10
172.7444898646179
 20
110.8765487843754
 30
0.0
 10
172.7889465124136
 20
110.8726818008361
 30
0.0
 11
173.0304976004883
 21
111.7015340218544
 31
0.0
 11
172.9176957397424
 21
111.6878722389173
 31
0.0
 11
172.8835133658363
 21
111.6776261299129
 31
0.0
 11
172.8424946782813
 21
111.6571336076396
 31
0.0
 11
172.8083123043751
 21
111.6400566071668
 31
0.0
 11
172.7809665126718
 21
111.6229794545616
 31
0.0
 11
172.7433659819411
 21
111.6024870844206
 31
0.0
 11
172.7262746607109
 21
111.5888254536159
 31
0.0
 11
172.7057651826565
 21
111.5751636706787
 31
0.0
 11
172.6818375477775
 21
111.5478404090692
 31
0.0
 11
172.6544917560742
 21
111.5171017777915
 31
0.0
 11
172.6339822780197
 21
111.5000246251863
 31
0.0
 11
172.6134730685193
 21
111.4795322550453
 31
0.0
 11
172.596381747289
 21
111.4522089934357
 31
0.0
 11
172.5758725377886
 21
111.407808579221
 31
0.0
 11
172.5485264775312
 21
111.3702390564748
 31
0.0
 11
172.5416901638825
 21
111.3497465342016
 31
0.0
 11
172.5280172680308
 21
111.3292541640605
 31
0.0
 11
172.5177625290035
 21
111.3019307503186
 31
0.0
 11
172.5143441036251
 21
111.2814383801777
 31
0.0
 11
172.5109259468007
 21
111.2643612275724
 31
0.0
 11
172.5040896331518
 21
111.2404534877633
 31
0.0
 11
172.5040896331518
 21
111.2131300740214
 31
0.0
 11
172.5040896331518
 21
111.1858068124119
 31
0.0
 11
172.5040896331518
 21
111.1618989204705
 31
0.0
 11
172.5075077899762
 21
111.1072523972513
 31
0.0
 11
172.5143441036251
 21
111.0867598749781
 31
0.0
 11
172.5280172680308
 21
111.0457749825638
 31
0.0
 11
172.5451083207068
 21
111.0116208294856
 31
0.0
 11
172.5895454336403
 21
110.9535589365985
 31
0.0
 11
172.6613283382771
 21
110.898912261247
 31
0.0
 11
172.7889465124136
 21
110.8726818008361
 31
0.0
  0
LINE
  5
A79
102
{ACAD_REACTORS
330
A7A
102
}
330
18
100
AcDbEntity
  8
ROGO
 62
     4
100
AcDbLine
 10
172.7889465124134
 20
110.8726818008361
 30
0.0
 11
173.2606626277891
 21
110.8726818008361
 31
0.0
  0
HATCH
  5
A7A
330
18
100
AcDbEntity
  8
ROGO
 62
     4
100
AcDbHatch
 10
0.0
 20
0.0
 30
0.0
210
0.0
220
0.0
230
1.0
  2
SOLID
 70
     1
 71
     1
 91
        1
 92
        5
 93
        6
 72
     4
 94
        3
 73
     0
 74
     0
 95
       38
 96
       34
 40
0.0
 40
0.0
 40
0.0
 40
0.0
 40
0.1136261594034074
 40
0.1493111343310236
 40
0.1951639008544896
 40
0.2333746144177548
 40
0.2656146743584471
 40
0.3084368315346996
 40
0.3303172661198519
 40
0.3549603788106195
 40
0.3912796895954514
 40
0.4324215876642971
 40
0.4591099340193893
 40
0.4881024314683056
 40
0.5203308953842921
 40
0.5692392224540811
 40
0.6157072335045122
 40
0.6373099799368789
 40
0.6619450223555641
 40
0.6911294122075144
 40
0.7119049474848174
 40
0.7293208292362826
 40
0.7541867739616756
 40
0.7815101877035439
 40
0.808833449313068
 40
0.8327413412544593
 40
0.8874946634917735
 40
0.9090974099242256
 40
0.9523029284499415
 40
0.9904946848125792
 40
1.063609939113566
 40
1.153826592371498
 40
1.284112567914926
 40
1.284112567914926
 40
1.284112567914926
 40
1.284112567914926
 10
173.0304976004883
 20
111.7015340218544
 10
172.9926225957641
 20
111.6988584197522
 10
172.9428527192863
 20
111.6953425288078
 10
172.8796566134799
 20
111.6780286799453
 10
172.8452077439156
 20
111.6574023107159
 10
172.8093568095269
 20
111.6422409406484
 10
172.7787905489656
 20
111.6197899581454
 10
172.7478734217101
 20
111.6082211831603
 10
172.726224302781
 20
111.5873606140509
 10
172.7011672135062
 20
111.5746180780804
 10
172.6812138084402
 20
111.5460965780512
 10
172.6589115609369
 20
111.5194300090541
 10
172.6330381481093
 20
111.4999646029699
 10
172.611803490957
 20
111.4795202315045
 10
172.5923236456705
 20
111.4479684234984
 10
172.5807946013832
 20
111.4060454135965
 10
172.5482961607097
 20
111.3795767370493
 10
172.5434029130598
 20
111.3477534901626
 10
172.5254270344839
 20
111.3289783100059
 10
172.5176104937846
 20
111.304742249713
 10
172.514633578838
 20
111.2825377375012
 10
172.5110605710566
 20
111.2618002602097
 10
172.5017142593775
 20
111.2399853501362
 10
172.5047649277564
 20
111.2130381872069
 10
172.5038958839227
 20
111.1869443549226
 10
172.504407317239
 20
111.1517168687959
 10
172.502561483571
 20
111.1174185789739
 10
172.5172812837277
 20
111.0800939046873
 10
172.5259919729621
 20
111.0468241212607
 10
172.5498476124157
 20
111.0007580716888
 10
172.5909980905468
 20
110.9476078109053
 10
172.6692491668702
 20
110.8830934645102
 10
172.7444898646179
 20
110.8765487843754
 10
172.7889465124136
 20
110.8726818008361
 72
     1
 10
172.7889465124136
 20
110.8726818008361
 11
173.2606626277891
 21
110.8726818008361
 72
     4
 94
        3
 73
     0
 74
     0
 95
       11
 96
        7
 40
0.1647869275458134
 40
0.1647869275458134
 40
0.1647869275458134
 40
0.1647869275458134
 40
0.2545010798212313
 40
0.5111620267764021
 40
0.76029982710339
 40
0.8850764140209602
 40
0.8850764140209602
 40
0.8850764140209602
 40
0.8850764140209602
 10
173.2606626277891
 20
110.8726818008361
 10
173.2672449969995
 20
110.8725549446749
 10
173.2926586996381
 20
110.8720651689339
 10
173.3360910220763
 20
110.8783047326511
 10
173.3817876112168
 20
110.884283980918
 10
173.4090306645781
 20
110.8886384870059
 10
173.4178172197329
 20
110.8910842279823
 72
     4
 94
        3
 73
     0
 74
     0
 95
        9
 96
        5
 40
0.0
 40
0.0
 40
0.0
 40
0.0
 40
0.0713930700782094
 40
0.1673855092790598
 40
0.1673855092790598
 40
0.1673855092790598
 40
0.1673855092790598
 10
173.4178172197329
 20
110.8910842279823
 10
173.440750739415
 20
110.8981005897757
 10
173.4945198078605
 20
110.9145508879741
 10
173.5389453754812
 20
110.9493187988926
 10
173.564422602376
 20
110.9692575414359
 72
     4
 94
        3
 73
     0
 74
     0
 95
       25
 96
       21
 40
0.0
 40
0.0
 40
0.0
 40
0.0
 40
0.1655259189148541
 40
0.3412380755365301
 40
0.5940540902285259
 40
0.7697671103696213
 40
0.9377330196075416
 40
1.11479469302833
 40
1.274661249598184
 40
1.574522170874767
 40
1.815540668866877
 40
2.158490918734449
 40
2.536227739636604
 40
2.738070817316548
 40
2.925680654369045
 40
3.162706124480894
 40
3.395643218188266
 40
3.64847812995886
 40
3.928509979727305
 40
4.337226830236034
 40
4.337226830236034
 40
4.337226830236034
 40
4.337226830236034
 10
173.564422602376
 20
110.9692575414359
 10
173.5737837466281
 20
110.9769932465088
 10
173.5915392778625
 20
110.9953916987468
 10
173.6230316362103
 20
111.0252114906367
 10
173.6507832995821
 20
111.0599539145447
 10
173.6850169743355
 20
111.0881114315234
 10
173.702838918382
 20
111.1225360833118
 10
173.7285278439092
 20
111.1496103386967
 10
173.7500766458358
 20
111.1914238555172
 10
173.7683597392445
 20
111.2394543404174
 10
173.7857901442266
 20
111.3020611646929
 10
173.792469655232
 20
111.3726909685383
 10
173.7825831482772
 20
111.441025268313
 10
173.7586998466871
 20
111.4921029127833
 10
173.7411411463417
 20
111.5346708652237
 10
173.7144936187611
 20
111.5749902112994
 10
173.6840923913854
 20
111.6188419590034
 10
173.6412624452753
 20
111.6551144537741
 10
173.5852881031605
 20
111.698864927471
 10
173.5331521830528
 20
111.7005400008126
 10
173.5022137158639
 20
111.7015340218544
 72
     1
 10
173.5022137158639
 20
111.7015340218544
 11
173.0304976004883
 21
111.7015340218544
 97
        6
330
A91
330
A92
330
A78
330
A79
330
A93
330
A94
 75
     0
 76
     1
 47
0.088756267210375
 98
        1
 10
173.1718575062299
 20
111.4726017169339
450
        0
451
        0
460
0.0
461
0.0
452
        0
462
0.0
453
        0
470

  0
LINE
  5
A7B
102
{ACAD_REACTORS
330
A59
102
}
330
18
100
AcDbEntity
  8
ROGO
 62
     4
100
AcDbLine
 10
171.2235658554663
 20
110.8726818008361
 30
0.0
 11
170.7633187734215
 21
110.8726818008361
 31
0.0
  0
LINE
  5
A7C
330
18
100
AcDbEntity
  8
ROGO
 62
     4
100
AcDbLine
 10
171.4496134392339
 20
110.8726818008361
 30
0.0
 11
172.1605494047148
 21
110.8726818008361
 31
0.0
  0
LINE
  5
A7D
330
18
100
AcDbEntity
  8
ROGO
 62
     4
100
AcDbLine
 10
171.9024505975163
 20
111.3909853764187
 30
0.0
 11
172.4189923071474
 21
111.3909853764187
 31
0.0
  0
LINE
  5
A7E
330
18
100
AcDbEntity
  8
ROGO
 62
     4
100
AcDbLine
 10
171.7858786021758
 20
111.1797843539582
 30
0.0
 11
172.3136806561906
 21
111.1797843539582
 31
0.0
  0
SPLINE
  5
A7F
330
18
100
AcDbEntity
  8
ROGO
 62
     4
100
AcDbSpline
210
0.0
220
0.0
230
1.0
 70
  1064
 71
     3
 72
    26
 73
    22
 74
    20
 42
0.000000001
 43
0.0000000001
 44
0.0000000001
 40
0.0
 40
0.0
 40
0.0
 40
0.0
 40
0.1497387181252658
 40
0.2499771953214993
 40
0.3222573004900167
 40
0.3762265162603571
 40
0.4462274216455149
 40
0.4973212583749337
 40
0.589584818590426
 40
0.664686030168686
 40
0.7157668877127728
 40
0.765854283863715
 40
0.8554508979898091
 40
0.9188063979748843
 40
0.9529282295865829
 40
1.001397283447203
 40
1.036397874782878
 40
1.087102176109986
 40
1.115796424838007
 40
1.178238328707534
 40
1.206749844442311
 40
1.206749844442311
 40
1.206749844442311
 40
1.206749844442311
 10
171.7455269063726
 20
111.6980911817073
 30
0.0
 10
171.6947032718497
 20
111.6950589565183
 30
0.0
 10
171.6098571493964
 20
111.6899968913569
 30
0.0
 10
171.5166966230856
 20
111.633402872093
 30
0.0
 10
171.4484417675943
 20
111.6005015963113
 30
0.0
 10
171.3997624874341
 20
111.5557751148904
 30
0.0
 10
171.3640803777457
 20
111.5095759267902
 30
0.0
 10
171.3190963798748
 20
111.4545299329098
 30
0.0
 10
171.2824132150301
 20
111.3904311005329
 30
0.0
 10
171.2637327092879
 20
111.3197830127021
 30
0.0
 10
171.2471856945986
 20
111.2634760767878
 30
0.0
 10
171.2349141514927
 20
111.2007293449161
 30
0.0
 10
171.2380363794618
 20
111.132940801349
 30
0.0
 10
171.2425075528062
 20
111.0699822724963
 30
0.0
 10
171.2624702545443
 20
111.0250393090802
 30
0.0
 10
171.2852042358198
 20
110.9930430161106
 30
0.0
 10
171.313041684552
 20
110.9578026466669
 30
0.0
 10
171.3435019410146
 20
110.9344630640967
 30
0.0
 10
171.3686950594486
 20
110.8921818418893
 30
0.0
 10
171.4127947633935
 20
110.8867864530013
 30
0.0
 10
171.4408262896609
 20
110.8760480188063
 30
0.0
 10
171.4496134392339
 20
110.8726818008361
 30
0.0
 11
171.7455269063726
 21
111.6980911817073
 31
0.0
 11
171.5975701728033
 21
111.6750588414592
 31
0.0
 11
171.5078993079981
 21
111.6302605343961
 31
0.0
 11
171.4451298315406
 21
111.594421917955
 31
0.0
 11
171.4047781357373
 21
111.5585831554671
 31
0.0
 11
171.3599428322408
 21
111.5048251577819
 31
0.0
 11
171.3285580940121
 21
111.4645066960299
 31
0.0
 11
171.2837225327036
 21
111.3838696264788
 31
0.0
 11
171.2613050098612
 21
111.3121922475498
 31
0.0
 11
171.2478544445934
 21
111.2629140951756
 31
0.0
 11
171.238887229207
 21
111.2136359428016
 31
0.0
 11
171.238887229207
 21
111.1240393286755
 31
0.0
 11
171.2478544445934
 21
111.0613216403685
 31
0.0
 11
171.2613050098612
 21
111.0299627231915
 31
0.0
 11
171.2882061403966
 21
110.9896442614394
 31
0.0
 11
171.3106239210511
 21
110.9627651895734
 31
0.0
 11
171.346492009161
 21
110.9269265731323
 31
0.0
 11
171.3644261821222
 21
110.9045273465773
 31
0.0
 11
171.4227123086983
 21
110.8821282660693
 31
0.0
 11
171.4496134392339
 21
110.8726818008361
 31
0.0
  0
SPLINE
  5
A80
330
18
100
AcDbEntity
  8
ROGO
 62
     4
100
AcDbSpline
210
0.0
220
0.0
230
1.0
 70
  1064
 71
     3
 72
    16
 73
    12
 74
    10
 42
0.000000001
 43
0.0000000001
 44
0.0000000001
 40
0.0
 40
0.0
 40
0.0
 40
0.0
 40
0.0789431095024312
 40
0.1175011255471519
 40
0.1365153000524191
 40
0.1565531436479528
 40
0.1852472783690513
 40
0.211374717131579
 40
0.2386250270589035
 40
0.2843121406998229
 40
0.3295328357212768
 40
0.3295328357212768
 40
0.3295328357212768
 40
0.3295328357212768
 10
171.9024505975163
 20
111.3909853764188
 30
0.0
 10
171.875716880446
 20
111.3869096408963
 30
0.0
 10
171.835925670477
 20
111.380843202491
 30
0.0
 10
171.7999424525445
 20
111.352359283068
 30
0.0
 10
171.7796504160006
 20
111.3354132470016
 30
0.0
 10
171.7727469747648
 20
111.3129718848731
 30
0.0
 10
171.7542064994945
 20
111.2957403636587
 30
0.0
 10
171.7389238741573
 20
111.2720587068472
 30
0.0
 10
171.7352747296525
 20
111.2395315676319
 30
0.0
 10
171.7379532852668
 20
111.193884684904
 30
0.0
 10
171.7699582322232
 20
111.1844683602327
 30
0.0
 10
171.7858786021758
 20
111.1797843539581
 30
0.0
 11
171.9024505975163
 21
111.3909853764188
 31
0.0
 11
171.8262305557911
 21
111.3704300905459
 31
0.0
 11
171.7948458175622
 21
111.3480310100378
 31
0.0
 11
171.7813952522945
 21
111.3345914741047
 31
0.0
 11
171.7724280369081
 21
111.3166720928606
 31
0.0
 11
171.754493863947
 21
111.2942730123528
 31
0.0
 11
171.7410432986792
 21
111.2718737857977
 31
0.0
 11
171.736559690986
 21
111.2449948599786
 31
0.0
 11
171.7455269063725
 21
111.2001964068686
 31
0.0
 11
171.7858786021758
 21
111.1797843539581
 31
0.0
  0
LINE
  5
A81
330
18
100
AcDbEntity
  8
ROGO
 62
     4
100
AcDbLine
 10
172.3136806561906
 20
111.1797843539582
 30
0.0
 11
172.1605494047148
 21
110.8726818008361
 31
0.0
  0
LINE
  5
A82
102
{ACAD_REACTORS
330
A59
102
}
330
18
100
AcDbEntity
  8
ROGO
 62
     4
100
AcDbLine
 10
170.856886302352
 20
111.6980911817072
 30
0.0
 11
171.2235658554663
 21
110.8726818008361
 31
0.0
  0
LINE
  5
A83
102
{ACAD_REACTORS
330
A59
102
}
330
18
100
AcDbEntity
  8
ROGO
 62
     4
100
AcDbLine
 10
170.4946541551501
 20
111.4774558994898
 30
0.0
 11
170.619870832373
 21
111.1955884783491
 31
0.0
  0
LINE
  5
A84
102
{ACAD_REACTORS
330
A59
102
}
330
18
100
AcDbEntity
  8
ROGO
 62
     4
100
AcDbLine
 10
170.6935052552275
 20
111.0298346399829
 30
0.0
 11
170.7633187734215
 21
110.8726818008361
 31
0.0
  0
LINE
  5
A85
330
18
100
AcDbEntity
  8
ROGO
 62
     4
100
AcDbLine
 10
172.5721251802585
 20
111.6980911817072
 30
0.0
 11
172.4189923071474
 21
111.3909853764187
 31
0.0
  0
LINE
  5
A86
330
18
100
AcDbEntity
  8
ROGO
 62
     4
100
AcDbLine
 10
171.7455269063727
 20
111.6980911817073
 30
0.0
 11
172.5721251802585
 21
111.6980911817073
 31
0.0
  0
HATCH
  5
A87
330
18
100
AcDbEntity
  8
ROGO
 62
     4
100
AcDbHatch
 10
0.0
 20
0.0
 30
0.0
210
0.0
220
0.0
230
1.0
  2
SOLID
 70
     1
 71
     0
 91
        1
 92
        5
 93
        8
 72
     1
 10
171.9024505975163
 20
111.3909853764188
 11
172.4189923071474
 21
111.3909853764187
 72
     1
 10
172.4189923071474
 20
111.3909853764187
 11
172.5721251802586
 21
111.6980911817073
 72
     1
 10
172.5721251802585
 20
111.6980911817073
 11
171.7455269063727
 21
111.6980911817073
 72
     4
 94
        3
 73
     0
 74
     0
 95
       26
 96
       22
 40
0.0
 40
0.0
 40
0.0
 40
0.0
 40
0.1497387181253219
 40
0.2499771953214791
 40
0.322257300489986
 40
0.3762265162603641
 40
0.4462274216454783
 40
0.4973212583749084
 40
0.5895848185904256
 40
0.6646860301687178
 40
0.7157668877127436
 40
0.7658542838637136
 40
0.8554508979898077
 40
0.9188063979749252
 40
0.9529282295865694
 40
1.001397283447265
 40
1.036397874782852
 40
1.087102176110009
 40
1.115796424837989
 40
1.17823832870748
 40
1.206749844442261
 40
1.206749844442261
 40
1.206749844442261
 40
1.206749844442261
 10
171.7455269063726
 20
111.6980911817073
 10
171.6947032718497
 20
111.6950589565183
 10
171.6098571493964
 20
111.689996891357
 10
171.5166966230857
 20
111.633402872093
 10
171.4484417675941
 20
111.6005015963114
 10
171.3997624874342
 20
111.5557751148904
 10
171.3640803777455
 20
111.5095759267902
 10
171.3190963798749
 20
111.4545299329099
 10
171.2824132150301
 20
111.3904311005329
 10
171.263732709288
 20
111.3197830127021
 10
171.2471856945985
 20
111.2634760767878
 10
171.2349141514928
 20
111.2007293449161
 10
171.2380363794618
 20
111.132940801349
 10
171.2425075528062
 20
111.0699822724963
 10
171.2624702545444
 20
111.0250393090802
 10
171.28520423582
 20
110.9930430161106
 10
171.3130416845519
 20
110.9578026466668
 10
171.3435019410147
 20
110.9344630640968
 10
171.3686950594486
 20
110.8921818418892
 10
171.4127947633935
 20
110.8867864530013
 10
171.4408262896608
 20
110.8760480188063
 10
171.4496134392339
 20
110.8726818008361
 72
     1
 10
171.4496134392339
 20
110.8726818008361
 11
172.1605494047148
 21
110.8726818008361
 72
     1
 10
172.1605494047148
 20
110.8726818008361
 11
172.3136806561906
 21
111.1797843539582
 72
     1
 10
172.3136806561906
 20
111.1797843539582
 11
171.7858786021758
 21
111.1797843539582
 72
     4
 94
        3
 73
     0
 74
     0
 95
       16
 96
       12
 40
0.0
 40
0.0
 40
0.0
 40
0.0
 40
0.0452206950214856
 40
0.0909078086623828
 40
0.1181581185896792
 40
0.1442855573522069
 40
0.1729796920733497
 40
0.1930175356688453
 40
0.2120317101741125
 40
0.2505897262188168
 40
0.3295328357212353
 40
0.3295328357212353
 40
0.3295328357212353
 40
0.3295328357212353
 10
171.7858786021758
 20
111.1797843539581
 10
171.7699582322232
 20
111.1844683602328
 10
171.7379532852669
 20
111.1938846849041
 10
171.7352747296524
 20
111.239531567632
 10
171.7389238741574
 20
111.2720587068472
 10
171.7542064994946
 20
111.2957403636587
 10
171.7727469747649
 20
111.3129718848731
 10
171.7796504160006
 20
111.3354132470017
 10
171.7999424525446
 20
111.3523592830679
 10
171.8359256704771
 20
111.380843202491
 10
171.875716880446
 20
111.3869096408963
 10
171.9024505975163
 20
111.3909853764188
 97
        0
 75
     0
 76
     1
 47
0.0514683685270805
 98
        1
 10
172.0346189270183
 20
111.514345376744
450
        0
451
        0
460
0.0
461
0.0
452
        0
462
0.0
453
        0
470

  0
LINE
  5
A88
102
{ACAD_REACTORS
330
A90
102
}
330
18
100
AcDbEntity
  8
ROGO
 62
     4
100
AcDbLine
 10
174.1091558848354
 20
110.8726818008361
 30
0.0
 11
174.8200918503163
 21
110.8726818008361
 31
0.0
  0
LINE
  5
A89
102
{ACAD_REACTORS
330
A90
102
}
330
18
100
AcDbEntity
  8
ROGO
 62
     4
100
AcDbLine
 10
174.4050693519743
 20
111.6980911817072
 30
0.0
 11
175.2316676258601
 21
111.6980911817072
 31
0.0
  0
SPLINE
  5
A8A
102
{ACAD_REACTORS
330
A90
102
}
330
18
100
AcDbEntity
  8
ROGO
 62
     4
100
AcDbSpline
210
0.0
220
0.0
230
1.0
 70
  1064
 71
     3
 72
    16
 73
    12
 74
    10
 42
0.000000001
 43
0.0000000001
 44
0.0000000001
 40
0.0
 40
0.0
 40
0.0
 40
0.0
 40
0.0789431095024861
 40
0.1175011255470449
 40
0.1365153000524126
 40
0.1565531436479336
 40
0.1852472783690321
 40
0.2113747171315452
 40
0.2386250270588976
 40
0.2843121406999286
 40
0.329532835721344
 40
0.329532835721344
 40
0.329532835721344
 40
0.329532835721344
 10
174.5619930431179
 20
111.3909853764188
 30
0.0
 10
174.5352593260476
 20
111.3869096408964
 30
0.0
 10
174.4954681160786
 20
111.3808432024912
 30
0.0
 10
174.4594848981462
 20
111.3523592830678
 30
0.0
 10
174.4391928616022
 20
111.3354132470017
 30
0.0
 10
174.4322894203665
 20
111.3129718848731
 30
0.0
 10
174.413748945096
 20
111.2957403636587
 30
0.0
 10
174.3984663197591
 20
111.2720587068472
 30
0.0
 10
174.3948171752538
 20
111.2395315676319
 30
0.0
 10
174.3974957308685
 20
111.193884684904
 30
0.0
 10
174.4295006778248
 20
111.1844683602327
 30
0.0
 10
174.4454210477774
 20
111.1797843539581
 30
0.0
 11
174.5619930431179
 21
111.3909853764188
 31
0.0
 11
174.4857730013926
 21
111.3704300905459
 31
0.0
 11
174.4543882631639
 21
111.3480310100378
 31
0.0
 11
174.4409376978961
 21
111.3345914741047
 31
0.0
 11
174.4319704825097
 21
111.3166720928606
 31
0.0
 11
174.4140363095486
 21
111.2942730123528
 31
0.0
 11
174.4005857442808
 21
111.2718737857977
 31
0.0
 11
174.3961021365874
 21
111.2449948599786
 31
0.0
 11
174.4050693519741
 21
111.2001964068685
 31
0.0
 11
174.4454210477774
 21
111.1797843539581
 31
0.0
  0
SPLINE
  5
A8B
102
{ACAD_REACTORS
330
A90
102
}
330
18
100
AcDbEntity
  8
ROGO
 62
     4
100
AcDbSpline
210
0.0
220
0.0
230
1.0
 70
  1064
 71
     3
 72
    26
 73
    22
 74
    20
 42
0.000000001
 43
0.0000000001
 44
0.0000000001
 40
0.0
 40
0.0
 40
0.0
 40
0.0
 40
0.1497387181252658
 40
0.2499771953213976
 40
0.3222573004899397
 40
0.3762265162602588
 40
0.4462274216454894
 40
0.4973212583749083
 40
0.5895848185905014
 40
0.6646860301686325
 40
0.7157668877127193
 40
0.7658542838636665
 40
0.8554508979897606
 40
0.9188063979748399
 40
0.9529282295866167
 40
1.001397283447245
 40
1.036397874782683
 40
1.087102176109972
 40
1.115796424837905
 40
1.178238328707547
 40
1.206749844442318
 40
1.206749844442318
 40
1.206749844442318
 40
1.206749844442318
 10
174.4050693519741
 20
111.6980911817073
 30
0.0
 10
174.3542457174513
 20
111.6950589565183
 30
0.0
 10
174.269399594998
 20
111.6899968913569
 30
0.0
 10
174.1762390686871
 20
111.633402872093
 30
0.0
 10
174.1079842131959
 20
111.6005015963113
 30
0.0
 10
174.0593049330357
 20
111.5557751148904
 30
0.0
 10
174.0236228233472
 20
111.5095759267902
 30
0.0
 10
173.9786388254763
 20
111.4545299329098
 30
0.0
 10
173.9419556606316
 20
111.3904311005329
 30
0.0
 10
173.9232751548895
 20
111.3197830127021
 30
0.0
 10
173.9067281402001
 20
111.2634760767877
 30
0.0
 10
173.8944565970943
 20
111.2007293449162
 30
0.0
 10
173.8975788250633
 20
111.132940801349
 30
0.0
 10
173.9020499984078
 20
111.0699822724963
 30
0.0
 10
173.9220127001458
 20
111.0250393090801
 30
0.0
 10
173.9447466814217
 20
110.9930430161107
 30
0.0
 10
173.9725841301534
 20
110.9578026466667
 30
0.0
 10
174.0030443866163
 20
110.9344630640968
 30
0.0
 10
174.0282375050501
 20
110.8921818418892
 30
0.0
 10
174.072337208995
 20
110.8867864530012
 30
0.0
 10
174.1003687352624
 20
110.8760480188062
 30
0.0
 10
174.1091558848355
 20
110.8726818008361
 30
0.0
 11
174.4050693519741
 21
111.6980911817073
 31
0.0
 11
174.2571126184048
 21
111.6750588414592
 31
0.0
 11
174.1674417535998
 21
111.6302605343961
 31
0.0
 11
174.1046722771422
 21
111.594421917955
 31
0.0
 11
174.0643205813389
 21
111.5585831554671
 31
0.0
 11
174.0194852778423
 21
111.5048251577819
 31
0.0
 11
173.9881005396136
 21
111.4645066960299
 31
0.0
 11
173.9432649783051
 21
111.3838696264787
 31
0.0
 11
173.9208474554628
 21
111.3121922475498
 31
0.0
 11
173.907396890195
 21
111.2629140951756
 31
0.0
 11
173.8984296748085
 21
111.2136359428016
 31
0.0
 11
173.8984296748085
 21
111.1240393286755
 31
0.0
 11
173.907396890195
 21
111.0613216403685
 31
0.0
 11
173.9208474554628
 21
111.0299627231914
 31
0.0
 11
173.9477485859984
 21
110.9896442614394
 31
0.0
 11
173.9701663666525
 21
110.9627651895734
 31
0.0
 11
174.0060344547626
 21
110.9269265731323
 31
0.0
 11
174.0239686277237
 21
110.9045273465773
 31
0.0
 11
174.0822547542999
 21
110.8821282660692
 31
0.0
 11
174.1091558848355
 21
110.8726818008361
 31
0.0
  0
LINE
  5
A8C
102
{ACAD_REACTORS
330
A90
102
}
330
18
100
AcDbEntity
  8
ROGO
 62
     4
100
AcDbLine
 10
174.9732231017921
 20
111.1797843539581
 30
0.0
 11
174.8200918503163
 21
110.8726818008361
 31
0.0
  0
LINE
  5
A8D
102
{ACAD_REACTORS
330
A90
102
}
330
18
100
AcDbEntity
  8
ROGO
 62
     4
100
AcDbLine
 10
174.4454210477774
 20
111.1797843539581
 30
0.0
 11
174.9732231017921
 21
111.1797843539581
 31
0.0
  0
LINE
  5
A8E
102
{ACAD_REACTORS
330
A90
102
}
330
18
100
AcDbEntity
  8
ROGO
 62
     4
100
AcDbLine
 10
174.561993043118
 20
111.3909853764187
 30
0.0
 11
175.0785347527491
 21
111.3909853764187
 31
0.0
  0
LINE
  5
A8F
102
{ACAD_REACTORS
330
A90
102
}
330
18
100
AcDbEntity
  8
ROGO
 62
     4
100
AcDbLine
 10
175.2316676258601
 20
111.6980911817072
 30
0.0
 11
175.0785347527491
 21
111.3909853764187
 31
0.0
  0
HATCH
  5
A90
330
18
100
AcDbEntity
  8
ROGO
 62
     4
100
AcDbHatch
 10
0.0
 20
0.0
 30
0.0
210
0.0
220
0.0
230
1.0
  2
SOLID
 70
     1
 71
     1
 91
        1
 92
        5
 93
        8
 72
     4
 94
        3
 73
     0
 74
     0
 95
       26
 96
       22
 40
0.0
 40
0.0
 40
0.0
 40
0.0
 40
0.1497387181252096
 40
0.249977195321316
 40
0.3222573004898229
 40
0.3762265162602435
 40
0.4462274216454305
 40
0.4973212583748257
 40
0.5895848185904203
 40
0.6646860301686242
 40
0.7157668877126349
 40
0.7658542838636154
 40
0.8554508979897093
 40
0.9188063979748347
 40
0.9529282295865611
 40
1.001397283447224
 40
1.036397874782666
 40
1.087102176109905
 40
1.115796424837849
 40
1.178238328707432
 40
1.20674984444223
 40
1.20674984444223
 40
1.20674984444223
 40
1.20674984444223
 10
174.4050693519741
 20
111.6980911817073
 10
174.3542457174511
 20
111.6950589565183
 10
174.2693995949979
 20
111.6899968913569
 10
174.1762390686873
 20
111.633402872093
 10
174.1079842131958
 20
111.6005015963114
 10
174.0593049330358
 20
111.5557751148904
 10
174.0236228233471
 20
111.5095759267902
 10
173.9786388254764
 20
111.4545299329098
 10
173.9419556606315
 20
111.3904311005329
 10
173.9232751548896
 20
111.3197830127021
 10
173.9067281402002
 20
111.2634760767878
 10
173.8944565970943
 20
111.2007293449162
 10
173.8975788250634
 20
111.132940801349
 10
173.9020499984079
 20
111.0699822724964
 10
173.9220127001459
 20
111.0250393090801
 10
173.9447466814217
 20
110.9930430161107
 10
173.9725841301534
 20
110.9578026466667
 10
174.0030443866163
 20
110.9344630640968
 10
174.0282375050501
 20
110.8921818418892
 10
174.072337208995
 20
110.8867864530012
 10
174.1003687352624
 20
110.8760480188062
 10
174.1091558848355
 20
110.8726818008361
 72
     1
 10
174.1091558848355
 20
110.8726818008361
 11
174.8200918503163
 21
110.8726818008361
 72
     1
 10
174.8200918503163
 20
110.8726818008361
 11
174.9732231017921
 21
111.1797843539581
 72
     1
 10
174.9732231017921
 20
111.1797843539581
 11
174.4454210477774
 21
111.1797843539581
 72
     4
 94
        3
 73
     0
 74
     0
 95
       16
 96
       12
 40
0.0
 40
0.0
 40
0.0
 40
0.0
 40
0.0452206950214343
 40
0.090907808662443
 40
0.1181581185897394
 40
0.1442855573522671
 40
0.17297969207341
 40
0.193017535668931
 40
0.2120317101742384
 40
0.2505897262187575
 40
0.3295328357212859
 40
0.3295328357212859
 40
0.3295328357212859
 40
0.3295328357212859
 10
174.4454210477774
 20
111.1797843539581
 10
174.4295006778248
 20
111.1844683602327
 10
174.3974957308684
 20
111.193884684904
 10
174.394817175254
 20
111.2395315676319
 10
174.398466319759
 20
111.2720587068472
 10
174.4137489450961
 20
111.2957403636587
 10
174.4322894203664
 20
111.3129718848731
 10
174.4391928616023
 20
111.3354132470017
 10
174.4594848981462
 20
111.3523592830678
 10
174.4954681160786
 20
111.3808432024912
 10
174.5352593260476
 20
111.3869096408964
 10
174.5619930431179
 20
111.3909853764188
 72
     1
 10
174.5619930431178
 20
111.3909853764187
 11
175.0785347527491
 21
111.3909853764188
 72
     1
 10
175.0785347527491
 20
111.3909853764188
 11
175.2316676258601
 21
111.6980911817072
 72
     1
 10
175.2316676258601
 20
111.6980911817072
 11
174.4050693519739
 21
111.6980911817072
 97
        8
330
A89
330
A8B
330
A88
330
A8C
330
A8D
330
A8A
330
A8E
330
A8F
 75
     0
 76
     1
 47
0.0514683685270805
 98
        1
 10
174.547703855437
 20
111.5469559166084
450
        0
451
        0
460
0.0
461
0.0
452
        0
462
0.0
453
        0
470

  0
SPLINE
  5
A91
102
{ACAD_REACTORS
330
A7A
102
}
330
18
100
AcDbEntity
  8
ROGO
 62
     4
100
AcDbSpline
210
0.0
220
0.0
230
1.0
 70
     8
 71
     3
 72
    25
 73
    21
 74
     0
 42
0.000000001
 43
0.0000000001
 40
0.0
 40
0.0
 40
0.0
 40
0.0
 40
0.4087168505087288
 40
0.6887487002771746
 40
0.9415836120477687
 40
1.174520705755139
 40
1.41154617586699
 40
1.599156012919486
 40
1.80099909059943
 40
2.178735911501584
 40
2.521686161369157
 40
2.762704659361267
 40
3.06256558063785
 40
3.222432137207704
 40
3.399493810628493
 40
3.567459719866413
 40
3.743172740007508
 40
3.995988754699504
 40
4.17170091132118
 40
4.337226830236034
 40
4.337226830236034
 40
4.337226830236034
 40
4.337226830236034
 10
173.5022137158639
 20
111.7015340218544
 30
0.0
 10
173.5331521830528
 20
111.7005400008126
 30
0.0
 10
173.5852881031605
 20
111.698864927471
 30
0.0
 10
173.6412624452753
 20
111.6551144537741
 30
0.0
 10
173.6840923913854
 20
111.6188419590034
 30
0.0
 10
173.7144936187611
 20
111.5749902112994
 30
0.0
 10
173.7411411463417
 20
111.5346708652237
 30
0.0
 10
173.7586998466871
 20
111.4921029127833
 30
0.0
 10
173.7825831482772
 20
111.441025268313
 30
0.0
 10
173.792469655232
 20
111.3726909685383
 30
0.0
 10
173.7857901442266
 20
111.3020611646929
 30
0.0
 10
173.7683597392445
 20
111.2394543404174
 30
0.0
 10
173.7500766458358
 20
111.1914238555172
 30
0.0
 10
173.7285278439092
 20
111.1496103386967
 30
0.0
 10
173.702838918382
 20
111.1225360833118
 30
0.0
 10
173.6850169743355
 20
111.0881114315234
 30
0.0
 10
173.6507832995821
 20
111.0599539145447
 30
0.0
 10
173.6230316362103
 20
111.0252114906367
 30
0.0
 10
173.5915392778625
 20
110.9953916987468
 30
0.0
 10
173.5737837466281
 20
110.9769932465088
 30
0.0
 10
173.564422602376
 20
110.9692575414359
 30
0.0
  0
LINE
  5
A92
102
{ACAD_REACTORS
330
A7A
102
}
330
18
100
AcDbEntity
  8
ROGO
 62
     4
100
AcDbLine
 10
173.0304976004882
 20
111.7015340218544
 30
0.0
 11
173.5022137158639
 21
111.7015340218544
 31
0.0
  0
SPLINE
  5
A93
102
{ACAD_REACTORS
330
A7A
102
}
330
18
100
AcDbEntity
  8
ROGO
 62
     4
100
AcDbSpline
210
0.0
220
0.0
230
1.0
 70
     8
 71
     3
 72
    11
 73
     7
 74
     0
 42
0.000000001
 43
0.0000000001
 40
0.1647869275458134
 40
0.1647869275458134
 40
0.1647869275458134
 40
0.1647869275458134
 40
0.2895635144633836
 40
0.5387013147903714
 40
0.7953622617455423
 40
0.8850764140209602
 40
0.8850764140209602
 40
0.8850764140209602
 40
0.8850764140209602
 10
173.4178172197329
 20
110.8910842279823
 30
0.0
 10
173.4090306645781
 20
110.8886384870059
 30
0.0
 10
173.3817876112168
 20
110.884283980918
 30
0.0
 10
173.3360910220763
 20
110.8783047326511
 30
0.0
 10
173.2926586996381
 20
110.8720651689339
 30
0.0
 10
173.2672449969995
 20
110.8725549446749
 30
0.0
 10
173.2606626277891
 20
110.8726818008361
 30
0.0
  0
SPLINE
  5
A94
102
{ACAD_REACTORS
330
A7A
102
}
330
18
100
AcDbEntity
  8
ROGO
 62
     4
100
AcDbSpline
210
0.0
220
0.0
230
1.0
 70
  1064
 71
     3
 72
     9
 73
     5
 74
     3
 42
0.000000001
 43
0.0000000001
 44
0.0000000001
 40
0.0
 40
0.0
 40
0.0
 40
0.0
 40
0.0713930700782094
 40
0.1673855092790598
 40
0.1673855092790598
 40
0.1673855092790598
 40
0.1673855092790598
 10
173.4178172197329
 20
110.8910842279823
 30
0.0
 10
173.440750739415
 20
110.8981005897757
 30
0.0
 10
173.4945198078605
 20
110.9145508879741
 30
0.0
 10
173.5389453754812
 20
110.9493187988926
 30
0.0
 10
173.564422602376
 20
110.9692575414359
 30
0.0
 11
173.4178172197329
 21
110.8910842279823
 31
0.0
 11
173.4849180249494
 21
110.915465622415
 31
0.0
 11
173.564422602376
 21
110.9692575414359
 31
0.0
  0
ELLIPSE
  5
A95
330
18
100
AcDbEntity
  8
ROGO
 62
     4
100
AcDbEllipse
 10
173.1389005447678
 20
111.2755516216338
 30
0.0
 11
0.1120652167979505
 21
0.0985473350289271
 31
0.0
210
0.0
220
0.0
230
1.0
 40
0.6788083417438791
 41
0.0
 42
6.283185307179585
  0
TEXT
  5
A96
330
18
100
AcDbEntity
  8
文字
100
AcDbText
 10
170.3315096251044
 20
115.7875013089158
 30
0.0
 40
2.0
  1
0
  7
STYLE3
100
AcDbText
  0
LINE
  5
A97
102
{ACAD_REACTORS
330
A52
102
}
330
18
100
AcDbEntity
  8
ROGO
 62
     4
100
AcDbLine
 10
175.8797975971629
 20
111.6980911817072
 30
0.0
 11
175.7638482614069
 21
111.4655564332462
 31
0.0
  0
LINE
  5
A98
102
{ACAD_REACTORS
330
A52
102
}
330
18
100
AcDbEntity
  8
ROGO
 62
     4
100
AcDbLine
 10
176.032106079528
 20
111.6980911817072
 30
0.0
 11
176.5073506202689
 21
111.6980911817072
 31
0.0
  0
LINE
  5
A99
102
{ACAD_REACTORS
330
A52
102
}
330
18
100
AcDbEntity
  8
ROGO
 62
     4
100
AcDbLine
 10
175.7638482614069
 20
111.4655564332462
 30
0.0
 11
176.032106079528
 21
111.6980911817072
 31
0.0
  0
POINT
  5
A9A
330
18
100
AcDbEntity
  8
DEFPOINTS
  6
ByBlock
 62
     0
100
AcDbPoint
 10
176.5073506202689
 20
111.6980911817072
 30
0.0
  0
LINE
  5
A9B
102
{ACAD_REACTORS
330
A52
102
}
330
18
100
AcDbEntity
  8
ROGO
 62
     4
100
AcDbLine
 10
175.4045426582261
 20
110.7449741417517
 30
0.0
 11
175.572403024057
 21
110.4083325586794
 31
0.0
  0
LINE
  5
A9C
102
{ACAD_REACTORS
330
A52
102
}
330
18
100
AcDbEntity
  8
ROGO
 62
     4
100
AcDbLine
 10
175.4045426582261
 20
111.6980911817072
 30
0.0
 11
175.8797975971629
 21
111.6980911817072
 31
0.0
  0
LINE
  5
A9D
102
{ACAD_REACTORS
330
A52
102
}
330
18
100
AcDbEntity
  8
ROGO
 62
     4
100
AcDbLine
 10
175.7260899124141
 20
111.0532118701933
 30
0.0
 11
176.0476475647979
 21
110.4083325586794
 31
0.0
  0
LINE
  5
A9E
102
{ACAD_REACTORS
330
A52
102
}
330
18
100
AcDbEntity
  8
ROGO
 62
     4
100
AcDbLine
 10
175.7260899124141
 20
111.0532118701933
 30
0.0
 11
176.5073506202689
 21
111.6980911817072
 31
0.0
  0
LINE
  5
A9F
102
{ACAD_REACTORS
330
A52
102
}
330
18
100
AcDbEntity
  8
ROGO
 62
     4
100
AcDbLine
 10
175.572403024057
 20
110.4083325586794
 30
0.0
 11
176.0476475647979
 21
110.4083325586794
 31
0.0
  0
TEXT
  5
AA0
330
18
100
AcDbEntity
  8
文字
100
AcDbText
 10
180.4599499872681
 20
107.0995099024376
 30
0.0
 40
2.0
  1
20
  7
STYLE3
100
AcDbText
  0
TEXT
  5
AA1
330
18
100
AcDbEntity
  8
文字
100
AcDbText
 10
176.9621621306636
 20
113.0618350111892
 30
0.0
 40
2.0
  1
10
  7
STYLE3
100
AcDbText
  0
LINE
  5
AA2
330
18
100
AcDbEntity
  8
目盛
100
AcDbLine
 10
180.9926001744848
 20
118.1363011291897
 30
0.0
 11
179.2292444176074
 21
115.7092501460648
 31
0.0
  0
LINE
  5
AA3
330
18
100
AcDbEntity
  8
目盛
100
AcDbLine
 10
180.1352856288125
 20
118.7189314927863
 30
0.0
 11
179.0636320388544
 21
117.0302756417823
 31
0.0
  0
LINE
  5
AA4
330
18
100
AcDbEntity
  8
目盛
100
AcDbLine
 10
181.8116393425124
 20
117.5009892278036
 30
0.0
 11
180.5367913630151
 21
115.959962742252
 31
0.0
  0
LINE
  5
AA5
330
18
100
AcDbEntity
  8
目盛
100
AcDbLine
 10
182.5891707594824
 20
116.8155030744563
 30
0.0
 11
181.220076547625
 21
115.3575658196135
 31
0.0
  0
LINE
  5
AA6
330
18
100
AcDbEntity
  8
目盛
100
AcDbLine
 10
183.3221258641123
 20
116.0825479698264
 30
0.0
 11
181.8641886092695
 21
114.7134537579691
 31
0.0
  0
LINE
  5
AA7
330
18
100
AcDbEntity
  8
目盛
100
AcDbLine
 10
184.0076120174596
 20
115.3050165528564
 30
0.0
 11
182.466585531908
 21
114.030168573359
 31
0.0
  0
LINE
  5
AA8
330
18
100
AcDbEntity
  8
目盛
100
AcDbLine
 10
187.2757656702814
 20
108.8909038602232
 30
0.0
 11
185.3385993480241
 21
108.3935240858935
 31
0.0
  0
LINE
  5
AA9
330
18
100
AcDbEntity
  8
目盛
100
AcDbLine
 10
187.5018831486824
 20
107.8793124126675
 30
0.0
 11
185.537308647225
 21
107.5045497834961
 31
0.0
  0
LINE
  5
AAA
330
18
100
AcDbEntity
  8
目盛
100
AcDbLine
 10
187.6640360833479
 20
106.8555190758141
 30
0.0
 11
185.679806680719
 21
106.6048526086855
 31
0.0
  0
LINE
  5
AAB
330
18
100
AcDbEntity
  8
目盛
100
AcDbLine
 10
187.7615845307255
 20
105.8235642942367
 30
0.0
 11
185.7655310738689
 21
105.6979832551781
 31
0.0
  0
POINT
  5
ACF
330
18
100
AcDbEntity
  8
DEFPOINTS
  6
ByBlock
 62
     0
100
AcDbPoint
 10
163.3590426057106
 20
93.8657912979413
 30
0.0
  0
POINT
  5
AD0
330
18
100
AcDbEntity
  8
DEFPOINTS
  6
ByBlock
 62
     0
100
AcDbPoint
 10
172.5497748899381
 20
103.9669173818435
 30
0.0
  0
POINT
  5
AD1
330
18
100
AcDbEntity
  8
DEFPOINTS
  6
ByBlock
 62
     0
100
AcDbPoint
 10
179.2292444176075
 20
93.86579129794121
 30
0.0
  0
POINT
  5
AD2
330
18
100
AcDbEntity
  8
DEFPOINTS
  6
ByBlock
 62
     0
100
AcDbPoint
 10
170.9017147922653
 20
103.339763939876
 30
0.0
  0
LINE
  5
BA4
330
18
100
AcDbEntity
  8
目盛
100
AcDbLine
 10
163.3452078889808
 20
90.32846050127931
 30
0.0
 11
164.3087152371841
 21
92.08107386136708
 31
0.0
  0
LINE
  5
BA5
330
18
100
AcDbEntity
  8
目盛
100
AcDbLine
 10
162.4530013945056
 20
90.85610995121985
 30
0.0
 11
163.5246549844636
 21
92.54476580222386
 31
0.0
  0
LINE
  5
BA6
330
18
100
AcDbEntity
  8
目盛
100
AcDbLine
 10
164.6945644924004
 20
90.76270140877978
 30
0.0
 11
165.2054996422785
 21
91.84849387173901
 31
0.0
  0
LINE
  5
BA7
330
18
100
AcDbEntity
  8
外形線
100
AcDbLine
 10
164.2687852008353
 20
89.85787435631378
 30
0.0
 11
170.6554745743115
 21
103.430280143304
 31
0.0
  0
LINE
  5
BA8
330
18
100
AcDbEntity
  8
外形線
100
AcDbLine
 10
178.3195018224827
 20
89.85787435631376
 30
0.0
 11
171.9328124490066
 21
103.430280143304
 31
0.0
  0
TEXT
  5
BA9
330
18
100
AcDbEntity
  8
文字
100
AcDbText
 10
162.0796838623776
 20
94.42619373498109
 30
0.0
 40
2.0
  1
40
  7
STYLE3
100
AcDbText
  0
LINE
  5
BAA
330
18
100
AcDbEntity
  8
目盛
100
AcDbLine
 10
180.4048149221923
 20
92.24775730919139
 30
0.0
 11
179.2292444176074
 21
93.86579129794128
 31
0.0
  0
LINE
  5
BAB
330
18
100
AcDbEntity
  8
目盛
100
AcDbLine
 10
179.2430791343373
 20
90.32846050127931
 30
0.0
 11
178.2795717861339
 21
92.08107386136708
 31
0.0
  0
LINE
  5
BAC
330
18
100
AcDbEntity
  8
目盛
100
AcDbLine
 10
180.1352856288125
 20
90.85610995121985
 30
0.0
 11
179.0636320388545
 21
92.54476580222384
 31
0.0
  0
LINE
  5
BAD
330
18
100
AcDbEntity
  8
目盛
100
AcDbLine
 10
177.8937225309176
 20
90.76270140877978
 30
0.0
 11
177.3827873810396
 21
91.84849387173901
 31
0.0
  0
TEXT
  5
BAE
330
18
100
AcDbEntity
  8
文字
100
AcDbText
 10
176.888918108643
 20
94.29462185499245
 30
0.0
 40
2.0
  1
40
  7
STYLE3
100
AcDbText
  0
LINE
  5
BAF
330
18
100
AcDbEntity
  8
目盛
100
AcDbLine
 10
162.1834721011257
 20
92.24775730919139
 30
0.0
 11
163.3590426057106
 21
93.8657912979413
 31
0.0
  0
DIMENSION
  5
C7D
330
18
100
AcDbEntity
  8
寸法線
100
AcDbDimension
  2
*D2
 10
170.6554745743115
 20
103.430280143304
 30
0.0
 11
171.294143511659
 21
77.02150149627017
 31
0.0
 70
    34
 71
     5
 42
0.8796459430051475
  3
STYLE3
100
AcDb2LineAngularDimension
 13
178.3195018224827
 23
89.85787435631376
 33
0.0
 14
171.9328124490066
 24
103.430280143304
 34
0.0
 15
164.2687852008353
 25
89.85787435631378
 35
0.0
 16
166.9640936534872
 26
75.46448048116151
 36
0.0
1001
ACAD
1000
DSTYLE
1002
{
1070
   179
1070
     1
1070
   271
1070
     2
1070
   272
1070
     2
1002
}
  0
TEXT
  5
D08
330
18
100
AcDbEntity
  8
文字
100
AcDbText
 10
66.33813153533782
 20
181.9811997101324
 30
0.0
 40
3.5
  1
Model No.196Z One Revolution Dial Gauge
  7
STYLE3
100
AcDbText
  0
LINE
  5
D09
330
18
100
AcDbEntity
  8
外形線
100
AcDbLine
 10
65.33268753533782
 20
178.8608167101326
 30
0.0
 11
176.3326875353378
 21
178.8608167101326
 31
0.0
  0
LINE
  5
D0A
330
18
100
AcDbEntity
  8
外形線
100
AcDbLine
 10
65.33268753533782
 20
179.8608167101326
 30
0.0
 11
176.3326875353378
 21
179.8608167101326
 31
0.0
  0
LINE
  5
D0C
330
18
100
AcDbEntity
  8
外形線
100
AcDbLine
 10
113.8177435353378
 20
20.81549371013257
 30
0.0
 11
254.6091615353378
 21
20.81549371013257
 31
0.0
  0
LINE
  5
D0D
330
18
100
AcDbEntity
  8
外形線
100
AcDbLine
 10
113.8177435353378
 20
10.03528771013256
 30
0.0
 11
254.6091615353378
 21
10.03528771013256
 31
0.0
  0
TEXT
  5
D0E
330
18
100
AcDbEntity
  8
0
  6
Continuous
100
AcDbText
 10
115.2752105353378
 20
11.93327771013257
 30
0.0
 40
2.1
  1
Design and specifications are subject to change without notice for future improvement.
  7
STYLE3
100
AcDbText
  0
TEXT
  5
D0F
330
18
100
AcDbEntity
  8
0
  6
Continuous
100
AcDbText
 10
115.5667045353378
 20
15.86242571013257
 30
0.0
 40
3.5
  1
仕様及び外観は予告なく変更される場合がございますのでご了承下さい。
  7
STYLE3
100
AcDbText
  0
TEXT
  5
D10
330
18
100
AcDbEntity
  8
0
  6
Continuous
100
AcDbText
 10
114.9837195353378
 20
2.168649710132568
 30
0.0
 40
2.1
  1
3RD Angle Projection
  7
STYLE3
100
AcDbText
  0
TEXT
  5
D11
330
18
100
AcDbEntity
  8
0
  6
Continuous
100
AcDbText
 10
117.6071625353378
 20
5.664932710132568
 30
0.0
 40
3.0
  1
三　　角　　法
  7
STYLE3
100
AcDbText
  0
LINE
  5
D12
330
18
100
AcDbEntity
  8
外形線
100
AcDbLine
 10
113.8177435353378
 20
0.420509710132568
 30
0.0
 11
113.8177435353378
 21
20.81549371013257
 31
0.0
  0
LINE
  5
D13
330
18
100
AcDbEntity
  8
外形線
100
AcDbLine
 10
215.8405105353379
 20
10.03528771013256
 30
0.0
 11
215.8405105353379
 21
0.420509710132568
 31
0.0
  0
LINE
  5
D14
330
18
100
AcDbEntity
  8
外形線
100
AcDbLine
 10
186.1081605353378
 20
10.03528771013256
 30
0.0
 11
186.1081605353378
 21
0.420509710132568
 31
0.0
  0
LINE
  5
D15
330
18
100
AcDbEntity
  8
外形線
100
AcDbLine
 10
166.5780885353378
 20
10.03528771013256
 30
0.0
 11
166.5780885353378
 21
0.420509710132568
 31
0.0
  0
LINE
  5
D16
330
18
100
AcDbEntity
  8
外形線
100
AcDbLine
 10
149.0884715353378
 20
10.03528771013256
 30
0.0
 11
149.0884715353378
 21
0.420509710132568
 31
0.0
  0
TEXT
  5
D17
330
18
100
AcDbEntity
  8
0
  6
Continuous
100
AcDbText
 10
150.5459405353378
 20
5.670887710132568
 30
0.0
 40
3.0
  1
単位
  7
STYLE3
100
AcDbText
  0
TEXT
  5
D18
330
18
100
AcDbEntity
  8
0
  6
Continuous
100
AcDbText
 10
150.7176615353378
 20
2.168650710132566
 30
0.0
 40
2.1
  1
Unit
  7
STYLE3
100
AcDbText
  0
TEXT
  5
D19
330
18
100
AcDbEntity
  8
0
  6
Continuous
100
AcDbText
 10
167.8638365353378
 20
5.379529710132566
 30
0.0
 40
3.0
  1
尺 度
  7
STYLE3
100
AcDbText
  0
TEXT
  5
D1A
330
18
100
AcDbEntity
  8
0
  6
Continuous
100
AcDbText
 10
158.5879885353378
 20
3.916793710132566
 30
0.0
 40
2.399999999999999
  1
mm
  7
STYLE3
100
AcDbText
  0
TEXT
  5
D1B
330
18
100
AcDbEntity
  8
0
  6
Continuous
100
AcDbText
 10
168.3270515353378
 20
2.460007710132567
 30
0.0
 40
2.1
  1
Scale
  7
STYLE3
100
AcDbText
  0
TEXT
  5
D1C
330
18
100
AcDbEntity
  8
0
  6
Continuous
100
AcDbText
 10
177.9463405353378
 20
4.208150710132568
 30
0.0
 40
2.399999999999999
  1
1/1
  7
STYLE3
100
AcDbText
  0
TEXT
  5
D1D
330
18
100
AcDbEntity
  8
0
  6
Continuous
100
AcDbText
 10
188.0401115353378
 20
2.168651710132567
 30
0.0
 40
2.1
  1
Date
  7
STYLE3
100
AcDbText
  0
TEXT
  5
D1E
330
18
100
AcDbEntity
  8
0
  6
Continuous
100
AcDbText
 10
187.6567505353378
 20
5.501734710132566
 30
0.0
 40
3.0
  1
日 付
  7
STYLE3
100
AcDbText
  0
TEXT
  5
D1F
330
18
100
AcDbEntity
  8
0
  6
Continuous
100
AcDbText
 10
196.7849195353378
 20
3.916792710132566
 30
0.0
 40
2.1
  1
2019.02.06
  7
STYLE3
100
AcDbText
  0
TEXT
  5
D20
330
18
100
AcDbEntity
  8
0
  6
Continuous
100
AcDbText
 10
217.1894735353379
 20
5.956289710132567
 30
0.0
 40
3.0
  1
株式会社　尾崎製作所
  7
STYLE3
100
AcDbText
  0
TEXT
  5
D21
330
18
100
AcDbEntity
  8
0
  6
Continuous
100
AcDbText
 10
218.0639525353378
 20
2.168650710132566
 30
0.0
 40
2.1
  1
OZAKI MFG. CO., LTD.
  7
STYLE3
100
AcDbText
  0
LINE
  5
EB4
330
18
100
AcDbEntity
  8
中心線
 48
0.5
100
AcDbLine
 10
95.06614488845722
 20
104.787520722003
 30
0.0
 11
123.6639427705909
 21
104.787520722003
 31
0.0
  0
LINE
  5
EB5
330
18
100
AcDbEntity
  8
中心線
 48
0.5
100
AcDbLine
 10
105.4416560805247
 20
122.7000263164798
 30
0.0
 11
105.4416560805247
 21
86.08539547270938
 31
0.0
  0
LINE
  5
EB6
330
18
100
AcDbEntity
  8
外形線
100
AcDbLine
 10
100.4416560805247
 20
119.787520722003
 30
0.0
 11
111.2416560805247
 21
119.787520722003
 31
0.0
  0
LINE
  5
EB7
330
18
100
AcDbEntity
  8
外形線
100
AcDbLine
 10
100.4416560805247
 20
89.78752072200304
 30
0.0
 11
111.2416560805247
 21
89.78752072200306
 31
0.0
  0
LINE
  5
EB8
330
18
100
AcDbEntity
  8
外形線
100
AcDbLine
 10
99.44165608052472
 20
102.787520722003
 30
0.0
 11
99.44165608052472
 21
90.78752072200304
 31
0.0
  0
LINE
  5
EB9
330
18
100
AcDbEntity
  8
外形線
100
AcDbLine
 10
101.7666560805247
 20
88.78752072200304
 30
0.0
 11
111.2416560805247
 21
88.78752072200304
 31
0.0
  0
ARC
  5
EBA
330
18
100
AcDbEntity
  8
外形線
100
AcDbCircle
 10
100.4416560805247
 20
90.78752072200304
 30
0.0
 40
1.0
100
AcDbArc
 50
180.0
 51
270.0
  0
LINE
  5
EBB
330
18
100
AcDbEntity
  8
中心線
 48
0.5
100
AcDbLine
 10
60.25728681233343
 20
109.287520722003
 30
0.0
 11
101.4511819928973
 21
109.287520722003
 31
0.0
  0
LINE
  5
EBC
330
18
100
AcDbEntity
  8
外形線
100
AcDbLine
 10
97.34165608052471
 20
113.787520722003
 30
0.0
 11
97.34165608052471
 21
104.787520722003
 31
0.0
  0
LINE
  5
EBD
330
18
100
AcDbEntity
  8
外形線
100
AcDbLine
 10
97.8416560805247
 20
104.287520722003
 30
0.0
 11
97.94165608052473
 21
104.287520722003
 31
0.0
  0
LINE
  5
EBE
330
18
100
AcDbEntity
  8
外形線
100
AcDbLine
 10
97.8416560805247
 20
114.287520722003
 30
0.0
 11
97.94165608052473
 21
114.287520722003
 31
0.0
  0
ARC
  5
EBF
330
18
100
AcDbEntity
  8
外形線
100
AcDbCircle
 10
97.8416560805247
 20
104.787520722003
 30
0.0
 40
0.5
100
AcDbArc
 50
180.0
 51
270.0
  0
ARC
  5
EC0
330
18
100
AcDbEntity
  8
外形線
100
AcDbCircle
 10
97.8416560805247
 20
113.787520722003
 30
0.0
 40
0.5
100
AcDbArc
 50
90.0
 51
180.0
  0
ARC
  5
EC1
330
18
100
AcDbEntity
  8
外形線
100
AcDbCircle
 10
97.94165608052473
 20
102.787520722003
 30
0.0
 40
1.5
100
AcDbArc
 50
0.0
 51
90.0
  0
ARC
  5
EC2
330
18
100
AcDbEntity
  8
外形線
100
AcDbCircle
 10
97.94165608052473
 20
115.787520722003
 30
0.0
 40
1.5
100
AcDbArc
 50
270.0
 51
0.0
  0
LINE
  5
EC3
330
18
100
AcDbEntity
  8
外形線
100
AcDbLine
 10
99.44165608052472
 20
102.787520722003
 30
0.0
 11
99.44165608052472
 21
118.787520722003
 31
0.0
  0
ARC
  5
EC4
330
18
100
AcDbEntity
  8
外形線
100
AcDbCircle
 10
100.4416560805247
 20
118.787520722003
 30
0.0
 40
1.0
100
AcDbArc
 50
90.0
 51
180.0
  0
LINE
  5
EC5
330
18
100
AcDbEntity
  8
外形線
100
AcDbLine
 10
101.2666560805247
 20
89.78752072200304
 30
0.0
 11
101.2666560805247
 21
89.28752072200305
 31
0.0
  0
ARC
  5
EC6
330
18
100
AcDbEntity
  8
外形線
100
AcDbCircle
 10
101.7666560805247
 20
89.28752072200305
 30
0.0
 40
0.5
100
AcDbArc
 50
180.0
 51
270.0
  0
LINE
  5
EC7
330
18
100
AcDbEntity
  8
外形線
100
AcDbLine
 10
111.2416560805247
 20
123.287520722003
 30
0.0
 11
111.2416560805247
 21
104.787520722003
 31
0.0
  0
LINE
  5
EC8
330
18
100
AcDbEntity
  8
外形線
100
AcDbLine
 10
112.4416560805247
 20
123.287520722003
 30
0.0
 11
112.4416560805247
 21
104.787520722003
 31
0.0
  0
LINE
  5
EC9
330
18
100
AcDbEntity
  8
外形線
100
AcDbLine
 10
117.5416560805247
 20
123.487520722003
 30
0.0
 11
117.5416560805247
 21
104.787520722003
 31
0.0
  0
LINE
  5
ECA
330
18
100
AcDbEntity
  8
外形線
100
AcDbLine
 10
111.2416560805247
 20
123.287520722003
 30
0.0
 11
112.4416560805247
 21
123.287520722003
 31
0.0
  0
LINE
  5
ECB
330
18
100
AcDbEntity
  8
外形線
100
AcDbLine
 10
112.9416560805247
 20
123.787520722003
 30
0.0
 11
117.2416560805247
 21
123.787520722003
 31
0.0
  0
LINE
  5
ECC
330
18
100
AcDbEntity
  8
外形線
100
AcDbLine
 10
112.4416560805247
 20
123.287520722003
 30
0.0
 11
112.9416560805247
 21
123.787520722003
 31
0.0
  0
LINE
  5
ECD
330
18
100
AcDbEntity
  8
外形線
100
AcDbLine
 10
117.2416560805247
 20
123.787520722003
 30
0.0
 11
117.5416560805247
 21
123.487520722003
 31
0.0
  0
LINE
  5
ECE
330
18
100
AcDbEntity
  8
外形線
100
AcDbLine
 10
118.0416560805247
 20
122.537520722003
 30
0.0
 11
118.0416560805247
 21
104.787520722003
 31
0.0
  0
LINE
  5
ECF
330
18
100
AcDbEntity
  8
外形線
100
AcDbLine
 10
117.5416560805247
 20
123.287520722003
 30
0.0
 11
118.0416560805247
 21
122.537520722003
 31
0.0
  0
LINE
  5
ED0
330
18
100
AcDbEntity
  8
外形線
100
AcDbLine
 10
112.9416560805247
 20
123.787520722003
 30
0.0
 11
112.9416560805247
 21
104.787520722003
 31
0.0
  0
LINE
  5
ED1
330
18
100
AcDbEntity
  8
ﾊｯﾁﾝｸﾞ
100
AcDbLine
 10
112.9416560805247
 20
122.887520722003
 30
0.0
 11
117.5416560805247
 21
122.887520722003
 31
0.0
  0
LINE
  5
ED2
330
18
100
AcDbEntity
  8
ﾊｯﾁﾝｸﾞ
100
AcDbLine
 10
112.9416560805247
 20
121.887520722003
 30
0.0
 11
117.5416560805247
 21
121.887520722003
 31
0.0
  0
LINE
  5
ED3
330
18
100
AcDbEntity
  8
ﾊｯﾁﾝｸﾞ
100
AcDbLine
 10
112.9416560805247
 20
120.787520722003
 30
0.0
 11
117.5416560805247
 21
120.787520722003
 31
0.0
  0
LINE
  5
ED4
330
18
100
AcDbEntity
  8
ﾊｯﾁﾝｸﾞ
100
AcDbLine
 10
112.9416560805247
 20
119.587520722003
 30
0.0
 11
117.5416560805247
 21
119.587520722003
 31
0.0
  0
LINE
  5
ED5
330
18
100
AcDbEntity
  8
外形線
100
AcDbLine
 10
111.2416560805247
 20
86.28752072200304
 30
0.0
 11
111.2416560805247
 21
104.787520722003
 31
0.0
  0
LINE
  5
ED6
330
18
100
AcDbEntity
  8
外形線
100
AcDbLine
 10
112.9416560805247
 20
85.787520722003
 30
0.0
 11
112.9416560805247
 21
104.787520722003
 31
0.0
  0
LINE
  5
ED7
330
18
100
AcDbEntity
  8
外形線
100
AcDbLine
 10
112.4416560805247
 20
86.28752072200301
 30
0.0
 11
112.4416560805247
 21
104.787520722003
 31
0.0
  0
LINE
  5
ED8
330
18
100
AcDbEntity
  8
外形線
100
AcDbLine
 10
117.5416560805247
 20
86.08752072200301
 30
0.0
 11
117.5416560805247
 21
104.787520722003
 31
0.0
  0
LINE
  5
ED9
330
18
100
AcDbEntity
  8
外形線
100
AcDbLine
 10
118.0416560805247
 20
87.03752072200309
 30
0.0
 11
118.0416560805247
 21
104.787520722003
 31
0.0
  0
LINE
  5
EDA
330
18
100
AcDbEntity
  8
外形線
100
AcDbLine
 10
111.2416560805247
 20
86.28752072200304
 30
0.0
 11
112.4416560805247
 21
86.28752072200304
 31
0.0
  0
LINE
  5
EDB
330
18
100
AcDbEntity
  8
ﾊｯﾁﾝｸﾞ
100
AcDbLine
 10
112.9416560805247
 20
89.987520722003
 30
0.0
 11
117.5416560805247
 21
89.987520722003
 31
0.0
  0
LINE
  5
EDC
330
18
100
AcDbEntity
  8
ﾊｯﾁﾝｸﾞ
100
AcDbLine
 10
112.9416560805247
 20
88.78752072200301
 30
0.0
 11
117.5416560805247
 21
88.78752072200304
 31
0.0
  0
LINE
  5
EDD
330
18
100
AcDbEntity
  8
ﾊｯﾁﾝｸﾞ
100
AcDbLine
 10
112.9416560805247
 20
87.68752072200301
 30
0.0
 11
117.5416560805247
 21
87.68752072200301
 31
0.0
  0
LINE
  5
EDE
330
18
100
AcDbEntity
  8
ﾊｯﾁﾝｸﾞ
100
AcDbLine
 10
112.9416560805247
 20
86.68752072200302
 30
0.0
 11
117.5416560805247
 21
86.68752072200302
 31
0.0
  0
LINE
  5
EDF
330
18
100
AcDbEntity
  8
外形線
100
AcDbLine
 10
112.9416560805247
 20
85.787520722003
 30
0.0
 11
117.2416560805247
 21
85.787520722003
 31
0.0
  0
LINE
  5
EE0
330
18
100
AcDbEntity
  8
外形線
100
AcDbLine
 10
112.4416560805247
 20
86.28752072200301
 30
0.0
 11
112.9416560805247
 21
85.787520722003
 31
0.0
  0
LINE
  5
EE1
330
18
100
AcDbEntity
  8
外形線
100
AcDbLine
 10
117.5416560805247
 20
86.28752072200304
 30
0.0
 11
118.0416560805247
 21
87.03752072200309
 31
0.0
  0
LINE
  5
EE2
330
18
100
AcDbEntity
  8
外形線
100
AcDbLine
 10
117.2416560805247
 20
85.787520722003
 30
0.0
 11
117.5416560805247
 21
86.08752072200301
 31
0.0
  0
LINE
  5
EE3
330
18
100
AcDbEntity
  8
ﾊｯﾁﾝｸﾞ
100
AcDbLine
 10
112.9416560805247
 20
104.787520722003
 30
0.0
 11
117.5416560805247
 21
104.787520722003
 31
0.0
  0
LINE
  5
EE4
330
18
100
AcDbEntity
  8
ﾊｯﾁﾝｸﾞ
100
AcDbLine
 10
112.9416560805247
 20
105.887520722003
 30
0.0
 11
117.5416560805247
 21
105.887520722003
 31
0.0
  0
LINE
  5
EE5
330
18
100
AcDbEntity
  8
ﾊｯﾁﾝｸﾞ
100
AcDbLine
 10
112.9416560805247
 20
103.687520722003
 30
0.0
 11
117.5416560805247
 21
103.687520722003
 31
0.0
  0
LINE
  5
EE6
330
18
100
AcDbEntity
  8
ﾊｯﾁﾝｸﾞ
100
AcDbLine
 10
112.9416560805247
 20
106.887520722003
 30
0.0
 11
117.5416560805247
 21
106.887520722003
 31
0.0
  0
LINE
  5
EE7
330
18
100
AcDbEntity
  8
ﾊｯﾁﾝｸﾞ
100
AcDbLine
 10
112.9416560805247
 20
102.687520722003
 30
0.0
 11
117.5416560805247
 21
102.687520722003
 31
0.0
  0
ARC
  5
EE8
330
18
100
AcDbEntity
  8
外形線
100
AcDbCircle
 10
74.6064288077973
 20
104.787520722003
 30
0.0
 40
46.73522727272742
100
AcDbArc
 50
338.3398409131859
 51
21.66015908681406
  0
POINT
  5
EE9
330
18
100
AcDbEntity
  8
DEFPOINTS
  6
ByBlock
 62
     0
100
AcDbPoint
 10
99.44165608052472
 20
118.787520722003
 30
0.0
  0
POINT
  5
EEA
330
18
100
AcDbEntity
  8
DEFPOINTS
  6
ByBlock
 62
     0
100
AcDbPoint
 10
97.34165608052471
 20
113.787520722003
 30
0.0
  0
POINT
  5
EEB
330
18
100
AcDbEntity
  8
DEFPOINTS
  6
ByBlock
 62
     0
100
AcDbPoint
 10
99.44165608052472
 20
118.787520722003
 30
0.0
  0
POINT
  5
EEC
330
18
100
AcDbEntity
  8
DEFPOINTS
  6
ByBlock
 62
     0
100
AcDbPoint
 10
97.34165608052471
 20
113.787520722003
 30
0.0
  0
POINT
  5
EED
330
18
100
AcDbEntity
  8
DEFPOINTS
  6
ByBlock
 62
     0
100
AcDbPoint
 10
95.06614488845722
 20
104.787520722003
 30
0.0
  0
POINT
  5
EEE
330
18
100
AcDbEntity
  8
DEFPOINTS
  6
ByBlock
 62
     0
100
AcDbPoint
 10
95.06614488845722
 20
104.787520722003
 30
0.0
  0
LINE
  5
EEF
330
18
100
AcDbEntity
  8
外形線
100
AcDbLine
 10
75.94165608052472
 20
107.037520722003
 30
0.0
 11
75.94165608052472
 21
111.537520722003
 31
0.0
  0
LINE
  5
EF0
330
18
100
AcDbEntity
  8
外形線
100
AcDbLine
 10
85.3416560805247
 20
113.287520722003
 30
0.0
 11
97.34165608052471
 21
113.287520722003
 31
0.0
  0
LINE
  5
EF1
330
18
100
AcDbEntity
  8
外形線
100
AcDbLine
 10
85.3416560805247
 20
105.287520722003
 30
0.0
 11
97.34165608052471
 21
105.287520722003
 31
0.0
  0
LINE
  5
EF2
330
18
100
AcDbEntity
  8
外形線
100
AcDbLine
 10
85.3416560805247
 20
105.287520722003
 30
0.0
 11
85.3416560805247
 21
113.287520722003
 31
0.0
  0
LINE
  5
EF3
330
18
100
AcDbEntity
  8
外形線
100
AcDbLine
 10
81.8416560805247
 20
113.187520722003
 30
0.0
 11
85.3416560805247
 21
113.187520722003
 31
0.0
  0
LINE
  5
EF4
330
18
100
AcDbEntity
  8
外形線
100
AcDbLine
 10
81.8416560805247
 20
105.387520722003
 30
0.0
 11
85.3416560805247
 21
105.387520722003
 31
0.0
  0
LINE
  5
EF5
330
18
100
AcDbEntity
  8
外形線
100
AcDbLine
 10
80.84165608052471
 20
106.387520722003
 30
0.0
 11
80.84165608052471
 21
112.187520722003
 31
0.0
  0
ARC
  5
EF6
330
18
100
AcDbEntity
  8
外形線
100
AcDbCircle
 10
81.8416560805247
 20
112.187520722003
 30
0.0
 40
1.0
100
AcDbArc
 50
90.0
 51
180.0
  0
ARC
  5
EF7
330
18
100
AcDbEntity
  8
外形線
100
AcDbCircle
 10
81.8416560805247
 20
106.387520722003
 30
0.0
 40
1.0
100
AcDbArc
 50
180.0
 51
270.0
  0
LINE
  5
EF8
330
18
100
AcDbEntity
  8
外形線
100
AcDbLine
 10
75.94165608052472
 20
111.037520722003
 30
0.0
 11
80.84165608052471
 21
111.037520722003
 31
0.0
  0
LINE
  5
EF9
330
18
100
AcDbEntity
  8
外形線
100
AcDbLine
 10
75.94165608052472
 20
107.537520722003
 30
0.0
 11
80.84165608052471
 21
107.537520722003
 31
0.0
  0
LINE
  5
EFA
330
18
100
AcDbEntity
  8
外形線
100
AcDbLine
 10
64.44165608052472
 20
107.987520722003
 30
0.0
 11
64.44165608052472
 21
110.587520722003
 31
0.0
  0
LINE
  5
EFB
330
18
100
AcDbEntity
  8
外形線
100
AcDbLine
 10
64.44165608052472
 20
110.587520722003
 30
0.0
 11
70.94165608052467
 21
111.787520722003
 31
0.0
  0
LINE
  5
EFC
330
18
100
AcDbEntity
  8
外形線
100
AcDbLine
 10
64.44165608052472
 20
107.987520722003
 30
0.0
 11
70.94165608052484
 21
106.787520722003
 31
0.0
  0
LINE
  5
EFD
330
18
100
AcDbEntity
  8
外形線
100
AcDbLine
 10
70.94165608052472
 20
106.787520722003
 30
0.0
 11
70.94165608052472
 21
111.787520722003
 31
0.0
  0
LINE
  5
EFE
330
18
100
AcDbEntity
  8
外形線
100
AcDbLine
 10
70.94165608052467
 20
111.787520722003
 30
0.0
 11
75.44165608052472
 21
111.787520722003
 31
0.0
  0
LINE
  5
EFF
330
18
100
AcDbEntity
  8
外形線
100
AcDbLine
 10
70.94165608052484
 20
106.787520722003
 30
0.0
 11
75.44165608052472
 21
106.787520722003
 31
0.0
  0
LINE
  5
F00
330
18
100
AcDbEntity
  8
外形線
100
AcDbLine
 10
75.44165608052472
 20
106.787520722003
 30
0.0
 11
75.44165608052472
 21
111.787520722003
 31
0.0
  0
LINE
  5
F01
330
18
100
AcDbEntity
  8
外形線
100
AcDbLine
 10
75.44165608052472
 20
111.537520722003
 30
0.0
 11
75.94165608052472
 21
111.537520722003
 31
0.0
  0
LINE
  5
F02
330
18
100
AcDbEntity
  8
外形線
100
AcDbLine
 10
75.44165608052472
 20
107.037520722003
 30
0.0
 11
75.94165608052472
 21
107.037520722003
 31
0.0
  0
LINE
  5
F03
330
18
100
AcDbEntity
  8
外形線
 62
     4
100
AcDbLine
 10
71.26348782804623
 20
109.287520722003
 30
0.0
 11
75.44165608052472
 21
111.699787287291
 31
0.0
  0
LINE
  5
F04
330
18
100
AcDbEntity
  8
外形線
 62
     4
100
AcDbLine
 10
70.94165608052472
 20
110.256411614317
 30
0.0
 11
73.59361484696839
 21
111.787520722003
 31
0.0
  0
LINE
  5
F05
330
18
100
AcDbEntity
  8
外形線
 62
     4
100
AcDbLine
 10
70.94165608052472
 20
111.4111121526962
 30
0.0
 11
71.59361484696844
 21
111.787520722003
 31
0.0
  0
LINE
  5
F06
330
18
100
AcDbEntity
  8
外形線
 62
     4
100
AcDbLine
 10
73.26348782804624
 20
109.287520722003
 30
0.0
 11
75.44165608052472
 21
110.5450867489118
 31
0.0
  0
LINE
  5
F07
330
18
100
AcDbEntity
  8
外形線
 62
     4
100
AcDbLine
 10
75.26348782804624
 20
109.287520722003
 30
0.0
 11
75.44165608052472
 21
109.3903862105325
 31
0.0
  0
LINE
  5
F08
330
18
100
AcDbEntity
  8
外形線
 62
     4
100
AcDbLine
 10
74.53812229397155
 20
109.287520722003
 30
0.0
 11
70.94165608052472
 21
111.3639414584679
 31
0.0
  0
LINE
  5
F09
330
18
100
AcDbEntity
  8
外形線
 62
     4
100
AcDbLine
 10
72.53812229397161
 20
109.287520722003
 30
0.0
 11
70.94165608052472
 21
110.2092409200887
 31
0.0
  0
LINE
  5
F0A
330
18
100
AcDbEntity
  8
外形線
 62
     4
100
AcDbLine
 10
75.44165608052472
 20
111.0752663238731
 30
0.0
 11
74.20799527504939
 21
111.787520722003
 31
0.0
  0
LINE
  5
F0B
330
18
100
AcDbEntity
  8
外形線
 62
     4
100
AcDbLine
 10
75.44165608052472
 20
109.9205657854939
 30
0.0
 11
72.2079952750494
 21
111.787520722003
 31
0.0
  0
POINT
  5
F0C
330
18
100
AcDbEntity
  8
DEFPOINTS
  6
ByBlock
 62
     0
100
AcDbPoint
 10
80.84165608052471
 20
112.187520722003
 30
0.0
  0
POINT
  5
F0D
330
18
100
AcDbEntity
  8
DEFPOINTS
  6
ByBlock
 62
     0
100
AcDbPoint
 10
97.34165608052471
 20
113.287520722003
 30
0.0
  0
POINT
  5
F0E
330
18
100
AcDbEntity
  8
DEFPOINTS
  6
ByBlock
 62
     0
100
AcDbPoint
 10
97.34165608052471
 20
113.287520722003
 30
0.0
  0
POINT
  5
F0F
330
18
100
AcDbEntity
  8
DEFPOINTS
  6
ByBlock
 62
     0
100
AcDbPoint
 10
99.44165608052472
 20
118.787520722003
 30
0.0
  0
MTEXT
  5
F10
330
18
100
AcDbEntity
  8
0
  6
ByBlock
 62
     6
100
AcDbMText
 10
71.38705279129616
 20
132.8386171696518
 30
0.0
 40
1.5
 41
0.0
 71
     4
 72
     1
  1
\A1;\U+00B10.5
  7
STYLE3
 73
     1
 44
1.0
  0
POINT
  5
F11
330
18
100
AcDbEntity
  8
DEFPOINTS
  6
ByBlock
 62
     0
100
AcDbPoint
 10
75.94165608052472
 20
111.537520722003
 30
0.0
  0
POINT
  5
F12
330
18
100
AcDbEntity
  8
DEFPOINTS
  6
ByBlock
 62
     0
100
AcDbPoint
 10
80.84165608052471
 20
112.187520722003
 30
0.0
  0
POINT
  5
F13
330
18
100
AcDbEntity
  8
DEFPOINTS
  6
ByBlock
 62
     0
100
AcDbPoint
 10
63.44165608052472
 20
109.287520722003
 30
0.0
  0
POINT
  5
F14
330
18
100
AcDbEntity
  8
DEFPOINTS
  6
ByBlock
 62
     0
100
AcDbPoint
 10
75.94165608052472
 20
111.537520722003
 30
0.0
  0
POINT
  5
F15
330
18
100
AcDbEntity
  8
DEFPOINTS
  6
ByBlock
 62
     0
100
AcDbPoint
 10
121.3416560805247
 20
104.787520722003
 30
0.0
  0
POINT
  5
F16
330
18
100
AcDbEntity
  8
DEFPOINTS
  6
ByBlock
 62
     0
100
AcDbPoint
 10
117.2416560805247
 20
123.787520722003
 30
0.0
  0
POINT
  5
F17
330
18
100
AcDbEntity
  8
DEFPOINTS
  6
ByBlock
 62
     0
100
AcDbPoint
 10
117.2416560805247
 20
85.787520722003
 30
0.0
  0
ARC
  5
F1B
330
18
100
AcDbEntity
  8
外形線
100
AcDbCircle
 10
64.64165608052471
 20
109.287520722003
 30
0.0
 40
1.199999999999999
100
AcDbArc
 50
99.59406822685828
 51
260.4059317731417
  0
TEXT
  5
F1C
330
18
100
AcDbEntity
  8
文字
100
AcDbText
 10
87.57233290243815
 20
122.7210493636156
 30
0.0
 40
1.0
  1
0
 50
90.0
  7
STYLE3
100
AcDbText
  0
TEXT
  5
F1D
330
18
100
AcDbEntity
  8
文字
100
AcDbText
 10
88.87730771435272
 20
121.4934634467301
 30
0.0
 40
1.0
  1
-0.03
 50
90.0
  7
STYLE3
100
AcDbText
  0
DIMENSION
  5
F1E
330
18
100
AcDbEntity
  8
寸法線
100
AcDbDimension
  2
*D16
 10
132.266024839161
 20
85.787520722003
 30
0.0
 11
130.391024839161
 21
104.787520722003
 31
0.0
 70
    32
  1
\U+03C6<>
 71
     5
 42
38.00000000000007
  3
STYLE3
100
AcDbAlignedDimension
 13
117.2416560805247
 23
123.787520722003
 33
0.0
 14
117.2416560805247
 24
85.787520722003
 34
0.0
 50
90.0
100
AcDbRotatedDimension
1001
ACAD
1000
DSTYLE
1002
{
1070
   179
1070
     1
1070
   271
1070
     2
1070
   272
1070
     2
1002
}
  0
DIMENSION
  5
F1F
330
18
100
AcDbEntity
  8
寸法線
100
AcDbDimension
  2
*D17
 10
63.44165608052472
 20
84.43093984278103
 30
0.0
 11
80.39165608052471
 21
86.96070174754295
 31
0.0
 70
    32
  1
(<>)
 71
     5
 42
33.89999999999998
  3
STYLE3
100
AcDbAlignedDimension
 13
97.34165608052471
 23
104.787520722003
 33
0.0
 14
63.44165608052472
 24
109.287520722003
 34
0.0
100
AcDbRotatedDimension
1001
ACAD
1000
DSTYLE
1002
{
1070
   179
1070
     1
1070
   271
1070
     2
1070
   272
1070
     2
1002
}
  0
DIMENSION
  5
F20
330
18
100
AcDbEntity
  8
寸法線
100
AcDbDimension
  2
*D18
 10
103.7561488208169
 20
104.787520722003
 30
0.0
 11
101.8811488208169
 21
96.54347310295545
 31
0.0
 70
    32
 71
     5
 42
4.5
  3
STYLE3
100
AcDbAlignedDimension
 13
101.4511819928973
 23
109.287520722003
 33
0.0
 14
101.844880978764
 24
104.787520722003
 34
0.0
 50
90.0
100
AcDbRotatedDimension
1001
ACAD
1000
DSTYLE
1002
{
1070
   179
1070
     1
1070
   271
1070
     2
1070
   272
1070
     2
1002
}
  0
DIMENSION
  5
F21
330
18
100
AcDbEntity
  8
寸法線
100
AcDbDimension
  2
*D19
 10
90.96513833629392
 20
113.287520722003
 30
0.0
 11
90.96513833629391
 21
118.6744254839078
 31
0.0
 70
   160
  1
\U+03C6<>
 71
     5
 42
8.0
  3
STYLE3
100
AcDbAlignedDimension
 13
91.3416560805247
 23
105.287520722003
 33
0.0
 14
91.3416560805247
 24
113.287520722003
 34
0.0
 50
90.0
100
AcDbRotatedDimension
1001
ACAD
1000
DSTYLE
1002
{
1070
   179
1070
     1
1070
   271
1070
     2
1070
   272
1070
     2
1002
}
  0
DIMENSION
  5
F22
330
18
100
AcDbEntity
  8
寸法線
100
AcDbDimension
  2
*D20
 10
79.55057662643302
 20
111.037520722003
 30
0.0
 11
77.675576626433
 21
120.7101397696221
 31
0.0
 70
    32
  1
\U+03C6<>
 71
     5
 42
3.5
  3
STYLE3
100
AcDbAlignedDimension
 13
78.39165608052471
 23
107.537520722003
 33
0.0
 14
79.5505766264329
 24
111.037520722003
 34
0.0
 50
90.0
100
AcDbRotatedDimension
1001
ACAD
1000
DSTYLE
1002
{
1070
   179
1070
     1
1070
   271
1070
     2
1070
   272
1070
     2
1002
}
  0
DIMENSION
  5
F23
330
18
100
AcDbEntity
  8
寸法線
100
AcDbDimension
  2
*D21
 10
99.44165608052472
 20
130.2642456093674
 30
0.0
 11
107.3285608424294
 21
132.1392456093674
 31
0.0
 70
    32
 71
     5
 42
2.100000000000022
  3
STYLE3
100
AcDbAlignedDimension
 13
97.34165608052471
 23
113.787520722003
 33
0.0
 14
99.44165608052472
 24
118.787520722003
 34
0.0
100
AcDbRotatedDimension
1001
ACAD
1000
DSTYLE
1002
{
1070
   179
1070
     1
1070
   271
1070
     2
1070
   272
1070
     2
1002
}
  0
DIMENSION
  5
F24
330
18
100
AcDbEntity
  8
寸法線
100
AcDbDimension
  2
*D22
 10
80.84165608052471
 20
130.2642456093674
 30
0.0
 11
89.0916560805247
 21
132.1392456093674
 31
0.0
 70
    32
 71
     5
 42
16.5
  3
STYLE3
100
AcDbAlignedDimension
 13
97.34165608052471
 23
113.787520722003
 33
0.0
 14
80.84165608052471
 24
112.187520722003
 34
0.0
100
AcDbRotatedDimension
1001
ACAD
1000
DSTYLE
1002
{
1070
   179
1070
     1
1070
   271
1070
     2
1070
   272
1070
     2
1002
}
  0
DIMENSION
  5
F25
330
18
100
AcDbEntity
  8
寸法線
100
AcDbDimension
  2
*D23
 10
75.94165608052472
 20
130.2642456093674
 30
0.0
 11
67.75713227100091
 21
132.1392456093674
 31
0.0
 70
    32
 71
     5
 42
4.899999999999977
  3
STYLE3
100
AcDbAlignedDimension
 13
80.84165608052471
 23
112.187520722003
 33
0.0
 14
75.94165608052472
 24
111.537520722003
 34
0.0
100
AcDbRotatedDimension
1001
ACAD
1000
DSTYLE
1002
{
1070
   179
1070
     1
1070
   271
1070
     2
1070
   272
1070
     2
1002
}
  0
DIMENSION
  5
F26
330
18
100
AcDbEntity
  8
寸法線
100
AcDbDimension
  2
*D24
 10
63.44165608052472
 20
121.5258831656852
 30
0.0
 11
69.69165608052472
 21
123.4008831656852
 31
0.0
 70
    32
 71
     5
 42
12.5
  3
STYLE3
100
AcDbAlignedDimension
 13
75.94165608052472
 23
111.537520722003
 33
0.0
 14
63.44165608052472
 24
109.287520722003
 34
0.0
100
AcDbRotatedDimension
1001
ACAD
1000
DSTYLE
1002
{
1070
   179
1070
     1
1070
   271
1070
     2
1070
   272
1070
     2
1002
}
  0
DIMENSION
  5
F27
330
18
100
AcDbEntity
  8
寸法線
100
AcDbDimension
  2
*D25
 10
121.3416560805247
 20
140.0760403108453
 30
0.0
 11
110.3916560805247
 21
141.9510403108453
 31
0.0
 70
    32
 71
     5
 42
21.89999999999998
  3
STYLE3
100
AcDbAlignedDimension
 13
99.44165608052472
 23
118.787520722003
 33
0.0
 14
121.3416560805247
 24
104.787520722003
 34
0.0
100
AcDbRotatedDimension
1001
ACAD
1000
DSTYLE
1002
{
1070
   179
1070
     1
1070
   271
1070
     2
1070
   272
1070
     2
1002
}
  0
DIMENSION
  5
F28
330
18
100
AcDbEntity
  8
寸法線
100
AcDbDimension
  2
*D26
 10
63.44165608052472
 20
140.0760403108453
 30
0.0
 11
81.44165608052473
 21
142.6058022156072
 31
0.0
 70
    32
  1
(<>)
 71
     5
 42
36.0
  3
STYLE3
100
AcDbAlignedDimension
 13
99.44165608052472
 23
118.787520722003
 33
0.0
 14
63.44165608052472
 24
109.287520722003
 34
0.0
100
AcDbRotatedDimension
1001
ACAD
1000
DSTYLE
1002
{
1070
   179
1070
     1
1070
   271
1070
     2
1070
   272
1070
     2
1002
}
  0
DIMENSION
  5
F29
330
18
100
AcDbEntity
  8
寸法線
100
AcDbDimension
  2
*D27
 10
121.3416560805247
 20
149.3178643224286
 30
0.0
 11
92.39165608052472
 21
151.8476262271905
 31
0.0
 70
    32
  1
(<>)
 71
     5
 42
57.89999999999998
  3
STYLE3
100
AcDbAlignedDimension
 13
63.44165608052472
 23
109.287520722003
 33
0.0
 14
121.3416560805247
 24
104.787520722003
 34
0.0
100
AcDbRotatedDimension
1001
ACAD
1000
DSTYLE
1002
{
1070
   179
1070
     1
1070
   271
1070
     2
1070
   272
1070
     2
1002
}
  0
VIEWPORT
  5
177
330
15
100
AcDbEntity
 67
     1
  8
0
100
AcDbViewport
 10
127.5041203589828
 20
97.49391214526822
 30
0.0
 40
418.3086347473813
 41
243.0346063651093
 68
     1
 69
     1
 12
127.5041203589828
 22
97.49391214526822
 13
0.0
 23
0.0
 14
10.0
 24
10.0
 15
10.0
 25
10.0
 16
0.0
 26
0.0
 36
1.0
 17
0.0
 27
0.0
 37
0.0
 42
50.0
 43
0.0
 44
0.0
 45
243.0346063651093
 50
0.0
 51
0.0
 72
   100
 90
    32800
  1

281
     0
 71
     1
 74
     0
110
0.0
120
0.0
130
0.0
111
1.0
121
0.0
131
0.0
112
0.0
122
1.0
132
0.0
 79
     0
146
0.0
170
     0
  0
ENDSEC
  0
SECTION
  2
OBJECTS
  0
DICTIONARY
  5
C
330
0
100
AcDbDictionary
281
     1
  3
ACAD_CIP_PREVIOUS_PRODUCT_INFO
350
D92
  3
ACAD_COLOR
350
B28
  3
ACAD_DETAILVIEWSTYLE
350
D8E
  3
ACAD_GROUP
350
D
  3
ACAD_LAYOUT
350
B2B
  3
ACAD_MATERIAL
350
B27
  3
ACAD_MLEADERSTYLE
350
D8A
  3
ACAD_MLINESTYLE
350
1B
  3
ACAD_PLOTSETTINGS
350
B2C
  3
ACAD_PLOTSTYLENAME
350
B25
  3
ACAD_SCALELIST
350
D78
  3
ACAD_SECTIONVIEWSTYLE
350
D8C
  3
ACAD_TABLESTYLE
350
B29
  3
ACAD_VISUALSTYLE
350
D5F
  3
ACDB_RECOMPOSE_DATA
350
10CE
  3
ACDBVARIABLEDICTIONARY
350
61E
  0
DICTIONARY
  5
E36
330
2
100
AcDbDictionary
280
     1
281
     1
  3
ACAD_LAYERSTATES
360
E37
  0
DICTIONARY
  5
10B3
330
E
100
AcDbDictionary
280
     1
281
     1
  3
ADSK_XREC_LAYER_RECONCILED
360
10B4
  0
DICTIONARY
  5
10B5
330
25
100
AcDbDictionary
280
     1
281
     1
  3
ADSK_XREC_LAYER_RECONCILED
360
10B6
  0
DICTIONARY
  5
10B7
330
27
100
AcDbDictionary
280
     1
281
     1
  3
ADSK_XREC_LAYER_RECONCILED
360
10B8
  0
DICTIONARY
  5
10B9
330
2A
100
AcDbDictionary
280
     1
281
     1
  3
ADSK_XREC_LAYER_RECONCILED
360
10BA
  0
DICTIONARY
  5
10BB
330
2B
100
AcDbDictionary
280
     1
281
     1
  3
ADSK_XREC_LAYER_RECONCILED
360
10BC
  0
DICTIONARY
  5
10BD
330
2C
100
AcDbDictionary
280
     1
281
     1
  3
ADSK_XREC_LAYER_RECONCILED
360
10BE
  0
DICTIONARY
  5
10BF
330
2D
100
AcDbDictionary
280
     1
281
     1
  3
ADSK_XREC_LAYER_RECONCILED
360
10C0
  0
DICTIONARY
  5
10C1
330
A5
100
AcDbDictionary
280
     1
281
     1
  3
ADSK_XREC_LAYER_RECONCILED
360
10C2
  0
DICTIONARY
  5
10C3
330
5B5
100
AcDbDictionary
280
     1
281
     1
  3
ADSK_XREC_LAYER_RECONCILED
360
10C4
  0
DICTIONARY
  5
10C5
330
B0F
100
AcDbDictionary
280
     1
281
     1
  3
ADSK_XREC_LAYER_RECONCILED
360
10C6
  0
DICTIONARY
  5
E33
330
E32
100
AcDbDictionary
280
     1
281
     1
  3
ADSK_XREC_LAYER_RECONCILED
360
10C7
  0
XRECORD
  5
D92
102
{ACAD_REACTORS
330
C
102
}
330
C
100
AcDbXrecord
280
     1
300
ACDLT
300
2015
300
ACDLT_F_S
  0
DICTIONARY
  5
B28
102
{ACAD_REACTORS
330
C
102
}
330
C
100
AcDbDictionary
281
     1
  0
DICTIONARY
  5
D8E
102
{ACAD_REACTORS
330
C
102
}
330
C
100
AcDbDictionary
281
     1
  3
Metric50
350
D8F
  0
DICTIONARY
  5
D
102
{ACAD_REACTORS
330
C
102
}
330
C
100
AcDbDictionary
281
     1
  0
DICTIONARY
  5
B2B
102
{ACAD_REACTORS
330
C
102
}
330
C
100
AcDbDictionary
281
     1
  3
Model
350
B2D
  3
レイアウト1
350
B2E
  0
DICTIONARY
  5
B27
102
{ACAD_REACTORS
330
C
102
}
330
C
100
AcDbDictionary
281
     1
  3
ByBlock
350
D4F
  3
ByLayer
350
D47
  3
Global
350
D57
  0
DICTIONARY
  5
D8A
102
{ACAD_REACTORS
330
C
102
}
330
C
100
AcDbDictionary
281
     1
  3
Standard
350
D8B
  0
DICTIONARY
  5
1B
102
{ACAD_REACTORS
330
C
102
}
330
C
100
AcDbDictionary
281
     1
  3
STANDARD
350
1C
  0
DICTIONARY
  5
B2C
102
{ACAD_REACTORS
330
C
102
}
330
C
100
AcDbDictionary
281
     1
  0
ACDBDICTIONARYWDFLT
  5
B25
102
{ACAD_REACTORS
330
C
102
}
330
C
100
AcDbDictionary
281
     1
  3
Normal
350
B26
100
AcDbDictionaryWithDefault
340
B26
  0
DICTIONARY
  5
D78
102
{ACAD_REACTORS
330
C
102
}
330
C
100
AcDbDictionary
281
     1
  3
A0
350
D79
  3
A1
350
D7A
  3
A2
350
D7B
  3
A3
350
D7C
  3
A4
350
D7D
  3
A5
350
D7E
  3
A6
350
D7F
  3
A7
350
D80
  3
A8
350
D81
  3
A9
350
D82
  3
B0
350
D83
  3
B1
350
D84
  3
B2
350
D85
  3
B3
350
D86
  3
B4
350
D87
  3
B5
350
D88
  3
B6
350
D89
  0
DICTIONARY
  5
D8C
102
{ACAD_REACTORS
330
C
102
}
330
C
100
AcDbDictionary
281
     1
  3
Metric50
350
D8D
  0
DICTIONARY
  5
B29
102
{ACAD_REACTORS
330
C
102
}
330
C
100
AcDbDictionary
281
     1
  3
Standard
350
B2A
  0
DICTIONARY
  5
D5F
102
{ACAD_REACTORS
330
C
102
}
330
C
100
AcDbDictionary
281
     1
  3
2dWireframe
350
D65
  3
Basic
350
D64
  3
Brighten
350
D6B
  3
ColorChange
350
D6F
  3
Conceptual
350
D68
  3
Dim
350
D6A
  3
EdgeColorOff
350
D77
  3
Facepattern
350
D6E
  3
Flat
350
D60
  3
FlatWithEdges
350
D61
  3
Gouraud
350
D62
  3
GouraudWithEdges
350
D63
  3
Hidden
350
D67
  3
JitterOff
350
D75
  3
Linepattern
350
D6D
  3
OverhangOff
350
D76
  3
Realistic
350
D69
  3
Shaded
350
D74
  3
Shaded with edges
350
D73
  3
Shades of Gray
350
D70
  3
Sketchy
350
D71
  3
Thicken
350
D6C
  3
Wireframe
350
D66
  3
X-Ray
350
D72
  0
XRECORD
  5
10CE
102
{ACAD_REACTORS
330
C
102
}
330
C
100
AcDbXrecord
280
     1
 90
        1
330
B2A
  0
DICTIONARY
  5
61E
102
{ACAD_REACTORS
330
C
102
}
330
C
100
AcDbDictionary
281
     1
  3
CANNOSCALE
350
10CB
  3
CMLEADERSTYLE
350
10C8
  3
CTABLESTYLE
350
B34
  3
CVIEWDETAILSTYLE
350
10C9
  3
CVIEWSECTIONSTYLE
350
10CA
  3
SORTENTS
350
61F
  0
DICTIONARY
  5
E37
102
{ACAD_REACTORS
330
E36
102
}
330
E36
100
AcDbDictionary
281
     1
  0
XRECORD
  5
10B4
102
{ACAD_REACTORS
330
10B3
102
}
330
10B3
100
AcDbXrecord
280
     1
290
     1
  0
XRECORD
  5
10B6
102
{ACAD_REACTORS
330
10B5
102
}
330
10B5
100
AcDbXrecord
280
     1
290
     1
  0
XRECORD
  5
10B8
102
{ACAD_REACTORS
330
10B7
102
}
330
10B7
100
AcDbXrecord
280
     1
290
     1
  0
XRECORD
  5
10BA
102
{ACAD_REACTORS
330
10B9
102
}
330
10B9
100
AcDbXrecord
280
     1
290
     1
  0
XRECORD
  5
10BC
102
{ACAD_REACTORS
330
10BB
102
}
330
10BB
100
AcDbXrecord
280
     1
290
     1
  0
XRECORD
  5
10BE
102
{ACAD_REACTORS
330
10BD
102
}
330
10BD
100
AcDbXrecord
280
     1
290
     1
  0
XRECORD
  5
10C0
102
{ACAD_REACTORS
330
10BF
102
}
330
10BF
100
AcDbXrecord
280
     1
290
     1
  0
XRECORD
  5
10C2
102
{ACAD_REACTORS
330
10C1
102
}
330
10C1
100
AcDbXrecord
280
     1
290
     1
  0
XRECORD
  5
10C4
102
{ACAD_REACTORS
330
10C3
102
}
330
10C3
100
AcDbXrecord
280
     1
290
     1
  0
XRECORD
  5
10C6
102
{ACAD_REACTORS
330
10C5
102
}
330
10C5
100
AcDbXrecord
280
     1
290
     1
  0
XRECORD
  5
10C7
102
{ACAD_REACTORS
330
E33
102
}
330
E33
100
AcDbXrecord
280
     1
290
     1
  0
ACDBDETAILVIEWSTYLE
  5
D8F
102
{ACAD_XDICTIONARY
360
1106
102
}
102
{ACAD_REACTORS
330
D8E
102
}
330
D8E
100
AcDbModelDocViewStyle
 70
     0
  3
Metric50
290
     0
100
AcDbDetailViewStyle
 70
     0
 71
     0
 90
        3
 71
     1
340
F
 62
   256
 40
5.0
340
0
 62
   256
 40
5.0
300

 40
0.0
280
     1
 71
     2
340
14
 90
       25
 62
   256
 71
     3
340
F
 62
   256
 40
5.0
 90
        0
 40
15.0
 90
        1
300
%<\AcVar ViewDetailId>% (%<\AcVar ViewScale \f "%sn">%)
 71
     4
340
14
 90
       25
 62
   256
340
14
 90
       25
 62
   256
280
     0
  0
LAYOUT
  5
B2D
102
{ACAD_REACTORS
330
B2B
102
}
330
B2B
100
AcDbPlotSettings
  1

  2
A4 EPSON LP-6100.pc3
  4
A4
  6

 40
5.873749732971191
 41
5.873747825622557
 42
5.873748779296875
 43
5.873748779296875
 44
209.9733276367186
 45
297.0106506347656
 46
1.5
 47
25.0
 48
0.0
 49
0.0
140
0.0
141
0.0
142
1.0
143
1.0
 70
 28336
 72
     1
 73
     1
 74
     1
  7
AutoCAD LT 98.ctb
 75
    16
147
1.0
 76
     1
 77
     2
 78
   300
148
0.2128225079886761
149
0.2090691322566727
100
AcDbLayout
  1
Model
 70
     1
 71
     0
 10
0.0
 20
0.0
 11
12.0
 21
9.0
 12
0.0
 22
0.0
 32
0.0
 14
0.0
 24
0.0
 34
0.0
 15
0.0
 25
0.0
 35
0.0
146
0.0
 13
0.0
 23
0.0
 33
0.0
 16
1.0
 26
0.0
 36
0.0
 17
0.0
 27
1.0
 37
0.0
 76
     0
330
18
331
D40
1001
ACAD_PSEXT
1000
A4 EPSON LP-6100.pc3
1000
EPSON LP-6100
1000
USB002
1000

1070
     0
  0
LAYOUT
  5
B2E
102
{ACAD_REACTORS
330
B2B
102
}
330
B2B
100
AcDbPlotSettings
  1

  2
C:\Documents and Settings\佐藤\Application Data\Autodesk\AutoCAD LT 2005\R10\jpn\plotters\PEACOCK EPSON LP-6100.pc3
  4

  6

 40
0.0
 41
0.0
 42
0.0
 43
0.0
 44
0.0
 45
0.0
 46
0.0
 47
0.0
 48
0.0
 49
0.0
140
0.0
141
0.0
142
1.0
143
1.0
 70
   688
 72
     0
 73
     0
 74
     5
  7
AutoCAD LT 98.ctb
 75
    16
147
1.0
 76
     0
 77
     2
 78
   300
148
0.0
149
0.0
100
AcDbLayout
  1
レイアウト1
 70
     1
 71
     1
 10
0.0
 20
0.0
 11
420.0
 21
297.0
 12
0.0
 22
0.0
 32
0.0
 14
-0.2
 24
-0.2
 34
0.0
 15
255.2
 25
195.2
 35
0.0
146
0.0
 13
0.0
 23
0.0
 33
0.0
 16
1.0
 26
0.0
 36
0.0
 17
0.0
 27
1.0
 37
0.0
 76
     0
330
15
331
177
  0
MATERIAL
  5
D4F
102
{ACAD_XDICTIONARY
360
D50
102
}
102
{ACAD_REACTORS
330
B27
102
}
330
B27
100
AcDbMaterial
  1
ByBlock
 72
     0
 43
0.0208333333333333
 43
0.0
 43
0.0
 43
0.0
 43
0.0
 43
0.0208333333333333
 43
0.0
 43
0.0
 43
0.0
 43
0.0
 43
1.0
 43
0.0
 43
0.0
 43
0.0
 43
0.0
 43
1.0
 77
     0
 47
0.0208333333333333
 47
0.0
 47
0.0
 47
0.0
 47
0.0
 47
0.0208333333333333
 47
0.0
 47
0.0
 47
0.0
 47
0.0
 47
1.0
 47
0.0
 47
0.0
 47
0.0
 47
0.0
 47
1.0
171
     0
 49
0.0208333333333333
 49
0.0
 49
0.0
 49
0.0
 49
0.0
 49
0.0208333333333333
 49
0.0
 49
0.0
 49
0.0
 49
0.0
 49
1.0
 49
0.0
 49
0.0
 49
0.0
 49
0.0
 49
1.0
175
     0
142
0.0208333333333333
142
0.0
142
0.0
142
0.0
142
0.0
142
0.0208333333333333
142
0.0
142
0.0
142
0.0
142
0.0
142
1.0
142
0.0
142
0.0
142
0.0
142
0.0
142
1.0
179
     0
144
0.0208333333333333
144
0.0
144
0.0
144
0.0
144
0.0
144
0.0208333333333333
144
0.0
144
0.0
144
0.0
144
0.0
144
1.0
144
0.0
144
0.0
144
0.0
144
0.0
144
1.0
147
0.0208333333333333
147
0.0
147
0.0
147
0.0
147
0.0
147
0.0208333333333333
147
0.0
147
0.0
147
0.0
147
0.0
147
1.0
147
0.0
147
0.0
147
0.0
147
0.0
147
1.0
  0
MATERIAL
  5
D47
102
{ACAD_XDICTIONARY
360
D48
102
}
102
{ACAD_REACTORS
330
B27
102
}
330
B27
100
AcDbMaterial
  1
ByLayer
 72
     0
 43
0.0208333333333333
 43
0.0
 43
0.0
 43
0.0
 43
0.0
 43
0.0208333333333333
 43
0.0
 43
0.0
 43
0.0
 43
0.0
 43
1.0
 43
0.0
 43
0.0
 43
0.0
 43
0.0
 43
1.0
 77
     0
 47
0.0208333333333333
 47
0.0
 47
0.0
 47
0.0
 47
0.0
 47
0.0208333333333333
 47
0.0
 47
0.0
 47
0.0
 47
0.0
 47
1.0
 47
0.0
 47
0.0
 47
0.0
 47
0.0
 47
1.0
171
     0
 49
0.0208333333333333
 49
0.0
 49
0.0
 49
0.0
 49
0.0
 49
0.0208333333333333
 49
0.0
 49
0.0
 49
0.0
 49
0.0
 49
1.0
 49
0.0
 49
0.0
 49
0.0
 49
0.0
 49
1.0
175
     0
142
0.0208333333333333
142
0.0
142
0.0
142
0.0
142
0.0
142
0.0208333333333333
142
0.0
142
0.0
142
0.0
142
0.0
142
1.0
142
0.0
142
0.0
142
0.0
142
0.0
142
1.0
179
     0
144
0.0208333333333333
144
0.0
144
0.0
144
0.0
144
0.0
144
0.0208333333333333
144
0.0
144
0.0
144
0.0
144
0.0
144
1.0
144
0.0
144
0.0
144
0.0
144
0.0
144
1.0
147
0.0208333333333333
147
0.0
147
0.0
147
0.0
147
0.0
147
0.0208333333333333
147
0.0
147
0.0
147
0.0
147
0.0
147
1.0
147
0.0
147
0.0
147
0.0
147
0.0
147
1.0
  0
MATERIAL
  5
D57
102
{ACAD_XDICTIONARY
360
D58
102
}
102
{ACAD_REACTORS
330
B27
102
}
330
B27
100
AcDbMaterial
  1
Global
 72
     0
 43
0.0208333333333333
 43
0.0
 43
0.0
 43
0.0
 43
0.0
 43
0.0208333333333333
 43
0.0
 43
0.0
 43
0.0
 43
0.0
 43
1.0
 43
0.0
 43
0.0
 43
0.0
 43
0.0
 43
1.0
 77
     0
 47
0.0208333333333333
 47
0.0
 47
0.0
 47
0.0
 47
0.0
 47
0.0208333333333333
 47
0.0
 47
0.0
 47
0.0
 47
0.0
 47
1.0
 47
0.0
 47
0.0
 47
0.0
 47
0.0
 47
1.0
171
     0
 49
0.0208333333333333
 49
0.0
 49
0.0
 49
0.0
 49
0.0
 49
0.0208333333333333
 49
0.0
 49
0.0
 49
0.0
 49
0.0
 49
1.0
 49
0.0
 49
0.0
 49
0.0
 49
0.0
 49
1.0
175
     0
142
0.0208333333333333
142
0.0
142
0.0
142
0.0
142
0.0
142
0.0208333333333333
142
0.0
142
0.0
142
0.0
142
0.0
142
1.0
142
0.0
142
0.0
142
0.0
142
0.0
142
1.0
179
     0
144
0.0208333333333333
144
0.0
144
0.0
144
0.0
144
0.0
144
0.0208333333333333
144
0.0
144
0.0
144
0.0
144
0.0
144
1.0
144
0.0
144
0.0
144
0.0
144
0.0
144
1.0
147
0.0208333333333333
147
0.0
147
0.0
147
0.0
147
0.0
147
0.0208333333333333
147
0.0
147
0.0
147
0.0
147
0.0
147
1.0
147
0.0
147
0.0
147
0.0
147
0.0
147
1.0
  0
MLEADERSTYLE
  5
D8B
102
{ACAD_REACTORS
330
D8A
102
}
330
D8A
100
AcDbMLeaderStyle
170
     2
171
     1
172
     0
 90
        2
 40
0.0
 41
0.0
173
     1
 91
-1056964608
340
12
 92
       -2
290
     1
 42
2.0
291
     1
 43
0.36
  3
Standard
 44
4.0
300

342
F
174
     1
178
     6
175
     1
176
     0
 93
-1056964608
 45
4.0
292
     0
297
     0
 46
4.0
 94
-1056964608
 47
1.0
 49
1.0
140
1.0
293
     1
141
0.0
294
     1
177
     0
142
1.0
295
     0
296
     0
143
0.125
1001
ACAD_MLEADERVER
1070
     2
  0
MLINESTYLE
  5
1C
102
{ACAD_REACTORS
330
1B
102
}
330
1B
100
AcDbMlineStyle
  2
STANDARD
 70
     0
  3

 62
   256
 51
90.0
 52
90.0
 71
     2
 49
0.5
 62
   256
  6
BYLAYER
 49
-0.5
 62
   256
  6
BYLAYER
  0
ACDBPLACEHOLDER
  5
B26
102
{ACAD_REACTORS
330
B25
102
}
330
B25
  0
SCALE
  5
D79
102
{ACAD_REACTORS
330
D78
102
}
330
D78
100
AcDbScale
 70
     0
300
1:1
140
1.0
141
1.0
290
     1
  0
SCALE
  5
D7A
102
{ACAD_REACTORS
330
D78
102
}
330
D78
100
AcDbScale
 70
     0
300
1:2
140
1.0
141
2.0
290
     0
  0
SCALE
  5
D7B
102
{ACAD_REACTORS
330
D78
102
}
330
D78
100
AcDbScale
 70
     0
300
1:4
140
1.0
141
4.0
290
     0
  0
SCALE
  5
D7C
102
{ACAD_REACTORS
330
D78
102
}
330
D78
100
AcDbScale
 70
     0
300
1:5
140
1.0
141
5.0
290
     0
  0
SCALE
  5
D7D
102
{ACAD_REACTORS
330
D78
102
}
330
D78
100
AcDbScale
 70
     0
300
1:8
140
1.0
141
8.0
290
     0
  0
SCALE
  5
D7E
102
{ACAD_REACTORS
330
D78
102
}
330
D78
100
AcDbScale
 70
     0
300
1:10
140
1.0
141
10.0
290
     0
  0
SCALE
  5
D7F
102
{ACAD_REACTORS
330
D78
102
}
330
D78
100
AcDbScale
 70
     0
300
1:16
140
1.0
141
16.0
290
     0
  0
SCALE
  5
D80
102
{ACAD_REACTORS
330
D78
102
}
330
D78
100
AcDbScale
 70
     0
300
1:20
140
1.0
141
20.0
290
     0
  0
SCALE
  5
D81
102
{ACAD_REACTORS
330
D78
102
}
330
D78
100
AcDbScale
 70
     0
300
1:30
140
1.0
141
30.0
290
     0
  0
SCALE
  5
D82
102
{ACAD_REACTORS
330
D78
102
}
330
D78
100
AcDbScale
 70
     0
300
1:40
140
1.0
141
40.0
290
     0
  0
SCALE
  5
D83
102
{ACAD_REACTORS
330
D78
102
}
330
D78
100
AcDbScale
 70
     0
300
1:50
140
1.0
141
50.0
290
     0
  0
SCALE
  5
D84
102
{ACAD_REACTORS
330
D78
102
}
330
D78
100
AcDbScale
 70
     0
300
1:100
140
1.0
141
100.0
290
     0
  0
SCALE
  5
D85
102
{ACAD_REACTORS
330
D78
102
}
330
D78
100
AcDbScale
 70
     0
300
2:1
140
2.0
141
1.0
290
     0
  0
SCALE
  5
D86
102
{ACAD_REACTORS
330
D78
102
}
330
D78
100
AcDbScale
 70
     0
300
4:1
140
4.0
141
1.0
290
     0
  0
SCALE
  5
D87
102
{ACAD_REACTORS
330
D78
102
}
330
D78
100
AcDbScale
 70
     0
300
8:1
140
8.0
141
1.0
290
     0
  0
SCALE
  5
D88
102
{ACAD_REACTORS
330
D78
102
}
330
D78
100
AcDbScale
 70
     0
300
10:1
140
10.0
141
1.0
290
     0
  0
SCALE
  5
D89
102
{ACAD_REACTORS
330
D78
102
}
330
D78
100
AcDbScale
 70
     0
300
100:1
140
100.0
141
1.0
290
     0
  0
ACDBSECTIONVIEWSTYLE
  5
D8D
102
{ACAD_XDICTIONARY
360
1104
102
}
102
{ACAD_REACTORS
330
D8C
102
}
330
D8C
100
AcDbModelDocViewStyle
 70
     0
  3
Metric50
290
     0
100
AcDbSectionViewStyle
 70
     0
 71
     0
 90
      102
 71
     1
340
F
 62
   256
 40
5.0
340
0
340
0
 62
   256
 40
5.0
300
I, O, Q, S, X, Z
 40
10.0
 90
        0
 40
2.5
 90
        0
 71
     2
340
14
 90
       25
 62
   256
340
14
 90
       50
 62
   256
 40
5.0
 40
2.5
 40
5.0
 71
     3
340
F
 62
   256
 40
5.0
 90
        0
 40
15.0
 90
        1
300
%<\AcVar ViewSectionStartId>%-%<\AcVar ViewSectionEndId>% (%<\AcVar ViewScale \f "%sn">%)
 71
     4
 62
   256
 62
   257
300
ANSI31
 40
1.0
 90
        0
290
     0
290
     0
 90
        6
 40
0.0
 40
1.570796326794896
 40
0.2617993877991494
 40
1.308996938995747
 40
-0.2617993877991494
 40
1.832595714594046
  0
TABLESTYLE
  5
B2A
102
{ACAD_XDICTIONARY
360
10CC
102
}
102
{ACAD_REACTORS
330
B29
102
}
330
B29
100
AcDbTableStyle
  3
Standard
 70
     0
 71
     0
 40
1.5
 41
1.5
280
     0
281
     0
  7
STANDARD
140
4.5
170
     2
 62
     0
 63
     7
283
     0
274
    -2
284
     1
 64
     0
275
    -2
285
     1
 65
     0
276
    -2
286
     1
 66
     0
277
    -2
287
     1
 67
     0
278
    -2
288
     1
 68
     0
279
    -2
289
     1
 69
     0
  7
STANDARD
140
6.0
170
     5
 62
     0
 63
     7
283
     0
274
    -2
284
     1
 64
     0
275
    -2
285
     1
 65
     0
276
    -2
286
     1
 66
     0
277
    -2
287
     1
 67
     0
278
    -2
288
     1
 68
     0
279
    -2
289
     1
 69
     0
  7
STANDARD
140
4.5
170
     5
 62
     0
 63
     7
283
     0
274
    -2
284
     1
 64
     0
275
    -2
285
     1
 65
     0
276
    -2
286
     1
 66
     0
277
    -2
287
     1
 67
     0
278
    -2
288
     1
 68
     0
279
    -2
289
     1
 69
     0
  0
VISUALSTYLE
  5
D65
102
{ACAD_XDICTIONARY
360
10DD
102
}
102
{ACAD_REACTORS
330
D5F
102
}
330
D5F
100
AcDbVisualStyle
  2
2dWireframe
 70
     4
 71
     0
 72
     2
 73
     0
 90
        0
 40
-0.6
 41
-30.0
 62
     5
 63
     7
421
 16777215
 74
     1
 91
        4
 64
     7
 65
   257
 75
     1
175
     1
 42
1.0
 92
        0
 66
   257
 43
1.0
 76
     1
 77
     6
 78
     2
 67
     7
 79
     5
170
     0
171
     0
290
     0
174
     0
 93
        1
 44
0.0
173
     0
291
     0
 45
0.0
1001
ACAD
1000
AcDbSavedByObjectVersion
1070
     0
  0
VISUALSTYLE
  5
D64
102
{ACAD_XDICTIONARY
360
10DB
102
}
102
{ACAD_REACTORS
330
D5F
102
}
330
D5F
100
AcDbVisualStyle
  2
Basic
 70
     7
 71
     1
 72
     0
 73
     1
 90
        0
 40
-0.6
 41
-30.0
 62
     5
 63
     7
421
 16777215
 74
     0
 91
        4
 64
     7
 65
   257
 75
     1
175
     1
 42
1.0
 92
        8
 66
     7
 43
1.0
 76
     1
 77
     6
 78
     2
 67
     7
 79
     5
170
     0
171
     0
290
     0
174
     0
 93
        1
 44
0.0
173
     0
291
     1
 45
0.0
1001
ACAD
1000
AcDbSavedByObjectVersion
1070
     0
  0
VISUALSTYLE
  5
D6B
102
{ACAD_XDICTIONARY
360
10E9
102
}
102
{ACAD_REACTORS
330
D5F
102
}
330
D5F
100
AcDbVisualStyle
  2
Brighten
 70
    12
 71
     2
 72
     2
 73
     0
 90
        0
 40
-0.6
 41
-30.0
 62
     5
 63
     7
421
 16777215
 74
     1
 91
        4
 64
     7
 65
   257
 75
     1
175
     1
 42
1.0
 92
        8
 66
     7
 43
1.0
 76
     1
 77
     6
 78
     2
 67
     7
 79
     5
170
     0
171
     0
290
     0
174
     0
 93
        1
 44
50.0
173
     0
291
     1
 45
0.0
1001
ACAD
1000
AcDbSavedByObjectVersion
1070
     0
  0
VISUALSTYLE
  5
D6F
102
{ACAD_XDICTIONARY
360
10F1
102
}
102
{ACAD_REACTORS
330
D5F
102
}
330
D5F
100
AcDbVisualStyle
  2
ColorChange
 70
    16
 71
     2
 72
     2
 73
     3
 90
        0
 40
-0.6
 41
-30.0
 62
     5
 63
     8
421
  8421504
 74
     1
 91
        4
 64
     7
 65
   257
 75
     1
175
     1
 42
1.0
 92
        8
 66
     8
424
  8421504
 43
1.0
 76
     1
 77
     6
 78
     2
 67
     7
 79
     5
170
     0
171
     0
290
     0
174
     0
 93
        1
 44
0.0
173
     0
291
     1
 45
0.0
1001
ACAD
1000
AcDbSavedByObjectVersion
1070
     0
  0
VISUALSTYLE
  5
D68
102
{ACAD_XDICTIONARY
360
10E3
102
}
102
{ACAD_REACTORS
330
D5F
102
}
330
D5F
100
AcDbVisualStyle
  2
Conceptual
 70
     9
 71
     3
 72
     2
 73
     0
 90
        0
 40
-0.6
 41
-30.0
 62
     5
 63
     7
421
 16777215
 74
     2
 91
        2
 64
     7
 65
   257
 75
     1
175
     1
 42
179.0
 92
        8
 66
     7
 43
1.0
 76
     1
 77
     6
 78
     2
 67
     7
 79
     3
170
     0
171
     0
290
     0
174
     0
 93
        1
 44
0.0
173
     0
291
     0
 45
0.0
1001
ACAD
1000
AcDbSavedByObjectVersion
1070
     0
  0
VISUALSTYLE
  5
D6A
102
{ACAD_XDICTIONARY
360
10E7
102
}
102
{ACAD_REACTORS
330
D5F
102
}
330
D5F
100
AcDbVisualStyle
  2
Dim
 70
    11
 71
     2
 72
     2
 73
     0
 90
        0
 40
-0.6
 41
-30.0
 62
     5
 63
     7
421
 16777215
 74
     1
 91
        4
 64
     7
 65
   257
 75
     1
175
     1
 42
1.0
 92
        8
 66
     7
 43
1.0
 76
     1
 77
     6
 78
     2
 67
     7
 79
     5
170
     0
171
     0
290
     0
174
     0
 93
        1
 44
-50.0
173
     0
291
     1
 45
0.0
1001
ACAD
1000
AcDbSavedByObjectVersion
1070
     0
  0
VISUALSTYLE
  5
D77
102
{ACAD_XDICTIONARY
360
1101
102
}
102
{ACAD_REACTORS
330
D5F
102
}
330
D5F
100
AcDbVisualStyle
  2
EdgeColorOff
 70
    22
 71
     2
 72
     2
 73
     0
 90
        0
 40
-0.6
 41
-30.0
 62
     5
 63
     7
421
 16777215
 74
     1
 91
        4
 64
     7
 65
   257
 75
     1
175
     1
 42
1.0
 92
        8
 66
     7
 43
1.0
 76
     1
 77
     6
 78
     2
 67
     7
 79
     5
170
     0
171
     0
290
     0
174
     0
 93
        1
 44
0.0
173
     0
291
     1
 45
0.0
1001
ACAD
1000
AcDbSavedByObjectVersion
1070
     0
  0
VISUALSTYLE
  5
D6E
102
{ACAD_XDICTIONARY
360
10EF
102
}
102
{ACAD_REACTORS
330
D5F
102
}
330
D5F
100
AcDbVisualStyle
  2
Facepattern
 70
    15
 71
     2
 72
     2
 73
     0
 90
        0
 40
-0.6
 41
-30.0
 62
     5
 63
     7
421
 16777215
 74
     1
 91
        4
 64
     7
 65
   257
 75
     1
175
     1
 42
1.0
 92
        8
 66
     7
 43
1.0
 76
     1
 77
     6
 78
     2
 67
     7
 79
     5
170
     0
171
     0
290
     0
174
     0
 93
        1
 44
0.0
173
     0
291
     1
 45
0.0
1001
ACAD
1000
AcDbSavedByObjectVersion
1070
     0
  0
VISUALSTYLE
  5
D60
102
{ACAD_XDICTIONARY
360
10D3
102
}
102
{ACAD_REACTORS
330
D5F
102
}
330
D5F
100
AcDbVisualStyle
  2
Flat
 70
     0
 71
     2
 72
     1
 73
     1
 90
        2
 40
-0.6
 41
30.0
 62
     5
 63
     7
421
 16777215
 74
     0
 91
        0
 64
     7
 65
   257
 75
     1
175
     1
 42
1.0
 92
        8
 66
     7
 43
1.0
 76
     1
 77
     6
 78
     2
 67
     7
 79
     5
170
     0
171
     0
290
     0
174
     0
 93
       13
 44
0.0
173
     0
291
     1
 45
0.0
1001
ACAD
1000
AcDbSavedByObjectVersion
1070
     0
  0
VISUALSTYLE
  5
D61
102
{ACAD_XDICTIONARY
360
10D5
102
}
102
{ACAD_REACTORS
330
D5F
102
}
330
D5F
100
AcDbVisualStyle
  2
FlatWithEdges
 70
     1
 71
     2
 72
     1
 73
     1
 90
        2
 40
-0.6
 41
30.0
 62
     5
 63
     7
421
 16777215
 74
     1
 91
        0
 64
     7
 65
   257
 75
     1
175
     1
 42
1.0
 92
        0
 66
   257
 43
1.0
 76
     1
 77
     6
 78
     2
 67
     7
 79
     5
170
     0
171
     0
290
     0
174
     0
 93
       13
 44
0.0
173
     0
291
     1
 45
0.0
1001
ACAD
1000
AcDbSavedByObjectVersion
1070
     0
  0
VISUALSTYLE
  5
D62
102
{ACAD_XDICTIONARY
360
10D7
102
}
102
{ACAD_REACTORS
330
D5F
102
}
330
D5F
100
AcDbVisualStyle
  2
Gouraud
 70
     2
 71
     2
 72
     2
 73
     1
 90
        2
 40
-0.6
 41
30.0
 62
     5
 63
     7
421
 16777215
 74
     0
 91
        0
 64
     7
 65
   257
 75
     1
175
     1
 42
1.0
 92
        0
 66
     7
 43
1.0
 76
     1
 77
     6
 78
     2
 67
     7
 79
     5
170
     0
171
     0
290
     0
174
     0
 93
       13
 44
0.0
173
     0
291
     1
 45
0.0
1001
ACAD
1000
AcDbSavedByObjectVersion
1070
     0
  0
VISUALSTYLE
  5
D63
102
{ACAD_XDICTIONARY
360
10D9
102
}
102
{ACAD_REACTORS
330
D5F
102
}
330
D5F
100
AcDbVisualStyle
  2
GouraudWithEdges
 70
     3
 71
     2
 72
     2
 73
     1
 90
        2
 40
-0.6
 41
30.0
 62
     5
 63
     7
421
 16777215
 74
     1
 91
        0
 64
     7
 65
   257
 75
     1
175
     1
 42
1.0
 92
        0
 66
   257
 43
1.0
 76
     1
 77
     6
 78
     2
 67
     7
 79
     5
170
     0
171
     0
290
     0
174
     0
 93
       13
 44
0.0
173
     0
291
     1
 45
0.0
1001
ACAD
1000
AcDbSavedByObjectVersion
1070
     0
  0
VISUALSTYLE
  5
D67
102
{ACAD_XDICTIONARY
360
10E1
102
}
102
{ACAD_REACTORS
330
D5F
102
}
330
D5F
100
AcDbVisualStyle
  2
Hidden
 70
     6
 71
     1
 72
     2
 73
     2
 90
        0
 40
-0.6
 41
-30.0
 62
     5
 63
     7
421
 16777215
 74
     2
 91
        2
 64
     7
 65
   257
 75
     2
175
     1
 42
40.0
 92
        0
 66
   257
 43
1.0
 76
     1
 77
     6
 78
     2
 67
     7
 79
     3
170
     0
171
     0
290
     0
174
     0
 93
        1
 44
0.0
173
     0
291
     0
 45
0.0
1001
ACAD
1000
AcDbSavedByObjectVersion
1070
     0
  0
VISUALSTYLE
  5
D75
102
{ACAD_XDICTIONARY
360
10FD
102
}
102
{ACAD_REACTORS
330
D5F
102
}
330
D5F
100
AcDbVisualStyle
  2
JitterOff
 70
    20
 71
     2
 72
     2
 73
     0
 90
        0
 40
-0.6
 41
-30.0
 62
     5
 63
     7
421
 16777215
 74
     1
 91
        4
 64
     7
 65
   257
 75
     1
175
     1
 42
1.0
 92
       10
 66
     7
 43
1.0
 76
     1
 77
     6
 78
     2
 67
     7
 79
     5
170
     0
171
     0
290
     0
174
     0
 93
        1
 44
0.0
173
     0
291
     1
 45
0.0
1001
ACAD
1000
AcDbSavedByObjectVersion
1070
     0
  0
VISUALSTYLE
  5
D6D
102
{ACAD_XDICTIONARY
360
10ED
102
}
102
{ACAD_REACTORS
330
D5F
102
}
330
D5F
100
AcDbVisualStyle
  2
Linepattern
 70
    14
 71
     2
 72
     2
 73
     0
 90
        0
 40
-0.6
 41
-30.0
 62
     5
 63
     7
421
 16777215
 74
     1
 91
        4
 64
     7
 65
   257
 75
     7
175
     7
 42
1.0
 92
        8
 66
     7
 43
1.0
 76
     1
 77
     6
 78
     2
 67
     7
 79
     5
170
     0
171
     0
290
     0
174
     0
 93
        1
 44
0.0
173
     0
291
     1
 45
0.0
1001
ACAD
1000
AcDbSavedByObjectVersion
1070
     0
  0
VISUALSTYLE
  5
D76
102
{ACAD_XDICTIONARY
360
10FF
102
}
102
{ACAD_REACTORS
330
D5F
102
}
330
D5F
100
AcDbVisualStyle
  2
OverhangOff
 70
    21
 71
     2
 72
     2
 73
     0
 90
        0
 40
-0.6
 41
-30.0
 62
     5
 63
     7
421
 16777215
 74
     1
 91
        4
 64
     7
 65
   257
 75
     1
175
     1
 42
1.0
 92
        9
 66
     7
 43
1.0
 76
     1
 77
     6
 78
     2
 67
     7
 79
     5
170
     0
171
     0
290
     0
174
     0
 93
        1
 44
0.0
173
     0
291
     1
 45
0.0
1001
ACAD
1000
AcDbSavedByObjectVersion
1070
     0
  0
VISUALSTYLE
  5
D69
102
{ACAD_XDICTIONARY
360
10E5
102
}
102
{ACAD_REACTORS
330
D5F
102
}
330
D5F
100
AcDbVisualStyle
  2
Realistic
 70
     8
 71
     2
 72
     3
 73
     0
 90
        2
 40
-0.6
 41
30.0
 62
     5
 63
     7
421
 16777215
 74
     0
 91
        0
 64
     7
 65
   257
 75
     1
175
     1
 42
1.0
 92
        8
 66
   257
 43
1.0
 76
     1
 77
     6
 78
     2
 67
     7
 79
     3
170
     0
171
     0
290
     0
174
     0
 93
       13
 44
0.0
173
     0
291
     0
 45
0.0
1001
ACAD
1000
AcDbSavedByObjectVersion
1070
     0
  0
VISUALSTYLE
  5
D74
102
{ACAD_XDICTIONARY
360
10FB
102
}
102
{ACAD_REACTORS
330
D5F
102
}
330
D5F
100
AcDbVisualStyle
  2
Shaded
 70
    27
 71
     2
 72
     2
 73
     1
 90
        2
 40
-0.6
 41
30.0
 62
     5
 63
     7
421
 16777215
 74
     0
 91
        4
 64
     7
 65
   257
 75
     1
175
     1
 42
1.0
 92
        8
 66
   257
 43
1.0
 76
     1
 77
     6
 78
     2
 67
     8
425
  7895160
 79
     3
170
     0
171
     0
290
     0
174
     0
 93
        5
 44
0.0
173
     0
291
     0
 45
0.0
1001
ACAD
1000
AcDbSavedByObjectVersion
1070
     0
  0
VISUALSTYLE
  5
D73
102
{ACAD_XDICTIONARY
360
10F9
102
}
102
{ACAD_REACTORS
330
D5F
102
}
330
D5F
100
AcDbVisualStyle
  2
Shaded with edges
 70
    26
 71
     2
 72
     2
 73
     1
 90
        2
 40
-0.6
 41
30.0
 62
     5
 63
     7
421
 16777215
 74
     1
 91
       10
 64
     7
 65
   257
 75
     2
175
     1
 42
1.0
 92
        8
 66
   257
 43
1.0
 76
     1
 77
     6
 78
     2
 67
     7
 79
     3
170
     0
171
     0
290
     0
174
     0
 93
        5
 44
0.0
173
     0
291
     0
 45
0.0
1001
ACAD
1000
AcDbSavedByObjectVersion
1070
     0
  0
VISUALSTYLE
  5
D70
102
{ACAD_XDICTIONARY
360
10F3
102
}
102
{ACAD_REACTORS
330
D5F
102
}
330
D5F
100
AcDbVisualStyle
  2
Shades of Gray
 70
    23
 71
     2
 72
     2
 73
     3
 90
        0
 40
-0.6
 41
-30.0
 62
     5
 63
     7
421
 16777215
 74
     2
 91
        2
 64
     7
 65
     7
 75
     1
175
     1
 42
40.0
 92
        8
 66
     7
 43
1.0
 76
     1
 77
     6
 78
     2
 67
     7
 79
     3
170
     0
171
     0
290
     0
174
     0
 93
        1
 44
0.0
173
     0
291
     0
 45
0.0
1001
ACAD
1000
AcDbSavedByObjectVersion
1070
     0
  0
VISUALSTYLE
  5
D71
102
{ACAD_XDICTIONARY
360
10F5
102
}
102
{ACAD_REACTORS
330
D5F
102
}
330
D5F
100
AcDbVisualStyle
  2
Sketchy
 70
    24
 71
     1
 72
     2
 73
     2
 90
        0
 40
-0.6
 41
-30.0
 62
     5
 63
     7
421
 16777215
 74
     2
 91
        2
 64
     7
 65
     7
 75
     1
175
     1
 42
40.0
 92
       11
 66
     7
 43
1.0
 76
     1
 77
     6
 78
     2
 67
     7
 79
     6
170
     0
171
     0
290
     0
174
     0
 93
        1
 44
0.0
173
     0
291
     0
 45
0.0
1001
ACAD
1000
AcDbSavedByObjectVersion
1070
     0
  0
VISUALSTYLE
  5
D6C
102
{ACAD_XDICTIONARY
360
10EB
102
}
102
{ACAD_REACTORS
330
D5F
102
}
330
D5F
100
AcDbVisualStyle
  2
Thicken
 70
    13
 71
     2
 72
     2
 73
     0
 90
        0
 40
-0.6
 41
-30.0
 62
     5
 63
     7
421
 16777215
 74
     1
 91
        4
 64
     7
 65
   257
 75
     1
175
     1
 42
1.0
 92
       12
 66
     7
 43
1.0
 76
     1
 77
     6
 78
     2
 67
     7
 79
     5
170
     0
171
     0
290
     0
174
     0
 93
        1
 44
0.0
173
     0
291
     1
 45
0.0
1001
ACAD
1000
AcDbSavedByObjectVersion
1070
     0
  0
VISUALSTYLE
  5
D66
102
{ACAD_XDICTIONARY
360
10DF
102
}
102
{ACAD_REACTORS
330
D5F
102
}
330
D5F
100
AcDbVisualStyle
  2
Wireframe
 70
     5
 71
     0
 72
     2
 73
     0
 90
        0
 40
-0.6
 41
-30.0
 62
     5
 63
     7
421
 16777215
 74
     1
 91
        4
 64
     7
 65
   257
 75
     1
175
     1
 42
1.0
 92
        0
 66
   257
 43
1.0
 76
     1
 77
     6
 78
     2
 67
     7
 79
     3
170
     0
171
     0
290
     0
174
     0
 93
        1
 44
0.0
173
     0
291
     0
 45
0.0
1001
ACAD
1000
AcDbSavedByObjectVersion
1070
     0
  0
VISUALSTYLE
  5
D72
102
{ACAD_XDICTIONARY
360
10F7
102
}
102
{ACAD_REACTORS
330
D5F
102
}
330
D5F
100
AcDbVisualStyle
  2
X-Ray
 70
    25
 71
     2
 72
     2
 73
     1
 90
        1
 40
0.5
 41
-30.0
 62
     5
 63
     7
421
 16777215
 74
     1
 91
        0
 64
     7
 65
   257
 75
     1
175
     1
 42
1.0
 92
        8
 66
     7
 43
1.0
 76
     1
 77
     6
 78
     2
 67
     7
 79
     3
170
     0
171
     0
290
     0
174
     0
 93
       13
 44
0.0
173
     0
291
     0
 45
0.0
1001
ACAD
1000
AcDbSavedByObjectVersion
1070
     0
  0
DICTIONARYVAR
  5
10CB
102
{ACAD_REACTORS
330
61E
102
}
330
61E
100
DictionaryVariables
280
     0
  1
1:1
  0
DICTIONARYVAR
  5
10C8
102
{ACAD_REACTORS
330
61E
102
}
330
61E
100
DictionaryVariables
280
     0
  1
STANDARD
  0
DICTIONARYVAR
  5
B34
102
{ACAD_REACTORS
330
61E
102
}
330
61E
100
DictionaryVariables
280
     0
  1
STANDARD
  0
DICTIONARYVAR
  5
10C9
102
{ACAD_REACTORS
330
61E
102
}
330
61E
100
DictionaryVariables
280
     0
  1
Metric50
  0
DICTIONARYVAR
  5
10CA
102
{ACAD_REACTORS
330
61E
102
}
330
61E
100
DictionaryVariables
280
     0
  1
Metric50
  0
DICTIONARYVAR
  5
61F
102
{ACAD_REACTORS
330
61E
102
}
330
61E
100
DictionaryVariables
280
     0
  1
96
  0
DICTIONARY
  5
1106
330
D8F
100
AcDbDictionary
280
     1
281
     1
  3
ACAD_XREC_ROUNDTRIP
360
1107
  0
DICTIONARY
  5
D50
330
D4F
100
AcDbDictionary
280
     1
281
     1
  3
ACAD_XREC_ROUNDTRIP
360
10D1
  3
BUMPTILE
360
D52
  3
DIFFUSETILE
360
D51
  3
OPACITYTILE
360
D55
  3
REFLECTIONTILE
360
D54
  3
REFRACTIONTILE
360
D56
  3
SPECULARTILE
360
D53
  0
DICTIONARY
  5
D48
330
D47
100
AcDbDictionary
280
     1
281
     1
  3
ACAD_XREC_ROUNDTRIP
360
10D0
  3
BUMPTILE
360
D4A
  3
DIFFUSETILE
360
D49
  3
OPACITYTILE
360
D4D
  3
REFLECTIONTILE
360
D4C
  3
REFRACTIONTILE
360
D4E
  3
SPECULARTILE
360
D4B
  0
DICTIONARY
  5
D58
330
D57
100
AcDbDictionary
280
     1
281
     1
  3
ACAD_XREC_ROUNDTRIP
360
10D2
  3
BUMPTILE
360
D5A
  3
DIFFUSETILE
360
D59
  3
OPACITYTILE
360
D5D
  3
REFLECTIONTILE
360
D5C
  3
REFRACTIONTILE
360
D5E
  3
SPECULARTILE
360
D5B
  0
DICTIONARY
  5
1104
330
D8D
100
AcDbDictionary
280
     1
281
     1
  3
ACAD_XREC_ROUNDTRIP
360
1105
  0
DICTIONARY
  5
10CC
330
B2A
100
AcDbDictionary
280
     1
281
     1
  3
ACAD_ROUNDTRIP_2008_TABLESTYLE_CELLSTYLEMAP
360
10CD
  3
ACAD_XREC_ROUNDTRIP
360
10CF
  0
DICTIONARY
  5
10DD
330
D65
100
AcDbDictionary
280
     1
281
     1
  3
ACAD_XREC_ROUNDTRIP
360
10DE
  0
DICTIONARY
  5
10DB
330
D64
100
AcDbDictionary
280
     1
281
     1
  3
ACAD_XREC_ROUNDTRIP
360
10DC
  0
DICTIONARY
  5
10E9
330
D6B
100
AcDbDictionary
280
     1
281
     1
  3
ACAD_XREC_ROUNDTRIP
360
10EA
  0
DICTIONARY
  5
10F1
330
D6F
100
AcDbDictionary
280
     1
281
     1
  3
ACAD_XREC_ROUNDTRIP
360
10F2
  0
DICTIONARY
  5
10E3
330
D68
100
AcDbDictionary
280
     1
281
     1
  3
ACAD_XREC_ROUNDTRIP
360
10E4
  0
DICTIONARY
  5
10E7
330
D6A
100
AcDbDictionary
280
     1
281
     1
  3
ACAD_XREC_ROUNDTRIP
360
10E8
  0
DICTIONARY
  5
1101
330
D77
100
AcDbDictionary
280
     1
281
     1
  3
ACAD_XREC_ROUNDTRIP
360
1102
  0
DICTIONARY
  5
10EF
330
D6E
100
AcDbDictionary
280
     1
281
     1
  3
ACAD_XREC_ROUNDTRIP
360
10F0
  0
DICTIONARY
  5
10D3
330
D60
100
AcDbDictionary
280
     1
281
     1
  3
ACAD_XREC_ROUNDTRIP
360
10D4
  0
DICTIONARY
  5
10D5
330
D61
100
AcDbDictionary
280
     1
281
     1
  3
ACAD_XREC_ROUNDTRIP
360
10D6
  0
DICTIONARY
  5
10D7
330
D62
100
AcDbDictionary
280
     1
281
     1
  3
ACAD_XREC_ROUNDTRIP
360
10D8
  0
DICTIONARY
  5
10D9
330
D63
100
AcDbDictionary
280
     1
281
     1
  3
ACAD_XREC_ROUNDTRIP
360
10DA
  0
DICTIONARY
  5
10E1
330
D67
100
AcDbDictionary
280
     1
281
     1
  3
ACAD_XREC_ROUNDTRIP
360
10E2
  0
DICTIONARY
  5
10FD
330
D75
100
AcDbDictionary
280
     1
281
     1
  3
ACAD_XREC_ROUNDTRIP
360
10FE
  0
DICTIONARY
  5
10ED
330
D6D
100
AcDbDictionary
280
     1
281
     1
  3
ACAD_XREC_ROUNDTRIP
360
10EE
  0
DICTIONARY
  5
10FF
330
D76
100
AcDbDictionary
280
     1
281
     1
  3
ACAD_XREC_ROUNDTRIP
360
1100
  0
DICTIONARY
  5
10E5
330
D69
100
AcDbDictionary
280
     1
281
     1
  3
ACAD_XREC_ROUNDTRIP
360
10E6
  0
DICTIONARY
  5
10FB
330
D74
100
AcDbDictionary
280
     1
281
     1
  3
ACAD_XREC_ROUNDTRIP
360
10FC
  0
DICTIONARY
  5
10F9
330
D73
100
AcDbDictionary
280
     1
281
     1
  3
ACAD_XREC_ROUNDTRIP
360
10FA
  0
DICTIONARY
  5
10F3
330
D70
100
AcDbDictionary
280
     1
281
     1
  3
ACAD_XREC_ROUNDTRIP
360
10F4
  0
DICTIONARY
  5
10F5
330
D71
100
AcDbDictionary
280
     1
281
     1
  3
ACAD_XREC_ROUNDTRIP
360
10F6
  0
DICTIONARY
  5
10EB
330
D6C
100
AcDbDictionary
280
     1
281
     1
  3
ACAD_XREC_ROUNDTRIP
360
10EC
  0
DICTIONARY
  5
10DF
330
D66
100
AcDbDictionary
280
     1
281
     1
  3
ACAD_XREC_ROUNDTRIP
360
10E0
  0
DICTIONARY
  5
10F7
330
D72
100
AcDbDictionary
280
     1
281
     1
  3
ACAD_XREC_ROUNDTRIP
360
10F8
  0
XRECORD
  5
1107
102
{ACAD_REACTORS
330
1106
102
}
330
1106
100
AcDbXrecord
280
     1
102
DISPLAYNAME
  1
Metric50
102
FLAGS
 90
        0
  0
XRECORD
  5
10D1
102
{ACAD_REACTORS
330
D50
102
}
330
D50
100
AcDbXrecord
280
     1
102
MATERIAL
148
0.0
149
0.0
149
0.0
 93
        0
 94
      127
282
     0
 72
     0
 77
     0
171
     0
175
     0
179
     0
273
     0
  0
XRECORD
  5
D52
102
{ACAD_REACTORS
330
D50
102
}
330
D50
100
AcDbXrecord
280
     1
270
     1
271
     1
  0
XRECORD
  5
D51
102
{ACAD_REACTORS
330
D50
102
}
330
D50
100
AcDbXrecord
280
     1
270
     1
271
     1
  0
XRECORD
  5
D55
102
{ACAD_REACTORS
330
D50
102
}
330
D50
100
AcDbXrecord
280
     1
270
     1
271
     1
  0
XRECORD
  5
D54
102
{ACAD_REACTORS
330
D50
102
}
330
D50
100
AcDbXrecord
280
     1
270
     1
271
     1
  0
XRECORD
  5
D56
102
{ACAD_REACTORS
330
D50
102
}
330
D50
100
AcDbXrecord
280
     1
270
     1
271
     1
  0
XRECORD
  5
D53
102
{ACAD_REACTORS
330
D50
102
}
330
D50
100
AcDbXrecord
280
     1
270
     1
271
     1
  0
XRECORD
  5
10D0
102
{ACAD_REACTORS
330
D48
102
}
330
D48
100
AcDbXrecord
280
     1
102
MATERIAL
148
0.0
149
0.0
149
0.0
 93
        0
 94
      127
282
     0
 72
     0
 77
     0
171
     0
175
     0
179
     0
273
     0
  0
XRECORD
  5
D4A
102
{ACAD_REACTORS
330
D48
102
}
330
D48
100
AcDbXrecord
280
     1
270
     1
271
     1
  0
XRECORD
  5
D49
102
{ACAD_REACTORS
330
D48
102
}
330
D48
100
AcDbXrecord
280
     1
270
     1
271
     1
  0
XRECORD
  5
D4D
102
{ACAD_REACTORS
330
D48
102
}
330
D48
100
AcDbXrecord
280
     1
270
     1
271
     1
  0
XRECORD
  5
D4C
102
{ACAD_REACTORS
330
D48
102
}
330
D48
100
AcDbXrecord
280
     1
270
     1
271
     1
  0
XRECORD
  5
D4E
102
{ACAD_REACTORS
330
D48
102
}
330
D48
100
AcDbXrecord
280
     1
270
     1
271
     1
  0
XRECORD
  5
D4B
102
{ACAD_REACTORS
330
D48
102
}
330
D48
100
AcDbXrecord
280
     1
270
     1
271
     1
  0
XRECORD
  5
10D2
102
{ACAD_REACTORS
330
D58
102
}
330
D58
100
AcDbXrecord
280
     1
102
MATERIAL
148
0.0
149
0.0
149
0.0
 93
        0
 94
      127
282
     0
 72
     0
 77
     0
171
     0
175
     0
179
     0
273
     0
  0
XRECORD
  5
D5A
102
{ACAD_REACTORS
330
D58
102
}
330
D58
100
AcDbXrecord
280
     1
270
     1
271
     1
  0
XRECORD
  5
D59
102
{ACAD_REACTORS
330
D58
102
}
330
D58
100
AcDbXrecord
280
     1
270
     1
271
     1
  0
XRECORD
  5
D5D
102
{ACAD_REACTORS
330
D58
102
}
330
D58
100
AcDbXrecord
280
     1
270
     1
271
     1
  0
XRECORD
  5
D5C
102
{ACAD_REACTORS
330
D58
102
}
330
D58
100
AcDbXrecord
280
     1
270
     1
271
     1
  0
XRECORD
  5
D5E
102
{ACAD_REACTORS
330
D58
102
}
330
D58
100
AcDbXrecord
280
     1
270
     1
271
     1
  0
XRECORD
  5
D5B
102
{ACAD_REACTORS
330
D58
102
}
330
D58
100
AcDbXrecord
280
     1
270
     1
271
     1
  0
XRECORD
  5
1105
102
{ACAD_REACTORS
330
1104
102
}
330
1104
100
AcDbXrecord
280
     1
102
DISPLAYNAME
  1
Metric50
102
FLAGS
 90
        0
  0
CELLSTYLEMAP
  5
10CD
102
{ACAD_REACTORS
330
10CC
102
}
330
10CC
100
AcDbCellStyleMap
 90
        3
300
CELLSTYLE
  1
TABLEFORMAT_BEGIN
 90
        5
170
     1
 91
        0
 92
    32768
 62
   257
 93
        1
300
CONTENTFORMAT
  1
CONTENTFORMAT_BEGIN
 90
        0
 91
        0
 92
        4
 93
        0
300

 40
0.0
140
1.0
 94
        5
 62
     0
340
F
144
6.0
309
CONTENTFORMAT_END
171
     1
301
MARGIN
  1
CELLMARGIN_BEGIN
 40
1.5
 40
1.5
 40
1.5
 40
1.5
 40
0.18
 40
0.18
309
CELLMARGIN_END
 94
        6
 95
        1
302
GRIDFORMAT
  1
GRIDFORMAT_BEGIN
 90
        0
 91
        1
 62
     0
 92
       -2
340
0
 93
        0
 40
0.045
309
GRIDFORMAT_END
 95
        2
302
GRIDFORMAT
  1
GRIDFORMAT_BEGIN
 90
        0
 91
        1
 62
     0
 92
       -2
340
0
 93
        0
 40
0.045
309
GRIDFORMAT_END
 95
        4
302
GRIDFORMAT
  1
GRIDFORMAT_BEGIN
 90
        0
 91
        1
 62
     0
 92
       -2
340
0
 93
        0
 40
0.045
309
GRIDFORMAT_END
 95
        8
302
GRIDFORMAT
  1
GRIDFORMAT_BEGIN
 90
        0
 91
        1
 62
     0
 92
       -2
340
0
 93
        0
 40
0.045
309
GRIDFORMAT_END
 95
       16
302
GRIDFORMAT
  1
GRIDFORMAT_BEGIN
 90
        0
 91
        1
 62
     0
 92
       -2
340
0
 93
        0
 40
0.045
309
GRIDFORMAT_END
 95
       32
302
GRIDFORMAT
  1
GRIDFORMAT_BEGIN
 90
        0
 91
        1
 62
     0
 92
       -2
340
0
 93
        0
 40
0.045
309
GRIDFORMAT_END
309
TABLEFORMAT_END
  1
CELLSTYLE_BEGIN
 90
        1
 91
        1
300
_TITLE
309
CELLSTYLE_END
300
CELLSTYLE
  1
TABLEFORMAT_BEGIN
 90
        5
170
     1
 91
        0
 92
        0
 62
   257
 93
        1
300
CONTENTFORMAT
  1
CONTENTFORMAT_BEGIN
 90
        0
 91
        0
 92
        4
 93
        0
300

 40
0.0
140
1.0
 94
        5
 62
     0
340
F
144
4.5
309
CONTENTFORMAT_END
171
     1
301
MARGIN
  1
CELLMARGIN_BEGIN
 40
1.5
 40
1.5
 40
1.5
 40
1.5
 40
0.18
 40
0.18
309
CELLMARGIN_END
 94
        6
 95
        1
302
GRIDFORMAT
  1
GRIDFORMAT_BEGIN
 90
        0
 91
        1
 62
     0
 92
       -2
340
0
 93
        0
 40
0.045
309
GRIDFORMAT_END
 95
        2
302
GRIDFORMAT
  1
GRIDFORMAT_BEGIN
 90
        0
 91
        1
 62
     0
 92
       -2
340
0
 93
        0
 40
0.045
309
GRIDFORMAT_END
 95
        4
302
GRIDFORMAT
  1
GRIDFORMAT_BEGIN
 90
        0
 91
        1
 62
     0
 92
       -2
340
0
 93
        0
 40
0.045
309
GRIDFORMAT_END
 95
        8
302
GRIDFORMAT
  1
GRIDFORMAT_BEGIN
 90
        0
 91
        1
 62
     0
 92
       -2
340
0
 93
        0
 40
0.045
309
GRIDFORMAT_END
 95
       16
302
GRIDFORMAT
  1
GRIDFORMAT_BEGIN
 90
        0
 91
        1
 62
     0
 92
       -2
340
0
 93
        0
 40
0.045
309
GRIDFORMAT_END
 95
       32
302
GRIDFORMAT
  1
GRIDFORMAT_BEGIN
 90
        0
 91
        1
 62
     0
 92
       -2
340
0
 93
        0
 40
0.045
309
GRIDFORMAT_END
309
TABLEFORMAT_END
  1
CELLSTYLE_BEGIN
 90
        2
 91
        1
300
_HEADER
309
CELLSTYLE_END
300
CELLSTYLE
  1
TABLEFORMAT_BEGIN
 90
        5
170
     1
 91
        0
 92
        0
 62
   257
 93
        1
300
CONTENTFORMAT
  1
CONTENTFORMAT_BEGIN
 90
        0
 91
        0
 92
        4
 93
        0
300

 40
0.0
140
1.0
 94
        2
 62
     0
340
F
144
4.5
309
CONTENTFORMAT_END
171
     1
301
MARGIN
  1
CELLMARGIN_BEGIN
 40
1.5
 40
1.5
 40
1.5
 40
1.5
 40
0.18
 40
0.18
309
CELLMARGIN_END
 94
        6
 95
        1
302
GRIDFORMAT
  1
GRIDFORMAT_BEGIN
 90
        0
 91
        1
 62
     0
 92
       -2
340
0
 93
        0
 40
0.045
309
GRIDFORMAT_END
 95
        2
302
GRIDFORMAT
  1
GRIDFORMAT_BEGIN
 90
        0
 91
        1
 62
     0
 92
       -2
340
0
 93
        0
 40
0.045
309
GRIDFORMAT_END
 95
        4
302
GRIDFORMAT
  1
GRIDFORMAT_BEGIN
 90
        0
 91
        1
 62
     0
 92
       -2
340
0
 93
        0
 40
0.045
309
GRIDFORMAT_END
 95
        8
302
GRIDFORMAT
  1
GRIDFORMAT_BEGIN
 90
        0
 91
        1
 62
     0
 92
       -2
340
0
 93
        0
 40
0.045
309
GRIDFORMAT_END
 95
       16
302
GRIDFORMAT
  1
GRIDFORMAT_BEGIN
 90
        0
 91
        1
 62
     0
 92
       -2
340
0
 93
        0
 40
0.045
309
GRIDFORMAT_END
 95
       32
302
GRIDFORMAT
  1
GRIDFORMAT_BEGIN
 90
        0
 91
        1
 62
     0
 92
       -2
340
0
 93
        0
 40
0.045
309
GRIDFORMAT_END
309
TABLEFORMAT_END
  1
CELLSTYLE_BEGIN
 90
        3
 91
        2
300
_DATA
309
CELLSTYLE_END
  0
XRECORD
  5
10CF
102
{ACAD_REACTORS
330
10CC
102
}
330
10CC
100
AcDbXrecord
280
     1
102
ACAD_ROUNDTRIP_PRE2007_TABLESTYLE
 90
        4
 91
        0
  1

 92
        4
 93
        0
  2

 94
        4
 95
        0
  3

  0
XRECORD
  5
10DE
102
{ACAD_REACTORS
330
10DD
102
}
330
10DD
100
AcDbXrecord
280
     1
102
RTVSPost2010Prop28
280
     1
102
RTVSPost2010PropOp28
 70
     1
102
RTVSPost2010Prop29
280
     1
102
RTVSPost2010PropOp29
 70
     1
102
RTVSPost2010Prop30
280
     0
102
RTVSPost2010PropOp30
 70
     1
102
RTVSPost2010Prop31
280
     0
102
RTVSPost2010PropOp31
 70
     1
102
RTVSPost2010Prop32
280
     0
102
RTVSPost2010PropOp32
 70
     1
102
RTVSPost2010Prop33
280
     0
102
RTVSPost2010PropOp33
 70
     1
102
RTVSPost2010Prop34
280
     0
102
RTVSPost2010PropOp34
 70
     1
102
RTVSPost2010Prop35
280
     0
102
RTVSPost2010PropOp35
 70
     1
102
RTVSPost2010Prop36
280
     0
102
RTVSPost2010PropOp36
 70
     1
102
RTVSPost2010Prop37
 90
       50
102
RTVSPost2010PropOp37
 70
     1
102
RTVSPost2010Prop38
140
0.0
102
RTVSPost2010PropOp38
 70
     1
102
RTVSPost2010Prop39
140
1.0
102
RTVSPost2010PropOp39
 70
     1
102
RTVSPost2010Prop40
 90
        0
102
RTVSPost2010PropOp40
 70
     1
102
RTVSPost2010Prop41ColorIndex
 90
       18
102
RTVSPost2010Prop41ColorRGB
 90
        0
102
RTVSPost2010PropOp41
 70
     1
102
RTVSPost2010Prop42
 90
       50
102
RTVSPost2010PropOp42
 70
     1
102
RTVSPost2010Prop43
 90
        3
102
RTVSPost2010PropOp43
 70
     1
102
RTVSPost2010Prop44ColorIndex
 90
        5
102
RTVSPost2010Prop44ColorRGB
 90
      255
102
RTVSPost2010PropOp44
 70
     1
102
RTVSPost2010Prop45
280
     0
102
RTVSPost2010PropOp45
 70
     1
102
RTVSPost2010Prop46
 90
       50
102
RTVSPost2010PropOp46
 70
     1
102
RTVSPost2010Prop47
 90
       50
102
RTVSPost2010PropOp47
 70
     1
102
RTVSPost2010Prop48
 90
       50
102
RTVSPost2010PropOp48
 70
     1
102
RTVSPost2010Prop49
280
     0
102
RTVSPost2010PropOp49
 70
     1
102
RTVSPost2010Prop50
 90
       50
102
RTVSPost2010PropOp50
 70
     1
102
RTVSPost2010Prop51ColorIndex
 90
      256
102
RTVSPost2010Prop51ColorRGB
 90
-16777216
102
RTVSPost2010PropOp51
 70
     0
102
RTVSPost2010Prop52
140
1.0
102
RTVSPost2010PropOp52
 70
     0
102
RTVSPost2010Prop53
 90
        2
102
RTVSPost2010PropOp53
 70
     1
102
RTVSPost2010Prop54
  1
strokes_ogs.tif
102
RTVSPost2010PropOp54
 70
     1
102
RTVSPost2010Prop55
280
     0
102
RTVSPost2010PropOp55
 70
     1
102
RTVSPost2010Prop56
140
1.0
102
RTVSPost2010PropOp56
 70
     1
102
RTVSPost2010Prop57
140
1.0
102
RTVSPost2010PropOp57
 70
     1
102
RTVSPropertyOp0
 70
     1
102
RTVSPropertyOp1
 70
     1
102
RTVSPropertyOp2
 70
     1
102
RTVSPropertyOp3
 70
     1
102
RTVSPropertyOp4
 70
     1
102
RTVSPropertyOp5
 70
     1
102
RTVSPropertyOp6
 70
     1
102
RTVSPropertyOp7
 70
     1
102
RTVSPropertyOp8
 70
     1
102
RTVSPropertyOp9
 70
     1
102
RTVSPropertyOp10
 70
     1
102
RTVSPropertyOp11
 70
     1
102
RTVSPropertyOp12
 70
     1
102
RTVSPropertyOp13
 70
     1
102
RTVSPropertyOp14
 70
     1
102
RTVSPropertyOp15
 70
     1
102
RTVSPropertyOp16
 70
     1
102
RTVSPropertyOp17
 70
     1
102
RTVSPropertyOp18
 70
     1
102
RTVSPropertyOp19
 70
     1
102
RTVSPropertyOp20
 70
     1
102
RTVSPropertyOp21
 70
     1
102
RTVSPropertyOp22
 70
     1
102
RTVSPropertyOp23
 70
     1
102
RTVSPropertyOp24
 70
     1
102
RTVSPropertyOp25
 70
     1
102
RTVSPropertyOp26
 70
     1
102
RTVSPropertyOp27
 70
     1
102
RTVSPropertyOp28
 70
     1
102
RTVSPropertyOp29
 70
     1
102
RTVSPropertyOp30
 70
     1
102
RTVSPropertyOp31
 70
     1
102
RTVSPropertyOp32
 70
     1
102
RTVSPropertyOp33
 70
     1
102
RTVSPropertyOp34
 70
     1
102
RTVSPropertyOp35
 70
     1
102
RTVSPropertyOp36
 70
     1
102
RTVSPropertyOp37
 70
     1
102
RTVSPropertyOp38
 70
     1
102
RTVSPropertyOp39
 70
     1
102
RTVSPropertyOp40
 70
     1
102
RTVSPropertyOp41
 70
     1
102
RTVSPropertyOp42
 70
     1
102
RTVSPropertyOp43
 70
     1
102
RTVSPropertyOp44
 70
     1
102
RTVSPropertyOp45
 70
     1
102
RTVSPropertyOp46
 70
     1
102
RTVSPropertyOp47
 70
     1
102
RTVSPropertyOp48
 70
     1
102
RTVSPropertyOp49
 70
     1
102
RTVSPropertyOp50
 70
     1
102
RTVSPropertyOp51
 70
     0
102
RTVSPropertyOp52
 70
     0
102
RTVSPropertyOp53
 70
     1
102
RTVSPropertyOp54
 70
     1
102
RTVSPropertyOp55
 70
     1
102
RTVSPropertyOp56
 70
     1
102
RTVSPropertyOp57
 70
     1
102
RTVSPropertyOp58
 70
     1
102
RTVSPropertyOp59
 70
     1
102
RTVSPropertyOp60
 70
     1
102
RTVSPropertyOp61
 70
     1
102
RTVSPropertyOp62
 70
     1
  0
XRECORD
  5
10DC
102
{ACAD_REACTORS
330
10DB
102
}
330
10DB
100
AcDbXrecord
280
     1
102
RTVSPost2010Prop28
280
     0
102
RTVSPost2010PropOp28
 70
     1
102
RTVSPost2010Prop29
280
     1
102
RTVSPost2010PropOp29
 70
     1
102
RTVSPost2010Prop30
280
     1
102
RTVSPost2010PropOp30
 70
     1
102
RTVSPost2010Prop31
280
     0
102
RTVSPost2010PropOp31
 70
     1
102
RTVSPost2010Prop32
280
     0
102
RTVSPost2010PropOp32
 70
     1
102
RTVSPost2010Prop33
280
     0
102
RTVSPost2010PropOp33
 70
     1
102
RTVSPost2010Prop34
280
     0
102
RTVSPost2010PropOp34
 70
     1
102
RTVSPost2010Prop35
280
     0
102
RTVSPost2010PropOp35
 70
     1
102
RTVSPost2010Prop36
280
     0
102
RTVSPost2010PropOp36
 70
     1
102
RTVSPost2010Prop37
 90
       50
102
RTVSPost2010PropOp37
 70
     1
102
RTVSPost2010Prop38
140
0.0
102
RTVSPost2010PropOp38
 70
     1
102
RTVSPost2010Prop39
140
1.0
102
RTVSPost2010PropOp39
 70
     1
102
RTVSPost2010Prop40
 90
        0
102
RTVSPost2010PropOp40
 70
     1
102
RTVSPost2010Prop41ColorIndex
 90
       18
102
RTVSPost2010Prop41ColorRGB
 90
        0
102
RTVSPost2010PropOp41
 70
     1
102
RTVSPost2010Prop42
 90
       50
102
RTVSPost2010PropOp42
 70
     1
102
RTVSPost2010Prop43
 90
        3
102
RTVSPost2010PropOp43
 70
     1
102
RTVSPost2010Prop44ColorIndex
 90
        5
102
RTVSPost2010Prop44ColorRGB
 90
      255
102
RTVSPost2010PropOp44
 70
     1
102
RTVSPost2010Prop45
280
     0
102
RTVSPost2010PropOp45
 70
     1
102
RTVSPost2010Prop46
 90
       50
102
RTVSPost2010PropOp46
 70
     1
102
RTVSPost2010Prop47
 90
       50
102
RTVSPost2010PropOp47
 70
     1
102
RTVSPost2010Prop48
 90
       50
102
RTVSPost2010PropOp48
 70
     1
102
RTVSPost2010Prop49
280
     0
102
RTVSPost2010PropOp49
 70
     1
102
RTVSPost2010Prop50
 90
       50
102
RTVSPost2010PropOp50
 70
     1
102
RTVSPost2010Prop51ColorIndex
 90
      256
102
RTVSPost2010Prop51ColorRGB
 90
-16777216
102
RTVSPost2010PropOp51
 70
     0
102
RTVSPost2010Prop52
140
1.0
102
RTVSPost2010PropOp52
 70
     0
102
RTVSPost2010Prop53
 90
        2
102
RTVSPost2010PropOp53
 70
     1
102
RTVSPost2010Prop54
  1
strokes_ogs.tif
102
RTVSPost2010PropOp54
 70
     1
102
RTVSPost2010Prop55
280
     0
102
RTVSPost2010PropOp55
 70
     1
102
RTVSPost2010Prop56
140
1.0
102
RTVSPost2010PropOp56
 70
     1
102
RTVSPost2010Prop57
140
1.0
102
RTVSPost2010PropOp57
 70
     1
102
RTVSPropertyOp0
 70
     1
102
RTVSPropertyOp1
 70
     1
102
RTVSPropertyOp2
 70
     1
102
RTVSPropertyOp3
 70
     1
102
RTVSPropertyOp4
 70
     1
102
RTVSPropertyOp5
 70
     1
102
RTVSPropertyOp6
 70
     1
102
RTVSPropertyOp7
 70
     1
102
RTVSPropertyOp8
 70
     1
102
RTVSPropertyOp9
 70
     1
102
RTVSPropertyOp10
 70
     1
102
RTVSPropertyOp11
 70
     1
102
RTVSPropertyOp12
 70
     1
102
RTVSPropertyOp13
 70
     1
102
RTVSPropertyOp14
 70
     1
102
RTVSPropertyOp15
 70
     1
102
RTVSPropertyOp16
 70
     1
102
RTVSPropertyOp17
 70
     1
102
RTVSPropertyOp18
 70
     1
102
RTVSPropertyOp19
 70
     1
102
RTVSPropertyOp20
 70
     1
102
RTVSPropertyOp21
 70
     1
102
RTVSPropertyOp22
 70
     1
102
RTVSPropertyOp23
 70
     1
102
RTVSPropertyOp24
 70
     1
102
RTVSPropertyOp25
 70
     1
102
RTVSPropertyOp26
 70
     1
102
RTVSPropertyOp27
 70
     1
102
RTVSPropertyOp28
 70
     1
102
RTVSPropertyOp29
 70
     1
102
RTVSPropertyOp30
 70
     1
102
RTVSPropertyOp31
 70
     1
102
RTVSPropertyOp32
 70
     1
102
RTVSPropertyOp33
 70
     1
102
RTVSPropertyOp34
 70
     1
102
RTVSPropertyOp35
 70
     1
102
RTVSPropertyOp36
 70
     1
102
RTVSPropertyOp37
 70
     1
102
RTVSPropertyOp38
 70
     1
102
RTVSPropertyOp39
 70
     1
102
RTVSPropertyOp40
 70
     1
102
RTVSPropertyOp41
 70
     1
102
RTVSPropertyOp42
 70
     1
102
RTVSPropertyOp43
 70
     1
102
RTVSPropertyOp44
 70
     1
102
RTVSPropertyOp45
 70
     1
102
RTVSPropertyOp46
 70
     1
102
RTVSPropertyOp47
 70
     1
102
RTVSPropertyOp48
 70
     1
102
RTVSPropertyOp49
 70
     1
102
RTVSPropertyOp50
 70
     1
102
RTVSPropertyOp51
 70
     0
102
RTVSPropertyOp52
 70
     0
102
RTVSPropertyOp53
 70
     1
102
RTVSPropertyOp54
 70
     1
102
RTVSPropertyOp55
 70
     1
102
RTVSPropertyOp56
 70
     1
102
RTVSPropertyOp57
 70
     1
102
RTVSPropertyOp58
 70
     1
102
RTVSPropertyOp59
 70
     1
102
RTVSPropertyOp60
 70
     1
102
RTVSPropertyOp61
 70
     1
102
RTVSPropertyOp62
 70
     1
  0
XRECORD
  5
10EA
102
{ACAD_REACTORS
330
10E9
102
}
330
10E9
100
AcDbXrecord
280
     1
102
RTVSPost2010Prop28
280
     0
102
RTVSPost2010PropOp28
 70
     1
102
RTVSPost2010Prop29
280
     1
102
RTVSPost2010PropOp29
 70
     1
102
RTVSPost2010Prop30
280
     1
102
RTVSPost2010PropOp30
 70
     1
102
RTVSPost2010Prop31
280
     0
102
RTVSPost2010PropOp31
 70
     1
102
RTVSPost2010Prop32
280
     0
102
RTVSPost2010PropOp32
 70
     1
102
RTVSPost2010Prop33
280
     0
102
RTVSPost2010PropOp33
 70
     1
102
RTVSPost2010Prop34
280
     0
102
RTVSPost2010PropOp34
 70
     1
102
RTVSPost2010Prop35
280
     0
102
RTVSPost2010PropOp35
 70
     1
102
RTVSPost2010Prop36
280
     0
102
RTVSPost2010PropOp36
 70
     1
102
RTVSPost2010Prop37
 90
       50
102
RTVSPost2010PropOp37
 70
     1
102
RTVSPost2010Prop38
140
0.0
102
RTVSPost2010PropOp38
 70
     1
102
RTVSPost2010Prop39
140
1.0
102
RTVSPost2010PropOp39
 70
     1
102
RTVSPost2010Prop40
 90
        0
102
RTVSPost2010PropOp40
 70
     1
102
RTVSPost2010Prop41ColorIndex
 90
       18
102
RTVSPost2010Prop41ColorRGB
 90
        0
102
RTVSPost2010PropOp41
 70
     1
102
RTVSPost2010Prop42
 90
       50
102
RTVSPost2010PropOp42
 70
     1
102
RTVSPost2010Prop43
 90
        3
102
RTVSPost2010PropOp43
 70
     1
102
RTVSPost2010Prop44ColorIndex
 90
        5
102
RTVSPost2010Prop44ColorRGB
 90
      255
102
RTVSPost2010PropOp44
 70
     1
102
RTVSPost2010Prop45
280
     0
102
RTVSPost2010PropOp45
 70
     1
102
RTVSPost2010Prop46
 90
       50
102
RTVSPost2010PropOp46
 70
     1
102
RTVSPost2010Prop47
 90
       50
102
RTVSPost2010PropOp47
 70
     1
102
RTVSPost2010Prop48
 90
       50
102
RTVSPost2010PropOp48
 70
     1
102
RTVSPost2010Prop49
280
     0
102
RTVSPost2010PropOp49
 70
     1
102
RTVSPost2010Prop50
 90
       50
102
RTVSPost2010PropOp50
 70
     1
102
RTVSPost2010Prop51ColorIndex
 90
      256
102
RTVSPost2010Prop51ColorRGB
 90
-16777216
102
RTVSPost2010PropOp51
 70
     0
102
RTVSPost2010Prop52
140
1.0
102
RTVSPost2010PropOp52
 70
     0
102
RTVSPost2010Prop53
 90
        2
102
RTVSPost2010PropOp53
 70
     1
102
RTVSPost2010Prop54
  1
strokes_ogs.tif
102
RTVSPost2010PropOp54
 70
     1
102
RTVSPost2010Prop55
280
     0
102
RTVSPost2010PropOp55
 70
     1
102
RTVSPost2010Prop56
140
1.0
102
RTVSPost2010PropOp56
 70
     1
102
RTVSPost2010Prop57
140
1.0
102
RTVSPost2010PropOp57
 70
     1
102
RTVSPropertyOp0
 70
     1
102
RTVSPropertyOp1
 70
     1
102
RTVSPropertyOp2
 70
     1
102
RTVSPropertyOp3
 70
     1
102
RTVSPropertyOp4
 70
     1
102
RTVSPropertyOp5
 70
     1
102
RTVSPropertyOp6
 70
     1
102
RTVSPropertyOp7
 70
     1
102
RTVSPropertyOp8
 70
     1
102
RTVSPropertyOp9
 70
     1
102
RTVSPropertyOp10
 70
     1
102
RTVSPropertyOp11
 70
     1
102
RTVSPropertyOp12
 70
     1
102
RTVSPropertyOp13
 70
     1
102
RTVSPropertyOp14
 70
     1
102
RTVSPropertyOp15
 70
     1
102
RTVSPropertyOp16
 70
     1
102
RTVSPropertyOp17
 70
     1
102
RTVSPropertyOp18
 70
     1
102
RTVSPropertyOp19
 70
     1
102
RTVSPropertyOp20
 70
     1
102
RTVSPropertyOp21
 70
     1
102
RTVSPropertyOp22
 70
     1
102
RTVSPropertyOp23
 70
     1
102
RTVSPropertyOp24
 70
     1
102
RTVSPropertyOp25
 70
     1
102
RTVSPropertyOp26
 70
     1
102
RTVSPropertyOp27
 70
     1
102
RTVSPropertyOp28
 70
     1
102
RTVSPropertyOp29
 70
     1
102
RTVSPropertyOp30
 70
     1
102
RTVSPropertyOp31
 70
     1
102
RTVSPropertyOp32
 70
     1
102
RTVSPropertyOp33
 70
     1
102
RTVSPropertyOp34
 70
     1
102
RTVSPropertyOp35
 70
     1
102
RTVSPropertyOp36
 70
     1
102
RTVSPropertyOp37
 70
     1
102
RTVSPropertyOp38
 70
     1
102
RTVSPropertyOp39
 70
     1
102
RTVSPropertyOp40
 70
     1
102
RTVSPropertyOp41
 70
     1
102
RTVSPropertyOp42
 70
     1
102
RTVSPropertyOp43
 70
     1
102
RTVSPropertyOp44
 70
     1
102
RTVSPropertyOp45
 70
     1
102
RTVSPropertyOp46
 70
     1
102
RTVSPropertyOp47
 70
     1
102
RTVSPropertyOp48
 70
     1
102
RTVSPropertyOp49
 70
     1
102
RTVSPropertyOp50
 70
     1
102
RTVSPropertyOp51
 70
     0
102
RTVSPropertyOp52
 70
     0
102
RTVSPropertyOp53
 70
     1
102
RTVSPropertyOp54
 70
     1
102
RTVSPropertyOp55
 70
     1
102
RTVSPropertyOp56
 70
     1
102
RTVSPropertyOp57
 70
     1
102
RTVSPropertyOp58
 70
     1
102
RTVSPropertyOp59
 70
     1
102
RTVSPropertyOp60
 70
     1
102
RTVSPropertyOp61
 70
     1
102
RTVSPropertyOp62
 70
     1
  0
XRECORD
  5
10F2
102
{ACAD_REACTORS
330
10F1
102
}
330
10F1
100
AcDbXrecord
280
     1
102
RTVSPost2010Prop28
280
     0
102
RTVSPost2010PropOp28
 70
     1
102
RTVSPost2010Prop29
280
     1
102
RTVSPost2010PropOp29
 70
     1
102
RTVSPost2010Prop30
280
     1
102
RTVSPost2010PropOp30
 70
     1
102
RTVSPost2010Prop31
280
     0
102
RTVSPost2010PropOp31
 70
     1
102
RTVSPost2010Prop32
280
     0
102
RTVSPost2010PropOp32
 70
     1
102
RTVSPost2010Prop33
280
     0
102
RTVSPost2010PropOp33
 70
     1
102
RTVSPost2010Prop34
280
     0
102
RTVSPost2010PropOp34
 70
     1
102
RTVSPost2010Prop35
280
     0
102
RTVSPost2010PropOp35
 70
     1
102
RTVSPost2010Prop36
280
     0
102
RTVSPost2010PropOp36
 70
     1
102
RTVSPost2010Prop37
 90
       50
102
RTVSPost2010PropOp37
 70
     1
102
RTVSPost2010Prop38
140
0.0
102
RTVSPost2010PropOp38
 70
     1
102
RTVSPost2010Prop39
140
1.0
102
RTVSPost2010PropOp39
 70
     1
102
RTVSPost2010Prop40
 90
        0
102
RTVSPost2010PropOp40
 70
     1
102
RTVSPost2010Prop41ColorIndex
 90
       18
102
RTVSPost2010Prop41ColorRGB
 90
        0
102
RTVSPost2010PropOp41
 70
     1
102
RTVSPost2010Prop42
 90
       50
102
RTVSPost2010PropOp42
 70
     1
102
RTVSPost2010Prop43
 90
        3
102
RTVSPost2010PropOp43
 70
     1
102
RTVSPost2010Prop44ColorIndex
 90
        5
102
RTVSPost2010Prop44ColorRGB
 90
      255
102
RTVSPost2010PropOp44
 70
     1
102
RTVSPost2010Prop45
280
     0
102
RTVSPost2010PropOp45
 70
     1
102
RTVSPost2010Prop46
 90
       50
102
RTVSPost2010PropOp46
 70
     1
102
RTVSPost2010Prop47
 90
       50
102
RTVSPost2010PropOp47
 70
     1
102
RTVSPost2010Prop48
 90
       50
102
RTVSPost2010PropOp48
 70
     1
102
RTVSPost2010Prop49
280
     0
102
RTVSPost2010PropOp49
 70
     1
102
RTVSPost2010Prop50
 90
       50
102
RTVSPost2010PropOp50
 70
     1
102
RTVSPost2010Prop51ColorIndex
 90
      256
102
RTVSPost2010Prop51ColorRGB
 90
-16777216
102
RTVSPost2010PropOp51
 70
     0
102
RTVSPost2010Prop52
140
1.0
102
RTVSPost2010PropOp52
 70
     0
102
RTVSPost2010Prop53
 90
        2
102
RTVSPost2010PropOp53
 70
     1
102
RTVSPost2010Prop54
  1
strokes_ogs.tif
102
RTVSPost2010PropOp54
 70
     1
102
RTVSPost2010Prop55
280
     0
102
RTVSPost2010PropOp55
 70
     1
102
RTVSPost2010Prop56
140
1.0
102
RTVSPost2010PropOp56
 70
     1
102
RTVSPost2010Prop57
140
1.0
102
RTVSPost2010PropOp57
 70
     1
102
RTVSPropertyOp0
 70
     1
102
RTVSPropertyOp1
 70
     1
102
RTVSPropertyOp2
 70
     1
102
RTVSPropertyOp3
 70
     1
102
RTVSPropertyOp4
 70
     1
102
RTVSPropertyOp5
 70
     1
102
RTVSPropertyOp6
 70
     1
102
RTVSPropertyOp7
 70
     1
102
RTVSPropertyOp8
 70
     1
102
RTVSPropertyOp9
 70
     1
102
RTVSPropertyOp10
 70
     1
102
RTVSPropertyOp11
 70
     1
102
RTVSPropertyOp12
 70
     1
102
RTVSPropertyOp13
 70
     1
102
RTVSPropertyOp14
 70
     1
102
RTVSPropertyOp15
 70
     1
102
RTVSPropertyOp16
 70
     1
102
RTVSPropertyOp17
 70
     1
102
RTVSPropertyOp18
 70
     1
102
RTVSPropertyOp19
 70
     1
102
RTVSPropertyOp20
 70
     1
102
RTVSPropertyOp21
 70
     1
102
RTVSPropertyOp22
 70
     1
102
RTVSPropertyOp23
 70
     1
102
RTVSPropertyOp24
 70
     1
102
RTVSPropertyOp25
 70
     1
102
RTVSPropertyOp26
 70
     1
102
RTVSPropertyOp27
 70
     1
102
RTVSPropertyOp28
 70
     1
102
RTVSPropertyOp29
 70
     1
102
RTVSPropertyOp30
 70
     1
102
RTVSPropertyOp31
 70
     1
102
RTVSPropertyOp32
 70
     1
102
RTVSPropertyOp33
 70
     1
102
RTVSPropertyOp34
 70
     1
102
RTVSPropertyOp35
 70
     1
102
RTVSPropertyOp36
 70
     1
102
RTVSPropertyOp37
 70
     1
102
RTVSPropertyOp38
 70
     1
102
RTVSPropertyOp39
 70
     1
102
RTVSPropertyOp40
 70
     1
102
RTVSPropertyOp41
 70
     1
102
RTVSPropertyOp42
 70
     1
102
RTVSPropertyOp43
 70
     1
102
RTVSPropertyOp44
 70
     1
102
RTVSPropertyOp45
 70
     1
102
RTVSPropertyOp46
 70
     1
102
RTVSPropertyOp47
 70
     1
102
RTVSPropertyOp48
 70
     1
102
RTVSPropertyOp49
 70
     1
102
RTVSPropertyOp50
 70
     1
102
RTVSPropertyOp51
 70
     0
102
RTVSPropertyOp52
 70
     0
102
RTVSPropertyOp53
 70
     1
102
RTVSPropertyOp54
 70
     1
102
RTVSPropertyOp55
 70
     1
102
RTVSPropertyOp56
 70
     1
102
RTVSPropertyOp57
 70
     1
102
RTVSPropertyOp58
 70
     1
102
RTVSPropertyOp59
 70
     1
102
RTVSPropertyOp60
 70
     1
102
RTVSPropertyOp61
 70
     1
102
RTVSPropertyOp62
 70
     1
  0
XRECORD
  5
10E4
102
{ACAD_REACTORS
330
10E3
102
}
330
10E3
100
AcDbXrecord
280
     1
102
RTVSPost2010Prop28
280
     0
102
RTVSPost2010PropOp28
 70
     1
102
RTVSPost2010Prop29
280
     1
102
RTVSPost2010PropOp29
 70
     1
102
RTVSPost2010Prop30
280
     1
102
RTVSPost2010PropOp30
 70
     1
102
RTVSPost2010Prop31
280
     0
102
RTVSPost2010PropOp31
 70
     1
102
RTVSPost2010Prop32
280
     0
102
RTVSPost2010PropOp32
 70
     1
102
RTVSPost2010Prop33
280
     0
102
RTVSPost2010PropOp33
 70
     1
102
RTVSPost2010Prop34
280
     0
102
RTVSPost2010PropOp34
 70
     1
102
RTVSPost2010Prop35
280
     0
102
RTVSPost2010PropOp35
 70
     1
102
RTVSPost2010Prop36
280
     0
102
RTVSPost2010PropOp36
 70
     1
102
RTVSPost2010Prop37
 90
       50
102
RTVSPost2010PropOp37
 70
     1
102
RTVSPost2010Prop38
140
0.0
102
RTVSPost2010PropOp38
 70
     1
102
RTVSPost2010Prop39
140
1.0
102
RTVSPost2010PropOp39
 70
     1
102
RTVSPost2010Prop40
 90
        0
102
RTVSPost2010PropOp40
 70
     1
102
RTVSPost2010Prop41ColorIndex
 90
       18
102
RTVSPost2010Prop41ColorRGB
 90
        0
102
RTVSPost2010PropOp41
 70
     1
102
RTVSPost2010Prop42
 90
       50
102
RTVSPost2010PropOp42
 70
     1
102
RTVSPost2010Prop43
 90
        3
102
RTVSPost2010PropOp43
 70
     1
102
RTVSPost2010Prop44ColorIndex
 90
        5
102
RTVSPost2010Prop44ColorRGB
 90
      255
102
RTVSPost2010PropOp44
 70
     1
102
RTVSPost2010Prop45
280
     0
102
RTVSPost2010PropOp45
 70
     1
102
RTVSPost2010Prop46
 90
       50
102
RTVSPost2010PropOp46
 70
     1
102
RTVSPost2010Prop47
 90
       50
102
RTVSPost2010PropOp47
 70
     1
102
RTVSPost2010Prop48
 90
       50
102
RTVSPost2010PropOp48
 70
     1
102
RTVSPost2010Prop49
280
     0
102
RTVSPost2010PropOp49
 70
     1
102
RTVSPost2010Prop50
 90
       50
102
RTVSPost2010PropOp50
 70
     1
102
RTVSPost2010Prop51ColorIndex
 90
      256
102
RTVSPost2010Prop51ColorRGB
 90
-16777216
102
RTVSPost2010PropOp51
 70
     0
102
RTVSPost2010Prop52
140
1.0
102
RTVSPost2010PropOp52
 70
     0
102
RTVSPost2010Prop53
 90
        2
102
RTVSPost2010PropOp53
 70
     1
102
RTVSPost2010Prop54
  1
strokes_ogs.tif
102
RTVSPost2010PropOp54
 70
     1
102
RTVSPost2010Prop55
280
     0
102
RTVSPost2010PropOp55
 70
     1
102
RTVSPost2010Prop56
140
1.0
102
RTVSPost2010PropOp56
 70
     1
102
RTVSPost2010Prop57
140
1.0
102
RTVSPost2010PropOp57
 70
     1
102
RTVSPropertyOp0
 70
     1
102
RTVSPropertyOp1
 70
     1
102
RTVSPropertyOp2
 70
     1
102
RTVSPropertyOp3
 70
     1
102
RTVSPropertyOp4
 70
     1
102
RTVSPropertyOp5
 70
     1
102
RTVSPropertyOp6
 70
     1
102
RTVSPropertyOp7
 70
     1
102
RTVSPropertyOp8
 70
     1
102
RTVSPropertyOp9
 70
     1
102
RTVSPropertyOp10
 70
     1
102
RTVSPropertyOp11
 70
     1
102
RTVSPropertyOp12
 70
     1
102
RTVSPropertyOp13
 70
     1
102
RTVSPropertyOp14
 70
     1
102
RTVSPropertyOp15
 70
     1
102
RTVSPropertyOp16
 70
     1
102
RTVSPropertyOp17
 70
     1
102
RTVSPropertyOp18
 70
     1
102
RTVSPropertyOp19
 70
     1
102
RTVSPropertyOp20
 70
     1
102
RTVSPropertyOp21
 70
     1
102
RTVSPropertyOp22
 70
     1
102
RTVSPropertyOp23
 70
     1
102
RTVSPropertyOp24
 70
     1
102
RTVSPropertyOp25
 70
     1
102
RTVSPropertyOp26
 70
     1
102
RTVSPropertyOp27
 70
     1
102
RTVSPropertyOp28
 70
     1
102
RTVSPropertyOp29
 70
     1
102
RTVSPropertyOp30
 70
     1
102
RTVSPropertyOp31
 70
     1
102
RTVSPropertyOp32
 70
     1
102
RTVSPropertyOp33
 70
     1
102
RTVSPropertyOp34
 70
     1
102
RTVSPropertyOp35
 70
     1
102
RTVSPropertyOp36
 70
     1
102
RTVSPropertyOp37
 70
     1
102
RTVSPropertyOp38
 70
     1
102
RTVSPropertyOp39
 70
     1
102
RTVSPropertyOp40
 70
     1
102
RTVSPropertyOp41
 70
     1
102
RTVSPropertyOp42
 70
     1
102
RTVSPropertyOp43
 70
     1
102
RTVSPropertyOp44
 70
     1
102
RTVSPropertyOp45
 70
     1
102
RTVSPropertyOp46
 70
     1
102
RTVSPropertyOp47
 70
     1
102
RTVSPropertyOp48
 70
     1
102
RTVSPropertyOp49
 70
     1
102
RTVSPropertyOp50
 70
     1
102
RTVSPropertyOp51
 70
     0
102
RTVSPropertyOp52
 70
     0
102
RTVSPropertyOp53
 70
     1
102
RTVSPropertyOp54
 70
     1
102
RTVSPropertyOp55
 70
     1
102
RTVSPropertyOp56
 70
     1
102
RTVSPropertyOp57
 70
     1
102
RTVSPropertyOp58
 70
     1
102
RTVSPropertyOp59
 70
     1
102
RTVSPropertyOp60
 70
     1
102
RTVSPropertyOp61
 70
     1
102
RTVSPropertyOp62
 70
     1
  0
XRECORD
  5
10E8
102
{ACAD_REACTORS
330
10E7
102
}
330
10E7
100
AcDbXrecord
280
     1
102
RTVSPost2010Prop28
280
     0
102
RTVSPost2010PropOp28
 70
     1
102
RTVSPost2010Prop29
280
     1
102
RTVSPost2010PropOp29
 70
     1
102
RTVSPost2010Prop30
280
     1
102
RTVSPost2010PropOp30
 70
     1
102
RTVSPost2010Prop31
280
     0
102
RTVSPost2010PropOp31
 70
     1
102
RTVSPost2010Prop32
280
     0
102
RTVSPost2010PropOp32
 70
     1
102
RTVSPost2010Prop33
280
     0
102
RTVSPost2010PropOp33
 70
     1
102
RTVSPost2010Prop34
280
     0
102
RTVSPost2010PropOp34
 70
     1
102
RTVSPost2010Prop35
280
     0
102
RTVSPost2010PropOp35
 70
     1
102
RTVSPost2010Prop36
280
     0
102
RTVSPost2010PropOp36
 70
     1
102
RTVSPost2010Prop37
 90
       50
102
RTVSPost2010PropOp37
 70
     1
102
RTVSPost2010Prop38
140
0.0
102
RTVSPost2010PropOp38
 70
     1
102
RTVSPost2010Prop39
140
1.0
102
RTVSPost2010PropOp39
 70
     1
102
RTVSPost2010Prop40
 90
        0
102
RTVSPost2010PropOp40
 70
     1
102
RTVSPost2010Prop41ColorIndex
 90
       18
102
RTVSPost2010Prop41ColorRGB
 90
        0
102
RTVSPost2010PropOp41
 70
     1
102
RTVSPost2010Prop42
 90
       50
102
RTVSPost2010PropOp42
 70
     1
102
RTVSPost2010Prop43
 90
        3
102
RTVSPost2010PropOp43
 70
     1
102
RTVSPost2010Prop44ColorIndex
 90
        5
102
RTVSPost2010Prop44ColorRGB
 90
      255
102
RTVSPost2010PropOp44
 70
     1
102
RTVSPost2010Prop45
280
     0
102
RTVSPost2010PropOp45
 70
     1
102
RTVSPost2010Prop46
 90
       50
102
RTVSPost2010PropOp46
 70
     1
102
RTVSPost2010Prop47
 90
       50
102
RTVSPost2010PropOp47
 70
     1
102
RTVSPost2010Prop48
 90
       50
102
RTVSPost2010PropOp48
 70
     1
102
RTVSPost2010Prop49
280
     0
102
RTVSPost2010PropOp49
 70
     1
102
RTVSPost2010Prop50
 90
       50
102
RTVSPost2010PropOp50
 70
     1
102
RTVSPost2010Prop51ColorIndex
 90
      256
102
RTVSPost2010Prop51ColorRGB
 90
-16777216
102
RTVSPost2010PropOp51
 70
     0
102
RTVSPost2010Prop52
140
1.0
102
RTVSPost2010PropOp52
 70
     0
102
RTVSPost2010Prop53
 90
        2
102
RTVSPost2010PropOp53
 70
     1
102
RTVSPost2010Prop54
  1
strokes_ogs.tif
102
RTVSPost2010PropOp54
 70
     1
102
RTVSPost2010Prop55
280
     0
102
RTVSPost2010PropOp55
 70
     1
102
RTVSPost2010Prop56
140
1.0
102
RTVSPost2010PropOp56
 70
     1
102
RTVSPost2010Prop57
140
1.0
102
RTVSPost2010PropOp57
 70
     1
102
RTVSPropertyOp0
 70
     1
102
RTVSPropertyOp1
 70
     1
102
RTVSPropertyOp2
 70
     1
102
RTVSPropertyOp3
 70
     1
102
RTVSPropertyOp4
 70
     1
102
RTVSPropertyOp5
 70
     1
102
RTVSPropertyOp6
 70
     1
102
RTVSPropertyOp7
 70
     1
102
RTVSPropertyOp8
 70
     1
102
RTVSPropertyOp9
 70
     1
102
RTVSPropertyOp10
 70
     1
102
RTVSPropertyOp11
 70
     1
102
RTVSPropertyOp12
 70
     1
102
RTVSPropertyOp13
 70
     1
102
RTVSPropertyOp14
 70
     1
102
RTVSPropertyOp15
 70
     1
102
RTVSPropertyOp16
 70
     1
102
RTVSPropertyOp17
 70
     1
102
RTVSPropertyOp18
 70
     1
102
RTVSPropertyOp19
 70
     1
102
RTVSPropertyOp20
 70
     1
102
RTVSPropertyOp21
 70
     1
102
RTVSPropertyOp22
 70
     1
102
RTVSPropertyOp23
 70
     1
102
RTVSPropertyOp24
 70
     1
102
RTVSPropertyOp25
 70
     1
102
RTVSPropertyOp26
 70
     1
102
RTVSPropertyOp27
 70
     1
102
RTVSPropertyOp28
 70
     1
102
RTVSPropertyOp29
 70
     1
102
RTVSPropertyOp30
 70
     1
102
RTVSPropertyOp31
 70
     1
102
RTVSPropertyOp32
 70
     1
102
RTVSPropertyOp33
 70
     1
102
RTVSPropertyOp34
 70
     1
102
RTVSPropertyOp35
 70
     1
102
RTVSPropertyOp36
 70
     1
102
RTVSPropertyOp37
 70
     1
102
RTVSPropertyOp38
 70
     1
102
RTVSPropertyOp39
 70
     1
102
RTVSPropertyOp40
 70
     1
102
RTVSPropertyOp41
 70
     1
102
RTVSPropertyOp42
 70
     1
102
RTVSPropertyOp43
 70
     1
102
RTVSPropertyOp44
 70
     1
102
RTVSPropertyOp45
 70
     1
102
RTVSPropertyOp46
 70
     1
102
RTVSPropertyOp47
 70
     1
102
RTVSPropertyOp48
 70
     1
102
RTVSPropertyOp49
 70
     1
102
RTVSPropertyOp50
 70
     1
102
RTVSPropertyOp51
 70
     0
102
RTVSPropertyOp52
 70
     0
102
RTVSPropertyOp53
 70
     1
102
RTVSPropertyOp54
 70
     1
102
RTVSPropertyOp55
 70
     1
102
RTVSPropertyOp56
 70
     1
102
RTVSPropertyOp57
 70
     1
102
RTVSPropertyOp58
 70
     1
102
RTVSPropertyOp59
 70
     1
102
RTVSPropertyOp60
 70
     1
102
RTVSPropertyOp61
 70
     1
102
RTVSPropertyOp62
 70
     1
  0
XRECORD
  5
1102
102
{ACAD_REACTORS
330
1101
102
}
330
1101
100
AcDbXrecord
280
     1
102
RTVSPost2010Prop28
280
     0
102
RTVSPost2010PropOp28
 70
     1
102
RTVSPost2010Prop29
280
     1
102
RTVSPost2010PropOp29
 70
     1
102
RTVSPost2010Prop30
280
     1
102
RTVSPost2010PropOp30
 70
     1
102
RTVSPost2010Prop31
280
     0
102
RTVSPost2010PropOp31
 70
     1
102
RTVSPost2010Prop32
280
     0
102
RTVSPost2010PropOp32
 70
     1
102
RTVSPost2010Prop33
280
     0
102
RTVSPost2010PropOp33
 70
     1
102
RTVSPost2010Prop34
280
     0
102
RTVSPost2010PropOp34
 70
     1
102
RTVSPost2010Prop35
280
     0
102
RTVSPost2010PropOp35
 70
     1
102
RTVSPost2010Prop36
280
     0
102
RTVSPost2010PropOp36
 70
     1
102
RTVSPost2010Prop37
 90
       50
102
RTVSPost2010PropOp37
 70
     0
102
RTVSPost2010Prop38
140
0.0
102
RTVSPost2010PropOp38
 70
     0
102
RTVSPost2010Prop39
140
1.0
102
RTVSPost2010PropOp39
 70
     0
102
RTVSPost2010Prop40
 90
        0
102
RTVSPost2010PropOp40
 70
     0
102
RTVSPost2010Prop41ColorIndex
 90
       18
102
RTVSPost2010Prop41ColorRGB
 90
        0
102
RTVSPost2010PropOp41
 70
     0
102
RTVSPost2010Prop42
 90
       50
102
RTVSPost2010PropOp42
 70
     0
102
RTVSPost2010Prop43
 90
        3
102
RTVSPost2010PropOp43
 70
     0
102
RTVSPost2010Prop44ColorIndex
 90
        5
102
RTVSPost2010Prop44ColorRGB
 90
      255
102
RTVSPost2010PropOp44
 70
     0
102
RTVSPost2010Prop45
280
     0
102
RTVSPost2010PropOp45
 70
     1
102
RTVSPost2010Prop46
 90
       50
102
RTVSPost2010PropOp46
 70
     0
102
RTVSPost2010Prop47
 90
       50
102
RTVSPost2010PropOp47
 70
     0
102
RTVSPost2010Prop48
 90
       50
102
RTVSPost2010PropOp48
 70
     0
102
RTVSPost2010Prop49
280
     0
102
RTVSPost2010PropOp49
 70
     1
102
RTVSPost2010Prop50
 90
       50
102
RTVSPost2010PropOp50
 70
     0
102
RTVSPost2010Prop51ColorIndex
 90
      256
102
RTVSPost2010Prop51ColorRGB
 90
-16777216
102
RTVSPost2010PropOp51
 70
     0
102
RTVSPost2010Prop52
140
1.0
102
RTVSPost2010PropOp52
 70
     0
102
RTVSPost2010Prop53
 90
        2
102
RTVSPost2010PropOp53
 70
     0
102
RTVSPost2010Prop54
  1
strokes_ogs.tif
102
RTVSPost2010PropOp54
 70
     0
102
RTVSPost2010Prop55
280
     0
102
RTVSPost2010PropOp55
 70
     1
102
RTVSPost2010Prop56
140
1.0
102
RTVSPost2010PropOp56
 70
     0
102
RTVSPost2010Prop57
140
1.0
102
RTVSPost2010PropOp57
 70
     0
102
RTVSPropertyOp0
 70
     0
102
RTVSPropertyOp1
 70
     0
102
RTVSPropertyOp2
 70
     0
102
RTVSPropertyOp3
 70
     0
102
RTVSPropertyOp4
 70
     0
102
RTVSPropertyOp5
 70
     0
102
RTVSPropertyOp6
 70
     0
102
RTVSPropertyOp7
 70
     0
102
RTVSPropertyOp8
 70
     0
102
RTVSPropertyOp9
 70
     0
102
RTVSPropertyOp10
 70
     0
102
RTVSPropertyOp11
 70
     0
102
RTVSPropertyOp12
 70
     0
102
RTVSPropertyOp13
 70
     0
102
RTVSPropertyOp14
 70
     2
102
RTVSPropertyOp15
 70
     0
102
RTVSPropertyOp16
 70
     0
102
RTVSPropertyOp17
 70
     0
102
RTVSPropertyOp18
 70
     0
102
RTVSPropertyOp19
 70
     0
102
RTVSPropertyOp20
 70
     0
102
RTVSPropertyOp21
 70
     0
102
RTVSPropertyOp22
 70
     0
102
RTVSPropertyOp23
 70
     0
102
RTVSPropertyOp24
 70
     0
102
RTVSPropertyOp25
 70
     0
102
RTVSPropertyOp26
 70
     0
102
RTVSPropertyOp27
 70
     0
102
RTVSPropertyOp28
 70
     1
102
RTVSPropertyOp29
 70
     1
102
RTVSPropertyOp30
 70
     1
102
RTVSPropertyOp31
 70
     1
102
RTVSPropertyOp32
 70
     1
102
RTVSPropertyOp33
 70
     1
102
RTVSPropertyOp34
 70
     1
102
RTVSPropertyOp35
 70
     1
102
RTVSPropertyOp36
 70
     1
102
RTVSPropertyOp37
 70
     0
102
RTVSPropertyOp38
 70
     0
102
RTVSPropertyOp39
 70
     0
102
RTVSPropertyOp40
 70
     0
102
RTVSPropertyOp41
 70
     0
102
RTVSPropertyOp42
 70
     0
102
RTVSPropertyOp43
 70
     0
102
RTVSPropertyOp44
 70
     0
102
RTVSPropertyOp45
 70
     1
102
RTVSPropertyOp46
 70
     0
102
RTVSPropertyOp47
 70
     0
102
RTVSPropertyOp48
 70
     0
102
RTVSPropertyOp49
 70
     1
102
RTVSPropertyOp50
 70
     0
102
RTVSPropertyOp51
 70
     0
102
RTVSPropertyOp52
 70
     0
102
RTVSPropertyOp53
 70
     0
102
RTVSPropertyOp54
 70
     0
102
RTVSPropertyOp55
 70
     1
102
RTVSPropertyOp56
 70
     0
102
RTVSPropertyOp57
 70
     0
102
RTVSPropertyOp58
 70
     0
102
RTVSPropertyOp59
 70
     0
102
RTVSPropertyOp60
 70
     0
102
RTVSPropertyOp61
 70
     0
102
RTVSPropertyOp62
 70
     0
  0
XRECORD
  5
10F0
102
{ACAD_REACTORS
330
10EF
102
}
330
10EF
100
AcDbXrecord
280
     1
102
RTVSPost2010Prop28
280
     0
102
RTVSPost2010PropOp28
 70
     1
102
RTVSPost2010Prop29
280
     1
102
RTVSPost2010PropOp29
 70
     1
102
RTVSPost2010Prop30
280
     1
102
RTVSPost2010PropOp30
 70
     1
102
RTVSPost2010Prop31
280
     0
102
RTVSPost2010PropOp31
 70
     1
102
RTVSPost2010Prop32
280
     0
102
RTVSPost2010PropOp32
 70
     1
102
RTVSPost2010Prop33
280
     0
102
RTVSPost2010PropOp33
 70
     1
102
RTVSPost2010Prop34
280
     0
102
RTVSPost2010PropOp34
 70
     1
102
RTVSPost2010Prop35
280
     0
102
RTVSPost2010PropOp35
 70
     1
102
RTVSPost2010Prop36
280
     0
102
RTVSPost2010PropOp36
 70
     1
102
RTVSPost2010Prop37
 90
       50
102
RTVSPost2010PropOp37
 70
     1
102
RTVSPost2010Prop38
140
0.0
102
RTVSPost2010PropOp38
 70
     1
102
RTVSPost2010Prop39
140
1.0
102
RTVSPost2010PropOp39
 70
     1
102
RTVSPost2010Prop40
 90
        0
102
RTVSPost2010PropOp40
 70
     1
102
RTVSPost2010Prop41ColorIndex
 90
       18
102
RTVSPost2010Prop41ColorRGB
 90
        0
102
RTVSPost2010PropOp41
 70
     1
102
RTVSPost2010Prop42
 90
       50
102
RTVSPost2010PropOp42
 70
     1
102
RTVSPost2010Prop43
 90
        3
102
RTVSPost2010PropOp43
 70
     1
102
RTVSPost2010Prop44ColorIndex
 90
        5
102
RTVSPost2010Prop44ColorRGB
 90
      255
102
RTVSPost2010PropOp44
 70
     1
102
RTVSPost2010Prop45
280
     0
102
RTVSPost2010PropOp45
 70
     1
102
RTVSPost2010Prop46
 90
       50
102
RTVSPost2010PropOp46
 70
     1
102
RTVSPost2010Prop47
 90
       50
102
RTVSPost2010PropOp47
 70
     1
102
RTVSPost2010Prop48
 90
       50
102
RTVSPost2010PropOp48
 70
     1
102
RTVSPost2010Prop49
280
     0
102
RTVSPost2010PropOp49
 70
     1
102
RTVSPost2010Prop50
 90
       50
102
RTVSPost2010PropOp50
 70
     1
102
RTVSPost2010Prop51ColorIndex
 90
      256
102
RTVSPost2010Prop51ColorRGB
 90
-16777216
102
RTVSPost2010PropOp51
 70
     0
102
RTVSPost2010Prop52
140
1.0
102
RTVSPost2010PropOp52
 70
     0
102
RTVSPost2010Prop53
 90
        2
102
RTVSPost2010PropOp53
 70
     1
102
RTVSPost2010Prop54
  1
strokes_ogs.tif
102
RTVSPost2010PropOp54
 70
     1
102
RTVSPost2010Prop55
280
     0
102
RTVSPost2010PropOp55
 70
     1
102
RTVSPost2010Prop56
140
1.0
102
RTVSPost2010PropOp56
 70
     1
102
RTVSPost2010Prop57
140
1.0
102
RTVSPost2010PropOp57
 70
     1
102
RTVSPropertyOp0
 70
     1
102
RTVSPropertyOp1
 70
     1
102
RTVSPropertyOp2
 70
     1
102
RTVSPropertyOp3
 70
     1
102
RTVSPropertyOp4
 70
     1
102
RTVSPropertyOp5
 70
     1
102
RTVSPropertyOp6
 70
     1
102
RTVSPropertyOp7
 70
     1
102
RTVSPropertyOp8
 70
     1
102
RTVSPropertyOp9
 70
     1
102
RTVSPropertyOp10
 70
     1
102
RTVSPropertyOp11
 70
     1
102
RTVSPropertyOp12
 70
     1
102
RTVSPropertyOp13
 70
     1
102
RTVSPropertyOp14
 70
     1
102
RTVSPropertyOp15
 70
     1
102
RTVSPropertyOp16
 70
     1
102
RTVSPropertyOp17
 70
     1
102
RTVSPropertyOp18
 70
     1
102
RTVSPropertyOp19
 70
     1
102
RTVSPropertyOp20
 70
     1
102
RTVSPropertyOp21
 70
     1
102
RTVSPropertyOp22
 70
     1
102
RTVSPropertyOp23
 70
     1
102
RTVSPropertyOp24
 70
     1
102
RTVSPropertyOp25
 70
     1
102
RTVSPropertyOp26
 70
     1
102
RTVSPropertyOp27
 70
     1
102
RTVSPropertyOp28
 70
     1
102
RTVSPropertyOp29
 70
     1
102
RTVSPropertyOp30
 70
     1
102
RTVSPropertyOp31
 70
     1
102
RTVSPropertyOp32
 70
     1
102
RTVSPropertyOp33
 70
     1
102
RTVSPropertyOp34
 70
     1
102
RTVSPropertyOp35
 70
     1
102
RTVSPropertyOp36
 70
     1
102
RTVSPropertyOp37
 70
     1
102
RTVSPropertyOp38
 70
     1
102
RTVSPropertyOp39
 70
     1
102
RTVSPropertyOp40
 70
     1
102
RTVSPropertyOp41
 70
     1
102
RTVSPropertyOp42
 70
     1
102
RTVSPropertyOp43
 70
     1
102
RTVSPropertyOp44
 70
     1
102
RTVSPropertyOp45
 70
     1
102
RTVSPropertyOp46
 70
     1
102
RTVSPropertyOp47
 70
     1
102
RTVSPropertyOp48
 70
     1
102
RTVSPropertyOp49
 70
     1
102
RTVSPropertyOp50
 70
     1
102
RTVSPropertyOp51
 70
     0
102
RTVSPropertyOp52
 70
     0
102
RTVSPropertyOp53
 70
     1
102
RTVSPropertyOp54
 70
     1
102
RTVSPropertyOp55
 70
     1
102
RTVSPropertyOp56
 70
     1
102
RTVSPropertyOp57
 70
     1
102
RTVSPropertyOp58
 70
     1
102
RTVSPropertyOp59
 70
     1
102
RTVSPropertyOp60
 70
     1
102
RTVSPropertyOp61
 70
     1
102
RTVSPropertyOp62
 70
     1
  0
XRECORD
  5
10D4
102
{ACAD_REACTORS
330
10D3
102
}
330
10D3
100
AcDbXrecord
280
     1
102
RTVSPost2010Prop28
280
     0
102
RTVSPost2010PropOp28
 70
     1
102
RTVSPost2010Prop29
280
     1
102
RTVSPost2010PropOp29
 70
     1
102
RTVSPost2010Prop30
280
     1
102
RTVSPost2010PropOp30
 70
     1
102
RTVSPost2010Prop31
280
     0
102
RTVSPost2010PropOp31
 70
     1
102
RTVSPost2010Prop32
280
     0
102
RTVSPost2010PropOp32
 70
     1
102
RTVSPost2010Prop33
280
     0
102
RTVSPost2010PropOp33
 70
     1
102
RTVSPost2010Prop34
280
     0
102
RTVSPost2010PropOp34
 70
     1
102
RTVSPost2010Prop35
280
     0
102
RTVSPost2010PropOp35
 70
     1
102
RTVSPost2010Prop36
280
     0
102
RTVSPost2010PropOp36
 70
     1
102
RTVSPost2010Prop37
 90
       50
102
RTVSPost2010PropOp37
 70
     1
102
RTVSPost2010Prop38
140
0.0
102
RTVSPost2010PropOp38
 70
     1
102
RTVSPost2010Prop39
140
1.0
102
RTVSPost2010PropOp39
 70
     1
102
RTVSPost2010Prop40
 90
        0
102
RTVSPost2010PropOp40
 70
     1
102
RTVSPost2010Prop41ColorIndex
 90
       18
102
RTVSPost2010Prop41ColorRGB
 90
        0
102
RTVSPost2010PropOp41
 70
     1
102
RTVSPost2010Prop42
 90
       50
102
RTVSPost2010PropOp42
 70
     1
102
RTVSPost2010Prop43
 90
        3
102
RTVSPost2010PropOp43
 70
     1
102
RTVSPost2010Prop44ColorIndex
 90
        5
102
RTVSPost2010Prop44ColorRGB
 90
      255
102
RTVSPost2010PropOp44
 70
     1
102
RTVSPost2010Prop45
280
     0
102
RTVSPost2010PropOp45
 70
     1
102
RTVSPost2010Prop46
 90
       50
102
RTVSPost2010PropOp46
 70
     1
102
RTVSPost2010Prop47
 90
       50
102
RTVSPost2010PropOp47
 70
     1
102
RTVSPost2010Prop48
 90
       50
102
RTVSPost2010PropOp48
 70
     1
102
RTVSPost2010Prop49
280
     0
102
RTVSPost2010PropOp49
 70
     1
102
RTVSPost2010Prop50
 90
       50
102
RTVSPost2010PropOp50
 70
     1
102
RTVSPost2010Prop51ColorIndex
 90
      256
102
RTVSPost2010Prop51ColorRGB
 90
-16777216
102
RTVSPost2010PropOp51
 70
     0
102
RTVSPost2010Prop52
140
1.0
102
RTVSPost2010PropOp52
 70
     0
102
RTVSPost2010Prop53
 90
        2
102
RTVSPost2010PropOp53
 70
     1
102
RTVSPost2010Prop54
  1
strokes_ogs.tif
102
RTVSPost2010PropOp54
 70
     1
102
RTVSPost2010Prop55
280
     0
102
RTVSPost2010PropOp55
 70
     1
102
RTVSPost2010Prop56
140
1.0
102
RTVSPost2010PropOp56
 70
     1
102
RTVSPost2010Prop57
140
1.0
102
RTVSPost2010PropOp57
 70
     1
102
RTVSPropertyOp0
 70
     1
102
RTVSPropertyOp1
 70
     1
102
RTVSPropertyOp2
 70
     1
102
RTVSPropertyOp3
 70
     1
102
RTVSPropertyOp4
 70
     1
102
RTVSPropertyOp5
 70
     1
102
RTVSPropertyOp6
 70
     1
102
RTVSPropertyOp7
 70
     1
102
RTVSPropertyOp8
 70
     1
102
RTVSPropertyOp9
 70
     1
102
RTVSPropertyOp10
 70
     1
102
RTVSPropertyOp11
 70
     1
102
RTVSPropertyOp12
 70
     1
102
RTVSPropertyOp13
 70
     1
102
RTVSPropertyOp14
 70
     1
102
RTVSPropertyOp15
 70
     1
102
RTVSPropertyOp16
 70
     1
102
RTVSPropertyOp17
 70
     1
102
RTVSPropertyOp18
 70
     1
102
RTVSPropertyOp19
 70
     1
102
RTVSPropertyOp20
 70
     1
102
RTVSPropertyOp21
 70
     1
102
RTVSPropertyOp22
 70
     1
102
RTVSPropertyOp23
 70
     1
102
RTVSPropertyOp24
 70
     1
102
RTVSPropertyOp25
 70
     1
102
RTVSPropertyOp26
 70
     1
102
RTVSPropertyOp27
 70
     1
102
RTVSPropertyOp28
 70
     1
102
RTVSPropertyOp29
 70
     1
102
RTVSPropertyOp30
 70
     1
102
RTVSPropertyOp31
 70
     1
102
RTVSPropertyOp32
 70
     1
102
RTVSPropertyOp33
 70
     1
102
RTVSPropertyOp34
 70
     1
102
RTVSPropertyOp35
 70
     1
102
RTVSPropertyOp36
 70
     1
102
RTVSPropertyOp37
 70
     1
102
RTVSPropertyOp38
 70
     1
102
RTVSPropertyOp39
 70
     1
102
RTVSPropertyOp40
 70
     1
102
RTVSPropertyOp41
 70
     1
102
RTVSPropertyOp42
 70
     1
102
RTVSPropertyOp43
 70
     1
102
RTVSPropertyOp44
 70
     1
102
RTVSPropertyOp45
 70
     1
102
RTVSPropertyOp46
 70
     1
102
RTVSPropertyOp47
 70
     1
102
RTVSPropertyOp48
 70
     1
102
RTVSPropertyOp49
 70
     1
102
RTVSPropertyOp50
 70
     1
102
RTVSPropertyOp51
 70
     0
102
RTVSPropertyOp52
 70
     0
102
RTVSPropertyOp53
 70
     1
102
RTVSPropertyOp54
 70
     1
102
RTVSPropertyOp55
 70
     1
102
RTVSPropertyOp56
 70
     1
102
RTVSPropertyOp57
 70
     1
102
RTVSPropertyOp58
 70
     1
102
RTVSPropertyOp59
 70
     1
102
RTVSPropertyOp60
 70
     1
102
RTVSPropertyOp61
 70
     1
102
RTVSPropertyOp62
 70
     1
  0
XRECORD
  5
10D6
102
{ACAD_REACTORS
330
10D5
102
}
330
10D5
100
AcDbXrecord
280
     1
102
RTVSPost2010Prop28
280
     0
102
RTVSPost2010PropOp28
 70
     1
102
RTVSPost2010Prop29
280
     1
102
RTVSPost2010PropOp29
 70
     1
102
RTVSPost2010Prop30
280
     1
102
RTVSPost2010PropOp30
 70
     1
102
RTVSPost2010Prop31
280
     0
102
RTVSPost2010PropOp31
 70
     1
102
RTVSPost2010Prop32
280
     0
102
RTVSPost2010PropOp32
 70
     1
102
RTVSPost2010Prop33
280
     0
102
RTVSPost2010PropOp33
 70
     1
102
RTVSPost2010Prop34
280
     0
102
RTVSPost2010PropOp34
 70
     1
102
RTVSPost2010Prop35
280
     0
102
RTVSPost2010PropOp35
 70
     1
102
RTVSPost2010Prop36
280
     0
102
RTVSPost2010PropOp36
 70
     1
102
RTVSPost2010Prop37
 90
       50
102
RTVSPost2010PropOp37
 70
     1
102
RTVSPost2010Prop38
140
0.0
102
RTVSPost2010PropOp38
 70
     1
102
RTVSPost2010Prop39
140
1.0
102
RTVSPost2010PropOp39
 70
     1
102
RTVSPost2010Prop40
 90
        0
102
RTVSPost2010PropOp40
 70
     1
102
RTVSPost2010Prop41ColorIndex
 90
       18
102
RTVSPost2010Prop41ColorRGB
 90
        0
102
RTVSPost2010PropOp41
 70
     1
102
RTVSPost2010Prop42
 90
       50
102
RTVSPost2010PropOp42
 70
     1
102
RTVSPost2010Prop43
 90
        3
102
RTVSPost2010PropOp43
 70
     1
102
RTVSPost2010Prop44ColorIndex
 90
        5
102
RTVSPost2010Prop44ColorRGB
 90
      255
102
RTVSPost2010PropOp44
 70
     1
102
RTVSPost2010Prop45
280
     0
102
RTVSPost2010PropOp45
 70
     1
102
RTVSPost2010Prop46
 90
       50
102
RTVSPost2010PropOp46
 70
     1
102
RTVSPost2010Prop47
 90
       50
102
RTVSPost2010PropOp47
 70
     1
102
RTVSPost2010Prop48
 90
       50
102
RTVSPost2010PropOp48
 70
     1
102
RTVSPost2010Prop49
280
     0
102
RTVSPost2010PropOp49
 70
     1
102
RTVSPost2010Prop50
 90
       50
102
RTVSPost2010PropOp50
 70
     1
102
RTVSPost2010Prop51ColorIndex
 90
      256
102
RTVSPost2010Prop51ColorRGB
 90
-16777216
102
RTVSPost2010PropOp51
 70
     0
102
RTVSPost2010Prop52
140
1.0
102
RTVSPost2010PropOp52
 70
     0
102
RTVSPost2010Prop53
 90
        2
102
RTVSPost2010PropOp53
 70
     1
102
RTVSPost2010Prop54
  1
strokes_ogs.tif
102
RTVSPost2010PropOp54
 70
     1
102
RTVSPost2010Prop55
280
     0
102
RTVSPost2010PropOp55
 70
     1
102
RTVSPost2010Prop56
140
1.0
102
RTVSPost2010PropOp56
 70
     1
102
RTVSPost2010Prop57
140
1.0
102
RTVSPost2010PropOp57
 70
     1
102
RTVSPropertyOp0
 70
     1
102
RTVSPropertyOp1
 70
     1
102
RTVSPropertyOp2
 70
     1
102
RTVSPropertyOp3
 70
     1
102
RTVSPropertyOp4
 70
     1
102
RTVSPropertyOp5
 70
     1
102
RTVSPropertyOp6
 70
     1
102
RTVSPropertyOp7
 70
     1
102
RTVSPropertyOp8
 70
     1
102
RTVSPropertyOp9
 70
     1
102
RTVSPropertyOp10
 70
     1
102
RTVSPropertyOp11
 70
     1
102
RTVSPropertyOp12
 70
     1
102
RTVSPropertyOp13
 70
     1
102
RTVSPropertyOp14
 70
     1
102
RTVSPropertyOp15
 70
     1
102
RTVSPropertyOp16
 70
     1
102
RTVSPropertyOp17
 70
     1
102
RTVSPropertyOp18
 70
     1
102
RTVSPropertyOp19
 70
     1
102
RTVSPropertyOp20
 70
     1
102
RTVSPropertyOp21
 70
     1
102
RTVSPropertyOp22
 70
     1
102
RTVSPropertyOp23
 70
     1
102
RTVSPropertyOp24
 70
     1
102
RTVSPropertyOp25
 70
     1
102
RTVSPropertyOp26
 70
     1
102
RTVSPropertyOp27
 70
     1
102
RTVSPropertyOp28
 70
     1
102
RTVSPropertyOp29
 70
     1
102
RTVSPropertyOp30
 70
     1
102
RTVSPropertyOp31
 70
     1
102
RTVSPropertyOp32
 70
     1
102
RTVSPropertyOp33
 70
     1
102
RTVSPropertyOp34
 70
     1
102
RTVSPropertyOp35
 70
     1
102
RTVSPropertyOp36
 70
     1
102
RTVSPropertyOp37
 70
     1
102
RTVSPropertyOp38
 70
     1
102
RTVSPropertyOp39
 70
     1
102
RTVSPropertyOp40
 70
     1
102
RTVSPropertyOp41
 70
     1
102
RTVSPropertyOp42
 70
     1
102
RTVSPropertyOp43
 70
     1
102
RTVSPropertyOp44
 70
     1
102
RTVSPropertyOp45
 70
     1
102
RTVSPropertyOp46
 70
     1
102
RTVSPropertyOp47
 70
     1
102
RTVSPropertyOp48
 70
     1
102
RTVSPropertyOp49
 70
     1
102
RTVSPropertyOp50
 70
     1
102
RTVSPropertyOp51
 70
     0
102
RTVSPropertyOp52
 70
     0
102
RTVSPropertyOp53
 70
     1
102
RTVSPropertyOp54
 70
     1
102
RTVSPropertyOp55
 70
     1
102
RTVSPropertyOp56
 70
     1
102
RTVSPropertyOp57
 70
     1
102
RTVSPropertyOp58
 70
     1
102
RTVSPropertyOp59
 70
     1
102
RTVSPropertyOp60
 70
     1
102
RTVSPropertyOp61
 70
     1
102
RTVSPropertyOp62
 70
     1
  0
XRECORD
  5
10D8
102
{ACAD_REACTORS
330
10D7
102
}
330
10D7
100
AcDbXrecord
280
     1
102
RTVSPost2010Prop28
280
     0
102
RTVSPost2010PropOp28
 70
     1
102
RTVSPost2010Prop29
280
     1
102
RTVSPost2010PropOp29
 70
     1
102
RTVSPost2010Prop30
280
     1
102
RTVSPost2010PropOp30
 70
     1
102
RTVSPost2010Prop31
280
     0
102
RTVSPost2010PropOp31
 70
     1
102
RTVSPost2010Prop32
280
     0
102
RTVSPost2010PropOp32
 70
     1
102
RTVSPost2010Prop33
280
     0
102
RTVSPost2010PropOp33
 70
     1
102
RTVSPost2010Prop34
280
     0
102
RTVSPost2010PropOp34
 70
     1
102
RTVSPost2010Prop35
280
     0
102
RTVSPost2010PropOp35
 70
     1
102
RTVSPost2010Prop36
280
     0
102
RTVSPost2010PropOp36
 70
     1
102
RTVSPost2010Prop37
 90
       50
102
RTVSPost2010PropOp37
 70
     1
102
RTVSPost2010Prop38
140
0.0
102
RTVSPost2010PropOp38
 70
     1
102
RTVSPost2010Prop39
140
1.0
102
RTVSPost2010PropOp39
 70
     1
102
RTVSPost2010Prop40
 90
        0
102
RTVSPost2010PropOp40
 70
     1
102
RTVSPost2010Prop41ColorIndex
 90
       18
102
RTVSPost2010Prop41ColorRGB
 90
        0
102
RTVSPost2010PropOp41
 70
     1
102
RTVSPost2010Prop42
 90
       50
102
RTVSPost2010PropOp42
 70
     1
102
RTVSPost2010Prop43
 90
        3
102
RTVSPost2010PropOp43
 70
     1
102
RTVSPost2010Prop44ColorIndex
 90
        5
102
RTVSPost2010Prop44ColorRGB
 90
      255
102
RTVSPost2010PropOp44
 70
     1
102
RTVSPost2010Prop45
280
     0
102
RTVSPost2010PropOp45
 70
     1
102
RTVSPost2010Prop46
 90
       50
102
RTVSPost2010PropOp46
 70
     1
102
RTVSPost2010Prop47
 90
       50
102
RTVSPost2010PropOp47
 70
     1
102
RTVSPost2010Prop48
 90
       50
102
RTVSPost2010PropOp48
 70
     1
102
RTVSPost2010Prop49
280
     0
102
RTVSPost2010PropOp49
 70
     1
102
RTVSPost2010Prop50
 90
       50
102
RTVSPost2010PropOp50
 70
     1
102
RTVSPost2010Prop51ColorIndex
 90
      256
102
RTVSPost2010Prop51ColorRGB
 90
-16777216
102
RTVSPost2010PropOp51
 70
     0
102
RTVSPost2010Prop52
140
1.0
102
RTVSPost2010PropOp52
 70
     0
102
RTVSPost2010Prop53
 90
        2
102
RTVSPost2010PropOp53
 70
     1
102
RTVSPost2010Prop54
  1
strokes_ogs.tif
102
RTVSPost2010PropOp54
 70
     1
102
RTVSPost2010Prop55
280
     0
102
RTVSPost2010PropOp55
 70
     1
102
RTVSPost2010Prop56
140
1.0
102
RTVSPost2010PropOp56
 70
     1
102
RTVSPost2010Prop57
140
1.0
102
RTVSPost2010PropOp57
 70
     1
102
RTVSPropertyOp0
 70
     1
102
RTVSPropertyOp1
 70
     1
102
RTVSPropertyOp2
 70
     1
102
RTVSPropertyOp3
 70
     1
102
RTVSPropertyOp4
 70
     1
102
RTVSPropertyOp5
 70
     1
102
RTVSPropertyOp6
 70
     1
102
RTVSPropertyOp7
 70
     1
102
RTVSPropertyOp8
 70
     1
102
RTVSPropertyOp9
 70
     1
102
RTVSPropertyOp10
 70
     1
102
RTVSPropertyOp11
 70
     1
102
RTVSPropertyOp12
 70
     1
102
RTVSPropertyOp13
 70
     1
102
RTVSPropertyOp14
 70
     1
102
RTVSPropertyOp15
 70
     1
102
RTVSPropertyOp16
 70
     1
102
RTVSPropertyOp17
 70
     1
102
RTVSPropertyOp18
 70
     1
102
RTVSPropertyOp19
 70
     1
102
RTVSPropertyOp20
 70
     1
102
RTVSPropertyOp21
 70
     1
102
RTVSPropertyOp22
 70
     1
102
RTVSPropertyOp23
 70
     1
102
RTVSPropertyOp24
 70
     1
102
RTVSPropertyOp25
 70
     1
102
RTVSPropertyOp26
 70
     1
102
RTVSPropertyOp27
 70
     1
102
RTVSPropertyOp28
 70
     1
102
RTVSPropertyOp29
 70
     1
102
RTVSPropertyOp30
 70
     1
102
RTVSPropertyOp31
 70
     1
102
RTVSPropertyOp32
 70
     1
102
RTVSPropertyOp33
 70
     1
102
RTVSPropertyOp34
 70
     1
102
RTVSPropertyOp35
 70
     1
102
RTVSPropertyOp36
 70
     1
102
RTVSPropertyOp37
 70
     1
102
RTVSPropertyOp38
 70
     1
102
RTVSPropertyOp39
 70
     1
102
RTVSPropertyOp40
 70
     1
102
RTVSPropertyOp41
 70
     1
102
RTVSPropertyOp42
 70
     1
102
RTVSPropertyOp43
 70
     1
102
RTVSPropertyOp44
 70
     1
102
RTVSPropertyOp45
 70
     1
102
RTVSPropertyOp46
 70
     1
102
RTVSPropertyOp47
 70
     1
102
RTVSPropertyOp48
 70
     1
102
RTVSPropertyOp49
 70
     1
102
RTVSPropertyOp50
 70
     1
102
RTVSPropertyOp51
 70
     0
102
RTVSPropertyOp52
 70
     0
102
RTVSPropertyOp53
 70
     1
102
RTVSPropertyOp54
 70
     1
102
RTVSPropertyOp55
 70
     1
102
RTVSPropertyOp56
 70
     1
102
RTVSPropertyOp57
 70
     1
102
RTVSPropertyOp58
 70
     1
102
RTVSPropertyOp59
 70
     1
102
RTVSPropertyOp60
 70
     1
102
RTVSPropertyOp61
 70
     1
102
RTVSPropertyOp62
 70
     1
  0
XRECORD
  5
10DA
102
{ACAD_REACTORS
330
10D9
102
}
330
10D9
100
AcDbXrecord
280
     1
102
RTVSPost2010Prop28
280
     0
102
RTVSPost2010PropOp28
 70
     1
102
RTVSPost2010Prop29
280
     1
102
RTVSPost2010PropOp29
 70
     1
102
RTVSPost2010Prop30
280
     1
102
RTVSPost2010PropOp30
 70
     1
102
RTVSPost2010Prop31
280
     0
102
RTVSPost2010PropOp31
 70
     1
102
RTVSPost2010Prop32
280
     0
102
RTVSPost2010PropOp32
 70
     1
102
RTVSPost2010Prop33
280
     0
102
RTVSPost2010PropOp33
 70
     1
102
RTVSPost2010Prop34
280
     0
102
RTVSPost2010PropOp34
 70
     1
102
RTVSPost2010Prop35
280
     0
102
RTVSPost2010PropOp35
 70
     1
102
RTVSPost2010Prop36
280
     0
102
RTVSPost2010PropOp36
 70
     1
102
RTVSPost2010Prop37
 90
       50
102
RTVSPost2010PropOp37
 70
     1
102
RTVSPost2010Prop38
140
0.0
102
RTVSPost2010PropOp38
 70
     1
102
RTVSPost2010Prop39
140
1.0
102
RTVSPost2010PropOp39
 70
     1
102
RTVSPost2010Prop40
 90
        0
102
RTVSPost2010PropOp40
 70
     1
102
RTVSPost2010Prop41ColorIndex
 90
       18
102
RTVSPost2010Prop41ColorRGB
 90
        0
102
RTVSPost2010PropOp41
 70
     1
102
RTVSPost2010Prop42
 90
       50
102
RTVSPost2010PropOp42
 70
     1
102
RTVSPost2010Prop43
 90
        3
102
RTVSPost2010PropOp43
 70
     1
102
RTVSPost2010Prop44ColorIndex
 90
        5
102
RTVSPost2010Prop44ColorRGB
 90
      255
102
RTVSPost2010PropOp44
 70
     1
102
RTVSPost2010Prop45
280
     0
102
RTVSPost2010PropOp45
 70
     1
102
RTVSPost2010Prop46
 90
       50
102
RTVSPost2010PropOp46
 70
     1
102
RTVSPost2010Prop47
 90
       50
102
RTVSPost2010PropOp47
 70
     1
102
RTVSPost2010Prop48
 90
       50
102
RTVSPost2010PropOp48
 70
     1
102
RTVSPost2010Prop49
280
     0
102
RTVSPost2010PropOp49
 70
     1
102
RTVSPost2010Prop50
 90
       50
102
RTVSPost2010PropOp50
 70
     1
102
RTVSPost2010Prop51ColorIndex
 90
      256
102
RTVSPost2010Prop51ColorRGB
 90
-16777216
102
RTVSPost2010PropOp51
 70
     0
102
RTVSPost2010Prop52
140
1.0
102
RTVSPost2010PropOp52
 70
     0
102
RTVSPost2010Prop53
 90
        2
102
RTVSPost2010PropOp53
 70
     1
102
RTVSPost2010Prop54
  1
strokes_ogs.tif
102
RTVSPost2010PropOp54
 70
     1
102
RTVSPost2010Prop55
280
     0
102
RTVSPost2010PropOp55
 70
     1
102
RTVSPost2010Prop56
140
1.0
102
RTVSPost2010PropOp56
 70
     1
102
RTVSPost2010Prop57
140
1.0
102
RTVSPost2010PropOp57
 70
     1
102
RTVSPropertyOp0
 70
     1
102
RTVSPropertyOp1
 70
     1
102
RTVSPropertyOp2
 70
     1
102
RTVSPropertyOp3
 70
     1
102
RTVSPropertyOp4
 70
     1
102
RTVSPropertyOp5
 70
     1
102
RTVSPropertyOp6
 70
     1
102
RTVSPropertyOp7
 70
     1
102
RTVSPropertyOp8
 70
     1
102
RTVSPropertyOp9
 70
     1
102
RTVSPropertyOp10
 70
     1
102
RTVSPropertyOp11
 70
     1
102
RTVSPropertyOp12
 70
     1
102
RTVSPropertyOp13
 70
     1
102
RTVSPropertyOp14
 70
     1
102
RTVSPropertyOp15
 70
     1
102
RTVSPropertyOp16
 70
     1
102
RTVSPropertyOp17
 70
     1
102
RTVSPropertyOp18
 70
     1
102
RTVSPropertyOp19
 70
     1
102
RTVSPropertyOp20
 70
     1
102
RTVSPropertyOp21
 70
     1
102
RTVSPropertyOp22
 70
     1
102
RTVSPropertyOp23
 70
     1
102
RTVSPropertyOp24
 70
     1
102
RTVSPropertyOp25
 70
     1
102
RTVSPropertyOp26
 70
     1
102
RTVSPropertyOp27
 70
     1
102
RTVSPropertyOp28
 70
     1
102
RTVSPropertyOp29
 70
     1
102
RTVSPropertyOp30
 70
     1
102
RTVSPropertyOp31
 70
     1
102
RTVSPropertyOp32
 70
     1
102
RTVSPropertyOp33
 70
     1
102
RTVSPropertyOp34
 70
     1
102
RTVSPropertyOp35
 70
     1
102
RTVSPropertyOp36
 70
     1
102
RTVSPropertyOp37
 70
     1
102
RTVSPropertyOp38
 70
     1
102
RTVSPropertyOp39
 70
     1
102
RTVSPropertyOp40
 70
     1
102
RTVSPropertyOp41
 70
     1
102
RTVSPropertyOp42
 70
     1
102
RTVSPropertyOp43
 70
     1
102
RTVSPropertyOp44
 70
     1
102
RTVSPropertyOp45
 70
     1
102
RTVSPropertyOp46
 70
     1
102
RTVSPropertyOp47
 70
     1
102
RTVSPropertyOp48
 70
     1
102
RTVSPropertyOp49
 70
     1
102
RTVSPropertyOp50
 70
     1
102
RTVSPropertyOp51
 70
     0
102
RTVSPropertyOp52
 70
     0
102
RTVSPropertyOp53
 70
     1
102
RTVSPropertyOp54
 70
     1
102
RTVSPropertyOp55
 70
     1
102
RTVSPropertyOp56
 70
     1
102
RTVSPropertyOp57
 70
     1
102
RTVSPropertyOp58
 70
     1
102
RTVSPropertyOp59
 70
     1
102
RTVSPropertyOp60
 70
     1
102
RTVSPropertyOp61
 70
     1
102
RTVSPropertyOp62
 70
     1
  0
XRECORD
  5
10E2
102
{ACAD_REACTORS
330
10E1
102
}
330
10E1
100
AcDbXrecord
280
     1
102
RTVSPost2010Prop28
280
     0
102
RTVSPost2010PropOp28
 70
     1
102
RTVSPost2010Prop29
280
     1
102
RTVSPost2010PropOp29
 70
     1
102
RTVSPost2010Prop30
280
     1
102
RTVSPost2010PropOp30
 70
     1
102
RTVSPost2010Prop31
280
     0
102
RTVSPost2010PropOp31
 70
     1
102
RTVSPost2010Prop32
280
     0
102
RTVSPost2010PropOp32
 70
     1
102
RTVSPost2010Prop33
280
     0
102
RTVSPost2010PropOp33
 70
     1
102
RTVSPost2010Prop34
280
     0
102
RTVSPost2010PropOp34
 70
     1
102
RTVSPost2010Prop35
280
     0
102
RTVSPost2010PropOp35
 70
     1
102
RTVSPost2010Prop36
280
     0
102
RTVSPost2010PropOp36
 70
     1
102
RTVSPost2010Prop37
 90
       50
102
RTVSPost2010PropOp37
 70
     1
102
RTVSPost2010Prop38
140
0.0
102
RTVSPost2010PropOp38
 70
     1
102
RTVSPost2010Prop39
140
1.0
102
RTVSPost2010PropOp39
 70
     1
102
RTVSPost2010Prop40
 90
        0
102
RTVSPost2010PropOp40
 70
     1
102
RTVSPost2010Prop41ColorIndex
 90
       18
102
RTVSPost2010Prop41ColorRGB
 90
        0
102
RTVSPost2010PropOp41
 70
     1
102
RTVSPost2010Prop42
 90
       50
102
RTVSPost2010PropOp42
 70
     1
102
RTVSPost2010Prop43
 90
        3
102
RTVSPost2010PropOp43
 70
     1
102
RTVSPost2010Prop44ColorIndex
 90
        5
102
RTVSPost2010Prop44ColorRGB
 90
      255
102
RTVSPost2010PropOp44
 70
     1
102
RTVSPost2010Prop45
280
     0
102
RTVSPost2010PropOp45
 70
     1
102
RTVSPost2010Prop46
 90
       50
102
RTVSPost2010PropOp46
 70
     1
102
RTVSPost2010Prop47
 90
       50
102
RTVSPost2010PropOp47
 70
     1
102
RTVSPost2010Prop48
 90
       50
102
RTVSPost2010PropOp48
 70
     1
102
RTVSPost2010Prop49
280
     0
102
RTVSPost2010PropOp49
 70
     1
102
RTVSPost2010Prop50
 90
       50
102
RTVSPost2010PropOp50
 70
     1
102
RTVSPost2010Prop51ColorIndex
 90
      256
102
RTVSPost2010Prop51ColorRGB
 90
-16777216
102
RTVSPost2010PropOp51
 70
     0
102
RTVSPost2010Prop52
140
1.0
102
RTVSPost2010PropOp52
 70
     0
102
RTVSPost2010Prop53
 90
        2
102
RTVSPost2010PropOp53
 70
     1
102
RTVSPost2010Prop54
  1
strokes_ogs.tif
102
RTVSPost2010PropOp54
 70
     1
102
RTVSPost2010Prop55
280
     0
102
RTVSPost2010PropOp55
 70
     1
102
RTVSPost2010Prop56
140
1.0
102
RTVSPost2010PropOp56
 70
     1
102
RTVSPost2010Prop57
140
1.0
102
RTVSPost2010PropOp57
 70
     1
102
RTVSPropertyOp0
 70
     1
102
RTVSPropertyOp1
 70
     1
102
RTVSPropertyOp2
 70
     1
102
RTVSPropertyOp3
 70
     1
102
RTVSPropertyOp4
 70
     1
102
RTVSPropertyOp5
 70
     1
102
RTVSPropertyOp6
 70
     1
102
RTVSPropertyOp7
 70
     1
102
RTVSPropertyOp8
 70
     1
102
RTVSPropertyOp9
 70
     1
102
RTVSPropertyOp10
 70
     1
102
RTVSPropertyOp11
 70
     1
102
RTVSPropertyOp12
 70
     1
102
RTVSPropertyOp13
 70
     1
102
RTVSPropertyOp14
 70
     1
102
RTVSPropertyOp15
 70
     1
102
RTVSPropertyOp16
 70
     1
102
RTVSPropertyOp17
 70
     1
102
RTVSPropertyOp18
 70
     1
102
RTVSPropertyOp19
 70
     1
102
RTVSPropertyOp20
 70
     1
102
RTVSPropertyOp21
 70
     1
102
RTVSPropertyOp22
 70
     1
102
RTVSPropertyOp23
 70
     1
102
RTVSPropertyOp24
 70
     1
102
RTVSPropertyOp25
 70
     1
102
RTVSPropertyOp26
 70
     1
102
RTVSPropertyOp27
 70
     1
102
RTVSPropertyOp28
 70
     1
102
RTVSPropertyOp29
 70
     1
102
RTVSPropertyOp30
 70
     1
102
RTVSPropertyOp31
 70
     1
102
RTVSPropertyOp32
 70
     1
102
RTVSPropertyOp33
 70
     1
102
RTVSPropertyOp34
 70
     1
102
RTVSPropertyOp35
 70
     1
102
RTVSPropertyOp36
 70
     1
102
RTVSPropertyOp37
 70
     1
102
RTVSPropertyOp38
 70
     1
102
RTVSPropertyOp39
 70
     1
102
RTVSPropertyOp40
 70
     1
102
RTVSPropertyOp41
 70
     1
102
RTVSPropertyOp42
 70
     1
102
RTVSPropertyOp43
 70
     1
102
RTVSPropertyOp44
 70
     1
102
RTVSPropertyOp45
 70
     1
102
RTVSPropertyOp46
 70
     1
102
RTVSPropertyOp47
 70
     1
102
RTVSPropertyOp48
 70
     1
102
RTVSPropertyOp49
 70
     1
102
RTVSPropertyOp50
 70
     1
102
RTVSPropertyOp51
 70
     0
102
RTVSPropertyOp52
 70
     0
102
RTVSPropertyOp53
 70
     1
102
RTVSPropertyOp54
 70
     1
102
RTVSPropertyOp55
 70
     1
102
RTVSPropertyOp56
 70
     1
102
RTVSPropertyOp57
 70
     1
102
RTVSPropertyOp58
 70
     1
102
RTVSPropertyOp59
 70
     1
102
RTVSPropertyOp60
 70
     1
102
RTVSPropertyOp61
 70
     1
102
RTVSPropertyOp62
 70
     1
  0
XRECORD
  5
10FE
102
{ACAD_REACTORS
330
10FD
102
}
330
10FD
100
AcDbXrecord
280
     1
102
RTVSPost2010Prop28
280
     0
102
RTVSPost2010PropOp28
 70
     1
102
RTVSPost2010Prop29
280
     1
102
RTVSPost2010PropOp29
 70
     1
102
RTVSPost2010Prop30
280
     1
102
RTVSPost2010PropOp30
 70
     1
102
RTVSPost2010Prop31
280
     0
102
RTVSPost2010PropOp31
 70
     1
102
RTVSPost2010Prop32
280
     0
102
RTVSPost2010PropOp32
 70
     1
102
RTVSPost2010Prop33
280
     0
102
RTVSPost2010PropOp33
 70
     1
102
RTVSPost2010Prop34
280
     0
102
RTVSPost2010PropOp34
 70
     1
102
RTVSPost2010Prop35
280
     0
102
RTVSPost2010PropOp35
 70
     1
102
RTVSPost2010Prop36
280
     0
102
RTVSPost2010PropOp36
 70
     1
102
RTVSPost2010Prop37
 90
       50
102
RTVSPost2010PropOp37
 70
     0
102
RTVSPost2010Prop38
140
0.0
102
RTVSPost2010PropOp38
 70
     0
102
RTVSPost2010Prop39
140
1.0
102
RTVSPost2010PropOp39
 70
     0
102
RTVSPost2010Prop40
 90
        0
102
RTVSPost2010PropOp40
 70
     0
102
RTVSPost2010Prop41ColorIndex
 90
       18
102
RTVSPost2010Prop41ColorRGB
 90
        0
102
RTVSPost2010PropOp41
 70
     0
102
RTVSPost2010Prop42
 90
       50
102
RTVSPost2010PropOp42
 70
     0
102
RTVSPost2010Prop43
 90
        3
102
RTVSPost2010PropOp43
 70
     0
102
RTVSPost2010Prop44ColorIndex
 90
        5
102
RTVSPost2010Prop44ColorRGB
 90
      255
102
RTVSPost2010PropOp44
 70
     0
102
RTVSPost2010Prop45
280
     0
102
RTVSPost2010PropOp45
 70
     1
102
RTVSPost2010Prop46
 90
       50
102
RTVSPost2010PropOp46
 70
     0
102
RTVSPost2010Prop47
 90
       50
102
RTVSPost2010PropOp47
 70
     0
102
RTVSPost2010Prop48
 90
       50
102
RTVSPost2010PropOp48
 70
     0
102
RTVSPost2010Prop49
280
     0
102
RTVSPost2010PropOp49
 70
     1
102
RTVSPost2010Prop50
 90
       50
102
RTVSPost2010PropOp50
 70
     0
102
RTVSPost2010Prop51ColorIndex
 90
      256
102
RTVSPost2010Prop51ColorRGB
 90
-16777216
102
RTVSPost2010PropOp51
 70
     0
102
RTVSPost2010Prop52
140
1.0
102
RTVSPost2010PropOp52
 70
     0
102
RTVSPost2010Prop53
 90
        2
102
RTVSPost2010PropOp53
 70
     0
102
RTVSPost2010Prop54
  1
strokes_ogs.tif
102
RTVSPost2010PropOp54
 70
     0
102
RTVSPost2010Prop55
280
     0
102
RTVSPost2010PropOp55
 70
     1
102
RTVSPost2010Prop56
140
1.0
102
RTVSPost2010PropOp56
 70
     0
102
RTVSPost2010Prop57
140
1.0
102
RTVSPost2010PropOp57
 70
     0
102
RTVSPropertyOp0
 70
     0
102
RTVSPropertyOp1
 70
     0
102
RTVSPropertyOp2
 70
     0
102
RTVSPropertyOp3
 70
     0
102
RTVSPropertyOp4
 70
     0
102
RTVSPropertyOp5
 70
     0
102
RTVSPropertyOp6
 70
     0
102
RTVSPropertyOp7
 70
     0
102
RTVSPropertyOp8
 70
     0
102
RTVSPropertyOp9
 70
     0
102
RTVSPropertyOp10
 70
     0
102
RTVSPropertyOp11
 70
     0
102
RTVSPropertyOp12
 70
     0
102
RTVSPropertyOp13
 70
     0
102
RTVSPropertyOp14
 70
     2
102
RTVSPropertyOp15
 70
     0
102
RTVSPropertyOp16
 70
     0
102
RTVSPropertyOp17
 70
     0
102
RTVSPropertyOp18
 70
     0
102
RTVSPropertyOp19
 70
     0
102
RTVSPropertyOp20
 70
     0
102
RTVSPropertyOp21
 70
     0
102
RTVSPropertyOp22
 70
     0
102
RTVSPropertyOp23
 70
     0
102
RTVSPropertyOp24
 70
     0
102
RTVSPropertyOp25
 70
     0
102
RTVSPropertyOp26
 70
     0
102
RTVSPropertyOp27
 70
     0
102
RTVSPropertyOp28
 70
     1
102
RTVSPropertyOp29
 70
     1
102
RTVSPropertyOp30
 70
     1
102
RTVSPropertyOp31
 70
     1
102
RTVSPropertyOp32
 70
     1
102
RTVSPropertyOp33
 70
     1
102
RTVSPropertyOp34
 70
     1
102
RTVSPropertyOp35
 70
     1
102
RTVSPropertyOp36
 70
     1
102
RTVSPropertyOp37
 70
     0
102
RTVSPropertyOp38
 70
     0
102
RTVSPropertyOp39
 70
     0
102
RTVSPropertyOp40
 70
     0
102
RTVSPropertyOp41
 70
     0
102
RTVSPropertyOp42
 70
     0
102
RTVSPropertyOp43
 70
     0
102
RTVSPropertyOp44
 70
     0
102
RTVSPropertyOp45
 70
     1
102
RTVSPropertyOp46
 70
     0
102
RTVSPropertyOp47
 70
     0
102
RTVSPropertyOp48
 70
     0
102
RTVSPropertyOp49
 70
     1
102
RTVSPropertyOp50
 70
     0
102
RTVSPropertyOp51
 70
     0
102
RTVSPropertyOp52
 70
     0
102
RTVSPropertyOp53
 70
     0
102
RTVSPropertyOp54
 70
     0
102
RTVSPropertyOp55
 70
     1
102
RTVSPropertyOp56
 70
     0
102
RTVSPropertyOp57
 70
     0
102
RTVSPropertyOp58
 70
     0
102
RTVSPropertyOp59
 70
     0
102
RTVSPropertyOp60
 70
     0
102
RTVSPropertyOp61
 70
     0
102
RTVSPropertyOp62
 70
     0
  0
XRECORD
  5
10EE
102
{ACAD_REACTORS
330
10ED
102
}
330
10ED
100
AcDbXrecord
280
     1
102
RTVSPost2010Prop28
280
     0
102
RTVSPost2010PropOp28
 70
     1
102
RTVSPost2010Prop29
280
     1
102
RTVSPost2010PropOp29
 70
     1
102
RTVSPost2010Prop30
280
     1
102
RTVSPost2010PropOp30
 70
     1
102
RTVSPost2010Prop31
280
     0
102
RTVSPost2010PropOp31
 70
     1
102
RTVSPost2010Prop32
280
     0
102
RTVSPost2010PropOp32
 70
     1
102
RTVSPost2010Prop33
280
     0
102
RTVSPost2010PropOp33
 70
     1
102
RTVSPost2010Prop34
280
     0
102
RTVSPost2010PropOp34
 70
     1
102
RTVSPost2010Prop35
280
     0
102
RTVSPost2010PropOp35
 70
     1
102
RTVSPost2010Prop36
280
     0
102
RTVSPost2010PropOp36
 70
     1
102
RTVSPost2010Prop37
 90
       50
102
RTVSPost2010PropOp37
 70
     1
102
RTVSPost2010Prop38
140
0.0
102
RTVSPost2010PropOp38
 70
     1
102
RTVSPost2010Prop39
140
1.0
102
RTVSPost2010PropOp39
 70
     1
102
RTVSPost2010Prop40
 90
        0
102
RTVSPost2010PropOp40
 70
     1
102
RTVSPost2010Prop41ColorIndex
 90
       18
102
RTVSPost2010Prop41ColorRGB
 90
        0
102
RTVSPost2010PropOp41
 70
     1
102
RTVSPost2010Prop42
 90
       50
102
RTVSPost2010PropOp42
 70
     1
102
RTVSPost2010Prop43
 90
        3
102
RTVSPost2010PropOp43
 70
     1
102
RTVSPost2010Prop44ColorIndex
 90
        5
102
RTVSPost2010Prop44ColorRGB
 90
      255
102
RTVSPost2010PropOp44
 70
     1
102
RTVSPost2010Prop45
280
     0
102
RTVSPost2010PropOp45
 70
     1
102
RTVSPost2010Prop46
 90
       50
102
RTVSPost2010PropOp46
 70
     1
102
RTVSPost2010Prop47
 90
       50
102
RTVSPost2010PropOp47
 70
     1
102
RTVSPost2010Prop48
 90
       50
102
RTVSPost2010PropOp48
 70
     1
102
RTVSPost2010Prop49
280
     0
102
RTVSPost2010PropOp49
 70
     1
102
RTVSPost2010Prop50
 90
       50
102
RTVSPost2010PropOp50
 70
     1
102
RTVSPost2010Prop51ColorIndex
 90
      256
102
RTVSPost2010Prop51ColorRGB
 90
-16777216
102
RTVSPost2010PropOp51
 70
     0
102
RTVSPost2010Prop52
140
1.0
102
RTVSPost2010PropOp52
 70
     0
102
RTVSPost2010Prop53
 90
        2
102
RTVSPost2010PropOp53
 70
     1
102
RTVSPost2010Prop54
  1
strokes_ogs.tif
102
RTVSPost2010PropOp54
 70
     1
102
RTVSPost2010Prop55
280
     0
102
RTVSPost2010PropOp55
 70
     1
102
RTVSPost2010Prop56
140
1.0
102
RTVSPost2010PropOp56
 70
     1
102
RTVSPost2010Prop57
140
1.0
102
RTVSPost2010PropOp57
 70
     1
102
RTVSPropertyOp0
 70
     1
102
RTVSPropertyOp1
 70
     1
102
RTVSPropertyOp2
 70
     1
102
RTVSPropertyOp3
 70
     1
102
RTVSPropertyOp4
 70
     1
102
RTVSPropertyOp5
 70
     1
102
RTVSPropertyOp6
 70
     1
102
RTVSPropertyOp7
 70
     1
102
RTVSPropertyOp8
 70
     1
102
RTVSPropertyOp9
 70
     1
102
RTVSPropertyOp10
 70
     1
102
RTVSPropertyOp11
 70
     1
102
RTVSPropertyOp12
 70
     1
102
RTVSPropertyOp13
 70
     1
102
RTVSPropertyOp14
 70
     1
102
RTVSPropertyOp15
 70
     1
102
RTVSPropertyOp16
 70
     1
102
RTVSPropertyOp17
 70
     1
102
RTVSPropertyOp18
 70
     1
102
RTVSPropertyOp19
 70
     1
102
RTVSPropertyOp20
 70
     1
102
RTVSPropertyOp21
 70
     1
102
RTVSPropertyOp22
 70
     1
102
RTVSPropertyOp23
 70
     1
102
RTVSPropertyOp24
 70
     1
102
RTVSPropertyOp25
 70
     1
102
RTVSPropertyOp26
 70
     1
102
RTVSPropertyOp27
 70
     1
102
RTVSPropertyOp28
 70
     1
102
RTVSPropertyOp29
 70
     1
102
RTVSPropertyOp30
 70
     1
102
RTVSPropertyOp31
 70
     1
102
RTVSPropertyOp32
 70
     1
102
RTVSPropertyOp33
 70
     1
102
RTVSPropertyOp34
 70
     1
102
RTVSPropertyOp35
 70
     1
102
RTVSPropertyOp36
 70
     1
102
RTVSPropertyOp37
 70
     1
102
RTVSPropertyOp38
 70
     1
102
RTVSPropertyOp39
 70
     1
102
RTVSPropertyOp40
 70
     1
102
RTVSPropertyOp41
 70
     1
102
RTVSPropertyOp42
 70
     1
102
RTVSPropertyOp43
 70
     1
102
RTVSPropertyOp44
 70
     1
102
RTVSPropertyOp45
 70
     1
102
RTVSPropertyOp46
 70
     1
102
RTVSPropertyOp47
 70
     1
102
RTVSPropertyOp48
 70
     1
102
RTVSPropertyOp49
 70
     1
102
RTVSPropertyOp50
 70
     1
102
RTVSPropertyOp51
 70
     0
102
RTVSPropertyOp52
 70
     0
102
RTVSPropertyOp53
 70
     1
102
RTVSPropertyOp54
 70
     1
102
RTVSPropertyOp55
 70
     1
102
RTVSPropertyOp56
 70
     1
102
RTVSPropertyOp57
 70
     1
102
RTVSPropertyOp58
 70
     1
102
RTVSPropertyOp59
 70
     1
102
RTVSPropertyOp60
 70
     1
102
RTVSPropertyOp61
 70
     1
102
RTVSPropertyOp62
 70
     1
  0
XRECORD
  5
1100
102
{ACAD_REACTORS
330
10FF
102
}
330
10FF
100
AcDbXrecord
280
     1
102
RTVSPost2010Prop28
280
     0
102
RTVSPost2010PropOp28
 70
     1
102
RTVSPost2010Prop29
280
     1
102
RTVSPost2010PropOp29
 70
     1
102
RTVSPost2010Prop30
280
     1
102
RTVSPost2010PropOp30
 70
     1
102
RTVSPost2010Prop31
280
     0
102
RTVSPost2010PropOp31
 70
     1
102
RTVSPost2010Prop32
280
     0
102
RTVSPost2010PropOp32
 70
     1
102
RTVSPost2010Prop33
280
     0
102
RTVSPost2010PropOp33
 70
     1
102
RTVSPost2010Prop34
280
     0
102
RTVSPost2010PropOp34
 70
     1
102
RTVSPost2010Prop35
280
     0
102
RTVSPost2010PropOp35
 70
     1
102
RTVSPost2010Prop36
280
     0
102
RTVSPost2010PropOp36
 70
     1
102
RTVSPost2010Prop37
 90
       50
102
RTVSPost2010PropOp37
 70
     0
102
RTVSPost2010Prop38
140
0.0
102
RTVSPost2010PropOp38
 70
     0
102
RTVSPost2010Prop39
140
1.0
102
RTVSPost2010PropOp39
 70
     0
102
RTVSPost2010Prop40
 90
        0
102
RTVSPost2010PropOp40
 70
     0
102
RTVSPost2010Prop41ColorIndex
 90
       18
102
RTVSPost2010Prop41ColorRGB
 90
        0
102
RTVSPost2010PropOp41
 70
     0
102
RTVSPost2010Prop42
 90
       50
102
RTVSPost2010PropOp42
 70
     0
102
RTVSPost2010Prop43
 90
        3
102
RTVSPost2010PropOp43
 70
     0
102
RTVSPost2010Prop44ColorIndex
 90
        5
102
RTVSPost2010Prop44ColorRGB
 90
      255
102
RTVSPost2010PropOp44
 70
     0
102
RTVSPost2010Prop45
280
     0
102
RTVSPost2010PropOp45
 70
     1
102
RTVSPost2010Prop46
 90
       50
102
RTVSPost2010PropOp46
 70
     0
102
RTVSPost2010Prop47
 90
       50
102
RTVSPost2010PropOp47
 70
     0
102
RTVSPost2010Prop48
 90
       50
102
RTVSPost2010PropOp48
 70
     0
102
RTVSPost2010Prop49
280
     0
102
RTVSPost2010PropOp49
 70
     1
102
RTVSPost2010Prop50
 90
       50
102
RTVSPost2010PropOp50
 70
     0
102
RTVSPost2010Prop51ColorIndex
 90
      256
102
RTVSPost2010Prop51ColorRGB
 90
-16777216
102
RTVSPost2010PropOp51
 70
     0
102
RTVSPost2010Prop52
140
1.0
102
RTVSPost2010PropOp52
 70
     0
102
RTVSPost2010Prop53
 90
        2
102
RTVSPost2010PropOp53
 70
     0
102
RTVSPost2010Prop54
  1
strokes_ogs.tif
102
RTVSPost2010PropOp54
 70
     0
102
RTVSPost2010Prop55
280
     0
102
RTVSPost2010PropOp55
 70
     1
102
RTVSPost2010Prop56
140
1.0
102
RTVSPost2010PropOp56
 70
     0
102
RTVSPost2010Prop57
140
1.0
102
RTVSPost2010PropOp57
 70
     0
102
RTVSPropertyOp0
 70
     0
102
RTVSPropertyOp1
 70
     0
102
RTVSPropertyOp2
 70
     0
102
RTVSPropertyOp3
 70
     0
102
RTVSPropertyOp4
 70
     0
102
RTVSPropertyOp5
 70
     0
102
RTVSPropertyOp6
 70
     0
102
RTVSPropertyOp7
 70
     0
102
RTVSPropertyOp8
 70
     0
102
RTVSPropertyOp9
 70
     0
102
RTVSPropertyOp10
 70
     0
102
RTVSPropertyOp11
 70
     0
102
RTVSPropertyOp12
 70
     0
102
RTVSPropertyOp13
 70
     0
102
RTVSPropertyOp14
 70
     2
102
RTVSPropertyOp15
 70
     0
102
RTVSPropertyOp16
 70
     0
102
RTVSPropertyOp17
 70
     0
102
RTVSPropertyOp18
 70
     0
102
RTVSPropertyOp19
 70
     0
102
RTVSPropertyOp20
 70
     0
102
RTVSPropertyOp21
 70
     0
102
RTVSPropertyOp22
 70
     0
102
RTVSPropertyOp23
 70
     0
102
RTVSPropertyOp24
 70
     0
102
RTVSPropertyOp25
 70
     0
102
RTVSPropertyOp26
 70
     0
102
RTVSPropertyOp27
 70
     0
102
RTVSPropertyOp28
 70
     1
102
RTVSPropertyOp29
 70
     1
102
RTVSPropertyOp30
 70
     1
102
RTVSPropertyOp31
 70
     1
102
RTVSPropertyOp32
 70
     1
102
RTVSPropertyOp33
 70
     1
102
RTVSPropertyOp34
 70
     1
102
RTVSPropertyOp35
 70
     1
102
RTVSPropertyOp36
 70
     1
102
RTVSPropertyOp37
 70
     0
102
RTVSPropertyOp38
 70
     0
102
RTVSPropertyOp39
 70
     0
102
RTVSPropertyOp40
 70
     0
102
RTVSPropertyOp41
 70
     0
102
RTVSPropertyOp42
 70
     0
102
RTVSPropertyOp43
 70
     0
102
RTVSPropertyOp44
 70
     0
102
RTVSPropertyOp45
 70
     1
102
RTVSPropertyOp46
 70
     0
102
RTVSPropertyOp47
 70
     0
102
RTVSPropertyOp48
 70
     0
102
RTVSPropertyOp49
 70
     1
102
RTVSPropertyOp50
 70
     0
102
RTVSPropertyOp51
 70
     0
102
RTVSPropertyOp52
 70
     0
102
RTVSPropertyOp53
 70
     0
102
RTVSPropertyOp54
 70
     0
102
RTVSPropertyOp55
 70
     1
102
RTVSPropertyOp56
 70
     0
102
RTVSPropertyOp57
 70
     0
102
RTVSPropertyOp58
 70
     0
102
RTVSPropertyOp59
 70
     0
102
RTVSPropertyOp60
 70
     0
102
RTVSPropertyOp61
 70
     0
102
RTVSPropertyOp62
 70
     0
  0
XRECORD
  5
10E6
102
{ACAD_REACTORS
330
10E5
102
}
330
10E5
100
AcDbXrecord
280
     1
102
RTVSPost2010Prop28
280
     0
102
RTVSPost2010PropOp28
 70
     1
102
RTVSPost2010Prop29
280
     1
102
RTVSPost2010PropOp29
 70
     1
102
RTVSPost2010Prop30
280
     1
102
RTVSPost2010PropOp30
 70
     1
102
RTVSPost2010Prop31
280
     0
102
RTVSPost2010PropOp31
 70
     1
102
RTVSPost2010Prop32
280
     0
102
RTVSPost2010PropOp32
 70
     1
102
RTVSPost2010Prop33
280
     0
102
RTVSPost2010PropOp33
 70
     1
102
RTVSPost2010Prop34
280
     0
102
RTVSPost2010PropOp34
 70
     1
102
RTVSPost2010Prop35
280
     0
102
RTVSPost2010PropOp35
 70
     1
102
RTVSPost2010Prop36
280
     0
102
RTVSPost2010PropOp36
 70
     1
102
RTVSPost2010Prop37
 90
       50
102
RTVSPost2010PropOp37
 70
     1
102
RTVSPost2010Prop38
140
0.0
102
RTVSPost2010PropOp38
 70
     1
102
RTVSPost2010Prop39
140
1.0
102
RTVSPost2010PropOp39
 70
     1
102
RTVSPost2010Prop40
 90
        0
102
RTVSPost2010PropOp40
 70
     1
102
RTVSPost2010Prop41ColorIndex
 90
       18
102
RTVSPost2010Prop41ColorRGB
 90
        0
102
RTVSPost2010PropOp41
 70
     1
102
RTVSPost2010Prop42
 90
       50
102
RTVSPost2010PropOp42
 70
     1
102
RTVSPost2010Prop43
 90
        3
102
RTVSPost2010PropOp43
 70
     1
102
RTVSPost2010Prop44ColorIndex
 90
        5
102
RTVSPost2010Prop44ColorRGB
 90
      255
102
RTVSPost2010PropOp44
 70
     1
102
RTVSPost2010Prop45
280
     0
102
RTVSPost2010PropOp45
 70
     1
102
RTVSPost2010Prop46
 90
       50
102
RTVSPost2010PropOp46
 70
     1
102
RTVSPost2010Prop47
 90
       50
102
RTVSPost2010PropOp47
 70
     1
102
RTVSPost2010Prop48
 90
       50
102
RTVSPost2010PropOp48
 70
     1
102
RTVSPost2010Prop49
280
     0
102
RTVSPost2010PropOp49
 70
     1
102
RTVSPost2010Prop50
 90
       50
102
RTVSPost2010PropOp50
 70
     1
102
RTVSPost2010Prop51ColorIndex
 90
      256
102
RTVSPost2010Prop51ColorRGB
 90
-16777216
102
RTVSPost2010PropOp51
 70
     0
102
RTVSPost2010Prop52
140
1.0
102
RTVSPost2010PropOp52
 70
     0
102
RTVSPost2010Prop53
 90
        2
102
RTVSPost2010PropOp53
 70
     1
102
RTVSPost2010Prop54
  1
strokes_ogs.tif
102
RTVSPost2010PropOp54
 70
     1
102
RTVSPost2010Prop55
280
     0
102
RTVSPost2010PropOp55
 70
     1
102
RTVSPost2010Prop56
140
1.0
102
RTVSPost2010PropOp56
 70
     1
102
RTVSPost2010Prop57
140
1.0
102
RTVSPost2010PropOp57
 70
     1
102
RTVSPropertyOp0
 70
     1
102
RTVSPropertyOp1
 70
     1
102
RTVSPropertyOp2
 70
     1
102
RTVSPropertyOp3
 70
     1
102
RTVSPropertyOp4
 70
     1
102
RTVSPropertyOp5
 70
     1
102
RTVSPropertyOp6
 70
     1
102
RTVSPropertyOp7
 70
     1
102
RTVSPropertyOp8
 70
     1
102
RTVSPropertyOp9
 70
     1
102
RTVSPropertyOp10
 70
     1
102
RTVSPropertyOp11
 70
     1
102
RTVSPropertyOp12
 70
     1
102
RTVSPropertyOp13
 70
     1
102
RTVSPropertyOp14
 70
     1
102
RTVSPropertyOp15
 70
     1
102
RTVSPropertyOp16
 70
     1
102
RTVSPropertyOp17
 70
     1
102
RTVSPropertyOp18
 70
     1
102
RTVSPropertyOp19
 70
     1
102
RTVSPropertyOp20
 70
     1
102
RTVSPropertyOp21
 70
     1
102
RTVSPropertyOp22
 70
     1
102
RTVSPropertyOp23
 70
     1
102
RTVSPropertyOp24
 70
     1
102
RTVSPropertyOp25
 70
     1
102
RTVSPropertyOp26
 70
     1
102
RTVSPropertyOp27
 70
     1
102
RTVSPropertyOp28
 70
     1
102
RTVSPropertyOp29
 70
     1
102
RTVSPropertyOp30
 70
     1
102
RTVSPropertyOp31
 70
     1
102
RTVSPropertyOp32
 70
     1
102
RTVSPropertyOp33
 70
     1
102
RTVSPropertyOp34
 70
     1
102
RTVSPropertyOp35
 70
     1
102
RTVSPropertyOp36
 70
     1
102
RTVSPropertyOp37
 70
     1
102
RTVSPropertyOp38
 70
     1
102
RTVSPropertyOp39
 70
     1
102
RTVSPropertyOp40
 70
     1
102
RTVSPropertyOp41
 70
     1
102
RTVSPropertyOp42
 70
     1
102
RTVSPropertyOp43
 70
     1
102
RTVSPropertyOp44
 70
     1
102
RTVSPropertyOp45
 70
     1
102
RTVSPropertyOp46
 70
     1
102
RTVSPropertyOp47
 70
     1
102
RTVSPropertyOp48
 70
     1
102
RTVSPropertyOp49
 70
     1
102
RTVSPropertyOp50
 70
     1
102
RTVSPropertyOp51
 70
     0
102
RTVSPropertyOp52
 70
     0
102
RTVSPropertyOp53
 70
     1
102
RTVSPropertyOp54
 70
     1
102
RTVSPropertyOp55
 70
     1
102
RTVSPropertyOp56
 70
     1
102
RTVSPropertyOp57
 70
     1
102
RTVSPropertyOp58
 70
     1
102
RTVSPropertyOp59
 70
     1
102
RTVSPropertyOp60
 70
     1
102
RTVSPropertyOp61
 70
     1
102
RTVSPropertyOp62
 70
     1
  0
XRECORD
  5
10FC
102
{ACAD_REACTORS
330
10FB
102
}
330
10FB
100
AcDbXrecord
280
     1
102
RTVSPost2010Prop28
280
     0
102
RTVSPost2010PropOp28
 70
     1
102
RTVSPost2010Prop29
280
     1
102
RTVSPost2010PropOp29
 70
     1
102
RTVSPost2010Prop30
280
     1
102
RTVSPost2010PropOp30
 70
     1
102
RTVSPost2010Prop31
280
     0
102
RTVSPost2010PropOp31
 70
     1
102
RTVSPost2010Prop32
280
     0
102
RTVSPost2010PropOp32
 70
     1
102
RTVSPost2010Prop33
280
     0
102
RTVSPost2010PropOp33
 70
     1
102
RTVSPost2010Prop34
280
     0
102
RTVSPost2010PropOp34
 70
     1
102
RTVSPost2010Prop35
280
     0
102
RTVSPost2010PropOp35
 70
     1
102
RTVSPost2010Prop36
280
     0
102
RTVSPost2010PropOp36
 70
     1
102
RTVSPost2010Prop37
 90
       50
102
RTVSPost2010PropOp37
 70
     1
102
RTVSPost2010Prop38
140
0.0
102
RTVSPost2010PropOp38
 70
     1
102
RTVSPost2010Prop39
140
1.0
102
RTVSPost2010PropOp39
 70
     1
102
RTVSPost2010Prop40
 90
        0
102
RTVSPost2010PropOp40
 70
     1
102
RTVSPost2010Prop41ColorIndex
 90
       18
102
RTVSPost2010Prop41ColorRGB
 90
        0
102
RTVSPost2010PropOp41
 70
     1
102
RTVSPost2010Prop42
 90
       50
102
RTVSPost2010PropOp42
 70
     1
102
RTVSPost2010Prop43
 90
        3
102
RTVSPost2010PropOp43
 70
     1
102
RTVSPost2010Prop44ColorIndex
 90
        5
102
RTVSPost2010Prop44ColorRGB
 90
      255
102
RTVSPost2010PropOp44
 70
     1
102
RTVSPost2010Prop45
280
     0
102
RTVSPost2010PropOp45
 70
     1
102
RTVSPost2010Prop46
 90
       50
102
RTVSPost2010PropOp46
 70
     1
102
RTVSPost2010Prop47
 90
       50
102
RTVSPost2010PropOp47
 70
     1
102
RTVSPost2010Prop48
 90
       50
102
RTVSPost2010PropOp48
 70
     1
102
RTVSPost2010Prop49
280
     0
102
RTVSPost2010PropOp49
 70
     1
102
RTVSPost2010Prop50
 90
       50
102
RTVSPost2010PropOp50
 70
     1
102
RTVSPost2010Prop51ColorIndex
 90
      256
102
RTVSPost2010Prop51ColorRGB
 90
-16777216
102
RTVSPost2010PropOp51
 70
     0
102
RTVSPost2010Prop52
140
1.0
102
RTVSPost2010PropOp52
 70
     0
102
RTVSPost2010Prop53
 90
        2
102
RTVSPost2010PropOp53
 70
     1
102
RTVSPost2010Prop54
  1
strokes_ogs.tif
102
RTVSPost2010PropOp54
 70
     1
102
RTVSPost2010Prop55
280
     0
102
RTVSPost2010PropOp55
 70
     1
102
RTVSPost2010Prop56
140
1.0
102
RTVSPost2010PropOp56
 70
     1
102
RTVSPost2010Prop57
140
1.0
102
RTVSPost2010PropOp57
 70
     1
102
RTVSPropertyOp0
 70
     1
102
RTVSPropertyOp1
 70
     1
102
RTVSPropertyOp2
 70
     1
102
RTVSPropertyOp3
 70
     1
102
RTVSPropertyOp4
 70
     1
102
RTVSPropertyOp5
 70
     1
102
RTVSPropertyOp6
 70
     1
102
RTVSPropertyOp7
 70
     1
102
RTVSPropertyOp8
 70
     1
102
RTVSPropertyOp9
 70
     1
102
RTVSPropertyOp10
 70
     1
102
RTVSPropertyOp11
 70
     1
102
RTVSPropertyOp12
 70
     1
102
RTVSPropertyOp13
 70
     1
102
RTVSPropertyOp14
 70
     1
102
RTVSPropertyOp15
 70
     1
102
RTVSPropertyOp16
 70
     1
102
RTVSPropertyOp17
 70
     1
102
RTVSPropertyOp18
 70
     1
102
RTVSPropertyOp19
 70
     1
102
RTVSPropertyOp20
 70
     1
102
RTVSPropertyOp21
 70
     1
102
RTVSPropertyOp22
 70
     1
102
RTVSPropertyOp23
 70
     1
102
RTVSPropertyOp24
 70
     1
102
RTVSPropertyOp25
 70
     1
102
RTVSPropertyOp26
 70
     1
102
RTVSPropertyOp27
 70
     1
102
RTVSPropertyOp28
 70
     1
102
RTVSPropertyOp29
 70
     1
102
RTVSPropertyOp30
 70
     1
102
RTVSPropertyOp31
 70
     1
102
RTVSPropertyOp32
 70
     1
102
RTVSPropertyOp33
 70
     1
102
RTVSPropertyOp34
 70
     1
102
RTVSPropertyOp35
 70
     1
102
RTVSPropertyOp36
 70
     1
102
RTVSPropertyOp37
 70
     1
102
RTVSPropertyOp38
 70
     1
102
RTVSPropertyOp39
 70
     1
102
RTVSPropertyOp40
 70
     1
102
RTVSPropertyOp41
 70
     1
102
RTVSPropertyOp42
 70
     1
102
RTVSPropertyOp43
 70
     1
102
RTVSPropertyOp44
 70
     1
102
RTVSPropertyOp45
 70
     1
102
RTVSPropertyOp46
 70
     1
102
RTVSPropertyOp47
 70
     1
102
RTVSPropertyOp48
 70
     1
102
RTVSPropertyOp49
 70
     1
102
RTVSPropertyOp50
 70
     1
102
RTVSPropertyOp51
 70
     0
102
RTVSPropertyOp52
 70
     0
102
RTVSPropertyOp53
 70
     1
102
RTVSPropertyOp54
 70
     1
102
RTVSPropertyOp55
 70
     1
102
RTVSPropertyOp56
 70
     1
102
RTVSPropertyOp57
 70
     1
102
RTVSPropertyOp58
 70
     1
102
RTVSPropertyOp59
 70
     1
102
RTVSPropertyOp60
 70
     1
102
RTVSPropertyOp61
 70
     1
102
RTVSPropertyOp62
 70
     1
  0
XRECORD
  5
10FA
102
{ACAD_REACTORS
330
10F9
102
}
330
10F9
100
AcDbXrecord
280
     1
102
RTVSPost2010Prop28
280
     0
102
RTVSPost2010PropOp28
 70
     1
102
RTVSPost2010Prop29
280
     1
102
RTVSPost2010PropOp29
 70
     1
102
RTVSPost2010Prop30
280
     1
102
RTVSPost2010PropOp30
 70
     1
102
RTVSPost2010Prop31
280
     0
102
RTVSPost2010PropOp31
 70
     1
102
RTVSPost2010Prop32
280
     0
102
RTVSPost2010PropOp32
 70
     1
102
RTVSPost2010Prop33
280
     0
102
RTVSPost2010PropOp33
 70
     1
102
RTVSPost2010Prop34
280
     0
102
RTVSPost2010PropOp34
 70
     1
102
RTVSPost2010Prop35
280
     0
102
RTVSPost2010PropOp35
 70
     1
102
RTVSPost2010Prop36
280
     0
102
RTVSPost2010PropOp36
 70
     1
102
RTVSPost2010Prop37
 90
       50
102
RTVSPost2010PropOp37
 70
     1
102
RTVSPost2010Prop38
140
0.0
102
RTVSPost2010PropOp38
 70
     1
102
RTVSPost2010Prop39
140
1.0
102
RTVSPost2010PropOp39
 70
     1
102
RTVSPost2010Prop40
 90
        0
102
RTVSPost2010PropOp40
 70
     1
102
RTVSPost2010Prop41ColorIndex
 90
       18
102
RTVSPost2010Prop41ColorRGB
 90
        0
102
RTVSPost2010PropOp41
 70
     1
102
RTVSPost2010Prop42
 90
       50
102
RTVSPost2010PropOp42
 70
     1
102
RTVSPost2010Prop43
 90
        3
102
RTVSPost2010PropOp43
 70
     1
102
RTVSPost2010Prop44ColorIndex
 90
        5
102
RTVSPost2010Prop44ColorRGB
 90
      255
102
RTVSPost2010PropOp44
 70
     1
102
RTVSPost2010Prop45
280
     0
102
RTVSPost2010PropOp45
 70
     1
102
RTVSPost2010Prop46
 90
       50
102
RTVSPost2010PropOp46
 70
     1
102
RTVSPost2010Prop47
 90
       50
102
RTVSPost2010PropOp47
 70
     1
102
RTVSPost2010Prop48
 90
       50
102
RTVSPost2010PropOp48
 70
     1
102
RTVSPost2010Prop49
280
     0
102
RTVSPost2010PropOp49
 70
     1
102
RTVSPost2010Prop50
 90
       50
102
RTVSPost2010PropOp50
 70
     1
102
RTVSPost2010Prop51ColorIndex
 90
      256
102
RTVSPost2010Prop51ColorRGB
 90
-16777216
102
RTVSPost2010PropOp51
 70
     0
102
RTVSPost2010Prop52
140
1.0
102
RTVSPost2010PropOp52
 70
     0
102
RTVSPost2010Prop53
 90
        2
102
RTVSPost2010PropOp53
 70
     1
102
RTVSPost2010Prop54
  1
strokes_ogs.tif
102
RTVSPost2010PropOp54
 70
     1
102
RTVSPost2010Prop55
280
     0
102
RTVSPost2010PropOp55
 70
     1
102
RTVSPost2010Prop56
140
1.0
102
RTVSPost2010PropOp56
 70
     1
102
RTVSPost2010Prop57
140
1.0
102
RTVSPost2010PropOp57
 70
     1
102
RTVSPropertyOp0
 70
     1
102
RTVSPropertyOp1
 70
     1
102
RTVSPropertyOp2
 70
     1
102
RTVSPropertyOp3
 70
     1
102
RTVSPropertyOp4
 70
     1
102
RTVSPropertyOp5
 70
     1
102
RTVSPropertyOp6
 70
     1
102
RTVSPropertyOp7
 70
     1
102
RTVSPropertyOp8
 70
     1
102
RTVSPropertyOp9
 70
     1
102
RTVSPropertyOp10
 70
     1
102
RTVSPropertyOp11
 70
     1
102
RTVSPropertyOp12
 70
     1
102
RTVSPropertyOp13
 70
     1
102
RTVSPropertyOp14
 70
     1
102
RTVSPropertyOp15
 70
     1
102
RTVSPropertyOp16
 70
     1
102
RTVSPropertyOp17
 70
     1
102
RTVSPropertyOp18
 70
     1
102
RTVSPropertyOp19
 70
     1
102
RTVSPropertyOp20
 70
     1
102
RTVSPropertyOp21
 70
     1
102
RTVSPropertyOp22
 70
     1
102
RTVSPropertyOp23
 70
     1
102
RTVSPropertyOp24
 70
     1
102
RTVSPropertyOp25
 70
     1
102
RTVSPropertyOp26
 70
     1
102
RTVSPropertyOp27
 70
     1
102
RTVSPropertyOp28
 70
     1
102
RTVSPropertyOp29
 70
     1
102
RTVSPropertyOp30
 70
     1
102
RTVSPropertyOp31
 70
     1
102
RTVSPropertyOp32
 70
     1
102
RTVSPropertyOp33
 70
     1
102
RTVSPropertyOp34
 70
     1
102
RTVSPropertyOp35
 70
     1
102
RTVSPropertyOp36
 70
     1
102
RTVSPropertyOp37
 70
     1
102
RTVSPropertyOp38
 70
     1
102
RTVSPropertyOp39
 70
     1
102
RTVSPropertyOp40
 70
     1
102
RTVSPropertyOp41
 70
     1
102
RTVSPropertyOp42
 70
     1
102
RTVSPropertyOp43
 70
     1
102
RTVSPropertyOp44
 70
     1
102
RTVSPropertyOp45
 70
     1
102
RTVSPropertyOp46
 70
     1
102
RTVSPropertyOp47
 70
     1
102
RTVSPropertyOp48
 70
     1
102
RTVSPropertyOp49
 70
     1
102
RTVSPropertyOp50
 70
     1
102
RTVSPropertyOp51
 70
     0
102
RTVSPropertyOp52
 70
     0
102
RTVSPropertyOp53
 70
     1
102
RTVSPropertyOp54
 70
     1
102
RTVSPropertyOp55
 70
     1
102
RTVSPropertyOp56
 70
     1
102
RTVSPropertyOp57
 70
     1
102
RTVSPropertyOp58
 70
     1
102
RTVSPropertyOp59
 70
     1
102
RTVSPropertyOp60
 70
     1
102
RTVSPropertyOp61
 70
     1
102
RTVSPropertyOp62
 70
     1
  0
XRECORD
  5
10F4
102
{ACAD_REACTORS
330
10F3
102
}
330
10F3
100
AcDbXrecord
280
     1
102
RTVSPost2010Prop28
280
     0
102
RTVSPost2010PropOp28
 70
     1
102
RTVSPost2010Prop29
280
     1
102
RTVSPost2010PropOp29
 70
     1
102
RTVSPost2010Prop30
280
     1
102
RTVSPost2010PropOp30
 70
     1
102
RTVSPost2010Prop31
280
     0
102
RTVSPost2010PropOp31
 70
     1
102
RTVSPost2010Prop32
280
     0
102
RTVSPost2010PropOp32
 70
     1
102
RTVSPost2010Prop33
280
     0
102
RTVSPost2010PropOp33
 70
     1
102
RTVSPost2010Prop34
280
     0
102
RTVSPost2010PropOp34
 70
     1
102
RTVSPost2010Prop35
280
     0
102
RTVSPost2010PropOp35
 70
     1
102
RTVSPost2010Prop36
280
     0
102
RTVSPost2010PropOp36
 70
     1
102
RTVSPost2010Prop37
 90
       50
102
RTVSPost2010PropOp37
 70
     1
102
RTVSPost2010Prop38
140
0.0
102
RTVSPost2010PropOp38
 70
     1
102
RTVSPost2010Prop39
140
1.0
102
RTVSPost2010PropOp39
 70
     1
102
RTVSPost2010Prop40
 90
        0
102
RTVSPost2010PropOp40
 70
     1
102
RTVSPost2010Prop41ColorIndex
 90
       18
102
RTVSPost2010Prop41ColorRGB
 90
        0
102
RTVSPost2010PropOp41
 70
     1
102
RTVSPost2010Prop42
 90
       50
102
RTVSPost2010PropOp42
 70
     1
102
RTVSPost2010Prop43
 90
        3
102
RTVSPost2010PropOp43
 70
     1
102
RTVSPost2010Prop44ColorIndex
 90
        5
102
RTVSPost2010Prop44ColorRGB
 90
      255
102
RTVSPost2010PropOp44
 70
     1
102
RTVSPost2010Prop45
280
     0
102
RTVSPost2010PropOp45
 70
     1
102
RTVSPost2010Prop46
 90
       50
102
RTVSPost2010PropOp46
 70
     1
102
RTVSPost2010Prop47
 90
       50
102
RTVSPost2010PropOp47
 70
     1
102
RTVSPost2010Prop48
 90
       50
102
RTVSPost2010PropOp48
 70
     1
102
RTVSPost2010Prop49
280
     0
102
RTVSPost2010PropOp49
 70
     1
102
RTVSPost2010Prop50
 90
       50
102
RTVSPost2010PropOp50
 70
     1
102
RTVSPost2010Prop51ColorIndex
 90
      256
102
RTVSPost2010Prop51ColorRGB
 90
-16777216
102
RTVSPost2010PropOp51
 70
     0
102
RTVSPost2010Prop52
140
1.0
102
RTVSPost2010PropOp52
 70
     0
102
RTVSPost2010Prop53
 90
        2
102
RTVSPost2010PropOp53
 70
     1
102
RTVSPost2010Prop54
  1
strokes_ogs.tif
102
RTVSPost2010PropOp54
 70
     1
102
RTVSPost2010Prop55
280
     0
102
RTVSPost2010PropOp55
 70
     1
102
RTVSPost2010Prop56
140
1.0
102
RTVSPost2010PropOp56
 70
     1
102
RTVSPost2010Prop57
140
1.0
102
RTVSPost2010PropOp57
 70
     1
102
RTVSPropertyOp0
 70
     1
102
RTVSPropertyOp1
 70
     1
102
RTVSPropertyOp2
 70
     1
102
RTVSPropertyOp3
 70
     1
102
RTVSPropertyOp4
 70
     1
102
RTVSPropertyOp5
 70
     1
102
RTVSPropertyOp6
 70
     1
102
RTVSPropertyOp7
 70
     1
102
RTVSPropertyOp8
 70
     1
102
RTVSPropertyOp9
 70
     1
102
RTVSPropertyOp10
 70
     1
102
RTVSPropertyOp11
 70
     1
102
RTVSPropertyOp12
 70
     1
102
RTVSPropertyOp13
 70
     1
102
RTVSPropertyOp14
 70
     1
102
RTVSPropertyOp15
 70
     1
102
RTVSPropertyOp16
 70
     1
102
RTVSPropertyOp17
 70
     1
102
RTVSPropertyOp18
 70
     1
102
RTVSPropertyOp19
 70
     1
102
RTVSPropertyOp20
 70
     1
102
RTVSPropertyOp21
 70
     1
102
RTVSPropertyOp22
 70
     1
102
RTVSPropertyOp23
 70
     1
102
RTVSPropertyOp24
 70
     1
102
RTVSPropertyOp25
 70
     1
102
RTVSPropertyOp26
 70
     1
102
RTVSPropertyOp27
 70
     1
102
RTVSPropertyOp28
 70
     1
102
RTVSPropertyOp29
 70
     1
102
RTVSPropertyOp30
 70
     1
102
RTVSPropertyOp31
 70
     1
102
RTVSPropertyOp32
 70
     1
102
RTVSPropertyOp33
 70
     1
102
RTVSPropertyOp34
 70
     1
102
RTVSPropertyOp35
 70
     1
102
RTVSPropertyOp36
 70
     1
102
RTVSPropertyOp37
 70
     1
102
RTVSPropertyOp38
 70
     1
102
RTVSPropertyOp39
 70
     1
102
RTVSPropertyOp40
 70
     1
102
RTVSPropertyOp41
 70
     1
102
RTVSPropertyOp42
 70
     1
102
RTVSPropertyOp43
 70
     1
102
RTVSPropertyOp44
 70
     1
102
RTVSPropertyOp45
 70
     1
102
RTVSPropertyOp46
 70
     1
102
RTVSPropertyOp47
 70
     1
102
RTVSPropertyOp48
 70
     1
102
RTVSPropertyOp49
 70
     1
102
RTVSPropertyOp50
 70
     1
102
RTVSPropertyOp51
 70
     0
102
RTVSPropertyOp52
 70
     0
102
RTVSPropertyOp53
 70
     1
102
RTVSPropertyOp54
 70
     1
102
RTVSPropertyOp55
 70
     1
102
RTVSPropertyOp56
 70
     1
102
RTVSPropertyOp57
 70
     1
102
RTVSPropertyOp58
 70
     1
102
RTVSPropertyOp59
 70
     1
102
RTVSPropertyOp60
 70
     1
102
RTVSPropertyOp61
 70
     1
102
RTVSPropertyOp62
 70
     1
  0
XRECORD
  5
10F6
102
{ACAD_REACTORS
330
10F5
102
}
330
10F5
100
AcDbXrecord
280
     1
102
RTVSPost2010Prop28
280
     0
102
RTVSPost2010PropOp28
 70
     1
102
RTVSPost2010Prop29
280
     1
102
RTVSPost2010PropOp29
 70
     1
102
RTVSPost2010Prop30
280
     1
102
RTVSPost2010PropOp30
 70
     1
102
RTVSPost2010Prop31
280
     0
102
RTVSPost2010PropOp31
 70
     1
102
RTVSPost2010Prop32
280
     0
102
RTVSPost2010PropOp32
 70
     1
102
RTVSPost2010Prop33
280
     0
102
RTVSPost2010PropOp33
 70
     1
102
RTVSPost2010Prop34
280
     0
102
RTVSPost2010PropOp34
 70
     1
102
RTVSPost2010Prop35
280
     0
102
RTVSPost2010PropOp35
 70
     1
102
RTVSPost2010Prop36
280
     0
102
RTVSPost2010PropOp36
 70
     1
102
RTVSPost2010Prop37
 90
       50
102
RTVSPost2010PropOp37
 70
     1
102
RTVSPost2010Prop38
140
0.0
102
RTVSPost2010PropOp38
 70
     1
102
RTVSPost2010Prop39
140
1.0
102
RTVSPost2010PropOp39
 70
     1
102
RTVSPost2010Prop40
 90
        0
102
RTVSPost2010PropOp40
 70
     1
102
RTVSPost2010Prop41ColorIndex
 90
       18
102
RTVSPost2010Prop41ColorRGB
 90
        0
102
RTVSPost2010PropOp41
 70
     1
102
RTVSPost2010Prop42
 90
       50
102
RTVSPost2010PropOp42
 70
     1
102
RTVSPost2010Prop43
 90
        3
102
RTVSPost2010PropOp43
 70
     1
102
RTVSPost2010Prop44ColorIndex
 90
        5
102
RTVSPost2010Prop44ColorRGB
 90
      255
102
RTVSPost2010PropOp44
 70
     1
102
RTVSPost2010Prop45
280
     0
102
RTVSPost2010PropOp45
 70
     1
102
RTVSPost2010Prop46
 90
       50
102
RTVSPost2010PropOp46
 70
     1
102
RTVSPost2010Prop47
 90
       50
102
RTVSPost2010PropOp47
 70
     1
102
RTVSPost2010Prop48
 90
       50
102
RTVSPost2010PropOp48
 70
     1
102
RTVSPost2010Prop49
280
     0
102
RTVSPost2010PropOp49
 70
     1
102
RTVSPost2010Prop50
 90
       50
102
RTVSPost2010PropOp50
 70
     1
102
RTVSPost2010Prop51ColorIndex
 90
      256
102
RTVSPost2010Prop51ColorRGB
 90
-16777216
102
RTVSPost2010PropOp51
 70
     0
102
RTVSPost2010Prop52
140
1.0
102
RTVSPost2010PropOp52
 70
     0
102
RTVSPost2010Prop53
 90
        2
102
RTVSPost2010PropOp53
 70
     1
102
RTVSPost2010Prop54
  1
strokes_ogs.tif
102
RTVSPost2010PropOp54
 70
     1
102
RTVSPost2010Prop55
280
     0
102
RTVSPost2010PropOp55
 70
     1
102
RTVSPost2010Prop56
140
1.0
102
RTVSPost2010PropOp56
 70
     1
102
RTVSPost2010Prop57
140
1.0
102
RTVSPost2010PropOp57
 70
     1
102
RTVSPropertyOp0
 70
     1
102
RTVSPropertyOp1
 70
     1
102
RTVSPropertyOp2
 70
     1
102
RTVSPropertyOp3
 70
     1
102
RTVSPropertyOp4
 70
     1
102
RTVSPropertyOp5
 70
     1
102
RTVSPropertyOp6
 70
     1
102
RTVSPropertyOp7
 70
     1
102
RTVSPropertyOp8
 70
     1
102
RTVSPropertyOp9
 70
     1
102
RTVSPropertyOp10
 70
     1
102
RTVSPropertyOp11
 70
     1
102
RTVSPropertyOp12
 70
     1
102
RTVSPropertyOp13
 70
     1
102
RTVSPropertyOp14
 70
     1
102
RTVSPropertyOp15
 70
     1
102
RTVSPropertyOp16
 70
     1
102
RTVSPropertyOp17
 70
     1
102
RTVSPropertyOp18
 70
     1
102
RTVSPropertyOp19
 70
     1
102
RTVSPropertyOp20
 70
     1
102
RTVSPropertyOp21
 70
     1
102
RTVSPropertyOp22
 70
     1
102
RTVSPropertyOp23
 70
     1
102
RTVSPropertyOp24
 70
     1
102
RTVSPropertyOp25
 70
     1
102
RTVSPropertyOp26
 70
     1
102
RTVSPropertyOp27
 70
     1
102
RTVSPropertyOp28
 70
     1
102
RTVSPropertyOp29
 70
     1
102
RTVSPropertyOp30
 70
     1
102
RTVSPropertyOp31
 70
     1
102
RTVSPropertyOp32
 70
     1
102
RTVSPropertyOp33
 70
     1
102
RTVSPropertyOp34
 70
     1
102
RTVSPropertyOp35
 70
     1
102
RTVSPropertyOp36
 70
     1
102
RTVSPropertyOp37
 70
     1
102
RTVSPropertyOp38
 70
     1
102
RTVSPropertyOp39
 70
     1
102
RTVSPropertyOp40
 70
     1
102
RTVSPropertyOp41
 70
     1
102
RTVSPropertyOp42
 70
     1
102
RTVSPropertyOp43
 70
     1
102
RTVSPropertyOp44
 70
     1
102
RTVSPropertyOp45
 70
     1
102
RTVSPropertyOp46
 70
     1
102
RTVSPropertyOp47
 70
     1
102
RTVSPropertyOp48
 70
     1
102
RTVSPropertyOp49
 70
     1
102
RTVSPropertyOp50
 70
     1
102
RTVSPropertyOp51
 70
     0
102
RTVSPropertyOp52
 70
     0
102
RTVSPropertyOp53
 70
     1
102
RTVSPropertyOp54
 70
     1
102
RTVSPropertyOp55
 70
     1
102
RTVSPropertyOp56
 70
     1
102
RTVSPropertyOp57
 70
     1
102
RTVSPropertyOp58
 70
     1
102
RTVSPropertyOp59
 70
     1
102
RTVSPropertyOp60
 70
     1
102
RTVSPropertyOp61
 70
     1
102
RTVSPropertyOp62
 70
     1
  0
XRECORD
  5
10EC
102
{ACAD_REACTORS
330
10EB
102
}
330
10EB
100
AcDbXrecord
280
     1
102
RTVSPost2010Prop28
280
     0
102
RTVSPost2010PropOp28
 70
     1
102
RTVSPost2010Prop29
280
     1
102
RTVSPost2010PropOp29
 70
     1
102
RTVSPost2010Prop30
280
     1
102
RTVSPost2010PropOp30
 70
     1
102
RTVSPost2010Prop31
280
     0
102
RTVSPost2010PropOp31
 70
     1
102
RTVSPost2010Prop32
280
     0
102
RTVSPost2010PropOp32
 70
     1
102
RTVSPost2010Prop33
280
     0
102
RTVSPost2010PropOp33
 70
     1
102
RTVSPost2010Prop34
280
     0
102
RTVSPost2010PropOp34
 70
     1
102
RTVSPost2010Prop35
280
     0
102
RTVSPost2010PropOp35
 70
     1
102
RTVSPost2010Prop36
280
     0
102
RTVSPost2010PropOp36
 70
     1
102
RTVSPost2010Prop37
 90
       50
102
RTVSPost2010PropOp37
 70
     1
102
RTVSPost2010Prop38
140
0.0
102
RTVSPost2010PropOp38
 70
     1
102
RTVSPost2010Prop39
140
1.0
102
RTVSPost2010PropOp39
 70
     1
102
RTVSPost2010Prop40
 90
        0
102
RTVSPost2010PropOp40
 70
     1
102
RTVSPost2010Prop41ColorIndex
 90
       18
102
RTVSPost2010Prop41ColorRGB
 90
        0
102
RTVSPost2010PropOp41
 70
     1
102
RTVSPost2010Prop42
 90
       50
102
RTVSPost2010PropOp42
 70
     1
102
RTVSPost2010Prop43
 90
        3
102
RTVSPost2010PropOp43
 70
     1
102
RTVSPost2010Prop44ColorIndex
 90
        5
102
RTVSPost2010Prop44ColorRGB
 90
      255
102
RTVSPost2010PropOp44
 70
     1
102
RTVSPost2010Prop45
280
     0
102
RTVSPost2010PropOp45
 70
     1
102
RTVSPost2010Prop46
 90
       50
102
RTVSPost2010PropOp46
 70
     1
102
RTVSPost2010Prop47
 90
       50
102
RTVSPost2010PropOp47
 70
     1
102
RTVSPost2010Prop48
 90
       50
102
RTVSPost2010PropOp48
 70
     1
102
RTVSPost2010Prop49
280
     0
102
RTVSPost2010PropOp49
 70
     1
102
RTVSPost2010Prop50
 90
       50
102
RTVSPost2010PropOp50
 70
     1
102
RTVSPost2010Prop51ColorIndex
 90
      256
102
RTVSPost2010Prop51ColorRGB
 90
-16777216
102
RTVSPost2010PropOp51
 70
     0
102
RTVSPost2010Prop52
140
1.0
102
RTVSPost2010PropOp52
 70
     0
102
RTVSPost2010Prop53
 90
        2
102
RTVSPost2010PropOp53
 70
     1
102
RTVSPost2010Prop54
  1
strokes_ogs.tif
102
RTVSPost2010PropOp54
 70
     1
102
RTVSPost2010Prop55
280
     0
102
RTVSPost2010PropOp55
 70
     1
102
RTVSPost2010Prop56
140
1.0
102
RTVSPost2010PropOp56
 70
     1
102
RTVSPost2010Prop57
140
1.0
102
RTVSPost2010PropOp57
 70
     1
102
RTVSPropertyOp0
 70
     1
102
RTVSPropertyOp1
 70
     1
102
RTVSPropertyOp2
 70
     1
102
RTVSPropertyOp3
 70
     1
102
RTVSPropertyOp4
 70
     1
102
RTVSPropertyOp5
 70
     1
102
RTVSPropertyOp6
 70
     1
102
RTVSPropertyOp7
 70
     1
102
RTVSPropertyOp8
 70
     1
102
RTVSPropertyOp9
 70
     1
102
RTVSPropertyOp10
 70
     1
102
RTVSPropertyOp11
 70
     1
102
RTVSPropertyOp12
 70
     1
102
RTVSPropertyOp13
 70
     1
102
RTVSPropertyOp14
 70
     1
102
RTVSPropertyOp15
 70
     1
102
RTVSPropertyOp16
 70
     1
102
RTVSPropertyOp17
 70
     1
102
RTVSPropertyOp18
 70
     1
102
RTVSPropertyOp19
 70
     1
102
RTVSPropertyOp20
 70
     1
102
RTVSPropertyOp21
 70
     1
102
RTVSPropertyOp22
 70
     1
102
RTVSPropertyOp23
 70
     1
102
RTVSPropertyOp24
 70
     1
102
RTVSPropertyOp25
 70
     1
102
RTVSPropertyOp26
 70
     1
102
RTVSPropertyOp27
 70
     1
102
RTVSPropertyOp28
 70
     1
102
RTVSPropertyOp29
 70
     1
102
RTVSPropertyOp30
 70
     1
102
RTVSPropertyOp31
 70
     1
102
RTVSPropertyOp32
 70
     1
102
RTVSPropertyOp33
 70
     1
102
RTVSPropertyOp34
 70
     1
102
RTVSPropertyOp35
 70
     1
102
RTVSPropertyOp36
 70
     1
102
RTVSPropertyOp37
 70
     1
102
RTVSPropertyOp38
 70
     1
102
RTVSPropertyOp39
 70
     1
102
RTVSPropertyOp40
 70
     1
102
RTVSPropertyOp41
 70
     1
102
RTVSPropertyOp42
 70
     1
102
RTVSPropertyOp43
 70
     1
102
RTVSPropertyOp44
 70
     1
102
RTVSPropertyOp45
 70
     1
102
RTVSPropertyOp46
 70
     1
102
RTVSPropertyOp47
 70
     1
102
RTVSPropertyOp48
 70
     1
102
RTVSPropertyOp49
 70
     1
102
RTVSPropertyOp50
 70
     1
102
RTVSPropertyOp51
 70
     0
102
RTVSPropertyOp52
 70
     0
102
RTVSPropertyOp53
 70
     1
102
RTVSPropertyOp54
 70
     1
102
RTVSPropertyOp55
 70
     1
102
RTVSPropertyOp56
 70
     1
102
RTVSPropertyOp57
 70
     1
102
RTVSPropertyOp58
 70
     1
102
RTVSPropertyOp59
 70
     1
102
RTVSPropertyOp60
 70
     1
102
RTVSPropertyOp61
 70
     1
102
RTVSPropertyOp62
 70
     1
  0
XRECORD
  5
10E0
102
{ACAD_REACTORS
330
10DF
102
}
330
10DF
100
AcDbXrecord
280
     1
102
RTVSPost2010Prop28
280
     0
102
RTVSPost2010PropOp28
 70
     1
102
RTVSPost2010Prop29
280
     1
102
RTVSPost2010PropOp29
 70
     1
102
RTVSPost2010Prop30
280
     1
102
RTVSPost2010PropOp30
 70
     1
102
RTVSPost2010Prop31
280
     0
102
RTVSPost2010PropOp31
 70
     1
102
RTVSPost2010Prop32
280
     0
102
RTVSPost2010PropOp32
 70
     1
102
RTVSPost2010Prop33
280
     0
102
RTVSPost2010PropOp33
 70
     1
102
RTVSPost2010Prop34
280
     0
102
RTVSPost2010PropOp34
 70
     1
102
RTVSPost2010Prop35
280
     0
102
RTVSPost2010PropOp35
 70
     1
102
RTVSPost2010Prop36
280
     0
102
RTVSPost2010PropOp36
 70
     1
102
RTVSPost2010Prop37
 90
       50
102
RTVSPost2010PropOp37
 70
     1
102
RTVSPost2010Prop38
140
0.0
102
RTVSPost2010PropOp38
 70
     1
102
RTVSPost2010Prop39
140
1.0
102
RTVSPost2010PropOp39
 70
     1
102
RTVSPost2010Prop40
 90
        0
102
RTVSPost2010PropOp40
 70
     1
102
RTVSPost2010Prop41ColorIndex
 90
       18
102
RTVSPost2010Prop41ColorRGB
 90
        0
102
RTVSPost2010PropOp41
 70
     1
102
RTVSPost2010Prop42
 90
       50
102
RTVSPost2010PropOp42
 70
     1
102
RTVSPost2010Prop43
 90
        3
102
RTVSPost2010PropOp43
 70
     1
102
RTVSPost2010Prop44ColorIndex
 90
        5
102
RTVSPost2010Prop44ColorRGB
 90
      255
102
RTVSPost2010PropOp44
 70
     1
102
RTVSPost2010Prop45
280
     0
102
RTVSPost2010PropOp45
 70
     1
102
RTVSPost2010Prop46
 90
       50
102
RTVSPost2010PropOp46
 70
     1
102
RTVSPost2010Prop47
 90
       50
102
RTVSPost2010PropOp47
 70
     1
102
RTVSPost2010Prop48
 90
       50
102
RTVSPost2010PropOp48
 70
     1
102
RTVSPost2010Prop49
280
     0
102
RTVSPost2010PropOp49
 70
     1
102
RTVSPost2010Prop50
 90
       50
102
RTVSPost2010PropOp50
 70
     1
102
RTVSPost2010Prop51ColorIndex
 90
      256
102
RTVSPost2010Prop51ColorRGB
 90
-16777216
102
RTVSPost2010PropOp51
 70
     0
102
RTVSPost2010Prop52
140
1.0
102
RTVSPost2010PropOp52
 70
     0
102
RTVSPost2010Prop53
 90
        2
102
RTVSPost2010PropOp53
 70
     1
102
RTVSPost2010Prop54
  1
strokes_ogs.tif
102
RTVSPost2010PropOp54
 70
     1
102
RTVSPost2010Prop55
280
     0
102
RTVSPost2010PropOp55
 70
     1
102
RTVSPost2010Prop56
140
1.0
102
RTVSPost2010PropOp56
 70
     1
102
RTVSPost2010Prop57
140
1.0
102
RTVSPost2010PropOp57
 70
     1
102
RTVSPropertyOp0
 70
     1
102
RTVSPropertyOp1
 70
     1
102
RTVSPropertyOp2
 70
     1
102
RTVSPropertyOp3
 70
     1
102
RTVSPropertyOp4
 70
     1
102
RTVSPropertyOp5
 70
     1
102
RTVSPropertyOp6
 70
     1
102
RTVSPropertyOp7
 70
     1
102
RTVSPropertyOp8
 70
     1
102
RTVSPropertyOp9
 70
     1
102
RTVSPropertyOp10
 70
     1
102
RTVSPropertyOp11
 70
     1
102
RTVSPropertyOp12
 70
     1
102
RTVSPropertyOp13
 70
     1
102
RTVSPropertyOp14
 70
     1
102
RTVSPropertyOp15
 70
     1
102
RTVSPropertyOp16
 70
     1
102
RTVSPropertyOp17
 70
     1
102
RTVSPropertyOp18
 70
     1
102
RTVSPropertyOp19
 70
     1
102
RTVSPropertyOp20
 70
     1
102
RTVSPropertyOp21
 70
     1
102
RTVSPropertyOp22
 70
     1
102
RTVSPropertyOp23
 70
     1
102
RTVSPropertyOp24
 70
     1
102
RTVSPropertyOp25
 70
     1
102
RTVSPropertyOp26
 70
     1
102
RTVSPropertyOp27
 70
     1
102
RTVSPropertyOp28
 70
     1
102
RTVSPropertyOp29
 70
     1
102
RTVSPropertyOp30
 70
     1
102
RTVSPropertyOp31
 70
     1
102
RTVSPropertyOp32
 70
     1
102
RTVSPropertyOp33
 70
     1
102
RTVSPropertyOp34
 70
     1
102
RTVSPropertyOp35
 70
     1
102
RTVSPropertyOp36
 70
     1
102
RTVSPropertyOp37
 70
     1
102
RTVSPropertyOp38
 70
     1
102
RTVSPropertyOp39
 70
     1
102
RTVSPropertyOp40
 70
     1
102
RTVSPropertyOp41
 70
     1
102
RTVSPropertyOp42
 70
     1
102
RTVSPropertyOp43
 70
     1
102
RTVSPropertyOp44
 70
     1
102
RTVSPropertyOp45
 70
     1
102
RTVSPropertyOp46
 70
     1
102
RTVSPropertyOp47
 70
     1
102
RTVSPropertyOp48
 70
     1
102
RTVSPropertyOp49
 70
     1
102
RTVSPropertyOp50
 70
     1
102
RTVSPropertyOp51
 70
     0
102
RTVSPropertyOp52
 70
     0
102
RTVSPropertyOp53
 70
     1
102
RTVSPropertyOp54
 70
     1
102
RTVSPropertyOp55
 70
     1
102
RTVSPropertyOp56
 70
     1
102
RTVSPropertyOp57
 70
     1
102
RTVSPropertyOp58
 70
     1
102
RTVSPropertyOp59
 70
     1
102
RTVSPropertyOp60
 70
     1
102
RTVSPropertyOp61
 70
     1
102
RTVSPropertyOp62
 70
     1
  0
XRECORD
  5
10F8
102
{ACAD_REACTORS
330
10F7
102
}
330
10F7
100
AcDbXrecord
280
     1
102
RTVSPost2010Prop28
280
     0
102
RTVSPost2010PropOp28
 70
     1
102
RTVSPost2010Prop29
280
     1
102
RTVSPost2010PropOp29
 70
     1
102
RTVSPost2010Prop30
280
     1
102
RTVSPost2010PropOp30
 70
     1
102
RTVSPost2010Prop31
280
     0
102
RTVSPost2010PropOp31
 70
     1
102
RTVSPost2010Prop32
280
     0
102
RTVSPost2010PropOp32
 70
     1
102
RTVSPost2010Prop33
280
     0
102
RTVSPost2010PropOp33
 70
     1
102
RTVSPost2010Prop34
280
     0
102
RTVSPost2010PropOp34
 70
     1
102
RTVSPost2010Prop35
280
     0
102
RTVSPost2010PropOp35
 70
     1
102
RTVSPost2010Prop36
280
     0
102
RTVSPost2010PropOp36
 70
     1
102
RTVSPost2010Prop37
 90
       50
102
RTVSPost2010PropOp37
 70
     1
102
RTVSPost2010Prop38
140
0.0
102
RTVSPost2010PropOp38
 70
     1
102
RTVSPost2010Prop39
140
1.0
102
RTVSPost2010PropOp39
 70
     1
102
RTVSPost2010Prop40
 90
        0
102
RTVSPost2010PropOp40
 70
     1
102
RTVSPost2010Prop41ColorIndex
 90
       18
102
RTVSPost2010Prop41ColorRGB
 90
        0
102
RTVSPost2010PropOp41
 70
     1
102
RTVSPost2010Prop42
 90
       50
102
RTVSPost2010PropOp42
 70
     1
102
RTVSPost2010Prop43
 90
        3
102
RTVSPost2010PropOp43
 70
     1
102
RTVSPost2010Prop44ColorIndex
 90
        5
102
RTVSPost2010Prop44ColorRGB
 90
      255
102
RTVSPost2010PropOp44
 70
     1
102
RTVSPost2010Prop45
280
     0
102
RTVSPost2010PropOp45
 70
     1
102
RTVSPost2010Prop46
 90
       50
102
RTVSPost2010PropOp46
 70
     1
102
RTVSPost2010Prop47
 90
       50
102
RTVSPost2010PropOp47
 70
     1
102
RTVSPost2010Prop48
 90
       50
102
RTVSPost2010PropOp48
 70
     1
102
RTVSPost2010Prop49
280
     0
102
RTVSPost2010PropOp49
 70
     1
102
RTVSPost2010Prop50
 90
       50
102
RTVSPost2010PropOp50
 70
     1
102
RTVSPost2010Prop51ColorIndex
 90
      256
102
RTVSPost2010Prop51ColorRGB
 90
-16777216
102
RTVSPost2010PropOp51
 70
     0
102
RTVSPost2010Prop52
140
1.0
102
RTVSPost2010PropOp52
 70
     0
102
RTVSPost2010Prop53
 90
        2
102
RTVSPost2010PropOp53
 70
     1
102
RTVSPost2010Prop54
  1
strokes_ogs.tif
102
RTVSPost2010PropOp54
 70
     1
102
RTVSPost2010Prop55
280
     0
102
RTVSPost2010PropOp55
 70
     1
102
RTVSPost2010Prop56
140
1.0
102
RTVSPost2010PropOp56
 70
     1
102
RTVSPost2010Prop57
140
1.0
102
RTVSPost2010PropOp57
 70
     1
102
RTVSPropertyOp0
 70
     1
102
RTVSPropertyOp1
 70
     1
102
RTVSPropertyOp2
 70
     1
102
RTVSPropertyOp3
 70
     1
102
RTVSPropertyOp4
 70
     1
102
RTVSPropertyOp5
 70
     1
102
RTVSPropertyOp6
 70
     1
102
RTVSPropertyOp7
 70
     1
102
RTVSPropertyOp8
 70
     1
102
RTVSPropertyOp9
 70
     1
102
RTVSPropertyOp10
 70
     1
102
RTVSPropertyOp11
 70
     1
102
RTVSPropertyOp12
 70
     1
102
RTVSPropertyOp13
 70
     1
102
RTVSPropertyOp14
 70
     1
102
RTVSPropertyOp15
 70
     1
102
RTVSPropertyOp16
 70
     1
102
RTVSPropertyOp17
 70
     1
102
RTVSPropertyOp18
 70
     1
102
RTVSPropertyOp19
 70
     1
102
RTVSPropertyOp20
 70
     1
102
RTVSPropertyOp21
 70
     1
102
RTVSPropertyOp22
 70
     1
102
RTVSPropertyOp23
 70
     1
102
RTVSPropertyOp24
 70
     1
102
RTVSPropertyOp25
 70
     1
102
RTVSPropertyOp26
 70
     1
102
RTVSPropertyOp27
 70
     1
102
RTVSPropertyOp28
 70
     1
102
RTVSPropertyOp29
 70
     1
102
RTVSPropertyOp30
 70
     1
102
RTVSPropertyOp31
 70
     1
102
RTVSPropertyOp32
 70
     1
102
RTVSPropertyOp33
 70
     1
102
RTVSPropertyOp34
 70
     1
102
RTVSPropertyOp35
 70
     1
102
RTVSPropertyOp36
 70
     1
102
RTVSPropertyOp37
 70
     1
102
RTVSPropertyOp38
 70
     1
102
RTVSPropertyOp39
 70
     1
102
RTVSPropertyOp40
 70
     1
102
RTVSPropertyOp41
 70
     1
102
RTVSPropertyOp42
 70
     1
102
RTVSPropertyOp43
 70
     1
102
RTVSPropertyOp44
 70
     1
102
RTVSPropertyOp45
 70
     1
102
RTVSPropertyOp46
 70
     1
102
RTVSPropertyOp47
 70
     1
102
RTVSPropertyOp48
 70
     1
102
RTVSPropertyOp49
 70
     1
102
RTVSPropertyOp50
 70
     1
102
RTVSPropertyOp51
 70
     0
102
RTVSPropertyOp52
 70
     0
102
RTVSPropertyOp53
 70
     1
102
RTVSPropertyOp54
 70
     1
102
RTVSPropertyOp55
 70
     1
102
RTVSPropertyOp56
 70
     1
102
RTVSPropertyOp57
 70
     1
102
RTVSPropertyOp58
 70
     1
102
RTVSPropertyOp59
 70
     1
102
RTVSPropertyOp60
 70
     1
102
RTVSPropertyOp61
 70
     1
102
RTVSPropertyOp62
 70
     1
  0
ENDSEC
  0
EOF
