  0
SECTION
  2
HEADER
  9
$ACADVER
  1
AC1018
  9
$ACADMAINTVER
 70
     0
  9
$DWGCODEPAGE
  3
ANSI_932
  9
$INSBASE
 10
0.0
 20
0.0
 30
0.0
  9
$EXTMIN
 10
236.4655427980613
 20
171.6339896600951
 30
-0.0000000000112498
  9
$EXTMAX
 10
491.8990686337299
 20
367.055777876885
 30
0.0000000000002956
  9
$LIMMIN
 10
0.0
 20
0.0
  9
$LIMMAX
 10
420.0
 20
297.0
  9
$ORTHOMODE
 70
     0
  9
$REGENMODE
 70
     1
  9
$FILLMODE
 70
     1
  9
$QTEXTMODE
 70
     0
  9
$MIRRTEXT
 70
     1
  9
$LTSCALE
 40
1.0
  9
$ATTMODE
 70
     1
  9
$TEXTSIZE
 40
1.0
  9
$TRACEWID
 40
1.0
  9
$TEXTSTYLE
  7
STYLE3
  9
$CLAYER
  8
寸法線
  9
$CELTYPE
  6
BYLAYER
  9
$CECOLOR
 62
   256
  9
$CELTSCALE
 40
1.0
  9
$DISPSILH
 70
     0
  9
$DIMSCALE
 40
1.0
  9
$DIMASZ
 40
2.5
  9
$DIMEXO
 40
0.0
  9
$DIMDLI
 40
3.75
  9
$DIMRND
 40
0.0
  9
$DIMDLE
 40
0.0
  9
$DIMEXE
 40
1.25
  9
$DIMTP
 40
0.0
  9
$DIMTM
 40
0.0
  9
$DIMTXT
 40
2.5
  9
$DIMCEN
 40
2.5
  9
$DIMTSZ
 40
0.0
  9
$DIMTOL
 70
     0
  9
$DIMLIM
 70
     0
  9
$DIMTIH
 70
     0
  9
$DIMTOH
 70
     0
  9
$DIMSE1
 70
     0
  9
$DIMSE2
 70
     0
  9
$DIMTAD
 70
     1
  9
$DIMZIN
 70
     8
  9
$DIMBLK
  1

  9
$DIMASO
 70
     1
  9
$DIMSHO
 70
     1
  9
$DIMPOST
  1

  9
$DIMAPOST
  1

  9
$DIMALT
 70
     0
  9
$DIMALTD
 70
     4
  9
$DIMALTF
 40
0.0394
  9
$DIMLFAC
 40
1.0
  9
$DIMTOFL
 70
     1
  9
$DIMTVP
 40
0.0
  9
$DIMTIX
 70
     0
  9
$DIMSOXD
 70
     0
  9
$DIMSAH
 70
     1
  9
$DIMBLK1
  1
OPEN
  9
$DIMBLK2
  1
OPEN
  9
$DIMSTYLE
  2
STYLE2
  9
$DIMCLRD
 70
     2
  9
$DIMCLRE
 70
     2
  9
$DIMCLRT
 70
     6
  9
$DIMTFAC
 40
1.0
  9
$DIMGAP
 40
0.625
  9
$DIMJUST
 70
     0
  9
$DIMSD1
 70
     0
  9
$DIMSD2
 70
     0
  9
$DIMTOLJ
 70
     1
  9
$DIMTZIN
 70
     0
  9
$DIMALTZ
 70
     0
  9
$DIMALTTZ
 70
     0
  9
$DIMUPT
 70
     0
  9
$DIMDEC
 70
     2
  9
$DIMTDEC
 70
     4
  9
$DIMALTU
 70
     8
  9
$DIMALTTD
 70
     4
  9
$DIMTXSTY
  7
STYLE3
  9
$DIMAUNIT
 70
     0
  9
$DIMADEC
 70
     0
  9
$DIMALTRND
 40
0.0
  9
$DIMAZIN
 70
     0
  9
$DIMDSEP
 70
    46
  9
$DIMATFIT
 70
     3
  9
$DIMFRAC
 70
     0
  9
$DIMLDRBLK
  1

  9
$DIMLUNIT
 70
     2
  9
$DIMLWD
 70
    -2
  9
$DIMLWE
 70
    -2
  9
$DIMTMOVE
 70
     0
  9
$LUNITS
 70
     2
  9
$LUPREC
 70
     4
  9
$SKETCHINC
 40
1.0
  9
$FILLETRAD
 40
0.0
  9
$AUNITS
 70
     0
  9
$AUPREC
 70
     0
  9
$MENU
  1
.
  9
$ELEVATION
 40
0.0
  9
$PELEVATION
 40
0.0
  9
$THICKNESS
 40
0.0
  9
$LIMCHECK
 70
     0
  9
$CHAMFERA
 40
0.2
  9
$CHAMFERB
 40
0.2
  9
$CHAMFERC
 40
20.0
  9
$CHAMFERD
 40
0.0
  9
$SKPOLY
 70
     0
  9
$TDCREATE
 40
2450717.578556713
  9
$TDUCREATE
 40
2450717.203556713
  9
$TDUPDATE
 40
2455356.584085648
  9
$TDUUPDATE
 40
2455356.209085648
  9
$TDINDWG
 40
0.5558902546
  9
$TDUSRTIMER
 40
0.5558902546
  9
$USRTIMER
 70
     1
  9
$ANGBASE
 50
0.0
  9
$ANGDIR
 70
     0
  9
$PDMODE
 70
     0
  9
$PDSIZE
 40
0.0
  9
$PLINEWID
 40
0.0
  9
$SPLFRAME
 70
     0
  9
$SPLINETYPE
 70
     6
  9
$SPLINESEGS
 70
     8
  9
$HANDSEED
  5
2385
  9
$SURFTAB1
 70
     6
  9
$SURFTAB2
 70
     6
  9
$SURFTYPE
 70
     6
  9
$SURFU
 70
     6
  9
$SURFV
 70
     6
  9
$UCSBASE
  2

  9
$UCSNAME
  2

  9
$UCSORG
 10
0.0
 20
0.0
 30
0.0
  9
$UCSXDIR
 10
1.0
 20
0.0
 30
0.0
  9
$UCSYDIR
 10
0.0
 20
1.0
 30
0.0
  9
$UCSORTHOREF
  2

  9
$UCSORTHOVIEW
 70
     0
  9
$UCSORGTOP
 10
0.0
 20
0.0
 30
0.0
  9
$UCSORGBOTTOM
 10
0.0
 20
0.0
 30
0.0
  9
$UCSORGLEFT
 10
0.0
 20
0.0
 30
0.0
  9
$UCSORGRIGHT
 10
0.0
 20
0.0
 30
0.0
  9
$UCSORGFRONT
 10
0.0
 20
0.0
 30
0.0
  9
$UCSORGBACK
 10
0.0
 20
0.0
 30
0.0
  9
$PUCSBASE
  2

  9
$PUCSNAME
  2

  9
$PUCSORG
 10
0.0
 20
0.0
 30
0.0
  9
$PUCSXDIR
 10
1.0
 20
0.0
 30
0.0
  9
$PUCSYDIR
 10
0.0
 20
1.0
 30
0.0
  9
$PUCSORTHOREF
  2

  9
$PUCSORTHOVIEW
 70
     0
  9
$PUCSORGTOP
 10
0.0
 20
0.0
 30
0.0
  9
$PUCSORGBOTTOM
 10
0.0
 20
0.0
 30
0.0
  9
$PUCSORGLEFT
 10
0.0
 20
0.0
 30
0.0
  9
$PUCSORGRIGHT
 10
0.0
 20
0.0
 30
0.0
  9
$PUCSORGFRONT
 10
0.0
 20
0.0
 30
0.0
  9
$PUCSORGBACK
 10
0.0
 20
0.0
 30
0.0
  9
$USERI1
 70
     0
  9
$USERI2
 70
     0
  9
$USERI3
 70
     0
  9
$USERI4
 70
     0
  9
$USERI5
 70
     0
  9
$USERR1
 40
0.0
  9
$USERR2
 40
0.0
  9
$USERR3
 40
0.0
  9
$USERR4
 40
0.0
  9
$USERR5
 40
0.0
  9
$WORLDVIEW
 70
     1
  9
$SHADEDGE
 70
     3
  9
$SHADEDIF
 70
    70
  9
$TILEMODE
 70
     1
  9
$MAXACTVP
 70
    48
  9
$PINSBASE
 10
0.0
 20
0.0
 30
0.0
  9
$PLIMCHECK
 70
     0
  9
$PEXTMIN
 10
1.000000000000000E+20
 20
1.000000000000000E+20
 30
1.000000000000000E+20
  9
$PEXTMAX
 10
-1.000000000000000E+20
 20
-1.000000000000000E+20
 30
-1.000000000000000E+20
  9
$PLIMMIN
 10
0.0
 20
0.0
  9
$PLIMMAX
 10
420.0
 20
297.0
  9
$UNITMODE
 70
     0
  9
$VISRETAIN
 70
     1
  9
$PLINEGEN
 70
     0
  9
$PSLTSCALE
 70
     1
  9
$TREEDEPTH
 70
  3020
  9
$CMLSTYLE
  2
STANDARD
  9
$CMLJUST
 70
     0
  9
$CMLSCALE
 40
20.0
  9
$PROXYGRAPHICS
 70
     1
  9
$MEASUREMENT
 70
     1
  9
$CELWEIGHT
370
    -1
  9
$ENDCAPS
280
     0
  9
$JOINSTYLE
280
     0
  9
$LWDISPLAY
290
     0
  9
$INSUNITS
 70
     0
  9
$HYPERLINKBASE
  1

  9
$STYLESHEET
  1

  9
$XEDIT
290
     1
  9
$CEPSNTYPE
380
     0
  9
$PSTYLEMODE
290
     1
  9
$FINGERPRINTGUID
  2
{7BCA9CF4-BBAF-4412-95D0-63DB4FCE8FF7}
  9
$VERSIONGUID
  2
{3AF95D02-C0CA-4D07-8146-44B8FB2FEA65}
  9
$EXTNAMES
290
     1
  9
$PSVPSCALE
 40
0.0
  9
$OLESTARTUP
290
     0
  9
$SORTENTS
280
    96
  9
$INDEXCTL
280
     0
  9
$HIDETEXT
280
     0
  9
$XCLIPFRAME
290
     0
  9
$HALOGAP
280
     0
  9
$OBSCOLOR
 70
   257
  9
$OBSLTYPE
280
     0
  9
$INTERSECTIONDISPLAY
280
     0
  9
$INTERSECTIONCOLOR
 70
   257
  9
$DIMASSOC
280
     1
  9
$PROJECTNAME
  1

  0
ENDSEC
  0
SECTION
  2
CLASSES
  0
CLASS
  1
HATCH
  2
AcDbHatch
  3
ObjectDBX Classes
 90
        0
 91
       16
280
     0
281
     1
  0
CLASS
  1
LWPOLYLINE
  2
AcDbPolyline
  3
ObjectDBX Classes
 90
        0
 91
        1
280
     0
281
     1
  0
CLASS
  1
IMAGEDEF
  2
AcDbRasterImageDef
  3
ISM
 90
        0
 91
        1
280
     0
281
     0
  0
CLASS
  1
DICTIONARYVAR
  2
AcDbDictionaryVar
  3
ObjectDBX Classes
 90
        0
 91
        2
280
     0
281
     0
  0
CLASS
  1
ACDBDICTIONARYWDFLT
  2
AcDbDictionaryWithDefault
  3
ObjectDBX Classes
 90
        0
 91
        1
280
     0
281
     0
  0
CLASS
  1
TABLESTYLE
  2
AcDbTableStyle
  3
ObjectDBX Classes
 90
     2047
 91
        1
280
     0
281
     0
  0
ENDSEC
  0
SECTION
  2
TABLES
  0
TABLE
  2
VPORT
  5
8
330
0
100
AcDbSymbolTable
 70
     2
  0
VPORT
  5
2384
330
8
100
AcDbSymbolTableRecord
100
AcDbViewportTableRecord
  2
*Active
 70
     0
 10
0.0
 20
0.0
 11
1.0
 21
1.0
 12
364.1823057158956
 22
269.3448837684901
 13
0.0
 23
0.0
 14
10.0
 24
10.0
 15
10.0
 25
10.0
 16
0.0
 26
0.0
 36
1.0
 17
0.0
 27
0.0
 37
0.0
 40
196.9078854655868
 41
1.530456852791878
 42
50.0
 43
0.0
 44
0.0
 50
0.0
 51
0.0
 71
     0
 72
   100
 73
     1
 74
     1
 75
     0
 76
     0
 77
     0
 78
     0
281
     0
 65
     1
110
0.0
120
0.0
130
0.0
111
1.0
121
0.0
131
0.0
112
0.0
122
1.0
132
0.0
 79
     0
146
0.0
  0
ENDTAB
  0
TABLE
  2
LTYPE
  5
5
330
0
100
AcDbSymbolTable
 70
     4
  0
LTYPE
  5
12
330
5
100
AcDbSymbolTableRecord
100
AcDbLinetypeTableRecord
  2
BYBLOCK
 70
     0
  3

 72
    65
 73
     0
 40
0.0
  0
LTYPE
  5
13
330
5
100
AcDbSymbolTableRecord
100
AcDbLinetypeTableRecord
  2
BYLAYER
 70
     0
  3

 72
    65
 73
     0
 40
0.0
  0
LTYPE
  5
14
330
5
100
AcDbSymbolTableRecord
100
AcDbLinetypeTableRecord
  2
CONTINUOUS
 70
     0
  3
Solid line
 72
    65
 73
     0
 40
0.0
  0
LTYPE
  5
22
330
5
100
AcDbSymbolTableRecord
100
AcDbLinetypeTableRecord
  2
CENTER2
 70
     0
  3
Center (.5x) ___ _ ___ _ ___ _ ___ _ ___ _ ___
 72
    65
 73
     4
 40
28.575
 49
19.05
 74
     0
 49
-3.174999999999999
 74
     0
 49
3.174999999999999
 74
     0
 49
-3.174999999999999
 74
     0
  0
LTYPE
  5
24
330
5
100
AcDbSymbolTableRecord
100
AcDbLinetypeTableRecord
  2
PHANTOM2
 70
     0
  3
Phantom (.5x) ___ _ _ ___ _ _ ___ _ _ ___ _ _
 72
    65
 73
     6
 40
31.75
 49
15.875
 74
     0
 49
-3.174999999999999
 74
     0
 49
3.174999999999999
 74
     0
 49
-3.174999999999999
 74
     0
 49
3.174999999999999
 74
     0
 49
-3.174999999999999
 74
     0
  0
ENDTAB
  0
TABLE
  2
LAYER
  5
2
330
0
100
AcDbSymbolTable
 70
    16
  0
LAYER
  5
E
330
2
100
AcDbSymbolTableRecord
100
AcDbLayerTableRecord
  2
0
 70
     0
 62
     7
  6
CONTINUOUS
370
    -3
390
160A
  0
LAYER
  5
25
330
2
100
AcDbSymbolTableRecord
100
AcDbLayerTableRecord
  2
外形線
 70
     0
 62
     7
  6
CONTINUOUS
370
    -3
390
160A
  0
LAYER
  5
27
330
2
100
AcDbSymbolTableRecord
100
AcDbLayerTableRecord
  2
中心線
 70
     0
 62
     4
  6
CENTER2
370
    -3
390
160A
  0
LAYER
  5
29
330
2
100
AcDbSymbolTableRecord
100
AcDbLayerTableRecord
  2
想像線
 70
     0
 62
     1
  6
PHANTOM2
370
    -3
390
160A
  0
LAYER
  5
2A
330
2
100
AcDbSymbolTableRecord
100
AcDbLayerTableRecord
  2
ﾊｯﾁﾝｸ
 70
     0
 62
     4
  6
CONTINUOUS
370
    -3
390
160A
  0
LAYER
  5
2B
330
2
100
AcDbSymbolTableRecord
100
AcDbLayerTableRecord
  2
文字
 70
     0
 62
     6
  6
CONTINUOUS
370
    -3
390
160A
  0
LAYER
  5
2C
330
2
100
AcDbSymbolTableRecord
100
AcDbLayerTableRecord
  2
目盛
 70
     0
 62
    70
  6
CONTINUOUS
370
    -3
390
160A
  0
LAYER
  5
2D
330
2
100
AcDbSymbolTableRecord
100
AcDbLayerTableRecord
  2
針
 70
     0
 62
     5
  6
CONTINUOUS
370
    -3
390
160A
  0
LAYER
  5
53
330
2
100
AcDbSymbolTableRecord
100
AcDbLayerTableRecord
  2
DEFPOINTS
 70
     0
 62
     7
  6
CONTINUOUS
290
     0
370
    -3
390
160A
  0
LAYER
  5
A5
330
2
100
AcDbSymbolTableRecord
100
AcDbLayerTableRecord
  2
C
 70
     0
 62
     7
  6
CONTINUOUS
370
    -3
390
160A
  0
LAYER
  5
E00
330
2
100
AcDbSymbolTableRecord
100
AcDbLayerTableRecord
  2
ROGO
 70
     0
 62
     6
  6
CONTINUOUS
370
    -3
390
160A
  0
LAYER
  5
158E
330
2
100
AcDbSymbolTableRecord
100
AcDbLayerTableRecord
  2
寸法線
 70
     0
 62
     2
  6
CONTINUOUS
370
    -3
390
160A
  0
ENDTAB
  0
TABLE
  2
STYLE
  5
3
330
0
100
AcDbSymbolTable
 70
     3
  0
STYLE
  5
F
330
3
100
AcDbSymbolTableRecord
100
AcDbTextStyleTableRecord
  2
STANDARD
 70
     0
 40
0.0
 41
1.0
 50
0.0
 71
     0
 42
2.5
  3
txt
  4

  0
STYLE
  5
3F
330
3
100
AcDbSymbolTableRecord
100
AcDbTextStyleTableRecord
  2
STYLE3
 70
     0
 40
0.0
 41
1.0
 50
0.0
 71
     0
 42
1.0
  3
romans.shx
  4
bigfont.shx
  0
ENDTAB
  0
TABLE
  2
VIEW
  5
6
330
0
100
AcDbSymbolTable
 70
     0
  0
ENDTAB
  0
TABLE
  2
UCS
  5
7
330
0
100
AcDbSymbolTable
 70
     0
  0
ENDTAB
  0
TABLE
  2
APPID
  5
9
330
0
100
AcDbSymbolTable
 70
     1
  0
APPID
  5
10
330
9
100
AcDbSymbolTableRecord
100
AcDbRegAppTableRecord
  2
ACAD
 70
     0
  0
ENDTAB
  0
TABLE
  2
DIMSTYLE
  5
A
330
0
100
AcDbSymbolTable
 70
     8
100
AcDbDimStyleTable
 71
     2
340
66
340
16B9
  0
DIMSTYLE
105
1D
330
A
100
AcDbSymbolTableRecord
100
AcDbDimStyleTableRecord
  2
STANDARD
 70
     0
 41
2.5
 42
0.625
 43
3.75
 44
1.25
 73
     0
 74
     0
 77
     1
 78
     8
140
2.5
141
2.5
143
0.0394
147
0.625
171
     4
172
     1
273
     8
274
     4
277
     6
340
F
  0
DIMSTYLE
105
66
102
{ACAD_REACTORS
330
22AB
330
22B8
102
}
330
A
100
AcDbSymbolTableRecord
100
AcDbDimStyleTableRecord
  2
STYLE2
 70
     0
 41
2.5
 42
0.0
 43
3.75
 44
1.25
 73
     0
 74
     0
 77
     1
 78
     8
140
2.5
141
2.5
143
0.0394
147
0.625
171
     4
172
     1
173
     1
176
     2
177
     2
178
     6
271
     1
273
     8
274
     4
340
3F
341
45
343
45
344
45
  0
DIMSTYLE
105
16B8
102
{ACAD_REACTORS
330
21BF
102
}
330
A
100
AcDbSymbolTableRecord
100
AcDbDimStyleTableRecord
  2
.0 type現尺
 70
     0
 41
2.5
 42
0.0
 43
3.75
 44
1.25
 73
     0
 74
     0
 77
     1
 78
     1
140
2.5
141
2.5
143
0.0394
147
0.625
171
     4
172
     1
173
     1
176
     2
177
     2
178
     6
271
     1
272
     1
273
     8
274
     4
340
3F
343
45
344
45
  0
DIMSTYLE
105
16B9
102
{ACAD_REACTORS
330
216F
330
218E
330
21D3
330
220F
330
224B
330
228C
102
}
330
A
100
AcDbSymbolTableRecord
100
AcDbDimStyleTableRecord
  2
φ
 70
     0
  3
%%C<>
 41
2.5
 42
0.0
 43
3.75
 44
1.25
 73
     0
 74
     0
 77
     1
 78
     8
140
2.5
141
2.5
143
0.0394
147
0.625
171
     4
172
     1
173
     1
176
     2
177
     2
178
     6
271
     1
272
     1
273
     8
274
     4
340
3F
343
45
344
45
  0
ENDTAB
  0
TABLE
  2
BLOCK_RECORD
  5
1
330
0
100
AcDbSymbolTable
 70
    15
  0
BLOCK_RECORD
  5
18
330
1
100
AcDbSymbolTableRecord
100
AcDbBlockTableRecord
  2
*MODEL_SPACE
340
1611
  0
BLOCK_RECORD
  5
15
330
1
100
AcDbSymbolTableRecord
100
AcDbBlockTableRecord
  2
*PAPER_SPACE
340
1612
  0
BLOCK_RECORD
  5
45
330
1
100
AcDbSymbolTableRecord
100
AcDbBlockTableRecord
  2
_OPEN
340
0
102
{BLKREFS
331
836
331
837
331
83E
331
83F
331
847
331
848
331
900
331
901
331
909
331
90A
331
912
331
913
331
FD7
331
FD8
331
FE0
331
FE1
331
14B3
331
14B4
331
151B
331
151C
331
1524
331
1525
331
1537
331
1538
331
154B
331
154C
331
22E3
331
232C
331
232D
331
2335
331
2336
331
233E
331
233F
331
2347
331
2348
331
2350
331
2351
331
235A
331
235B
331
2362
331
2363
331
236A
331
236B
331
2373
331
2374
102
}
  0
BLOCK_RECORD
  5
2170
330
1
100
AcDbSymbolTableRecord
100
AcDbBlockTableRecord
  2
*D3
340
0
  0
BLOCK_RECORD
  5
218F
330
1
100
AcDbSymbolTableRecord
100
AcDbBlockTableRecord
  2
*D4
340
0
  0
BLOCK_RECORD
  5
21C0
330
1
100
AcDbSymbolTableRecord
100
AcDbBlockTableRecord
  2
*D5
340
0
  0
BLOCK_RECORD
  5
21D4
330
1
100
AcDbSymbolTableRecord
100
AcDbBlockTableRecord
  2
*D6
340
0
  0
BLOCK_RECORD
  5
2210
330
1
100
AcDbSymbolTableRecord
100
AcDbBlockTableRecord
  2
*D7
340
0
  0
BLOCK_RECORD
  5
224C
330
1
100
AcDbSymbolTableRecord
100
AcDbBlockTableRecord
  2
*D8
340
0
  0
BLOCK_RECORD
  5
228D
330
1
100
AcDbSymbolTableRecord
100
AcDbBlockTableRecord
  2
*D9
340
0
  0
BLOCK_RECORD
  5
22AC
330
1
100
AcDbSymbolTableRecord
100
AcDbBlockTableRecord
  2
*D10
340
0
  0
BLOCK_RECORD
  5
22B9
330
1
100
AcDbSymbolTableRecord
100
AcDbBlockTableRecord
  2
*D11
340
0
  0
ENDTAB
  0
ENDSEC
  0
SECTION
  2
BLOCKS
  0
BLOCK
  5
19
330
18
100
AcDbEntity
  8
0
100
AcDbBlockBegin
  2
*MODEL_SPACE
 70
     0
 10
0.0
 20
0.0
 30
0.0
  3
*MODEL_SPACE
  1

  0
ENDBLK
  5
1A
330
18
100
AcDbEntity
  8
0
100
AcDbBlockEnd
  0
BLOCK
  5
16
330
15
100
AcDbEntity
 67
     1
  8
0
100
AcDbBlockBegin
  2
*PAPER_SPACE
 70
     0
 10
0.0
 20
0.0
 30
0.0
  3
*PAPER_SPACE
  1

  0
ENDBLK
  5
17
330
15
100
AcDbEntity
 67
     1
  8
0
100
AcDbBlockEnd
  0
BLOCK
  5
46
330
45
100
AcDbEntity
  8
0
100
AcDbBlockBegin
  2
_OPEN
 70
     0
 10
0.0
 20
0.0
 30
0.0
  3
_OPEN
  1

  0
LINE
  5
47
330
45
100
AcDbEntity
  8
0
  6
ByBlock
 62
     0
100
AcDbLine
 10
-1.0
 20
0.1666666666666666
 30
0.0
 11
0.0
 21
0.0
 31
0.0
  0
LINE
  5
48
330
45
100
AcDbEntity
  8
0
  6
ByBlock
 62
     0
100
AcDbLine
 10
0.0
 20
0.0
 30
0.0
 11
-1.0
 21
-0.1666666666666666
 31
0.0
  0
LINE
  5
49
330
45
100
AcDbEntity
  8
0
  6
ByBlock
 62
     0
100
AcDbLine
 10
0.0
 20
0.0
 30
0.0
 11
-1.0
 21
0.0
 31
0.0
  0
ENDBLK
  5
4A
330
45
100
AcDbEntity
  8
0
100
AcDbBlockEnd
  0
BLOCK
  5
217A
330
2170
100
AcDbEntity
  8
0
100
AcDbBlockBegin
  2
*D3
 70
     1
 10
0.0
 20
0.0
 30
0.0
  3
*D3
  1

  0
LINE
  5
2344
330
2170
100
AcDbEntity
  8
寸法線
 62
     2
370
    -2
100
AcDbLine
 10
328.3716936972956
 20
308.9889790896693
 30
0.0
 11
364.5651883270585
 21
308.9889790896693
 31
0.0
  0
LINE
  5
2345
330
2170
100
AcDbEntity
  8
寸法線
 62
     2
370
    -2
100
AcDbLine
 10
328.3716936972957
 20
262.9889790896693
 30
0.0
 11
364.5651883270585
 21
262.9889790896693
 31
0.0
  0
LINE
  5
2346
330
2170
100
AcDbEntity
  8
寸法線
 62
     2
370
    -2
100
AcDbLine
 10
363.3151883270585
 20
306.4889790896693
 30
0.0
 11
363.3151883270585
 21
265.4889790896693
 31
0.0
  0
INSERT
  5
2347
330
2170
100
AcDbEntity
  8
寸法線
 62
     2
370
    -2
100
AcDbBlockReference
  2
_OPEN
 10
363.3151883270585
 20
308.9889790896693
 30
0.0
 41
2.5
 42
2.5
 43
2.5
 50
90.0
  0
INSERT
  5
2348
330
2170
100
AcDbEntity
  8
寸法線
 62
     2
370
    -2
100
AcDbBlockReference
  2
_OPEN
 10
363.3151883270585
 20
262.9889790896693
 30
0.0
 41
2.5
 42
2.5
 43
2.5
 50
270.0
  0
MTEXT
  5
2349
330
2170
100
AcDbEntity
  8
寸法線
 62
     6
100
AcDbMText
 10
361.4401883270584
 20
285.9889790896693
 30
0.0
 40
2.5
 41
0.0
 71
     5
 72
     1
  1
\A1;%%C46
  7
STYLE3
 11
0.0000000000000001
 21
1.0
 31
0.0
 73
     1
 44
1.0
  0
POINT
  5
234A
330
2170
100
AcDbEntity
  8
DEFPOINTS
 62
     0
100
AcDbPoint
 10
328.3716936972956
 20
308.9889790896693
 30
0.0
  0
POINT
  5
234B
330
2170
100
AcDbEntity
  8
DEFPOINTS
 62
     0
100
AcDbPoint
 10
328.3716936972957
 20
262.9889790896693
 30
0.0
  0
POINT
  5
234C
330
2170
100
AcDbEntity
  8
DEFPOINTS
 62
     0
100
AcDbPoint
 10
363.3151883270585
 20
262.9889790896693
 30
0.0
  0
ENDBLK
  5
217B
330
2170
100
AcDbEntity
  8
0
100
AcDbBlockEnd
  0
BLOCK
  5
2199
330
218F
100
AcDbEntity
  8
0
100
AcDbBlockBegin
  2
*D4
 70
     1
 10
0.0
 20
0.0
 30
0.0
  3
*D4
  1

  0
LINE
  5
233B
330
218F
100
AcDbEntity
  8
寸法線
 62
     2
370
    -2
100
AcDbLine
 10
406.9827672079667
 20
312.3889790896693
 30
0.0
 11
376.1627583044748
 21
312.3889790896693
 31
0.0
  0
LINE
  5
233C
330
218F
100
AcDbEntity
  8
寸法線
 62
     2
370
    -2
100
AcDbLine
 10
406.9827672079667
 20
259.5889790896693
 30
0.0
 11
376.1627583044748
 21
259.5889790896694
 31
0.0
  0
LINE
  5
233D
330
218F
100
AcDbEntity
  8
寸法線
 62
     2
370
    -2
100
AcDbLine
 10
377.4127583044748
 20
309.8889790896693
 30
0.0
 11
377.4127583044748
 21
262.0889790896693
 31
0.0
  0
INSERT
  5
233E
330
218F
100
AcDbEntity
  8
寸法線
 62
     2
370
    -2
100
AcDbBlockReference
  2
_OPEN
 10
377.4127583044748
 20
312.3889790896693
 30
0.0
 41
2.5
 42
2.5
 43
2.5
 50
90.0
  0
INSERT
  5
233F
330
218F
100
AcDbEntity
  8
寸法線
 62
     2
370
    -2
100
AcDbBlockReference
  2
_OPEN
 10
377.4127583044748
 20
259.5889790896694
 30
0.0
 41
2.5
 42
2.5
 43
2.5
 50
270.0
  0
MTEXT
  5
2340
330
218F
100
AcDbEntity
  8
寸法線
 62
     6
100
AcDbMText
 10
375.5377583044747
 20
285.9889790896694
 30
0.0
 40
2.5
 41
0.0
 71
     5
 72
     1
  1
\A1;%%C53
  7
STYLE3
 11
0.0000000000000001
 21
1.0
 31
0.0
 73
     1
 44
1.0
  0
POINT
  5
2341
330
218F
100
AcDbEntity
  8
DEFPOINTS
 62
     0
100
AcDbPoint
 10
406.9827672079667
 20
312.3889790896693
 30
0.0
  0
POINT
  5
2342
330
218F
100
AcDbEntity
  8
DEFPOINTS
 62
     0
100
AcDbPoint
 10
406.9827672079667
 20
259.5889790896693
 30
0.0
  0
POINT
  5
2343
330
218F
100
AcDbEntity
  8
DEFPOINTS
 62
     0
100
AcDbPoint
 10
377.4127583044748
 20
259.5889790896694
 30
0.0
  0
ENDBLK
  5
219A
330
218F
100
AcDbEntity
  8
0
100
AcDbBlockEnd
  0
BLOCK
  5
21C9
330
21C0
100
AcDbEntity
  8
0
100
AcDbBlockBegin
  2
*D5
 70
     1
 10
0.0
 20
0.0
 30
0.0
  3
*D5
  1

  0
LINE
  5
2368
330
21C0
100
AcDbEntity
  8
寸法線
 62
     2
370
    -2
100
AcDbLine
 10
326.8716936972956
 20
252.1765406204615
 30
0.0
 11
329.8716936972956
 21
252.1765406204615
 31
0.0
  0
LINE
  5
2369
330
21C0
100
AcDbEntity
  8
寸法線
 62
     2
370
    -2
100
AcDbLine
 10
332.3716936972956
 20
252.1765406204615
 30
0.0
 11
351.3955032211052
 21
252.1765406204615
 31
0.0
  0
INSERT
  5
236A
330
21C0
100
AcDbEntity
  8
寸法線
 62
     2
370
    -2
100
AcDbBlockReference
  2
_OPEN
 10
324.3716936972956
 20
252.1765406204615
 30
0.0
 41
2.5
 42
2.5
 43
2.5
 50
180.0
  0
INSERT
  5
236B
330
21C0
100
AcDbEntity
  8
寸法線
 62
     2
370
    -2
100
AcDbBlockReference
  2
_OPEN
 10
332.3716936972956
 20
252.1765406204615
 30
0.0
 41
2.5
 42
2.5
 43
2.5
  0
MTEXT
  5
236C
330
21C0
100
AcDbEntity
  8
寸法線
 62
     6
100
AcDbMText
 10
343.1335984592004
 20
254.8432072871281
 30
0.0
 40
2.5
 41
0.0
 71
     5
 72
     1
  1
%%C8.0{\H1.750000;\S 0^ -0.03;}
  7
STYLE3
 73
     1
 44
1.0
  0
POINT
  5
236D
330
21C0
100
AcDbEntity
  8
DEFPOINTS
 62
     0
100
AcDbPoint
 10
324.3716936972956
 20
249.5864955968129
 30
0.0
  0
POINT
  5
236E
330
21C0
100
AcDbEntity
  8
DEFPOINTS
 62
     0
100
AcDbPoint
 10
332.3716936972956
 20
249.7128389511376
 30
0.0
  0
POINT
  5
236F
330
21C0
100
AcDbEntity
  8
DEFPOINTS
 62
     0
100
AcDbPoint
 10
332.3716936972956
 20
252.1765406204615
 30
0.0
  0
ENDBLK
  5
21CA
330
21C0
100
AcDbEntity
  8
0
100
AcDbBlockEnd
  0
BLOCK
  5
21DE
330
21D4
100
AcDbEntity
  8
0
100
AcDbBlockBegin
  2
*D6
 70
     1
 10
0.0
 20
0.0
 30
0.0
  3
*D6
  1

  0
LINE
  5
2360
330
21D4
100
AcDbEntity
  8
寸法線
 62
     2
370
    -2
100
AcDbLine
 10
327.0216936972956
 20
244.7875835378045
 30
0.0
 11
329.7216936972956
 21
244.7875835378045
 31
0.0
  0
LINE
  5
2361
330
21D4
100
AcDbEntity
  8
寸法線
 62
     2
370
    -2
100
AcDbLine
 10
332.2216936972956
 20
244.7875835378045
 30
0.0
 11
343.8455007502551
 21
244.7875835378045
 31
0.0
  0
INSERT
  5
2362
330
21D4
100
AcDbEntity
  8
寸法線
 62
     2
370
    -2
100
AcDbBlockReference
  2
_OPEN
 10
324.5216936972956
 20
244.7875835378045
 30
0.0
 41
2.5
 42
2.5
 43
2.5
 50
180.0
  0
INSERT
  5
2363
330
21D4
100
AcDbEntity
  8
寸法線
 62
     2
370
    -2
100
AcDbBlockReference
  2
_OPEN
 10
332.2216936972956
 20
244.7875835378045
 30
0.0
 41
2.5
 42
2.5
 43
2.5
  0
MTEXT
  5
2364
330
21D4
100
AcDbEntity
  8
寸法線
 62
     6
100
AcDbMText
 10
339.4705007502551
 20
246.6625835378045
 30
0.0
 40
2.5
 41
0.0
 71
     5
 72
     1
  1
\A1;%%C7.7
  7
STYLE3
 73
     1
 44
1.0
  0
POINT
  5
2365
330
21D4
100
AcDbEntity
  8
DEFPOINTS
 62
     0
100
AcDbPoint
 10
324.5216936972956
 20
244.7389790896693
 30
0.0
  0
POINT
  5
2366
330
21D4
100
AcDbEntity
  8
DEFPOINTS
 62
     0
100
AcDbPoint
 10
332.2216936972956
 20
244.7389790896692
 30
0.0
  0
POINT
  5
2367
330
21D4
100
AcDbEntity
  8
DEFPOINTS
 62
     0
100
AcDbPoint
 10
332.2216936972956
 20
244.7875835378045
 30
0.0
  0
ENDBLK
  5
21DF
330
21D4
100
AcDbEntity
  8
0
100
AcDbBlockEnd
  0
BLOCK
  5
221A
330
2210
100
AcDbEntity
  8
0
100
AcDbBlockBegin
  2
*D7
 70
     1
 10
0.0
 20
0.0
 30
0.0
  3
*D7
  1

  0
LINE
  5
2356
330
2210
100
AcDbEntity
  8
寸法線
 62
     2
370
    -2
100
AcDbLine
 10
324.7716936972956
 20
242.0889790896692
 30
0.0
 11
324.7716936972956
 21
237.0500027626607
 31
0.0
  0
LINE
  5
2357
330
2210
100
AcDbEntity
  8
寸法線
 62
     2
370
    -2
100
AcDbLine
 10
331.9716936972956
 20
242.0889790896692
 30
0.0
 11
331.9716936972956
 21
237.0500027626607
 31
0.0
  0
LINE
  5
2358
330
2210
100
AcDbEntity
  8
寸法線
 62
     2
370
    -2
100
AcDbLine
 10
327.2716936972956
 20
238.3000027626607
 30
0.0
 11
329.4716936972956
 21
238.3000027626607
 31
0.0
  0
LINE
  5
2359
330
2210
100
AcDbEntity
  8
寸法線
 62
     2
370
    -2
100
AcDbLine
 10
331.9716936972956
 20
238.3000027626607
 30
0.0
 11
343.2216936972956
 21
238.3000027626607
 31
0.0
  0
INSERT
  5
235A
330
2210
100
AcDbEntity
  8
寸法線
 62
     2
370
    -2
100
AcDbBlockReference
  2
_OPEN
 10
324.7716936972956
 20
238.3000027626607
 30
0.0
 41
2.5
 42
2.5
 43
2.5
 50
180.0
  0
INSERT
  5
235B
330
2210
100
AcDbEntity
  8
寸法線
 62
     2
370
    -2
100
AcDbBlockReference
  2
_OPEN
 10
331.9716936972956
 20
238.3000027626607
 30
0.0
 41
2.5
 42
2.5
 43
2.5
  0
MTEXT
  5
235C
330
2210
100
AcDbEntity
  8
寸法線
 62
     6
100
AcDbMText
 10
338.8466936972956
 20
240.1750027626607
 30
0.0
 40
2.5
 41
0.0
 71
     5
 72
     1
  1
\A1;%%C7.2
  7
STYLE3
 73
     1
 44
1.0
  0
POINT
  5
235D
330
2210
100
AcDbEntity
  8
DEFPOINTS
 62
     0
100
AcDbPoint
 10
324.7716936972956
 20
242.0889790896692
 30
0.0
  0
POINT
  5
235E
330
2210
100
AcDbEntity
  8
DEFPOINTS
 62
     0
100
AcDbPoint
 10
331.9716936972956
 20
242.0889790896692
 30
0.0
  0
POINT
  5
235F
330
2210
100
AcDbEntity
  8
DEFPOINTS
 62
     0
100
AcDbPoint
 10
331.9716936972956
 20
238.3000027626607
 30
0.0
  0
ENDBLK
  5
221B
330
2210
100
AcDbEntity
  8
0
100
AcDbBlockEnd
  0
BLOCK
  5
2257
330
224C
100
AcDbEntity
  8
0
100
AcDbBlockBegin
  2
*D8
 70
     1
 10
0.0
 20
0.0
 30
0.0
  3
*D8
  1

  0
LINE
  5
234D
330
224C
100
AcDbEntity
  8
寸法線
 62
     2
370
    -2
100
AcDbLine
 10
323.8716936972955
 20
224.8798827654075
 30
0.0
 11
321.3716936972955
 21
224.8798827654075
 31
0.0
  0
LINE
  5
234E
330
224C
100
AcDbEntity
  8
寸法線
 62
     2
370
    -2
100
AcDbLine
 10
332.8716936972955
 20
224.8798827654075
 30
0.0
 11
340.6693127449145
 21
224.8798827654075
 31
0.0
  0
LINE
  5
234F
330
224C
100
AcDbEntity
  8
寸法線
 62
     2
370
    -2
100
AcDbLine
 10
326.3716936972955
 20
224.8798827654075
 30
0.0
 11
330.3716936972955
 21
224.8798827654075
 31
0.0
  0
INSERT
  5
2350
330
224C
100
AcDbEntity
  8
寸法線
 62
     2
370
    -2
100
AcDbBlockReference
  2
_OPEN
 10
326.3716936972955
 20
224.8798827654075
 30
0.0
 41
2.5
 42
2.5
 43
2.5
  0
INSERT
  5
2351
330
224C
100
AcDbEntity
  8
寸法線
 62
     2
370
    -2
100
AcDbBlockReference
  2
_OPEN
 10
330.3716936972955
 20
224.8798827654075
 30
0.0
 41
2.5
 42
2.5
 43
2.5
 50
180.0
  0
MTEXT
  5
2352
330
224C
100
AcDbEntity
  8
寸法線
 62
     6
100
AcDbMText
 10
338.020503221105
 20
226.7548827654075
 30
0.0
 40
2.5
 41
0.0
 71
     5
 72
     1
  1
\A1;%%C4
  7
STYLE3
 73
     1
 44
1.0
  0
POINT
  5
2353
330
224C
100
AcDbEntity
  8
DEFPOINTS
 62
     0
100
AcDbPoint
 10
326.3716936972955
 20
228.668859092416
 30
0.0
  0
POINT
  5
2354
330
224C
100
AcDbEntity
  8
DEFPOINTS
 62
     0
100
AcDbPoint
 10
330.3716936972955
 20
228.5268283829593
 30
0.0
  0
POINT
  5
2355
330
224C
100
AcDbEntity
  8
DEFPOINTS
 62
     0
100
AcDbPoint
 10
330.3716936972955
 20
224.8798827654075
 30
0.0
  0
ENDBLK
  5
2258
330
224C
100
AcDbEntity
  8
0
100
AcDbBlockEnd
  0
BLOCK
  5
2297
330
228D
100
AcDbEntity
  8
0
100
AcDbBlockBegin
  2
*D9
 70
     1
 10
0.0
 20
0.0
 30
0.0
  3
*D9
  1

  0
LINE
  5
2370
330
228D
100
AcDbEntity
  8
寸法線
 62
     2
370
    -2
100
AcDbLine
 10
422.5055800864188
 20
310.4889790896693
 30
0.0
 11
456.5517150329963
 21
310.4889790896693
 31
0.0
  0
LINE
  5
2371
330
228D
100
AcDbEntity
  8
寸法線
 62
     2
370
    -2
100
AcDbLine
 10
422.5055800864188
 20
261.4889790896693
 30
0.0
 11
456.5517150329963
 21
261.4889790896693
 31
0.0
  0
LINE
  5
2372
330
228D
100
AcDbEntity
  8
寸法線
 62
     2
370
    -2
100
AcDbLine
 10
455.3017150329963
 20
307.9889790896693
 30
0.0
 11
455.3017150329963
 21
263.9889790896693
 31
0.0
  0
INSERT
  5
2373
330
228D
100
AcDbEntity
  8
寸法線
 62
     2
370
    -2
100
AcDbBlockReference
  2
_OPEN
 10
455.3017150329963
 20
310.4889790896693
 30
0.0
 41
2.5
 42
2.5
 43
2.5
 50
90.0
  0
INSERT
  5
2374
330
228D
100
AcDbEntity
  8
寸法線
 62
     2
370
    -2
100
AcDbBlockReference
  2
_OPEN
 10
455.3017150329963
 20
261.4889790896693
 30
0.0
 41
2.5
 42
2.5
 43
2.5
 50
270.0
  0
MTEXT
  5
2375
330
228D
100
AcDbEntity
  8
寸法線
 62
     6
100
AcDbMText
 10
453.4267150329963
 20
285.9889790896694
 30
0.0
 40
2.5
 41
0.0
 71
     5
 72
     1
  1
\A1;%%C49
  7
STYLE3
 11
0.0000000000000001
 21
1.0
 31
0.0
 73
     1
 44
1.0
  0
POINT
  5
2376
330
228D
100
AcDbEntity
  8
DEFPOINTS
 62
     0
100
AcDbPoint
 10
422.5055800864188
 20
310.4889790896693
 30
0.0
  0
POINT
  5
2377
330
228D
100
AcDbEntity
  8
DEFPOINTS
 62
     0
100
AcDbPoint
 10
422.5055800864188
 20
261.4889790896693
 30
0.0
  0
POINT
  5
2378
330
228D
100
AcDbEntity
  8
DEFPOINTS
 62
     0
100
AcDbPoint
 10
455.3017150329963
 20
261.4889790896693
 30
0.0
  0
ENDBLK
  5
2298
330
228D
100
AcDbEntity
  8
0
100
AcDbBlockEnd
  0
BLOCK
  5
22B6
330
22AC
100
AcDbEntity
  8
0
100
AcDbBlockBegin
  2
*D10
 70
     1
 10
0.0
 20
0.0
 30
0.0
  3
*D10
  1

  0
LINE
  5
2332
330
22AC
100
AcDbEntity
  8
寸法線
 62
     2
370
    -2
100
AcDbLine
 10
401.5055800864188
 20
285.9889790896693
 30
0.0
 11
401.5055800864188
 21
343.9695187861653
 31
0.0
  0
LINE
  5
2333
330
22AC
100
AcDbEntity
  8
寸法線
 62
     2
370
    -2
100
AcDbLine
 10
416.0055800864188
 20
341.692970699489
 30
0.0
 11
416.0055800864188
 21
343.9695187861653
 31
0.0
  0
LINE
  5
2334
330
22AC
100
AcDbEntity
  8
寸法線
 62
     2
370
    -2
100
AcDbLine
 10
404.0055800864188
 20
342.7195187861653
 30
0.0
 11
413.5055800864188
 21
342.7195187861653
 31
0.0
  0
INSERT
  5
2335
330
22AC
100
AcDbEntity
  8
寸法線
 62
     2
370
    -2
100
AcDbBlockReference
  2
_OPEN
 10
401.5055800864188
 20
342.7195187861653
 30
0.0
 41
2.5
 42
2.5
 43
2.5
 50
180.0
  0
INSERT
  5
2336
330
22AC
100
AcDbEntity
  8
寸法線
 62
     2
370
    -2
100
AcDbBlockReference
  2
_OPEN
 10
416.0055800864188
 20
342.7195187861653
 30
0.0
 41
2.5
 42
2.5
 43
2.5
  0
MTEXT
  5
2337
330
22AC
100
AcDbEntity
  8
寸法線
 62
     6
100
AcDbMText
 10
408.7555800864188
 20
344.5945187861653
 30
0.0
 40
2.5
 41
0.0
 71
     5
 72
     1
  1
\A1;14.5
  7
STYLE3
 73
     1
 44
1.0
  0
POINT
  5
2338
330
22AC
100
AcDbEntity
  8
DEFPOINTS
 62
     0
100
AcDbPoint
 10
401.5055800864188
 20
285.9889790896693
 30
0.0
  0
POINT
  5
2339
330
22AC
100
AcDbEntity
  8
DEFPOINTS
 62
     0
100
AcDbPoint
 10
416.0055800864188
 20
341.692970699489
 30
0.0
  0
POINT
  5
233A
330
22AC
100
AcDbEntity
  8
DEFPOINTS
 62
     0
100
AcDbPoint
 10
416.0055800864188
 20
342.7195187861653
 30
0.0
  0
ENDBLK
  5
22B7
330
22AC
100
AcDbEntity
  8
0
100
AcDbBlockEnd
  0
BLOCK
  5
22C3
330
22B9
100
AcDbEntity
  8
0
100
AcDbBlockBegin
  2
*D11
 70
     1
 10
0.0
 20
0.0
 30
0.0
  3
*D11
  1

  0
LINE
  5
2329
330
22B9
100
AcDbEntity
  8
寸法線
 62
     2
370
    -2
100
AcDbLine
 10
416.0055800864188
 20
341.692970699489
 30
0.0
 11
416.0055800864188
 21
343.9695187861653
 31
0.0
  0
LINE
  5
232A
330
22B9
100
AcDbEntity
  8
寸法線
 62
     2
370
    -2
100
AcDbLine
 10
422.5055800864188
 20
310.4889790896693
 30
0.0
 11
422.5055800864188
 21
343.9695187861653
 31
0.0
  0
LINE
  5
232B
330
22B9
100
AcDbEntity
  8
寸法線
 62
     2
370
    -2
100
AcDbLine
 10
418.5055800864188
 20
342.7195187861653
 30
0.0
 11
420.0055800864189
 21
342.7195187861653
 31
0.0
  0
INSERT
  5
232C
330
22B9
100
AcDbEntity
  8
寸法線
 62
     2
370
    -2
100
AcDbBlockReference
  2
_OPEN
 10
416.0055800864188
 20
342.7195187861653
 30
0.0
 41
2.5
 42
2.5
 43
2.5
 50
180.0
  0
INSERT
  5
232D
330
22B9
100
AcDbEntity
  8
寸法線
 62
     2
370
    -2
100
AcDbBlockReference
  2
_OPEN
 10
422.5055800864188
 20
342.7195187861653
 30
0.0
 41
2.5
 42
2.5
 43
2.5
  0
MTEXT
  5
232E
330
22B9
100
AcDbEntity
  8
寸法線
 62
     6
100
AcDbMText
 10
419.2555800864188
 20
344.5945187861653
 30
0.0
 40
2.5
 41
0.0
 71
     5
 72
     1
  1
\A1;6.5
  7
STYLE3
 73
     1
 44
1.0
  0
POINT
  5
232F
330
22B9
100
AcDbEntity
  8
DEFPOINTS
 62
     0
100
AcDbPoint
 10
416.0055800864188
 20
341.692970699489
 30
0.0
  0
POINT
  5
2330
330
22B9
100
AcDbEntity
  8
DEFPOINTS
 62
     0
100
AcDbPoint
 10
422.5055800864188
 20
310.4889790896693
 30
0.0
  0
POINT
  5
2331
330
22B9
100
AcDbEntity
  8
DEFPOINTS
 62
     0
100
AcDbPoint
 10
422.5055800864188
 20
342.7195187861653
 30
0.0
  0
ENDBLK
  5
22C4
330
22B9
100
AcDbEntity
  8
0
100
AcDbBlockEnd
  0
ENDSEC
  0
SECTION
  2
ENTITIES
  0
LINE
  5
244
330
18
100
AcDbEntity
  8
中心線
 48
0.5
100
AcDbLine
 10
290.3287664019213
 20
285.9889790896693
 30
0.0
 11
357.9723250429278
 21
285.9889790896693
 31
0.0
  0
LINE
  5
245
330
18
100
AcDbEntity
  8
中心線
 48
0.5
100
AcDbLine
 10
328.3716936972955
 20
338.9011221847825
 30
0.0
 11
328.3716936972956
 21
207.2448173071167
 31
0.0
  0
CIRCLE
  5
246
330
18
100
AcDbEntity
  8
外形線
100
AcDbCircle
 10
328.3716936972956
 20
285.9889790896693
 30
0.0
 40
15.5
  0
CIRCLE
  5
247
330
18
100
AcDbEntity
  8
外形線
100
AcDbCircle
 10
328.3716936972956
 20
285.9889790896693
 30
0.0
 40
23.0
  0
CIRCLE
  5
248
330
18
100
AcDbEntity
  8
外形線
100
AcDbCircle
 10
328.3716936972956
 20
285.9889790896693
 30
0.0
 40
26.4
  0
LINE
  5
2A5
330
18
100
AcDbEntity
  8
目盛
100
AcDbLine
 10
334.0915611020874
 20
308.2663917956277
 30
0.0
 11
333.6687882939072
 21
306.6198004217091
 31
0.0
  0
LINE
  5
2A6
330
18
100
AcDbEntity
  8
目盛
100
AcDbLine
 10
332.6814639327674
 20
308.581585856429
 30
0.0
 11
332.3629156979717
 21
306.9116975301903
 31
0.0
  0
LINE
  5
2A7
330
18
100
AcDbEntity
  8
目盛
100
AcDbLine
 10
331.2543580692748
 20
308.8076172199023
 30
0.0
 11
331.0412915722155
 21
307.1210222276676
 31
0.0
  0
LINE
  5
2A8
330
18
100
AcDbEntity
  8
目盛
100
AcDbLine
 10
329.8158756464701
 20
308.9435938435195
 30
0.0
 11
329.7091317632701
 21
307.2469484051915
 31
0.0
  0
LINE
  5
2AC
330
18
100
AcDbEntity
  8
目盛
100
AcDbLine
 10
328.3716936972956
 20
308.9889790896693
 30
0.0
 11
328.3716936972956
 21
306.2889790896693
 31
0.0
  0
TEXT
  5
2AD
330
18
100
AcDbEntity
  8
文字
100
AcDbText
 10
327.1573831748467
 20
303.109498484182
 30
0.0
 40
2.5
  1
0
  7
STYLE3
100
AcDbText
  0
TEXT
  5
2AE
330
18
100
AcDbEntity
  8
文字
100
AcDbText
 10
337.1033252546203
 20
299.3777592541812
 30
0.0
 40
2.5
  1
10
  7
STYLE3
100
AcDbText
  0
TEXT
  5
2AF
330
18
100
AcDbEntity
  8
文字
100
AcDbText
 10
343.4883174082756
 20
289.180195069044
 30
0.0
 40
2.5
  1
20
  7
STYLE3
100
AcDbText
  0
TEXT
  5
2B0
330
18
100
AcDbEntity
  8
文字
100
AcDbText
 10
342.7585660905158
 20
278.7401500186335
 30
0.0
 40
2.5
  1
30
  7
STYLE3
100
AcDbText
  0
TEXT
  5
2B1
330
18
100
AcDbEntity
  8
文字
100
AcDbText
 10
336.9610009521403
 20
270.116549983193
 30
0.0
 40
2.5
  1
40
  7
STYLE3
100
AcDbText
  0
TEXT
  5
2B2
330
18
100
AcDbEntity
  8
文字
100
AcDbText
 10
326.0584462301468
 20
266.3060918163108
 30
0.0
 40
2.5
  1
50
  7
STYLE3
100
AcDbText
  0
TEXT
  5
2B3
330
18
100
AcDbEntity
  8
文字
100
AcDbText
 10
314.8133766880345
 20
270.1785846010586
 30
0.0
 40
2.5
  1
60
  7
STYLE3
100
AcDbText
  0
TEXT
  5
2B4
330
18
100
AcDbEntity
  8
文字
100
AcDbText
 10
309.0790395865757
 20
278.7638352038326
 30
0.0
 40
2.5
  1
70
  7
STYLE3
100
AcDbText
  0
TEXT
  5
2B5
330
18
100
AcDbEntity
  8
文字
100
AcDbText
 10
309.1847203555145
 20
290.4983663286369
 30
0.0
 40
2.5
  1
80
  7
STYLE3
100
AcDbText
  0
TEXT
  5
2B6
330
18
100
AcDbEntity
  8
文字
100
AcDbText
 10
315.3791690335011
 20
299.3989541032261
 30
0.0
 40
2.5
  1
90
  7
STYLE3
100
AcDbText
  0
LINE
  5
2B7
330
18
100
AcDbEntity
  8
中心線
 48
0.2
100
AcDbLine
 10
325.1716936972956
 20
283.7782150968771
 30
0.0
 11
325.1716936972956
 21
268.0886210748416
 31
0.0
  0
CIRCLE
  5
2B8
330
18
100
AcDbEntity
  8
外形線
100
AcDbCircle
 10
325.1716936972956
 20
275.9150076781553
 30
0.0
 40
4.75
  0
LINE
  5
2B9
330
18
100
AcDbEntity
  8
中心線
 48
0.2
100
AcDbLine
 10
318.2124185103658
 20
275.9150076781553
 30
0.0
 11
332.740405958346
 21
275.9150076781553
 31
0.0
  0
LINE
  5
2BA
330
18
100
AcDbEntity
  8
目盛
100
AcDbLine
 10
325.1716936972956
 20
280.6650076781553
 30
0.0
 11
325.1716936972956
 21
280.1650076781553
 31
0.0
  0
LINE
  5
2BB
330
18
100
AcDbEntity
  8
目盛
100
AcDbLine
 10
322.3797137489062
 20
279.7578384014363
 30
0.0
 11
322.6736063750526
 21
279.3533299042489
 31
0.0
  0
LINE
  5
2BC
330
18
100
AcDbEntity
  8
目盛
100
AcDbLine
 10
320.6541752448935
 20
277.3828384014363
 30
0.0
 11
321.1297035030412
 21
277.2283299042489
 31
0.0
  0
LINE
  5
2BD
330
18
100
AcDbEntity
  8
目盛
100
AcDbLine
 10
320.6541752448935
 20
274.4471769548744
 30
0.0
 11
321.1297035030411
 21
274.6016854520618
 31
0.0
  0
LINE
  5
2BE
330
18
100
AcDbEntity
  8
目盛
100
AcDbLine
 10
322.3797137489062
 20
272.0721769548744
 30
0.0
 11
322.6736063750524
 21
272.4766854520618
 31
0.0
  0
LINE
  5
2BF
330
18
100
AcDbEntity
  8
目盛
100
AcDbLine
 10
325.1716936972956
 20
271.1650076781554
 30
0.0
 11
325.1716936972956
 21
271.6650076781554
 31
0.0
  0
LINE
  5
2C0
330
18
100
AcDbEntity
  8
目盛
100
AcDbLine
 10
327.9636736456849
 20
272.0721769548744
 30
0.0
 11
327.6697810195386
 21
272.4766854520619
 31
0.0
  0
LINE
  5
2C1
330
18
100
AcDbEntity
  8
目盛
100
AcDbLine
 10
329.6892121496974
 20
274.4471769548744
 30
0.0
 11
329.2136838915499
 21
274.6016854520618
 31
0.0
  0
LINE
  5
2C2
330
18
100
AcDbEntity
  8
目盛
100
AcDbLine
 10
329.6892121496974
 20
277.3828384014363
 30
0.0
 11
329.2136838915499
 21
277.2283299042488
 31
0.0
  0
LINE
  5
2C3
330
18
100
AcDbEntity
  8
目盛
100
AcDbLine
 10
327.9636736456847
 20
279.7578384014363
 30
0.0
 11
327.6697810195386
 21
279.3533299042489
 31
0.0
  0
TEXT
  5
2C5
330
18
100
AcDbEntity
  8
文字
100
AcDbText
 10
324.6853172581652
 20
278.9427816066302
 30
0.0
 40
1.0
  1
0
  7
STYLE3
100
AcDbText
  0
TEXT
  5
2C6
330
18
100
AcDbEntity
  8
文字
100
AcDbText
 10
326.768816995927
 20
278.2164516261719
 30
0.0
 40
1.0
  1
9
  7
STYLE3
100
AcDbText
  0
TEXT
  5
2C7
330
18
100
AcDbEntity
  8
文字
100
AcDbText
 10
328.2662145137742
 20
276.4971438487731
 30
0.0
 40
1.0
  1
8
  7
STYLE3
100
AcDbText
  0
TEXT
  5
2C8
330
18
100
AcDbEntity
  8
文字
100
AcDbText
 10
328.2060275818282
 20
274.1935164636985
 30
0.0
 40
1.0
  1
7
  7
STYLE3
100
AcDbText
  0
TEXT
  5
2C9
330
18
100
AcDbEntity
  8
文字
100
AcDbText
 10
326.7661310601285
 20
272.5893967244093
 30
0.0
 40
1.0
  1
6
  7
STYLE3
100
AcDbText
  0
TEXT
  5
2CA
330
18
100
AcDbEntity
  8
文字
100
AcDbText
 10
324.6537420744435
 20
271.9921149677863
 30
0.0
 40
1.0
  1
5
  7
STYLE3
100
AcDbText
  0
TEXT
  5
2CB
330
18
100
AcDbEntity
  8
文字
100
AcDbText
 10
322.5502505050712
 20
272.4668529533178
 30
0.0
 40
1.0
  1
4
  7
STYLE3
100
AcDbText
  0
TEXT
  5
2CC
330
18
100
AcDbEntity
  8
文字
100
AcDbText
 10
321.3556781324892
 20
274.202047782145
 30
0.0
 40
1.0
  1
3
  7
STYLE3
100
AcDbText
  0
TEXT
  5
2CD
330
18
100
AcDbEntity
  8
文字
100
AcDbText
 10
321.3849211365228
 20
276.4648895317843
 30
0.0
 40
1.0
  1
2
  7
STYLE3
100
AcDbText
  0
TEXT
  5
2CE
330
18
100
AcDbEntity
  8
文字
100
AcDbText
 10
322.7452034834682
 20
278.2670575379457
 30
0.0
 40
1.0
  1
1
  7
STYLE3
100
AcDbText
  0
LINE
  5
2D3
330
18
100
AcDbEntity
  8
外形線
100
AcDbLine
 10
324.9716936972955
 20
240.9889790896692
 30
0.0
 11
331.7716936972956
 21
240.9889790896692
 31
0.0
  0
LINE
  5
2D4
330
18
100
AcDbEntity
  8
外形線
100
AcDbLine
 10
326.1216936972956
 20
219.4889790896693
 30
0.0
 11
330.6216936972956
 21
219.4889790896693
 31
0.0
  0
LINE
  5
2D5
330
18
100
AcDbEntity
  8
外形線
100
AcDbLine
 10
332.3716936972956
 20
259.8937688011891
 30
0.0
 11
332.3716936972956
 21
245.4889790896693
 31
0.0
  0
LINE
  5
2D6
330
18
100
AcDbEntity
  8
外形線
100
AcDbLine
 10
324.3716936972956
 20
259.8937688011891
 30
0.0
 11
324.3716936972956
 21
245.4889790896693
 31
0.0
  0
LINE
  5
2D9
330
18
100
AcDbEntity
  8
外形線
100
AcDbLine
 10
330.3716936972955
 20
240.9889790896693
 30
0.0
 11
330.3716936972955
 21
219.4889790896693
 31
0.0
  0
LINE
  5
2DA
330
18
100
AcDbEntity
  8
外形線
100
AcDbLine
 10
326.3716936972956
 20
240.9889790896693
 30
0.0
 11
326.3716936972956
 21
219.4889790896693
 31
0.0
  0
LINE
  5
2DB
330
18
100
AcDbEntity
  8
外形線
100
AcDbLine
 10
330.8716936972956
 20
219.2889790896693
 30
0.0
 11
330.8716936972955
 21
216.1889790896692
 31
0.0
  0
LINE
  5
2DC
330
18
100
AcDbEntity
  8
外形線
100
AcDbLine
 10
325.8716936972956
 20
219.2889790896693
 30
0.0
 11
325.8716936972956
 21
216.1889790896692
 31
0.0
  0
LINE
  5
2DD
330
18
100
AcDbEntity
  8
外形線
100
AcDbLine
 10
326.1216936972956
 20
215.9889790896693
 30
0.0
 11
330.6216936972955
 21
215.9889790896693
 31
0.0
  0
LINE
  5
2DE
330
18
100
AcDbEntity
  8
外形線
100
AcDbLine
 10
325.8716936972955
 20
219.2889790896693
 30
0.0
 11
330.8716936972956
 21
219.2889790896693
 31
0.0
  0
LINE
  5
2DF
330
18
100
AcDbEntity
  8
外形線
100
AcDbLine
 10
325.8716936972955
 20
216.1889790896692
 30
0.0
 11
330.8716936972956
 21
216.1889790896692
 31
0.0
  0
LINE
  5
2E0
330
18
100
AcDbEntity
  8
外形線
100
AcDbLine
 10
330.6216936972956
 20
219.4889790896693
 30
0.0
 11
330.8716936972956
 21
219.2889790896693
 31
0.0
  0
LINE
  5
2E1
330
18
100
AcDbEntity
  8
外形線
100
AcDbLine
 10
326.1216936972956
 20
219.4889790896693
 30
0.0
 11
325.8716936972956
 21
219.2889790896693
 31
0.0
  0
LINE
  5
2E2
330
18
100
AcDbEntity
  8
外形線
100
AcDbLine
 10
330.8716936972956
 20
216.1889790896692
 30
0.0
 11
330.6216936972956
 21
215.9889790896693
 31
0.0
  0
LINE
  5
2E3
330
18
100
AcDbEntity
  8
外形線
100
AcDbLine
 10
325.8716936972956
 20
216.1889790896692
 30
0.0
 11
326.1216936972956
 21
215.9889790896693
 31
0.0
  0
LINE
  5
2E5
330
18
100
AcDbEntity
  8
外形線
100
AcDbLine
 10
327.0716936972955
 20
211.4889790896693
 30
0.0
 11
329.6716936972956
 21
211.4889790896693
 31
0.0
  0
LINE
  5
2E6
330
18
100
AcDbEntity
  8
外形線
100
AcDbLine
 10
330.6216936972956
 20
215.9889790896693
 30
0.0
 11
329.6716936972956
 21
211.4889790896693
 31
0.0
  0
LINE
  5
2E7
330
18
100
AcDbEntity
  8
外形線
100
AcDbLine
 10
326.1216936972956
 20
215.9889790896693
 30
0.0
 11
327.0716936972955
 21
211.4889790896693
 31
0.0
  0
LINE
  5
5D4
330
18
100
AcDbEntity
  8
外形線
  6
Continuous
100
AcDbLine
 10
332.3716936972955
 20
334.4611150446688
 30
0.0
 11
332.3716936972955
 21
312.0841893781494
 31
0.0
  0
LINE
  5
5D5
330
18
100
AcDbEntity
  8
外形線
  6
Continuous
100
AcDbLine
 10
324.3716936972957
 20
334.4611150446689
 30
0.0
 11
324.3716936972957
 21
312.0841893781494
 31
0.0
  0
TEXT
  5
661
330
18
100
AcDbEntity
  8
文字
  6
Continuous
 62
     4
100
AcDbText
 10
327.865118209317
 20
301.7663541458563
 30
0.0
 40
1.0
  1
0
  7
STYLE3
100
AcDbText
  0
TEXT
  5
662
330
18
100
AcDbEntity
  8
文字
  6
Continuous
 62
     4
100
AcDbText
 10
338.4874676437481
 20
297.8899362147148
 30
0.0
 40
1.0
  1
90
  7
STYLE3
100
AcDbText
  0
TEXT
  5
663
330
18
100
AcDbEntity
  8
文字
  6
Continuous
 62
     4
100
AcDbText
 10
344.0938327055994
 20
287.788589178798
 30
0.0
 40
1.0
  1
80
  7
STYLE3
100
AcDbText
  0
TEXT
  5
664
330
18
100
AcDbEntity
  8
文字
  6
Continuous
 62
     4
100
AcDbText
 10
343.7060506449414
 20
282.0684672868619
 30
0.0
 40
1.0
  1
70
  7
STYLE3
100
AcDbText
  0
TEXT
  5
665
330
18
100
AcDbEntity
  8
文字
  6
Continuous
 62
     4
100
AcDbText
 10
338.2697592993884
 20
272.9762192091897
 30
0.0
 40
1.0
  1
60
  7
STYLE3
100
AcDbText
  0
TEXT
  5
666
330
18
100
AcDbEntity
  8
文字
  6
Continuous
 62
     4
100
AcDbText
 10
327.437724089788
 20
269.1275176948562
 30
0.0
 40
1.0
  1
50
  7
STYLE3
100
AcDbText
  0
TEXT
  5
667
330
18
100
AcDbEntity
  8
文字
  6
Continuous
 62
     4
100
AcDbText
 10
316.4829692587955
 20
273.0461425264989
 30
0.0
 40
1.0
  1
40
  7
STYLE3
100
AcDbText
  0
TEXT
  5
668
330
18
100
AcDbEntity
  8
文字
  6
Continuous
 62
     4
100
AcDbText
 10
311.1896335600441
 20
281.8302359149729
 30
0.0
 40
1.0
  1
30
  7
STYLE3
100
AcDbText
  0
TEXT
  5
669
330
18
100
AcDbEntity
  8
文字
  6
Continuous
 62
     4
100
AcDbText
 10
311.1572214991261
 20
288.9331131334476
 30
0.0
 40
1.0
  1
20
  7
STYLE3
100
AcDbText
  0
TEXT
  5
66A
330
18
100
AcDbEntity
  8
文字
  6
Continuous
 62
     4
100
AcDbText
 10
316.3663757820432
 20
297.8404383904508
 30
0.0
 40
1.0
  1
10
  7
STYLE3
100
AcDbText
  0
ARC
  5
692
330
18
100
AcDbEntity
  8
外形線
  6
Continuous
100
AcDbCircle
 10
507.1722467530852
 20
285.9889790896693
 30
0.0
 40
105.6666666666664
100
AcDbArc
 50
166.3144531747381
 51
193.685546825262
  0
LINE
  5
693
330
18
100
AcDbEntity
  8
外形線
  6
Continuous
100
AcDbLine
 10
404.5055800864188
 20
310.9889790896693
 30
0.0
 11
404.5055800864188
 21
260.9889790896693
 31
0.0
  0
LINE
  5
694
330
18
100
AcDbEntity
  8
外形線
  6
Continuous
100
AcDbLine
 10
405.7055800864189
 20
312.3889790896693
 30
0.0
 11
405.7055800864189
 21
259.5889790896693
 31
0.0
  0
LINE
  5
695
330
18
100
AcDbEntity
  8
外形線
  6
Continuous
100
AcDbLine
 10
409.5055800864188
 20
312.3889790896693
 30
0.0
 11
409.5055800864188
 21
259.5889790896693
 31
0.0
  0
LINE
  5
696
330
18
100
AcDbEntity
  8
外形線
  6
Continuous
100
AcDbLine
 10
411.0055800864189
 20
310.9889790896693
 30
0.0
 11
411.0055800864189
 21
260.9889790896693
 31
0.0
  0
LINE
  5
697
330
18
100
AcDbEntity
  8
外形線
  6
Continuous
100
AcDbLine
 10
422.5055800864188
 20
310.4889790896693
 30
0.0
 11
422.5055800864188
 21
261.4889790896693
 31
0.0
  0
LINE
  5
69C
330
18
100
AcDbEntity
  8
外形線
  6
Continuous
100
AcDbLine
 10
405.7055800864189
 20
260.4889790896693
 30
0.0
 11
404.5055800864188
 21
260.9889790896693
 31
0.0
  0
LINE
  5
6AD
330
18
100
AcDbEntity
  8
外形線
  6
CENTER2
100
AcDbLine
 10
411.0055800864189
 20
260.9889790896693
 30
0.0
 11
409.5055800864188
 21
260.9889790896693
 31
0.0
  0
LINE
  5
6AE
330
18
100
AcDbEntity
  8
外形線
  6
Continuous
100
AcDbLine
 10
405.7055800864189
 20
259.5889790896693
 30
0.0
 11
409.5055800864188
 21
259.5889790896693
 31
0.0
  0
LINE
  5
6AF
330
18
100
AcDbEntity
  8
外形線
  6
Continuous
 62
     4
100
AcDbLine
 10
405.7055800864189
 20
263.5889790896693
 30
0.0
 11
409.5055800864188
 21
263.5889790896693
 31
0.0
  0
LINE
  5
6B0
330
18
100
AcDbEntity
  8
外形線
  6
Continuous
 62
     4
100
AcDbLine
 10
405.7055800864189
 20
262.5889790896693
 30
0.0
 11
409.5055800864188
 21
262.5889790896693
 31
0.0
  0
LINE
  5
6B1
330
18
100
AcDbEntity
  8
外形線
  6
Continuous
 62
     4
100
AcDbLine
 10
405.7055800864189
 20
261.5889790896693
 30
0.0
 11
409.5055800864188
 21
261.5889790896693
 31
0.0
  0
LINE
  5
6B2
330
18
100
AcDbEntity
  8
外形線
  6
Continuous
 62
     4
100
AcDbLine
 10
405.7055800864189
 20
260.5889790896693
 30
0.0
 11
409.5055800864188
 21
260.5889790896693
 31
0.0
  0
LINE
  5
6B9
330
18
100
AcDbEntity
  8
外形線
  6
Continuous
100
AcDbLine
 10
405.7055800864189
 20
311.4889790896693
 30
0.0
 11
404.5055800864188
 21
310.9889790896693
 31
0.0
  0
LINE
  5
6BA
330
18
100
AcDbEntity
  8
外形線
  6
Continuous
 62
     4
100
AcDbLine
 10
405.7055800864189
 20
264.5889790896693
 30
0.0
 11
409.5055800864188
 21
264.5889790896693
 31
0.0
  0
LINE
  5
6BB
330
18
100
AcDbEntity
  8
外形線
  6
Continuous
 62
     4
100
AcDbLine
 10
409.5055800864188
 20
283.9889790896693
 30
0.0
 11
405.7055800864189
 21
283.9889790896693
 31
0.0
  0
LINE
  5
6BC
330
18
100
AcDbEntity
  8
外形線
  6
Continuous
 62
     4
100
AcDbLine
 10
409.5055800864188
 20
284.9889790896693
 30
0.0
 11
405.7055800864189
 21
284.9889790896693
 31
0.0
  0
LINE
  5
6BD
330
18
100
AcDbEntity
  8
外形線
  6
Continuous
 62
     4
100
AcDbLine
 10
409.5055800864188
 20
285.9889790896693
 30
0.0
 11
405.7055800864189
 21
285.9889790896693
 31
0.0
  0
LINE
  5
6BE
330
18
100
AcDbEntity
  8
外形線
  6
Continuous
 62
     4
100
AcDbLine
 10
409.5055800864188
 20
286.9889790896693
 30
0.0
 11
405.7055800864189
 21
286.9889790896693
 31
0.0
  0
LINE
  5
6BF
330
18
100
AcDbEntity
  8
外形線
  6
Continuous
 62
     4
100
AcDbLine
 10
409.5055800864188
 20
288.9889790896693
 30
0.0
 11
405.7055800864189
 21
288.9889790896693
 31
0.0
  0
LINE
  5
6C0
330
18
100
AcDbEntity
  8
外形線
  6
Continuous
 62
     4
100
AcDbLine
 10
409.5055800864188
 20
287.9889790896693
 30
0.0
 11
405.7055800864189
 21
287.9889790896693
 31
0.0
  0
LINE
  5
6C1
330
18
100
AcDbEntity
  8
外形線
  6
Continuous
 62
     4
100
AcDbLine
 10
405.7055800864189
 20
307.3889790896692
 30
0.0
 11
409.5055800864188
 21
307.3889790896692
 31
0.0
  0
LINE
  5
6C2
330
18
100
AcDbEntity
  8
外形線
  6
Continuous
 62
     4
100
AcDbLine
 10
405.7055800864189
 20
308.3889790896693
 30
0.0
 11
409.5055800864188
 21
308.3889790896693
 31
0.0
  0
LINE
  5
6C3
330
18
100
AcDbEntity
  8
外形線
  6
Continuous
 62
     4
100
AcDbLine
 10
405.7055800864189
 20
309.3889790896692
 30
0.0
 11
409.5055800864188
 21
309.3889790896692
 31
0.0
  0
LINE
  5
6C4
330
18
100
AcDbEntity
  8
外形線
  6
Continuous
 62
     4
100
AcDbLine
 10
405.7055800864189
 20
310.3889790896693
 30
0.0
 11
409.5055800864188
 21
310.3889790896693
 31
0.0
  0
LINE
  5
6CD
330
18
100
AcDbEntity
  8
外形線
  6
CENTER2
100
AcDbLine
 10
411.0055800864189
 20
310.9889790896693
 30
0.0
 11
409.5055800864188
 21
310.9889790896693
 31
0.0
  0
LINE
  5
6CF
330
18
100
AcDbEntity
  8
外形線
  6
Continuous
 62
     4
100
AcDbLine
 10
405.7055800864189
 20
311.3889790896692
 30
0.0
 11
409.5055800864188
 21
311.3889790896692
 31
0.0
  0
LINE
  5
6D0
330
18
100
AcDbEntity
  8
外形線
  6
Continuous
100
AcDbLine
 10
405.7055800864189
 20
312.3889790896693
 30
0.0
 11
409.5055800864188
 21
312.3889790896693
 31
0.0
  0
MTEXT
  5
778
330
18
100
AcDbEntity
  8
DEFPOINTS
  6
Continuous
100
AcDbMText
 10
735.8166661286731
 20
235.565234348894
 30
0.0
 40
1.0
 41
0.0
 71
     4
 72
     1
  1
\A1;
 73
     1
 44
1.0
  0
LINE
  5
789
330
18
100
AcDbEntity
  8
中心線
 48
0.5
100
AcDbLine
 10
416.0055800864188
 20
341.692970699489
 30
0.0
 11
416.0055800864189
 21
206.5184482978409
 31
0.0
  0
LINE
  5
78E
330
18
100
AcDbEntity
  8
外形線
100
AcDbLine
 10
411.0055800864189
 20
261.4889790896693
 30
0.0
 11
422.5055800864188
 21
261.4889790896693
 31
0.0
  0
LINE
  5
78F
330
18
100
AcDbEntity
  8
外形線
100
AcDbLine
 10
411.0055800864189
 20
310.4889790896693
 30
0.0
 11
422.5055800864188
 21
310.4889790896693
 31
0.0
  0
LINE
  5
795
330
18
100
AcDbEntity
  8
外形線
100
AcDbLine
 10
324.3716936972956
 20
245.4889790896693
 30
0.0
 11
332.3716936972956
 21
245.4889790896693
 31
0.0
  0
LINE
  5
796
330
18
100
AcDbEntity
  8
外形線
100
AcDbLine
 10
324.7716936972957
 20
242.9889790896692
 30
0.0
 11
331.9716936972956
 21
242.9889790896693
 31
0.0
  0
LINE
  5
797
330
18
100
AcDbEntity
  8
外形線
100
AcDbLine
 10
324.5216936972956
 20
243.9889790896693
 30
0.0
 11
332.2216936972956
 21
243.9889790896693
 31
0.0
  0
LINE
  5
79F
330
18
100
AcDbEntity
  8
外形線
100
AcDbLine
 10
324.7716936972956
 20
242.9889790896693
 30
0.0
 11
324.7716936972956
 21
241.1889790896692
 31
0.0
  0
LINE
  5
7A0
330
18
100
AcDbEntity
  8
外形線
100
AcDbLine
 10
331.9716936972956
 20
241.1889790896692
 30
0.0
 11
331.9716936972956
 21
242.9889790896693
 31
0.0
  0
LINE
  5
7A1
330
18
100
AcDbEntity
  8
外形線
100
AcDbLine
 10
331.9716936972956
 20
241.1889790896692
 30
0.0
 11
331.7716936972956
 21
240.9889790896692
 31
0.0
  0
LINE
  5
7A2
330
18
100
AcDbEntity
  8
外形線
100
AcDbLine
 10
324.7716936972956
 20
241.1889790896692
 30
0.0
 11
324.9716936972955
 21
240.9889790896692
 31
0.0
  0
LINE
  5
7A5
330
18
100
AcDbEntity
  8
外形線
100
AcDbLine
 10
324.5216936972956
 20
245.4889790896693
 30
0.0
 11
324.5216936972956
 21
243.9889790896693
 31
0.0
  0
LINE
  5
7A6
330
18
100
AcDbEntity
  8
外形線
100
AcDbLine
 10
332.2216936972956
 20
245.4889790896693
 30
0.0
 11
332.2216936972956
 21
243.9889790896693
 31
0.0
  0
ARC
  5
7AC
330
18
100
AcDbEntity
  8
外形線
100
AcDbCircle
 10
332.0966936972956
 20
243.4889790896693
 30
0.0
 40
0.5153882032022076
100
AcDbArc
 50
75.96375653207353
 51
255.9637565320735
  0
ARC
  5
7AD
330
18
100
AcDbEntity
  8
外形線
100
AcDbCircle
 10
324.6466936972956
 20
243.4889790896693
 30
0.0
 40
0.5153882032022076
100
AcDbArc
 50
284.0362434679264
 51
104.0362434679264
  0
LINE
  5
7B0
330
18
100
AcDbEntity
  8
外形線
100
AcDbLine
 10
418.0055800864188
 20
240.9889790896693
 30
0.0
 11
418.0055800864188
 21
219.4889790896693
 31
0.0
  0
LINE
  5
7B1
330
18
100
AcDbEntity
  8
外形線
100
AcDbLine
 10
414.0055800864189
 20
240.9889790896693
 30
0.0
 11
414.005580086419
 21
219.4889790896693
 31
0.0
  0
LINE
  5
7B2
330
18
100
AcDbEntity
  8
外形線
100
AcDbLine
 10
418.505580086419
 20
219.2889790896693
 30
0.0
 11
418.5055800864189
 21
216.1889790896692
 31
0.0
  0
LINE
  5
7B3
330
18
100
AcDbEntity
  8
外形線
100
AcDbLine
 10
413.505580086419
 20
219.2889790896693
 30
0.0
 11
413.505580086419
 21
216.1889790896692
 31
0.0
  0
LINE
  5
7B5
330
18
100
AcDbEntity
  8
外形線
100
AcDbLine
 10
414.7055800864189
 20
211.4889790896693
 30
0.0
 11
417.3055800864189
 21
211.4889790896693
 31
0.0
  0
LINE
  5
7B7
330
18
100
AcDbEntity
  8
外形線
100
AcDbLine
 10
413.7555800864189
 20
215.9889790896693
 30
0.0
 11
418.2555800864188
 21
215.9889790896693
 31
0.0
  0
LINE
  5
7B8
330
18
100
AcDbEntity
  8
外形線
100
AcDbLine
 10
413.5055800864188
 20
216.1889790896692
 30
0.0
 11
418.505580086419
 21
216.1889790896692
 31
0.0
  0
LINE
  5
7B9
330
18
100
AcDbEntity
  8
外形線
100
AcDbLine
 10
413.7555800864189
 20
215.9889790896693
 30
0.0
 11
414.7055800864189
 21
211.4889790896693
 31
0.0
  0
LINE
  5
7BA
330
18
100
AcDbEntity
  8
外形線
100
AcDbLine
 10
413.505580086419
 20
216.1889790896692
 30
0.0
 11
413.7555800864189
 21
215.9889790896693
 31
0.0
  0
LINE
  5
7BB
330
18
100
AcDbEntity
  8
外形線
100
AcDbLine
 10
418.2555800864189
 20
215.9889790896693
 30
0.0
 11
417.3055800864189
 21
211.4889790896693
 31
0.0
  0
LINE
  5
7BC
330
18
100
AcDbEntity
  8
外形線
100
AcDbLine
 10
418.505580086419
 20
216.1889790896692
 30
0.0
 11
418.2555800864189
 21
215.9889790896693
 31
0.0
  0
LINE
  5
7BD
330
18
100
AcDbEntity
  8
外形線
100
AcDbLine
 10
413.7555800864189
 20
219.4889790896693
 30
0.0
 11
418.2555800864189
 21
219.4889790896693
 31
0.0
  0
LINE
  5
7BE
330
18
100
AcDbEntity
  8
外形線
100
AcDbLine
 10
413.5055800864188
 20
219.2889790896693
 30
0.0
 11
418.505580086419
 21
219.2889790896693
 31
0.0
  0
LINE
  5
7BF
330
18
100
AcDbEntity
  8
外形線
100
AcDbLine
 10
413.7555800864189
 20
219.4889790896693
 30
0.0
 11
413.505580086419
 21
219.2889790896693
 31
0.0
  0
LINE
  5
7C0
330
18
100
AcDbEntity
  8
外形線
100
AcDbLine
 10
418.2555800864189
 20
219.4889790896693
 30
0.0
 11
418.505580086419
 21
219.2889790896693
 31
0.0
  0
LINE
  5
7C1
330
18
100
AcDbEntity
  8
外形線
100
AcDbLine
 10
420.0055800864189
 20
261.4889790896692
 30
0.0
 11
420.0055800864189
 21
245.4889790896693
 31
0.0
  0
LINE
  5
7C2
330
18
100
AcDbEntity
  8
外形線
100
AcDbLine
 10
412.005580086419
 20
261.4889790896693
 30
0.0
 11
412.0055800864189
 21
245.4889790896693
 31
0.0
  0
LINE
  5
7C3
330
18
100
AcDbEntity
  8
外形線
100
AcDbLine
 10
412.4055800864189
 20
242.9889790896693
 30
0.0
 11
412.4055800864189
 21
241.1889790896692
 31
0.0
  0
LINE
  5
7C4
330
18
100
AcDbEntity
  8
外形線
100
AcDbLine
 10
419.6055800864189
 20
241.1889790896692
 30
0.0
 11
419.6055800864189
 21
242.9889790896693
 31
0.0
  0
LINE
  5
7C5
330
18
100
AcDbEntity
  8
外形線
100
AcDbLine
 10
412.6055800864189
 20
240.9889790896692
 30
0.0
 11
419.4055800864189
 21
240.9889790896692
 31
0.0
  0
LINE
  5
7C6
330
18
100
AcDbEntity
  8
外形線
100
AcDbLine
 10
412.4055800864189
 20
241.1889790896692
 30
0.0
 11
412.6055800864189
 21
240.9889790896692
 31
0.0
  0
LINE
  5
7C7
330
18
100
AcDbEntity
  8
外形線
100
AcDbLine
 10
419.6055800864189
 20
241.1889790896692
 30
0.0
 11
419.4055800864189
 21
240.9889790896692
 31
0.0
  0
LINE
  5
7C8
330
18
100
AcDbEntity
  8
外形線
100
AcDbLine
 10
412.1555800864189
 20
243.9889790896693
 30
0.0
 11
419.8555800864189
 21
243.9889790896693
 31
0.0
  0
LINE
  5
7C9
330
18
100
AcDbEntity
  8
外形線
100
AcDbLine
 10
412.4055800864189
 20
242.9889790896692
 30
0.0
 11
419.6055800864189
 21
242.9889790896693
 31
0.0
  0
LINE
  5
7CA
330
18
100
AcDbEntity
  8
外形線
100
AcDbLine
 10
412.0055800864189
 20
245.4889790896693
 30
0.0
 11
420.0055800864189
 21
245.4889790896693
 31
0.0
  0
ARC
  5
7CB
330
18
100
AcDbEntity
  8
外形線
100
AcDbCircle
 10
412.2805800864189
 20
243.4889790896693
 30
0.0
 40
0.5153882032022076
100
AcDbArc
 50
284.0362434679264
 51
104.0362434679264
  0
LINE
  5
7CC
330
18
100
AcDbEntity
  8
外形線
100
AcDbLine
 10
412.1555800864189
 20
245.4889790896693
 30
0.0
 11
412.1555800864189
 21
243.9889790896693
 31
0.0
  0
ARC
  5
7CD
330
18
100
AcDbEntity
  8
外形線
100
AcDbCircle
 10
419.730580086419
 20
243.4889790896693
 30
0.0
 40
0.5153882032022076
100
AcDbArc
 50
75.96375653207353
 51
255.9637565320735
  0
LINE
  5
7CE
330
18
100
AcDbEntity
  8
外形線
100
AcDbLine
 10
419.8555800864189
 20
245.4889790896693
 30
0.0
 11
419.8555800864189
 21
243.9889790896693
 31
0.0
  0
LINE
  5
7D6
330
18
100
AcDbEntity
  8
中心線
 48
0.5
100
AcDbLine
 10
398.0288803404649
 20
285.9889790896693
 30
0.0
 11
446.3157682543796
 21
285.9889790896693
 31
0.0
  0
LINE
  5
833
330
18
100
AcDbEntity
  8
0
  6
ByBlock
 62
     2
100
AcDbLine
 10
328.3716936972955
 20
335.9889790896693
 30
0.0
 11
283.2337297925192
 21
335.9889790896693
 31
0.0
  0
LINE
  5
835
330
18
100
AcDbEntity
  8
0
  6
ByBlock
 62
     2
100
AcDbLine
 10
291.5787664019214
 20
333.4889790896693
 30
0.0
 11
291.5787664019214
 21
288.4889790896693
 31
0.0
  0
INSERT
  5
836
330
18
100
AcDbEntity
  8
0
  6
ByBlock
 62
     2
100
AcDbBlockReference
  2
_OPEN
 10
291.5787664019214
 20
335.9889790896693
 30
0.0
 41
2.5
 42
2.5
 43
2.5
 50
90.0
  0
INSERT
  5
837
330
18
100
AcDbEntity
  8
0
  6
ByBlock
 62
     2
100
AcDbBlockReference
  2
_OPEN
 10
291.5787664019214
 20
285.9889790896693
 30
0.0
 41
2.5
 42
2.5
 43
2.5
 50
270.0
  0
MTEXT
  5
838
330
18
100
AcDbEntity
  8
0
  6
ByBlock
 62
     6
100
AcDbMText
 10
289.7037664019214
 20
311.123782325865
 30
0.0
 40
2.5
 41
0.0
 71
     5
 72
     1
  1
50
  7
STYLE3
 11
0.0000000000000001
 21
1.0
 31
0.0
 73
     1
 44
1.0
  0
POINT
  5
839
330
18
100
AcDbEntity
  8
DEFPOINTS
  6
ByBlock
 62
     0
100
AcDbPoint
 10
328.3716936972955
 20
335.9889790896693
 30
0.0
  0
POINT
  5
83A
330
18
100
AcDbEntity
  8
DEFPOINTS
  6
ByBlock
 62
     0
100
AcDbPoint
 10
328.3716936972955
 20
285.9889790896693
 30
0.0
  0
LINE
  5
83C
330
18
100
AcDbEntity
  8
0
  6
ByBlock
 62
     2
100
AcDbLine
 10
328.3716936972956
 20
210.4889790896693
 30
0.0
 11
283.2337297925193
 21
210.4889790896693
 31
0.0
  0
LINE
  5
83D
330
18
100
AcDbEntity
  8
0
  6
ByBlock
 62
     2
100
AcDbLine
 10
291.5787664019214
 20
283.4889790896692
 30
0.0
 11
291.5787664019214
 21
212.9889790896693
 31
0.0
  0
INSERT
  5
83E
330
18
100
AcDbEntity
  8
0
  6
ByBlock
 62
     2
100
AcDbBlockReference
  2
_OPEN
 10
291.5787664019214
 20
285.9889790896693
 30
0.0
 41
2.5
 42
2.5
 43
2.5
 50
90.0
  0
INSERT
  5
83F
330
18
100
AcDbEntity
  8
0
  6
ByBlock
 62
     2
100
AcDbBlockReference
  2
_OPEN
 10
291.5787664019214
 20
210.4889790896693
 30
0.0
 41
2.5
 42
2.5
 43
2.5
 50
270.0
  0
MTEXT
  5
840
330
18
100
AcDbEntity
  8
0
  6
ByBlock
 62
     6
100
AcDbMText
 10
289.7037664019214
 20
248.209590863487
 30
0.0
 40
2.5
 41
0.0
 71
     5
 72
     1
  1
\A1;75.5
  7
STYLE3
 11
0.0000000000000001
 21
1.0
 31
0.0
 73
     1
 44
1.0
  0
POINT
  5
841
330
18
100
AcDbEntity
  8
DEFPOINTS
  6
ByBlock
 62
     0
100
AcDbPoint
 10
328.3716936972955
 20
285.9889790896693
 30
0.0
  0
POINT
  5
842
330
18
100
AcDbEntity
  8
DEFPOINTS
  6
ByBlock
 62
     0
100
AcDbPoint
 10
328.3716936972956
 20
210.4889790896693
 30
0.0
  0
POINT
  5
843
330
18
100
AcDbEntity
  8
DEFPOINTS
  6
ByBlock
 62
     0
100
AcDbPoint
 10
291.5787664019214
 20
210.4889790896693
 30
0.0
  0
LINE
  5
846
330
18
100
AcDbEntity
  8
0
  6
ByBlock
 62
     2
100
AcDbLine
 10
284.4837297925192
 20
333.4889790896693
 30
0.0
 11
284.4837297925192
 21
212.9889790896693
 31
0.0
  0
INSERT
  5
847
330
18
100
AcDbEntity
  8
0
  6
ByBlock
 62
     2
100
AcDbBlockReference
  2
_OPEN
 10
284.4837297925192
 20
335.9889790896693
 30
0.0
 41
2.5
 42
2.5
 43
2.5
 50
90.0
  0
INSERT
  5
848
330
18
100
AcDbEntity
  8
0
  6
ByBlock
 62
     2
100
AcDbBlockReference
  2
_OPEN
 10
284.4837297925192
 20
210.4889790896693
 30
0.0
 41
2.5
 42
2.5
 43
2.5
 50
270.0
  0
MTEXT
  5
849
330
18
100
AcDbEntity
  8
0
  6
ByBlock
 62
     6
100
AcDbMText
 10
282.6087297925192
 20
272.8566402234473
 30
0.0
 40
2.5
 41
0.0
 71
     5
 72
     1
  1
125.5
  7
STYLE3
 11
0.0000000000000001
 21
1.0
 31
0.0
 73
     1
 44
1.0
  0
POINT
  5
84A
330
18
100
AcDbEntity
  8
DEFPOINTS
  6
ByBlock
 62
     0
100
AcDbPoint
 10
290.3287664019213
 20
335.9889790896693
 30
0.0
  0
POINT
  5
84B
330
18
100
AcDbEntity
  8
DEFPOINTS
  6
ByBlock
 62
     0
100
AcDbPoint
 10
290.3287664019213
 20
210.4889790896693
 30
0.0
  0
POINT
  5
84C
330
18
100
AcDbEntity
  8
DEFPOINTS
  6
ByBlock
 62
     0
100
AcDbPoint
 10
284.4837297925192
 20
210.4889790896693
 30
0.0
  0
POINT
  5
881
330
18
100
AcDbEntity
  8
DEFPOINTS
  6
ByBlock
 62
     0
100
AcDbPoint
 10
326.3716936972956
 20
231.1660538428625
 30
0.0
  0
POINT
  5
882
330
18
100
AcDbEntity
  8
DEFPOINTS
  6
ByBlock
 62
     0
100
AcDbPoint
 10
330.3716936972955
 20
231.0850104446701
 30
0.0
  0
POINT
  5
883
330
18
100
AcDbEntity
  8
DEFPOINTS
  6
ByBlock
 62
     0
100
AcDbPoint
 10
330.3716936972955
 20
230.5177075674014
 30
0.0
  0
MTEXT
  5
887
330
18
100
AcDbEntity
  8
文字
100
AcDbMText
 10
302.9558756866726
 20
261.6432165871282
 30
0.0
 40
1.0
 41
6.927999999999999
 71
     1
 72
     5
  1

  7
STYLE3
 73
     1
 44
1.0
  0
LINE
  5
8FD
330
18
100
AcDbEntity
  8
0
  6
ByBlock
 62
     2
100
AcDbLine
 10
413.7555800864189
 20
219.4889790896693
 30
0.0
 11
389.2265342212764
 21
219.4889790896693
 31
0.0
  0
LINE
  5
8FF
330
18
100
AcDbEntity
  8
0
  6
ByBlock
 62
     2
100
AcDbLine
 10
390.4765342212765
 20
216.9889790896693
 30
0.0
 11
390.4765342212765
 21
212.9889790896693
 31
0.0
  0
INSERT
  5
900
330
18
100
AcDbEntity
  8
0
  6
ByBlock
 62
     2
100
AcDbBlockReference
  2
_OPEN
 10
390.4765342212765
 20
219.4889790896693
 30
0.0
 41
2.5
 42
2.5
 43
2.5
 50
90.0
  0
INSERT
  5
901
330
18
100
AcDbEntity
  8
0
  6
ByBlock
 62
     2
100
AcDbBlockReference
  2
_OPEN
 10
390.4765342212765
 20
210.4889790896693
 30
0.0
 41
2.5
 42
2.5
 43
2.5
 50
270.0
  0
MTEXT
  5
902
330
18
100
AcDbEntity
  8
0
  6
ByBlock
 62
     6
100
AcDbMText
 10
388.6015342212764
 20
214.9889790896693
 30
0.0
 40
2.5
 41
0.0
 71
     5
 72
     1
  1
\A1;9
  7
STYLE3
 11
0.0000000000000001
 21
1.0
 31
0.0
 73
     1
 44
1.0
  0
POINT
  5
903
330
18
100
AcDbEntity
  8
DEFPOINTS
  6
ByBlock
 62
     0
100
AcDbPoint
 10
413.7555800864189
 20
219.4889790896693
 30
0.0
  0
LINE
  5
907
330
18
100
AcDbEntity
  8
0
  6
ByBlock
 62
     2
100
AcDbLine
 10
412.0055800864189
 20
245.4889790896693
 30
0.0
 11
400.4613818953051
 21
245.4889790896693
 31
0.0
  0
LINE
  5
908
330
18
100
AcDbEntity
  8
0
  6
ByBlock
 62
     2
100
AcDbLine
 10
401.7113818953051
 20
257.0889790896693
 30
0.0
 11
401.7113818953051
 21
247.9889790896693
 31
0.0
  0
INSERT
  5
909
330
18
100
AcDbEntity
  8
0
  6
ByBlock
 62
     2
100
AcDbBlockReference
  2
_OPEN
 10
401.7113818953051
 20
259.5889790896693
 30
0.0
 41
2.5
 42
2.5
 43
2.5
 50
90.0
  0
INSERT
  5
90A
330
18
100
AcDbEntity
  8
0
  6
ByBlock
 62
     2
100
AcDbBlockReference
  2
_OPEN
 10
401.7113818953051
 20
245.4889790896693
 30
0.0
 41
2.5
 42
2.5
 43
2.5
 50
270.0
  0
MTEXT
  5
90B
330
18
100
AcDbEntity
  8
0
  6
ByBlock
 62
     6
100
AcDbMText
 10
399.8363818953052
 20
252.5389790896693
 30
0.0
 40
2.5
 41
0.0
 71
     5
 72
     1
  1
14
  7
STYLE3
 11
0.0000000000000001
 21
1.0
 31
0.0
 73
     1
 44
1.0
  0
POINT
  5
90D
330
18
100
AcDbEntity
  8
DEFPOINTS
  6
ByBlock
 62
     0
100
AcDbPoint
 10
412.0055800864189
 20
245.4889790896693
 30
0.0
  0
POINT
  5
90E
330
18
100
AcDbEntity
  8
DEFPOINTS
  6
ByBlock
 62
     0
100
AcDbPoint
 10
401.7113818953051
 20
245.4889790896693
 30
0.0
  0
LINE
  5
910
330
18
100
AcDbEntity
  8
0
  6
ByBlock
 62
     2
100
AcDbLine
 10
412.6055800864189
 20
240.9889790896692
 30
0.0
 11
389.2265342212764
 21
240.9889790896692
 31
0.0
  0
LINE
  5
911
330
18
100
AcDbEntity
  8
0
  6
ByBlock
 62
     2
100
AcDbLine
 10
390.4765342212764
 20
257.0889790896693
 30
0.0
 11
390.4765342212764
 21
243.4889790896693
 31
0.0
  0
INSERT
  5
912
330
18
100
AcDbEntity
  8
0
  6
ByBlock
 62
     2
100
AcDbBlockReference
  2
_OPEN
 10
390.4765342212764
 20
259.5889790896693
 30
0.0
 41
2.5
 42
2.5
 43
2.5
 50
90.0
  0
INSERT
  5
913
330
18
100
AcDbEntity
  8
0
  6
ByBlock
 62
     2
100
AcDbBlockReference
  2
_OPEN
 10
390.4765342212764
 20
240.9889790896692
 30
0.0
 41
2.5
 42
2.5
 43
2.5
 50
270.0
  0
MTEXT
  5
914
330
18
100
AcDbEntity
  8
0
  6
ByBlock
 62
     6
100
AcDbMText
 10
388.6015342212764
 20
250.2889790896693
 30
0.0
 40
2.5
 41
0.0
 71
     5
 72
     1
  1
18.5
  7
STYLE3
 11
0.0000000000000001
 21
1.0
 31
0.0
 73
     1
 44
1.0
  0
POINT
  5
916
330
18
100
AcDbEntity
  8
DEFPOINTS
  6
ByBlock
 62
     0
100
AcDbPoint
 10
412.6055800864189
 20
240.9889790896692
 30
0.0
  0
POINT
  5
917
330
18
100
AcDbEntity
  8
DEFPOINTS
  6
ByBlock
 62
     0
100
AcDbPoint
 10
390.4765342212764
 20
240.9889790896692
 30
0.0
  0
LWPOLYLINE
  5
96E
330
18
100
AcDbEntity
  8
C
100
AcDbPolyline
 90
        5
 70
     0
 43
0.4
 10
236.6915604445414
 20
366.8501752555372
 10
491.6915604445414
 20
366.8501752555372
 10
491.6915604445414
 20
171.8501752555372
 10
236.6915604445414
 20
171.8501752555372
 10
236.6915604445414
 20
366.8501752555372
  0
MTEXT
  5
EB4
330
18
100
AcDbEntity
  8
DEFPOINTS
  6
Continuous
100
AcDbMText
 10
624.6916853418142
 20
184.890767874579
 30
0.0
 40
0.35
 41
0.0
 71
     4
 72
     1
  1
\A1;
 73
     1
 44
1.0
  0
LINE
  5
EB5
102
{ACAD_REACTORS
330
EF3
102
}
330
18
100
AcDbEntity
  8
ROGO
 62
     4
100
AcDbLine
 10
321.7043175824538
 20
295.3539457307758
 30
0.0
 11
323.3168158954389
 21
295.3539457307758
 31
0.0
  0
LINE
  5
EB6
102
{ACAD_REACTORS
330
EF2
330
EF3
102
}
330
18
100
AcDbEntity
  8
ROGO
 62
     4
100
AcDbLine
 10
320.6890670423611
 20
293.3020669458698
 30
0.0
 11
334.5782443093849
 21
293.3020669458698
 31
0.0
  0
LINE
  5
EB7
102
{ACAD_REACTORS
330
EF3
102
}
330
18
100
AcDbEntity
  8
ROGO
 62
     4
100
AcDbLine
 10
321.7043175824538
 20
295.3539457307758
 30
0.0
 11
320.6890670423611
 21
293.3020669458697
 31
0.0
  0
SPLINE
  5
EB8
102
{ACAD_REACTORS
330
EF3
102
}
330
18
100
AcDbEntity
  8
ROGO
 62
     4
100
AcDbSpline
210
0.0
220
0.0
230
1.0
 70
     8
 71
     3
 72
    18
 73
    14
 74
     0
 42
0.0000000001
 43
0.0000000001
 40
0.1087402787915014
 40
0.1087402787915014
 40
0.1087402787915014
 40
0.1087402787915014
 40
0.5992371417938475
 40
1.083176791562496
 40
1.448211145705696
 40
1.714037220764907
 40
2.164002567013297
 40
2.740236056362883
 40
3.395137510199602
 40
4.071816045172726
 40
4.784906178399433
 40
5.506895915094292
 40
6.060470601257719
 40
6.060470601257719
 40
6.060470601257719
 40
6.060470601257719
 10
323.3168158954389
 20
295.3539457307758
 30
0.0
 10
323.368475433075
 20
295.3350133759281
 30
0.0
 10
323.4700633809254
 20
295.2949874846128
 30
0.0
 10
323.5940486164726
 20
295.2036351748215
 30
0.0
 10
323.6616648103974
 20
295.0981763976487
 30
0.0
 10
323.7267040189404
 20
294.9942656553458
 30
0.0
 10
323.7358061374513
 20
294.8451881211894
 30
0.0
 10
323.7208962524042
 20
294.6567179856176
 30
0.0
 10
323.6246393815282
 20
294.460068848097
 30
0.0
 10
323.4701414424467
 20
294.2880718172951
 30
0.0
 10
323.2783214693537
 20
294.1504076369534
 30
0.0
 10
323.0760406912465
 20
294.042344800458
 30
0.0
 10
322.9314503341929
 20
294.0412680798494
 30
0.0
 10
322.8687004172982
 20
294.0408008002183
 30
0.0
  0
LINE
  5
EB9
102
{ACAD_REACTORS
330
EF3
102
}
330
18
100
AcDbEntity
  8
ROGO
 62
     4
100
AcDbLine
 10
322.8687004176074
 20
294.0408008002183
 30
0.0
 11
321.9770921491261
 21
294.0408008002183
 31
0.0
  0
LINE
  5
EBA
102
{ACAD_REACTORS
330
EF3
102
}
330
18
100
AcDbEntity
  8
ROGO
 62
     4
100
AcDbLine
 10
322.3414544377936
 20
294.8461488195624
 30
0.0
 11
322.1834566414362
 21
294.496927134677
 31
0.0
  0
SPLINE
  5
EBB
102
{ACAD_REACTORS
330
EF3
102
}
330
18
100
AcDbEntity
  8
ROGO
 62
     4
100
AcDbSpline
210
0.0
220
0.0
230
1.0
 70
     8
 71
     3
 72
    15
 73
    11
 74
     9
 42
0.0000000001
 43
0.0000000001
 44
0.0000000001
 40
0.0
 40
0.0
 40
0.0
 40
0.0
 40
0.1539705029175028
 40
0.2241725832587281
 40
0.3038566179396687
 40
0.3581410872474193
 40
0.443992538467216
 40
0.4954152125469665
 40
0.5836396705646186
 40
0.6130478420065743
 40
0.6130478420065743
 40
0.6130478420065743
 40
0.6130478420065743
 10
322.7474414368911
 20
294.8461488195624
 30
0.0
 10
322.8052697719503
 20
294.8464137042049
 30
0.0
 10
322.8894646470084
 20
294.8467993616747
 30
0.0
 10
322.9355054033729
 20
294.742650057745
 30
0.0
 10
322.9148677411395
 20
294.6755941531077
 30
0.0
 10
322.8889245177153
 20
294.6067486388598
 30
0.0
 10
322.8430769661729
 20
294.5599670735905
 30
0.0
 10
322.7815428365779
 20
294.5149085399536
 30
0.0
 10
322.7233901435221
 20
294.5094540026939
 30
0.0
 10
322.6855683445495
 20
294.4994325092399
 30
0.0
 10
322.6761128902802
 20
294.496927134677
 30
0.0
 11
322.7474414368911
 21
294.8461488195624
 31
0.0
 11
322.8972315078199
 21
294.8105138589225
 31
0.0
 11
322.9257630084949
 21
294.7463711621171
 31
0.0
 11
322.911497463234
 21
294.6679744810557
 31
0.0
 11
322.8900989402662
 21
294.6180855361599
 31
0.0
 11
322.8330359389161
 21
294.5539428393545
 31
0.0
 11
322.7902388929802
 21
294.5254348708425
 31
0.0
 11
322.7046443909553
 21
294.504054126805
 31
0.0
 11
322.6761128902802
 21
294.496927134677
 31
0.0
  0
LINE
  5
EBC
102
{ACAD_REACTORS
330
EF3
102
}
330
18
100
AcDbEntity
  8
ROGO
 62
     4
100
AcDbLine
 10
322.7474414368911
 20
294.8461488195624
 30
0.0
 11
322.3414544377936
 21
294.8461488195624
 31
0.0
  0
LINE
  5
EBD
102
{ACAD_REACTORS
330
EF3
102
}
330
18
100
AcDbEntity
  8
ROGO
 62
     4
100
AcDbLine
 10
322.6761128902803
 20
294.496927134677
 30
0.0
 11
322.1834566414362
 21
294.496927134677
 31
0.0
  0
LINE
  5
EBE
102
{ACAD_REACTORS
330
EF3
102
}
330
18
100
AcDbEntity
  8
ROGO
 62
     4
100
AcDbLine
 10
321.9770921491261
 20
294.0408008002183
 30
0.0
 11
321.6428679982976
 21
293.3020669458698
 31
0.0
  0
LINE
  5
EBF
102
{ACAD_REACTORS
330
EEE
102
}
330
18
100
AcDbEntity
  8
ROGO
 62
     4
100
AcDbLine
 10
324.2694398886445
 20
295.3539457307758
 30
0.0
 11
323.6197079893845
 21
294.0408008002183
 31
0.0
  0
LINE
  5
EC0
102
{ACAD_REACTORS
330
EEE
102
}
330
18
100
AcDbEntity
  8
ROGO
 62
     4
100
AcDbLine
 10
326.0455230371284
 20
295.3539457307758
 30
0.0
 11
325.8966888413939
 21
295.0531434000837
 31
0.0
  0
LINE
  5
EC1
102
{ACAD_REACTORS
330
EEE
102
}
330
18
100
AcDbEntity
  8
ROGO
 62
     4
100
AcDbLine
 10
323.6197079893845
 20
294.0408008002183
 30
0.0
 11
325.3957911378683
 21
294.0408008002183
 31
0.0
  0
LINE
  5
EC2
102
{ACAD_REACTORS
330
EEE
102
}
330
18
100
AcDbEntity
  8
ROGO
 62
     4
100
AcDbLine
 10
324.9632244191759
 20
295.0531434000837
 30
0.0
 11
324.8468545730994
 21
294.8179533568995
 31
0.0
  0
LINE
  5
EC3
102
{ACAD_REACTORS
330
EEE
102
}
330
18
100
AcDbEntity
  8
ROGO
 62
     4
100
AcDbLine
 10
324.9632244191759
 20
295.0531434000837
 30
0.0
 11
325.8966888413939
 21
295.0531434000837
 31
0.0
  0
LINE
  5
EC4
102
{ACAD_REACTORS
330
EEE
102
}
330
18
100
AcDbEntity
  8
ROGO
 62
     4
100
AcDbLine
 10
324.8468545730994
 20
294.8179533568995
 30
0.0
 11
325.7803189953174
 21
294.8179533568995
 31
0.0
  0
LINE
  5
EC5
102
{ACAD_REACTORS
330
EEE
102
}
330
18
100
AcDbEntity
  8
ROGO
 62
     4
100
AcDbLine
 10
324.6111534248592
 20
294.3415880002183
 30
0.0
 11
325.5446178470772
 21
294.3415880002183
 31
0.0
  0
LINE
  5
EC6
102
{ACAD_REACTORS
330
EEE
102
}
330
18
100
AcDbEntity
  8
ROGO
 62
     4
100
AcDbLine
 10
324.7275281974756
 20
294.5767880002183
 30
0.0
 11
325.6609926196935
 21
294.5767880002183
 31
0.0
  0
LINE
  5
EC7
102
{ACAD_REACTORS
330
EEE
102
}
330
18
100
AcDbEntity
  8
ROGO
 62
     4
100
AcDbLine
 10
325.7803189953174
 20
294.8179533568995
 30
0.0
 11
325.6609926196935
 21
294.5767880002183
 31
0.0
  0
LINE
  5
EC8
102
{ACAD_REACTORS
330
EEE
102
}
330
18
100
AcDbEntity
  8
ROGO
 62
     4
100
AcDbLine
 10
325.5446178470772
 20
294.3415880002183
 30
0.0
 11
325.3957911378683
 21
294.0408008002183
 31
0.0
  0
LINE
  5
EC9
102
{ACAD_REACTORS
330
EEE
102
}
330
18
100
AcDbEntity
  8
ROGO
 62
     4
100
AcDbLine
 10
324.7275281974756
 20
294.5767880002183
 30
0.0
 11
324.6111534248592
 21
294.3415880002183
 31
0.0
  0
LINE
  5
ECA
102
{ACAD_REACTORS
330
EF7
102
}
330
18
100
AcDbEntity
  8
ROGO
 62
     4
100
AcDbLine
 10
326.5600173023261
 20
295.3539457307758
 30
0.0
 11
325.613082972227
 21
294.0408008002183
 31
0.0
  0
LINE
  5
ECB
102
{ACAD_REACTORS
330
EF7
102
}
330
18
100
AcDbEntity
  8
ROGO
 62
     4
100
AcDbLine
 10
327.0341451589578
 20
295.002936753824
 30
0.0
 11
326.7107784226446
 21
294.5545134820051
 31
0.0
  0
LINE
  5
ECC
102
{ACAD_REACTORS
330
EF7
102
}
330
18
100
AcDbEntity
  8
ROGO
 62
     4
100
AcDbLine
 10
326.5206206614995
 20
294.2908154703091
 30
0.0
 11
327.3504976502839
 21
294.2908154703091
 31
0.0
  0
LINE
  5
ECD
102
{ACAD_REACTORS
330
EF7
102
}
330
18
100
AcDbEntity
  8
ROGO
 62
     4
100
AcDbLine
 10
326.7107784226446
 20
294.5545134820052
 30
0.0
 11
327.2333525446833
 21
294.5545134820052
 31
0.0
  0
LINE
  5
ECE
102
{ACAD_REACTORS
330
EF7
102
}
330
18
100
AcDbEntity
  8
ROGO
 62
     4
100
AcDbLine
 10
326.5206206614995
 20
294.2908154703091
 30
0.0
 11
326.3403302239186
 21
294.0408008002183
 31
0.0
  0
LINE
  5
ECF
102
{ACAD_REACTORS
330
EF7
102
}
330
18
100
AcDbEntity
  8
ROGO
 62
     4
100
AcDbLine
 10
325.613082972227
 20
294.0408008002183
 30
0.0
 11
326.3403302239185
 21
294.0408008002183
 31
0.0
  0
LINE
  5
ED0
102
{ACAD_REACTORS
330
EF7
102
}
330
18
100
AcDbEntity
  8
ROGO
 62
     4
100
AcDbLine
 10
326.5600173023261
 20
295.3539457307758
 30
0.0
 11
327.6104207850976
 21
295.3539457307758
 31
0.0
  0
LINE
  5
ED1
102
{ACAD_REACTORS
330
EF7
102
}
330
18
100
AcDbEntity
  8
ROGO
 62
     4
100
AcDbLine
 10
328.1937717954809
 20
294.0408008002183
 30
0.0
 11
327.4615640733527
 21
294.0408008002183
 31
0.0
  0
LINE
  5
ED2
102
{ACAD_REACTORS
330
EEF
102
}
330
18
100
AcDbEntity
  8
ROGO
 62
     4
100
AcDbLine
 10
328.5533912104867
 20
294.0408008002183
 30
0.0
 11
329.6844202254913
 21
294.0408008002183
 31
0.0
  0
LINE
  5
ED3
102
{ACAD_REACTORS
330
EEF
102
}
330
18
100
AcDbEntity
  8
ROGO
 62
     4
100
AcDbLine
 10
330.3391966985005
 20
295.3539457307758
 30
0.0
 11
330.0955773979599
 21
294.8653706785589
 31
0.0
  0
LINE
  5
ED4
102
{ACAD_REACTORS
330
EEF
102
}
330
18
100
AcDbEntity
  8
ROGO
 62
     4
100
AcDbLine
 10
329.2738104746088
 20
294.8653706785589
 30
0.0
 11
330.0955773979599
 21
294.8653706785589
 31
0.0
  0
LINE
  5
ED5
102
{ACAD_REACTORS
330
EEF
102
}
330
18
100
AcDbEntity
  8
ROGO
 62
     4
100
AcDbLine
 10
329.0883559252979
 20
294.5293706785589
 30
0.0
 11
329.9280369461701
 21
294.5293706785589
 31
0.0
  0
SPLINE
  5
ED6
102
{ACAD_REACTORS
330
EEF
102
}
330
18
100
AcDbEntity
  8
ROGO
 62
     4
100
AcDbSpline
210
0.0
220
0.0
230
1.0
 70
     8
 71
     3
 72
    26
 73
    22
 74
    20
 42
0.0000000001
 43
0.0000000001
 44
0.0000000001
 40
0.0
 40
0.0
 40
0.0
 40
0.0
 40
0.2382195346591896
 40
0.397689067266058
 40
0.5126795869787669
 40
0.5985392873135731
 40
0.7099038249249733
 40
0.7911890807494741
 40
0.9379713068543702
 40
1.057449928673087
 40
1.138714535893316
 40
1.218398644003506
 40
1.36093802187036
 40
1.461730374800257
 40
1.516014844108008
 40
1.593124329220501
 40
1.648806818593631
 40
1.729472362005518
 40
1.775122082164342
 40
1.874460993765092
 40
1.919820003751207
 40
1.919820003751207
 40
1.919820003751207
 40
1.919820003751207
 10
329.0241603563942
 20
295.3539457307758
 30
0.0
 10
328.9433049656356
 20
295.3491217595106
 30
0.0
 10
328.8083231515697
 20
295.3410685130139
 30
0.0
 10
328.6601139408579
 20
295.2510330091556
 30
0.0
 10
328.5515271964476
 20
295.1986903238132
 30
0.0
 10
328.4740832620234
 20
295.1275349023936
 30
0.0
 10
328.417316544156
 20
295.0540365498723
 30
0.0
 10
328.3457514394584
 20
294.9664638017468
 30
0.0
 10
328.2873921415526
 20
294.8644888802824
 30
0.0
 10
328.2576732990193
 20
294.752094739219
 30
0.0
 10
328.2313486303656
 20
294.66251595666
 30
0.0
 10
328.2118258153925
 20
294.5626920937676
 30
0.0
 10
328.2167929722057
 20
294.4548472056454
 30
0.0
 10
328.22390616809
 20
294.3546863946415
 30
0.0
 10
328.2556648580141
 20
294.2831865717149
 30
0.0
 10
328.2918323804041
 20
294.2322836247856
 30
0.0
 10
328.3361190162589
 20
294.1762196720868
 30
0.0
 10
328.3845782805765
 20
294.1390886977566
 30
0.0
 10
328.4246580476869
 20
294.0718234426158
 30
0.0
 10
328.4948163279494
 20
294.0632399109398
 30
0.0
 10
328.5394117220253
 20
294.0461561210627
 30
0.0
 10
328.5533912104867
 20
294.0408008002183
 30
0.0
 11
329.0241603563942
 21
295.3539457307758
 31
0.0
 11
328.7887757834405
 21
295.3173035486821
 31
0.0
 11
328.6461182800654
 21
295.2460338597486
 31
0.0
 11
328.5462582327796
 21
295.1890181550712
 31
0.0
 11
328.4820626638758
 21
295.1320022180474
 31
0.0
 11
328.4107341172651
 21
295.046478544858
 31
0.0
 11
328.3608040936221
 21
294.9823358480526
 31
0.0
 11
328.2894751368579
 21
294.8540502220954
 31
0.0
 11
328.2538110686291
 21
294.7400185803942
 31
0.0
 11
328.2324125456613
 21
294.6616218993327
 31
0.0
 11
328.218146590247
 21
294.5832252182714
 31
0.0
 11
328.218146590247
 21
294.4406858404045
 31
0.0
 11
328.2324125456613
 21
294.3409081829592
 31
0.0
 11
328.2538110686291
 21
294.2910192380634
 31
0.0
 11
328.2966081145649
 21
294.2268765412579
 31
0.0
 11
328.3322725929471
 21
294.1841145884901
 31
0.0
 11
328.3893351841436
 21
294.1270988838126
 31
0.0
 11
328.4178666848188
 21
294.0914639231727
 31
0.0
 11
328.5105941645509
 21
294.0558291948792
 31
0.0
 11
328.5533912104867
 21
294.0408008002183
 31
0.0
  0
SPLINE
  5
ED7
102
{ACAD_REACTORS
330
EEF
102
}
330
18
100
AcDbEntity
  8
ROGO
 62
     4
100
AcDbSpline
210
0.0
220
0.0
230
1.0
 70
     8
 71
     3
 72
    16
 73
    12
 74
    10
 42
0.0000000001
 43
0.0000000001
 44
0.0000000001
 40
0.0
 40
0.0
 40
0.0
 40
0.0
 40
0.1255907025629711
 40
0.1869327038470372
 40
0.2171823804790188
 40
0.2490606136884497
 40
0.2947101524738226
 40
0.3362763310931653
 40
0.3796288870083566
 40
0.452312579561098
 40
0.5242542460842631
 40
0.5242542460842631
 40
0.5242542460842631
 40
0.5242542460842631
 10
329.2738104746088
 20
294.8653706785589
 30
0.0
 10
329.2312797669874
 20
294.858886585255
 30
0.0
 10
329.1679758757762
 20
294.8492354799695
 30
0.0
 10
329.1107301243849
 20
294.8039203729937
 30
0.0
 10
329.0784474952609
 20
294.7769609006772
 30
0.0
 10
329.0674648010092
 20
294.7412589064949
 30
0.0
 10
329.0379687331487
 20
294.7138452554595
 30
0.0
 10
329.0136555832713
 20
294.6761700747432
 30
0.0
 10
329.0078501542097
 20
294.6244226037842
 30
0.0
 10
329.0121114720573
 20
294.5518029146468
 30
0.0
 10
329.0630281866263
 20
294.5368224706474
 30
0.0
 10
329.088355925298
 20
294.5293706785589
 30
0.0
 11
329.2738104746088
 21
294.8653706785589
 31
0.0
 11
329.152551904355
 21
294.8326692457115
 31
0.0
 11
329.1026218807122
 21
294.797034517418
 31
0.0
 11
329.0812233577443
 21
294.7756535410339
 31
0.0
 11
329.0669574023301
 21
294.7471455725221
 31
0.0
 11
329.038425901655
 21
294.7115108442286
 31
0.0
 11
329.0170273786871
 21
294.6758758835887
 31
0.0
 11
329.00989440098
 21
294.6331141631672
 31
0.0
 11
329.0241603563942
 21
294.5618442418874
 31
0.0
 11
329.088355925298
 21
294.5293706785589
 31
0.0
  0
LINE
  5
ED8
102
{ACAD_REACTORS
330
EEF
102
}
330
18
100
AcDbEntity
  8
ROGO
 62
     4
100
AcDbLine
 10
329.9280369461701
 20
294.5293706785589
 30
0.0
 11
329.6844202254913
 21
294.0408008002183
 31
0.0
  0
LINE
  5
ED9
102
{ACAD_REACTORS
330
EEF
102
}
330
18
100
AcDbEntity
  8
ROGO
 62
     4
100
AcDbLine
 10
329.0241603563946
 20
295.3539457307758
 30
0.0
 11
330.3391966985005
 21
295.3539457307758
 31
0.0
  0
LINE
  5
EDA
102
{ACAD_REACTORS
330
EF0
102
}
330
18
100
AcDbEntity
  8
ROGO
 62
     4
100
AcDbLine
 10
332.7844609814145
 20
294.0408008002183
 30
0.0
 11
333.9154899964192
 21
294.0408008002183
 31
0.0
  0
LINE
  5
EDB
102
{ACAD_REACTORS
330
EF0
102
}
330
18
100
AcDbEntity
  8
ROGO
 62
     4
100
AcDbLine
 10
333.2552301273224
 20
295.3539457307758
 30
0.0
 11
334.5702664694284
 21
295.3539457307758
 31
0.0
  0
SPLINE
  5
EDC
102
{ACAD_REACTORS
330
EF0
102
}
330
18
100
AcDbEntity
  8
ROGO
 62
     4
100
AcDbSpline
210
0.0
220
0.0
230
1.0
 70
     8
 71
     3
 72
    16
 73
    12
 74
    10
 42
0.0000000001
 43
0.0000000001
 44
0.0000000001
 40
0.0
 40
0.0
 40
0.0
 40
0.0
 40
0.1255907025629163
 40
0.1869327038470616
 40
0.217182380479003
 40
0.2490606136884339
 40
0.2947101524738157
 40
0.3362763310931585
 40
0.3796288870082937
 40
0.4523125795610796
 40
0.5242542460842448
 40
0.5242542460842448
 40
0.5242542460842448
 40
0.5242542460842448
 10
333.5048802455367
 20
294.8653706785589
 30
0.0
 10
333.4623495379152
 20
294.8588865852549
 30
0.0
 10
333.3990456467038
 20
294.8492354799693
 30
0.0
 10
333.3417998953128
 20
294.8039203729937
 30
0.0
 10
333.3095172661887
 20
294.7769609006771
 30
0.0
 10
333.2985345719369
 20
294.7412589064951
 30
0.0
 10
333.2690385040765
 20
294.7138452554593
 30
0.0
 10
333.2447253541992
 20
294.6761700747432
 30
0.0
 10
333.2389199251375
 20
294.6244226037841
 30
0.0
 10
333.243181242985
 20
294.5518029146466
 30
0.0
 10
333.2940979575541
 20
294.5368224706474
 30
0.0
 10
333.3194256962258
 20
294.5293706785589
 30
0.0
 11
333.5048802455367
 21
294.8653706785589
 31
0.0
 11
333.3836216752829
 21
294.8326692457115
 31
0.0
 11
333.33369165164
 21
294.7970345174179
 31
0.0
 11
333.3122931286721
 21
294.7756535410339
 31
0.0
 11
333.2980271732579
 21
294.7471455725221
 31
0.0
 11
333.2694956725829
 21
294.7115108442286
 31
0.0
 11
333.248097149615
 21
294.6758758835887
 31
0.0
 11
333.2409641719079
 21
294.6331141631672
 31
0.0
 11
333.2552301273221
 21
294.5618442418874
 31
0.0
 11
333.3194256962258
 21
294.5293706785589
 31
0.0
  0
SPLINE
  5
EDD
102
{ACAD_REACTORS
330
EF0
102
}
330
18
100
AcDbEntity
  8
ROGO
 62
     4
100
AcDbSpline
210
0.0
220
0.0
230
1.0
 70
     8
 71
     3
 72
    26
 73
    22
 74
    20
 42
0.0000000001
 43
0.0000000001
 44
0.0000000001
 40
0.0
 40
0.0
 40
0.0
 40
0.0
 40
0.2382195346591896
 40
0.397689067266058
 40
0.5126795869787176
 40
0.5985392873135238
 40
0.7099038249250041
 40
0.7911890807494602
 40
0.9379713068544059
 40
1.057449928673177
 40
1.138714535893296
 40
1.218398644003487
 40
1.36093802187034
 40
1.461730374800238
 40
1.51601484410804
 40
1.593124329220486
 40
1.648806818593696
 40
1.729472362005543
 40
1.775122082164332
 40
1.874460993765135
 40
1.919820003751196
 40
1.919820003751196
 40
1.919820003751196
 40
1.919820003751196
 10
333.2552301273221
 20
295.3539457307758
 30
0.0
 10
333.1743747365635
 20
295.3491217595107
 30
0.0
 10
333.0393929224976
 20
295.341068513014
 30
0.0
 10
332.8911837117857
 20
295.2510330091556
 30
0.0
 10
332.7825969673755
 20
295.198690323813
 30
0.0
 10
332.7051530329513
 20
295.1275349023936
 30
0.0
 10
332.6483863150838
 20
295.0540365498722
 30
0.0
 10
332.5768212103861
 20
294.9664638017468
 30
0.0
 10
332.5184619124803
 20
294.8644888802822
 30
0.0
 10
332.4887430699472
 20
294.7520947392188
 30
0.0
 10
332.4624184012935
 20
294.6625159566601
 30
0.0
 10
332.4428955863204
 20
294.5626920937676
 30
0.0
 10
332.4478627431333
 20
294.4548472056454
 30
0.0
 10
332.454975939018
 20
294.3546863946415
 30
0.0
 10
332.4867346289418
 20
294.2831865717148
 30
0.0
 10
332.5229021513321
 20
294.2322836247856
 30
0.0
 10
332.5671887871867
 20
294.1762196720867
 30
0.0
 10
332.6156480515043
 20
294.1390886977566
 30
0.0
 10
332.6557278186149
 20
294.0718234426159
 30
0.0
 10
332.7258860988774
 20
294.0632399109398
 30
0.0
 10
332.7704814929532
 20
294.0461561210628
 30
0.0
 10
332.7844609814146
 20
294.0408008002183
 30
0.0
 11
333.2552301273221
 21
295.3539457307758
 31
0.0
 11
333.0198455543682
 21
295.3173035486821
 31
0.0
 11
332.8771880509933
 21
295.2460338597486
 31
0.0
 11
332.7773280037074
 21
295.1890181550712
 31
0.0
 11
332.7131324348037
 21
295.1320022180474
 31
0.0
 11
332.6418038881929
 21
295.046478544858
 31
0.0
 11
332.59187386455
 21
294.9823358480526
 31
0.0
 11
332.5205449077857
 21
294.8540502220954
 31
0.0
 11
332.484880839557
 21
294.7400185803941
 31
0.0
 11
332.4634823165891
 21
294.6616218993327
 31
0.0
 11
332.4492163611749
 21
294.5832252182714
 31
0.0
 11
332.4492163611749
 21
294.4406858404045
 31
0.0
 11
332.4634823165891
 21
294.3409081829592
 31
0.0
 11
332.484880839557
 21
294.2910192380633
 31
0.0
 11
332.5276778854928
 21
294.2268765412579
 31
0.0
 11
332.563342363875
 21
294.18411458849
 31
0.0
 11
332.6204049550715
 21
294.1270988838126
 31
0.0
 11
332.6489364557466
 21
294.0914639231727
 31
0.0
 11
332.7416639354788
 21
294.0558291948792
 31
0.0
 11
332.7844609814146
 21
294.0408008002183
 31
0.0
  0
LINE
  5
EDE
102
{ACAD_REACTORS
330
EF0
102
}
330
18
100
AcDbEntity
  8
ROGO
 62
     4
100
AcDbLine
 10
334.159106717098
 20
294.5293706785589
 30
0.0
 11
333.9154899964191
 21
294.0408008002183
 31
0.0
  0
LINE
  5
EDF
102
{ACAD_REACTORS
330
EF0
102
}
330
18
100
AcDbEntity
  8
ROGO
 62
     4
100
AcDbLine
 10
333.3194256962258
 20
294.5293706785589
 30
0.0
 11
334.159106717098
 21
294.5293706785589
 31
0.0
  0
LINE
  5
EE0
102
{ACAD_REACTORS
330
EF0
102
}
330
18
100
AcDbEntity
  8
ROGO
 62
     4
100
AcDbLine
 10
333.5048802455366
 20
294.8653706785589
 30
0.0
 11
334.3266471688878
 21
294.8653706785589
 31
0.0
  0
LINE
  5
EE1
102
{ACAD_REACTORS
330
EF0
102
}
330
18
100
AcDbEntity
  8
ROGO
 62
     4
100
AcDbLine
 10
334.5702664694284
 20
295.3539457307758
 30
0.0
 11
334.3266471688878
 21
294.8653706785589
 31
0.0
  0
LINE
  5
EE2
102
{ACAD_REACTORS
330
EF2
102
}
330
18
100
AcDbEntity
  8
ROGO
 62
     4
100
AcDbLine
 10
334.8452935985505
 20
295.3539457307758
 30
0.0
 11
335.6013773410547
 21
295.3539457307758
 31
0.0
  0
LINE
  5
EE3
102
{ACAD_REACTORS
330
EF2
102
}
330
18
100
AcDbEntity
  8
ROGO
 62
     4
100
AcDbLine
 10
334.8452935985505
 20
295.3539457307758
 30
0.0
 11
333.8221605668806
 21
293.3020669458698
 31
0.0
  0
LINE
  5
EE4
102
{ACAD_REACTORS
330
EF2
102
}
330
18
100
AcDbEntity
  8
ROGO
 62
     4
100
AcDbLine
 10
335.6013773410547
 20
295.3539457307758
 30
0.0
 11
335.4896720341337
 21
295.1299223219542
 31
0.0
  0
LINE
  5
EE5
102
{ACAD_REACTORS
330
EF2
102
}
330
18
100
AcDbEntity
  8
ROGO
 62
     4
100
AcDbLine
 10
335.4896720341337
 20
295.1299223219542
 30
0.0
 11
335.8436851172125
 21
295.3539457307758
 31
0.0
  0
LINE
  5
EE6
102
{ACAD_REACTORS
330
EF2
102
}
330
18
100
AcDbEntity
  8
ROGO
 62
     4
100
AcDbLine
 10
334.8452935985505
 20
293.8376305079893
 30
0.0
 11
335.1123428877162
 21
293.3020669458698
 31
0.0
  0
LINE
  5
EE7
102
{ACAD_REACTORS
330
EF2
102
}
330
18
100
AcDbEntity
  8
ROGO
 62
     4
100
AcDbLine
 10
335.3568435718813
 20
294.3280063383228
 30
0.0
 11
335.8684100877162
 21
293.3020669458698
 31
0.0
  0
LINE
  5
EE8
102
{ACAD_REACTORS
330
EF2
102
}
330
18
100
AcDbEntity
  8
ROGO
 62
     4
100
AcDbLine
 10
334.8452935985505
 20
293.8376305079893
 30
0.0
 11
334.5782443093849
 21
293.3020669458698
 31
0.0
  0
LINE
  5
EE9
102
{ACAD_REACTORS
330
EF2
102
}
330
18
100
AcDbEntity
  8
ROGO
 62
     4
100
AcDbLine
 10
335.3568435718813
 20
294.3280063383228
 30
0.0
 11
336.5997523172126
 21
295.3539457307758
 31
0.0
  0
LINE
  5
EEA
102
{ACAD_REACTORS
330
EF2
102
}
330
18
100
AcDbEntity
  8
ROGO
 62
     4
100
AcDbLine
 10
335.8436851172125
 20
295.3539457307758
 30
0.0
 11
336.5997523172126
 21
295.3539457307758
 31
0.0
  0
LINE
  5
EEB
102
{ACAD_REACTORS
330
EF2
102
}
330
18
100
AcDbEntity
  8
ROGO
 62
     4
100
AcDbLine
 10
335.1123428877162
 20
293.3020669458698
 30
0.0
 11
335.8684100877162
 21
293.3020669458698
 31
0.0
  0
LINE
  5
EEC
102
{ACAD_REACTORS
330
EEE
102
}
330
18
100
AcDbEntity
  8
ROGO
 62
     4
100
AcDbLine
 10
324.2694398886445
 20
295.3539457307758
 30
0.0
 11
326.0455230371284
 21
295.3539457307758
 31
0.0
  0
LINE
  5
EED
330
18
100
AcDbEntity
  8
ROGO
 62
     4
100
AcDbLine
 10
321.7216555868029
 20
293.5077371521611
 30
0.0
 11
333.9247143742668
 21
293.5077371521611
 31
0.0
  0
HATCH
  5
EEE
330
18
100
AcDbEntity
  8
ROGO
 62
     4
100
AcDbHatch
 10
0.0
 20
0.0
 30
0.0
210
0.0
220
0.0
230
1.0
  2
SOLID
 70
     1
 71
     1
 91
        1
 92
        1
 93
       12
 72
     1
 10
324.2694398886445
 20
295.3539457307758
 11
326.0455230371284
 21
295.3539457307758
 72
     1
 10
326.0455230371284
 20
295.3539457307758
 11
325.8966888413939
 21
295.0531434000837
 72
     1
 10
325.8966888413939
 20
295.0531434000837
 11
324.9632244191759
 21
295.0531434000837
 72
     1
 10
324.9632244191759
 20
295.0531434000837
 11
324.8468545730994
 21
294.8179533568995
 72
     1
 10
324.8468545730994
 20
294.8179533568995
 11
325.7803189953174
 21
294.8179533568995
 72
     1
 10
325.7803189953174
 20
294.8179533568995
 11
325.6609926196935
 21
294.5767880002183
 72
     1
 10
325.6609926196935
 20
294.5767880002183
 11
324.7275281974756
 21
294.5767880002183
 72
     1
 10
324.7275281974756
 20
294.5767880002183
 11
324.6111534248592
 21
294.3415880002183
 72
     1
 10
324.6111534248592
 20
294.3415880002183
 11
325.5446178470772
 21
294.3415880002183
 72
     1
 10
325.5446178470772
 20
294.3415880002183
 11
325.3957911378683
 21
294.0408008002183
 72
     1
 10
325.3957911378683
 20
294.0408008002183
 11
323.6197079893845
 21
294.0408008002183
 72
     1
 10
323.6197079893845
 20
294.0408008002183
 11
324.2694398886445
 21
295.3539457307758
 97
       12
330
EEC
330
EC0
330
EC3
330
EC2
330
EC4
330
EC7
330
EC6
330
EC9
330
EC5
330
EC8
330
EC1
330
EBF
 75
     0
 76
     1
 98
        1
 10
251.6193109099356
 20
204.5558496826645
450
        0
451
        0
460
0.0
461
0.0
452
        0
462
0.0
453
        0
470

  0
HATCH
  5
EEF
330
18
100
AcDbEntity
  8
ROGO
 62
     4
100
AcDbHatch
 10
0.0
 20
0.0
 30
0.0
210
0.0
220
0.0
230
1.0
  2
SOLID
 70
     1
 71
     1
 91
        1
 92
        5
 93
        8
 72
     1
 10
330.0955773979599
 20
294.8653706785589
 11
330.3391966985005
 21
295.3539457307758
 72
     1
 10
330.3391966985005
 20
295.3539457307758
 11
329.0241603563945
 21
295.3539457307758
 72
     4
 94
        3
 73
     0
 74
     0
 95
       26
 96
       22
 40
0.0
 40
0.0
 40
0.0
 40
0.0
 40
0.2382195346591896
 40
0.397689067266058
 40
0.5126795869787669
 40
0.5985392873135731
 40
0.7099038249249733
 40
0.7911890807494741
 40
0.9379713068543702
 40
1.057449928673087
 40
1.138714535893316
 40
1.218398644003506
 40
1.36093802187036
 40
1.461730374800257
 40
1.516014844108008
 40
1.593124329220501
 40
1.648806818593631
 40
1.729472362005518
 40
1.775122082164342
 40
1.874460993765092
 40
1.919820003751207
 40
1.919820003751207
 40
1.919820003751207
 40
1.919820003751207
 10
329.0241603563942
 20
295.3539457307758
 10
328.9433049656356
 20
295.3491217595106
 10
328.8083231515697
 20
295.3410685130139
 10
328.6601139408579
 20
295.2510330091556
 10
328.5515271964476
 20
295.1986903238132
 10
328.4740832620234
 20
295.1275349023936
 10
328.417316544156
 20
295.0540365498723
 10
328.3457514394584
 20
294.9664638017468
 10
328.2873921415526
 20
294.8644888802824
 10
328.2576732990193
 20
294.752094739219
 10
328.2313486303656
 20
294.66251595666
 10
328.2118258153925
 20
294.5626920937676
 10
328.2167929722057
 20
294.4548472056454
 10
328.22390616809
 20
294.3546863946415
 10
328.2556648580141
 20
294.2831865717149
 10
328.2918323804041
 20
294.2322836247856
 10
328.3361190162589
 20
294.1762196720868
 10
328.3845782805765
 20
294.1390886977566
 10
328.4246580476869
 20
294.0718234426158
 10
328.4948163279494
 20
294.0632399109398
 10
328.5394117220253
 20
294.0461561210627
 10
328.5533912104867
 20
294.0408008002183
 72
     1
 10
328.5533912104867
 20
294.0408008002183
 11
329.6844202254913
 21
294.0408008002182
 72
     1
 10
329.6844202254913
 20
294.0408008002182
 11
329.9280369461701
 21
294.5293706785589
 72
     1
 10
329.9280369461701
 20
294.5293706785589
 11
329.0883559252981
 21
294.5293706785589
 72
     4
 94
        3
 73
     0
 74
     0
 95
       16
 96
       12
 40
0.0
 40
0.0
 40
0.0
 40
0.0
 40
0.0719416665231651
 40
0.1446253590759065
 40
0.1879779149910977
 40
0.2295440936104405
 40
0.2751936323958134
 40
0.3070718656052443
 40
0.3373215422372259
 40
0.3986635435212919
 40
0.5242542460842631
 40
0.5242542460842631
 40
0.5242542460842631
 40
0.5242542460842631
 10
329.088355925298
 20
294.5293706785589
 10
329.0630281866263
 20
294.5368224706474
 10
329.0121114720573
 20
294.5518029146468
 10
329.0078501542097
 20
294.6244226037842
 10
329.0136555832713
 20
294.6761700747432
 10
329.0379687331487
 20
294.7138452554595
 10
329.0674648010092
 20
294.7412589064949
 10
329.0784474952609
 20
294.7769609006772
 10
329.1107301243849
 20
294.8039203729937
 10
329.1679758757762
 20
294.8492354799695
 10
329.2312797669874
 20
294.858886585255
 10
329.2738104746088
 20
294.8653706785589
 72
     1
 10
329.2738104746088
 20
294.8653706785589
 11
330.0955773979599
 21
294.8653706785589
 97
        8
330
ED9
330
ED6
330
ED2
330
ED8
330
ED5
330
ED7
330
ED4
330
ED3
 75
     0
 76
     1
 47
0.0514683685270805
 98
        1
 10
329.4840772536012
 20
295.0616242744288
450
        0
451
        0
460
0.0
461
0.0
452
        0
462
0.0
453
        0
470

  0
HATCH
  5
EF0
330
18
100
AcDbEntity
  8
ROGO
 62
     4
100
AcDbHatch
 10
0.0
 20
0.0
 30
0.0
210
0.0
220
0.0
230
1.0
  2
SOLID
 70
     1
 71
     1
 91
        1
 92
        5
 93
        8
 72
     4
 94
        3
 73
     0
 74
     0
 95
       26
 96
       22
 40
0.0
 40
0.0
 40
0.0
 40
0.0
 40
0.2382195346591896
 40
0.397689067266058
 40
0.5126795869787176
 40
0.5985392873135238
 40
0.7099038249250041
 40
0.7911890807494602
 40
0.9379713068544059
 40
1.057449928673177
 40
1.138714535893296
 40
1.218398644003487
 40
1.36093802187034
 40
1.461730374800238
 40
1.51601484410804
 40
1.593124329220486
 40
1.648806818593696
 40
1.729472362005543
 40
1.775122082164332
 40
1.874460993765135
 40
1.919820003751196
 40
1.919820003751196
 40
1.919820003751196
 40
1.919820003751196
 10
333.2552301273221
 20
295.3539457307758
 10
333.1743747365635
 20
295.3491217595107
 10
333.0393929224976
 20
295.341068513014
 10
332.8911837117857
 20
295.2510330091556
 10
332.7825969673755
 20
295.198690323813
 10
332.7051530329513
 20
295.1275349023936
 10
332.6483863150838
 20
295.0540365498722
 10
332.5768212103861
 20
294.9664638017468
 10
332.5184619124803
 20
294.8644888802822
 10
332.4887430699472
 20
294.7520947392188
 10
332.4624184012935
 20
294.6625159566601
 10
332.4428955863204
 20
294.5626920937676
 10
332.4478627431333
 20
294.4548472056454
 10
332.454975939018
 20
294.3546863946415
 10
332.4867346289418
 20
294.2831865717148
 10
332.5229021513321
 20
294.2322836247856
 10
332.5671887871867
 20
294.1762196720867
 10
332.6156480515043
 20
294.1390886977566
 10
332.6557278186149
 20
294.0718234426159
 10
332.7258860988774
 20
294.0632399109398
 10
332.7704814929532
 20
294.0461561210628
 10
332.7844609814146
 20
294.0408008002183
 72
     1
 10
332.7844609814146
 20
294.0408008002183
 11
333.9154899964191
 21
294.0408008002182
 72
     1
 10
333.9154899964191
 20
294.0408008002182
 11
334.1591067170979
 21
294.5293706785589
 72
     1
 10
334.1591067170979
 20
294.5293706785589
 11
333.3194256962259
 21
294.5293706785589
 72
     4
 94
        3
 73
     0
 74
     0
 95
       16
 96
       12
 40
0.0
 40
0.0
 40
0.0
 40
0.0
 40
0.0719416665231652
 40
0.1446253590759511
 40
0.1879779149910863
 40
0.229544093610429
 40
0.2751936323958108
 40
0.3070718656052417
 40
0.3373215422371831
 40
0.3986635435213285
 40
0.5242542460842448
 40
0.5242542460842448
 40
0.5242542460842448
 40
0.5242542460842448
 10
333.3194256962258
 20
294.5293706785589
 10
333.2940979575541
 20
294.5368224706474
 10
333.243181242985
 20
294.5518029146466
 10
333.2389199251375
 20
294.6244226037841
 10
333.2447253541992
 20
294.6761700747432
 10
333.2690385040765
 20
294.7138452554593
 10
333.2985345719369
 20
294.7412589064951
 10
333.3095172661887
 20
294.7769609006771
 10
333.3417998953128
 20
294.8039203729937
 10
333.3990456467038
 20
294.8492354799693
 10
333.4623495379152
 20
294.8588865852549
 10
333.5048802455367
 20
294.8653706785589
 72
     1
 10
333.5048802455367
 20
294.865370678559
 11
334.3266471688878
 21
294.865370678559
 72
     1
 10
334.3266471688878
 20
294.865370678559
 11
334.5702664694284
 21
295.3539457307758
 72
     1
 10
334.5702664694284
 20
295.3539457307758
 11
333.255230127322
 21
295.3539457307758
 97
        8
330
EDB
330
EDD
330
EDA
330
EDE
330
EDF
330
EDC
330
EE0
330
EE1
 75
     0
 76
     1
 47
0.0514683685270805
 98
        1
 10
333.482147557007
 20
295.1135044275967
450
        0
451
        0
460
0.0
461
0.0
452
        0
462
0.0
453
        0
470

  0
HATCH
  5
EF1
330
18
100
AcDbEntity
  8
ROGO
 62
     4
100
AcDbHatch
 10
0.0
 20
0.0
 30
0.0
210
0.0
220
0.0
230
1.0
  2
SOLID
 70
     1
 71
     0
 91
        1
 92
        7
 72
     0
 73
     1
 93
        4
 10
321.7359190337196
 20
293.507737152161
 10
321.6428679982977
 20
293.3020669458698
 10
333.8221605668807
 20
293.3020669458698
 10
333.9247143742668
 20
293.5077371521611
 97
        0
 75
     0
 76
     1
 47
0.0514683685270805
 98
        1
 10
329.4321542946079
 20
293.4533406879562
450
        0
451
        0
460
0.0
461
0.0
452
        0
462
0.0
453
        0
470

  0
HATCH
  5
EF2
330
18
100
AcDbEntity
  8
ROGO
 62
     4
100
AcDbHatch
 10
0.0
 20
0.0
 30
0.0
210
0.0
220
0.0
230
1.0
  2
SOLID
 70
     1
 71
     1
 91
        1
 92
        7
 72
     0
 73
     1
 93
       11
 10
333.8221605668806
 20
293.3020669458698
 10
334.5782443093849
 20
293.3020669458698
 10
334.8452935985505
 20
293.8376305079893
 10
335.1123428877162
 20
293.3020669458698
 10
335.8684100877162
 20
293.3020669458698
 10
335.3568435718813
 20
294.3280063383227
 10
336.5997523172126
 20
295.3539457307758
 10
335.8436851172126
 20
295.3539457307758
 10
335.4896720341337
 20
295.1299223219541
 10
335.6013773410547
 20
295.3539457307758
 10
334.8452935985505
 20
295.3539457307757
 97
       11
330
EEA
330
EE5
330
EE4
330
EE2
330
EE3
330
EB6
330
EE8
330
EE6
330
EEB
330
EE7
330
EE9
 75
     0
 76
     1
 47
0.0514683685270805
 98
        1
 10
334.7802223521467
 20
294.4736497473343
450
        0
451
        0
460
0.0
461
0.0
452
        0
462
0.0
453
        0
470

  0
HATCH
  5
EF3
330
18
100
AcDbEntity
  8
ROGO
 62
     4
100
AcDbHatch
 10
0.0
 20
0.0
 30
0.0
210
0.0
220
0.0
230
1.0
  2
SOLID
 70
     1
 71
     1
 91
        2
 92
        5
 93
        6
 72
     1
 10
320.6890670423612
 20
293.3020669458699
 11
321.6428679982976
 21
293.3020669458699
 72
     1
 10
321.6428679982976
 20
293.3020669458699
 11
321.9770921491261
 21
294.0408008002183
 72
     1
 10
321.9770921491261
 20
294.0408008002183
 11
322.8687004172981
 21
294.0408008002182
 72
     4
 94
        3
 73
     0
 74
     0
 95
       18
 96
       14
 40
0.108740278791501
 40
0.108740278791501
 40
0.108740278791501
 40
0.108740278791501
 40
0.6623149649549278
 40
1.384304701649787
 40
2.097394834876493
 40
2.774073369849618
 40
3.428974823686337
 40
4.005208313035923
 40
4.455173659284313
 40
4.720999734343524
 40
5.086034088486724
 40
5.569973738255373
 40
6.060470601257719
 40
6.060470601257719
 40
6.060470601257719
 40
6.060470601257719
 10
322.8687004172982
 20
294.0408008002183
 10
322.9314503341929
 20
294.0412680798494
 10
323.0760406912465
 20
294.042344800458
 10
323.2783214693537
 20
294.1504076369534
 10
323.4701414424467
 20
294.2880718172951
 10
323.6246393815282
 20
294.460068848097
 10
323.7208962524042
 20
294.6567179856176
 10
323.7358061374513
 20
294.8451881211894
 10
323.7267040189404
 20
294.9942656553458
 10
323.6616648103974
 20
295.0981763976487
 10
323.5940486164726
 20
295.2036351748215
 10
323.4700633809254
 20
295.2949874846128
 10
323.368475433075
 20
295.3350133759281
 10
323.3168158954389
 20
295.3539457307758
 72
     1
 10
323.316815895439
 20
295.3539457307758
 11
321.7043175824537
 21
295.3539457307758
 72
     1
 10
321.7043175824537
 20
295.3539457307758
 11
320.6890670423612
 21
293.3020669458699
 97
        6
330
EB8
330
EB5
330
EB7
330
EB6
330
EBE
330
EB9
 92
       20
 93
        4
 72
     1
 10
322.1834566414362
 20
294.496927134677
 11
322.3414544377936
 21
294.8461488195624
 72
     1
 10
322.3414544377936
 20
294.8461488195624
 11
322.747441436891
 21
294.8461488195624
 72
     4
 94
        3
 73
     0
 74
     0
 95
       15
 96
       11
 40
0.0
 40
0.0
 40
0.0
 40
0.0
 40
0.1539705029175028
 40
0.2241725832587281
 40
0.3038566179396687
 40
0.3581410872474193
 40
0.443992538467216
 40
0.4954152125469665
 40
0.5836396705646186
 40
0.6130478420065743
 40
0.6130478420065743
 40
0.6130478420065743
 40
0.6130478420065743
 10
322.7474414368911
 20
294.8461488195624
 10
322.8052697719503
 20
294.8464137042049
 10
322.8894646470084
 20
294.8467993616747
 10
322.9355054033729
 20
294.742650057745
 10
322.9148677411395
 20
294.6755941531077
 10
322.8889245177153
 20
294.6067486388598
 10
322.8430769661729
 20
294.5599670735905
 10
322.7815428365779
 20
294.5149085399536
 10
322.7233901435221
 20
294.5094540026939
 10
322.6855683445495
 20
294.4994325092399
 10
322.6761128902802
 20
294.496927134677
 72
     1
 10
322.6761128902802
 20
294.496927134677
 11
322.1834566414362
 21
294.496927134677
 97
        4
330
EBA
330
EBC
330
EBB
330
EBD
 75
     0
 76
     1
 47
0.0514683685270805
 98
        2
 10
321.7129361357607
 20
294.7157569738868
 10
321.7129361357607
 20
294.7157569738868
450
        0
451
        0
460
0.0
461
0.0
452
        0
462
0.0
453
        0
470

  0
LINE
  5
EF4
102
{ACAD_REACTORS
330
EF7
102
}
330
18
100
AcDbEntity
  8
ROGO
 62
     4
100
AcDbLine
 10
327.6104207850976
 20
295.3539457307758
 30
0.0
 11
328.1937717954809
 21
294.0408008002183
 31
0.0
  0
LINE
  5
EF5
102
{ACAD_REACTORS
330
EF7
102
}
330
18
100
AcDbEntity
  8
ROGO
 62
     4
100
AcDbLine
 10
327.0341451589579
 20
295.002936753824
 30
0.0
 11
327.2333525446833
 21
294.5545134820051
 31
0.0
  0
LINE
  5
EF6
102
{ACAD_REACTORS
330
EF7
102
}
330
18
100
AcDbEntity
  8
ROGO
 62
     4
100
AcDbLine
 10
327.3504976502839
 20
294.2908154703091
 30
0.0
 11
327.4615640733527
 21
294.0408008002183
 31
0.0
  0
HATCH
  5
EF7
330
18
100
AcDbEntity
  8
ROGO
 62
     4
100
AcDbHatch
 10
0.0
 20
0.0
 30
0.0
210
0.0
220
0.0
230
1.0
  2
SOLID
 70
     1
 71
     1
 91
        2
 92
        7
 72
     0
 73
     1
 93
        8
 10
327.6104207850977
 20
295.3539457307758
 10
326.5600173023261
 20
295.3539457307758
 10
325.6130829722271
 20
294.0408008002183
 10
326.3403302239185
 20
294.0408008002183
 10
326.5206206614994
 20
294.2908154703091
 10
327.3504976502838
 20
294.2908154703091
 10
327.4615640733527
 20
294.0408008002183
 10
328.1937717954808
 20
294.0408008002183
 97
        8
330
ED0
330
ECA
330
ECF
330
ECE
330
ECC
330
EF6
330
ED1
330
EF4
 92
       22
 72
     0
 73
     1
 93
        3
 10
327.2333525446833
 20
294.5545134820052
 10
326.7107784226446
 20
294.5545134820051
 10
327.0341451589578
 20
295.0029367538241
 97
        3
330
ECD
330
ECB
330
EF5
 75
     0
 76
     1
 47
0.0128389261915577
 98
        2
 10
327.5281658926018
 20
295.0389038139667
 10
327.5281658926018
 20
295.0389038139667
450
        0
451
        0
460
0.0
461
0.0
452
        0
462
0.0
453
        0
470

  0
SPLINE
  5
EF8
102
{ACAD_REACTORS
330
EFF
102
}
330
18
100
AcDbEntity
  8
ROGO
 62
     4
100
AcDbSpline
210
0.0
220
0.0
230
1.0
 70
     8
 71
     3
 72
    38
 73
    34
 74
    32
 42
0.0000000001
 43
0.0000000001
 44
0.0000000001
 40
0.0
 40
0.0
 40
0.0
 40
0.0
 40
0.1807680148264315
 40
0.2375392910068956
 40
0.3104865209606157
 40
0.3712759982447458
 40
0.422566754387306
 40
0.490692583720658
 40
0.5255021974951946
 40
0.5647069597052371
 40
0.622487401681883
 40
0.6879401044674746
 40
0.7303986317551266
 40
0.7765228362185534
 40
0.8277951442290254
 40
0.9056034697002209
 40
0.9795294930264187
 40
1.013897332332996
 40
1.053089255536027
 40
1.099518741889647
 40
1.132570569820733
 40
1.160277520290299
 40
1.19983678629386
 40
1.243305643169139
 40
1.286774258016964
 40
1.324809356515675
 40
1.411916492917645
 40
1.446284332224223
 40
1.5150200516612
 40
1.575779369908399
 40
1.69209852953623
 40
1.835624328519098
 40
2.042896467983898
 40
2.042896467983898
 40
2.042896467983898
 40
2.042896467983898
 10
331.0684220185433
 20
295.3594229499481
 30
0.0
 10
331.0081666209176
 20
295.3551663308472
 30
0.0
 10
330.9289876552965
 20
295.3495728950599
 30
0.0
 10
330.8284488827869
 20
295.3220282688552
 30
0.0
 10
330.7736441283458
 20
295.2892137493972
 30
0.0
 10
330.7166088270288
 20
295.2650935046967
 30
0.0
 10
330.6679809206436
 20
295.2293762054474
 30
0.0
 10
330.6187948199479
 20
295.210971425254
 30
0.0
 10
330.584353206572
 20
295.1777843168815
 30
0.0
 10
330.5444898484391
 20
295.1575121987064
 30
0.0
 10
330.5127459486038
 20
295.112137304692
 30
0.0
 10
330.4772652720722
 20
295.0697134230337
 30
0.0
 10
330.4361032236648
 20
295.0387458814561
 30
0.0
 10
330.4023209781056
 20
295.0062209024938
 30
0.0
 10
330.3713304651811
 20
294.9560250873099
 30
0.0
 10
330.3529888926101
 20
294.8893297126243
 30
0.0
 10
330.3012870782008
 20
294.8472206583391
 30
0.0
 10
330.2935024037176
 20
294.796593010663
 30
0.0
 10
330.2649045535219
 20
294.7667235504722
 30
0.0
 10
330.252469208066
 20
294.7281663684874
 30
0.0
 10
330.2477332299422
 20
294.6928411791666
 30
0.0
 10
330.2420489268998
 20
294.6598498977382
 30
0.0
 10
330.2271798666672
 20
294.6251445270006
 30
0.0
 10
330.2320331792287
 20
294.5822742480654
 30
0.0
 10
330.2306506161865
 20
294.540761534039
 30
0.0
 10
330.2314642561598
 20
294.4847180774274
 30
0.0
 10
330.2285277168138
 20
294.430152880508
 30
0.0
 10
330.2519454673288
 20
294.3707730043396
 30
0.0
 10
330.2658033149317
 20
294.3178440596731
 30
0.0
 10
330.3037552848752
 20
294.2445575174216
 30
0.0
 10
330.3692216376932
 20
294.1600006937127
 30
0.0
 10
330.4937113837106
 20
294.0573647304199
 30
0.0
 10
330.6134119142699
 20
294.0469527897026
 30
0.0
 10
330.6841380570002
 20
294.0408008002183
 30
0.0
 11
331.0684220185433
 21
295.3594229499481
 31
0.0
 11
330.888965381596
 21
295.3376884004967
 31
0.0
 11
330.8345845954678
 21
295.3213878514494
 31
0.0
 11
330.7693279084598
 21
295.2887862692998
 31
0.0
 11
330.7149471223317
 21
295.2616184455267
 31
0.0
 11
330.6714426643264
 21
295.2344503797263
 31
0.0
 11
330.6116239277583
 21
295.2018490396041
 31
0.0
 11
330.5844333210727
 21
295.1801147321802
 31
0.0
 11
330.5518047639472
 21
295.1583801827288
 31
0.0
 11
330.5137382563818
 21
295.1149115678809
 31
0.0
 11
330.4702337983765
 21
295.066009436684
 31
0.0
 11
330.4376052412509
 21
295.0388413708835
 31
0.0
 11
330.4049771113684
 21
295.0062400307614
 31
0.0
 11
330.3777865046829
 21
294.9627714159135
 31
0.0
 11
330.3451583748004
 21
294.8921347352652
 31
0.0
 11
330.301653489552
 21
294.8323653293426
 31
0.0
 11
330.2907775886723
 21
294.799763747193
 31
0.0
 11
330.2690253596696
 21
294.7671624070708
 31
0.0
 11
330.2527110811068
 21
294.7236935501956
 31
0.0
 11
330.2472727034238
 21
294.6910922100733
 31
0.0
 11
330.2418347529839
 21
294.6639241442729
 31
0.0
 11
330.2309588521041
 21
294.6258892878016
 31
0.0
 11
330.2309588521041
 21
294.5824204309263
 31
0.0
 11
330.2309588521041
 21
294.5389518160785
 31
0.0
 11
330.2309588521041
 21
294.5009167175798
 31
0.0
 11
330.2363968025441
 21
294.4139794878841
 31
0.0
 11
330.2472727034238
 21
294.3813779057345
 31
0.0
 11
330.2690253596696
 21
294.3161749834628
 31
0.0
 11
330.2962155391122
 21
294.2618390938893
 31
0.0
 11
330.366910603803
 21
294.1694683478445
 31
0.0
 11
330.4811101264994
 21
294.0825308761213
 31
0.0
 11
330.6841380570002
 21
294.0408008002183
 31
0.0
  0
SPLINE
  5
EF9
102
{ACAD_REACTORS
330
EFF
102
}
330
18
100
AcDbEntity
  8
ROGO
 62
     4
100
AcDbSpline
210
0.0
220
0.0
230
1.0
 70
     8
 71
     3
 72
    25
 73
    21
 74
     0
 42
0.0000000001
 43
0.0000000001
 40
0.0
 40
0.0
 40
0.0
 40
0.0
 40
0.4087168505087288
 40
0.6887487002771746
 40
0.9415836120477687
 40
1.17452070575514
 40
1.41154617586699
 40
1.599156012919487
 40
1.80099909059943
 40
2.178735911501585
 40
2.521686161369157
 40
2.762704659361267
 40
3.06256558063785
 40
3.222432137207705
 40
3.399493810628493
 40
3.567459719866414
 40
3.743172740007509
 40
3.995988754699505
 40
4.17170091132118
 40
4.337226830236035
 40
4.337226830236035
 40
4.337226830236035
 40
4.337226830236035
 10
331.8188758417286
 20
295.3594229499481
 30
0.0
 10
331.8680958921542
 20
295.3578415604919
 30
0.0
 10
331.9510389998727
 20
295.355176683986
 30
0.0
 10
332.0400886584939
 20
295.2855739946104
 30
0.0
 10
332.1082268792532
 20
295.2278680322955
 30
0.0
 10
332.1565922341138
 20
295.1581042259613
 30
0.0
 10
332.1989858227563
 20
295.0939601222842
 30
0.0
 10
332.2269199835254
 20
295.0262387076181
 30
0.0
 10
332.2649159612002
 20
294.9449792120812
 30
0.0
 10
332.2806444188474
 20
294.8362660796501
 30
0.0
 10
332.2700179755108
 20
294.7239010266046
 30
0.0
 10
332.2422879200133
 20
294.6242997429012
 30
0.0
 10
332.2132013213133
 20
294.547887977757
 30
0.0
 10
332.1789193023959
 20
294.4813667957664
 30
0.0
 10
332.1380507550918
 20
294.4382943252673
 30
0.0
 10
332.1096977995528
 20
294.3835280989198
 30
0.0
 10
332.0552353988356
 20
294.3387322660464
 30
0.0
 10
332.011085239029
 20
294.2834604955924
 30
0.0
 10
331.9609840023892
 20
294.2360201472538
 30
0.0
 10
331.9327367030853
 20
294.2067500240321
 30
0.0
 10
331.9178440456916
 20
294.1944432800864
 30
0.0
  0
LINE
  5
EFA
102
{ACAD_REACTORS
330
EFF
102
}
330
18
100
AcDbEntity
  8
ROGO
 62
     4
100
AcDbLine
 10
331.0684220185433
 20
295.3594229499481
 30
0.0
 11
331.8188758417286
 21
295.3594229499481
 31
0.0
  0
LINE
  5
EFB
102
{ACAD_REACTORS
330
EFF
102
}
330
18
100
AcDbEntity
  8
ROGO
 62
     4
100
AcDbLine
 10
330.6841380570002
 20
294.0408008002183
 30
0.0
 11
331.4345918801855
 21
294.0408008002183
 31
0.0
  0
SPLINE
  5
EFC
102
{ACAD_REACTORS
330
EFF
102
}
330
18
100
AcDbEntity
  8
ROGO
 62
     4
100
AcDbSpline
210
0.0
220
0.0
230
1.0
 70
     8
 71
     3
 72
    11
 73
     7
 74
     0
 42
0.0000000001
 43
0.0000000001
 40
0.1647869275458134
 40
0.1647869275458134
 40
0.1647869275458134
 40
0.1647869275458134
 40
0.2895635144633836
 40
0.5387013147903714
 40
0.7953622617455423
 40
0.8850764140209602
 40
0.8850764140209602
 40
0.8850764140209602
 40
0.8850764140209602
 10
331.6846093388035
 20
294.0700772471269
 30
0.0
 10
331.6706307960027
 20
294.0661863144104
 30
0.0
 10
331.6272897845685
 20
294.0592587246265
 30
0.0
 10
331.5545910174304
 20
294.0497463302531
 30
0.0
 10
331.485494475334
 20
294.0398197996685
 30
0.0
 10
331.4450637805054
 20
294.0405989845753
 30
0.0
 10
331.4345918801855
 20
294.0408008002183
 30
0.0
  0
SPLINE
  5
EFD
102
{ACAD_REACTORS
330
EFF
102
}
330
18
100
AcDbEntity
  8
ROGO
 62
     4
100
AcDbSpline
210
0.0
220
0.0
230
1.0
 70
     8
 71
     3
 72
     9
 73
     5
 74
     3
 42
0.0000000001
 43
0.0000000001
 44
0.0000000001
 40
0.0
 40
0.0
 40
0.0
 40
0.0
 40
0.1135793343552172
 40
0.2662938392177403
 40
0.2662938392177403
 40
0.2662938392177403
 40
0.2662938392177403
 10
331.6846093388035
 20
294.0700772471269
 30
0.0
 10
331.7210943071215
 20
294.0812395868501
 30
0.0
 10
331.806635592799
 20
294.107410389104
 30
0.0
 10
331.8773122900357
 20
294.1627227068785
 30
0.0
 10
331.9178440456916
 20
294.1944432800864
 30
0.0
 11
331.6846093388035
 21
294.0700772471269
 31
0.0
 11
331.7913601030282
 21
294.1088656413966
 31
0.0
 11
331.9178440456916
 21
294.1944432800864
 31
0.0
  0
ELLIPSE
  5
EFE
102
{ACAD_REACTORS
330
EFF
102
}
330
18
100
AcDbEntity
  8
ROGO
 62
     4
100
AcDbEllipse
 10
331.240880413174
 20
294.6817269577291
 30
0.0
 11
0.1782847090673272
 21
0.1567790921840611
 31
0.0
210
0.0
220
0.0
230
1.0
 40
0.6788083417438792
 41
0.0
 42
6.283185307179586
  0
HATCH
  5
EFF
330
18
100
AcDbEntity
  8
ROGO
 62
     4
100
AcDbHatch
 10
0.0
 20
0.0
 30
0.0
210
0.0
220
0.0
230
1.0
  2
SOLID
 70
     1
 71
     1
 91
        2
 92
        5
 93
        6
 72
     4
 94
        3
 73
     0
 74
     0
 95
       38
 96
       34
 40
0.0
 40
0.0
 40
0.0
 40
0.0
 40
0.1807680148264315
 40
0.2375392910068956
 40
0.3104865209606157
 40
0.3712759982447458
 40
0.422566754387306
 40
0.490692583720658
 40
0.5255021974951946
 40
0.5647069597052371
 40
0.622487401681883
 40
0.6879401044674746
 40
0.7303986317551266
 40
0.7765228362185534
 40
0.8277951442290254
 40
0.9056034697002209
 40
0.9795294930264187
 40
1.013897332332996
 40
1.053089255536027
 40
1.099518741889647
 40
1.132570569820733
 40
1.160277520290299
 40
1.19983678629386
 40
1.243305643169139
 40
1.286774258016964
 40
1.324809356515675
 40
1.411916492917645
 40
1.446284332224223
 40
1.5150200516612
 40
1.575779369908399
 40
1.69209852953623
 40
1.835624328519098
 40
2.042896467983898
 40
2.042896467983898
 40
2.042896467983898
 40
2.042896467983898
 10
331.0684220185433
 20
295.3594229499481
 10
331.0081666209176
 20
295.3551663308472
 10
330.9289876552965
 20
295.3495728950599
 10
330.8284488827869
 20
295.3220282688552
 10
330.7736441283458
 20
295.2892137493972
 10
330.7166088270288
 20
295.2650935046967
 10
330.6679809206436
 20
295.2293762054474
 10
330.6187948199479
 20
295.210971425254
 10
330.584353206572
 20
295.1777843168815
 10
330.5444898484391
 20
295.1575121987064
 10
330.5127459486038
 20
295.112137304692
 10
330.4772652720722
 20
295.0697134230337
 10
330.4361032236648
 20
295.0387458814561
 10
330.4023209781056
 20
295.0062209024938
 10
330.3713304651811
 20
294.9560250873099
 10
330.3529888926101
 20
294.8893297126243
 10
330.3012870782008
 20
294.8472206583391
 10
330.2935024037176
 20
294.796593010663
 10
330.2649045535219
 20
294.7667235504722
 10
330.252469208066
 20
294.7281663684874
 10
330.2477332299422
 20
294.6928411791666
 10
330.2420489268998
 20
294.6598498977382
 10
330.2271798666672
 20
294.6251445270006
 10
330.2320331792287
 20
294.5822742480654
 10
330.2306506161865
 20
294.540761534039
 10
330.2314642561598
 20
294.4847180774274
 10
330.2285277168138
 20
294.430152880508
 10
330.2519454673288
 20
294.3707730043396
 10
330.2658033149317
 20
294.3178440596731
 10
330.3037552848752
 20
294.2445575174216
 10
330.3692216376932
 20
294.1600006937127
 10
330.4937113837106
 20
294.0573647304199
 10
330.6134119142699
 20
294.0469527897026
 10
330.6841380570002
 20
294.0408008002183
 72
     1
 10
330.6841380570002
 20
294.0408008002183
 11
331.434591880186
 21
294.0408008002183
 72
     4
 94
        3
 73
     0
 74
     0
 95
       11
 96
        7
 40
0.1647869275458135
 40
0.1647869275458135
 40
0.1647869275458135
 40
0.1647869275458135
 40
0.2545010798212315
 40
0.5111620267764023
 40
0.7602998271033902
 40
0.8850764140209603
 40
0.8850764140209603
 40
0.8850764140209603
 40
0.8850764140209603
 10
331.4345918801855
 20
294.0408008002183
 10
331.4450637805054
 20
294.0405989845753
 10
331.485494475334
 20
294.0398197996685
 10
331.5545910174304
 20
294.0497463302531
 10
331.6272897845685
 20
294.0592587246265
 10
331.6706307960027
 20
294.0661863144104
 10
331.6846093388035
 20
294.0700772471269
 72
     4
 94
        3
 73
     0
 74
     0
 95
        9
 96
        5
 40
0.0
 40
0.0
 40
0.0
 40
0.0
 40
0.1135793343552172
 40
0.2662938392177403
 40
0.2662938392177403
 40
0.2662938392177403
 40
0.2662938392177403
 10
331.6846093388035
 20
294.0700772471269
 10
331.7210943071215
 20
294.0812395868501
 10
331.806635592799
 20
294.107410389104
 10
331.8773122900357
 20
294.1627227068785
 10
331.9178440456916
 20
294.1944432800864
 72
     4
 94
        3
 73
     0
 74
     0
 95
       25
 96
       21
 40
0.0
 40
0.0
 40
0.0
 40
0.0
 40
0.165525918914855
 40
0.3412380755365305
 40
0.5940540902285263
 40
0.7697671103696209
 40
0.9377330196075423
 40
1.11479469302833
 40
1.274661249598185
 40
1.574522170874768
 40
1.815540668866877
 40
2.15849091873445
 40
2.536227739636605
 40
2.738070817316548
 40
2.925680654369045
 40
3.162706124480894
 40
3.395643218188267
 40
3.648478129958861
 40
3.928509979727306
 40
4.337226830236035
 40
4.337226830236035
 40
4.337226830236035
 40
4.337226830236035
 10
331.9178440456916
 20
294.1944432800864
 10
331.9327367030853
 20
294.2067500240321
 10
331.9609840023892
 20
294.2360201472538
 10
332.011085239029
 20
294.2834604955924
 10
332.0552353988356
 20
294.3387322660464
 10
332.1096977995528
 20
294.3835280989198
 10
332.1380507550918
 20
294.4382943252673
 10
332.1789193023959
 20
294.4813667957664
 10
332.2132013213133
 20
294.547887977757
 10
332.2422879200133
 20
294.6242997429012
 10
332.2700179755108
 20
294.7239010266046
 10
332.2806444188474
 20
294.8362660796501
 10
332.2649159612002
 20
294.9449792120812
 10
332.2269199835254
 20
295.0262387076181
 10
332.1989858227563
 20
295.0939601222842
 10
332.1565922341138
 20
295.1581042259613
 10
332.1082268792532
 20
295.2278680322955
 10
332.0400886584939
 20
295.2855739946104
 10
331.9510389998727
 20
295.355176683986
 10
331.8680958921542
 20
295.3578415604919
 10
331.8188758417286
 20
295.3594229499481
 72
     1
 10
331.8188758417287
 20
295.3594229499481
 11
331.0684220185432
 21
295.3594229499481
 97
        6
330
EF9
330
EFA
330
EF8
330
EFB
330
EFC
330
EFD
 92
       20
 93
        1
 72
     3
 10
331.240880413174
 20
294.6817269577291
 11
0.1782847090673273
 21
0.1567790921840611
 40
0.6788083417438792
 50
0.0
 51
360.0
 73
     1
 97
        1
330
EFE
 75
     0
 76
     1
 47
0.088756267210375
 98
        2
 10
331.2933116889427
 20
294.9952142280531
 10
331.2933116889427
 20
294.9952142280531
450
        0
451
        0
460
0.0
461
0.0
452
        0
462
0.0
453
        0
470

  0
ARC
  5
F7B
330
18
100
AcDbEntity
  8
外形線
100
AcDbCircle
 10
436.0055800864189
 20
285.9889790896693
 30
0.0
 40
8.0
100
AcDbArc
 50
270.0
 51
90.0
  0
CIRCLE
  5
F7C
330
18
100
AcDbEntity
  8
外形線
100
AcDbCircle
 10
436.0055800864189
 20
285.9889790896693
 30
0.0
 40
3.25
  0
ARC
  5
F7D
330
18
100
AcDbEntity
  8
外形線
100
AcDbCircle
 10
436.0055800864189
 20
285.9889790896693
 30
0.0
 40
7.5
100
AcDbArc
 50
270.0
 51
90.0
  0
LINE
  5
F7E
330
18
100
AcDbEntity
  8
外形線
100
AcDbLine
 10
436.0055800864189
 20
293.9889790896693
 30
0.0
 11
426.1743651871317
 21
293.9889790896693
 31
0.0
  0
LINE
  5
F7F
330
18
100
AcDbEntity
  8
外形線
100
AcDbLine
 10
436.0055800864189
 20
277.9889790896693
 30
0.0
 11
426.1743651871317
 21
277.9889790896693
 31
0.0
  0
LINE
  5
F8E
330
18
100
AcDbEntity
  8
外形線
100
AcDbLine
 10
422.5055800864188
 20
309.0889790896692
 30
0.0
 11
422.7055800864189
 21
309.0889790896692
 31
0.0
  0
LINE
  5
F8F
330
18
100
AcDbEntity
  8
外形線
100
AcDbLine
 10
422.5055800864188
 20
262.8889790896693
 30
0.0
 11
422.7055800864189
 21
262.8889790896693
 31
0.0
  0
ARC
  5
F90
330
18
100
AcDbEntity
  8
外形線
100
AcDbCircle
 10
436.0055800864189
 20
285.9889790896693
 30
0.0
 40
8.0
100
AcDbArc
 50
270.0
 51
90.0
  0
LINE
  5
F96
330
18
100
AcDbEntity
  8
外形線
100
AcDbLine
 10
436.0055800864189
 20
293.4889790896693
 30
0.0
 11
425.0055800864188
 21
293.4889790896693
 31
0.0
  0
LINE
  5
F97
330
18
100
AcDbEntity
  8
外形線
100
AcDbLine
 10
436.0055800864189
 20
278.4889790896693
 30
0.0
 11
425.0055800864188
 21
278.4889790896693
 31
0.0
  0
LINE
  5
F9A
330
18
100
AcDbEntity
  8
中心線
 48
0.5
100
AcDbLine
 10
436.0055800864188
 20
297.923947345247
 30
0.0
 11
436.005580086419
 21
251.9437465800148
 31
0.0
  0
LINE
  5
FA4
330
18
100
AcDbEntity
  8
想像線
 48
0.5
100
AcDbLine
 10
431.5055800864189
 20
277.9889790896693
 30
0.0
 11
431.5055800864189
 21
293.9889790896693
 31
0.0
  0
LINE
  5
FA5
330
18
100
AcDbEntity
  8
想像線
 48
0.5
100
AcDbLine
 10
426.5055800864188
 20
277.9873933462164
 30
0.0
 11
426.5055800864188
 21
293.9905648331222
 31
0.0
  0
LINE
  5
FD6
330
18
100
AcDbEntity
  8
0
  6
ByBlock
 62
     2
100
AcDbLine
 10
418.5055800864189
 20
253.1937465800148
 30
0.0
 11
433.5055800864188
 21
253.1937465800148
 31
0.0
  0
INSERT
  5
FD7
330
18
100
AcDbEntity
  8
0
  6
ByBlock
 62
     2
100
AcDbBlockReference
  2
_OPEN
 10
416.0055800864189
 20
253.1937465800148
 30
0.0
 41
2.5
 42
2.5
 43
2.5
 50
180.0
  0
INSERT
  5
FD8
330
18
100
AcDbEntity
  8
0
  6
ByBlock
 62
     2
100
AcDbBlockReference
  2
_OPEN
 10
436.0055800864189
 20
253.1937465800148
 30
0.0
 41
2.5
 42
2.5
 43
2.5
  0
MTEXT
  5
FD9
330
18
100
AcDbEntity
  8
0
  6
ByBlock
 62
     6
100
AcDbMText
 10
426.0055800864189
 20
255.0687465800148
 30
0.0
 40
2.5
 41
0.0
 71
     5
 72
     1
  1
\A1;20
  7
STYLE3
 73
     1
 44
1.0
  0
POINT
  5
FDC
330
18
100
AcDbEntity
  8
DEFPOINTS
  6
ByBlock
 62
     0
100
AcDbPoint
 10
436.0055800864189
 20
253.1937465800148
 30
0.0
  0
LINE
  5
FDD
330
18
100
AcDbEntity
  8
0
  6
ByBlock
 62
     2
100
AcDbLine
 10
425.0055800864188
 20
293.4889790896693
 30
0.0
 11
425.0055800864188
 21
264.9545335743155
 31
0.0
  0
LINE
  5
FDF
330
18
100
AcDbEntity
  8
0
  6
ByBlock
 62
     2
100
AcDbLine
 10
427.5055800864189
 20
266.2045335743155
 30
0.0
 11
433.5055800864188
 21
266.2045335743155
 31
0.0
  0
INSERT
  5
FE0
330
18
100
AcDbEntity
  8
0
  6
ByBlock
 62
     2
100
AcDbBlockReference
  2
_OPEN
 10
425.0055800864188
 20
266.2045335743155
 30
0.0
 41
2.5
 42
2.5
 43
2.5
 50
180.0
  0
INSERT
  5
FE1
330
18
100
AcDbEntity
  8
0
  6
ByBlock
 62
     2
100
AcDbBlockReference
  2
_OPEN
 10
436.0055800864189
 20
266.2045335743155
 30
0.0
 41
2.5
 42
2.5
 43
2.5
  0
MTEXT
  5
FE2
330
18
100
AcDbEntity
  8
0
  6
ByBlock
 62
     6
100
AcDbMText
 10
430.5055800864188
 20
268.0795335743155
 30
0.0
 40
2.5
 41
0.0
 71
     5
 72
     1
  1
\A1;11
  7
STYLE3
 73
     1
 44
1.0
  0
POINT
  5
FE3
330
18
100
AcDbEntity
  8
DEFPOINTS
  6
ByBlock
 62
     0
100
AcDbPoint
 10
425.0055800864188
 20
293.4889790896693
 30
0.0
  0
ARC
  5
1008
330
18
100
AcDbEntity
  8
外形線
100
AcDbCircle
 10
275.3805800864156
 20
285.9889790896692
 30
0.0
 40
149.1250000000032
100
AcDbArc
 50
351.0887943333476
 51
356.2059438278885
  0
ARC
  5
100B
330
18
100
AcDbEntity
  8
外形線
100
AcDbCircle
 10
275.3805800864156
 20
285.9889790896692
 30
0.0
 40
149.1250000000032
100
AcDbArc
 50
3.794056172111559
 51
8.911205666652444
  0
ARC
  5
100C
330
18
100
AcDbEntity
  8
外形線
100
AcDbCircle
 10
426.1743651871317
 20
295.9889790896692
 30
0.0
 40
2.0
100
AcDbArc
 50
183.7940561721114
 51
270.0
  0
ARC
  5
100D
330
18
100
AcDbEntity
  8
外形線
100
AcDbCircle
 10
426.1743651871317
 20
275.9889790896693
 30
0.0
 40
2.0
100
AcDbArc
 50
90.0
 51
176.2059438278884
  0
ARC
  5
100F
330
18
100
AcDbEntity
  8
外形線
100
AcDbCircle
 10
275.3805800864146
 20
285.9889790896693
 30
0.0
 40
149.1250000000042
100
AcDbArc
 50
356.2059438278885
 51
3.794056172111511
  0
TEXT
  5
10AC
330
18
100
AcDbEntity
  8
文字
100
AcDbText
 10
322.0935371959117
 20
291.3856544255245
 30
0.0
 40
1.0
  1
MADE  IN  JAPAN
  7
STYLE3
100
AcDbText
  0
TEXT
  5
10AD
330
18
100
AcDbEntity
  8
文字
100
AcDbText
 10
324.7818826640672
 20
289.2909723112374
 30
0.0
 40
1.0
  1
NO.207S
  7
STYLE3
100
AcDbText
  0
TEXT
  5
10B0
330
18
100
AcDbEntity
  8
文字
100
AcDbText
 10
332.6015196798281
 20
271.6300634832814
 30
0.0
 40
1.0
  1
S
 50
16.30158499689103
  7
STYLE3
100
AcDbText
  0
TEXT
  5
10B1
330
18
100
AcDbEntity
  8
文字
100
AcDbText
 10
333.4296679579911
 20
271.9439763196064
 30
0.0
 40
1.0
  1
H
 50
17.89140661023129
  7
STYLE3
100
AcDbText
  0
TEXT
  5
10B2
330
18
100
AcDbEntity
  8
文字
100
AcDbText
 10
334.311497529361
 20
272.3197623992305
 30
0.0
 40
1.0
  1
O
 50
18.06251514123182
  7
STYLE3
100
AcDbText
  0
TEXT
  5
10B3
330
18
100
AcDbEntity
  8
文字
100
AcDbText
 10
335.2415787703626
 20
272.7813801728452
 30
0.0
 40
1.0
  1
C
 50
21.9887927755758
  7
STYLE3
100
AcDbText
  0
TEXT
  5
10B4
330
18
100
AcDbEntity
  8
文字
100
AcDbText
 10
336.1786012995489
 20
273.2354003181503
 30
0.0
 40
1.0
  1
K
 50
27.44697157160358
  7
STYLE3
100
AcDbText
  0
TEXT
  5
10B5
330
18
100
AcDbEntity
  8
文字
100
AcDbText
 10
337.5380406676689
 20
274.2018140640537
 30
0.0
 40
1.0
  1
P
 50
39.54211779774844
  7
STYLE3
100
AcDbText
  0
TEXT
  5
10B6
330
18
100
AcDbEntity
  8
文字
100
AcDbText
 10
338.2587663186025
 20
274.8938005434236
 30
0.0
 40
1.0
  1
R
 50
42.36357171866411
  7
STYLE3
100
AcDbText
  0
TEXT
  5
10B7
330
18
100
AcDbEntity
  8
文字
100
AcDbText
 10
339.0111319658485
 20
275.6141000316012
 30
0.0
 40
1.0
  1
O
 50
44.03936243627986
  7
STYLE3
100
AcDbText
  0
TEXT
  5
10B8
330
18
100
AcDbEntity
  8
文字
100
AcDbText
 10
339.7633197248465
 20
276.4331825968408
 30
0.0
 40
1.0
  1
O
 50
43.95114276573223
  7
STYLE3
100
AcDbText
  0
TEXT
  5
10B9
330
18
100
AcDbEntity
  8
文字
100
AcDbText
 10
340.5546361103386
 20
277.2381642932812
 30
0.0
 40
1.0
  1
F
 50
51.59313426162791
  7
STYLE3
100
AcDbText
  0
POINT
  5
10D0
330
18
100
AcDbEntity
  8
DEFPOINTS
  6
ByBlock
 62
     0
100
AcDbPoint
 10
422.5055800864188
 20
310.4889790896693
 30
0.0
  0
POINT
  5
10D8
330
18
100
AcDbEntity
  8
DEFPOINTS
  6
ByBlock
 62
     0
100
AcDbPoint
 10
401.5055800864188
 20
285.9889790896693
 30
0.0
  0
CIRCLE
  5
111B
330
18
100
AcDbEntity
  8
針
100
AcDbCircle
 10
328.3716936972955
 20
285.9889790896693
 30
0.0
 40
1.9
  0
LINE
  5
1121
330
18
100
AcDbEntity
  8
針
100
AcDbLine
 10
315.5132296763548
 20
303.8402536386245
 30
0.0
 11
327.0356807811439
 21
288.8486240829989
 31
0.0
  0
ARC
  5
1122
330
18
100
AcDbEntity
  8
針
100
AcDbCircle
 10
329.4627317642688
 20
290.6119798398764
 30
0.0
 40
3.0
100
AcDbArc
 50
216.0
 51
245.4722791770396
  0
LINE
  5
1124
330
18
100
AcDbEntity
  8
針
100
AcDbLine
 10
315.4404181468611
 20
303.7873529659182
 30
0.0
 11
315.5132296763548
 21
303.8402536386245
 31
0.0
  0
ARC
  5
1126
330
18
100
AcDbEntity
  8
針
100
AcDbCircle
 10
323.637809404769
 20
286.3799260233705
 30
0.0
 40
3.0
100
AcDbArc
 50
6.527720822960354
 51
36.00000000000001
  0
LINE
  5
1127
330
18
100
AcDbEntity
  8
針
100
AcDbLine
 10
315.3676066173674
 20
303.7344522932118
 30
0.0
 11
326.0648603878938
 21
288.1432817802479
 31
0.0
  0
LINE
  5
1128
330
18
100
AcDbEntity
  8
針
100
AcDbLine
 10
315.440418146861
 20
303.7873529659182
 30
0.0
 11
315.3676066173674
 21
303.7344522932118
 31
0.0
  0
CIRCLE
  5
1129
330
18
100
AcDbEntity
  8
針
100
AcDbCircle
 10
328.3716936972955
 20
285.9889790896693
 30
0.0
 40
0.475
  0
CIRCLE
  5
112B
330
18
100
AcDbEntity
  8
針
100
AcDbCircle
 10
328.3716936972955
 20
285.9889790896693
 30
0.0
 40
1.5
  0
HATCH
  5
1137
330
18
100
AcDbEntity
  8
針
100
AcDbHatch
 10
0.0
 20
0.0
 30
0.0
210
0.0
220
0.0
230
1.0
  2
SOLID
 70
     1
 71
     0
 91
        2
 92
        7
 72
     1
 73
     1
 93
        5
 10
315.5132296763548
 20
303.8402536386245
 42
0.0
 10
315.4404181468611
 20
303.7873529659182
 42
0.0
 10
315.3676066173674
 20
303.7344522932118
 42
0.0
 10
319.0476073235627
 20
298.370877703984
 42
-0.0085634322047721
 10
319.4771094825489
 20
298.6829292883576
 42
0.0
 97
        0
 92
        7
 72
     1
 73
     1
 93
        6
 10
319.4771094825489
 20
298.6829292883576
 42
0.0085634322047721
 10
319.0476073235627
 20
298.370877703984
 42
0.0
 10
326.0648603878941
 20
288.1432817802475
 42
-0.1293106770632391
 10
326.6183603131284
 20
286.7209777535785
 42
-0.2805221108582334
 10
328.2173314105779
 20
287.882698256927
 42
-0.1293106770632486
 10
327.0356807811442
 20
288.8486240829987
 42
0.0
 97
        0
 75
     0
 76
     1
 47
0.0423559757596284
 98
        2
 10
318.8602639958425
 20
299.0113294752232
 10
321.5523502216972
 20
295.5223385867154
450
        0
451
        0
460
0.0
461
0.0
452
        0
462
0.0
453
        0
470

  0
CIRCLE
  5
11EF
330
18
100
AcDbEntity
  8
針
100
AcDbCircle
 10
328.3716936972956
 20
285.9889790896693
 30
0.0
 40
0.0000000000000568
  0
LINE
  5
124D
330
18
100
AcDbEntity
  8
目盛
100
AcDbLine
 10
322.6518262925042
 20
308.2663917956279
 30
0.0
 11
323.0745991006843
 21
306.6198004217091
 31
0.0
  0
LINE
  5
124E
330
18
100
AcDbEntity
  8
目盛
100
AcDbLine
 10
321.2643028266719
 20
307.8632789644578
 30
0.0
 11
322.0986487114842
 21
305.2954263704608
 31
0.0
  0
LINE
  5
124F
330
18
100
AcDbEntity
  8
目盛
100
AcDbLine
 10
326.9275117481216
 20
308.9435938435195
 30
0.0
 11
327.0342556313214
 21
307.2469484051915
 31
0.0
  0
LINE
  5
1250
330
18
100
AcDbEntity
  8
目盛
100
AcDbLine
 10
325.4890293253167
 20
308.8076172199023
 30
0.0
 11
325.7020958223761
 21
307.1210222276677
 31
0.0
  0
LINE
  5
1251
330
18
100
AcDbEntity
  8
目盛
100
AcDbLine
 10
324.0619234618241
 20
308.5815858564292
 30
0.0
 11
324.3804716966198
 21
306.9116975301904
 31
0.0
  0
LINE
  5
1252
330
18
100
AcDbEntity
  8
目盛
100
AcDbLine
 10
316.0476774127789
 20
305.4085213762157
 30
0.0
 11
316.9585829642431
 21
303.9731639028623
 31
0.0
  0
LINE
  5
1253
330
18
100
AcDbEntity
  8
目盛
100
AcDbLine
 10
314.8526328945687
 20
304.596369960293
 30
0.0
 11
316.4396530757584
 21
302.4120240754808
 31
0.0
  0
LINE
  5
1254
330
18
100
AcDbEntity
  8
目盛
100
AcDbLine
 10
319.9048289855481
 20
307.3738382650991
 30
0.0
 11
320.5306407251121
 21
305.7932182390891
 31
0.0
  0
LINE
  5
1255
330
18
100
AcDbEntity
  8
目盛
100
AcDbLine
 10
318.5787699912991
 20
306.8000012963878
 30
0.0
 11
319.3025947869597
 21
305.2617953071956
 31
0.0
  0
LINE
  5
1256
330
18
100
AcDbEntity
  8
目盛
100
AcDbLine
 10
317.2913591929563
 20
306.1440327306783
 30
0.0
 11
318.1103404389292
 21
304.6543113746037
 31
0.0
  0
LINE
  5
1257
330
18
100
AcDbEntity
  8
目盛
100
AcDbLine
 10
310.6498891134525
 20
300.6497308538893
 30
0.0
 11
311.9597616261714
 21
299.5661100713165
 31
0.0
  0
LINE
  5
1258
330
18
100
AcDbEntity
  8
目盛
100
AcDbLine
 10
309.7643028266718
 20
299.5080398923962
 30
0.0
 11
311.9486487114841
 21
297.9210197112065
 31
0.0
  0
LINE
  5
1259
330
18
100
AcDbEntity
  8
目盛
100
AcDbLine
 10
313.7109419330759
 20
303.7107836735125
 30
0.0
 11
314.7945627156486
 21
302.4009111607937
 31
0.0
  0
LINE
  5
125A
330
18
100
AcDbEntity
  8
目盛
100
AcDbLine
 10
312.6271102609359
 20
302.7552575203618
 30
0.0
 11
313.7908403410146
 21
301.5160108537454
 31
0.0
  0
LINE
  5
125B
330
18
100
AcDbEntity
  8
目盛
100
AcDbLine
 10
311.6054152666032
 20
301.7335625260293
 30
0.0
 11
312.8446619332196
 21
300.5698324459505
 31
0.0
  0
LINE
  5
125C
330
18
100
AcDbEntity
  8
目盛
100
AcDbLine
 10
306.9868345218659
 20
294.4558438014171
 30
0.0
 11
308.5674545478759
 21
293.830032061853
 31
0.0
  0
LINE
  5
125D
330
18
100
AcDbEntity
  8
目盛
100
AcDbLine
 10
306.4973938225071
 20
293.096369960293
 30
0.0
 11
309.065246416504
 21
292.2620240754807
 31
0.0
  0
LINE
  5
125E
330
18
100
AcDbEntity
  8
目盛
100
AcDbLine
 10
308.9521514107494
 20
298.3129953741863
 30
0.0
 11
310.3875088841028
 21
297.402089822722
 31
0.0
  0
LINE
  5
125F
330
18
100
AcDbEntity
  8
目盛
100
AcDbLine
 10
308.2166400562868
 20
297.0693135940088
 30
0.0
 11
309.7063614123613
 21
296.250332348036
 31
0.0
  0
LINE
  5
1260
330
18
100
AcDbEntity
  8
目盛
100
AcDbLine
 10
307.5606714905772
 20
295.7819027956661
 30
0.0
 11
309.0988774797694
 21
295.0580780000055
 31
0.0
  0
LINE
  5
1261
330
18
100
AcDbEntity
  8
目盛
100
AcDbLine
 10
305.4170789434454
 20
287.4331610388437
 30
0.0
 11
307.1137243817735
 21
287.3264171556438
 31
0.0
  0
LINE
  5
1262
330
18
100
AcDbEntity
  8
目盛
100
AcDbLine
 10
305.3716936972957
 20
285.9889790896693
 30
0.0
 11
308.0716936972956
 21
285.9889790896693
 31
0.0
  0
LINE
  5
1263
330
18
100
AcDbEntity
  8
目盛
100
AcDbLine
 10
306.0942809913372
 20
291.708846494461
 30
0.0
 11
307.7408723652558
 21
291.2860736862808
 31
0.0
  0
LINE
  5
1264
330
18
100
AcDbEntity
  8
目盛
100
AcDbLine
 10
305.7790869305359
 20
290.298749325141
 30
0.0
 11
307.4489752567746
 21
289.9802010903453
 31
0.0
  0
LINE
  5
1265
330
18
100
AcDbEntity
  8
目盛
100
AcDbLine
 10
305.5530555670626
 20
288.8716434616485
 30
0.0
 11
307.2396505592973
 21
288.6585769645892
 31
0.0
  0
LINE
  5
1266
330
18
100
AcDbEntity
  8
目盛
100
AcDbLine
 10
306.094280991337
 20
280.2691116848778
 30
0.0
 11
307.7408723652557
 21
280.691884493058
 31
0.0
  0
LINE
  5
1267
330
18
100
AcDbEntity
  8
目盛
100
AcDbLine
 10
306.497393822507
 20
278.8815882190454
 30
0.0
 11
309.065246416504
 21
279.7159341038578
 31
0.0
  0
LINE
  5
1268
330
18
100
AcDbEntity
  8
目盛
100
AcDbLine
 10
305.4170789434453
 20
284.5447971404952
 30
0.0
 11
307.1137243817734
 21
284.651541023695
 31
0.0
  0
LINE
  5
1269
330
18
100
AcDbEntity
  8
目盛
100
AcDbLine
 10
305.5530555670626
 20
283.1063147176904
 30
0.0
 11
307.2396505592972
 21
283.3193812147497
 31
0.0
  0
LINE
  5
126A
330
18
100
AcDbEntity
  8
目盛
100
AcDbLine
 10
305.7790869305356
 20
281.6792088541978
 30
0.0
 11
307.4489752567745
 21
281.9977570889935
 31
0.0
  0
LINE
  5
126B
330
18
100
AcDbEntity
  8
目盛
100
AcDbLine
 10
308.9521514107492
 20
273.6649628051526
 30
0.0
 11
310.3875088841026
 21
274.5758683566168
 31
0.0
  0
LINE
  5
126C
330
18
100
AcDbEntity
  8
目盛
100
AcDbLine
 10
309.7643028266718
 20
272.4699182869424
 30
0.0
 11
311.9486487114842
 21
274.056938468132
 31
0.0
  0
LINE
  5
126D
330
18
100
AcDbEntity
  8
目盛
100
AcDbLine
 10
306.9868345218659
 20
277.5221143779218
 30
0.0
 11
308.5674545478759
 21
278.1479261174858
 31
0.0
  0
LINE
  5
126E
330
18
100
AcDbEntity
  8
目盛
100
AcDbLine
 10
307.5606714905772
 20
276.1960553836727
 30
0.0
 11
309.0988774797693
 21
276.9198801793333
 31
0.0
  0
LINE
  5
126F
330
18
100
AcDbEntity
  8
目盛
100
AcDbLine
 10
308.2166400562866
 20
274.90864458533
 30
0.0
 11
309.7063614123612
 21
275.7276258313029
 31
0.0
  0
LINE
  5
1270
330
18
100
AcDbEntity
  8
目盛
100
AcDbLine
 10
313.7109419330756
 20
268.2671745058263
 30
0.0
 11
314.7945627156484
 21
269.5770470185451
 31
0.0
  0
LINE
  5
1271
330
18
100
AcDbEntity
  8
目盛
100
AcDbLine
 10
314.8526328945687
 20
267.3815882190455
 30
0.0
 11
316.4396530757583
 21
269.5659341038578
 31
0.0
  0
LINE
  5
1272
330
18
100
AcDbEntity
  8
目盛
100
AcDbLine
 10
310.6498891134523
 20
271.3282273254495
 30
0.0
 11
311.9597616261712
 21
272.4118481080223
 31
0.0
  0
LINE
  5
1273
330
18
100
AcDbEntity
  8
目盛
100
AcDbLine
 10
311.605415266603
 20
270.2443956533095
 30
0.0
 11
312.8446619332194
 21
271.4081257333883
 31
0.0
  0
LINE
  5
1274
330
18
100
AcDbEntity
  8
目盛
100
AcDbLine
 10
312.6271102609355
 20
269.2227006589769
 30
0.0
 11
313.7908403410144
 21
270.4619473255934
 31
0.0
  0
LINE
  5
1275
330
18
100
AcDbEntity
  8
目盛
100
AcDbLine
 10
319.9048289855477
 20
264.6041199142396
 30
0.0
 11
320.5306407251118
 21
266.1847399402496
 31
0.0
  0
LINE
  5
1276
330
18
100
AcDbEntity
  8
目盛
100
AcDbLine
 10
321.2643028266718
 20
264.1146792148808
 30
0.0
 11
322.0986487114842
 21
266.6825318088777
 31
0.0
  0
LINE
  5
1277
330
18
100
AcDbEntity
  8
目盛
100
AcDbLine
 10
316.0476774127786
 20
266.5694368031231
 30
0.0
 11
316.9585829642429
 21
268.0047942764764
 31
0.0
  0
LINE
  5
1278
330
18
100
AcDbEntity
  8
目盛
100
AcDbLine
 10
317.2913591929561
 20
265.8339254486605
 30
0.0
 11
318.1103404389289
 21
267.323646804735
 31
0.0
  0
LINE
  5
1279
330
18
100
AcDbEntity
  8
目盛
100
AcDbLine
 10
318.5787699912987
 20
265.1779568829509
 30
0.0
 11
319.3025947869594
 21
266.7161628721431
 31
0.0
  0
LINE
  5
127A
330
18
100
AcDbEntity
  8
目盛
100
AcDbLine
 10
326.9275117481212
 20
263.0343643358191
 30
0.0
 11
327.0342556313211
 21
264.7310097741471
 31
0.0
  0
LINE
  5
127B
330
18
100
AcDbEntity
  8
目盛
100
AcDbLine
 10
328.3716936972957
 20
262.9889790896693
 30
0.0
 11
328.3716936972957
 21
265.6889790896693
 31
0.0
  0
LINE
  5
127C
330
18
100
AcDbEntity
  8
目盛
100
AcDbLine
 10
322.6518262925039
 20
263.7115663837109
 30
0.0
 11
323.0745991006841
 21
265.3581577576295
 31
0.0
  0
LINE
  5
127D
330
18
100
AcDbEntity
  8
目盛
100
AcDbLine
 10
324.0619234618239
 20
263.3963723229095
 30
0.0
 11
324.3804716966196
 21
265.0662606491483
 31
0.0
  0
LINE
  5
127E
330
18
100
AcDbEntity
  8
目盛
100
AcDbLine
 10
325.4890293253164
 20
263.1703409594363
 30
0.0
 11
325.7020958223758
 21
264.8569359516709
 31
0.0
  0
LINE
  5
127F
330
18
100
AcDbEntity
  8
目盛
100
AcDbLine
 10
334.0915611020871
 20
263.7115663837107
 30
0.0
 11
333.6687882939069
 21
265.3581577576294
 31
0.0
  0
LINE
  5
1280
330
18
100
AcDbEntity
  8
目盛
100
AcDbLine
 10
335.4790845679195
 20
264.1146792148808
 30
0.0
 11
334.6447386831071
 21
266.6825318088777
 31
0.0
  0
LINE
  5
1281
330
18
100
AcDbEntity
  8
目盛
100
AcDbLine
 10
329.8158756464697
 20
263.0343643358191
 30
0.0
 11
329.7091317632699
 21
264.7310097741471
 31
0.0
  0
LINE
  5
1282
330
18
100
AcDbEntity
  8
目盛
100
AcDbLine
 10
331.2543580692745
 20
263.1703409594364
 30
0.0
 11
331.0412915722152
 21
264.8569359516709
 31
0.0
  0
LINE
  5
1283
330
18
100
AcDbEntity
  8
目盛
100
AcDbLine
 10
332.6814639327671
 20
263.3963723229094
 30
0.0
 11
332.3629156979714
 21
265.0662606491482
 31
0.0
  0
LINE
  5
1284
330
18
100
AcDbEntity
  8
目盛
100
AcDbLine
 10
340.6957099818123
 20
266.5694368031227
 30
0.0
 11
339.7848044303481
 21
268.0047942764762
 31
0.0
  0
LINE
  5
1285
330
18
100
AcDbEntity
  8
目盛
100
AcDbLine
 10
341.8907545000225
 20
267.3815882190455
 30
0.0
 11
340.3037343188328
 21
269.5659341038578
 31
0.0
  0
LINE
  5
1286
330
18
100
AcDbEntity
  8
目盛
100
AcDbLine
 10
336.8385584090431
 20
264.6041199142394
 30
0.0
 11
336.2127466694791
 21
266.1847399402494
 31
0.0
  0
LINE
  5
1287
330
18
100
AcDbEntity
  8
目盛
100
AcDbLine
 10
338.1646174032921
 20
265.1779568829507
 30
0.0
 11
337.4407926076315
 21
266.7161628721429
 31
0.0
  0
LINE
  5
1288
330
18
100
AcDbEntity
  8
目盛
100
AcDbLine
 10
339.4520282016349
 20
265.8339254486602
 30
0.0
 11
338.6330469556619
 21
267.3236468047348
 31
0.0
  0
LINE
  5
1289
330
18
100
AcDbEntity
  8
目盛
100
AcDbLine
 10
346.0934982811386
 20
271.3282273254493
 30
0.0
 11
344.7836257684198
 21
272.4118481080221
 31
0.0
  0
LINE
  5
128A
330
18
100
AcDbEntity
  8
目盛
100
AcDbLine
 10
346.9790845679193
 20
272.4699182869424
 30
0.0
 11
344.794738683107
 21
274.056938468132
 31
0.0
  0
LINE
  5
128B
330
18
100
AcDbEntity
  8
目盛
100
AcDbLine
 10
343.0324454615153
 20
268.2671745058261
 30
0.0
 11
341.9488246789426
 21
269.5770470185449
 31
0.0
  0
LINE
  5
128C
330
18
100
AcDbEntity
  8
目盛
100
AcDbLine
 10
344.1162771336554
 20
269.2227006589767
 30
0.0
 11
342.9525470535766
 21
270.4619473255931
 31
0.0
  0
LINE
  5
128D
330
18
100
AcDbEntity
  8
目盛
100
AcDbLine
 10
345.137972127988
 20
270.2443956533092
 30
0.0
 11
343.8987254613715
 21
271.4081257333881
 31
0.0
  0
LINE
  5
128E
330
18
100
AcDbEntity
  8
目盛
100
AcDbLine
 10
349.7565528727252
 20
277.5221143779215
 30
0.0
 11
348.1759328467153
 21
278.1479261174855
 31
0.0
  0
LINE
  5
128F
330
18
100
AcDbEntity
  8
目盛
100
AcDbLine
 10
350.2459935720841
 20
278.8815882190455
 30
0.0
 11
347.6781409780872
 21
279.7159341038579
 31
0.0
  0
LINE
  5
1290
330
18
100
AcDbEntity
  8
目盛
100
AcDbLine
 10
347.7912359838418
 20
273.6649628051523
 30
0.0
 11
346.3558785104884
 21
274.5758683566166
 31
0.0
  0
LINE
  5
1291
330
18
100
AcDbEntity
  8
目盛
100
AcDbLine
 10
348.5267473383043
 20
274.9086445853298
 30
0.0
 11
347.0370259822298
 21
275.7276258313027
 31
0.0
  0
LINE
  5
1292
330
18
100
AcDbEntity
  8
目盛
100
AcDbLine
 10
349.1827159040139
 20
276.1960553836725
 30
0.0
 11
347.6445099148217
 21
276.9198801793331
 31
0.0
  0
LINE
  5
1293
330
18
100
AcDbEntity
  8
目盛
100
AcDbLine
 10
351.3263084511458
 20
284.5447971404949
 30
0.0
 11
349.6296630128178
 21
284.6515410236947
 31
0.0
  0
LINE
  5
1294
330
18
100
AcDbEntity
  8
目盛
100
AcDbLine
 10
351.3716936972956
 20
285.9889790896693
 30
0.0
 11
348.6716936972956
 21
285.9889790896693
 31
0.0
  0
LINE
  5
1295
330
18
100
AcDbEntity
  8
目盛
100
AcDbLine
 10
350.6491064032541
 20
280.2691116848775
 30
0.0
 11
349.0025150293354
 21
280.6918844930578
 31
0.0
  0
LINE
  5
1296
330
18
100
AcDbEntity
  8
目盛
100
AcDbLine
 10
350.9643004640554
 20
281.6792088541975
 30
0.0
 11
349.2944121378167
 21
281.9977570889932
 31
0.0
  0
LINE
  5
1297
330
18
100
AcDbEntity
  8
目盛
100
AcDbLine
 10
351.1903318275286
 20
283.1063147176901
 30
0.0
 11
349.503736835294
 21
283.3193812147494
 31
0.0
  0
LINE
  5
1298
330
18
100
AcDbEntity
  8
目盛
100
AcDbLine
 10
350.6491064032543
 20
291.7088464944607
 30
0.0
 11
349.0025150293356
 21
291.2860736862805
 31
0.0
  0
LINE
  5
1299
330
18
100
AcDbEntity
  8
目盛
100
AcDbLine
 10
350.2459935720842
 20
293.096369960293
 30
0.0
 11
347.6781409780873
 21
292.2620240754807
 31
0.0
  0
LINE
  5
129A
330
18
100
AcDbEntity
  8
目盛
100
AcDbLine
 10
351.3263084511458
 20
287.4331610388434
 30
0.0
 11
349.6296630128179
 21
287.3264171556435
 31
0.0
  0
LINE
  5
129B
330
18
100
AcDbEntity
  8
目盛
100
AcDbLine
 10
351.1903318275286
 20
288.8716434616481
 30
0.0
 11
349.5037368352941
 21
288.6585769645888
 31
0.0
  0
LINE
  5
129C
330
18
100
AcDbEntity
  8
目盛
100
AcDbLine
 10
350.9643004640556
 20
290.2987493251407
 30
0.0
 11
349.2944121378168
 21
289.980201090345
 31
0.0
  0
LINE
  5
129D
330
18
100
AcDbEntity
  8
目盛
100
AcDbLine
 10
347.7912359838421
 20
298.312995374186
 30
0.0
 11
346.3558785104887
 21
297.4020898227217
 31
0.0
  0
LINE
  5
129E
330
18
100
AcDbEntity
  8
目盛
100
AcDbLine
 10
346.9790845679194
 20
299.5080398923961
 30
0.0
 11
344.794738683107
 21
297.9210197112065
 31
0.0
  0
LINE
  5
129F
330
18
100
AcDbEntity
  8
目盛
100
AcDbLine
 10
349.7565528727254
 20
294.4558438014167
 30
0.0
 11
348.1759328467154
 21
293.8300320618528
 31
0.0
  0
LINE
  5
12A0
330
18
100
AcDbEntity
  8
目盛
100
AcDbLine
 10
349.1827159040141
 20
295.7819027956658
 30
0.0
 11
347.6445099148218
 21
295.0580780000052
 31
0.0
  0
LINE
  5
12A1
330
18
100
AcDbEntity
  8
目盛
100
AcDbLine
 10
348.5267473383046
 20
297.0693135940085
 30
0.0
 11
347.03702598223
 21
296.2503323480356
 31
0.0
  0
LINE
  5
12A2
330
18
100
AcDbEntity
  8
目盛
100
AcDbLine
 10
343.0324454615157
 20
303.7107836735123
 30
0.0
 11
341.9488246789429
 21
302.4009111607934
 31
0.0
  0
LINE
  5
12A3
330
18
100
AcDbEntity
  8
目盛
100
AcDbLine
 10
341.8907545000225
 20
304.5963699602931
 30
0.0
 11
340.3037343188328
 21
302.4120240754807
 31
0.0
  0
LINE
  5
12A4
330
18
100
AcDbEntity
  8
目盛
100
AcDbLine
 10
346.0934982811389
 20
300.649730853889
 30
0.0
 11
344.78362576842
 21
299.5661100713162
 31
0.0
  0
LINE
  5
12A5
330
18
100
AcDbEntity
  8
目盛
100
AcDbLine
 10
345.1379721279881
 20
301.733562526029
 30
0.0
 11
343.8987254613719
 21
300.5698324459502
 31
0.0
  0
LINE
  5
12A6
330
18
100
AcDbEntity
  8
目盛
100
AcDbLine
 10
344.1162771336556
 20
302.7552575203616
 30
0.0
 11
342.9525470535768
 21
301.5160108537452
 31
0.0
  0
LINE
  5
12A7
330
18
100
AcDbEntity
  8
目盛
100
AcDbLine
 10
336.8385584090434
 20
307.373838265099
 30
0.0
 11
336.2127466694794
 21
305.793218239089
 31
0.0
  0
LINE
  5
12A8
330
18
100
AcDbEntity
  8
目盛
100
AcDbLine
 10
335.4790845679194
 20
307.8632789644578
 30
0.0
 11
334.6447386831071
 21
305.2954263704608
 31
0.0
  0
LINE
  5
12A9
330
18
100
AcDbEntity
  8
目盛
100
AcDbLine
 10
340.6957099818126
 20
305.4085213762154
 30
0.0
 11
339.7848044303483
 21
303.9731639028621
 31
0.0
  0
LINE
  5
12AA
330
18
100
AcDbEntity
  8
目盛
100
AcDbLine
 10
339.4520282016351
 20
306.144032730678
 30
0.0
 11
338.6330469556622
 21
304.6543113746035
 31
0.0
  0
LINE
  5
12AB
330
18
100
AcDbEntity
  8
目盛
100
AcDbLine
 10
338.1646174032925
 20
306.8000012963876
 30
0.0
 11
337.4407926076318
 21
305.2617953071954
 31
0.0
  0
ARC
  5
12CC
330
18
100
AcDbEntity
  8
外形線
100
AcDbCircle
 10
328.3716936972955
 20
329.9889790896693
 30
0.0
 40
6.0
100
AcDbArc
 50
48.18968510422154
 51
131.8103148957773
  0
LINE
  5
12CD
330
18
100
AcDbEntity
  8
外形線
100
AcDbLine
 10
324.3716936972957
 20
334.4611150446689
 30
0.0
 11
332.3716936972955
 21
334.4611150446688
 31
0.0
  0
LINE
  5
12CE
330
18
100
AcDbEntity
  8
外形線
  6
Continuous
100
AcDbLine
 10
420.0055800864188
 20
334.4611150446688
 30
0.0
 11
420.0055800864188
 21
310.4889790896692
 31
0.0
  0
LINE
  5
12CF
330
18
100
AcDbEntity
  8
外形線
  6
Continuous
100
AcDbLine
 10
412.0055800864189
 20
334.4611150446689
 30
0.0
 11
412.0055800864189
 21
310.4889790896693
 31
0.0
  0
LINE
  5
12D0
330
18
100
AcDbEntity
  8
外形線
100
AcDbLine
 10
412.0055800864189
 20
334.4611150446689
 30
0.0
 11
420.0055800864188
 21
334.4611150446688
 31
0.0
  0
ARC
  5
12D1
330
18
100
AcDbEntity
  8
外形線
100
AcDbCircle
 10
416.0055800864188
 20
329.9889790896693
 30
0.0
 40
6.0
100
AcDbArc
 50
48.18968510422154
 51
131.8103148957773
  0
POINT
  5
12D2
330
18
100
AcDbEntity
  8
DEFPOINTS
  6
ByBlock
 62
     0
100
AcDbPoint
 10
416.0055800864188
 20
335.9889790896693
 30
0.0
  0
POINT
  5
1469
330
18
100
AcDbEntity
  8
DEFPOINTS
  6
ByBlock
 62
     0
100
AcDbPoint
 10
324.5216936972956
 20
243.9889790896693
 30
0.0
  0
POINT
  5
146A
330
18
100
AcDbEntity
  8
DEFPOINTS
  6
ByBlock
 62
     0
100
AcDbPoint
 10
332.2216936972956
 20
243.9889790896693
 30
0.0
  0
POINT
  5
146B
330
18
100
AcDbEntity
  8
DEFPOINTS
  6
ByBlock
 62
     0
100
AcDbPoint
 10
332.2216936972956
 20
244.7001230164336
 30
0.0
  0
LINE
  5
14AB
330
18
100
AcDbEntity
  8
0
  6
ByBlock
 62
     2
100
AcDbLine
 10
326.3716936972956
 20
240.9889790896693
 30
0.0
 11
297.4106354209404
 21
240.9889790896693
 31
0.0
  0
LINE
  5
14AC
330
18
100
AcDbEntity
  8
0
  6
ByBlock
 62
     2
100
AcDbLine
 10
298.6606354209404
 20
247.9889790896693
 30
0.0
 11
298.6606354209404
 21
250.4889790896692
 31
0.0
  0
LINE
  5
14AD
330
18
100
AcDbEntity
  8
0
  6
ByBlock
 62
     2
100
AcDbLine
 10
298.6606354209404
 20
238.4889790896693
 30
0.0
 11
298.6606354209404
 21
235.9889790896693
 31
0.0
  0
MTEXT
  5
14B0
330
18
100
AcDbEntity
  8
0
  6
ByBlock
 62
     6
100
AcDbMText
 10
295.5798189612121
 20
240.2619558660309
 30
0.0
 40
2.5
 41
0.0
 71
     4
 72
     1
  1
\A1;4.5
  7
STYLE3
 11
0.0000000000000001
 21
1.0
 31
0.0
 73
     1
 44
1.0
  0
LINE
  5
14B1
330
18
100
AcDbEntity
  8
0
  6
ByBlock
 62
     2
100
AcDbLine
 10
298.6606354209404
 20
245.4889790896693
 30
0.0
 11
298.6606354209404
 21
240.9889790896693
 31
0.0
  0
LINE
  5
14B2
330
18
100
AcDbEntity
  8
0
  6
ByBlock
 62
     2
100
AcDbLine
 10
298.6606354209404
 20
245.4889790896693
 30
0.0
 11
298.6606354209404
 21
240.9889790896693
 31
0.0
  0
INSERT
  5
14B3
330
18
100
AcDbEntity
  8
0
  6
ByBlock
 62
     2
100
AcDbBlockReference
  2
_OPEN
 10
298.6606354209404
 20
245.4889790896693
 30
0.0
 41
2.5
 42
2.5
 43
2.5
 50
270.0
  0
INSERT
  5
14B4
330
18
100
AcDbEntity
  8
0
  6
ByBlock
 62
     2
100
AcDbBlockReference
  2
_OPEN
 10
298.6606354209404
 20
240.9889790896693
 30
0.0
 41
2.5
 42
2.5
 43
2.5
 50
90.0
  0
POINT
  5
14B5
330
18
100
AcDbEntity
  8
DEFPOINTS
  6
ByBlock
 62
     0
100
AcDbPoint
 10
324.3716936972956
 20
245.4889790896693
 30
0.0
  0
POINT
  5
14B6
330
18
100
AcDbEntity
  8
DEFPOINTS
  6
ByBlock
 62
     0
100
AcDbPoint
 10
326.3716936972956
 20
240.9889790896693
 30
0.0
  0
POINT
  5
14B7
330
18
100
AcDbEntity
  8
DEFPOINTS
  6
ByBlock
 62
     0
100
AcDbPoint
 10
298.6606354209404
 20
240.9889790896693
 30
0.0
  0
POINT
  5
14D1
330
18
100
AcDbEntity
  8
DEFPOINTS
  6
ByBlock
 62
     0
100
AcDbPoint
 10
328.3716936972956
 20
308.9889790896693
 30
0.0
  0
POINT
  5
14D2
330
18
100
AcDbEntity
  8
DEFPOINTS
  6
ByBlock
 62
     0
100
AcDbPoint
 10
328.3716936972956
 20
262.9889790896693
 30
0.0
  0
LINE
  5
14D5
330
18
100
AcDbEntity
  8
0
  6
ByBlock
 62
     2
100
AcDbLine
 10
405.7055800864189
 20
259.5889790896693
 30
0.0
 11
376.1627583044747
 21
259.5889790896693
 31
0.0
  0
POINT
  5
14DA
330
18
100
AcDbEntity
  8
DEFPOINTS
  6
ByBlock
 62
     0
100
AcDbPoint
 10
405.7055800864189
 20
312.3889790896693
 30
0.0
  0
POINT
  5
14DB
330
18
100
AcDbEntity
  8
DEFPOINTS
  6
ByBlock
 62
     0
100
AcDbPoint
 10
405.7055800864189
 20
259.5889790896693
 30
0.0
  0
POINT
  5
14E4
330
18
100
AcDbEntity
  8
DEFPOINTS
  6
ByBlock
 62
     0
100
AcDbPoint
 10
324.7716936972956
 20
241.1889790896692
 30
0.0
  0
POINT
  5
14E5
330
18
100
AcDbEntity
  8
DEFPOINTS
  6
ByBlock
 62
     0
100
AcDbPoint
 10
331.9716936972956
 20
241.1889790896692
 30
0.0
  0
TEXT
  5
14E9
330
18
100
AcDbEntity
  8
文字
100
AcDbText
 10
334.4402290175494
 20
284.9526888552567
 30
0.0
 40
1.0
  1
0.01mm
  7
STYLE3
100
AcDbText
  0
LINE
  5
1510
330
18
100
AcDbEntity
  8
ﾊｯﾁﾝｸ
100
AcDbLine
 10
325.8716936972955
 20
218.8818501941896
 30
0.0
 11
326.2788225927752
 21
219.2889790896693
 31
0.0
  0
LINE
  5
1511
330
18
100
AcDbEntity
  8
ﾊｯﾁﾝｸ
100
AcDbLine
 10
325.8716936972956
 20
217.5348117760293
 30
0.0
 11
327.6258610109356
 21
219.2889790896693
 31
0.0
  0
LINE
  5
1512
330
18
100
AcDbEntity
  8
ﾊｯﾁﾝｸ
100
AcDbLine
 10
325.872899429096
 20
216.1889790896693
 30
0.0
 11
328.3716936972956
 21
218.6877733578689
 31
0.0
  0
LINE
  5
1513
330
18
100
AcDbEntity
  8
ﾊｯﾁﾝｸ
100
AcDbLine
 10
327.2199378472564
 20
216.1889790896692
 30
0.0
 11
328.3716936972956
 21
217.3407349397085
 31
0.0
  0
LINE
  5
1514
330
18
100
AcDbEntity
  8
ﾊｯﾁﾝｸ
100
AcDbLine
 10
325.965741621481
 20
216.1889790896693
 30
0.0
 11
325.8716936972955
 21
216.2830270138548
 31
0.0
  0
LINE
  5
1515
330
18
100
AcDbEntity
  8
ﾊｯﾁﾝｸ
100
AcDbLine
 10
327.3127800396415
 20
216.1889790896692
 30
0.0
 11
325.8716936972955
 21
217.6300654320151
 31
0.0
  0
LINE
  5
1516
330
18
100
AcDbEntity
  8
ﾊｯﾁﾝｸ
100
AcDbLine
 10
328.3716936972956
 20
216.4771038501754
 30
0.0
 11
325.8716936972955
 21
218.9771038501754
 31
0.0
  0
LINE
  5
1517
330
18
100
AcDbEntity
  8
ﾊｯﾁﾝｸ
100
AcDbLine
 10
328.3716936972955
 20
217.8241422683358
 30
0.0
 11
326.9068568759621
 21
219.2889790896693
 31
0.0
  0
LINE
  5
1518
330
18
100
AcDbEntity
  8
ﾊｯﾁﾝｸ
100
AcDbLine
 10
328.3716936972955
 20
219.1711806864962
 30
0.0
 11
328.2538952941225
 21
219.2889790896693
 31
0.0
  0
LINE
  5
1519
330
18
100
AcDbEntity
  8
0
  6
ByBlock
 62
     2
100
AcDbLine
 10
324.3716936972956
 20
245.4889790896693
 30
0.0
 11
297.4106354209404
 21
245.4889790896693
 31
0.0
  0
LINE
  5
151A
330
18
100
AcDbEntity
  8
0
  6
ByBlock
 62
     2
100
AcDbLine
 10
298.6606354209404
 20
257.0889790896693
 30
0.0
 11
298.6606354209404
 21
247.9889790896693
 31
0.0
  0
INSERT
  5
151B
330
18
100
AcDbEntity
  8
0
  6
ByBlock
 62
     2
100
AcDbBlockReference
  2
_OPEN
 10
298.6606354209404
 20
259.5889790896693
 30
0.0
 41
2.5
 42
2.5
 43
2.5
 50
90.0
  0
INSERT
  5
151C
330
18
100
AcDbEntity
  8
0
  6
ByBlock
 62
     2
100
AcDbBlockReference
  2
_OPEN
 10
298.6606354209404
 20
245.4889790896693
 30
0.0
 41
2.5
 42
2.5
 43
2.5
 50
270.0
  0
MTEXT
  5
151D
330
18
100
AcDbEntity
  8
0
  6
ByBlock
 62
     6
100
AcDbMText
 10
296.7856354209404
 20
252.5389790896693
 30
0.0
 40
2.5
 41
0.0
 71
     5
 72
     1
  1
\A1;14
  7
STYLE3
 11
0.0000000000000001
 21
1.0
 31
0.0
 73
     1
 44
1.0
  0
POINT
  5
151E
330
18
100
AcDbEntity
  8
DEFPOINTS
  6
ByBlock
 62
     0
100
AcDbPoint
 10
328.3716936972956
 20
259.5889790896693
 30
0.0
  0
POINT
  5
151F
330
18
100
AcDbEntity
  8
DEFPOINTS
  6
ByBlock
 62
     0
100
AcDbPoint
 10
324.3716936972956
 20
245.4889790896693
 30
0.0
  0
POINT
  5
1520
330
18
100
AcDbEntity
  8
DEFPOINTS
  6
ByBlock
 62
     0
100
AcDbPoint
 10
298.6606354209404
 20
245.4889790896693
 30
0.0
  0
LINE
  5
1521
330
18
100
AcDbEntity
  8
0
  6
ByBlock
 62
     2
100
AcDbLine
 10
298.1860076483644
 20
285.9889790896693
 30
0.0
 11
299.9106354209404
 21
285.9889790896693
 31
0.0
  0
LINE
  5
1522
330
18
100
AcDbEntity
  8
0
  6
ByBlock
 62
     2
100
AcDbLine
 10
328.3716936972956
 20
259.5889790896693
 30
0.0
 11
297.4106354209404
 21
259.5889790896693
 31
0.0
  0
LINE
  5
1523
330
18
100
AcDbEntity
  8
0
  6
ByBlock
 62
     2
100
AcDbLine
 10
298.6606354209404
 20
283.4889790896692
 30
0.0
 11
298.6606354209404
 21
262.0889790896693
 31
0.0
  0
INSERT
  5
1524
330
18
100
AcDbEntity
  8
0
  6
ByBlock
 62
     2
100
AcDbBlockReference
  2
_OPEN
 10
298.6606354209404
 20
285.9889790896693
 30
0.0
 41
2.5
 42
2.5
 43
2.5
 50
90.0
  0
INSERT
  5
1525
330
18
100
AcDbEntity
  8
0
  6
ByBlock
 62
     2
100
AcDbBlockReference
  2
_OPEN
 10
298.6606354209404
 20
259.5889790896693
 30
0.0
 41
2.5
 42
2.5
 43
2.5
 50
270.0
  0
MTEXT
  5
1526
330
18
100
AcDbEntity
  8
0
  6
ByBlock
 62
     6
100
AcDbMText
 10
296.7856354209404
 20
272.7889790896693
 30
0.0
 40
2.5
 41
0.0
 71
     5
 72
     1
  1
\A1;26.5
  7
STYLE3
 11
0.0000000000000001
 21
1.0
 31
0.0
 73
     1
 44
1.0
  0
POINT
  5
1527
330
18
100
AcDbEntity
  8
DEFPOINTS
  6
ByBlock
 62
     0
100
AcDbPoint
 10
298.1860076483644
 20
285.9889790896693
 30
0.0
  0
POINT
  5
1528
330
18
100
AcDbEntity
  8
DEFPOINTS
  6
ByBlock
 62
     0
100
AcDbPoint
 10
328.3716936972956
 20
259.5889790896693
 30
0.0
  0
POINT
  5
1529
330
18
100
AcDbEntity
  8
DEFPOINTS
  6
ByBlock
 62
     0
100
AcDbPoint
 10
298.6606354209404
 20
259.5889790896693
 30
0.0
  0
HATCH
  5
152A
330
18
100
AcDbEntity
  8
針
100
AcDbHatch
 10
0.0
 20
0.0
 30
0.0
210
0.0
220
0.0
230
1.0
  2
SOLID
 70
     1
 71
     0
 91
        2
 92
        7
 72
     1
 73
     1
 93
        5
 10
325.5243679869398
 20
274.8730763726347
 42
0.31735696877887
 10
326.2715665370718
 20
275.8982823583542
 42
0.0
 10
325.9102358597892
 20
276.1649904084464
 42
0.0
 10
325.8821014056051
 20
276.1554674210946
 42
-0.4142135623731173
 10
325.4121534402348
 20
275.2045999698458
 42
0.0
 97
        0
 92
        7
 72
     1
 73
     1
 93
        4
 10
325.5243679869398
 20
274.8730763726347
 42
0.0
 10
325.4121534402348
 20
275.2045999698458
 42
-0.4142135623730728
 10
324.4612859889861
 20
275.6745479352161
 42
0.0
 10
324.1297623917749
 20
275.5623333885111
 42
0.4142135623730844
 97
        0
 75
     0
 76
     1
 47
0.0161501285364394
 98
        2
 10
325.8332407091216
 20
275.2186778757517
 10
325.1544456382045
 20
275.0059683338011
450
        0
451
        0
460
0.0
461
0.0
452
        0
462
0.0
453
        0
470

  0
HATCH
  5
152B
330
18
100
AcDbEntity
  8
針
100
AcDbHatch
 10
0.0
 20
0.0
 30
0.0
210
0.0
220
0.0
230
1.0
  2
SOLID
 70
     1
 71
     0
 91
        4
 92
        7
 72
     1
 73
     1
 93
        4
 10
324.0837762475974
 20
276.0775980303979
 42
0.0
 10
324.4299317997741
 20
276.0258647365026
 42
-0.4142135623730951
 10
325.2825507556427
 20
276.6567695756768
 42
0.0
 10
325.334284049538
 20
277.0029251278535
 42
0.4142135623730996
 97
        0
 92
        7
 72
     1
 73
     1
 93
        5
 10
324.4299317997741
 20
276.0258647365026
 42
0.0
 10
324.0837762475974
 20
276.0775980303979
 42
0.3173569687788799
 10
324.6540683289259
 20
274.9444078749304
 42
0.0
 10
325.0564463391351
 20
275.1438695986511
 42
0.0
 10
325.0608366389482
 20
275.1732457806339
 42
-0.4142135623730839
 97
        0
 92
        7
 72
     1
 73
     1
 93
        4
 10
325.334284049538
 20
277.0029251278535
 42
0.0
 10
325.2825507556427
 20
276.6567695756768
 42
-0.4142135623730951
 10
325.913455594817
 20
275.8041506198081
 42
0.0
 10
326.2596111469936
 20
275.7524173259128
 42
0.4142135623730996
 97
        0
 92
        7
 72
     1
 73
     1
 93
        4
 10
325.913455594817
 20
275.8041506198081
 42
-0.1036385141593389
 10
325.8065637647082
 20
275.5157082948559
 42
0.0
 10
326.2575654025863
 20
275.7392731065741
 42
0.003023315109616
 10
326.2596111469936
 20
275.7524173259128
 42
0.0
 97
        0
 75
     0
 76
     1
 47
0.0223982890607777
 98
        4
 10
324.6676381962965
 20
276.766762866224
 10
324.3402832090339
 20
275.6371236651209
 10
325.5990735464877
 20
276.7862113370306
 10
325.9849450032171
 20
275.7312968903175
450
        0
451
        0
460
0.0
461
0.0
452
        0
462
0.0
453
        0
470

  0
CIRCLE
  5
152C
330
18
100
AcDbEntity
  8
針
100
AcDbCircle
 10
325.1716936972956
 20
275.9150076781553
 30
0.0
 40
1.1
  0
CIRCLE
  5
152D
330
18
100
AcDbEntity
  8
針
100
AcDbCircle
 10
325.1716936972956
 20
275.9150076781553
 30
0.0
 40
0.75
  0
HATCH
  5
152E
330
18
100
AcDbEntity
  8
針
100
AcDbHatch
 10
0.0
 20
0.0
 30
0.0
210
0.0
220
0.0
230
1.0
  2
SOLID
 70
     1
 71
     0
 91
        1
 92
        7
 72
     1
 73
     1
 93
        7
 10
325.2716936972956
 20
280.6150076781555
 42
0.0
 10
325.1716936972955
 20
280.6150076781553
 42
0.0
 10
325.0716936972955
 20
280.6150076781553
 42
0.0
 10
325.0267853396572
 20
277.372377023485
 42
-0.2935495917910092
 10
324.7283521631203
 20
276.9217093638967
 42
-0.2104432563350663
 10
325.6150345518534
 20
276.9217096631936
 42
-0.2935491884945053
 10
325.3166020549339
 20
277.3723770234849
 42
0.0
 97
        0
 75
     0
 76
     1
 47
0.0140573597042523
 98
        1
 10
325.230295413193
 20
278.8095677234556
450
        0
451
        0
460
0.0
461
0.0
452
        0
462
0.0
453
        0
470

  0
LINE
  5
152F
330
18
100
AcDbEntity
  8
針
100
AcDbLine
 10
325.3166020549339
 20
277.372377023485
 30
0.0
 11
325.2716936972955
 21
280.6150076781553
 31
0.0
  0
LINE
  5
1530
330
18
100
AcDbEntity
  8
針
100
AcDbLine
 10
325.0267853396572
 20
277.372377023485
 30
0.0
 11
325.0716936972955
 21
280.6150076781553
 31
0.0
  0
CIRCLE
  5
1531
330
18
100
AcDbEntity
  8
針
 62
     4
100
AcDbCircle
 10
325.1716936972956
 20
275.9150076781553
 30
0.0
 40
0.4
  0
ARC
  5
1532
330
18
100
AcDbEntity
  8
針
100
AcDbCircle
 10
325.8165541106411
 20
277.3793010392334
 30
0.0
 40
0.5
100
AcDbArc
 50
180.7934591207347
 51
246.2317787024804
  0
ARC
  5
1533
330
18
100
AcDbEntity
  8
針
100
AcDbCircle
 10
324.5268332839499
 20
277.3793010392334
 30
0.0
 40
0.5
100
AcDbArc
 50
293.7682212975196
 51
359.2065408792653
  0
LINE
  5
1534
330
18
100
AcDbEntity
  8
文字
100
AcDbLine
 10
325.2716936972955
 20
280.6150076781553
 30
0.0
 11
325.0716936972955
 21
280.6150076781553
 31
0.0
  0
LINE
  5
1535
330
18
100
AcDbEntity
  8
0
  6
ByBlock
 62
     2
100
AcDbLine
 10
416.005580086419
 20
210.4889790896693
 30
0.0
 11
376.1627583044748
 21
210.4889790896693
 31
0.0
  0
LINE
  5
1536
330
18
100
AcDbEntity
  8
0
  6
ByBlock
 62
     2
100
AcDbLine
 10
377.4127583044748
 20
257.0889790896693
 30
0.0
 11
377.4127583044748
 21
212.9889790896693
 31
0.0
  0
INSERT
  5
1537
330
18
100
AcDbEntity
  8
0
  6
ByBlock
 62
     2
100
AcDbBlockReference
  2
_OPEN
 10
377.4127583044748
 20
259.5889790896693
 30
0.0
 41
2.5
 42
2.5
 43
2.5
 50
90.0
  0
INSERT
  5
1538
330
18
100
AcDbEntity
  8
0
  6
ByBlock
 62
     2
100
AcDbBlockReference
  2
_OPEN
 10
377.4127583044748
 20
210.4889790896693
 30
0.0
 41
2.5
 42
2.5
 43
2.5
 50
270.0
  0
MTEXT
  5
1539
330
18
100
AcDbEntity
  8
0
  6
ByBlock
 62
     6
100
AcDbMText
 10
375.5377583044748
 20
235.0389790896692
 30
0.0
 40
2.5
 41
0.0
 71
     5
 72
     1
  1
\A1;49
  7
STYLE3
 11
0.0000000000000001
 21
1.0
 31
0.0
 73
     1
 44
1.0
  0
POINT
  5
153A
330
18
100
AcDbEntity
  8
DEFPOINTS
  6
ByBlock
 62
     0
100
AcDbPoint
 10
405.7055800864189
 20
259.5889790896693
 30
0.0
  0
POINT
  5
153B
330
18
100
AcDbEntity
  8
DEFPOINTS
  6
ByBlock
 62
     0
100
AcDbPoint
 10
416.005580086419
 20
210.4889790896693
 30
0.0
  0
POINT
  5
153C
330
18
100
AcDbEntity
  8
DEFPOINTS
  6
ByBlock
 62
     0
100
AcDbPoint
 10
377.4127583044748
 20
210.4889790896693
 30
0.0
  0
LINE
  5
153D
330
18
100
AcDbEntity
  8
ﾊｯﾁﾝｸ
100
AcDbLine
 10
413.505580086419
 20
218.8818501941897
 30
0.0
 11
413.9127089818987
 21
219.2889790896694
 31
0.0
  0
LINE
  5
153E
330
18
100
AcDbEntity
  8
ﾊｯﾁﾝｸ
100
AcDbLine
 10
413.505580086419
 20
217.5348117760293
 30
0.0
 11
415.259747400059
 21
219.2889790896693
 31
0.0
  0
LINE
  5
153F
330
18
100
AcDbEntity
  8
ﾊｯﾁﾝｸ
100
AcDbLine
 10
413.5067858182194
 20
216.1889790896692
 30
0.0
 11
416.005580086419
 21
218.6877733578689
 31
0.0
  0
LINE
  5
1540
330
18
100
AcDbEntity
  8
ﾊｯﾁﾝｸ
100
AcDbLine
 10
414.8538242363797
 20
216.1889790896692
 30
0.0
 11
416.0055800864189
 21
217.3407349397085
 31
0.0
  0
LINE
  5
1541
330
18
100
AcDbEntity
  8
ﾊｯﾁﾝｸ
100
AcDbLine
 10
413.5996280106044
 20
216.1889790896693
 30
0.0
 11
413.505580086419
 21
216.2830270138547
 31
0.0
  0
LINE
  5
1542
330
18
100
AcDbEntity
  8
ﾊｯﾁﾝｸ
100
AcDbLine
 10
414.9466664287647
 20
216.1889790896692
 30
0.0
 11
413.505580086419
 21
217.630065432015
 31
0.0
  0
LINE
  5
1543
330
18
100
AcDbEntity
  8
ﾊｯﾁﾝｸ
100
AcDbLine
 10
416.0055800864189
 20
216.4771038501754
 30
0.0
 11
413.505580086419
 21
218.9771038501754
 31
0.0
  0
LINE
  5
1544
330
18
100
AcDbEntity
  8
ﾊｯﾁﾝｸ
100
AcDbLine
 10
416.005580086419
 20
217.8241422683358
 30
0.0
 11
414.5407432650855
 21
219.2889790896693
 31
0.0
  0
LINE
  5
1545
330
18
100
AcDbEntity
  8
ﾊｯﾁﾝｸ
100
AcDbLine
 10
416.005580086419
 20
219.1711806864962
 30
0.0
 11
415.8877816832458
 21
219.2889790896693
 31
0.0
  0
LINE
  5
1546
330
18
100
AcDbEntity
  8
0
  6
ByBlock
 62
     2
100
AcDbLine
 10
426.5055800864188
 20
293.9905648331222
 30
0.0
 11
426.5055800864188
 21
302.2542692768451
 31
0.0
  0
LINE
  5
1547
330
18
100
AcDbEntity
  8
0
  6
ByBlock
 62
     2
100
AcDbLine
 10
431.5055800864189
 20
293.9889790896693
 30
0.0
 11
431.5055800864189
 21
302.2542692768451
 31
0.0
  0
LINE
  5
1548
330
18
100
AcDbEntity
  8
0
  6
ByBlock
 62
     2
100
AcDbLine
 10
424.0055800864188
 20
301.0042692768451
 30
0.0
 11
421.5055800864188
 21
301.0042692768451
 31
0.0
  0
LINE
  5
1549
330
18
100
AcDbEntity
  8
0
  6
ByBlock
 62
     2
100
AcDbLine
 10
434.0055800864188
 20
301.0042692768451
 30
0.0
 11
436.5055800864189
 21
301.0042692768451
 31
0.0
  0
LINE
  5
154A
330
18
100
AcDbEntity
  8
0
  6
ByBlock
 62
     2
100
AcDbLine
 10
426.5055800864188
 20
301.0042692768451
 30
0.0
 11
431.5055800864189
 21
301.0042692768451
 31
0.0
  0
INSERT
  5
154B
330
18
100
AcDbEntity
  8
0
  6
ByBlock
 62
     2
100
AcDbBlockReference
  2
_OPEN
 10
426.5055800864188
 20
301.0042692768451
 30
0.0
 41
2.5
 42
2.5
 43
2.5
  0
INSERT
  5
154C
330
18
100
AcDbEntity
  8
0
  6
ByBlock
 62
     2
100
AcDbBlockReference
  2
_OPEN
 10
431.5055800864189
 20
301.0042692768451
 30
0.0
 41
2.5
 42
2.5
 43
2.5
 50
180.0
  0
MTEXT
  5
154D
330
18
100
AcDbEntity
  8
0
  6
ByBlock
 62
     6
100
AcDbMText
 10
429.0055800864188
 20
302.8792692768451
 30
0.0
 40
2.5
 41
0.0
 71
     5
 72
     1
  1
\A1;5
  7
STYLE3
 73
     1
 44
1.0
  0
POINT
  5
154E
330
18
100
AcDbEntity
  8
DEFPOINTS
  6
ByBlock
 62
     0
100
AcDbPoint
 10
426.5055800864188
 20
293.9905648331222
 30
0.0
  0
POINT
  5
154F
330
18
100
AcDbEntity
  8
DEFPOINTS
  6
ByBlock
 62
     0
100
AcDbPoint
 10
431.5055800864189
 20
293.9889790896693
 30
0.0
  0
POINT
  5
1550
330
18
100
AcDbEntity
  8
DEFPOINTS
  6
ByBlock
 62
     0
100
AcDbPoint
 10
431.5055800864189
 20
301.0042692768451
 30
0.0
  0
LINE
  5
1551
330
18
100
AcDbEntity
  8
外形線
 62
     2
100
AcDbLine
 10
438.4565577320887
 20
291.3499987827834
 30
0.0
 11
442.2877977359284
 21
301.0042692768451
 31
0.0
  0
LINE
  5
1552
330
18
100
AcDbEntity
  8
外形線
 62
     2
100
AcDbLine
 10
442.2877977359284
 20
301.0042692768451
 30
0.0
 11
451.82410071298
 21
301.0042692768451
 31
0.0
  0
LINE
  5
155B
330
18
100
AcDbEntity
  8
外形線
 62
     2
100
AcDbLine
 10
438.8555145876288
 20
291.2298133488544
 30
0.0
 11
437.7354451285143
 21
288.9562576495432
 31
0.0
  0
LINE
  5
155C
330
18
100
AcDbEntity
  8
外形線
 62
     2
100
AcDbLine
 10
437.7354451285143
 20
288.9562576495432
 30
0.0
 11
438.0576008765486
 21
291.4701842167125
 31
0.0
  0
LINE
  5
155D
330
18
100
AcDbEntity
  8
外形線
 62
     2
100
AcDbLine
 10
437.7354451285143
 20
288.9562576495432
 30
0.0
 11
438.4565577320888
 21
291.3499987827834
 31
0.0
  0
TEXT
  5
155E
330
18
100
AcDbEntity
  8
外形線
 62
     6
100
AcDbText
 10
441.9193679332864
 20
301.4040728623506
 30
0.0
 40
2.5
  1
φ6.5
  7
STYLE3
100
AcDbText
  0
LINE
  5
15D8
102
{ACAD_REACTORS
330
15DC
102
}
330
18
100
AcDbEntity
  8
外形線
100
AcDbLine
 10
337.0438159680964
 20
288.1889790896692
 30
0.0
 11
337.0438159680964
 21
286.6889790896692
 31
0.0
  0
LINE
  5
15D9
102
{ACAD_REACTORS
330
15DC
102
}
330
18
100
AcDbEntity
  8
外形線
100
AcDbLine
 10
336.8771493014298
 20
288.1889790896692
 30
0.0
 11
336.8771493014298
 21
286.6889790896692
 31
0.0
  0
LINE
  5
15DA
102
{ACAD_REACTORS
330
15DD
102
}
330
18
100
AcDbEntity
  8
外形線
100
AcDbLine
 10
338.0438159680963
 20
288.1889790896692
 30
0.0
 11
338.0438159680963
 21
286.6889790896692
 31
0.0
  0
LINE
  5
15DB
102
{ACAD_REACTORS
330
15DD
102
}
330
18
100
AcDbEntity
  8
外形線
100
AcDbLine
 10
337.8771493014297
 20
288.1889790896692
 30
0.0
 11
337.8771493014297
 21
286.6889790896692
 31
0.0
  0
HATCH
  5
15DC
330
18
100
AcDbEntity
  8
外形線
100
AcDbHatch
 10
0.0
 20
0.0
 30
0.0
210
0.0
220
0.0
230
1.0
  2
SOLID
 70
     1
 71
     1
 91
        2
 92
        1
 93
        7
 72
     1
 10
336.8771493014298
 20
287.4389790896692
 11
335.7104826347631
 21
287.014347149692
 72
     1
 10
335.7104826347631
 20
287.014347149692
 11
335.7104826347631
 21
287.3493957563359
 72
     1
 10
335.7104826347631
 20
287.3493957563359
 11
334.7104826347631
 21
287.3493957563358
 72
     1
 10
334.7104826347631
 20
287.3493957563358
 11
334.7104826347631
 21
287.5285624230025
 72
     1
 10
334.7104826347631
 20
287.5285624230025
 11
335.7104826347631
 21
287.5285624230025
 72
     1
 10
335.7104826347631
 20
287.5285624230025
 11
335.7104826347631
 21
287.8636110296464
 72
     1
 10
335.7104826347631
 20
287.8636110296464
 11
336.8771493014298
 21
287.4389790896692
 97
        7
330
15EF
330
15F2
330
15EB
330
15ED
330
15EC
330
15F5
330
15EE
 92
        1
 93
        4
 72
     1
 10
336.8771493014298
 20
288.1889790896692
 11
336.8771493014298
 21
286.6889790896692
 72
     1
 10
336.8771493014298
 20
286.6889790896692
 11
337.0438159680964
 21
286.6889790896692
 72
     1
 10
337.0438159680964
 20
286.6889790896692
 11
337.0438159680964
 21
288.1889790896692
 72
     1
 10
337.0438159680964
 20
288.1889790896692
 11
336.8771493014298
 21
288.1889790896692
 97
        4
330
15D9
330
15DF
330
15D8
330
15F6
 75
     0
 76
     1
 98
        1
 10
429.2067060079101
 20
218.7768282824882
450
        0
451
        0
460
0.0
461
0.0
452
        0
462
0.0
453
        0
470

  0
HATCH
  5
15DD
330
18
100
AcDbEntity
  8
外形線
100
AcDbHatch
 10
0.0
 20
0.0
 30
0.0
210
0.0
220
0.0
230
1.0
  2
SOLID
 70
     1
 71
     1
 91
        2
 92
        1
 93
        7
 72
     1
 10
338.0438159680963
 20
287.4389790896692
 11
339.2104826347631
 21
287.014347149692
 72
     1
 10
339.2104826347631
 20
287.014347149692
 11
339.2104826347631
 21
287.3493957563359
 72
     1
 10
339.2104826347631
 20
287.3493957563359
 11
340.2104826347631
 21
287.3493957563358
 72
     1
 10
340.2104826347631
 20
287.3493957563358
 11
340.2104826347631
 21
287.5285624230025
 72
     1
 10
340.2104826347631
 20
287.5285624230025
 11
339.2104826347631
 21
287.5285624230025
 72
     1
 10
339.2104826347631
 20
287.5285624230025
 11
339.2104826347631
 21
287.8636110296464
 72
     1
 10
339.2104826347631
 20
287.8636110296464
 11
338.0438159680963
 21
287.4389790896692
 97
        7
330
15FB
330
15F8
330
15E9
330
1600
330
15EA
330
15FC
330
15F7
 92
        1
 93
        4
 72
     1
 10
338.0438159680963
 20
288.1889790896692
 11
338.0438159680963
 21
286.6889790896692
 72
     1
 10
338.0438159680963
 20
286.6889790896692
 11
337.8771493014297
 21
286.6889790896692
 72
     1
 10
337.8771493014297
 20
286.6889790896692
 11
337.8771493014297
 21
288.1889790896692
 72
     1
 10
337.8771493014297
 20
288.1889790896692
 11
338.0438159680963
 21
288.1889790896692
 97
        4
330
15DA
330
15E8
330
15DB
330
15FF
 75
     0
 76
     1
 98
        1
 10
245.7142592616161
 20
218.7768282824882
450
        0
451
        0
460
0.0
461
0.0
452
        0
462
0.0
453
        0
470

  0
TEXT
  5
15DE
330
18
100
AcDbEntity
  8
文字
100
AcDbText
 10
334.4402290175494
 20
284.9526888552567
 30
0.0
 40
1.0
  1
0.01mm
  7
STYLE3
100
AcDbText
  0
LINE
  5
15DF
102
{ACAD_REACTORS
330
15DC
102
}
330
18
100
AcDbEntity
  8
外形線
100
AcDbLine
 10
337.0438159680964
 20
286.6889790896692
 30
0.0
 11
336.8771493014298
 21
286.6889790896692
 31
0.0
  0
POINT
  5
15E0
330
18
100
AcDbEntity
  8
DEFPOINTS
  6
ByBlock
 62
     0
100
AcDbPoint
 10
336.8771493014298
 20
286.6889790896692
 30
0.0
  0
POINT
  5
15E1
330
18
100
AcDbEntity
  8
DEFPOINTS
  6
ByBlock
 62
     0
100
AcDbPoint
 10
337.0438159680964
 20
286.6889790896692
 30
0.0
  0
POINT
  5
15E2
330
18
100
AcDbEntity
  8
DEFPOINTS
  6
ByBlock
 62
     0
100
AcDbPoint
 10
336.8771493014298
 20
286.6889790896692
 30
0.0
  0
POINT
  5
15E3
330
18
100
AcDbEntity
  8
DEFPOINTS
  6
ByBlock
 62
     0
100
AcDbPoint
 10
337.0438159680964
 20
286.6889790896692
 30
0.0
  0
POINT
  5
15E4
330
18
100
AcDbEntity
  8
DEFPOINTS
  6
ByBlock
 62
     0
100
AcDbPoint
 10
337.8771493014297
 20
286.6889790896692
 30
0.0
  0
POINT
  5
15E5
330
18
100
AcDbEntity
  8
DEFPOINTS
  6
ByBlock
 62
     0
100
AcDbPoint
 10
338.0438159680963
 20
286.6889790896692
 30
0.0
  0
POINT
  5
15E6
330
18
100
AcDbEntity
  8
DEFPOINTS
  6
ByBlock
 62
     0
100
AcDbPoint
 10
337.8771493014297
 20
286.6889790896692
 30
0.0
  0
POINT
  5
15E7
330
18
100
AcDbEntity
  8
DEFPOINTS
  6
ByBlock
 62
     0
100
AcDbPoint
 10
338.0438159680963
 20
286.6889790896692
 30
0.0
  0
LINE
  5
15E8
102
{ACAD_REACTORS
330
15DD
102
}
330
18
100
AcDbEntity
  8
外形線
100
AcDbLine
 10
337.8771493014297
 20
286.6889790896692
 30
0.0
 11
338.0438159680963
 21
286.6889790896692
 31
0.0
  0
LINE
  5
15E9
102
{ACAD_REACTORS
330
15DD
102
}
330
18
100
AcDbEntity
  8
外形線
100
AcDbLine
 10
340.2104826347631
 20
287.3493957563358
 30
0.0
 11
339.2104826347631
 21
287.3493957563359
 31
0.0
  0
LINE
  5
15EA
102
{ACAD_REACTORS
330
15DD
102
}
330
18
100
AcDbEntity
  8
外形線
100
AcDbLine
 10
340.2104826347631
 20
287.5285624230025
 30
0.0
 11
339.2104826347631
 21
287.5285624230025
 31
0.0
  0
LINE
  5
15EB
102
{ACAD_REACTORS
330
15DC
102
}
330
18
100
AcDbEntity
  8
外形線
100
AcDbLine
 10
334.7104826347631
 20
287.3493957563358
 30
0.0
 11
335.7104826347631
 21
287.3493957563359
 31
0.0
  0
LINE
  5
15EC
102
{ACAD_REACTORS
330
15DC
102
}
330
18
100
AcDbEntity
  8
外形線
100
AcDbLine
 10
334.7104826347631
 20
287.5285624230025
 30
0.0
 11
335.7104826347631
 21
287.5285624230025
 31
0.0
  0
LINE
  5
15ED
102
{ACAD_REACTORS
330
15DC
102
}
330
18
100
AcDbEntity
  8
外形線
100
AcDbLine
 10
334.7104826347631
 20
287.5285624230025
 30
0.0
 11
334.7104826347631
 21
287.3493957563358
 31
0.0
  0
LINE
  5
15EE
102
{ACAD_REACTORS
330
15DC
102
}
330
18
100
AcDbEntity
  8
外形線
100
AcDbLine
 10
336.8771493014298
 20
287.4389790896692
 30
0.0
 11
335.7104826347631
 21
287.8636110296464
 31
0.0
  0
LINE
  5
15EF
102
{ACAD_REACTORS
330
15DC
102
}
330
18
100
AcDbEntity
  8
外形線
100
AcDbLine
 10
336.8771493014298
 20
287.4389790896692
 30
0.0
 11
335.7104826347631
 21
287.014347149692
 31
0.0
  0
POINT
  5
15F0
330
18
100
AcDbEntity
  8
DEFPOINTS
  6
ByBlock
 62
     0
100
AcDbPoint
 10
335.7104826347631
 20
287.014347149692
 30
0.0
  0
POINT
  5
15F1
330
18
100
AcDbEntity
  8
DEFPOINTS
  6
ByBlock
 62
     0
100
AcDbPoint
 10
335.7104826347631
 20
287.014347149692
 30
0.0
  0
LINE
  5
15F2
102
{ACAD_REACTORS
330
15DC
102
}
330
18
100
AcDbEntity
  8
外形線
100
AcDbLine
 10
335.7104826347631
 20
287.3493957563359
 30
0.0
 11
335.7104826347631
 21
287.014347149692
 31
0.0
  0
POINT
  5
15F3
330
18
100
AcDbEntity
  8
DEFPOINTS
  6
ByBlock
 62
     0
100
AcDbPoint
 10
335.7104826347631
 20
287.8636110296464
 30
0.0
  0
POINT
  5
15F4
330
18
100
AcDbEntity
  8
DEFPOINTS
  6
ByBlock
 62
     0
100
AcDbPoint
 10
335.7104826347631
 20
287.8636110296464
 30
0.0
  0
LINE
  5
15F5
102
{ACAD_REACTORS
330
15DC
102
}
330
18
100
AcDbEntity
  8
外形線
100
AcDbLine
 10
335.7104826347631
 20
287.8636110296464
 30
0.0
 11
335.7104826347631
 21
287.5285624230025
 31
0.0
  0
LINE
  5
15F6
102
{ACAD_REACTORS
330
15DC
102
}
330
18
100
AcDbEntity
  8
外形線
100
AcDbLine
 10
337.0438159680964
 20
288.1889790896692
 30
0.0
 11
336.8771493014298
 21
288.1889790896692
 31
0.0
  0
LINE
  5
15F7
102
{ACAD_REACTORS
330
15DD
102
}
330
18
100
AcDbEntity
  8
外形線
100
AcDbLine
 10
338.0438159680963
 20
287.4389790896692
 30
0.0
 11
339.2104826347631
 21
287.8636110296464
 31
0.0
  0
LINE
  5
15F8
102
{ACAD_REACTORS
330
15DD
102
}
330
18
100
AcDbEntity
  8
外形線
100
AcDbLine
 10
339.2104826347631
 20
287.3493957563359
 30
0.0
 11
339.2104826347631
 21
287.014347149692
 31
0.0
  0
POINT
  5
15F9
330
18
100
AcDbEntity
  8
DEFPOINTS
  6
ByBlock
 62
     0
100
AcDbPoint
 10
339.2104826347631
 20
287.014347149692
 30
0.0
  0
POINT
  5
15FA
330
18
100
AcDbEntity
  8
DEFPOINTS
  6
ByBlock
 62
     0
100
AcDbPoint
 10
339.2104826347631
 20
287.014347149692
 30
0.0
  0
LINE
  5
15FB
102
{ACAD_REACTORS
330
15DD
102
}
330
18
100
AcDbEntity
  8
外形線
100
AcDbLine
 10
338.0438159680963
 20
287.4389790896692
 30
0.0
 11
339.2104826347631
 21
287.014347149692
 31
0.0
  0
LINE
  5
15FC
102
{ACAD_REACTORS
330
15DD
102
}
330
18
100
AcDbEntity
  8
外形線
100
AcDbLine
 10
339.2104826347631
 20
287.8636110296464
 30
0.0
 11
339.2104826347631
 21
287.5285624230025
 31
0.0
  0
POINT
  5
15FD
330
18
100
AcDbEntity
  8
DEFPOINTS
  6
ByBlock
 62
     0
100
AcDbPoint
 10
339.2104826347631
 20
287.8636110296464
 30
0.0
  0
POINT
  5
15FE
330
18
100
AcDbEntity
  8
DEFPOINTS
  6
ByBlock
 62
     0
100
AcDbPoint
 10
339.2104826347631
 20
287.8636110296464
 30
0.0
  0
LINE
  5
15FF
102
{ACAD_REACTORS
330
15DD
102
}
330
18
100
AcDbEntity
  8
外形線
100
AcDbLine
 10
337.8771493014297
 20
288.1889790896692
 30
0.0
 11
338.0438159680963
 21
288.1889790896692
 31
0.0
  0
LINE
  5
1600
102
{ACAD_REACTORS
330
15DD
102
}
330
18
100
AcDbEntity
  8
外形線
100
AcDbLine
 10
340.2104826347631
 20
287.5285624230025
 30
0.0
 11
340.2104826347631
 21
287.3493957563358
 31
0.0
  0
DIMENSION
  5
216F
330
18
100
AcDbEntity
  8
寸法線
100
AcDbDimension
  2
*D3
 10
363.3151883270585
 20
262.9889790896693
 30
0.0
 11
361.4401883270584
 21
285.9889790896693
 31
0.0
 70
    32
 71
     5
 42
46.0
  3
φ
100
AcDbAlignedDimension
 13
328.3716936972956
 23
308.9889790896693
 33
0.0
 14
328.3716936972957
 24
262.9889790896693
 34
0.0
 50
90.0
100
AcDbRotatedDimension
  0
DIMENSION
  5
218E
330
18
100
AcDbEntity
  8
寸法線
100
AcDbDimension
  2
*D4
 10
377.4127583044748
 20
259.5889790896694
 30
0.0
 11
375.5377583044747
 21
285.9889790896694
 31
0.0
 70
    32
 71
     5
 42
52.79999999999995
  3
φ
100
AcDbAlignedDimension
 13
406.9827672079667
 23
312.3889790896693
 33
0.0
 14
406.9827672079667
 24
259.5889790896693
 34
0.0
 50
90.0
100
AcDbRotatedDimension
1001
ACAD
1000
DSTYLE
1002
{
1070
   271
1070
     0
1002
}
  0
DIMENSION
  5
21BF
330
18
100
AcDbEntity
  8
寸法線
100
AcDbDimension
  2
*D5
 10
332.3716936972956
 20
252.1765406204615
 30
0.0
 11
343.1335984592004
 21
252.1765406204615
 31
0.0
 70
   160
  1
%%C<>
 71
     5
 42
8.0
  3
.0 type現尺
100
AcDbAlignedDimension
 13
324.3716936972956
 23
249.5864955968129
 33
0.0
 14
332.3716936972956
 24
249.7128389511376
 34
0.0
100
AcDbRotatedDimension
1001
ACAD
1000
DSTYLE
1002
{
1070
    76
1070
     1
1070
    75
1070
     1
1070
   146
1040
0.7
1070
   284
1070
     8
1070
   272
1070
     2
1070
   283
1070
     0
1070
    48
1040
0.03
1070
   147
1040
0.625
1070
    72
1070
     0
1070
    71
1070
     1
1002
}
  0
DIMENSION
  5
21D3
330
18
100
AcDbEntity
  8
寸法線
100
AcDbDimension
  2
*D6
 10
332.2216936972956
 20
244.7875835378045
 30
0.0
 11
339.4705007502551
 21
244.7875835378045
 31
0.0
 70
   160
 71
     5
 42
7.700000000000045
  3
φ
100
AcDbAlignedDimension
 13
324.5216936972956
 23
244.7389790896693
 33
0.0
 14
332.2216936972956
 24
244.7389790896692
 34
0.0
100
AcDbRotatedDimension
1001
ACAD
1000
DSTYLE
1002
{
1070
    76
1070
     1
1070
    75
1070
     1
1002
}
  0
DIMENSION
  5
220F
330
18
100
AcDbEntity
  8
寸法線
100
AcDbDimension
  2
*D7
 10
331.9716936972956
 20
238.3000027626607
 30
0.0
 11
338.8466936972956
 21
238.3000027626607
 31
0.0
 70
   160
 71
     5
 42
7.200000000000045
  3
φ
100
AcDbAlignedDimension
 13
324.7716936972956
 23
242.0889790896692
 33
0.0
 14
331.9716936972956
 24
242.0889790896692
 34
0.0
100
AcDbRotatedDimension
  0
DIMENSION
  5
224B
330
18
100
AcDbEntity
  8
寸法線
100
AcDbDimension
  2
*D8
 10
330.3716936972955
 20
224.8798827654075
 30
0.0
 11
338.020503221105
 21
224.8798827654075
 31
0.0
 70
   160
 71
     5
 42
3.999999999999943
  3
φ
100
AcDbAlignedDimension
 13
326.3716936972955
 23
228.668859092416
 33
0.0
 14
330.3716936972955
 24
228.5268283829593
 34
0.0
100
AcDbRotatedDimension
1001
ACAD
1000
DSTYLE
1002
{
1070
    76
1070
     1
1070
    75
1070
     1
1002
}
  0
DIMENSION
  5
228C
330
18
100
AcDbEntity
  8
寸法線
100
AcDbDimension
  2
*D9
 10
455.3017150329963
 20
261.4889790896693
 30
0.0
 11
453.4267150329963
 21
285.9889790896694
 31
0.0
 70
    32
 71
     5
 42
49.0
  3
φ
100
AcDbAlignedDimension
 13
422.5055800864188
 23
310.4889790896693
 33
0.0
 14
422.5055800864188
 24
261.4889790896693
 34
0.0
 50
90.0
100
AcDbRotatedDimension
  0
DIMENSION
  5
22AB
330
18
100
AcDbEntity
  8
寸法線
100
AcDbDimension
  2
*D10
 10
416.0055800864188
 20
342.7195187861653
 30
0.0
 11
408.7555800864188
 21
344.5945187861653
 31
0.0
 70
    32
 71
     5
 42
14.5
  3
STYLE2
100
AcDbAlignedDimension
 13
401.5055800864188
 23
285.9889790896693
 33
0.0
 14
416.0055800864188
 24
341.692970699489
 34
0.0
100
AcDbRotatedDimension
1001
ACAD
1000
DSTYLE
1002
{
1070
   271
1070
     2
1070
   341
1005
0
1002
}
  0
DIMENSION
  5
22B8
330
18
100
AcDbEntity
  8
寸法線
100
AcDbDimension
  2
*D11
 10
422.5055800864188
 20
342.7195187861653
 30
0.0
 11
419.2555800864188
 21
344.5945187861653
 31
0.0
 70
    32
 71
     5
 42
6.500000000000056
  3
STYLE2
100
AcDbAlignedDimension
 13
416.0055800864188
 23
341.692970699489
 33
0.0
 14
422.5055800864188
 24
310.4889790896693
 34
0.0
100
AcDbRotatedDimension
1001
ACAD
1000
DSTYLE
1002
{
1070
   279
1070
     1
1070
   271
1070
     2
1070
   341
1005
0
1002
}
  0
ARC
  5
22D4
330
18
100
AcDbEntity
  8
外形線
100
AcDbCircle
 10
328.3716936972956
 20
211.6889790896693
 30
0.0
 40
1.199999999999999
100
AcDbArc
 50
189.59406822686
 51
350.40593177314
  0
ARC
  5
22D5
330
18
100
AcDbEntity
  8
外形線
100
AcDbCircle
 10
416.005580086419
 20
211.6889790896693
 30
0.0
 40
1.199999999999999
100
AcDbArc
 50
189.59406822686
 51
350.40593177314
  0
TEXT
  5
230F
330
18
100
AcDbEntity
  8
文字
100
AcDbText
 10
307.206673379169
 20
358.7231031663315
 30
0.0
 40
4.0
  1
Model No.207S Long Travel Dial Gauge
  7
STYLE3
100
AcDbText
  0
LINE
  5
2310
330
18
100
AcDbEntity
  8
外形線
100
AcDbLine
 10
306.756807379169
 20
355.3408321663314
 30
0.0
 11
422.7568073791689
 21
355.3408321663314
 31
0.0
  0
LINE
  5
2311
330
18
100
AcDbEntity
  8
外形線
100
AcDbLine
 10
306.756807379169
 20
356.3408321663314
 30
0.0
 11
422.7568073791689
 21
356.3408321663314
 31
0.0
  0
LINE
  5
2313
330
18
100
AcDbEntity
  8
外形線
100
AcDbLine
 10
350.420526379169
 20
192.4089731663314
 30
0.0
 11
491.2119443791689
 21
192.4089731663314
 31
0.0
  0
LINE
  5
2314
330
18
100
AcDbEntity
  8
外形線
100
AcDbLine
 10
350.420526379169
 20
181.6287671663314
 30
0.0
 11
491.2119443791689
 21
181.6287671663314
 31
0.0
  0
TEXT
  5
2315
330
18
100
AcDbEntity
  8
0
  6
Continuous
100
AcDbText
 10
351.877993379169
 20
183.5267571663314
 30
0.0
 40
2.1
  1
Design and specifications are subject to change without notice for future improvement.
  7
STYLE3
100
AcDbText
  0
TEXT
  5
2316
330
18
100
AcDbEntity
  8
0
  6
Continuous
100
AcDbText
 10
352.169487379169
 20
187.4559051663314
 30
0.0
 40
3.5
  1
仕様及び外観は予告なく変更される場合がございますのでご了承下さい。
  7
STYLE3
100
AcDbText
  0
TEXT
  5
2317
330
18
100
AcDbEntity
  8
0
  6
Continuous
100
AcDbText
 10
351.586502379169
 20
173.7621291663314
 30
0.0
 40
2.1
  1
3RD Angle Projection
  7
STYLE3
100
AcDbText
  0
TEXT
  5
2318
330
18
100
AcDbEntity
  8
0
  6
Continuous
100
AcDbText
 10
354.209945379169
 20
177.2584121663314
 30
0.0
 40
3.0
  1
三　　角　　法
  7
STYLE3
100
AcDbText
  0
LINE
  5
2319
330
18
100
AcDbEntity
  8
外形線
100
AcDbLine
 10
350.420526379169
 20
172.0139891663314
 30
0.0
 11
350.420526379169
 21
192.4089731663314
 31
0.0
  0
LINE
  5
231A
330
18
100
AcDbEntity
  8
外形線
100
AcDbLine
 10
452.4432933791689
 20
181.6287671663314
 30
0.0
 11
452.4432933791689
 21
172.0139891663314
 31
0.0
  0
LINE
  5
231B
330
18
100
AcDbEntity
  8
外形線
100
AcDbLine
 10
422.7109433791689
 20
181.6287671663314
 30
0.0
 11
422.7109433791689
 21
172.0139891663314
 31
0.0
  0
LINE
  5
231C
330
18
100
AcDbEntity
  8
外形線
100
AcDbLine
 10
403.1808713791689
 20
181.6287671663314
 30
0.0
 11
403.1808713791689
 21
172.0139891663314
 31
0.0
  0
LINE
  5
231D
330
18
100
AcDbEntity
  8
外形線
100
AcDbLine
 10
385.691254379169
 20
181.6287671663314
 30
0.0
 11
385.691254379169
 21
172.0139891663314
 31
0.0
  0
TEXT
  5
231E
330
18
100
AcDbEntity
  8
0
  6
Continuous
100
AcDbText
 10
387.1487233791689
 20
177.2643671663314
 30
0.0
 40
3.0
  1
単位
  7
STYLE3
100
AcDbText
  0
TEXT
  5
231F
330
18
100
AcDbEntity
  8
0
  6
Continuous
100
AcDbText
 10
387.320444379169
 20
173.7621301663314
 30
0.0
 40
2.1
  1
Unit
  7
STYLE3
100
AcDbText
  0
TEXT
  5
2320
330
18
100
AcDbEntity
  8
0
  6
Continuous
100
AcDbText
 10
404.4666193791689
 20
176.9730091663314
 30
0.0
 40
3.0
  1
尺 度
  7
STYLE3
100
AcDbText
  0
TEXT
  5
2321
330
18
100
AcDbEntity
  8
0
  6
Continuous
100
AcDbText
 10
395.190771379169
 20
175.5102731663314
 30
0.0
 40
2.399999999999999
  1
mm
  7
STYLE3
100
AcDbText
  0
TEXT
  5
2322
330
18
100
AcDbEntity
  8
0
  6
Continuous
100
AcDbText
 10
404.9298343791689
 20
174.0534871663314
 30
0.0
 40
2.1
  1
Scale
  7
STYLE3
100
AcDbText
  0
TEXT
  5
2323
330
18
100
AcDbEntity
  8
0
  6
Continuous
100
AcDbText
 10
414.5491233791689
 20
175.8016301663314
 30
0.0
 40
2.399999999999999
  1
1/1
  7
STYLE3
100
AcDbText
  0
TEXT
  5
2324
330
18
100
AcDbEntity
  8
0
  6
Continuous
100
AcDbText
 10
424.642894379169
 20
173.7621311663314
 30
0.0
 40
2.1
  1
Date
  7
STYLE3
100
AcDbText
  0
TEXT
  5
2325
330
18
100
AcDbEntity
  8
0
  6
Continuous
100
AcDbText
 10
424.2595333791689
 20
177.0952141663314
 30
0.0
 40
3.0
  1
日 付
  7
STYLE3
100
AcDbText
  0
TEXT
  5
2326
330
18
100
AcDbEntity
  8
0
  6
Continuous
100
AcDbText
 10
433.3877023791689
 20
175.5102721663314
 30
0.0
 40
2.1
  1
2010.06.08
  7
STYLE3
100
AcDbText
  0
TEXT
  5
2327
330
18
100
AcDbEntity
  8
0
  6
Continuous
100
AcDbText
 10
453.7922563791689
 20
177.5497691663314
 30
0.0
 40
3.0
  1
株式会社　尾崎製作所
  7
STYLE3
100
AcDbText
  0
TEXT
  5
2328
330
18
100
AcDbEntity
  8
0
  6
Continuous
100
AcDbText
 10
454.6667353791689
 20
173.7621301663314
 30
0.0
 40
2.1
  1
OZAKI MFG. CO., LTD.
  7
STYLE3
100
AcDbText
  0
ENDSEC
  0
SECTION
  2
OBJECTS
  0
DICTIONARY
  5
C
330
0
100
AcDbDictionary
281
     1
  3
ACAD_COLOR
350
160C
  3
ACAD_GROUP
350
D
  3
ACAD_IMAGE_DICT
350
E58
  3
ACAD_LAYOUT
350
160F
  3
ACAD_MATERIAL
350
160B
  3
ACAD_MLINESTYLE
350
1B
  3
ACAD_PLOTSETTINGS
350
1610
  3
ACAD_PLOTSTYLENAME
350
1609
  3
ACAD_TABLESTYLE
350
160D
  3
ACDBVARIABLEDICTIONARY
350
1025
  0
DICTIONARY
  5
160C
102
{ACAD_REACTORS
330
C
102
}
330
C
100
AcDbDictionary
281
     1
  0
DICTIONARY
  5
D
102
{ACAD_REACTORS
330
C
102
}
330
C
100
AcDbDictionary
281
     1
  0
DICTIONARY
  5
E58
102
{ACAD_REACTORS
330
C
102
}
330
C
100
AcDbDictionary
281
     1
  3
ROGO01
350
E59
  0
DICTIONARY
  5
160F
102
{ACAD_REACTORS
330
C
102
}
330
C
100
AcDbDictionary
281
     1
  3
Model
350
1611
  3
レイアウト1
350
1612
  0
DICTIONARY
  5
160B
102
{ACAD_REACTORS
330
C
102
}
330
C
100
AcDbDictionary
281
     1
  0
DICTIONARY
  5
1B
102
{ACAD_REACTORS
330
C
102
}
330
C
100
AcDbDictionary
281
     1
  3
STANDARD
350
1C
  0
DICTIONARY
  5
1610
102
{ACAD_REACTORS
330
C
102
}
330
C
100
AcDbDictionary
281
     1
  0
ACDBDICTIONARYWDFLT
  5
1609
102
{ACAD_REACTORS
330
C
102
}
330
C
100
AcDbDictionary
281
     1
  3
Normal
350
160A
100
AcDbDictionaryWithDefault
340
160A
  0
DICTIONARY
  5
160D
102
{ACAD_REACTORS
330
C
102
}
330
C
100
AcDbDictionary
281
     1
  3
Standard
350
160E
  0
DICTIONARY
  5
1025
102
{ACAD_REACTORS
330
C
102
}
330
C
100
AcDbDictionary
281
     1
  3
CTABLESTYLE
350
22C7
  3
SORTENTS
350
1026
  0
IMAGEDEF
  5
E59
102
{ACAD_REACTORS
330
E58
102
}
330
E58
100
AcDbRasterImageDef
 90
        0
  1
D:\ﾃｽﾄ\rogo01.TIF
 10
3388.0
 20
4668.0
 11
0.0635
 21
0.0635
280
     1
281
     5
  0
LAYOUT
  5
1611
102
{ACAD_REACTORS
330
160F
102
}
330
160F
100
AcDbPlotSettings
  1

  2
WIDR Printer
  4

  6

 40
0.0
 41
0.0
 42
0.0
 43
0.0
 44
0.0
 45
0.0
 46
0.0
 47
0.0
 48
0.0
 49
0.0
140
0.0
141
0.0
142
1.0
143
1.0
 70
  1712
 72
     0
 73
     0
 74
     0
  7
AutoCad LT 98.ctb
 75
     0
147
1.0
 76
     0
 77
     2
 78
   300
148
0.0
149
0.0
100
AcDbLayout
  1
Model
 70
     1
 71
     0
 10
0.0
 20
0.0
 11
12.0
 21
9.0
 12
0.0
 22
0.0
 32
0.0
 14
0.0
 24
0.0
 34
0.0
 15
0.0
 25
0.0
 35
0.0
146
0.0
 13
0.0
 23
0.0
 33
0.0
 16
1.0
 26
0.0
 36
0.0
 17
0.0
 27
1.0
 37
0.0
 76
     0
330
18
  0
LAYOUT
  5
1612
102
{ACAD_REACTORS
330
160F
102
}
330
160F
100
AcDbPlotSettings
  1

  2
WIDR Printer
  4

  6

 40
0.0
 41
0.0
 42
0.0
 43
0.0
 44
0.0
 45
0.0
 46
0.0
 47
0.0
 48
0.0
 49
0.0
140
0.0
141
0.0
142
1.0
143
1.0
 70
   688
 72
     0
 73
     0
 74
     5
  7
AutoCad LT 98.ctb
 75
    16
147
1.0
 76
     0
 77
     2
 78
   300
148
0.0
149
0.0
100
AcDbLayout
  1
レイアウト1
 70
     1
 71
     1
 10
0.0
 20
0.0
 11
420.0
 21
297.0
 12
0.0
 22
0.0
 32
0.0
 14
1.000000000000000E+20
 24
1.000000000000000E+20
 34
1.000000000000000E+20
 15
-1.000000000000000E+20
 25
-1.000000000000000E+20
 35
-1.000000000000000E+20
146
0.0
 13
0.0
 23
0.0
 33
0.0
 16
1.0
 26
0.0
 36
0.0
 17
0.0
 27
1.0
 37
0.0
 76
     0
330
15
  0
MLINESTYLE
  5
1C
102
{ACAD_REACTORS
330
1B
102
}
330
1B
100
AcDbMlineStyle
  2
STANDARD
 70
     0
  3

 62
   256
 51
90.0
 52
90.0
 71
     2
 49
0.5
 62
   256
  6
BYLAYER
 49
-0.5
 62
   256
  6
BYLAYER
  0
ACDBPLACEHOLDER
  5
160A
102
{ACAD_REACTORS
330
1609
102
}
330
1609
  0
ACAD_PROXY_OBJECT
  5
160E
102
{ACAD_REACTORS
330
160D
102
}
330
160D
100
AcDbProxyObject
 90
      499
 91
      505
 95
  2555929
 70
     0
 93
     1849
310
4214DD185B99185C992420000000000000F83F0000000000003E0FC00000000000004901028000000C1008070000C3001FDFF8000000C1003FBFF000000182007F7FE00000030400FEFFC00000060801FDFF8000000C1003FBFF000000182000000000000000C2020B0000001820100E000186003FBFF000000182007F7FE0
310
0000030400FEFFC00000060801FDFF8000000C1003FBFF000000182007F7FE0000003040000000000000012404160000003040201C00030C007F7FE00000030400FEFFC00000060801FDFF8000000C1003FBFF000000182007F7FE00000030400FEFFC000000608000
340
F
340
F
340
F
 94
        0
  0
DICTIONARYVAR
  5
22C7
102
{ACAD_REACTORS
330
1025
102
}
330
1025
100
DictionaryVariables
280
     0
  1
STANDARD
  0
DICTIONARYVAR
  5
1026
102
{ACAD_REACTORS
330
1025
102
}
330
1025
100
DictionaryVariables
280
     0
  1
96
  0
ENDSEC
  0
EOF
