  0
SECTION
  2
HEADER
  9
$ACADVER
  1
AC1018
  9
$ACADMAINTVER
 70
     0
  9
$DWGCODEPAGE
  3
ANSI_932
  9
$INSBASE
 10
0.0
 20
0.0
 30
0.0
  9
$EXTMIN
 10
-0.4070952584013412
 20
-0.4045353325730048
 30
-1.000015248078273
  9
$EXTMAX
 10
377.9291398809024
 20
282.9178393942016
 30
0.0000152620489651
  9
$LIMMIN
 10
0.0
 20
0.0
  9
$LIMMAX
 10
420.0
 20
297.0
  9
$ORTHOMODE
 70
     0
  9
$REGENMODE
 70
     1
  9
$FILLMODE
 70
     1
  9
$QTEXTMODE
 70
     0
  9
$MIRRTEXT
 70
     1
  9
$LTSCALE
 40
1.0
  9
$ATTMODE
 70
     1
  9
$TEXTSIZE
 40
1.0
  9
$TRACEWID
 40
1.0
  9
$TEXTSTYLE
  7
STYLE3
  9
$CLAYER
  8
寸法線
  9
$CELTYPE
  6
BYLAYER
  9
$CECOLOR
 62
   256
  9
$CELTSCALE
 40
1.0
  9
$DISPSILH
 70
     0
  9
$DIMSCALE
 40
1.0
  9
$DIMASZ
 40
2.5
  9
$DIMEXO
 40
0.0
  9
$DIMDLI
 40
3.75
  9
$DIMRND
 40
0.0
  9
$DIMDLE
 40
0.0
  9
$DIMEXE
 40
1.25
  9
$DIMTP
 40
0.0
  9
$DIMTM
 40
0.0
  9
$DIMTXT
 40
2.5
  9
$DIMCEN
 40
2.5
  9
$DIMTSZ
 40
0.0
  9
$DIMTOL
 70
     0
  9
$DIMLIM
 70
     0
  9
$DIMTIH
 70
     0
  9
$DIMTOH
 70
     0
  9
$DIMSE1
 70
     0
  9
$DIMSE2
 70
     0
  9
$DIMTAD
 70
     1
  9
$DIMZIN
 70
     8
  9
$DIMBLK
  1

  9
$DIMASO
 70
     1
  9
$DIMSHO
 70
     1
  9
$DIMPOST
  1

  9
$DIMAPOST
  1

  9
$DIMALT
 70
     0
  9
$DIMALTD
 70
     4
  9
$DIMALTF
 40
0.0394
  9
$DIMLFAC
 40
1.0
  9
$DIMTOFL
 70
     1
  9
$DIMTVP
 40
0.0
  9
$DIMTIX
 70
     0
  9
$DIMSOXD
 70
     0
  9
$DIMSAH
 70
     1
  9
$DIMBLK1
  1
OPEN
  9
$DIMBLK2
  1
OPEN
  9
$DIMSTYLE
  2
STYLE3
  9
$DIMCLRD
 70
     2
  9
$DIMCLRE
 70
     2
  9
$DIMCLRT
 70
     6
  9
$DIMTFAC
 40
1.0
  9
$DIMGAP
 40
0.625
  9
$DIMJUST
 70
     0
  9
$DIMSD1
 70
     0
  9
$DIMSD2
 70
     0
  9
$DIMTOLJ
 70
     1
  9
$DIMTZIN
 70
     0
  9
$DIMALTZ
 70
     0
  9
$DIMALTTZ
 70
     0
  9
$DIMUPT
 70
     0
  9
$DIMDEC
 70
     1
  9
$DIMTDEC
 70
     4
  9
$DIMALTU
 70
     8
  9
$DIMALTTD
 70
     4
  9
$DIMTXSTY
  7
STYLE3
  9
$DIMAUNIT
 70
     0
  9
$DIMADEC
 70
     0
  9
$DIMALTRND
 40
0.0
  9
$DIMAZIN
 70
     0
  9
$DIMDSEP
 70
    46
  9
$DIMATFIT
 70
     3
  9
$DIMFRAC
 70
     0
  9
$DIMLDRBLK
  1
OPEN
  9
$DIMLUNIT
 70
     2
  9
$DIMLWD
 70
    -2
  9
$DIMLWE
 70
    -2
  9
$DIMTMOVE
 70
     0
  9
$LUNITS
 70
     2
  9
$LUPREC
 70
     4
  9
$SKETCHINC
 40
1.0
  9
$FILLETRAD
 40
3.0
  9
$AUNITS
 70
     0
  9
$AUPREC
 70
     0
  9
$MENU
  1
.
  9
$ELEVATION
 40
0.0
  9
$PELEVATION
 40
0.0
  9
$THICKNESS
 40
0.0
  9
$LIMCHECK
 70
     0
  9
$CHAMFERA
 40
0.4
  9
$CHAMFERB
 40
0.4
  9
$CHAMFERC
 40
20.0
  9
$CHAMFERD
 40
0.0
  9
$SKPOLY
 70
     0
  9
$TDCREATE
 40
2451208.544225116
  9
$TDUCREATE
 40
2451208.169225116
  9
$TDUPDATE
 40
2455356.588189375
  9
$TDUUPDATE
 40
2455356.213189375
  9
$TDINDWG
 40
0.2210615856
  9
$TDUSRTIMER
 40
0.2210615856
  9
$USRTIMER
 70
     1
  9
$ANGBASE
 50
0.0
  9
$ANGDIR
 70
     0
  9
$PDMODE
 70
     0
  9
$PDSIZE
 40
0.0
  9
$PLINEWID
 40
0.0
  9
$SPLFRAME
 70
     0
  9
$SPLINETYPE
 70
     6
  9
$SPLINESEGS
 70
     8
  9
$HANDSEED
  5
1B80
  9
$SURFTAB1
 70
     6
  9
$SURFTAB2
 70
     6
  9
$SURFTYPE
 70
     6
  9
$SURFU
 70
     6
  9
$SURFV
 70
     6
  9
$UCSBASE
  2

  9
$UCSNAME
  2

  9
$UCSORG
 10
0.0
 20
0.0
 30
0.0
  9
$UCSXDIR
 10
1.0
 20
0.0
 30
0.0
  9
$UCSYDIR
 10
0.0
 20
1.0
 30
0.0
  9
$UCSORTHOREF
  2

  9
$UCSORTHOVIEW
 70
     0
  9
$UCSORGTOP
 10
0.0
 20
0.0
 30
0.0
  9
$UCSORGBOTTOM
 10
0.0
 20
0.0
 30
0.0
  9
$UCSORGLEFT
 10
0.0
 20
0.0
 30
0.0
  9
$UCSORGRIGHT
 10
0.0
 20
0.0
 30
0.0
  9
$UCSORGFRONT
 10
0.0
 20
0.0
 30
0.0
  9
$UCSORGBACK
 10
0.0
 20
0.0
 30
0.0
  9
$PUCSBASE
  2

  9
$PUCSNAME
  2

  9
$PUCSORG
 10
0.0
 20
0.0
 30
0.0
  9
$PUCSXDIR
 10
1.0
 20
0.0
 30
0.0
  9
$PUCSYDIR
 10
0.0
 20
1.0
 30
0.0
  9
$PUCSORTHOREF
  2

  9
$PUCSORTHOVIEW
 70
     0
  9
$PUCSORGTOP
 10
0.0
 20
0.0
 30
0.0
  9
$PUCSORGBOTTOM
 10
0.0
 20
0.0
 30
0.0
  9
$PUCSORGLEFT
 10
0.0
 20
0.0
 30
0.0
  9
$PUCSORGRIGHT
 10
0.0
 20
0.0
 30
0.0
  9
$PUCSORGFRONT
 10
0.0
 20
0.0
 30
0.0
  9
$PUCSORGBACK
 10
0.0
 20
0.0
 30
0.0
  9
$USERI1
 70
     0
  9
$USERI2
 70
     0
  9
$USERI3
 70
     0
  9
$USERI4
 70
     0
  9
$USERI5
 70
     0
  9
$USERR1
 40
0.0
  9
$USERR2
 40
0.0
  9
$USERR3
 40
0.0
  9
$USERR4
 40
0.0
  9
$USERR5
 40
0.0
  9
$WORLDVIEW
 70
     1
  9
$SHADEDGE
 70
     3
  9
$SHADEDIF
 70
    70
  9
$TILEMODE
 70
     1
  9
$MAXACTVP
 70
    48
  9
$PINSBASE
 10
0.0
 20
0.0
 30
0.0
  9
$PLIMCHECK
 70
     0
  9
$PEXTMIN
 10
1.000000000000000E+20
 20
1.000000000000000E+20
 30
1.000000000000000E+20
  9
$PEXTMAX
 10
-1.000000000000000E+20
 20
-1.000000000000000E+20
 30
-1.000000000000000E+20
  9
$PLIMMIN
 10
0.0
 20
0.0
  9
$PLIMMAX
 10
420.0
 20
297.0
  9
$UNITMODE
 70
     0
  9
$VISRETAIN
 70
     1
  9
$PLINEGEN
 70
     0
  9
$PSLTSCALE
 70
     1
  9
$TREEDEPTH
 70
  3020
  9
$CMLSTYLE
  2
STANDARD
  9
$CMLJUST
 70
     0
  9
$CMLSCALE
 40
20.0
  9
$PROXYGRAPHICS
 70
     1
  9
$MEASUREMENT
 70
     1
  9
$CELWEIGHT
370
    -1
  9
$ENDCAPS
280
     0
  9
$JOINSTYLE
280
     0
  9
$LWDISPLAY
290
     0
  9
$INSUNITS
 70
     0
  9
$HYPERLINKBASE
  1

  9
$STYLESHEET
  1

  9
$XEDIT
290
     1
  9
$CEPSNTYPE
380
     0
  9
$PSTYLEMODE
290
     1
  9
$FINGERPRINTGUID
  2
{268FA171-3F02-4E4E-A10F-4F2778A78822}
  9
$VERSIONGUID
  2
{51401408-6BA0-4059-B558-9C62F4EB0650}
  9
$EXTNAMES
290
     1
  9
$PSVPSCALE
 40
0.0
  9
$OLESTARTUP
290
     0
  9
$SORTENTS
280
    96
  9
$INDEXCTL
280
     0
  9
$HIDETEXT
280
     0
  9
$XCLIPFRAME
290
     0
  9
$HALOGAP
280
     0
  9
$OBSCOLOR
 70
   257
  9
$OBSLTYPE
280
     0
  9
$INTERSECTIONDISPLAY
280
     0
  9
$INTERSECTIONCOLOR
 70
   257
  9
$DIMASSOC
280
     1
  9
$PROJECTNAME
  1

  0
ENDSEC
  0
SECTION
  2
CLASSES
  0
CLASS
  1
HATCH
  2
AcDbHatch
  3
ObjectDBX Classes
 90
        0
 91
       39
280
     0
281
     1
  0
CLASS
  1
DICTIONARYVAR
  2
AcDbDictionaryVar
  3
ObjectDBX Classes
 90
        0
 91
        2
280
     0
281
     0
  0
CLASS
  1
ACDBDICTIONARYWDFLT
  2
AcDbDictionaryWithDefault
  3
ObjectDBX Classes
 90
        0
 91
        1
280
     0
281
     0
  0
CLASS
  1
TABLESTYLE
  2
AcDbTableStyle
  3
ObjectDBX Classes
 90
     2047
 91
        1
280
     0
281
     0
  0
ENDSEC
  0
SECTION
  2
TABLES
  0
TABLE
  2
VPORT
  5
8
330
0
100
AcDbSymbolTable
 70
     2
  0
VPORT
  5
1B7F
330
8
100
AcDbSymbolTableRecord
100
AcDbViewportTableRecord
  2
*Active
 70
     0
 10
0.0
 20
0.0
 11
1.0
 21
1.0
 12
188.7610223112505
 22
141.2566520308143
 13
0.0
 23
0.0
 14
10.0
 24
10.0
 15
10.0
 25
10.0
 16
0.0
 26
0.0
 36
1.0
 17
0.0
 27
0.0
 37
0.0
 40
285.4769175003622
 41
1.530456852791878
 42
50.0
 43
0.0
 44
0.0
 50
0.0
 51
0.0
 71
     0
 72
   100
 73
     1
 74
     1
 75
     0
 76
     0
 77
     0
 78
     0
281
     0
 65
     1
110
0.0
120
0.0
130
0.0
111
1.0
121
0.0
131
0.0
112
0.0
122
1.0
132
0.0
 79
     0
146
0.0
  0
ENDTAB
  0
TABLE
  2
LTYPE
  5
5
330
0
100
AcDbSymbolTable
 70
     4
  0
LTYPE
  5
12
330
5
100
AcDbSymbolTableRecord
100
AcDbLinetypeTableRecord
  2
BYBLOCK
 70
     0
  3

 72
    65
 73
     0
 40
0.0
  0
LTYPE
  5
13
330
5
100
AcDbSymbolTableRecord
100
AcDbLinetypeTableRecord
  2
BYLAYER
 70
     0
  3

 72
    65
 73
     0
 40
0.0
  0
LTYPE
  5
14
330
5
100
AcDbSymbolTableRecord
100
AcDbLinetypeTableRecord
  2
CONTINUOUS
 70
     0
  3
Solid line
 72
    65
 73
     0
 40
0.0
  0
LTYPE
  5
22
330
5
100
AcDbSymbolTableRecord
100
AcDbLinetypeTableRecord
  2
CENTER2
 70
     0
  3
Center (.5x) ___ _ ___ _ ___ _ ___ _ ___ _ ___
 72
    65
 73
     4
 40
28.575
 49
19.05
 74
     0
 49
-3.174999999999999
 74
     0
 49
3.174999999999999
 74
     0
 49
-3.174999999999999
 74
     0
  0
LTYPE
  5
24
330
5
100
AcDbSymbolTableRecord
100
AcDbLinetypeTableRecord
  2
PHANTOM2
 70
     0
  3
Phantom (.5x) ___ _ _ ___ _ _ ___ _ _ ___ _ _
 72
    65
 73
     6
 40
31.75
 49
15.875
 74
     0
 49
-3.174999999999999
 74
     0
 49
3.174999999999999
 74
     0
 49
-3.174999999999999
 74
     0
 49
3.174999999999999
 74
     0
 49
-3.174999999999999
 74
     0
  0
ENDTAB
  0
TABLE
  2
LAYER
  5
2
330
0
100
AcDbSymbolTable
 70
    16
  0
LAYER
  5
E
330
2
100
AcDbSymbolTableRecord
100
AcDbLayerTableRecord
  2
0
 70
     0
 62
     7
  6
CONTINUOUS
370
    -3
390
8A1
  0
LAYER
  5
25
330
2
100
AcDbSymbolTableRecord
100
AcDbLayerTableRecord
  2
外形線
 70
     0
 62
     7
  6
CONTINUOUS
370
    -3
390
8A1
  0
LAYER
  5
26
330
2
100
AcDbSymbolTableRecord
100
AcDbLayerTableRecord
  2
寸法線
 70
     0
 62
     2
  6
CONTINUOUS
370
    -3
390
8A1
  0
LAYER
  5
27
330
2
100
AcDbSymbolTableRecord
100
AcDbLayerTableRecord
  2
中心線
 70
     0
 62
     4
  6
CENTER2
370
    -3
390
8A1
  0
LAYER
  5
29
330
2
100
AcDbSymbolTableRecord
100
AcDbLayerTableRecord
  2
想像線
 70
     0
 62
     1
  6
PHANTOM2
370
    -3
390
8A1
  0
LAYER
  5
2A
330
2
100
AcDbSymbolTableRecord
100
AcDbLayerTableRecord
  2
ﾊｯﾁﾝｸ
 70
     0
 62
     4
  6
CONTINUOUS
370
    -3
390
8A1
  0
LAYER
  5
2B
330
2
100
AcDbSymbolTableRecord
100
AcDbLayerTableRecord
  2
文字
 70
     0
 62
     6
  6
CONTINUOUS
370
    -3
390
8A1
  0
LAYER
  5
2C
330
2
100
AcDbSymbolTableRecord
100
AcDbLayerTableRecord
  2
目盛
 70
     0
 62
    72
  6
CONTINUOUS
370
    -3
390
8A1
  0
LAYER
  5
2D
330
2
100
AcDbSymbolTableRecord
100
AcDbLayerTableRecord
  2
針
 70
     0
 62
     5
  6
CONTINUOUS
370
    -3
390
8A1
  0
LAYER
  5
53
330
2
100
AcDbSymbolTableRecord
100
AcDbLayerTableRecord
  2
DEFPOINTS
 70
     0
 62
     7
  6
CONTINUOUS
290
     0
370
    -3
390
8A1
  0
LAYER
  5
A5
330
2
100
AcDbSymbolTableRecord
100
AcDbLayerTableRecord
  2
C
 70
     0
 62
     7
  6
CONTINUOUS
370
    -3
390
8A1
  0
LAYER
  5
588
330
2
100
AcDbSymbolTableRecord
100
AcDbLayerTableRecord
  2
ROGO
 70
     0
 62
     6
  6
CONTINUOUS
370
    -3
390
8A1
  0
ENDTAB
  0
TABLE
  2
STYLE
  5
3
330
0
100
AcDbSymbolTable
 70
     4
  0
STYLE
  5
F
330
3
100
AcDbSymbolTableRecord
100
AcDbTextStyleTableRecord
  2
STANDARD
 70
     0
 40
0.0
 41
1.0
 50
0.0
 71
     0
 42
2.5
  3
txt
  4

  0
STYLE
  5
3F
330
3
100
AcDbSymbolTableRecord
100
AcDbTextStyleTableRecord
  2
STYLE3
 70
     0
 40
0.0
 41
1.0
 50
0.0
 71
     0
 42
1.0
  3
romans.shx
  4
bigfont.shx
  0
ENDTAB
  0
TABLE
  2
VIEW
  5
6
330
0
100
AcDbSymbolTable
 70
     0
  0
ENDTAB
  0
TABLE
  2
UCS
  5
7
330
0
100
AcDbSymbolTable
 70
     0
  0
ENDTAB
  0
TABLE
  2
APPID
  5
9
330
0
100
AcDbSymbolTable
 70
     2
  0
APPID
  5
10
330
9
100
AcDbSymbolTableRecord
100
AcDbRegAppTableRecord
  2
ACAD
 70
     0
  0
APPID
  5
8B4
330
9
100
AcDbSymbolTableRecord
100
AcDbRegAppTableRecord
  2
ACAD_PSEXT
 70
     0
  0
ENDTAB
  0
TABLE
  2
DIMSTYLE
  5
A
330
0
100
AcDbSymbolTable
 70
     8
100
AcDbDimStyleTable
 71
     2
340
9A8
340
8F
  0
DIMSTYLE
105
1D
330
A
100
AcDbSymbolTableRecord
100
AcDbDimStyleTableRecord
  2
STANDARD
 70
     0
 41
2.5
 42
0.625
 43
3.75
 44
1.25
 73
     0
 74
     0
 77
     1
 78
     8
140
2.5
141
2.5
143
0.0394
147
0.625
171
     4
172
     1
273
     8
274
     4
277
     6
340
F
  0
DIMSTYLE
105
8F
102
{ACAD_REACTORS
330
1A4D
330
1A5A
330
1A79
102
}
330
A
100
AcDbSymbolTableRecord
100
AcDbDimStyleTableRecord
  2
STYLE3
 70
     0
 41
2.5
 42
0.0
 43
3.75
 44
1.25
 73
     0
 74
     0
 77
     1
 78
     8
140
2.5
141
2.5
143
0.0394
147
0.625
171
     4
172
     1
173
     1
176
     2
177
     2
178
     6
271
     1
273
     8
274
     4
340
3F
341
45
343
45
344
45
  0
DIMSTYLE
105
9A5
102
{ACAD_REACTORS
330
19EC
102
}
330
A
100
AcDbSymbolTableRecord
100
AcDbDimStyleTableRecord
  2
STYLE2
 70
     0
 41
2.5
 42
0.0
 43
3.75
 44
1.25
 73
     0
 74
     0
 77
     1
 78
     8
140
2.5
141
2.5
143
0.0394
147
0.625
171
     4
172
     1
173
     1
176
     2
177
     2
178
     6
271
     1
273
     8
274
     4
340
3F
341
45
343
45
344
45
  0
DIMSTYLE
105
9A7
102
{ACAD_REACTORS
330
19EB
102
}
330
A
100
AcDbSymbolTableRecord
100
AcDbDimStyleTableRecord
  2
.0 type現尺
 70
     0
 41
2.5
 42
0.0
 43
3.75
 44
1.25
 73
     0
 74
     0
 77
     1
 78
     1
140
2.5
141
2.5
143
0.0394
147
0.625
171
     4
172
     1
173
     1
176
     2
177
     2
178
     6
271
     1
272
     1
273
     8
274
     4
340
3F
343
45
344
45
  0
DIMSTYLE
105
9A8
102
{ACAD_REACTORS
330
19CC
330
1A8F
330
1AAE
102
}
330
A
100
AcDbSymbolTableRecord
100
AcDbDimStyleTableRecord
  2
φ
 70
     0
  3
%%C<>
 41
2.5
 42
0.0
 43
3.75
 44
1.25
 73
     0
 74
     0
 77
     1
 78
     8
140
2.5
141
2.5
143
0.0394
147
0.625
171
     4
172
     1
173
     1
176
     2
177
     2
178
     6
271
     1
272
     1
273
     8
274
     4
340
3F
343
45
344
45
  0
ENDTAB
  0
TABLE
  2
BLOCK_RECORD
  5
1
330
0
100
AcDbSymbolTable
 70
    27
  0
BLOCK_RECORD
  5
18
330
1
100
AcDbSymbolTableRecord
100
AcDbBlockTableRecord
  2
*MODEL_SPACE
340
8A8
  0
BLOCK_RECORD
  5
15
330
1
100
AcDbSymbolTableRecord
100
AcDbBlockTableRecord
  2
*PAPER_SPACE
340
8A9
  0
BLOCK_RECORD
  5
45
330
1
100
AcDbSymbolTableRecord
100
AcDbBlockTableRecord
  2
_OPEN
340
0
102
{BLKREFS
331
337
331
3F6
331
3F7
331
73A
331
73B
331
754
331
755
331
75C
331
75D
331
785
331
786
331
835
331
836
331
847
331
848
331
84F
331
850
331
86F
331
870
331
191F
331
1920
331
1964
331
1965
331
1995
331
1996
331
14B7
331
14B8
331
14C2
331
14C3
331
14D0
331
14D1
331
14DC
331
14DD
331
14E8
331
14E9
331
14F4
331
14F5
331
1463
331
1464
331
146F
331
1470
331
147B
331
147C
331
1487
331
1488
331
1492
331
1493
331
149F
331
14A0
331
14AB
331
14AC
331
180D
331
180E
331
1814
331
1815
331
181B
331
181C
331
1824
331
1825
331
182A
331
182B
331
1831
331
1832
331
188F
331
1890
331
1895
331
1896
331
1690
331
1691
331
16A7
331
16A8
331
16AF
331
16B0
331
16B8
331
16B9
331
16C7
331
16C8
331
16D2
331
16D3
331
16E0
331
16E1
331
16E8
331
16E9
331
16F1
331
16F2
331
1701
331
1702
331
1B1F
331
1B20
331
1B28
331
1B29
331
1B30
331
1B31
331
1B39
331
1B3A
331
1B42
331
1B43
331
1B4B
331
1B4C
331
1B54
331
1B55
331
1B5D
331
1B5E
102
}
  0
BLOCK_RECORD
  5
19CD
330
1
100
AcDbSymbolTableRecord
100
AcDbBlockTableRecord
  2
*D17
340
0
  0
BLOCK_RECORD
  5
19ED
330
1
100
AcDbSymbolTableRecord
100
AcDbBlockTableRecord
  2
*D18
340
0
  0
BLOCK_RECORD
  5
19F8
330
1
100
AcDbSymbolTableRecord
100
AcDbBlockTableRecord
  2
*D19
340
0
  0
BLOCK_RECORD
  5
1A4E
330
1
100
AcDbSymbolTableRecord
100
AcDbBlockTableRecord
  2
*D20
340
0
  0
BLOCK_RECORD
  5
1A5B
330
1
100
AcDbSymbolTableRecord
100
AcDbBlockTableRecord
  2
*D21
340
0
  0
BLOCK_RECORD
  5
1A7A
330
1
100
AcDbSymbolTableRecord
100
AcDbBlockTableRecord
  2
*D22
340
0
  0
BLOCK_RECORD
  5
1A90
330
1
100
AcDbSymbolTableRecord
100
AcDbBlockTableRecord
  2
*D23
340
0
  0
BLOCK_RECORD
  5
1AAF
330
1
100
AcDbSymbolTableRecord
100
AcDbBlockTableRecord
  2
*D24
340
0
  0
ENDTAB
  0
ENDSEC
  0
SECTION
  2
BLOCKS
  0
BLOCK
  5
19
330
18
100
AcDbEntity
  8
0
100
AcDbBlockBegin
  2
*MODEL_SPACE
 70
     0
 10
0.0
 20
0.0
 30
0.0
  3
*MODEL_SPACE
  1

  0
ENDBLK
  5
1A
330
18
100
AcDbEntity
  8
0
100
AcDbBlockEnd
  0
BLOCK
  5
16
330
15
100
AcDbEntity
 67
     1
  8
0
100
AcDbBlockBegin
  2
*PAPER_SPACE
 70
     0
 10
0.0
 20
0.0
 30
0.0
  3
*PAPER_SPACE
  1

  0
ENDBLK
  5
17
330
15
100
AcDbEntity
 67
     1
  8
0
100
AcDbBlockEnd
  0
BLOCK
  5
46
330
45
100
AcDbEntity
  8
0
100
AcDbBlockBegin
  2
_OPEN
 70
     0
 10
0.0
 20
0.0
 30
0.0
  3
_OPEN
  1

  0
LINE
  5
47
330
45
100
AcDbEntity
  8
0
  6
ByBlock
 62
     0
100
AcDbLine
 10
-1.0
 20
0.1666666666666666
 30
0.0
 11
0.0
 21
0.0
 31
0.0
  0
LINE
  5
48
330
45
100
AcDbEntity
  8
0
  6
ByBlock
 62
     0
100
AcDbLine
 10
0.0
 20
0.0
 30
0.0
 11
-1.0
 21
-0.1666666666666666
 31
0.0
  0
LINE
  5
49
330
45
100
AcDbEntity
  8
0
  6
ByBlock
 62
     0
100
AcDbLine
 10
0.0
 20
0.0
 30
0.0
 11
-1.0
 21
0.0
 31
0.0
  0
ENDBLK
  5
4A
330
45
100
AcDbEntity
  8
0
100
AcDbBlockEnd
  0
BLOCK
  5
19D7
330
19CD
100
AcDbEntity
  8
0
100
AcDbBlockBegin
  2
*D17
 70
     1
 10
0.0
 20
0.0
 30
0.0
  3
*D17
  1

  0
LINE
  5
1B1C
330
19CD
100
AcDbEntity
  8
寸法線
 62
     2
370
    -2
100
AcDbLine
 10
124.8430515408833
 20
205.6661776416548
 30
0.0
 11
178.7772986165614
 21
205.6661776416548
 31
0.0
  0
LINE
  5
1B1D
330
19CD
100
AcDbEntity
  8
寸法線
 62
     2
370
    -2
100
AcDbLine
 10
124.8430515408833
 20
137.6661776416548
 30
0.0
 11
178.7772986165614
 21
137.6661776416548
 31
0.0
  0
LINE
  5
1B1E
330
19CD
100
AcDbEntity
  8
寸法線
 62
     2
370
    -2
100
AcDbLine
 10
177.5272986165614
 20
203.1661776416548
 30
0.0
 11
177.5272986165614
 21
140.1661776416548
 31
0.0
  0
INSERT
  5
1B1F
330
19CD
100
AcDbEntity
  8
寸法線
 62
     2
370
    -2
100
AcDbBlockReference
  2
_OPEN
 10
177.5272986165614
 20
205.6661776416548
 30
0.0
 41
2.5
 42
2.5
 43
2.5
 50
90.0
  0
INSERT
  5
1B20
330
19CD
100
AcDbEntity
  8
寸法線
 62
     2
370
    -2
100
AcDbBlockReference
  2
_OPEN
 10
177.5272986165614
 20
137.6661776416548
 30
0.0
 41
2.5
 42
2.5
 43
2.5
 50
270.0
  0
MTEXT
  5
1B21
330
19CD
100
AcDbEntity
  8
寸法線
 62
     6
100
AcDbMText
 10
175.6522986165614
 20
171.6661776416548
 30
0.0
 40
2.5
 41
0.0
 71
     5
 72
     1
  1
\A1;%%C68
  7
STYLE3
 11
0.0000000000000001
 21
1.0
 31
0.0
 73
     1
 44
1.0
  0
POINT
  5
1B22
330
19CD
100
AcDbEntity
  8
DEFPOINTS
 62
     0
100
AcDbPoint
 10
124.8430515408833
 20
205.6661776416548
 30
0.0
  0
POINT
  5
1B23
330
19CD
100
AcDbEntity
  8
DEFPOINTS
 62
     0
100
AcDbPoint
 10
124.8430515408833
 20
137.6661776416548
 30
0.0
  0
POINT
  5
1B24
330
19CD
100
AcDbEntity
  8
DEFPOINTS
 62
     0
100
AcDbPoint
 10
177.5272986165614
 20
137.6661776416548
 30
0.0
  0
ENDBLK
  5
19D8
330
19CD
100
AcDbEntity
  8
0
100
AcDbBlockEnd
  0
BLOCK
  5
19F6
330
19ED
100
AcDbEntity
  8
0
100
AcDbBlockBegin
  2
*D18
 70
     1
 10
0.0
 20
0.0
 30
0.0
  3
*D18
  1

  0
LINE
  5
1B2E
330
19ED
100
AcDbEntity
  8
寸法線
 62
     2
370
    -2
100
AcDbLine
 10
123.3430515408834
 20
126.503739172447
 30
0.0
 11
126.3430515408834
 21
126.503739172447
 31
0.0
  0
LINE
  5
1B2F
330
19ED
100
AcDbEntity
  8
寸法線
 62
     2
370
    -2
100
AcDbLine
 10
128.8430515408834
 20
126.503739172447
 30
0.0
 11
147.8668610646929
 21
126.503739172447
 31
0.0
  0
INSERT
  5
1B30
330
19ED
100
AcDbEntity
  8
寸法線
 62
     2
370
    -2
100
AcDbBlockReference
  2
_OPEN
 10
120.8430515408833
 20
126.503739172447
 30
0.0
 41
2.5
 42
2.5
 43
2.5
 50
180.0
  0
INSERT
  5
1B31
330
19ED
100
AcDbEntity
  8
寸法線
 62
     2
370
    -2
100
AcDbBlockReference
  2
_OPEN
 10
128.8430515408834
 20
126.503739172447
 30
0.0
 41
2.5
 42
2.5
 43
2.5
  0
MTEXT
  5
1B32
330
19ED
100
AcDbEntity
  8
寸法線
 62
     6
100
AcDbMText
 10
139.6049563027882
 20
129.1704058391137
 30
0.0
 40
2.5
 41
0.0
 71
     5
 72
     1
  1
%%C8.0{\H1.750000;\S 0^ -0.03;}
  7
STYLE3
 73
     1
 44
1.0
  0
POINT
  5
1B33
330
19ED
100
AcDbEntity
  8
DEFPOINTS
 62
     0
100
AcDbPoint
 10
120.8430515408833
 20
123.9136941487984
 30
0.0
  0
POINT
  5
1B34
330
19ED
100
AcDbEntity
  8
DEFPOINTS
 62
     0
100
AcDbPoint
 10
128.8430515408834
 20
124.0400375031231
 30
0.0
  0
POINT
  5
1B35
330
19ED
100
AcDbEntity
  8
DEFPOINTS
 62
     0
100
AcDbPoint
 10
128.8430515408834
 20
126.503739172447
 30
0.0
  0
ENDBLK
  5
19F7
330
19ED
100
AcDbEntity
  8
0
100
AcDbBlockEnd
  0
BLOCK
  5
1A04
330
19F8
100
AcDbEntity
  8
0
100
AcDbBlockBegin
  2
*D19
 70
     1
 10
0.0
 20
0.0
 30
0.0
  3
*D19
  1

  0
LINE
  5
1B25
330
19F8
100
AcDbEntity
  8
寸法線
 62
     2
370
    -2
100
AcDbLine
 10
119.8430515408834
 20
99.71956854159238
 30
0.0
 11
117.3430515408834
 21
99.71956854159238
 31
0.0
  0
LINE
  5
1B26
330
19F8
100
AcDbEntity
  8
寸法線
 62
     2
370
    -2
100
AcDbLine
 10
129.8430515408834
 20
99.71956854159238
 30
0.0
 11
138.807337255169
 21
99.71956854159238
 31
0.0
  0
LINE
  5
1B27
330
19F8
100
AcDbEntity
  8
寸法線
 62
     2
370
    -2
100
AcDbLine
 10
122.3430515408834
 20
99.71956854159238
 30
0.0
 11
127.3430515408834
 21
99.71956854159238
 31
0.0
  0
INSERT
  5
1B28
330
19F8
100
AcDbEntity
  8
寸法線
 62
     2
370
    -2
100
AcDbBlockReference
  2
_OPEN
 10
122.3430515408834
 20
99.71956854159238
 30
0.0
 41
2.5
 42
2.5
 43
2.5
  0
INSERT
  5
1B29
330
19F8
100
AcDbEntity
  8
寸法線
 62
     2
370
    -2
100
AcDbBlockReference
  2
_OPEN
 10
127.3430515408834
 20
99.71956854159238
 30
0.0
 41
2.5
 42
2.5
 43
2.5
 50
180.0
  0
MTEXT
  5
1B2A
330
19F8
100
AcDbEntity
  8
寸法線
 62
     6
100
AcDbMText
 10
136.2180515408834
 20
101.5945685415923
 30
0.0
 40
2.5
 41
0.0
 71
     5
 72
     1
  1
\A1;%%C5
  7
STYLE3
 73
     1
 44
1.0
  0
POINT
  5
1B2B
330
19F8
100
AcDbEntity
  8
DEFPOINTS
 62
     0
100
AcDbPoint
 10
122.3430515408834
 20
99.71956854159238
 30
0.0
  0
POINT
  5
1B2C
330
19F8
100
AcDbEntity
  8
DEFPOINTS
 62
     0
100
AcDbPoint
 10
127.3430515408834
 20
102.5514659594614
 30
0.0
  0
POINT
  5
1B2D
330
19F8
100
AcDbEntity
  8
DEFPOINTS
 62
     0
100
AcDbPoint
 10
127.3430515408834
 20
99.71956854159238
 30
0.0
  0
ENDBLK
  5
1A05
330
19F8
100
AcDbEntity
  8
0
100
AcDbBlockEnd
  0
BLOCK
  5
1A58
330
1A4E
100
AcDbEntity
  8
0
100
AcDbBlockBegin
  2
*D20
 70
     1
 10
0.0
 20
0.0
 30
0.0
  3
*D20
  1

  0
LINE
  5
1B5A
330
1A4E
100
AcDbEntity
  8
寸法線
 62
     2
370
    -2
100
AcDbLine
 10
230.7483621796439
 20
171.6661776416546
 30
0.0
 11
230.7483621796439
 21
223.7471486548325
 31
0.0
  0
LINE
  5
1B5B
330
1A4E
100
AcDbEntity
  8
寸法線
 62
     2
370
    -2
100
AcDbLine
 10
248.2483621796439
 20
217.6661776416548
 30
0.0
 11
248.2483621796439
 21
223.7471486548325
 31
0.0
  0
LINE
  5
1B5C
330
1A4E
100
AcDbEntity
  8
寸法線
 62
     2
370
    -2
100
AcDbLine
 10
233.2483621796439
 20
222.4971486548325
 30
0.0
 11
245.7483621796439
 21
222.4971486548325
 31
0.0
  0
INSERT
  5
1B5D
330
1A4E
100
AcDbEntity
  8
寸法線
 62
     2
370
    -2
100
AcDbBlockReference
  2
_OPEN
 10
230.7483621796439
 20
222.4971486548325
 30
0.0
 41
2.5
 42
2.5
 43
2.5
 50
180.0
  0
INSERT
  5
1B5E
330
1A4E
100
AcDbEntity
  8
寸法線
 62
     2
370
    -2
100
AcDbBlockReference
  2
_OPEN
 10
248.2483621796439
 20
222.4971486548325
 30
0.0
 41
2.5
 42
2.5
 43
2.5
  0
MTEXT
  5
1B5F
330
1A4E
100
AcDbEntity
  8
寸法線
 62
     6
100
AcDbMText
 10
239.4983621796439
 20
224.3721486548325
 30
0.0
 40
2.5
 41
0.0
 71
     5
 72
     1
  1
\A1;17.5
  7
STYLE3
 73
     1
 44
1.0
  0
POINT
  5
1B60
330
1A4E
100
AcDbEntity
  8
DEFPOINTS
 62
     0
100
AcDbPoint
 10
230.7483621796439
 20
171.6661776416546
 30
0.0
  0
POINT
  5
1B61
330
1A4E
100
AcDbEntity
  8
DEFPOINTS
 62
     0
100
AcDbPoint
 10
248.2483621796439
 20
217.6661776416548
 30
0.0
  0
POINT
  5
1B62
330
1A4E
100
AcDbEntity
  8
DEFPOINTS
 62
     0
100
AcDbPoint
 10
248.2483621796439
 20
222.4971486548325
 30
0.0
  0
ENDBLK
  5
1A59
330
1A4E
100
AcDbEntity
  8
0
100
AcDbBlockEnd
  0
BLOCK
  5
1A65
330
1A5B
100
AcDbEntity
  8
0
100
AcDbBlockBegin
  2
*D21
 70
     1
 10
0.0
 20
0.0
 30
0.0
  3
*D21
  1

  0
LINE
  5
1B51
330
1A5B
100
AcDbEntity
  8
寸法線
 62
     2
370
    -2
100
AcDbLine
 10
248.2483621796439
 20
217.6661776416548
 30
0.0
 11
248.2483621796439
 21
223.7471486548325
 31
0.0
  0
LINE
  5
1B52
330
1A5B
100
AcDbEntity
  8
寸法線
 62
     2
370
    -2
100
AcDbLine
 10
277.2483621796439
 20
171.6661776416548
 30
0.0
 11
277.2483621796439
 21
223.7471486548325
 31
0.0
  0
LINE
  5
1B53
330
1A5B
100
AcDbEntity
  8
寸法線
 62
     2
370
    -2
100
AcDbLine
 10
250.7483621796439
 20
222.4971486548325
 30
0.0
 11
274.7483621796439
 21
222.4971486548325
 31
0.0
  0
INSERT
  5
1B54
330
1A5B
100
AcDbEntity
  8
寸法線
 62
     2
370
    -2
100
AcDbBlockReference
  2
_OPEN
 10
248.2483621796439
 20
222.4971486548325
 30
0.0
 41
2.5
 42
2.5
 43
2.5
 50
180.0
  0
INSERT
  5
1B55
330
1A5B
100
AcDbEntity
  8
寸法線
 62
     2
370
    -2
100
AcDbBlockReference
  2
_OPEN
 10
277.2483621796439
 20
222.4971486548325
 30
0.0
 41
2.5
 42
2.5
 43
2.5
  0
MTEXT
  5
1B56
330
1A5B
100
AcDbEntity
  8
寸法線
 62
     6
100
AcDbMText
 10
262.7483621796439
 20
224.3721486548325
 30
0.0
 40
2.5
 41
0.0
 71
     5
 72
     1
  1
\A1;29
  7
STYLE3
 73
     1
 44
1.0
  0
POINT
  5
1B57
330
1A5B
100
AcDbEntity
  8
DEFPOINTS
 62
     0
100
AcDbPoint
 10
248.2483621796439
 20
217.6661776416548
 30
0.0
  0
POINT
  5
1B58
330
1A5B
100
AcDbEntity
  8
DEFPOINTS
 62
     0
100
AcDbPoint
 10
277.2483621796439
 20
171.6661776416548
 30
0.0
  0
POINT
  5
1B59
330
1A5B
100
AcDbEntity
  8
DEFPOINTS
 62
     0
100
AcDbPoint
 10
277.2483621796439
 20
222.4971486548325
 30
0.0
  0
ENDBLK
  5
1A66
330
1A5B
100
AcDbEntity
  8
0
100
AcDbBlockEnd
  0
BLOCK
  5
1A84
330
1A7A
100
AcDbEntity
  8
0
100
AcDbBlockBegin
  2
*D22
 70
     1
 10
0.0
 20
0.0
 30
0.0
  3
*D22
  1

  0
LINE
  5
1B48
330
1A7A
100
AcDbEntity
  8
寸法線
 62
     2
370
    -2
100
AcDbLine
 10
230.7483621796439
 20
171.6661776416548
 30
0.0
 11
230.7483621796439
 21
234.3504386815169
 31
0.0
  0
LINE
  5
1B49
330
1A7A
100
AcDbEntity
  8
寸法線
 62
     2
370
    -2
100
AcDbLine
 10
277.2483621796439
 20
171.6661776416548
 30
0.0
 11
277.2483621796439
 21
234.3504386815169
 31
0.0
  0
LINE
  5
1B4A
330
1A7A
100
AcDbEntity
  8
寸法線
 62
     2
370
    -2
100
AcDbLine
 10
233.2483621796439
 20
233.100438681517
 30
0.0
 11
274.7483621796439
 21
233.100438681517
 31
0.0
  0
INSERT
  5
1B4B
330
1A7A
100
AcDbEntity
  8
寸法線
 62
     2
370
    -2
100
AcDbBlockReference
  2
_OPEN
 10
230.7483621796439
 20
233.100438681517
 30
0.0
 41
2.5
 42
2.5
 43
2.5
 50
180.0
  0
INSERT
  5
1B4C
330
1A7A
100
AcDbEntity
  8
寸法線
 62
     2
370
    -2
100
AcDbBlockReference
  2
_OPEN
 10
277.2483621796439
 20
233.100438681517
 30
0.0
 41
2.5
 42
2.5
 43
2.5
  0
MTEXT
  5
1B4D
330
1A7A
100
AcDbEntity
  8
寸法線
 62
     6
100
AcDbMText
 10
253.9983621796439
 20
234.975438681517
 30
0.0
 40
2.5
 41
0.0
 71
     5
 72
     1
  1
\A1;46.5
  7
STYLE3
 73
     1
 44
1.0
  0
POINT
  5
1B4E
330
1A7A
100
AcDbEntity
  8
DEFPOINTS
 62
     0
100
AcDbPoint
 10
230.7483621796439
 20
171.6661776416548
 30
0.0
  0
POINT
  5
1B4F
330
1A7A
100
AcDbEntity
  8
DEFPOINTS
 62
     0
100
AcDbPoint
 10
277.2483621796439
 20
171.6661776416548
 30
0.0
  0
POINT
  5
1B50
330
1A7A
100
AcDbEntity
  8
DEFPOINTS
 62
     0
100
AcDbPoint
 10
277.2483621796439
 20
233.100438681517
 30
0.0
  0
ENDBLK
  5
1A85
330
1A7A
100
AcDbEntity
  8
0
100
AcDbBlockEnd
  0
BLOCK
  5
1A9A
330
1A90
100
AcDbEntity
  8
0
100
AcDbBlockBegin
  2
*D23
 70
     1
 10
0.0
 20
0.0
 30
0.0
  3
*D23
  1

  0
LINE
  5
1B3F
330
1A90
100
AcDbEntity
  8
寸法線
 62
     2
370
    -2
100
AcDbLine
 10
256.2483621796439
 20
207.9161776416548
 30
0.0
 11
298.4458627781248
 21
207.9161776416548
 31
0.0
  0
LINE
  5
1B40
330
1A90
100
AcDbEntity
  8
寸法線
 62
     2
370
    -2
100
AcDbLine
 10
255.4981004806209
 20
135.4161776416548
 30
0.0
 11
298.4458627781248
 21
135.4161776416548
 31
0.0
  0
LINE
  5
1B41
330
1A90
100
AcDbEntity
  8
寸法線
 62
     2
370
    -2
100
AcDbLine
 10
297.1958627781248
 20
205.4161776416548
 30
0.0
 11
297.1958627781248
 21
137.9161776416548
 31
0.0
  0
INSERT
  5
1B42
330
1A90
100
AcDbEntity
  8
寸法線
 62
     2
370
    -2
100
AcDbBlockReference
  2
_OPEN
 10
297.1958627781248
 20
207.9161776416548
 30
0.0
 41
2.5
 42
2.5
 43
2.5
 50
90.0
  0
INSERT
  5
1B43
330
1A90
100
AcDbEntity
  8
寸法線
 62
     2
370
    -2
100
AcDbBlockReference
  2
_OPEN
 10
297.1958627781248
 20
135.4161776416548
 30
0.0
 41
2.5
 42
2.5
 43
2.5
 50
270.0
  0
MTEXT
  5
1B44
330
1A90
100
AcDbEntity
  8
寸法線
 62
     6
100
AcDbMText
 10
295.3208627781247
 20
171.6661776416548
 30
0.0
 40
2.5
 41
0.0
 71
     5
 72
     1
  1
\A1;%%C72.5
  7
STYLE3
 11
0.0000000000000001
 21
1.0
 31
0.0
 73
     1
 44
1.0
  0
POINT
  5
1B45
330
1A90
100
AcDbEntity
  8
DEFPOINTS
 62
     0
100
AcDbPoint
 10
256.2483621796439
 20
207.9161776416548
 30
0.0
  0
POINT
  5
1B46
330
1A90
100
AcDbEntity
  8
DEFPOINTS
 62
     0
100
AcDbPoint
 10
255.4981004806209
 20
135.4161776416548
 30
0.0
  0
POINT
  5
1B47
330
1A90
100
AcDbEntity
  8
DEFPOINTS
 62
     0
100
AcDbPoint
 10
297.1958627781248
 20
135.4161776416548
 30
0.0
  0
ENDBLK
  5
1A9B
330
1A90
100
AcDbEntity
  8
0
100
AcDbBlockEnd
  0
BLOCK
  5
1AB9
330
1AAF
100
AcDbEntity
  8
0
100
AcDbBlockBegin
  2
*D24
 70
     1
 10
0.0
 20
0.0
 30
0.0
  3
*D24
  1

  0
LINE
  5
1B36
330
1AAF
100
AcDbEntity
  8
寸法線
 62
     2
370
    -2
100
AcDbLine
 10
238.1983621796439
 20
209.3661776416548
 30
0.0
 11
216.6835110423301
 21
209.3661776416548
 31
0.0
  0
LINE
  5
1B37
330
1AAF
100
AcDbEntity
  8
寸法線
 62
     2
370
    -2
100
AcDbLine
 10
238.1983621796439
 20
133.9661776416548
 30
0.0
 11
216.6835110423301
 21
133.9661776416548
 31
0.0
  0
LINE
  5
1B38
330
1AAF
100
AcDbEntity
  8
寸法線
 62
     2
370
    -2
100
AcDbLine
 10
217.9335110423302
 20
206.8661776416548
 30
0.0
 11
217.9335110423301
 21
136.4661776416548
 31
0.0
  0
INSERT
  5
1B39
330
1AAF
100
AcDbEntity
  8
寸法線
 62
     2
370
    -2
100
AcDbBlockReference
  2
_OPEN
 10
217.9335110423302
 20
209.3661776416548
 30
0.0
 41
2.5
 42
2.5
 43
2.5
 50
90.0
  0
INSERT
  5
1B3A
330
1AAF
100
AcDbEntity
  8
寸法線
 62
     2
370
    -2
100
AcDbBlockReference
  2
_OPEN
 10
217.9335110423301
 20
133.9661776416548
 30
0.0
 41
2.5
 42
2.5
 43
2.5
 50
270.0
  0
MTEXT
  5
1B3B
330
1AAF
100
AcDbEntity
  8
寸法線
 62
     6
100
AcDbMText
 10
216.0585110423301
 20
171.6661776416549
 30
0.0
 40
2.5
 41
0.0
 71
     5
 72
     1
  1
\A1;%%c75.5
  7
STYLE3
 11
0.0000000000000001
 21
1.0
 31
0.0
 73
     1
 44
1.0
  0
POINT
  5
1B3C
330
1AAF
100
AcDbEntity
  8
DEFPOINTS
 62
     0
100
AcDbPoint
 10
238.1983621796439
 20
209.3661776416548
 30
0.0
  0
POINT
  5
1B3D
330
1AAF
100
AcDbEntity
  8
DEFPOINTS
 62
     0
100
AcDbPoint
 10
238.1983621796439
 20
133.9661776416548
 30
0.0
  0
POINT
  5
1B3E
330
1AAF
100
AcDbEntity
  8
DEFPOINTS
 62
     0
100
AcDbPoint
 10
217.9335110423301
 20
133.9661776416548
 30
0.0
  0
ENDBLK
  5
1ABA
330
1AAF
100
AcDbEntity
  8
0
100
AcDbBlockEnd
  0
ENDSEC
  0
SECTION
  2
ENTITIES
  0
LWPOLYLINE
  5
1A0
330
18
100
AcDbEntity
  8
C
100
AcDbPolyline
 90
        5
 70
     0
 43
0.8
 10
0.0
 20
282.5
 10
377.4999999999999
 20
282.5
 10
377.4999999999999
 20
0.0
 10
0.0
 20
0.0
 10
0.0
 20
282.5
  0
LINE
  5
212
330
18
100
AcDbEntity
  8
中心線
100
AcDbLine
 10
83.98180276245671
 20
171.6661776416548
 30
0.0
 11
166.2213062291098
 21
171.6661776416548
 31
0.0
  0
LINE
  5
213
330
18
100
AcDbEntity
  8
中心線
100
AcDbLine
 10
124.8430515408833
 20
220.8251393833454
 30
0.0
 11
124.8430515408833
 21
66.91423963051943
 31
0.0
  0
CIRCLE
  5
216
330
18
100
AcDbEntity
  8
外形線
100
AcDbCircle
 10
124.8430515408833
 20
171.6661776416548
 30
0.0
 40
34.0
  0
CIRCLE
  5
217
330
18
100
AcDbEntity
  8
外形線
100
AcDbCircle
 10
124.8430515408833
 20
171.6661776416548
 30
0.0
 40
37.75
  0
LINE
  5
21A
330
18
100
AcDbEntity
  8
外形線
100
AcDbLine
 10
128.8430515408834
 20
134.1286963729282
 30
0.0
 11
128.8430515408834
 21
116.6161776416548
 31
0.0
  0
LINE
  5
21B
330
18
100
AcDbEntity
  8
外形線
100
AcDbLine
 10
120.8430515408833
 20
134.1286963729282
 30
0.0
 11
120.8430515408833
 21
116.6161776416548
 31
0.0
  0
LINE
  5
21D
330
18
100
AcDbEntity
  8
外形線
100
AcDbLine
 10
121.1430515408834
 20
111.1161776416548
 30
0.0
 11
128.5430515408834
 21
111.1161776416548
 31
0.0
  0
LINE
  5
21E
330
18
100
AcDbEntity
  8
外形線
100
AcDbLine
 10
127.3430515408834
 20
111.1161776416548
 30
0.0
 11
127.3430515408834
 21
78.66617764165482
 31
0.0
  0
LINE
  5
21F
330
18
100
AcDbEntity
  8
外形線
100
AcDbLine
 10
122.3430515408834
 20
111.1161776416548
 30
0.0
 11
122.3430515408834
 21
78.66617764165482
 31
0.0
  0
LINE
  5
23D
330
18
100
AcDbEntity
  8
外形線
100
AcDbLine
 10
127.0930515408833
 20
75.16617764165482
 30
0.0
 11
126.1430515408833
 21
70.66617764165482
 31
0.0
  0
LINE
  5
23E
330
18
100
AcDbEntity
  8
外形線
100
AcDbLine
 10
122.3430515408832
 20
75.36617764165481
 30
0.0
 11
127.3430515408834
 21
75.36617764165481
 31
0.0
  0
LINE
  5
23F
330
18
100
AcDbEntity
  8
外形線
100
AcDbLine
 10
122.3430515408832
 20
78.46617764165483
 30
0.0
 11
127.3430515408834
 21
78.46617764165483
 31
0.0
  0
LINE
  5
240
330
18
100
AcDbEntity
  8
外形線
100
AcDbLine
 10
122.5930515408834
 20
75.16617764165482
 30
0.0
 11
127.0930515408832
 21
75.16617764165482
 31
0.0
  0
LINE
  5
241
330
18
100
AcDbEntity
  8
外形線
100
AcDbLine
 10
122.3430515408834
 20
78.66617764165482
 30
0.0
 11
127.3430515408834
 21
78.66617764165482
 31
0.0
  0
LINE
  5
243
330
18
100
AcDbEntity
  8
外形線
100
AcDbLine
 10
122.3430515408834
 20
78.46617764165483
 30
0.0
 11
122.3430515408834
 21
75.36617764165481
 31
0.0
  0
POINT
  5
244
330
18
100
AcDbEntity
  8
DEFPOINTS
  6
ByBlock
 62
     0
100
AcDbPoint
 10
124.8430515408833
 20
69.66617764165483
 30
0.0
  0
LINE
  5
245
330
18
100
AcDbEntity
  8
外形線
100
AcDbLine
 10
122.5930515408834
 20
75.16617764165482
 30
0.0
 11
123.5430515408833
 21
70.66617764165482
 31
0.0
  0
LINE
  5
246
330
18
100
AcDbEntity
  8
外形線
100
AcDbLine
 10
123.5430515408833
 20
70.66617764165482
 30
0.0
 11
126.1430515408833
 21
70.66617764165482
 31
0.0
  0
LINE
  5
248
330
18
100
AcDbEntity
  8
外形線
100
AcDbLine
 10
122.3430515408834
 20
75.36617764165481
 30
0.0
 11
122.5930515408834
 21
75.16617764165482
 31
0.0
  0
LINE
  5
249
330
18
100
AcDbEntity
  8
外形線
100
AcDbLine
 10
122.5930515408834
 20
78.66617764165482
 30
0.0
 11
122.3430515408834
 21
78.46617764165483
 31
0.0
  0
LINE
  5
24A
330
18
100
AcDbEntity
  8
外形線
100
AcDbLine
 10
127.3430515408834
 20
78.46617764165483
 30
0.0
 11
127.3430515408833
 21
75.36617764165481
 31
0.0
  0
LINE
  5
24B
330
18
100
AcDbEntity
  8
外形線
100
AcDbLine
 10
127.3430515408834
 20
75.36617764165481
 30
0.0
 11
127.0930515408833
 21
75.16617764165482
 31
0.0
  0
LINE
  5
24C
330
18
100
AcDbEntity
  8
外形線
100
AcDbLine
 10
127.0930515408833
 20
78.66617764165482
 30
0.0
 11
127.3430515408834
 21
78.46617764165483
 31
0.0
  0
LINE
  5
24D
330
18
100
AcDbEntity
  8
外形線
100
AcDbLine
 10
120.8430515408833
 20
116.6161776416548
 30
0.0
 11
128.8430515408834
 21
116.6161776416548
 31
0.0
  0
LINE
  5
24E
330
18
100
AcDbEntity
  8
外形線
100
AcDbLine
 10
128.7430515408834
 20
116.6161776416548
 30
0.0
 11
128.7430515408834
 21
111.3161776416548
 31
0.0
  0
LINE
  5
24F
330
18
100
AcDbEntity
  8
外形線
100
AcDbLine
 10
120.9430515408834
 20
116.6161776416548
 30
0.0
 11
120.9430515408834
 21
111.3161776416548
 31
0.0
  0
LINE
  5
250
330
18
100
AcDbEntity
  8
外形線
100
AcDbLine
 10
120.9430515408834
 20
111.3161776416548
 30
0.0
 11
121.1430515408834
 21
111.1161776416548
 31
0.0
  0
LINE
  5
251
330
18
100
AcDbEntity
  8
外形線
100
AcDbLine
 10
128.5430515408834
 20
111.1161776416548
 30
0.0
 11
128.7430515408834
 21
111.3161776416548
 31
0.0
  0
LINE
  5
252
330
18
100
AcDbEntity
  8
外形線
 62
     4
100
AcDbLine
 10
120.9430515408834
 20
111.3161776416548
 30
0.0
 11
128.7430515408834
 21
111.3161776416548
 31
0.0
  0
LINE
  5
274
330
18
100
AcDbEntity
  8
ﾊｯﾁﾝｸ
 62
     4
100
AcDbLine
 10
121.3430515408833
 20
215.1551035234788
 30
0.0
 11
122.5041457243725
 21
217.1661776416548
 31
0.0
  0
LINE
  5
275
330
18
100
AcDbEntity
  8
ﾊｯﾁﾝｸ
 62
     4
100
AcDbLine
 10
122.9326305125603
 20
212.1551035234789
 30
0.0
 11
121.3430515408834
 21
214.9083350650666
 31
0.0
  0
LINE
  5
276
330
18
100
AcDbEntity
  8
ﾊｯﾁﾝｸ
 62
     4
100
AcDbLine
 10
121.7715363290712
 20
212.1661776416549
 30
0.0
 11
121.3430515408834
 21
212.9083350650666
 31
0.0
  0
LINE
  5
277
330
18
100
AcDbEntity
  8
ﾊｯﾁﾝｸ
 62
     4
100
AcDbLine
 10
121.3430515408834
 20
213.1551035234789
 30
0.0
 11
123.6588462627518
 21
217.1661776416548
 31
0.0
  0
LINE
  5
278
330
18
100
AcDbEntity
  8
ﾊｯﾁﾝｸ
 62
     4
100
AcDbLine
 10
124.0809374058295
 20
212.1661776416549
 30
0.0
 11
121.3430515408832
 21
216.9083350650665
 31
0.0
  0
LINE
  5
279
330
18
100
AcDbEntity
  8
外形線
100
AcDbLine
 10
121.3430515408834
 20
212.1661776416548
 30
0.0
 11
121.8430515408833
 21
211.6661776416548
 31
0.0
  0
LINE
  5
27A
330
18
100
AcDbEntity
  8
外形線
100
AcDbLine
 10
121.3430515408834
 20
211.6661776416548
 30
0.0
 11
128.3430515408834
 21
211.6661776416548
 31
0.0
  0
LINE
  5
27B
330
18
100
AcDbEntity
  8
外形線
100
AcDbLine
 10
121.3430515408834
 20
212.1661776416548
 30
0.0
 11
128.3430515408834
 21
212.1661776416548
 31
0.0
  0
LINE
  5
27C
330
18
100
AcDbEntity
  8
外形線
100
AcDbLine
 10
121.3430515408833
 20
217.1661776416548
 30
0.0
 11
128.3430515408833
 21
217.1661776416548
 31
0.0
  0
ARC
  5
27D
330
18
100
AcDbEntity
  8
外形線
100
AcDbCircle
 10
124.8430515408833
 20
205.1661776416549
 30
0.0
 40
12.49999999999989
100
AcDbArc
 50
73.73979529168789
 51
106.2602047083121
  0
LINE
  5
27E
330
18
100
AcDbEntity
  8
外形線
100
AcDbLine
 10
121.3430515408833
 20
217.1661776416548
 30
0.0
 11
121.3430515408834
 21
212.1661776416548
 31
0.0
  0
ARC
  5
27F
330
18
100
AcDbEntity
  8
外形線
100
AcDbCircle
 10
121.3430515408834
 20
211.1661776416548
 30
0.0
 40
0.5
100
AcDbArc
 50
90.0
 51
180.0
  0
LINE
  5
280
330
18
100
AcDbEntity
  8
外形線
100
AcDbLine
 10
120.8430515408833
 20
211.1661776416548
 30
0.0
 11
120.8430515408832
 21
209.2036589103814
 31
0.0
  0
LINE
  5
281
330
18
100
AcDbEntity
  8
外形線
100
AcDbLine
 10
121.3430515408832
 20
217.1551035234787
 30
0.0
 11
121.3494451859932
 21
217.1661776416549
 31
0.0
  0
LINE
  5
282
330
18
100
AcDbEntity
  8
外形線
100
AcDbLine
 10
128.3430515408833
 20
217.1661776416548
 30
0.0
 11
128.3430515408834
 21
212.1661776416548
 31
0.0
  0
LINE
  5
283
330
18
100
AcDbEntity
  8
ﾊｯﾁﾝｸ
 62
     4
100
AcDbLine
 10
124.8430515408833
 20
214.8461572385754
 30
0.0
 11
123.5035871366399
 21
217.1661776416548
 31
0.0
  0
LINE
  5
284
330
18
100
AcDbEntity
  8
ﾊｯﾁﾝｸ
 62
     4
100
AcDbLine
 10
121.9267954551828
 20
212.1661776416549
 30
0.0
 11
124.813546801131
 21
217.1661776416549
 31
0.0
  0
LINE
  5
285
330
18
100
AcDbEntity
  8
ﾊｯﾁﾝｸ
 62
     4
100
AcDbLine
 10
124.8430515408834
 20
212.8461572385752
 30
0.0
 11
122.3488865982606
 21
217.1661776416548
 31
0.0
  0
LINE
  5
286
330
18
100
AcDbEntity
  8
ﾊｯﾁﾝｸ
 62
     4
100
AcDbLine
 10
124.2361965319413
 20
212.1661776416549
 30
0.0
 11
124.8430515408833
 21
213.2172813499701
 31
0.0
  0
LINE
  5
287
330
18
100
AcDbEntity
  8
ﾊｯﾁﾝｸ
 62
     4
100
AcDbLine
 10
123.0751023484522
 20
212.1551035234789
 30
0.0
 11
124.8430515408834
 21
215.2172813499701
 31
0.0
  0
ARC
  5
288
330
18
100
AcDbEntity
  8
外形線
100
AcDbCircle
 10
128.3430515408834
 20
211.1661776416548
 30
0.0
 40
0.5
100
AcDbArc
 50
0.0
 51
90.0
  0
LINE
  5
289
330
18
100
AcDbEntity
  8
外形線
100
AcDbLine
 10
128.8430515408834
 20
211.1661776416548
 30
0.0
 11
128.8430515408834
 21
209.2036589103814
 31
0.0
  0
LINE
  5
28A
330
18
100
AcDbEntity
  8
外形線
100
AcDbLine
 10
127.8430515408834
 20
211.6661776416548
 30
0.0
 11
128.3430515408834
 21
212.1661776416548
 31
0.0
  0
LINE
  5
28B
330
18
100
AcDbEntity
  8
ﾊｯﾁﾝｸ
 62
     4
100
AcDbLine
 10
124.8430515408833
 20
216.8461572385752
 30
0.0
 11
124.6582876750191
 21
217.1661776416548
 31
0.0
  0
LINE
  5
28C
330
18
100
AcDbEntity
  8
中心線
100
AcDbLine
 10
248.2483621796439
 20
220.8251393833454
 30
0.0
 11
248.2483621796439
 21
66.91423963051943
 31
0.0
  0
LINE
  5
28F
330
18
100
AcDbEntity
  8
外形線
100
AcDbLine
 10
245.9983621796439
 20
75.16617764165482
 30
0.0
 11
246.9483621796438
 21
70.66617764165482
 31
0.0
  0
LINE
  5
290
330
18
100
AcDbEntity
  8
外形線
100
AcDbLine
 10
250.4983621796439
 20
75.16617764165482
 30
0.0
 11
249.5483621796438
 21
70.66617764165482
 31
0.0
  0
LINE
  5
292
330
18
100
AcDbEntity
  8
外形線
100
AcDbLine
 10
246.9483621796438
 20
70.66617764165482
 30
0.0
 11
249.5483621796438
 21
70.66617764165482
 31
0.0
  0
POINT
  5
293
330
18
100
AcDbEntity
  8
DEFPOINTS
  6
ByBlock
 62
     0
100
AcDbPoint
 10
248.2483621796439
 20
69.66617764165483
 30
0.0
  0
LINE
  5
294
330
18
100
AcDbEntity
  8
外形線
100
AcDbLine
 10
244.2483621796439
 20
135.4161776416548
 30
0.0
 11
244.2483621796439
 21
116.6161776416548
 31
0.0
  0
LINE
  5
295
330
18
100
AcDbEntity
  8
外形線
100
AcDbLine
 10
252.2483621796439
 20
135.4161776416548
 30
0.0
 11
252.2483621796439
 21
116.6161776416548
 31
0.0
  0
LINE
  5
296
330
18
100
AcDbEntity
  8
外形線
100
AcDbLine
 10
245.7483621796439
 20
111.1161776416548
 30
0.0
 11
245.7483621796439
 21
78.66617764165482
 31
0.0
  0
LINE
  5
297
330
18
100
AcDbEntity
  8
外形線
100
AcDbLine
 10
250.7483621796439
 20
111.1161776416548
 30
0.0
 11
250.7483621796439
 21
78.66617764165482
 31
0.0
  0
LINE
  5
299
330
18
100
AcDbEntity
  8
外形線
100
AcDbLine
 10
245.7483621796439
 20
78.66617764165482
 30
0.0
 11
250.7483621796439
 21
78.66617764165482
 31
0.0
  0
LINE
  5
29A
330
18
100
AcDbEntity
  8
外形線
100
AcDbLine
 10
245.9983621796439
 20
75.16617764165482
 30
0.0
 11
250.4983621796438
 21
75.16617764165482
 31
0.0
  0
LINE
  5
29B
330
18
100
AcDbEntity
  8
外形線
100
AcDbLine
 10
245.7483621796438
 20
78.46617764165483
 30
0.0
 11
250.7483621796439
 21
78.46617764165483
 31
0.0
  0
LINE
  5
29C
330
18
100
AcDbEntity
  8
外形線
100
AcDbLine
 10
245.7483621796438
 20
75.36617764165481
 30
0.0
 11
250.7483621796439
 21
75.36617764165481
 31
0.0
  0
LINE
  5
29D
330
18
100
AcDbEntity
  8
外形線
100
AcDbLine
 10
245.7483621796439
 20
78.46617764165483
 30
0.0
 11
245.7483621796439
 21
75.36617764165481
 31
0.0
  0
LINE
  5
29E
330
18
100
AcDbEntity
  8
外形線
100
AcDbLine
 10
245.7483621796439
 20
75.36617764165481
 30
0.0
 11
245.9983621796439
 21
75.16617764165482
 31
0.0
  0
LINE
  5
29F
330
18
100
AcDbEntity
  8
外形線
100
AcDbLine
 10
245.9983621796439
 20
78.66617764165482
 30
0.0
 11
245.7483621796439
 21
78.46617764165483
 31
0.0
  0
LINE
  5
2A0
330
18
100
AcDbEntity
  8
外形線
100
AcDbLine
 10
250.7483621796439
 20
78.46617764165483
 30
0.0
 11
250.7483621796438
 21
75.36617764165481
 31
0.0
  0
LINE
  5
2A1
330
18
100
AcDbEntity
  8
外形線
100
AcDbLine
 10
250.7483621796439
 20
75.36617764165481
 30
0.0
 11
250.4983621796439
 21
75.16617764165482
 31
0.0
  0
LINE
  5
2A2
330
18
100
AcDbEntity
  8
外形線
100
AcDbLine
 10
250.4983621796439
 20
78.66617764165482
 30
0.0
 11
250.7483621796439
 21
78.46617764165483
 31
0.0
  0
LINE
  5
2A3
330
18
100
AcDbEntity
  8
外形線
 62
     4
100
AcDbLine
 10
244.3483621796439
 20
111.3161776416548
 30
0.0
 11
252.1483621796439
 21
111.3161776416548
 31
0.0
  0
LINE
  5
2A4
330
18
100
AcDbEntity
  8
外形線
100
AcDbLine
 10
244.2483621796439
 20
116.6161776416548
 30
0.0
 11
252.2483621796439
 21
116.6161776416548
 31
0.0
  0
LINE
  5
2A5
330
18
100
AcDbEntity
  8
外形線
100
AcDbLine
 10
244.5483621796439
 20
111.1161776416548
 30
0.0
 11
251.9483621796439
 21
111.1161776416548
 31
0.0
  0
LINE
  5
2A6
330
18
100
AcDbEntity
  8
外形線
100
AcDbLine
 10
244.3483621796439
 20
116.6161776416548
 30
0.0
 11
244.3483621796439
 21
111.3161776416548
 31
0.0
  0
LINE
  5
2A7
330
18
100
AcDbEntity
  8
外形線
100
AcDbLine
 10
244.3483621796439
 20
111.3161776416548
 30
0.0
 11
244.5483621796439
 21
111.1161776416548
 31
0.0
  0
LINE
  5
2A8
330
18
100
AcDbEntity
  8
外形線
100
AcDbLine
 10
252.1483621796439
 20
116.6161776416548
 30
0.0
 11
252.1483621796439
 21
111.3161776416548
 31
0.0
  0
LINE
  5
2A9
330
18
100
AcDbEntity
  8
外形線
100
AcDbLine
 10
251.9483621796439
 20
111.1161776416548
 30
0.0
 11
252.1483621796439
 21
111.3161776416548
 31
0.0
  0
LINE
  5
2AA
330
18
100
AcDbEntity
  8
中心線
100
AcDbLine
 10
227.3030061986474
 20
171.6661776416548
 30
0.0
 11
279.9256734334533
 21
171.6661776416548
 31
0.0
  0
LINE
  5
2AB
330
18
100
AcDbEntity
  8
外形線
100
AcDbLine
 10
244.2483621796439
 20
211.1661776416548
 30
0.0
 11
244.2483621796437
 21
207.9161776416547
 31
0.0
  0
LINE
  5
2AC
330
18
100
AcDbEntity
  8
外形線
100
AcDbLine
 10
252.2483621796439
 20
211.1661776416548
 30
0.0
 11
252.2483621796439
 21
207.9161776416548
 31
0.0
  0
LINE
  5
2AD
330
18
100
AcDbEntity
  8
ﾊｯﾁﾝｸ
 62
     4
100
AcDbLine
 10
246.4804129872127
 20
212.1551035234789
 30
0.0
 11
248.2483621796439
 21
215.2172813499701
 31
0.0
  0
LINE
  5
2AE
330
18
100
AcDbEntity
  8
ﾊｯﾁﾝｸ
 62
     4
100
AcDbLine
 10
248.2483621796439
 20
212.8461572385752
 30
0.0
 11
245.7541972370212
 21
217.1661776416548
 31
0.0
  0
LINE
  5
2AF
330
18
100
AcDbEntity
  8
ﾊｯﾁﾝｸ
 62
     4
100
AcDbLine
 10
245.3321060939434
 20
212.1661776416549
 30
0.0
 11
248.2188574398915
 21
217.1661776416549
 31
0.0
  0
LINE
  5
2B0
330
18
100
AcDbEntity
  8
ﾊｯﾁﾝｸ
 62
     4
100
AcDbLine
 10
248.2483621796439
 20
214.8461572385754
 30
0.0
 11
246.9088977754004
 21
217.1661776416548
 31
0.0
  0
ARC
  5
2B1
330
18
100
AcDbEntity
  8
外形線
100
AcDbCircle
 10
248.2483621796439
 20
205.1661776416549
 30
0.0
 40
12.49999999999989
100
AcDbArc
 50
73.73979529168789
 51
106.2602047083121
  0
LINE
  5
2B2
330
18
100
AcDbEntity
  8
外形線
100
AcDbLine
 10
244.7483621796438
 20
217.1661776416548
 30
0.0
 11
251.7483621796438
 21
217.1661776416548
 31
0.0
  0
LINE
  5
2B3
330
18
100
AcDbEntity
  8
外形線
100
AcDbLine
 10
244.7483621796439
 20
212.1661776416548
 30
0.0
 11
251.7483621796439
 21
212.1661776416548
 31
0.0
  0
LINE
  5
2B4
330
18
100
AcDbEntity
  8
外形線
100
AcDbLine
 10
244.7483621796439
 20
211.6661776416548
 30
0.0
 11
251.7483621796439
 21
211.6661776416548
 31
0.0
  0
LINE
  5
2B5
330
18
100
AcDbEntity
  8
外形線
100
AcDbLine
 10
244.7483621796438
 20
217.1661776416548
 30
0.0
 11
244.7483621796439
 21
212.1661776416548
 31
0.0
  0
LINE
  5
2B6
330
18
100
AcDbEntity
  8
ﾊｯﾁﾝｸ
 62
     4
100
AcDbLine
 10
247.4862480445901
 20
212.1661776416549
 30
0.0
 11
244.7483621796438
 21
216.9083350650665
 31
0.0
  0
LINE
  5
2B7
330
18
100
AcDbEntity
  8
ﾊｯﾁﾝｸ
 62
     4
100
AcDbLine
 10
244.7483621796439
 20
213.1551035234789
 30
0.0
 11
247.0641569015124
 21
217.1661776416548
 31
0.0
  0
LINE
  5
2B8
330
18
100
AcDbEntity
  8
ﾊｯﾁﾝｸ
 62
     4
100
AcDbLine
 10
244.7483621796438
 20
215.1551035234788
 30
0.0
 11
245.9094563631331
 21
217.1661776416548
 31
0.0
  0
ARC
  5
2B9
330
18
100
AcDbEntity
  8
外形線
100
AcDbCircle
 10
244.7483621796439
 20
211.1661776416548
 30
0.0
 40
0.5
100
AcDbArc
 50
90.0
 51
180.0
  0
LINE
  5
2BA
330
18
100
AcDbEntity
  8
外形線
100
AcDbLine
 10
244.7483621796439
 20
212.1661776416548
 30
0.0
 11
245.2483621796439
 21
211.6661776416548
 31
0.0
  0
LINE
  5
2BB
330
18
100
AcDbEntity
  8
ﾊｯﾁﾝｸ
 62
     4
100
AcDbLine
 10
245.1768469678317
 20
212.1661776416549
 30
0.0
 11
244.7483621796439
 21
212.9083350650666
 31
0.0
  0
LINE
  5
2BC
330
18
100
AcDbEntity
  8
ﾊｯﾁﾝｸ
 62
     4
100
AcDbLine
 10
246.3379411513208
 20
212.1551035234789
 30
0.0
 11
244.7483621796439
 21
214.9083350650666
 31
0.0
  0
LINE
  5
2BD
330
18
100
AcDbEntity
  8
外形線
100
AcDbLine
 10
244.7483621796437
 20
217.1551035234787
 30
0.0
 11
244.7547558247538
 21
217.1661776416549
 31
0.0
  0
LINE
  5
2BE
330
18
100
AcDbEntity
  8
外形線
100
AcDbLine
 10
251.7483621796438
 20
217.1661776416548
 30
0.0
 11
251.7483621796439
 21
212.1661776416548
 31
0.0
  0
LINE
  5
2BF
330
18
100
AcDbEntity
  8
外形線
100
AcDbLine
 10
251.2483621796439
 20
211.6661776416548
 30
0.0
 11
251.7483621796439
 21
212.1661776416548
 31
0.0
  0
LINE
  5
2C0
330
18
100
AcDbEntity
  8
ﾊｯﾁﾝｸ
 62
     4
100
AcDbLine
 10
247.6415071707019
 20
212.1661776416549
 30
0.0
 11
248.2483621796439
 21
213.2172813499701
 31
0.0
  0
ARC
  5
2C1
330
18
100
AcDbEntity
  8
外形線
100
AcDbCircle
 10
251.7483621796439
 20
211.1661776416548
 30
0.0
 40
0.5
100
AcDbArc
 50
0.0
 51
90.0
  0
LINE
  5
2C2
330
18
100
AcDbEntity
  8
ﾊｯﾁﾝｸ
 62
     4
100
AcDbLine
 10
248.2483621796439
 20
216.8461572385752
 30
0.0
 11
248.0635983137797
 21
217.1661776416548
 31
0.0
  0
LINE
  5
2C7
330
18
100
AcDbEntity
  8
外形線
100
AcDbLine
 10
256.2483621796439
 20
207.9161776416548
 30
0.0
 11
256.2483621796439
 21
135.4161776416548
 31
0.0
  0
LINE
  5
2C8
330
18
100
AcDbEntity
  8
外形線
100
AcDbLine
 10
241.2483621796439
 20
207.9161776416547
 30
0.0
 11
256.2483621796439
 21
207.9161776416548
 31
0.0
  0
LINE
  5
2C9
330
18
100
AcDbEntity
  8
外形線
100
AcDbLine
 10
241.2483621796439
 20
135.4161776416548
 30
0.0
 11
256.2483621796439
 21
135.4161776416548
 31
0.0
  0
LINE
  5
2CB
330
18
100
AcDbEntity
  8
外形線
100
AcDbLine
 10
241.2483621796439
 20
208.5661776416548
 30
0.0
 11
241.2483621796439
 21
171.6661776416548
 31
0.0
  0
LINE
  5
2CC
330
18
100
AcDbEntity
  8
外形線
100
AcDbLine
 10
233.2483621796439
 20
206.5161776416548
 30
0.0
 11
233.2483621796439
 21
171.6661776416548
 31
0.0
  0
LINE
  5
2CD
330
18
100
AcDbEntity
  8
外形線
100
AcDbLine
 10
235.9483621796439
 20
209.3661776416548
 30
0.0
 11
240.4483621796439
 21
209.3661776416548
 31
0.0
  0
LINE
  5
2CE
330
18
100
AcDbEntity
  8
外形線
100
AcDbLine
 10
240.8483621796439
 20
208.5661776416548
 30
0.0
 11
241.2483621796439
 21
208.5661776416548
 31
0.0
  0
LINE
  5
2CF
330
18
100
AcDbEntity
  8
外形線
100
AcDbLine
 10
240.8483621796439
 20
208.9661776416548
 30
0.0
 11
240.8483621796439
 21
171.6661776416548
 31
0.0
  0
LINE
  5
2D0
330
18
100
AcDbEntity
  8
外形線
100
AcDbLine
 10
240.8483621796439
 20
208.9661776416548
 30
0.0
 11
240.4483621796439
 21
209.3661776416548
 31
0.0
  0
LINE
  5
2D1
330
18
100
AcDbEntity
  8
外形線
100
AcDbLine
 10
235.6483621796439
 20
208.8661776416549
 30
0.0
 11
235.6483621796439
 21
171.6661776416548
 31
0.0
  0
LINE
  5
2D4
330
18
100
AcDbEntity
  8
外形線
100
AcDbLine
 10
234.7483621796439
 20
208.8661776416548
 30
0.0
 11
235.6483621796439
 21
208.8661776416548
 31
0.0
  0
LINE
  5
2D5
330
18
100
AcDbEntity
  8
外形線
100
AcDbLine
 10
235.6483621796439
 20
208.8661776416548
 30
0.0
 11
235.9483621796439
 21
209.3661776416548
 31
0.0
  0
LINE
  5
2D6
330
18
100
AcDbEntity
  8
外形線
100
AcDbLine
 10
234.7483621796439
 20
208.8661776416548
 30
0.0
 11
234.7483621796439
 21
171.6661776416548
 31
0.0
  0
ARC
  5
2D8
330
18
100
AcDbEntity
  8
外形線
100
AcDbCircle
 10
234.7483621796439
 20
208.3661776416548
 30
0.0
 40
0.5
100
AcDbArc
 50
90.0
 51
156.8514803659739
  0
LINE
  5
2DA
330
18
100
AcDbEntity
  8
外形線
100
AcDbLine
 10
233.2483621796439
 20
206.5161776416548
 30
0.0
 11
234.2886177167715
 21
208.5627355945801
 31
0.0
  0
LINE
  5
2DB
330
18
100
AcDbEntity
  8
外形線
100
AcDbLine
 10
240.8483621796439
 20
134.3661776416548
 30
0.0
 11
240.8483621796439
 21
171.6661776416548
 31
0.0
  0
LINE
  5
2DC
330
18
100
AcDbEntity
  8
外形線
100
AcDbLine
 10
233.2483621796439
 20
136.8161776416548
 30
0.0
 11
233.2483621796439
 21
171.6661776416548
 31
0.0
  0
LINE
  5
2DD
330
18
100
AcDbEntity
  8
外形線
100
AcDbLine
 10
235.6483621796439
 20
134.4661776416548
 30
0.0
 11
235.6483621796439
 21
171.6661776416548
 31
0.0
  0
LINE
  5
2DE
330
18
100
AcDbEntity
  8
外形線
100
AcDbLine
 10
234.7483621796439
 20
134.4661776416548
 30
0.0
 11
234.7483621796439
 21
171.6661776416548
 31
0.0
  0
LINE
  5
2DF
330
18
100
AcDbEntity
  8
外形線
100
AcDbLine
 10
241.2483621796439
 20
134.7661776416548
 30
0.0
 11
241.2483621796439
 21
171.6661776416548
 31
0.0
  0
LINE
  5
2E0
330
18
100
AcDbEntity
  8
外形線
100
AcDbLine
 10
235.9483621796439
 20
133.9661776416548
 30
0.0
 11
240.4483621796439
 21
133.9661776416548
 31
0.0
  0
LINE
  5
2E1
330
18
100
AcDbEntity
  8
外形線
100
AcDbLine
 10
234.7483621796439
 20
134.4661776416548
 30
0.0
 11
235.6483621796439
 21
134.4661776416548
 31
0.0
  0
ARC
  5
2E2
330
18
100
AcDbEntity
  8
外形線
100
AcDbCircle
 10
234.7483621796439
 20
134.9661776416548
 30
0.0
 40
0.5
100
AcDbArc
 50
203.1485196340261
 51
270.0
  0
LINE
  5
2E3
330
18
100
AcDbEntity
  8
外形線
100
AcDbLine
 10
233.2483621796439
 20
136.8161776416548
 30
0.0
 11
234.2886177167715
 21
134.7696196887295
 31
0.0
  0
LINE
  5
2E4
330
18
100
AcDbEntity
  8
外形線
100
AcDbLine
 10
235.6483621796439
 20
134.4661776416548
 30
0.0
 11
235.9483621796439
 21
133.9661776416548
 31
0.0
  0
LINE
  5
2E5
330
18
100
AcDbEntity
  8
外形線
100
AcDbLine
 10
240.8483621796439
 20
134.7661776416548
 30
0.0
 11
241.2483621796439
 21
134.7661776416548
 31
0.0
  0
LINE
  5
2E6
330
18
100
AcDbEntity
  8
外形線
100
AcDbLine
 10
240.8483621796439
 20
134.3661776416548
 30
0.0
 11
240.4483621796439
 21
133.9661776416548
 31
0.0
  0
ARC
  5
2E7
330
18
100
AcDbEntity
  8
外形線
100
AcDbCircle
 10
474.9028621796441
 20
171.6661776416548
 30
0.0
 40
244.1545000000003
100
AcDbArc
 50
171.7937160050628
 51
188.2062839949373
  0
LINE
  5
2E8
330
18
100
AcDbEntity
  8
ﾊｯﾁﾝｸ
100
AcDbLine
 10
235.6483621796439
 20
208.4661776416548
 30
0.0
 11
240.8483621796439
 21
208.4661776416548
 31
0.0
  0
LINE
  5
2EA
330
18
100
AcDbEntity
  8
ﾊｯﾁﾝｸ
100
AcDbLine
 10
235.6483621796439
 20
207.4661776416548
 30
0.0
 11
240.8483621796439
 21
207.4661776416548
 31
0.0
  0
LINE
  5
2EB
330
18
100
AcDbEntity
  8
ﾊｯﾁﾝｸ
100
AcDbLine
 10
235.6483621796439
 20
206.3661776416548
 30
0.0
 11
240.8483621796439
 21
206.3661776416548
 31
0.0
  0
LINE
  5
2EC
330
18
100
AcDbEntity
  8
ﾊｯﾁﾝｸ
100
AcDbLine
 10
235.6483621796439
 20
205.1661776416549
 30
0.0
 11
240.8483621796439
 21
205.1661776416549
 31
0.0
  0
LINE
  5
2ED
330
18
100
AcDbEntity
  8
ﾊｯﾁﾝｸ
100
AcDbLine
 10
235.6483621796439
 20
203.8661776416548
 30
0.0
 11
240.8483621796439
 21
203.8661776416548
 31
0.0
  0
LINE
  5
2EE
330
18
100
AcDbEntity
  8
ﾊｯﾁﾝｸ
100
AcDbLine
 10
235.6483621796439
 20
134.8661776416548
 30
0.0
 11
240.8483621796439
 21
134.8661776416548
 31
0.0
  0
LINE
  5
2EF
330
18
100
AcDbEntity
  8
ﾊｯﾁﾝｸ
100
AcDbLine
 10
235.6483621796439
 20
135.8661776416548
 30
0.0
 11
240.8483621796439
 21
135.8661776416548
 31
0.0
  0
LINE
  5
2F0
330
18
100
AcDbEntity
  8
ﾊｯﾁﾝｸ
100
AcDbLine
 10
235.6483621796439
 20
136.9661776416548
 30
0.0
 11
240.8483621796439
 21
136.9661776416548
 31
0.0
  0
LINE
  5
2F1
330
18
100
AcDbEntity
  8
ﾊｯﾁﾝｸ
100
AcDbLine
 10
235.6483621796439
 20
138.1661776416548
 30
0.0
 11
240.8483621796439
 21
138.1661776416548
 31
0.0
  0
LINE
  5
2F2
330
18
100
AcDbEntity
  8
ﾊｯﾁﾝｸ
100
AcDbLine
 10
235.6483621796439
 20
139.4661776416548
 30
0.0
 11
240.8483621796439
 21
139.4661776416548
 31
0.0
  0
LINE
  5
2F3
330
18
100
AcDbEntity
  8
ﾊｯﾁﾝｸ
100
AcDbLine
 10
235.6483621796439
 20
171.6661776416548
 30
0.0
 11
240.8483621796439
 21
171.6661776416548
 31
0.0
  0
LINE
  5
2F4
330
18
100
AcDbEntity
  8
ﾊｯﾁﾝｸ
100
AcDbLine
 10
235.6483621796439
 20
172.9661776416548
 30
0.0
 11
240.8483621796439
 21
172.9661776416548
 31
0.0
  0
LINE
  5
2F5
330
18
100
AcDbEntity
  8
ﾊｯﾁﾝｸ
100
AcDbLine
 10
235.6483621796439
 20
170.3661776416548
 30
0.0
 11
240.8483621796439
 21
170.3661776416548
 31
0.0
  0
LINE
  5
2F6
330
18
100
AcDbEntity
  8
ﾊｯﾁﾝｸ
100
AcDbLine
 10
235.6483621796439
 20
174.1661776416548
 30
0.0
 11
240.8483621796439
 21
174.1661776416548
 31
0.0
  0
LINE
  5
2F7
330
18
100
AcDbEntity
  8
ﾊｯﾁﾝｸ
100
AcDbLine
 10
235.6483621796439
 20
169.1661776416548
 30
0.0
 11
240.8483621796439
 21
169.1661776416548
 31
0.0
  0
ARC
  5
324
330
18
100
AcDbEntity
  8
外形線
100
AcDbCircle
 10
-62.26726282035622
 20
171.6661776416548
 30
0.0
 40
320.5156250000001
100
AcDbArc
 50
353.5959588333557
 51
6.40404116664432
  0
TEXT
  5
325
330
18
100
AcDbEntity
  8
文字
100
AcDbText
 10
281.3774504915289
 20
191.8609619147441
 30
0.0
 40
2.5
  1
φ6.5
  7
STYLE3
100
AcDbText
  0
LINE
  5
326
330
18
100
AcDbEntity
  8
寸法線
100
AcDbLine
 10
280.8261272328514
 20
191.2441760711949
 30
0.0
 11
290.8648728869173
 21
191.2441760711949
 31
0.0
  0
LINE
  5
327
330
18
100
AcDbEntity
  8
想像線
 48
0.4
100
AcDbLine
 10
259.9875381491634
 20
183.870262816987
 30
0.0
 11
259.9875381491634
 21
159.4620924663225
 31
0.0
  0
LINE
  5
328
330
18
100
AcDbEntity
  8
想像線
 48
0.4
100
AcDbLine
 10
264.9875381491635
 20
180.1155751444502
 30
0.0
 11
264.9875381491634
 21
163.2167801388594
 31
0.0
  0
ARC
  5
32A
330
18
100
AcDbEntity
  8
外形線
100
AcDbCircle
 10
266.2483621796439
 20
156.3312647068701
 30
0.0
 40
7.0
100
AcDbArc
 50
95.71059313749966
 51
180.0
  0
ARC
  5
32B
330
18
100
AcDbEntity
  8
外形線
100
AcDbCircle
 10
269.2483621796439
 20
171.6661776416548
 30
0.0
 40
8.0
100
AcDbArc
 50
270.0
 51
90.0
  0
LINE
  5
32C
330
18
100
AcDbEntity
  8
中心線
 48
0.5
100
AcDbLine
 10
269.2483621796438
 20
181.7548338769708
 30
0.0
 11
269.2483621796438
 21
161.129820080009
 31
0.0
  0
LINE
  5
32D
330
18
100
AcDbEntity
  8
外形線
100
AcDbLine
 10
259.2483621796439
 20
156.3312647068701
 30
0.0
 11
257.8813063072026
 21
156.3312647068701
 31
0.0
  0
LINE
  5
32E
330
18
100
AcDbEntity
  8
外形線
100
AcDbLine
 10
269.2483621796439
 20
163.6661776416548
 30
0.0
 11
264.5518361464969
 21
163.1965250383402
 31
0.0
  0
ARC
  5
330
330
18
100
AcDbEntity
  8
外形線
100
AcDbCircle
 10
266.2483621796439
 20
187.0010905764394
 30
0.0
 40
7.0
100
AcDbArc
 50
180.0
 51
264.2894068625003
  0
LINE
  5
331
330
18
100
AcDbEntity
  8
外形線
100
AcDbLine
 10
259.2483621796439
 20
187.0010905764394
 30
0.0
 11
257.8813063072026
 21
187.0010905764394
 31
0.0
  0
LINE
  5
332
330
18
100
AcDbEntity
  8
0
  6
ByBlock
 62
     2
100
AcDbLine
 10
280.8261272328514
 20
191.2441760711949
 30
0.0
 11
270.9026799875876
 21
174.4636287297565
 31
0.0
  0
CIRCLE
  5
333
330
18
100
AcDbEntity
  8
外形線
100
AcDbCircle
 10
269.2483621796439
 20
171.6661776416548
 30
0.0
 40
3.25
  0
POINT
  5
334
330
18
100
AcDbEntity
  8
DEFPOINTS
  6
ByBlock
 62
     0
100
AcDbPoint
 10
269.248362179644
 20
171.6661776416549
 30
0.0
  0
LINE
  5
335
330
18
100
AcDbEntity
  8
外形線
100
AcDbLine
 10
269.2483621796439
 20
179.6661776416548
 30
0.0
 11
265.551836146497
 21
180.0358302449695
 31
0.0
  0
POINT
  5
336
330
18
100
AcDbEntity
  8
DEFPOINTS
  6
ByBlock
 62
     0
100
AcDbPoint
 10
270.9026799875876
 20
174.4636287297565
 30
0.0
  0
INSERT
  5
337
330
18
100
AcDbEntity
  8
0
  6
ByBlock
 62
     2
100
AcDbBlockReference
  2
_OPEN
 10
270.9026799875876
 20
174.4636287297565
 30
0.0
 41
2.5
 42
2.5
 43
2.5
 50
239.4013680303761
  0
LINE
  5
3EE
330
18
100
AcDbEntity
  8
0
  6
ByBlock
 62
     2
100
AcDbLine
 10
230.9324778063153
 20
111.1161776416548
 30
0.0
 11
225.1350104261346
 21
111.1161776416548
 31
0.0
  0
LINE
  5
3EF
330
18
100
AcDbEntity
  8
0
  6
ByBlock
 62
     2
100
AcDbLine
 10
226.3850104261346
 20
119.1161776416548
 30
0.0
 11
226.3850104261346
 21
121.6161776416548
 31
0.0
  0
LINE
  5
3F0
330
18
100
AcDbEntity
  8
0
  6
ByBlock
 62
     2
100
AcDbLine
 10
226.3850104261346
 20
108.6161776416548
 30
0.0
 11
226.3850104261346
 21
106.1161776416548
 31
0.0
  0
MTEXT
  5
3F3
330
18
100
AcDbEntity
  8
0
  6
ByBlock
 62
     6
100
AcDbMText
 10
222.9475104261346
 20
111.7358170836308
 30
0.0
 40
2.5
 41
0.0
 71
     4
 72
     1
  1
\A1;5.5
  7
STYLE3
 11
0.0000000000000001
 21
1.0
 31
0.0
 73
     1
 44
1.0
  0
LINE
  5
3F4
330
18
100
AcDbEntity
  8
0
  6
ByBlock
 62
     2
100
AcDbLine
 10
226.3850104261346
 20
116.6161776416548
 30
0.0
 11
226.3850104261346
 21
111.1161776416548
 31
0.0
  0
LINE
  5
3F5
330
18
100
AcDbEntity
  8
0
  6
ByBlock
 62
     2
100
AcDbLine
 10
226.3850104261346
 20
116.6161776416548
 30
0.0
 11
226.3850104261346
 21
111.1161776416548
 31
0.0
  0
INSERT
  5
3F6
330
18
100
AcDbEntity
  8
0
  6
ByBlock
 62
     2
100
AcDbBlockReference
  2
_OPEN
 10
226.3850104261346
 20
116.6161776416548
 30
0.0
 41
2.5
 42
2.5
 43
2.5
 50
270.0
  0
INSERT
  5
3F7
330
18
100
AcDbEntity
  8
0
  6
ByBlock
 62
     2
100
AcDbBlockReference
  2
_OPEN
 10
226.3850104261346
 20
111.1161776416548
 30
0.0
 41
2.5
 42
2.5
 43
2.5
 50
90.0
  0
POINT
  5
3F8
330
18
100
AcDbEntity
  8
DEFPOINTS
  6
ByBlock
 62
     0
100
AcDbPoint
 10
244.2483621796439
 20
116.6161776416548
 30
0.0
  0
POINT
  5
3F9
330
18
100
AcDbEntity
  8
DEFPOINTS
  6
ByBlock
 62
     0
100
AcDbPoint
 10
230.9324778063153
 20
111.1161776416548
 30
0.0
  0
POINT
  5
3FA
330
18
100
AcDbEntity
  8
DEFPOINTS
  6
ByBlock
 62
     0
100
AcDbPoint
 10
226.3850104261346
 20
111.1161776416548
 30
0.0
  0
CIRCLE
  5
4C2
330
18
100
AcDbEntity
  8
外形線
100
AcDbCircle
 10
124.8430515408833
 20
171.6661776416548
 30
0.0
 40
20.0
  0
LINE
  5
4C6
330
18
100
AcDbEntity
  8
目盛
100
AcDbLine
 10
124.8430515408833
 20
205.6661776416548
 30
0.0
 11
124.8430515408833
 21
200.1661776416548
 31
0.0
  0
LINE
  5
4C7
330
18
100
AcDbEntity
  8
目盛
100
AcDbLine
 10
126.97792920488
 20
205.599086408216
 30
0.0
 11
126.7581623865274
 21
202.1059928587171
 31
0.0
  0
LINE
  5
4C8
330
18
100
AcDbEntity
  8
目盛
100
AcDbLine
 10
129.1043814820697
 20
205.3980774863471
 30
0.0
 11
128.6657151645946
 21
201.9256760317464
 31
0.0
  0
LINE
  5
4C9
330
18
100
AcDbEntity
  8
目盛
100
AcDbLine
 10
131.214016236798
 20
205.0639441664302
 30
0.0
 11
130.5581816357479
 21
201.6259387888798
 31
0.0
  0
LINE
  5
4CA
330
18
100
AcDbEntity
  8
目盛
100
AcDbLine
 10
133.2985077044884
 20
204.5980051200283
 30
0.0
 11
132.4280930994114
 21
201.2079640560781
 31
0.0
  0
LINE
  5
4CB
330
18
100
AcDbEntity
  8
目盛
100
AcDbLine
 10
135.3496293496316
 20
204.00209919569
 30
0.0
 11
133.9590528749443
 21
199.7223448723618
 31
0.0
  0
LINE
  5
4CC
330
18
100
AcDbEntity
  8
目盛
100
AcDbLine
 10
137.3592863321624
 20
203.2785781618554
 30
0.0
 11
136.070850397766
 21
200.0243604612465
 31
0.0
  0
LINE
  5
4CD
330
18
100
AcDbEntity
  8
目盛
100
AcDbLine
 10
139.3195474540958
 20
202.4302974254995
 30
0.0
 11
137.8293199336181
 21
199.2634027418684
 31
0.0
  0
LINE
  5
4CE
330
18
100
AcDbEntity
  8
目盛
100
AcDbLine
 10
141.2226764603417
 20
201.4606047631462
 30
0.0
 11
139.5365386009857
 21
198.3935313829926
 31
0.0
  0
LINE
  5
4CF
330
18
100
AcDbEntity
  8
目盛
100
AcDbLine
 10
143.0611625701692
 20
200.3733271087233
 30
0.0
 11
141.1857687877428
 21
197.4181793694662
 31
0.0
  0
LINE
  5
4D1
330
18
100
AcDbEntity
  8
目盛
100
AcDbLine
 10
110.3665556276709
 20
202.4302974254995
 30
0.0
 11
111.8567831481486
 21
199.2634027418684
 31
0.0
  0
LINE
  5
4D2
330
18
100
AcDbEntity
  8
目盛
100
AcDbLine
 10
108.463426621425
 20
201.4606047631462
 30
0.0
 11
110.149564480781
 21
198.3935313829926
 31
0.0
  0
LINE
  5
4D3
330
18
100
AcDbEntity
  8
目盛
100
AcDbLine
 10
106.6249405115975
 20
200.3733271087233
 30
0.0
 11
108.5003342940239
 21
197.4181793694663
 31
0.0
  0
LINE
  5
4D4
330
18
100
AcDbEntity
  8
目盛
100
AcDbLine
 10
104.8583529629393
 20
199.172755450403
 30
0.0
 11
108.0911718505479
 21
194.7231619813408
 31
0.0
  0
LINE
  5
4D5
330
18
100
AcDbEntity
  8
目盛
100
AcDbLine
 10
114.3364737321351
 20
204.00209919569
 30
0.0
 11
115.7270502068224
 21
199.7223448723618
 31
0.0
  0
LINE
  5
4D6
330
18
100
AcDbEntity
  8
目盛
100
AcDbLine
 10
112.3268167496043
 20
203.2785781618553
 30
0.0
 11
113.6152526840007
 21
200.0243604612465
 31
0.0
  0
LINE
  5
4D7
330
18
100
AcDbEntity
  8
目盛
100
AcDbLine
 10
120.581721599697
 20
205.3980774863471
 30
0.0
 11
121.0203879171721
 21
201.9256760317464
 31
0.0
  0
LINE
  5
4D8
330
18
100
AcDbEntity
  8
目盛
100
AcDbLine
 10
116.3875953772783
 20
204.5980051200283
 30
0.0
 11
117.2580099823553
 21
201.2079640560781
 31
0.0
  0
LINE
  5
4D9
330
18
100
AcDbEntity
  8
目盛
100
AcDbLine
 10
118.4720868449687
 20
205.0639441664302
 30
0.0
 11
119.1279214460188
 21
201.6259387888799
 31
0.0
  0
LINE
  5
4DA
330
18
100
AcDbEntity
  8
目盛
100
AcDbLine
 10
122.7081738768867
 20
205.5990864082161
 30
0.0
 11
122.9279406952393
 21
202.1059928587171
 31
0.0
  0
LINE
  5
4DB
330
18
100
AcDbEntity
  8
目盛
100
AcDbLine
 10
95.048624419392
 20
188.0458025611131
 30
0.0
 11
98.11569779954552
 21
186.3596647017571
 31
0.0
  0
LINE
  5
4DC
330
18
100
AcDbEntity
  8
目盛
100
AcDbLine
 10
94.0789317570387
 20
186.1426735548673
 30
0.0
 11
97.24582644066979
 21
184.6524460343895
 31
0.0
  0
LINE
  5
4DD
330
18
100
AcDbEntity
  8
目盛
100
AcDbLine
 10
93.23065102068282
 20
184.1824124329338
 30
0.0
 11
96.48486872129169
 21
182.8939764985374
 31
0.0
  0
LINE
  5
4DE
330
18
100
AcDbEntity
  8
目盛
100
AcDbLine
 10
92.50712998684816
 20
182.172755450403
 30
0.0
 11
97.7379408264715
 21
180.4731619813408
 31
0.0
  0
LINE
  5
4DF
330
18
100
AcDbEntity
  8
目盛
100
AcDbLine
 10
97.33647373213514
 20
191.6508762195989
 30
0.0
 11
100.9770502068224
 21
189.0058425842827
 31
0.0
  0
LINE
  5
4E0
330
18
100
AcDbEntity
  8
目盛
100
AcDbLine
 10
96.13590207381484
 20
189.8842886709407
 30
0.0
 11
99.09104981307189
 21
188.0088948885142
 31
0.0
  0
LINE
  5
4E1
330
18
100
AcDbEntity
  8
目盛
100
AcDbLine
 10
101.5684499393079
 20
196.4511109739828
 30
0.0
 11
103.9643648100583
 21
193.8997207780078
 31
0.0
  0
LINE
  5
4E2
330
18
100
AcDbEntity
  8
目盛
100
AcDbLine
 10
98.64560128650651
 20
193.3385932931102
 30
0.0
 11
101.3423976362218
 21
191.1076093289898
 31
0.0
  0
LINE
  5
4E3
330
18
100
AcDbEntity
  8
目盛
100
AcDbLine
 10
100.0581182085554
 20
194.9407792432302
 30
0.0
 11
102.6095084045303
 21
192.5448643724798
 31
0.0
  0
LINE
  5
4E4
330
18
100
AcDbEntity
  8
目盛
100
AcDbLine
 10
103.1706358894279
 20
197.8636278960316
 30
0.0
 11
105.4016198535483
 21
195.1668315463164
 31
0.0
  0
LINE
  5
4E5
330
18
100
AcDbEntity
  8
目盛
100
AcDbLine
 10
91.11115169619111
 20
167.4048477004684
 30
0.0
 11
94.58355315079177
 21
167.8435140179435
 31
0.0
  0
LINE
  5
4E6
330
18
100
AcDbEntity
  8
目盛
100
AcDbLine
 10
91.44528501610791
 20
165.2952129457401
 30
0.0
 11
94.88329039365835
 21
165.9510475467902
 31
0.0
  0
LINE
  5
4E7
330
18
100
AcDbEntity
  8
目盛
100
AcDbLine
 10
91.91122406250991
 20
163.2107214780497
 30
0.0
 11
95.3012651264601
 21
164.0811360831267
 31
0.0
  0
LINE
  5
4E8
330
18
100
AcDbEntity
  8
目盛
100
AcDbLine
 10
92.50712998684813
 20
161.1595998329066
 30
0.0
 11
97.7379408264715
 21
162.8591933019688
 31
0.0
  0
LINE
  5
4E9
330
18
100
AcDbEntity
  8
目盛
100
AcDbLine
 10
90.84305154088335
 20
171.6661776416548
 30
0.0
 11
95.34305154088333
 21
171.6661776416548
 31
0.0
  0
LINE
  5
4EA
330
18
100
AcDbEntity
  8
目盛
100
AcDbLine
 10
90.91014277432211
 20
169.5312999776581
 30
0.0
 11
94.40323632382103
 21
169.7510667960107
 31
0.0
  0
LINE
  5
4EB
330
18
100
AcDbEntity
  8
目盛
100
AcDbLine
 10
91.44528501610793
 20
178.0371423375694
 30
0.0
 11
94.88329039365835
 21
177.3813077365194
 31
0.0
  0
LINE
  5
4EC
330
18
100
AcDbEntity
  8
目盛
100
AcDbLine
 10
90.91014277432211
 20
173.8010553056514
 30
0.0
 11
94.40323632382108
 21
173.5812884872989
 31
0.0
  0
LINE
  5
4ED
330
18
100
AcDbEntity
  8
目盛
100
AcDbLine
 10
91.11115169619111
 20
175.9275075828412
 30
0.0
 11
94.58355315079177
 21
175.4888412653661
 31
0.0
  0
LINE
  5
4EE
330
18
100
AcDbEntity
  8
目盛
100
AcDbLine
 10
91.91122406250986
 20
180.1216338052599
 30
0.0
 11
95.30126512646011
 21
179.2512192001829
 31
0.0
  0
LINE
  5
4EF
330
18
100
AcDbEntity
  8
目盛
100
AcDbLine
 10
100.0581182085554
 20
148.3915760400794
 30
0.0
 11
102.6095084045304
 21
150.7874909108298
 31
0.0
  0
LINE
  5
4F0
330
18
100
AcDbEntity
  8
目盛
100
AcDbLine
 10
101.5684499393079
 20
146.8812443093268
 30
0.0
 11
103.9643648100584
 21
149.4326345053018
 31
0.0
  0
LINE
  5
4F1
330
18
100
AcDbEntity
  8
目盛
100
AcDbLine
 10
103.1706358894279
 20
145.468727387278
 30
0.0
 11
105.4016198535483
 21
148.1655237369932
 31
0.0
  0
LINE
  5
4F2
330
18
100
AcDbEntity
  8
目盛
100
AcDbLine
 10
104.8583529629393
 20
144.1595998329066
 30
0.0
 11
108.0911718505479
 21
148.6091933019688
 31
0.0
  0
LINE
  5
4F3
330
18
100
AcDbEntity
  8
目盛
100
AcDbLine
 10
97.33647373213518
 20
151.6814790637107
 30
0.0
 11
100.9770502068224
 21
154.3265126990268
 31
0.0
  0
LINE
  5
4F4
330
18
100
AcDbEntity
  8
目盛
100
AcDbLine
 10
98.64560128650659
 20
149.9937619901994
 30
0.0
 11
101.3423976362218
 21
152.2247459543198
 31
0.0
  0
LINE
  5
4F5
330
18
100
AcDbEntity
  8
目盛
100
AcDbLine
 10
94.07893175703874
 20
157.1896817284424
 30
0.0
 11
97.24582644066979
 21
158.6799092489201
 31
0.0
  0
LINE
  5
4F6
330
18
100
AcDbEntity
  8
目盛
100
AcDbLine
 10
96.13590207381486
 20
153.4480666123689
 30
0.0
 11
99.09104981307194
 21
155.3234603947954
 31
0.0
  0
LINE
  5
4F7
330
18
100
AcDbEntity
  8
目盛
100
AcDbLine
 10
95.048624419392
 20
155.2865527221966
 30
0.0
 11
98.11569779954556
 21
156.9726905815525
 31
0.0
  0
LINE
  5
4F8
330
18
100
AcDbEntity
  8
目盛
100
AcDbLine
 10
93.23065102068284
 20
159.1499428503758
 30
0.0
 11
96.48486872129172
 21
160.4383787847722
 31
0.0
  0
LINE
  5
4F9
330
18
100
AcDbEntity
  8
目盛
100
AcDbLine
 10
118.4720868449687
 20
138.2684111168794
 30
0.0
 11
119.1279214460188
 21
141.7064164944298
 31
0.0
  0
LINE
  5
4FA
330
18
100
AcDbEntity
  8
目盛
100
AcDbLine
 10
120.581721599697
 20
137.9342777969626
 30
0.0
 11
121.0203879171721
 21
141.4066792515632
 31
0.0
  0
LINE
  5
4FB
330
18
100
AcDbEntity
  8
目盛
100
AcDbLine
 10
122.7081738768867
 20
137.7332688750936
 30
0.0
 11
122.9279406952393
 21
141.2263624245925
 31
0.0
  0
LINE
  5
4FC
330
18
100
AcDbEntity
  8
目盛
100
AcDbLine
 10
124.8430515408833
 20
137.6661776416548
 30
0.0
 11
124.8430515408833
 21
143.1661776416548
 31
0.0
  0
LINE
  5
4FD
330
18
100
AcDbEntity
  8
目盛
100
AcDbLine
 10
114.3364737321352
 20
139.3302560876196
 30
0.0
 11
115.7270502068224
 21
143.6100104109478
 31
0.0
  0
LINE
  5
4FE
330
18
100
AcDbEntity
  8
目盛
100
AcDbLine
 10
116.3875953772783
 20
138.7343501632814
 30
0.0
 11
117.2580099823553
 21
142.1243912272316
 31
0.0
  0
LINE
  5
4FF
330
18
100
AcDbEntity
  8
目盛
100
AcDbLine
 10
108.463426621425
 20
141.8717505201635
 30
0.0
 11
110.149564480781
 21
144.938823900317
 31
0.0
  0
LINE
  5
500
330
18
100
AcDbEntity
  8
目盛
100
AcDbLine
 10
112.3268167496043
 20
140.0537771214542
 30
0.0
 11
113.6152526840007
 21
143.3079948220632
 31
0.0
  0
LINE
  5
501
330
18
100
AcDbEntity
  8
目盛
100
AcDbLine
 10
110.3665556276709
 20
140.9020578578102
 30
0.0
 11
111.8567831481486
 21
144.0689525414413
 31
0.0
  0
LINE
  5
502
330
18
100
AcDbEntity
  8
目盛
100
AcDbLine
 10
106.6249405115975
 20
142.9590281745863
 30
0.0
 11
108.5003342940239
 21
145.9141759138434
 31
0.0
  0
LINE
  5
503
330
18
100
AcDbEntity
  8
目盛
100
AcDbLine
 10
139.3195474540958
 20
140.9020578578101
 30
0.0
 11
137.8293199336181
 21
144.0689525414412
 31
0.0
  0
LINE
  5
504
330
18
100
AcDbEntity
  8
目盛
100
AcDbLine
 10
141.2226764603417
 20
141.8717505201634
 30
0.0
 11
139.5365386009857
 21
144.9388239003169
 31
0.0
  0
LINE
  5
505
330
18
100
AcDbEntity
  8
目盛
100
AcDbLine
 10
143.0611625701692
 20
142.9590281745863
 30
0.0
 11
141.1857687877428
 21
145.9141759138433
 31
0.0
  0
LINE
  5
506
330
18
100
AcDbEntity
  8
目盛
100
AcDbLine
 10
144.8277501188274
 20
144.1595998329066
 30
0.0
 11
141.5949312312189
 21
148.6091933019688
 31
0.0
  0
LINE
  5
507
330
18
100
AcDbEntity
  8
目盛
100
AcDbLine
 10
135.3496293496316
 20
139.3302560876196
 30
0.0
 11
133.9590528749443
 21
143.6100104109478
 31
0.0
  0
LINE
  5
508
330
18
100
AcDbEntity
  8
目盛
100
AcDbLine
 10
137.3592863321624
 20
140.0537771214542
 30
0.0
 11
136.070850397766
 21
143.3079948220631
 31
0.0
  0
LINE
  5
509
330
18
100
AcDbEntity
  8
目盛
100
AcDbLine
 10
129.1043814820697
 20
137.9342777969625
 30
0.0
 11
128.6657151645946
 21
141.4066792515632
 31
0.0
  0
LINE
  5
50A
330
18
100
AcDbEntity
  8
目盛
100
AcDbLine
 10
133.2985077044884
 20
138.7343501632813
 30
0.0
 11
132.4280930994114
 21
142.1243912272315
 31
0.0
  0
LINE
  5
50B
330
18
100
AcDbEntity
  8
目盛
100
AcDbLine
 10
131.214016236798
 20
138.2684111168794
 30
0.0
 11
130.5581816357479
 21
141.7064164944298
 31
0.0
  0
LINE
  5
50C
330
18
100
AcDbEntity
  8
目盛
100
AcDbLine
 10
126.97792920488
 20
137.7332688750936
 30
0.0
 11
126.7581623865274
 21
141.2263624245925
 31
0.0
  0
LINE
  5
50D
330
18
100
AcDbEntity
  8
目盛
100
AcDbLine
 10
154.6374786623747
 20
155.2865527221965
 30
0.0
 11
151.5704052822212
 21
156.9726905815525
 31
0.0
  0
LINE
  5
50E
330
18
100
AcDbEntity
  8
目盛
100
AcDbLine
 10
155.607171324728
 20
157.1896817284423
 30
0.0
 11
152.440276641097
 21
158.6799092489201
 31
0.0
  0
LINE
  5
50F
330
18
100
AcDbEntity
  8
目盛
100
AcDbLine
 10
156.4554520610839
 20
159.1499428503758
 30
0.0
 11
153.201234360475
 21
160.4383787847721
 31
0.0
  0
LINE
  5
510
330
18
100
AcDbEntity
  8
目盛
100
AcDbLine
 10
157.1789730949186
 20
161.1595998329066
 30
0.0
 11
151.9481622552953
 21
162.8591933019688
 31
0.0
  0
LINE
  5
511
330
18
100
AcDbEntity
  8
目盛
100
AcDbLine
 10
152.3496293496316
 20
151.6814790637107
 30
0.0
 11
148.7090528749443
 21
154.3265126990269
 31
0.0
  0
LINE
  5
512
330
18
100
AcDbEntity
  8
目盛
100
AcDbLine
 10
153.5502010079519
 20
153.4480666123689
 30
0.0
 11
150.5950532686948
 21
155.3234603947954
 31
0.0
  0
LINE
  5
513
330
18
100
AcDbEntity
  8
目盛
100
AcDbLine
 10
148.1176531424588
 20
146.8812443093268
 30
0.0
 11
145.7217382717084
 21
149.4326345053018
 31
0.0
  0
LINE
  5
514
330
18
100
AcDbEntity
  8
目盛
100
AcDbLine
 10
151.0405017952602
 20
149.9937619901994
 30
0.0
 11
148.3437054455449
 21
152.2247459543198
 31
0.0
  0
LINE
  5
515
330
18
100
AcDbEntity
  8
目盛
100
AcDbLine
 10
149.6279848732113
 20
148.3915760400794
 30
0.0
 11
147.0765946772364
 21
150.7874909108298
 31
0.0
  0
LINE
  5
516
330
18
100
AcDbEntity
  8
目盛
100
AcDbLine
 10
146.5154671923388
 20
145.468727387278
 30
0.0
 11
144.2844832282184
 21
148.1655237369932
 31
0.0
  0
LINE
  5
517
330
18
100
AcDbEntity
  8
目盛
100
AcDbLine
 10
158.5749513855756
 20
175.9275075828412
 30
0.0
 11
155.1025499309749
 21
175.4888412653661
 31
0.0
  0
LINE
  5
518
330
18
100
AcDbEntity
  8
目盛
100
AcDbLine
 10
158.2408180656588
 20
178.0371423375694
 30
0.0
 11
154.8028126881083
 21
177.3813077365194
 31
0.0
  0
LINE
  5
519
330
18
100
AcDbEntity
  8
目盛
100
AcDbLine
 10
157.7748790192568
 20
180.1216338052599
 30
0.0
 11
154.3848379553066
 21
179.2512192001829
 31
0.0
  0
LINE
  5
51A
330
18
100
AcDbEntity
  8
目盛
100
AcDbLine
 10
157.1789730949186
 20
182.172755450403
 30
0.0
 11
151.9481622552952
 21
180.4731619813408
 31
0.0
  0
LINE
  5
51B
330
18
100
AcDbEntity
  8
目盛
100
AcDbLine
 10
158.8430515408833
 20
171.6661776416548
 30
0.0
 11
154.3430515408834
 21
171.6661776416548
 31
0.0
  0
LINE
  5
51C
330
18
100
AcDbEntity
  8
目盛
100
AcDbLine
 10
158.7759603074446
 20
173.8010553056515
 30
0.0
 11
155.2828667579456
 21
173.5812884872989
 31
0.0
  0
LINE
  5
51D
330
18
100
AcDbEntity
  8
目盛
100
AcDbLine
 10
158.2408180656587
 20
165.2952129457402
 30
0.0
 11
154.8028126881083
 21
165.9510475467902
 31
0.0
  0
LINE
  5
51E
330
18
100
AcDbEntity
  8
目盛
100
AcDbLine
 10
158.7759603074446
 20
169.5312999776582
 30
0.0
 11
155.2828667579456
 21
169.7510667960107
 31
0.0
  0
LINE
  5
51F
330
18
100
AcDbEntity
  8
目盛
100
AcDbLine
 10
158.5749513855756
 20
167.4048477004684
 30
0.0
 11
155.1025499309749
 21
167.8435140179435
 31
0.0
  0
LINE
  5
520
330
18
100
AcDbEntity
  8
目盛
100
AcDbLine
 10
157.7748790192568
 20
163.2107214780497
 30
0.0
 11
154.3848379553066
 21
164.0811360831267
 31
0.0
  0
LINE
  5
521
330
18
100
AcDbEntity
  8
目盛
100
AcDbLine
 10
149.6279848732113
 20
194.9407792432302
 30
0.0
 11
147.0765946772364
 21
192.5448643724798
 31
0.0
  0
LINE
  5
522
330
18
100
AcDbEntity
  8
目盛
100
AcDbLine
 10
148.1176531424588
 20
196.4511109739828
 30
0.0
 11
145.7217382717084
 21
193.8997207780078
 31
0.0
  0
LINE
  5
523
330
18
100
AcDbEntity
  8
目盛
100
AcDbLine
 10
146.5154671923388
 20
197.8636278960316
 30
0.0
 11
144.2844832282184
 21
195.1668315463164
 31
0.0
  0
LINE
  5
524
330
18
100
AcDbEntity
  8
目盛
100
AcDbLine
 10
144.8277501188275
 20
199.172755450403
 30
0.0
 11
141.5949312312189
 21
194.7231619813408
 31
0.0
  0
LINE
  5
525
330
18
100
AcDbEntity
  8
目盛
100
AcDbLine
 10
152.3496293496316
 20
191.6508762195989
 30
0.0
 11
148.7090528749443
 21
189.0058425842828
 31
0.0
  0
LINE
  5
526
330
18
100
AcDbEntity
  8
目盛
100
AcDbLine
 10
151.0405017952602
 20
193.3385932931102
 30
0.0
 11
148.343705445545
 21
191.1076093289898
 31
0.0
  0
LINE
  5
527
330
18
100
AcDbEntity
  8
目盛
100
AcDbLine
 10
155.6071713247281
 20
186.1426735548672
 30
0.0
 11
152.440276641097
 21
184.6524460343895
 31
0.0
  0
LINE
  5
528
330
18
100
AcDbEntity
  8
目盛
100
AcDbLine
 10
153.5502010079519
 20
189.8842886709407
 30
0.0
 11
150.5950532686948
 21
188.0088948885142
 31
0.0
  0
LINE
  5
529
330
18
100
AcDbEntity
  8
目盛
100
AcDbLine
 10
154.6374786623747
 20
188.045802561113
 30
0.0
 11
151.5704052822212
 21
186.3596647017571
 31
0.0
  0
LINE
  5
52A
330
18
100
AcDbEntity
  8
目盛
100
AcDbLine
 10
156.4554520610839
 20
184.1824124329338
 30
0.0
 11
153.201234360475
 21
182.8939764985374
 31
0.0
  0
TEXT
  5
52F
330
18
100
AcDbEntity
  8
文字
100
AcDbText
 10
122.9639403318615
 20
195.5916868953527
 30
0.0
 40
4.0
  1
0
  7
STYLE3
100
AcDbText
  0
TEXT
  5
530
330
18
100
AcDbEntity
  8
文字
 62
     4
100
AcDbText
 10
123.873586777024
 20
192.5921898493575
 30
0.0
 40
2.0
  1
0
  7
STYLE3
100
AcDbText
  0
TEXT
  5
532
330
18
100
AcDbEntity
  8
文字
100
AcDbText
 10
136.4095679072493
 20
190.1026789017617
 30
0.0
 40
4.0
  1
10
  7
STYLE3
100
AcDbText
  0
TEXT
  5
533
330
18
100
AcDbEntity
  8
文字
100
AcDbText
 10
144.5295988844812
 20
177.5583456402827
 30
0.0
 40
4.0
  1
20
  7
STYLE3
100
AcDbText
  0
TEXT
  5
534
330
18
100
AcDbEntity
  8
文字
100
AcDbText
 10
144.1571823206895
 20
160.9448297087624
 30
0.0
 40
4.0
  1
30
  7
STYLE3
100
AcDbText
  0
TEXT
  5
535
330
18
100
AcDbEntity
  8
文字
100
AcDbText
 10
136.6983687044242
 20
149.8126973479277
 30
0.0
 40
4.0
  1
40
  7
STYLE3
100
AcDbText
  0
TEXT
  5
536
330
18
100
AcDbEntity
  8
文字
100
AcDbText
 10
121.0961253200241
 20
143.9871382642522
 30
0.0
 40
4.0
  1
50
  7
STYLE3
100
AcDbText
  0
TEXT
  5
537
330
18
100
AcDbEntity
  8
文字
100
AcDbText
 10
106.2127073241484
 20
149.2024242646188
 30
0.0
 40
4.0
  1
60
  7
STYLE3
100
AcDbText
  0
TEXT
  5
538
330
18
100
AcDbEntity
  8
文字
100
AcDbText
 10
97.94234621107126
 20
160.3345553062351
 30
0.0
 40
4.0
  1
70
  7
STYLE3
100
AcDbText
  0
TEXT
  5
539
330
18
100
AcDbEntity
  8
文字
100
AcDbText
 10
97.57282810012657
 20
177.7589862306325
 30
0.0
 40
4.0
  1
80
  7
STYLE3
100
AcDbText
  0
TEXT
  5
53A
330
18
100
AcDbEntity
  8
文字
100
AcDbText
 10
107.4155811499756
 20
190.7581972195016
 30
0.0
 40
4.0
  1
90
  7
STYLE3
100
AcDbText
  0
TEXT
  5
53B
330
18
100
AcDbEntity
  8
文字
 62
     4
100
AcDbText
 10
138.6911827593064
 20
186.6282652004524
 30
0.0
 40
2.0
  1
90
  7
STYLE3
100
AcDbText
  0
TEXT
  5
53C
330
18
100
AcDbEntity
  8
文字
 62
     4
100
AcDbText
 10
145.1176975783303
 20
174.1074021540289
 30
0.0
 40
2.0
  1
80
  7
STYLE3
100
AcDbText
  0
TEXT
  5
53D
330
18
100
AcDbEntity
  8
文字
 62
     4
100
AcDbText
 10
144.916185283753
 20
166.0385345599612
 30
0.0
 40
2.0
  1
70
  7
STYLE3
100
AcDbText
  0
TEXT
  5
53E
330
18
100
AcDbEntity
  8
文字
 62
     4
100
AcDbText
 10
138.6454319356389
 20
154.7127528068367
 30
0.0
 40
2.0
  1
60
  7
STYLE3
100
AcDbText
  0
TEXT
  5
53F
330
18
100
AcDbEntity
  8
文字
 62
     4
100
AcDbText
 10
123.0501843469467
 20
148.7304494663995
 30
0.0
 40
2.0
  1
50
  7
STYLE3
100
AcDbText
  0
TEXT
  5
540
330
18
100
AcDbEntity
  8
文字
 62
     4
100
AcDbText
 10
107.664093111985
 20
154.4194641658855
 30
0.0
 40
2.0
  1
40
  7
STYLE3
100
AcDbText
  0
TEXT
  5
541
330
18
100
AcDbEntity
  8
文字
 62
     4
100
AcDbText
 10
101.163968035526
 20
165.488862413587
 30
0.0
 40
2.0
  1
30
  7
STYLE3
100
AcDbText
  0
TEXT
  5
542
330
18
100
AcDbEntity
  8
文字
 62
     4
100
AcDbText
 10
100.8704522854825
 20
174.7379265594288
 30
0.0
 40
2.0
  1
20
  7
STYLE3
100
AcDbText
  0
TEXT
  5
543
330
18
100
AcDbEntity
  8
文字
 62
     4
100
AcDbText
 10
108.6450144767427
 20
187.6223998447262
 30
0.0
 40
2.0
  1
10
  7
STYLE3
100
AcDbText
  0
LINE
  5
57F
330
18
100
AcDbEntity
  8
中心線
 48
0.5
100
AcDbLine
 10
110.4269381045515
 20
179.0261776416548
 30
0.0
 11
125.9522237875594
 21
179.0261776416548
 31
0.0
  0
LINE
  5
580
330
18
100
AcDbEntity
  8
中心線
 48
0.5
100
AcDbLine
 10
118.1630515408834
 20
186.8439927309699
 30
0.0
 11
118.1630515408833
 21
170.6659235567425
 31
0.0
  0
CIRCLE
  5
581
330
18
100
AcDbEntity
  8
外形線
100
AcDbCircle
 10
118.1630515408834
 20
179.0261776416548
 30
0.0
 40
6.5
  0
TEXT
  5
586
330
18
100
AcDbEntity
  8
文字
100
AcDbText
 10
119.5203192322744
 20
163.130932570049
 30
0.0
 40
1.5
  1
NO.307
  7
STYLE3
100
AcDbText
  0
TEXT
  5
587
330
18
100
AcDbEntity
  8
文字
100
AcDbText
 10
118.6331603747951
 20
156.8148368446061
 30
0.0
 40
1.0
  1
MADE IN JAPAN
  7
STYLE3
100
AcDbText
  0
LINE
  5
603
330
18
100
AcDbEntity
  8
目盛
100
AcDbLine
 10
118.1630515408834
 20
185.5261776416548
 30
0.0
 11
118.1630515408833
 21
184.2761776416548
 31
0.0
  0
LINE
  5
604
330
18
100
AcDbEntity
  8
目盛
100
AcDbLine
 10
116.8116255505679
 20
185.3841370464246
 30
0.0
 11
116.9467681495994
 21
184.7483411059476
 31
0.0
  0
LINE
  5
605
330
18
100
AcDbEntity
  8
目盛
100
AcDbLine
 10
115.5192633608907
 20
184.9642231163317
 30
0.0
 11
115.7836421788899
 21
184.370418568864
 31
0.0
  0
LINE
  5
606
330
18
100
AcDbEntity
  8
目盛
100
AcDbLine
 10
114.3424474009823
 20
184.284788105092
 30
0.0
 11
114.7245078149724
 21
183.7589270587482
 31
0.0
  0
LINE
  5
607
330
18
100
AcDbEntity
  8
目盛
100
AcDbLine
 10
113.3326101752803
 20
183.3755265829874
 30
0.0
 11
113.8156543118406
 21
182.9405916888541
 31
0.0
  0
LINE
  5
608
330
18
100
AcDbEntity
  8
目盛
100
AcDbLine
 10
112.5338864162845
 20
182.2761776416548
 30
0.0
 11
113.616418171015
 21
181.6511776416548
 31
0.0
  0
LINE
  5
609
330
18
100
AcDbEntity
  8
目盛
100
AcDbLine
 10
111.9811841849649
 20
181.034788105092
 30
0.0
 11
112.5993709205567
 21
180.8339270587482
 31
0.0
  0
LINE
  5
60A
330
18
100
AcDbEntity
  8
目盛
100
AcDbLine
 10
111.6986592209896
 20
179.7056126528946
 30
0.0
 11
112.345098452979
 21
179.6376691517705
 31
0.0
  0
LINE
  5
60B
330
18
100
AcDbEntity
  8
目盛
100
AcDbLine
 10
111.6986592209896
 20
178.3467426304151
 30
0.0
 11
112.345098452979
 21
178.414686131539
 31
0.0
  0
LINE
  5
60C
330
18
100
AcDbEntity
  8
目盛
100
AcDbLine
 10
111.9811841849649
 20
177.0175671782176
 30
0.0
 11
112.5993709205567
 21
177.2184282245613
 31
0.0
  0
LINE
  5
60D
330
18
100
AcDbEntity
  8
目盛
100
AcDbLine
 10
112.5338864162845
 20
175.7761776416548
 30
0.0
 11
113.6164181710151
 21
176.4011776416548
 31
0.0
  0
LINE
  5
60E
330
18
100
AcDbEntity
  8
目盛
100
AcDbLine
 10
113.3326101752803
 20
174.6768287003222
 30
0.0
 11
113.8156543118406
 21
175.1117635944555
 31
0.0
  0
LINE
  5
60F
330
18
100
AcDbEntity
  8
目盛
100
AcDbLine
 10
114.3424474009823
 20
173.7675671782177
 30
0.0
 11
114.7245078149724
 21
174.2934282245613
 31
0.0
  0
LINE
  5
610
330
18
100
AcDbEntity
  8
目盛
100
AcDbLine
 10
115.5192633608906
 20
173.0881321669779
 30
0.0
 11
115.7836421788899
 21
173.6819367144456
 31
0.0
  0
LINE
  5
611
330
18
100
AcDbEntity
  8
目盛
100
AcDbLine
 10
116.8116255505679
 20
172.6682182368851
 30
0.0
 11
116.9467681495995
 21
173.3040141773621
 31
0.0
  0
LINE
  5
612
330
18
100
AcDbEntity
  8
目盛
100
AcDbLine
 10
118.1630515408834
 20
172.5261776416548
 30
0.0
 11
118.1630515408834
 21
173.7761776416548
 31
0.0
  0
LINE
  5
613
330
18
100
AcDbEntity
  8
目盛
100
AcDbLine
 10
119.5144775311988
 20
172.6682182368851
 30
0.0
 11
119.3793349321673
 21
173.3040141773621
 31
0.0
  0
LINE
  5
614
330
18
100
AcDbEntity
  8
目盛
100
AcDbLine
 10
120.806839720876
 20
173.0881321669779
 30
0.0
 11
120.5424609028768
 21
173.6819367144456
 31
0.0
  0
LINE
  5
615
330
18
100
AcDbEntity
  8
目盛
100
AcDbLine
 10
121.9836556807844
 20
173.7675671782177
 30
0.0
 11
121.6015952667943
 21
174.2934282245614
 31
0.0
  0
LINE
  5
616
330
18
100
AcDbEntity
  8
目盛
100
AcDbLine
 10
122.9934929064864
 20
174.6768287003222
 30
0.0
 11
122.5104487699261
 21
175.1117635944555
 31
0.0
  0
LINE
  5
617
330
18
100
AcDbEntity
  8
目盛
100
AcDbLine
 10
123.7922166654822
 20
175.7761776416548
 30
0.0
 11
122.7096849107516
 21
176.4011776416548
 31
0.0
  0
LINE
  5
618
330
18
100
AcDbEntity
  8
目盛
100
AcDbLine
 10
124.3449188968018
 20
177.0175671782177
 30
0.0
 11
123.72673216121
 21
177.2184282245614
 31
0.0
  0
LINE
  5
619
330
18
100
AcDbEntity
  8
目盛
100
AcDbLine
 10
124.6274438607771
 20
178.3467426304151
 30
0.0
 11
123.9810046287877
 21
178.414686131539
 31
0.0
  0
LINE
  5
61A
330
18
100
AcDbEntity
  8
目盛
100
AcDbLine
 10
124.6274438607771
 20
179.7056126528945
 30
0.0
 11
123.9810046287877
 21
179.6376691517706
 31
0.0
  0
LINE
  5
61B
330
18
100
AcDbEntity
  8
目盛
100
AcDbLine
 10
124.3449188968018
 20
181.034788105092
 30
0.0
 11
123.72673216121
 21
180.8339270587483
 31
0.0
  0
LINE
  5
61C
330
18
100
AcDbEntity
  8
目盛
100
AcDbLine
 10
123.7922166654822
 20
182.2761776416548
 30
0.0
 11
122.7096849107516
 21
181.6511776416549
 31
0.0
  0
LINE
  5
61D
330
18
100
AcDbEntity
  8
目盛
100
AcDbLine
 10
122.9934929064864
 20
183.3755265829874
 30
0.0
 11
122.5104487699261
 21
182.9405916888541
 31
0.0
  0
LINE
  5
61E
330
18
100
AcDbEntity
  8
目盛
100
AcDbLine
 10
121.9836556807844
 20
184.284788105092
 30
0.0
 11
121.6015952667943
 21
183.7589270587482
 31
0.0
  0
LINE
  5
61F
330
18
100
AcDbEntity
  8
目盛
100
AcDbLine
 10
120.806839720876
 20
184.9642231163317
 30
0.0
 11
120.5424609028767
 21
184.370418568864
 31
0.0
  0
LINE
  5
620
330
18
100
AcDbEntity
  8
目盛
100
AcDbLine
 10
119.5144775311988
 20
185.3841370464246
 30
0.0
 11
119.3793349321672
 21
184.7483411059476
 31
0.0
  0
TEXT
  5
622
330
18
100
AcDbEntity
  8
文字
100
AcDbText
 10
117.5898057596021
 20
182.5012929256414
 30
0.0
 40
1.199999999999999
  1
0
  7
STYLE3
100
AcDbText
  0
TEXT
  5
623
330
18
100
AcDbEntity
  8
文字
100
AcDbText
 10
121.1539240323311
 20
180.5135645274068
 30
0.0
 40
1.199999999999999
  1
5
  7
STYLE3
100
AcDbText
  0
TEXT
  5
624
330
18
100
AcDbEntity
  8
文字
100
AcDbText
 10
120.3250588688629
 20
176.3724641375256
 30
0.0
 40
1.199999999999999
  1
10
  7
STYLE3
100
AcDbText
  0
TEXT
  5
625
330
18
100
AcDbEntity
  8
文字
100
AcDbText
 10
117.0510460715429
 20
174.1362696895118
 30
0.0
 40
1.199999999999999
  1
15
  7
STYLE3
100
AcDbText
  0
TEXT
  5
626
330
18
100
AcDbEntity
  8
文字
100
AcDbText
 10
113.9842464427336
 20
176.2896416811584
 30
0.0
 40
1.199999999999999
  1
20
  7
STYLE3
100
AcDbText
  0
TEXT
  5
627
330
18
100
AcDbEntity
  8
文字
100
AcDbText
 10
113.8599164979032
 20
180.7206196788331
 30
0.0
 40
1.199999999999999
  1
25
  7
STYLE3
100
AcDbText
  0
CIRCLE
  5
63F
330
18
100
AcDbEntity
  8
針
100
AcDbCircle
 10
124.8430515408833
 20
171.6661776416548
 30
0.0
 40
1.9
  0
CIRCLE
  5
640
330
18
100
AcDbEntity
  8
針
100
AcDbCircle
 10
124.8430515408833
 20
171.6661776416548
 30
0.0
 40
1.5
  0
CIRCLE
  5
641
330
18
100
AcDbEntity
  8
針
100
AcDbCircle
 10
124.8430515408833
 20
171.6661776416548
 30
0.0
 40
0.475
  0
LINE
  5
643
330
18
100
AcDbEntity
  8
針
100
AcDbLine
 10
105.9163664170657
 20
197.7165248605281
 30
0.0
 11
105.9972681165032
 21
197.7753033857574
 31
0.0
  0
ARC
  5
645
330
18
100
AcDbEntity
  8
針
100
AcDbCircle
 10
130.1331188115156
 20
164.3850246922803
 30
0.0
 40
1.25
100
AcDbArc
 50
161.3285877445464
 51
90.67141225545361
  0
LINE
  5
649
330
18
100
AcDbEntity
  8
針
100
AcDbLine
 10
127.0188333866559
 20
169.8792963127741
 30
0.0
 11
129.6964243249782
 21
165.8577986284045
 31
0.0
  0
ARC
  5
64A
330
18
100
AcDbEntity
  8
針
100
AcDbCircle
 10
128.6835847286776
 20
170.9877199543647
 30
0.0
 40
2.0
100
AcDbArc
 50
169.9816535795707
 51
213.6564441017703
  0
ARC
  5
64B
330
18
100
AcDbEntity
  8
針
100
AcDbCircle
 10
130.1126121604836
 20
166.1349045388022
 30
0.0
 40
0.5
100
AcDbArc
 50
213.6564441017678
 51
270.6714122554538
  0
LINE
  5
64C
330
18
100
AcDbEntity
  8
針
100
AcDbLine
 10
125.8701231061653
 20
169.0447094416408
 30
0.0
 11
128.8673735802249
 21
165.2554580044668
 31
0.0
  0
ARC
  5
64D
330
18
100
AcDbEntity
  8
針
100
AcDbCircle
 10
128.475221084414
 20
164.9452702870612
 30
0.0
 40
0.5
100
AcDbArc
 50
341.3285877445462
 51
38.3435558982322
  0
ARC
  5
64E
330
18
100
AcDbEntity
  8
針
100
AcDbCircle
 10
124.3015131229218
 20
167.8039585720183
 30
0.0
 40
2.0
100
AcDbArc
 50
38.34355589822976
 51
82.0183464204293
  0
LINE
  5
651
330
18
100
AcDbEntity
  8
針
100
AcDbLine
 10
105.9972681165032
 20
197.7753033857574
 30
0.0
 11
123.3677928483099
 21
174.6755299038729
 31
0.0
  0
ARC
  5
652
330
18
100
AcDbEntity
  8
針
100
AcDbCircle
 10
125.7655142731459
 20
176.478564004738
 30
0.0
 40
3.0
100
AcDbArc
 50
216.9423658596555
 51
259.1488769784275
  0
LINE
  5
653
330
18
100
AcDbEntity
  8
針
100
AcDbLine
 10
105.8354647176283
 20
197.6577463352989
 30
0.0
 11
122.4368674691779
 21
173.999173025534
 31
0.0
  0
ARC
  5
654
330
18
100
AcDbEntity
  8
針
100
AcDbCircle
 10
119.9811434703965
 20
172.275972618788
 30
0.0
 40
3.0
100
AcDbArc
 50
352.8511230215725
 51
35.05763414034457
  0
LINE
  5
655
330
18
100
AcDbEntity
  8
針
100
AcDbLine
 10
105.9163664170657
 20
197.7165248605281
 30
0.0
 11
105.8354647176283
 21
197.6577463352989
 31
0.0
  0
HATCH
  5
698
330
18
100
AcDbEntity
  8
針
100
AcDbHatch
 10
0.0
 20
0.0
 30
0.0
210
0.0
220
0.0
230
1.0
  2
SOLID
 70
     1
 71
     0
 91
        2
 92
        7
 72
     1
 73
     1
 93
        7
 10
105.9972681165032
 20
197.7753033857574
 42
0.0
 10
105.9163664170657
 20
197.7165248605281
 42
0.0
 10
105.8354647176283
 20
197.6577463352989
 42
0.0
 10
122.4368674691779
 20
173.999173025534
 42
-0.1862712280269618
 10
122.9578218808986
 20
171.9026287552371
 42
-0.4332684210817605
 10
125.2007411717607
 20
173.532205006932
 42
-0.1862712280269489
 10
123.36779284831
 20
174.6755299038728
 42
0.0
 97
        0
 92
        7
 72
     1
 73
     1
 93
        8
 10
127.0188333866559
 20
169.8792963127741
 42
-0.1929081053313976
 10
126.7140805298087
 20
171.3356469734878
 42
-0.4038400004397944
 10
124.5792251321328
 20
169.7845837359345
 42
-0.1929081053314965
 10
125.8701231061658
 20
169.0447094416401
 42
0.0
 10
128.8673735802249
 20
165.2554580044668
 42
-0.254037171043529
 10
128.9489061493002
 20
164.7852001171238
 42
3.140169136598258
 10
130.1184712036356
 20
165.6349388683673
 42
-0.2540371710435208
 10
129.6964243249782
 20
165.8577986284045
 42
0.0
 97
        0
 75
     0
 76
     1
 47
0.1053668422835145
 98
        2
 10
119.8594397089556
 20
178.8335177041838
 10
128.5148911386644
 20
167.2791118203899
450
        0
451
        0
460
0.0
461
0.0
452
        0
462
0.0
453
        0
470

  0
LINE
  5
737
330
18
100
AcDbEntity
  8
0
  6
ByBlock
 62
     2
100
AcDbLine
 10
248.2483621796439
 20
144.2808361914093
 30
0.0
 11
248.2483621796439
 21
142.6359268522237
 31
0.0
  0
LINE
  5
738
330
18
100
AcDbEntity
  8
0
  6
ByBlock
 62
     2
100
AcDbLine
 10
269.2483621796438
 20
161.129820080009
 30
0.0
 11
269.2483621796438
 21
142.6359268522237
 31
0.0
  0
LINE
  5
739
330
18
100
AcDbEntity
  8
0
  6
ByBlock
 62
     2
100
AcDbLine
 10
250.7483621796439
 20
143.8859268522237
 30
0.0
 11
266.7483621796438
 21
143.8859268522237
 31
0.0
  0
INSERT
  5
73A
330
18
100
AcDbEntity
  8
0
  6
ByBlock
 62
     2
100
AcDbBlockReference
  2
_OPEN
 10
248.2483621796439
 20
143.8859268522237
 30
0.0
 41
2.5
 42
2.5
 43
2.5
 50
180.0
  0
INSERT
  5
73B
330
18
100
AcDbEntity
  8
0
  6
ByBlock
 62
     2
100
AcDbBlockReference
  2
_OPEN
 10
269.2483621796438
 20
143.8859268522237
 30
0.0
 41
2.5
 42
2.5
 43
2.5
  0
MTEXT
  5
73C
330
18
100
AcDbEntity
  8
0
  6
ByBlock
 62
     6
100
AcDbMText
 10
260.3292304863184
 20
145.7609268522237
 30
0.0
 40
2.5
 41
0.0
 71
     5
 72
     1
  1
\A1;21
  7
STYLE3
 73
     1
 44
1.0
  0
POINT
  5
73D
330
18
100
AcDbEntity
  8
DEFPOINTS
  6
ByBlock
 62
     0
100
AcDbPoint
 10
248.2483621796439
 20
144.2808361914093
 30
0.0
  0
POINT
  5
73E
330
18
100
AcDbEntity
  8
DEFPOINTS
  6
ByBlock
 62
     0
100
AcDbPoint
 10
269.2483621796438
 20
161.129820080009
 30
0.0
  0
POINT
  5
73F
330
18
100
AcDbEntity
  8
DEFPOINTS
  6
ByBlock
 62
     0
100
AcDbPoint
 10
269.2483621796438
 20
143.8859268522237
 30
0.0
  0
POINT
  5
74E
330
18
100
AcDbEntity
  8
DEFPOINTS
  6
ByBlock
 62
     0
100
AcDbPoint
 10
124.8430515408833
 20
205.6661776416548
 30
0.0
  0
POINT
  5
74F
330
18
100
AcDbEntity
  8
DEFPOINTS
  6
ByBlock
 62
     0
100
AcDbPoint
 10
124.8430515408833
 20
137.6661776416548
 30
0.0
  0
LINE
  5
751
330
18
100
AcDbEntity
  8
0
  6
ByBlock
 62
     2
100
AcDbLine
 10
74.12910048675076
 20
217.6661776416548
 30
0.0
 11
66.68222859341608
 21
217.6661776416548
 31
0.0
  0
LINE
  5
752
330
18
100
AcDbEntity
  8
0
  6
ByBlock
 62
     2
100
AcDbLine
 10
74.12910048675074
 20
69.66617764165484
 30
0.0
 11
66.68222859341608
 21
69.66617764165484
 31
0.0
  0
LINE
  5
753
330
18
100
AcDbEntity
  8
0
  6
ByBlock
 62
     2
100
AcDbLine
 10
67.93222859341608
 20
215.1661776416548
 30
0.0
 11
67.93222859341608
 21
72.16617764165484
 31
0.0
  0
INSERT
  5
754
330
18
100
AcDbEntity
  8
0
  6
ByBlock
 62
     2
100
AcDbBlockReference
  2
_OPEN
 10
67.93222859341608
 20
217.6661776416548
 30
0.0
 41
2.5
 42
2.5
 43
2.5
 50
90.0
  0
INSERT
  5
755
330
18
100
AcDbEntity
  8
0
  6
ByBlock
 62
     2
100
AcDbBlockReference
  2
_OPEN
 10
67.93222859341608
 20
69.66617764165484
 30
0.0
 41
2.5
 42
2.5
 43
2.5
 50
270.0
  0
MTEXT
  5
756
330
18
100
AcDbEntity
  8
0
  6
ByBlock
 62
     6
100
AcDbMText
 10
66.05722859341608
 20
143.6661776416548
 30
0.0
 40
2.5
 41
0.0
 71
     5
 72
     1
  1
\A1;148
  7
STYLE3
 11
0.0000000000000001
 21
1.0
 31
0.0
 73
     1
 44
1.0
  0
POINT
  5
757
330
18
100
AcDbEntity
  8
DEFPOINTS
  6
ByBlock
 62
     0
100
AcDbPoint
 10
74.12910048675076
 20
217.6661776416548
 30
0.0
  0
POINT
  5
758
330
18
100
AcDbEntity
  8
DEFPOINTS
  6
ByBlock
 62
     0
100
AcDbPoint
 10
74.12910048675074
 20
69.66617764165484
 30
0.0
  0
POINT
  5
759
330
18
100
AcDbEntity
  8
DEFPOINTS
  6
ByBlock
 62
     0
100
AcDbPoint
 10
67.93222859341608
 20
69.66617764165484
 30
0.0
  0
LINE
  5
75A
330
18
100
AcDbEntity
  8
0
  6
ByBlock
 62
     2
100
AcDbLine
 10
124.8430515408833
 20
69.66617764165483
 30
0.0
 11
74.12910048675074
 21
69.66617764165484
 31
0.0
  0
LINE
  5
75B
330
18
100
AcDbEntity
  8
0
  6
ByBlock
 62
     2
100
AcDbLine
 10
75.37910048675076
 20
169.1661776416548
 30
0.0
 11
75.37910048675074
 21
72.16617764165484
 31
0.0
  0
INSERT
  5
75C
330
18
100
AcDbEntity
  8
0
  6
ByBlock
 62
     2
100
AcDbBlockReference
  2
_OPEN
 10
75.37910048675076
 20
171.6661776416548
 30
0.0
 41
2.5
 42
2.5
 43
2.5
 50
90.0
  0
INSERT
  5
75D
330
18
100
AcDbEntity
  8
0
  6
ByBlock
 62
     2
100
AcDbBlockReference
  2
_OPEN
 10
75.37910048675074
 20
69.66617764165484
 30
0.0
 41
2.5
 42
2.5
 43
2.5
 50
270.0
  0
MTEXT
  5
75E
330
18
100
AcDbEntity
  8
0
  6
ByBlock
 62
     6
100
AcDbMText
 10
73.50410048675076
 20
120.6661776416548
 30
0.0
 40
2.5
 41
0.0
 71
     5
 72
     1
  1
\A1;102
  7
STYLE3
 11
0.0000000000000001
 21
1.0
 31
0.0
 73
     1
 44
1.0
  0
POINT
  5
75F
330
18
100
AcDbEntity
  8
DEFPOINTS
  6
ByBlock
 62
     0
100
AcDbPoint
 10
87.09305154088339
 20
171.6661776416548
 30
0.0
  0
POINT
  5
760
330
18
100
AcDbEntity
  8
DEFPOINTS
  6
ByBlock
 62
     0
100
AcDbPoint
 10
124.8430515408833
 20
69.66617764165483
 30
0.0
  0
POINT
  5
761
330
18
100
AcDbEntity
  8
DEFPOINTS
  6
ByBlock
 62
     0
100
AcDbPoint
 10
75.37910048675074
 20
69.66617764165484
 30
0.0
  0
LINE
  5
762
330
18
100
AcDbEntity
  8
ﾊｯﾁﾝｸ
100
AcDbLine
 10
122.3430515408833
 20
78.05904874617519
 30
0.0
 11
122.750180436363
 21
78.46617764165483
 31
0.0
  0
LINE
  5
763
330
18
100
AcDbEntity
  8
ﾊｯﾁﾝｸ
100
AcDbLine
 10
122.3430515408834
 20
76.71201032801481
 30
0.0
 11
124.0972188545233
 21
78.46617764165479
 31
0.0
  0
LINE
  5
764
330
18
100
AcDbEntity
  8
ﾊｯﾁﾝｸ
100
AcDbLine
 10
122.3442572726837
 20
75.36617764165483
 30
0.0
 11
124.8430515408834
 21
77.8649719098545
 31
0.0
  0
LINE
  5
765
330
18
100
AcDbEntity
  8
ﾊｯﾁﾝｸ
100
AcDbLine
 10
123.6912956908441
 20
75.3661776416548
 30
0.0
 11
124.8430515408833
 21
76.51793349169408
 31
0.0
  0
LINE
  5
766
330
18
100
AcDbEntity
  8
ﾊｯﾁﾝｸ
100
AcDbLine
 10
122.4370994650688
 20
75.3661776416548
 30
0.0
 11
122.3430515408833
 21
75.46022556584026
 31
0.0
  0
LINE
  5
767
330
18
100
AcDbEntity
  8
ﾊｯﾁﾝｸ
100
AcDbLine
 10
123.7841378832292
 20
75.3661776416548
 30
0.0
 11
122.3430515408834
 21
76.80726398400061
 31
0.0
  0
LINE
  5
768
330
18
100
AcDbEntity
  8
ﾊｯﾁﾝｸ
100
AcDbLine
 10
124.8430515408833
 20
75.65430240216098
 30
0.0
 11
122.3430515408834
 21
78.15430240216098
 31
0.0
  0
LINE
  5
769
330
18
100
AcDbEntity
  8
ﾊｯﾁﾝｸ
100
AcDbLine
 10
124.8430515408834
 20
77.00134082032133
 30
0.0
 11
123.3782147195499
 21
78.46617764165481
 31
0.0
  0
LINE
  5
76A
330
18
100
AcDbEntity
  8
ﾊｯﾁﾝｸ
100
AcDbLine
 10
124.8430515408834
 20
78.34837923848167
 30
0.0
 11
124.7252531377103
 21
78.46617764165478
 31
0.0
  0
LINE
  5
782
330
18
100
AcDbEntity
  8
0
  6
ByBlock
 62
     2
100
AcDbLine
 10
124.8430515408833
 20
217.6661776416548
 30
0.0
 11
74.12910048675076
 21
217.6661776416548
 31
0.0
  0
LINE
  5
783
330
18
100
AcDbEntity
  8
0
  6
ByBlock
 62
     2
100
AcDbLine
 10
87.09305154088339
 20
171.6661776416548
 30
0.0
 11
74.12910048675076
 21
171.6661776416548
 31
0.0
  0
LINE
  5
784
330
18
100
AcDbEntity
  8
0
  6
ByBlock
 62
     2
100
AcDbLine
 10
75.37910048675076
 20
215.1661776416548
 30
0.0
 11
75.37910048675076
 21
174.1661776416548
 31
0.0
  0
INSERT
  5
785
330
18
100
AcDbEntity
  8
0
  6
ByBlock
 62
     2
100
AcDbBlockReference
  2
_OPEN
 10
75.37910048675076
 20
217.6661776416548
 30
0.0
 41
2.5
 42
2.5
 43
2.5
 50
90.0
  0
INSERT
  5
786
330
18
100
AcDbEntity
  8
0
  6
ByBlock
 62
     2
100
AcDbBlockReference
  2
_OPEN
 10
75.37910048675076
 20
171.6661776416548
 30
0.0
 41
2.5
 42
2.5
 43
2.5
 50
270.0
  0
MTEXT
  5
787
330
18
100
AcDbEntity
  8
0
  6
ByBlock
 62
     6
100
AcDbMText
 10
73.50410048675076
 20
194.6661776416548
 30
0.0
 40
2.5
 41
0.0
 71
     5
 72
     1
  1
\A1;46
  7
STYLE3
 11
0.0000000000000001
 21
1.0
 31
0.0
 73
     1
 44
1.0
  0
POINT
  5
788
330
18
100
AcDbEntity
  8
DEFPOINTS
  6
ByBlock
 62
     0
100
AcDbPoint
 10
124.8430515408833
 20
217.6661776416548
 30
0.0
  0
POINT
  5
789
330
18
100
AcDbEntity
  8
DEFPOINTS
  6
ByBlock
 62
     0
100
AcDbPoint
 10
87.09305154088339
 20
171.6661776416548
 30
0.0
  0
POINT
  5
78A
330
18
100
AcDbEntity
  8
DEFPOINTS
  6
ByBlock
 62
     0
100
AcDbPoint
 10
75.37910048675076
 20
171.6661776416548
 30
0.0
  0
TEXT
  5
78B
330
18
100
AcDbEntity
  8
文字
 48
0.8
100
AcDbText
 10
125.7553451114741
 20
153.1447269290569
 30
0.0
 40
1.0
  1
H
 50
1.589821613340259
  7
STYLE3
100
AcDbText
  0
TEXT
  5
78C
330
18
100
AcDbEntity
  8
文字
 48
0.8
100
AcDbText
 10
124.8723772242861
 20
153.0758898051439
 30
0.0
 40
1.0
  1
S
  7
STYLE3
100
AcDbText
  0
TEXT
  5
78D
330
18
100
AcDbEntity
  8
文字
 48
0.8
100
AcDbText
 10
131.2182975563108
 20
154.1648708395875
 30
0.0
 40
1.0
  1
R
 50
26.06198672177309
  7
STYLE3
100
AcDbText
  0
TEXT
  5
78E
330
18
100
AcDbEntity
  8
文字
 48
0.8
100
AcDbText
 10
130.3323109176236
 20
153.8906048977936
 30
0.0
 40
1.0
  1
P
 50
23.24053280085741
  7
STYLE3
100
AcDbText
  0
TEXT
  5
78F
330
18
100
AcDbEntity
  8
文字
 48
0.8
100
AcDbText
 10
128.7562585482992
 20
153.4786271350696
 30
0.0
 40
1.0
  1
K
 50
11.14538657471254
  7
STYLE3
100
AcDbText
  0
TEXT
  5
790
330
18
100
AcDbEntity
  8
文字
 48
0.8
100
AcDbText
 10
127.7294662468304
 20
153.3058756309086
 30
0.0
 40
1.0
  1
C
 50
5.687207778684769
  7
STYLE3
100
AcDbText
  0
TEXT
  5
791
330
18
100
AcDbEntity
  8
文字
 48
0.8
100
AcDbText
 10
126.7072035735374
 20
153.2042826765661
 30
0.0
 40
1.0
  1
O
 50
1.760930144340787
  7
STYLE3
100
AcDbText
  0
TEXT
  5
792
330
18
100
AcDbEntity
  8
文字
 48
0.8
100
AcDbText
 10
132.1425994559772
 20
154.5378301706122
 30
0.0
 40
1.0
  1
O
 50
27.73777743938884
  7
STYLE3
100
AcDbText
  0
TEXT
  5
793
330
18
100
AcDbEntity
  8
文字
 48
0.8
100
AcDbText
 10
134.079914809959
 20
155.5829527152182
 30
0.0
 40
1.0
  1
F
 50
35.29154926473689
  7
STYLE3
100
AcDbText
  0
TEXT
  5
794
330
18
100
AcDbEntity
  8
文字
 48
0.8
100
AcDbText
 10
133.0944583629064
 20
155.0324504495422
 30
0.0
 40
1.0
  1
O
 50
27.6495577688412
  7
STYLE3
100
AcDbText
  0
HATCH
  5
795
330
18
100
AcDbEntity
  8
ROGO
 62
     4
100
AcDbHatch
 10
0.0
 20
0.0
 30
0.0
210
0.0
220
0.0
230
1.0
  2
SOLID
 70
     1
 71
     1
 91
        1
 92
        7
 72
     0
 73
     1
 93
       11
 10
130.1711196779183
 20
158.9549816973689
 10
130.9359351247751
 20
158.9549816973689
 10
131.206068457823
 20
159.4967302657563
 10
131.476201790871
 20
158.9549816973689
 10
132.2410005041809
 20
158.9549816973689
 10
131.7235261142286
 20
159.9927692475788
 10
132.9807887083353
 20
161.0305567977886
 10
132.2159899950253
 20
161.0305567977886
 10
131.8578885584949
 20
160.8039462335186
 10
131.9708839046798
 20
161.0305567977885
 10
131.206068457823
 20
161.0305567977886
 97
       11
330
7E3
330
7E6
330
7E5
330
7E4
330
79A
330
797
330
7E0
330
7DF
330
7E1
330
7DE
330
7E2
 75
     0
 76
     1
 47
0.0514683685270805
 98
        1
 10
131.1402457299979
 20
160.1400946332245
450
        0
451
        0
460
0.0
461
0.0
452
        0
462
0.0
453
        0
470

  0
HATCH
  5
796
330
18
100
AcDbEntity
  8
ROGO
 62
     4
100
AcDbHatch
 10
0.0
 20
0.0
 30
0.0
210
0.0
220
0.0
230
1.0
  2
SOLID
 70
     1
 71
     1
 91
        1
 92
        5
 93
        8
 72
     4
 94
        3
 73
     0
 74
     0
 95
       26
 96
       22
 40
0.0
 40
0.0
 40
0.0
 40
0.0
 40
0.2409706354046647
 40
0.402281816937027
 40
0.5186003155031699
 40
0.6054515746785838
 40
0.7181022161474942
 40
0.8003262024090766
 40
0.9488035568847069
 40
1.069661988827031
 40
1.151865088021973
 40
1.232469435563986
 40
1.376654942868812
 40
1.478611305785108
 40
1.533522684402349
 40
1.611522675670294
 40
1.667848219519465
 40
1.749445336561235
 40
1.795622246815275
 40
1.896108383198253
 40
1.94199122598571
 40
1.94199122598571
 40
1.94199122598571
 40
1.94199122598571
 10
129.5976419887518
 20
161.0305567977886
 10
129.5158528318933
 20
161.0256771164368
 10
129.3793121676271
 20
161.017530866264
 10
129.2293913488783
 20
160.9264555789045
 10
129.1195505802173
 20
160.8735084091276
 10
129.0412122772181
 20
160.8015312426182
 10
128.9837899835596
 20
160.7271840874463
 10
128.9113984025064
 20
160.6385999971866
 10
128.8523651367489
 20
160.5354474087314
 10
128.822303083362
 20
160.4217552733382
 10
128.7956744017916
 20
160.3311419817671
 10
128.77592612575
 20
160.2301652935868
 10
128.7809506462415
 20
160.1210749486108
 10
128.7881459895391
 20
160.0197574210422
 10
128.8202714476865
 20
159.9474318756724
 10
128.8568566541173
 20
159.8959410712634
 10
128.9016547383598
 20
159.8392296587236
 10
128.9506736390581
 20
159.8016698738372
 10
128.9912162711361
 20
159.7336277995585
 10
129.0621847809098
 20
159.7249451401579
 10
129.1072951890967
 20
159.7076640565236
 10
129.1214361209981
 20
159.7022468892516
 72
     1
 10
129.1214361209981
 20
159.7022468892516
 11
130.2655269311691
 21
159.7022468892516
 72
     1
 10
130.2655269311691
 20
159.7022468892516
 11
130.5119570825047
 21
160.1964590628744
 72
     1
 10
130.5119570825047
 20
160.1964590628744
 11
129.6625789262327
 21
160.1964590628744
 72
     4
 94
        3
 73
     0
 74
     0
 95
       16
 96
       12
 40
0.0
 40
0.0
 40
0.0
 40
0.0
 40
0.0727724916387222
 40
0.146295578664483
 40
0.1901487956571653
 40
0.2321950052074274
 40
0.2783717319934102
 40
0.3106181139832513
 40
0.3412171318564812
 40
0.4032675470231909
 40
0.5303086456501593
 40
0.5303086456501593
 40
0.5303086456501593
 40
0.5303086456501593
 10
129.6625789262327
 20
160.1964590628744
 10
129.636958687784
 20
160.2039969126861
 10
129.5854539567385
 20
160.2191503597547
 10
129.5811434266601
 20
160.2926087042156
 10
129.5870159002665
 20
160.3449537857197
 10
129.6116098328463
 20
160.3830640618108
 10
129.6414465388263
 20
160.4107943019788
 10
129.6525560677574
 20
160.4469086040054
 10
129.6852115158663
 20
160.4741794203285
 10
129.743118375212
 20
160.5200178530876
 10
129.8071533373767
 20
160.5297804150719
 10
129.8501752148832
 20
160.5363393905385
 72
     1
 10
129.8501752148833
 20
160.5363393905386
 11
130.6814323909907
 21
160.5363393905386
 72
     1
 10
130.6814323909907
 20
160.5363393905386
 11
130.927865151982
 21
161.0305567977886
 72
     1
 10
130.927865151982
 20
161.0305567977886
 11
129.5976419887518
 21
161.0305567977886
 97
        8
330
798
330
7BC
330
7C8
330
7C1
330
7DC
330
7DB
330
7DD
330
799
 75
     0
 76
     1
 47
0.0514683685270805
 98
        1
 10
129.8271799957577
 20
160.7873387355609
450
        0
451
        0
460
0.0
461
0.0
452
        0
462
0.0
453
        0
470

  0
LINE
  5
797
102
{ACAD_REACTORS
330
795
330
7A0
102
}
330
18
100
AcDbEntity
  8
ROGO
 62
     4
100
AcDbLine
 10
116.8863573851864
 20
158.9549816973689
 30
0.0
 11
130.9359351247751
 21
158.9549816973689
 31
0.0
  0
LINE
  5
798
102
{ACAD_REACTORS
330
796
102
}
330
18
100
AcDbEntity
  8
ROGO
 62
     4
100
AcDbLine
 10
129.5976419887521
 20
161.0305567977886
 30
0.0
 11
130.927865151982
 21
161.0305567977886
 31
0.0
  0
LINE
  5
799
102
{ACAD_REACTORS
330
796
102
}
330
18
100
AcDbEntity
  8
ROGO
 62
     4
100
AcDbLine
 10
130.927865151982
 20
161.0305567977886
 30
0.0
 11
130.6814323909907
 21
160.5363393905386
 31
0.0
  0
LINE
  5
79A
102
{ACAD_REACTORS
330
795
102
}
330
18
100
AcDbEntity
  8
ROGO
 62
     4
100
AcDbLine
 10
131.206068457823
 20
161.0305567977886
 30
0.0
 11
130.1711196779183
 21
158.9549816973689
 31
0.0
  0
HATCH
  5
79B
330
18
100
AcDbEntity
  8
ROGO
 62
     4
100
AcDbHatch
 10
0.0
 20
0.0
 30
0.0
210
0.0
220
0.0
230
1.0
  2
SOLID
 70
     1
 71
     0
 91
        1
 92
        7
 72
     0
 73
     1
 93
        4
 10
130.2748578376136
 20
159.1630271054196
 10
117.9452990454209
 20
159.1630271054196
 10
117.8511734013473
 20
158.9549816973689
 10
130.1711196779183
 20
158.9549816973689
 97
        0
 75
     0
 76
     1
 47
0.0514683685270805
 98
        1
 10
125.7304150045021
 20
159.1080024385217
450
        0
451
        0
460
0.0
461
0.0
452
        0
462
0.0
453
        0
470

  0
HATCH
  5
79C
330
18
100
AcDbEntity
  8
ROGO
 62
     4
100
AcDbHatch
 10
0.0
 20
0.0
 30
0.0
210
0.0
220
0.0
230
1.0
  2
SOLID
 70
     1
 71
     1
 91
        2
 92
        7
 72
     0
 73
     1
 93
        8
 10
123.5928200422586
 20
161.0305567977886
 10
122.8251088674988
 20
161.0305567977886
 10
121.8672387770507
 20
159.7022468892516
 10
122.6028847121632
 20
159.7022468892516
 10
122.7852572508528
 20
159.955148877321
 10
123.6326716589045
 20
159.955148877321
 10
123.8150441975941
 20
159.7022468892516
 10
124.5506901327066
 20
159.7022468892516
 97
        8
330
79E
330
7A6
330
7AB
330
7A7
330
79D
330
7BF
330
7C5
330
7BE
 92
       22
 72
     0
 73
     1
 93
        3
 10
123.4403178429346
 20
160.2218922303557
 10
122.9776110668227
 20
160.2218922303556
 10
123.2089644548786
 20
160.5427175706526
 97
        3
330
7CA
330
7C9
330
7CB
 75
     0
 76
     1
 47
0.0514683685270805
 98
        2
 10
123.6820325088742
 20
160.3500115822183
 10
123.6820325088742
 20
160.3500115822183
450
        0
451
        0
460
0.0
461
0.0
452
        0
462
0.0
453
        0
470

  0
LINE
  5
79D
102
{ACAD_REACTORS
330
79C
102
}
330
18
100
AcDbEntity
  8
ROGO
 62
     4
100
AcDbLine
 10
122.7852572508528
 20
159.955148877321
 30
0.0
 11
123.6326716589045
 21
159.955148877321
 31
0.0
  0
LINE
  5
79E
102
{ACAD_REACTORS
330
79C
102
}
330
18
100
AcDbEntity
  8
ROGO
 62
     4
100
AcDbLine
 10
122.8251088674987
 20
161.0305567977886
 30
0.0
 11
123.5928200422586
 21
161.0305567977886
 31
0.0
  0
LINE
  5
79F
330
18
100
AcDbEntity
  8
ROGO
 62
     4
100
AcDbLine
 10
117.9308708757433
 20
159.1630271054196
 30
0.0
 11
130.2748578376136
 21
159.1630271054196
 31
0.0
  0
HATCH
  5
7A0
330
18
100
AcDbEntity
  8
ROGO
 62
     4
100
AcDbHatch
 10
0.0
 20
0.0
 30
0.0
210
0.0
220
0.0
230
1.0
  2
SOLID
 70
     1
 71
     1
 91
        2
 92
        5
 93
        6
 72
     1
 10
116.8863573851863
 20
158.9549816973689
 11
117.8511734013474
 21
158.9549816973689
 72
     1
 10
117.8511734013474
 20
158.9549816973689
 11
118.1892573712785
 21
159.7022468892516
 72
     1
 10
118.1892573712785
 20
159.7022468892516
 11
119.0911624615596
 21
159.7022468892516
 72
     4
 94
        3
 73
     0
 74
     0
 95
       18
 96
       14
 40
0.108740278791501
 40
0.108740278791501
 40
0.108740278791501
 40
0.108740278791501
 40
0.6623149649549278
 40
1.384304701649787
 40
2.097394834876493
 40
2.774073369849618
 40
3.428974823686337
 40
4.005208313035923
 40
4.455173659284313
 40
4.720999734343524
 40
5.086034088486724
 40
5.569973738255373
 40
6.060470601257719
 40
6.060470601257719
 40
6.060470601257719
 40
6.060470601257719
 10
119.0911624615595
 20
159.7022468892516
 10
119.154637051783
 20
159.7027195653056
 10
119.300897224201
 20
159.7038087205236
 10
119.5055140609369
 20
159.81311953087
 10
119.699549285066
 20
159.9523735389716
 10
119.8558314581565
 20
160.1263568936925
 10
119.953199960577
 20
160.3252770523098
 10
119.9682820338367
 20
160.5159237530033
 10
119.9590747986524
 20
160.6667229231118
 10
119.8932844786803
 20
160.7718336884145
 10
119.824887412768
 20
160.8785103662138
 10
119.6994703220439
 20
160.9709176667637
 10
119.5967091762041
 20
161.0114058008568
 10
119.5444530435294
 20
161.0305567977887
 72
     1
 10
119.5444530435295
 20
161.0305567977886
 11
117.9133326418171
 21
161.0305567977886
 72
     1
 10
117.9133326418171
 20
161.0305567977886
 11
116.8863573851863
 21
158.9549816973689
 97
        6
330
7A2
330
7AC
330
7A3
330
797
330
7A9
330
7A8
 92
       20
 93
        4
 72
     1
 10
118.3980050833756
 20
160.1636408416686
 11
118.5578275321737
 21
160.516895546092
 72
     1
 10
118.5578275321737
 20
160.516895546092
 11
118.9685031103898
 21
160.516895546092
 72
     4
 94
        3
 73
     0
 74
     0
 95
       15
 96
       11
 40
0.0
 40
0.0
 40
0.0
 40
0.0
 40
0.1557486457803597
 40
0.226761461462151
 40
0.3073657347269351
 40
0.3622771133441826
 40
0.4491200281389516
 40
0.5011365618162256
 40
0.5903798883014843
 40
0.6201276827827237
 40
0.6201276827827237
 40
0.6201276827827237
 40
0.6201276827827237
 10
118.9685031103899
 20
160.516895546092
 10
119.0269992814261
 20
160.5171634897797
 10
119.1121664889333
 20
160.5175536010511
 10
119.1587389513116
 20
160.4122015190703
 10
119.1378629530909
 20
160.3443712129989
 10
119.1116201219063
 20
160.2747306298418
 10
119.0652430955944
 20
160.2274088032574
 10
119.0029983333046
 20
160.1818299068984
 10
118.9441740583929
 20
160.1763123774013
 10
118.9059154708106
 20
160.1661751497856
 10
118.8963508193366
 20
160.1636408416686
 72
     1
 10
118.8963508193366
 20
160.1636408416685
 11
118.3980050833756
 21
160.1636408416686
 97
        4
330
7AF
330
7AD
330
7B1
330
7AE
 75
     0
 76
     1
 47
0.0514683685270805
 98
        2
 10
117.9220507272991
 20
160.3849978578988
 10
117.9220507272991
 20
160.3849978578988
450
        0
451
        0
460
0.0
461
0.0
452
        0
462
0.0
453
        0
470

  0
HATCH
  5
7A1
330
18
100
AcDbEntity
  8
ROGO
 62
     4
100
AcDbHatch
 10
0.0
 20
0.0
 30
0.0
210
0.0
220
0.0
230
1.0
  2
SOLID
 70
     1
 71
     1
 91
        1
 92
        1
 93
       12
 72
     1
 10
120.5080785046944
 20
161.0305567977886
 11
122.3046729167942
 21
161.0305567977887
 72
     1
 10
122.3046729167942
 20
161.0305567977886
 11
122.1541198953243
 21
160.7262806230333
 72
     1
 10
122.1541198953243
 20
160.7262806230333
 11
121.2098752712579
 21
160.7262806230333
 72
     1
 10
121.2098752712579
 20
160.7262806230333
 11
121.0921615170475
 21
160.4883744654715
 72
     1
 10
121.0921615170475
 20
160.4883744654715
 11
122.0364061411139
 21
160.4883744654715
 72
     1
 10
122.0364061411139
 20
160.4883744654715
 11
121.9157017135959
 21
160.2444239879415
 72
     1
 10
121.9157017135959
 20
160.2444239879415
 11
120.9714570895296
 21
160.2444239879415
 72
     1
 10
120.9714570895296
 20
160.2444239879415
 11
120.8537383518847
 21
160.0065077585766
 72
     1
 10
120.8537383518847
 20
160.0065077585766
 11
121.797982975951
 21
160.0065077585766
 72
     1
 10
121.797982975951
 20
160.0065077585766
 11
121.6474375274657
 21
159.7022468892516
 72
     1
 10
121.6474375274657
 20
159.7022468892516
 11
119.8508431153659
 21
159.7022468892516
 72
     1
 10
119.8508431153659
 20
159.7022468892516
 11
120.5080785046945
 21
161.0305567977886
 97
       12
330
7B0
330
7B2
330
7B4
330
7B3
330
7B5
330
7B8
330
7B7
330
7B9
330
7B6
330
7A5
330
7AA
330
7A4
 75
     0
 76
     1
 98
        1
 10
47.01894266502764
 20
69.1838703807793
450
        0
451
        0
460
0.0
461
0.0
452
        0
462
0.0
453
        0
470

  0
SPLINE
  5
7A2
102
{ACAD_REACTORS
330
7A0
102
}
330
18
100
AcDbEntity
  8
ROGO
 62
     4
100
AcDbSpline
210
0.0
220
0.0
230
1.0
 70
     8
 71
     3
 72
    18
 73
    14
 74
     0
 42
0.0000000001
 43
0.0000000001
 40
0.1087402787915014
 40
0.1087402787915014
 40
0.1087402787915014
 40
0.1087402787915014
 40
0.5992371417938475
 40
1.083176791562496
 40
1.448211145705696
 40
1.714037220764907
 40
2.164002567013297
 40
2.740236056362883
 40
3.395137510199602
 40
4.071816045172726
 40
4.784906178399433
 40
5.506895915094292
 40
6.060470601257719
 40
6.060470601257719
 40
6.060470601257719
 40
6.060470601257719
 10
119.5444530435294
 20
161.0305567977887
 30
0.0
 10
119.5967091762041
 20
161.0114058008568
 30
0.0
 10
119.6994703220439
 20
160.9709176667637
 30
0.0
 10
119.824887412768
 20
160.8785103662138
 30
0.0
 10
119.8932844786803
 20
160.7718336884145
 30
0.0
 10
119.9590747986524
 20
160.6667229231118
 30
0.0
 10
119.9682820338367
 20
160.5159237530033
 30
0.0
 10
119.953199960577
 20
160.3252770523098
 30
0.0
 10
119.8558314581565
 20
160.1263568936925
 30
0.0
 10
119.699549285066
 20
159.9523735389716
 30
0.0
 10
119.5055140609369
 20
159.81311953087
 30
0.0
 10
119.300897224201
 20
159.7038087205236
 30
0.0
 10
119.154637051783
 20
159.7027195653056
 30
0.0
 10
119.0911624615595
 20
159.7022468892516
 30
0.0
  0
LINE
  5
7A3
102
{ACAD_REACTORS
330
7A0
102
}
330
18
100
AcDbEntity
  8
ROGO
 62
     4
100
AcDbLine
 10
117.9133326418171
 20
161.0305567977886
 30
0.0
 11
116.8863573851863
 21
158.9549816973689
 31
0.0
  0
LINE
  5
7A4
102
{ACAD_REACTORS
330
7A1
102
}
330
18
100
AcDbEntity
  8
ROGO
 62
     4
100
AcDbLine
 10
120.5080785046945
 20
161.0305567977886
 30
0.0
 11
119.8508431153659
 21
159.7022468892516
 31
0.0
  0
LINE
  5
7A5
102
{ACAD_REACTORS
330
7A1
102
}
330
18
100
AcDbEntity
  8
ROGO
 62
     4
100
AcDbLine
 10
121.797982975951
 20
160.0065077585766
 30
0.0
 11
121.6474375274657
 21
159.7022468892516
 31
0.0
  0
LINE
  5
7A6
102
{ACAD_REACTORS
330
79C
102
}
330
18
100
AcDbEntity
  8
ROGO
 62
     4
100
AcDbLine
 10
122.8251088674988
 20
161.0305567977886
 30
0.0
 11
121.8672387770507
 21
159.7022468892516
 31
0.0
  0
LINE
  5
7A7
102
{ACAD_REACTORS
330
79C
102
}
330
18
100
AcDbEntity
  8
ROGO
 62
     4
100
AcDbLine
 10
122.7852572508528
 20
159.955148877321
 30
0.0
 11
122.6028847121632
 21
159.7022468892516
 31
0.0
  0
LINE
  5
7A8
102
{ACAD_REACTORS
330
7A0
102
}
330
18
100
AcDbEntity
  8
ROGO
 62
     4
100
AcDbLine
 10
119.0911624618722
 20
159.7022468892516
 30
0.0
 11
118.1892573712785
 21
159.7022468892516
 31
0.0
  0
LINE
  5
7A9
102
{ACAD_REACTORS
330
7A0
102
}
330
18
100
AcDbEntity
  8
ROGO
 62
     4
100
AcDbLine
 10
118.1892573712785
 20
159.7022468892516
 30
0.0
 11
117.8511734013474
 21
158.9549816973689
 31
0.0
  0
LINE
  5
7AA
102
{ACAD_REACTORS
330
7A1
102
}
330
18
100
AcDbEntity
  8
ROGO
 62
     4
100
AcDbLine
 10
119.8508431153659
 20
159.7022468892516
 30
0.0
 11
121.6474375274657
 21
159.7022468892516
 31
0.0
  0
LINE
  5
7AB
102
{ACAD_REACTORS
330
79C
102
}
330
18
100
AcDbEntity
  8
ROGO
 62
     4
100
AcDbLine
 10
121.8672387770507
 20
159.7022468892516
 30
0.0
 11
122.6028847121632
 21
159.7022468892516
 31
0.0
  0
LINE
  5
7AC
102
{ACAD_REACTORS
330
7A0
102
}
330
18
100
AcDbEntity
  8
ROGO
 62
     4
100
AcDbLine
 10
117.9133326418171
 20
161.0305567977886
 30
0.0
 11
119.5444530435294
 21
161.0305567977886
 31
0.0
  0
LINE
  5
7AD
102
{ACAD_REACTORS
330
7A0
102
}
330
18
100
AcDbEntity
  8
ROGO
 62
     4
100
AcDbLine
 10
118.9685031103899
 20
160.516895546092
 30
0.0
 11
118.5578275321737
 21
160.516895546092
 31
0.0
  0
LINE
  5
7AE
102
{ACAD_REACTORS
330
7A0
102
}
330
18
100
AcDbEntity
  8
ROGO
 62
     4
100
AcDbLine
 10
118.8963508193366
 20
160.1636408416686
 30
0.0
 11
118.3980050833756
 21
160.1636408416686
 31
0.0
  0
LINE
  5
7AF
102
{ACAD_REACTORS
330
7A0
102
}
330
18
100
AcDbEntity
  8
ROGO
 62
     4
100
AcDbLine
 10
118.5578275321737
 20
160.516895546092
 30
0.0
 11
118.3980050833756
 21
160.1636408416686
 31
0.0
  0
LINE
  5
7B0
102
{ACAD_REACTORS
330
7A1
102
}
330
18
100
AcDbEntity
  8
ROGO
 62
     4
100
AcDbLine
 10
120.5080785046944
 20
161.0305567977886
 30
0.0
 11
122.3046729167942
 21
161.0305567977887
 31
0.0
  0
SPLINE
  5
7B1
102
{ACAD_REACTORS
330
7A0
102
}
330
18
100
AcDbEntity
  8
ROGO
 62
     4
100
AcDbSpline
210
0.0
220
0.0
230
1.0
 70
     8
 71
     3
 72
    15
 73
    11
 74
     9
 42
0.0000000001
 43
0.0000000001
 44
0.0000000001
 40
0.0
 40
0.0
 40
0.0
 40
0.0
 40
0.1557486457803597
 40
0.226761461462151
 40
0.3073657347269351
 40
0.3622771133441826
 40
0.4491200281389516
 40
0.5011365618162256
 40
0.5903798883014843
 40
0.6201276827827237
 40
0.6201276827827237
 40
0.6201276827827237
 40
0.6201276827827237
 10
118.9685031103899
 20
160.516895546092
 30
0.0
 10
119.0269992814261
 20
160.5171634897797
 30
0.0
 10
119.1121664889333
 20
160.5175536010511
 30
0.0
 10
119.1587389513116
 20
160.4122015190703
 30
0.0
 10
119.1378629530909
 20
160.3443712129989
 30
0.0
 10
119.1116201219063
 20
160.2747306298418
 30
0.0
 10
119.0652430955944
 20
160.2274088032574
 30
0.0
 10
119.0029983333046
 20
160.1818299068984
 30
0.0
 10
118.9441740583929
 20
160.1763123774013
 30
0.0
 10
118.9059154708106
 20
160.1661751497856
 30
0.0
 10
118.8963508193366
 20
160.1636408416686
 30
0.0
 11
118.9685031103899
 21
160.516895546092
 31
0.0
 11
119.1200230460688
 21
160.480849051751
 31
0.0
 11
119.1488840454681
 21
160.4159655969668
 31
0.0
 11
119.1344537532134
 21
160.3366635444462
 31
0.0
 11
119.1128081073865
 21
160.2861984523688
 31
0.0
 11
119.0550861085879
 21
160.2213149975845
 31
0.0
 11
119.011794816934
 21
160.1924778021117
 31
0.0
 11
118.925211818736
 21
160.1708501405368
 31
0.0
 11
118.8963508193366
 21
160.1636408416686
 31
0.0
  0
LINE
  5
7B2
102
{ACAD_REACTORS
330
7A1
102
}
330
18
100
AcDbEntity
  8
ROGO
 62
     4
100
AcDbLine
 10
122.3046729167942
 20
161.0305567977886
 30
0.0
 11
122.1541198953243
 21
160.7262806230333
 31
0.0
  0
LINE
  5
7B3
102
{ACAD_REACTORS
330
7A1
102
}
330
18
100
AcDbEntity
  8
ROGO
 62
     4
100
AcDbLine
 10
121.2098752712579
 20
160.7262806230333
 30
0.0
 11
121.0921615170475
 21
160.4883744654715
 31
0.0
  0
LINE
  5
7B4
102
{ACAD_REACTORS
330
7A1
102
}
330
18
100
AcDbEntity
  8
ROGO
 62
     4
100
AcDbLine
 10
121.2098752712579
 20
160.7262806230333
 30
0.0
 11
122.1541198953243
 21
160.7262806230333
 31
0.0
  0
LINE
  5
7B5
102
{ACAD_REACTORS
330
7A1
102
}
330
18
100
AcDbEntity
  8
ROGO
 62
     4
100
AcDbLine
 10
121.0921615170475
 20
160.4883744654715
 30
0.0
 11
122.0364061411139
 21
160.4883744654715
 31
0.0
  0
LINE
  5
7B6
102
{ACAD_REACTORS
330
7A1
102
}
330
18
100
AcDbEntity
  8
ROGO
 62
     4
100
AcDbLine
 10
120.8537383518847
 20
160.0065077585766
 30
0.0
 11
121.797982975951
 21
160.0065077585766
 31
0.0
  0
LINE
  5
7B7
102
{ACAD_REACTORS
330
7A1
102
}
330
18
100
AcDbEntity
  8
ROGO
 62
     4
100
AcDbLine
 10
120.9714570895296
 20
160.2444239879415
 30
0.0
 11
121.9157017135959
 21
160.2444239879415
 31
0.0
  0
LINE
  5
7B8
102
{ACAD_REACTORS
330
7A1
102
}
330
18
100
AcDbEntity
  8
ROGO
 62
     4
100
AcDbLine
 10
122.0364061411139
 20
160.4883744654715
 30
0.0
 11
121.9157017135959
 21
160.2444239879415
 31
0.0
  0
LINE
  5
7B9
102
{ACAD_REACTORS
330
7A1
102
}
330
18
100
AcDbEntity
  8
ROGO
 62
     4
100
AcDbLine
 10
120.9714570895296
 20
160.2444239879415
 30
0.0
 11
120.8537383518847
 21
160.0065077585766
 31
0.0
  0
HATCH
  5
7BA
330
18
100
AcDbEntity
  8
ROGO
 62
     4
100
AcDbHatch
 10
0.0
 20
0.0
 30
0.0
210
0.0
220
0.0
230
1.0
  2
SOLID
 70
     1
 71
     1
 91
        2
 92
        7
 72
     1
 73
     1
 93
        4
 10
127.8583149412041
 20
161.0305567977886
 42
0.0
 10
127.3211944742759
 20
161.0305567977886
 42
0.9597396185051117
 10
127.3211944742757
 20
159.7022468892516
 42
0.0
 10
127.896914788692
 20
159.7022468892516
 42
0.9713627655765655
 97
        4
330
7DA
330
7C2
330
7C7
330
7C3
 92
       22
 72
     1
 73
     1
 93
        2
 10
127.7687387018034
 20
160.3021166035182
 42
0.1034173650200812
 10
127.7766486414331
 20
160.3587079282647
 42
0.0
 97
        8
330
7D2
330
7D8
330
7D4
330
7D7
330
7D3
330
7D6
330
7D1
330
7D5
 75
     0
 76
     1
 47
0.0514683685270805
 98
        2
 10
127.9888878848435
 20
160.4899562148808
 10
127.9888878848435
 20
160.4899562148808
450
        0
451
        0
460
0.0
461
0.0
452
        0
462
0.0
453
        0
470

  0
HATCH
  5
7BB
330
18
100
AcDbEntity
  8
ROGO
 62
     4
100
AcDbHatch
 10
0.0
 20
0.0
 30
0.0
210
0.0
220
0.0
230
1.0
  2
SOLID
 70
     1
 71
     1
 91
        1
 92
        5
 93
        8
 72
     1
 10
126.4014997120833
 20
160.5363393905386
 11
126.6479324730745
 21
161.0305567977886
 72
     1
 10
126.6479324730745
 20
161.0305567977886
 11
125.3177093098443
 21
161.0305567977887
 72
     4
 94
        3
 73
     0
 74
     0
 95
       26
 96
       22
 40
0.0
 40
0.0
 40
0.0
 40
0.0
 40
0.2409706354046603
 40
0.4022818169370354
 40
0.5186003155031642
 40
0.6054515746786075
 40
0.7181022161474779
 40
0.8003262024090915
 40
0.9488035568846969
 40
1.06966198882704
 40
1.151865088021934
 40
1.232469435564004
 40
1.376654942868829
 40
1.478611305785125
 40
1.533522684402378
 40
1.611522675670306
 40
1.667848219519478
 40
1.749445336561228
 40
1.795622246815267
 40
1.896108383198236
 40
1.941991225985711
 40
1.941991225985711
 40
1.941991225985711
 40
1.941991225985711
 10
125.3177093098442
 20
161.0305567977886
 10
125.2359201529857
 20
161.0256771164368
 10
125.0993794887195
 20
161.017530866264
 10
124.9494586699708
 20
160.9264555789044
 10
124.8396179013097
 20
160.8735084091277
 10
124.7612795983106
 20
160.8015312426182
 10
124.7038573046521
 20
160.7271840874464
 10
124.6314657235988
 20
160.6385999971865
 10
124.5724324578413
 20
160.5354474087314
 10
124.5423704044545
 20
160.4217552733382
 10
124.515741722884
 20
160.3311419817671
 10
124.4959934468425
 20
160.2301652935868
 10
124.501017967334
 20
160.1210749486108
 10
124.5082133106315
 20
160.0197574210422
 10
124.540338768779
 20
159.9474318756724
 10
124.5769239752097
 20
159.8959410712635
 10
124.6217220594523
 20
159.8392296587236
 10
124.6707409601505
 20
159.8016698738371
 10
124.7112835922286
 20
159.7336277995585
 10
124.7822521020023
 20
159.7249451401579
 10
124.8273625101892
 20
159.7076640565236
 10
124.8415034420905
 20
159.7022468892516
 72
     1
 10
124.8415034420905
 20
159.7022468892516
 11
125.9855942522615
 21
159.7022468892516
 72
     1
 10
125.9855942522615
 20
159.7022468892516
 11
126.2320244035972
 21
160.1964590628744
 72
     1
 10
126.2320244035972
 20
160.1964590628744
 11
125.3826462473252
 21
160.1964590628744
 72
     4
 94
        3
 73
     0
 74
     0
 95
       16
 96
       12
 40
0.0
 40
0.0
 40
0.0
 40
0.0
 40
0.0727724916386841
 40
0.1462955786645061
 40
0.1901487956571346
 40
0.2321950052073895
 40
0.2783717319933945
 40
0.3106181139832357
 40
0.3412171318564654
 40
0.4032675470231522
 40
0.5303086456501353
 40
0.5303086456501353
 40
0.5303086456501353
 40
0.5303086456501353
 10
125.3826462473252
 20
160.1964590628744
 10
125.3570260088765
 20
160.2039969126861
 10
125.305521277831
 20
160.2191503597547
 10
125.3012107477526
 20
160.2926087042156
 10
125.307083221359
 20
160.3449537857198
 10
125.3316771539388
 20
160.3830640618108
 10
125.3615138599188
 20
160.4107943019789
 10
125.3726233888498
 20
160.4469086040054
 10
125.4052788369588
 20
160.4741794203285
 10
125.4631856963045
 20
160.5200178530876
 10
125.5272206584692
 20
160.529780415072
 10
125.5702425359756
 20
160.5363393905386
 72
     1
 10
125.5702425359756
 20
160.5363393905386
 11
126.4014997120833
 21
160.5363393905386
 97
        8
330
7D0
330
7BD
330
7C4
330
7C0
330
7CF
330
7CC
330
7CE
330
7CD
 75
     0
 76
     1
 47
0.0514683685270805
 98
        1
 10
125.7829376006805
 20
160.7348594395551
450
        0
451
        0
460
0.0
461
0.0
452
        0
462
0.0
453
        0
470

  0
SPLINE
  5
7BC
102
{ACAD_REACTORS
330
796
102
}
330
18
100
AcDbEntity
  8
ROGO
 62
     4
100
AcDbSpline
210
0.0
220
0.0
230
1.0
 70
     8
 71
     3
 72
    26
 73
    22
 74
    20
 42
0.0000000001
 43
0.0000000001
 44
0.0000000001
 40
0.0
 40
0.0
 40
0.0
 40
0.0
 40
0.2409706354046647
 40
0.402281816937027
 40
0.5186003155031699
 40
0.6054515746785838
 40
0.7181022161474942
 40
0.8003262024090766
 40
0.9488035568847069
 40
1.069661988827031
 40
1.151865088021973
 40
1.232469435563986
 40
1.376654942868812
 40
1.478611305785108
 40
1.533522684402349
 40
1.611522675670294
 40
1.667848219519465
 40
1.749445336561235
 40
1.795622246815275
 40
1.896108383198253
 40
1.94199122598571
 40
1.94199122598571
 40
1.94199122598571
 40
1.94199122598571
 10
129.5976419887518
 20
161.0305567977886
 30
0.0
 10
129.5158528318933
 20
161.0256771164368
 30
0.0
 10
129.3793121676271
 20
161.017530866264
 30
0.0
 10
129.2293913488783
 20
160.9264555789045
 30
0.0
 10
129.1195505802173
 20
160.8735084091276
 30
0.0
 10
129.0412122772181
 20
160.8015312426182
 30
0.0
 10
128.9837899835596
 20
160.7271840874463
 30
0.0
 10
128.9113984025064
 20
160.6385999971866
 30
0.0
 10
128.8523651367489
 20
160.5354474087314
 30
0.0
 10
128.822303083362
 20
160.4217552733382
 30
0.0
 10
128.7956744017916
 20
160.3311419817671
 30
0.0
 10
128.77592612575
 20
160.2301652935868
 30
0.0
 10
128.7809506462415
 20
160.1210749486108
 30
0.0
 10
128.7881459895391
 20
160.0197574210422
 30
0.0
 10
128.8202714476865
 20
159.9474318756724
 30
0.0
 10
128.8568566541173
 20
159.8959410712634
 30
0.0
 10
128.9016547383598
 20
159.8392296587236
 30
0.0
 10
128.9506736390581
 20
159.8016698738372
 30
0.0
 10
128.9912162711361
 20
159.7336277995585
 30
0.0
 10
129.0621847809098
 20
159.7249451401579
 30
0.0
 10
129.1072951890967
 20
159.7076640565236
 30
0.0
 10
129.1214361209981
 20
159.7022468892516
 30
0.0
 11
129.5976419887518
 21
161.0305567977886
 31
0.0
 11
129.3595390548749
 21
160.9934914500018
 31
0.0
 11
129.2152340578783
 21
160.9213986963495
 31
0.0
 11
129.1142207674257
 21
160.8637245404335
 31
0.0
 11
129.0492838299448
 21
160.8060501494878
 31
0.0
 11
128.9771315388915
 21
160.719538798099
 31
0.0
 11
128.9266248936652
 21
160.6546553433148
 31
0.0
 11
128.8544721877219
 21
160.5248881987167
 31
0.0
 11
128.8183962496402
 21
160.4095396518551
 31
0.0
 11
128.7967506038133
 21
160.3302375993345
 31
0.0
 11
128.7823198966686
 21
160.2509355468139
 31
0.0
 11
128.7823198966686
 21
160.1067500395091
 31
0.0
 11
128.7967506038133
 21
160.0058200903838
 31
0.0
 11
128.8183962496402
 21
159.9553549983064
 31
0.0
 11
128.8616875412942
 21
159.8904715435222
 31
0.0
 11
128.8977638942659
 21
159.8472157503129
 31
0.0
 11
128.9554854781744
 21
159.789541594397
 31
0.0
 11
128.9843464775738
 21
159.7534951000559
 31
0.0
 11
129.0781448293442
 21
159.7174488407445
 31
0.0
 11
129.1214361209981
 21
159.7022468892516
 31
0.0
  0
SPLINE
  5
7BD
102
{ACAD_REACTORS
330
7BB
102
}
330
18
100
AcDbEntity
  8
ROGO
 62
     4
100
AcDbSpline
210
0.0
220
0.0
230
1.0
 70
     8
 71
     3
 72
    26
 73
    22
 74
    20
 42
0.0000000001
 43
0.0000000001
 44
0.0000000001
 40
0.0
 40
0.0
 40
0.0
 40
0.0
 40
0.2409706354046603
 40
0.4022818169370354
 40
0.5186003155031642
 40
0.6054515746786075
 40
0.7181022161474779
 40
0.8003262024090915
 40
0.9488035568846969
 40
1.06966198882704
 40
1.151865088021934
 40
1.232469435564004
 40
1.376654942868829
 40
1.478611305785125
 40
1.533522684402378
 40
1.611522675670306
 40
1.667848219519478
 40
1.749445336561228
 40
1.795622246815267
 40
1.896108383198236
 40
1.941991225985711
 40
1.941991225985711
 40
1.941991225985711
 40
1.941991225985711
 10
125.3177093098442
 20
161.0305567977886
 30
0.0
 10
125.2359201529857
 20
161.0256771164368
 30
0.0
 10
125.0993794887195
 20
161.017530866264
 30
0.0
 10
124.9494586699708
 20
160.9264555789044
 30
0.0
 10
124.8396179013097
 20
160.8735084091277
 30
0.0
 10
124.7612795983106
 20
160.8015312426182
 30
0.0
 10
124.7038573046521
 20
160.7271840874464
 30
0.0
 10
124.6314657235988
 20
160.6385999971865
 30
0.0
 10
124.5724324578413
 20
160.5354474087314
 30
0.0
 10
124.5423704044545
 20
160.4217552733382
 30
0.0
 10
124.515741722884
 20
160.3311419817671
 30
0.0
 10
124.4959934468425
 20
160.2301652935868
 30
0.0
 10
124.501017967334
 20
160.1210749486108
 30
0.0
 10
124.5082133106315
 20
160.0197574210422
 30
0.0
 10
124.540338768779
 20
159.9474318756724
 30
0.0
 10
124.5769239752097
 20
159.8959410712635
 30
0.0
 10
124.6217220594523
 20
159.8392296587236
 30
0.0
 10
124.6707409601505
 20
159.8016698738371
 30
0.0
 10
124.7112835922286
 20
159.7336277995585
 30
0.0
 10
124.7822521020023
 20
159.7249451401579
 30
0.0
 10
124.8273625101892
 20
159.7076640565236
 30
0.0
 10
124.8415034420905
 20
159.7022468892516
 30
0.0
 11
125.3177093098442
 21
161.0305567977886
 31
0.0
 11
125.0796063759673
 21
160.9934914500019
 31
0.0
 11
124.9353013789707
 21
160.9213986963495
 31
0.0
 11
124.8342880885182
 21
160.8637245404335
 31
0.0
 11
124.7693511510372
 21
160.8060501494878
 31
0.0
 11
124.697198859984
 21
160.719538798099
 31
0.0
 11
124.6466922147577
 21
160.6546553433148
 31
0.0
 11
124.5745395088143
 21
160.5248881987168
 31
0.0
 11
124.5384635707327
 21
160.4095396518551
 31
0.0
 11
124.5168179249058
 21
160.3302375993345
 31
0.0
 11
124.502387217761
 21
160.2509355468139
 31
0.0
 11
124.502387217761
 21
160.1067500395091
 31
0.0
 11
124.5168179249058
 21
160.0058200903838
 31
0.0
 11
124.5384635707327
 21
159.9553549983064
 31
0.0
 11
124.5817548623866
 21
159.8904715435222
 31
0.0
 11
124.6178312153584
 21
159.8472157503129
 31
0.0
 11
124.6755527992669
 21
159.789541594397
 31
0.0
 11
124.7044137986663
 21
159.7534951000559
 31
0.0
 11
124.7982121504366
 21
159.7174488407446
 31
0.0
 11
124.8415034420905
 21
159.7022468892516
 31
0.0
  0
LINE
  5
7BE
102
{ACAD_REACTORS
330
79C
102
}
330
18
100
AcDbEntity
  8
ROGO
 62
     4
100
AcDbLine
 10
123.5928200422586
 20
161.0305567977886
 30
0.0
 11
124.5506901327066
 21
159.7022468892516
 31
0.0
  0
LINE
  5
7BF
102
{ACAD_REACTORS
330
79C
102
}
330
18
100
AcDbEntity
  8
ROGO
 62
     4
100
AcDbLine
 10
123.6326716589045
 20
159.955148877321
 30
0.0
 11
123.8150441975941
 21
159.7022468892516
 31
0.0
  0
LINE
  5
7C0
102
{ACAD_REACTORS
330
7BB
102
}
330
18
100
AcDbEntity
  8
ROGO
 62
     4
100
AcDbLine
 10
126.2320244035972
 20
160.1964590628744
 30
0.0
 11
125.9855942522615
 21
159.7022468892516
 31
0.0
  0
LINE
  5
7C1
102
{ACAD_REACTORS
330
796
102
}
330
18
100
AcDbEntity
  8
ROGO
 62
     4
100
AcDbLine
 10
130.5119570825047
 20
160.1964590628744
 30
0.0
 11
130.2655269311691
 21
159.7022468892516
 31
0.0
  0
ARC
  5
7C2
102
{ACAD_REACTORS
330
7BA
102
}
330
18
100
AcDbEntity
  8
ROGO
 62
     4
100
AcDbCircle
 10
127.3484944497079
 20
160.3664018435201
 30
0.0
 40
0.664715797870017
100
AcDbArc
 50
92.3538081120337
 51
270.0
  0
ARC
  5
7C3
102
{ACAD_REACTORS
330
7BA
102
}
330
18
100
AcDbEntity
  8
ROGO
 62
     4
100
AcDbCircle
 10
127.8583149412041
 20
160.3658409999186
 30
0.0
 40
0.664715797870017
100
AcDbArc
 50
273.3290215232082
 51
90.0000000000006
  0
LINE
  5
7C4
102
{ACAD_REACTORS
330
7BB
102
}
330
18
100
AcDbEntity
  8
ROGO
 62
     4
100
AcDbLine
 10
124.8415034420905
 20
159.7022468892516
 30
0.0
 11
125.9855942522615
 21
159.7022468892516
 31
0.0
  0
LINE
  5
7C5
102
{ACAD_REACTORS
330
79C
102
}
330
18
100
AcDbEntity
  8
ROGO
 62
     4
100
AcDbLine
 10
124.5506901327066
 20
159.7022468892516
 30
0.0
 11
123.8150441975941
 21
159.7022468892516
 31
0.0
  0
LINE
  5
7C6
330
18
100
AcDbEntity
  8
ROGO
 62
     4
100
AcDbLine
 10
127.3211944742763
 20
159.7022468892516
 30
0.0
 11
127.8969147886916
 21
159.7022468892516
 31
0.0
  0
LINE
  5
7C7
102
{ACAD_REACTORS
330
7BA
102
}
330
18
100
AcDbEntity
  8
ROGO
 62
     4
100
AcDbLine
 10
127.3211944742759
 20
159.7022468892516
 30
0.0
 11
127.896914788692
 21
159.7022468892516
 31
0.0
  0
LINE
  5
7C8
102
{ACAD_REACTORS
330
796
102
}
330
18
100
AcDbEntity
  8
ROGO
 62
     4
100
AcDbLine
 10
129.121436120998
 20
159.7022468892516
 30
0.0
 11
130.2655269311691
 21
159.7022468892516
 31
0.0
  0
LINE
  5
7C9
102
{ACAD_REACTORS
330
79C
102
}
330
18
100
AcDbEntity
  8
ROGO
 62
     4
100
AcDbLine
 10
123.2089644548787
 20
160.5427175706526
 30
0.0
 11
122.9776110668227
 21
160.2218922303556
 31
0.0
  0
LINE
  5
7CA
102
{ACAD_REACTORS
330
79C
102
}
330
18
100
AcDbEntity
  8
ROGO
 62
     4
100
AcDbLine
 10
122.9776110668227
 20
160.2218922303557
 30
0.0
 11
123.4403178429346
 21
160.2218922303557
 31
0.0
  0
LINE
  5
7CB
102
{ACAD_REACTORS
330
79C
102
}
330
18
100
AcDbEntity
  8
ROGO
 62
     4
100
AcDbLine
 10
123.2089644548787
 20
160.5427175706526
 30
0.0
 11
123.4403178429346
 21
160.2218922303556
 31
0.0
  0
SPLINE
  5
7CC
102
{ACAD_REACTORS
330
7BB
102
}
330
18
100
AcDbEntity
  8
ROGO
 62
     4
100
AcDbSpline
210
0.0
220
0.0
230
1.0
 70
     8
 71
     3
 72
    16
 73
    12
 74
    10
 42
0.0000000001
 43
0.0000000001
 44
0.0000000001
 40
0.0
 40
0.0
 40
0.0
 40
0.0
 40
0.1270410986269831
 40
0.1890915137936698
 40
0.2196905316668996
 40
0.2519369136567407
 40
0.2981136404427457
 40
0.3401598499930006
 40
0.3840130669856291
 40
0.4575361540114513
 40
0.5303086456501353
 40
0.5303086456501353
 40
0.5303086456501353
 40
0.5303086456501353
 10
125.5702425359756
 20
160.5363393905386
 30
0.0
 10
125.5272206584692
 20
160.529780415072
 30
0.0
 10
125.4631856963045
 20
160.5200178530876
 30
0.0
 10
125.4052788369588
 20
160.4741794203285
 30
0.0
 10
125.3726233888498
 20
160.4469086040054
 30
0.0
 10
125.3615138599188
 20
160.4107943019789
 30
0.0
 10
125.3316771539388
 20
160.3830640618108
 30
0.0
 10
125.307083221359
 20
160.3449537857198
 30
0.0
 10
125.3012107477526
 20
160.2926087042156
 30
0.0
 10
125.305521277831
 20
160.2191503597547
 30
0.0
 10
125.3570260088765
 20
160.2039969126861
 30
0.0
 10
125.3826462473252
 20
160.1964590628744
 30
0.0
 11
125.5702425359756
 21
160.5363393905386
 31
0.0
 11
125.4475835996961
 21
160.5032603021122
 31
0.0
 11
125.3970769544698
 21
160.4672140428007
 31
0.0
 11
125.3754313086429
 21
160.4455861461961
 31
0.0
 11
125.3610006014981
 21
160.4167489507233
 31
0.0
 11
125.3321396020988
 21
160.3807026914119
 31
0.0
 11
125.3104939562718
 21
160.3446561970709
 31
0.0
 11
125.3032786026995
 21
160.3014006388913
 31
0.0
 11
125.3177093098442
 21
160.2293076502093
 31
0.0
 11
125.3826462473252
 21
160.1964590628744
 31
0.0
  0
LINE
  5
7CD
102
{ACAD_REACTORS
330
7BB
102
}
330
18
100
AcDbEntity
  8
ROGO
 62
     4
100
AcDbLine
 10
126.6479324730745
 20
161.0305567977886
 30
0.0
 11
126.4014997120832
 21
160.5363393905386
 31
0.0
  0
LINE
  5
7CE
102
{ACAD_REACTORS
330
7BB
102
}
330
18
100
AcDbEntity
  8
ROGO
 62
     4
100
AcDbLine
 10
125.5702425359756
 20
160.5363393905386
 30
0.0
 11
126.4014997120832
 21
160.5363393905386
 31
0.0
  0
LINE
  5
7CF
102
{ACAD_REACTORS
330
7BB
102
}
330
18
100
AcDbEntity
  8
ROGO
 62
     4
100
AcDbLine
 10
125.3826462473251
 20
160.1964590628744
 30
0.0
 11
126.2320244035972
 21
160.1964590628744
 31
0.0
  0
LINE
  5
7D0
102
{ACAD_REACTORS
330
7BB
102
}
330
18
100
AcDbEntity
  8
ROGO
 62
     4
100
AcDbLine
 10
125.3177093098446
 20
161.0305567977887
 30
0.0
 11
126.6479324730745
 21
161.0305567977887
 31
0.0
  0
LINE
  5
7D1
102
{ACAD_REACTORS
330
7BA
102
}
330
18
100
AcDbEntity
  8
ROGO
 62
     4
100
AcDbLine
 10
127.6129569088161
 20
160.4936345799185
 30
0.0
 11
127.6610939978107
 21
160.4869063142417
 31
0.0
  0
LINE
  5
7D2
102
{ACAD_REACTORS
330
7BA
102
}
330
18
100
AcDbEntity
  8
ROGO
 62
     4
100
AcDbLine
 10
127.7766486414331
 20
160.3587079282649
 30
0.0
 11
127.7589716279131
 21
160.2322384911403
 31
0.0
  0
LINE
  5
7D3
102
{ACAD_REACTORS
330
7BA
102
}
330
18
100
AcDbEntity
  8
ROGO
 62
     4
100
AcDbLine
 10
127.4425893166475
 20
160.2789845207856
 30
0.0
 11
127.4602663301676
 21
160.4054539579101
 31
0.0
  0
LINE
  5
7D4
102
{ACAD_REACTORS
330
7BA
102
}
330
18
100
AcDbEntity
  8
ROGO
 62
     4
100
AcDbLine
 10
127.5670506544357
 20
160.1652002465165
 30
0.0
 11
127.6151877434304
 21
160.1584719808397
 31
0.0
  0
ARC
  5
7D5
102
{ACAD_REACTORS
330
7BA
102
}
330
18
100
AcDbEntity
  8
ROGO
 62
     4
100
AcDbCircle
 10
127.6373535574356
 20
160.3493291606179
 30
0.0
 40
0.1396104641795885
100
AcDbArc
 50
3.851923331663601
 51
80.20940670206341
  0
ARC
  5
7D6
102
{ACAD_REACTORS
330
7BA
102
}
330
18
100
AcDbEntity
  8
ROGO
 62
     4
100
AcDbCircle
 10
127.5942225596806
 20
160.3497871159985
 30
0.0
 40
0.1450622925289588
100
AcDbArc
 50
82.57970078354313
 51
157.4341870372611
  0
ARC
  5
7D7
102
{ACAD_REACTORS
330
7BA
102
}
330
18
100
AcDbEntity
  8
ROGO
 62
     4
100
AcDbCircle
 10
127.5750567138494
 20
160.2989198470524
 30
0.0
 40
0.1339590555162817
100
AcDbArc
 50
188.5583509056651
 51
266.5736774635929
  0
ARC
  5
7D8
102
{ACAD_REACTORS
330
7BA
102
}
330
18
100
AcDbEntity
  8
ROGO
 62
     4
100
AcDbCircle
 10
127.6440004591363
 20
160.2793242146843
 30
0.0
 40
0.1242394261560032
100
AcDbArc
 50
256.5902863289752
 51
337.7287536965499
  0
LINE
  5
7D9
330
18
100
AcDbEntity
  8
ROGO
 62
     4
100
AcDbLine
 10
127.3211944742761
 20
161.0305567977886
 30
0.0
 11
127.6976283317695
 21
161.0305567977886
 31
0.0
  0
LINE
  5
7DA
102
{ACAD_REACTORS
330
7BA
102
}
330
18
100
AcDbEntity
  8
ROGO
 62
     4
100
AcDbLine
 10
127.3211944742759
 20
161.0305567977886
 30
0.0
 11
127.8583149412041
 21
161.0305567977886
 31
0.0
  0
SPLINE
  5
7DB
102
{ACAD_REACTORS
330
796
102
}
330
18
100
AcDbEntity
  8
ROGO
 62
     4
100
AcDbSpline
210
0.0
220
0.0
230
1.0
 70
     8
 71
     3
 72
    16
 73
    12
 74
    10
 42
0.0000000001
 43
0.0000000001
 44
0.0000000001
 40
0.0
 40
0.0
 40
0.0
 40
0.0
 40
0.1270410986269683
 40
0.1890915137936781
 40
0.2196905316669079
 40
0.251936913656749
 40
0.2981136404427318
 40
0.340159849992994
 40
0.3840130669856762
 40
0.4575361540114371
 40
0.5303086456501593
 40
0.5303086456501593
 40
0.5303086456501593
 40
0.5303086456501593
 10
129.8501752148832
 20
160.5363393905385
 30
0.0
 10
129.8071533373767
 20
160.5297804150719
 30
0.0
 10
129.743118375212
 20
160.5200178530876
 30
0.0
 10
129.6852115158663
 20
160.4741794203285
 30
0.0
 10
129.6525560677574
 20
160.4469086040054
 30
0.0
 10
129.6414465388263
 20
160.4107943019788
 30
0.0
 10
129.6116098328463
 20
160.3830640618108
 30
0.0
 10
129.5870159002665
 20
160.3449537857197
 30
0.0
 10
129.5811434266601
 20
160.2926087042156
 30
0.0
 10
129.5854539567385
 20
160.2191503597547
 30
0.0
 10
129.636958687784
 20
160.2039969126861
 30
0.0
 10
129.6625789262327
 20
160.1964590628744
 30
0.0
 11
129.8501752148832
 21
160.5363393905385
 31
0.0
 11
129.7275162786037
 21
160.5032603021122
 31
0.0
 11
129.6770096333773
 21
160.4672140428007
 31
0.0
 11
129.6553639875504
 21
160.4455861461961
 31
0.0
 11
129.6409332804057
 21
160.4167489507233
 31
0.0
 11
129.6120722810064
 21
160.3807026914119
 31
0.0
 11
129.5904266351793
 21
160.3446561970709
 31
0.0
 11
129.583211281607
 21
160.3014006388913
 31
0.0
 11
129.5976419887517
 21
160.2293076502093
 31
0.0
 11
129.6625789262327
 21
160.1964590628744
 31
0.0
  0
LINE
  5
7DC
102
{ACAD_REACTORS
330
796
102
}
330
18
100
AcDbEntity
  8
ROGO
 62
     4
100
AcDbLine
 10
129.6625789262327
 20
160.1964590628744
 30
0.0
 11
130.5119570825047
 21
160.1964590628744
 31
0.0
  0
LINE
  5
7DD
102
{ACAD_REACTORS
330
796
102
}
330
18
100
AcDbEntity
  8
ROGO
 62
     4
100
AcDbLine
 10
129.8501752148832
 20
160.5363393905386
 30
0.0
 11
130.6814323909907
 21
160.5363393905386
 31
0.0
  0
LINE
  5
7DE
102
{ACAD_REACTORS
330
795
102
}
330
18
100
AcDbEntity
  8
ROGO
 62
     4
100
AcDbLine
 10
131.7235261142286
 20
159.9927692475787
 30
0.0
 11
132.241000504181
 21
158.9549816973689
 31
0.0
  0
LINE
  5
7DF
102
{ACAD_REACTORS
330
795
102
}
330
18
100
AcDbEntity
  8
ROGO
 62
     4
100
AcDbLine
 10
131.206068457823
 20
159.4967302657564
 30
0.0
 11
131.476201790871
 21
158.9549816973689
 31
0.0
  0
LINE
  5
7E0
102
{ACAD_REACTORS
330
795
102
}
330
18
100
AcDbEntity
  8
ROGO
 62
     4
100
AcDbLine
 10
131.2060684578231
 20
159.4967302657564
 30
0.0
 11
130.9359351247751
 21
158.9549816973689
 31
0.0
  0
LINE
  5
7E1
102
{ACAD_REACTORS
330
795
102
}
330
18
100
AcDbEntity
  8
ROGO
 62
     4
100
AcDbLine
 10
131.476201790871
 20
158.9549816973689
 30
0.0
 11
132.241000504181
 21
158.9549816973689
 31
0.0
  0
LINE
  5
7E2
102
{ACAD_REACTORS
330
795
102
}
330
18
100
AcDbEntity
  8
ROGO
 62
     4
100
AcDbLine
 10
131.7235261142286
 20
159.9927692475787
 30
0.0
 11
132.9807887083353
 21
161.0305567977886
 31
0.0
  0
LINE
  5
7E3
102
{ACAD_REACTORS
330
795
102
}
330
18
100
AcDbEntity
  8
ROGO
 62
     4
100
AcDbLine
 10
132.2159899950253
 20
161.0305567977886
 30
0.0
 11
132.9807887083353
 21
161.0305567977886
 31
0.0
  0
LINE
  5
7E4
102
{ACAD_REACTORS
330
795
102
}
330
18
100
AcDbEntity
  8
ROGO
 62
     4
100
AcDbLine
 10
131.206068457823
 20
161.0305567977886
 30
0.0
 11
131.9708839046798
 21
161.0305567977886
 31
0.0
  0
LINE
  5
7E5
102
{ACAD_REACTORS
330
795
102
}
330
18
100
AcDbEntity
  8
ROGO
 62
     4
100
AcDbLine
 10
131.9708839046798
 20
161.0305567977886
 30
0.0
 11
131.8578885584949
 21
160.8039462335186
 31
0.0
  0
LINE
  5
7E6
102
{ACAD_REACTORS
330
795
102
}
330
18
100
AcDbEntity
  8
ROGO
 62
     4
100
AcDbLine
 10
131.8578885584949
 20
160.8039462335186
 30
0.0
 11
132.2159899950253
 21
161.0305567977886
 31
0.0
  0
LINE
  5
7E7
102
{ACAD_REACTORS
330
7EA
102
}
330
18
100
AcDbEntity
  8
外形線
100
AcDbLine
 10
136.6818404783509
 20
173.205760974988
 30
0.0
 11
135.6818404783509
 21
173.205760974988
 31
0.0
  0
LINE
  5
7E8
102
{ACAD_REACTORS
330
7EA
102
}
330
18
100
AcDbEntity
  8
外形線
100
AcDbLine
 10
136.6818404783509
 20
173.0265943083213
 30
0.0
 11
135.6818404783509
 21
173.0265943083214
 31
0.0
  0
TEXT
  5
7E9
330
18
100
AcDbEntity
  8
文字
100
AcDbText
 10
130.9115868611372
 20
170.6298874072422
 30
0.0
 40
1.0
  1
0.01mm
  7
STYLE3
100
AcDbText
  0
HATCH
  5
7EA
330
18
100
AcDbEntity
  8
外形線
100
AcDbHatch
 10
0.0
 20
0.0
 30
0.0
210
0.0
220
0.0
230
1.0
  2
SOLID
 70
     1
 71
     1
 91
        2
 92
        1
 93
        7
 72
     1
 10
134.5151738116842
 20
173.1161776416547
 11
135.6818404783509
 21
172.6915457016775
 72
     1
 10
135.6818404783509
 20
172.6915457016775
 11
135.6818404783509
 21
173.0265943083214
 72
     1
 10
135.6818404783509
 20
173.0265943083214
 11
136.6818404783509
 21
173.0265943083213
 72
     1
 10
136.6818404783509
 20
173.0265943083213
 11
136.6818404783509
 21
173.205760974988
 72
     1
 10
136.6818404783509
 20
173.205760974988
 11
135.6818404783509
 21
173.205760974988
 72
     1
 10
135.6818404783509
 20
173.205760974988
 11
135.6818404783509
 21
173.5408095816319
 72
     1
 10
135.6818404783509
 20
173.5408095816319
 11
134.5151738116842
 21
173.1161776416547
 97
        7
330
7F3
330
7F6
330
7E8
330
80F
330
7E7
330
7F2
330
7F9
 92
        1
 93
        4
 72
     1
 10
134.5151738116842
 20
173.8661776416547
 11
134.5151738116842
 21
172.3661776416547
 72
     1
 10
134.5151738116842
 20
172.3661776416547
 11
134.3485071450175
 21
172.3661776416547
 72
     1
 10
134.3485071450175
 20
172.3661776416547
 11
134.3485071450175
 21
173.8661776416547
 72
     1
 10
134.3485071450175
 20
173.8661776416547
 11
134.5151738116842
 21
173.8661776416547
 97
        4
330
7F8
330
805
330
7F7
330
7EF
 75
     0
 76
     1
 98
        1
 10
42.1856171052039
 20
104.4540268344737
450
        0
451
        0
460
0.0
461
0.0
452
        0
462
0.0
453
        0
470

  0
LINE
  5
7EB
102
{ACAD_REACTORS
330
7ED
102
}
330
18
100
AcDbEntity
  8
外形線
100
AcDbLine
 10
131.1818404783509
 20
173.205760974988
 30
0.0
 11
132.1818404783509
 21
173.205760974988
 31
0.0
  0
LINE
  5
7EC
102
{ACAD_REACTORS
330
7ED
102
}
330
18
100
AcDbEntity
  8
外形線
100
AcDbLine
 10
131.1818404783509
 20
173.0265943083213
 30
0.0
 11
132.1818404783509
 21
173.0265943083214
 31
0.0
  0
HATCH
  5
7ED
330
18
100
AcDbEntity
  8
外形線
100
AcDbHatch
 10
0.0
 20
0.0
 30
0.0
210
0.0
220
0.0
230
1.0
  2
SOLID
 70
     1
 71
     1
 91
        2
 92
        1
 93
        7
 72
     1
 10
133.3485071450176
 20
173.1161776416547
 11
132.1818404783509
 21
172.6915457016775
 72
     1
 10
132.1818404783509
 20
172.6915457016775
 11
132.1818404783509
 21
173.0265943083214
 72
     1
 10
132.1818404783509
 20
173.0265943083214
 11
131.1818404783509
 21
173.0265943083213
 72
     1
 10
131.1818404783509
 20
173.0265943083213
 11
131.1818404783509
 21
173.205760974988
 72
     1
 10
131.1818404783509
 20
173.205760974988
 11
132.1818404783509
 21
173.205760974988
 72
     1
 10
132.1818404783509
 20
173.205760974988
 11
132.1818404783509
 21
173.5408095816319
 72
     1
 10
132.1818404783509
 20
173.5408095816319
 11
133.3485071450176
 21
173.1161776416547
 97
        7
330
801
330
7FE
330
7EC
330
7EE
330
7EB
330
7FB
330
802
 92
        1
 93
        4
 72
     1
 10
133.3485071450176
 20
173.8661776416547
 11
133.3485071450176
 21
172.3661776416547
 72
     1
 10
133.3485071450176
 20
172.3661776416547
 11
133.5151738116842
 21
172.3661776416547
 72
     1
 10
133.5151738116842
 20
172.3661776416547
 11
133.5151738116842
 21
173.8661776416547
 72
     1
 10
133.5151738116842
 20
173.8661776416547
 11
133.3485071450176
 21
173.8661776416547
 97
        4
330
803
330
80E
330
804
330
7FA
 75
     0
 76
     1
 98
        1
 10
225.678063851498
 20
104.4540268344737
450
        0
451
        0
460
0.0
461
0.0
452
        0
462
0.0
453
        0
470

  0
LINE
  5
7EE
102
{ACAD_REACTORS
330
7ED
102
}
330
18
100
AcDbEntity
  8
外形線
100
AcDbLine
 10
131.1818404783509
 20
173.205760974988
 30
0.0
 11
131.1818404783509
 21
173.0265943083213
 31
0.0
  0
LINE
  5
7EF
102
{ACAD_REACTORS
330
7EA
102
}
330
18
100
AcDbEntity
  8
外形線
100
AcDbLine
 10
134.3485071450175
 20
173.8661776416547
 30
0.0
 11
134.5151738116842
 21
173.8661776416547
 31
0.0
  0
POINT
  5
7F0
330
18
100
AcDbEntity
  8
DEFPOINTS
  6
ByBlock
 62
     0
100
AcDbPoint
 10
135.6818404783509
 20
173.5408095816319
 30
0.0
  0
POINT
  5
7F1
330
18
100
AcDbEntity
  8
DEFPOINTS
  6
ByBlock
 62
     0
100
AcDbPoint
 10
135.6818404783509
 20
173.5408095816319
 30
0.0
  0
LINE
  5
7F2
102
{ACAD_REACTORS
330
7EA
102
}
330
18
100
AcDbEntity
  8
外形線
100
AcDbLine
 10
135.6818404783509
 20
173.5408095816319
 30
0.0
 11
135.6818404783509
 21
173.205760974988
 31
0.0
  0
LINE
  5
7F3
102
{ACAD_REACTORS
330
7EA
102
}
330
18
100
AcDbEntity
  8
外形線
100
AcDbLine
 10
134.5151738116842
 20
173.1161776416547
 30
0.0
 11
135.6818404783509
 21
172.6915457016775
 31
0.0
  0
POINT
  5
7F4
330
18
100
AcDbEntity
  8
DEFPOINTS
  6
ByBlock
 62
     0
100
AcDbPoint
 10
135.6818404783509
 20
172.6915457016775
 30
0.0
  0
POINT
  5
7F5
330
18
100
AcDbEntity
  8
DEFPOINTS
  6
ByBlock
 62
     0
100
AcDbPoint
 10
135.6818404783509
 20
172.6915457016775
 30
0.0
  0
LINE
  5
7F6
102
{ACAD_REACTORS
330
7EA
102
}
330
18
100
AcDbEntity
  8
外形線
100
AcDbLine
 10
135.6818404783509
 20
173.0265943083214
 30
0.0
 11
135.6818404783509
 21
172.6915457016775
 31
0.0
  0
LINE
  5
7F7
102
{ACAD_REACTORS
330
7EA
102
}
330
18
100
AcDbEntity
  8
外形線
100
AcDbLine
 10
134.3485071450175
 20
173.8661776416547
 30
0.0
 11
134.3485071450175
 21
172.3661776416547
 31
0.0
  0
LINE
  5
7F8
102
{ACAD_REACTORS
330
7EA
102
}
330
18
100
AcDbEntity
  8
外形線
100
AcDbLine
 10
134.5151738116842
 20
173.8661776416547
 30
0.0
 11
134.5151738116842
 21
172.3661776416547
 31
0.0
  0
LINE
  5
7F9
102
{ACAD_REACTORS
330
7EA
102
}
330
18
100
AcDbEntity
  8
外形線
100
AcDbLine
 10
134.5151738116842
 20
173.1161776416547
 30
0.0
 11
135.6818404783509
 21
173.5408095816319
 31
0.0
  0
LINE
  5
7FA
102
{ACAD_REACTORS
330
7ED
102
}
330
18
100
AcDbEntity
  8
外形線
100
AcDbLine
 10
133.5151738116842
 20
173.8661776416547
 30
0.0
 11
133.3485071450176
 21
173.8661776416547
 31
0.0
  0
LINE
  5
7FB
102
{ACAD_REACTORS
330
7ED
102
}
330
18
100
AcDbEntity
  8
外形線
100
AcDbLine
 10
132.1818404783509
 20
173.5408095816319
 30
0.0
 11
132.1818404783509
 21
173.205760974988
 31
0.0
  0
POINT
  5
7FC
330
18
100
AcDbEntity
  8
DEFPOINTS
  6
ByBlock
 62
     0
100
AcDbPoint
 10
132.1818404783509
 20
173.5408095816319
 30
0.0
  0
POINT
  5
7FD
330
18
100
AcDbEntity
  8
DEFPOINTS
  6
ByBlock
 62
     0
100
AcDbPoint
 10
132.1818404783509
 20
173.5408095816319
 30
0.0
  0
LINE
  5
7FE
102
{ACAD_REACTORS
330
7ED
102
}
330
18
100
AcDbEntity
  8
外形線
100
AcDbLine
 10
132.1818404783509
 20
173.0265943083214
 30
0.0
 11
132.1818404783509
 21
172.6915457016775
 31
0.0
  0
POINT
  5
7FF
330
18
100
AcDbEntity
  8
DEFPOINTS
  6
ByBlock
 62
     0
100
AcDbPoint
 10
132.1818404783509
 20
172.6915457016775
 30
0.0
  0
POINT
  5
800
330
18
100
AcDbEntity
  8
DEFPOINTS
  6
ByBlock
 62
     0
100
AcDbPoint
 10
132.1818404783509
 20
172.6915457016775
 30
0.0
  0
LINE
  5
801
102
{ACAD_REACTORS
330
7ED
102
}
330
18
100
AcDbEntity
  8
外形線
100
AcDbLine
 10
133.3485071450176
 20
173.1161776416547
 30
0.0
 11
132.1818404783509
 21
172.6915457016775
 31
0.0
  0
LINE
  5
802
102
{ACAD_REACTORS
330
7ED
102
}
330
18
100
AcDbEntity
  8
外形線
100
AcDbLine
 10
133.3485071450176
 20
173.1161776416547
 30
0.0
 11
132.1818404783509
 21
173.5408095816319
 31
0.0
  0
LINE
  5
803
102
{ACAD_REACTORS
330
7ED
102
}
330
18
100
AcDbEntity
  8
外形線
100
AcDbLine
 10
133.3485071450176
 20
173.8661776416547
 30
0.0
 11
133.3485071450176
 21
172.3661776416547
 31
0.0
  0
LINE
  5
804
102
{ACAD_REACTORS
330
7ED
102
}
330
18
100
AcDbEntity
  8
外形線
100
AcDbLine
 10
133.5151738116842
 20
173.8661776416547
 30
0.0
 11
133.5151738116842
 21
172.3661776416547
 31
0.0
  0
LINE
  5
805
102
{ACAD_REACTORS
330
7EA
102
}
330
18
100
AcDbEntity
  8
外形線
100
AcDbLine
 10
134.3485071450175
 20
172.3661776416547
 30
0.0
 11
134.5151738116842
 21
172.3661776416547
 31
0.0
  0
POINT
  5
806
330
18
100
AcDbEntity
  8
DEFPOINTS
  6
ByBlock
 62
     0
100
AcDbPoint
 10
134.5151738116842
 20
172.3661776416547
 30
0.0
  0
POINT
  5
807
330
18
100
AcDbEntity
  8
DEFPOINTS
  6
ByBlock
 62
     0
100
AcDbPoint
 10
134.3485071450175
 20
172.3661776416547
 30
0.0
  0
POINT
  5
808
330
18
100
AcDbEntity
  8
DEFPOINTS
  6
ByBlock
 62
     0
100
AcDbPoint
 10
134.5151738116842
 20
172.3661776416547
 30
0.0
  0
POINT
  5
809
330
18
100
AcDbEntity
  8
DEFPOINTS
  6
ByBlock
 62
     0
100
AcDbPoint
 10
134.3485071450175
 20
172.3661776416547
 30
0.0
  0
POINT
  5
80A
330
18
100
AcDbEntity
  8
DEFPOINTS
  6
ByBlock
 62
     0
100
AcDbPoint
 10
133.5151738116842
 20
172.3661776416547
 30
0.0
  0
POINT
  5
80B
330
18
100
AcDbEntity
  8
DEFPOINTS
  6
ByBlock
 62
     0
100
AcDbPoint
 10
133.3485071450176
 20
172.3661776416547
 30
0.0
  0
POINT
  5
80C
330
18
100
AcDbEntity
  8
DEFPOINTS
  6
ByBlock
 62
     0
100
AcDbPoint
 10
133.5151738116842
 20
172.3661776416547
 30
0.0
  0
POINT
  5
80D
330
18
100
AcDbEntity
  8
DEFPOINTS
  6
ByBlock
 62
     0
100
AcDbPoint
 10
133.3485071450176
 20
172.3661776416547
 30
0.0
  0
LINE
  5
80E
102
{ACAD_REACTORS
330
7ED
102
}
330
18
100
AcDbEntity
  8
外形線
100
AcDbLine
 10
133.5151738116842
 20
172.3661776416547
 30
0.0
 11
133.3485071450176
 21
172.3661776416547
 31
0.0
  0
LINE
  5
80F
102
{ACAD_REACTORS
330
7EA
102
}
330
18
100
AcDbEntity
  8
外形線
100
AcDbLine
 10
136.6818404783509
 20
173.205760974988
 30
0.0
 11
136.6818404783509
 21
173.0265943083213
 31
0.0
  0
HATCH
  5
810
330
18
100
AcDbEntity
  8
針
100
AcDbHatch
 10
0.0
 20
0.0
 30
0.0
210
0.0
220
0.0
230
1.0
  2
SOLID
 70
     1
 71
     1
 91
        2
 92
        7
 72
     1
 73
     1
 93
        2
 10
119.3130515408834
 20
179.0261776416548
 42
1.0
 10
117.0130515408833
 20
179.0261776416548
 42
1.0
 97
        1
330
811
 92
       22
 72
     1
 73
     1
 93
        2
 10
118.9130515408834
 20
179.0261776416548
 42
-1.0
 10
117.4130515408833
 20
179.0261776416548
 42
-1.0
 97
        1
330
812
 75
     0
 76
     1
 47
0.0137798887488762
 98
        3
 10
118.8229897523468
 20
179.7782905426099
 10
118.8229897523468
 20
179.7782905426099
 10
118.8229897523468
 20
179.7782905426099
450
        0
451
        0
460
0.0
461
0.0
452
        0
462
0.0
453
        0
470

  0
CIRCLE
  5
811
102
{ACAD_REACTORS
330
810
102
}
330
18
100
AcDbEntity
  8
針
100
AcDbCircle
 10
118.1630515408834
 20
179.0261776416548
 30
0.0
 40
1.149999999999999
  0
CIRCLE
  5
812
102
{ACAD_REACTORS
330
810
102
}
330
18
100
AcDbEntity
  8
針
100
AcDbCircle
 10
118.1630515408834
 20
179.0261776416548
 30
0.0
 40
0.75
  0
CIRCLE
  5
813
330
18
100
AcDbEntity
  8
外形線
100
AcDbCircle
 10
118.1630515408834
 20
179.0261776416548
 30
0.0
 40
0.5
  0
HATCH
  5
814
330
18
100
AcDbEntity
  8
針
100
AcDbHatch
 10
0.0
 20
0.0
 30
0.0
210
0.0
220
0.0
230
1.0
  2
SOLID
 70
     1
 71
     0
 91
        1
 92
        7
 72
     1
 73
     1
 93
        6
 10
118.3970610964844
 20
185.4226797739055
 42
0.0
 10
118.1971049597887
 20
185.4268682578822
 42
0.0
 10
118.057390746699
 20
180.8399232875046
 42
-0.2554624148390825
 10
117.5718995296785
 20
180.0126051856983
 42
-0.2880080981270472
 10
118.7949923096003
 20
179.9869850442246
 42
-0.2554624148391882
 10
118.3445714372176
 20
180.8339077095861
 42
0.0
 97
        0
 75
     0
 76
     1
 47
0.0137798887488762
 98
        1
 10
118.1925350132619
 20
181.8910592611391
450
        0
451
        0
460
0.0
461
0.0
452
        0
462
0.0
453
        0
470

  0
LINE
  5
815
330
18
100
AcDbEntity
  8
針
100
AcDbLine
 10
118.1971049597886
 20
185.4268682578821
 30
0.0
 11
118.3970610964843
 21
185.4226797739055
 31
0.0
  0
LINE
  5
816
330
18
100
AcDbEntity
  8
針
100
AcDbLine
 10
118.057390746699
 20
180.8399232875046
 30
0.0
 11
118.1971049597886
 21
185.4268682578821
 31
0.0
  0
ARC
  5
817
330
18
100
AcDbEntity
  8
針
100
AcDbCircle
 10
117.0578543025437
 20
180.8703682674752
 30
0.0
 40
1.0
100
AcDbArc
 50
300.9336579706785
 51
358.2553615528732
  0
ARC
  5
818
330
18
100
AcDbEntity
  8
針
100
AcDbCircle
 10
119.344506021528
 20
180.8224697421113
 30
0.0
 40
1.0
100
AcDbArc
 50
179.3446384471343
 51
236.6663420293291
  0
LINE
  5
819
330
18
100
AcDbEntity
  8
針
100
AcDbLine
 10
118.3445714372176
 20
180.8339077095857
 30
0.0
 11
118.3970610964843
 21
185.4226797739055
 31
0.0
  0
POINT
  5
820
330
18
100
AcDbEntity
  8
DEFPOINTS
  6
ByBlock
 62
     0
100
AcDbPoint
 10
256.2483621796439
 20
207.9161776416548
 30
0.0
  0
POINT
  5
821
330
18
100
AcDbEntity
  8
DEFPOINTS
  6
ByBlock
 62
     0
100
AcDbPoint
 10
256.2483621796439
 20
135.4161776416548
 30
0.0
  0
LINE
  5
824
330
18
100
AcDbEntity
  8
0
  6
ByBlock
 62
     2
100
AcDbLine
 10
235.9483621796439
 20
133.9661776416548
 30
0.0
 11
216.6835110423301
 21
133.9661776416548
 31
0.0
  0
POINT
  5
829
330
18
100
AcDbEntity
  8
DEFPOINTS
  6
ByBlock
 62
     0
100
AcDbPoint
 10
235.9483621796439
 20
209.3661776416548
 30
0.0
  0
POINT
  5
82A
330
18
100
AcDbEntity
  8
DEFPOINTS
  6
ByBlock
 62
     0
100
AcDbPoint
 10
235.9483621796439
 20
133.9661776416548
 30
0.0
  0
LINE
  5
832
330
18
100
AcDbEntity
  8
0
  6
ByBlock
 62
     2
100
AcDbLine
 10
248.2483621796439
 20
69.66617764165483
 30
0.0
 11
225.1350104261346
 21
69.66617764165483
 31
0.0
  0
LINE
  5
833
330
18
100
AcDbEntity
  8
0
  6
ByBlock
 62
     2
100
AcDbLine
 10
245.7483621796439
 20
78.66617764165482
 30
0.0
 11
225.1350104261346
 21
78.66617764165482
 31
0.0
  0
LINE
  5
834
330
18
100
AcDbEntity
  8
0
  6
ByBlock
 62
     2
100
AcDbLine
 10
226.3850104261346
 20
72.16617764165483
 30
0.0
 11
226.3850104261346
 21
76.16617764165482
 31
0.0
  0
INSERT
  5
835
330
18
100
AcDbEntity
  8
0
  6
ByBlock
 62
     2
100
AcDbBlockReference
  2
_OPEN
 10
226.3850104261346
 20
69.66617764165483
 30
0.0
 41
2.5
 42
2.5
 43
2.5
 50
270.0
  0
INSERT
  5
836
330
18
100
AcDbEntity
  8
0
  6
ByBlock
 62
     2
100
AcDbBlockReference
  2
_OPEN
 10
226.3850104261346
 20
78.66617764165482
 30
0.0
 41
2.5
 42
2.5
 43
2.5
 50
90.0
  0
MTEXT
  5
837
330
18
100
AcDbEntity
  8
0
  6
ByBlock
 62
     6
100
AcDbMText
 10
224.5100104261346
 20
74.16617764165483
 30
0.0
 40
2.5
 41
0.0
 71
     5
 72
     1
  1
\A1;9
  7
STYLE3
 11
0.0000000000000001
 21
1.0
 31
0.0
 73
     1
 44
1.0
  0
POINT
  5
838
330
18
100
AcDbEntity
  8
DEFPOINTS
  6
ByBlock
 62
     0
100
AcDbPoint
 10
248.2483621796439
 20
69.66617764165483
 30
0.0
  0
POINT
  5
839
330
18
100
AcDbEntity
  8
DEFPOINTS
  6
ByBlock
 62
     0
100
AcDbPoint
 10
245.7483621796439
 20
78.66617764165482
 30
0.0
  0
POINT
  5
83A
330
18
100
AcDbEntity
  8
DEFPOINTS
  6
ByBlock
 62
     0
100
AcDbPoint
 10
226.3850104261346
 20
78.66617764165482
 30
0.0
  0
LINE
  5
83B
330
18
100
AcDbEntity
  8
ﾊｯﾁﾝｸ
100
AcDbLine
 10
245.7483621796439
 20
78.05904874617519
 30
0.0
 11
246.1554910751235
 21
78.46617764165483
 31
0.0
  0
LINE
  5
83C
330
18
100
AcDbEntity
  8
ﾊｯﾁﾝｸ
100
AcDbLine
 10
245.7483621796439
 20
76.71201032801481
 30
0.0
 11
247.5025294932839
 21
78.46617764165479
 31
0.0
  0
LINE
  5
83D
330
18
100
AcDbEntity
  8
ﾊｯﾁﾝｸ
100
AcDbLine
 10
245.7495679114443
 20
75.36617764165483
 30
0.0
 11
248.2483621796439
 21
77.8649719098545
 31
0.0
  0
LINE
  5
83E
330
18
100
AcDbEntity
  8
ﾊｯﾁﾝｸ
100
AcDbLine
 10
247.0966063296046
 20
75.3661776416548
 30
0.0
 11
248.2483621796439
 21
76.51793349169411
 31
0.0
  0
LINE
  5
83F
330
18
100
AcDbEntity
  8
ﾊｯﾁﾝｸ
100
AcDbLine
 10
245.8424101038293
 20
75.36617764165481
 30
0.0
 11
245.7483621796439
 21
75.46022556584023
 31
0.0
  0
LINE
  5
840
330
18
100
AcDbEntity
  8
ﾊｯﾁﾝｸ
100
AcDbLine
 10
247.1894485219897
 20
75.3661776416548
 30
0.0
 11
245.7483621796439
 21
76.80726398400061
 31
0.0
  0
LINE
  5
841
330
18
100
AcDbEntity
  8
ﾊｯﾁﾝｸ
100
AcDbLine
 10
248.2483621796439
 20
75.65430240216099
 30
0.0
 11
245.7483621796439
 21
78.15430240216098
 31
0.0
  0
LINE
  5
842
330
18
100
AcDbEntity
  8
ﾊｯﾁﾝｸ
100
AcDbLine
 10
248.2483621796439
 20
77.00134082032135
 30
0.0
 11
246.7835253583104
 21
78.46617764165481
 31
0.0
  0
LINE
  5
843
330
18
100
AcDbEntity
  8
ﾊｯﾁﾝｸ
100
AcDbLine
 10
248.2483621796439
 20
78.34837923848167
 30
0.0
 11
248.1305637764708
 21
78.46617764165478
 31
0.0
  0
LINE
  5
844
330
18
100
AcDbEntity
  8
0
  6
ByBlock
 62
     2
100
AcDbLine
 10
229.5113938912391
 20
133.9661776416548
 30
0.0
 11
225.1350104261346
 21
133.9661776416548
 31
0.0
  0
LINE
  5
845
330
18
100
AcDbEntity
  8
0
  6
ByBlock
 62
     2
100
AcDbLine
 10
244.2483621796439
 20
116.6161776416548
 30
0.0
 11
225.1350104261346
 21
116.6161776416548
 31
0.0
  0
LINE
  5
846
330
18
100
AcDbEntity
  8
0
  6
ByBlock
 62
     2
100
AcDbLine
 10
226.3850104261346
 20
131.4661776416548
 30
0.0
 11
226.3850104261346
 21
119.1161776416548
 31
0.0
  0
INSERT
  5
847
330
18
100
AcDbEntity
  8
0
  6
ByBlock
 62
     2
100
AcDbBlockReference
  2
_OPEN
 10
226.3850104261346
 20
133.9661776416548
 30
0.0
 41
2.5
 42
2.5
 43
2.5
 50
90.0
  0
INSERT
  5
848
330
18
100
AcDbEntity
  8
0
  6
ByBlock
 62
     2
100
AcDbBlockReference
  2
_OPEN
 10
226.3850104261346
 20
116.6161776416548
 30
0.0
 41
2.5
 42
2.5
 43
2.5
 50
270.0
  0
MTEXT
  5
849
330
18
100
AcDbEntity
  8
0
  6
ByBlock
 62
     6
100
AcDbMText
 10
224.5100104261346
 20
125.2911776416548
 30
0.0
 40
2.5
 41
0.0
 71
     5
 72
     1
  1
\A1;17.3
  7
STYLE3
 11
0.0000000000000001
 21
1.0
 31
0.0
 73
     1
 44
1.0
  0
POINT
  5
84A
330
18
100
AcDbEntity
  8
DEFPOINTS
  6
ByBlock
 62
     0
100
AcDbPoint
 10
229.5113938912391
 20
133.9661776416548
 30
0.0
  0
POINT
  5
84B
330
18
100
AcDbEntity
  8
DEFPOINTS
  6
ByBlock
 62
     0
100
AcDbPoint
 10
244.2483621796439
 20
116.6161776416548
 30
0.0
  0
POINT
  5
84C
330
18
100
AcDbEntity
  8
DEFPOINTS
  6
ByBlock
 62
     0
100
AcDbPoint
 10
226.3850104261346
 20
116.6161776416548
 30
0.0
  0
LINE
  5
84D
330
18
100
AcDbEntity
  8
0
  6
ByBlock
 62
     2
100
AcDbLine
 10
244.5483621796439
 20
111.1161776416548
 30
0.0
 11
216.6835110423301
 21
111.1161776416548
 31
0.0
  0
LINE
  5
84E
330
18
100
AcDbEntity
  8
0
  6
ByBlock
 62
     2
100
AcDbLine
 10
217.9335110423301
 20
131.4661776416548
 30
0.0
 11
217.9335110423301
 21
113.6161776416548
 31
0.0
  0
INSERT
  5
84F
330
18
100
AcDbEntity
  8
0
  6
ByBlock
 62
     2
100
AcDbBlockReference
  2
_OPEN
 10
217.9335110423301
 20
133.9661776416548
 30
0.0
 41
2.5
 42
2.5
 43
2.5
 50
90.0
  0
INSERT
  5
850
330
18
100
AcDbEntity
  8
0
  6
ByBlock
 62
     2
100
AcDbBlockReference
  2
_OPEN
 10
217.9335110423301
 20
111.1161776416548
 30
0.0
 41
2.5
 42
2.5
 43
2.5
 50
270.0
  0
MTEXT
  5
851
330
18
100
AcDbEntity
  8
0
  6
ByBlock
 62
     6
100
AcDbMText
 10
216.0585110423301
 20
122.5411776416548
 30
0.0
 40
2.5
 41
0.0
 71
     5
 72
     1
  1
\A1;22.8
  7
STYLE3
 11
0.0000000000000001
 21
1.0
 31
0.0
 73
     1
 44
1.0
  0
POINT
  5
852
330
18
100
AcDbEntity
  8
DEFPOINTS
  6
ByBlock
 62
     0
100
AcDbPoint
 10
235.9483621796439
 20
133.9661776416548
 30
0.0
  0
POINT
  5
853
330
18
100
AcDbEntity
  8
DEFPOINTS
  6
ByBlock
 62
     0
100
AcDbPoint
 10
244.5483621796439
 20
111.1161776416548
 30
0.0
  0
POINT
  5
854
330
18
100
AcDbEntity
  8
DEFPOINTS
  6
ByBlock
 62
     0
100
AcDbPoint
 10
217.9335110423301
 20
111.1161776416548
 30
0.0
  0
LINE
  5
859
330
18
100
AcDbEntity
  8
0
  6
ByBlock
 62
     2
100
AcDbLine
 10
277.2483621796439
 20
171.6661776416548
 30
0.0
 11
277.2483621796439
 21
229.6712898378198
 31
0.0
  0
POINT
  5
85E
330
18
100
AcDbEntity
  8
DEFPOINTS
  6
ByBlock
 62
     0
100
AcDbPoint
 10
248.2483621796439
 20
217.6661776416548
 30
0.0
  0
POINT
  5
85F
330
18
100
AcDbEntity
  8
DEFPOINTS
  6
ByBlock
 62
     0
100
AcDbPoint
 10
277.2483621796439
 20
171.6661776416548
 30
0.0
  0
LINE
  5
861
330
18
100
AcDbEntity
  8
0
  6
ByBlock
 62
     2
100
AcDbLine
 10
230.7483621796439
 20
171.6661776416548
 30
0.0
 11
230.7483621796439
 21
229.6712898378198
 31
0.0
  0
POINT
  5
867
330
18
100
AcDbEntity
  8
DEFPOINTS
  6
ByBlock
 62
     0
100
AcDbPoint
 10
230.7483621796439
 20
171.6661776416548
 30
0.0
  0
POINT
  5
868
330
18
100
AcDbEntity
  8
DEFPOINTS
  6
ByBlock
 62
     0
100
AcDbPoint
 10
248.2483621796439
 20
217.6661776416548
 30
0.0
  0
LINE
  5
86A
330
18
100
AcDbEntity
  8
0
  6
ByBlock
 62
     2
100
AcDbLine
 10
259.9875381491634
 20
183.870262816987
 30
0.0
 11
259.9875381491634
 21
195.3853492324764
 31
0.0
  0
LINE
  5
86B
330
18
100
AcDbEntity
  8
0
  6
ByBlock
 62
     2
100
AcDbLine
 10
264.9875381491635
 20
180.1155751444502
 30
0.0
 11
264.9875381491635
 21
195.3853492324764
 31
0.0
  0
LINE
  5
86C
330
18
100
AcDbEntity
  8
0
  6
ByBlock
 62
     2
100
AcDbLine
 10
257.4875381491633
 20
194.1353492324765
 30
0.0
 11
254.9875381491633
 21
194.1353492324765
 31
0.0
  0
LINE
  5
86D
330
18
100
AcDbEntity
  8
0
  6
ByBlock
 62
     2
100
AcDbLine
 10
267.4875381491635
 20
194.1353492324765
 30
0.0
 11
269.9875381491635
 21
194.1353492324765
 31
0.0
  0
LINE
  5
86E
330
18
100
AcDbEntity
  8
0
  6
ByBlock
 62
     2
100
AcDbLine
 10
259.9875381491634
 20
194.1353492324765
 30
0.0
 11
264.9875381491635
 21
194.1353492324765
 31
0.0
  0
INSERT
  5
86F
330
18
100
AcDbEntity
  8
0
  6
ByBlock
 62
     2
100
AcDbBlockReference
  2
_OPEN
 10
259.9875381491634
 20
194.1353492324765
 30
0.0
 41
2.5
 42
2.5
 43
2.5
  0
INSERT
  5
870
330
18
100
AcDbEntity
  8
0
  6
ByBlock
 62
     2
100
AcDbBlockReference
  2
_OPEN
 10
264.9875381491635
 20
194.1353492324765
 30
0.0
 41
2.5
 42
2.5
 43
2.5
 50
180.0
  0
MTEXT
  5
871
330
18
100
AcDbEntity
  8
0
  6
ByBlock
 62
     6
100
AcDbMText
 10
262.4875381491634
 20
196.0103492324764
 30
0.0
 40
2.5
 41
0.0
 71
     5
 72
     1
  1
\A1;5
  7
STYLE3
 73
     1
 44
1.0
  0
POINT
  5
872
330
18
100
AcDbEntity
  8
DEFPOINTS
  6
ByBlock
 62
     0
100
AcDbPoint
 10
259.9875381491634
 20
183.870262816987
 30
0.0
  0
POINT
  5
873
330
18
100
AcDbEntity
  8
DEFPOINTS
  6
ByBlock
 62
     0
100
AcDbPoint
 10
264.9875381491635
 20
180.1155751444502
 30
0.0
  0
POINT
  5
874
330
18
100
AcDbEntity
  8
DEFPOINTS
  6
ByBlock
 62
     0
100
AcDbPoint
 10
264.9875381491635
 20
194.1353492324765
 30
0.0
  0
DIMENSION
  5
19CC
330
18
100
AcDbEntity
  8
寸法線
100
AcDbDimension
  2
*D17
 10
177.5272986165614
 20
137.6661776416548
 30
0.0
 11
175.6522986165614
 21
171.6661776416548
 31
0.0
 70
    32
 71
     5
 42
68.0
  3
φ
100
AcDbAlignedDimension
 13
124.8430515408833
 23
205.6661776416548
 33
0.0
 14
124.8430515408833
 24
137.6661776416548
 34
0.0
 50
90.0
100
AcDbRotatedDimension
  0
DIMENSION
  5
19EB
330
18
100
AcDbEntity
  8
寸法線
100
AcDbDimension
  2
*D18
 10
128.8430515408834
 20
126.503739172447
 30
0.0
 11
139.6049563027882
 21
126.503739172447
 31
0.0
 70
   160
  1
%%C<>
 71
     5
 42
8.0
  3
.0 type現尺
100
AcDbAlignedDimension
 13
120.8430515408833
 23
123.9136941487984
 33
0.0
 14
128.8430515408834
 24
124.0400375031231
 34
0.0
100
AcDbRotatedDimension
1001
ACAD
1000
DSTYLE
1002
{
1070
    76
1070
     1
1070
    75
1070
     1
1070
   146
1040
0.7
1070
   284
1070
     8
1070
   272
1070
     2
1070
   283
1070
     0
1070
    48
1040
0.03
1070
   147
1040
0.625
1070
    72
1070
     0
1070
    71
1070
     1
1002
}
  0
DIMENSION
  5
19EC
330
18
100
AcDbEntity
  8
寸法線
100
AcDbDimension
  2
*D19
 10
127.3430515408834
 20
99.71956854159238
 30
0.0
 11
136.2180515408834
 21
99.71956854159238
 31
0.0
 70
   160
  1
%%C<>
 71
     5
 42
4.999999999999985
  3
STYLE2
100
AcDbAlignedDimension
 13
122.3430515408834
 23
99.71956854159238
 33
0.0
 14
127.3430515408834
 24
102.5514659594614
 34
0.0
100
AcDbRotatedDimension
1001
ACAD
1000
DSTYLE
1002
{
1070
    76
1070
     1
1070
    75
1070
     1
1002
}
  0
DIMENSION
  5
1A4D
330
18
100
AcDbEntity
  8
寸法線
100
AcDbDimension
  2
*D20
 10
248.2483621796439
 20
222.4971486548325
 30
0.0
 11
239.4983621796439
 21
224.3721486548325
 31
0.0
 70
    32
 71
     5
 42
17.5
  3
STYLE3
100
AcDbAlignedDimension
 13
230.7483621796439
 23
171.6661776416546
 33
0.0
 14
248.2483621796439
 24
217.6661776416548
 34
0.0
100
AcDbRotatedDimension
  0
DIMENSION
  5
1A5A
330
18
100
AcDbEntity
  8
寸法線
100
AcDbDimension
  2
*D21
 10
277.2483621796439
 20
222.4971486548325
 30
0.0
 11
262.7483621796439
 21
224.3721486548325
 31
0.0
 70
    32
 71
     5
 42
29.0
  3
STYLE3
100
AcDbAlignedDimension
 13
248.2483621796439
 23
217.6661776416548
 33
0.0
 14
277.2483621796439
 24
171.6661776416548
 34
0.0
100
AcDbRotatedDimension
1001
ACAD
1000
DSTYLE
1002
{
1070
   279
1070
     1
1002
}
  0
DIMENSION
  5
1A79
330
18
100
AcDbEntity
  8
寸法線
100
AcDbDimension
  2
*D22
 10
277.2483621796439
 20
233.100438681517
 30
0.0
 11
253.9983621796439
 21
234.975438681517
 31
0.0
 70
    32
 71
     5
 42
46.5
  3
STYLE3
100
AcDbAlignedDimension
 13
230.7483621796439
 23
171.6661776416548
 33
0.0
 14
277.2483621796439
 24
171.6661776416548
 34
0.0
100
AcDbRotatedDimension
  0
DIMENSION
  5
1A8F
330
18
100
AcDbEntity
  8
寸法線
100
AcDbDimension
  2
*D23
 10
297.1958627781248
 20
135.4161776416548
 30
0.0
 11
295.3208627781247
 21
171.6661776416548
 31
0.0
 70
    32
 71
     5
 42
72.49999999999997
  3
φ
100
AcDbAlignedDimension
 13
256.2483621796439
 23
207.9161776416548
 33
0.0
 14
255.4981004806209
 24
135.4161776416548
 34
0.0
 50
90.0
100
AcDbRotatedDimension
  0
DIMENSION
  5
1AAE
330
18
100
AcDbEntity
  8
寸法線
100
AcDbDimension
  2
*D24
 10
217.9335110423301
 20
133.9661776416548
 30
0.0
 11
216.0585110423301
 21
171.6661776416549
 31
0.0
 70
    32
  1
%%c75.5
 71
     5
 42
75.39999999999998
  3
φ
100
AcDbAlignedDimension
 13
238.1983621796439
 23
209.3661776416548
 33
0.0
 14
238.1983621796439
 24
133.9661776416548
 34
0.0
 50
90.0
100
AcDbRotatedDimension
  0
ARC
  5
1AED
330
18
100
AcDbEntity
  8
外形線
100
AcDbCircle
 10
124.8430515408833
 20
70.86617764165483
 30
0.0
 40
1.199999999999999
100
AcDbArc
 50
189.59406822686
 51
350.40593177314
  0
ARC
  5
1AEE
330
18
100
AcDbEntity
  8
外形線
100
AcDbCircle
 10
248.2483621796439
 20
70.86617764165483
 30
0.0
 40
1.199999999999999
100
AcDbArc
 50
189.59406822686
 51
350.40593177314
  0
TEXT
  5
1B18
330
18
100
AcDbEntity
  8
文字
100
AcDbText
 10
124.0181308374025
 20
265.4011524211852
 30
0.0
 40
4.0
  1
Model No.307 Long Travel Dial Gauge
  7
STYLE3
100
AcDbText
  0
LINE
  5
1B19
330
18
100
AcDbEntity
  8
外形線
100
AcDbLine
 10
123.2426048374025
 20
261.6617504211852
 30
0.0
 11
235.2426048374025
 21
261.6617504211852
 31
0.0
  0
LINE
  5
1B1A
330
18
100
AcDbEntity
  8
外形線
100
AcDbLine
 10
123.2426048374025
 20
262.6617504211852
 30
0.0
 11
235.2426048374025
 21
262.6617504211852
 31
0.0
  0
LINE
  5
1B69
330
18
100
AcDbEntity
  8
外形線
100
AcDbLine
 10
236.1900938374025
 20
20.90319342118521
 30
0.0
 11
376.9815118374026
 21
20.90319342118521
 31
0.0
  0
LINE
  5
1B6A
330
18
100
AcDbEntity
  8
外形線
100
AcDbLine
 10
236.1900938374025
 20
10.12298742118521
 30
0.0
 11
376.9815118374026
 21
10.12298742118521
 31
0.0
  0
TEXT
  5
1B6B
330
18
100
AcDbEntity
  8
0
  6
Continuous
100
AcDbText
 10
237.6475608374025
 20
12.02097742118521
 30
0.0
 40
2.1
  1
Design and specifications are subject to change without notice for future improvement.
  7
STYLE3
100
AcDbText
  0
TEXT
  5
1B6C
330
18
100
AcDbEntity
  8
0
  6
Continuous
100
AcDbText
 10
237.9390548374026
 20
15.95012542118521
 30
0.0
 40
3.5
  1
仕様及び外観は予告なく変更される場合がございますのでご了承下さい。
  7
STYLE3
100
AcDbText
  0
TEXT
  5
1B6D
330
18
100
AcDbEntity
  8
0
  6
Continuous
100
AcDbText
 10
237.3560698374026
 20
2.256349421185213
 30
0.0
 40
2.1
  1
3RD Angle Projection
  7
STYLE3
100
AcDbText
  0
TEXT
  5
1B6E
330
18
100
AcDbEntity
  8
0
  6
Continuous
100
AcDbText
 10
239.9795128374026
 20
5.752632421185213
 30
0.0
 40
3.0
  1
三　　角　　法
  7
STYLE3
100
AcDbText
  0
LINE
  5
1B6F
330
18
100
AcDbEntity
  8
外形線
100
AcDbLine
 10
236.1900938374025
 20
0.5082094211852128
 30
0.0
 11
236.1900938374025
 21
20.90319342118521
 31
0.0
  0
LINE
  5
1B70
330
18
100
AcDbEntity
  8
外形線
100
AcDbLine
 10
338.2128608374026
 20
10.12298742118521
 30
0.0
 11
338.2128608374026
 21
0.5082094211852128
 31
0.0
  0
LINE
  5
1B71
330
18
100
AcDbEntity
  8
外形線
100
AcDbLine
 10
308.4805108374025
 20
10.12298742118521
 30
0.0
 11
308.4805108374025
 21
0.5082094211852128
 31
0.0
  0
LINE
  5
1B72
330
18
100
AcDbEntity
  8
外形線
100
AcDbLine
 10
288.9504388374025
 20
10.12298742118521
 30
0.0
 11
288.9504388374025
 21
0.5082094211852128
 31
0.0
  0
LINE
  5
1B73
330
18
100
AcDbEntity
  8
外形線
100
AcDbLine
 10
271.4608218374025
 20
10.12298742118521
 30
0.0
 11
271.4608218374025
 21
0.5082094211852128
 31
0.0
  0
TEXT
  5
1B74
330
18
100
AcDbEntity
  8
0
  6
Continuous
100
AcDbText
 10
272.9182908374025
 20
5.758587421185212
 30
0.0
 40
3.0
  1
単位
  7
STYLE3
100
AcDbText
  0
TEXT
  5
1B75
330
18
100
AcDbEntity
  8
0
  6
Continuous
100
AcDbText
 10
273.0900118374025
 20
2.256350421185212
 30
0.0
 40
2.1
  1
Unit
  7
STYLE3
100
AcDbText
  0
TEXT
  5
1B76
330
18
100
AcDbEntity
  8
0
  6
Continuous
100
AcDbText
 10
290.2361868374025
 20
5.467229421185212
 30
0.0
 40
3.0
  1
尺 度
  7
STYLE3
100
AcDbText
  0
TEXT
  5
1B77
330
18
100
AcDbEntity
  8
0
  6
Continuous
100
AcDbText
 10
280.9603388374025
 20
4.004493421185212
 30
0.0
 40
2.399999999999999
  1
mm
  7
STYLE3
100
AcDbText
  0
TEXT
  5
1B78
330
18
100
AcDbEntity
  8
0
  6
Continuous
100
AcDbText
 10
290.6994018374025
 20
2.547707421185212
 30
0.0
 40
2.1
  1
Scale
  7
STYLE3
100
AcDbText
  0
TEXT
  5
1B79
330
18
100
AcDbEntity
  8
0
  6
Continuous
100
AcDbText
 10
300.3186908374025
 20
4.295850421185212
 30
0.0
 40
2.399999999999999
  1
1/1
  7
STYLE3
100
AcDbText
  0
TEXT
  5
1B7A
330
18
100
AcDbEntity
  8
0
  6
Continuous
100
AcDbText
 10
310.4124618374025
 20
2.256351421185212
 30
0.0
 40
2.1
  1
Date
  7
STYLE3
100
AcDbText
  0
TEXT
  5
1B7B
330
18
100
AcDbEntity
  8
0
  6
Continuous
100
AcDbText
 10
310.0291008374025
 20
5.589434421185212
 30
0.0
 40
3.0
  1
日 付
  7
STYLE3
100
AcDbText
  0
TEXT
  5
1B7C
330
18
100
AcDbEntity
  8
0
  6
Continuous
100
AcDbText
 10
319.1572698374025
 20
4.004492421185212
 30
0.0
 40
2.1
  1
2010.06.08
  7
STYLE3
100
AcDbText
  0
TEXT
  5
1B7D
330
18
100
AcDbEntity
  8
0
  6
Continuous
100
AcDbText
 10
339.5618238374025
 20
6.043989421185212
 30
0.0
 40
3.0
  1
株式会社　尾崎製作所
  7
STYLE3
100
AcDbText
  0
TEXT
  5
1B7E
330
18
100
AcDbEntity
  8
0
  6
Continuous
100
AcDbText
 10
340.4363028374025
 20
2.256350421185212
 30
0.0
 40
2.1
  1
OZAKI MFG. CO., LTD.
  7
STYLE3
100
AcDbText
  0
ENDSEC
  0
SECTION
  2
OBJECTS
  0
DICTIONARY
  5
C
330
0
100
AcDbDictionary
281
     1
  3
ACAD_COLOR
350
8A3
  3
ACAD_GROUP
350
D
  3
ACAD_LAYOUT
350
8A6
  3
ACAD_MATERIAL
350
8A2
  3
ACAD_MLINESTYLE
350
1B
  3
ACAD_PLOTSETTINGS
350
8A7
  3
ACAD_PLOTSTYLENAME
350
8A0
  3
ACAD_TABLESTYLE
350
8A4
  3
ACDBVARIABLEDICTIONARY
350
656
  0
DICTIONARY
  5
8A3
102
{ACAD_REACTORS
330
C
102
}
330
C
100
AcDbDictionary
281
     1
  0
DICTIONARY
  5
D
102
{ACAD_REACTORS
330
C
102
}
330
C
100
AcDbDictionary
281
     1
  0
DICTIONARY
  5
8A6
102
{ACAD_REACTORS
330
C
102
}
330
C
100
AcDbDictionary
281
     1
  3
Model
350
8A8
  3
レイアウト1
350
8A9
  0
DICTIONARY
  5
8A2
102
{ACAD_REACTORS
330
C
102
}
330
C
100
AcDbDictionary
281
     1
  0
DICTIONARY
  5
1B
102
{ACAD_REACTORS
330
C
102
}
330
C
100
AcDbDictionary
281
     1
  3
STANDARD
350
1C
  0
DICTIONARY
  5
8A7
102
{ACAD_REACTORS
330
C
102
}
330
C
100
AcDbDictionary
281
     1
  0
ACDBDICTIONARYWDFLT
  5
8A0
102
{ACAD_REACTORS
330
C
102
}
330
C
100
AcDbDictionary
281
     1
  3
Normal
350
8A1
100
AcDbDictionaryWithDefault
340
8A1
  0
DICTIONARY
  5
8A4
102
{ACAD_REACTORS
330
C
102
}
330
C
100
AcDbDictionary
281
     1
  3
Standard
350
8A5
  0
DICTIONARY
  5
656
102
{ACAD_REACTORS
330
C
102
}
330
C
100
AcDbDictionary
281
     1
  3
CTABLESTYLE
350
1AE0
  3
SORTENTS
350
657
  0
LAYOUT
  5
8A8
102
{ACAD_REACTORS
330
8A6
102
}
330
8A6
100
AcDbPlotSettings
  1

  2
WIDR Printer
  4

  6

 40
0.0
 41
0.0
 42
0.0
 43
0.0
 44
0.0
 45
0.0
 46
0.0
 47
0.0
 48
0.0
 49
0.0
140
0.0
141
0.0
142
1.0
143
1.0
 70
  1712
 72
     0
 73
     0
 74
     0
  7
AutoCad LT 98.ctb
 75
     0
147
1.0
 76
     0
 77
     2
 78
   300
148
0.0
149
0.0
100
AcDbLayout
  1
Model
 70
     1
 71
     0
 10
0.0
 20
0.0
 11
12.0
 21
9.0
 12
0.0
 22
0.0
 32
0.0
 14
0.0
 24
0.0
 34
0.0
 15
0.0
 25
0.0
 35
0.0
146
0.0
 13
0.0
 23
0.0
 33
0.0
 16
1.0
 26
0.0
 36
0.0
 17
0.0
 27
1.0
 37
0.0
 76
     0
330
18
  0
LAYOUT
  5
8A9
102
{ACAD_REACTORS
330
8A6
102
}
330
8A6
100
AcDbPlotSettings
  1

  2
WIDR Printer
  4

  6

 40
0.0
 41
0.0
 42
0.0
 43
0.0
 44
0.0
 45
0.0
 46
0.0
 47
0.0
 48
0.0
 49
0.0
140
0.0
141
0.0
142
1.0
143
1.0
 70
   688
 72
     0
 73
     0
 74
     5
  7
AutoCad LT 98.ctb
 75
    16
147
1.0
 76
     0
 77
     2
 78
   300
148
0.0
149
0.0
100
AcDbLayout
  1
レイアウト1
 70
     1
 71
     1
 10
0.0
 20
0.0
 11
420.0
 21
297.0
 12
0.0
 22
0.0
 32
0.0
 14
1.000000000000000E+20
 24
1.000000000000000E+20
 34
1.000000000000000E+20
 15
-1.000000000000000E+20
 25
-1.000000000000000E+20
 35
-1.000000000000000E+20
146
0.0
 13
0.0
 23
0.0
 33
0.0
 16
1.0
 26
0.0
 36
0.0
 17
0.0
 27
1.0
 37
0.0
 76
     0
330
15
  0
MLINESTYLE
  5
1C
102
{ACAD_REACTORS
330
1B
102
}
330
1B
100
AcDbMlineStyle
  2
STANDARD
 70
     0
  3

 62
   256
 51
90.0
 52
90.0
 71
     2
 49
0.5
 62
   256
  6
BYLAYER
 49
-0.5
 62
   256
  6
BYLAYER
  0
ACDBPLACEHOLDER
  5
8A1
102
{ACAD_REACTORS
330
8A0
102
}
330
8A0
  0
ACAD_PROXY_OBJECT
  5
8A5
102
{ACAD_REACTORS
330
8A4
102
}
330
8A4
100
AcDbProxyObject
 90
      499
 91
      503
 95
  2555929
 70
     0
 93
     1849
310
4214DD185B99185C992420000000000000F83F0000000000003E0FC00000000000004901028000000C1008070000C3001FDFF8000000C1003FBFF000000182007F7FE00000030400FEFFC00000060801FDFF8000000C1003FBFF000000182000000000000000C2020B0000001820100E000186003FBFF000000182007F7FE0
310
0000030400FEFFC00000060801FDFF8000000C1003FBFF000000182007F7FE0000003040000000000000012404160000003040201C00030C007F7FE00000030400FEFFC00000060801FDFF8000000C1003FBFF000000182007F7FE00000030400FEFFC000000608000
340
F
340
F
340
F
 94
        0
  0
DICTIONARYVAR
  5
1AE0
102
{ACAD_REACTORS
330
656
102
}
330
656
100
DictionaryVariables
280
     0
  1
STANDARD
  0
DICTIONARYVAR
  5
657
102
{ACAD_REACTORS
330
656
102
}
330
656
100
DictionaryVariables
280
     0
  1
96
  0
ENDSEC
  0
EOF
