  0
SECTION
  2
HEADER
  9
$ACADVER
  1
AC1018
  9
$ACADMAINTVER
 70
     0
  9
$DWGCODEPAGE
  3
ANSI_932
  9
$INSBASE
 10
0.0
 20
0.0
 30
0.0
  9
$EXTMIN
 10
-0.2192307289083146
 20
-0.2136015531452813
 30
-1.000045764259152
  9
$EXTMAX
 10
255.2285122392454
 20
195.2214160090128
 30
0.0000457828865983
  9
$LIMMIN
 10
0.0
 20
0.0
  9
$LIMMAX
 10
420.0
 20
297.0
  9
$ORTHOMODE
 70
     0
  9
$REGENMODE
 70
     1
  9
$FILLMODE
 70
     1
  9
$QTEXTMODE
 70
     0
  9
$MIRRTEXT
 70
     1
  9
$LTSCALE
 40
1.0
  9
$ATTMODE
 70
     1
  9
$TEXTSIZE
 40
1.5
  9
$TRACEWID
 40
1.0
  9
$TEXTSTYLE
  7
STYLE3
  9
$CLAYER
  8
寸法線
  9
$CELTYPE
  6
BYLAYER
  9
$CECOLOR
 62
   256
  9
$CELTSCALE
 40
1.0
  9
$DISPSILH
 70
     0
  9
$DIMSCALE
 40
1.0
  9
$DIMASZ
 40
2.5
  9
$DIMEXO
 40
0.0
  9
$DIMDLI
 40
3.75
  9
$DIMRND
 40
0.0
  9
$DIMDLE
 40
0.0
  9
$DIMEXE
 40
1.25
  9
$DIMTP
 40
0.0
  9
$DIMTM
 40
0.0
  9
$DIMTXT
 40
2.5
  9
$DIMCEN
 40
2.5
  9
$DIMTSZ
 40
0.0
  9
$DIMTOL
 70
     0
  9
$DIMLIM
 70
     0
  9
$DIMTIH
 70
     0
  9
$DIMTOH
 70
     0
  9
$DIMSE1
 70
     0
  9
$DIMSE2
 70
     0
  9
$DIMTAD
 70
     1
  9
$DIMZIN
 70
     8
  9
$DIMBLK
  1

  9
$DIMASO
 70
     1
  9
$DIMSHO
 70
     1
  9
$DIMPOST
  1

  9
$DIMAPOST
  1

  9
$DIMALT
 70
     0
  9
$DIMALTD
 70
     4
  9
$DIMALTF
 40
0.0394
  9
$DIMLFAC
 40
1.0
  9
$DIMTOFL
 70
     1
  9
$DIMTVP
 40
0.0
  9
$DIMTIX
 70
     0
  9
$DIMSOXD
 70
     0
  9
$DIMSAH
 70
     1
  9
$DIMBLK1
  1
OPEN
  9
$DIMBLK2
  1
OPEN
  9
$DIMSTYLE
  2
STYLE3
  9
$DIMCLRD
 70
     2
  9
$DIMCLRE
 70
     2
  9
$DIMCLRT
 70
     6
  9
$DIMTFAC
 40
1.0
  9
$DIMGAP
 40
0.625
  9
$DIMJUST
 70
     0
  9
$DIMSD1
 70
     0
  9
$DIMSD2
 70
     0
  9
$DIMTOLJ
 70
     1
  9
$DIMTZIN
 70
     0
  9
$DIMALTZ
 70
     0
  9
$DIMALTTZ
 70
     0
  9
$DIMUPT
 70
     0
  9
$DIMDEC
 70
     2
  9
$DIMTDEC
 70
     4
  9
$DIMALTU
 70
     8
  9
$DIMALTTD
 70
     4
  9
$DIMTXSTY
  7
STYLE3
  9
$DIMAUNIT
 70
     0
  9
$DIMADEC
 70
     0
  9
$DIMALTRND
 40
0.0
  9
$DIMAZIN
 70
     0
  9
$DIMDSEP
 70
    46
  9
$DIMATFIT
 70
     3
  9
$DIMFRAC
 70
     0
  9
$DIMLDRBLK
  1

  9
$DIMLUNIT
 70
     2
  9
$DIMLWD
 70
    -2
  9
$DIMLWE
 70
    -2
  9
$DIMTMOVE
 70
     0
  9
$LUNITS
 70
     2
  9
$LUPREC
 70
     4
  9
$SKETCHINC
 40
1.0
  9
$FILLETRAD
 40
30.0
  9
$AUNITS
 70
     0
  9
$AUPREC
 70
     0
  9
$MENU
  1
.
  9
$ELEVATION
 40
0.0
  9
$PELEVATION
 40
0.0
  9
$THICKNESS
 40
0.0
  9
$LIMCHECK
 70
     0
  9
$CHAMFERA
 40
0.2
  9
$CHAMFERB
 40
0.2
  9
$CHAMFERC
 40
20.0
  9
$CHAMFERD
 40
0.0
  9
$SKPOLY
 70
     0
  9
$TDCREATE
 40
2451897.447081366
  9
$TDUCREATE
 40
2451897.072081366
  9
$TDUPDATE
 40
2455356.593820348
  9
$TDUUPDATE
 40
2455356.218820348
  9
$TDINDWG
 40
0.2639306019
  9
$TDUSRTIMER
 40
0.2639306019
  9
$USRTIMER
 70
     1
  9
$ANGBASE
 50
0.0
  9
$ANGDIR
 70
     0
  9
$PDMODE
 70
     0
  9
$PDSIZE
 40
0.0
  9
$PLINEWID
 40
0.0
  9
$SPLFRAME
 70
     0
  9
$SPLINETYPE
 70
     6
  9
$SPLINESEGS
 70
     8
  9
$HANDSEED
  5
1FAE
  9
$SURFTAB1
 70
     6
  9
$SURFTAB2
 70
     6
  9
$SURFTYPE
 70
     6
  9
$SURFU
 70
     6
  9
$SURFV
 70
     6
  9
$UCSBASE
  2

  9
$UCSNAME
  2

  9
$UCSORG
 10
0.0
 20
0.0
 30
0.0
  9
$UCSXDIR
 10
1.0
 20
0.0
 30
0.0
  9
$UCSYDIR
 10
0.0
 20
1.0
 30
0.0
  9
$UCSORTHOREF
  2

  9
$UCSORTHOVIEW
 70
     0
  9
$UCSORGTOP
 10
0.0
 20
0.0
 30
0.0
  9
$UCSORGBOTTOM
 10
0.0
 20
0.0
 30
0.0
  9
$UCSORGLEFT
 10
0.0
 20
0.0
 30
0.0
  9
$UCSORGRIGHT
 10
0.0
 20
0.0
 30
0.0
  9
$UCSORGFRONT
 10
0.0
 20
0.0
 30
0.0
  9
$UCSORGBACK
 10
0.0
 20
0.0
 30
0.0
  9
$PUCSBASE
  2

  9
$PUCSNAME
  2

  9
$PUCSORG
 10
0.0
 20
0.0
 30
0.0
  9
$PUCSXDIR
 10
1.0
 20
0.0
 30
0.0
  9
$PUCSYDIR
 10
0.0
 20
1.0
 30
0.0
  9
$PUCSORTHOREF
  2

  9
$PUCSORTHOVIEW
 70
     0
  9
$PUCSORGTOP
 10
0.0
 20
0.0
 30
0.0
  9
$PUCSORGBOTTOM
 10
0.0
 20
0.0
 30
0.0
  9
$PUCSORGLEFT
 10
0.0
 20
0.0
 30
0.0
  9
$PUCSORGRIGHT
 10
0.0
 20
0.0
 30
0.0
  9
$PUCSORGFRONT
 10
0.0
 20
0.0
 30
0.0
  9
$PUCSORGBACK
 10
0.0
 20
0.0
 30
0.0
  9
$USERI1
 70
     0
  9
$USERI2
 70
     0
  9
$USERI3
 70
     0
  9
$USERI4
 70
     0
  9
$USERI5
 70
     0
  9
$USERR1
 40
0.0
  9
$USERR2
 40
0.0
  9
$USERR3
 40
0.0
  9
$USERR4
 40
0.0
  9
$USERR5
 40
0.0
  9
$WORLDVIEW
 70
     1
  9
$SHADEDGE
 70
     3
  9
$SHADEDIF
 70
    70
  9
$TILEMODE
 70
     1
  9
$MAXACTVP
 70
    48
  9
$PINSBASE
 10
0.0
 20
0.0
 30
0.0
  9
$PLIMCHECK
 70
     0
  9
$PEXTMIN
 10
-0.2
 20
-0.2
 30
0.0
  9
$PEXTMAX
 10
255.2
 20
195.2
 30
0.0
  9
$PLIMMIN
 10
0.0
 20
0.0
  9
$PLIMMAX
 10
420.0
 20
297.0
  9
$UNITMODE
 70
     0
  9
$VISRETAIN
 70
     1
  9
$PLINEGEN
 70
     0
  9
$PSLTSCALE
 70
     1
  9
$TREEDEPTH
 70
  3020
  9
$CMLSTYLE
  2
STANDARD
  9
$CMLJUST
 70
     0
  9
$CMLSCALE
 40
20.0
  9
$PROXYGRAPHICS
 70
     1
  9
$MEASUREMENT
 70
     1
  9
$CELWEIGHT
370
    -1
  9
$ENDCAPS
280
     0
  9
$JOINSTYLE
280
     0
  9
$LWDISPLAY
290
     0
  9
$INSUNITS
 70
     0
  9
$HYPERLINKBASE
  1

  9
$STYLESHEET
  1

  9
$XEDIT
290
     1
  9
$CEPSNTYPE
380
     0
  9
$PSTYLEMODE
290
     1
  9
$FINGERPRINTGUID
  2
{7F64D5D3-4767-4342-A837-FE5FD942709A}
  9
$VERSIONGUID
  2
{FA40856F-F5CF-41EC-9709-C256EE95FD1E}
  9
$EXTNAMES
290
     1
  9
$PSVPSCALE
 40
0.0
  9
$OLESTARTUP
290
     0
  9
$SORTENTS
280
    96
  9
$INDEXCTL
280
     0
  9
$HIDETEXT
280
     0
  9
$XCLIPFRAME
290
     0
  9
$HALOGAP
280
     0
  9
$OBSCOLOR
 70
   257
  9
$OBSLTYPE
280
     0
  9
$INTERSECTIONDISPLAY
280
     0
  9
$INTERSECTIONCOLOR
 70
   257
  9
$DIMASSOC
280
     1
  9
$PROJECTNAME
  1

  0
ENDSEC
  0
SECTION
  2
CLASSES
  0
CLASS
  1
HATCH
  2
AcDbHatch
  3
ObjectDBX Classes
 90
        0
 91
       20
280
     0
281
     1
  0
CLASS
  1
DICTIONARYVAR
  2
AcDbDictionaryVar
  3
ObjectDBX Classes
 90
        0
 91
        2
280
     0
281
     0
  0
CLASS
  1
LWPOLYLINE
  2
AcDbPolyline
  3
ObjectDBX Classes
 90
        0
 91
        1
280
     0
281
     1
  0
CLASS
  1
ACDBDICTIONARYWDFLT
  2
AcDbDictionaryWithDefault
  3
ObjectDBX Classes
 90
        0
 91
        1
280
     0
281
     0
  0
CLASS
  1
TABLESTYLE
  2
AcDbTableStyle
  3
ObjectDBX Classes
 90
     2047
 91
        1
280
     0
281
     0
  0
ENDSEC
  0
SECTION
  2
TABLES
  0
TABLE
  2
VPORT
  5
8
330
0
100
AcDbSymbolTable
 70
     2
  0
VPORT
  5
1FAD
330
8
100
AcDbSymbolTableRecord
100
AcDbViewportTableRecord
  2
*Active
 70
     0
 10
0.0
 20
0.0
 11
1.0
 21
1.0
 12
127.5046407551685
 22
97.50390722793376
 13
0.0
 23
0.0
 14
10.0
 24
10.0
 15
10.0
 25
10.0
 16
0.0
 26
0.0
 36
1.0
 17
0.0
 27
0.0
 37
0.0
 40
196.9212154143418
 41
1.530456852791878
 42
50.0
 43
0.0
 44
0.0
 50
0.0
 51
0.0
 71
     0
 72
   100
 73
     1
 74
     1
 75
     0
 76
     0
 77
     0
 78
     0
281
     0
 65
     1
110
0.0
120
0.0
130
0.0
111
1.0
121
0.0
131
0.0
112
0.0
122
1.0
132
0.0
 79
     0
146
0.0
  0
ENDTAB
  0
TABLE
  2
LTYPE
  5
5
330
0
100
AcDbSymbolTable
 70
    12
  0
LTYPE
  5
12
330
5
100
AcDbSymbolTableRecord
100
AcDbLinetypeTableRecord
  2
BYBLOCK
 70
     0
  3

 72
    65
 73
     0
 40
0.0
  0
LTYPE
  5
13
330
5
100
AcDbSymbolTableRecord
100
AcDbLinetypeTableRecord
  2
BYLAYER
 70
     0
  3

 72
    65
 73
     0
 40
0.0
  0
LTYPE
  5
14
330
5
100
AcDbSymbolTableRecord
100
AcDbLinetypeTableRecord
  2
CONTINUOUS
 70
     0
  3
Solid line
 72
    65
 73
     0
 40
0.0
  0
LTYPE
  5
22
330
5
100
AcDbSymbolTableRecord
100
AcDbLinetypeTableRecord
  2
CENTER2
 70
     0
  3
Center (.5x) ___ _ ___ _ ___ _ ___ _ ___ _ ___
 72
    65
 73
     4
 40
28.575
 49
19.05
 74
     0
 49
-3.174999999999999
 74
     0
 49
3.174999999999999
 74
     0
 49
-3.174999999999999
 74
     0
  0
LTYPE
  5
24
330
5
100
AcDbSymbolTableRecord
100
AcDbLinetypeTableRecord
  2
PHANTOM2
 70
     0
  3
Phantom (.5x) ___ _ _ ___ _ _ ___ _ _ ___ _ _
 72
    65
 73
     6
 40
31.75
 49
15.875
 74
     0
 49
-3.174999999999999
 74
     0
 49
3.174999999999999
 74
     0
 49
-3.174999999999999
 74
     0
 49
3.174999999999999
 74
     0
 49
-3.174999999999999
 74
     0
  0
ENDTAB
  0
TABLE
  2
LAYER
  5
2
330
0
100
AcDbSymbolTable
 70
    16
  0
LAYER
  5
E
330
2
100
AcDbSymbolTableRecord
100
AcDbLayerTableRecord
  2
0
 70
     0
 62
     7
  6
CONTINUOUS
370
    -3
390
1245
  0
LAYER
  5
25
330
2
100
AcDbSymbolTableRecord
100
AcDbLayerTableRecord
  2
外形線
 70
     0
 62
     7
  6
CONTINUOUS
370
    -3
390
1245
  0
LAYER
  5
26
330
2
100
AcDbSymbolTableRecord
100
AcDbLayerTableRecord
  2
寸法線
 70
     0
 62
     2
  6
CONTINUOUS
370
    -3
390
1245
  0
LAYER
  5
27
330
2
100
AcDbSymbolTableRecord
100
AcDbLayerTableRecord
  2
中心線
 70
     0
 62
     4
  6
CENTER2
370
    -3
390
1245
  0
LAYER
  5
29
330
2
100
AcDbSymbolTableRecord
100
AcDbLayerTableRecord
  2
想像線
 70
     0
 62
     1
  6
PHANTOM2
370
    -3
390
1245
  0
LAYER
  5
2B
330
2
100
AcDbSymbolTableRecord
100
AcDbLayerTableRecord
  2
文字
 70
     0
 62
     6
  6
CONTINUOUS
370
    -3
390
1245
  0
LAYER
  5
2C
330
2
100
AcDbSymbolTableRecord
100
AcDbLayerTableRecord
  2
目盛
 70
     0
 62
    70
  6
CONTINUOUS
370
    -3
390
1245
  0
LAYER
  5
2D
330
2
100
AcDbSymbolTableRecord
100
AcDbLayerTableRecord
  2
針
 70
     0
 62
     5
  6
CONTINUOUS
370
    -3
390
1245
  0
LAYER
  5
53
330
2
100
AcDbSymbolTableRecord
100
AcDbLayerTableRecord
  2
DEFPOINTS
 70
     0
 62
     7
  6
CONTINUOUS
290
     0
370
    -3
390
1245
  0
LAYER
  5
A5
330
2
100
AcDbSymbolTableRecord
100
AcDbLayerTableRecord
  2
C
 70
     0
 62
     7
  6
CONTINUOUS
370
    -3
390
1245
  0
LAYER
  5
2CD
330
2
100
AcDbSymbolTableRecord
100
AcDbLayerTableRecord
  2
ROGO
 70
     0
 62
     6
  6
CONTINUOUS
370
    -3
390
1245
  0
ENDTAB
  0
TABLE
  2
STYLE
  5
3
330
0
100
AcDbSymbolTable
 70
     6
  0
STYLE
  5
F
330
3
100
AcDbSymbolTableRecord
100
AcDbTextStyleTableRecord
  2
STANDARD
 70
     0
 40
0.0
 41
1.0
 50
0.0
 71
     0
 42
2.5
  3
txt
  4

  0
STYLE
  5
3F
330
3
100
AcDbSymbolTableRecord
100
AcDbTextStyleTableRecord
  2
STYLE3
 70
     0
 40
0.0
 41
1.0
 50
0.0
 71
     0
 42
1.5
  3
romans.shx
  4
bigfont.shx
  0
ENDTAB
  0
TABLE
  2
VIEW
  5
6
330
0
100
AcDbSymbolTable
 70
     0
  0
ENDTAB
  0
TABLE
  2
UCS
  5
7
330
0
100
AcDbSymbolTable
 70
     0
  0
ENDTAB
  0
TABLE
  2
APPID
  5
9
330
0
100
AcDbSymbolTable
 70
     1
  0
APPID
  5
10
330
9
100
AcDbSymbolTableRecord
100
AcDbRegAppTableRecord
  2
ACAD
 70
     0
  0
ENDTAB
  0
TABLE
  2
DIMSTYLE
  5
A
330
0
100
AcDbSymbolTable
 70
     9
100
AcDbDimStyleTable
 71
     1
340
8F
  0
DIMSTYLE
105
1D
330
A
100
AcDbSymbolTableRecord
100
AcDbDimStyleTableRecord
  2
STANDARD
 70
     0
 41
2.5
 42
0.625
 43
3.75
 44
1.25
 73
     0
 74
     0
 77
     1
 78
     8
140
2.5
141
2.5
143
0.0394
147
0.625
171
     4
172
     1
273
     8
274
     4
277
     6
340
F
  0
DIMSTYLE
105
66
102
{ACAD_REACTORS
330
1DB0
102
}
330
A
100
AcDbSymbolTableRecord
100
AcDbDimStyleTableRecord
  2
STYLE2
 70
     0
 41
2.5
 42
0.0
 43
3.75
 44
1.25
 73
     0
 74
     0
 77
     1
 78
     8
140
2.5
141
2.5
143
0.0394
147
0.625
171
     4
172
     1
173
     1
176
     2
177
     2
178
     6
271
     1
273
     8
274
     4
340
3F
341
45
343
45
344
45
  0
DIMSTYLE
105
8F
102
{ACAD_REACTORS
330
8E4
330
10CC
330
10D8
330
10F0
330
1108
330
116C
330
118E
330
119B
102
}
330
A
100
AcDbSymbolTableRecord
100
AcDbDimStyleTableRecord
  2
STYLE3
 70
     0
 41
2.5
 42
0.0
 43
3.75
 44
1.25
 73
     0
 74
     0
 77
     1
 78
     8
140
2.5
141
2.5
143
0.0394
147
0.625
171
     4
172
     1
173
     1
176
     2
177
     2
178
     6
271
     1
273
     8
274
     4
340
3F
341
45
343
45
344
45
  0
DIMSTYLE
105
12F8
102
{ACAD_REACTORS
330
1DAF
102
}
330
A
100
AcDbSymbolTableRecord
100
AcDbDimStyleTableRecord
  2
.0 type現尺
 70
     0
 41
2.5
 42
0.0
 43
3.75
 44
1.25
 73
     0
 74
     0
 77
     1
 78
     1
140
2.5
141
2.5
143
0.0394
147
0.625
171
     4
172
     1
173
     1
176
     2
177
     2
178
     6
271
     1
272
     1
273
     8
274
     4
340
3F
343
45
344
45
  0
ENDTAB
  0
TABLE
  2
BLOCK_RECORD
  5
1
330
0
100
AcDbSymbolTable
 70
    15
  0
BLOCK_RECORD
  5
18
330
1
100
AcDbSymbolTableRecord
100
AcDbBlockTableRecord
  2
*MODEL_SPACE
340
124C
  0
BLOCK_RECORD
  5
15
330
1
100
AcDbSymbolTableRecord
100
AcDbBlockTableRecord
  2
*PAPER_SPACE
340
124D
  0
BLOCK_RECORD
  5
45
330
1
100
AcDbSymbolTableRecord
100
AcDbBlockTableRecord
  2
_OPEN
340
0
102
{BLKREFS
331
836
331
850
331
852
331
857
331
863
331
86F
331
1F38
331
1F39
331
1F41
331
1F42
331
1F4A
331
1F4B
331
1F53
331
1F54
331
1F5C
331
1F5D
331
1F64
331
1F65
331
1F6C
331
1F6D
331
1F75
331
1F76
331
1F7D
331
1F7E
331
1F86
331
1F87
102
}
  0
BLOCK_RECORD
  5
8D8
330
1
100
AcDbSymbolTableRecord
100
AcDbBlockTableRecord
  2
*D1
340
0
  0
BLOCK_RECORD
  5
10C0
330
1
100
AcDbSymbolTableRecord
100
AcDbBlockTableRecord
  2
*D3
340
0
  0
BLOCK_RECORD
  5
10CD
330
1
100
AcDbSymbolTableRecord
100
AcDbBlockTableRecord
  2
*D4
340
0
  0
BLOCK_RECORD
  5
10E4
330
1
100
AcDbSymbolTableRecord
100
AcDbBlockTableRecord
  2
*D5
340
0
  0
BLOCK_RECORD
  5
10FC
330
1
100
AcDbSymbolTableRecord
100
AcDbBlockTableRecord
  2
*D6
340
0
  0
BLOCK_RECORD
  5
1160
330
1
100
AcDbSymbolTableRecord
100
AcDbBlockTableRecord
  2
*D7
340
0
  0
BLOCK_RECORD
  5
1183
330
1
100
AcDbSymbolTableRecord
100
AcDbBlockTableRecord
  2
*D8
340
0
  0
BLOCK_RECORD
  5
118F
330
1
100
AcDbSymbolTableRecord
100
AcDbBlockTableRecord
  2
*D9
340
0
  0
BLOCK_RECORD
  5
1DB1
330
1
100
AcDbSymbolTableRecord
100
AcDbBlockTableRecord
  2
*D11
340
0
  0
BLOCK_RECORD
  5
1DBC
330
1
100
AcDbSymbolTableRecord
100
AcDbBlockTableRecord
  2
*D12
340
0
  0
ENDTAB
  0
ENDSEC
  0
SECTION
  2
BLOCKS
  0
BLOCK
  5
19
330
18
100
AcDbEntity
  8
0
100
AcDbBlockBegin
  2
*MODEL_SPACE
 70
     0
 10
0.0
 20
0.0
 30
0.0
  3
*MODEL_SPACE
  1

  0
ENDBLK
  5
1A
330
18
100
AcDbEntity
  8
0
100
AcDbBlockEnd
  0
BLOCK
  5
16
330
15
100
AcDbEntity
 67
     1
  8
0
100
AcDbBlockBegin
  2
*PAPER_SPACE
 70
     0
 10
0.0
 20
0.0
 30
0.0
  3
*PAPER_SPACE
  1

  0
ENDBLK
  5
17
330
15
100
AcDbEntity
 67
     1
  8
0
100
AcDbBlockEnd
  0
BLOCK
  5
46
330
45
100
AcDbEntity
  8
0
100
AcDbBlockBegin
  2
_OPEN
 70
     0
 10
0.0
 20
0.0
 30
0.0
  3
_OPEN
  1

  0
LINE
  5
47
330
45
100
AcDbEntity
  8
0
  6
ByBlock
 62
     0
100
AcDbLine
 10
-1.0
 20
0.1666666666666666
 30
0.0
 11
0.0
 21
0.0
 31
0.0
  0
LINE
  5
48
330
45
100
AcDbEntity
  8
0
  6
ByBlock
 62
     0
100
AcDbLine
 10
0.0
 20
0.0
 30
0.0
 11
-1.0
 21
-0.1666666666666666
 31
0.0
  0
LINE
  5
49
330
45
100
AcDbEntity
  8
0
  6
ByBlock
 62
     0
100
AcDbLine
 10
0.0
 20
0.0
 30
0.0
 11
-1.0
 21
0.0
 31
0.0
  0
ENDBLK
  5
4A
330
45
100
AcDbEntity
  8
0
100
AcDbBlockEnd
  0
BLOCK
  5
8D9
330
8D8
100
AcDbEntity
  8
0
100
AcDbBlockBegin
  2
*D1
 70
     1
 10
0.0
 20
0.0
 30
0.0
  3
*D1
  1

  0
LINE
  5
1F83
330
8D8
100
AcDbEntity
  8
外形線
 62
     2
370
    -2
100
AcDbLine
 10
167.1449441289994
 20
94.67968873832877
 30
0.0
 11
167.1449441289994
 21
92.54091105182073
 31
0.0
  0
LINE
  5
1F84
330
8D8
100
AcDbEntity
  8
外形線
 62
     2
370
    -2
100
AcDbLine
 10
187.1449441289994
 20
98.71313476393595
 30
0.0
 11
187.1449441289994
 21
92.54091105182073
 31
0.0
  0
LINE
  5
1F85
330
8D8
100
AcDbEntity
  8
外形線
 62
     2
370
    -2
100
AcDbLine
 10
169.6449441289994
 20
93.79091105182073
 30
0.0
 11
184.6449441289994
 21
93.79091105182073
 31
0.0
  0
INSERT
  5
1F86
330
8D8
100
AcDbEntity
  8
外形線
 62
     2
370
    -2
100
AcDbBlockReference
  2
_OPEN
 10
167.1449441289994
 20
93.79091105182073
 30
0.0
 41
2.5
 42
2.5
 43
2.5
 50
180.0
  0
INSERT
  5
1F87
330
8D8
100
AcDbEntity
  8
外形線
 62
     2
370
    -2
100
AcDbBlockReference
  2
_OPEN
 10
187.1449441289994
 20
93.79091105182073
 30
0.0
 41
2.5
 42
2.5
 43
2.5
  0
MTEXT
  5
1F88
330
8D8
100
AcDbEntity
  8
外形線
 62
     6
100
AcDbMText
 10
177.1449441289994
 20
95.66591105182073
 30
0.0
 40
2.5
 41
0.0
 71
     5
 72
     1
  1
\A1;20
  7
STYLE3
 73
     1
 44
1.0
  0
POINT
  5
1F89
330
8D8
100
AcDbEntity
  8
DEFPOINTS
 62
     0
100
AcDbPoint
 10
167.1449441289994
 20
94.67968873832877
 30
0.0
  0
POINT
  5
1F8A
330
8D8
100
AcDbEntity
  8
DEFPOINTS
 62
     0
100
AcDbPoint
 10
187.1449441289994
 20
98.71313476393595
 30
0.0
  0
POINT
  5
1F8B
330
8D8
100
AcDbEntity
  8
DEFPOINTS
 62
     0
100
AcDbPoint
 10
187.1449441289994
 20
93.79091105182073
 30
0.0
  0
ENDBLK
  5
8E3
330
8D8
100
AcDbEntity
  8
0
100
AcDbBlockEnd
  0
BLOCK
  5
1217
330
10C0
100
AcDbEntity
  8
0
100
AcDbBlockBegin
  2
*D3
 70
     1
 10
0.0
 20
0.0
 30
0.0
  3
*D3
  1

  0
LINE
  5
1F3E
330
10C0
100
AcDbEntity
  8
文字
 62
     2
370
    -2
100
AcDbLine
 10
79.01105773987609
 20
181.1630952336154
 30
0.0
 11
44.32945504186661
 21
181.1630952336154
 31
0.0
  0
LINE
  5
1F3F
330
10C0
100
AcDbEntity
  8
文字
 62
     2
370
    -2
100
AcDbLine
 10
48.47214634459792
 20
131.8677470000189
 30
0.0
 11
44.32945504186659
 21
131.8677470000189
 31
0.0
  0
LINE
  5
1F40
330
10C0
100
AcDbEntity
  8
文字
 62
     2
370
    -2
100
AcDbLine
 10
45.57945504186661
 20
178.6630952336154
 30
0.0
 11
45.57945504186659
 21
134.3677470000189
 31
0.0
  0
INSERT
  5
1F41
330
10C0
100
AcDbEntity
  8
文字
 62
     2
370
    -2
100
AcDbBlockReference
  2
_OPEN
 10
45.57945504186661
 20
181.1630952336154
 30
0.0
 41
2.5
 42
2.5
 43
2.5
 50
90.0
  0
INSERT
  5
1F42
330
10C0
100
AcDbEntity
  8
文字
 62
     2
370
    -2
100
AcDbBlockReference
  2
_OPEN
 10
45.57945504186659
 20
131.8677470000189
 30
0.0
 41
2.5
 42
2.5
 43
2.5
 50
270.0
  0
MTEXT
  5
1F43
330
10C0
100
AcDbEntity
  8
文字
 62
     6
100
AcDbMText
 10
43.70445504186657
 20
156.5154211168171
 30
0.0
 40
2.5
 41
0.0
 71
     5
 72
     1
  1
\A1;89
  7
STYLE3
 11
0.0000000000000001
 21
1.0
 31
0.0
 73
     1
 44
1.0
  0
POINT
  5
1F44
330
10C0
100
AcDbEntity
  8
DEFPOINTS
 62
     0
100
AcDbPoint
 10
79.01105773987609
 20
181.1630952336154
 30
0.0
  0
POINT
  5
1F45
330
10C0
100
AcDbEntity
  8
DEFPOINTS
 62
     0
100
AcDbPoint
 10
48.47214634459792
 20
131.8677470000189
 30
0.0
  0
POINT
  5
1F46
330
10C0
100
AcDbEntity
  8
DEFPOINTS
 62
     0
100
AcDbPoint
 10
45.57945504186659
 20
131.8677470000189
 30
0.0
  0
ENDBLK
  5
1221
330
10C0
100
AcDbEntity
  8
0
100
AcDbBlockEnd
  0
BLOCK
  5
1222
330
10CD
100
AcDbEntity
  8
0
100
AcDbBlockBegin
  2
*D4
 70
     1
 10
0.0
 20
0.0
 30
0.0
  3
*D4
  1

  0
LINE
  5
1F6A
330
10CD
100
AcDbEntity
  8
文字
 62
     2
370
    -2
100
AcDbLine
 10
79.01105773987612
 20
24.86774700001888
 30
0.0
 11
44.32945504186658
 21
24.86774700001889
 31
0.0
  0
LINE
  5
1F6B
330
10CD
100
AcDbEntity
  8
文字
 62
     2
370
    -2
100
AcDbLine
 10
45.57945504186661
 20
129.3677470000188
 30
0.0
 11
45.57945504186658
 21
27.36774700001889
 31
0.0
  0
INSERT
  5
1F6C
330
10CD
100
AcDbEntity
  8
文字
 62
     2
370
    -2
100
AcDbBlockReference
  2
_OPEN
 10
45.57945504186661
 20
131.8677470000189
 30
0.0
 41
2.5
 42
2.5
 43
2.5
 50
90.0
  0
INSERT
  5
1F6D
330
10CD
100
AcDbEntity
  8
文字
 62
     2
370
    -2
100
AcDbBlockReference
  2
_OPEN
 10
45.57945504186658
 20
24.86774700001889
 30
0.0
 41
2.5
 42
2.5
 43
2.5
 50
270.0
  0
MTEXT
  5
1F6E
330
10CD
100
AcDbEntity
  8
文字
 62
     6
100
AcDbMText
 10
43.70445504186658
 20
78.36774700001889
 30
0.0
 40
2.5
 41
0.0
 71
     5
 72
     1
  1
\A1;107
  7
STYLE3
 11
0.0000000000000001
 21
1.0
 31
0.0
 73
     1
 44
1.0
  0
POINT
  5
1F6F
330
10CD
100
AcDbEntity
  8
DEFPOINTS
 62
     0
100
AcDbPoint
 10
48.47214634459792
 20
131.8677470000189
 30
0.0
  0
POINT
  5
1F70
330
10CD
100
AcDbEntity
  8
DEFPOINTS
 62
     0
100
AcDbPoint
 10
79.01105773987612
 20
24.86774700001888
 30
0.0
  0
POINT
  5
1F71
330
10CD
100
AcDbEntity
  8
DEFPOINTS
 62
     0
100
AcDbPoint
 10
45.57945504186658
 20
24.86774700001889
 30
0.0
  0
ENDBLK
  5
122B
330
10CD
100
AcDbEntity
  8
0
100
AcDbBlockEnd
  0
BLOCK
  5
120C
330
10E4
100
AcDbEntity
  8
0
100
AcDbBlockBegin
  2
*D5
 70
     1
 10
0.0
 20
0.0
 30
0.0
  3
*D5
  1

  0
LINE
  5
1F35
330
10E4
100
AcDbEntity
  8
文字
 62
     2
370
    -2
100
AcDbLine
 10
44.32945504186657
 20
24.86774700001889
 30
0.0
 11
39.49577897629771
 21
24.86774700001889
 31
0.0
  0
LINE
  5
1F36
330
10E4
100
AcDbEntity
  8
文字
 62
     2
370
    -2
100
AcDbLine
 10
44.32945504186659
 20
181.1630952336154
 30
0.0
 11
39.49577897629774
 21
181.1630952336154
 31
0.0
  0
LINE
  5
1F37
330
10E4
100
AcDbEntity
  8
文字
 62
     2
370
    -2
100
AcDbLine
 10
40.74577897629771
 20
27.36774700001889
 30
0.0
 11
40.74577897629774
 21
178.6630952336154
 31
0.0
  0
INSERT
  5
1F38
330
10E4
100
AcDbEntity
  8
文字
 62
     2
370
    -2
100
AcDbBlockReference
  2
_OPEN
 10
40.74577897629771
 20
24.86774700001889
 30
0.0
 41
2.5
 42
2.5
 43
2.5
 50
270.0
  0
INSERT
  5
1F39
330
10E4
100
AcDbEntity
  8
文字
 62
     2
370
    -2
100
AcDbBlockReference
  2
_OPEN
 10
40.74577897629774
 20
181.1630952336154
 30
0.0
 41
2.5
 42
2.5
 43
2.5
 50
90.0
  0
MTEXT
  5
1F3A
330
10E4
100
AcDbEntity
  8
文字
 62
     6
100
AcDbMText
 10
38.87077897629771
 20
103.0154211168171
 30
0.0
 40
2.5
 41
0.0
 71
     5
 72
     1
  1
\A1;196
  7
STYLE3
 11
0.0000000000000001
 21
1.0
 31
0.0
 73
     1
 44
1.0
  0
POINT
  5
1F3B
330
10E4
100
AcDbEntity
  8
DEFPOINTS
 62
     0
100
AcDbPoint
 10
44.32945504186657
 20
24.86774700001889
 30
0.0
  0
POINT
  5
1F3C
330
10E4
100
AcDbEntity
  8
DEFPOINTS
 62
     0
100
AcDbPoint
 10
44.32945504186659
 20
181.1630952336154
 30
0.0
  0
POINT
  5
1F3D
330
10E4
100
AcDbEntity
  8
DEFPOINTS
 62
     0
100
AcDbPoint
 10
40.74577897629774
 20
181.1630952336154
 30
0.0
  0
ENDBLK
  5
1216
330
10E4
100
AcDbEntity
  8
0
100
AcDbBlockEnd
  0
BLOCK
  5
116D
330
10FC
100
AcDbEntity
  8
0
100
AcDbBlockBegin
  2
*D6
 70
     1
 10
0.0
 20
0.0
 30
0.0
  3
*D6
  1

  0
LINE
  5
1F47
330
10FC
100
AcDbEntity
  8
文字
 62
     2
370
    -2
100
AcDbLine
 10
79.01105773987615
 20
156.6177470000189
 30
0.0
 11
118.3810446252159
 21
156.6177470000189
 31
0.0
  0
LINE
  5
1F48
330
10FC
100
AcDbEntity
  8
文字
 62
     2
370
    -2
100
AcDbLine
 10
79.01105773987615
 20
107.1177470000189
 30
0.0
 11
118.3810446252159
 21
107.1177470000188
 31
0.0
  0
LINE
  5
1F49
330
10FC
100
AcDbEntity
  8
文字
 62
     2
370
    -2
100
AcDbLine
 10
117.1310446252159
 20
154.1177470000189
 30
0.0
 11
117.1310446252159
 21
109.6177470000188
 31
0.0
  0
INSERT
  5
1F4A
330
10FC
100
AcDbEntity
  8
文字
 62
     2
370
    -2
100
AcDbBlockReference
  2
_OPEN
 10
117.1310446252159
 20
156.6177470000189
 30
0.0
 41
2.5
 42
2.5
 43
2.5
 50
90.0
  0
INSERT
  5
1F4B
330
10FC
100
AcDbEntity
  8
文字
 62
     2
370
    -2
100
AcDbBlockReference
  2
_OPEN
 10
117.1310446252159
 20
107.1177470000188
 30
0.0
 41
2.5
 42
2.5
 43
2.5
 50
270.0
  0
MTEXT
  5
1F4C
330
10FC
100
AcDbEntity
  8
文字
 62
     6
100
AcDbMText
 10
115.2560446252159
 20
131.8677470000189
 30
0.0
 40
2.5
 41
0.0
 71
     5
 72
     1
  1
\A1;φ49.5
  7
STYLE3
 11
0.0000000000000001
 21
1.0
 31
0.0
 73
     1
 44
1.0
  0
POINT
  5
1F4D
330
10FC
100
AcDbEntity
  8
DEFPOINTS
 62
     0
100
AcDbPoint
 10
79.01105773987615
 20
156.6177470000189
 30
0.0
  0
POINT
  5
1F4E
330
10FC
100
AcDbEntity
  8
DEFPOINTS
 62
     0
100
AcDbPoint
 10
79.01105773987615
 20
107.1177470000189
 30
0.0
  0
POINT
  5
1F4F
330
10FC
100
AcDbEntity
  8
DEFPOINTS
 62
     0
100
AcDbPoint
 10
117.1310446252159
 20
107.1177470000188
 30
0.0
  0
ENDBLK
  5
1177
330
10FC
100
AcDbEntity
  8
0
100
AcDbBlockEnd
  0
BLOCK
  5
11F7
330
1160
100
AcDbEntity
  8
0
100
AcDbBlockBegin
  2
*D7
 70
     1
 10
0.0
 20
0.0
 30
0.0
  3
*D7
  1

  0
LINE
  5
1F50
330
1160
100
AcDbEntity
  8
文字
 62
     2
370
    -2
100
AcDbLine
 10
154.7449441289995
 20
160.3177470000188
 30
0.0
 11
142.1651990451258
 21
160.3177470000188
 31
0.0
  0
LINE
  5
1F51
330
1160
100
AcDbEntity
  8
文字
 62
     2
370
    -2
100
AcDbLine
 10
154.7449441289995
 20
103.4177470000189
 30
0.0
 11
142.1651990451258
 21
103.4177470000189
 31
0.0
  0
LINE
  5
1F52
330
1160
100
AcDbEntity
  8
文字
 62
     2
370
    -2
100
AcDbLine
 10
143.4151990451258
 20
157.8177470000188
 30
0.0
 11
143.4151990451258
 21
105.9177470000189
 31
0.0
  0
INSERT
  5
1F53
330
1160
100
AcDbEntity
  8
文字
 62
     2
370
    -2
100
AcDbBlockReference
  2
_OPEN
 10
143.4151990451258
 20
160.3177470000188
 30
0.0
 41
2.5
 42
2.5
 43
2.5
 50
90.0
  0
INSERT
  5
1F54
330
1160
100
AcDbEntity
  8
文字
 62
     2
370
    -2
100
AcDbBlockReference
  2
_OPEN
 10
143.4151990451258
 20
103.4177470000189
 30
0.0
 41
2.5
 42
2.5
 43
2.5
 50
270.0
  0
MTEXT
  5
1F55
330
1160
100
AcDbEntity
  8
文字
 62
     6
100
AcDbMText
 10
141.5401990451258
 20
131.8677470000189
 30
0.0
 40
2.5
 41
0.0
 71
     5
 72
     1
  1
\A1;φ57
  7
STYLE3
 11
0.0000000000000001
 21
1.0
 31
0.0
 73
     1
 44
1.0
  0
POINT
  5
1F56
330
1160
100
AcDbEntity
  8
DEFPOINTS
 62
     0
100
AcDbPoint
 10
154.7449441289995
 20
160.3177470000188
 30
0.0
  0
POINT
  5
1F57
330
1160
100
AcDbEntity
  8
DEFPOINTS
 62
     0
100
AcDbPoint
 10
154.7449441289995
 20
103.4177470000189
 30
0.0
  0
POINT
  5
1F58
330
1160
100
AcDbEntity
  8
DEFPOINTS
 62
     0
100
AcDbPoint
 10
143.4151990451258
 20
103.4177470000189
 30
0.0
  0
ENDBLK
  5
1201
330
1160
100
AcDbEntity
  8
0
100
AcDbBlockEnd
  0
BLOCK
  5
1202
330
1183
100
AcDbEntity
  8
0
100
AcDbBlockBegin
  2
*D8
 70
     1
 10
0.0
 20
0.0
 30
0.0
  3
*D8
  1

  0
LINE
  5
1F7B
330
1183
100
AcDbEntity
  8
文字
 62
     2
370
    -2
100
AcDbLine
 10
163.7449441289995
 20
81.41774700001889
 30
0.0
 11
142.1651990451258
 21
81.4177470000189
 31
0.0
  0
LINE
  5
1F7C
330
1183
100
AcDbEntity
  8
文字
 62
     2
370
    -2
100
AcDbLine
 10
143.4151990451258
 20
100.9177470000189
 30
0.0
 11
143.4151990451258
 21
83.9177470000189
 31
0.0
  0
INSERT
  5
1F7D
330
1183
100
AcDbEntity
  8
文字
 62
     2
370
    -2
100
AcDbBlockReference
  2
_OPEN
 10
143.4151990451258
 20
103.4177470000189
 30
0.0
 41
2.5
 42
2.5
 43
2.5
 50
90.0
  0
INSERT
  5
1F7E
330
1183
100
AcDbEntity
  8
文字
 62
     2
370
    -2
100
AcDbBlockReference
  2
_OPEN
 10
143.4151990451258
 20
81.4177470000189
 30
0.0
 41
2.5
 42
2.5
 43
2.5
 50
270.0
  0
MTEXT
  5
1F7F
330
1183
100
AcDbEntity
  8
文字
 62
     6
100
AcDbMText
 10
141.5401990451258
 20
92.4177470000189
 30
0.0
 40
2.5
 41
0.0
 71
     5
 72
     1
  1
\A1;22
  7
STYLE3
 11
0.0000000000000001
 21
1.0
 31
0.0
 73
     1
 44
1.0
  0
POINT
  5
1F80
330
1183
100
AcDbEntity
  8
DEFPOINTS
 62
     0
100
AcDbPoint
 10
154.7449441289995
 20
103.4177470000189
 30
0.0
  0
POINT
  5
1F81
330
1183
100
AcDbEntity
  8
DEFPOINTS
 62
     0
100
AcDbPoint
 10
163.7449441289995
 20
81.41774700001889
 30
0.0
  0
POINT
  5
1F82
330
1183
100
AcDbEntity
  8
DEFPOINTS
 62
     0
100
AcDbPoint
 10
143.4151990451258
 20
81.4177470000189
 30
0.0
  0
ENDBLK
  5
120B
330
1183
100
AcDbEntity
  8
0
100
AcDbBlockEnd
  0
BLOCK
  5
11EC
330
118F
100
AcDbEntity
  8
0
100
AcDbBlockBegin
  2
*D9
 70
     1
 10
0.0
 20
0.0
 30
0.0
  3
*D9
  1

  0
LINE
  5
1F72
330
118F
100
AcDbEntity
  8
文字
 62
     2
370
    -2
100
AcDbLine
 10
167.1449441289994
 20
24.86774700001888
 30
0.0
 11
157.5490540791611
 21
24.86774700001888
 31
0.0
  0
LINE
  5
1F73
330
118F
100
AcDbEntity
  8
文字
 62
     2
370
    -2
100
AcDbLine
 10
164.6449441289994
 20
33.86774700001891
 30
0.0
 11
157.5490540791611
 21
33.86774700001891
 31
0.0
  0
LINE
  5
1F74
330
118F
100
AcDbEntity
  8
文字
 62
     2
370
    -2
100
AcDbLine
 10
158.7990540791611
 20
27.36774700001888
 30
0.0
 11
158.7990540791611
 21
31.36774700001891
 31
0.0
  0
INSERT
  5
1F75
330
118F
100
AcDbEntity
  8
文字
 62
     2
370
    -2
100
AcDbBlockReference
  2
_OPEN
 10
158.7990540791611
 20
24.86774700001888
 30
0.0
 41
2.5
 42
2.5
 43
2.5
 50
270.0
  0
INSERT
  5
1F76
330
118F
100
AcDbEntity
  8
文字
 62
     2
370
    -2
100
AcDbBlockReference
  2
_OPEN
 10
158.7990540791611
 20
33.86774700001891
 30
0.0
 41
2.5
 42
2.5
 43
2.5
 50
90.0
  0
MTEXT
  5
1F77
330
118F
100
AcDbEntity
  8
文字
 62
     6
100
AcDbMText
 10
156.9240540791611
 20
29.36774700001892
 30
0.0
 40
2.5
 41
0.0
 71
     5
 72
     1
  1
\A1;9
  7
STYLE3
 11
0.0000000000000001
 21
1.0
 31
0.0
 73
     1
 44
1.0
  0
POINT
  5
1F78
330
118F
100
AcDbEntity
  8
DEFPOINTS
 62
     0
100
AcDbPoint
 10
167.1449441289994
 20
24.86774700001888
 30
0.0
  0
POINT
  5
1F79
330
118F
100
AcDbEntity
  8
DEFPOINTS
 62
     0
100
AcDbPoint
 10
164.6449441289994
 20
33.86774700001891
 30
0.0
  0
POINT
  5
1F7A
330
118F
100
AcDbEntity
  8
DEFPOINTS
 62
     0
100
AcDbPoint
 10
158.7990540791611
 20
33.86774700001891
 30
0.0
  0
ENDBLK
  5
11F6
330
118F
100
AcDbEntity
  8
0
100
AcDbBlockEnd
  0
BLOCK
  5
1DBA
330
1DB1
100
AcDbEntity
  8
0
100
AcDbBlockBegin
  2
*D11
 70
     1
 10
0.0
 20
0.0
 30
0.0
  3
*D11
  1

  0
LINE
  5
1F62
330
1DB1
100
AcDbEntity
  8
寸法線
 62
     2
370
    -2
100
AcDbLine
 10
77.51105773987609
 20
95.27140921230543
 30
0.0
 11
80.51105773987609
 21
95.27140921230543
 31
0.0
  0
LINE
  5
1F63
330
1DB1
100
AcDbEntity
  8
寸法線
 62
     2
370
    -2
100
AcDbLine
 10
83.01105773987609
 20
95.27140921230543
 30
0.0
 11
102.0348672636856
 21
95.27140921230543
 31
0.0
  0
INSERT
  5
1F64
330
1DB1
100
AcDbEntity
  8
寸法線
 62
     2
370
    -2
100
AcDbBlockReference
  2
_OPEN
 10
75.01105773987609
 20
95.27140921230543
 30
0.0
 41
2.5
 42
2.5
 43
2.5
 50
180.0
  0
INSERT
  5
1F65
330
1DB1
100
AcDbEntity
  8
寸法線
 62
     2
370
    -2
100
AcDbBlockReference
  2
_OPEN
 10
83.01105773987609
 20
95.27140921230543
 30
0.0
 41
2.5
 42
2.5
 43
2.5
  0
MTEXT
  5
1F66
330
1DB1
100
AcDbEntity
  8
寸法線
 62
     6
100
AcDbMText
 10
93.7729625017809
 20
97.93807587897211
 30
0.0
 40
2.5
 41
0.0
 71
     5
 72
     1
  1
%%C8.0{\H1.750000;\S 0^ -0.03;}
  7
STYLE3
 73
     1
 44
1.0
  0
POINT
  5
1F67
330
1DB1
100
AcDbEntity
  8
DEFPOINTS
 62
     0
100
AcDbPoint
 10
75.01105773987609
 20
92.68136418865683
 30
0.0
  0
POINT
  5
1F68
330
1DB1
100
AcDbEntity
  8
DEFPOINTS
 62
     0
100
AcDbPoint
 10
83.01105773987609
 20
92.80770754298155
 30
0.0
  0
POINT
  5
1F69
330
1DB1
100
AcDbEntity
  8
DEFPOINTS
 62
     0
100
AcDbPoint
 10
83.01105773987609
 20
95.27140921230543
 30
0.0
  0
ENDBLK
  5
1DBB
330
1DB1
100
AcDbEntity
  8
0
100
AcDbBlockEnd
  0
BLOCK
  5
1DC8
330
1DBC
100
AcDbEntity
  8
0
100
AcDbBlockBegin
  2
*D12
 70
     1
 10
0.0
 20
0.0
 30
0.0
  3
*D12
  1

  0
LINE
  5
1F59
330
1DBC
100
AcDbEntity
  8
寸法線
 62
     2
370
    -2
100
AcDbLine
 10
74.01105773987612
 20
65.77978472273975
 30
0.0
 11
71.51105773987612
 21
65.77978472273975
 31
0.0
  0
LINE
  5
1F5A
330
1DBC
100
AcDbEntity
  8
寸法線
 62
     2
370
    -2
100
AcDbLine
 10
84.01105773987612
 20
65.77978472273975
 30
0.0
 11
91.68962916844757
 21
65.77978472273975
 31
0.0
  0
LINE
  5
1F5B
330
1DBC
100
AcDbEntity
  8
寸法線
 62
     2
370
    -2
100
AcDbLine
 10
76.51105773987612
 20
65.77978472273975
 30
0.0
 11
81.51105773987612
 21
65.77978472273975
 31
0.0
  0
INSERT
  5
1F5C
330
1DBC
100
AcDbEntity
  8
寸法線
 62
     2
370
    -2
100
AcDbBlockReference
  2
_OPEN
 10
76.51105773987612
 20
65.77978472273975
 30
0.0
 41
2.5
 42
2.5
 43
2.5
  0
INSERT
  5
1F5D
330
1DBC
100
AcDbEntity
  8
寸法線
 62
     2
370
    -2
100
AcDbBlockReference
  2
_OPEN
 10
81.51105773987612
 20
65.77978472273975
 30
0.0
 41
2.5
 42
2.5
 43
2.5
 50
180.0
  0
MTEXT
  5
1F5E
330
1DBC
100
AcDbEntity
  8
寸法線
 62
     6
100
AcDbMText
 10
89.10034345416184
 20
67.65478472273975
 30
0.0
 40
2.5
 41
0.0
 71
     5
 72
     1
  1
\A1;%%C5
  7
STYLE3
 73
     1
 44
1.0
  0
POINT
  5
1F5F
330
1DBC
100
AcDbEntity
  8
DEFPOINTS
 62
     0
100
AcDbPoint
 10
76.51105773987612
 20
65.77978472273975
 30
0.0
  0
POINT
  5
1F60
330
1DBC
100
AcDbEntity
  8
DEFPOINTS
 62
     0
100
AcDbPoint
 10
81.51105773987612
 20
67.74009502005776
 30
0.0
  0
POINT
  5
1F61
330
1DBC
100
AcDbEntity
  8
DEFPOINTS
 62
     0
100
AcDbPoint
 10
81.51105773987612
 20
65.77978472273975
 30
0.0
  0
ENDBLK
  5
1DC9
330
1DBC
100
AcDbEntity
  8
0
100
AcDbBlockEnd
  0
ENDSEC
  0
SECTION
  2
ENTITIES
  0
LWPOLYLINE
  5
26C
330
18
100
AcDbEntity
  8
C
100
AcDbPolyline
 90
        5
 70
     0
 43
0.4
 10
0.0
 20
195.0
 10
255.0
 20
195.0
 10
255.0
 20
0.0
 10
0.0
 20
0.0
 10
0.0
 20
195.0
  0
LINE
  5
5A1
330
18
100
AcDbEntity
  8
中心線
100
AcDbLine
 10
146.7271995396993
 20
131.8677470000189
 30
0.0
 11
197.3267887924821
 21
131.8677470000189
 31
0.0
  0
LINE
  5
5AC
330
18
100
AcDbEntity
  8
外形線
100
AcDbLine
 10
153.5449441289995
 20
159.8177470000188
 30
0.0
 11
153.5449441289995
 21
103.9177470000189
 31
0.0
  0
LINE
  5
5AD
330
18
100
AcDbEntity
  8
外形線
100
AcDbLine
 10
152.0449441289994
 20
157.4677470000189
 30
0.0
 11
152.0449441289994
 21
106.2677470000189
 31
0.0
  0
LINE
  5
5AE
330
18
100
AcDbEntity
  8
外形線
100
AcDbLine
 10
154.4449441289995
 20
159.8177470000188
 30
0.0
 11
154.4449441289995
 21
103.9177470000189
 31
0.0
  0
LINE
  5
5AF
330
18
100
AcDbEntity
  8
外形線
100
AcDbLine
 10
159.6449441289994
 20
159.6677470000189
 30
0.0
 11
159.6449441289994
 21
104.0677470000188
 31
0.0
  0
LINE
  5
5B0
330
18
100
AcDbEntity
  8
外形線
100
AcDbLine
 10
160.3449441289994
 20
159.6677470000189
 30
0.0
 11
160.3449441290017
 21
105.3677470000188
 31
0.0
  0
LINE
  5
5B1
330
18
100
AcDbEntity
  8
外形線
100
AcDbLine
 10
161.2449441289994
 20
158.3677470000188
 30
0.0
 11
161.2449441289994
 21
105.3677470000188
 31
0.0
  0
CIRCLE
  5
5BB
330
18
100
AcDbEntity
  8
外形線
100
AcDbCircle
 10
79.01105773987615
 20
131.8677470000189
 30
0.0
 40
28.5
  0
ARC
  5
5BD
330
18
100
AcDbEntity
  8
外形線
  6
Continuous
100
AcDbCircle
 10
287.3782774623311
 20
131.8677470000189
 30
0.0
 40
137.7333333333317
100
AcDbArc
 50
169.2883499142895
 51
190.7116500857105
  0
LINE
  5
5C4
330
18
100
AcDbEntity
  8
中心線
100
AcDbLine
 10
48.47214634459792
 20
131.8677470000189
 30
0.0
 11
111.5079149841744
 21
131.8677470000189
 31
0.0
  0
LINE
  5
6EA
330
18
100
AcDbEntity
  8
外形線
100
AcDbLine
 10
154.7449441289995
 20
103.4177470000189
 30
0.0
 11
159.3449441289994
 21
103.4177470000189
 31
0.0
  0
LINE
  5
6EB
330
18
100
AcDbEntity
  8
外形線
  6
Continuous
 62
     4
100
AcDbLine
 10
154.4449441289994
 20
104.7209845517083
 30
0.0
 11
159.6449441289994
 21
104.7209845517083
 31
0.0
  0
LINE
  5
6EC
330
18
100
AcDbEntity
  8
外形線
  6
Continuous
 62
     4
100
AcDbLine
 10
154.4449441289994
 20
105.7209845517083
 30
0.0
 11
159.6449441289994
 21
105.7209845517083
 31
0.0
  0
LINE
  5
6ED
330
18
100
AcDbEntity
  8
外形線
  6
Continuous
 62
     4
100
AcDbLine
 10
154.4449441289994
 20
106.7209845517082
 30
0.0
 11
159.6449441289994
 21
106.7209845517082
 31
0.0
  0
LINE
  5
6EE
330
18
100
AcDbEntity
  8
外形線
  6
Continuous
 62
     4
100
AcDbLine
 10
154.4449441289994
 20
107.7209845517082
 30
0.0
 11
159.6449441289994
 21
107.7209845517082
 31
0.0
  0
LINE
  5
6EF
330
18
100
AcDbEntity
  8
外形線
  6
Continuous
 62
     4
100
AcDbLine
 10
154.4449441289994
 20
108.7209845517083
 30
0.0
 11
159.6449441289994
 21
108.7209845517083
 31
0.0
  0
LINE
  5
6F0
330
18
100
AcDbEntity
  8
外形線
100
AcDbLine
 10
152.0449441289994
 20
106.2677470000188
 30
0.0
 11
153.0995109515813
 21
104.1906142536894
 31
0.0
  0
POINT
  5
6F1
330
18
100
AcDbEntity
  8
DEFPOINTS
  6
ByBlock
 62
     0
100
AcDbPoint
 10
154.7449441289995
 20
103.4177470000189
 30
0.0
  0
POINT
  5
6F2
330
18
100
AcDbEntity
  8
DEFPOINTS
  6
ByBlock
 62
     0
100
AcDbPoint
 10
154.7449441289995
 20
103.4177470000189
 30
0.0
  0
LINE
  5
6F3
330
18
100
AcDbEntity
  8
外形線
100
AcDbLine
 10
154.7449441289995
 20
103.4177470000189
 30
0.0
 11
154.4449441289995
 21
103.9177470000189
 31
0.0
  0
ARC
  5
6F4
330
18
100
AcDbEntity
  8
外形線
100
AcDbCircle
 10
153.5449441289995
 20
104.4177470000189
 30
0.0
 40
0.5
100
AcDbArc
 50
206.8164116767147
 51
270.0
  0
LINE
  5
6F5
330
18
100
AcDbEntity
  8
外形線
100
AcDbLine
 10
153.5449441289995
 20
103.9177470000189
 30
0.0
 11
154.4449441289995
 21
103.9177470000189
 31
0.0
  0
LINE
  5
6F8
330
18
100
AcDbEntity
  8
外形線
100
AcDbLine
 10
160.3449441289994
 20
105.3677470000188
 30
0.0
 11
161.2449441289994
 21
105.3677470000188
 31
0.0
  0
LINE
  5
6F9
330
18
100
AcDbEntity
  8
外形線
100
AcDbLine
 10
160.3449441289994
 20
104.0677470000188
 30
0.0
 11
160.3449441289994
 21
105.3677470000188
 31
0.0
  0
LINE
  5
6FA
330
18
100
AcDbEntity
  8
外形線
100
AcDbLine
 10
159.6449441289994
 20
103.7177470000189
 30
0.0
 11
159.6449441289994
 21
104.0677470000188
 31
0.0
  0
LINE
  5
6FB
330
18
100
AcDbEntity
  8
外形線
100
AcDbLine
 10
159.6449441289994
 20
104.0677470000188
 30
0.0
 11
160.3449441289994
 21
104.0677470000188
 31
0.0
  0
LINE
  5
6FC
330
18
100
AcDbEntity
  8
外形線
100
AcDbLine
 10
159.6449441289994
 20
103.7177470000189
 30
0.0
 11
159.3449441289994
 21
103.4177470000189
 31
0.0
  0
LINE
  5
6FE
330
18
100
AcDbEntity
  8
外形線
  6
Continuous
 62
     4
100
AcDbLine
 10
154.4449441289994
 20
109.7209845517082
 30
0.0
 11
159.6449441289994
 21
109.7209845517083
 31
0.0
  0
LINE
  5
6FF
330
18
100
AcDbEntity
  8
外形線
  6
Continuous
 62
     4
100
AcDbLine
 10
159.6449441289994
 20
128.8677470000188
 30
0.0
 11
154.4449441289995
 21
128.8677470000188
 31
0.0
  0
LINE
  5
700
330
18
100
AcDbEntity
  8
外形線
  6
Continuous
 62
     4
100
AcDbLine
 10
159.6449441289994
 20
129.8677470000189
 30
0.0
 11
154.4449441289995
 21
129.8677470000188
 31
0.0
  0
LINE
  5
701
330
18
100
AcDbEntity
  8
外形線
  6
Continuous
 62
     4
100
AcDbLine
 10
159.6449441289994
 20
130.8677470000189
 30
0.0
 11
154.4449441289995
 21
130.8677470000189
 31
0.0
  0
LINE
  5
702
330
18
100
AcDbEntity
  8
外形線
  6
Continuous
 62
     4
100
AcDbLine
 10
159.6449441289994
 20
133.8677470000189
 30
0.0
 11
154.4449441289995
 21
133.8677470000189
 31
0.0
  0
LINE
  5
703
330
18
100
AcDbEntity
  8
外形線
  6
Continuous
 62
     4
100
AcDbLine
 10
159.6449441289994
 20
134.8677470000189
 30
0.0
 11
154.4449441289995
 21
134.8677470000189
 31
0.0
  0
LINE
  5
704
330
18
100
AcDbEntity
  8
外形線
  6
Continuous
 62
     4
100
AcDbLine
 10
159.6449441289994
 20
132.8677470000189
 30
0.0
 11
154.4449441289995
 21
132.8677470000189
 31
0.0
  0
LINE
  5
705
330
18
100
AcDbEntity
  8
外形線
  6
Continuous
 62
     4
100
AcDbLine
 10
158.9949441289994
 20
131.8677470000189
 30
0.0
 11
155.1949441289994
 21
131.8677470000189
 31
0.0
  0
POINT
  5
706
330
18
100
AcDbEntity
  8
DEFPOINTS
  6
ByBlock
 62
     0
100
AcDbPoint
 10
149.6449441289994
 20
131.8677470000189
 30
0.0
  0
POINT
  5
707
330
18
100
AcDbEntity
  8
DEFPOINTS
  6
ByBlock
 62
     0
100
AcDbPoint
 10
152.1449441289994
 20
131.8677470000189
 30
0.0
  0
LINE
  5
7AB
330
18
100
AcDbEntity
  8
外形線
100
AcDbLine
 10
154.7449441289995
 20
160.3177470000188
 30
0.0
 11
159.3449441289994
 21
160.3177470000188
 31
0.0
  0
LINE
  5
7AC
330
18
100
AcDbEntity
  8
外形線
  6
Continuous
 62
     4
100
AcDbLine
 10
154.4449441289995
 20
155.0145094483295
 30
0.0
 11
159.6449441289995
 21
155.0145094483295
 31
0.0
  0
LINE
  5
7AD
330
18
100
AcDbEntity
  8
外形線
  6
Continuous
 62
     4
100
AcDbLine
 10
154.4449441289995
 20
154.0145094483295
 30
0.0
 11
159.6449441289995
 21
154.0145094483295
 31
0.0
  0
LINE
  5
7AE
330
18
100
AcDbEntity
  8
外形線
  6
Continuous
 62
     4
100
AcDbLine
 10
154.4449441289995
 20
159.0145094483295
 30
0.0
 11
159.6449441289995
 21
159.0145094483295
 31
0.0
  0
LINE
  5
7AF
330
18
100
AcDbEntity
  8
外形線
  6
Continuous
 62
     4
100
AcDbLine
 10
154.4449441289995
 20
156.0145094483295
 30
0.0
 11
159.6449441289995
 21
156.0145094483296
 31
0.0
  0
LINE
  5
7B0
330
18
100
AcDbEntity
  8
外形線
  6
Continuous
 62
     4
100
AcDbLine
 10
154.4449441289995
 20
157.0145094483295
 30
0.0
 11
159.6449441289995
 21
157.0145094483295
 31
0.0
  0
LINE
  5
7B1
330
18
100
AcDbEntity
  8
外形線
  6
Continuous
 62
     4
100
AcDbLine
 10
154.4449441289995
 20
158.0145094483295
 30
0.0
 11
159.6449441289995
 21
158.0145094483295
 31
0.0
  0
LINE
  5
7B2
330
18
100
AcDbEntity
  8
外形線
100
AcDbLine
 10
152.0449441289994
 20
157.4677470000189
 30
0.0
 11
153.0995109515813
 21
159.5448797463484
 31
0.0
  0
POINT
  5
7B3
330
18
100
AcDbEntity
  8
DEFPOINTS
  6
ByBlock
 62
     0
100
AcDbPoint
 10
154.7449441289995
 20
160.3177470000188
 30
0.0
  0
ARC
  5
7B4
330
18
100
AcDbEntity
  8
外形線
100
AcDbCircle
 10
153.5449441289995
 20
159.3177470000189
 30
0.0
 40
0.5
100
AcDbArc
 50
90.0
 51
153.1835883232853
  0
LINE
  5
7B5
330
18
100
AcDbEntity
  8
外形線
100
AcDbLine
 10
154.7449441289995
 20
160.3177470000188
 30
0.0
 11
154.4449441289995
 21
159.8177470000188
 31
0.0
  0
LINE
  5
7B6
330
18
100
AcDbEntity
  8
外形線
100
AcDbLine
 10
153.5449441289995
 20
159.8177470000188
 30
0.0
 11
154.4449441289995
 21
159.8177470000188
 31
0.0
  0
LINE
  5
7B8
330
18
100
AcDbEntity
  8
外形線
100
AcDbLine
 10
160.3449441289994
 20
158.3677470000188
 30
0.0
 11
161.2449441289994
 21
158.3677470000188
 31
0.0
  0
LINE
  5
7B9
330
18
100
AcDbEntity
  8
外形線
100
AcDbLine
 10
159.6449441289994
 20
160.0177470000188
 30
0.0
 11
159.3449441289994
 21
160.3177470000188
 31
0.0
  0
LINE
  5
7BA
330
18
100
AcDbEntity
  8
外形線
100
AcDbLine
 10
159.6449441289994
 20
159.6677470000189
 30
0.0
 11
160.3449441289994
 21
159.6677470000189
 31
0.0
  0
LINE
  5
7BB
330
18
100
AcDbEntity
  8
外形線
100
AcDbLine
 10
159.6449441289994
 20
160.0177470000188
 30
0.0
 11
159.6449441289994
 21
159.6677470000189
 31
0.0
  0
LINE
  5
814
330
18
100
AcDbEntity
  8
中心線
100
AcDbLine
 10
79.01105773987609
 20
182.4513456750612
 30
0.0
 11
79.01105773987609
 21
22.91634968796518
 31
0.0
  0
LINE
  5
830
330
18
100
AcDbEntity
  8
中心線
100
AcDbLine
 10
167.1449441289994
 20
23.11431043066045
 30
0.0
 11
167.1449441289994
 21
183.2540095888353
 31
0.0
  0
LINE
  5
831
330
18
100
AcDbEntity
  8
外形線
100
AcDbLine
 10
174.1449441289994
 20
105.8677470000189
 30
0.0
 11
174.1449441289994
 21
157.8677470000188
 31
0.0
  0
LINE
  5
832
330
18
100
AcDbEntity
  8
外形線
100
AcDbLine
 10
161.2449441289995
 20
157.8677470000189
 30
0.0
 11
174.1449441289994
 21
157.8677470000188
 31
0.0
  0
LINE
  5
833
330
18
100
AcDbEntity
  8
外形線
100
AcDbLine
 10
161.2449441289995
 20
105.8677470000189
 30
0.0
 11
174.1449441289994
 21
105.8677470000189
 31
0.0
  0
LINE
  5
834
330
18
100
AcDbEntity
  8
外形線
 62
     2
100
AcDbLine
 10
188.864588184556
 20
137.3542918676403
 30
0.0
 11
192.6958281883957
 21
147.008562361702
 31
0.0
  0
LINE
  5
835
330
18
100
AcDbEntity
  8
0
  6
ByBlock
 62
     2
100
AcDbLine
 10
211.7303736650343
 20
155.3677470000189
 30
0.0
 11
211.7303736650343
 21
108.3677470000188
 31
0.0
  0
INSERT
  5
836
330
18
100
AcDbEntity
  8
0
  6
ByBlock
 62
     2
100
AcDbBlockReference
  2
_OPEN
 10
204.2909171647462
 20
139.8677470000187
 30
0.0
 41
2.5
 42
2.5
 43
2.5
 50
90.0
  0
LINE
  5
837
330
18
100
AcDbEntity
  8
外形線
100
AcDbLine
 10
176.6449441289993
 20
139.3677470000187
 30
0.0
 11
176.6449441289995
 21
124.3677470000186
 31
0.0
  0
ARC
  5
839
330
18
100
AcDbEntity
  8
外形線
100
AcDbCircle
 10
-155.2833209355642
 20
131.8677470000184
 30
0.0
 40
331.1128153357761
100
AcDbArc
 50
0.0000000000000787
 51
4.273479370893094
  0
LINE
  5
83A
330
18
100
AcDbEntity
  8
想像線
 48
0.5
100
AcDbLine
 10
178.6449441289994
 20
123.8661612565658
 30
0.0
 11
178.6449441289994
 21
139.8693327434716
 31
0.0
  0
LINE
  5
83B
330
18
100
AcDbEntity
  8
想像線
 48
0.5
100
AcDbLine
 10
183.6449441289994
 20
123.8677470000187
 30
0.0
 11
183.6449441289994
 21
139.8677470000187
 31
0.0
  0
ARC
  5
83C
330
18
100
AcDbEntity
  8
外形線
100
AcDbCircle
 10
187.1449441289994
 20
131.8677470000189
 30
0.0
 40
8.0
100
AcDbArc
 50
270.0
 51
90.0
  0
ARC
  5
83D
330
18
100
AcDbEntity
  8
外形線
100
AcDbCircle
 10
187.1449441289994
 20
131.8677470000189
 30
0.0
 40
7.5
100
AcDbArc
 50
270.0
 51
90.0
  0
ARC
  5
83E
330
18
100
AcDbEntity
  8
外形線
100
AcDbCircle
 10
187.1449441289994
 20
131.8677470000189
 30
0.0
 40
8.0
100
AcDbArc
 50
270.0
 51
90.0
  0
LINE
  5
83F
330
18
100
AcDbEntity
  8
0
  6
ByBlock
 62
     2
100
AcDbLine
 10
174.1449441289994
 20
105.8677470000189
 30
0.0
 11
212.9803736650343
 21
105.8677470000189
 31
0.0
  0
ARC
  5
840
330
18
100
AcDbEntity
  8
外形線
100
AcDbCircle
 10
-155.2833209355642
 20
131.8677470000193
 30
0.0
 40
331.1128153357761
100
AcDbArc
 50
355.7265206291069
 51
359.9999999999999
  0
POINT
  5
841
330
18
100
AcDbEntity
  8
DEFPOINTS
  6
ByBlock
 62
     0
100
AcDbPoint
 10
174.6449441289994
 20
105.8677470000189
 30
0.0
  0
ARC
  5
842
330
18
100
AcDbEntity
  8
外形線
100
AcDbCircle
 10
174.4143562436197
 20
107.2677470000188
 30
0.0
 40
0.5
100
AcDbArc
 50
270.0
 51
351.5372560443927
  0
CIRCLE
  5
844
330
18
100
AcDbEntity
  8
外形線
100
AcDbCircle
 10
187.1449441289994
 20
131.8677470000189
 30
0.0
 40
3.25
  0
ARC
  5
845
330
18
100
AcDbEntity
  8
外形線
100
AcDbCircle
 10
177.679361269104
 20
121.8677470000187
 30
0.0
 40
2.0
100
AcDbArc
 50
90.0
 51
178.2797302860686
  0
LINE
  5
846
330
18
100
AcDbEntity
  8
外形線
100
AcDbLine
 10
187.1449441289994
 20
124.3677470000187
 30
0.0
 11
176.6449441289995
 21
124.3677470000186
 31
0.0
  0
LINE
  5
847
330
18
100
AcDbEntity
  8
外形線
100
AcDbLine
 10
187.1449441289994
 20
123.8677470000187
 30
0.0
 11
177.679361269104
 21
123.8677470000187
 31
0.0
  0
LINE
  5
848
330
18
100
AcDbEntity
  8
0
  6
ByBlock
 62
     2
100
AcDbLine
 10
188.1449441289993
 20
123.8677470000187
 30
0.0
 11
205.5409171647462
 21
123.8677470000187
 31
0.0
  0
POINT
  5
849
330
18
100
AcDbEntity
  8
DEFPOINTS
  6
ByBlock
 62
     0
100
AcDbPoint
 10
188.1449441289993
 20
123.8677470000187
 30
0.0
  0
LINE
  5
84A
330
18
100
AcDbEntity
  8
外形線
 62
     2
100
AcDbLine
 10
188.1434755809816
 20
134.9605507344001
 30
0.0
 11
188.864588184556
 21
137.3542918676403
 31
0.0
  0
LINE
  5
84B
330
18
100
AcDbEntity
  8
外形線
 62
     2
100
AcDbLine
 10
188.1434755809816
 20
134.9605507344001
 30
0.0
 11
188.4656313290159
 21
137.4744773015694
 31
0.0
  0
LINE
  5
84C
330
18
100
AcDbEntity
  8
外形線
 62
     2
100
AcDbLine
 10
189.263545040096
 20
137.2341064337113
 30
0.0
 11
188.1434755809816
 21
134.9605507344001
 31
0.0
  0
MTEXT
  5
84D
330
18
100
AcDbEntity
  8
0
  6
ByBlock
 62
     6
100
AcDbMText
 10
202.4159171647462
 20
131.8677470000187
 30
0.0
 40
2.5
 41
0.0
 71
     5
 72
     1
  1
φ16
  7
STYLE3
 11
0.0000000000000001
 21
1.0
 31
0.0
 73
     1
 44
1.0
  0
LINE
  5
84E
330
18
100
AcDbEntity
  8
0
  6
ByBlock
 62
     2
100
AcDbLine
 10
204.2909171647462
 20
137.3677470000187
 30
0.0
 11
204.2909171647462
 21
126.3677470000187
 31
0.0
  0
POINT
  5
84F
330
18
100
AcDbEntity
  8
DEFPOINTS
  6
ByBlock
 62
     0
100
AcDbPoint
 10
204.2909171647462
 20
123.8677470000187
 30
0.0
  0
INSERT
  5
850
330
18
100
AcDbEntity
  8
0
  6
ByBlock
 62
     2
100
AcDbBlockReference
  2
_OPEN
 10
204.2909171647462
 20
123.8677470000187
 30
0.0
 41
2.5
 42
2.5
 43
2.5
 50
270.0
  0
POINT
  5
851
330
18
100
AcDbEntity
  8
DEFPOINTS
  6
ByBlock
 62
     0
100
AcDbPoint
 10
211.7303736650343
 20
105.8677470000189
 30
0.0
  0
INSERT
  5
852
330
18
100
AcDbEntity
  8
0
  6
ByBlock
 62
     2
100
AcDbBlockReference
  2
_OPEN
 10
211.7303736650343
 20
105.8677470000189
 30
0.0
 41
2.5
 42
2.5
 43
2.5
 50
270.0
  0
MTEXT
  5
853
330
18
100
AcDbEntity
  8
0
  6
ByBlock
 62
     6
100
AcDbMText
 10
209.8553736650343
 20
131.8677470000189
 30
0.0
 40
2.5
 41
0.0
 71
     5
 72
     1
  1
\A1;φ52
  7
STYLE3
 11
0.0000000000000001
 21
1.0
 31
0.0
 73
     1
 44
1.0
  0
LINE
  5
854
330
18
100
AcDbEntity
  8
0
  6
ByBlock
 62
     2
100
AcDbLine
 10
174.1449441289994
 20
157.8677470000188
 30
0.0
 11
212.9803736650343
 21
157.8677470000189
 31
0.0
  0
LINE
  5
856
330
18
100
AcDbEntity
  8
0
  6
ByBlock
 62
     2
100
AcDbLine
 10
186.1449441289994
 20
147.008562361702
 30
0.0
 11
188.6449441289994
 21
147.008562361702
 31
0.0
  0
INSERT
  5
857
330
18
100
AcDbEntity
  8
0
  6
ByBlock
 62
     2
100
AcDbBlockReference
  2
_OPEN
 10
178.6449441289994
 20
147.008562361702
 30
0.0
 41
2.5
 42
2.5
 43
2.5
  0
ARC
  5
858
330
18
100
AcDbEntity
  8
外形線
100
AcDbCircle
 10
177.679361269104
 20
141.8677470000186
 30
0.0
 40
2.0
100
AcDbArc
 50
181.7202697139297
 51
270.0
  0
LINE
  5
859
330
18
100
AcDbEntity
  8
外形線
100
AcDbLine
 10
187.1449441289994
 20
139.3677470000187
 30
0.0
 11
176.6449441289993
 21
139.3677470000187
 31
0.0
  0
LINE
  5
85A
330
18
100
AcDbEntity
  8
0
  6
ByBlock
 62
     2
100
AcDbLine
 10
176.1449441289994
 20
147.008562361702
 30
0.0
 11
173.6449441289994
 21
147.008562361702
 31
0.0
  0
LINE
  5
85B
330
18
100
AcDbEntity
  8
0
  6
ByBlock
 62
     2
100
AcDbLine
 10
183.6449441289994
 20
139.8677470000187
 30
0.0
 11
183.6449441289994
 21
148.258562361702
 31
0.0
  0
LINE
  5
85C
330
18
100
AcDbEntity
  8
0
  6
ByBlock
 62
     2
100
AcDbLine
 10
178.6449441289994
 20
139.8693327434716
 30
0.0
 11
178.6449441289994
 21
148.258562361702
 31
0.0
  0
LINE
  5
85D
330
18
100
AcDbEntity
  8
外形線
100
AcDbLine
 10
187.1449441289994
 20
139.8677470000187
 30
0.0
 11
177.679361269104
 21
139.8677470000186
 31
0.0
  0
POINT
  5
85E
330
18
100
AcDbEntity
  8
DEFPOINTS
  6
ByBlock
 62
     0
100
AcDbPoint
 10
178.6449441289994
 20
139.8693327434716
 30
0.0
  0
POINT
  5
85F
330
18
100
AcDbEntity
  8
DEFPOINTS
  6
ByBlock
 62
     0
100
AcDbPoint
 10
183.6449441289994
 20
139.8677470000187
 30
0.0
  0
LINE
  5
860
330
18
100
AcDbEntity
  8
0
  6
ByBlock
 62
     2
100
AcDbLine
 10
178.6449441289994
 20
147.008562361702
 30
0.0
 11
183.6449441289994
 21
147.008562361702
 31
0.0
  0
MTEXT
  5
861
330
18
100
AcDbEntity
  8
0
  6
ByBlock
 62
     6
100
AcDbMText
 10
181.1449441289994
 20
148.883562361702
 30
0.0
 40
2.5
 41
0.0
 71
     5
 72
     1
  1
\A1;5
  7
STYLE3
 73
     1
 44
1.0
  0
POINT
  5
862
330
18
100
AcDbEntity
  8
DEFPOINTS
  6
ByBlock
 62
     0
100
AcDbPoint
 10
183.6449441289994
 20
147.008562361702
 30
0.0
  0
INSERT
  5
863
330
18
100
AcDbEntity
  8
0
  6
ByBlock
 62
     2
100
AcDbBlockReference
  2
_OPEN
 10
183.6449441289994
 20
147.008562361702
 30
0.0
 41
2.5
 42
2.5
 43
2.5
 50
180.0
  0
POINT
  5
865
330
18
100
AcDbEntity
  8
DEFPOINTS
  6
ByBlock
 62
     0
100
AcDbPoint
 10
174.4449441289994
 20
157.8677470000189
 30
0.0
  0
ARC
  5
867
330
18
100
AcDbEntity
  8
外形線
100
AcDbCircle
 10
174.4143562436197
 20
156.4677470000189
 30
0.0
 40
0.5
100
AcDbArc
 50
8.462743955607335
 51
90.0
  0
TEXT
  5
869
330
18
100
AcDbEntity
  8
針
 62
     6
100
AcDbText
 10
192.3273983857536
 20
147.4083659472075
 30
0.0
 40
2.5
  1
φ6.5
  7
STYLE3
100
AcDbText
  0
LINE
  5
86A
330
18
100
AcDbEntity
  8
外形線
 62
     2
100
AcDbLine
 10
192.6958281883957
 20
147.008562361702
 30
0.0
 11
202.2321311654473
 21
147.008562361702
 31
0.0
  0
LINE
  5
86B
330
18
100
AcDbEntity
  8
0
  6
ByBlock
 62
     2
100
AcDbLine
 10
188.1449441289993
 20
139.8677470000187
 30
0.0
 11
205.5409171647462
 21
139.8677470000187
 31
0.0
  0
POINT
  5
86C
330
18
100
AcDbEntity
  8
DEFPOINTS
  6
ByBlock
 62
     0
100
AcDbPoint
 10
188.1449441289993
 20
139.8677470000187
 30
0.0
  0
INSERT
  5
86F
330
18
100
AcDbEntity
  8
0
  6
ByBlock
 62
     2
100
AcDbBlockReference
  2
_OPEN
 10
211.7303736650343
 20
157.8677470000189
 30
0.0
 41
2.5
 42
2.5
 43
2.5
 50
90.0
  0
LINE
  5
870
330
18
100
AcDbEntity
  8
中心線
100
AcDbLine
 10
187.1449441289994
 20
98.71313476393595
 30
0.0
 11
187.1449441289994
 21
142.640433425284
 31
0.0
  0
LINE
  5
872
330
18
100
AcDbEntity
  8
外形線
100
AcDbLine
 10
174.4143562436197
 20
156.9677470000189
 30
0.0
 11
174.1449441289994
 21
156.967747000019
 31
0.0
  0
LINE
  5
873
330
18
100
AcDbEntity
  8
外形線
100
AcDbLine
 10
174.4143562436197
 20
106.7677470000188
 30
0.0
 11
174.1449441289994
 21
106.7677470000188
 31
0.0
  0
LINE
  5
874
330
18
100
AcDbEntity
  8
外形線
100
AcDbLine
 10
167.1449441289994
 20
81.41774700001889
 30
0.0
 11
170.5449441289994
 21
81.41774700001889
 31
0.0
  0
LINE
  5
875
330
18
100
AcDbEntity
  8
外形線
100
AcDbLine
 10
171.1449441289994
 20
86.91774700001889
 30
0.0
 11
171.1449441289994
 21
105.8677470000189
 31
0.0
  0
LINE
  5
876
330
18
100
AcDbEntity
  8
外形線
100
AcDbLine
 10
163.1449441289994
 20
86.91774700001889
 30
0.0
 11
163.1449441289994
 21
105.8677470000189
 31
0.0
  0
LINE
  5
879
330
18
100
AcDbEntity
  8
外形線
100
AcDbLine
 10
163.1449441289994
 20
86.91774700001889
 30
0.0
 11
171.1449441289994
 21
86.91774700001889
 31
0.0
  0
ARC
  5
87C
330
18
100
AcDbEntity
  8
外形線
100
AcDbCircle
 10
170.8449441289994
 20
85.41774700001889
 30
0.0
 40
0.7
100
AcDbArc
 50
98.21321070173777
 51
261.7867892982622
  0
LINE
  5
87D
330
18
100
AcDbEntity
  8
外形線
100
AcDbLine
 10
170.7449441289994
 20
81.6177470000189
 30
0.0
 11
170.7449441289994
 21
84.72492667699134
 31
0.0
  0
LINE
  5
87E
330
18
100
AcDbEntity
  8
外形線
100
AcDbLine
 10
170.7449441289994
 20
86.11056732304644
 30
0.0
 11
170.7449441289994
 21
86.91774700001889
 31
0.0
  0
LINE
  5
87F
330
18
100
AcDbEntity
  8
外形線
100
AcDbLine
 10
170.5449441289994
 20
81.41774700001889
 30
0.0
 11
170.7449441289994
 21
81.6177470000189
 31
0.0
  0
LINE
  5
880
330
18
100
AcDbEntity
  8
外形線
100
AcDbLine
 10
170.7449441289994
 20
86.11056732304644
 30
0.0
 11
167.1449441289994
 21
86.11056732304644
 31
0.0
  0
LINE
  5
881
330
18
100
AcDbEntity
  8
外形線
100
AcDbLine
 10
170.7449441289994
 20
84.72492667699134
 30
0.0
 11
167.1449441289994
 21
84.72492667699134
 31
0.0
  0
ARC
  5
882
330
18
100
AcDbEntity
  8
外形線
100
AcDbCircle
 10
163.4449441289995
 20
85.41774700001889
 30
0.0
 40
0.7
100
AcDbArc
 50
278.2132107017377
 51
81.78678929826224
  0
LINE
  5
883
330
18
100
AcDbEntity
  8
外形線
100
AcDbLine
 10
163.5449441289995
 20
84.72492667699134
 30
0.0
 11
167.1449441289995
 21
84.72492667699134
 31
0.0
  0
LINE
  5
884
330
18
100
AcDbEntity
  8
外形線
100
AcDbLine
 10
167.1449441289994
 20
81.41774700001889
 30
0.0
 11
163.7449441289995
 21
81.41774700001889
 31
0.0
  0
LINE
  5
885
330
18
100
AcDbEntity
  8
外形線
100
AcDbLine
 10
163.7449441289995
 20
81.41774700001889
 30
0.0
 11
163.5449441289995
 21
81.6177470000189
 31
0.0
  0
LINE
  5
886
330
18
100
AcDbEntity
  8
外形線
100
AcDbLine
 10
163.5449441289995
 20
81.6177470000189
 30
0.0
 11
163.5449441289995
 21
84.72492667699134
 31
0.0
  0
LINE
  5
887
330
18
100
AcDbEntity
  8
外形線
100
AcDbLine
 10
163.5449441289995
 20
86.11056732304644
 30
0.0
 11
167.1449441289995
 21
86.11056732304644
 31
0.0
  0
LINE
  5
888
330
18
100
AcDbEntity
  8
外形線
100
AcDbLine
 10
163.5449441289995
 20
86.11056732304644
 30
0.0
 11
163.5449441289995
 21
86.91774700001889
 31
0.0
  0
ARC
  5
8C3
330
18
100
AcDbEntity
  8
外形線
100
AcDbCircle
 10
167.1449441289994
 20
175.1630952336154
 30
0.0
 40
6.0
100
AcDbArc
 50
37.65846200620783
 51
142.3415379937921
  0
LINE
  5
8C4
330
18
100
AcDbEntity
  8
外形線
100
AcDbLine
 10
171.8949441289995
 20
157.8677470000188
 30
0.0
 11
171.8949441289994
 21
170.7377951407514
 31
0.0
  0
LINE
  5
8C5
330
18
100
AcDbEntity
  8
外形線
100
AcDbLine
 10
162.3949441289994
 20
157.8677470000189
 30
0.0
 11
162.3949441289994
 21
167.769688815081
 31
0.0
  0
LINE
  5
8D4
330
18
100
AcDbEntity
  8
外形線
100
AcDbLine
 10
162.3949441289994
 20
178.8288148082692
 30
0.0
 11
171.8949441289995
 21
178.8288148082692
 31
0.0
  0
LINE
  5
8D5
330
18
100
AcDbEntity
  8
外形線
100
AcDbLine
 10
169.6449441289994
 20
33.86774700001883
 30
0.0
 11
169.6449441289994
 21
81.41774700001889
 31
0.0
  0
LINE
  5
8D6
330
18
100
AcDbEntity
  8
外形線
100
AcDbLine
 10
164.6449441289994
 20
33.86774700001891
 30
0.0
 11
164.6449441289994
 21
81.41774700001889
 31
0.0
  0
DIMENSION
  5
8E4
330
18
100
AcDbEntity
  8
外形線
100
AcDbDimension
  2
*D1
 10
187.1449441289994
 20
93.79091105182073
 30
0.0
 11
177.1449441289994
 21
95.66591105182073
 31
0.0
 70
    32
 71
     5
 42
20.0
  3
STYLE3
100
AcDbAlignedDimension
 13
167.1449441289994
 23
94.67968873832877
 33
0.0
 14
187.1449441289994
 24
98.71313476393595
 34
0.0
100
AcDbRotatedDimension
1001
ACAD
1000
DSTYLE
1002
{
1070
   271
1070
     2
1002
}
  0
LINE
  5
8F5
330
18
100
AcDbEntity
  8
外形線
100
AcDbLine
 10
171.8949441289995
 20
172.023935137122
 30
0.0
 11
171.8949441289995
 21
178.8288148082692
 31
0.0
  0
LINE
  5
8F6
330
18
100
AcDbEntity
  8
外形線
100
AcDbLine
 10
162.3949441289994
 20
169.0558288114516
 30
0.0
 11
162.3949441289994
 21
178.8288148082692
 31
0.0
  0
LINE
  5
9F6
330
18
100
AcDbEntity
  8
寸法線
100
AcDbLine
 10
168.1391112464671
 20
32.71774700001888
 30
0.0
 11
166.9891112464671
 21
33.86774700001891
 31
0.0
  0
LINE
  5
9F7
330
18
100
AcDbEntity
  8
寸法線
100
AcDbLine
 10
167.9812227583193
 20
32.71774700001888
 30
0.0
 11
169.1312227583193
 21
33.86774700001885
 31
0.0
  0
LINE
  5
9F8
330
18
100
AcDbEntity
  8
寸法線
100
AcDbLine
 10
169.3954363206924
 20
32.71774700001885
 30
0.0
 11
169.6449441289995
 21
32.96725480832586
 31
0.0
  0
LINE
  5
9F9
330
18
100
AcDbEntity
  8
寸法線
100
AcDbLine
 10
165.4450344101463
 20
32.71774700001888
 30
0.0
 11
164.6449441289994
 21
33.51783728116581
 31
0.0
  0
LINE
  5
9FA
330
18
100
AcDbEntity
  8
寸法線
100
AcDbLine
 10
166.7920728283068
 20
32.71774700001885
 30
0.0
 11
165.6420728283067
 21
33.86774700001891
 31
0.0
  0
LINE
  5
9FB
330
18
100
AcDbEntity
  8
寸法線
100
AcDbLine
 10
166.634184340159
 20
32.71774700001885
 30
0.0
 11
167.784184340159
 21
33.86774700001888
 31
0.0
  0
LINE
  5
9FC
330
18
100
AcDbEntity
  8
寸法線
100
AcDbLine
 10
169.5533248088402
 20
32.71774700001885
 30
0.0
 11
168.4033248088403
 21
33.86774700001888
 31
0.0
  0
LINE
  5
9FD
330
18
100
AcDbEntity
  8
寸法線
100
AcDbLine
 10
165.2871459219986
 20
32.71774700001885
 30
0.0
 11
166.3991114426394
 21
33.82971252065971
 31
0.0
  0
LINE
  5
9FE
330
18
100
AcDbEntity
  8
外形線
 48
0.5
100
AcDbLine
 10
164.6449441289995
 20
33.86774700001891
 30
0.0
 11
164.6449441289995
 21
32.71774700001888
 31
0.0
  0
LINE
  5
9FF
330
18
100
AcDbEntity
  8
外形線
 48
0.5
100
AcDbLine
 10
169.6449441289995
 20
33.86774700001883
 30
0.0
 11
169.6449441289995
 21
32.71774700001888
 31
0.0
  0
LINE
  5
A00
330
18
100
AcDbEntity
  8
寸法線
100
AcDbLine
 10
166.447995991986
 20
30.36774700001885
 30
0.0
 11
165.297995991986
 21
31.51774700001894
 31
0.0
  0
LINE
  5
A01
330
18
100
AcDbEntity
  8
外形線
100
AcDbLine
 10
164.6449441289995
 20
31.51774700001889
 30
0.0
 11
169.6449441289995
 21
31.51774700001889
 31
0.0
  0
LINE
  5
A02
330
18
100
AcDbEntity
  8
外形線
100
AcDbLine
 10
164.6449441289995
 20
32.71774700001888
 30
0.0
 11
169.6449441289995
 21
32.71774700001888
 31
0.0
  0
LINE
  5
A03
330
18
100
AcDbEntity
  8
外形線
100
AcDbLine
 10
164.6449441289995
 20
30.36774700001888
 30
0.0
 11
165.8449441289993
 21
25.86774700001888
 31
0.0
  0
LINE
  5
A04
330
18
100
AcDbEntity
  8
外形線
100
AcDbLine
 10
164.6449441289995
 20
30.36774700001888
 30
0.0
 11
169.6449441289995
 21
30.36774700001885
 31
0.0
  0
ARC
  5
A05
330
18
100
AcDbEntity
  8
外形線
100
AcDbCircle
 10
164.284389001453
 20
32.11774700001888
 30
0.0
 40
0.7
100
AcDbArc
 50
301.0027191338726
 51
58.99728086611815
  0
LINE
  5
A06
330
18
100
AcDbEntity
  8
寸法線
100
AcDbLine
 10
165.1009575738258
 20
30.36774700001888
 30
0.0
 11
164.6449441289994
 21
30.82376044484516
 31
0.0
  0
LINE
  5
A07
330
18
100
AcDbEntity
  8
寸法線
100
AcDbLine
 10
164.6461498607998
 20
30.72971252065969
 30
0.0
 11
165.434184340159
 21
31.51774700001886
 31
0.0
  0
LINE
  5
A08
330
18
100
AcDbEntity
  8
外形線
 48
0.5
100
AcDbLine
 10
164.6449441289995
 20
31.51774700001889
 30
0.0
 11
164.6449441289995
 21
30.36774700001888
 31
0.0
  0
ARC
  5
A0A
330
18
100
AcDbEntity
  8
外形線
100
AcDbCircle
 10
170.0054992565459
 20
32.11774700001888
 30
0.0
 40
0.7
100
AcDbArc
 50
121.0027191338818
 51
238.9972808661273
  0
LINE
  5
A0B
330
18
100
AcDbEntity
  8
寸法線
100
AcDbLine
 10
168.4596498830655
 20
30.36774700001888
 30
0.0
 11
169.6096498830657
 21
31.51774700001892
 31
0.0
  0
LINE
  5
A0C
330
18
100
AcDbEntity
  8
寸法線
100
AcDbLine
 10
167.0454363206925
 20
30.36774700001888
 30
0.0
 11
168.1954363206924
 21
31.51774700001889
 31
0.0
  0
LINE
  5
A0D
330
18
100
AcDbEntity
  8
寸法線
100
AcDbLine
 10
169.6449441289995
 20
31.21191411748646
 30
0.0
 11
169.339111246467
 21
31.51774700001892
 31
0.0
  0
LINE
  5
A0E
330
18
100
AcDbEntity
  8
寸法線
100
AcDbLine
 10
169.1420728283067
 20
30.36774700001888
 30
0.0
 11
167.9920728283068
 21
31.51774700001889
 31
0.0
  0
LINE
  5
A0F
330
18
100
AcDbEntity
  8
寸法線
100
AcDbLine
 10
167.7950344101463
 20
30.36774700001888
 30
0.0
 11
166.6450344101463
 21
31.51774700001892
 31
0.0
  0
LINE
  5
A10
330
18
100
AcDbEntity
  8
寸法線
100
AcDbLine
 10
165.6312227583194
 20
30.36774700001888
 30
0.0
 11
166.7812227583195
 21
31.51774700001892
 31
0.0
  0
LINE
  5
A11
330
18
100
AcDbEntity
  8
外形線
 48
0.5
100
AcDbLine
 10
169.6449441289995
 20
31.51774700001889
 30
0.0
 11
169.6449441289995
 21
30.36774700001885
 31
0.0
  0
LINE
  5
A12
330
18
100
AcDbEntity
  8
外形線
100
AcDbLine
 10
169.6449441289995
 20
30.36774700001888
 30
0.0
 11
168.4449441289994
 21
25.86774700001888
 31
0.0
  0
LINE
  5
A13
330
18
100
AcDbEntity
  8
外形線
100
AcDbLine
 10
165.8449441289993
 20
25.86774700001888
 30
0.0
 11
168.4449441289994
 21
25.86774700001888
 31
0.0
  0
LINE
  5
A14
330
18
100
AcDbEntity
  8
外形線
100
AcDbLine
 10
164.6449441289995
 20
33.86774700001891
 30
0.0
 11
169.6449441289995
 21
33.86774700001883
 31
0.0
  0
LINE
  5
A15
330
18
100
AcDbEntity
  8
寸法線
100
AcDbLine
 10
164.6449441289994
 20
33.4225836251801
 30
0.0
 11
165.0901075038382
 21
33.86774700001894
 31
0.0
  0
CIRCLE
  5
A2B
330
18
100
AcDbEntity
  8
外形線
100
AcDbCircle
 10
79.01105773987615
 20
131.8677470000189
 30
0.0
 40
24.75
  0
LINE
  5
A3D
330
18
100
AcDbEntity
  8
外形線
100
AcDbLine
 10
74.26105773987609
 20
159.969125969742
 30
0.0
 11
74.26105773987609
 21
167.769688815081
 31
0.0
  0
LINE
  5
A40
330
18
100
AcDbEntity
  8
外形線
100
AcDbLine
 10
74.26105773987612
 20
178.8288148082692
 30
0.0
 11
83.76105773987616
 21
178.8288148082692
 31
0.0
  0
ARC
  5
A41
330
18
100
AcDbEntity
  8
外形線
100
AcDbCircle
 10
79.01105773987612
 20
175.1630952336154
 30
0.0
 40
6.0
100
AcDbArc
 50
37.65846200620783
 51
142.3415379937921
  0
LINE
  5
A42
330
18
100
AcDbEntity
  8
外形線
100
AcDbLine
 10
74.26105773987609
 20
169.0558288114516
 30
0.0
 11
74.26105773987612
 21
178.8288148082692
 31
0.0
  0
LINE
  5
A43
330
18
100
AcDbEntity
  8
外形線
100
AcDbLine
 10
83.76105773987616
 20
159.969125969742
 30
0.0
 11
83.76105773987612
 21
170.7377951407514
 31
0.0
  0
LINE
  5
A44
330
18
100
AcDbEntity
  8
外形線
100
AcDbLine
 10
83.76105773987616
 20
172.023935137122
 30
0.0
 11
83.76105773987616
 21
178.8288148082692
 31
0.0
  0
LINE
  5
A45
330
18
100
AcDbEntity
  8
外形線
100
AcDbLine
 10
75.01105773987609
 20
86.91774700001889
 30
0.0
 11
75.01105773987612
 21
103.6498448809739
 31
0.0
  0
LINE
  5
A46
330
18
100
AcDbEntity
  8
外形線
100
AcDbLine
 10
83.01105773987613
 20
86.91774700001889
 30
0.0
 11
83.01105773987609
 21
103.6498448809739
 31
0.0
  0
LINE
  5
A47
330
18
100
AcDbEntity
  8
外形線
100
AcDbLine
 10
82.61105773987612
 20
84.72492667699134
 30
0.0
 11
79.01105773987612
 21
84.72492667699134
 31
0.0
  0
LINE
  5
A48
330
18
100
AcDbEntity
  8
外形線
100
AcDbLine
 10
82.61105773987612
 20
86.11056732304644
 30
0.0
 11
79.01105773987612
 21
86.11056732304644
 31
0.0
  0
ARC
  5
A49
330
18
100
AcDbEntity
  8
外形線
100
AcDbCircle
 10
82.71105773987612
 20
85.41774700001889
 30
0.0
 40
0.7
100
AcDbArc
 50
98.21321070173777
 51
261.7867892982622
  0
LINE
  5
A4A
330
18
100
AcDbEntity
  8
外形線
100
AcDbLine
 10
75.01105773987609
 20
86.91774700001889
 30
0.0
 11
83.01105773987613
 21
86.91774700001889
 31
0.0
  0
LINE
  5
A4B
330
18
100
AcDbEntity
  8
外形線
100
AcDbLine
 10
79.01105773987615
 20
81.41774700001889
 30
0.0
 11
82.41105773987612
 21
81.41774700001889
 31
0.0
  0
LINE
  5
A4C
330
18
100
AcDbEntity
  8
外形線
100
AcDbLine
 10
75.41105773987618
 20
86.11056732304644
 30
0.0
 11
75.41105773987618
 21
86.91774700001889
 31
0.0
  0
LINE
  5
A4D
330
18
100
AcDbEntity
  8
外形線
100
AcDbLine
 10
75.41105773987618
 20
86.11056732304644
 30
0.0
 11
79.01105773987618
 21
86.11056732304644
 31
0.0
  0
LINE
  5
A4E
330
18
100
AcDbEntity
  8
外形線
100
AcDbLine
 10
79.01105773987615
 20
81.41774700001889
 30
0.0
 11
75.61105773987617
 21
81.41774700001889
 31
0.0
  0
LINE
  5
A4F
330
18
100
AcDbEntity
  8
外形線
100
AcDbLine
 10
75.41105773987618
 20
84.72492667699134
 30
0.0
 11
79.01105773987618
 21
84.72492667699134
 31
0.0
  0
LINE
  5
A50
330
18
100
AcDbEntity
  8
外形線
100
AcDbLine
 10
75.41105773987618
 20
81.6177470000189
 30
0.0
 11
75.41105773987618
 21
84.72492667699134
 31
0.0
  0
LINE
  5
A51
330
18
100
AcDbEntity
  8
外形線
100
AcDbLine
 10
75.61105773987617
 20
81.41774700001889
 30
0.0
 11
75.41105773987618
 21
81.6177470000189
 31
0.0
  0
ARC
  5
A52
330
18
100
AcDbEntity
  8
外形線
100
AcDbCircle
 10
75.31105773987619
 20
85.41774700001889
 30
0.0
 40
0.7
100
AcDbArc
 50
278.2132107017377
 51
81.78678929826224
  0
LINE
  5
A53
330
18
100
AcDbEntity
  8
外形線
100
AcDbLine
 10
82.61105773987612
 20
86.11056732304644
 30
0.0
 11
82.61105773987612
 21
86.91774700001889
 31
0.0
  0
LINE
  5
A54
330
18
100
AcDbEntity
  8
外形線
100
AcDbLine
 10
82.41105773987612
 20
81.41774700001889
 30
0.0
 11
82.61105773987612
 21
81.6177470000189
 31
0.0
  0
LINE
  5
A55
330
18
100
AcDbEntity
  8
外形線
100
AcDbLine
 10
82.61105773987612
 20
81.6177470000189
 30
0.0
 11
82.61105773987612
 21
84.72492667699134
 31
0.0
  0
LINE
  5
A56
330
18
100
AcDbEntity
  8
外形線
100
AcDbLine
 10
81.51105773987618
 20
30.36774700001888
 30
0.0
 11
80.31105773987608
 21
25.86774700001888
 31
0.0
  0
LINE
  5
A57
330
18
100
AcDbEntity
  8
外形線
100
AcDbLine
 10
76.51105773987623
 20
30.36774700001888
 30
0.0
 11
77.71105773987605
 21
25.86774700001888
 31
0.0
  0
LINE
  5
A58
330
18
100
AcDbEntity
  8
外形線
100
AcDbLine
 10
77.71105773987605
 20
25.86774700001888
 30
0.0
 11
80.31105773987608
 21
25.86774700001888
 31
0.0
  0
LINE
  5
A5A
330
18
100
AcDbEntity
  8
外形線
100
AcDbLine
 10
76.51105773987623
 20
33.86774700001891
 30
0.0
 11
81.51105773987618
 21
33.86774700001883
 31
0.0
  0
LINE
  5
A5B
330
18
100
AcDbEntity
  8
寸法線
100
AcDbLine
 10
77.49733636919606
 20
30.36774700001888
 30
0.0
 11
78.64733636919615
 21
31.51774700001892
 31
0.0
  0
LINE
  5
A5C
330
18
100
AcDbEntity
  8
外形線
100
AcDbLine
 10
76.51105773987623
 20
30.36774700001888
 30
0.0
 11
81.51105773987618
 21
30.36774700001885
 31
0.0
  0
LINE
  5
A5D
330
18
100
AcDbEntity
  8
外形線
100
AcDbLine
 10
76.51105773987623
 20
32.71774700001888
 30
0.0
 11
81.51105773987618
 21
32.71774700001888
 31
0.0
  0
LINE
  5
A5E
330
18
100
AcDbEntity
  8
外形線
100
AcDbLine
 10
76.51105773987623
 20
31.51774700001889
 30
0.0
 11
81.51105773987618
 21
31.51774700001889
 31
0.0
  0
LINE
  5
A5F
330
18
100
AcDbEntity
  8
寸法線
100
AcDbLine
 10
78.31410960286271
 20
30.36774700001885
 30
0.0
 11
77.16410960286268
 21
31.51774700001894
 31
0.0
  0
LINE
  5
A60
330
18
100
AcDbEntity
  8
寸法線
100
AcDbLine
 10
78.65818643918348
 20
32.71774700001885
 30
0.0
 11
77.50818643918345
 21
33.86774700001891
 31
0.0
  0
LINE
  5
A61
330
18
100
AcDbEntity
  8
寸法線
100
AcDbLine
 10
76.51105773987612
 20
33.4225836251801
 30
0.0
 11
76.95622111471497
 21
33.86774700001894
 31
0.0
  0
LINE
  5
A62
330
18
100
AcDbEntity
  8
外形線
 48
0.5
100
AcDbLine
 10
76.51105773987623
 20
31.51774700001889
 30
0.0
 11
76.51105773987623
 21
30.36774700001888
 31
0.0
  0
LINE
  5
A63
330
18
100
AcDbEntity
  8
寸法線
100
AcDbLine
 10
76.5122634716765
 20
30.72971252065969
 30
0.0
 11
77.30029795103573
 21
31.51774700001886
 31
0.0
  0
LINE
  5
A64
330
18
100
AcDbEntity
  8
寸法線
100
AcDbLine
 10
76.96707118470252
 20
30.36774700001888
 30
0.0
 11
76.51105773987612
 21
30.82376044484516
 31
0.0
  0
ARC
  5
A65
330
18
100
AcDbEntity
  8
外形線
100
AcDbCircle
 10
76.15050261232969
 20
32.11774700001888
 30
0.0
 40
0.7
100
AcDbArc
 50
301.0027191338726
 51
58.99728086611815
  0
LINE
  5
A66
330
18
100
AcDbEntity
  8
外形線
 48
0.5
100
AcDbLine
 10
76.51105773987623
 20
33.86774700001891
 30
0.0
 11
76.51105773987623
 21
32.71774700001888
 31
0.0
  0
LINE
  5
A67
330
18
100
AcDbEntity
  8
寸法線
100
AcDbLine
 10
77.15325953287529
 20
32.71774700001885
 30
0.0
 11
78.30325953287533
 21
33.86774700001887
 31
0.0
  0
LINE
  5
A68
330
18
100
AcDbEntity
  8
寸法線
100
AcDbLine
 10
77.31114802102306
 20
32.71774700001888
 30
0.0
 11
76.51105773987612
 21
33.51783728116581
 31
0.0
  0
LINE
  5
A69
330
18
100
AcDbEntity
  8
外形線
 48
0.5
100
AcDbLine
 10
81.51105773987618
 20
31.51774700001889
 30
0.0
 11
81.51105773987618
 21
30.36774700001885
 31
0.0
  0
LINE
  5
A6A
330
18
100
AcDbEntity
  8
寸法線
100
AcDbLine
 10
79.66114802102302
 20
30.36774700001888
 30
0.0
 11
78.51114802102305
 21
31.51774700001892
 31
0.0
  0
LINE
  5
A6B
330
18
100
AcDbEntity
  8
寸法線
100
AcDbLine
 10
81.00818643918344
 20
30.36774700001888
 30
0.0
 11
79.85818643918347
 21
31.51774700001889
 31
0.0
  0
LINE
  5
A6C
330
18
100
AcDbEntity
  8
寸法線
100
AcDbLine
 10
81.51105773987618
 20
31.21191411748646
 30
0.0
 11
81.20522485734372
 21
31.51774700001892
 31
0.0
  0
LINE
  5
A6D
330
18
100
AcDbEntity
  8
寸法線
100
AcDbLine
 10
78.91154993156916
 20
30.36774700001888
 30
0.0
 11
80.06154993156915
 21
31.51774700001889
 31
0.0
  0
LINE
  5
A6E
330
18
100
AcDbEntity
  8
寸法線
100
AcDbLine
 10
80.32576349394222
 20
30.36774700001888
 30
0.0
 11
81.47576349394237
 21
31.51774700001892
 31
0.0
  0
ARC
  5
A6F
330
18
100
AcDbEntity
  8
外形線
100
AcDbCircle
 10
81.87161286742256
 20
32.11774700001888
 30
0.0
 40
0.7
100
AcDbArc
 50
121.0027191338818
 51
238.9972808661273
  0
LINE
  5
A70
330
18
100
AcDbEntity
  8
外形線
 48
0.5
100
AcDbLine
 10
81.51105773987618
 20
33.86774700001883
 30
0.0
 11
81.51105773987618
 21
32.71774700001888
 31
0.0
  0
LINE
  5
A71
330
18
100
AcDbEntity
  8
寸法線
100
AcDbLine
 10
81.4194384197169
 20
32.71774700001885
 30
0.0
 11
80.26943841971698
 21
33.86774700001888
 31
0.0
  0
LINE
  5
A72
330
18
100
AcDbEntity
  8
寸法線
100
AcDbLine
 10
78.50029795103572
 20
32.71774700001885
 30
0.0
 11
79.6502979510357
 21
33.86774700001888
 31
0.0
  0
LINE
  5
A73
330
18
100
AcDbEntity
  8
寸法線
100
AcDbLine
 10
81.26154993156914
 20
32.71774700001885
 30
0.0
 11
81.51105773987618
 21
32.96725480832586
 31
0.0
  0
LINE
  5
A74
330
18
100
AcDbEntity
  8
寸法線
100
AcDbLine
 10
79.84733636919603
 20
32.71774700001888
 30
0.0
 11
80.99733636919607
 21
33.86774700001885
 31
0.0
  0
LINE
  5
A75
330
18
100
AcDbEntity
  8
寸法線
100
AcDbLine
 10
80.00522485734384
 20
32.71774700001888
 30
0.0
 11
78.85522485734381
 21
33.86774700001891
 31
0.0
  0
LINE
  5
A76
330
18
100
AcDbEntity
  8
外形線
100
AcDbLine
 10
76.51105773987612
 20
33.86774700001891
 30
0.0
 11
76.51105773987612
 21
81.41774700001889
 31
0.0
  0
LINE
  5
A77
330
18
100
AcDbEntity
  8
外形線
100
AcDbLine
 10
81.51105773987612
 20
33.86774700001883
 30
0.0
 11
81.51105773987612
 21
81.41774700001889
 31
0.0
  0
HATCH
  5
C68
330
18
100
AcDbEntity
  8
針
100
AcDbHatch
 10
0.0
 20
0.0
 30
0.0
210
0.0
220
0.0
230
1.0
  2
SOLID
 70
     1
 71
     1
 91
        1
 92
        7
 72
     1
 73
     1
 93
        7
 10
65.33563720004671
 20
150.9795698607199
 42
0.0
 10
65.19810431100296
 20
150.8796463678301
 42
0.0
 10
65.06057142195922
 20
150.7797228749404
 42
0.0
 10
76.70043693698261
 20
134.1264267063496
 42
-0.1415080807226013
 10
77.23811620306671
 20
132.5508855709221
 42
-0.2955268067563409
 10
78.90922341539322
 20
133.7650160295339
 42
-0.1415080807225885
 10
77.57694678259706
 20
134.7632483854038
 42
0.0
 97
        7
330
D2B
330
D2A
330
C69
330
CD9
330
CCC
330
CDA
330
C6A
 75
     0
 76
     1
 47
0.0493295167285577
 98
        1
 10
73.9104051924931
 20
139.2080809056144
450
        0
451
        0
460
0.0
461
0.0
452
        0
462
0.0
453
        0
470

  0
LINE
  5
C69
102
{ACAD_REACTORS
330
C68
102
}
330
18
100
AcDbEntity
  8
針
100
AcDbLine
 10
76.70043693698261
 20
134.1264267063496
 30
0.0
 11
65.06057142195925
 21
150.7797228749403
 31
0.0
  0
LINE
  5
C6A
102
{ACAD_REACTORS
330
C68
102
}
330
18
100
AcDbEntity
  8
針
100
AcDbLine
 10
77.57694678259702
 20
134.7632483854039
 30
0.0
 11
65.33563720004673
 21
150.9795698607198
 31
0.0
  0
LINE
  5
C6C
330
18
100
AcDbEntity
  8
目盛
100
AcDbLine
 10
102.9834909778097
 20
138.022821707349
 30
0.0
 11
101.4821870780604
 21
137.6373523822435
 31
0.0
  0
LINE
  5
C6D
330
18
100
AcDbEntity
  8
目盛
100
AcDbLine
 10
55.03862450194259
 20
138.022821707349
 30
0.0
 11
56.53992840169195
 21
137.6373523822435
 31
0.0
  0
CIRCLE
  5
C6E
330
18
100
AcDbEntity
  8
外形線
100
AcDbCircle
 10
79.01105773987615
 20
131.8677470000189
 30
0.0
 40
16.5
  0
TEXT
  5
C70
330
18
100
AcDbEntity
  8
文字
100
AcDbText
 10
58.19086698615411
 20
137.366193333316
 30
0.0
 40
2.299999999999999
  1
80
  7
STYLE3
100
AcDbText
  0
TEXT
  5
C71
330
18
100
AcDbEntity
  8
文字
100
AcDbText
 10
95.51344108594468
 20
136.8392693491865
 30
0.0
 40
2.299999999999999
  1
20
  7
STYLE3
100
AcDbText
  0
TEXT
  5
C77
330
18
100
AcDbEntity
  8
文字
100
AcDbText
 10
88.88714230212542
 20
114.9568060719723
 30
0.0
 40
2.299999999999999
  1
40
  7
STYLE3
100
AcDbText
  0
LINE
  5
C78
330
18
100
AcDbEntity
  8
目盛
100
AcDbLine
 10
88.12214041882185
 20
108.8557789742846
 30
0.0
 11
87.55154736216065
 21
110.2969325274114
 31
0.0
  0
LINE
  5
C79
330
18
100
AcDbEntity
  8
目盛
100
AcDbLine
 10
83.64874527587295
 20
107.5561375444838
 30
0.0
 11
83.35830423826502
 21
109.0786827831133
 31
0.0
  0
LINE
  5
C7A
330
18
100
AcDbEntity
  8
目盛
100
AcDbLine
 10
86.65922835065618
 20
108.3290982217139
 30
0.0
 11
85.87123501500002
 21
110.7542923382665
 31
0.0
  0
LINE
  5
C7B
330
18
100
AcDbEntity
  8
目盛
100
AcDbLine
 10
85.16613244720639
 20
107.8953137620854
 30
0.0
 11
84.78066312210087
 21
109.3966176618347
 31
0.0
  0
LINE
  5
C7C
330
18
100
AcDbEntity
  8
目盛
100
AcDbLine
 10
74.37337020387952
 20
107.5561375444838
 30
0.0
 11
74.66381124148745
 21
109.0786827831134
 31
0.0
  0
LINE
  5
C7D
330
18
100
AcDbEntity
  8
目盛
100
AcDbLine
 10
72.85598303254602
 20
107.8953137620853
 30
0.0
 11
73.24145235765155
 21
109.3966176618347
 31
0.0
  0
LINE
  5
C7E
330
18
100
AcDbEntity
  8
目盛
100
AcDbLine
 10
79.0110577398762
 20
107.1177470000189
 30
0.0
 11
79.0110577398762
 21
109.6677470000189
 31
0.0
  0
LINE
  5
C7F
330
18
100
AcDbEntity
  8
目盛
100
AcDbLine
 10
71.36288712909617
 20
108.3290982217138
 30
0.0
 11
72.15088046475234
 21
110.7542923382665
 31
0.0
  0
LINE
  5
C80
330
18
100
AcDbEntity
  8
目盛
100
AcDbLine
 10
69.89997506093039
 20
108.8557789742847
 30
0.0
 11
70.47056811759166
 21
110.2969325274114
 31
0.0
  0
LINE
  5
C81
330
18
100
AcDbEntity
  8
目盛
100
AcDbLine
 10
80.56512309822664
 20
107.1665854714192
 30
0.0
 11
80.46779779295627
 21
108.7135269004829
 31
0.0
  0
LINE
  5
C82
330
18
100
AcDbEntity
  8
目盛
100
AcDbLine
 10
75.90906020915969
 20
107.3129081424855
 30
0.0
 11
76.10332672118437
 21
108.850685929523
 31
0.0
  0
LINE
  5
C83
330
18
100
AcDbEntity
  8
目盛
100
AcDbLine
 10
77.45699238152571
 20
107.1665854714192
 30
0.0
 11
77.55431768679613
 21
108.713526900483
 31
0.0
  0
LINE
  5
C84
330
18
100
AcDbEntity
  8
目盛
100
AcDbLine
 10
82.11305527059272
 20
107.3129081424855
 30
0.0
 11
81.9187887585681
 21
108.8506859295231
 31
0.0
  0
LINE
  5
C8B
330
18
100
AcDbEntity
  8
目盛
100
AcDbLine
 10
55.99908971414198
 20
122.7566643210731
 30
0.0
 11
57.44024326726872
 21
123.3272573777344
 31
0.0
  0
LINE
  5
C8C
330
18
100
AcDbEntity
  8
目盛
100
AcDbLine
 10
60.96908421119616
 20
114.9252061282839
 30
0.0
 11
62.0989855836994
 21
115.9862541424732
 31
0.0
  0
LINE
  5
C8D
330
18
100
AcDbEntity
  8
目盛
100
AcDbLine
 10
59.94085498117527
 20
116.0915032537388
 30
0.0
 11
61.13515050747782
 21
117.0795104378493
 31
0.0
  0
LINE
  5
C8E
330
18
100
AcDbEntity
  8
目盛
100
AcDbLine
 10
57.32246740879054
 20
119.9443435660014
 30
0.0
 11
58.68074276285852
 21
120.691061760859
 31
0.0
  0
LINE
  5
C8F
330
18
100
AcDbEntity
  8
目盛
100
AcDbLine
 10
56.6165881913422
 20
121.3297095337833
 30
0.0
 11
58.01907012266457
 21
121.9896674357092
 31
0.0
  0
LINE
  5
C90
330
18
100
AcDbEntity
  8
目盛
100
AcDbLine
 10
58.98788712909624
 20
117.3200620057802
 30
0.0
 11
61.05088046475237
 21
118.818914399126
 31
0.0
  0
LINE
  5
C91
330
18
100
AcDbEntity
  8
目盛
100
AcDbLine
 10
58.11394158370132
 20
118.6060338242887
 30
0.0
 11
59.42264986822948
 21
119.4365653565062
 31
0.0
  0
TEXT
  5
C92
330
18
100
AcDbEntity
  8
文字
100
AcDbText
 10
65.10630062607868
 20
114.5737643248652
 30
0.0
 40
2.299999999999999
  1
60
  7
STYLE3
100
AcDbText
  0
LINE
  5
C93
330
18
100
AcDbEntity
  8
目盛
100
AcDbLine
 10
65.74934456414593
 20
110.970630843844
 30
0.0
 11
66.57987609636342
 21
112.2793391283721
 31
0.0
  0
LINE
  5
C94
330
18
100
AcDbEntity
  8
目盛
100
AcDbLine
 10
62.0685168681411
 20
113.8257734713389
 30
0.0
 11
63.1295648823305
 21
114.9556748438421
 31
0.0
  0
LINE
  5
C95
330
18
100
AcDbEntity
  8
目盛
100
AcDbLine
 10
64.4633727456374
 20
111.8445763892389
 30
0.0
 11
65.96222513898323
 21
113.9075697248951
 31
0.0
  0
LINE
  5
C96
330
18
100
AcDbEntity
  8
目盛
100
AcDbLine
 10
63.23481399359611
 20
112.797544241318
 30
0.0
 11
64.22282117770652
 21
113.9918397676206
 31
0.0
  0
LINE
  5
C97
330
18
100
AcDbEntity
  8
目盛
100
AcDbLine
 10
68.4730202736406
 20
109.4732774514849
 30
0.0
 11
69.1329781755665
 21
110.8757593828072
 31
0.0
  0
LINE
  5
C98
330
18
100
AcDbEntity
  8
目盛
100
AcDbLine
 10
67.08765430585874
 20
110.1791566689332
 30
0.0
 11
67.83437250071642
 21
111.5374320230012
 31
0.0
  0
TEXT
  5
C99
330
18
100
AcDbEntity
  8
文字
  6
Continuous
 62
     4
100
AcDbText
 10
65.98403066008302
 20
117.6391340691713
 30
0.0
 40
1.199999999999999
  1
40
  7
STYLE3
100
AcDbText
  0
TEXT
  5
C9A
330
18
100
AcDbEntity
  8
文字
  6
Continuous
 62
     4
100
AcDbText
 10
60.0643858020818
 20
135.5042224098277
 30
0.0
 40
1.199999999999999
  1
20
  7
STYLE3
100
AcDbText
  0
TEXT
  5
C9B
330
18
100
AcDbEntity
  8
文字
  6
Continuous
 62
     4
100
AcDbText
 10
60.14628941837031
 20
127.115568823676
 30
0.0
 40
1.199999999999999
  1
30
  7
STYLE3
100
AcDbText
  0
TEXT
  5
C9C
330
18
100
AcDbEntity
  8
文字
100
AcDbText
 10
58.18416932795628
 20
123.9997144753925
 30
0.0
 40
2.299999999999999
  1
70
  7
STYLE3
100
AcDbText
  0
LINE
  5
C9D
330
18
100
AcDbEntity
  8
目盛
100
AcDbLine
 10
55.47240896157109
 20
124.2195763892389
 30
0.0
 11
57.89760307812372
 21
125.007569724895
 31
0.0
  0
LINE
  5
C9E
330
18
100
AcDbEntity
  8
目盛
100
AcDbLine
 10
54.69944828434103
 20
127.2300594640221
 30
0.0
 11
56.22199352297053
 21
127.52050050163
 31
0.0
  0
LINE
  5
C9F
330
18
100
AcDbEntity
  8
目盛
100
AcDbLine
 10
54.45621888234274
 20
128.7657494693023
 30
0.0
 11
55.99399666938023
 21
128.960015981327
 31
0.0
  0
LINE
  5
CA0
330
18
100
AcDbEntity
  8
目盛
100
AcDbLine
 10
54.3098962112764
 20
130.3136816416684
 30
0.0
 11
55.85683764034019
 21
130.4110069469388
 31
0.0
  0
LINE
  5
CA1
330
18
100
AcDbEntity
  8
目盛
100
AcDbLine
 10
55.03862450194254
 20
125.7126722926887
 30
0.0
 11
56.53992840169189
 21
126.0981416177942
 31
0.0
  0
LINE
  5
CA2
330
18
100
AcDbEntity
  8
目盛
100
AcDbLine
 10
54.26105773987621
 20
131.8677470000189
 30
0.0
 11
56.81105773987622
 21
131.8677470000189
 31
0.0
  0
LINE
  5
CA3
330
18
100
AcDbEntity
  8
目盛
100
AcDbLine
 10
54.45621888234285
 20
134.9697445307354
 30
0.0
 11
55.9939966693803
 21
134.7754780187107
 31
0.0
  0
LINE
  5
CA4
330
18
100
AcDbEntity
  8
目盛
100
AcDbLine
 10
54.69944828434115
 20
136.5054345360156
 30
0.0
 11
56.22199352297065
 21
136.2149934984076
 31
0.0
  0
LINE
  5
CA5
330
18
100
AcDbEntity
  8
目盛
100
AcDbLine
 10
54.3098962112765
 20
133.4218123583694
 30
0.0
 11
55.8568376403403
 21
133.3244870530989
 31
0.0
  0
ARC
  5
CA6
102
{ACAD_REACTORS
330
101B
102
}
330
18
100
AcDbEntity
  8
針
100
AcDbCircle
 10
88.23004884278082
 20
133.918510021469
 30
0.0
 40
0.5789473684210527
100
AcDbArc
 50
292.5682212975196
 51
358.0065408792653
  0
ARC
  5
CA7
102
{ACAD_REACTORS
330
101B
102
}
330
18
100
AcDbEntity
  8
針
100
AcDbCircle
 10
89.72308228126621
 20
133.8872354292654
 30
0.0
 40
0.5789473684210527
100
AcDbArc
 50
179.5934591207347
 51
245.0317787024804
  0
TEXT
  5
CAE
330
18
100
AcDbEntity
  8
文字
100
AcDbText
 10
76.84628493883884
 20
110.3551006296265
 30
0.0
 40
2.299999999999999
  1
50
  7
STYLE3
100
AcDbText
  0
POINT
  5
CAF
330
18
100
AcDbEntity
  8
DEFPOINTS
  6
ByBlock
 62
     0
100
AcDbPoint
 10
79.01105773987615
 20
112.3677470000189
 30
0.0
  0
TEXT
  5
CB0
330
18
100
AcDbEntity
  8
文字
  6
Continuous
 62
     4
100
AcDbText
 10
77.8791226939436
 20
113.3743383270378
 30
0.0
 40
1.199999999999999
  1
50
  7
STYLE3
100
AcDbText
  0
CIRCLE
  5
CB1
330
18
100
AcDbEntity
  8
針
 62
     4
100
AcDbCircle
 10
88.94105773987609
 20
132.2077470000188
 30
0.0
 40
0.4631578947368422
  0
CIRCLE
  5
CB2
330
18
100
AcDbEntity
  8
針
100
AcDbCircle
 10
88.94105773987609
 20
132.2077470000188
 30
0.0
 40
0.8684210526315789
  0
CIRCLE
  5
CB3
102
{ACAD_REACTORS
330
101B
102
}
330
18
100
AcDbEntity
  8
針
100
AcDbCircle
 10
88.94105773987609
 20
132.2077470000188
 30
0.0
 40
1.273684210526315
  0
HATCH
  5
CB4
330
18
100
AcDbEntity
  8
針
100
AcDbHatch
 10
0.0
 20
0.0
 30
0.0
210
0.0
220
0.0
230
1.0
  2
SOLID
 70
     1
 71
     0
 91
        4
 92
        7
 72
     1
 73
     1
 93
        4
 10
87.6855827950365
 20
132.4223492624121
 42
0.0
 10
88.08505209566732
 20
132.3540667243779
 42
-0.4142135623730951
 10
89.0873774642351
 20
133.0637526442274
 42
0.0
 10
89.15566000226931
 20
133.4632219448582
 42
0.4142135623730996
 97
        0
 92
        7
 72
     1
 73
     1
 93
        5
 10
88.08505209566732
 20
132.3540667243779
 42
0.0
 10
87.6855827950365
 20
132.4223492624121
 42
0.3173569687788799
 10
88.31829730986624
 20
131.0966930342015
 42
0.0
 10
88.78894327887053
 20
131.3178407501485
 42
0.0
 10
88.79473801551688
 20
131.3517413558099
 42
-0.4142135623730839
 97
        0
 92
        7
 72
     1
 73
     1
 93
        4
 10
89.15566000226931
 20
133.4632219448582
 42
0.0
 10
89.0873774642351
 20
133.0637526442274
 42
-0.4142135623730951
 10
89.79706338408481
 20
132.0614272756596
 42
0.0
 10
90.19653268471552
 20
131.9931447376254
 42
0.4142135623730996
 97
        0
 92
        7
 72
     1
 73
     1
 93
        4
 10
89.79706338408481
 20
132.0614272756596
 42
-0.1036385141593389
 10
89.66632656937969
 20
131.7301067069068
 42
0.0
 10
90.19384571181825
 20
131.977978060645
 42
0.003023315109616
 10
90.19653268471552
 20
131.9931447376254
 42
0.0
 97
        0
 75
     0
 76
     1
 47
0.0223982890607777
 98
        4
 10
88.37819684265197
 20
133.2059964512078
 10
87.9718446021177
 20
131.9062181020909
 10
89.45693600683654
 20
133.2059243088514
 10
89.87805580073558
 20
131.9753552715133
450
        0
451
        0
460
0.0
461
0.0
452
        0
462
0.0
453
        0
470

  0
HATCH
  5
CB5
330
18
100
AcDbEntity
  8
針
100
AcDbHatch
 10
0.0
 20
0.0
 30
0.0
210
0.0
220
0.0
230
1.0
  2
SOLID
 70
     1
 71
     0
 91
        2
 92
        7
 72
     1
 73
     1
 93
        5
 10
89.32406196871836
 20
130.9930127785393
 42
0.31735696877887
 10
90.21390983029579
 20
132.1617141415555
 42
0.0
 10
89.80208613400623
 20
132.4792282098784
 42
0.0
 10
89.76928561815743
 20
132.4688862469566
 42
-0.4142135623731173
 10
89.20219698681398
 20
131.3795191217373
 42
0.0
 97
        0
 92
        7
 72
     1
 73
     1
 93
        4
 10
89.32406196871836
 20
130.9930127785393
 42
0.0
 10
89.20219698681398
 20
131.3795191217373
 42
-0.4142135623730728
 10
88.11282986159477
 20
131.9466077530808
 42
0.0
 10
87.72632351839678
 20
131.8247427711764
 42
0.4142135623730844
 97
        0
 75
     0
 76
     1
 47
0.0161501285364394
 98
        2
 10
89.69000616281135
 20
131.3856052851011
 10
88.89904728099049
 20
131.1558242242301
450
        0
451
        0
460
0.0
461
0.0
452
        0
462
0.0
453
        0
470

  0
LINE
  5
CC4
330
18
100
AcDbEntity
  8
目盛
100
AcDbLine
 10
89.5490952061117
 20
109.4732774514848
 30
0.0
 11
88.88913730418591
 21
110.8757593828072
 31
0.0
  0
CIRCLE
  5
CCB
330
18
100
AcDbEntity
  8
針
100
AcDbCircle
 10
79.01105773987615
 20
131.8677470000189
 30
0.0
 40
1.7
  0
CIRCLE
  5
CCC
102
{ACAD_REACTORS
330
C68
102
}
330
18
100
AcDbEntity
  8
針
100
AcDbCircle
 10
79.01105773987615
 20
131.8677470000189
 30
0.0
 40
1.9
  0
LINE
  5
CCE
102
{ACAD_REACTORS
330
101B
102
}
330
18
100
AcDbEntity
  8
針
100
AcDbLine
 10
88.80864583493456
 20
133.8983711021253
 30
0.0
 11
88.93926451420725
 21
137.903261728391
 31
0.0
  0
LINE
  5
CCF
102
{ACAD_REACTORS
330
101B
102
}
330
18
100
AcDbEntity
  8
針
100
AcDbLine
 10
89.14414948656617
 20
133.8913433024678
 30
0.0
 11
89.17079267248572
 21
137.898411904839
 31
0.0
  0
ARC
  5
CD9
102
{ACAD_REACTORS
330
C68
102
}
330
18
100
AcDbEntity
  8
針
100
AcDbCircle
 10
74.24153189649809
 20
132.4077685082545
 30
0.0
 40
3.0
100
AcDbArc
 50
2.734372387603558
 51
34.95172612198594
  0
ARC
  5
CDA
102
{ACAD_REACTORS
330
C68
102
}
330
18
100
AcDbEntity
  8
針
100
AcDbCircle
 10
79.97133130624337
 20
136.5707114563745
 30
0.0
 40
3.0
100
AcDbArc
 50
217.0482738780141
 51
249.2656276123965
  0
CIRCLE
  5
CDB
330
18
100
AcDbEntity
  8
針
100
AcDbCircle
 10
79.01105773987615
 20
131.8677470000189
 30
0.0
 40
0.475
  0
LINE
  5
D01
330
18
100
AcDbEntity
  8
目盛
100
AcDbLine
 10
102.0230257656103
 20
122.7566643210731
 30
0.0
 11
100.5818722124836
 21
123.3272573777344
 31
0.0
  0
LINE
  5
D02
330
18
100
AcDbEntity
  8
目盛
100
AcDbLine
 10
100.6996480709617
 20
119.9443435660014
 30
0.0
 11
99.34137271689372
 21
120.6910617608591
 31
0.0
  0
LINE
  5
D03
330
18
100
AcDbEntity
  8
目盛
100
AcDbLine
 10
99.90817389605098
 20
118.6060338242887
 30
0.0
 11
98.59946561152288
 21
119.4365653565061
 31
0.0
  0
LINE
  5
D04
330
18
100
AcDbEntity
  8
目盛
100
AcDbLine
 10
98.0812604985769
 20
116.0915032537389
 30
0.0
 11
96.88696497227448
 21
117.0795104378493
 31
0.0
  0
LINE
  5
D05
330
18
100
AcDbEntity
  8
目盛
100
AcDbLine
 10
95.95359861161119
 20
113.8257734713389
 30
0.0
 11
94.89255059742175
 21
114.9556748438422
 31
0.0
  0
LINE
  5
D06
330
18
100
AcDbEntity
  8
目盛
100
AcDbLine
 10
94.78730148615619
 20
112.797544241318
 30
0.0
 11
93.79929430204578
 21
113.9918397676206
 31
0.0
  0
LINE
  5
D07
330
18
100
AcDbEntity
  8
目盛
100
AcDbLine
 10
90.93446117389367
 20
110.1791566689332
 30
0.0
 11
90.18774297903599
 21
111.5374320230012
 31
0.0
  0
LINE
  5
D08
330
18
100
AcDbEntity
  8
目盛
100
AcDbLine
 10
93.55874273411485
 20
111.8445763892389
 30
0.0
 11
92.05989034076907
 21
113.907569724895
 31
0.0
  0
LINE
  5
D09
330
18
100
AcDbEntity
  8
目盛
100
AcDbLine
 10
92.27277091560631
 20
110.970630843844
 30
0.0
 11
91.44223938338887
 21
112.279339128372
 31
0.0
  0
LINE
  5
D0A
330
18
100
AcDbEntity
  8
目盛
100
AcDbLine
 10
97.05303126855614
 20
114.9252061282839
 30
0.0
 11
95.92312989605289
 21
115.9862541424732
 31
0.0
  0
TEXT
  5
D0D
330
18
100
AcDbEntity
  8
文字
  6
Continuous
 62
     4
100
AcDbText
 10
90.19590064937359
 20
118.0142871168348
 30
0.0
 40
1.199999999999999
  1
60
  7
STYLE3
100
AcDbText
  0
LINE
  5
D0E
330
18
100
AcDbEntity
  8
目盛
100
AcDbLine
 10
99.03422835065606
 20
117.3200620057802
 30
0.0
 11
96.971235015
 21
118.818914399126
 31
0.0
  0
LINE
  5
D0F
330
18
100
AcDbEntity
  8
目盛
100
AcDbLine
 10
101.4055272884101
 20
121.3297095337834
 30
0.0
 11
100.0030453570878
 21
121.9896674357092
 31
0.0
  0
TEXT
  5
D10
330
18
100
AcDbEntity
  8
文字
  6
Continuous
 62
     4
100
AcDbText
 10
95.73117510566749
 20
127.353800195565
 30
0.0
 40
1.199999999999999
  1
70
  7
STYLE3
100
AcDbText
  0
TEXT
  5
D11
330
18
100
AcDbEntity
  8
文字
100
AcDbText
 10
95.3775868665166
 20
124.2727470184923
 30
0.0
 40
2.299999999999999
  1
30
  7
STYLE3
100
AcDbText
  0
TEXT
  5
D13
330
18
100
AcDbEntity
  8
文字
  6
Continuous
 62
     4
100
AcDbText
 10
95.871499389473
 20
134.3596984551782
 30
0.0
 40
1.199999999999999
  1
80
  7
STYLE3
100
AcDbText
  0
LINE
  5
D14
330
18
100
AcDbEntity
  8
目盛
100
AcDbLine
 10
103.5658965974095
 20
128.7657494693023
 30
0.0
 11
102.028118810372
 21
128.960015981327
 31
0.0
  0
LINE
  5
D15
330
18
100
AcDbEntity
  8
目盛
100
AcDbLine
 10
103.3226671954112
 20
127.2300594640222
 30
0.0
 11
101.8001219567817
 21
127.5205005016301
 31
0.0
  0
LINE
  5
D16
330
18
100
AcDbEntity
  8
目盛
100
AcDbLine
 10
102.9834909778097
 20
125.7126722926887
 30
0.0
 11
101.4821870780604
 21
126.0981416177942
 31
0.0
  0
LINE
  5
D17
330
18
100
AcDbEntity
  8
目盛
100
AcDbLine
 10
103.7122192684758
 20
130.3136816416684
 30
0.0
 11
102.165277839412
 21
130.4110069469388
 31
0.0
  0
LINE
  5
D18
330
18
100
AcDbEntity
  8
目盛
100
AcDbLine
 10
102.5497065181812
 20
124.2195763892389
 30
0.0
 11
100.1245124016285
 21
125.007569724895
 31
0.0
  0
LINE
  5
D19
330
18
100
AcDbEntity
  8
目盛
100
AcDbLine
 10
103.3226671954112
 20
136.5054345360156
 30
0.0
 11
101.8001219567817
 21
136.2149934984077
 31
0.0
  0
LINE
  5
D1A
330
18
100
AcDbEntity
  8
目盛
100
AcDbLine
 10
103.5658965974095
 20
134.9697445307354
 30
0.0
 11
102.028118810372
 21
134.7754780187107
 31
0.0
  0
LINE
  5
D1B
330
18
100
AcDbEntity
  8
目盛
100
AcDbLine
 10
103.7122192684759
 20
133.4218123583693
 30
0.0
 11
102.1652778394121
 21
133.3244870530989
 31
0.0
  0
LINE
  5
D1C
330
18
100
AcDbEntity
  8
目盛
100
AcDbLine
 10
103.7610577398761
 20
131.8677470000189
 30
0.0
 11
101.2110577398761
 21
131.8677470000189
 31
0.0
  0
TEXT
  5
D1D
330
18
100
AcDbEntity
  8
文字
  6
Continuous
 62
     4
100
AcDbText
 10
88.82988313716282
 20
145.0050277655005
 30
0.0
 40
1.199999999999999
  1
90
  7
STYLE3
100
AcDbText
  0
TEXT
  5
D1E
330
18
100
AcDbEntity
  8
文字
100
AcDbText
 10
88.15847223663865
 20
146.9183665483358
 30
0.0
 40
2.299999999999999
  1
10
  7
STYLE3
100
AcDbText
  0
LINE
  5
D1F
330
18
100
AcDbEntity
  8
目盛
100
AcDbLine
 10
65.74934456414604
 20
152.7648631561937
 30
0.0
 11
66.57987609636342
 21
151.4561548716656
 31
0.0
  0
LINE
  5
D20
330
18
100
AcDbEntity
  8
目盛
100
AcDbLine
 10
60.96908421119616
 20
148.8102878717539
 30
0.0
 11
62.09898558369935
 21
147.7492398575645
 31
0.0
  0
LINE
  5
D21
330
18
100
AcDbEntity
  8
目盛
100
AcDbLine
 10
58.11394158370132
 20
145.129460175749
 30
0.0
 11
59.42264986822937
 21
144.2989286435316
 31
0.0
  0
LINE
  5
D22
330
18
100
AcDbEntity
  8
目盛
100
AcDbLine
 10
55.47240896157109
 20
139.5159176107988
 30
0.0
 11
57.89760307812378
 21
138.7279242751427
 31
0.0
  0
LINE
  5
D23
330
18
100
AcDbEntity
  8
目盛
100
AcDbLine
 10
55.99908971414191
 20
140.9788296789646
 30
0.0
 11
57.44024326726872
 21
140.4082366223033
 31
0.0
  0
LINE
  5
D24
330
18
100
AcDbEntity
  8
目盛
100
AcDbLine
 10
56.61658819134214
 20
142.4057844662544
 30
0.0
 11
58.01907012266446
 21
141.7458265643285
 31
0.0
  0
LINE
  5
D25
330
18
100
AcDbEntity
  8
目盛
100
AcDbLine
 10
57.32246740879048
 20
143.7911504340363
 30
0.0
 11
58.68074276285852
 21
143.0444322391786
 31
0.0
  0
LINE
  5
D26
330
18
100
AcDbEntity
  8
目盛
100
AcDbLine
 10
58.98788712909618
 20
146.4154319942575
 30
0.0
 11
61.05088046475231
 21
144.9165796009117
 31
0.0
  0
LINE
  5
D27
330
18
100
AcDbEntity
  8
目盛
100
AcDbLine
 10
59.94085498117539
 20
147.6439907462989
 30
0.0
 11
61.13515050747782
 21
146.6559835621884
 31
0.0
  0
TEXT
  5
D28
330
18
100
AcDbEntity
  8
文字
  6
Continuous
 62
     4
100
AcDbText
 10
65.86743718333071
 20
144.8071713045628
 30
0.0
 40
1.199999999999999
  1
10
  7
STYLE3
100
AcDbText
  0
TEXT
  5
D29
330
18
100
AcDbEntity
  8
文字
100
AcDbText
 10
64.97921276247257
 20
146.7613106550699
 30
0.0
 40
2.299999999999999
  1
90
  7
STYLE3
100
AcDbText
  0
LINE
  5
D2A
102
{ACAD_REACTORS
330
C68
102
}
330
18
100
AcDbEntity
  8
針
100
AcDbLine
 10
65.19810431100296
 20
150.8796463678301
 30
0.0
 11
65.06057142195931
 21
150.7797228749405
 31
0.0
  0
LINE
  5
D2B
102
{ACAD_REACTORS
330
C68
102
}
330
18
100
AcDbEntity
  8
針
100
AcDbLine
 10
65.19810431100296
 20
150.8796463678301
 30
0.0
 11
65.33563720004662
 21
150.9795698607198
 31
0.0
  0
LINE
  5
D2C
330
18
100
AcDbEntity
  8
目盛
100
AcDbLine
 10
62.0685168681411
 20
149.9097205286988
 30
0.0
 11
63.1295648823305
 21
148.7798191561956
 31
0.0
  0
LINE
  5
D2D
330
18
100
AcDbEntity
  8
目盛
100
AcDbLine
 10
63.23481399359611
 20
150.9379497587197
 30
0.0
 11
64.22282117770652
 21
149.7436542324171
 31
0.0
  0
LINE
  5
D2E
330
18
100
AcDbEntity
  8
目盛
100
AcDbLine
 10
64.4633727456374
 20
151.8909176107988
 30
0.0
 11
65.96222513898323
 21
149.8279242751427
 31
0.0
  0
LINE
  5
D2F
330
18
100
AcDbEntity
  8
目盛
100
AcDbLine
 10
67.08765430585867
 20
153.5563373311045
 30
0.0
 11
67.83437250071632
 21
152.1980619770365
 31
0.0
  0
LINE
  5
D30
330
18
100
AcDbEntity
  8
目盛
100
AcDbLine
 10
68.47302027364065
 20
154.2622165485529
 30
0.0
 11
69.13297817556645
 21
152.8597346172304
 31
0.0
  0
LINE
  5
D31
330
18
100
AcDbEntity
  8
目盛
100
AcDbLine
 10
69.89997506093039
 20
154.8797150257531
 30
0.0
 11
70.47056811759166
 21
153.4385614726263
 31
0.0
  0
TEXT
  5
D32
330
18
100
AcDbEntity
  8
文字
100
AcDbText
 10
77.92191888848674
 20
151.0895189122889
 30
0.0
 40
2.299999999999999
  1
0
  7
STYLE3
100
AcDbText
  0
TEXT
  5
D63
330
18
100
AcDbEntity
  8
文字
  6
Continuous
 62
     4
100
AcDbText
 10
78.42937924926184
 20
149.1710320667914
 30
0.0
 40
1.199999999999999
  1
0
  7
STYLE3
100
AcDbText
  0
LINE
  5
D80
330
18
100
AcDbEntity
  8
目盛
100
AcDbLine
 10
80.56512309822664
 20
156.5689085286185
 30
0.0
 11
80.46779779295622
 21
155.0219670995548
 31
0.0
  0
LINE
  5
D81
330
18
100
AcDbEntity
  8
目盛
100
AcDbLine
 10
74.37337020387946
 20
156.1793564555539
 30
0.0
 11
74.66381124148728
 21
154.6568112169245
 31
0.0
  0
LINE
  5
D82
330
18
100
AcDbEntity
  8
目盛
100
AcDbLine
 10
71.36288712909624
 20
155.4063957783239
 30
0.0
 11
72.15088046475234
 21
152.9812016617712
 31
0.0
  0
LINE
  5
D83
330
18
100
AcDbEntity
  8
目盛
100
AcDbLine
 10
72.85598303254602
 20
155.8401802379525
 30
0.0
 11
73.2414523576515
 21
154.3388763382031
 31
0.0
  0
LINE
  5
D84
330
18
100
AcDbEntity
  8
目盛
100
AcDbLine
 10
75.90906020915958
 20
156.4225858575522
 30
0.0
 11
76.10332672118426
 21
154.8848080705147
 31
0.0
  0
LINE
  5
D85
330
18
100
AcDbEntity
  8
目盛
100
AcDbLine
 10
77.45699238152565
 20
156.5689085286185
 30
0.0
 11
77.55431768679608
 21
155.0219670995548
 31
0.0
  0
LINE
  5
D86
330
18
100
AcDbEntity
  8
目盛
100
AcDbLine
 10
79.01105773987615
 20
156.6177470000189
 30
0.0
 11
79.01105773987615
 21
154.0677470000188
 31
0.0
  0
LINE
  5
D87
330
18
100
AcDbEntity
  8
目盛
100
AcDbLine
 10
85.16613244720634
 20
155.8401802379525
 30
0.0
 11
84.7806631221008
 21
154.3388763382031
 31
0.0
  0
LINE
  5
D88
330
18
100
AcDbEntity
  8
目盛
100
AcDbLine
 10
83.64874527587284
 20
156.1793564555539
 30
0.0
 11
83.35830423826491
 21
154.6568112169244
 31
0.0
  0
LINE
  5
D89
330
18
100
AcDbEntity
  8
目盛
100
AcDbLine
 10
82.11305527059266
 20
156.4225858575522
 30
0.0
 11
81.91878875856799
 21
154.8848080705148
 31
0.0
  0
LINE
  5
D8A
330
18
100
AcDbEntity
  8
目盛
100
AcDbLine
 10
89.5490952061117
 20
154.2622165485528
 30
0.0
 11
88.88913730418579
 21
152.8597346172305
 31
0.0
  0
LINE
  5
D8B
330
18
100
AcDbEntity
  8
目盛
100
AcDbLine
 10
86.65922835065613
 20
155.4063957783239
 30
0.0
 11
85.87123501499997
 21
152.9812016617712
 31
0.0
  0
LINE
  5
D8C
330
18
100
AcDbEntity
  8
目盛
100
AcDbLine
 10
88.12214041882191
 20
154.879715025753
 30
0.0
 11
87.55154736216059
 21
153.4385614726262
 31
0.0
  0
LINE
  5
D8D
330
18
100
AcDbEntity
  8
目盛
100
AcDbLine
 10
92.27277091560631
 20
152.7648631561937
 30
0.0
 11
91.44223938338887
 21
151.4561548716656
 31
0.0
  0
LINE
  5
D8E
330
18
100
AcDbEntity
  8
目盛
100
AcDbLine
 10
100.6996480709617
 20
143.7911504340363
 30
0.0
 11
99.34137271689383
 21
143.0444322391787
 31
0.0
  0
LINE
  5
D8F
330
18
100
AcDbEntity
  8
目盛
100
AcDbLine
 10
99.90817389605105
 20
145.129460175749
 30
0.0
 11
98.59946561152293
 21
144.2989286435315
 31
0.0
  0
LINE
  5
D90
330
18
100
AcDbEntity
  8
目盛
100
AcDbLine
 10
95.95359861161126
 20
149.9097205286988
 30
0.0
 11
94.89255059742175
 21
148.7798191561957
 31
0.0
  0
LINE
  5
D91
330
18
100
AcDbEntity
  8
目盛
100
AcDbLine
 10
93.55874273411485
 20
151.8909176107988
 30
0.0
 11
92.05989034076907
 21
149.8279242751426
 31
0.0
  0
LINE
  5
D92
330
18
100
AcDbEntity
  8
目盛
100
AcDbLine
 10
94.78730148615625
 20
150.9379497587197
 30
0.0
 11
93.79929430204578
 21
149.7436542324171
 31
0.0
  0
LINE
  5
D93
330
18
100
AcDbEntity
  8
目盛
100
AcDbLine
 10
97.05303126855609
 20
148.8102878717539
 30
0.0
 11
95.92312989605284
 21
147.7492398575645
 31
0.0
  0
LINE
  5
D94
330
18
100
AcDbEntity
  8
目盛
100
AcDbLine
 10
98.08126049857698
 20
147.6439907462989
 30
0.0
 11
96.88696497227448
 21
146.6559835621884
 31
0.0
  0
LINE
  5
D95
330
18
100
AcDbEntity
  8
目盛
100
AcDbLine
 10
99.03422835065612
 20
146.4154319942575
 30
0.0
 11
96.971235015
 21
144.9165796009117
 31
0.0
  0
LINE
  5
D96
330
18
100
AcDbEntity
  8
目盛
100
AcDbLine
 10
101.4055272884102
 20
142.4057844662544
 30
0.0
 11
100.0030453570878
 21
141.7458265643286
 31
0.0
  0
LINE
  5
D97
330
18
100
AcDbEntity
  8
目盛
100
AcDbLine
 10
102.0230257656103
 20
140.9788296789646
 30
0.0
 11
100.5818722124836
 21
140.4082366223033
 31
0.0
  0
LINE
  5
D98
330
18
100
AcDbEntity
  8
目盛
100
AcDbLine
 10
102.5497065181812
 20
139.5159176107988
 30
0.0
 11
100.1245124016286
 21
138.7279242751427
 31
0.0
  0
LINE
  5
D99
330
18
100
AcDbEntity
  8
目盛
100
AcDbLine
 10
90.93446117389357
 20
153.5563373311045
 30
0.0
 11
90.18774297903588
 21
152.1980619770364
 31
0.0
  0
CIRCLE
  5
ECB
330
18
100
AcDbEntity
  8
外形線
100
AcDbCircle
 10
88.94105773987609
 20
132.2077470000188
 30
0.0
 40
5.75
  0
LINE
  5
ECC
330
18
100
AcDbEntity
  8
中心線
 48
0.3
100
AcDbLine
 10
82.49719841251106
 20
132.2077470000188
 30
0.0
 11
95.38491706724125
 21
132.2077470000189
 31
0.0
  0
MTEXT
  5
ECE
330
18
100
AcDbEntity
  8
0
  6
ByBlock
 62
     6
100
AcDbMText
 10
79.03884979730168
 20
122.2088714119847
 30
0.0
 40
1.3
 41
0.0
 71
     5
 72
     1
  1
NO.307S
  7
STYLE3
 73
     1
 44
1.0
  0
TEXT
  5
EDA
330
18
100
AcDbEntity
  8
文字
100
AcDbText
 10
73.59071001090433
 20
138.8635562946637
 30
0.0
 40
1.0
  1
MADE IN JAPAN
  7
STYLE3
100
AcDbText
  0
LINE
  5
EDB
102
{ACAD_REACTORS
330
EDD
102
}
330
18
100
AcDbEntity
  8
ROGO
 62
     4
100
AcDbLine
 10
77.34027142036541
 20
142.7011616396369
 30
0.0
 11
76.57189842468904
 21
141.6356335750412
 31
0.0
  0
LINE
  5
EDC
102
{ACAD_REACTORS
330
EDD
102
}
330
18
100
AcDbEntity
  8
ROGO
 62
     4
100
AcDbLine
 10
76.57189842468904
 20
141.6356335750412
 30
0.0
 11
77.16201025358543
 21
141.6356335750412
 31
0.0
  0
HATCH
  5
EDD
330
18
100
AcDbEntity
  8
ROGO
 62
     4
100
AcDbHatch
 10
0.0
 20
0.0
 30
0.0
210
0.0
220
0.0
230
1.0
  2
SOLID
 70
     1
 71
     1
 91
        2
 92
        7
 72
     0
 73
     1
 93
        8
 10
78.19260261701924
 20
142.7011616396369
 10
77.3402714203654
 20
142.7011616396369
 10
76.57189842468904
 20
141.6356335750412
 10
77.16201025358535
 20
141.6356335750412
 10
77.30830371788646
 20
141.8385035259074
 10
77.98169261893983
 20
141.8385035259075
 10
78.0718154896607
 20
141.6356335750412
 10
78.66595240393843
 20
141.6356335750413
 97
        8
330
F73
330
EDB
330
EDC
330
F72
330
F70
330
F77
330
F74
330
F75
 92
       22
 72
     0
 73
     1
 93
        3
 10
77.88663730955042
 20
142.0524765805961
 10
77.46260384614043
 20
142.0524765805961
 10
77.72499402461983
 20
142.4163416573458
 97
        3
330
F71
330
F6F
330
F76
 75
     0
 76
     1
 47
0.0128389261915577
 98
        2
 10
78.12585834960066
 20
142.445526487665
 10
78.12585834960066
 20
142.445526487665
450
        0
451
        0
460
0.0
461
0.0
452
        0
462
0.0
453
        0
470

  0
LINE
  5
EDE
102
{ACAD_REACTORS
330
F10
330
F61
102
}
330
18
100
AcDbEntity
  8
ROGO
 62
     4
100
AcDbLine
 10
72.57639340335027
 20
141.0362011470144
 30
0.0
 11
83.84651890722295
 21
141.0362011470144
 31
0.0
  0
LINE
  5
EDF
330
18
100
AcDbEntity
  8
ROGO
 62
     4
100
AcDbLine
 10
73.41426898561042
 20
141.2030885725795
 30
0.0
 11
83.31622368183138
 21
141.2030885725795
 31
0.0
  0
HATCH
  5
EE0
330
18
100
AcDbEntity
  8
ROGO
 62
     4
100
AcDbHatch
 10
0.0
 20
0.0
 30
0.0
210
0.0
220
0.0
230
1.0
  2
SOLID
 70
     1
 71
     0
 91
        1
 92
        7
 72
     0
 73
     1
 93
        4
 10
73.42584280555512
 20
141.2030885725794
 10
73.35033820025637
 20
141.0362011470144
 10
83.23300822148269
 20
141.0362011470144
 10
83.31622368183147
 20
141.2030885725795
 97
        0
 75
     0
 76
     1
 47
0.0514683685270805
 98
        1
 10
79.67081582519369
 20
141.1589495305924
450
        0
451
        0
460
0.0
461
0.0
452
        0
462
0.0
453
        0
470

  0
LINE
  5
EE1
102
{ACAD_REACTORS
330
EE3
102
}
330
18
100
AcDbEntity
  8
外形線
100
AcDbLine
 10
69.47550019054779
 20
132.6125007250475
 30
0.0
 11
68.30883352388105
 21
132.1878687850702
 31
0.0
  0
LINE
  5
EE2
102
{ACAD_REACTORS
330
EE3
102
}
330
18
100
AcDbEntity
  8
外形線
100
AcDbLine
 10
69.47550019054779
 20
132.6125007250475
 30
0.0
 11
68.30883352388105
 21
133.0371326650247
 31
0.0
  0
HATCH
  5
EE3
330
18
100
AcDbEntity
  8
外形線
100
AcDbHatch
 10
0.0
 20
0.0
 30
0.0
210
0.0
220
0.0
230
1.0
  2
SOLID
 70
     1
 71
     1
 91
        2
 92
        1
 93
        7
 72
     1
 10
69.47550019054779
 20
132.6125007250475
 11
68.30883352388105
 21
132.1878687850702
 72
     1
 10
68.30883352388105
 20
132.1878687850703
 11
68.30883352388105
 21
132.5229173917141
 72
     1
 10
68.30883352388105
 20
132.5229173917141
 11
67.30883352388104
 21
132.5229173917141
 72
     1
 10
67.30883352388104
 20
132.5229173917141
 11
67.30883352388104
 21
132.7020840583807
 72
     1
 10
67.30883352388104
 20
132.7020840583807
 11
68.30883352388105
 21
132.7020840583807
 72
     1
 10
68.30883352388105
 20
132.7020840583807
 11
68.30883352388105
 21
133.0371326650247
 72
     1
 10
68.30883352388105
 20
133.0371326650247
 11
69.47550019054779
 21
132.6125007250475
 97
        7
330
EE1
330
EEA
330
EE9
330
EED
330
EE5
330
EE6
330
EE2
 92
        1
 93
        4
 72
     1
 10
69.47550019054779
 20
133.3625007250475
 11
69.47550019054779
 21
131.8625007250475
 72
     1
 10
69.47550019054779
 20
131.8625007250475
 11
69.64216685721431
 21
131.8625007250475
 72
     1
 10
69.64216685721431
 20
131.8625007250475
 11
69.64216685721431
 21
133.3625007250475
 72
     1
 10
69.64216685721431
 20
133.3625007250475
 11
69.47550019054779
 21
133.3625007250475
 97
        4
330
F0A
330
F09
330
F0B
330
F04
 75
     0
 76
     1
 98
        1
 10
161.805056897028
 20
63.95034991786644
450
        0
451
        0
460
0.0
461
0.0
452
        0
462
0.0
453
        0
470

  0
TEXT
  5
EE4
330
18
100
AcDbEntity
  8
文字
100
AcDbText
 10
66.87264389007703
 20
130.1154853631304
 30
0.0
 40
1.0
  1
0.01mm
  7
STYLE3
100
AcDbText
  0
LINE
  5
EE5
102
{ACAD_REACTORS
330
EE3
102
}
330
18
100
AcDbEntity
  8
外形線
100
AcDbLine
 10
67.30883352388104
 20
132.7020840583807
 30
0.0
 11
68.30883352388105
 21
132.7020840583807
 31
0.0
  0
LINE
  5
EE6
102
{ACAD_REACTORS
330
EE3
102
}
330
18
100
AcDbEntity
  8
外形線
100
AcDbLine
 10
68.30883352388105
 20
133.0371326650247
 30
0.0
 11
68.30883352388105
 21
132.7020840583807
 31
0.0
  0
POINT
  5
EE7
330
18
100
AcDbEntity
  8
DEFPOINTS
  6
ByBlock
 62
     0
100
AcDbPoint
 10
68.30883352388105
 20
133.0371326650247
 30
0.0
  0
POINT
  5
EE8
330
18
100
AcDbEntity
  8
DEFPOINTS
  6
ByBlock
 62
     0
100
AcDbPoint
 10
68.30883352388105
 20
133.0371326650247
 30
0.0
  0
LINE
  5
EE9
102
{ACAD_REACTORS
330
EE3
102
}
330
18
100
AcDbEntity
  8
外形線
100
AcDbLine
 10
67.30883352388104
 20
132.5229173917141
 30
0.0
 11
68.30883352388105
 21
132.5229173917141
 31
0.0
  0
LINE
  5
EEA
102
{ACAD_REACTORS
330
EE3
102
}
330
18
100
AcDbEntity
  8
外形線
100
AcDbLine
 10
68.30883352388105
 20
132.5229173917141
 30
0.0
 11
68.30883352388105
 21
132.1878687850703
 31
0.0
  0
POINT
  5
EEB
330
18
100
AcDbEntity
  8
DEFPOINTS
  6
ByBlock
 62
     0
100
AcDbPoint
 10
68.30883352388105
 20
132.1878687850702
 30
0.0
  0
POINT
  5
EEC
330
18
100
AcDbEntity
  8
DEFPOINTS
  6
ByBlock
 62
     0
100
AcDbPoint
 10
68.30883352388105
 20
132.1878687850702
 30
0.0
  0
LINE
  5
EED
102
{ACAD_REACTORS
330
EE3
102
}
330
18
100
AcDbEntity
  8
外形線
100
AcDbLine
 10
67.30883352388104
 20
132.7020840583807
 30
0.0
 11
67.30883352388104
 21
132.5229173917141
 31
0.0
  0
LINE
  5
EF0
102
{ACAD_REACTORS
330
F03
102
}
330
18
100
AcDbEntity
  8
外形線
100
AcDbLine
 10
70.47550019054779
 20
133.3625007250475
 30
0.0
 11
70.6421668572143
 21
133.3625007250475
 31
0.0
  0
POINT
  5
EF1
330
18
100
AcDbEntity
  8
DEFPOINTS
  6
ByBlock
 62
     0
100
AcDbPoint
 10
71.80883352388105
 20
133.0371326650247
 30
0.0
  0
POINT
  5
EF2
330
18
100
AcDbEntity
  8
DEFPOINTS
  6
ByBlock
 62
     0
100
AcDbPoint
 10
71.80883352388105
 20
133.0371326650247
 30
0.0
  0
LINE
  5
EF3
102
{ACAD_REACTORS
330
F03
102
}
330
18
100
AcDbEntity
  8
外形線
100
AcDbLine
 10
71.80883352388105
 20
133.0371326650247
 30
0.0
 11
71.80883352388105
 21
132.7020840583807
 31
0.0
  0
LINE
  5
EF4
102
{ACAD_REACTORS
330
F03
102
}
330
18
100
AcDbEntity
  8
外形線
100
AcDbLine
 10
72.80883352388105
 20
132.7020840583807
 30
0.0
 11
71.80883352388105
 21
132.7020840583807
 31
0.0
  0
LINE
  5
EF5
102
{ACAD_REACTORS
330
F03
102
}
330
18
100
AcDbEntity
  8
外形線
100
AcDbLine
 10
70.47550019054779
 20
131.8625007250475
 30
0.0
 11
70.6421668572143
 21
131.8625007250475
 31
0.0
  0
LINE
  5
EF6
102
{ACAD_REACTORS
330
F03
102
}
330
18
100
AcDbEntity
  8
外形線
100
AcDbLine
 10
70.6421668572143
 20
132.6125007250475
 30
0.0
 11
71.80883352388105
 21
132.1878687850702
 31
0.0
  0
POINT
  5
EF7
330
18
100
AcDbEntity
  8
DEFPOINTS
  6
ByBlock
 62
     0
100
AcDbPoint
 10
71.80883352388105
 20
132.1878687850702
 30
0.0
  0
POINT
  5
EF8
330
18
100
AcDbEntity
  8
DEFPOINTS
  6
ByBlock
 62
     0
100
AcDbPoint
 10
70.6421668572143
 20
131.8625007250475
 30
0.0
  0
POINT
  5
EF9
330
18
100
AcDbEntity
  8
DEFPOINTS
  6
ByBlock
 62
     0
100
AcDbPoint
 10
71.80883352388105
 20
132.1878687850702
 30
0.0
  0
POINT
  5
EFA
330
18
100
AcDbEntity
  8
DEFPOINTS
  6
ByBlock
 62
     0
100
AcDbPoint
 10
70.47550019054779
 20
131.8625007250475
 30
0.0
  0
POINT
  5
EFB
330
18
100
AcDbEntity
  8
DEFPOINTS
  6
ByBlock
 62
     0
100
AcDbPoint
 10
70.6421668572143
 20
131.8625007250475
 30
0.0
  0
POINT
  5
EFC
330
18
100
AcDbEntity
  8
DEFPOINTS
  6
ByBlock
 62
     0
100
AcDbPoint
 10
70.47550019054779
 20
131.8625007250475
 30
0.0
  0
LINE
  5
EFD
102
{ACAD_REACTORS
330
F03
102
}
330
18
100
AcDbEntity
  8
外形線
100
AcDbLine
 10
71.80883352388105
 20
132.5229173917141
 30
0.0
 11
71.80883352388105
 21
132.1878687850703
 31
0.0
  0
LINE
  5
EFE
102
{ACAD_REACTORS
330
F03
102
}
330
18
100
AcDbEntity
  8
外形線
100
AcDbLine
 10
72.80883352388105
 20
132.5229173917141
 30
0.0
 11
71.80883352388105
 21
132.5229173917141
 31
0.0
  0
LINE
  5
EFF
102
{ACAD_REACTORS
330
F03
102
}
330
18
100
AcDbEntity
  8
外形線
100
AcDbLine
 10
70.47550019054779
 20
133.3625007250475
 30
0.0
 11
70.47550019054779
 21
131.8625007250475
 31
0.0
  0
LINE
  5
F00
102
{ACAD_REACTORS
330
F03
102
}
330
18
100
AcDbEntity
  8
外形線
100
AcDbLine
 10
70.6421668572143
 20
133.3625007250475
 30
0.0
 11
70.6421668572143
 21
131.8625007250475
 31
0.0
  0
LINE
  5
F01
102
{ACAD_REACTORS
330
F03
102
}
330
18
100
AcDbEntity
  8
外形線
100
AcDbLine
 10
70.6421668572143
 20
132.6125007250475
 30
0.0
 11
71.80883352388105
 21
133.0371326650247
 31
0.0
  0
LINE
  5
F02
102
{ACAD_REACTORS
330
F03
102
}
330
18
100
AcDbEntity
  8
外形線
100
AcDbLine
 10
72.80883352388105
 20
132.7020840583807
 30
0.0
 11
72.80883352388105
 21
132.5229173917141
 31
0.0
  0
HATCH
  5
F03
330
18
100
AcDbEntity
  8
外形線
100
AcDbHatch
 10
0.0
 20
0.0
 30
0.0
210
0.0
220
0.0
230
1.0
  2
SOLID
 70
     1
 71
     1
 91
        2
 92
        1
 93
        7
 72
     1
 10
70.6421668572143
 20
132.6125007250475
 11
71.80883352388105
 21
132.1878687850702
 72
     1
 10
71.80883352388105
 20
132.1878687850703
 11
71.80883352388105
 21
132.5229173917141
 72
     1
 10
71.80883352388105
 20
132.5229173917141
 11
72.80883352388105
 21
132.5229173917141
 72
     1
 10
72.80883352388105
 20
132.5229173917141
 11
72.80883352388105
 21
132.7020840583807
 72
     1
 10
72.80883352388105
 20
132.7020840583807
 11
71.80883352388105
 21
132.7020840583807
 72
     1
 10
71.80883352388105
 20
132.7020840583807
 11
71.80883352388105
 21
133.0371326650247
 72
     1
 10
71.80883352388105
 20
133.0371326650247
 11
70.6421668572143
 21
132.6125007250475
 97
        7
330
EF6
330
EFD
330
EFE
330
F02
330
EF4
330
EF3
330
F01
 92
        1
 93
        4
 72
     1
 10
70.6421668572143
 20
133.3625007250475
 11
70.6421668572143
 21
131.8625007250475
 72
     1
 10
70.6421668572143
 20
131.8625007250475
 11
70.47550019054779
 21
131.8625007250475
 72
     1
 10
70.47550019054779
 20
131.8625007250475
 11
70.47550019054779
 21
133.3625007250475
 72
     1
 10
70.47550019054779
 20
133.3625007250475
 11
70.6421668572143
 21
133.3625007250475
 97
        4
330
F00
330
EF5
330
EFF
330
EF0
 75
     0
 76
     1
 98
        1
 10
-21.68738984926597
 20
63.95034991786644
450
        0
451
        0
460
0.0
461
0.0
452
        0
462
0.0
453
        0
470

  0
LINE
  5
F04
102
{ACAD_REACTORS
330
EE3
102
}
330
18
100
AcDbEntity
  8
外形線
100
AcDbLine
 10
69.64216685721431
 20
133.3625007250475
 30
0.0
 11
69.47550019054779
 21
133.3625007250475
 31
0.0
  0
POINT
  5
F05
330
18
100
AcDbEntity
  8
DEFPOINTS
  6
ByBlock
 62
     0
100
AcDbPoint
 10
69.64216685721431
 20
131.8625007250475
 30
0.0
  0
POINT
  5
F06
330
18
100
AcDbEntity
  8
DEFPOINTS
  6
ByBlock
 62
     0
100
AcDbPoint
 10
69.47550019054779
 20
131.8625007250475
 30
0.0
  0
POINT
  5
F07
330
18
100
AcDbEntity
  8
DEFPOINTS
  6
ByBlock
 62
     0
100
AcDbPoint
 10
69.64216685721431
 20
131.8625007250475
 30
0.0
  0
POINT
  5
F08
330
18
100
AcDbEntity
  8
DEFPOINTS
  6
ByBlock
 62
     0
100
AcDbPoint
 10
69.47550019054779
 20
131.8625007250475
 30
0.0
  0
LINE
  5
F09
102
{ACAD_REACTORS
330
EE3
102
}
330
18
100
AcDbEntity
  8
外形線
100
AcDbLine
 10
69.64216685721431
 20
131.8625007250475
 30
0.0
 11
69.47550019054779
 21
131.8625007250475
 31
0.0
  0
LINE
  5
F0A
102
{ACAD_REACTORS
330
EE3
102
}
330
18
100
AcDbEntity
  8
外形線
100
AcDbLine
 10
69.47550019054779
 20
133.3625007250475
 30
0.0
 11
69.47550019054779
 21
131.8625007250475
 31
0.0
  0
LINE
  5
F0B
102
{ACAD_REACTORS
330
EE3
102
}
330
18
100
AcDbEntity
  8
外形線
100
AcDbLine
 10
69.64216685721431
 20
133.3625007250475
 30
0.0
 11
69.64216685721431
 21
131.8625007250475
 31
0.0
  0
LINE
  5
F0F
102
{ACAD_REACTORS
330
F10
102
}
330
18
100
AcDbEntity
  8
ROGO
 62
     4
100
AcDbLine
 10
73.40020037080001
 20
142.7011616396369
 30
0.0
 11
72.57639340335027
 21
141.0362011470144
 31
0.0
  0
HATCH
  5
F10
330
18
100
AcDbEntity
  8
ROGO
 62
     4
100
AcDbHatch
 10
0.0
 20
0.0
 30
0.0
210
0.0
220
0.0
230
1.0
  2
SOLID
 70
     1
 71
     1
 91
        2
 92
        5
 93
        6
 72
     1
 10
72.57639340335028
 20
141.0362011470144
 11
73.35033820025635
 21
141.0362011470144
 72
     1
 10
73.35033820025635
 20
141.0362011470144
 11
73.62153843435557
 21
141.6356335750412
 72
     1
 10
73.62153843435557
 20
141.6356335750412
 11
74.34501808253085
 21
141.6356335750412
 72
     4
 94
        3
 73
     0
 74
     0
 95
       18
 96
       14
 40
0.108740278791501
 40
0.108740278791501
 40
0.108740278791501
 40
0.108740278791501
 40
0.6623149649549278
 40
1.384304701649787
 40
2.097394834876493
 40
2.774073369849618
 40
3.428974823686337
 40
4.005208313035923
 40
4.455173659284313
 40
4.720999734343524
 40
5.086034088486724
 40
5.569973738255373
 40
6.060470601257719
 40
6.060470601257719
 40
6.060470601257719
 40
6.060470601257719
 10
74.34501808253083
 20
141.6356335750412
 10
74.39593538491419
 20
141.6360127407749
 10
74.51326065474939
 20
141.6368864265346
 10
74.67739778918598
 20
141.7245720904291
 10
74.83304668971801
 20
141.8362772375383
 10
74.95841129051917
 20
141.9758411646281
 10
75.03651721389599
 20
142.1354086046194
 10
75.04861557454728
 20
142.2883393391611
 10
75.04122982260572
 20
142.4093056489324
 10
74.98845491529039
 20
142.49362216995
 10
74.9335889590875
 20
142.5791948162898
 10
74.83298334808694
 20
142.6533210209328
 10
74.75055161725492
 20
142.6857993175127
 10
74.70863340558276
 20
142.7011616396369
 72
     1
 10
74.70863340558269
 20
142.7011616396369
 11
73.40020037080001
 21
142.7011616396369
 72
     1
 10
73.40020037080001
 20
142.7011616396369
 11
72.57639340335028
 21
141.0362011470144
 97
        6
330
F12
330
F23
330
F0F
330
EDE
330
F22
330
F24
 92
       20
 93
        4
 72
     1
 10
73.78898922594419
 20
142.0057491647658
 11
73.91719372359375
 21
142.2891188807442
 72
     1
 10
73.91719372359375
 20
142.2891188807442
 11
74.24662464270449
 21
142.2891188807442
 72
     4
 94
        3
 73
     0
 74
     0
 95
       15
 96
       11
 40
0.0
 40
0.0
 40
0.0
 40
0.0
 40
0.1249366221205858
 40
0.1819008497970812
 40
0.2465590404331804
 40
0.2906072061557338
 40
0.3602698370902992
 40
0.4019958500486895
 40
0.4735840150820147
 40
0.4974467519899488
 40
0.4974467519899488
 40
0.4974467519899488
 40
0.4974467519899488
 10
74.24662464270443
 20
142.2891188807443
 10
74.293548415169
 20
142.2893338166694
 10
74.36186684688353
 20
142.2896467515539
 10
74.39922579857276
 20
142.2051366539534
 10
74.38247973514451
 20
142.1507253345131
 10
74.36142856858957
 20
142.0948618682303
 10
74.32422638951189
 20
142.0569018003503
 10
74.27429561607744
 20
142.0203398557985
 10
74.22710864909406
 20
142.0159138686935
 10
74.19641882398718
 20
142.0077821063297
 10
74.1887463640378
 20
142.0057491647657
 72
     1
 10
74.18874636403796
 20
142.0057491647658
 11
73.78898922594419
 21
142.0057491647658
 97
        4
330
F21
330
F25
330
F13
330
F26
 75
     0
 76
     1
 47
0.0514683685270805
 98
        2
 10
73.40719374237005
 20
142.1833147400673
 10
73.40719374237005
 20
142.1833147400673
450
        0
451
        0
460
0.0
461
0.0
452
        0
462
0.0
453
        0
470

  0
SPLINE
  5
F12
102
{ACAD_REACTORS
330
F10
102
}
330
18
100
AcDbEntity
  8
ROGO
 62
     4
100
AcDbSpline
210
0.0
220
0.0
230
1.0
 70
     8
 71
     3
 72
    18
 73
    14
 74
     0
 42
0.0000000001
 43
0.0000000001
 40
0.1087402787915014
 40
0.1087402787915014
 40
0.1087402787915014
 40
0.1087402787915014
 40
0.5992371417938475
 40
1.083176791562496
 40
1.448211145705696
 40
1.714037220764907
 40
2.164002567013297
 40
2.740236056362883
 40
3.395137510199602
 40
4.071816045172726
 40
4.784906178399433
 40
5.506895915094292
 40
6.060470601257719
 40
6.060470601257719
 40
6.060470601257719
 40
6.060470601257719
 10
74.70863340558276
 20
142.7011616396369
 30
0.0
 10
74.75055161725492
 20
142.6857993175127
 30
0.0
 10
74.83298334808694
 20
142.6533210209328
 30
0.0
 10
74.9335889590875
 20
142.5791948162898
 30
0.0
 10
74.98845491529039
 20
142.49362216995
 30
0.0
 10
75.04122982260572
 20
142.4093056489324
 30
0.0
 10
75.04861557454728
 20
142.2883393391611
 30
0.0
 10
75.03651721389599
 20
142.1354086046194
 30
0.0
 10
74.95841129051917
 20
141.9758411646281
 30
0.0
 10
74.83304668971801
 20
141.8362772375383
 30
0.0
 10
74.67739778918598
 20
141.7245720904291
 30
0.0
 10
74.51326065474939
 20
141.6368864265346
 30
0.0
 10
74.39593538491419
 20
141.6360127407749
 30
0.0
 10
74.34501808253083
 20
141.6356335750412
 30
0.0
  0
SPLINE
  5
F13
102
{ACAD_REACTORS
330
F10
102
}
330
18
100
AcDbEntity
  8
ROGO
 62
     4
100
AcDbSpline
210
0.0
220
0.0
230
1.0
 70
     8
 71
     3
 72
    15
 73
    11
 74
     9
 42
0.0000000001
 43
0.0000000001
 44
0.0000000001
 40
0.0
 40
0.0
 40
0.0
 40
0.0
 40
0.1249366221205858
 40
0.1819008497970812
 40
0.2465590404331804
 40
0.2906072061557338
 40
0.3602698370902992
 40
0.4019958500486895
 40
0.4735840150820147
 40
0.4974467519899488
 40
0.4974467519899488
 40
0.4974467519899488
 40
0.4974467519899488
 10
74.24662464270443
 20
142.2891188807443
 30
0.0
 10
74.293548415169
 20
142.2893338166694
 30
0.0
 10
74.36186684688353
 20
142.2896467515539
 30
0.0
 10
74.39922579857276
 20
142.2051366539534
 30
0.0
 10
74.38247973514451
 20
142.1507253345131
 30
0.0
 10
74.36142856858957
 20
142.0948618682303
 30
0.0
 10
74.32422638951189
 20
142.0569018003503
 30
0.0
 10
74.27429561607744
 20
142.0203398557985
 30
0.0
 10
74.22710864909406
 20
142.0159138686935
 30
0.0
 10
74.19641882398718
 20
142.0077821063297
 30
0.0
 10
74.1887463640378
 20
142.0057491647657
 30
0.0
 11
74.24662464270443
 21
142.2891188807443
 31
0.0
 11
74.36816912774827
 21
142.2602035266512
 31
0.0
 11
74.39132050577723
 21
142.208156077817
 31
0.0
 11
74.37974498316851
 21
142.1445424873456
 31
0.0
 11
74.36238153284989
 21
142.1040609916154
 31
0.0
 11
74.31607877679176
 21
142.0520135427812
 31
0.0
 11
74.28135187615385
 21
142.0288812595068
 31
0.0
 11
74.21189774206687
 21
142.0115322355842
 31
0.0
 11
74.1887463640378
 21
142.0057491647657
 31
0.0
  0
LINE
  5
F14
102
{ACAD_REACTORS
330
F20
102
}
330
18
100
AcDbEntity
  8
ROGO
 62
     4
100
AcDbLine
 10
75.48162317704441
 20
142.7011616396369
 30
0.0
 11
74.95440980020055
 21
141.6356335750412
 31
0.0
  0
LINE
  5
F15
102
{ACAD_REACTORS
330
F20
102
}
330
18
100
AcDbEntity
  8
ROGO
 62
     4
100
AcDbLine
 10
76.92279421287321
 20
142.7011616396369
 30
0.0
 11
76.80202535573016
 21
142.4570809461889
 31
0.0
  0
LINE
  5
F16
102
{ACAD_REACTORS
330
F20
102
}
330
18
100
AcDbEntity
  8
ROGO
 62
     4
100
AcDbLine
 10
74.95440980020055
 20
141.6356335750412
 30
0.0
 11
76.39558083602935
 21
141.6356335750412
 31
0.0
  0
LINE
  5
F17
102
{ACAD_REACTORS
330
F20
102
}
330
18
100
AcDbEntity
  8
ROGO
 62
     4
100
AcDbLine
 10
76.04458227688235
 20
142.4570809461889
 30
0.0
 11
75.95015603802517
 21
142.2662401747747
 31
0.0
  0
LINE
  5
F18
102
{ACAD_REACTORS
330
F20
102
}
330
18
100
AcDbEntity
  8
ROGO
 62
     4
100
AcDbLine
 10
76.04458227688235
 20
142.4570809461889
 30
0.0
 11
76.80202535573016
 21
142.4570809461889
 31
0.0
  0
LINE
  5
F19
102
{ACAD_REACTORS
330
F20
102
}
330
18
100
AcDbEntity
  8
ROGO
 62
     4
100
AcDbLine
 10
75.95015603802517
 20
142.2662401747747
 30
0.0
 11
76.70759911687264
 21
142.2662401747747
 31
0.0
  0
LINE
  5
F1A
102
{ACAD_REACTORS
330
F20
102
}
330
18
100
AcDbEntity
  8
ROGO
 62
     4
100
AcDbLine
 10
75.75890053951673
 20
141.8797019909588
 30
0.0
 11
76.51634361836454
 21
141.8797019909588
 31
0.0
  0
LINE
  5
F1B
102
{ACAD_REACTORS
330
F20
102
}
330
18
100
AcDbEntity
  8
ROGO
 62
     4
100
AcDbLine
 10
75.85333077592713
 20
142.0705508416537
 30
0.0
 11
76.61077385477494
 21
142.0705508416537
 31
0.0
  0
LINE
  5
F1C
102
{ACAD_REACTORS
330
F20
102
}
330
18
100
AcDbEntity
  8
ROGO
 62
     4
100
AcDbLine
 10
76.70759911687264
 20
142.2662401747747
 30
0.0
 11
76.61077385477494
 21
142.0705508416537
 31
0.0
  0
LINE
  5
F1D
102
{ACAD_REACTORS
330
F20
102
}
330
18
100
AcDbEntity
  8
ROGO
 62
     4
100
AcDbLine
 10
76.51634361836454
 20
141.8797019909588
 30
0.0
 11
76.39558083602935
 21
141.6356335750412
 31
0.0
  0
LINE
  5
F1E
102
{ACAD_REACTORS
330
F20
102
}
330
18
100
AcDbEntity
  8
ROGO
 62
     4
100
AcDbLine
 10
75.85333077592713
 20
142.0705508416537
 30
0.0
 11
75.75890053951673
 21
141.8797019909588
 31
0.0
  0
LINE
  5
F1F
102
{ACAD_REACTORS
330
F20
102
}
330
18
100
AcDbEntity
  8
ROGO
 62
     4
100
AcDbLine
 10
75.48162317704441
 20
142.7011616396369
 30
0.0
 11
76.92279421287321
 21
142.7011616396369
 31
0.0
  0
HATCH
  5
F20
330
18
100
AcDbEntity
  8
ROGO
 62
     4
100
AcDbHatch
 10
0.0
 20
0.0
 30
0.0
210
0.0
220
0.0
230
1.0
  2
SOLID
 70
     1
 71
     1
 91
        1
 92
        1
 93
       12
 72
     1
 10
75.48162317704441
 20
142.7011616396369
 11
76.92279421287321
 21
142.7011616396369
 72
     1
 10
76.92279421287321
 20
142.7011616396369
 11
76.80202535573016
 21
142.4570809461889
 72
     1
 10
76.80202535573016
 20
142.4570809461889
 11
76.04458227688235
 21
142.4570809461889
 72
     1
 10
76.04458227688235
 20
142.4570809461889
 11
75.95015603802517
 21
142.2662401747747
 72
     1
 10
75.95015603802517
 20
142.2662401747747
 11
76.70759911687264
 21
142.2662401747747
 72
     1
 10
76.70759911687264
 20
142.2662401747747
 11
76.61077385477494
 21
142.0705508416537
 72
     1
 10
76.61077385477494
 20
142.0705508416537
 11
75.85333077592713
 21
142.0705508416537
 72
     1
 10
75.85333077592713
 20
142.0705508416537
 11
75.75890053951673
 21
141.8797019909588
 72
     1
 10
75.75890053951673
 20
141.8797019909588
 11
76.51634361836454
 21
141.8797019909588
 72
     1
 10
76.51634361836454
 20
141.8797019909588
 11
76.39558083602935
 21
141.6356335750412
 72
     1
 10
76.39558083602935
 20
141.6356335750412
 11
74.95440980020055
 21
141.6356335750412
 72
     1
 10
74.95440980020055
 20
141.6356335750412
 11
75.48162317704441
 21
142.7011616396369
 97
       12
330
F1F
330
F15
330
F18
330
F17
330
F19
330
F1C
330
F1B
330
F1E
330
F1A
330
F1D
330
F16
330
F14
 75
     0
 76
     1
 98
        1
 10
16.53097003745495
 20
69.02466386719675
450
        0
451
        0
460
0.0
461
0.0
452
        0
462
0.0
453
        0
470

  0
LINE
  5
F21
102
{ACAD_REACTORS
330
F10
102
}
330
18
100
AcDbEntity
  8
ROGO
 62
     4
100
AcDbLine
 10
73.91719372359375
 20
142.2891188807442
 30
0.0
 11
73.78898922594419
 21
142.0057491647658
 31
0.0
  0
LINE
  5
F22
102
{ACAD_REACTORS
330
F10
102
}
330
18
100
AcDbEntity
  8
ROGO
 62
     4
100
AcDbLine
 10
73.62153843435556
 20
141.6356335750412
 30
0.0
 11
73.35033820025637
 21
141.0362011470144
 31
0.0
  0
LINE
  5
F23
102
{ACAD_REACTORS
330
F10
102
}
330
18
100
AcDbEntity
  8
ROGO
 62
     4
100
AcDbLine
 10
73.40020037080001
 20
142.7011616396369
 30
0.0
 11
74.70863340558264
 21
142.7011616396369
 31
0.0
  0
LINE
  5
F24
102
{ACAD_REACTORS
330
F10
102
}
330
18
100
AcDbEntity
  8
ROGO
 62
     4
100
AcDbLine
 10
74.34501808278162
 20
141.6356335750412
 30
0.0
 11
73.62153843435556
 21
141.6356335750412
 31
0.0
  0
LINE
  5
F25
102
{ACAD_REACTORS
330
F10
102
}
330
18
100
AcDbEntity
  8
ROGO
 62
     4
100
AcDbLine
 10
74.24662464270443
 20
142.2891188807442
 30
0.0
 11
73.91719372359375
 21
142.2891188807442
 31
0.0
  0
LINE
  5
F26
102
{ACAD_REACTORS
330
F10
102
}
330
18
100
AcDbEntity
  8
ROGO
 62
     4
100
AcDbLine
 10
74.18874636403768
 20
142.0057491647658
 30
0.0
 11
73.78898922594419
 21
142.0057491647658
 31
0.0
  0
TEXT
  5
F27
330
18
100
AcDbEntity
  8
外形線
 62
     6
100
AcDbText
 10
85.38984320673131
 20
133.5565850686456
 30
0.0
 40
1.0
  1
25
  7
STYLE3
100
AcDbText
  0
LINE
  5
F28
330
18
100
AcDbEntity
  8
中心線
100
AcDbLine
 10
84.28088081002977
 20
133.721930272456
 30
0.0
 11
83.47248277117888
 21
133.9845947176746
 31
0.0
  0
LINE
  5
F2A
330
18
100
AcDbEntity
  8
中心線
100
AcDbLine
 10
83.47248277117898
 20
133.9845947176748
 30
0.0
 11
84.28088081002988
 21
133.7219302724561
 31
0.0
  0
LINE
  5
F2B
330
18
100
AcDbEntity
  8
中心線
 48
0.3
100
AcDbLine
 10
88.94105773987616
 20
139.1817143989043
 30
0.0
 11
88.94105773987616
 21
125.2337796011335
 31
0.0
  0
LINE
  5
F2E
330
18
100
AcDbEntity
  8
外形線
100
AcDbLine
 10
85.09490579212059
 20
129.8717000837999
 30
0.0
 11
84.01216479063549
 21
129.2465792751297
 31
0.0
  0
LINE
  5
F2F
330
18
100
AcDbEntity
  8
外形線
100
AcDbLine
 10
84.99490579212055
 20
130.0449051645568
 30
0.0
 11
83.91216479063547
 21
129.4197843558866
 31
0.0
  0
HATCH
  5
F30
330
18
100
AcDbEntity
  8
外形線
100
AcDbHatch
 10
0.0
 20
0.0
 30
0.0
210
0.0
220
0.0
230
1.0
  2
SOLID
 70
     1
 71
     0
 91
        4
 92
        7
 72
     1
 73
     1
 93
        4
 10
83.91216479063547
 20
129.4197843558866
 42
0.0043480726897293
 10
83.96141166811572
 20
129.3327470000187
 42
0.0
 10
84.69753326133247
 20
129.7577470000186
 42
-0.0051024393233301
 10
84.64841705275693
 20
129.8448597976139
 42
0.0
 97
        0
 92
        7
 72
     1
 73
     1
 93
        4
 10
83.96141166811572
 20
129.3327470000187
 42
0.0043480726897342
 10
84.01216479063549
 20
129.2465792751297
 42
0.0
 10
84.74841705275691
 20
129.6716547168571
 42
-0.0051024393233272
 10
84.69753326133247
 20
129.7577470000186
 42
0.0
 97
        0
 92
        7
 72
     1
 73
     1
 93
        4
 10
84.64841705275683
 20
129.8448597976141
 42
0.0051024393233359
 10
84.69753326133247
 20
129.7577470000186
 42
0.0
 10
85.04490579212063
 20
129.9583026241783
 42
0.0
 10
84.99490579212055
 20
130.0449051645568
 42
0.0
 97
        0
 92
        7
 72
     1
 73
     1
 93
        4
 10
84.69753326133247
 20
129.7577470000186
 42
0.0051024393233272
 10
84.74841705275691
 20
129.6716547168571
 42
0.0
 10
85.09490579212059
 20
129.8717000837999
 42
0.0
 10
85.04490579212063
 20
129.9583026241783
 42
0.0
 97
        0
 75
     0
 76
     1
 47
0.0085273733081266
 98
        4
 10
84.36684124157016
 20
129.601115797782
 10
84.39941856172197
 20
129.5361629717366
 10
84.76119535060673
 20
129.8731403601383
 10
84.83414445612892
 20
129.7723710151167
450
        0
451
        0
460
0.0
461
0.0
452
        0
462
0.0
453
        0
470

  0
LINE
  5
F31
330
18
100
AcDbEntity
  8
中心線
100
AcDbLine
 10
84.28088081002988
 20
130.6935637275816
 30
0.0
 11
83.47248277117898
 21
130.4308992823628
 31
0.0
  0
LINE
  5
F32
330
18
100
AcDbEntity
  8
中心線
100
AcDbLine
 10
83.47248277117898
 20
130.4308992823628
 30
0.0
 11
84.28088081002988
 21
130.6935637275816
 31
0.0
  0
LINE
  5
F39
330
18
100
AcDbEntity
  8
中心線
100
AcDbLine
 10
84.06790045257162
 20
132.7199364700305
 30
0.0
 11
83.22255684150855
 21
132.8087856638082
 31
0.0
  0
LINE
  5
F3A
330
18
100
AcDbEntity
  8
中心線
100
AcDbLine
 10
84.06790045257151
 20
131.6955575300073
 30
0.0
 11
83.22255684150855
 21
131.6067083362298
 31
0.0
  0
LINE
  5
F3B
330
18
100
AcDbEntity
  8
中心線
100
AcDbLine
 10
83.22255684150855
 20
131.6067083362299
 30
0.0
 11
84.06790045257151
 21
131.6955575300073
 31
0.0
  0
LINE
  5
F3C
330
18
100
AcDbEntity
  8
中心線
100
AcDbLine
 10
83.22255684150855
 20
132.8087856638078
 30
0.0
 11
84.06790045257151
 21
132.7199364700303
 31
0.0
  0
LINE
  5
F3F
330
18
100
AcDbEntity
  8
中心線
100
AcDbLine
 10
85.2996480950369
 20
128.9290070288604
 30
0.0
 11
84.66797499338111
 21
128.3602460134553
 31
0.0
  0
LINE
  5
F40
330
18
100
AcDbEntity
  8
中心線
100
AcDbLine
 10
84.66797499338111
 20
128.3602460134554
 30
0.0
 11
85.2996480950369
 21
128.9290070288604
 31
0.0
  0
LINE
  5
F41
330
18
100
AcDbEntity
  8
中心線
100
AcDbLine
 10
87.92229045486919
 20
127.4148237564231
 30
0.0
 11
87.74556551767398
 21
126.5833982957995
 31
0.0
  0
LINE
  5
F42
330
18
100
AcDbEntity
  8
外形線
100
AcDbLine
 10
87.74556551767398
 20
126.5833982957995
 30
0.0
 11
87.92229045486896
 21
127.4148237564232
 31
0.0
  0
LINE
  5
F46
330
18
100
AcDbEntity
  8
中心線
100
AcDbLine
 10
86.06091000364301
 20
128.2435637275816
 30
0.0
 11
85.56129253919436
 21
127.5558992823629
 31
0.0
  0
LINE
  5
F47
330
18
100
AcDbEntity
  8
中心線
100
AcDbLine
 10
86.94804818880459
 20
127.7313742575701
 30
0.0
 11
86.60232204219017
 21
126.9548606185739
 31
0.0
  0
LINE
  5
F48
330
18
100
AcDbEntity
  8
外形線
100
AcDbLine
 10
86.60232204219028
 20
126.9548606185739
 30
0.0
 11
86.9480481888047
 21
127.7313742575701
 31
0.0
  0
LINE
  5
F49
330
18
100
AcDbEntity
  8
中心線
100
AcDbLine
 10
85.56129253919426
 20
127.555899282363
 30
0.0
 11
86.0609100036429
 21
128.2435637275817
 31
0.0
  0
LINE
  5
F4A
330
18
100
AcDbEntity
  8
外形線
100
AcDbLine
 10
89.04105773987623
 20
127.7088582483381
 30
0.0
 11
88.84105773987625
 21
127.7088582483381
 31
0.0
  0
LINE
  5
F4B
330
18
100
AcDbEntity
  8
外形線
100
AcDbLine
 10
89.04105773987623
 20
127.7088582483381
 30
0.0
 11
89.04105773987641
 21
126.4586166309979
 31
0.0
  0
LINE
  5
F4C
330
18
100
AcDbEntity
  8
外形線
100
AcDbLine
 10
88.84105773987625
 20
127.7088582483381
 30
0.0
 11
88.84105773987636
 21
126.4586166309979
 31
0.0
  0
HATCH
  5
F4D
330
18
100
AcDbEntity
  8
外形線
100
AcDbHatch
 10
0.0
 20
0.0
 30
0.0
210
0.0
220
0.0
230
1.0
  2
SOLID
 70
     1
 71
     0
 91
        4
 92
        7
 72
     1
 73
     1
 93
        4
 10
88.84105773987636
 20
126.4586166309979
 42
0.0043480726897293
 10
88.94105773987632
 20
126.4577470000189
 42
0.0
 10
88.94105773987632
 20
127.3077470000189
 42
-0.0051024393233301
 10
88.84105773987631
 20
127.3087675144525
 42
0.0
 97
        0
 92
        7
 72
     1
 73
     1
 93
        4
 10
88.94105773987632
 20
126.4577470000189
 42
0.0043480726897342
 10
89.04105773987641
 20
126.4586166309979
 42
0.0
 10
89.04105773987629
 20
127.3087675144525
 42
-0.0051024393233272
 10
88.94105773987632
 20
127.3077470000189
 42
0.0
 97
        0
 92
        7
 72
     1
 73
     1
 93
        4
 10
88.84105773987618
 20
127.3087675144525
 42
0.0051024393233359
 10
88.94105773987632
 20
127.3077470000189
 42
0.0
 10
88.94105773987632
 20
127.7088582483381
 42
0.0
 10
88.84105773987625
 20
127.7088582483381
 42
0.0
 97
        0
 92
        7
 72
     1
 73
     1
 93
        4
 10
88.94105773987632
 20
127.3077470000189
 42
0.0051024393233272
 10
89.04105773987629
 20
127.3087675144525
 42
0.0
 10
89.04105773987623
 20
127.7088582483381
 42
0.0
 10
88.94105773987632
 20
127.7088582483381
 42
0.0
 97
        0
 75
     0
 76
     1
 47
0.0085273733081266
 98
        4
 10
88.91135833015743
 20
126.9430437089576
 10
88.98389778763624
 20
126.9387800827735
 10
88.87295520322181
 20
127.4205766666482
 10
88.99669856869435
 20
127.4333677727029
450
        0
451
        0
460
0.0
461
0.0
452
        0
462
0.0
453
        0
470

  0
TEXT
  5
F4E
330
18
100
AcDbEntity
  8
外形線
 62
     6
100
AcDbText
 10
88.03627784094151
 20
128.3268163146624
 30
0.0
 40
1.0
  1
15
  7
STYLE3
100
AcDbText
  0
LINE
  5
F50
330
18
100
AcDbEntity
  8
中心線
100
AcDbLine
 10
89.95982502488301
 20
127.4148237564231
 30
0.0
 11
90.1365499620781
 21
126.5833982957994
 31
0.0
  0
LINE
  5
F51
330
18
100
AcDbEntity
  8
中心線
100
AcDbLine
 10
90.93406729094761
 20
127.7313742575701
 30
0.0
 11
91.27979343756203
 21
126.9548606185739
 31
0.0
  0
LINE
  5
F52
330
18
100
AcDbEntity
  8
外形線
100
AcDbLine
 10
91.27979343756193
 20
126.9548606185739
 30
0.0
 11
90.9340672909475
 21
127.7313742575701
 31
0.0
  0
LINE
  5
F53
330
18
100
AcDbEntity
  8
外形線
100
AcDbLine
 10
90.1365499620781
 20
126.5833982957994
 30
0.0
 11
89.95982502488301
 21
127.4148237564231
 31
0.0
  0
LINE
  5
F55
330
18
100
AcDbEntity
  8
外形線
100
AcDbLine
 10
85.09490579212059
 20
129.8717000837999
 30
0.0
 11
84.99490579212055
 21
130.0449051645568
 31
0.0
  0
TEXT
  5
F56
330
18
100
AcDbEntity
  8
外形線
 62
     6
100
AcDbText
 10
85.79665737670422
 20
129.7411302437045
 30
0.0
 40
1.0
  1
20
  7
STYLE3
100
AcDbText
  0
POINT
  5
F5A
330
18
100
AcDbEntity
  8
DEFPOINTS
 48
0.5
100
AcDbPoint
 10
88.94105773987616
 20
132.2077470000189
 30
0.0
  0
POINT
  5
F5B
330
18
100
AcDbEntity
  8
DEFPOINTS
 48
0.5
100
AcDbPoint
 10
88.94105773987622
 20
132.2077470000189
 30
0.0
  0
LINE
  5
F5C
330
18
100
AcDbEntity
  8
外形線
100
AcDbLine
 10
84.99490579212045
 20
134.3705888354807
 30
0.0
 11
83.91216479063524
 21
134.9957096441507
 31
0.0
  0
LINE
  5
F5D
330
18
100
AcDbEntity
  8
外形線
100
AcDbLine
 10
85.09490579212046
 20
134.5437939162376
 30
0.0
 11
84.01216479063526
 21
135.1689147249076
 31
0.0
  0
HATCH
  5
F5E
330
18
100
AcDbEntity
  8
外形線
100
AcDbHatch
 10
0.0
 20
0.0
 30
0.0
210
0.0
220
0.0
230
1.0
  2
SOLID
 70
     1
 71
     0
 91
        4
 92
        7
 72
     1
 73
     1
 93
        4
 10
84.01216479063526
 20
135.1689147249076
 42
0.0043480726897293
 10
83.9614116681156
 20
135.0827470000187
 42
0.0
 10
84.69753326133229
 20
134.6577470000187
 42
-0.0051024393233301
 10
84.74841705275673
 20
134.7438392831804
 42
0.0
 97
        0
 92
        7
 72
     1
 73
     1
 93
        4
 10
83.9614116681156
 20
135.0827470000187
 42
0.0043480726897342
 10
83.91216479063524
 20
134.9957096441507
 42
0.0
 10
84.64841705275677
 20
134.5706342024234
 42
-0.0051024393233272
 10
84.69753326133229
 20
134.6577470000187
 42
0.0
 97
        0
 92
        7
 72
     1
 73
     1
 93
        4
 10
84.74841705275684
 20
134.7438392831804
 42
0.0051024393233359
 10
84.69753326133229
 20
134.6577470000187
 42
0.0
 10
85.0449057921204
 20
134.4571913758591
 42
0.0
 10
85.09490579212046
 20
134.5437939162376
 42
0.0
 97
        0
 92
        7
 72
     1
 73
     1
 93
        4
 10
84.69753326133229
 20
134.6577470000187
 42
0.0051024393233272
 10
84.64841705275677
 20
134.5706342024234
 42
0.0
 10
84.99490579212045
 20
134.3705888354807
 42
0.0
 10
85.04490579212045
 20
134.4571913758591
 42
0.0
 97
        0
 75
     0
 76
     1
 47
0.0085273733081266
 98
        4
 10
84.39654065128889
 20
134.8658190888434
 10
84.35657851396189
 20
134.8051298889819
 10
84.82929788726108
 20
134.660310693509
 10
84.77850362731066
 20
134.5467502424327
450
        0
451
        0
460
0.0
461
0.0
452
        0
462
0.0
453
        0
470

  0
LINE
  5
F5F
102
{ACAD_REACTORS
330
F61
102
}
330
18
100
AcDbEntity
  8
ROGO
 62
     4
100
AcDbLine
 10
84.27990368542191
 20
141.0362011470144
 30
0.0
 11
84.89340094804186
 21
141.0362011470144
 31
0.0
  0
LINE
  5
F60
102
{ACAD_REACTORS
330
F61
102
}
330
18
100
AcDbEntity
  8
ROGO
 62
     4
100
AcDbLine
 10
84.06321129632226
 20
142.7011616396369
 30
0.0
 11
84.67672198206276
 21
142.7011616396369
 31
0.0
  0
HATCH
  5
F61
330
18
100
AcDbEntity
  8
ROGO
 62
     4
100
AcDbHatch
 10
0.0
 20
0.0
 30
0.0
210
0.0
220
0.0
230
1.0
  2
SOLID
 70
     1
 71
     1
 91
        1
 92
        7
 72
     0
 73
     1
 93
       11
 10
83.23300822148269
 20
141.0362011470144
 10
83.84651890722299
 20
141.0362011470145
 10
84.06321129632226
 20
141.4707746602146
 10
84.27990368542191
 20
141.0362011470144
 10
84.89340094804187
 20
141.0362011470144
 10
84.47829941062193
 20
141.8686813933257
 10
85.48683557373943
 20
142.7011616396369
 10
84.87333831111973
 20
142.7011616396369
 10
84.58608070041988
 20
142.5193818347798
 10
84.67672198206276
 20
142.7011616396369
 10
84.06321129632226
 20
142.7011616396369
 97
       11
330
FA3
330
FA0
330
F9F
330
F60
330
F83
330
EDE
330
F84
330
F8C
330
F5F
330
FA1
330
FA2
 75
     0
 76
     1
 47
0.0514683685270805
 98
        1
 10
84.01041039245582
 20
141.9868611434154
450
        0
451
        0
460
0.0
461
0.0
452
        0
462
0.0
453
        0
470

  0
SPLINE
  5
F67
102
{ACAD_REACTORS
330
F68
102
}
330
18
100
AcDbEntity
  8
ROGO
 62
     4
100
AcDbSpline
210
0.0
220
0.0
230
1.0
 70
     8
 71
     3
 72
    38
 73
    34
 74
    32
 42
0.0000000001
 43
0.0000000001
 44
0.0000000001
 40
0.0
 40
0.0
 40
0.0
 40
0.0
 40
0.1466809858503512
 40
0.1927470267158323
 40
0.2519387571496361
 40
0.3012652957297063
 40
0.3428842662275405
 40
0.398163757005189
 40
0.4264093980851721
 40
0.4582214040782023
 40
0.5051063145540632
 40
0.5582167444072172
 40
0.5926689601176003
 40
0.6300956242802151
 40
0.6716996253698074
 40
0.7348358051772865
 40
0.7948217600591976
 40
0.8227089311159007
 40
0.8545105191254009
 40
0.8921848988403043
 40
0.9190042159066466
 40
0.9414865273581797
 40
0.9735861891401423
 40
1.008858218798614
 40
1.044130052068303
 40
1.074992955276421
 40
1.145674489586044
 40
1.173561660642783
 40
1.229336035881912
 40
1.278638102448591
 40
1.373023212690064
 40
1.489484665840389
 40
1.657671951546084
 40
1.657671951546084
 40
1.657671951546084
 40
1.657671951546084
 10
80.99853612511891
 20
142.7056060315759
 30
0.0
 10
80.94964295596495
 20
142.7021520738238
 30
0.0
 10
80.88539459462143
 20
142.6976133799826
 30
0.0
 10
80.80381419843195
 20
142.6752627836649
 30
0.0
 10
80.75934385660518
 20
142.6486360263319
 30
0.0
 10
80.71306357724532
 20
142.6290640833917
 30
0.0
 10
80.67360532875341
 20
142.6000819171006
 30
0.0
 10
80.63369414343048
 20
142.5851476860324
 30
0.0
 10
80.60574710971923
 20
142.5582185980615
 30
0.0
 10
80.57340069779534
 20
142.5417691488485
 30
0.0
 10
80.54764267568575
 20
142.5049504993035
 30
0.0
 10
80.51885251268432
 20
142.4705263961717
 30
0.0
 10
80.48545230166913
 20
142.4453983361426
 30
0.0
 10
80.45804030022841
 20
142.4190065212875
 30
0.0
 10
80.43289360050854
 20
142.3782760211281
 30
0.0
 10
80.41801065813979
 20
142.3241572472954
 30
0.0
 10
80.37605814173312
 20
142.2899886052284
 30
0.0
 10
80.36974140628183
 20
142.2489077022845
 30
0.0
 10
80.34653619011605
 20
142.2246706608379
 30
0.0
 10
80.33644575054006
 20
142.1933841222839
 30
0.0
 10
80.33260282544722
 20
142.1647201266103
 30
0.0
 10
80.32799039899041
 20
142.1379499389251
 30
0.0
 10
80.31592516490738
 20
142.1097888840005
 30
0.0
 10
80.31986329893978
 20
142.07500255975
 30
0.0
 10
80.31874144278495
 20
142.041317807364
 30
0.0
 10
80.31940165644897
 20
141.9958423427242
 30
0.0
 10
80.31701885390118
 20
141.9515663855812
 30
0.0
 10
80.33602077044761
 20
141.9033836427192
 30
0.0
 10
80.34726547405341
 20
141.8604353933225
 30
0.0
 10
80.3780609240761
 20
141.8009683339683
 30
0.0
 10
80.43118243000511
 20
141.732356205468
 30
0.0
 10
80.53219741704067
 20
141.6490740811721
 30
0.0
 10
80.62932628049662
 20
141.6406254973311
 30
0.0
 10
80.6867157492643
 20
141.6356335750412
 30
0.0
 11
80.99853612511891
 21
142.7056060315759
 31
0.0
 11
80.85291923349075
 21
142.6879699185521
 31
0.0
 11
80.80879291319957
 21
142.6747431283678
 31
0.0
 11
80.7558415368577
 21
142.648289155221
 31
0.0
 11
80.71171521656664
 21
142.6262443085248
 31
0.0
 11
80.67641429900527
 21
142.6041992654396
 31
0.0
 11
80.62787545068886
 21
142.5777454886818
 31
0.0
 11
80.60581211720387
 21
142.560109572047
 31
0.0
 11
80.57933625569352
 21
142.5424734590233
 31
0.0
 11
80.54844786615751
 21
142.5072016257536
 31
0.0
 11
80.51314694859639
 21
142.4675208624227
 31
0.0
 11
80.48667108708583
 21
142.4454758193375
 31
0.0
 11
80.4601955722544
 21
142.4190220425797
 31
0.0
 11
80.43813223876941
 21
142.3837502093102
 31
0.0
 11
80.41165672393777
 21
142.3264333329552
 31
0.0
 11
80.37635545969772
 21
142.2779345131124
 31
0.0
 11
80.36753040364681
 21
142.2514805399657
 31
0.0
 11
80.34987994486607
 21
142.2250267632079
 31
0.0
 11
80.3366420141109
 21
142.1897547335495
 31
0.0
 11
80.33222913940665
 21
142.1633009567917
 31
0.0
 11
80.3278166113812
 21
142.1412559137065
 31
0.0
 11
80.31899155533016
 21
142.1103932068872
 31
0.0
 11
80.31899155533016
 21
142.0751211772287
 31
0.0
 11
80.31899155533016
 21
142.0398493439591
 31
0.0
 11
80.31899155533016
 21
142.0089864407509
 31
0.0
 11
80.32340408335562
 21
141.9384427742118
 31
0.0
 11
80.33222913940665
 21
141.9119888010651
 31
0.0
 11
80.34987994486607
 21
141.8590810511607
 31
0.0
 11
80.37194293167216
 21
141.8149911613793
 31
0.0
 11
80.42930718271838
 21
141.7400385647785
 31
0.0
 11
80.52197235132599
 21
141.6694947018504
 31
0.0
 11
80.6867157492643
 21
141.6356335750412
 31
0.0
  0
HATCH
  5
F68
330
18
100
AcDbEntity
  8
ROGO
 62
     4
100
AcDbHatch
 10
0.0
 20
0.0
 30
0.0
210
0.0
220
0.0
230
1.0
  2
SOLID
 70
     1
 71
     1
 91
        2
 92
        5
 93
        6
 72
     4
 94
        3
 73
     0
 74
     0
 95
       38
 96
       34
 40
0.0
 40
0.0
 40
0.0
 40
0.0
 40
0.1466809858503512
 40
0.1927470267158323
 40
0.2519387571496361
 40
0.3012652957297063
 40
0.3428842662275405
 40
0.398163757005189
 40
0.4264093980851721
 40
0.4582214040782023
 40
0.5051063145540632
 40
0.5582167444072172
 40
0.5926689601176003
 40
0.6300956242802151
 40
0.6716996253698074
 40
0.7348358051772865
 40
0.7948217600591976
 40
0.8227089311159007
 40
0.8545105191254009
 40
0.8921848988403043
 40
0.9190042159066466
 40
0.9414865273581797
 40
0.9735861891401423
 40
1.008858218798614
 40
1.044130052068303
 40
1.074992955276421
 40
1.145674489586044
 40
1.173561660642783
 40
1.229336035881912
 40
1.278638102448591
 40
1.373023212690064
 40
1.489484665840389
 40
1.657671951546084
 40
1.657671951546084
 40
1.657671951546084
 40
1.657671951546084
 10
80.99853612511891
 20
142.7056060315759
 10
80.94964295596495
 20
142.7021520738238
 10
80.88539459462143
 20
142.6976133799826
 10
80.80381419843195
 20
142.6752627836649
 10
80.75934385660518
 20
142.6486360263319
 10
80.71306357724532
 20
142.6290640833917
 10
80.67360532875341
 20
142.6000819171006
 10
80.63369414343048
 20
142.5851476860324
 10
80.60574710971923
 20
142.5582185980615
 10
80.57340069779534
 20
142.5417691488485
 10
80.54764267568575
 20
142.5049504993035
 10
80.51885251268432
 20
142.4705263961717
 10
80.48545230166913
 20
142.4453983361426
 10
80.45804030022841
 20
142.4190065212875
 10
80.43289360050854
 20
142.3782760211281
 10
80.41801065813979
 20
142.3241572472954
 10
80.37605814173312
 20
142.2899886052284
 10
80.36974140628183
 20
142.2489077022845
 10
80.34653619011605
 20
142.2246706608379
 10
80.33644575054006
 20
142.1933841222839
 10
80.33260282544722
 20
142.1647201266103
 10
80.32799039899041
 20
142.1379499389251
 10
80.31592516490738
 20
142.1097888840005
 10
80.31986329893978
 20
142.07500255975
 10
80.31874144278495
 20
142.041317807364
 10
80.31940165644897
 20
141.9958423427242
 10
80.31701885390118
 20
141.9515663855812
 10
80.33602077044761
 20
141.9033836427192
 10
80.34726547405341
 20
141.8604353933225
 10
80.3780609240761
 20
141.8009683339683
 10
80.43118243000511
 20
141.732356205468
 10
80.53219741704067
 20
141.6490740811721
 10
80.62932628049662
 20
141.6406254973311
 10
80.6867157492643
 20
141.6356335750412
 72
     1
 10
80.6867157492643
 20
141.6356335750412
 11
81.29565813725086
 21
141.6356335750412
 72
     4
 94
        3
 73
     0
 74
     0
 95
       11
 96
        7
 40
0.1647869275458135
 40
0.1647869275458135
 40
0.1647869275458135
 40
0.1647869275458135
 40
0.2545010798212315
 40
0.5111620267764023
 40
0.7602998271033902
 40
0.8850764140209603
 40
0.8850764140209603
 40
0.8850764140209603
 40
0.8850764140209603
 10
81.2956581372515
 20
141.6356335750412
 10
81.30415537424415
 20
141.6354698153324
 10
81.33696214142446
 20
141.6348375596184
 10
81.39302929978361
 20
141.6428922660532
 10
81.45201941949142
 20
141.6506109290358
 10
81.48718771124391
 20
141.6562321983741
 10
81.49853035081845
 20
141.6593894264229
 72
     4
 94
        3
 73
     0
 74
     0
 95
        9
 96
        5
 40
0.0
 40
0.0
 40
0.0
 40
0.0
 40
0.0921619278248216
 40
0.21607939269497
 40
0.21607939269497
 40
0.21607939269497
 40
0.21607939269497
 10
81.49853035081845
 20
141.6593894264229
 10
81.52813542850182
 20
141.6684469081713
 10
81.59754638113156
 20
141.6896827395146
 10
81.6548957282343
 20
141.7345649345678
 10
81.68778449942294
 20
141.7603040287009
 72
     4
 94
        3
 73
     0
 74
     0
 95
       25
 96
       21
 40
0.0
 40
0.0
 40
0.0
 40
0.0
 40
0.165525918914855
 40
0.3412380755365305
 40
0.5940540902285263
 40
0.7697671103696209
 40
0.9377330196075423
 40
1.11479469302833
 40
1.274661249598185
 40
1.574522170874768
 40
1.815540668866877
 40
2.15849091873445
 40
2.536227739636605
 40
2.738070817316548
 40
2.925680654369045
 40
3.162706124480894
 40
3.395643218188267
 40
3.648478129958861
 40
3.928509979727306
 40
4.337226830236035
 40
4.337226830236035
 40
4.337226830236035
 40
4.337226830236035
 10
81.68778449942294
 20
141.7603040287009
 10
81.6998688810021
 20
141.7702901168721
 10
81.7227896488904
 20
141.7940408370105
 10
81.7634434049752
 20
141.832535462678
 10
81.79926826576195
 20
141.8773847563303
 10
81.84346081075773
 20
141.9137335370268
 10
81.8664673115162
 20
141.9581726159186
 10
81.8996293662891
 20
141.9931230049123
 10
81.92744689991958
 20
142.0471004331853
 10
81.95104870235367
 20
142.1091033989902
 10
81.97354976196857
 20
142.1899230865861
 10
81.98217240013958
 20
142.2810997074705
 10
81.96940982333172
 20
142.3693130424192
 10
81.93857866401925
 20
142.4352496127052
 10
81.91591198681726
 20
142.4902009484045
 10
81.88151246441396
 20
142.5422495388197
 10
81.84226725868006
 20
142.5988581368595
 10
81.78697771310067
 20
142.6456826121404
 10
81.71471995373565
 20
142.702160474694
 10
81.64741724633278
 20
142.7043228412689
 10
81.60747851310622
 20
142.7056060315759
 72
     1
 10
81.60747851310624
 20
142.7056060315759
 11
80.99853612511887
 21
142.7056060315759
 97
        6
330
F86
330
F87
330
F67
330
F88
330
F89
330
F8A
 92
       20
 93
        1
 72
     3
 10
81.13847441766996
 20
142.1557016895877
 11
0.1446659516241287
 21
0.1272156018551716
 40
0.678808341743879
 50
0.0
 51
360.0
 73
     1
 97
        1
330
F8B
 75
     0
 76
     1
 47
0.088756267210375
 98
        2
 10
81.18101884250382
 20
142.4100753513599
 10
81.18101884250382
 20
142.4100753513599
450
        0
451
        0
460
0.0
461
0.0
452
        0
462
0.0
453
        0
470

  0
LINE
  5
F69
102
{ACAD_REACTORS
330
F7A
102
}
330
18
100
AcDbEntity
  8
ROGO
 62
     4
100
AcDbLine
 10
80.40681922789167
 20
142.7011616396369
 30
0.0
 11
80.20913868573485
 21
142.3047161158535
 31
0.0
  0
LINE
  5
F6A
102
{ACAD_REACTORS
330
F7A
102
}
330
18
100
AcDbEntity
  8
ROGO
 62
     4
100
AcDbLine
 10
79.54233055282339
 20
142.3047161158535
 30
0.0
 11
80.20913868573485
 21
142.3047161158535
 31
0.0
  0
LINE
  5
F6B
102
{ACAD_REACTORS
330
F7A
102
}
330
18
100
AcDbEntity
  8
ROGO
 62
     4
100
AcDbLine
 10
79.3918467620407
 20
142.0320749005749
 30
0.0
 11
80.0731909703053
 21
142.0320749005749
 31
0.0
  0
SPLINE
  5
F6C
102
{ACAD_REACTORS
330
F7A
102
}
330
18
100
AcDbEntity
  8
ROGO
 62
     4
100
AcDbSpline
210
0.0
220
0.0
230
1.0
 70
     8
 71
     3
 72
    16
 73
    12
 74
    10
 42
0.0000000001
 43
0.0000000001
 44
0.0000000001
 40
0.0
 40
0.0
 40
0.0
 40
0.0
 40
0.1019083386143269
 40
0.1516832129527681
 40
0.1762287742584348
 40
0.2020957987917936
 40
0.2391373039446176
 40
0.2728654392220833
 40
0.3080430985380902
 40
0.3670209862420195
 40
0.4253967701409196
 40
0.4253967701409196
 40
0.4253967701409196
 40
0.4253967701409196
 10
79.54233055282339
 20
142.3047161158535
 30
0.0
 10
79.507819767667
 20
142.2994547138345
 30
0.0
 10
79.45645295269168
 20
142.291623496353
 30
0.0
 10
79.41000190736779
 20
142.2548533599353
 30
0.0
 10
79.38380674297274
 20
142.2329775763173
 30
0.0
 10
79.37489503134219
 20
142.2040078290504
 30
0.0
 10
79.35096097245116
 20
142.1817635102002
 30
0.0
 10
79.33123250004084
 20
142.1511926558662
 30
0.0
 10
79.3265217880333
 20
142.1092030922653
 30
0.0
 10
79.32997955849939
 20
142.0502771389928
 30
0.0
 10
79.37129501962473
 20
142.0381215245364
 30
0.0
 10
79.39184676204058
 20
142.032074900575
 30
0.0
 11
79.54233055282339
 21
142.3047161158535
 31
0.0
 11
79.44393744580884
 21
142.2781811206367
 31
0.0
 11
79.40342261746093
 21
142.2492659550769
 31
0.0
 11
79.3860591671422
 21
142.2319167426211
 31
0.0
 11
79.37448331172163
 21
142.2087844593466
 31
0.0
 11
79.35133193369267
 21
142.1798692937868
 31
0.0
 11
79.33396848337372
 21
142.1509539396939
 31
0.0
 11
79.32818055566361
 21
142.1162557033155
 31
0.0
 11
79.33975641108395
 21
142.0584249951294
 31
0.0
 11
79.39184676204058
 21
142.032074900575
 31
0.0
  0
LINE
  5
F6D
102
{ACAD_REACTORS
330
F7A
102
}
330
18
100
AcDbEntity
  8
ROGO
 62
     4
100
AcDbLine
 10
80.0731909703053
 20
142.0320749005749
 30
0.0
 11
79.87551252153139
 21
141.6356335750412
 31
0.0
  0
LINE
  5
F6E
102
{ACAD_REACTORS
330
F7A
102
}
330
18
100
AcDbEntity
  8
ROGO
 62
     4
100
AcDbLine
 10
79.33975641108429
 20
142.7011616396369
 30
0.0
 11
80.40681922789167
 21
142.7011616396369
 31
0.0
  0
LINE
  5
F6F
102
{ACAD_REACTORS
330
EDD
102
}
330
18
100
AcDbEntity
  8
ROGO
 62
     4
100
AcDbLine
 10
77.72499402461983
 20
142.4163416573458
 30
0.0
 11
77.46260384614038
 21
142.052476580596
 31
0.0
  0
LINE
  5
F70
102
{ACAD_REACTORS
330
EDD
102
}
330
18
100
AcDbEntity
  8
ROGO
 62
     4
100
AcDbLine
 10
77.30830371788647
 20
141.8385035259074
 30
0.0
 11
77.98169261893986
 21
141.8385035259074
 31
0.0
  0
LINE
  5
F71
102
{ACAD_REACTORS
330
EDD
102
}
330
18
100
AcDbEntity
  8
ROGO
 62
     4
100
AcDbLine
 10
77.46260384614038
 20
142.0524765805961
 30
0.0
 11
77.88663730955045
 21
142.0524765805961
 31
0.0
  0
LINE
  5
F72
102
{ACAD_REACTORS
330
EDD
102
}
330
18
100
AcDbEntity
  8
ROGO
 62
     4
100
AcDbLine
 10
77.30830371788647
 20
141.8385035259074
 30
0.0
 11
77.16201025358543
 21
141.6356335750413
 31
0.0
  0
LINE
  5
F73
102
{ACAD_REACTORS
330
EDD
102
}
330
18
100
AcDbEntity
  8
ROGO
 62
     4
100
AcDbLine
 10
77.34027142036541
 20
142.7011616396369
 30
0.0
 11
78.19260261701924
 21
142.7011616396369
 31
0.0
  0
LINE
  5
F74
102
{ACAD_REACTORS
330
EDD
102
}
330
18
100
AcDbEntity
  8
ROGO
 62
     4
100
AcDbLine
 10
78.66595240393849
 20
141.6356335750413
 30
0.0
 11
78.0718154896607
 21
141.6356335750412
 31
0.0
  0
LINE
  5
F75
102
{ACAD_REACTORS
330
EDD
102
}
330
18
100
AcDbEntity
  8
ROGO
 62
     4
100
AcDbLine
 10
78.19260261701924
 20
142.7011616396369
 30
0.0
 11
78.66595240393849
 21
141.6356335750412
 31
0.0
  0
LINE
  5
F76
102
{ACAD_REACTORS
330
EDD
102
}
330
18
100
AcDbEntity
  8
ROGO
 62
     4
100
AcDbLine
 10
77.72499402461983
 20
142.4163416573458
 30
0.0
 11
77.88663730955045
 21
142.052476580596
 31
0.0
  0
LINE
  5
F77
102
{ACAD_REACTORS
330
EDD
102
}
330
18
100
AcDbEntity
  8
ROGO
 62
     4
100
AcDbLine
 10
77.98169261893986
 20
141.8385035259074
 30
0.0
 11
78.0718154896607
 21
141.6356335750412
 31
0.0
  0
LINE
  5
F78
102
{ACAD_REACTORS
330
F7A
102
}
330
18
100
AcDbEntity
  8
ROGO
 62
     4
100
AcDbLine
 10
78.95775917282231
 20
141.6356335750412
 30
0.0
 11
79.87551252153139
 21
141.6356335750412
 31
0.0
  0
SPLINE
  5
F79
102
{ACAD_REACTORS
330
F7A
102
}
330
18
100
AcDbEntity
  8
ROGO
 62
     4
100
AcDbSpline
210
0.0
220
0.0
230
1.0
 70
     8
 71
     3
 72
    26
 73
    22
 74
    20
 42
0.0000000001
 43
0.0000000001
 44
0.0000000001
 40
0.0
 40
0.0
 40
0.0
 40
0.0
 40
0.1932989983112555
 40
0.3226977101261759
 40
0.4160047191738766
 40
0.4856740437056699
 40
0.5760388141621142
 40
0.6419962871746585
 40
0.7611001101108695
 40
0.858048909671792
 40
0.9239896277421667
 40
0.988647877961139
 40
1.104308917266646
 40
1.186095076771428
 40
1.230143242494071
 40
1.292712360739777
 40
1.337894924943603
 40
1.403349543356975
 40
1.440391195682085
 40
1.520997986108552
 40
1.557803746841973
 40
1.557803746841973
 40
1.557803746841973
 40
1.557803746841973
 10
79.33975641108395
 20
142.7011616396369
 30
0.0
 10
79.27414774442246
 20
142.6972473140768
 30
0.0
 10
79.16461915565036
 20
142.6907126506487
 30
0.0
 10
79.04435743147191
 20
142.6176549447257
 30
0.0
 10
78.95624665183153
 20
142.5751824050155
 30
0.0
 10
78.89340615064901
 20
142.5174446057011
 30
0.0
 10
78.84734380854538
 20
142.4578056766764
 30
0.0
 10
78.78927357903271
 20
142.3867463300268
 30
0.0
 10
78.7419189662232
 20
142.3040005963483
 30
0.0
 10
78.71780414079228
 20
142.2128003725099
 30
0.0
 10
78.69644345729934
 20
142.1401132649502
 30
0.0
 10
78.68060201682381
 20
142.0591129694359
 30
0.0
 10
78.68463252774628
 20
141.9716041558667
 30
0.0
 10
78.69040440384856
 20
141.890330449809
 30
0.0
 10
78.71617442711218
 20
141.8323131920266
 30
0.0
 10
78.74552191895148
 20
141.7910089024073
 30
0.0
 10
78.78145752079707
 20
141.7455168065826
 30
0.0
 10
78.82077892768703
 20
141.715387538827
 30
0.0
 10
78.85330094082121
 20
141.6608063456497
 30
0.0
 10
78.91022962770403
 20
141.6538413917583
 30
0.0
 10
78.94641576590834
 20
141.6399790547533
 30
0.0
 10
78.95775917282231
 20
141.6356335750412
 30
0.0
 11
79.33975641108395
 21
142.7011616396369
 31
0.0
 11
79.14875779195313
 21
142.6714289936353
 31
0.0
 11
79.03300090180801
 21
142.6135984739827
 31
0.0
 11
78.95197124511208
 21
142.5673340959671
 31
0.0
 11
78.89988089415567
 21
142.5210695294183
 31
0.0
 11
78.84200261548881
 21
142.4516728681282
 31
0.0
 11
78.8014877871409
 21
142.3996254192941
 31
0.0
 11
78.7436091756623
 21
142.2955303330924
 31
0.0
 11
78.71467020273485
 21
142.203001388528
 31
0.0
 11
78.69730675241601
 21
142.1393877980566
 31
0.0
 11
78.68573089699578
 21
142.0757742075852
 31
0.0
 11
78.68573089699578
 21
141.9601131682797
 31
0.0
 11
78.69730675241601
 21
141.8791503653524
 31
0.0
 11
78.71467020273485
 21
141.8386688696222
 31
0.0
 11
78.74939710337253
 21
141.7866214207881
 31
0.0
 11
78.77833640911195
 21
141.7519229958764
 31
0.0
 11
78.82463883235823
 21
141.7056586178609
 31
0.0
 11
78.8477902103873
 21
141.6767432637677
 31
0.0
 11
78.92303227218462
 21
141.6478280982081
 31
0.0
 11
78.95775917282231
 21
141.6356335750412
 31
0.0
  0
HATCH
  5
F7A
330
18
100
AcDbEntity
  8
ROGO
 62
     4
100
AcDbHatch
 10
0.0
 20
0.0
 30
0.0
210
0.0
220
0.0
230
1.0
  2
SOLID
 70
     1
 71
     1
 91
        1
 92
        5
 93
        8
 72
     1
 10
80.20913868573485
 20
142.3047161158535
 11
80.40681922789167
 21
142.7011616396369
 72
     1
 10
80.40681922789167
 20
142.7011616396369
 11
79.33975641108415
 21
142.7011616396369
 72
     4
 94
        3
 73
     0
 74
     0
 95
       26
 96
       22
 40
0.0
 40
0.0
 40
0.0
 40
0.0
 40
0.1932989983112555
 40
0.3226977101261759
 40
0.4160047191738766
 40
0.4856740437056699
 40
0.5760388141621142
 40
0.6419962871746585
 40
0.7611001101108695
 40
0.858048909671792
 40
0.9239896277421667
 40
0.988647877961139
 40
1.104308917266646
 40
1.186095076771428
 40
1.230143242494071
 40
1.292712360739777
 40
1.337894924943603
 40
1.403349543356975
 40
1.440391195682085
 40
1.520997986108552
 40
1.557803746841973
 40
1.557803746841973
 40
1.557803746841973
 40
1.557803746841973
 10
79.33975641108395
 20
142.7011616396369
 10
79.27414774442246
 20
142.6972473140768
 10
79.16461915565036
 20
142.6907126506487
 10
79.04435743147191
 20
142.6176549447257
 10
78.95624665183153
 20
142.5751824050155
 10
78.89340615064901
 20
142.5174446057011
 10
78.84734380854538
 20
142.4578056766764
 10
78.78927357903271
 20
142.3867463300268
 10
78.7419189662232
 20
142.3040005963483
 10
78.71780414079228
 20
142.2128003725099
 10
78.69644345729934
 20
142.1401132649502
 10
78.68060201682381
 20
142.0591129694359
 10
78.68463252774628
 20
141.9716041558667
 10
78.69040440384856
 20
141.890330449809
 10
78.71617442711218
 20
141.8323131920266
 10
78.74552191895148
 20
141.7910089024073
 10
78.78145752079707
 20
141.7455168065826
 10
78.82077892768703
 20
141.715387538827
 10
78.85330094082121
 20
141.6608063456497
 10
78.91022962770403
 20
141.6538413917583
 10
78.94641576590834
 20
141.6399790547533
 10
78.95775917282231
 20
141.6356335750412
 72
     1
 10
78.95775917282228
 20
141.6356335750412
 11
79.87551252153139
 21
141.6356335750412
 72
     1
 10
79.87551252153139
 20
141.6356335750412
 11
80.0731909703053
 21
142.0320749005749
 72
     1
 10
80.0731909703053
 20
142.0320749005749
 11
79.39184676204058
 21
142.0320749005749
 72
     4
 94
        3
 73
     0
 74
     0
 95
       16
 96
       12
 40
0.0
 40
0.0
 40
0.0
 40
0.0
 40
0.0583757838989001
 40
0.1173536716028293
 40
0.1525313309188363
 40
0.186259466196302
 40
0.223300971349126
 40
0.2491679958824848
 40
0.2737135571881515
 40
0.3234884315265927
 40
0.4253967701409196
 40
0.4253967701409196
 40
0.4253967701409196
 40
0.4253967701409196
 10
79.39184676204058
 20
142.032074900575
 10
79.37129501962473
 20
142.0381215245364
 10
79.32997955849939
 20
142.0502771389928
 10
79.3265217880333
 20
142.1092030922653
 10
79.33123250004084
 20
142.1511926558662
 10
79.35096097245116
 20
142.1817635102002
 10
79.37489503134219
 20
142.2040078290504
 10
79.38380674297274
 20
142.2329775763173
 10
79.41000190736779
 20
142.2548533599353
 10
79.45645295269168
 20
142.291623496353
 10
79.507819767667
 20
142.2994547138345
 10
79.54233055282339
 20
142.3047161158535
 72
     1
 10
79.54233055282344
 20
142.3047161158535
 11
80.20913868573485
 21
142.3047161158535
 97
        8
330
F6E
330
F79
330
F78
330
F6D
330
F6B
330
F6C
330
F6A
330
F69
 75
     0
 76
     1
 47
0.0514683685270805
 98
        1
 10
79.71294778543427
 20
142.4639626006176
450
        0
451
        0
460
0.0
461
0.0
452
        0
462
0.0
453
        0
470

  0
LINE
  5
F7B
102
{ACAD_REACTORS
330
F85
102
}
330
18
100
AcDbEntity
  8
ROGO
 62
     4
100
AcDbLine
 10
82.39098537601956
 20
141.6356335750412
 30
0.0
 11
83.30873872472876
 21
141.6356335750412
 31
0.0
  0
LINE
  5
F7C
102
{ACAD_REACTORS
330
F85
102
}
330
18
100
AcDbEntity
  8
ROGO
 62
     4
100
AcDbLine
 10
82.77298261428155
 20
142.7011616396369
 30
0.0
 11
83.84004543108904
 21
142.7011616396369
 31
0.0
  0
SPLINE
  5
F7D
102
{ACAD_REACTORS
330
F85
102
}
330
18
100
AcDbEntity
  8
ROGO
 62
     4
100
AcDbSpline
210
0.0
220
0.0
230
1.0
 70
     8
 71
     3
 72
    16
 73
    12
 74
    10
 42
0.0000000001
 43
0.0000000001
 44
0.0000000001
 40
0.0
 40
0.0
 40
0.0
 40
0.0
 40
0.1019083386145464
 40
0.1516832129530536
 40
0.17622877425864
 40
0.2020957987919479
 40
0.2391373039447008
 40
0.272865439222264
 40
0.3080430985381776
 40
0.3670209862421068
 40
0.4253967701410583
 40
0.4253967701410583
 40
0.4253967701410583
 40
0.4253967701410583
 10
82.97555675602087
 20
142.3047161158535
 30
0.0
 10
82.94104597086436
 20
142.2994547138346
 30
0.0
 10
82.88967915588887
 20
142.291623496353
 30
0.0
 10
82.84322811056517
 20
142.2548533599352
 30
0.0
 10
82.81703294616992
 20
142.2329775763172
 30
0.0
 10
82.8081212345396
 20
142.2040078290504
 30
0.0
 10
82.78418717564859
 20
142.1817635102002
 30
0.0
 10
82.76445870323838
 20
142.1511926558662
 30
0.0
 10
82.75974799123057
 20
142.1092030922652
 30
0.0
 10
82.7632057616968
 20
142.0502771389928
 30
0.0
 10
82.80452122282211
 20
142.0381215245363
 30
0.0
 10
82.82507296523794
 20
142.0320749005749
 30
0.0
 11
82.97555675602087
 21
142.3047161158535
 31
0.0
 11
82.87716364900608
 21
142.2781811206367
 31
0.0
 11
82.83664882065819
 21
142.2492659550768
 31
0.0
 11
82.81928537033946
 21
142.2319167426211
 31
0.0
 11
82.807709514919
 21
142.2087844593466
 31
0.0
 11
82.78455813689015
 21
142.1798692937868
 31
0.0
 11
82.7671946865712
 21
142.1509539396938
 31
0.0
 11
82.76140675886097
 21
142.1162557033155
 31
0.0
 11
82.77298261428132
 21
142.0584249951294
 31
0.0
 11
82.82507296523794
 21
142.0320749005749
 31
0.0
  0
SPLINE
  5
F7E
102
{ACAD_REACTORS
330
F85
102
}
330
18
100
AcDbEntity
  8
ROGO
 62
     4
100
AcDbSpline
210
0.0
220
0.0
230
1.0
 70
     8
 71
     3
 72
    26
 73
    22
 74
    20
 42
0.0000000001
 43
0.0000000001
 44
0.0000000001
 40
0.0
 40
0.0
 40
0.0
 40
0.0
 40
0.1932989983113678
 40
0.3226977101261864
 40
0.4160047191737883
 40
0.4856740437057517
 40
0.576038814162196
 40
0.6419962871746706
 40
0.7611001101107711
 40
0.8580489096717275
 40
0.9239896277420726
 40
0.9886478779611058
 40
1.104308917266613
 40
1.186095076771443
 40
1.230143242494146
 40
1.29271236073982
 40
1.3378949249435
 40
1.403349543356953
 40
1.440391195681992
 40
1.520997986108565
 40
1.557803746841879
 40
1.557803746841879
 40
1.557803746841879
 40
1.557803746841879
 10
82.77298261428132
 20
142.7011616396369
 30
0.0
 10
82.70737394761979
 20
142.6972473140767
 30
0.0
 10
82.59784535884769
 20
142.6907126506487
 30
0.0
 10
82.47758363466923
 20
142.6176549447258
 30
0.0
 10
82.389472855029
 20
142.5751824050153
 30
0.0
 10
82.32663235384629
 20
142.5174446057013
 30
0.0
 10
82.28057001174262
 20
142.4578056766764
 30
0.0
 10
82.22249978223008
 20
142.3867463300268
 30
0.0
 10
82.17514516942094
 20
142.3040005963483
 30
0.0
 10
82.15103034398961
 20
142.2128003725099
 30
0.0
 10
82.12966966049707
 20
142.1401132649501
 30
0.0
 10
82.11382822002088
 20
142.059112969436
 30
0.0
 10
82.11785873094331
 20
141.9716041558666
 30
0.0
 10
82.12363060704632
 20
141.8903304498091
 30
0.0
 10
82.14940063030949
 20
141.8323131920265
 30
0.0
 10
82.17874812214917
 20
141.7910089024074
 30
0.0
 10
82.21468372399439
 20
141.7455168065825
 30
0.0
 10
82.25400513088455
 20
141.7153875388271
 30
0.0
 10
82.28652714401853
 20
141.6608063456496
 30
0.0
 10
82.34345583090149
 20
141.6538413917583
 30
0.0
 10
82.37964196910574
 20
141.6399790547533
 30
0.0
 10
82.39098537601966
 20
141.6356335750412
 30
0.0
 11
82.77298261428132
 21
142.7011616396369
 31
0.0
 11
82.58198399515038
 21
142.6714289936353
 31
0.0
 11
82.46622710500536
 21
142.6135984739827
 31
0.0
 11
82.38519744830956
 21
142.5673340959671
 31
0.0
 11
82.33310709735292
 21
142.5210695294183
 31
0.0
 11
82.27522881868607
 21
142.4516728681282
 31
0.0
 11
82.23471399033826
 21
142.3996254192941
 31
0.0
 11
82.17683537885989
 21
142.2955303330924
 31
0.0
 11
82.14789640593233
 21
142.203001388528
 31
0.0
 11
82.1305329556136
 21
142.1393877980566
 31
0.0
 11
82.11895710019303
 21
142.0757742075852
 31
0.0
 11
82.11895710019303
 21
141.9601131682797
 31
0.0
 11
82.1305329556136
 21
141.8791503653524
 31
0.0
 11
82.14789640593233
 21
141.8386688696221
 31
0.0
 11
82.18262330657012
 21
141.7866214207881
 31
0.0
 11
82.2115626123093
 21
141.7519229958764
 31
0.0
 11
82.25786503555571
 21
141.7056586178609
 31
0.0
 11
82.28101641358467
 21
141.6767432637677
 31
0.0
 11
82.3562584753821
 21
141.6478280982081
 31
0.0
 11
82.39098537601966
 21
141.6356335750412
 31
0.0
  0
LINE
  5
F7F
102
{ACAD_REACTORS
330
F85
102
}
330
18
100
AcDbEntity
  8
ROGO
 62
     4
100
AcDbLine
 10
83.50641717350265
 20
142.0320749005749
 30
0.0
 11
83.30873872472876
 21
141.6356335750412
 31
0.0
  0
LINE
  5
F80
102
{ACAD_REACTORS
330
F85
102
}
330
18
100
AcDbEntity
  8
ROGO
 62
     4
100
AcDbLine
 10
82.82507296523794
 20
142.0320749005749
 30
0.0
 11
83.50641717350265
 21
142.0320749005749
 31
0.0
  0
LINE
  5
F81
102
{ACAD_REACTORS
330
F85
102
}
330
18
100
AcDbEntity
  8
ROGO
 62
     4
100
AcDbLine
 10
82.97555675602074
 20
142.3047161158535
 30
0.0
 11
83.6423648889321
 21
142.3047161158535
 31
0.0
  0
LINE
  5
F82
102
{ACAD_REACTORS
330
F85
102
}
330
18
100
AcDbEntity
  8
ROGO
 62
     4
100
AcDbLine
 10
83.84004543108904
 20
142.7011616396369
 30
0.0
 11
83.6423648889321
 21
142.3047161158535
 31
0.0
  0
LINE
  5
F83
102
{ACAD_REACTORS
330
F61
102
}
330
18
100
AcDbEntity
  8
ROGO
 62
     4
100
AcDbLine
 10
84.06321129632226
 20
142.7011616396369
 30
0.0
 11
83.23300822148269
 21
141.0362011470144
 31
0.0
  0
LINE
  5
F84
102
{ACAD_REACTORS
330
F61
102
}
330
18
100
AcDbEntity
  8
ROGO
 62
     4
100
AcDbLine
 10
84.06321129632226
 20
141.4707746602145
 30
0.0
 11
83.84651890722295
 21
141.0362011470144
 31
0.0
  0
HATCH
  5
F85
330
18
100
AcDbEntity
  8
ROGO
 62
     4
100
AcDbHatch
 10
0.0
 20
0.0
 30
0.0
210
0.0
220
0.0
230
1.0
  2
SOLID
 70
     1
 71
     1
 91
        1
 92
        5
 93
        8
 72
     4
 94
        3
 73
     0
 74
     0
 95
       26
 96
       22
 40
0.0
 40
0.0
 40
0.0
 40
0.0
 40
0.1932989983113678
 40
0.3226977101261864
 40
0.4160047191737883
 40
0.4856740437057517
 40
0.576038814162196
 40
0.6419962871746706
 40
0.7611001101107711
 40
0.8580489096717275
 40
0.9239896277420726
 40
0.9886478779611058
 40
1.104308917266613
 40
1.186095076771443
 40
1.230143242494146
 40
1.29271236073982
 40
1.3378949249435
 40
1.403349543356953
 40
1.440391195681992
 40
1.520997986108565
 40
1.557803746841879
 40
1.557803746841879
 40
1.557803746841879
 40
1.557803746841879
 10
82.77298261428132
 20
142.7011616396369
 10
82.70737394761979
 20
142.6972473140767
 10
82.59784535884769
 20
142.6907126506487
 10
82.47758363466923
 20
142.6176549447258
 10
82.389472855029
 20
142.5751824050153
 10
82.32663235384629
 20
142.5174446057013
 10
82.28057001174262
 20
142.4578056766764
 10
82.22249978223008
 20
142.3867463300268
 10
82.17514516942094
 20
142.3040005963483
 10
82.15103034398961
 20
142.2128003725099
 10
82.12966966049707
 20
142.1401132649501
 10
82.11382822002088
 20
142.059112969436
 10
82.11785873094331
 20
141.9716041558666
 10
82.12363060704632
 20
141.8903304498091
 10
82.14940063030949
 20
141.8323131920265
 10
82.17874812214917
 20
141.7910089024074
 10
82.21468372399439
 20
141.7455168065825
 10
82.25400513088455
 20
141.7153875388271
 10
82.28652714401853
 20
141.6608063456496
 10
82.34345583090149
 20
141.6538413917583
 10
82.37964196910574
 20
141.6399790547533
 10
82.39098537601966
 20
141.6356335750412
 72
     1
 10
82.39098537601966
 20
141.6356335750412
 11
83.30873872472876
 21
141.6356335750412
 72
     1
 10
83.30873872472876
 20
141.6356335750412
 11
83.50641717350265
 21
142.0320749005749
 72
     1
 10
83.50641717350265
 20
142.0320749005749
 11
82.82507296523796
 21
142.0320749005749
 72
     4
 94
        3
 73
     0
 74
     0
 95
       16
 96
       12
 40
0.0
 40
0.0
 40
0.0
 40
0.0
 40
0.0583757838989514
 40
0.1173536716028806
 40
0.1525313309187942
 40
0.1862594661963574
 40
0.2233009713491103
 40
0.2491679958824182
 40
0.2737135571880045
 40
0.3234884315265117
 40
0.4253967701410583
 40
0.4253967701410583
 40
0.4253967701410583
 40
0.4253967701410583
 10
82.82507296523794
 20
142.0320749005749
 10
82.80452122282211
 20
142.0381215245363
 10
82.7632057616968
 20
142.0502771389928
 10
82.75974799123057
 20
142.1092030922652
 10
82.76445870323838
 20
142.1511926558662
 10
82.78418717564859
 20
142.1817635102002
 10
82.8081212345396
 20
142.2040078290504
 10
82.81703294616992
 20
142.2329775763172
 10
82.84322811056517
 20
142.2548533599352
 10
82.88967915588887
 20
142.291623496353
 10
82.94104597086436
 20
142.2994547138346
 10
82.97555675602087
 20
142.3047161158535
 72
     1
 10
82.97555675602099
 20
142.3047161158535
 11
83.6423648889321
 21
142.3047161158536
 72
     1
 10
83.6423648889321
 20
142.3047161158536
 11
83.84004543108904
 21
142.7011616396369
 72
     1
 10
83.84004543108904
 20
142.7011616396369
 11
82.77298261428148
 21
142.7011616396369
 97
        8
330
F7C
330
F7E
330
F7B
330
F7F
330
F80
330
F7D
330
F81
330
F82
 75
     0
 76
     1
 47
0.0514683685270805
 98
        1
 10
82.95711072082054
 20
142.5060598268335
450
        0
451
        0
460
0.0
461
0.0
452
        0
462
0.0
453
        0
470

  0
SPLINE
  5
F86
102
{ACAD_REACTORS
330
F68
102
}
330
18
100
AcDbEntity
  8
ROGO
 62
     4
100
AcDbSpline
210
0.0
220
0.0
230
1.0
 70
     8
 71
     3
 72
    25
 73
    21
 74
     0
 42
0.0000000001
 43
0.0000000001
 40
0.0
 40
0.0
 40
0.0
 40
0.0
 40
0.4087168505087288
 40
0.6887487002771746
 40
0.9415836120477687
 40
1.17452070575514
 40
1.41154617586699
 40
1.599156012919487
 40
1.80099909059943
 40
2.178735911501585
 40
2.521686161369157
 40
2.762704659361267
 40
3.06256558063785
 40
3.222432137207705
 40
3.399493810628493
 40
3.567459719866414
 40
3.743172740007509
 40
3.995988754699505
 40
4.17170091132118
 40
4.337226830236035
 40
4.337226830236035
 40
4.337226830236035
 40
4.337226830236035
 10
81.60747851310622
 20
142.7056060315759
 30
0.0
 10
81.64741724633278
 20
142.7043228412689
 30
0.0
 10
81.71471995373565
 20
142.702160474694
 30
0.0
 10
81.78697771310067
 20
142.6456826121404
 30
0.0
 10
81.84226725868006
 20
142.5988581368595
 30
0.0
 10
81.88151246441396
 20
142.5422495388197
 30
0.0
 10
81.91591198681726
 20
142.4902009484045
 30
0.0
 10
81.93857866401925
 20
142.4352496127052
 30
0.0
 10
81.96940982333172
 20
142.3693130424192
 30
0.0
 10
81.98217240013958
 20
142.2810997074705
 30
0.0
 10
81.97354976196857
 20
142.1899230865861
 30
0.0
 10
81.95104870235367
 20
142.1091033989902
 30
0.0
 10
81.92744689991958
 20
142.0471004331853
 30
0.0
 10
81.8996293662891
 20
141.9931230049123
 30
0.0
 10
81.8664673115162
 20
141.9581726159186
 30
0.0
 10
81.84346081075773
 20
141.9137335370268
 30
0.0
 10
81.79926826576195
 20
141.8773847563303
 30
0.0
 10
81.7634434049752
 20
141.832535462678
 30
0.0
 10
81.7227896488904
 20
141.7940408370105
 30
0.0
 10
81.6998688810021
 20
141.7702901168721
 30
0.0
 10
81.68778449942294
 20
141.7603040287009
 30
0.0
  0
LINE
  5
F87
102
{ACAD_REACTORS
330
F68
102
}
330
18
100
AcDbEntity
  8
ROGO
 62
     4
100
AcDbLine
 10
80.99853612511878
 20
142.7056060315759
 30
0.0
 11
81.60747851310622
 21
142.7056060315759
 31
0.0
  0
LINE
  5
F88
102
{ACAD_REACTORS
330
F68
102
}
330
18
100
AcDbEntity
  8
ROGO
 62
     4
100
AcDbLine
 10
80.68671574926417
 20
141.6356335750412
 30
0.0
 11
81.2956581372514
 21
141.6356335750412
 31
0.0
  0
SPLINE
  5
F89
102
{ACAD_REACTORS
330
F68
102
}
330
18
100
AcDbEntity
  8
ROGO
 62
     4
100
AcDbSpline
210
0.0
220
0.0
230
1.0
 70
     8
 71
     3
 72
    11
 73
     7
 74
     0
 42
0.0000000001
 43
0.0000000001
 40
0.1647869275458134
 40
0.1647869275458134
 40
0.1647869275458134
 40
0.1647869275458134
 40
0.2895635144633836
 40
0.5387013147903714
 40
0.7953622617455423
 40
0.8850764140209602
 40
0.8850764140209602
 40
0.8850764140209602
 40
0.8850764140209602
 10
81.49853035081845
 20
141.6593894264229
 30
0.0
 10
81.48718771124391
 20
141.6562321983741
 30
0.0
 10
81.45201941949142
 20
141.6506109290358
 30
0.0
 10
81.39302929978361
 20
141.6428922660532
 30
0.0
 10
81.33696214142446
 20
141.6348375596184
 30
0.0
 10
81.30415537424415
 20
141.6354698153324
 30
0.0
 10
81.2956581372515
 20
141.6356335750412
 30
0.0
  0
SPLINE
  5
F8A
102
{ACAD_REACTORS
330
F68
102
}
330
18
100
AcDbEntity
  8
ROGO
 62
     4
100
AcDbSpline
210
0.0
220
0.0
230
1.0
 70
     8
 71
     3
 72
     9
 73
     5
 74
     3
 42
0.0000000001
 43
0.0000000001
 44
0.0000000001
 40
0.0
 40
0.0
 40
0.0
 40
0.0
 40
0.0921619278248216
 40
0.21607939269497
 40
0.21607939269497
 40
0.21607939269497
 40
0.21607939269497
 10
81.49853035081845
 20
141.6593894264229
 30
0.0
 10
81.52813542850182
 20
141.6684469081713
 30
0.0
 10
81.59754638113156
 20
141.6896827395146
 30
0.0
 10
81.6548957282343
 20
141.7345649345678
 30
0.0
 10
81.68778449942294
 20
141.7603040287009
 30
0.0
 11
81.49853035081845
 21
141.6593894264229
 31
0.0
 11
81.58515135703908
 21
141.6908635780669
 31
0.0
 11
81.68778449942294
 21
141.7603040287009
 31
0.0
  0
ELLIPSE
  5
F8B
102
{ACAD_REACTORS
330
F68
102
}
330
18
100
AcDbEntity
  8
ROGO
 62
     4
100
AcDbEllipse
 10
81.13847441766996
 20
142.1557016895877
 30
0.0
 11
0.1446659516241287
 21
0.1272156018551716
 31
0.0
210
0.0
220
0.0
230
1.0
 40
0.6788083417438788
 41
0.0
 42
6.283185307179586
  0
LINE
  5
F8C
102
{ACAD_REACTORS
330
F61
102
}
330
18
100
AcDbEntity
  8
ROGO
 62
     4
100
AcDbLine
 10
84.06321129632226
 20
141.4707746602145
 30
0.0
 11
84.27990368542191
 21
141.0362011470144
 31
0.0
  0
LINE
  5
F8D
330
18
100
AcDbEntity
  8
中心線
100
AcDbLine
 10
87.92229045486886
 20
137.0006702436145
 30
0.0
 11
87.74556551767387
 21
137.8320957042382
 31
0.0
  0
LINE
  5
F8E
330
18
100
AcDbEntity
  8
中心線
100
AcDbLine
 10
87.74556551767387
 20
137.8320957042382
 30
0.0
 11
87.92229045486896
 21
137.0006702436145
 31
0.0
  0
LINE
  5
F8F
330
18
100
AcDbEntity
  8
外形線
100
AcDbLine
 10
84.99490579212045
 20
134.3705888354807
 30
0.0
 11
85.09490579212046
 21
134.5437939162376
 31
0.0
  0
LINE
  5
F90
330
18
100
AcDbEntity
  8
中心線
100
AcDbLine
 10
86.9480481888047
 20
136.6841197424676
 30
0.0
 11
86.60232204219028
 21
137.4606333814638
 31
0.0
  0
LINE
  5
F91
330
18
100
AcDbEntity
  8
中心線
100
AcDbLine
 10
86.06091000364301
 20
136.1719302724561
 30
0.0
 11
85.56129253919436
 21
136.8595947176748
 31
0.0
  0
LINE
  5
F92
330
18
100
AcDbEntity
  8
中心線
100
AcDbLine
 10
85.29964809503679
 20
135.4864869711772
 30
0.0
 11
84.66797499338099
 21
136.0552479865822
 31
0.0
  0
LINE
  5
F93
330
18
100
AcDbEntity
  8
中心線
100
AcDbLine
 10
84.66797499338111
 20
136.0552479865823
 30
0.0
 11
85.2996480950369
 21
135.4864869711772
 31
0.0
  0
LINE
  5
F94
330
18
100
AcDbEntity
  8
中心線
100
AcDbLine
 10
85.56129253919436
 20
136.8595947176748
 30
0.0
 11
86.0609100036429
 21
136.171930272456
 31
0.0
  0
LINE
  5
F95
330
18
100
AcDbEntity
  8
中心線
100
AcDbLine
 10
86.6023220421904
 20
137.4606333814639
 30
0.0
 11
86.94804818880482
 21
136.6841197424676
 31
0.0
  0
HATCH
  5
F96
330
18
100
AcDbEntity
  8
外形線
100
AcDbHatch
 10
0.0
 20
0.0
 30
0.0
210
0.0
220
0.0
230
1.0
  2
SOLID
 70
     1
 71
     0
 91
        4
 92
        7
 72
     1
 73
     1
 93
        4
 10
89.04105773987595
 20
137.9568773690399
 42
0.0043480726897293
 10
88.94105773987599
 20
137.9577470000188
 42
0.0
 10
88.94105773987599
 20
137.1077470000189
 42
-0.0051024393233301
 10
89.041057739876
 20
137.1067264855853
 42
0.0
 97
        0
 92
        7
 72
     1
 73
     1
 93
        4
 10
88.94105773987599
 20
137.9577470000188
 42
0.0043480726897342
 10
88.8410577398759
 20
137.9568773690399
 42
0.0
 10
88.84105773987602
 20
137.1067264855853
 42
-0.0051024393233272
 10
88.94105773987599
 20
137.1077470000189
 42
0.0
 97
        0
 92
        7
 72
     1
 73
     1
 93
        4
 10
89.04105773987613
 20
137.1067264855853
 42
0.0051024393233359
 10
88.94105773987599
 20
137.1077470000189
 42
0.0
 10
88.94105773987599
 20
136.7066357516997
 42
0.0
 10
89.04105773987607
 20
136.7066357516997
 42
0.0
 97
        0
 92
        7
 72
     1
 73
     1
 93
        4
 10
88.94105773987599
 20
137.1077470000189
 42
0.0051024393233272
 10
88.84105773987602
 20
137.1067264855853
 42
0.0
 10
88.84105773987608
 20
136.7066357516997
 42
0.0
 10
88.94105773987599
 20
136.7066357516996
 42
0.0
 97
        0
 75
     0
 76
     1
 47
0.0085273733081266
 98
        4
 10
88.97075714959488
 20
137.4724502910802
 10
88.89821769211607
 20
137.4767139172642
 10
89.00916027653051
 20
136.9949173333895
 10
88.88541691105798
 20
136.9821262273348
450
        0
451
        0
460
0.0
461
0.0
452
        0
462
0.0
453
        0
470

  0
LINE
  5
F97
330
18
100
AcDbEntity
  8
外形線
100
AcDbLine
 10
88.84105773987608
 20
136.7066357516997
 30
0.0
 11
89.04105773987607
 21
136.7066357516997
 31
0.0
  0
TEXT
  5
F98
330
18
100
AcDbEntity
  8
外形線
 62
     6
100
AcDbText
 10
88.46075553227837
 20
135.1998351640795
 30
0.0
 40
1.0
  1
0
  7
STYLE3
100
AcDbText
  0
LINE
  5
F99
330
18
100
AcDbEntity
  8
外形線
100
AcDbLine
 10
89.04105773987607
 20
136.7066357516997
 30
0.0
 11
89.04105773987595
 21
137.9568773690399
 31
0.0
  0
LINE
  5
F9A
330
18
100
AcDbEntity
  8
外形線
100
AcDbLine
 10
88.84105773987608
 20
136.7066357516997
 30
0.0
 11
88.8410577398759
 21
137.9568773690399
 31
0.0
  0
LINE
  5
F9B
330
18
100
AcDbEntity
  8
中心線
100
AcDbLine
 10
90.93406729094761
 20
136.6841197424676
 30
0.0
 11
91.27979343756203
 21
137.4606333814637
 31
0.0
  0
LINE
  5
F9C
330
18
100
AcDbEntity
  8
中心線
100
AcDbLine
 10
89.95982502488311
 20
137.0006702436145
 30
0.0
 11
90.1365499620781
 21
137.8320957042382
 31
0.0
  0
LINE
  5
F9D
330
18
100
AcDbEntity
  8
外形線
100
AcDbLine
 10
90.13654996207833
 20
137.8320957042382
 30
0.0
 11
89.95982502488322
 21
137.0006702436145
 31
0.0
  0
LINE
  5
F9E
330
18
100
AcDbEntity
  8
中心線
100
AcDbLine
 10
91.27979343756193
 20
137.4606333814638
 30
0.0
 11
90.93406729094738
 21
136.6841197424676
 31
0.0
  0
LINE
  5
F9F
102
{ACAD_REACTORS
330
F61
102
}
330
18
100
AcDbEntity
  8
ROGO
 62
     4
100
AcDbLine
 10
84.67672198206276
 20
142.7011616396369
 30
0.0
 11
84.58608070041988
 21
142.5193818347798
 31
0.0
  0
LINE
  5
FA0
102
{ACAD_REACTORS
330
F61
102
}
330
18
100
AcDbEntity
  8
ROGO
 62
     4
100
AcDbLine
 10
84.58608070041988
 20
142.5193818347798
 30
0.0
 11
84.87333831111971
 21
142.7011616396369
 31
0.0
  0
LINE
  5
FA1
102
{ACAD_REACTORS
330
F61
102
}
330
18
100
AcDbEntity
  8
ROGO
 62
     4
100
AcDbLine
 10
84.47829941062195
 20
141.8686813933257
 30
0.0
 11
84.89340094804186
 21
141.0362011470144
 31
0.0
  0
LINE
  5
FA2
102
{ACAD_REACTORS
330
F61
102
}
330
18
100
AcDbEntity
  8
ROGO
 62
     4
100
AcDbLine
 10
84.47829941062195
 20
141.8686813933257
 30
0.0
 11
85.48683557373943
 21
142.7011616396369
 31
0.0
  0
LINE
  5
FA3
102
{ACAD_REACTORS
330
F61
102
}
330
18
100
AcDbEntity
  8
ROGO
 62
     4
100
AcDbLine
 10
84.87333831111971
 20
142.7011616396369
 30
0.0
 11
85.48683557373943
 21
142.7011616396369
 31
0.0
  0
LINE
  5
FB7
330
18
100
AcDbEntity
  8
中心線
100
AcDbLine
 10
93.60123466972231
 20
133.7219302724561
 30
0.0
 11
94.40963270857322
 21
133.9845947176748
 31
0.0
  0
LINE
  5
FB8
330
18
100
AcDbEntity
  8
外形線
100
AcDbLine
 10
94.40963270857322
 20
133.9845947176748
 30
0.0
 11
93.60123466972231
 21
133.721930272456
 31
0.0
  0
LINE
  5
FB9
330
18
100
AcDbEntity
  8
中心線
100
AcDbLine
 10
92.5824673847153
 20
128.9290070288604
 30
0.0
 11
93.21414048637109
 21
128.3602460134553
 31
0.0
  0
LINE
  5
FBA
330
18
100
AcDbEntity
  8
外形線
100
AcDbLine
 10
93.21414048637109
 20
128.3602460134553
 30
0.0
 11
92.5824673847153
 21
128.9290070288604
 31
0.0
  0
LINE
  5
FBB
330
18
100
AcDbEntity
  8
中心線
100
AcDbLine
 10
91.82120547610919
 20
128.2435637275815
 30
0.0
 11
92.32082294055784
 21
127.5558992823629
 31
0.0
  0
LINE
  5
FBC
330
18
100
AcDbEntity
  8
外形線
100
AcDbLine
 10
92.32082294055794
 20
127.555899282363
 30
0.0
 11
91.8212054761093
 21
128.2435637275816
 31
0.0
  0
LINE
  5
FBD
330
18
100
AcDbEntity
  8
外形線
100
AcDbLine
 10
92.88720968763186
 20
130.044905164557
 30
0.0
 11
92.78720968763185
 21
129.8717000838001
 31
0.0
  0
LINE
  5
FBE
330
18
100
AcDbEntity
  8
外形線
100
AcDbLine
 10
92.88720968763186
 20
130.044905164557
 30
0.0
 11
93.96995068911706
 21
129.419784355887
 31
0.0
  0
LINE
  5
FBF
330
18
100
AcDbEntity
  8
外形線
100
AcDbLine
 10
92.78720968763185
 20
129.8717000838001
 30
0.0
 11
93.86995068911705
 21
129.2465792751301
 31
0.0
  0
HATCH
  5
FC0
330
18
100
AcDbEntity
  8
外形線
100
AcDbHatch
 10
0.0
 20
0.0
 30
0.0
210
0.0
220
0.0
230
1.0
  2
SOLID
 70
     1
 71
     0
 91
        4
 92
        7
 72
     1
 73
     1
 93
        4
 10
93.86995068911705
 20
129.2465792751301
 42
0.0043480726897293
 10
93.92070381163671
 20
129.3327470000191
 42
0.0
 10
93.18458221842002
 20
129.757747000019
 42
-0.0051024393233301
 10
93.13369842699557
 20
129.6716547168574
 42
0.0
 97
        0
 92
        7
 72
     1
 73
     1
 93
        4
 10
93.92070381163671
 20
129.3327470000191
 42
0.0043480726897342
 10
93.96995068911706
 20
129.419784355887
 42
0.0
 10
93.23369842699554
 20
129.8448597976142
 42
-0.0051024393233272
 10
93.18458221842002
 20
129.757747000019
 42
0.0
 97
        0
 92
        7
 72
     1
 73
     1
 93
        4
 10
93.13369842699547
 20
129.6716547168573
 42
0.0051024393233359
 10
93.18458221842002
 20
129.757747000019
 42
0.0
 10
92.83720968763191
 20
129.9583026241787
 42
0.0
 10
92.78720968763185
 20
129.8717000838001
 42
0.0
 97
        0
 92
        7
 72
     1
 73
     1
 93
        4
 10
93.18458221842002
 20
129.757747000019
 42
0.0051024393233272
 10
93.23369842699554
 20
129.8448597976142
 42
0.0
 10
92.88720968763186
 20
130.044905164557
 42
0.0
 10
92.83720968763185
 20
129.9583026241787
 42
0.0
 97
        0
 75
     0
 76
     1
 47
0.0085273733081266
 98
        4
 10
93.48557482846343
 20
129.5496749111944
 10
93.52553696579049
 20
129.6103641110558
 10
93.05281759249124
 20
129.7551833065287
 10
93.10361185244165
 20
129.8687437576051
450
        0
451
        0
460
0.0
461
0.0
452
        0
462
0.0
453
        0
470

  0
TEXT
  5
FC1
330
18
100
AcDbEntity
  8
外形線
 62
     6
100
AcDbText
 10
90.17636423083349
 20
129.8418981921784
 30
0.0
 40
1.0
  1
10
  7
STYLE3
100
AcDbText
  0
LINE
  5
FC2
330
18
100
AcDbEntity
  8
中心線
100
AcDbLine
 10
93.60123466972231
 20
130.6935637275816
 30
0.0
 11
94.40963270857322
 21
130.4308992823628
 31
0.0
  0
LINE
  5
FC3
330
18
100
AcDbEntity
  8
中心線
100
AcDbLine
 10
93.81421502718058
 20
131.6955575300072
 30
0.0
 11
94.65955863824365
 21
131.6067083362297
 31
0.0
  0
LINE
  5
FC4
330
18
100
AcDbEntity
  8
中心線
100
AcDbLine
 10
93.81421502718069
 20
132.7199364700303
 30
0.0
 11
94.65955863824365
 21
132.8087856638078
 31
0.0
  0
LINE
  5
FC5
330
18
100
AcDbEntity
  8
外形線
100
AcDbLine
 10
94.65955863824365
 20
132.8087856638079
 30
0.0
 11
93.81421502718069
 21
132.7199364700303
 31
0.0
  0
LINE
  5
FC6
330
18
100
AcDbEntity
  8
外形線
100
AcDbLine
 10
94.65955863824365
 20
131.6067083362298
 30
0.0
 11
93.81421502718069
 21
131.6955575300075
 31
0.0
  0
LINE
  5
FC7
330
18
100
AcDbEntity
  8
外形線
100
AcDbLine
 10
94.40963270857322
 20
130.4308992823628
 30
0.0
 11
93.60123466972231
 21
130.6935637275815
 31
0.0
  0
POINT
  5
FC8
330
18
100
AcDbEntity
  8
DEFPOINTS
  6
ByBlock
 62
     0
100
AcDbPoint
 10
95.23082855559108
 20
132.2077470000189
 30
0.0
  0
LINE
  5
FCF
330
18
100
AcDbEntity
  8
外形線
100
AcDbLine
 10
92.78720968763172
 20
134.5437939162378
 30
0.0
 11
92.8872096876317
 21
134.3705888354809
 31
0.0
  0
LINE
  5
FD0
330
18
100
AcDbEntity
  8
外形線
100
AcDbLine
 10
92.78720968763172
 20
134.5437939162378
 30
0.0
 11
93.86995068911682
 21
135.168914724908
 31
0.0
  0
LINE
  5
FD1
330
18
100
AcDbEntity
  8
外形線
100
AcDbLine
 10
92.8872096876317
 20
134.3705888354809
 30
0.0
 11
93.96995068911683
 21
134.9957096441511
 31
0.0
  0
HATCH
  5
FD2
330
18
100
AcDbEntity
  8
外形線
100
AcDbHatch
 10
0.0
 20
0.0
 30
0.0
210
0.0
220
0.0
230
1.0
  2
SOLID
 70
     1
 71
     0
 91
        4
 92
        7
 72
     1
 73
     1
 93
        4
 10
93.96995068911683
 20
134.9957096441511
 42
0.0043480726897293
 10
93.92070381163653
 20
135.082747000019
 42
0.0
 10
93.18458221841984
 20
134.657747000019
 42
-0.0051024393233301
 10
93.23369842699543
 20
134.5706342024237
 42
0.0
 97
        0
 92
        7
 72
     1
 73
     1
 93
        4
 10
93.92070381163653
 20
135.082747000019
 42
0.0043480726897342
 10
93.86995068911682
 20
135.168914724908
 42
0.0
 10
93.13369842699541
 20
134.7438392831806
 42
-0.0051024393233272
 10
93.18458221841984
 20
134.657747000019
 42
0.0
 97
        0
 92
        7
 72
     1
 73
     1
 93
        4
 10
93.23369842699543
 20
134.5706342024236
 42
0.0051024393233359
 10
93.18458221841984
 20
134.657747000019
 42
0.0
 10
92.83720968763168
 20
134.4571913758594
 42
0.0
 10
92.88720968763175
 20
134.3705888354809
 42
0.0
 97
        0
 92
        7
 72
     1
 73
     1
 93
        4
 10
93.18458221841984
 20
134.657747000019
 42
0.0051024393233272
 10
93.13369842699541
 20
134.7438392831806
 42
0.0
 10
92.78720968763179
 20
134.5437939162378
 42
0.0
 10
92.83720968763162
 20
134.4571913758594
 42
0.0
 97
        0
 75
     0
 76
     1
 47
0.0085273733081266
 98
        4
 10
93.51527423818215
 20
134.8143782022557
 10
93.48269691803034
 20
134.8793310283011
 10
93.12092012914552
 20
134.5423536398993
 10
93.04797102362341
 20
134.643122984921
450
        0
451
        0
460
0.0
461
0.0
452
        0
462
0.0
453
        0
470

  0
TEXT
  5
FD3
330
18
100
AcDbEntity
  8
外形線
 62
     6
100
AcDbText
 10
91.48109376685187
 20
133.4810170832071
 30
0.0
 40
1.0
  1
5
  7
STYLE3
100
AcDbText
  0
LINE
  5
FD4
330
18
100
AcDbEntity
  8
中心線
100
AcDbLine
 10
92.5824673847153
 20
135.4864869711772
 30
0.0
 11
93.21414048637121
 21
136.0552479865822
 31
0.0
  0
LINE
  5
FD5
330
18
100
AcDbEntity
  8
中心線
100
AcDbLine
 10
91.82120547610907
 20
136.1719302724561
 30
0.0
 11
92.32082294055771
 21
136.8595947176748
 31
0.0
  0
LINE
  5
FD6
330
18
100
AcDbEntity
  8
外形線
100
AcDbLine
 10
92.32082294055771
 20
136.8595947176749
 30
0.0
 11
91.82120547610919
 21
136.1719302724561
 31
0.0
  0
LINE
  5
FD7
330
18
100
AcDbEntity
  8
外形線
100
AcDbLine
 10
93.21414048637109
 20
136.0552479865823
 30
0.0
 11
92.5824673847153
 21
135.4864869711772
 31
0.0
  0
LINE
  5
1012
102
{ACAD_REACTORS
330
101B
102
}
330
18
100
AcDbEntity
  8
針
100
AcDbLine
 10
89.17079267248572
 20
137.898411904839
 30
0.0
 11
88.93926451420725
 21
137.903261728391
 31
0.0
  0
HATCH
  5
101B
330
18
100
AcDbEntity
  8
針
100
AcDbHatch
 10
0.0
 20
0.0
 30
0.0
210
0.0
220
0.0
230
1.0
  2
SOLID
 70
     1
 71
     1
 91
        1
 92
        7
 72
     1
 73
     1
 93
        6
 10
89.17079267248572
 20
137.898411904839
 42
0.0
 10
88.93926451420727
 20
137.903261728391
 42
0.0
 10
88.80872846455622
 20
133.9009046034521
 42
-0.2947388916307631
 10
88.45223912312297
 20
133.3838965772661
 42
-0.2104434325826849
 10
89.47869961208198
 20
133.3623952951261
 42
-0.293549591962067
 10
89.1441494865686
 20
133.8913433028324
 42
0.0
 97
        6
330
1012
330
CCE
330
CA6
330
CB3
330
CA7
330
CCF
 75
     0
 76
     1
 47
0.0188553087488512
 98
        1
 10
89.02894495539806
 20
135.5422997470181
450
        0
451
        0
460
0.0
461
0.0
452
        0
462
0.0
453
        0
470

  0
DIMENSION
  5
10CC
330
18
100
AcDbEntity
  8
文字
100
AcDbDimension
  2
*D3
 10
45.57945504186659
 20
131.8677470000189
 30
0.0
 11
43.70445504186657
 21
156.5154211168171
 31
0.0
 70
    32
  1
89
 71
     5
 42
49.29534823359657
  3
STYLE3
100
AcDbAlignedDimension
 13
79.01105773987609
 23
181.1630952336154
 33
0.0
 14
48.47214634459792
 24
131.8677470000189
 34
0.0
 50
90.0
100
AcDbRotatedDimension
1001
ACAD
1000
DSTYLE
1002
{
1070
   271
1070
     2
1002
}
  0
DIMENSION
  5
10D8
330
18
100
AcDbEntity
  8
文字
100
AcDbDimension
  2
*D4
 10
45.57945504186658
 20
24.86774700001889
 30
0.0
 11
43.70445504186658
 21
78.36774700001889
 31
0.0
 70
    32
 71
     5
 42
107.0
  3
STYLE3
100
AcDbAlignedDimension
 13
48.47214634459792
 23
131.8677470000189
 33
0.0
 14
79.01105773987612
 24
24.86774700001888
 34
0.0
 50
90.0
100
AcDbRotatedDimension
1001
ACAD
1000
DSTYLE
1002
{
1070
    75
1070
     1
1070
   271
1070
     2
1070
   279
1070
     1
1002
}
  0
DIMENSION
  5
10F0
330
18
100
AcDbEntity
  8
文字
100
AcDbDimension
  2
*D5
 10
40.74577897629774
 20
181.1630952336154
 30
0.0
 11
38.87077897629771
 21
103.0154211168171
 31
0.0
 70
    32
  1
196
 71
     5
 42
156.2953482335965
  3
STYLE3
100
AcDbAlignedDimension
 13
44.32945504186657
 23
24.86774700001889
 33
0.0
 14
44.32945504186659
 24
181.1630952336154
 34
0.0
 50
90.0
100
AcDbRotatedDimension
1001
ACAD
1000
DSTYLE
1002
{
1070
   271
1070
     2
1002
}
  0
DIMENSION
  5
1108
330
18
100
AcDbEntity
  8
文字
100
AcDbDimension
  2
*D6
 10
117.1310446252159
 20
107.1177470000188
 30
0.0
 11
115.2560446252159
 21
131.8677470000189
 31
0.0
 70
    32
  1
φ49.5
 71
     5
 42
49.50000000000001
  3
STYLE3
100
AcDbAlignedDimension
 13
79.01105773987615
 23
156.6177470000189
 33
0.0
 14
79.01105773987615
 24
107.1177470000189
 34
0.0
 50
90.0
100
AcDbRotatedDimension
1001
ACAD
1000
DSTYLE
1002
{
1070
   271
1070
     2
1002
}
  0
DIMENSION
  5
116C
330
18
100
AcDbEntity
  8
文字
100
AcDbDimension
  2
*D7
 10
143.4151990451258
 20
103.4177470000189
 30
0.0
 11
141.5401990451258
 21
131.8677470000189
 31
0.0
 70
    32
  1
φ57
 71
     5
 42
56.89999999999997
  3
STYLE3
100
AcDbAlignedDimension
 13
154.7449441289995
 23
160.3177470000188
 33
0.0
 14
154.7449441289995
 24
103.4177470000189
 34
0.0
 50
90.0
100
AcDbRotatedDimension
1001
ACAD
1000
DSTYLE
1002
{
1070
   271
1070
     2
1002
}
  0
DIMENSION
  5
118E
330
18
100
AcDbEntity
  8
文字
100
AcDbDimension
  2
*D8
 10
143.4151990451258
 20
81.4177470000189
 30
0.0
 11
141.5401990451258
 21
92.4177470000189
 31
0.0
 70
    32
 71
     5
 42
21.99999999999999
  3
STYLE3
100
AcDbAlignedDimension
 13
154.7449441289995
 23
103.4177470000189
 33
0.0
 14
163.7449441289995
 24
81.41774700001889
 34
0.0
 50
90.0
100
AcDbRotatedDimension
1001
ACAD
1000
DSTYLE
1002
{
1070
    75
1070
     1
1070
   271
1070
     2
1070
   279
1070
     1
1002
}
  0
DIMENSION
  5
119B
330
18
100
AcDbEntity
  8
文字
100
AcDbDimension
  2
*D9
 10
158.7990540791611
 20
33.86774700001891
 30
0.0
 11
156.9240540791611
 21
29.36774700001892
 31
0.0
 70
    32
 71
     5
 42
9.000000000000028
  3
STYLE3
100
AcDbAlignedDimension
 13
167.1449441289994
 23
24.86774700001888
 33
0.0
 14
164.6449441289994
 24
33.86774700001891
 34
0.0
 50
90.0
100
AcDbRotatedDimension
1001
ACAD
1000
DSTYLE
1002
{
1070
   271
1070
     2
1002
}
  0
SPLINE
  5
1253
330
18
100
AcDbEntity
  8
寸法線
100
AcDbSpline
210
0.0
220
0.0
230
1.0
 70
     8
 71
     3
 72
    11
 73
     7
 74
     0
 42
0.0000000001
 43
0.0000000001
 40
2.085280963372409
 40
2.085280963372409
 40
2.085280963372409
 40
2.085280963372409
 40
3.682847934186281
 40
6.406124936283456
 40
10.29840404244731
 40
12.93525318236387
 40
12.93525318236387
 40
12.93525318236387
 40
12.93525318236387
 10
83.76105773987612
 20
172.023935137122
 30
0.0
 10
83.33756253177281
 20
171.6979234918913
 30
0.0
 10
82.10728753356994
 20
171.0930450354199
 30
0.0
 10
78.99814872434577
 20
172.4571238401407
 30
0.0
 10
77.25782283504438
 20
168.5036096576046
 30
0.0
 10
75.16427178581276
 20
168.752615121308
 30
0.0
 10
74.26105773987611
 20
169.0558288114516
 30
0.0
  0
SPLINE
  5
1254
330
18
100
AcDbEntity
  8
寸法線
100
AcDbSpline
210
0.0
220
0.0
230
1.0
 70
     8
 71
     3
 72
    11
 73
     7
 74
     0
 42
0.0000000001
 43
0.0000000001
 40
2.085280963372409
 40
2.085280963372409
 40
2.085280963372409
 40
2.085280963372409
 40
3.682847934186281
 40
6.406124936283456
 40
10.29840404244731
 40
12.93525318236387
 40
12.93525318236387
 40
12.93525318236387
 40
12.93525318236387
 10
83.76105773987612
 20
170.7377951407514
 30
0.0
 10
83.33756253177281
 20
170.4117834955207
 30
0.0
 10
82.10728753356994
 20
169.8069050390494
 30
0.0
 10
78.99814872434577
 20
171.1709838437701
 30
0.0
 10
77.25782283504438
 20
167.2174696612341
 30
0.0
 10
75.16427178581276
 20
167.4664751249374
 30
0.0
 10
74.26105773987611
 20
167.769688815081
 30
0.0
  0
SPLINE
  5
1255
330
18
100
AcDbEntity
  8
寸法線
100
AcDbSpline
210
0.0
220
0.0
230
1.0
 70
     8
 71
     3
 72
    11
 73
     7
 74
     0
 42
0.0000000001
 43
0.0000000001
 40
2.085280963372409
 40
2.085280963372409
 40
2.085280963372409
 40
2.085280963372409
 40
3.682847934186281
 40
6.406124936283456
 40
10.29840404244731
 40
12.93525318236387
 40
12.93525318236387
 40
12.93525318236387
 40
12.93525318236387
 10
171.8949441289994
 20
172.023935137122
 30
0.0
 10
171.4714489208961
 20
171.6979234918913
 30
0.0
 10
170.2411739226932
 20
171.0930450354199
 30
0.0
 10
167.1320351134691
 20
172.4571238401407
 30
0.0
 10
165.3917092241677
 20
168.5036096576046
 30
0.0
 10
163.298158174936
 20
168.752615121308
 30
0.0
 10
162.3949441289994
 20
169.0558288114516
 30
0.0
  0
SPLINE
  5
1256
330
18
100
AcDbEntity
  8
寸法線
100
AcDbSpline
210
0.0
220
0.0
230
1.0
 70
     8
 71
     3
 72
    11
 73
     7
 74
     0
 42
0.0000000001
 43
0.0000000001
 40
2.085280963372409
 40
2.085280963372409
 40
2.085280963372409
 40
2.085280963372409
 40
3.682847934186281
 40
6.406124936283456
 40
10.29840404244731
 40
12.93525318236387
 40
12.93525318236387
 40
12.93525318236387
 40
12.93525318236387
 10
171.8949441289994
 20
170.7377951407514
 30
0.0
 10
171.4714489208961
 20
170.4117834955207
 30
0.0
 10
170.2411739226932
 20
169.8069050390494
 30
0.0
 10
167.1320351134691
 20
171.1709838437701
 30
0.0
 10
165.3917092241677
 20
167.2174696612341
 30
0.0
 10
163.298158174936
 20
167.4664751249374
 30
0.0
 10
162.3949441289994
 20
167.769688815081
 30
0.0
  0
DIMENSION
  5
1DAF
330
18
100
AcDbEntity
  8
寸法線
100
AcDbDimension
  2
*D11
 10
83.01105773987609
 20
95.27140921230543
 30
0.0
 11
93.7729625017809
 21
95.27140921230543
 31
0.0
 70
   160
  1
%%C<>
 71
     5
 42
8.0
  3
.0 type現尺
100
AcDbAlignedDimension
 13
75.01105773987609
 23
92.68136418865683
 33
0.0
 14
83.01105773987609
 24
92.80770754298155
 34
0.0
100
AcDbRotatedDimension
1001
ACAD
1000
DSTYLE
1002
{
1070
    76
1070
     1
1070
    75
1070
     1
1070
   146
1040
0.7
1070
   284
1070
     8
1070
   272
1070
     2
1070
   283
1070
     0
1070
    48
1040
0.03
1070
   147
1040
0.625
1070
    72
1070
     0
1070
    71
1070
     1
1002
}
  0
DIMENSION
  5
1DB0
330
18
100
AcDbEntity
  8
寸法線
100
AcDbDimension
  2
*D12
 10
81.51105773987612
 20
65.77978472273975
 30
0.0
 11
89.10034345416184
 21
65.77978472273975
 31
0.0
 70
   160
  1
%%C<>
 71
     5
 42
5.0
  3
STYLE2
100
AcDbAlignedDimension
 13
76.51105773987612
 23
65.77978472273975
 33
0.0
 14
81.51105773987612
 24
67.74009502005776
 34
0.0
100
AcDbRotatedDimension
1001
ACAD
1000
DSTYLE
1002
{
1070
    76
1070
     1
1070
    75
1070
     1
1002
}
  0
ARC
  5
1E23
330
18
100
AcDbEntity
  8
外形線
100
AcDbCircle
 10
79.01105773987612
 20
26.06774700001889
 30
0.0
 40
1.199999999999999
100
AcDbArc
 50
189.5940682268598
 51
350.4059317731401
  0
ARC
  5
1E24
330
18
100
AcDbEntity
  8
外形線
100
AcDbCircle
 10
167.1449441289994
 20
26.06774700001889
 30
0.0
 40
1.199999999999999
100
AcDbArc
 50
189.5940682268598
 51
350.4059317731401
  0
TEXT
  5
1F31
330
18
100
AcDbEntity
  8
文字
100
AcDbText
 10
82.17365668281233
 20
189.283340678786
 30
0.0
 40
3.0
  1
Model No.307S Long Travel Dial Gauge
  7
STYLE3
100
AcDbText
  0
LINE
  5
1F32
330
18
100
AcDbEntity
  8
外形線
100
AcDbLine
 10
81.31143968281234
 20
187.274657678786
 30
0.0
 11
169.3114396828123
 21
187.274657678786
 31
0.0
  0
LINE
  5
1F33
330
18
100
AcDbEntity
  8
外形線
100
AcDbLine
 10
81.31143968281234
 20
186.274657678786
 30
0.0
 11
169.3114396828123
 21
186.274657678786
 31
0.0
  0
LINE
  5
1F97
330
18
100
AcDbEntity
  8
外形線
100
AcDbLine
 10
113.7379996828123
 20
20.56140767878606
 30
0.0
 11
254.5294176828123
 21
20.56140767878606
 31
0.0
  0
LINE
  5
1F98
330
18
100
AcDbEntity
  8
外形線
100
AcDbLine
 10
113.7379996828123
 20
9.781201678786057
 30
0.0
 11
254.5294176828123
 21
9.781201678786057
 31
0.0
  0
TEXT
  5
1F99
330
18
100
AcDbEntity
  8
0
  6
Continuous
100
AcDbText
 10
115.1954666828123
 20
11.67919167878606
 30
0.0
 40
2.1
  1
Design and specifications are subject to change without notice for future improvement.
  7
STYLE3
100
AcDbText
  0
TEXT
  5
1F9A
330
18
100
AcDbEntity
  8
0
  6
Continuous
100
AcDbText
 10
115.4869606828123
 20
15.60833967878606
 30
0.0
 40
3.5
  1
仕様及び外観は予告なく変更される場合がございますのでご了承下さい。
  7
STYLE3
100
AcDbText
  0
TEXT
  5
1F9B
330
18
100
AcDbEntity
  8
0
  6
Continuous
100
AcDbText
 10
114.9039756828123
 20
1.914563678786058
 30
0.0
 40
2.1
  1
3RD Angle Projection
  7
STYLE3
100
AcDbText
  0
TEXT
  5
1F9C
330
18
100
AcDbEntity
  8
0
  6
Continuous
100
AcDbText
 10
117.5274186828123
 20
5.410846678786058
 30
0.0
 40
3.0
  1
三　　角　　法
  7
STYLE3
100
AcDbText
  0
LINE
  5
1F9D
330
18
100
AcDbEntity
  8
外形線
100
AcDbLine
 10
113.7379996828123
 20
0.1664236787860581
 30
0.0
 11
113.7379996828123
 21
20.56140767878606
 31
0.0
  0
LINE
  5
1F9E
330
18
100
AcDbEntity
  8
外形線
100
AcDbLine
 10
215.7607666828123
 20
9.781201678786057
 30
0.0
 11
215.7607666828123
 21
0.1664236787860581
 31
0.0
  0
LINE
  5
1F9F
330
18
100
AcDbEntity
  8
外形線
100
AcDbLine
 10
186.0284166828123
 20
9.781201678786057
 30
0.0
 11
186.0284166828123
 21
0.1664236787860581
 31
0.0
  0
LINE
  5
1FA0
330
18
100
AcDbEntity
  8
外形線
100
AcDbLine
 10
166.4983446828123
 20
9.781201678786057
 30
0.0
 11
166.4983446828123
 21
0.1664236787860581
 31
0.0
  0
LINE
  5
1FA1
330
18
100
AcDbEntity
  8
外形線
100
AcDbLine
 10
149.0087276828123
 20
9.781201678786057
 30
0.0
 11
149.0087276828123
 21
0.1664236787860581
 31
0.0
  0
TEXT
  5
1FA2
330
18
100
AcDbEntity
  8
0
  6
Continuous
100
AcDbText
 10
150.4661966828123
 20
5.416801678786058
 30
0.0
 40
3.0
  1
単位
  7
STYLE3
100
AcDbText
  0
TEXT
  5
1FA3
330
18
100
AcDbEntity
  8
0
  6
Continuous
100
AcDbText
 10
150.6379176828123
 20
1.914564678786057
 30
0.0
 40
2.1
  1
Unit
  7
STYLE3
100
AcDbText
  0
TEXT
  5
1FA4
330
18
100
AcDbEntity
  8
0
  6
Continuous
100
AcDbText
 10
167.7840926828123
 20
5.125443678786058
 30
0.0
 40
3.0
  1
尺 度
  7
STYLE3
100
AcDbText
  0
TEXT
  5
1FA5
330
18
100
AcDbEntity
  8
0
  6
Continuous
100
AcDbText
 10
158.5082446828123
 20
3.662707678786057
 30
0.0
 40
2.399999999999999
  1
mm
  7
STYLE3
100
AcDbText
  0
TEXT
  5
1FA6
330
18
100
AcDbEntity
  8
0
  6
Continuous
100
AcDbText
 10
168.2473076828123
 20
2.205921678786058
 30
0.0
 40
2.1
  1
Scale
  7
STYLE3
100
AcDbText
  0
TEXT
  5
1FA7
330
18
100
AcDbEntity
  8
0
  6
Continuous
100
AcDbText
 10
177.8665966828123
 20
3.954064678786058
 30
0.0
 40
2.399999999999999
  1
1/1
  7
STYLE3
100
AcDbText
  0
TEXT
  5
1FA8
330
18
100
AcDbEntity
  8
0
  6
Continuous
100
AcDbText
 10
187.9603676828123
 20
1.914565678786057
 30
0.0
 40
2.1
  1
Date
  7
STYLE3
100
AcDbText
  0
TEXT
  5
1FA9
330
18
100
AcDbEntity
  8
0
  6
Continuous
100
AcDbText
 10
187.5770066828123
 20
5.247648678786058
 30
0.0
 40
3.0
  1
日 付
  7
STYLE3
100
AcDbText
  0
TEXT
  5
1FAA
330
18
100
AcDbEntity
  8
0
  6
Continuous
100
AcDbText
 10
196.7051756828123
 20
3.662706678786058
 30
0.0
 40
2.1
  1
2010.06.08
  7
STYLE3
100
AcDbText
  0
TEXT
  5
1FAB
330
18
100
AcDbEntity
  8
0
  6
Continuous
100
AcDbText
 10
217.1097296828123
 20
5.702203678786058
 30
0.0
 40
3.0
  1
株式会社　尾崎製作所
  7
STYLE3
100
AcDbText
  0
TEXT
  5
1FAC
330
18
100
AcDbEntity
  8
0
  6
Continuous
100
AcDbText
 10
217.9842086828123
 20
1.914564678786057
 30
0.0
 40
2.1
  1
OZAKI MFG. CO., LTD.
  7
STYLE3
100
AcDbText
  0
VIEWPORT
  5
177
330
15
100
AcDbEntity
 67
     1
  8
0
100
AcDbViewport
 10
127.5041203589828
 20
97.49391214526822
 30
0.0
 40
418.3086347473814
 41
243.0346063651093
 68
     1
 69
     1
 12
127.5041203589828
 22
97.49391214526822
 13
0.0
 23
0.0
 14
10.0
 24
10.0
 15
10.0
 25
10.0
 16
0.0
 26
0.0
 36
1.0
 17
0.0
 27
0.0
 37
0.0
 42
50.0
 43
0.0
 44
0.0
 45
243.0346063651093
 50
0.0
 51
0.0
 72
   100
 90
    32800
  1

281
     0
 71
     1
 74
     0
110
0.0
120
0.0
130
0.0
111
1.0
121
0.0
131
0.0
112
0.0
122
1.0
132
0.0
 79
     0
146
0.0
170
     0
  0
ENDSEC
  0
SECTION
  2
OBJECTS
  0
DICTIONARY
  5
C
330
0
100
AcDbDictionary
281
     1
  3
ACAD_COLOR
350
1247
  3
ACAD_GROUP
350
D
  3
ACAD_LAYOUT
350
124A
  3
ACAD_MATERIAL
350
1246
  3
ACAD_MLINESTYLE
350
1B
  3
ACAD_PLOTSETTINGS
350
124B
  3
ACAD_PLOTSTYLENAME
350
1244
  3
ACAD_TABLESTYLE
350
1248
  3
ACDBVARIABLEDICTIONARY
350
1013
  0
DICTIONARY
  5
1247
102
{ACAD_REACTORS
330
C
102
}
330
C
100
AcDbDictionary
281
     1
  0
DICTIONARY
  5
D
102
{ACAD_REACTORS
330
C
102
}
330
C
100
AcDbDictionary
281
     1
  0
DICTIONARY
  5
124A
102
{ACAD_REACTORS
330
C
102
}
330
C
100
AcDbDictionary
281
     1
  3
Model
350
124C
  3
レイアウト1
350
124D
  0
DICTIONARY
  5
1246
102
{ACAD_REACTORS
330
C
102
}
330
C
100
AcDbDictionary
281
     1
  0
DICTIONARY
  5
1B
102
{ACAD_REACTORS
330
C
102
}
330
C
100
AcDbDictionary
281
     1
  3
STANDARD
350
1C
  0
DICTIONARY
  5
124B
102
{ACAD_REACTORS
330
C
102
}
330
C
100
AcDbDictionary
281
     1
  0
ACDBDICTIONARYWDFLT
  5
1244
102
{ACAD_REACTORS
330
C
102
}
330
C
100
AcDbDictionary
281
     1
  3
Normal
350
1245
100
AcDbDictionaryWithDefault
340
1245
  0
DICTIONARY
  5
1248
102
{ACAD_REACTORS
330
C
102
}
330
C
100
AcDbDictionary
281
     1
  3
Standard
350
1249
  0
DICTIONARY
  5
1013
102
{ACAD_REACTORS
330
C
102
}
330
C
100
AcDbDictionary
281
     1
  3
CTABLESTYLE
350
1E13
  3
SORTENTS
350
1014
  0
LAYOUT
  5
124C
102
{ACAD_REACTORS
330
124A
102
}
330
124A
100
AcDbPlotSettings
  1

  2
WIDR Printer
  4

  6

 40
0.0
 41
0.0
 42
0.0
 43
0.0
 44
0.0
 45
0.0
 46
0.0
 47
0.0
 48
0.0
 49
0.0
140
0.0
141
0.0
142
1.0
143
1.0
 70
  1712
 72
     0
 73
     0
 74
     0
  7
AutoCad LT 98.ctb
 75
     0
147
1.0
 76
     0
 77
     2
 78
   300
148
0.0
149
0.0
100
AcDbLayout
  1
Model
 70
     1
 71
     0
 10
0.0
 20
0.0
 11
12.0
 21
9.0
 12
0.0
 22
0.0
 32
0.0
 14
0.0
 24
0.0
 34
0.0
 15
0.0
 25
0.0
 35
0.0
146
0.0
 13
0.0
 23
0.0
 33
0.0
 16
1.0
 26
0.0
 36
0.0
 17
0.0
 27
1.0
 37
0.0
 76
     0
330
18
  0
LAYOUT
  5
124D
102
{ACAD_REACTORS
330
124A
102
}
330
124A
100
AcDbPlotSettings
  1

  2
WIDR Printer
  4

  6

 40
0.0
 41
0.0
 42
0.0
 43
0.0
 44
0.0
 45
0.0
 46
0.0
 47
0.0
 48
0.0
 49
0.0
140
0.0
141
0.0
142
1.0
143
1.0
 70
   688
 72
     0
 73
     0
 74
     5
  7
AutoCad LT 98.ctb
 75
    16
147
1.0
 76
     0
 77
     2
 78
   300
148
0.0
149
0.0
100
AcDbLayout
  1
レイアウト1
 70
     1
 71
     1
 10
0.0
 20
0.0
 11
420.0
 21
297.0
 12
0.0
 22
0.0
 32
0.0
 14
-0.2
 24
-0.2
 34
0.0
 15
255.2
 25
195.2
 35
0.0
146
0.0
 13
0.0
 23
0.0
 33
0.0
 16
1.0
 26
0.0
 36
0.0
 17
0.0
 27
1.0
 37
0.0
 76
     0
330
15
331
177
  0
MLINESTYLE
  5
1C
102
{ACAD_REACTORS
330
1B
102
}
330
1B
100
AcDbMlineStyle
  2
STANDARD
 70
     0
  3

 62
   256
 51
90.0
 52
90.0
 71
     2
 49
0.5
 62
   256
  6
BYLAYER
 49
-0.5
 62
   256
  6
BYLAYER
  0
ACDBPLACEHOLDER
  5
1245
102
{ACAD_REACTORS
330
1244
102
}
330
1244
  0
ACAD_PROXY_OBJECT
  5
1249
102
{ACAD_REACTORS
330
1248
102
}
330
1248
100
AcDbProxyObject
 90
      499
 91
      504
 95
  2555929
 70
     0
 93
     1849
310
4214DD185B99185C992420000000000000F83F0000000000003E0FC00000000000004901028000000C1008070000C3001FDFF8000000C1003FBFF000000182007F7FE00000030400FEFFC00000060801FDFF8000000C1003FBFF000000182000000000000000C2020B0000001820100E000186003FBFF000000182007F7FE0
310
0000030400FEFFC00000060801FDFF8000000C1003FBFF000000182007F7FE0000003040000000000000012404160000003040201C00030C007F7FE00000030400FEFFC00000060801FDFF8000000C1003FBFF000000182007F7FE00000030400FEFFC000000608000
340
F
340
F
340
F
 94
        0
  0
DICTIONARYVAR
  5
1E13
102
{ACAD_REACTORS
330
1013
102
}
330
1013
100
DictionaryVariables
280
     0
  1
STANDARD
  0
DICTIONARYVAR
  5
1014
102
{ACAD_REACTORS
330
1013
102
}
330
1013
100
DictionaryVariables
280
     0
  1
96
  0
ENDSEC
  0
EOF
