  0
SECTION
  2
HEADER
  9
$ACADVER
  1
AC1018
  9
$ACADMAINTVER
 70
     0
  9
$DWGCODEPAGE
  3
ANSI_932
  9
$INSBASE
 10
0.0
 20
0.0
 30
0.0
  9
$EXTMIN
 10
236.4655427980613
 20
171.6339896600951
 30
-0.0000000000112498
  9
$EXTMAX
 10
491.8990686337299
 20
367.055777876885
 30
0.0000000000002956
  9
$LIMMIN
 10
0.0
 20
0.0
  9
$LIMMAX
 10
420.0
 20
297.0
  9
$ORTHOMODE
 70
     0
  9
$REGENMODE
 70
     1
  9
$FILLMODE
 70
     1
  9
$QTEXTMODE
 70
     0
  9
$MIRRTEXT
 70
     1
  9
$LTSCALE
 40
1.0
  9
$ATTMODE
 70
     1
  9
$TEXTSIZE
 40
2.5
  9
$TRACEWID
 40
1.0
  9
$TEXTSTYLE
  7
STYLE3
  9
$CLAYER
  8
補助線
  9
$CELTYPE
  6
BYLAYER
  9
$CECOLOR
 62
   256
  9
$CELTSCALE
 40
1.0
  9
$DISPSILH
 70
     0
  9
$DIMSCALE
 40
1.0
  9
$DIMASZ
 40
2.5
  9
$DIMEXO
 40
0.0
  9
$DIMDLI
 40
3.75
  9
$DIMRND
 40
0.0
  9
$DIMDLE
 40
0.0
  9
$DIMEXE
 40
1.25
  9
$DIMTP
 40
0.0
  9
$DIMTM
 40
0.0
  9
$DIMTXT
 40
2.5
  9
$DIMCEN
 40
2.5
  9
$DIMTSZ
 40
0.0
  9
$DIMTOL
 70
     0
  9
$DIMLIM
 70
     0
  9
$DIMTIH
 70
     0
  9
$DIMTOH
 70
     0
  9
$DIMSE1
 70
     0
  9
$DIMSE2
 70
     0
  9
$DIMTAD
 70
     1
  9
$DIMZIN
 70
     8
  9
$DIMBLK
  1

  9
$DIMASO
 70
     1
  9
$DIMSHO
 70
     1
  9
$DIMPOST
  1

  9
$DIMAPOST
  1

  9
$DIMALT
 70
     0
  9
$DIMALTD
 70
     4
  9
$DIMALTF
 40
0.0394
  9
$DIMLFAC
 40
1.0
  9
$DIMTOFL
 70
     1
  9
$DIMTVP
 40
0.0
  9
$DIMTIX
 70
     0
  9
$DIMSOXD
 70
     0
  9
$DIMSAH
 70
     1
  9
$DIMBLK1
  1
OPEN
  9
$DIMBLK2
  1
OPEN
  9
$DIMSTYLE
  2
STYLE2
  9
$DIMCLRD
 70
     2
  9
$DIMCLRE
 70
     2
  9
$DIMCLRT
 70
     6
  9
$DIMTFAC
 40
1.0
  9
$DIMGAP
 40
0.625
  9
$DIMJUST
 70
     0
  9
$DIMSD1
 70
     0
  9
$DIMSD2
 70
     0
  9
$DIMTOLJ
 70
     1
  9
$DIMTZIN
 70
     0
  9
$DIMALTZ
 70
     0
  9
$DIMALTTZ
 70
     0
  9
$DIMUPT
 70
     0
  9
$DIMDEC
 70
     1
  9
$DIMTDEC
 70
     4
  9
$DIMALTU
 70
     8
  9
$DIMALTTD
 70
     4
  9
$DIMTXSTY
  7
STYLE3
  9
$DIMAUNIT
 70
     0
  9
$DIMADEC
 70
     0
  9
$DIMALTRND
 40
0.0
  9
$DIMAZIN
 70
     0
  9
$DIMDSEP
 70
    46
  9
$DIMATFIT
 70
     3
  9
$DIMFRAC
 70
     0
  9
$DIMLDRBLK
  1

  9
$DIMLUNIT
 70
     2
  9
$DIMLWD
 70
    -2
  9
$DIMLWE
 70
    -2
  9
$DIMTMOVE
 70
     0
  9
$LUNITS
 70
     2
  9
$LUPREC
 70
     4
  9
$SKETCHINC
 40
1.0
  9
$FILLETRAD
 40
6.5
  9
$AUNITS
 70
     0
  9
$AUPREC
 70
     0
  9
$MENU
  1
.
  9
$ELEVATION
 40
0.0
  9
$PELEVATION
 40
0.0
  9
$THICKNESS
 40
0.0
  9
$LIMCHECK
 70
     0
  9
$CHAMFERA
 40
0.2
  9
$CHAMFERB
 40
0.2
  9
$CHAMFERC
 40
20.0
  9
$CHAMFERD
 40
0.0
  9
$SKPOLY
 70
     0
  9
$TDCREATE
 40
2450717.578556713
  9
$TDUCREATE
 40
2450717.203556713
  9
$TDUPDATE
 40
2455355.690867512
  9
$TDUUPDATE
 40
2455355.315867512
  9
$TDINDWG
 40
0.4402652199
  9
$TDUSRTIMER
 40
0.4402652199
  9
$USRTIMER
 70
     1
  9
$ANGBASE
 50
0.0
  9
$ANGDIR
 70
     0
  9
$PDMODE
 70
     0
  9
$PDSIZE
 40
0.0
  9
$PLINEWID
 40
0.0
  9
$SPLFRAME
 70
     0
  9
$SPLINETYPE
 70
     6
  9
$SPLINESEGS
 70
     8
  9
$HANDSEED
  5
1E24
  9
$SURFTAB1
 70
     6
  9
$SURFTAB2
 70
     6
  9
$SURFTYPE
 70
     6
  9
$SURFU
 70
     6
  9
$SURFV
 70
     6
  9
$UCSBASE
  2

  9
$UCSNAME
  2

  9
$UCSORG
 10
0.0
 20
0.0
 30
0.0
  9
$UCSXDIR
 10
1.0
 20
0.0
 30
0.0
  9
$UCSYDIR
 10
0.0
 20
1.0
 30
0.0
  9
$UCSORTHOREF
  2

  9
$UCSORTHOVIEW
 70
     0
  9
$UCSORGTOP
 10
0.0
 20
0.0
 30
0.0
  9
$UCSORGBOTTOM
 10
0.0
 20
0.0
 30
0.0
  9
$UCSORGLEFT
 10
0.0
 20
0.0
 30
0.0
  9
$UCSORGRIGHT
 10
0.0
 20
0.0
 30
0.0
  9
$UCSORGFRONT
 10
0.0
 20
0.0
 30
0.0
  9
$UCSORGBACK
 10
0.0
 20
0.0
 30
0.0
  9
$PUCSBASE
  2

  9
$PUCSNAME
  2

  9
$PUCSORG
 10
0.0
 20
0.0
 30
0.0
  9
$PUCSXDIR
 10
1.0
 20
0.0
 30
0.0
  9
$PUCSYDIR
 10
0.0
 20
1.0
 30
0.0
  9
$PUCSORTHOREF
  2

  9
$PUCSORTHOVIEW
 70
     0
  9
$PUCSORGTOP
 10
0.0
 20
0.0
 30
0.0
  9
$PUCSORGBOTTOM
 10
0.0
 20
0.0
 30
0.0
  9
$PUCSORGLEFT
 10
0.0
 20
0.0
 30
0.0
  9
$PUCSORGRIGHT
 10
0.0
 20
0.0
 30
0.0
  9
$PUCSORGFRONT
 10
0.0
 20
0.0
 30
0.0
  9
$PUCSORGBACK
 10
0.0
 20
0.0
 30
0.0
  9
$USERI1
 70
     0
  9
$USERI2
 70
     0
  9
$USERI3
 70
     0
  9
$USERI4
 70
     0
  9
$USERI5
 70
     0
  9
$USERR1
 40
0.0
  9
$USERR2
 40
0.0
  9
$USERR3
 40
0.0
  9
$USERR4
 40
0.0
  9
$USERR5
 40
0.0
  9
$WORLDVIEW
 70
     1
  9
$SHADEDGE
 70
     3
  9
$SHADEDIF
 70
    70
  9
$TILEMODE
 70
     1
  9
$MAXACTVP
 70
    48
  9
$PINSBASE
 10
0.0
 20
0.0
 30
0.0
  9
$PLIMCHECK
 70
     0
  9
$PEXTMIN
 10
1.000000000000000E+20
 20
1.000000000000000E+20
 30
1.000000000000000E+20
  9
$PEXTMAX
 10
-1.000000000000000E+20
 20
-1.000000000000000E+20
 30
-1.000000000000000E+20
  9
$PLIMMIN
 10
0.0
 20
0.0
  9
$PLIMMAX
 10
420.0
 20
297.0
  9
$UNITMODE
 70
     0
  9
$VISRETAIN
 70
     1
  9
$PLINEGEN
 70
     0
  9
$PSLTSCALE
 70
     1
  9
$TREEDEPTH
 70
  3020
  9
$CMLSTYLE
  2
STANDARD
  9
$CMLJUST
 70
     0
  9
$CMLSCALE
 40
20.0
  9
$PROXYGRAPHICS
 70
     1
  9
$MEASUREMENT
 70
     1
  9
$CELWEIGHT
370
    -1
  9
$ENDCAPS
280
     0
  9
$JOINSTYLE
280
     0
  9
$LWDISPLAY
290
     0
  9
$INSUNITS
 70
     0
  9
$HYPERLINKBASE
  1

  9
$STYLESHEET
  1

  9
$XEDIT
290
     1
  9
$CEPSNTYPE
380
     0
  9
$PSTYLEMODE
290
     1
  9
$FINGERPRINTGUID
  2
{FEA1AB95-8FA3-49B8-A4C4-B09050A194FE}
  9
$VERSIONGUID
  2
{286A9545-1B5A-4364-A218-C5331E1DE469}
  9
$EXTNAMES
290
     1
  9
$PSVPSCALE
 40
0.0
  9
$OLESTARTUP
290
     0
  9
$SORTENTS
280
    96
  9
$INDEXCTL
280
     0
  9
$HIDETEXT
280
     0
  9
$XCLIPFRAME
290
     0
  9
$HALOGAP
280
     0
  9
$OBSCOLOR
 70
   257
  9
$OBSLTYPE
280
     0
  9
$INTERSECTIONDISPLAY
280
     0
  9
$INTERSECTIONCOLOR
 70
   257
  9
$DIMASSOC
280
     1
  9
$PROJECTNAME
  1

  0
ENDSEC
  0
SECTION
  2
CLASSES
  0
CLASS
  1
HATCH
  2
AcDbHatch
  3
ObjectDBX Classes
 90
        0
 91
       14
280
     0
281
     1
  0
CLASS
  1
LWPOLYLINE
  2
AcDbPolyline
  3
ObjectDBX Classes
 90
        0
 91
        1
280
     0
281
     1
  0
CLASS
  1
IMAGEDEF
  2
AcDbRasterImageDef
  3
ISM
 90
        0
 91
        1
280
     0
281
     0
  0
CLASS
  1
DICTIONARYVAR
  2
AcDbDictionaryVar
  3
ObjectDBX Classes
 90
        0
 91
        2
280
     0
281
     0
  0
CLASS
  1
ACDBDICTIONARYWDFLT
  2
AcDbDictionaryWithDefault
  3
ObjectDBX Classes
 90
        0
 91
        1
280
     0
281
     0
  0
CLASS
  1
TABLESTYLE
  2
AcDbTableStyle
  3
ObjectDBX Classes
 90
     2047
 91
        1
280
     0
281
     0
  0
ENDSEC
  0
SECTION
  2
TABLES
  0
TABLE
  2
VPORT
  5
8
330
0
100
AcDbSymbolTable
 70
     2
  0
VPORT
  5
1E23
330
8
100
AcDbSymbolTableRecord
100
AcDbViewportTableRecord
  2
*Active
 70
     0
 10
0.0
 20
0.0
 11
1.0
 21
1.0
 12
364.1823057158956
 22
269.3448837684901
 13
0.0
 23
0.0
 14
10.0
 24
10.0
 15
10.0
 25
10.0
 16
0.0
 26
0.0
 36
1.0
 17
0.0
 27
0.0
 37
0.0
 40
196.9197425327782
 41
1.530456852791878
 42
50.0
 43
0.0
 44
0.0
 50
0.0
 51
0.0
 71
     0
 72
   100
 73
     1
 74
     1
 75
     0
 76
     0
 77
     0
 78
     0
281
     0
 65
     1
110
0.0
120
0.0
130
0.0
111
1.0
121
0.0
131
0.0
112
0.0
122
1.0
132
0.0
 79
     0
146
0.0
  0
ENDTAB
  0
TABLE
  2
LTYPE
  5
5
330
0
100
AcDbSymbolTable
 70
     4
  0
LTYPE
  5
12
330
5
100
AcDbSymbolTableRecord
100
AcDbLinetypeTableRecord
  2
BYBLOCK
 70
     0
  3

 72
    65
 73
     0
 40
0.0
  0
LTYPE
  5
13
330
5
100
AcDbSymbolTableRecord
100
AcDbLinetypeTableRecord
  2
BYLAYER
 70
     0
  3

 72
    65
 73
     0
 40
0.0
  0
LTYPE
  5
14
330
5
100
AcDbSymbolTableRecord
100
AcDbLinetypeTableRecord
  2
CONTINUOUS
 70
     0
  3
Solid line
 72
    65
 73
     0
 40
0.0
  0
LTYPE
  5
22
330
5
100
AcDbSymbolTableRecord
100
AcDbLinetypeTableRecord
  2
CENTER2
 70
     0
  3
Center (.5x) ___ _ ___ _ ___ _ ___ _ ___ _ ___
 72
    65
 73
     4
 40
28.575
 49
19.05
 74
     0
 49
-3.174999999999999
 74
     0
 49
3.174999999999999
 74
     0
 49
-3.174999999999999
 74
     0
  0
LTYPE
  5
24
330
5
100
AcDbSymbolTableRecord
100
AcDbLinetypeTableRecord
  2
PHANTOM2
 70
     0
  3
Phantom (.5x) ___ _ _ ___ _ _ ___ _ _ ___ _ _
 72
    65
 73
     6
 40
31.75
 49
15.875
 74
     0
 49
-3.174999999999999
 74
     0
 49
3.174999999999999
 74
     0
 49
-3.174999999999999
 74
     0
 49
3.174999999999999
 74
     0
 49
-3.174999999999999
 74
     0
  0
ENDTAB
  0
TABLE
  2
LAYER
  5
2
330
0
100
AcDbSymbolTable
 70
    16
  0
LAYER
  5
E
330
2
100
AcDbSymbolTableRecord
100
AcDbLayerTableRecord
  2
0
 70
     0
 62
     7
  6
CONTINUOUS
370
    -3
390
16A8
  0
LAYER
  5
25
330
2
100
AcDbSymbolTableRecord
100
AcDbLayerTableRecord
  2
外形線
 70
     0
 62
     7
  6
CONTINUOUS
370
    -3
390
16A8
  0
LAYER
  5
26
330
2
100
AcDbSymbolTableRecord
100
AcDbLayerTableRecord
  2
寸法線
 70
     0
 62
     2
  6
CONTINUOUS
370
    -3
390
16A8
  0
LAYER
  5
27
330
2
100
AcDbSymbolTableRecord
100
AcDbLayerTableRecord
  2
中心線
 70
     0
 62
     4
  6
CENTER2
370
    -3
390
16A8
  0
LAYER
  5
29
330
2
100
AcDbSymbolTableRecord
100
AcDbLayerTableRecord
  2
想像線
 70
     0
 62
     1
  6
PHANTOM2
370
    -3
390
16A8
  0
LAYER
  5
2A
330
2
100
AcDbSymbolTableRecord
100
AcDbLayerTableRecord
  2
ﾊｯﾁﾝｸ
 70
     0
 62
     6
  6
CONTINUOUS
370
    -3
390
16A8
  0
LAYER
  5
2B
330
2
100
AcDbSymbolTableRecord
100
AcDbLayerTableRecord
  2
文字
 70
     0
 62
     6
  6
CONTINUOUS
370
    -3
390
16A8
  0
LAYER
  5
2C
330
2
100
AcDbSymbolTableRecord
100
AcDbLayerTableRecord
  2
目盛
 70
     0
 62
    70
  6
CONTINUOUS
370
    -3
390
16A8
  0
LAYER
  5
2D
330
2
100
AcDbSymbolTableRecord
100
AcDbLayerTableRecord
  2
針
 70
     0
 62
     5
  6
CONTINUOUS
370
    -3
390
16A8
  0
LAYER
  5
2E
330
2
100
AcDbSymbolTableRecord
100
AcDbLayerTableRecord
  2
補助線
 70
     0
 62
     3
  6
CONTINUOUS
370
    -3
390
16A8
  0
LAYER
  5
53
330
2
100
AcDbSymbolTableRecord
100
AcDbLayerTableRecord
  2
DEFPOINTS
 70
     0
 62
     7
  6
CONTINUOUS
290
     0
370
    -3
390
16A8
  0
LAYER
  5
A5
330
2
100
AcDbSymbolTableRecord
100
AcDbLayerTableRecord
  2
C
 70
     0
 62
     7
  6
CONTINUOUS
370
    -3
390
16A8
  0
LAYER
  5
E00
330
2
100
AcDbSymbolTableRecord
100
AcDbLayerTableRecord
  2
ROGO
 70
     0
 62
     6
  6
CONTINUOUS
370
    -3
390
16A8
  0
ENDTAB
  0
TABLE
  2
STYLE
  5
3
330
0
100
AcDbSymbolTable
 70
     3
  0
STYLE
  5
F
330
3
100
AcDbSymbolTableRecord
100
AcDbTextStyleTableRecord
  2
STANDARD
 70
     0
 40
0.0
 41
1.0
 50
0.0
 71
     0
 42
2.5
  3
txt
  4

  0
STYLE
  5
3F
330
3
100
AcDbSymbolTableRecord
100
AcDbTextStyleTableRecord
  2
STYLE3
 70
     0
 40
0.0
 41
1.0
 50
0.0
 71
     0
 42
2.5
  3
romans.shx
  4
bigfont.shx
  0
ENDTAB
  0
TABLE
  2
VIEW
  5
6
330
0
100
AcDbSymbolTable
 70
     0
  0
ENDTAB
  0
TABLE
  2
UCS
  5
7
330
0
100
AcDbSymbolTable
 70
     0
  0
ENDTAB
  0
TABLE
  2
APPID
  5
9
330
0
100
AcDbSymbolTable
 70
     1
  0
APPID
  5
10
330
9
100
AcDbSymbolTableRecord
100
AcDbRegAppTableRecord
  2
ACAD
 70
     0
  0
ENDTAB
  0
TABLE
  2
DIMSTYLE
  5
A
330
0
100
AcDbSymbolTable
 70
     4
100
AcDbDimStyleTable
 71
     0
  0
DIMSTYLE
105
1D
330
A
100
AcDbSymbolTableRecord
100
AcDbDimStyleTableRecord
  2
STANDARD
 70
     0
 41
2.5
 42
0.625
 43
3.75
 44
1.25
 73
     0
 74
     0
 77
     1
 78
     8
140
2.5
141
2.5
143
0.0394
147
0.625
171
     4
172
     1
273
     8
274
     4
277
     6
340
F
  0
DIMSTYLE
105
66
102
{ACAD_REACTORS
330
1D48
330
1D5E
330
1D75
102
}
330
A
100
AcDbSymbolTableRecord
100
AcDbDimStyleTableRecord
  2
STYLE2
 70
     0
 41
2.5
 42
0.0
 43
3.75
 44
1.25
 73
     0
 74
     0
 77
     1
 78
     8
140
2.5
141
2.5
143
0.0394
147
0.625
171
     4
172
     1
173
     1
176
     2
177
     2
178
     6
271
     1
273
     8
274
     4
340
3F
341
45
343
45
344
45
  0
DIMSTYLE
105
16E6
102
{ACAD_REACTORS
330
1D74
102
}
330
A
100
AcDbSymbolTableRecord
100
AcDbDimStyleTableRecord
  2
.0 type現尺
 70
     0
 41
2.5
 42
0.0
 43
3.75
 44
1.25
 73
     0
 74
     0
 77
     1
 78
     1
140
2.5
141
2.5
143
0.0394
147
0.625
171
     4
172
     1
173
     1
176
     2
177
     2
178
     6
271
     1
272
     1
273
     8
274
     4
340
3F
343
45
344
45
  0
ENDTAB
  0
TABLE
  2
BLOCK_RECORD
  5
1
330
0
100
AcDbSymbolTable
 70
     7
  0
BLOCK_RECORD
  5
18
330
1
100
AcDbSymbolTableRecord
100
AcDbBlockTableRecord
  2
*MODEL_SPACE
340
16AF
  0
BLOCK_RECORD
  5
15
330
1
100
AcDbSymbolTableRecord
100
AcDbBlockTableRecord
  2
*PAPER_SPACE
340
16B0
  0
BLOCK_RECORD
  5
45
330
1
100
AcDbSymbolTableRecord
100
AcDbBlockTableRecord
  2
_OPEN
340
0
102
{BLKREFS
331
836
331
837
331
83E
331
83F
331
847
331
848
331
900
331
901
331
909
331
90A
331
912
331
913
331
FF0
331
FF1
331
100C
331
100D
331
103E
331
103F
331
1047
331
1048
331
117A
331
117B
331
12FC
331
12FD
331
1341
331
1342
331
1DE0
331
1DE1
331
1DEB
331
1DEC
331
1DF3
331
1DF4
331
1DFC
331
1DFD
102
}
  0
BLOCK_RECORD
  5
1D49
330
1
100
AcDbSymbolTableRecord
100
AcDbBlockTableRecord
  2
*D1
340
0
  0
BLOCK_RECORD
  5
1D5F
330
1
100
AcDbSymbolTableRecord
100
AcDbBlockTableRecord
  2
*D2
340
0
  0
BLOCK_RECORD
  5
1D76
330
1
100
AcDbSymbolTableRecord
100
AcDbBlockTableRecord
  2
*D3
340
0
  0
BLOCK_RECORD
  5
1D81
330
1
100
AcDbSymbolTableRecord
100
AcDbBlockTableRecord
  2
*D4
340
0
  0
ENDTAB
  0
ENDSEC
  0
SECTION
  2
BLOCKS
  0
BLOCK
  5
19
330
18
100
AcDbEntity
  8
0
100
AcDbBlockBegin
  2
*MODEL_SPACE
 70
     0
 10
0.0
 20
0.0
 30
0.0
  3
*MODEL_SPACE
  1

  0
ENDBLK
  5
1A
330
18
100
AcDbEntity
  8
0
100
AcDbBlockEnd
  0
BLOCK
  5
16
330
15
100
AcDbEntity
 67
     1
  8
0
100
AcDbBlockBegin
  2
*PAPER_SPACE
 70
     0
 10
0.0
 20
0.0
 30
0.0
  3
*PAPER_SPACE
  1

  0
ENDBLK
  5
17
330
15
100
AcDbEntity
 67
     1
  8
0
100
AcDbBlockEnd
  0
BLOCK
  5
46
330
45
100
AcDbEntity
  8
0
100
AcDbBlockBegin
  2
_OPEN
 70
     0
 10
0.0
 20
0.0
 30
0.0
  3
_OPEN
  1

  0
LINE
  5
47
330
45
100
AcDbEntity
  8
0
  6
ByBlock
 62
     0
100
AcDbLine
 10
-1.0
 20
0.1666666666666666
 30
0.0
 11
0.0
 21
0.0
 31
0.0
  0
LINE
  5
48
330
45
100
AcDbEntity
  8
0
  6
ByBlock
 62
     0
100
AcDbLine
 10
0.0
 20
0.0
 30
0.0
 11
-1.0
 21
-0.1666666666666666
 31
0.0
  0
LINE
  5
49
330
45
100
AcDbEntity
  8
0
  6
ByBlock
 62
     0
100
AcDbLine
 10
0.0
 20
0.0
 30
0.0
 11
-1.0
 21
0.0
 31
0.0
  0
ENDBLK
  5
4A
330
45
100
AcDbEntity
  8
0
100
AcDbBlockEnd
  0
BLOCK
  5
1D53
330
1D49
100
AcDbEntity
  8
0
100
AcDbBlockBegin
  2
*D1
 70
     1
 10
0.0
 20
0.0
 30
0.0
  3
*D1
  1

  0
LINE
  5
1DDD
330
1D49
100
AcDbEntity
  8
寸法線
 62
     2
370
    -2
100
AcDbLine
 10
301.3776437385822
 20
284.7187873874494
 30
0.0
 11
301.3776437385822
 21
333.245347898604
 31
0.0
  0
LINE
  5
1DDE
330
1D49
100
AcDbEntity
  8
寸法線
 62
     2
370
    -2
100
AcDbLine
 10
347.3776437385821
 20
284.7187873874494
 30
0.0
 11
347.3776437385821
 21
333.245347898604
 31
0.0
  0
LINE
  5
1DDF
330
1D49
100
AcDbEntity
  8
寸法線
 62
     2
370
    -2
100
AcDbLine
 10
303.8776437385822
 20
331.995347898604
 30
0.0
 11
344.8776437385821
 21
331.995347898604
 31
0.0
  0
INSERT
  5
1DE0
330
1D49
100
AcDbEntity
  8
寸法線
 62
     2
370
    -2
100
AcDbBlockReference
  2
_OPEN
 10
301.3776437385822
 20
331.995347898604
 30
0.0
 41
2.5
 42
2.5
 43
2.5
 50
180.0
  0
INSERT
  5
1DE1
330
1D49
100
AcDbEntity
  8
寸法線
 62
     2
370
    -2
100
AcDbBlockReference
  2
_OPEN
 10
347.3776437385821
 20
331.995347898604
 30
0.0
 41
2.5
 42
2.5
 43
2.5
  0
MTEXT
  5
1DE2
330
1D49
100
AcDbEntity
  8
寸法線
 62
     6
100
AcDbMText
 10
324.3776437385822
 20
333.870347898604
 30
0.0
 40
2.5
 41
0.0
 71
     5
 72
     1
  1
\A1;%%C46
  7
STYLE3
 73
     1
 44
1.0
  0
POINT
  5
1DE3
330
1D49
100
AcDbEntity
  8
DEFPOINTS
 62
     0
100
AcDbPoint
 10
301.3776437385822
 20
284.7187873874494
 30
0.0
  0
POINT
  5
1DE4
330
1D49
100
AcDbEntity
  8
DEFPOINTS
 62
     0
100
AcDbPoint
 10
347.3776437385821
 20
284.7187873874494
 30
0.0
  0
POINT
  5
1DE5
330
1D49
100
AcDbEntity
  8
DEFPOINTS
 62
     0
100
AcDbPoint
 10
347.3776437385821
 20
331.995347898604
 30
0.0
  0
ENDBLK
  5
1D54
330
1D49
100
AcDbEntity
  8
0
100
AcDbBlockEnd
  0
BLOCK
  5
1D69
330
1D5F
100
AcDbEntity
  8
0
100
AcDbBlockBegin
  2
*D2
 70
     1
 10
0.0
 20
0.0
 30
0.0
  3
*D2
  1

  0
LINE
  5
1DF9
330
1D5F
100
AcDbEntity
  8
寸法線
 62
     2
370
    -2
100
AcDbLine
 10
414.0193285517135
 20
309.5412136918132
 30
0.0
 11
447.794269470445
 21
309.5412136918132
 31
0.0
  0
LINE
  5
1DFA
330
1D5F
100
AcDbEntity
  8
寸法線
 62
     2
370
    -2
100
AcDbLine
 10
414.0193285517135
 20
260.5412136918132
 30
0.0
 11
447.794269470445
 21
260.5412136918132
 31
0.0
  0
LINE
  5
1DFB
330
1D5F
100
AcDbEntity
  8
寸法線
 62
     2
370
    -2
100
AcDbLine
 10
446.544269470445
 20
307.0412136918132
 30
0.0
 11
446.544269470445
 21
263.0412136918132
 31
0.0
  0
INSERT
  5
1DFC
330
1D5F
100
AcDbEntity
  8
寸法線
 62
     2
370
    -2
100
AcDbBlockReference
  2
_OPEN
 10
446.544269470445
 20
309.5412136918132
 30
0.0
 41
2.5
 42
2.5
 43
2.5
 50
90.0
  0
INSERT
  5
1DFD
330
1D5F
100
AcDbEntity
  8
寸法線
 62
     2
370
    -2
100
AcDbBlockReference
  2
_OPEN
 10
446.544269470445
 20
260.5412136918132
 30
0.0
 41
2.5
 42
2.5
 43
2.5
 50
270.0
  0
MTEXT
  5
1DFE
330
1D5F
100
AcDbEntity
  8
寸法線
 62
     6
100
AcDbMText
 10
444.669269470445
 20
285.0412136918133
 30
0.0
 40
2.5
 41
0.0
 71
     5
 72
     1
  1
\A1;%%C49
  7
STYLE3
 11
0.0000000000000001
 21
1.0
 31
0.0
 73
     1
 44
1.0
  0
POINT
  5
1DFF
330
1D5F
100
AcDbEntity
  8
DEFPOINTS
 62
     0
100
AcDbPoint
 10
414.0193285517135
 20
309.5412136918132
 30
0.0
  0
POINT
  5
1E00
330
1D5F
100
AcDbEntity
  8
DEFPOINTS
 62
     0
100
AcDbPoint
 10
414.0193285517135
 20
260.5412136918132
 30
0.0
  0
POINT
  5
1E01
330
1D5F
100
AcDbEntity
  8
DEFPOINTS
 62
     0
100
AcDbPoint
 10
446.544269470445
 20
260.5412136918132
 30
0.0
  0
ENDBLK
  5
1D6A
330
1D5F
100
AcDbEntity
  8
0
100
AcDbBlockEnd
  0
BLOCK
  5
1D7F
330
1D76
100
AcDbEntity
  8
0
100
AcDbBlockBegin
  2
*D3
 70
     1
 10
0.0
 20
0.0
 30
0.0
  3
*D3
  1

  0
LINE
  5
1DF1
330
1D76
100
AcDbEntity
  8
寸法線
 62
     2
370
    -2
100
AcDbLine
 10
322.8776437385821
 20
250.9063489182418
 30
0.0
 11
325.8776437385821
 21
250.9063489182418
 31
0.0
  0
LINE
  5
1DF2
330
1D76
100
AcDbEntity
  8
寸法線
 62
     2
370
    -2
100
AcDbLine
 10
328.3776437385821
 20
250.9063489182418
 30
0.0
 11
347.4014532623917
 21
250.9063489182418
 31
0.0
  0
INSERT
  5
1DF3
330
1D76
100
AcDbEntity
  8
寸法線
 62
     2
370
    -2
100
AcDbBlockReference
  2
_OPEN
 10
320.3776437385821
 20
250.9063489182418
 30
0.0
 41
2.5
 42
2.5
 43
2.5
 50
180.0
  0
INSERT
  5
1DF4
330
1D76
100
AcDbEntity
  8
寸法線
 62
     2
370
    -2
100
AcDbBlockReference
  2
_OPEN
 10
328.3776437385821
 20
250.9063489182418
 30
0.0
 41
2.5
 42
2.5
 43
2.5
  0
MTEXT
  5
1DF5
330
1D76
100
AcDbEntity
  8
寸法線
 62
     6
100
AcDbMText
 10
339.1395485004869
 20
253.5730155849085
 30
0.0
 40
2.5
 41
0.0
 71
     5
 72
     1
  1
%%C8.0{\H1.750000;\S 0^ -0.03;}
  7
STYLE3
 73
     1
 44
1.0
  0
POINT
  5
1DF6
330
1D76
100
AcDbEntity
  8
DEFPOINTS
 62
     0
100
AcDbPoint
 10
320.3776437385821
 20
248.3163038945932
 30
0.0
  0
POINT
  5
1DF7
330
1D76
100
AcDbEntity
  8
DEFPOINTS
 62
     0
100
AcDbPoint
 10
328.3776437385821
 20
248.4426472489179
 30
0.0
  0
POINT
  5
1DF8
330
1D76
100
AcDbEntity
  8
DEFPOINTS
 62
     0
100
AcDbPoint
 10
328.3776437385821
 20
250.9063489182418
 30
0.0
  0
ENDBLK
  5
1D80
330
1D76
100
AcDbEntity
  8
0
100
AcDbBlockEnd
  0
BLOCK
  5
1D8D
330
1D81
100
AcDbEntity
  8
0
100
AcDbBlockBegin
  2
*D4
 70
     1
 10
0.0
 20
0.0
 30
0.0
  3
*D4
  1

  0
LINE
  5
1DE6
330
1D81
100
AcDbEntity
  8
寸法線
 62
     2
370
    -2
100
AcDbLine
 10
322.3776437385821
 20
232.6865854538937
 30
0.0
 11
322.3776437385821
 21
233.9365854538936
 31
0.0
  0
LINE
  5
1DE7
330
1D81
100
AcDbEntity
  8
寸法線
 62
     2
370
    -2
100
AcDbLine
 10
326.3776437385821
 20
232.6865854538937
 30
0.0
 11
326.3776437385821
 21
233.9365854538936
 31
0.0
  0
LINE
  5
1DE8
330
1D81
100
AcDbEntity
  8
寸法線
 62
     2
370
    -2
100
AcDbLine
 10
319.8776437385821
 20
232.6865854538937
 30
0.0
 11
317.3776437385821
 21
232.6865854538937
 31
0.0
  0
LINE
  5
1DE9
330
1D81
100
AcDbEntity
  8
寸法線
 62
     2
370
    -2
100
AcDbLine
 10
328.8776437385821
 20
232.6865854538937
 30
0.0
 11
336.6752627862011
 21
232.6865854538937
 31
0.0
  0
LINE
  5
1DEA
330
1D81
100
AcDbEntity
  8
寸法線
 62
     2
370
    -2
100
AcDbLine
 10
322.3776437385821
 20
232.6865854538937
 30
0.0
 11
326.3776437385821
 21
232.6865854538937
 31
0.0
  0
INSERT
  5
1DEB
330
1D81
100
AcDbEntity
  8
寸法線
 62
     2
370
    -2
100
AcDbBlockReference
  2
_OPEN
 10
322.3776437385821
 20
232.6865854538937
 30
0.0
 41
2.5
 42
2.5
 43
2.5
  0
INSERT
  5
1DEC
330
1D81
100
AcDbEntity
  8
寸法線
 62
     2
370
    -2
100
AcDbBlockReference
  2
_OPEN
 10
326.3776437385821
 20
232.6865854538937
 30
0.0
 41
2.5
 42
2.5
 43
2.5
 50
180.0
  0
MTEXT
  5
1DED
330
1D81
100
AcDbEntity
  8
寸法線
 62
     6
100
AcDbMText
 10
334.0264532623916
 20
234.5615854538936
 30
0.0
 40
2.5
 41
0.0
 71
     5
 72
     1
  1
\A1;%%C4
  7
STYLE3
 73
     1
 44
1.0
  0
POINT
  5
1DEE
330
1D81
100
AcDbEntity
  8
DEFPOINTS
 62
     0
100
AcDbPoint
 10
322.3776437385821
 20
232.6865854538937
 30
0.0
  0
POINT
  5
1DEF
330
1D81
100
AcDbEntity
  8
DEFPOINTS
 62
     0
100
AcDbPoint
 10
326.3776437385821
 20
232.6865854538937
 30
0.0
  0
POINT
  5
1DF0
330
1D81
100
AcDbEntity
  8
DEFPOINTS
 62
     0
100
AcDbPoint
 10
326.3776437385821
 20
232.6865854538937
 30
0.0
  0
ENDBLK
  5
1D8E
330
1D81
100
AcDbEntity
  8
0
100
AcDbBlockEnd
  0
ENDSEC
  0
SECTION
  2
ENTITIES
  0
LINE
  5
244
330
18
100
AcDbEntity
  8
中心線
 48
0.5
100
AcDbLine
 10
286.3347164432078
 20
284.7187873874493
 30
0.0
 11
356.024251855589
 21
284.7187873874494
 31
0.0
  0
LINE
  5
245
330
18
100
AcDbEntity
  8
中心線
 48
0.5
100
AcDbLine
 10
324.377643738582
 20
329.3605963667726
 30
0.0
 11
324.3776437385821
 21
216.4776591377098
 31
0.0
  0
CIRCLE
  5
246
330
18
100
AcDbEntity
  8
外形線
100
AcDbCircle
 10
324.3776437385821
 20
284.7187873874494
 30
0.0
 40
15.5
  0
CIRCLE
  5
247
330
18
100
AcDbEntity
  8
外形線
100
AcDbCircle
 10
324.3776437385821
 20
284.7187873874494
 30
0.0
 40
23.0
  0
CIRCLE
  5
248
330
18
100
AcDbEntity
  8
外形線
100
AcDbCircle
 10
324.3776437385821
 20
284.7187873874494
 30
0.0
 40
26.4
  0
LINE
  5
249
330
18
100
AcDbEntity
  8
目盛
100
AcDbLine
 10
322.9334617894079
 20
307.6734021412997
 30
0.0
 11
323.0590428284665
 21
305.6773486844431
 31
0.0
  0
LINE
  5
24A
330
18
100
AcDbEntity
  8
目盛
100
AcDbLine
 10
321.4949793666031
 20
307.5374255176825
 30
0.0
 11
321.7456458337317
 21
305.5531961150534
 31
0.0
  0
LINE
  5
24B
330
18
100
AcDbEntity
  8
目盛
100
AcDbLine
 10
320.0678735031104
 20
307.3113941542093
 30
0.0
 11
320.4426361322818
 21
305.3468196527519
 31
0.0
  0
LINE
  5
24C
330
18
100
AcDbEntity
  8
目盛
100
AcDbLine
 10
318.6577763337904
 20
306.9962000934079
 30
0.0
 11
319.1551561081201
 21
305.0590337711507
 31
0.0
  0
LINE
  5
24D
330
18
100
AcDbEntity
  8
目盛
100
AcDbLine
 10
317.2702528679583
 20
306.593087262238
 30
0.0
 11
318.1973038510831
 21
303.7399177133525
 31
0.0
  0
LINE
  5
24E
330
18
100
AcDbEntity
  8
目盛
100
AcDbLine
 10
315.9107790268345
 20
306.1036465628792
 30
0.0
 11
316.6470281322038
 21
304.2440935911027
 31
0.0
  0
LINE
  5
24F
330
18
100
AcDbEntity
  8
目盛
100
AcDbLine
 10
314.5847200325853
 20
305.5298095941678
 30
0.0
 11
315.4362786157155
 21
303.7201554892358
 31
0.0
  0
LINE
  5
250
330
18
100
AcDbEntity
  8
目盛
100
AcDbLine
 10
313.2973092342425
 20
304.8738410284583
 30
0.0
 11
314.260816582446
 21
303.1212276683706
 31
0.0
  0
LINE
  5
251
330
18
100
AcDbEntity
  8
目盛
100
AcDbLine
 10
312.0536274540651
 20
304.1383296739957
 30
0.0
 11
313.1252810440231
 21
302.4496738229917
 31
0.0
  0
LINE
  5
252
330
18
100
AcDbEntity
  8
目盛
100
AcDbLine
 10
310.8585829358552
 20
303.3261782580733
 30
0.0
 11
312.6219386927326
 21
300.8991272749484
 31
0.0
  0
LINE
  5
253
330
18
100
AcDbEntity
  8
目盛
100
AcDbLine
 10
309.7168919743622
 20
302.4405919712926
 30
0.0
 11
310.9917399538595
 21
300.8995654857411
 31
0.0
  0
LINE
  5
254
330
18
100
AcDbEntity
  8
目盛
100
AcDbLine
 10
308.6330603022223
 20
301.485065818142
 30
0.0
 11
310.0021545140797
 21
300.0271285632991
 31
0.0
  0
LINE
  5
255
330
18
100
AcDbEntity
  8
目盛
100
AcDbLine
 10
307.6113653078896
 20
300.4633708238093
 30
0.0
 11
309.0693025627324
 21
299.0942766119519
 31
0.0
  0
LINE
  5
256
330
18
100
AcDbEntity
  8
目盛
100
AcDbLine
 10
306.655839154739
 20
299.3795391516693
 30
0.0
 11
308.1968656402905
 21
298.1046911721719
 31
0.0
  0
LINE
  5
257
330
18
100
AcDbEntity
  8
目盛
100
AcDbLine
 10
305.7702528679582
 20
298.2378481901763
 30
0.0
 11
308.1973038510831
 21
296.4744924332988
 31
0.0
  0
LINE
  5
258
330
18
100
AcDbEntity
  8
目盛
100
AcDbLine
 10
304.9581014520357
 20
297.0428036719663
 30
0.0
 11
306.6467573030398
 21
295.9711500820084
 31
0.0
  0
LINE
  5
259
330
18
100
AcDbEntity
  8
目盛
100
AcDbLine
 10
304.2225900975732
 20
295.7991218917889
 30
0.0
 11
305.975203457661
 21
294.8356145435854
 31
0.0
  0
LINE
  5
25A
330
18
100
AcDbEntity
  8
目盛
100
AcDbLine
 10
303.5666215318636
 20
294.5117110934461
 30
0.0
 11
305.3762756367956
 21
293.6601525103159
 31
0.0
  0
LINE
  5
25B
330
18
100
AcDbEntity
  8
目盛
100
AcDbLine
 10
302.9927845631521
 20
293.185652099197
 30
0.0
 11
304.8523375349287
 21
292.4494029938277
 31
0.0
  0
LINE
  5
25C
330
18
100
AcDbEntity
  8
目盛
100
AcDbLine
 10
302.5033438637934
 20
291.8261782580732
 30
0.0
 11
305.3565134126789
 21
290.8991272749484
 31
0.0
  0
LINE
  5
25D
330
18
100
AcDbEntity
  8
目盛
100
AcDbLine
 10
302.1002310326235
 20
290.4386547922411
 30
0.0
 11
304.0373973548808
 21
289.9412750179114
 31
0.0
  0
LINE
  5
25E
330
18
100
AcDbEntity
  8
目盛
100
AcDbLine
 10
301.7850369718222
 20
289.0285576229211
 30
0.0
 11
303.7496114732796
 21
288.6537949937496
 31
0.0
  0
LINE
  5
25F
330
18
100
AcDbEntity
  8
目盛
100
AcDbLine
 10
301.5590056083491
 20
287.6014517594284
 30
0.0
 11
303.543235010978
 21
287.3507852922998
 31
0.0
  0
LINE
  5
260
330
18
100
AcDbEntity
  8
目盛
100
AcDbLine
 10
301.4230289847317
 20
286.1629693366236
 30
0.0
 11
303.4190824415883
 21
286.037388297565
 31
0.0
  0
LINE
  5
261
330
18
100
AcDbEntity
  8
目盛
100
AcDbLine
 10
301.4230289847317
 20
283.2746054382752
 30
0.0
 11
303.4190824415883
 21
283.4001864773338
 31
0.0
  0
LINE
  5
262
330
18
100
AcDbEntity
  8
目盛
100
AcDbLine
 10
301.5590056083491
 20
281.8361230154705
 30
0.0
 11
303.5432350109781
 21
282.086789482599
 31
0.0
  0
LINE
  5
263
330
18
100
AcDbEntity
  8
目盛
100
AcDbLine
 10
301.7850369718222
 20
280.4090171519778
 30
0.0
 11
303.7496114732795
 21
280.7837797811492
 31
0.0
  0
LINE
  5
264
330
18
100
AcDbEntity
  8
目盛
100
AcDbLine
 10
302.1002310326235
 20
278.9989199826578
 30
0.0
 11
304.0373973548808
 21
279.4962997569875
 31
0.0
  0
LINE
  5
265
330
18
100
AcDbEntity
  8
目盛
100
AcDbLine
 10
302.5033438637937
 20
277.6113965168256
 30
0.0
 11
305.3565134126789
 21
278.5384474999505
 31
0.0
  0
LINE
  5
266
330
18
100
AcDbEntity
  8
目盛
100
AcDbLine
 10
302.9927845631523
 20
276.2519226757018
 30
0.0
 11
304.8523375349287
 21
276.9881717810711
 31
0.0
  0
LINE
  5
267
330
18
100
AcDbEntity
  8
目盛
100
AcDbLine
 10
303.5666215318636
 20
274.9258636814527
 30
0.0
 11
305.3762756367956
 21
275.7774222645829
 31
0.0
  0
LINE
  5
268
330
18
100
AcDbEntity
  8
目盛
100
AcDbLine
 10
304.2225900975732
 20
273.6384528831099
 30
0.0
 11
305.975203457661
 21
274.6019602313134
 31
0.0
  0
LINE
  5
269
330
18
100
AcDbEntity
  8
目盛
100
AcDbLine
 10
304.9581014520357
 20
272.3947711029325
 30
0.0
 11
306.6467573030398
 21
273.4664246928905
 31
0.0
  0
LINE
  5
26A
330
18
100
AcDbEntity
  8
目盛
100
AcDbLine
 10
305.7702528679583
 20
271.1997265847225
 30
0.0
 11
308.1973038510831
 21
272.9630823416
 31
0.0
  0
LINE
  5
26B
330
18
100
AcDbEntity
  8
目盛
100
AcDbLine
 10
306.6558391547389
 20
270.0580356232296
 30
0.0
 11
308.1968656402905
 21
271.3328836027269
 31
0.0
  0
LINE
  5
26C
330
18
100
AcDbEntity
  8
目盛
100
AcDbLine
 10
307.6113653078897
 20
268.9742039510895
 30
0.0
 11
309.0693025627325
 21
270.3432981629469
 31
0.0
  0
LINE
  5
26D
330
18
100
AcDbEntity
  8
目盛
100
AcDbLine
 10
308.6330603022222
 20
267.9525089567569
 30
0.0
 11
310.0021545140795
 21
269.4104462115997
 31
0.0
  0
LINE
  5
26E
330
18
100
AcDbEntity
  8
目盛
100
AcDbLine
 10
309.7168919743622
 20
266.9969828036062
 30
0.0
 11
310.9917399538595
 21
268.5380092891578
 31
0.0
  0
LINE
  5
26F
330
18
100
AcDbEntity
  8
目盛
100
AcDbLine
 10
310.8585829358552
 20
266.1113965168256
 30
0.0
 11
312.6219386927326
 21
268.5384474999504
 31
0.0
  0
LINE
  5
270
330
18
100
AcDbEntity
  8
目盛
100
AcDbLine
 10
312.0536274540651
 20
265.299245100903
 30
0.0
 11
313.1252810440231
 21
266.9879009519071
 31
0.0
  0
LINE
  5
271
330
18
100
AcDbEntity
  8
目盛
100
AcDbLine
 10
313.2973092342427
 20
264.5637337464405
 30
0.0
 11
314.2608165824461
 21
266.3163471065283
 31
0.0
  0
LINE
  5
272
330
18
100
AcDbEntity
  8
目盛
100
AcDbLine
 10
314.5847200325855
 20
263.907765180731
 30
0.0
 11
315.4362786157156
 21
265.717419285663
 31
0.0
  0
LINE
  5
273
330
18
100
AcDbEntity
  8
目盛
100
AcDbLine
 10
315.9107790268345
 20
263.3339282120196
 30
0.0
 11
316.6470281322038
 21
265.1934811837961
 31
0.0
  0
LINE
  5
274
330
18
100
AcDbEntity
  8
目盛
100
AcDbLine
 10
317.2702528679583
 20
262.8444875126608
 30
0.0
 11
318.1973038510832
 21
265.6976570615463
 31
0.0
  0
LINE
  5
275
330
18
100
AcDbEntity
  8
目盛
100
AcDbLine
 10
318.6577763337905
 20
262.4413746814909
 30
0.0
 11
319.1551561081201
 21
264.3785410037482
 31
0.0
  0
LINE
  5
276
330
18
100
AcDbEntity
  8
目盛
100
AcDbLine
 10
320.0678735031104
 20
262.1261806206896
 30
0.0
 11
320.442636132282
 21
264.090755122147
 31
0.0
  0
LINE
  5
277
330
18
100
AcDbEntity
  8
目盛
100
AcDbLine
 10
321.4949793666031
 20
261.9001492572164
 30
0.0
 11
321.7456458337318
 21
263.8843786598453
 31
0.0
  0
LINE
  5
278
330
18
100
AcDbEntity
  8
目盛
100
AcDbLine
 10
322.9334617894079
 20
261.7641726335992
 30
0.0
 11
323.0590428284665
 21
263.7602260904557
 31
0.0
  0
LINE
  5
279
330
18
100
AcDbEntity
  8
目盛
100
AcDbLine
 10
325.8218256877563
 20
261.7641726335992
 30
0.0
 11
325.6962446486976
 21
263.7602260904557
 31
0.0
  0
LINE
  5
27A
330
18
100
AcDbEntity
  8
目盛
100
AcDbLine
 10
327.2603081105611
 20
261.9001492572164
 30
0.0
 11
327.0096416434324
 21
263.8843786598454
 31
0.0
  0
LINE
  5
27B
330
18
100
AcDbEntity
  8
目盛
100
AcDbLine
 10
328.6874139740537
 20
262.1261806206896
 30
0.0
 11
328.3126513448824
 21
264.090755122147
 31
0.0
  0
LINE
  5
27C
330
18
100
AcDbEntity
  8
目盛
100
AcDbLine
 10
330.0975111433737
 20
262.4413746814909
 30
0.0
 11
329.6001313690441
 21
264.3785410037482
 31
0.0
  0
LINE
  5
27D
330
18
100
AcDbEntity
  8
目盛
100
AcDbLine
 10
331.4850346092059
 20
262.8444875126609
 30
0.0
 11
330.5579836260811
 21
265.6976570615463
 31
0.0
  0
LINE
  5
27E
330
18
100
AcDbEntity
  8
目盛
100
AcDbLine
 10
332.8445084503297
 20
263.3339282120196
 30
0.0
 11
332.1082593449603
 21
265.1934811837961
 31
0.0
  0
LINE
  5
27F
330
18
100
AcDbEntity
  8
目盛
100
AcDbLine
 10
334.1705674445787
 20
263.907765180731
 30
0.0
 11
333.3190088614486
 21
265.7174192856631
 31
0.0
  0
LINE
  5
280
330
18
100
AcDbEntity
  8
目盛
100
AcDbLine
 10
335.4579782429214
 20
264.5637337464406
 30
0.0
 11
334.4944708947181
 21
266.3163471065284
 31
0.0
  0
LINE
  5
281
330
18
100
AcDbEntity
  8
目盛
100
AcDbLine
 10
336.701660023099
 20
265.2992451009031
 30
0.0
 11
335.6300064331411
 21
266.9879009519071
 31
0.0
  0
LINE
  5
282
330
18
100
AcDbEntity
  8
目盛
100
AcDbLine
 10
337.896704541309
 20
266.1113965168257
 30
0.0
 11
336.1333487844315
 21
268.5384474999505
 31
0.0
  0
LINE
  5
283
330
18
100
AcDbEntity
  8
目盛
100
AcDbLine
 10
339.038395502802
 20
266.9969828036063
 30
0.0
 11
337.7635475233047
 21
268.5380092891579
 31
0.0
  0
LINE
  5
284
330
18
100
AcDbEntity
  8
目盛
100
AcDbLine
 10
340.1222271749419
 20
267.952508956757
 30
0.0
 11
338.7531329630845
 21
269.4104462115998
 31
0.0
  0
LINE
  5
285
330
18
100
AcDbEntity
  8
目盛
100
AcDbLine
 10
341.1439221692745
 20
268.9742039510896
 30
0.0
 11
339.6859849144317
 21
270.343298162947
 31
0.0
  0
LINE
  5
286
330
18
100
AcDbEntity
  8
目盛
100
AcDbLine
 10
342.0994483224252
 20
270.0580356232296
 30
0.0
 11
340.5584218368736
 21
271.3328836027269
 31
0.0
  0
LINE
  5
287
330
18
100
AcDbEntity
  8
目盛
100
AcDbLine
 10
342.9850346092058
 20
271.1997265847226
 30
0.0
 11
340.5579836260811
 21
272.9630823416
 31
0.0
  0
LINE
  5
288
330
18
100
AcDbEntity
  8
目盛
100
AcDbLine
 10
343.7971860251285
 20
272.3947711029325
 30
0.0
 11
342.1085301741244
 21
273.4664246928905
 31
0.0
  0
LINE
  5
289
330
18
100
AcDbEntity
  8
目盛
100
AcDbLine
 10
344.532697379591
 20
273.6384528831101
 30
0.0
 11
342.7800840195033
 21
274.6019602313134
 31
0.0
  0
LINE
  5
28A
330
18
100
AcDbEntity
  8
目盛
100
AcDbLine
 10
345.1886659453005
 20
274.9258636814528
 30
0.0
 11
343.3790118403684
 21
275.7774222645829
 31
0.0
  0
LINE
  5
28B
330
18
100
AcDbEntity
  8
目盛
100
AcDbLine
 10
345.7625029140118
 20
276.2519226757019
 30
0.0
 11
343.9029499422352
 21
276.9881717810712
 31
0.0
  0
LINE
  5
28C
330
18
100
AcDbEntity
  8
目盛
100
AcDbLine
 10
346.2519436133705
 20
277.6113965168256
 30
0.0
 11
343.398774064485
 21
278.5384474999505
 31
0.0
  0
LINE
  5
28D
330
18
100
AcDbEntity
  8
目盛
100
AcDbLine
 10
346.6550564445406
 20
278.9989199826578
 30
0.0
 11
344.7178901222833
 21
279.4962997569875
 31
0.0
  0
LINE
  5
28E
330
18
100
AcDbEntity
  8
目盛
100
AcDbLine
 10
346.9702505053419
 20
280.4090171519778
 30
0.0
 11
345.0056760038845
 21
280.7837797811492
 31
0.0
  0
LINE
  5
28F
330
18
100
AcDbEntity
  8
目盛
100
AcDbLine
 10
347.1962818688151
 20
281.8361230154705
 30
0.0
 11
345.2120524661861
 21
282.0867894825991
 31
0.0
  0
LINE
  5
290
330
18
100
AcDbEntity
  8
目盛
100
AcDbLine
 10
347.3322584924322
 20
283.2746054382752
 30
0.0
 11
345.3362050355757
 21
283.4001864773338
 31
0.0
  0
LINE
  5
291
330
18
100
AcDbEntity
  8
目盛
100
AcDbLine
 10
347.3322584924322
 20
286.1629693366236
 30
0.0
 11
345.3362050355757
 21
286.037388297565
 31
0.0
  0
LINE
  5
292
330
18
100
AcDbEntity
  8
目盛
100
AcDbLine
 10
347.1962818688151
 20
287.6014517594285
 30
0.0
 11
345.212052466186
 21
287.3507852922998
 31
0.0
  0
LINE
  5
293
330
18
100
AcDbEntity
  8
目盛
100
AcDbLine
 10
346.9702505053419
 20
289.028557622921
 30
0.0
 11
345.0056760038845
 21
288.6537949937496
 31
0.0
  0
LINE
  5
294
330
18
100
AcDbEntity
  8
目盛
100
AcDbLine
 10
346.6550564445407
 20
290.438654792241
 30
0.0
 11
344.7178901222833
 21
289.9412750179113
 31
0.0
  0
LINE
  5
295
330
18
100
AcDbEntity
  8
目盛
100
AcDbLine
 10
346.2519436133705
 20
291.8261782580732
 30
0.0
 11
343.398774064485
 21
290.8991272749484
 31
0.0
  0
LINE
  5
296
330
18
100
AcDbEntity
  8
目盛
100
AcDbLine
 10
345.7625029140118
 20
293.185652099197
 30
0.0
 11
343.9029499422352
 21
292.4494029938276
 31
0.0
  0
LINE
  5
297
330
18
100
AcDbEntity
  8
目盛
100
AcDbLine
 10
345.1886659453005
 20
294.5117110934461
 30
0.0
 11
343.3790118403685
 21
293.6601525103159
 31
0.0
  0
LINE
  5
298
330
18
100
AcDbEntity
  8
目盛
100
AcDbLine
 10
344.532697379591
 20
295.7991218917888
 30
0.0
 11
342.7800840195033
 21
294.8356145435854
 31
0.0
  0
LINE
  5
299
330
18
100
AcDbEntity
  8
目盛
100
AcDbLine
 10
343.7971860251285
 20
297.0428036719663
 30
0.0
 11
342.1085301741244
 21
295.9711500820083
 31
0.0
  0
LINE
  5
29A
330
18
100
AcDbEntity
  8
目盛
100
AcDbLine
 10
342.9850346092058
 20
298.2378481901762
 30
0.0
 11
340.557983626081
 21
296.4744924332988
 31
0.0
  0
LINE
  5
29B
330
18
100
AcDbEntity
  8
目盛
100
AcDbLine
 10
342.0994483224252
 20
299.3795391516692
 30
0.0
 11
340.5584218368736
 21
298.1046911721719
 31
0.0
  0
LINE
  5
29C
330
18
100
AcDbEntity
  8
目盛
100
AcDbLine
 10
341.1439221692745
 20
300.4633708238092
 30
0.0
 11
339.6859849144317
 21
299.0942766119518
 31
0.0
  0
LINE
  5
29D
330
18
100
AcDbEntity
  8
目盛
100
AcDbLine
 10
340.1222271749419
 20
301.4850658181418
 30
0.0
 11
338.7531329630845
 21
300.027128563299
 31
0.0
  0
LINE
  5
29E
330
18
100
AcDbEntity
  8
目盛
100
AcDbLine
 10
339.038395502802
 20
302.4405919712925
 30
0.0
 11
337.7635475233045
 21
300.8995654857409
 31
0.0
  0
LINE
  5
29F
330
18
100
AcDbEntity
  8
目盛
100
AcDbLine
 10
337.896704541309
 20
303.3261782580731
 30
0.0
 11
336.1333487844316
 21
300.8991272749483
 31
0.0
  0
LINE
  5
2A0
330
18
100
AcDbEntity
  8
目盛
100
AcDbLine
 10
336.7016600230991
 20
304.1383296739957
 30
0.0
 11
335.6300064331411
 21
302.4496738229917
 31
0.0
  0
LINE
  5
2A1
330
18
100
AcDbEntity
  8
目盛
100
AcDbLine
 10
335.4579782429217
 20
304.8738410284582
 30
0.0
 11
334.4944708947182
 21
303.1212276683705
 31
0.0
  0
LINE
  5
2A2
330
18
100
AcDbEntity
  8
目盛
100
AcDbLine
 10
334.1705674445789
 20
305.5298095941678
 30
0.0
 11
333.3190088614487
 21
303.7201554892358
 31
0.0
  0
LINE
  5
2A3
330
18
100
AcDbEntity
  8
目盛
100
AcDbLine
 10
332.8445084503298
 20
306.1036465628792
 30
0.0
 11
332.1082593449603
 21
304.2440935911026
 31
0.0
  0
LINE
  5
2A4
330
18
100
AcDbEntity
  8
目盛
100
AcDbLine
 10
331.485034609206
 20
306.5930872622379
 30
0.0
 11
330.5579836260811
 21
303.7399177133524
 31
0.0
  0
LINE
  5
2A5
330
18
100
AcDbEntity
  8
目盛
100
AcDbLine
 10
330.0975111433739
 20
306.9962000934079
 30
0.0
 11
329.6001313690442
 21
305.0590337711506
 31
0.0
  0
LINE
  5
2A6
330
18
100
AcDbEntity
  8
目盛
100
AcDbLine
 10
328.6874139740539
 20
307.3113941542092
 30
0.0
 11
328.3126513448825
 21
305.3468196527518
 31
0.0
  0
LINE
  5
2A7
330
18
100
AcDbEntity
  8
目盛
100
AcDbLine
 10
327.2603081105613
 20
307.5374255176825
 30
0.0
 11
327.0096416434327
 21
305.5531961150534
 31
0.0
  0
LINE
  5
2A8
330
18
100
AcDbEntity
  8
目盛
100
AcDbLine
 10
325.8218256877565
 20
307.6734021412997
 30
0.0
 11
325.6962446486978
 21
305.6773486844431
 31
0.0
  0
LINE
  5
2A9
330
18
100
AcDbEntity
  8
目盛
100
AcDbLine
 10
344.3776437385821
 20
284.7187873874494
 30
0.0
 11
347.3776437385821
 21
284.7187873874494
 31
0.0
  0
LINE
  5
2AA
330
18
100
AcDbEntity
  8
目盛
100
AcDbLine
 10
324.3776437385821
 20
264.7187873874494
 30
0.0
 11
324.3776437385821
 21
261.7187873874494
 31
0.0
  0
LINE
  5
2AB
330
18
100
AcDbEntity
  8
目盛
100
AcDbLine
 10
301.3776437385821
 20
284.7187873874494
 30
0.0
 11
304.3776437385821
 21
284.7187873874494
 31
0.0
  0
LINE
  5
2AC
330
18
100
AcDbEntity
  8
目盛
100
AcDbLine
 10
324.3776437385821
 20
307.7187873874494
 30
0.0
 11
324.3776437385821
 21
304.7187873874494
 31
0.0
  0
TEXT
  5
2AD
330
18
100
AcDbEntity
  8
文字
100
AcDbText
 10
323.197123169039
 20
301.8536088718111
 30
0.0
 40
2.5
  1
0
  7
STYLE3
100
AcDbText
  0
TEXT
  5
2AE
330
18
100
AcDbEntity
  8
文字
100
AcDbText
 10
332.8715668523154
 20
298.0424364602498
 30
0.0
 40
2.5
  1
10
  7
STYLE3
100
AcDbText
  0
TEXT
  5
2AF
330
18
100
AcDbEntity
  8
文字
100
AcDbText
 10
338.8804663366008
 20
289.6255014479017
 30
0.0
 40
2.5
  1
20
  7
STYLE3
100
AcDbText
  0
TEXT
  5
2B0
330
18
100
AcDbEntity
  8
文字
100
AcDbText
 10
338.7164254359384
 20
277.5997582450311
 30
0.0
 40
2.5
  1
30
  7
STYLE3
100
AcDbText
  0
TEXT
  5
2B1
330
18
100
AcDbEntity
  8
文字
100
AcDbText
 10
333.2171542660846
 20
269.153218158422
 30
0.0
 40
2.5
  1
40
  7
STYLE3
100
AcDbText
  0
TEXT
  5
2B2
330
18
100
AcDbEntity
  8
文字
100
AcDbText
 10
322.017095242279
 20
264.9517806252849
 30
0.0
 40
2.5
  1
50
  7
STYLE3
100
AcDbText
  0
TEXT
  5
2B3
330
18
100
AcDbEntity
  8
文字
100
AcDbText
 10
310.910765363081
 20
268.9268228606104
 30
0.0
 40
2.5
  1
60
  7
STYLE3
100
AcDbText
  0
TEXT
  5
2B4
330
18
100
AcDbEntity
  8
文字
100
AcDbText
 10
304.9919700747794
 20
277.4936435016127
 30
0.0
 40
2.5
  1
70
  7
STYLE3
100
AcDbText
  0
TEXT
  5
2B5
330
18
100
AcDbEntity
  8
文字
100
AcDbText
 10
305.0976524296212
 20
289.7858129593989
 30
0.0
 40
2.5
  1
80
  7
STYLE3
100
AcDbText
  0
TEXT
  5
2B6
330
18
100
AcDbEntity
  8
文字
100
AcDbText
 10
311.8037054777567
 20
298.5934620448306
 30
0.0
 40
2.5
  1
90
  7
STYLE3
100
AcDbText
  0
LINE
  5
2B7
330
18
100
AcDbEntity
  8
中心線
 48
0.2
100
AcDbLine
 10
321.177643738582
 20
282.5080233946573
 30
0.0
 11
321.177643738582
 21
270.5262256178796
 31
0.0
  0
ARC
  5
2B8
330
18
100
AcDbEntity
  8
外形線
100
AcDbCircle
 10
321.177643738582
 20
274.6448159759355
 30
0.0
 40
4.75
100
AcDbArc
 50
0.0
 51
180.0
  0
LINE
  5
2B9
330
18
100
AcDbEntity
  8
中心線
 48
0.2
100
AcDbLine
 10
315.0868684086617
 20
274.6448159759355
 30
0.0
 11
327.6409931294502
 21
274.6448159759355
 31
0.0
  0
LINE
  5
2BA
330
18
100
AcDbEntity
  8
目盛
100
AcDbLine
 10
319.7098130153011
 20
279.1623344283375
 30
0.0
 11
319.8643215124885
 21
278.6868061701899
 31
0.0
  0
LINE
  5
2BB
330
18
100
AcDbEntity
  8
目盛
100
AcDbLine
 10
317.3348130153009
 20
277.4367959243247
 30
0.0
 11
317.7393215124885
 21
277.1429032981786
 31
0.0
  0
LINE
  5
2BC
330
18
100
AcDbEntity
  8
目盛
100
AcDbLine
 10
316.4276437385819
 20
274.6448159759355
 30
0.0
 11
316.927643738582
 21
274.6448159759355
 31
0.0
  0
LINE
  5
2C1
330
18
100
AcDbEntity
  8
目盛
100
AcDbLine
 10
325.9276437385819
 20
274.6448159759355
 30
0.0
 11
325.427643738582
 21
274.6448159759355
 31
0.0
  0
LINE
  5
2C2
330
18
100
AcDbEntity
  8
目盛
100
AcDbLine
 10
325.0204744618629
 20
277.4367959243247
 30
0.0
 11
324.6159659646755
 21
277.1429032981785
 31
0.0
  0
LINE
  5
2C3
330
18
100
AcDbEntity
  8
目盛
100
AcDbLine
 10
322.645474461863
 20
279.1623344283374
 30
0.0
 11
322.4909659646755
 21
278.6868061701899
 31
0.0
  0
TEXT
  5
2C5
330
18
100
AcDbEntity
  8
文字
100
AcDbText
 10
324.3908486752717
 20
274.1617915224464
 30
0.0
 40
1.0
  1
0
  7
STYLE3
100
AcDbText
  0
TEXT
  5
2C6
330
18
100
AcDbEntity
  8
文字
100
AcDbText
 10
323.7335037886014
 20
276.2092117898336
 30
0.0
 40
1.0
  1
1
  7
STYLE3
100
AcDbText
  0
TEXT
  5
2C7
330
18
100
AcDbEntity
  8
文字
100
AcDbText
 10
321.7217121027449
 20
277.5264638827835
 30
0.0
 40
1.0
  1
2
  7
STYLE3
100
AcDbText
  0
TEXT
  5
2CD
330
18
100
AcDbEntity
  8
文字
100
AcDbText
 10
317.8348209429077
 20
276.1003469590595
 30
0.0
 40
1.0
  1
4
  7
STYLE3
100
AcDbText
  0
TEXT
  5
2CE
330
18
100
AcDbEntity
  8
文字
100
AcDbText
 10
319.5280650112275
 20
277.3665183280524
 30
0.0
 40
1.0
  1
3
  7
STYLE3
100
AcDbText
  0
LINE
  5
2D3
330
18
100
AcDbEntity
  8
外形線
100
AcDbLine
 10
320.9776437385821
 20
239.7187873874494
 30
0.0
 11
327.7776437385821
 21
239.7187873874494
 31
0.0
  0
LINE
  5
2D4
330
18
100
AcDbEntity
  8
外形線
100
AcDbLine
 10
322.1276437385821
 20
228.7187873874494
 30
0.0
 11
326.6276437385821
 21
228.7187873874494
 31
0.0
  0
LINE
  5
2D5
330
18
100
AcDbEntity
  8
外形線
100
AcDbLine
 10
328.3776437385821
 20
258.6235770989693
 30
0.0
 11
328.3776437385821
 21
244.2187873874495
 31
0.0
  0
LINE
  5
2D6
330
18
100
AcDbEntity
  8
外形線
100
AcDbLine
 10
320.3776437385821
 20
258.6235770989693
 30
0.0
 11
320.3776437385821
 21
244.2187873874494
 31
0.0
  0
LINE
  5
2D9
330
18
100
AcDbEntity
  8
外形線
100
AcDbLine
 10
326.377643738582
 20
239.7187873874494
 30
0.0
 11
326.377643738582
 21
228.7187873874494
 31
0.0
  0
LINE
  5
2DA
330
18
100
AcDbEntity
  8
外形線
100
AcDbLine
 10
322.3776437385821
 20
239.7187873874494
 30
0.0
 11
322.3776437385821
 21
228.7187873874494
 31
0.0
  0
LINE
  5
2DB
330
18
100
AcDbEntity
  8
外形線
100
AcDbLine
 10
326.8776437385821
 20
228.5187873874495
 30
0.0
 11
326.877643738582
 21
225.4187873874494
 31
0.0
  0
LINE
  5
2DC
330
18
100
AcDbEntity
  8
外形線
100
AcDbLine
 10
321.8776437385821
 20
228.5187873874495
 30
0.0
 11
321.8776437385821
 21
225.4187873874494
 31
0.0
  0
LINE
  5
2DD
330
18
100
AcDbEntity
  8
外形線
100
AcDbLine
 10
322.1276437385821
 20
225.2187873874494
 30
0.0
 11
326.627643738582
 21
225.2187873874494
 31
0.0
  0
LINE
  5
2DE
330
18
100
AcDbEntity
  8
外形線
100
AcDbLine
 10
321.877643738582
 20
228.5187873874495
 30
0.0
 11
326.8776437385821
 21
228.5187873874495
 31
0.0
  0
LINE
  5
2DF
330
18
100
AcDbEntity
  8
外形線
100
AcDbLine
 10
321.877643738582
 20
225.4187873874494
 30
0.0
 11
326.8776437385821
 21
225.4187873874494
 31
0.0
  0
LINE
  5
2E0
330
18
100
AcDbEntity
  8
外形線
100
AcDbLine
 10
326.6276437385821
 20
228.7187873874494
 30
0.0
 11
326.8776437385821
 21
228.5187873874495
 31
0.0
  0
LINE
  5
2E1
330
18
100
AcDbEntity
  8
外形線
100
AcDbLine
 10
322.1276437385821
 20
228.7187873874494
 30
0.0
 11
321.8776437385821
 21
228.5187873874495
 31
0.0
  0
LINE
  5
2E2
330
18
100
AcDbEntity
  8
外形線
100
AcDbLine
 10
326.8776437385821
 20
225.4187873874494
 30
0.0
 11
326.6276437385821
 21
225.2187873874494
 31
0.0
  0
LINE
  5
2E3
330
18
100
AcDbEntity
  8
外形線
100
AcDbLine
 10
321.8776437385821
 20
225.4187873874494
 30
0.0
 11
322.1276437385821
 21
225.2187873874494
 31
0.0
  0
LINE
  5
2E5
330
18
100
AcDbEntity
  8
外形線
100
AcDbLine
 10
323.077643738582
 20
220.7187873874494
 30
0.0
 11
325.677643738582
 21
220.7187873874494
 31
0.0
  0
LINE
  5
2E6
330
18
100
AcDbEntity
  8
外形線
100
AcDbLine
 10
326.6276437385821
 20
225.2187873874494
 30
0.0
 11
325.677643738582
 21
220.7187873874494
 31
0.0
  0
LINE
  5
2E7
330
18
100
AcDbEntity
  8
外形線
100
AcDbLine
 10
322.1276437385821
 20
225.2187873874494
 30
0.0
 11
323.077643738582
 21
220.7187873874494
 31
0.0
  0
LINE
  5
5CF
330
18
100
AcDbEntity
  8
外形線
  6
Continuous
100
AcDbLine
 10
328.0776437385821
 20
325.2187873874493
 30
0.0
 11
328.0776437385821
 21
318.7187873874493
 31
0.0
  0
LINE
  5
5D0
330
18
100
AcDbEntity
  8
外形線
  6
Continuous
100
AcDbLine
 10
320.6776437385821
 20
325.2187873874493
 30
0.0
 11
320.6776437385821
 21
318.7187873874493
 31
0.0
  0
LINE
  5
5D1
330
18
100
AcDbEntity
  8
外形線
  6
Continuous
100
AcDbLine
 10
320.6776437385821
 20
325.2187873874493
 30
0.0
 11
328.0776437385821
 21
325.2187873874493
 31
0.0
  0
LINE
  5
5D2
330
18
100
AcDbEntity
  8
外形線
  6
Continuous
100
AcDbLine
 10
320.3776437385822
 20
318.7187873874493
 30
0.0
 11
328.377643738582
 21
318.7187873874493
 31
0.0
  0
LINE
  5
5D3
330
18
100
AcDbEntity
  8
外形線
  6
Continuous
100
AcDbLine
 10
320.377643738582
 20
312.7187873874493
 30
0.0
 11
328.377643738582
 21
312.7187873874493
 31
0.0
  0
LINE
  5
5D4
330
18
100
AcDbEntity
  8
外形線
  6
Continuous
100
AcDbLine
 10
328.377643738582
 20
318.7187873874493
 30
0.0
 11
328.377643738582
 21
312.7187873874493
 31
0.0
  0
LINE
  5
5D5
330
18
100
AcDbEntity
  8
外形線
  6
Continuous
100
AcDbLine
 10
320.3776437385822
 20
318.7187873874493
 30
0.0
 11
320.3776437385822
 21
312.7187873874493
 31
0.0
  0
LINE
  5
5D6
330
18
100
AcDbEntity
  8
外形線
  6
Continuous
100
AcDbLine
 10
328.0776437385821
 20
312.7187873874493
 30
0.0
 11
328.0776437385821
 21
310.8582211992212
 31
0.0
  0
LINE
  5
5D7
330
18
100
AcDbEntity
  8
外形線
  6
Continuous
100
AcDbLine
 10
320.6776437385821
 20
312.7187873874493
 30
0.0
 11
320.6776437385821
 21
310.8582211992212
 31
0.0
  0
ARC
  5
5D9
330
18
100
AcDbEntity
  8
外形線
  6
Continuous
100
AcDbCircle
 10
324.377643738582
 20
318.8737873874495
 30
0.0
 40
7.344999999999885
100
AcDbArc
 50
59.75198538337817
 51
120.2480146166212
  0
TEXT
  5
661
330
18
100
AcDbEntity
  8
文字
  6
Continuous
 62
     4
100
AcDbText
 10
323.8718674296816
 20
300.4961629042564
 30
0.0
 40
1.0
  1
0
  7
STYLE3
100
AcDbText
  0
TEXT
  5
662
330
18
100
AcDbEntity
  8
文字
  6
Continuous
 62
     4
100
AcDbText
 10
334.2982246032783
 20
296.8671952921997
 30
0.0
 40
1.0
  1
90
  7
STYLE3
100
AcDbText
  0
TEXT
  5
663
330
18
100
AcDbEntity
  8
文字
  6
Continuous
 62
     4
100
AcDbText
 10
339.6875027688071
 20
288.1203297020491
 30
0.0
 40
1.0
  1
80
  7
STYLE3
100
AcDbText
  0
TEXT
  5
664
330
18
100
AcDbEntity
  8
文字
  6
Continuous
 62
     4
100
AcDbText
 10
339.862728611724
 20
280.7934026055908
 30
0.0
 40
1.0
  1
70
  7
STYLE3
100
AcDbText
  0
TEXT
  5
665
330
18
100
AcDbEntity
  8
文字
  6
Continuous
 62
     4
100
AcDbText
 10
334.919595993756
 20
272.2740654816711
 30
0.0
 40
1.0
  1
60
  7
STYLE3
100
AcDbText
  0
TEXT
  5
666
330
18
100
AcDbEntity
  8
文字
  6
Continuous
 62
     4
100
AcDbText
 10
323.4613309217927
 20
267.8188869681097
 30
0.0
 40
1.0
  1
50
  7
STYLE3
100
AcDbText
  0
TEXT
  5
667
330
18
100
AcDbEntity
  8
文字
  6
Continuous
 62
     4
100
AcDbText
 10
311.9260655672298
 20
272.1116394197851
 30
0.0
 40
1.0
  1
40
  7
STYLE3
100
AcDbText
  0
TEXT
  5
668
330
18
100
AcDbEntity
  8
文字
  6
Continuous
 62
     4
100
AcDbText
 10
307.1082325763841
 20
280.5455595868473
 30
0.0
 40
1.0
  1
30
  7
STYLE3
100
AcDbText
  0
TEXT
  5
669
330
18
100
AcDbEntity
  8
文字
  6
Continuous
 62
     4
100
AcDbText
 10
307.3830446688528
 20
288.4085658492896
 30
0.0
 40
1.0
  1
20
  7
STYLE3
100
AcDbText
  0
TEXT
  5
66A
330
18
100
AcDbEntity
  8
文字
  6
Continuous
 62
     4
100
AcDbText
 10
313.0647561878991
 20
297.2431739381885
 30
0.0
 40
1.0
  1
10
  7
STYLE3
100
AcDbText
  0
ARC
  5
692
330
18
100
AcDbEntity
  8
外形線
  6
Continuous
100
AcDbCircle
 10
498.6859952183799
 20
285.0412136918133
 30
0.0
 40
105.6666666666664
100
AcDbArc
 50
166.3144531747381
 51
193.685546825262
  0
LINE
  5
693
330
18
100
AcDbEntity
  8
外形線
  6
Continuous
100
AcDbLine
 10
396.0193285517136
 20
310.0412136918133
 30
0.0
 11
396.0193285517136
 21
260.0412136918133
 31
0.0
  0
LINE
  5
694
330
18
100
AcDbEntity
  8
外形線
  6
Continuous
100
AcDbLine
 10
397.2193285517136
 20
311.4412136918133
 30
0.0
 11
397.2193285517136
 21
258.6412136918133
 31
0.0
  0
LINE
  5
695
330
18
100
AcDbEntity
  8
外形線
  6
Continuous
100
AcDbLine
 10
401.0193285517136
 20
311.4412136918133
 30
0.0
 11
401.0193285517136
 21
258.6412136918133
 31
0.0
  0
LINE
  5
696
330
18
100
AcDbEntity
  8
外形線
  6
Continuous
100
AcDbLine
 10
402.5193285517135
 20
310.0412136918133
 30
0.0
 11
402.5193285517135
 21
260.0412136918133
 31
0.0
  0
LINE
  5
697
330
18
100
AcDbEntity
  8
外形線
  6
Continuous
100
AcDbLine
 10
414.0193285517136
 20
309.4412136918132
 30
0.0
 11
414.0193285517136
 21
260.6412136918133
 31
0.0
  0
LINE
  5
69C
330
18
100
AcDbEntity
  8
外形線
  6
Continuous
100
AcDbLine
 10
397.2193285517136
 20
259.5412136918132
 30
0.0
 11
396.0193285517136
 21
260.0412136918133
 31
0.0
  0
LINE
  5
6AD
330
18
100
AcDbEntity
  8
外形線
  6
CENTER2
100
AcDbLine
 10
402.5193285517135
 20
260.0412136918133
 30
0.0
 11
401.0193285517136
 21
260.0412136918133
 31
0.0
  0
LINE
  5
6AE
330
18
100
AcDbEntity
  8
外形線
  6
Continuous
100
AcDbLine
 10
397.2193285517136
 20
258.6412136918133
 30
0.0
 11
401.0193285517136
 21
258.6412136918133
 31
0.0
  0
LINE
  5
6AF
330
18
100
AcDbEntity
  8
外形線
  6
Continuous
100
AcDbLine
 10
397.2193285517136
 20
262.6412136918133
 30
0.0
 11
401.0193285517136
 21
262.6412136918133
 31
0.0
  0
LINE
  5
6B0
330
18
100
AcDbEntity
  8
外形線
  6
Continuous
100
AcDbLine
 10
397.2193285517136
 20
261.6412136918133
 30
0.0
 11
401.0193285517136
 21
261.6412136918133
 31
0.0
  0
LINE
  5
6B1
330
18
100
AcDbEntity
  8
外形線
  6
Continuous
100
AcDbLine
 10
397.2193285517136
 20
260.6412136918133
 30
0.0
 11
401.0193285517136
 21
260.6412136918133
 31
0.0
  0
LINE
  5
6B2
330
18
100
AcDbEntity
  8
外形線
  6
Continuous
100
AcDbLine
 10
397.2193285517136
 20
259.6412136918133
 30
0.0
 11
401.0193285517136
 21
259.6412136918133
 31
0.0
  0
ARC
  5
6B8
330
18
100
AcDbEntity
  8
外形線
  6
Continuous
100
AcDbCircle
 10
407.5193285517135
 20
319.1962136918134
 30
0.0
 40
7.344999999999885
100
AcDbArc
 50
59.75198538337879
 51
120.2480146166218
  0
LINE
  5
6B9
330
18
100
AcDbEntity
  8
外形線
  6
Continuous
100
AcDbLine
 10
397.2193285517136
 20
310.5412136918133
 30
0.0
 11
396.0193285517136
 21
310.0412136918133
 31
0.0
  0
LINE
  5
6BA
330
18
100
AcDbEntity
  8
外形線
  6
Continuous
100
AcDbLine
 10
397.2193285517136
 20
263.6412136918133
 30
0.0
 11
401.0193285517136
 21
263.6412136918133
 31
0.0
  0
LINE
  5
6BB
330
18
100
AcDbEntity
  8
外形線
  6
Continuous
100
AcDbLine
 10
401.0193285517136
 20
283.0412136918133
 30
0.0
 11
397.2193285517136
 21
283.0412136918133
 31
0.0
  0
LINE
  5
6BC
330
18
100
AcDbEntity
  8
外形線
  6
Continuous
100
AcDbLine
 10
401.0193285517136
 20
284.0412136918132
 30
0.0
 11
397.2193285517136
 21
284.0412136918132
 31
0.0
  0
LINE
  5
6BD
330
18
100
AcDbEntity
  8
外形線
  6
Continuous
100
AcDbLine
 10
401.0193285517136
 20
285.0412136918133
 30
0.0
 11
397.2193285517136
 21
285.0412136918133
 31
0.0
  0
LINE
  5
6BE
330
18
100
AcDbEntity
  8
外形線
  6
Continuous
100
AcDbLine
 10
401.0193285517136
 20
286.0412136918133
 30
0.0
 11
397.2193285517136
 21
286.0412136918133
 31
0.0
  0
LINE
  5
6BF
330
18
100
AcDbEntity
  8
外形線
  6
Continuous
100
AcDbLine
 10
401.0193285517136
 20
288.0412136918133
 30
0.0
 11
397.2193285517136
 21
288.0412136918133
 31
0.0
  0
LINE
  5
6C0
330
18
100
AcDbEntity
  8
外形線
  6
Continuous
100
AcDbLine
 10
401.0193285517136
 20
287.0412136918133
 30
0.0
 11
397.2193285517136
 21
287.0412136918133
 31
0.0
  0
LINE
  5
6C1
330
18
100
AcDbEntity
  8
外形線
  6
Continuous
100
AcDbLine
 10
397.2193285517136
 20
306.4412136918132
 30
0.0
 11
401.0193285517136
 21
306.4412136918132
 31
0.0
  0
LINE
  5
6C2
330
18
100
AcDbEntity
  8
外形線
  6
Continuous
100
AcDbLine
 10
397.2193285517136
 20
307.4412136918132
 30
0.0
 11
401.0193285517136
 21
307.4412136918132
 31
0.0
  0
LINE
  5
6C3
330
18
100
AcDbEntity
  8
外形線
  6
Continuous
100
AcDbLine
 10
397.2193285517136
 20
308.4412136918132
 30
0.0
 11
401.0193285517136
 21
308.4412136918132
 31
0.0
  0
LINE
  5
6C4
330
18
100
AcDbEntity
  8
外形線
  6
Continuous
100
AcDbLine
 10
397.2193285517136
 20
309.4412136918132
 30
0.0
 11
401.0193285517136
 21
309.4412136918132
 31
0.0
  0
LINE
  5
6C5
330
18
100
AcDbEntity
  8
外形線
  6
Continuous
100
AcDbLine
 10
411.2193285517135
 20
325.5412136918132
 30
0.0
 11
403.8193285517134
 21
325.5412136918132
 31
0.0
  0
LINE
  5
6C6
330
18
100
AcDbEntity
  8
外形線
  6
Continuous
100
AcDbLine
 10
411.5193285517135
 20
319.0412136918132
 30
0.0
 11
403.5193285517135
 21
319.0412136918132
 31
0.0
  0
LINE
  5
6C7
330
18
100
AcDbEntity
  8
外形線
  6
Continuous
100
AcDbLine
 10
411.5193285517135
 20
313.0412136918132
 30
0.0
 11
403.5193285517135
 21
313.0412136918132
 31
0.0
  0
LINE
  5
6C9
330
18
100
AcDbEntity
  8
外形線
  6
Continuous
100
AcDbLine
 10
411.5193285517135
 20
319.0412136918132
 30
0.0
 11
411.5193285517135
 21
313.0412136918132
 31
0.0
  0
LINE
  5
6CA
330
18
100
AcDbEntity
  8
外形線
  6
Continuous
100
AcDbLine
 10
411.2193285517135
 20
313.0412136918132
 30
0.0
 11
411.2193285517135
 21
309.4412136918132
 31
0.0
  0
LINE
  5
6CB
330
18
100
AcDbEntity
  8
外形線
  6
Continuous
100
AcDbLine
 10
411.2193285517135
 20
325.5412136918132
 30
0.0
 11
411.2193285517135
 21
319.0412136918132
 31
0.0
  0
LINE
  5
6CC
330
18
100
AcDbEntity
  8
外形線
  6
Continuous
100
AcDbLine
 10
403.5193285517135
 20
319.0412136918132
 30
0.0
 11
403.5193285517135
 21
313.0412136918132
 31
0.0
  0
LINE
  5
6CD
330
18
100
AcDbEntity
  8
外形線
  6
CENTER2
100
AcDbLine
 10
402.5193285517135
 20
310.0412136918133
 30
0.0
 11
401.0193285517136
 21
310.0412136918133
 31
0.0
  0
LINE
  5
6CE
330
18
100
AcDbEntity
  8
外形線
  6
Continuous
100
AcDbLine
 10
403.8193285517134
 20
313.0412136918132
 30
0.0
 11
403.8193285517134
 21
309.4412136918132
 31
0.0
  0
LINE
  5
6CF
330
18
100
AcDbEntity
  8
外形線
  6
Continuous
100
AcDbLine
 10
397.2193285517136
 20
310.4412136918132
 30
0.0
 11
401.0193285517136
 21
310.4412136918132
 31
0.0
  0
LINE
  5
6D0
330
18
100
AcDbEntity
  8
外形線
  6
Continuous
100
AcDbLine
 10
397.2193285517136
 20
311.4412136918133
 30
0.0
 11
401.0193285517136
 21
311.4412136918133
 31
0.0
  0
LINE
  5
6D1
330
18
100
AcDbEntity
  8
外形線
  6
Continuous
100
AcDbLine
 10
403.8193285517134
 20
325.5412136918132
 30
0.0
 11
403.8193285517134
 21
319.0412136918132
 31
0.0
  0
LINE
  5
71D
330
18
100
AcDbEntity
  8
外形線
  6
Continuous
100
AcDbLine
 10
414.5193285517136
 20
308.3412136918133
 30
0.0
 11
414.0193285517136
 21
308.3412136918133
 31
0.0
  0
LINE
  5
71E
330
18
100
AcDbEntity
  8
外形線
  6
Continuous
100
AcDbLine
 10
414.5193285517136
 20
261.7412136918133
 30
0.0
 11
414.0193285517136
 21
261.7412136918133
 31
0.0
  0
MTEXT
  5
778
330
18
100
AcDbEntity
  8
DEFPOINTS
  6
Continuous
100
AcDbMText
 10
735.8166661286731
 20
235.565234348894
 30
0.0
 40
1.0
 41
0.0
 71
     4
 72
     1
  1
\A1;
 73
     1
 44
1.0
  0
LINE
  5
789
330
18
100
AcDbEntity
  8
中心線
 48
0.5
100
AcDbLine
 10
407.5193285517135
 20
338.0600192205664
 30
0.0
 11
407.5193285517137
 21
217.4960014703507
 31
0.0
  0
LINE
  5
795
330
18
100
AcDbEntity
  8
外形線
100
AcDbLine
 10
320.3776437385821
 20
244.2187873874494
 30
0.0
 11
328.3776437385821
 21
244.2187873874495
 31
0.0
  0
LINE
  5
796
330
18
100
AcDbEntity
  8
外形線
100
AcDbLine
 10
320.7776437385821
 20
241.7187873874494
 30
0.0
 11
327.9776437385821
 21
241.7187873874495
 31
0.0
  0
LINE
  5
797
330
18
100
AcDbEntity
  8
外形線
100
AcDbLine
 10
320.5276437385821
 20
242.7187873874494
 30
0.0
 11
328.2276437385821
 21
242.7187873874494
 31
0.0
  0
LINE
  5
79F
330
18
100
AcDbEntity
  8
外形線
100
AcDbLine
 10
320.7776437385821
 20
241.7187873874494
 30
0.0
 11
320.7776437385821
 21
239.9187873874494
 31
0.0
  0
LINE
  5
7A0
330
18
100
AcDbEntity
  8
外形線
100
AcDbLine
 10
327.9776437385821
 20
239.9187873874494
 30
0.0
 11
327.9776437385821
 21
241.7187873874494
 31
0.0
  0
LINE
  5
7A1
330
18
100
AcDbEntity
  8
外形線
100
AcDbLine
 10
327.9776437385821
 20
239.9187873874494
 30
0.0
 11
327.7776437385821
 21
239.7187873874494
 31
0.0
  0
LINE
  5
7A2
330
18
100
AcDbEntity
  8
外形線
100
AcDbLine
 10
320.7776437385821
 20
239.9187873874494
 30
0.0
 11
320.9776437385821
 21
239.7187873874494
 31
0.0
  0
LINE
  5
7A5
330
18
100
AcDbEntity
  8
外形線
100
AcDbLine
 10
320.5276437385821
 20
244.2187873874494
 30
0.0
 11
320.5276437385821
 21
242.7187873874494
 31
0.0
  0
LINE
  5
7A6
330
18
100
AcDbEntity
  8
外形線
100
AcDbLine
 10
328.2276437385821
 20
244.2187873874494
 30
0.0
 11
328.2276437385821
 21
242.7187873874494
 31
0.0
  0
ARC
  5
7AC
330
18
100
AcDbEntity
  8
外形線
100
AcDbCircle
 10
328.1026437385821
 20
242.2187873874494
 30
0.0
 40
0.5153882032022076
100
AcDbArc
 50
75.96375653207353
 51
255.9637565320735
  0
ARC
  5
7AD
330
18
100
AcDbEntity
  8
外形線
100
AcDbCircle
 10
320.6526437385821
 20
242.2187873874494
 30
0.0
 40
0.5153882032022076
100
AcDbArc
 50
284.0362434679264
 51
104.0362434679264
  0
LINE
  5
7B0
330
18
100
AcDbEntity
  8
外形線
100
AcDbLine
 10
409.5193285517135
 20
240.0412136918133
 30
0.0
 11
409.5193285517135
 21
229.0412136918133
 31
0.0
  0
LINE
  5
7B1
330
18
100
AcDbEntity
  8
外形線
100
AcDbLine
 10
405.5193285517137
 20
240.0412136918133
 30
0.0
 11
405.5193285517137
 21
229.0412136918133
 31
0.0
  0
LINE
  5
7B2
330
18
100
AcDbEntity
  8
外形線
100
AcDbLine
 10
410.0193285517137
 20
228.8412136918132
 30
0.0
 11
410.0193285517135
 21
225.7412136918132
 31
0.0
  0
LINE
  5
7B3
330
18
100
AcDbEntity
  8
外形線
100
AcDbLine
 10
405.0193285517137
 20
228.8412136918132
 30
0.0
 11
405.0193285517137
 21
225.7412136918132
 31
0.0
  0
LINE
  5
7B5
330
18
100
AcDbEntity
  8
外形線
100
AcDbLine
 10
406.2193285517135
 20
221.0412136918133
 30
0.0
 11
408.8193285517136
 21
221.0412136918133
 31
0.0
  0
LINE
  5
7B7
330
18
100
AcDbEntity
  8
外形線
100
AcDbLine
 10
405.2693285517136
 20
225.5412136918133
 30
0.0
 11
409.7693285517135
 21
225.5412136918133
 31
0.0
  0
LINE
  5
7B8
330
18
100
AcDbEntity
  8
外形線
100
AcDbLine
 10
405.0193285517135
 20
225.7412136918132
 30
0.0
 11
410.0193285517137
 21
225.7412136918132
 31
0.0
  0
LINE
  5
7B9
330
18
100
AcDbEntity
  8
外形線
100
AcDbLine
 10
405.2693285517136
 20
225.5412136918133
 30
0.0
 11
406.2193285517135
 21
221.0412136918133
 31
0.0
  0
LINE
  5
7BA
330
18
100
AcDbEntity
  8
外形線
100
AcDbLine
 10
405.0193285517137
 20
225.7412136918132
 30
0.0
 11
405.2693285517136
 21
225.5412136918133
 31
0.0
  0
LINE
  5
7BB
330
18
100
AcDbEntity
  8
外形線
100
AcDbLine
 10
409.7693285517136
 20
225.5412136918133
 30
0.0
 11
408.8193285517136
 21
221.0412136918133
 31
0.0
  0
LINE
  5
7BC
330
18
100
AcDbEntity
  8
外形線
100
AcDbLine
 10
410.0193285517137
 20
225.7412136918132
 30
0.0
 11
409.7693285517136
 21
225.5412136918133
 31
0.0
  0
LINE
  5
7BD
330
18
100
AcDbEntity
  8
外形線
100
AcDbLine
 10
405.2693285517136
 20
229.0412136918133
 30
0.0
 11
409.7693285517136
 21
229.0412136918133
 31
0.0
  0
LINE
  5
7BE
330
18
100
AcDbEntity
  8
外形線
100
AcDbLine
 10
405.0193285517135
 20
228.8412136918132
 30
0.0
 11
410.0193285517137
 21
228.8412136918132
 31
0.0
  0
LINE
  5
7BF
330
18
100
AcDbEntity
  8
外形線
100
AcDbLine
 10
405.2693285517136
 20
229.0412136918133
 30
0.0
 11
405.0193285517137
 21
228.8412136918132
 31
0.0
  0
LINE
  5
7C0
330
18
100
AcDbEntity
  8
外形線
100
AcDbLine
 10
409.7693285517136
 20
229.0412136918133
 30
0.0
 11
410.0193285517137
 21
228.8412136918132
 31
0.0
  0
LINE
  5
7C1
330
18
100
AcDbEntity
  8
外形線
100
AcDbLine
 10
411.5193285517136
 20
260.6412136918133
 30
0.0
 11
411.5193285517136
 21
244.5412136918133
 31
0.0
  0
LINE
  5
7C2
330
18
100
AcDbEntity
  8
外形線
100
AcDbLine
 10
403.5193285517139
 20
260.6412136918133
 30
0.0
 11
403.5193285517136
 21
244.5412136918132
 31
0.0
  0
LINE
  5
7C3
330
18
100
AcDbEntity
  8
外形線
100
AcDbLine
 10
403.9193285517136
 20
242.0412136918133
 30
0.0
 11
403.9193285517136
 21
240.2412136918132
 31
0.0
  0
LINE
  5
7C4
330
18
100
AcDbEntity
  8
外形線
100
AcDbLine
 10
411.1193285517137
 20
240.2412136918132
 30
0.0
 11
411.1193285517137
 21
242.0412136918133
 31
0.0
  0
LINE
  5
7C5
330
18
100
AcDbEntity
  8
外形線
100
AcDbLine
 10
404.1193285517136
 20
240.0412136918132
 30
0.0
 11
410.9193285517137
 21
240.0412136918132
 31
0.0
  0
LINE
  5
7C6
330
18
100
AcDbEntity
  8
外形線
100
AcDbLine
 10
403.9193285517136
 20
240.2412136918132
 30
0.0
 11
404.1193285517136
 21
240.0412136918132
 31
0.0
  0
LINE
  5
7C7
330
18
100
AcDbEntity
  8
外形線
100
AcDbLine
 10
411.1193285517137
 20
240.2412136918132
 30
0.0
 11
410.9193285517137
 21
240.0412136918132
 31
0.0
  0
LINE
  5
7C8
330
18
100
AcDbEntity
  8
外形線
100
AcDbLine
 10
403.6693285517136
 20
243.0412136918133
 30
0.0
 11
411.3693285517136
 21
243.0412136918132
 31
0.0
  0
LINE
  5
7C9
330
18
100
AcDbEntity
  8
外形線
100
AcDbLine
 10
403.9193285517137
 20
242.0412136918132
 30
0.0
 11
411.1193285517137
 21
242.0412136918133
 31
0.0
  0
LINE
  5
7CA
330
18
100
AcDbEntity
  8
外形線
100
AcDbLine
 10
403.5193285517136
 20
244.5412136918132
 30
0.0
 11
411.5193285517136
 21
244.5412136918133
 31
0.0
  0
ARC
  5
7CB
330
18
100
AcDbEntity
  8
外形線
100
AcDbCircle
 10
403.7943285517136
 20
242.5412136918132
 30
0.0
 40
0.5153882032022076
100
AcDbArc
 50
284.0362434679264
 51
104.0362434679264
  0
LINE
  5
7CC
330
18
100
AcDbEntity
  8
外形線
100
AcDbLine
 10
403.6693285517136
 20
244.5412136918132
 30
0.0
 11
403.6693285517136
 21
243.0412136918132
 31
0.0
  0
ARC
  5
7CD
330
18
100
AcDbEntity
  8
外形線
100
AcDbCircle
 10
411.2443285517136
 20
242.5412136918132
 30
0.0
 40
0.5153882032022076
100
AcDbArc
 50
75.96375653207353
 51
255.9637565320735
  0
LINE
  5
7CE
330
18
100
AcDbEntity
  8
外形線
100
AcDbLine
 10
411.3693285517136
 20
244.5412136918132
 30
0.0
 11
411.3693285517136
 21
243.0412136918132
 31
0.0
  0
LINE
  5
7D6
330
18
100
AcDbEntity
  8
中心線
 48
0.5
100
AcDbLine
 10
389.3232663006631
 20
285.0412136918133
 30
0.0
 11
436.6512939206998
 21
285.0412136918133
 31
0.0
  0
LINE
  5
833
330
18
100
AcDbEntity
  8
0
  6
ByBlock
 62
     2
100
AcDbLine
 10
324.377643738582
 20
326.2187873874494
 30
0.0
 11
279.2396798338057
 21
326.2187873874494
 31
0.0
  0
LINE
  5
835
330
18
100
AcDbEntity
  8
0
  6
ByBlock
 62
     2
100
AcDbLine
 10
287.5847164432079
 20
323.7187873874494
 30
0.0
 11
287.5847164432079
 21
287.2187873874494
 31
0.0
  0
INSERT
  5
836
330
18
100
AcDbEntity
  8
0
  6
ByBlock
 62
     2
100
AcDbBlockReference
  2
_OPEN
 10
287.5847164432079
 20
326.2187873874494
 30
0.0
 41
2.5
 42
2.5
 43
2.5
 50
90.0
  0
INSERT
  5
837
330
18
100
AcDbEntity
  8
0
  6
ByBlock
 62
     2
100
AcDbBlockReference
  2
_OPEN
 10
287.5847164432079
 20
284.7187873874494
 30
0.0
 41
2.5
 42
2.5
 43
2.5
 50
270.0
  0
MTEXT
  5
838
330
18
100
AcDbEntity
  8
0
  6
ByBlock
 62
     6
100
AcDbMText
 10
285.7097164432079
 20
305.4687873874494
 30
0.0
 40
2.5
 41
0.0
 71
     5
 72
     1
  1
\A1;41.5
  7
STYLE3
 11
0.0000000000000001
 21
1.0
 31
0.0
 73
     1
 44
1.0
  0
POINT
  5
839
330
18
100
AcDbEntity
  8
DEFPOINTS
  6
ByBlock
 62
     0
100
AcDbPoint
 10
324.377643738582
 20
326.2187873874494
 30
0.0
  0
POINT
  5
83A
330
18
100
AcDbEntity
  8
DEFPOINTS
  6
ByBlock
 62
     0
100
AcDbPoint
 10
324.377643738582
 20
284.7187873874494
 30
0.0
  0
POINT
  5
83B
330
18
100
AcDbEntity
  8
DEFPOINTS
  6
ByBlock
 62
     0
100
AcDbPoint
 10
287.5847164432079
 20
284.7187873874494
 30
0.0
  0
LINE
  5
83C
330
18
100
AcDbEntity
  8
0
  6
ByBlock
 62
     2
100
AcDbLine
 10
324.3776437385821
 20
219.7187873874494
 30
0.0
 11
279.2396798338058
 21
219.7187873874494
 31
0.0
  0
LINE
  5
83D
330
18
100
AcDbEntity
  8
0
  6
ByBlock
 62
     2
100
AcDbLine
 10
287.5847164432079
 20
282.2187873874494
 30
0.0
 11
287.5847164432079
 21
222.2187873874494
 31
0.0
  0
INSERT
  5
83E
330
18
100
AcDbEntity
  8
0
  6
ByBlock
 62
     2
100
AcDbBlockReference
  2
_OPEN
 10
287.5847164432079
 20
284.7187873874494
 30
0.0
 41
2.5
 42
2.5
 43
2.5
 50
90.0
  0
INSERT
  5
83F
330
18
100
AcDbEntity
  8
0
  6
ByBlock
 62
     2
100
AcDbBlockReference
  2
_OPEN
 10
287.5847164432079
 20
219.7187873874494
 30
0.0
 41
2.5
 42
2.5
 43
2.5
 50
270.0
  0
MTEXT
  5
840
330
18
100
AcDbEntity
  8
0
  6
ByBlock
 62
     6
100
AcDbMText
 10
285.7097164432079
 20
252.2187873874494
 30
0.0
 40
2.5
 41
0.0
 71
     5
 72
     1
  1
\A1;65
  7
STYLE3
 11
0.0000000000000001
 21
1.0
 31
0.0
 73
     1
 44
1.0
  0
POINT
  5
841
330
18
100
AcDbEntity
  8
DEFPOINTS
  6
ByBlock
 62
     0
100
AcDbPoint
 10
324.377643738582
 20
284.7187873874494
 30
0.0
  0
POINT
  5
842
330
18
100
AcDbEntity
  8
DEFPOINTS
  6
ByBlock
 62
     0
100
AcDbPoint
 10
324.3776437385821
 20
219.7187873874494
 30
0.0
  0
POINT
  5
843
330
18
100
AcDbEntity
  8
DEFPOINTS
  6
ByBlock
 62
     0
100
AcDbPoint
 10
287.5847164432079
 20
219.7187873874494
 30
0.0
  0
LINE
  5
846
330
18
100
AcDbEntity
  8
0
  6
ByBlock
 62
     2
100
AcDbLine
 10
280.4896798338057
 20
323.7187873874494
 30
0.0
 11
280.4896798338057
 21
222.2187873874494
 31
0.0
  0
INSERT
  5
847
330
18
100
AcDbEntity
  8
0
  6
ByBlock
 62
     2
100
AcDbBlockReference
  2
_OPEN
 10
280.4896798338057
 20
326.2187873874494
 30
0.0
 41
2.5
 42
2.5
 43
2.5
 50
90.0
  0
INSERT
  5
848
330
18
100
AcDbEntity
  8
0
  6
ByBlock
 62
     2
100
AcDbBlockReference
  2
_OPEN
 10
280.4896798338057
 20
219.7187873874494
 30
0.0
 41
2.5
 42
2.5
 43
2.5
 50
270.0
  0
MTEXT
  5
849
330
18
100
AcDbEntity
  8
0
  6
ByBlock
 62
     6
100
AcDbMText
 10
278.6146798338057
 20
272.9687873874494
 30
0.0
 40
2.5
 41
0.0
 71
     5
 72
     1
  1
\A1;106.5
  7
STYLE3
 11
0.0000000000000001
 21
1.0
 31
0.0
 73
     1
 44
1.0
  0
POINT
  5
84A
330
18
100
AcDbEntity
  8
DEFPOINTS
  6
ByBlock
 62
     0
100
AcDbPoint
 10
286.3347164432079
 20
326.2187873874494
 30
0.0
  0
POINT
  5
84B
330
18
100
AcDbEntity
  8
DEFPOINTS
  6
ByBlock
 62
     0
100
AcDbPoint
 10
286.3347164432079
 20
219.7187873874494
 30
0.0
  0
POINT
  5
84C
330
18
100
AcDbEntity
  8
DEFPOINTS
  6
ByBlock
 62
     0
100
AcDbPoint
 10
280.4896798338057
 20
219.7187873874494
 30
0.0
  0
MTEXT
  5
887
330
18
100
AcDbEntity
  8
文字
100
AcDbMText
 10
302.9558756866726
 20
261.6432165871282
 30
0.0
 40
1.0
 41
6.927999999999999
 71
     1
 72
     5
  1

  7
STYLE3
 73
     1
 44
1.0
  0
LINE
  5
8FD
330
18
100
AcDbEntity
  8
0
  6
ByBlock
 62
     2
100
AcDbLine
 10
405.2693285517136
 20
229.0412136918133
 30
0.0
 11
384.7741711975787
 21
229.0412136918133
 31
0.0
  0
LINE
  5
8FF
330
18
100
AcDbEntity
  8
0
  6
ByBlock
 62
     2
100
AcDbLine
 10
386.0241711975787
 20
226.5412136918133
 30
0.0
 11
386.0241711975787
 21
222.5412136918133
 31
0.0
  0
INSERT
  5
900
330
18
100
AcDbEntity
  8
0
  6
ByBlock
 62
     2
100
AcDbBlockReference
  2
_OPEN
 10
386.0241711975787
 20
229.0412136918133
 30
0.0
 41
2.5
 42
2.5
 43
2.5
 50
90.0
  0
INSERT
  5
901
330
18
100
AcDbEntity
  8
0
  6
ByBlock
 62
     2
100
AcDbBlockReference
  2
_OPEN
 10
386.0241711975787
 20
220.0412136918132
 30
0.0
 41
2.5
 42
2.5
 43
2.5
 50
270.0
  0
MTEXT
  5
902
330
18
100
AcDbEntity
  8
0
  6
ByBlock
 62
     6
100
AcDbMText
 10
384.1491711975787
 20
224.5412136918133
 30
0.0
 40
2.5
 41
0.0
 71
     5
 72
     1
  1
\A1;9
  7
STYLE3
 11
0.0000000000000001
 21
1.0
 31
0.0
 73
     1
 44
1.0
  0
POINT
  5
903
330
18
100
AcDbEntity
  8
DEFPOINTS
  6
ByBlock
 62
     0
100
AcDbPoint
 10
405.2693285517136
 20
229.0412136918133
 30
0.0
  0
LINE
  5
907
330
18
100
AcDbEntity
  8
0
  6
ByBlock
 62
     2
100
AcDbLine
 10
403.5193285517136
 20
244.5412136918132
 30
0.0
 11
391.9751303605999
 21
244.5412136918132
 31
0.0
  0
LINE
  5
908
330
18
100
AcDbEntity
  8
0
  6
ByBlock
 62
     2
100
AcDbLine
 10
393.2251303605998
 20
256.1412136918133
 30
0.0
 11
393.2251303605998
 21
247.0412136918132
 31
0.0
  0
INSERT
  5
909
330
18
100
AcDbEntity
  8
0
  6
ByBlock
 62
     2
100
AcDbBlockReference
  2
_OPEN
 10
393.2251303605998
 20
258.6412136918133
 30
0.0
 41
2.5
 42
2.5
 43
2.5
 50
90.0
  0
INSERT
  5
90A
330
18
100
AcDbEntity
  8
0
  6
ByBlock
 62
     2
100
AcDbBlockReference
  2
_OPEN
 10
393.2251303605998
 20
244.5412136918132
 30
0.0
 41
2.5
 42
2.5
 43
2.5
 50
270.0
  0
MTEXT
  5
90B
330
18
100
AcDbEntity
  8
0
  6
ByBlock
 62
     6
100
AcDbMText
 10
391.3501303605999
 20
251.5912136918132
 30
0.0
 40
2.5
 41
0.0
 71
     5
 72
     1
  1
14
  7
STYLE3
 11
0.0000000000000001
 21
1.0
 31
0.0
 73
     1
 44
1.0
  0
POINT
  5
90D
330
18
100
AcDbEntity
  8
DEFPOINTS
  6
ByBlock
 62
     0
100
AcDbPoint
 10
403.5193285517136
 20
244.5412136918132
 30
0.0
  0
POINT
  5
90E
330
18
100
AcDbEntity
  8
DEFPOINTS
  6
ByBlock
 62
     0
100
AcDbPoint
 10
393.2251303605998
 20
244.5412136918132
 30
0.0
  0
LINE
  5
910
330
18
100
AcDbEntity
  8
0
  6
ByBlock
 62
     2
100
AcDbLine
 10
404.1193285517136
 20
240.0412136918132
 30
0.0
 11
384.7741711975787
 21
240.0412136918132
 31
0.0
  0
LINE
  5
911
330
18
100
AcDbEntity
  8
0
  6
ByBlock
 62
     2
100
AcDbLine
 10
386.0241711975787
 20
256.1412136918133
 30
0.0
 11
386.0241711975787
 21
242.5412136918132
 31
0.0
  0
INSERT
  5
912
330
18
100
AcDbEntity
  8
0
  6
ByBlock
 62
     2
100
AcDbBlockReference
  2
_OPEN
 10
386.0241711975787
 20
258.6412136918133
 30
0.0
 41
2.5
 42
2.5
 43
2.5
 50
90.0
  0
INSERT
  5
913
330
18
100
AcDbEntity
  8
0
  6
ByBlock
 62
     2
100
AcDbBlockReference
  2
_OPEN
 10
386.0241711975787
 20
240.0412136918132
 30
0.0
 41
2.5
 42
2.5
 43
2.5
 50
270.0
  0
MTEXT
  5
914
330
18
100
AcDbEntity
  8
0
  6
ByBlock
 62
     6
100
AcDbMText
 10
384.1491711975787
 20
249.3412136918133
 30
0.0
 40
2.5
 41
0.0
 71
     5
 72
     1
  1
18.5
  7
STYLE3
 11
0.0000000000000001
 21
1.0
 31
0.0
 73
     1
 44
1.0
  0
POINT
  5
916
330
18
100
AcDbEntity
  8
DEFPOINTS
  6
ByBlock
 62
     0
100
AcDbPoint
 10
404.1193285517136
 20
240.0412136918132
 30
0.0
  0
POINT
  5
917
330
18
100
AcDbEntity
  8
DEFPOINTS
  6
ByBlock
 62
     0
100
AcDbPoint
 10
386.0241711975787
 20
240.0412136918132
 30
0.0
  0
LWPOLYLINE
  5
96E
330
18
100
AcDbEntity
  8
C
100
AcDbPolyline
 90
        5
 70
     0
 43
0.4
 10
236.6915604445414
 20
366.8501752555372
 10
491.6915604445414
 20
366.8501752555372
 10
491.6915604445414
 20
171.8501752555372
 10
236.6915604445414
 20
171.8501752555372
 10
236.6915604445414
 20
366.8501752555372
  0
MTEXT
  5
EB4
330
18
100
AcDbEntity
  8
DEFPOINTS
  6
Continuous
100
AcDbMText
 10
624.6916853418142
 20
184.890767874579
 30
0.0
 40
0.35
 41
0.0
 71
     4
 72
     1
  1
\A1;
 73
     1
 44
1.0
  0
LINE
  5
EB5
102
{ACAD_REACTORS
330
EF3
102
}
330
18
100
AcDbEntity
  8
ROGO
 62
     4
100
AcDbLine
 10
317.7102676237403
 20
294.0837540285559
 30
0.0
 11
319.3227659367254
 21
294.0837540285559
 31
0.0
  0
LINE
  5
EB6
102
{ACAD_REACTORS
330
EF3
330
EF2
102
}
330
18
100
AcDbEntity
  8
ROGO
 62
     4
100
AcDbLine
 10
316.6950170836476
 20
292.03187524365
 30
0.0
 11
330.5841943506714
 21
292.03187524365
 31
0.0
  0
LINE
  5
EB7
102
{ACAD_REACTORS
330
EF3
102
}
330
18
100
AcDbEntity
  8
ROGO
 62
     4
100
AcDbLine
 10
317.7102676237403
 20
294.0837540285559
 30
0.0
 11
316.6950170836476
 21
292.0318752436499
 31
0.0
  0
SPLINE
  5
EB8
102
{ACAD_REACTORS
330
EF3
102
}
330
18
100
AcDbEntity
  8
ROGO
 62
     4
100
AcDbSpline
210
0.0
220
0.0
230
1.0
 70
     8
 71
     3
 72
    18
 73
    14
 74
     0
 42
0.0000000001
 43
0.0000000001
 40
0.1087402787915014
 40
0.1087402787915014
 40
0.1087402787915014
 40
0.1087402787915014
 40
0.5992371417938475
 40
1.083176791562496
 40
1.448211145705696
 40
1.714037220764907
 40
2.164002567013297
 40
2.740236056362883
 40
3.395137510199602
 40
4.071816045172726
 40
4.784906178399433
 40
5.506895915094292
 40
6.060470601257719
 40
6.060470601257719
 40
6.060470601257719
 40
6.060470601257719
 10
319.3227659367254
 20
294.083754028556
 30
0.0
 10
319.3744254743615
 20
294.0648216737082
 30
0.0
 10
319.476013422212
 20
294.024795782393
 30
0.0
 10
319.5999986577592
 20
293.9334434726016
 30
0.0
 10
319.6676148516839
 20
293.8279846954288
 30
0.0
 10
319.7326540602269
 20
293.724073953126
 30
0.0
 10
319.7417561787379
 20
293.5749964189696
 30
0.0
 10
319.7268462936908
 20
293.3865262833978
 30
0.0
 10
319.6305894228146
 20
293.1898771458771
 30
0.0
 10
319.4760914837332
 20
293.0178801150753
 30
0.0
 10
319.2842715106402
 20
292.8802159347335
 30
0.0
 10
319.081990732533
 20
292.7721530982381
 30
0.0
 10
318.9374003754794
 20
292.7710763776296
 30
0.0
 10
318.8746504585847
 20
292.7706090979985
 30
0.0
  0
LINE
  5
EB9
102
{ACAD_REACTORS
330
EF3
102
}
330
18
100
AcDbEntity
  8
ROGO
 62
     4
100
AcDbLine
 10
318.8746504588938
 20
292.7706090979985
 30
0.0
 11
317.9830421904126
 21
292.7706090979985
 31
0.0
  0
LINE
  5
EBA
102
{ACAD_REACTORS
330
EF3
102
}
330
18
100
AcDbEntity
  8
ROGO
 62
     4
100
AcDbLine
 10
318.3474044790801
 20
293.5759571173426
 30
0.0
 11
318.1894066827227
 21
293.2267354324572
 31
0.0
  0
SPLINE
  5
EBB
102
{ACAD_REACTORS
330
EF3
102
}
330
18
100
AcDbEntity
  8
ROGO
 62
     4
100
AcDbSpline
210
0.0
220
0.0
230
1.0
 70
     8
 71
     3
 72
    15
 73
    11
 74
     9
 42
0.0000000001
 43
0.0000000001
 44
0.0000000001
 40
0.0
 40
0.0
 40
0.0
 40
0.0
 40
0.1539705029175028
 40
0.2241725832587281
 40
0.3038566179396687
 40
0.3581410872474193
 40
0.443992538467216
 40
0.4954152125469665
 40
0.5836396705646186
 40
0.6130478420065743
 40
0.6130478420065743
 40
0.6130478420065743
 40
0.6130478420065743
 10
318.7533914781775
 20
293.5759571173426
 30
0.0
 10
318.8112198132368
 20
293.576222001985
 30
0.0
 10
318.8954146882949
 20
293.5766076594547
 30
0.0
 10
318.9414554446594
 20
293.4724583555252
 30
0.0
 10
318.920817782426
 20
293.4054024508878
 30
0.0
 10
318.8948745590018
 20
293.3365569366399
 30
0.0
 10
318.8490270074594
 20
293.2897753713707
 30
0.0
 10
318.7874928778644
 20
293.2447168377337
 30
0.0
 10
318.7293401848086
 20
293.2392623004741
 30
0.0
 10
318.691518385836
 20
293.22924080702
 30
0.0
 10
318.6820629315668
 20
293.2267354324572
 30
0.0
 11
318.7533914781775
 21
293.5759571173426
 31
0.0
 11
318.9031815491063
 21
293.5403221567026
 31
0.0
 11
318.9317130497814
 21
293.4761794598973
 31
0.0
 11
318.9174475045205
 21
293.3977827788358
 31
0.0
 11
318.8960489815527
 21
293.34789383394
 31
0.0
 11
318.8389859802026
 21
293.2837511371346
 31
0.0
 11
318.7961889342667
 21
293.2552431686227
 31
0.0
 11
318.7105944322417
 21
293.2338624245852
 31
0.0
 11
318.6820629315668
 21
293.2267354324572
 31
0.0
  0
LINE
  5
EBC
102
{ACAD_REACTORS
330
EF3
102
}
330
18
100
AcDbEntity
  8
ROGO
 62
     4
100
AcDbLine
 10
318.7533914781776
 20
293.5759571173426
 30
0.0
 11
318.3474044790801
 21
293.5759571173426
 31
0.0
  0
LINE
  5
EBD
102
{ACAD_REACTORS
330
EF3
102
}
330
18
100
AcDbEntity
  8
ROGO
 62
     4
100
AcDbLine
 10
318.6820629315668
 20
293.2267354324572
 30
0.0
 11
318.1894066827227
 21
293.2267354324572
 31
0.0
  0
LINE
  5
EBE
102
{ACAD_REACTORS
330
EF3
102
}
330
18
100
AcDbEntity
  8
ROGO
 62
     4
100
AcDbLine
 10
317.9830421904126
 20
292.7706090979985
 30
0.0
 11
317.6488180395841
 21
292.03187524365
 31
0.0
  0
LINE
  5
EBF
102
{ACAD_REACTORS
330
EEE
102
}
330
18
100
AcDbEntity
  8
ROGO
 62
     4
100
AcDbLine
 10
320.275389929931
 20
294.0837540285559
 30
0.0
 11
319.6256580306709
 21
292.7706090979985
 31
0.0
  0
LINE
  5
EC0
102
{ACAD_REACTORS
330
EEE
102
}
330
18
100
AcDbEntity
  8
ROGO
 62
     4
100
AcDbLine
 10
322.0514730784149
 20
294.0837540285559
 30
0.0
 11
321.9026388826804
 21
293.7829516978638
 31
0.0
  0
LINE
  5
EC1
102
{ACAD_REACTORS
330
EEE
102
}
330
18
100
AcDbEntity
  8
ROGO
 62
     4
100
AcDbLine
 10
319.6256580306709
 20
292.7706090979985
 30
0.0
 11
321.4017411791548
 21
292.7706090979985
 31
0.0
  0
LINE
  5
EC2
102
{ACAD_REACTORS
330
EEE
102
}
330
18
100
AcDbEntity
  8
ROGO
 62
     4
100
AcDbLine
 10
320.9691744604624
 20
293.7829516978638
 30
0.0
 11
320.852804614386
 21
293.5477616546797
 31
0.0
  0
LINE
  5
EC3
102
{ACAD_REACTORS
330
EEE
102
}
330
18
100
AcDbEntity
  8
ROGO
 62
     4
100
AcDbLine
 10
320.9691744604624
 20
293.7829516978638
 30
0.0
 11
321.9026388826804
 21
293.7829516978638
 31
0.0
  0
LINE
  5
EC4
102
{ACAD_REACTORS
330
EEE
102
}
330
18
100
AcDbEntity
  8
ROGO
 62
     4
100
AcDbLine
 10
320.852804614386
 20
293.5477616546797
 30
0.0
 11
321.7862690366039
 21
293.5477616546797
 31
0.0
  0
LINE
  5
EC5
102
{ACAD_REACTORS
330
EEE
102
}
330
18
100
AcDbEntity
  8
ROGO
 62
     4
100
AcDbLine
 10
320.6171034661458
 20
293.0713962979985
 30
0.0
 11
321.5505678883637
 21
293.0713962979985
 31
0.0
  0
LINE
  5
EC6
102
{ACAD_REACTORS
330
EEE
102
}
330
18
100
AcDbEntity
  8
ROGO
 62
     4
100
AcDbLine
 10
320.7334782387621
 20
293.3065962979985
 30
0.0
 11
321.66694266098
 21
293.3065962979985
 31
0.0
  0
LINE
  5
EC7
102
{ACAD_REACTORS
330
EEE
102
}
330
18
100
AcDbEntity
  8
ROGO
 62
     4
100
AcDbLine
 10
321.7862690366039
 20
293.5477616546797
 30
0.0
 11
321.66694266098
 21
293.3065962979985
 31
0.0
  0
LINE
  5
EC8
102
{ACAD_REACTORS
330
EEE
102
}
330
18
100
AcDbEntity
  8
ROGO
 62
     4
100
AcDbLine
 10
321.5505678883637
 20
293.0713962979985
 30
0.0
 11
321.4017411791548
 21
292.7706090979985
 31
0.0
  0
LINE
  5
EC9
102
{ACAD_REACTORS
330
EEE
102
}
330
18
100
AcDbEntity
  8
ROGO
 62
     4
100
AcDbLine
 10
320.7334782387621
 20
293.3065962979985
 30
0.0
 11
320.6171034661457
 21
293.0713962979985
 31
0.0
  0
LINE
  5
ECA
102
{ACAD_REACTORS
330
EF7
102
}
330
18
100
AcDbEntity
  8
ROGO
 62
     4
100
AcDbLine
 10
322.5659673436126
 20
294.0837540285559
 30
0.0
 11
321.6190330135135
 21
292.7706090979985
 31
0.0
  0
LINE
  5
ECB
102
{ACAD_REACTORS
330
EF7
102
}
330
18
100
AcDbEntity
  8
ROGO
 62
     4
100
AcDbLine
 10
323.0400952002443
 20
293.7327450516042
 30
0.0
 11
322.7167284639311
 21
293.2843217797853
 31
0.0
  0
LINE
  5
ECC
102
{ACAD_REACTORS
330
EF7
102
}
330
18
100
AcDbEntity
  8
ROGO
 62
     4
100
AcDbLine
 10
322.526570702786
 20
293.0206237680892
 30
0.0
 11
323.3564476915703
 21
293.0206237680892
 31
0.0
  0
LINE
  5
ECD
102
{ACAD_REACTORS
330
EF7
102
}
330
18
100
AcDbEntity
  8
ROGO
 62
     4
100
AcDbLine
 10
322.7167284639311
 20
293.2843217797853
 30
0.0
 11
323.2393025859698
 21
293.2843217797853
 31
0.0
  0
LINE
  5
ECE
102
{ACAD_REACTORS
330
EF7
102
}
330
18
100
AcDbEntity
  8
ROGO
 62
     4
100
AcDbLine
 10
322.526570702786
 20
293.0206237680892
 30
0.0
 11
322.3462802652051
 21
292.7706090979985
 31
0.0
  0
LINE
  5
ECF
102
{ACAD_REACTORS
330
EF7
102
}
330
18
100
AcDbEntity
  8
ROGO
 62
     4
100
AcDbLine
 10
321.6190330135135
 20
292.7706090979985
 30
0.0
 11
322.3462802652051
 21
292.7706090979985
 31
0.0
  0
LINE
  5
ED0
102
{ACAD_REACTORS
330
EF7
102
}
330
18
100
AcDbEntity
  8
ROGO
 62
     4
100
AcDbLine
 10
322.5659673436126
 20
294.0837540285559
 30
0.0
 11
323.6163708263841
 21
294.083754028556
 31
0.0
  0
LINE
  5
ED1
102
{ACAD_REACTORS
330
EF7
102
}
330
18
100
AcDbEntity
  8
ROGO
 62
     4
100
AcDbLine
 10
324.1997218367674
 20
292.7706090979985
 30
0.0
 11
323.4675141146392
 21
292.7706090979985
 31
0.0
  0
LINE
  5
ED2
102
{ACAD_REACTORS
330
EEF
102
}
330
18
100
AcDbEntity
  8
ROGO
 62
     4
100
AcDbLine
 10
324.5593412517731
 20
292.7706090979985
 30
0.0
 11
325.6903702667778
 21
292.7706090979985
 31
0.0
  0
LINE
  5
ED3
102
{ACAD_REACTORS
330
EEF
102
}
330
18
100
AcDbEntity
  8
ROGO
 62
     4
100
AcDbLine
 10
326.345146739787
 20
294.0837540285559
 30
0.0
 11
326.1015274392464
 21
293.5951789763391
 31
0.0
  0
LINE
  5
ED4
102
{ACAD_REACTORS
330
EEF
102
}
330
18
100
AcDbEntity
  8
ROGO
 62
     4
100
AcDbLine
 10
325.2797605158952
 20
293.5951789763391
 30
0.0
 11
326.1015274392464
 21
293.5951789763391
 31
0.0
  0
LINE
  5
ED5
102
{ACAD_REACTORS
330
EEF
102
}
330
18
100
AcDbEntity
  8
ROGO
 62
     4
100
AcDbLine
 10
325.0943059665845
 20
293.2591789763391
 30
0.0
 11
325.9339869874566
 21
293.2591789763391
 31
0.0
  0
SPLINE
  5
ED6
102
{ACAD_REACTORS
330
EEF
102
}
330
18
100
AcDbEntity
  8
ROGO
 62
     4
100
AcDbSpline
210
0.0
220
0.0
230
1.0
 70
     8
 71
     3
 72
    26
 73
    22
 74
    20
 42
0.0000000001
 43
0.0000000001
 44
0.0000000001
 40
0.0
 40
0.0
 40
0.0
 40
0.0
 40
0.2382195346591896
 40
0.397689067266058
 40
0.5126795869787669
 40
0.5985392873135731
 40
0.7099038249249733
 40
0.7911890807494741
 40
0.9379713068543702
 40
1.057449928673087
 40
1.138714535893316
 40
1.218398644003506
 40
1.36093802187036
 40
1.461730374800257
 40
1.516014844108008
 40
1.593124329220501
 40
1.648806818593631
 40
1.729472362005518
 40
1.775122082164342
 40
1.874460993765092
 40
1.919820003751207
 40
1.919820003751207
 40
1.919820003751207
 40
1.919820003751207
 10
325.0301103976807
 20
294.0837540285559
 30
0.0
 10
324.9492550069221
 20
294.0789300572908
 30
0.0
 10
324.8142731928561
 20
294.0708768107941
 30
0.0
 10
324.6660639821444
 20
293.9808413069357
 30
0.0
 10
324.5574772377342
 20
293.9284986215933
 30
0.0
 10
324.4800333033099
 20
293.8573432001737
 30
0.0
 10
324.4232665854424
 20
293.7838448476524
 30
0.0
 10
324.3517014807448
 20
293.696272099527
 30
0.0
 10
324.2933421828391
 20
293.5942971780625
 30
0.0
 10
324.2636233403058
 20
293.4819030369992
 30
0.0
 10
324.2372986716521
 20
293.3923242544401
 30
0.0
 10
324.2177758566791
 20
293.2925003915478
 30
0.0
 10
324.2227430134922
 20
293.1846555034255
 30
0.0
 10
324.2298562093765
 20
293.0844946924217
 30
0.0
 10
324.2616148993006
 20
293.0129948694951
 30
0.0
 10
324.2977824216906
 20
292.9620919225656
 30
0.0
 10
324.3420690575454
 20
292.906027969867
 30
0.0
 10
324.390528321863
 20
292.8688969955366
 30
0.0
 10
324.4306080889734
 20
292.801631740396
 30
0.0
 10
324.5007663692359
 20
292.7930482087199
 30
0.0
 10
324.5453617633117
 20
292.775964418843
 30
0.0
 10
324.5593412517732
 20
292.7706090979985
 30
0.0
 11
325.0301103976807
 21
294.0837540285559
 31
0.0
 11
324.7947258247269
 21
294.0471118464622
 31
0.0
 11
324.6520683213519
 21
293.9758421575288
 31
0.0
 11
324.5522082740661
 21
293.9188264528514
 31
0.0
 11
324.4880127051623
 21
293.8618105158275
 31
0.0
 11
324.4166841585516
 21
293.7762868426382
 31
0.0
 11
324.3667541349086
 21
293.7121441458328
 31
0.0
 11
324.2954251781444
 21
293.5838585198755
 31
0.0
 11
324.2597611099157
 21
293.4698268781744
 31
0.0
 11
324.2383625869478
 21
293.3914301971129
 31
0.0
 11
324.2240966315335
 21
293.3130335160515
 31
0.0
 11
324.2240966315335
 21
293.1704941381847
 31
0.0
 11
324.2383625869478
 21
293.0707164807394
 31
0.0
 11
324.2597611099157
 21
293.0208275358436
 31
0.0
 11
324.3025581558514
 21
292.9566848390381
 31
0.0
 11
324.3382226342336
 21
292.9139228862703
 31
0.0
 11
324.3952852254301
 21
292.8569071815928
 31
0.0
 11
324.4238167261053
 21
292.8212722209529
 31
0.0
 11
324.5165442058373
 21
292.7856374926594
 31
0.0
 11
324.5593412517732
 21
292.7706090979985
 31
0.0
  0
SPLINE
  5
ED7
102
{ACAD_REACTORS
330
EEF
102
}
330
18
100
AcDbEntity
  8
ROGO
 62
     4
100
AcDbSpline
210
0.0
220
0.0
230
1.0
 70
     8
 71
     3
 72
    16
 73
    12
 74
    10
 42
0.0000000001
 43
0.0000000001
 44
0.0000000001
 40
0.0
 40
0.0
 40
0.0
 40
0.0
 40
0.1255907025629711
 40
0.1869327038470372
 40
0.2171823804790188
 40
0.2490606136884497
 40
0.2947101524738226
 40
0.3362763310931653
 40
0.3796288870083566
 40
0.452312579561098
 40
0.5242542460842631
 40
0.5242542460842631
 40
0.5242542460842631
 40
0.5242542460842631
 10
325.2797605158953
 20
293.5951789763391
 30
0.0
 10
325.2372298082739
 20
293.5886948830352
 30
0.0
 10
325.1739259170627
 20
293.5790437777496
 30
0.0
 10
325.1166801656714
 20
293.5337286707738
 30
0.0
 10
325.0843975365474
 20
293.5067691984574
 30
0.0
 10
325.0734148422957
 20
293.4710672042751
 30
0.0
 10
325.0439187744352
 20
293.4436535532396
 30
0.0
 10
325.0196056245578
 20
293.4059783725234
 30
0.0
 10
325.0138001954962
 20
293.3542309015643
 30
0.0
 10
325.0180615133438
 20
293.281611212427
 30
0.0
 10
325.0689782279128
 20
293.2666307684276
 30
0.0
 10
325.0943059665845
 20
293.2591789763391
 30
0.0
 11
325.2797605158953
 21
293.5951789763391
 31
0.0
 11
325.1585019456415
 21
293.5624775434916
 31
0.0
 11
325.1085719219986
 21
293.5268428151981
 31
0.0
 11
325.0871733990308
 21
293.5054618388141
 31
0.0
 11
325.0729074436165
 21
293.4769538703022
 31
0.0
 11
325.0443759429415
 21
293.4413191420087
 31
0.0
 11
325.0229774199736
 21
293.4056841813689
 31
0.0
 11
325.0158444422665
 21
293.3629224609473
 31
0.0
 11
325.0301103976807
 21
293.2916525396676
 31
0.0
 11
325.0943059665845
 21
293.2591789763391
 31
0.0
  0
LINE
  5
ED8
102
{ACAD_REACTORS
330
EEF
102
}
330
18
100
AcDbEntity
  8
ROGO
 62
     4
100
AcDbLine
 10
325.9339869874566
 20
293.2591789763391
 30
0.0
 11
325.6903702667778
 21
292.7706090979985
 31
0.0
  0
LINE
  5
ED9
102
{ACAD_REACTORS
330
EEF
102
}
330
18
100
AcDbEntity
  8
ROGO
 62
     4
100
AcDbLine
 10
325.0301103976811
 20
294.083754028556
 30
0.0
 11
326.345146739787
 21
294.083754028556
 31
0.0
  0
LINE
  5
EDA
102
{ACAD_REACTORS
330
EF0
102
}
330
18
100
AcDbEntity
  8
ROGO
 62
     4
100
AcDbLine
 10
328.790411022701
 20
292.7706090979985
 30
0.0
 11
329.9214400377057
 21
292.7706090979985
 31
0.0
  0
LINE
  5
EDB
102
{ACAD_REACTORS
330
EF0
102
}
330
18
100
AcDbEntity
  8
ROGO
 62
     4
100
AcDbLine
 10
329.2611801686089
 20
294.0837540285559
 30
0.0
 11
330.5762165107148
 21
294.0837540285559
 31
0.0
  0
SPLINE
  5
EDC
102
{ACAD_REACTORS
330
EF0
102
}
330
18
100
AcDbEntity
  8
ROGO
 62
     4
100
AcDbSpline
210
0.0
220
0.0
230
1.0
 70
     8
 71
     3
 72
    16
 73
    12
 74
    10
 42
0.0000000001
 43
0.0000000001
 44
0.0000000001
 40
0.0
 40
0.0
 40
0.0
 40
0.0
 40
0.1255907025629163
 40
0.1869327038470616
 40
0.217182380479003
 40
0.2490606136884339
 40
0.2947101524738157
 40
0.3362763310931585
 40
0.3796288870082937
 40
0.4523125795610796
 40
0.5242542460842448
 40
0.5242542460842448
 40
0.5242542460842448
 40
0.5242542460842448
 10
329.5108302868231
 20
293.5951789763391
 30
0.0
 10
329.4682995792017
 20
293.588694883035
 30
0.0
 10
329.4049956879903
 20
293.5790437777495
 30
0.0
 10
329.3477499365993
 20
293.5337286707738
 30
0.0
 10
329.3154673074752
 20
293.5067691984573
 30
0.0
 10
329.3044846132235
 20
293.4710672042752
 30
0.0
 10
329.2749885453631
 20
293.4436535532395
 30
0.0
 10
329.2506753954857
 20
293.4059783725234
 30
0.0
 10
329.244869966424
 20
293.3542309015642
 30
0.0
 10
329.2491312842715
 20
293.2816112124269
 30
0.0
 10
329.3000479988406
 20
293.2666307684276
 30
0.0
 10
329.3253757375123
 20
293.259178976339
 30
0.0
 11
329.5108302868231
 21
293.5951789763391
 31
0.0
 11
329.3895717165694
 21
293.5624775434916
 31
0.0
 11
329.3396416929265
 21
293.5268428151981
 31
0.0
 11
329.3182431699587
 21
293.5054618388141
 31
0.0
 11
329.3039772145444
 21
293.4769538703022
 31
0.0
 11
329.2754457138694
 21
293.4413191420087
 31
0.0
 11
329.2540471909015
 21
293.4056841813688
 31
0.0
 11
329.2469142131944
 21
293.3629224609473
 31
0.0
 11
329.2611801686086
 21
293.2916525396676
 31
0.0
 11
329.3253757375123
 21
293.259178976339
 31
0.0
  0
SPLINE
  5
EDD
102
{ACAD_REACTORS
330
EF0
102
}
330
18
100
AcDbEntity
  8
ROGO
 62
     4
100
AcDbSpline
210
0.0
220
0.0
230
1.0
 70
     8
 71
     3
 72
    26
 73
    22
 74
    20
 42
0.0000000001
 43
0.0000000001
 44
0.0000000001
 40
0.0
 40
0.0
 40
0.0
 40
0.0
 40
0.2382195346591896
 40
0.397689067266058
 40
0.5126795869787176
 40
0.5985392873135238
 40
0.7099038249250041
 40
0.7911890807494602
 40
0.9379713068544059
 40
1.057449928673177
 40
1.138714535893296
 40
1.218398644003487
 40
1.36093802187034
 40
1.461730374800238
 40
1.51601484410804
 40
1.593124329220486
 40
1.648806818593696
 40
1.729472362005543
 40
1.775122082164332
 40
1.874460993765135
 40
1.919820003751196
 40
1.919820003751196
 40
1.919820003751196
 40
1.919820003751196
 10
329.2611801686086
 20
294.0837540285559
 30
0.0
 10
329.1803247778499
 20
294.0789300572908
 30
0.0
 10
329.045342963784
 20
294.0708768107942
 30
0.0
 10
328.8971337530723
 20
293.9808413069357
 30
0.0
 10
328.788547008662
 20
293.9284986215933
 30
0.0
 10
328.7111030742378
 20
293.8573432001737
 30
0.0
 10
328.6543363563703
 20
293.7838448476524
 30
0.0
 10
328.5827712516726
 20
293.696272099527
 30
0.0
 10
328.5244119537668
 20
293.5942971780624
 30
0.0
 10
328.4946931112336
 20
293.481903036999
 30
0.0
 10
328.46836844258
 20
293.3923242544403
 30
0.0
 10
328.4488456276069
 20
293.2925003915477
 30
0.0
 10
328.4538127844198
 20
293.1846555034256
 30
0.0
 10
328.4609259803044
 20
293.0844946924217
 30
0.0
 10
328.4926846702283
 20
293.012994869495
 30
0.0
 10
328.5288521926186
 20
292.9620919225657
 30
0.0
 10
328.5731388284732
 20
292.9060279698669
 30
0.0
 10
328.6215980927908
 20
292.8688969955367
 30
0.0
 10
328.6616778599014
 20
292.8016317403961
 30
0.0
 10
328.7318361401639
 20
292.79304820872
 30
0.0
 10
328.7764315342396
 20
292.7759644188429
 30
0.0
 10
328.7904110227011
 20
292.7706090979985
 30
0.0
 11
329.2611801686086
 21
294.0837540285559
 31
0.0
 11
329.0257955956548
 21
294.0471118464622
 31
0.0
 11
328.8831380922797
 21
293.9758421575288
 31
0.0
 11
328.783278044994
 21
293.9188264528514
 31
0.0
 11
328.7190824760902
 21
293.8618105158275
 31
0.0
 11
328.6477539294794
 21
293.7762868426381
 31
0.0
 11
328.5978239058364
 21
293.7121441458328
 31
0.0
 11
328.5264949490722
 21
293.5838585198755
 31
0.0
 11
328.4908308808435
 21
293.4698268781742
 31
0.0
 11
328.4694323578756
 21
293.3914301971129
 31
0.0
 11
328.4551664024614
 21
293.3130335160515
 31
0.0
 11
328.4551664024614
 21
293.1704941381847
 31
0.0
 11
328.4694323578756
 21
293.0707164807394
 31
0.0
 11
328.4908308808435
 21
293.0208275358435
 31
0.0
 11
328.5336279267793
 21
292.9566848390381
 31
0.0
 11
328.5692924051615
 21
292.9139228862702
 31
0.0
 11
328.626354996358
 21
292.8569071815928
 31
0.0
 11
328.6548864970331
 21
292.8212722209529
 31
0.0
 11
328.7476139767652
 21
292.7856374926594
 31
0.0
 11
328.7904110227011
 21
292.7706090979985
 31
0.0
  0
LINE
  5
EDE
102
{ACAD_REACTORS
330
EF0
102
}
330
18
100
AcDbEntity
  8
ROGO
 62
     4
100
AcDbLine
 10
330.1650567583845
 20
293.2591789763391
 30
0.0
 11
329.9214400377056
 21
292.7706090979985
 31
0.0
  0
LINE
  5
EDF
102
{ACAD_REACTORS
330
EF0
102
}
330
18
100
AcDbEntity
  8
ROGO
 62
     4
100
AcDbLine
 10
329.3253757375123
 20
293.2591789763391
 30
0.0
 11
330.1650567583845
 21
293.2591789763391
 31
0.0
  0
LINE
  5
EE0
102
{ACAD_REACTORS
330
EF0
102
}
330
18
100
AcDbEntity
  8
ROGO
 62
     4
100
AcDbLine
 10
329.5108302868231
 20
293.5951789763391
 30
0.0
 11
330.3325972101743
 21
293.5951789763391
 31
0.0
  0
LINE
  5
EE1
102
{ACAD_REACTORS
330
EF0
102
}
330
18
100
AcDbEntity
  8
ROGO
 62
     4
100
AcDbLine
 10
330.5762165107148
 20
294.0837540285559
 30
0.0
 11
330.3325972101743
 21
293.5951789763391
 31
0.0
  0
LINE
  5
EE2
102
{ACAD_REACTORS
330
EF2
102
}
330
18
100
AcDbEntity
  8
ROGO
 62
     4
100
AcDbLine
 10
330.851243639837
 20
294.0837540285559
 30
0.0
 11
331.6073273823412
 21
294.0837540285559
 31
0.0
  0
LINE
  5
EE3
102
{ACAD_REACTORS
330
EF2
102
}
330
18
100
AcDbEntity
  8
ROGO
 62
     4
100
AcDbLine
 10
330.851243639837
 20
294.0837540285559
 30
0.0
 11
329.8281106081672
 21
292.03187524365
 31
0.0
  0
LINE
  5
EE4
102
{ACAD_REACTORS
330
EF2
102
}
330
18
100
AcDbEntity
  8
ROGO
 62
     4
100
AcDbLine
 10
331.6073273823412
 20
294.0837540285559
 30
0.0
 11
331.4956220754202
 21
293.8597306197343
 31
0.0
  0
LINE
  5
EE5
102
{ACAD_REACTORS
330
EF2
102
}
330
18
100
AcDbEntity
  8
ROGO
 62
     4
100
AcDbLine
 10
331.4956220754202
 20
293.8597306197343
 30
0.0
 11
331.8496351584991
 21
294.0837540285559
 31
0.0
  0
LINE
  5
EE6
102
{ACAD_REACTORS
330
EF2
102
}
330
18
100
AcDbEntity
  8
ROGO
 62
     4
100
AcDbLine
 10
330.851243639837
 20
292.5674388057695
 30
0.0
 11
331.1182929290027
 21
292.03187524365
 31
0.0
  0
LINE
  5
EE7
102
{ACAD_REACTORS
330
EF2
102
}
330
18
100
AcDbEntity
  8
ROGO
 62
     4
100
AcDbLine
 10
331.3627936131678
 20
293.0578146361029
 30
0.0
 11
331.8743601290027
 21
292.03187524365
 31
0.0
  0
LINE
  5
EE8
102
{ACAD_REACTORS
330
EF2
102
}
330
18
100
AcDbEntity
  8
ROGO
 62
     4
100
AcDbLine
 10
330.851243639837
 20
292.5674388057695
 30
0.0
 11
330.5841943506714
 21
292.03187524365
 31
0.0
  0
LINE
  5
EE9
102
{ACAD_REACTORS
330
EF2
102
}
330
18
100
AcDbEntity
  8
ROGO
 62
     4
100
AcDbLine
 10
331.3627936131678
 20
293.0578146361029
 30
0.0
 11
332.605702358499
 21
294.0837540285559
 31
0.0
  0
LINE
  5
EEA
102
{ACAD_REACTORS
330
EF2
102
}
330
18
100
AcDbEntity
  8
ROGO
 62
     4
100
AcDbLine
 10
331.8496351584991
 20
294.0837540285559
 30
0.0
 11
332.605702358499
 21
294.0837540285559
 31
0.0
  0
LINE
  5
EEB
102
{ACAD_REACTORS
330
EF2
102
}
330
18
100
AcDbEntity
  8
ROGO
 62
     4
100
AcDbLine
 10
331.1182929290027
 20
292.03187524365
 30
0.0
 11
331.8743601290027
 21
292.03187524365
 31
0.0
  0
LINE
  5
EEC
102
{ACAD_REACTORS
330
EEE
102
}
330
18
100
AcDbEntity
  8
ROGO
 62
     4
100
AcDbLine
 10
320.275389929931
 20
294.0837540285559
 30
0.0
 11
322.0514730784149
 21
294.083754028556
 31
0.0
  0
LINE
  5
EED
330
18
100
AcDbEntity
  8
ROGO
 62
     4
100
AcDbLine
 10
317.7276056280894
 20
292.2375454499412
 30
0.0
 11
329.9306644155533
 21
292.2375454499412
 31
0.0
  0
HATCH
  5
EEE
330
18
100
AcDbEntity
  8
ROGO
 62
     4
100
AcDbHatch
 10
0.0
 20
0.0
 30
0.0
210
0.0
220
0.0
230
1.0
  2
SOLID
 70
     1
 71
     1
 91
        1
 92
        1
 93
       12
 72
     1
 10
320.275389929931
 20
294.0837540285559
 11
322.0514730784149
 21
294.083754028556
 72
     1
 10
322.0514730784149
 20
294.0837540285559
 11
321.9026388826804
 21
293.7829516978638
 72
     1
 10
321.9026388826804
 20
293.7829516978638
 11
320.9691744604624
 21
293.7829516978638
 72
     1
 10
320.9691744604624
 20
293.7829516978638
 11
320.852804614386
 21
293.5477616546797
 72
     1
 10
320.852804614386
 20
293.5477616546797
 11
321.7862690366039
 21
293.5477616546797
 72
     1
 10
321.7862690366039
 20
293.5477616546797
 11
321.66694266098
 21
293.3065962979985
 72
     1
 10
321.66694266098
 20
293.3065962979985
 11
320.7334782387621
 21
293.3065962979985
 72
     1
 10
320.7334782387621
 20
293.3065962979985
 11
320.6171034661457
 21
293.0713962979985
 72
     1
 10
320.6171034661458
 20
293.0713962979985
 11
321.5505678883637
 21
293.0713962979985
 72
     1
 10
321.5505678883637
 20
293.0713962979985
 11
321.4017411791548
 21
292.7706090979985
 72
     1
 10
321.4017411791548
 20
292.7706090979985
 11
319.6256580306709
 21
292.7706090979985
 72
     1
 10
319.6256580306709
 20
292.7706090979985
 11
320.275389929931
 21
294.0837540285559
 97
       12
330
EEC
330
EC0
330
EC3
330
EC2
330
EC4
330
EC7
330
EC6
330
EC9
330
EC5
330
EC8
330
EC1
330
EBF
 75
     0
 76
     1
 98
        1
 10
247.6252609512221
 20
203.2856579804446
450
        0
451
        0
460
0.0
461
0.0
452
        0
462
0.0
453
        0
470

  0
HATCH
  5
EEF
330
18
100
AcDbEntity
  8
ROGO
 62
     4
100
AcDbHatch
 10
0.0
 20
0.0
 30
0.0
210
0.0
220
0.0
230
1.0
  2
SOLID
 70
     1
 71
     1
 91
        1
 92
        5
 93
        8
 72
     1
 10
326.1015274392464
 20
293.5951789763391
 11
326.3451467397871
 21
294.083754028556
 72
     1
 10
326.3451467397871
 20
294.083754028556
 11
325.0301103976809
 21
294.083754028556
 72
     4
 94
        3
 73
     0
 74
     0
 95
       26
 96
       22
 40
0.0
 40
0.0
 40
0.0
 40
0.0
 40
0.2382195346591896
 40
0.397689067266058
 40
0.5126795869787669
 40
0.5985392873135731
 40
0.7099038249249733
 40
0.7911890807494741
 40
0.9379713068543702
 40
1.057449928673087
 40
1.138714535893316
 40
1.218398644003506
 40
1.36093802187036
 40
1.461730374800257
 40
1.516014844108008
 40
1.593124329220501
 40
1.648806818593631
 40
1.729472362005518
 40
1.775122082164342
 40
1.874460993765092
 40
1.919820003751207
 40
1.919820003751207
 40
1.919820003751207
 40
1.919820003751207
 10
325.0301103976807
 20
294.0837540285559
 10
324.9492550069221
 20
294.0789300572908
 10
324.8142731928561
 20
294.0708768107941
 10
324.6660639821444
 20
293.9808413069357
 10
324.5574772377342
 20
293.9284986215933
 10
324.4800333033099
 20
293.8573432001737
 10
324.4232665854424
 20
293.7838448476524
 10
324.3517014807448
 20
293.696272099527
 10
324.2933421828391
 20
293.5942971780625
 10
324.2636233403058
 20
293.4819030369992
 10
324.2372986716521
 20
293.3923242544401
 10
324.2177758566791
 20
293.2925003915478
 10
324.2227430134922
 20
293.1846555034255
 10
324.2298562093765
 20
293.0844946924217
 10
324.2616148993006
 20
293.0129948694951
 10
324.2977824216906
 20
292.9620919225656
 10
324.3420690575454
 20
292.906027969867
 10
324.390528321863
 20
292.8688969955366
 10
324.4306080889734
 20
292.801631740396
 10
324.5007663692359
 20
292.7930482087199
 10
324.5453617633117
 20
292.775964418843
 10
324.5593412517732
 20
292.7706090979985
 72
     1
 10
324.5593412517731
 20
292.7706090979985
 11
325.6903702667778
 21
292.7706090979985
 72
     1
 10
325.6903702667778
 20
292.7706090979985
 11
325.9339869874566
 21
293.2591789763391
 72
     1
 10
325.9339869874566
 20
293.2591789763391
 11
325.0943059665845
 21
293.2591789763391
 72
     4
 94
        3
 73
     0
 74
     0
 95
       16
 96
       12
 40
0.0
 40
0.0
 40
0.0
 40
0.0
 40
0.0719416665231651
 40
0.1446253590759065
 40
0.1879779149910977
 40
0.2295440936104405
 40
0.2751936323958134
 40
0.3070718656052443
 40
0.3373215422372259
 40
0.3986635435212919
 40
0.5242542460842631
 40
0.5242542460842631
 40
0.5242542460842631
 40
0.5242542460842631
 10
325.0943059665845
 20
293.2591789763391
 10
325.0689782279128
 20
293.2666307684276
 10
325.0180615133438
 20
293.281611212427
 10
325.0138001954962
 20
293.3542309015643
 10
325.0196056245578
 20
293.4059783725234
 10
325.0439187744352
 20
293.4436535532396
 10
325.0734148422957
 20
293.4710672042751
 10
325.0843975365474
 20
293.5067691984574
 10
325.1166801656714
 20
293.5337286707738
 10
325.1739259170627
 20
293.5790437777496
 10
325.2372298082739
 20
293.5886948830352
 10
325.2797605158953
 20
293.5951789763391
 72
     1
 10
325.2797605158953
 20
293.5951789763391
 11
326.1015274392464
 21
293.5951789763391
 97
        8
330
ED9
330
ED6
330
ED2
330
ED8
330
ED5
330
ED7
330
ED4
330
ED3
 75
     0
 76
     1
 47
0.0514683685270805
 98
        1
 10
325.4900272948877
 20
293.791432572209
450
        0
451
        0
460
0.0
461
0.0
452
        0
462
0.0
453
        0
470

  0
HATCH
  5
EF0
330
18
100
AcDbEntity
  8
ROGO
 62
     4
100
AcDbHatch
 10
0.0
 20
0.0
 30
0.0
210
0.0
220
0.0
230
1.0
  2
SOLID
 70
     1
 71
     1
 91
        1
 92
        5
 93
        8
 72
     4
 94
        3
 73
     0
 74
     0
 95
       26
 96
       22
 40
0.0
 40
0.0
 40
0.0
 40
0.0
 40
0.2382195346591896
 40
0.397689067266058
 40
0.5126795869787176
 40
0.5985392873135238
 40
0.7099038249250041
 40
0.7911890807494602
 40
0.9379713068544059
 40
1.057449928673177
 40
1.138714535893296
 40
1.218398644003487
 40
1.36093802187034
 40
1.461730374800238
 40
1.51601484410804
 40
1.593124329220486
 40
1.648806818593696
 40
1.729472362005543
 40
1.775122082164332
 40
1.874460993765135
 40
1.919820003751196
 40
1.919820003751196
 40
1.919820003751196
 40
1.919820003751196
 10
329.2611801686086
 20
294.0837540285559
 10
329.1803247778499
 20
294.0789300572908
 10
329.045342963784
 20
294.0708768107942
 10
328.8971337530723
 20
293.9808413069357
 10
328.788547008662
 20
293.9284986215933
 10
328.7111030742378
 20
293.8573432001737
 10
328.6543363563703
 20
293.7838448476524
 10
328.5827712516726
 20
293.696272099527
 10
328.5244119537668
 20
293.5942971780624
 10
328.4946931112336
 20
293.481903036999
 10
328.46836844258
 20
293.3923242544403
 10
328.4488456276069
 20
293.2925003915477
 10
328.4538127844198
 20
293.1846555034256
 10
328.4609259803044
 20
293.0844946924217
 10
328.4926846702283
 20
293.012994869495
 10
328.5288521926186
 20
292.9620919225657
 10
328.5731388284732
 20
292.9060279698669
 10
328.6215980927908
 20
292.8688969955367
 10
328.6616778599014
 20
292.8016317403961
 10
328.7318361401639
 20
292.79304820872
 10
328.7764315342396
 20
292.7759644188429
 10
328.7904110227011
 20
292.7706090979985
 72
     1
 10
328.7904110227008
 20
292.7706090979985
 11
329.9214400377057
 21
292.7706090979985
 72
     1
 10
329.9214400377057
 20
292.7706090979985
 11
330.1650567583845
 21
293.2591789763391
 72
     1
 10
330.1650567583845
 20
293.2591789763391
 11
329.3253757375122
 21
293.2591789763391
 72
     4
 94
        3
 73
     0
 74
     0
 95
       16
 96
       12
 40
0.0
 40
0.0
 40
0.0
 40
0.0
 40
0.0719416665231652
 40
0.1446253590759511
 40
0.1879779149910863
 40
0.229544093610429
 40
0.2751936323958108
 40
0.3070718656052417
 40
0.3373215422371831
 40
0.3986635435213285
 40
0.5242542460842448
 40
0.5242542460842448
 40
0.5242542460842448
 40
0.5242542460842448
 10
329.3253757375123
 20
293.259178976339
 10
329.3000479988406
 20
293.2666307684276
 10
329.2491312842715
 20
293.2816112124269
 10
329.244869966424
 20
293.3542309015642
 10
329.2506753954857
 20
293.4059783725234
 10
329.2749885453631
 20
293.4436535532395
 10
329.3044846132235
 20
293.4710672042752
 10
329.3154673074752
 20
293.5067691984573
 10
329.3477499365993
 20
293.5337286707738
 10
329.4049956879903
 20
293.5790437777495
 10
329.4682995792017
 20
293.588694883035
 10
329.5108302868231
 20
293.5951789763391
 72
     1
 10
329.5108302868231
 20
293.5951789763391
 11
330.3325972101742
 21
293.5951789763391
 72
     1
 10
330.3325972101742
 20
293.5951789763391
 11
330.5762165107149
 21
294.083754028556
 72
     1
 10
330.5762165107149
 20
294.083754028556
 11
329.2611801686088
 21
294.083754028556
 97
        8
330
EDB
330
EDD
330
EDA
330
EDE
330
EDF
330
EDC
330
EE0
330
EE1
 75
     0
 76
     1
 47
0.0514683685270805
 98
        1
 10
329.4880975982934
 20
293.8433127253769
450
        0
451
        0
460
0.0
461
0.0
452
        0
462
0.0
453
        0
470

  0
HATCH
  5
EF1
330
18
100
AcDbEntity
  8
ROGO
 62
     4
100
AcDbHatch
 10
0.0
 20
0.0
 30
0.0
210
0.0
220
0.0
230
1.0
  2
SOLID
 70
     1
 71
     0
 91
        1
 92
        7
 72
     0
 73
     1
 93
        4
 10
317.7418690750061
 20
292.2375454499412
 10
317.6488180395841
 20
292.03187524365
 10
329.8281106081672
 20
292.0318752436499
 10
329.9306644155533
 20
292.2375454499412
 97
        0
 75
     0
 76
     1
 47
0.0514683685270805
 98
        1
 10
325.4381043358943
 20
292.1831489857364
450
        0
451
        0
460
0.0
461
0.0
452
        0
462
0.0
453
        0
470

  0
HATCH
  5
EF2
330
18
100
AcDbEntity
  8
ROGO
 62
     4
100
AcDbHatch
 10
0.0
 20
0.0
 30
0.0
210
0.0
220
0.0
230
1.0
  2
SOLID
 70
     1
 71
     1
 91
        1
 92
        7
 72
     0
 73
     1
 93
       11
 10
329.8281106081672
 20
292.03187524365
 10
330.5841943506714
 20
292.03187524365
 10
330.851243639837
 20
292.5674388057695
 10
331.1182929290027
 20
292.03187524365
 10
331.8743601290027
 20
292.03187524365
 10
331.3627936131678
 20
293.057814636103
 10
332.605702358499
 20
294.0837540285559
 10
331.8496351584991
 20
294.0837540285559
 10
331.4956220754203
 20
293.8597306197343
 10
331.6073273823412
 20
294.0837540285559
 10
330.8512436398369
 20
294.0837540285559
 97
       11
330
EEA
330
EE5
330
EE4
330
EE2
330
EE3
330
EB6
330
EE8
330
EE6
330
EEB
330
EE7
330
EE9
 75
     0
 76
     1
 47
0.0514683685270805
 98
        1
 10
330.7861723934331
 20
293.2034580451144
450
        0
451
        0
460
0.0
461
0.0
452
        0
462
0.0
453
        0
470

  0
HATCH
  5
EF3
330
18
100
AcDbEntity
  8
ROGO
 62
     4
100
AcDbHatch
 10
0.0
 20
0.0
 30
0.0
210
0.0
220
0.0
230
1.0
  2
SOLID
 70
     1
 71
     1
 91
        2
 92
        5
 93
        6
 72
     1
 10
316.6950170836476
 20
292.03187524365
 11
317.648818039584
 21
292.0318752436499
 72
     1
 10
317.648818039584
 20
292.0318752436499
 11
317.9830421904126
 21
292.7706090979985
 72
     1
 10
317.9830421904126
 20
292.7706090979985
 11
318.8746504585848
 21
292.7706090979985
 72
     4
 94
        3
 73
     0
 74
     0
 95
       18
 96
       14
 40
0.108740278791501
 40
0.108740278791501
 40
0.108740278791501
 40
0.108740278791501
 40
0.6623149649549278
 40
1.384304701649787
 40
2.097394834876493
 40
2.774073369849618
 40
3.428974823686337
 40
4.005208313035923
 40
4.455173659284313
 40
4.720999734343524
 40
5.086034088486724
 40
5.569973738255373
 40
6.060470601257719
 40
6.060470601257719
 40
6.060470601257719
 40
6.060470601257719
 10
318.8746504585847
 20
292.7706090979985
 10
318.9374003754794
 20
292.7710763776296
 10
319.081990732533
 20
292.7721530982381
 10
319.2842715106402
 20
292.8802159347335
 10
319.4760914837332
 20
293.0178801150753
 10
319.6305894228146
 20
293.1898771458771
 10
319.7268462936908
 20
293.3865262833978
 10
319.7417561787379
 20
293.5749964189696
 10
319.7326540602269
 20
293.724073953126
 10
319.6676148516839
 20
293.8279846954288
 10
319.5999986577592
 20
293.9334434726016
 10
319.476013422212
 20
294.024795782393
 10
319.3744254743615
 20
294.0648216737082
 10
319.3227659367254
 20
294.083754028556
 72
     1
 10
319.3227659367256
 20
294.0837540285559
 11
317.7102676237402
 21
294.0837540285559
 72
     1
 10
317.7102676237402
 20
294.0837540285559
 11
316.6950170836476
 21
292.03187524365
 97
        6
330
EB8
330
EB5
330
EB7
330
EB6
330
EBE
330
EB9
 92
       20
 93
        4
 72
     1
 10
318.1894066827227
 20
293.2267354324572
 11
318.3474044790802
 21
293.5759571173426
 72
     1
 10
318.3474044790802
 20
293.5759571173426
 11
318.7533914781775
 21
293.5759571173426
 72
     4
 94
        3
 73
     0
 74
     0
 95
       15
 96
       11
 40
0.0
 40
0.0
 40
0.0
 40
0.0
 40
0.1539705029175028
 40
0.2241725832587281
 40
0.3038566179396687
 40
0.3581410872474193
 40
0.443992538467216
 40
0.4954152125469665
 40
0.5836396705646186
 40
0.6130478420065743
 40
0.6130478420065743
 40
0.6130478420065743
 40
0.6130478420065743
 10
318.7533914781775
 20
293.5759571173426
 10
318.8112198132368
 20
293.576222001985
 10
318.8954146882949
 20
293.5766076594547
 10
318.9414554446594
 20
293.4724583555252
 10
318.920817782426
 20
293.4054024508878
 10
318.8948745590018
 20
293.3365569366399
 10
318.8490270074594
 20
293.2897753713707
 10
318.7874928778644
 20
293.2447168377337
 10
318.7293401848086
 20
293.2392623004741
 10
318.691518385836
 20
293.22924080702
 10
318.6820629315668
 20
293.2267354324572
 72
     1
 10
318.6820629315668
 20
293.2267354324572
 11
318.1894066827227
 21
293.2267354324572
 97
        4
330
EBA
330
EBC
330
EBB
330
EBD
 75
     0
 76
     1
 47
0.0514683685270805
 98
        2
 10
317.7188861770472
 20
293.445565271667
 10
317.7188861770472
 20
293.445565271667
450
        0
451
        0
460
0.0
461
0.0
452
        0
462
0.0
453
        0
470

  0
LINE
  5
EF4
102
{ACAD_REACTORS
330
EF7
102
}
330
18
100
AcDbEntity
  8
ROGO
 62
     4
100
AcDbLine
 10
323.6163708263841
 20
294.0837540285559
 30
0.0
 11
324.1997218367674
 21
292.7706090979985
 31
0.0
  0
LINE
  5
EF5
102
{ACAD_REACTORS
330
EF7
102
}
330
18
100
AcDbEntity
  8
ROGO
 62
     4
100
AcDbLine
 10
323.0400952002444
 20
293.7327450516042
 30
0.0
 11
323.2393025859698
 21
293.2843217797853
 31
0.0
  0
LINE
  5
EF6
102
{ACAD_REACTORS
330
EF7
102
}
330
18
100
AcDbEntity
  8
ROGO
 62
     4
100
AcDbLine
 10
323.3564476915703
 20
293.0206237680892
 30
0.0
 11
323.4675141146392
 21
292.7706090979985
 31
0.0
  0
HATCH
  5
EF7
330
18
100
AcDbEntity
  8
ROGO
 62
     4
100
AcDbHatch
 10
0.0
 20
0.0
 30
0.0
210
0.0
220
0.0
230
1.0
  2
SOLID
 70
     1
 71
     1
 91
        2
 92
        7
 72
     0
 73
     1
 93
        8
 10
323.6163708263841
 20
294.083754028556
 10
322.5659673436126
 20
294.0837540285559
 10
321.6190330135134
 20
292.7706090979984
 10
322.3462802652051
 20
292.7706090979985
 10
322.526570702786
 20
293.0206237680892
 10
323.3564476915703
 20
293.0206237680893
 10
323.4675141146393
 20
292.7706090979985
 10
324.1997218367674
 20
292.7706090979985
 97
        8
330
ED0
330
ECA
330
ECF
330
ECE
330
ECC
330
EF6
330
ED1
330
EF4
 92
       22
 72
     0
 73
     1
 93
        3
 10
323.2393025859698
 20
293.2843217797854
 10
322.7167284639311
 20
293.2843217797854
 10
323.0400952002444
 20
293.7327450516043
 97
        3
330
ECD
330
ECB
330
EF5
 75
     0
 76
     1
 47
0.0128389261915577
 98
        2
 10
323.5341159338883
 20
293.7687121117469
 10
323.5341159338883
 20
293.7687121117469
450
        0
451
        0
460
0.0
461
0.0
452
        0
462
0.0
453
        0
470

  0
SPLINE
  5
EF8
102
{ACAD_REACTORS
330
EFF
102
}
330
18
100
AcDbEntity
  8
ROGO
 62
     4
100
AcDbSpline
210
0.0
220
0.0
230
1.0
 70
     8
 71
     3
 72
    38
 73
    34
 74
    32
 42
0.0000000001
 43
0.0000000001
 44
0.0000000001
 40
0.0
 40
0.0
 40
0.0
 40
0.0
 40
0.1807680148264315
 40
0.2375392910068956
 40
0.3104865209606157
 40
0.3712759982447458
 40
0.422566754387306
 40
0.490692583720658
 40
0.5255021974951946
 40
0.5647069597052371
 40
0.622487401681883
 40
0.6879401044674746
 40
0.7303986317551266
 40
0.7765228362185534
 40
0.8277951442290254
 40
0.9056034697002209
 40
0.9795294930264187
 40
1.013897332332996
 40
1.053089255536027
 40
1.099518741889647
 40
1.132570569820733
 40
1.160277520290299
 40
1.19983678629386
 40
1.243305643169139
 40
1.286774258016964
 40
1.324809356515675
 40
1.411916492917645
 40
1.446284332224223
 40
1.5150200516612
 40
1.575779369908399
 40
1.69209852953623
 40
1.835624328519098
 40
2.042896467983898
 40
2.042896467983898
 40
2.042896467983898
 40
2.042896467983898
 10
327.0743720598298
 20
294.0892312477282
 30
0.0
 10
327.0141166622041
 20
294.0849746286274
 30
0.0
 10
326.934937696583
 20
294.0793811928402
 30
0.0
 10
326.8343989240734
 20
294.0518365666353
 30
0.0
 10
326.7795941696324
 20
294.0190220471773
 30
0.0
 10
326.7225588683153
 20
293.9949018024768
 30
0.0
 10
326.6739309619301
 20
293.9591845032276
 30
0.0
 10
326.6247448612344
 20
293.9407797230342
 30
0.0
 10
326.5903032478585
 20
293.9075926146616
 30
0.0
 10
326.5504398897256
 20
293.8873204964866
 30
0.0
 10
326.5186959898902
 20
293.8419456024722
 30
0.0
 10
326.4832153133586
 20
293.7995217208138
 30
0.0
 10
326.4420532649513
 20
293.7685541792363
 30
0.0
 10
326.4082710193921
 20
293.736029200274
 30
0.0
 10
326.3772805064676
 20
293.68583338509
 30
0.0
 10
326.3589389338966
 20
293.6191380104045
 30
0.0
 10
326.3072371194872
 20
293.5770289561193
 30
0.0
 10
326.2994524450042
 20
293.5264013084431
 30
0.0
 10
326.2708545948084
 20
293.4965318482524
 30
0.0
 10
326.2584192493525
 20
293.4579746662675
 30
0.0
 10
326.2536832712287
 20
293.4226494769466
 30
0.0
 10
326.2479989681863
 20
293.3896581955185
 30
0.0
 10
326.2331299079538
 20
293.3549528247807
 30
0.0
 10
326.2379832205152
 20
293.3120825458457
 30
0.0
 10
326.2366006574729
 20
293.2705698318191
 30
0.0
 10
326.2374142974463
 20
293.2145263752077
 30
0.0
 10
326.2344777581003
 20
293.1599611782882
 30
0.0
 10
326.2578955086153
 20
293.1005813021198
 30
0.0
 10
326.2717533562181
 20
293.0476523574533
 30
0.0
 10
326.3097053261617
 20
292.9743658152018
 30
0.0
 10
326.3751716789796
 20
292.8898089914928
 30
0.0
 10
326.4996614249971
 20
292.7871730281999
 30
0.0
 10
326.6193619555564
 20
292.7767610874827
 30
0.0
 10
326.6900880982867
 20
292.7706090979985
 30
0.0
 11
327.0743720598298
 21
294.0892312477282
 31
0.0
 11
326.8949154228825
 21
294.0674966982768
 31
0.0
 11
326.8405346367543
 21
294.0511961492295
 31
0.0
 11
326.7752779497464
 21
294.0185945670799
 31
0.0
 11
326.7208971636182
 21
293.9914267433069
 31
0.0
 11
326.6773927056129
 21
293.9642586775064
 31
0.0
 11
326.6175739690448
 21
293.9316573373842
 31
0.0
 11
326.5903833623592
 21
293.9099230299603
 31
0.0
 11
326.5577548052337
 21
293.8881884805089
 31
0.0
 11
326.5196882976683
 21
293.8447198656611
 31
0.0
 11
326.4761838396629
 21
293.7958177344642
 31
0.0
 11
326.4435552825374
 21
293.7686496686637
 31
0.0
 11
326.410927152655
 21
293.7360483285415
 31
0.0
 11
326.3837365459693
 21
293.6925797136937
 31
0.0
 11
326.351108416087
 21
293.6219430330454
 31
0.0
 11
326.3076035308385
 21
293.5621736271228
 31
0.0
 11
326.2967276299587
 21
293.5295720449732
 31
0.0
 11
326.2749754009561
 21
293.4969707048509
 31
0.0
 11
326.2586611223933
 21
293.4535018479757
 31
0.0
 11
326.2532227447104
 21
293.4209005078535
 31
0.0
 11
326.2477847942705
 21
293.3937324420531
 31
0.0
 11
326.2369088933906
 21
293.3556975855818
 31
0.0
 11
326.2369088933906
 21
293.3122287287065
 31
0.0
 11
326.2369088933906
 21
293.2687601138587
 31
0.0
 11
326.2369088933906
 21
293.2307250153599
 31
0.0
 11
326.2423468438306
 21
293.1437877856642
 31
0.0
 11
326.2532227447104
 21
293.1111862035146
 31
0.0
 11
326.2749754009561
 21
293.0459832812429
 31
0.0
 11
326.3021655803986
 21
292.9916473916694
 31
0.0
 11
326.3728606450895
 21
292.8992766456246
 31
0.0
 11
326.4870601677858
 21
292.8123391739015
 31
0.0
 11
326.6900880982867
 21
292.7706090979985
 31
0.0
  0
SPLINE
  5
EF9
102
{ACAD_REACTORS
330
EFF
102
}
330
18
100
AcDbEntity
  8
ROGO
 62
     4
100
AcDbSpline
210
0.0
220
0.0
230
1.0
 70
     8
 71
     3
 72
    25
 73
    21
 74
     0
 42
0.0000000001
 43
0.0000000001
 40
0.0
 40
0.0
 40
0.0
 40
0.0
 40
0.4087168505087288
 40
0.6887487002771746
 40
0.9415836120477687
 40
1.17452070575514
 40
1.41154617586699
 40
1.599156012919487
 40
1.80099909059943
 40
2.178735911501585
 40
2.521686161369157
 40
2.762704659361267
 40
3.06256558063785
 40
3.222432137207705
 40
3.399493810628493
 40
3.567459719866414
 40
3.743172740007509
 40
3.995988754699505
 40
4.17170091132118
 40
4.337226830236035
 40
4.337226830236035
 40
4.337226830236035
 40
4.337226830236035
 10
327.8248258830152
 20
294.0892312477282
 30
0.0
 10
327.8740459334407
 20
294.0876498582721
 30
0.0
 10
327.9569890411592
 20
294.0849849817661
 30
0.0
 10
328.0460386997804
 20
294.0153822923906
 30
0.0
 10
328.1141769205397
 20
293.9576763300756
 30
0.0
 10
328.1625422754003
 20
293.8879125237415
 30
0.0
 10
328.2049358640427
 20
293.8237684200643
 30
0.0
 10
328.2328700248119
 20
293.7560470053982
 30
0.0
 10
328.2708660024867
 20
293.6747875098614
 30
0.0
 10
328.2865944601339
 20
293.5660743774303
 30
0.0
 10
328.2759680167973
 20
293.4537093243847
 30
0.0
 10
328.2482379612998
 20
293.3541080406813
 30
0.0
 10
328.2191513625997
 20
293.2776962755371
 30
0.0
 10
328.1848693436824
 20
293.2111750935466
 30
0.0
 10
328.1440007963783
 20
293.1681026230475
 30
0.0
 10
328.1156478408393
 20
293.1133363967
 30
0.0
 10
328.0611854401221
 20
293.0685405638266
 30
0.0
 10
328.0170352803154
 20
293.0132687933726
 30
0.0
 10
327.9669340436758
 20
292.965828445034
 30
0.0
 10
327.9386867443718
 20
292.9365583218122
 30
0.0
 10
327.9237940869781
 20
292.9242515778666
 30
0.0
  0
LINE
  5
EFA
102
{ACAD_REACTORS
330
EFF
102
}
330
18
100
AcDbEntity
  8
ROGO
 62
     4
100
AcDbLine
 10
327.0743720598298
 20
294.0892312477282
 30
0.0
 11
327.8248258830152
 21
294.0892312477282
 31
0.0
  0
LINE
  5
EFB
102
{ACAD_REACTORS
330
EFF
102
}
330
18
100
AcDbEntity
  8
ROGO
 62
     4
100
AcDbLine
 10
326.6900880982867
 20
292.7706090979985
 30
0.0
 11
327.440541921472
 21
292.7706090979985
 31
0.0
  0
SPLINE
  5
EFC
102
{ACAD_REACTORS
330
EFF
102
}
330
18
100
AcDbEntity
  8
ROGO
 62
     4
100
AcDbSpline
210
0.0
220
0.0
230
1.0
 70
     8
 71
     3
 72
    11
 73
     7
 74
     0
 42
0.0000000001
 43
0.0000000001
 40
0.1647869275458134
 40
0.1647869275458134
 40
0.1647869275458134
 40
0.1647869275458134
 40
0.2895635144633836
 40
0.5387013147903714
 40
0.7953622617455423
 40
0.8850764140209602
 40
0.8850764140209602
 40
0.8850764140209602
 40
0.8850764140209602
 10
327.69055938009
 20
292.7998855449071
 30
0.0
 10
327.6765808372892
 20
292.7959946121906
 30
0.0
 10
327.633239825855
 20
292.7890670224067
 30
0.0
 10
327.5605410587169
 20
292.7795546280333
 30
0.0
 10
327.4914445166205
 20
292.7696280974487
 30
0.0
 10
327.451013821792
 20
292.7704072823555
 30
0.0
 10
327.440541921472
 20
292.7706090979985
 30
0.0
  0
SPLINE
  5
EFD
102
{ACAD_REACTORS
330
EFF
102
}
330
18
100
AcDbEntity
  8
ROGO
 62
     4
100
AcDbSpline
210
0.0
220
0.0
230
1.0
 70
     8
 71
     3
 72
     9
 73
     5
 74
     3
 42
0.0000000001
 43
0.0000000001
 44
0.0000000001
 40
0.0
 40
0.0
 40
0.0
 40
0.0
 40
0.1135793343552172
 40
0.2662938392177403
 40
0.2662938392177403
 40
0.2662938392177403
 40
0.2662938392177403
 10
327.69055938009
 20
292.7998855449071
 30
0.0
 10
327.727044348408
 20
292.8110478846303
 30
0.0
 10
327.8125856340854
 20
292.8372186868842
 30
0.0
 10
327.8832623313222
 20
292.8925310046587
 30
0.0
 10
327.9237940869781
 20
292.9242515778666
 30
0.0
 11
327.69055938009
 21
292.7998855449071
 31
0.0
 11
327.7973101443147
 21
292.8386739391768
 31
0.0
 11
327.9237940869781
 21
292.9242515778666
 31
0.0
  0
ELLIPSE
  5
EFE
102
{ACAD_REACTORS
330
EFF
102
}
330
18
100
AcDbEntity
  8
ROGO
 62
     4
100
AcDbEllipse
 10
327.2468304544605
 20
293.4115352555092
 30
0.0
 11
0.1782847090673272
 21
0.1567790921840611
 31
0.0
210
0.0
220
0.0
230
1.0
 40
0.6788083417438792
 41
0.0
 42
6.283185307179586
  0
HATCH
  5
EFF
330
18
100
AcDbEntity
  8
ROGO
 62
     4
100
AcDbHatch
 10
0.0
 20
0.0
 30
0.0
210
0.0
220
0.0
230
1.0
  2
SOLID
 70
     1
 71
     1
 91
        2
 92
        5
 93
        6
 72
     4
 94
        3
 73
     0
 74
     0
 95
       38
 96
       34
 40
0.0
 40
0.0
 40
0.0
 40
0.0
 40
0.1807680148264315
 40
0.2375392910068956
 40
0.3104865209606157
 40
0.3712759982447458
 40
0.422566754387306
 40
0.490692583720658
 40
0.5255021974951946
 40
0.5647069597052371
 40
0.622487401681883
 40
0.6879401044674746
 40
0.7303986317551266
 40
0.7765228362185534
 40
0.8277951442290254
 40
0.9056034697002209
 40
0.9795294930264187
 40
1.013897332332996
 40
1.053089255536027
 40
1.099518741889647
 40
1.132570569820733
 40
1.160277520290299
 40
1.19983678629386
 40
1.243305643169139
 40
1.286774258016964
 40
1.324809356515675
 40
1.411916492917645
 40
1.446284332224223
 40
1.5150200516612
 40
1.575779369908399
 40
1.69209852953623
 40
1.835624328519098
 40
2.042896467983898
 40
2.042896467983898
 40
2.042896467983898
 40
2.042896467983898
 10
327.0743720598298
 20
294.0892312477282
 10
327.0141166622041
 20
294.0849746286274
 10
326.934937696583
 20
294.0793811928402
 10
326.8343989240734
 20
294.0518365666353
 10
326.7795941696324
 20
294.0190220471773
 10
326.7225588683153
 20
293.9949018024768
 10
326.6739309619301
 20
293.9591845032276
 10
326.6247448612344
 20
293.9407797230342
 10
326.5903032478585
 20
293.9075926146616
 10
326.5504398897256
 20
293.8873204964866
 10
326.5186959898902
 20
293.8419456024722
 10
326.4832153133586
 20
293.7995217208138
 10
326.4420532649513
 20
293.7685541792363
 10
326.4082710193921
 20
293.736029200274
 10
326.3772805064676
 20
293.68583338509
 10
326.3589389338966
 20
293.6191380104045
 10
326.3072371194872
 20
293.5770289561193
 10
326.2994524450042
 20
293.5264013084431
 10
326.2708545948084
 20
293.4965318482524
 10
326.2584192493525
 20
293.4579746662675
 10
326.2536832712287
 20
293.4226494769466
 10
326.2479989681863
 20
293.3896581955185
 10
326.2331299079538
 20
293.3549528247807
 10
326.2379832205152
 20
293.3120825458457
 10
326.2366006574729
 20
293.2705698318191
 10
326.2374142974463
 20
293.2145263752077
 10
326.2344777581003
 20
293.1599611782882
 10
326.2578955086153
 20
293.1005813021198
 10
326.2717533562181
 20
293.0476523574533
 10
326.3097053261617
 20
292.9743658152018
 10
326.3751716789796
 20
292.8898089914928
 10
326.4996614249971
 20
292.7871730281999
 10
326.6193619555564
 20
292.7767610874827
 10
326.6900880982867
 20
292.7706090979985
 72
     1
 10
326.6900880982867
 20
292.7706090979985
 11
327.4405419214731
 21
292.7706090979985
 72
     4
 94
        3
 73
     0
 74
     0
 95
       11
 96
        7
 40
0.1647869275458135
 40
0.1647869275458135
 40
0.1647869275458135
 40
0.1647869275458135
 40
0.2545010798212315
 40
0.5111620267764023
 40
0.7602998271033902
 40
0.8850764140209603
 40
0.8850764140209603
 40
0.8850764140209603
 40
0.8850764140209603
 10
327.440541921472
 20
292.7706090979985
 10
327.451013821792
 20
292.7704072823555
 10
327.4914445166205
 20
292.7696280974487
 10
327.5605410587169
 20
292.7795546280333
 10
327.633239825855
 20
292.7890670224067
 10
327.6765808372892
 20
292.7959946121906
 10
327.69055938009
 20
292.7998855449071
 72
     4
 94
        3
 73
     0
 74
     0
 95
        9
 96
        5
 40
0.0
 40
0.0
 40
0.0
 40
0.0
 40
0.1135793343552172
 40
0.2662938392177403
 40
0.2662938392177403
 40
0.2662938392177403
 40
0.2662938392177403
 10
327.69055938009
 20
292.7998855449071
 10
327.727044348408
 20
292.8110478846303
 10
327.8125856340854
 20
292.8372186868842
 10
327.8832623313222
 20
292.8925310046587
 10
327.9237940869781
 20
292.9242515778666
 72
     4
 94
        3
 73
     0
 74
     0
 95
       25
 96
       21
 40
0.0
 40
0.0
 40
0.0
 40
0.0
 40
0.165525918914855
 40
0.3412380755365305
 40
0.5940540902285263
 40
0.7697671103696209
 40
0.9377330196075423
 40
1.11479469302833
 40
1.274661249598185
 40
1.574522170874768
 40
1.815540668866877
 40
2.15849091873445
 40
2.536227739636605
 40
2.738070817316548
 40
2.925680654369045
 40
3.162706124480894
 40
3.395643218188267
 40
3.648478129958861
 40
3.928509979727306
 40
4.337226830236035
 40
4.337226830236035
 40
4.337226830236035
 40
4.337226830236035
 10
327.9237940869781
 20
292.9242515778666
 10
327.9386867443718
 20
292.9365583218122
 10
327.9669340436758
 20
292.965828445034
 10
328.0170352803154
 20
293.0132687933726
 10
328.0611854401221
 20
293.0685405638266
 10
328.1156478408393
 20
293.1133363967
 10
328.1440007963783
 20
293.1681026230475
 10
328.1848693436824
 20
293.2111750935466
 10
328.2191513625997
 20
293.2776962755371
 10
328.2482379612998
 20
293.3541080406813
 10
328.2759680167973
 20
293.4537093243847
 10
328.2865944601339
 20
293.5660743774303
 10
328.2708660024867
 20
293.6747875098614
 10
328.2328700248119
 20
293.7560470053982
 10
328.2049358640427
 20
293.8237684200643
 10
328.1625422754003
 20
293.8879125237415
 10
328.1141769205397
 20
293.9576763300756
 10
328.0460386997804
 20
294.0153822923906
 10
327.9569890411592
 20
294.0849849817661
 10
327.8740459334407
 20
294.0876498582721
 10
327.8248258830152
 20
294.0892312477282
 72
     1
 10
327.8248258830152
 20
294.0892312477282
 11
327.0743720598297
 21
294.0892312477282
 97
        6
330
EF9
330
EFA
330
EF8
330
EFB
330
EFC
330
EFD
 92
       20
 93
        1
 72
     3
 10
327.2468304544605
 20
293.4115352555092
 11
0.1782847090673273
 21
0.1567790921840611
 40
0.6788083417438792
 50
0.0
 51
360.0
 73
     1
 97
        1
330
EFE
 75
     0
 76
     1
 47
0.088756267210375
 98
        2
 10
327.2992617302291
 20
293.7250225258333
 10
327.2992617302291
 20
293.7250225258333
450
        0
451
        0
460
0.0
461
0.0
452
        0
462
0.0
453
        0
470

  0
LINE
  5
F4B
330
18
100
AcDbEntity
  8
外形線
100
AcDbLine
 10
402.5193285517135
 20
309.4412136918132
 30
0.0
 11
414.0193285517136
 21
309.4412136918132
 31
0.0
  0
LINE
  5
F4C
330
18
100
AcDbEntity
  8
外形線
100
AcDbLine
 10
402.5193285517135
 20
260.6412136918133
 30
0.0
 11
414.0193285517135
 21
260.6412136918133
 31
0.0
  0
POINT
  5
F84
330
18
100
AcDbEntity
  8
DEFPOINTS
  6
ByBlock
 62
     0
100
AcDbPoint
 10
414.0193285517136
 20
309.4412136918132
 30
0.0
  0
TEXT
  5
F94
330
18
100
AcDbEntity
  8
文字
100
AcDbText
 10
317.1503982879727
 20
274.1227050102666
 30
0.0
 40
1.0
  1
5
  7
STYLE3
100
AcDbText
  0
LINE
  5
F9F
330
18
100
AcDbEntity
  8
外形線
  6
Continuous
100
AcDbLine
 10
414.5193285517136
 20
308.3412136918133
 30
0.0
 11
414.5193285517136
 21
261.7412136918133
 31
0.0
  0
POINT
  5
FB5
330
18
100
AcDbEntity
  8
DEFPOINTS
  6
ByBlock
 62
     0
100
AcDbPoint
 10
414.5193285517136
 20
308.3412136918133
 30
0.0
  0
LINE
  5
FC0
330
18
100
AcDbEntity
  8
中心線
 48
0.5
100
AcDbLine
 10
427.5193285517136
 20
294.0002882880445
 30
0.0
 11
427.5193285517136
 21
251.8370865073564
 31
0.0
  0
CIRCLE
  5
FC1
330
18
100
AcDbEntity
  8
外形線
100
AcDbCircle
 10
427.5193285517135
 20
285.0412136918133
 30
0.0
 40
3.25
  0
ARC
  5
FC2
330
18
100
AcDbEntity
  8
外形線
100
AcDbCircle
 10
427.5193285517135
 20
285.0412136918133
 30
0.0
 40
7.0
100
AcDbArc
 50
270.0
 51
89.99999999999907
  0
ARC
  5
FC4
330
18
100
AcDbEntity
  8
外形線
100
AcDbCircle
 10
143.5743285517132
 20
285.0412136918133
 30
0.0
 40
271.9450000000004
100
AcDbArc
 50
355.0849237036459
 51
4.91507629635414
  0
LINE
  5
FCC
330
18
100
AcDbEntity
  8
外形線
100
AcDbLine
 10
415.2084262364483
 20
298.0412136918133
 30
0.0
 11
415.7084262364483
 21
298.0412136918133
 31
0.0
  0
LINE
  5
FCE
330
18
100
AcDbEntity
  8
外形線
100
AcDbLine
 10
416.5193285517136
 20
295.0412136918132
 30
0.0
 11
416.5193285517136
 21
285.0412136918133
 31
0.0
  0
ARC
  5
FD9
330
18
100
AcDbEntity
  8
外形線
100
AcDbCircle
 10
421.8723358245831
 20
298.0977294496976
 30
0.0
 40
6.164168674005503
100
AcDbArc
 50
180.5253197862973
 51
280.7237667757665
  0
LINE
  5
FDA
330
18
100
AcDbEntity
  8
外形線
100
AcDbLine
 10
423.0193285517136
 20
292.0412136918133
 30
0.0
 11
427.5193285517135
 21
292.0412136918132
 31
0.0
  0
ARC
  5
FDB
330
18
100
AcDbEntity
  8
外形線
100
AcDbCircle
 10
421.8723358245831
 20
271.9846979339289
 30
0.0
 40
6.164168674005503
100
AcDbArc
 50
79.27623322423349
 51
179.4746802137026
  0
LINE
  5
FDC
330
18
100
AcDbEntity
  8
外形線
100
AcDbLine
 10
415.2084262364483
 20
272.0412136918132
 30
0.0
 11
415.7084262364483
 21
272.0412136918132
 31
0.0
  0
LINE
  5
FDD
330
18
100
AcDbEntity
  8
外形線
100
AcDbLine
 10
423.0193285517136
 20
278.0412136918132
 30
0.0
 11
427.5193285517135
 21
278.0412136918132
 31
0.0
  0
LINE
  5
FDE
330
18
100
AcDbEntity
  8
外形線
100
AcDbLine
 10
416.5193285517136
 20
275.0412136918133
 30
0.0
 11
416.5193285517136
 21
285.0412136918133
 31
0.0
  0
LINE
  5
FEE
330
18
100
AcDbEntity
  8
0
  6
ByBlock
 62
     2
100
AcDbLine
 10
414.0193285517136
 20
309.4412136918132
 30
0.0
 11
414.0193285517136
 21
338.0600192205664
 31
0.0
  0
LINE
  5
FEF
330
18
100
AcDbEntity
  8
0
  6
ByBlock
 62
     2
100
AcDbLine
 10
410.0193285517135
 20
336.8100192205664
 30
0.0
 11
411.5193285517135
 21
336.8100192205664
 31
0.0
  0
INSERT
  5
FF0
330
18
100
AcDbEntity
  8
0
  6
ByBlock
 62
     2
100
AcDbBlockReference
  2
_OPEN
 10
407.5193285517135
 20
336.8100192205664
 30
0.0
 41
2.5
 42
2.5
 43
2.5
 50
180.0
  0
INSERT
  5
FF1
330
18
100
AcDbEntity
  8
0
  6
ByBlock
 62
     2
100
AcDbBlockReference
  2
_OPEN
 10
414.0193285517136
 20
336.8100192205664
 30
0.0
 41
2.5
 42
2.5
 43
2.5
  0
MTEXT
  5
FF2
330
18
100
AcDbEntity
  8
0
  6
ByBlock
 62
     6
100
AcDbMText
 10
410.7693285517135
 20
338.6850192205664
 30
0.0
 40
2.5
 41
0.0
 71
     5
 72
     1
  1
\A1;6.5
  7
STYLE3
 73
     1
 44
1.0
  0
POINT
  5
FF4
330
18
100
AcDbEntity
  8
DEFPOINTS
  6
ByBlock
 62
     0
100
AcDbPoint
 10
414.0193285517136
 20
309.4412136918132
 30
0.0
  0
POINT
  5
FF5
330
18
100
AcDbEntity
  8
DEFPOINTS
  6
ByBlock
 62
     0
100
AcDbPoint
 10
414.0193285517136
 20
336.8100192205664
 30
0.0
  0
LINE
  5
1009
330
18
100
AcDbEntity
  8
0
  6
ByBlock
 62
     1
100
AcDbLine
 10
415.5193285517132
 20
299.8807676413083
 30
0.0
 11
413.0193285517131
 21
299.8807676413083
 31
0.0
  0
LINE
  5
100A
330
18
100
AcDbEntity
  8
0
  6
ByBlock
 62
     1
100
AcDbLine
 10
425.5193285517136
 20
299.8807676413083
 30
0.0
 11
428.0193285517135
 21
299.8807676413083
 31
0.0
  0
LINE
  5
100B
330
18
100
AcDbEntity
  8
0
  6
ByBlock
 62
     1
100
AcDbLine
 10
418.0193285517132
 20
299.8807676413083
 30
0.0
 11
423.0193285517136
 21
299.8807676413083
 31
0.0
  0
INSERT
  5
100C
330
18
100
AcDbEntity
  8
0
  6
ByBlock
 62
     1
100
AcDbBlockReference
  2
_OPEN
 10
418.0193285517132
 20
299.8807676413083
 30
0.0
 41
2.5
 42
2.5
 43
2.5
  0
INSERT
  5
100D
330
18
100
AcDbEntity
  8
0
  6
ByBlock
 62
     1
100
AcDbBlockReference
  2
_OPEN
 10
423.0193285517136
 20
299.8807676413083
 30
0.0
 41
2.5
 42
2.5
 43
2.5
 50
180.0
  0
MTEXT
  5
100E
330
18
100
AcDbEntity
  8
0
  6
ByBlock
 62
     6
100
AcDbMText
 10
420.5193285517134
 20
301.7557676413082
 30
0.0
 40
2.5
 41
0.0
 71
     5
 72
     1
  1
\A1;5
  7
STYLE3
 73
     1
 44
1.0
  0
LINE
  5
1012
330
18
100
AcDbEntity
  8
想像線
 48
0.4
100
AcDbLine
 10
418.0193285517132
 20
293.2861485871534
 30
0.0
 11
418.0193285517132
 21
276.7962787964731
 31
0.0
  0
LINE
  5
1013
330
18
100
AcDbEntity
  8
想像線
 48
0.4
100
AcDbLine
 10
423.0193285517136
 20
292.0412136918133
 30
0.0
 11
423.0193285517136
 21
278.0412136918132
 31
0.0
  0
LINE
  5
103B
330
18
100
AcDbEntity
  8
0
  6
ByBlock
 62
     2
100
AcDbLine
 10
416.5193285517136
 20
275.0412136918134
 30
0.0
 11
416.5193285517136
 21
264.0419773434378
 31
0.0
  0
LINE
  5
103D
330
18
100
AcDbEntity
  8
0
  6
ByBlock
 62
     2
100
AcDbLine
 10
419.0193285517135
 20
265.2919773434378
 30
0.0
 11
425.0193285517136
 21
265.2919773434378
 31
0.0
  0
INSERT
  5
103E
330
18
100
AcDbEntity
  8
0
  6
ByBlock
 62
     2
100
AcDbBlockReference
  2
_OPEN
 10
416.5193285517136
 20
265.2919773434378
 30
0.0
 41
2.5
 42
2.5
 43
2.5
 50
180.0
  0
INSERT
  5
103F
330
18
100
AcDbEntity
  8
0
  6
ByBlock
 62
     2
100
AcDbBlockReference
  2
_OPEN
 10
427.5193285517135
 20
265.2919773434378
 30
0.0
 41
2.5
 42
2.5
 43
2.5
  0
MTEXT
  5
1040
330
18
100
AcDbEntity
  8
0
  6
ByBlock
 62
     6
100
AcDbMText
 10
422.0193285517136
 20
267.1669773434378
 30
0.0
 40
2.5
 41
0.0
 71
     5
 72
     1
  1
\A1;11
  7
STYLE3
 73
     1
 44
1.0
  0
POINT
  5
1041
330
18
100
AcDbEntity
  8
DEFPOINTS
  6
ByBlock
 62
     0
100
AcDbPoint
 10
416.5193285517136
 20
275.0412136918134
 30
0.0
  0
LINE
  5
1046
330
18
100
AcDbEntity
  8
0
  6
ByBlock
 62
     2
100
AcDbLine
 10
425.0193285517136
 20
253.0870865073564
 30
0.0
 11
410.0193285517137
 21
253.0870865073564
 31
0.0
  0
INSERT
  5
1047
330
18
100
AcDbEntity
  8
0
  6
ByBlock
 62
     2
100
AcDbBlockReference
  2
_OPEN
 10
427.5193285517135
 20
253.0870865073564
 30
0.0
 41
2.5
 42
2.5
 43
2.5
  0
INSERT
  5
1048
330
18
100
AcDbEntity
  8
0
  6
ByBlock
 62
     2
100
AcDbBlockReference
  2
_OPEN
 10
407.5193285517136
 20
253.0870865073564
 30
0.0
 41
2.5
 42
2.5
 43
2.5
 50
180.0
  0
MTEXT
  5
1049
330
18
100
AcDbEntity
  8
0
  6
ByBlock
 62
     6
100
AcDbMText
 10
417.5193285517137
 20
254.9620865073564
 30
0.0
 40
2.5
 41
0.0
 71
     5
 72
     1
  1
\A1;20
  7
STYLE3
 73
     1
 44
1.0
  0
LINE
  5
111C
330
18
100
AcDbEntity
  8
寸法線
100
AcDbLine
 10
423.0193285517132
 20
292.0412136918132
 30
0.0
 11
423.0193285517132
 21
301.1307676413082
 31
0.0
  0
LINE
  5
111D
330
18
100
AcDbEntity
  8
寸法線
100
AcDbLine
 10
418.0193285517132
 20
293.2861485871534
 30
0.0
 11
418.0193285517131
 21
301.1307676413082
 31
0.0
  0
MTEXT
  5
1120
330
18
100
AcDbEntity
  8
寸法線
 62
     6
100
AcDbMText
 10
444.92856360125
 20
307.9203656262464
 30
0.0
 40
2.5
 41
0.0
 71
     4
 72
     1
  1
\A1;
  7
STYLE3
 73
     1
 44
1.0
  0
TEXT
  5
114D
330
18
100
AcDbEntity
  8
文字
100
AcDbText
 10
318.0994872371982
 20
290.1154627233046
 30
0.0
 40
1.0
  1
MADE  IN  JAPAN
  7
STYLE3
100
AcDbText
  0
TEXT
  5
114E
330
18
100
AcDbEntity
  8
文字
100
AcDbText
 10
322.281508550162
 20
288.0207806090176
 30
0.0
 40
1.0
  1
NO.57
  7
STYLE3
100
AcDbText
  0
TEXT
  5
1151
330
18
100
AcDbEntity
  8
文字
100
AcDbText
 10
324.4069694219848
 20
269.7498520466121
 30
0.0
 40
1.0
  1
S
  7
STYLE3
100
AcDbText
  0
TEXT
  5
1152
330
18
100
AcDbEntity
  8
文字
100
AcDbText
 10
325.2899373091728
 20
269.8186891705252
 30
0.0
 40
1.0
  1
H
 50
1.589821613340259
  7
STYLE3
100
AcDbText
  0
TEXT
  5
1153
330
18
100
AcDbEntity
  8
文字
100
AcDbText
 10
326.2417957712361
 20
269.9318441031617
 30
0.0
 40
1.0
  1
O
 50
1.760930144340787
  7
STYLE3
100
AcDbText
  0
TEXT
  5
1154
330
18
100
AcDbEntity
  8
文字
100
AcDbText
 10
327.2640584445291
 20
270.1138361649998
 30
0.0
 40
1.0
  1
C
 50
5.687207778684769
  7
STYLE3
100
AcDbText
  0
TEXT
  5
1155
330
18
100
AcDbEntity
  8
文字
100
AcDbText
 10
328.2908507459979
 20
270.2865876691608
 30
0.0
 40
1.0
  1
K
 50
11.14538657471254
  7
STYLE3
100
AcDbText
  0
TEXT
  5
1156
330
18
100
AcDbEntity
  8
文字
100
AcDbText
 10
329.8669031153224
 20
270.832563724508
 30
0.0
 40
1.0
  1
P
 50
23.24053280085741
  7
STYLE3
100
AcDbText
  0
TEXT
  5
1157
330
18
100
AcDbEntity
  8
文字
100
AcDbText
 10
330.7528897540096
 20
271.2944278036614
 30
0.0
 40
1.0
  1
R
 50
26.06198672177309
  7
STYLE3
100
AcDbText
  0
TEXT
  5
1158
330
18
100
AcDbEntity
  8
文字
100
AcDbText
 10
331.6771916536759
 20
271.7745855049409
 30
0.0
 40
1.0
  1
O
 50
27.73777743938884
  7
STYLE3
100
AcDbText
  0
TEXT
  5
1159
330
18
100
AcDbEntity
  8
文字
100
AcDbText
 10
332.6290505606051
 20
272.3496048913666
 30
0.0
 40
1.0
  1
O
 50
27.6495577688412
  7
STYLE3
100
AcDbText
  0
TEXT
  5
115A
330
18
100
AcDbEntity
  8
文字
100
AcDbText
 10
333.6145070076578
 20
272.9001071570428
 30
0.0
 40
1.0
  1
F
 50
35.29154926473689
  7
STYLE3
100
AcDbText
  0
POINT
  5
116A
330
18
100
AcDbEntity
  8
DEFPOINTS
  6
ByBlock
 62
     0
100
AcDbPoint
 10
414.0193285517136
 20
309.4412136918132
 30
0.0
  0
POINT
  5
116B
330
18
100
AcDbEntity
  8
DEFPOINTS
  6
ByBlock
 62
     0
100
AcDbPoint
 10
414.0193285517136
 20
260.6412136918133
 30
0.0
  0
LINE
  5
1177
330
18
100
AcDbEntity
  8
0
  6
ByBlock
 62
     2
100
AcDbLine
 10
393.0193285517136
 20
285.0412136918133
 30
0.0
 11
393.0193285517136
 21
338.0600192205664
 31
0.0
  0
LINE
  5
1179
330
18
100
AcDbEntity
  8
0
  6
ByBlock
 62
     2
100
AcDbLine
 10
395.5193285517136
 20
336.8100192205664
 30
0.0
 11
405.0193285517135
 21
336.8100192205664
 31
0.0
  0
INSERT
  5
117A
330
18
100
AcDbEntity
  8
0
  6
ByBlock
 62
     2
100
AcDbBlockReference
  2
_OPEN
 10
393.0193285517136
 20
336.8100192205664
 30
0.0
 41
2.5
 42
2.5
 43
2.5
 50
180.0
  0
INSERT
  5
117B
330
18
100
AcDbEntity
  8
0
  6
ByBlock
 62
     2
100
AcDbBlockReference
  2
_OPEN
 10
407.5193285517135
 20
336.8100192205664
 30
0.0
 41
2.5
 42
2.5
 43
2.5
  0
MTEXT
  5
117C
330
18
100
AcDbEntity
  8
0
  6
ByBlock
 62
     6
100
AcDbMText
 10
400.2693285517135
 20
338.6850192205664
 30
0.0
 40
2.5
 41
0.0
 71
     5
 72
     1
  1
\A1;14.5
  7
STYLE3
 73
     1
 44
1.0
  0
POINT
  5
117D
330
18
100
AcDbEntity
  8
DEFPOINTS
  6
ByBlock
 62
     0
100
AcDbPoint
 10
393.0193285517136
 20
285.0412136918133
 30
0.0
  0
POINT
  5
117E
330
18
100
AcDbEntity
  8
DEFPOINTS
  6
ByBlock
 62
     0
100
AcDbPoint
 10
407.5193285517135
 20
326.5412136918133
 30
0.0
  0
POINT
  5
117F
330
18
100
AcDbEntity
  8
DEFPOINTS
  6
ByBlock
 62
     0
100
AcDbPoint
 10
407.5193285517135
 20
336.8100192205664
 30
0.0
  0
CIRCLE
  5
12E4
330
18
100
AcDbEntity
  8
針
100
AcDbCircle
 10
324.377643738582
 20
284.7187873874494
 30
0.0
 40
1.9
  0
CIRCLE
  5
12E5
330
18
100
AcDbEntity
  8
針
100
AcDbCircle
 10
324.377643738582
 20
284.7187873874494
 30
0.0
 40
1.5
  0
POINT
  5
12E6
330
18
100
AcDbEntity
  8
DEFPOINTS
  6
ByBlock
 62
     0
100
AcDbPoint
 10
324.377643738582
 20
284.7187873874494
 30
0.0
  0
POINT
  5
12E7
330
18
100
AcDbEntity
  8
DEFPOINTS
  6
ByBlock
 62
     0
100
AcDbPoint
 10
324.377643738582
 20
284.7187873874494
 30
0.0
  0
CIRCLE
  5
12E8
330
18
100
AcDbEntity
  8
針
100
AcDbCircle
 10
324.377643738582
 20
284.7187873874494
 30
0.0
 40
0.475
  0
ARC
  5
12E9
330
18
100
AcDbEntity
  8
針
100
AcDbCircle
 10
319.6437594460555
 20
285.1097343211506
 30
0.0
 40
3.0
100
AcDbArc
 50
6.527720822960354
 51
36.00000000000001
  0
HATCH
  5
12EA
330
18
100
AcDbEntity
  8
針
100
AcDbHatch
 10
0.0
 20
0.0
 30
0.0
210
0.0
220
0.0
230
1.0
  2
SOLID
 70
     1
 71
     0
 91
        2
 92
        7
 72
     1
 73
     1
 93
        5
 10
311.5191797176413
 20
302.5700619364045
 42
0.0
 10
311.4463681881476
 20
302.5171612636983
 42
0.0
 10
311.3735566586539
 20
302.464260590992
 42
0.0
 10
315.0535573648491
 20
297.1006860017642
 42
-0.0085634322047721
 10
315.4830595238355
 20
297.4127375861377
 42
0.0
 97
        0
 92
        7
 72
     1
 73
     1
 93
        6
 10
315.4830595238355
 20
297.4127375861377
 42
0.0085634322047721
 10
315.0535573648491
 20
297.1006860017642
 42
0.0
 10
322.0708104291806
 20
286.8730900780276
 42
-0.1293106770632391
 10
322.6243103544149
 20
285.4507860513587
 42
-0.2805221108582334
 10
324.2232814518644
 20
286.6125065547071
 42
-0.1293106770632486
 10
323.0416308224306
 20
287.5784323807788
 42
0.0
 97
        0
 75
     0
 76
     1
 47
0.0423559757596284
 98
        2
 10
314.866214037129
 20
297.7411377730033
 10
317.5583002629837
 20
294.2521468844955
450
        0
451
        0
460
0.0
461
0.0
452
        0
462
0.0
453
        0
470

  0
LINE
  5
12EB
330
18
100
AcDbEntity
  8
針
100
AcDbLine
 10
311.3735566586539
 20
302.464260590992
 30
0.0
 11
322.0708104291803
 21
286.873090078028
 31
0.0
  0
ARC
  5
12EC
330
18
100
AcDbEntity
  8
針
100
AcDbCircle
 10
325.4686818055553
 20
289.3417881376564
 30
0.0
 40
3.0
100
AcDbArc
 50
216.0
 51
245.4722791770396
  0
LINE
  5
12ED
330
18
100
AcDbEntity
  8
針
100
AcDbLine
 10
311.4463681881475
 20
302.5171612636983
 30
0.0
 11
311.3735566586539
 21
302.464260590992
 31
0.0
  0
LINE
  5
12EE
330
18
100
AcDbEntity
  8
針
100
AcDbLine
 10
311.4463681881476
 20
302.5171612636983
 30
0.0
 11
311.5191797176413
 21
302.5700619364045
 31
0.0
  0
LINE
  5
12EF
330
18
100
AcDbEntity
  8
針
100
AcDbLine
 10
311.5191797176413
 20
302.5700619364045
 30
0.0
 11
323.0416308224304
 21
287.578432380779
 31
0.0
  0
POINT
  5
12F6
330
18
100
AcDbEntity
  8
DEFPOINTS
  6
ByBlock
 62
     0
100
AcDbPoint
 10
301.3776437385821
 20
284.7187873874494
 30
0.0
  0
POINT
  5
12F7
330
18
100
AcDbEntity
  8
DEFPOINTS
  6
ByBlock
 62
     0
100
AcDbPoint
 10
347.3776437385821
 20
284.7187873874494
 30
0.0
  0
LINE
  5
12F9
330
18
100
AcDbEntity
  8
0
  6
ByBlock
 62
     2
100
AcDbLine
 10
397.2193285517136
 20
311.4412136918133
 30
0.0
 11
374.7358112724665
 21
311.4412136918133
 31
0.0
  0
LINE
  5
12FA
330
18
100
AcDbEntity
  8
0
  6
ByBlock
 62
     2
100
AcDbLine
 10
397.2193285517136
 20
258.6412136918133
 30
0.0
 11
374.7358112724665
 21
258.6412136918133
 31
0.0
  0
LINE
  5
12FB
330
18
100
AcDbEntity
  8
0
  6
ByBlock
 62
     2
100
AcDbLine
 10
375.9858112724665
 20
308.9412136918132
 30
0.0
 11
375.9858112724665
 21
261.1412136918133
 31
0.0
  0
INSERT
  5
12FC
330
18
100
AcDbEntity
  8
0
  6
ByBlock
 62
     2
100
AcDbBlockReference
  2
_OPEN
 10
375.9858112724665
 20
311.4412136918133
 30
0.0
 41
2.5
 42
2.5
 43
2.5
 50
90.0
  0
INSERT
  5
12FD
330
18
100
AcDbEntity
  8
0
  6
ByBlock
 62
     2
100
AcDbBlockReference
  2
_OPEN
 10
375.9858112724665
 20
258.6412136918133
 30
0.0
 41
2.5
 42
2.5
 43
2.5
 50
270.0
  0
MTEXT
  5
12FE
330
18
100
AcDbEntity
  8
0
  6
ByBlock
 62
     6
100
AcDbMText
 10
374.1108112724665
 20
285.0412136918133
 30
0.0
 40
2.5
 41
0.0
 71
     5
 72
     1
  1
\A1;φ53
  7
STYLE3
 11
0.0000000000000001
 21
1.0
 31
0.0
 73
     1
 44
1.0
  0
POINT
  5
12FF
330
18
100
AcDbEntity
  8
DEFPOINTS
  6
ByBlock
 62
     0
100
AcDbPoint
 10
397.2193285517136
 20
311.4412136918133
 30
0.0
  0
POINT
  5
1300
330
18
100
AcDbEntity
  8
DEFPOINTS
  6
ByBlock
 62
     0
100
AcDbPoint
 10
397.2193285517136
 20
258.6412136918133
 30
0.0
  0
POINT
  5
1301
330
18
100
AcDbEntity
  8
DEFPOINTS
  6
ByBlock
 62
     0
100
AcDbPoint
 10
375.9858112724665
 20
258.6412136918133
 30
0.0
  0
LINE
  5
1302
102
{ACAD_REACTORS
330
1305
102
}
330
18
100
AcDbEntity
  8
外形線
100
AcDbLine
 10
336.2164326760496
 20
286.2583707207826
 30
0.0
 11
335.2164326760496
 21
286.2583707207826
 31
0.0
  0
LINE
  5
1303
102
{ACAD_REACTORS
330
1305
102
}
330
18
100
AcDbEntity
  8
外形線
100
AcDbLine
 10
336.2164326760496
 20
286.0792040541159
 30
0.0
 11
335.2164326760496
 21
286.079204054116
 31
0.0
  0
TEXT
  5
1304
330
18
100
AcDbEntity
  8
文字
100
AcDbText
 10
330.4461790588359
 20
283.6824971530368
 30
0.0
 40
1.0
  1
0.01mm
  7
STYLE3
100
AcDbText
  0
HATCH
  5
1305
330
18
100
AcDbEntity
  8
外形線
100
AcDbHatch
 10
0.0
 20
0.0
 30
0.0
210
0.0
220
0.0
230
1.0
  2
SOLID
 70
     1
 71
     1
 91
        2
 92
        1
 93
        7
 72
     1
 10
334.0497660093828
 20
286.1687873874493
 11
335.2164326760496
 21
285.744155447472
 72
     1
 10
335.2164326760496
 20
285.7441554474721
 11
335.2164326760496
 21
286.079204054116
 72
     1
 10
335.2164326760496
 20
286.079204054116
 11
336.2164326760496
 21
286.0792040541159
 72
     1
 10
336.2164326760496
 20
286.0792040541159
 11
336.2164326760496
 21
286.2583707207826
 72
     1
 10
336.2164326760496
 20
286.2583707207826
 11
335.2164326760496
 21
286.2583707207826
 72
     1
 10
335.2164326760496
 20
286.2583707207826
 11
335.2164326760496
 21
286.5934193274265
 72
     1
 10
335.2164326760496
 20
286.5934193274265
 11
334.0497660093828
 21
286.1687873874493
 97
        7
330
130E
330
1311
330
1303
330
132A
330
1302
330
130D
330
1314
 92
        1
 93
        4
 72
     1
 10
334.0497660093828
 20
286.9187873874493
 11
334.0497660093828
 21
285.4187873874493
 72
     1
 10
334.0497660093828
 20
285.4187873874493
 11
333.8830993427162
 21
285.4187873874493
 72
     1
 10
333.8830993427162
 20
285.4187873874493
 11
333.8830993427162
 21
286.9187873874493
 72
     1
 10
333.8830993427162
 20
286.9187873874493
 11
334.0497660093828
 21
286.9187873874493
 97
        4
330
1313
330
1320
330
1312
330
130A
 75
     0
 76
     1
 98
        1
 10
241.7202093029025
 20
217.5066365802682
450
        0
451
        0
460
0.0
461
0.0
452
        0
462
0.0
453
        0
470

  0
LINE
  5
1306
102
{ACAD_REACTORS
330
1308
102
}
330
18
100
AcDbEntity
  8
外形線
100
AcDbLine
 10
330.7164326760496
 20
286.2583707207826
 30
0.0
 11
331.7164326760496
 21
286.2583707207826
 31
0.0
  0
LINE
  5
1307
102
{ACAD_REACTORS
330
1308
102
}
330
18
100
AcDbEntity
  8
外形線
100
AcDbLine
 10
330.7164326760496
 20
286.0792040541159
 30
0.0
 11
331.7164326760496
 21
286.079204054116
 31
0.0
  0
HATCH
  5
1308
330
18
100
AcDbEntity
  8
外形線
100
AcDbHatch
 10
0.0
 20
0.0
 30
0.0
210
0.0
220
0.0
230
1.0
  2
SOLID
 70
     1
 71
     1
 91
        2
 92
        1
 93
        7
 72
     1
 10
332.8830993427163
 20
286.1687873874493
 11
331.7164326760496
 21
285.744155447472
 72
     1
 10
331.7164326760496
 20
285.7441554474721
 11
331.7164326760496
 21
286.079204054116
 72
     1
 10
331.7164326760496
 20
286.079204054116
 11
330.7164326760496
 21
286.0792040541159
 72
     1
 10
330.7164326760496
 20
286.0792040541159
 11
330.7164326760496
 21
286.2583707207826
 72
     1
 10
330.7164326760496
 20
286.2583707207826
 11
331.7164326760496
 21
286.2583707207826
 72
     1
 10
331.7164326760496
 20
286.2583707207826
 11
331.7164326760496
 21
286.5934193274265
 72
     1
 10
331.7164326760496
 20
286.5934193274265
 11
332.8830993427163
 21
286.1687873874493
 97
        7
330
131C
330
1319
330
1307
330
1309
330
1306
330
1316
330
131D
 92
        1
 93
        4
 72
     1
 10
332.8830993427163
 20
286.9187873874493
 11
332.8830993427163
 21
285.4187873874493
 72
     1
 10
332.8830993427163
 20
285.4187873874493
 11
333.0497660093828
 21
285.4187873874493
 72
     1
 10
333.0497660093828
 20
285.4187873874493
 11
333.0497660093828
 21
286.9187873874493
 72
     1
 10
333.0497660093828
 20
286.9187873874493
 11
332.8830993427163
 21
286.9187873874493
 97
        4
330
131E
330
1329
330
131F
330
1315
 75
     0
 76
     1
 98
        1
 10
425.2126560491966
 20
217.5066365802682
450
        0
451
        0
460
0.0
461
0.0
452
        0
462
0.0
453
        0
470

  0
LINE
  5
1309
102
{ACAD_REACTORS
330
1308
102
}
330
18
100
AcDbEntity
  8
外形線
100
AcDbLine
 10
330.7164326760496
 20
286.2583707207826
 30
0.0
 11
330.7164326760496
 21
286.0792040541159
 31
0.0
  0
LINE
  5
130A
102
{ACAD_REACTORS
330
1305
102
}
330
18
100
AcDbEntity
  8
外形線
100
AcDbLine
 10
333.8830993427162
 20
286.9187873874493
 30
0.0
 11
334.0497660093828
 21
286.9187873874493
 31
0.0
  0
POINT
  5
130B
330
18
100
AcDbEntity
  8
DEFPOINTS
  6
ByBlock
 62
     0
100
AcDbPoint
 10
335.2164326760496
 20
286.5934193274265
 30
0.0
  0
POINT
  5
130C
330
18
100
AcDbEntity
  8
DEFPOINTS
  6
ByBlock
 62
     0
100
AcDbPoint
 10
335.2164326760496
 20
286.5934193274265
 30
0.0
  0
LINE
  5
130D
102
{ACAD_REACTORS
330
1305
102
}
330
18
100
AcDbEntity
  8
外形線
100
AcDbLine
 10
335.2164326760496
 20
286.5934193274265
 30
0.0
 11
335.2164326760496
 21
286.2583707207826
 31
0.0
  0
LINE
  5
130E
102
{ACAD_REACTORS
330
1305
102
}
330
18
100
AcDbEntity
  8
外形線
100
AcDbLine
 10
334.0497660093828
 20
286.1687873874493
 30
0.0
 11
335.2164326760496
 21
285.744155447472
 31
0.0
  0
POINT
  5
130F
330
18
100
AcDbEntity
  8
DEFPOINTS
  6
ByBlock
 62
     0
100
AcDbPoint
 10
335.2164326760496
 20
285.744155447472
 30
0.0
  0
POINT
  5
1310
330
18
100
AcDbEntity
  8
DEFPOINTS
  6
ByBlock
 62
     0
100
AcDbPoint
 10
335.2164326760496
 20
285.744155447472
 30
0.0
  0
LINE
  5
1311
102
{ACAD_REACTORS
330
1305
102
}
330
18
100
AcDbEntity
  8
外形線
100
AcDbLine
 10
335.2164326760496
 20
286.079204054116
 30
0.0
 11
335.2164326760496
 21
285.7441554474721
 31
0.0
  0
LINE
  5
1312
102
{ACAD_REACTORS
330
1305
102
}
330
18
100
AcDbEntity
  8
外形線
100
AcDbLine
 10
333.8830993427162
 20
286.9187873874493
 30
0.0
 11
333.8830993427162
 21
285.4187873874493
 31
0.0
  0
LINE
  5
1313
102
{ACAD_REACTORS
330
1305
102
}
330
18
100
AcDbEntity
  8
外形線
100
AcDbLine
 10
334.0497660093828
 20
286.9187873874493
 30
0.0
 11
334.0497660093828
 21
285.4187873874493
 31
0.0
  0
LINE
  5
1314
102
{ACAD_REACTORS
330
1305
102
}
330
18
100
AcDbEntity
  8
外形線
100
AcDbLine
 10
334.0497660093828
 20
286.1687873874493
 30
0.0
 11
335.2164326760496
 21
286.5934193274265
 31
0.0
  0
LINE
  5
1315
102
{ACAD_REACTORS
330
1308
102
}
330
18
100
AcDbEntity
  8
外形線
100
AcDbLine
 10
333.0497660093828
 20
286.9187873874493
 30
0.0
 11
332.8830993427163
 21
286.9187873874493
 31
0.0
  0
LINE
  5
1316
102
{ACAD_REACTORS
330
1308
102
}
330
18
100
AcDbEntity
  8
外形線
100
AcDbLine
 10
331.7164326760496
 20
286.5934193274265
 30
0.0
 11
331.7164326760496
 21
286.2583707207826
 31
0.0
  0
POINT
  5
1317
330
18
100
AcDbEntity
  8
DEFPOINTS
  6
ByBlock
 62
     0
100
AcDbPoint
 10
331.7164326760496
 20
286.5934193274265
 30
0.0
  0
POINT
  5
1318
330
18
100
AcDbEntity
  8
DEFPOINTS
  6
ByBlock
 62
     0
100
AcDbPoint
 10
331.7164326760496
 20
286.5934193274265
 30
0.0
  0
LINE
  5
1319
102
{ACAD_REACTORS
330
1308
102
}
330
18
100
AcDbEntity
  8
外形線
100
AcDbLine
 10
331.7164326760496
 20
286.079204054116
 30
0.0
 11
331.7164326760496
 21
285.7441554474721
 31
0.0
  0
POINT
  5
131A
330
18
100
AcDbEntity
  8
DEFPOINTS
  6
ByBlock
 62
     0
100
AcDbPoint
 10
331.7164326760496
 20
285.744155447472
 30
0.0
  0
POINT
  5
131B
330
18
100
AcDbEntity
  8
DEFPOINTS
  6
ByBlock
 62
     0
100
AcDbPoint
 10
331.7164326760496
 20
285.744155447472
 30
0.0
  0
LINE
  5
131C
102
{ACAD_REACTORS
330
1308
102
}
330
18
100
AcDbEntity
  8
外形線
100
AcDbLine
 10
332.8830993427163
 20
286.1687873874493
 30
0.0
 11
331.7164326760496
 21
285.744155447472
 31
0.0
  0
LINE
  5
131D
102
{ACAD_REACTORS
330
1308
102
}
330
18
100
AcDbEntity
  8
外形線
100
AcDbLine
 10
332.8830993427163
 20
286.1687873874493
 30
0.0
 11
331.7164326760496
 21
286.5934193274265
 31
0.0
  0
LINE
  5
131E
102
{ACAD_REACTORS
330
1308
102
}
330
18
100
AcDbEntity
  8
外形線
100
AcDbLine
 10
332.8830993427163
 20
286.9187873874493
 30
0.0
 11
332.8830993427163
 21
285.4187873874493
 31
0.0
  0
LINE
  5
131F
102
{ACAD_REACTORS
330
1308
102
}
330
18
100
AcDbEntity
  8
外形線
100
AcDbLine
 10
333.0497660093828
 20
286.9187873874493
 30
0.0
 11
333.0497660093828
 21
285.4187873874493
 31
0.0
  0
LINE
  5
1320
102
{ACAD_REACTORS
330
1305
102
}
330
18
100
AcDbEntity
  8
外形線
100
AcDbLine
 10
333.8830993427162
 20
285.4187873874493
 30
0.0
 11
334.0497660093828
 21
285.4187873874493
 31
0.0
  0
POINT
  5
1321
330
18
100
AcDbEntity
  8
DEFPOINTS
  6
ByBlock
 62
     0
100
AcDbPoint
 10
334.0497660093828
 20
285.4187873874493
 30
0.0
  0
POINT
  5
1322
330
18
100
AcDbEntity
  8
DEFPOINTS
  6
ByBlock
 62
     0
100
AcDbPoint
 10
333.8830993427162
 20
285.4187873874493
 30
0.0
  0
POINT
  5
1323
330
18
100
AcDbEntity
  8
DEFPOINTS
  6
ByBlock
 62
     0
100
AcDbPoint
 10
334.0497660093828
 20
285.4187873874493
 30
0.0
  0
POINT
  5
1324
330
18
100
AcDbEntity
  8
DEFPOINTS
  6
ByBlock
 62
     0
100
AcDbPoint
 10
333.8830993427162
 20
285.4187873874493
 30
0.0
  0
POINT
  5
1325
330
18
100
AcDbEntity
  8
DEFPOINTS
  6
ByBlock
 62
     0
100
AcDbPoint
 10
333.0497660093828
 20
285.4187873874493
 30
0.0
  0
POINT
  5
1326
330
18
100
AcDbEntity
  8
DEFPOINTS
  6
ByBlock
 62
     0
100
AcDbPoint
 10
332.8830993427163
 20
285.4187873874493
 30
0.0
  0
POINT
  5
1327
330
18
100
AcDbEntity
  8
DEFPOINTS
  6
ByBlock
 62
     0
100
AcDbPoint
 10
333.0497660093828
 20
285.4187873874493
 30
0.0
  0
POINT
  5
1328
330
18
100
AcDbEntity
  8
DEFPOINTS
  6
ByBlock
 62
     0
100
AcDbPoint
 10
332.8830993427163
 20
285.4187873874493
 30
0.0
  0
LINE
  5
1329
102
{ACAD_REACTORS
330
1308
102
}
330
18
100
AcDbEntity
  8
外形線
100
AcDbLine
 10
333.0497660093828
 20
285.4187873874493
 30
0.0
 11
332.8830993427163
 21
285.4187873874493
 31
0.0
  0
LINE
  5
132A
102
{ACAD_REACTORS
330
1305
102
}
330
18
100
AcDbEntity
  8
外形線
100
AcDbLine
 10
336.2164326760496
 20
286.2583707207826
 30
0.0
 11
336.2164326760496
 21
286.0792040541159
 31
0.0
  0
LINE
  5
132B
330
18
100
AcDbEntity
  8
ﾊｯﾁﾝｸ
100
AcDbLine
 10
321.877643738582
 20
228.1116584919698
 30
0.0
 11
322.2847726340617
 21
228.5187873874495
 31
0.0
  0
LINE
  5
132C
330
18
100
AcDbEntity
  8
ﾊｯﾁﾝｸ
100
AcDbLine
 10
321.8776437385821
 20
226.7646200738094
 30
0.0
 11
323.6318110522221
 21
228.5187873874495
 31
0.0
  0
LINE
  5
132D
330
18
100
AcDbEntity
  8
ﾊｯﾁﾝｸ
100
AcDbLine
 10
321.8788494703825
 20
225.4187873874494
 30
0.0
 11
324.3776437385822
 21
227.9175816556491
 31
0.0
  0
LINE
  5
132E
330
18
100
AcDbEntity
  8
ﾊｯﾁﾝｸ
100
AcDbLine
 10
323.2258878885428
 20
225.4187873874494
 30
0.0
 11
324.3776437385821
 21
226.5705432374887
 31
0.0
  0
LINE
  5
132F
330
18
100
AcDbEntity
  8
ﾊｯﾁﾝｸ
100
AcDbLine
 10
321.9716916627675
 20
225.4187873874494
 30
0.0
 11
321.877643738582
 21
225.5128353116349
 31
0.0
  0
LINE
  5
1330
330
18
100
AcDbEntity
  8
ﾊｯﾁﾝｸ
100
AcDbLine
 10
323.3187300809279
 20
225.4187873874494
 30
0.0
 11
321.8776437385821
 21
226.8598737297952
 31
0.0
  0
LINE
  5
1331
330
18
100
AcDbEntity
  8
ﾊｯﾁﾝｸ
100
AcDbLine
 10
324.3776437385821
 20
225.7069121479556
 30
0.0
 11
321.8776437385821
 21
228.2069121479556
 31
0.0
  0
LINE
  5
1332
330
18
100
AcDbEntity
  8
ﾊｯﾁﾝｸ
100
AcDbLine
 10
324.3776437385822
 20
227.0539505661159
 30
0.0
 11
322.9128069172487
 21
228.5187873874495
 31
0.0
  0
LINE
  5
1333
330
18
100
AcDbEntity
  8
ﾊｯﾁﾝｸ
100
AcDbLine
 10
324.3776437385821
 20
228.4009889842763
 30
0.0
 11
324.259845335409
 21
228.5187873874495
 31
0.0
  0
HATCH
  5
1334
330
18
100
AcDbEntity
  8
針
100
AcDbHatch
 10
0.0
 20
0.0
 30
0.0
210
0.0
220
0.0
230
1.0
  2
SOLID
 70
     1
 71
     0
 91
        2
 92
        7
 72
     1
 73
     1
 93
        5
 10
320.128555092759
 20
274.3140395964808
 42
0.31735696877887
 10
321.137888088091
 20
273.5455346251185
 42
0.0
 10
321.4121047834609
 20
273.9012005446413
 42
0.0
 10
321.4031730882102
 20
273.9295282628743
 42
-0.4142135623731173
 10
320.4623560255209
 20
274.4192866263073
 42
0.0
 97
        0
 92
        7
 72
     1
 73
     1
 93
        4
 10
320.128555092759
 20
274.3140395964808
 42
0.0
 10
320.4623560255209
 20
274.4192866263073
 42
-0.4142135623730728
 10
320.9521143889538
 20
275.3601036889967
 42
0.0
 10
320.8468673591273
 20
275.6939046217585
 42
0.4142135623730844
 97
        0
 75
     0
 76
     1
 47
0.0161501285364394
 98
        2
 10
320.4676122575168
 20
273.9979968834005
 10
320.2691649776737
 20
274.6810977358822
450
        0
451
        0
460
0.0
461
0.0
452
        0
462
0.0
453
        0
470

  0
HATCH
  5
1335
330
18
100
AcDbEntity
  8
針
100
AcDbHatch
 10
0.0
 20
0.0
 30
0.0
210
0.0
220
0.0
230
1.0
  2
SOLID
 70
     1
 71
     0
 91
        4
 92
        7
 72
     1
 73
     1
 93
        4
 10
321.3629820561036
 20
275.7290897919333
 42
0.0
 10
321.3040107732559
 20
275.3840935777522
 42
-0.4142135623730951
 10
321.9169213403987
 20
274.5184489412618
 42
0.0
 10
322.2619175545798
 20
274.4594776584141
 42
0.4142135623730996
 97
        0
 92
        7
 72
     1
 73
     1
 93
        5
 10
321.3040107732559
 20
275.3840935777522
 42
0.0
 10
321.3629820561036
 20
275.7290897919333
 42
0.3173569687788799
 10
320.2180971317399
 20
275.1826545291258
 42
0.0
 10
320.4090883409668
 20
274.7761875558949
 42
0.0
 10
320.4383661367653
 20
274.7711830106094
 42
-0.4142135623730839
 97
        0
 92
        7
 72
     1
 73
     1
 93
        4
 10
322.2619175545798
 20
274.4594776584141
 42
0.0
 10
321.9169213403987
 20
274.5184489412618
 42
-0.4142135623730951
 10
321.0512767039083
 20
273.9055383741189
 42
0.0
 10
320.9923054210606
 20
273.5605421599378
 42
0.4142135623730996
 97
        0
 92
        7
 72
     1
 73
     1
 93
        4
 10
321.0512767039083
 20
273.9055383741189
 42
-0.1036385141593389
 10
320.7651362127127
 20
274.0184474413642
 42
0.0
 10
320.9792069273047
 20
273.56286272744
 42
0.003023315109616
 10
320.9923054210606
 20
273.5605421599378
 42
0.0
 97
        0
 75
     0
 76
     1
 47
0.0223982890607777
 98
        4
 10
322.039768264609
 20
275.1309231144472
 10
320.9172324176444
 20
275.4818636858177
 10
322.0397059598467
 20
274.1992847453787
 10
320.9769417912365
 20
273.8355903779206
450
        0
451
        0
460
0.0
461
0.0
452
        0
462
0.0
453
        0
470

  0
CIRCLE
  5
1336
330
18
100
AcDbEntity
  8
針
100
AcDbCircle
 10
321.177643738582
 20
274.6448159759355
 30
0.0
 40
1.1
  0
CIRCLE
  5
1337
330
18
100
AcDbEntity
  8
針
100
AcDbCircle
 10
321.177643738582
 20
274.6448159759355
 30
0.0
 40
0.75
  0
HATCH
  5
1338
330
18
100
AcDbEntity
  8
針
100
AcDbHatch
 10
0.0
 20
0.0
 30
0.0
210
0.0
220
0.0
230
1.0
  2
SOLID
 70
     1
 71
     0
 91
        1
 92
        7
 72
     1
 73
     1
 93
        7
 10
325.8745187089256
 20
274.4464085341361
 42
0.0
 10
325.8766129509139
 20
274.5463866024838
 42
0.0
 10
325.8787071929022
 20
274.6463646708313
 42
0.0
 10
322.6377281904012
 20
274.7591717120214
 42
-0.2935495917910092
 10
322.1934092825683
 20
275.0669775085859
 42
-0.2104432563350663
 10
322.1748403069114
 20
274.1804895776852
 42
-0.2935491884945053
 10
322.6316587270606
 20
274.4694185583396
 42
0.0
 97
        0
 75
     0
 76
     1
 47
0.0140573597042523
 98
        1
 10
324.0703416972911
 20
274.5256080205165
450
        0
451
        0
460
0.0
461
0.0
452
        0
462
0.0
453
        0
470

  0
LINE
  5
1339
330
18
100
AcDbEntity
  8
針
100
AcDbLine
 10
322.6316587270607
 20
274.4694185583396
 30
0.0
 11
325.8745187089254
 21
274.4464085341363
 31
0.0
  0
LINE
  5
133A
330
18
100
AcDbEntity
  8
針
100
AcDbLine
 10
322.6377281904013
 20
274.7591717120214
 30
0.0
 11
325.8787071929021
 21
274.6463646708313
 31
0.0
  0
CIRCLE
  5
133B
330
18
100
AcDbEntity
  8
針
 62
     4
100
AcDbCircle
 10
321.177643738582
 20
274.6448159759355
 30
0.0
 40
0.4
  0
ARC
  5
133C
330
18
100
AcDbEntity
  8
針
100
AcDbCircle
 10
322.628111018386
 20
273.9694311447349
 30
0.0
 40
0.5
100
AcDbArc
 50
89.59345912073466
 51
155.0317787024804
  0
ARC
  5
133D
330
18
100
AcDbEntity
  8
針
100
AcDbCircle
 10
322.6551208934708
 20
275.2588691143359
 30
0.0
 40
0.5
100
AcDbArc
 50
202.5682212975195
 51
268.0065408792652
  0
LINE
  5
133E
330
18
100
AcDbEntity
  8
文字
100
AcDbLine
 10
325.8745187089254
 20
274.4464085341363
 30
0.0
 11
325.8787071929021
 21
274.6463646708313
 31
0.0
  0
LINE
  5
133F
330
18
100
AcDbEntity
  8
0
  6
ByBlock
 62
     2
100
AcDbLine
 10
407.5193285517137
 20
220.0412136918132
 30
0.0
 11
374.7358112724665
 21
220.0412136918132
 31
0.0
  0
LINE
  5
1340
330
18
100
AcDbEntity
  8
0
  6
ByBlock
 62
     2
100
AcDbLine
 10
375.9858112724665
 20
256.1412136918133
 30
0.0
 11
375.9858112724665
 21
222.5412136918133
 31
0.0
  0
INSERT
  5
1341
330
18
100
AcDbEntity
  8
0
  6
ByBlock
 62
     2
100
AcDbBlockReference
  2
_OPEN
 10
375.9858112724665
 20
258.6412136918133
 30
0.0
 41
2.5
 42
2.5
 43
2.5
 50
90.0
  0
INSERT
  5
1342
330
18
100
AcDbEntity
  8
0
  6
ByBlock
 62
     2
100
AcDbBlockReference
  2
_OPEN
 10
375.9858112724665
 20
220.0412136918132
 30
0.0
 41
2.5
 42
2.5
 43
2.5
 50
270.0
  0
MTEXT
  5
1343
330
18
100
AcDbEntity
  8
0
  6
ByBlock
 62
     6
100
AcDbMText
 10
374.1108112724665
 20
239.3412136918132
 30
0.0
 40
2.5
 41
0.0
 71
     5
 72
     1
  1
\A1;38.5
  7
STYLE3
 11
0.0000000000000001
 21
1.0
 31
0.0
 73
     1
 44
1.0
  0
POINT
  5
1344
330
18
100
AcDbEntity
  8
DEFPOINTS
  6
ByBlock
 62
     0
100
AcDbPoint
 10
397.2193285517136
 20
258.6412136918133
 30
0.0
  0
POINT
  5
1345
330
18
100
AcDbEntity
  8
DEFPOINTS
  6
ByBlock
 62
     0
100
AcDbPoint
 10
407.5193285517137
 20
220.0412136918132
 30
0.0
  0
POINT
  5
1346
330
18
100
AcDbEntity
  8
DEFPOINTS
  6
ByBlock
 62
     0
100
AcDbPoint
 10
375.9858112724665
 20
220.0412136918132
 30
0.0
  0
LINE
  5
1347
330
18
100
AcDbEntity
  8
ﾊｯﾁﾝｸ
100
AcDbLine
 10
405.0193285517137
 20
228.4340847963337
 30
0.0
 11
405.4264574471933
 21
228.8412136918133
 31
0.0
  0
LINE
  5
1348
330
18
100
AcDbEntity
  8
ﾊｯﾁﾝｸ
100
AcDbLine
 10
405.0193285517137
 20
227.0870463781732
 30
0.0
 11
406.7734958653536
 21
228.8412136918132
 31
0.0
  0
LINE
  5
1349
330
18
100
AcDbEntity
  8
ﾊｯﾁﾝｸ
100
AcDbLine
 10
405.020534283514
 20
225.7412136918132
 30
0.0
 11
407.5193285517136
 21
228.2400079600129
 31
0.0
  0
LINE
  5
134A
330
18
100
AcDbEntity
  8
ﾊｯﾁﾝｸ
100
AcDbLine
 10
406.3675727016744
 20
225.7412136918132
 30
0.0
 11
407.5193285517136
 21
226.8929695418525
 31
0.0
  0
LINE
  5
134B
330
18
100
AcDbEntity
  8
ﾊｯﾁﾝｸ
100
AcDbLine
 10
405.1133764758991
 20
225.7412136918133
 30
0.0
 11
405.0193285517137
 21
225.8352616159987
 31
0.0
  0
LINE
  5
134C
330
18
100
AcDbEntity
  8
ﾊｯﾁﾝｸ
100
AcDbLine
 10
406.4604148940595
 20
225.7412136918132
 30
0.0
 11
405.0193285517137
 21
227.182300034159
 31
0.0
  0
LINE
  5
134D
330
18
100
AcDbEntity
  8
ﾊｯﾁﾝｸ
100
AcDbLine
 10
407.5193285517135
 20
226.0293384523194
 30
0.0
 11
405.0193285517137
 21
228.5293384523193
 31
0.0
  0
LINE
  5
134E
330
18
100
AcDbEntity
  8
ﾊｯﾁﾝｸ
100
AcDbLine
 10
407.5193285517136
 20
227.3763768704798
 30
0.0
 11
406.0544917303801
 21
228.8412136918133
 31
0.0
  0
LINE
  5
134F
330
18
100
AcDbEntity
  8
ﾊｯﾁﾝｸ
100
AcDbLine
 10
407.5193285517137
 20
228.7234152886401
 30
0.0
 11
407.4015301485405
 21
228.8412136918132
 31
0.0
  0
LINE
  5
1350
330
18
100
AcDbEntity
  8
ﾊｯﾁﾝｸ
  6
Continuous
100
AcDbLine
 10
320.3776437385822
 20
318.4852811837471
 30
0.0
 11
320.6111499422843
 21
318.7187873874493
 31
0.0
  0
LINE
  5
1351
330
18
100
AcDbEntity
  8
ﾊｯﾁﾝｸ
  6
Continuous
100
AcDbLine
 10
320.3776437385822
 20
316.7175142307808
 30
0.0
 11
322.3789168952507
 21
318.7187873874493
 31
0.0
  0
LINE
  5
1352
330
18
100
AcDbEntity
  8
ﾊｯﾁﾝｸ
  6
Continuous
100
AcDbLine
 10
320.3776437385822
 20
314.9497472778144
 30
0.0
 11
324.146683848217
 21
318.7187873874493
 31
0.0
  0
LINE
  5
1353
330
18
100
AcDbEntity
  8
ﾊｯﾁﾝｸ
  6
Continuous
100
AcDbLine
 10
320.3776437385822
 20
313.181980324848
 30
0.0
 11
324.3776437385822
 21
317.181980324848
 31
0.0
  0
LINE
  5
1354
330
18
100
AcDbEntity
  8
ﾊｯﾁﾝｸ
  6
Continuous
100
AcDbLine
 10
321.6822177541498
 20
312.7187873874493
 30
0.0
 11
324.3776437385822
 21
315.4142133718817
 31
0.0
  0
LINE
  5
1355
330
18
100
AcDbEntity
  8
ﾊｯﾁﾝｸ
  6
Continuous
100
AcDbLine
 10
323.4499847071162
 20
312.7187873874493
 30
0.0
 11
324.3776437385822
 21
313.6464464189153
 31
0.0
  0
LINE
  5
1356
330
18
100
AcDbEntity
  8
ﾊｯﾁﾝｸ
  6
Continuous
100
AcDbLine
 10
320.4291893849011
 20
312.7187873874492
 30
0.0
 11
320.3776437385822
 21
312.7703330337682
 31
0.0
  0
LINE
  5
1357
330
18
100
AcDbEntity
  8
ﾊｯﾁﾝｸ
  6
Continuous
100
AcDbLine
 10
322.1969563378674
 20
312.7187873874493
 30
0.0
 11
320.3776437385821
 21
314.5380999867346
 31
0.0
  0
LINE
  5
1358
330
18
100
AcDbEntity
  8
ﾊｯﾁﾝｸ
  6
Continuous
100
AcDbLine
 10
323.9647232908338
 20
312.7187873874493
 30
0.0
 11
320.3776437385821
 21
316.305866939701
 31
0.0
  0
LINE
  5
1359
330
18
100
AcDbEntity
  8
ﾊｯﾁﾝｸ
  6
Continuous
100
AcDbLine
 10
324.3776437385822
 20
314.0736338926673
 30
0.0
 11
320.3776437385822
 21
318.0736338926673
 31
0.0
  0
LINE
  5
135A
330
18
100
AcDbEntity
  8
ﾊｯﾁﾝｸ
  6
Continuous
100
AcDbLine
 10
324.3776437385821
 20
315.8414008456337
 30
0.0
 11
321.5002571967665
 21
318.7187873874493
 31
0.0
  0
LINE
  5
135B
330
18
100
AcDbEntity
  8
ﾊｯﾁﾝｸ
  6
Continuous
100
AcDbLine
 10
324.3776437385821
 20
317.6091677986001
 30
0.0
 11
323.2680241497329
 21
318.7187873874492
 31
0.0
  0
LINE
  5
135C
330
18
100
AcDbEntity
  8
ﾊｯﾁﾝｸ
  6
Continuous
100
AcDbLine
 10
403.5193285517135
 20
318.8077074881111
 30
0.0
 11
403.7528347554157
 21
319.0412136918132
 31
0.0
  0
LINE
  5
135D
330
18
100
AcDbEntity
  8
ﾊｯﾁﾝｸ
  6
Continuous
100
AcDbLine
 10
403.5193285517135
 20
317.0399405351446
 30
0.0
 11
405.520601708382
 21
319.0412136918132
 31
0.0
  0
LINE
  5
135E
330
18
100
AcDbEntity
  8
ﾊｯﾁﾝｸ
  6
Continuous
100
AcDbLine
 10
403.5193285517135
 20
315.2721735821783
 30
0.0
 11
407.2883686613485
 21
319.0412136918132
 31
0.0
  0
LINE
  5
135F
330
18
100
AcDbEntity
  8
ﾊｯﾁﾝｸ
  6
Continuous
100
AcDbLine
 10
403.5193285517135
 20
313.5044066292119
 30
0.0
 11
407.5193285517135
 21
317.5044066292119
 31
0.0
  0
LINE
  5
1360
330
18
100
AcDbEntity
  8
ﾊｯﾁﾝｸ
  6
Continuous
100
AcDbLine
 10
404.8239025672812
 20
313.0412136918132
 30
0.0
 11
407.5193285517135
 21
315.7366396762455
 31
0.0
  0
LINE
  5
1361
330
18
100
AcDbEntity
  8
ﾊｯﾁﾝｸ
  6
Continuous
100
AcDbLine
 10
406.5916695202475
 20
313.0412136918132
 30
0.0
 11
407.5193285517135
 21
313.9688727232792
 31
0.0
  0
LINE
  5
1362
330
18
100
AcDbEntity
  8
ﾊｯﾁﾝｸ
  6
Continuous
100
AcDbLine
 10
403.5708741980324
 20
313.0412136918133
 30
0.0
 11
403.5193285517134
 21
313.0927593381322
 31
0.0
  0
LINE
  5
1363
330
18
100
AcDbEntity
  8
ﾊｯﾁﾝｸ
  6
Continuous
100
AcDbLine
 10
405.3386411509989
 20
313.0412136918132
 30
0.0
 11
403.5193285517135
 21
314.8605262910985
 31
0.0
  0
LINE
  5
1364
330
18
100
AcDbEntity
  8
ﾊｯﾁﾝｸ
  6
Continuous
100
AcDbLine
 10
407.1064081039653
 20
313.0412136918132
 30
0.0
 11
403.5193285517136
 21
316.6282932440649
 31
0.0
  0
LINE
  5
1365
330
18
100
AcDbEntity
  8
ﾊｯﾁﾝｸ
  6
Continuous
100
AcDbLine
 10
407.5193285517135
 20
314.3960601970313
 30
0.0
 11
403.5193285517135
 21
318.3960601970313
 31
0.0
  0
LINE
  5
1366
330
18
100
AcDbEntity
  8
ﾊｯﾁﾝｸ
  6
Continuous
100
AcDbLine
 10
407.5193285517135
 20
316.1638271499976
 30
0.0
 11
404.6419420098979
 21
319.0412136918131
 31
0.0
  0
LINE
  5
1367
330
18
100
AcDbEntity
  8
ﾊｯﾁﾝｸ
  6
Continuous
100
AcDbLine
 10
407.5193285517135
 20
317.931594102964
 30
0.0
 11
406.4097089628644
 21
319.0412136918132
 31
0.0
  0
LINE
  5
1368
330
18
100
AcDbEntity
  8
寸法線
 62
     2
100
AcDbLine
 10
430.4681422815764
 20
289.8873579174942
 30
0.0
 11
434.22256262194
 21
299.8807676413083
 31
0.0
  0
LINE
  5
1369
330
18
100
AcDbEntity
  8
寸法線
 62
     2
100
AcDbLine
 10
434.22256262194
 20
299.8807676413083
 30
0.0
 11
443.2691484852192
 21
299.8807676413083
 31
0.0
  0
LINE
  5
136A
330
18
100
AcDbEntity
  8
想像線
100
AcDbLine
 10
418.0193285517132
 20
291.1084657426601
 30
0.0
 11
419.3735903510318
 21
292.4627275419787
 31
0.0
  0
LINE
  5
136B
330
18
100
AcDbEntity
  8
想像線
100
AcDbLine
 10
418.019328551713
 20
287.9653761002858
 30
0.0
 11
421.9886099587148
 21
291.9346575072875
 31
0.0
  0
LINE
  5
136C
330
18
100
AcDbEntity
  8
想像線
100
AcDbLine
 10
418.0193285517131
 20
284.8222864579117
 30
0.0
 11
418.2382557856148
 21
285.0412136918133
 31
0.0
  0
LINE
  5
136D
330
18
100
AcDbEntity
  8
想像線
100
AcDbLine
 10
418.2382557856148
 20
285.0412136918133
 30
0.0
 11
423.0193285517136
 21
289.8222864579121
 31
0.0
  0
LINE
  5
136E
330
18
100
AcDbEntity
  8
想像線
100
AcDbLine
 10
418.0193285517131
 20
281.6791968155375
 30
0.0
 11
421.3813454279889
 21
285.0412136918133
 31
0.0
  0
LINE
  5
136F
330
18
100
AcDbEntity
  8
想像線
100
AcDbLine
 10
421.381345427989
 20
285.0412136918133
 30
0.0
 11
423.0193285517136
 21
286.6791968155379
 31
0.0
  0
LINE
  5
1370
330
18
100
AcDbEntity
  8
想像線
100
AcDbLine
 10
418.0193285517132
 20
278.5361071731633
 30
0.0
 11
423.0193285517136
 21
283.5361071731637
 31
0.0
  0
LINE
  5
1371
330
18
100
AcDbEntity
  8
想像線
100
AcDbLine
 10
420.6534706282796
 20
278.0271596073555
 30
0.0
 11
423.0193285517136
 21
280.3930175307895
 31
0.0
  0
LINE
  5
1376
330
18
100
AcDbEntity
  8
寸法線
 62
     2
100
AcDbLine
 10
430.8581909335861
 20
289.740820686128
 30
0.0
 11
429.5889188933785
 21
287.5470660054358
 31
0.0
  0
LINE
  5
1377
330
18
100
AcDbEntity
  8
寸法線
 62
     2
100
AcDbLine
 10
429.5889188933785
 20
287.5470660054358
 30
0.0
 11
430.0780936295665
 21
290.0338951488604
 31
0.0
  0
LINE
  5
1378
330
18
100
AcDbEntity
  8
寸法線
 62
     2
100
AcDbLine
 10
429.5889188933785
 20
287.5470660054358
 30
0.0
 11
430.4681422815763
 21
289.8873579174941
 31
0.0
  0
TEXT
  5
1379
330
18
100
AcDbEntity
  8
文字
 62
     6
100
AcDbText
 10
433.9621067303434
 20
300.5187127408437
 30
0.0
 40
2.5
  1
φ6.5
  7
STYLE3
100
AcDbText
  0
LINE
  5
1D47
330
18
100
AcDbEntity
  8
0
  6
ByBlock
 62
     2
100
AcDbLine
 10
347.3776437385821
 20
284.7187873874494
 30
0.0
 11
347.3776437385821
 21
333.4512917802998
 31
0.0
  0
DIMENSION
  5
1D48
330
18
100
AcDbEntity
  8
寸法線
100
AcDbDimension
  2
*D1
 10
347.3776437385821
 20
331.995347898604
 30
0.0
 11
324.3776437385822
 21
333.870347898604
 31
0.0
 70
    32
  1
%%C<>
 71
     5
 42
45.99999999999988
  3
STYLE2
100
AcDbAlignedDimension
 13
301.3776437385822
 23
284.7187873874494
 33
0.0
 14
347.3776437385821
 24
284.7187873874494
 34
0.0
100
AcDbRotatedDimension
1001
ACAD
1000
DSTYLE
1002
{
1070
   341
1005
0
1002
}
  0
DIMENSION
  5
1D5E
330
18
100
AcDbEntity
  8
寸法線
100
AcDbDimension
  2
*D2
 10
446.544269470445
 20
260.5412136918132
 30
0.0
 11
444.669269470445
 21
285.0412136918133
 31
0.0
 70
    32
  1
%%C<>
 71
     5
 42
49.0
  3
STYLE2
100
AcDbAlignedDimension
 13
414.0193285517135
 23
309.5412136918132
 33
0.0
 14
414.0193285517135
 24
260.5412136918132
 34
0.0
 50
90.0
100
AcDbRotatedDimension
  0
DIMENSION
  5
1D74
330
18
100
AcDbEntity
  8
寸法線
100
AcDbDimension
  2
*D3
 10
328.3776437385821
 20
250.9063489182418
 30
0.0
 11
339.1395485004869
 21
250.9063489182418
 31
0.0
 70
   160
  1
%%C<>
 71
     5
 42
8.0
  3
.0 type現尺
100
AcDbAlignedDimension
 13
320.3776437385821
 23
248.3163038945932
 33
0.0
 14
328.3776437385821
 24
248.4426472489179
 34
0.0
100
AcDbRotatedDimension
1001
ACAD
1000
DSTYLE
1002
{
1070
    76
1070
     1
1070
    75
1070
     1
1070
   146
1040
0.7
1070
   284
1070
     8
1070
   272
1070
     2
1070
   283
1070
     0
1070
    48
1040
0.03
1070
   147
1040
0.625
1070
    72
1070
     0
1070
    71
1070
     1
1002
}
  0
DIMENSION
  5
1D75
330
18
100
AcDbEntity
  8
寸法線
100
AcDbDimension
  2
*D4
 10
326.3776437385821
 20
232.6865854538937
 30
0.0
 11
334.0264532623916
 21
232.6865854538937
 31
0.0
 70
   160
  1
%%C<>
 71
     5
 42
4.0
  3
STYLE2
100
AcDbAlignedDimension
 13
322.3776437385821
 23
232.6865854538937
 33
0.0
 14
326.3776437385821
 24
232.6865854538937
 34
0.0
100
AcDbRotatedDimension
  0
ARC
  5
1DAE
330
18
100
AcDbEntity
  8
外形線
100
AcDbCircle
 10
324.3776437385821
 20
220.9187873874494
 30
0.0
 40
1.199999999999999
100
AcDbArc
 50
189.59406822686
 51
350.4059317731399
  0
ARC
  5
1DAF
330
18
100
AcDbEntity
  8
外形線
100
AcDbCircle
 10
407.5193285517137
 20
221.2412136918132
 30
0.0
 40
1.199999999999999
100
AcDbArc
 50
189.59406822686
 51
350.4059317731399
  0
LINE
  5
1DD9
330
18
100
AcDbEntity
  8
外形線
100
AcDbLine
 10
327.9770947936873
 20
351.6967768367267
 30
0.0
 11
401.0811587936872
 21
351.6967768367267
 31
0.0
  0
LINE
  5
1DDA
330
18
100
AcDbEntity
  8
外形線
100
AcDbLine
 10
327.9770947936873
 20
352.6967768367267
 30
0.0
 11
401.0811587936872
 21
352.6967768367267
 31
0.0
  0
TEXT
  5
1DDB
330
18
100
AcDbEntity
  8
文字
100
AcDbText
 10
329.7278297936872
 20
355.0797668367268
 30
0.0
 40
4.0
  1
Model No.57 Dial Gauge
  7
STYLE3
100
AcDbText
  0
LINE
  5
1E0D
330
18
100
AcDbEntity
  8
外形線
100
AcDbLine
 10
350.4626147936872
 20
192.4031128367268
 30
0.0
 11
491.2540327936872
 21
192.4031128367268
 31
0.0
  0
LINE
  5
1E0E
330
18
100
AcDbEntity
  8
外形線
100
AcDbLine
 10
350.4626147936872
 20
181.6229068367267
 30
0.0
 11
491.2540327936872
 21
181.6229068367267
 31
0.0
  0
TEXT
  5
1E0F
330
18
100
AcDbEntity
  8
0
  6
Continuous
100
AcDbText
 10
351.9200817936873
 20
183.5208968367267
 30
0.0
 40
2.1
  1
Design and specifications are subject to change without notice for future improvement.
  7
STYLE3
100
AcDbText
  0
TEXT
  5
1E10
330
18
100
AcDbEntity
  8
0
  6
Continuous
100
AcDbText
 10
352.2115757936873
 20
187.4500448367267
 30
0.0
 40
3.5
  1
仕様及び外観は予告なく変更される場合がございますのでご了承下さい。
  7
STYLE3
100
AcDbText
  0
TEXT
  5
1E11
330
18
100
AcDbEntity
  8
0
  6
Continuous
100
AcDbText
 10
351.6285907936872
 20
173.7562688367267
 30
0.0
 40
2.1
  1
3RD Angle Projection
  7
STYLE3
100
AcDbText
  0
TEXT
  5
1E12
330
18
100
AcDbEntity
  8
0
  6
Continuous
100
AcDbText
 10
354.2520337936872
 20
177.2525518367268
 30
0.0
 40
3.0
  1
三　　角　　法
  7
STYLE3
100
AcDbText
  0
LINE
  5
1E13
330
18
100
AcDbEntity
  8
外形線
100
AcDbLine
 10
350.4626147936872
 20
172.0081288367268
 30
0.0
 11
350.4626147936872
 21
192.4031128367268
 31
0.0
  0
LINE
  5
1E14
330
18
100
AcDbEntity
  8
外形線
100
AcDbLine
 10
452.4853817936872
 20
181.6229068367267
 30
0.0
 11
452.4853817936872
 21
172.0081288367268
 31
0.0
  0
LINE
  5
1E15
330
18
100
AcDbEntity
  8
外形線
100
AcDbLine
 10
422.7530317936872
 20
181.6229068367267
 30
0.0
 11
422.7530317936872
 21
172.0081288367268
 31
0.0
  0
LINE
  5
1E16
330
18
100
AcDbEntity
  8
外形線
100
AcDbLine
 10
403.2229597936872
 20
181.6229068367267
 30
0.0
 11
403.2229597936872
 21
172.0081288367268
 31
0.0
  0
LINE
  5
1E17
330
18
100
AcDbEntity
  8
外形線
100
AcDbLine
 10
385.7333427936873
 20
181.6229068367267
 30
0.0
 11
385.7333427936873
 21
172.0081288367268
 31
0.0
  0
TEXT
  5
1E18
330
18
100
AcDbEntity
  8
0
  6
Continuous
100
AcDbText
 10
387.1908117936872
 20
177.2585068367268
 30
0.0
 40
3.0
  1
単位
  7
STYLE3
100
AcDbText
  0
TEXT
  5
1E19
330
18
100
AcDbEntity
  8
0
  6
Continuous
100
AcDbText
 10
387.3625327936872
 20
173.7562698367268
 30
0.0
 40
2.1
  1
Unit
  7
STYLE3
100
AcDbText
  0
TEXT
  5
1E1A
330
18
100
AcDbEntity
  8
0
  6
Continuous
100
AcDbText
 10
404.5087077936872
 20
176.9671488367267
 30
0.0
 40
3.0
  1
尺 度
  7
STYLE3
100
AcDbText
  0
TEXT
  5
1E1B
330
18
100
AcDbEntity
  8
0
  6
Continuous
100
AcDbText
 10
395.2328597936872
 20
175.5044128367267
 30
0.0
 40
2.399999999999999
  1
mm
  7
STYLE3
100
AcDbText
  0
TEXT
  5
1E1C
330
18
100
AcDbEntity
  8
0
  6
Continuous
100
AcDbText
 10
404.9719227936872
 20
174.0476268367268
 30
0.0
 40
2.1
  1
Scale
  7
STYLE3
100
AcDbText
  0
TEXT
  5
1E1D
330
18
100
AcDbEntity
  8
0
  6
Continuous
100
AcDbText
 10
414.5912117936872
 20
175.7957698367268
 30
0.0
 40
2.399999999999999
  1
1/1
  7
STYLE3
100
AcDbText
  0
TEXT
  5
1E1E
330
18
100
AcDbEntity
  8
0
  6
Continuous
100
AcDbText
 10
424.6849827936872
 20
173.7562708367268
 30
0.0
 40
2.1
  1
Date
  7
STYLE3
100
AcDbText
  0
TEXT
  5
1E1F
330
18
100
AcDbEntity
  8
0
  6
Continuous
100
AcDbText
 10
424.3016217936872
 20
177.0893538367267
 30
0.0
 40
3.0
  1
日 付
  7
STYLE3
100
AcDbText
  0
TEXT
  5
1E20
330
18
100
AcDbEntity
  8
0
  6
Continuous
100
AcDbText
 10
433.4297907936872
 20
175.5044118367267
 30
0.0
 40
2.1
  1
2010.06.07
  7
STYLE3
100
AcDbText
  0
TEXT
  5
1E21
330
18
100
AcDbEntity
  8
0
  6
Continuous
100
AcDbText
 10
453.8343447936872
 20
177.5439088367267
 30
0.0
 40
3.0
  1
株式会社　尾崎製作所
  7
STYLE3
100
AcDbText
  0
TEXT
  5
1E22
330
18
100
AcDbEntity
  8
0
  6
Continuous
100
AcDbText
 10
454.7088237936872
 20
173.7562698367268
 30
0.0
 40
2.1
  1
OZAKI MFG. CO., LTD.
  7
STYLE3
100
AcDbText
  0
ENDSEC
  0
SECTION
  2
OBJECTS
  0
DICTIONARY
  5
C
330
0
100
AcDbDictionary
281
     1
  3
ACAD_COLOR
350
16AA
  3
ACAD_GROUP
350
D
  3
ACAD_IMAGE_DICT
350
E58
  3
ACAD_LAYOUT
350
16AD
  3
ACAD_MATERIAL
350
16A9
  3
ACAD_MLINESTYLE
350
1B
  3
ACAD_PLOTSETTINGS
350
16AE
  3
ACAD_PLOTSTYLENAME
350
16A7
  3
ACAD_TABLESTYLE
350
16AB
  3
ACDBVARIABLEDICTIONARY
350
1058
  0
DICTIONARY
  5
16AA
102
{ACAD_REACTORS
330
C
102
}
330
C
100
AcDbDictionary
281
     1
  0
DICTIONARY
  5
D
102
{ACAD_REACTORS
330
C
102
}
330
C
100
AcDbDictionary
281
     1
  0
DICTIONARY
  5
E58
102
{ACAD_REACTORS
330
C
102
}
330
C
100
AcDbDictionary
281
     1
  3
ROGO01
350
E59
  0
DICTIONARY
  5
16AD
102
{ACAD_REACTORS
330
C
102
}
330
C
100
AcDbDictionary
281
     1
  3
Model
350
16AF
  3
レイアウト1
350
16B0
  0
DICTIONARY
  5
16A9
102
{ACAD_REACTORS
330
C
102
}
330
C
100
AcDbDictionary
281
     1
  0
DICTIONARY
  5
1B
102
{ACAD_REACTORS
330
C
102
}
330
C
100
AcDbDictionary
281
     1
  3
STANDARD
350
1C
  0
DICTIONARY
  5
16AE
102
{ACAD_REACTORS
330
C
102
}
330
C
100
AcDbDictionary
281
     1
  0
ACDBDICTIONARYWDFLT
  5
16A7
102
{ACAD_REACTORS
330
C
102
}
330
C
100
AcDbDictionary
281
     1
  3
Normal
350
16A8
100
AcDbDictionaryWithDefault
340
16A8
  0
DICTIONARY
  5
16AB
102
{ACAD_REACTORS
330
C
102
}
330
C
100
AcDbDictionary
281
     1
  3
Standard
350
16AC
  0
DICTIONARY
  5
1058
102
{ACAD_REACTORS
330
C
102
}
330
C
100
AcDbDictionary
281
     1
  3
CTABLESTYLE
350
1DA4
  3
SORTENTS
350
1059
  0
IMAGEDEF
  5
E59
102
{ACAD_REACTORS
330
E58
102
}
330
E58
100
AcDbRasterImageDef
 90
        0
  1
D:\ﾃｽﾄ\rogo01.TIF
 10
3388.0
 20
4668.0
 11
0.0635
 21
0.0635
280
     1
281
     5
  0
LAYOUT
  5
16AF
102
{ACAD_REACTORS
330
16AD
102
}
330
16AD
100
AcDbPlotSettings
  1

  2
WIDR Printer
  4

  6

 40
0.0
 41
0.0
 42
0.0
 43
0.0
 44
0.0
 45
0.0
 46
0.0
 47
0.0
 48
0.0
 49
0.0
140
0.0
141
0.0
142
1.0
143
1.0
 70
  1712
 72
     0
 73
     0
 74
     0
  7
AutoCad LT 98.ctb
 75
     0
147
1.0
 76
     0
 77
     2
 78
   300
148
0.0
149
0.0
100
AcDbLayout
  1
Model
 70
     1
 71
     0
 10
0.0
 20
0.0
 11
12.0
 21
9.0
 12
0.0
 22
0.0
 32
0.0
 14
0.0
 24
0.0
 34
0.0
 15
0.0
 25
0.0
 35
0.0
146
0.0
 13
0.0
 23
0.0
 33
0.0
 16
1.0
 26
0.0
 36
0.0
 17
0.0
 27
1.0
 37
0.0
 76
     0
330
18
  0
LAYOUT
  5
16B0
102
{ACAD_REACTORS
330
16AD
102
}
330
16AD
100
AcDbPlotSettings
  1

  2
WIDR Printer
  4

  6

 40
0.0
 41
0.0
 42
0.0
 43
0.0
 44
0.0
 45
0.0
 46
0.0
 47
0.0
 48
0.0
 49
0.0
140
0.0
141
0.0
142
1.0
143
1.0
 70
   688
 72
     0
 73
     0
 74
     5
  7
AutoCad LT 98.ctb
 75
    16
147
1.0
 76
     0
 77
     2
 78
   300
148
0.0
149
0.0
100
AcDbLayout
  1
レイアウト1
 70
     1
 71
     1
 10
0.0
 20
0.0
 11
420.0
 21
297.0
 12
0.0
 22
0.0
 32
0.0
 14
1.000000000000000E+20
 24
1.000000000000000E+20
 34
1.000000000000000E+20
 15
-1.000000000000000E+20
 25
-1.000000000000000E+20
 35
-1.000000000000000E+20
146
0.0
 13
0.0
 23
0.0
 33
0.0
 16
1.0
 26
0.0
 36
0.0
 17
0.0
 27
1.0
 37
0.0
 76
     0
330
15
  0
MLINESTYLE
  5
1C
102
{ACAD_REACTORS
330
1B
102
}
330
1B
100
AcDbMlineStyle
  2
STANDARD
 70
     0
  3

 62
   256
 51
90.0
 52
90.0
 71
     2
 49
0.5
 62
   256
  6
BYLAYER
 49
-0.5
 62
   256
  6
BYLAYER
  0
ACDBPLACEHOLDER
  5
16A8
102
{ACAD_REACTORS
330
16A7
102
}
330
16A7
  0
ACAD_PROXY_OBJECT
  5
16AC
102
{ACAD_REACTORS
330
16AB
102
}
330
16AB
100
AcDbProxyObject
 90
      499
 91
      505
 95
  2555929
 70
     0
 93
     1849
310
4214DD185B99185C992420000000000000F83F0000000000003E0FC00000000000004901028000000C1008070000C3001FDFF8000000C1003FBFF000000182007F7FE00000030400FEFFC00000060801FDFF8000000C1003FBFF000000182000000000000000C2020B0000001820100E000186003FBFF000000182007F7FE0
310
0000030400FEFFC00000060801FDFF8000000C1003FBFF000000182007F7FE0000003040000000000000012404160000003040201C00030C007F7FE00000030400FEFFC00000060801FDFF8000000C1003FBFF000000182007F7FE00000030400FEFFC000000608000
340
F
340
F
340
F
 94
        0
  0
DICTIONARYVAR
  5
1DA4
102
{ACAD_REACTORS
330
1058
102
}
330
1058
100
DictionaryVariables
280
     0
  1
STANDARD
  0
DICTIONARYVAR
  5
1059
102
{ACAD_REACTORS
330
1058
102
}
330
1058
100
DictionaryVariables
280
     0
  1
96
  0
ENDSEC
  0
EOF
