  0
SECTION
  2
HEADER
  9
$ACADVER
  1
AC1018
  9
$ACADMAINTVER
 70
     0
  9
$DWGCODEPAGE
  3
ANSI_932
  9
$INSBASE
 10
0.0
 20
0.0
 30
0.0
  9
$EXTMIN
 10
236.4576694810369
 20
171.6313712927051
 30
-0.0000000000000064
  9
$EXTMAX
 10
491.9202198339016
 20
367.0501782466424
 30
0.0000000000000089
  9
$LIMMIN
 10
0.0
 20
0.0
  9
$LIMMAX
 10
420.0
 20
297.0
  9
$ORTHOMODE
 70
     0
  9
$REGENMODE
 70
     1
  9
$FILLMODE
 70
     1
  9
$QTEXTMODE
 70
     0
  9
$MIRRTEXT
 70
     1
  9
$LTSCALE
 40
1.0
  9
$ATTMODE
 70
     1
  9
$TEXTSIZE
 40
1.0
  9
$TRACEWID
 40
1.0
  9
$TEXTSTYLE
  7
STYLE3
  9
$CLAYER
  8
外形線
  9
$CELTYPE
  6
BYLAYER
  9
$CECOLOR
 62
   256
  9
$CELTSCALE
 40
1.0
  9
$DISPSILH
 70
     0
  9
$DIMSCALE
 40
1.0
  9
$DIMASZ
 40
2.5
  9
$DIMEXO
 40
0.0
  9
$DIMDLI
 40
3.75
  9
$DIMRND
 40
0.0
  9
$DIMDLE
 40
0.0
  9
$DIMEXE
 40
1.25
  9
$DIMTP
 40
0.0
  9
$DIMTM
 40
0.0
  9
$DIMTXT
 40
2.5
  9
$DIMCEN
 40
2.5
  9
$DIMTSZ
 40
0.0
  9
$DIMTOL
 70
     0
  9
$DIMLIM
 70
     0
  9
$DIMTIH
 70
     0
  9
$DIMTOH
 70
     0
  9
$DIMSE1
 70
     0
  9
$DIMSE2
 70
     0
  9
$DIMTAD
 70
     1
  9
$DIMZIN
 70
     8
  9
$DIMBLK
  1

  9
$DIMASO
 70
     1
  9
$DIMSHO
 70
     1
  9
$DIMPOST
  1

  9
$DIMAPOST
  1

  9
$DIMALT
 70
     0
  9
$DIMALTD
 70
     4
  9
$DIMALTF
 40
0.0394
  9
$DIMLFAC
 40
1.0
  9
$DIMTOFL
 70
     1
  9
$DIMTVP
 40
0.0
  9
$DIMTIX
 70
     0
  9
$DIMSOXD
 70
     0
  9
$DIMSAH
 70
     1
  9
$DIMBLK1
  1
OPEN
  9
$DIMBLK2
  1
OPEN
  9
$DIMSTYLE
  2
STYLE2
  9
$DIMCLRD
 70
     2
  9
$DIMCLRE
 70
     2
  9
$DIMCLRT
 70
     6
  9
$DIMTFAC
 40
1.0
  9
$DIMGAP
 40
0.625
  9
$DIMJUST
 70
     0
  9
$DIMSD1
 70
     0
  9
$DIMSD2
 70
     0
  9
$DIMTOLJ
 70
     1
  9
$DIMTZIN
 70
     0
  9
$DIMALTZ
 70
     0
  9
$DIMALTTZ
 70
     0
  9
$DIMUPT
 70
     0
  9
$DIMDEC
 70
     1
  9
$DIMTDEC
 70
     4
  9
$DIMALTU
 70
     8
  9
$DIMALTTD
 70
     4
  9
$DIMTXSTY
  7
STYLE3
  9
$DIMAUNIT
 70
     0
  9
$DIMADEC
 70
     0
  9
$DIMALTRND
 40
0.0
  9
$DIMAZIN
 70
     0
  9
$DIMDSEP
 70
    46
  9
$DIMATFIT
 70
     3
  9
$DIMFRAC
 70
     0
  9
$DIMLDRBLK
  1

  9
$DIMLUNIT
 70
     2
  9
$DIMLWD
 70
    -2
  9
$DIMLWE
 70
    -2
  9
$DIMTMOVE
 70
     0
  9
$LUNITS
 70
     2
  9
$LUPREC
 70
     4
  9
$SKETCHINC
 40
1.0
  9
$FILLETRAD
 40
0.0
  9
$AUNITS
 70
     0
  9
$AUPREC
 70
     0
  9
$MENU
  1
.
  9
$ELEVATION
 40
0.0
  9
$PELEVATION
 40
0.0
  9
$THICKNESS
 40
0.0
  9
$LIMCHECK
 70
     0
  9
$CHAMFERA
 40
0.2
  9
$CHAMFERB
 40
0.2
  9
$CHAMFERC
 40
20.0
  9
$CHAMFERD
 40
0.0
  9
$SKPOLY
 70
     0
  9
$TDCREATE
 40
2450717.578556713
  9
$TDUCREATE
 40
2450717.203556713
  9
$TDUPDATE
 40
2455355.707511204
  9
$TDUUPDATE
 40
2455355.332511204
  9
$TDINDWG
 40
0.5856380208
  9
$TDUSRTIMER
 40
0.5856380208
  9
$USRTIMER
 70
     1
  9
$ANGBASE
 50
0.0
  9
$ANGDIR
 70
     0
  9
$PDMODE
 70
     0
  9
$PDSIZE
 40
0.0
  9
$PLINEWID
 40
0.0
  9
$SPLFRAME
 70
     0
  9
$SPLINETYPE
 70
     6
  9
$SPLINESEGS
 70
     8
  9
$HANDSEED
  5
1A68
  9
$SURFTAB1
 70
     6
  9
$SURFTAB2
 70
     6
  9
$SURFTYPE
 70
     6
  9
$SURFU
 70
     6
  9
$SURFV
 70
     6
  9
$UCSBASE
  2

  9
$UCSNAME
  2

  9
$UCSORG
 10
0.0
 20
0.0
 30
0.0
  9
$UCSXDIR
 10
1.0
 20
0.0
 30
0.0
  9
$UCSYDIR
 10
0.0
 20
1.0
 30
0.0
  9
$UCSORTHOREF
  2

  9
$UCSORTHOVIEW
 70
     0
  9
$UCSORGTOP
 10
0.0
 20
0.0
 30
0.0
  9
$UCSORGBOTTOM
 10
0.0
 20
0.0
 30
0.0
  9
$UCSORGLEFT
 10
0.0
 20
0.0
 30
0.0
  9
$UCSORGRIGHT
 10
0.0
 20
0.0
 30
0.0
  9
$UCSORGFRONT
 10
0.0
 20
0.0
 30
0.0
  9
$UCSORGBACK
 10
0.0
 20
0.0
 30
0.0
  9
$PUCSBASE
  2

  9
$PUCSNAME
  2

  9
$PUCSORG
 10
0.0
 20
0.0
 30
0.0
  9
$PUCSXDIR
 10
1.0
 20
0.0
 30
0.0
  9
$PUCSYDIR
 10
0.0
 20
1.0
 30
0.0
  9
$PUCSORTHOREF
  2

  9
$PUCSORTHOVIEW
 70
     0
  9
$PUCSORGTOP
 10
0.0
 20
0.0
 30
0.0
  9
$PUCSORGBOTTOM
 10
0.0
 20
0.0
 30
0.0
  9
$PUCSORGLEFT
 10
0.0
 20
0.0
 30
0.0
  9
$PUCSORGRIGHT
 10
0.0
 20
0.0
 30
0.0
  9
$PUCSORGFRONT
 10
0.0
 20
0.0
 30
0.0
  9
$PUCSORGBACK
 10
0.0
 20
0.0
 30
0.0
  9
$USERI1
 70
     0
  9
$USERI2
 70
     0
  9
$USERI3
 70
     0
  9
$USERI4
 70
     0
  9
$USERI5
 70
     0
  9
$USERR1
 40
0.0
  9
$USERR2
 40
0.0
  9
$USERR3
 40
0.0
  9
$USERR4
 40
0.0
  9
$USERR5
 40
0.0
  9
$WORLDVIEW
 70
     1
  9
$SHADEDGE
 70
     3
  9
$SHADEDIF
 70
    70
  9
$TILEMODE
 70
     1
  9
$MAXACTVP
 70
    48
  9
$PINSBASE
 10
0.0
 20
0.0
 30
0.0
  9
$PLIMCHECK
 70
     0
  9
$PEXTMIN
 10
1.000000000000000E+20
 20
1.000000000000000E+20
 30
1.000000000000000E+20
  9
$PEXTMAX
 10
-1.000000000000000E+20
 20
-1.000000000000000E+20
 30
-1.000000000000000E+20
  9
$PLIMMIN
 10
0.0
 20
0.0
  9
$PLIMMAX
 10
420.0
 20
297.0
  9
$UNITMODE
 70
     0
  9
$VISRETAIN
 70
     1
  9
$PLINEGEN
 70
     0
  9
$PSLTSCALE
 70
     1
  9
$TREEDEPTH
 70
  3020
  9
$CMLSTYLE
  2
STANDARD
  9
$CMLJUST
 70
     0
  9
$CMLSCALE
 40
20.0
  9
$PROXYGRAPHICS
 70
     1
  9
$MEASUREMENT
 70
     1
  9
$CELWEIGHT
370
    -1
  9
$ENDCAPS
280
     0
  9
$JOINSTYLE
280
     0
  9
$LWDISPLAY
290
     0
  9
$INSUNITS
 70
     0
  9
$HYPERLINKBASE
  1

  9
$STYLESHEET
  1

  9
$XEDIT
290
     1
  9
$CEPSNTYPE
380
     0
  9
$PSTYLEMODE
290
     1
  9
$FINGERPRINTGUID
  2
{453967BB-3BA5-4248-8D39-E59EDA67DBD3}
  9
$VERSIONGUID
  2
{3A9F3AD3-61A5-4199-900B-44C5425D0351}
  9
$EXTNAMES
290
     1
  9
$PSVPSCALE
 40
0.0
  9
$OLESTARTUP
290
     0
  9
$SORTENTS
280
    96
  9
$INDEXCTL
280
     0
  9
$HIDETEXT
280
     0
  9
$XCLIPFRAME
290
     0
  9
$HALOGAP
280
     0
  9
$OBSCOLOR
 70
   257
  9
$OBSLTYPE
280
     0
  9
$INTERSECTIONDISPLAY
280
     0
  9
$INTERSECTIONCOLOR
 70
   257
  9
$DIMASSOC
280
     1
  9
$PROJECTNAME
  1

  0
ENDSEC
  0
SECTION
  2
CLASSES
  0
CLASS
  1
HATCH
  2
AcDbHatch
  3
ObjectDBX Classes
 90
        0
 91
       17
280
     0
281
     1
  0
CLASS
  1
LWPOLYLINE
  2
AcDbPolyline
  3
ObjectDBX Classes
 90
        0
 91
        1
280
     0
281
     1
  0
CLASS
  1
IMAGEDEF
  2
AcDbRasterImageDef
  3
ISM
 90
        0
 91
        1
280
     0
281
     0
  0
CLASS
  1
DICTIONARYVAR
  2
AcDbDictionaryVar
  3
ObjectDBX Classes
 90
        0
 91
        2
280
     0
281
     0
  0
CLASS
  1
ACDBDICTIONARYWDFLT
  2
AcDbDictionaryWithDefault
  3
ObjectDBX Classes
 90
        0
 91
        1
280
     0
281
     0
  0
CLASS
  1
TABLESTYLE
  2
AcDbTableStyle
  3
ObjectDBX Classes
 90
     2047
 91
        1
280
     0
281
     0
  0
ENDSEC
  0
SECTION
  2
TABLES
  0
TABLE
  2
VPORT
  5
8
330
0
100
AcDbSymbolTable
 70
     3
  0
VPORT
  5
1A67
330
8
100
AcDbSymbolTableRecord
100
AcDbViewportTableRecord
  2
*Active
 70
     0
 10
0.0
 20
0.0
 11
1.0
 21
1.0
 12
364.1889446574693
 22
269.3407747696738
 13
0.0
 23
0.0
 14
10.0
 24
10.0
 15
10.0
 25
10.0
 16
0.0
 26
0.0
 36
1.0
 17
0.0
 27
0.0
 37
0.0
 40
196.9048815315337
 41
1.530456852791878
 42
50.0
 43
0.0
 44
0.0
 50
0.0
 51
0.0
 71
     0
 72
   100
 73
     1
 74
     1
 75
     0
 76
     0
 77
     0
 78
     0
281
     0
 65
     1
110
0.0
120
0.0
130
0.0
111
1.0
121
0.0
131
0.0
112
0.0
122
1.0
132
0.0
 79
     0
146
0.0
  0
ENDTAB
  0
TABLE
  2
LTYPE
  5
5
330
0
100
AcDbSymbolTable
 70
     4
  0
LTYPE
  5
12
330
5
100
AcDbSymbolTableRecord
100
AcDbLinetypeTableRecord
  2
BYBLOCK
 70
     0
  3

 72
    65
 73
     0
 40
0.0
  0
LTYPE
  5
13
330
5
100
AcDbSymbolTableRecord
100
AcDbLinetypeTableRecord
  2
BYLAYER
 70
     0
  3

 72
    65
 73
     0
 40
0.0
  0
LTYPE
  5
14
330
5
100
AcDbSymbolTableRecord
100
AcDbLinetypeTableRecord
  2
CONTINUOUS
 70
     0
  3
Solid line
 72
    65
 73
     0
 40
0.0
  0
LTYPE
  5
22
330
5
100
AcDbSymbolTableRecord
100
AcDbLinetypeTableRecord
  2
CENTER2
 70
     0
  3
Center (.5x) ___ _ ___ _ ___ _ ___ _ ___ _ ___
 72
    65
 73
     4
 40
28.575
 49
19.05
 74
     0
 49
-3.174999999999999
 74
     0
 49
3.174999999999999
 74
     0
 49
-3.174999999999999
 74
     0
  0
LTYPE
  5
24
330
5
100
AcDbSymbolTableRecord
100
AcDbLinetypeTableRecord
  2
PHANTOM2
 70
     0
  3
Phantom (.5x) ___ _ _ ___ _ _ ___ _ _ ___ _ _
 72
    65
 73
     6
 40
31.75
 49
15.875
 74
     0
 49
-3.174999999999999
 74
     0
 49
3.174999999999999
 74
     0
 49
-3.174999999999999
 74
     0
 49
3.174999999999999
 74
     0
 49
-3.174999999999999
 74
     0
  0
ENDTAB
  0
TABLE
  2
LAYER
  5
2
330
0
100
AcDbSymbolTable
 70
    16
  0
LAYER
  5
E
330
2
100
AcDbSymbolTableRecord
100
AcDbLayerTableRecord
  2
0
 70
     0
 62
     7
  6
CONTINUOUS
370
    -3
390
19C8
  0
LAYER
  5
25
330
2
100
AcDbSymbolTableRecord
100
AcDbLayerTableRecord
  2
外形線
 70
     0
 62
     7
  6
CONTINUOUS
370
    -3
390
19C8
  0
LAYER
  5
27
330
2
100
AcDbSymbolTableRecord
100
AcDbLayerTableRecord
  2
中心線
 70
     0
 62
     4
  6
CENTER2
370
    -3
390
19C8
  0
LAYER
  5
29
330
2
100
AcDbSymbolTableRecord
100
AcDbLayerTableRecord
  2
想像線
 70
     0
 62
     1
  6
PHANTOM2
370
    -3
390
19C8
  0
LAYER
  5
2A
330
2
100
AcDbSymbolTableRecord
100
AcDbLayerTableRecord
  2
ﾊｯﾁﾝｸ
 70
     0
 62
     4
  6
CONTINUOUS
370
    -3
390
19C8
  0
LAYER
  5
2B
330
2
100
AcDbSymbolTableRecord
100
AcDbLayerTableRecord
  2
文字
 70
     0
 62
     6
  6
CONTINUOUS
370
    -3
390
19C8
  0
LAYER
  5
2C
330
2
100
AcDbSymbolTableRecord
100
AcDbLayerTableRecord
  2
目盛
 70
     0
 62
    70
  6
CONTINUOUS
370
    -3
390
19C8
  0
LAYER
  5
2D
330
2
100
AcDbSymbolTableRecord
100
AcDbLayerTableRecord
  2
針
 70
     0
 62
     5
  6
CONTINUOUS
370
    -3
390
19C8
  0
LAYER
  5
53
330
2
100
AcDbSymbolTableRecord
100
AcDbLayerTableRecord
  2
DEFPOINTS
 70
     0
 62
     7
  6
CONTINUOUS
290
     0
370
    -3
390
19C8
  0
LAYER
  5
A5
330
2
100
AcDbSymbolTableRecord
100
AcDbLayerTableRecord
  2
C
 70
     0
 62
     7
  6
CONTINUOUS
370
    -3
390
19C8
  0
LAYER
  5
E00
330
2
100
AcDbSymbolTableRecord
100
AcDbLayerTableRecord
  2
ROGO
 70
     0
 62
     6
  6
CONTINUOUS
370
    -3
390
19C8
  0
ENDTAB
  0
TABLE
  2
STYLE
  5
3
330
0
100
AcDbSymbolTable
 70
     3
  0
STYLE
  5
F
330
3
100
AcDbSymbolTableRecord
100
AcDbTextStyleTableRecord
  2
STANDARD
 70
     0
 40
0.0
 41
1.0
 50
0.0
 71
     0
 42
2.5
  3
txt
  4

  0
STYLE
  5
3F
330
3
100
AcDbSymbolTableRecord
100
AcDbTextStyleTableRecord
  2
STYLE3
 70
     0
 40
0.0
 41
1.0
 50
0.0
 71
     0
 42
1.0
  3
romans.shx
  4
bigfont.shx
  0
ENDTAB
  0
TABLE
  2
VIEW
  5
6
330
0
100
AcDbSymbolTable
 70
     0
  0
ENDTAB
  0
TABLE
  2
UCS
  5
7
330
0
100
AcDbSymbolTable
 70
     0
  0
ENDTAB
  0
TABLE
  2
APPID
  5
9
330
0
100
AcDbSymbolTable
 70
     1
  0
APPID
  5
10
330
9
100
AcDbSymbolTableRecord
100
AcDbRegAppTableRecord
  2
ACAD
 70
     0
  0
ENDTAB
  0
TABLE
  2
DIMSTYLE
  5
A
330
0
100
AcDbSymbolTable
 70
     3
100
AcDbDimStyleTable
 71
     1
340
66
  0
DIMSTYLE
105
1D
330
A
100
AcDbSymbolTableRecord
100
AcDbDimStyleTableRecord
  2
STANDARD
 70
     0
 41
2.5
 42
0.625
 43
3.75
 44
1.25
 73
     0
 74
     0
 77
     1
 78
     8
140
2.5
141
2.5
143
0.0394
147
0.625
171
     4
172
     1
273
     8
274
     4
277
     6
340
F
  0
DIMSTYLE
105
66
102
{ACAD_REACTORS
330
193B
330
1948
330
1955
330
1962
102
}
330
A
100
AcDbSymbolTableRecord
100
AcDbDimStyleTableRecord
  2
STYLE2
 70
     0
 41
2.5
 42
0.0
 43
3.75
 44
1.25
 73
     0
 74
     0
 77
     1
 78
     8
140
2.5
141
2.5
143
0.0394
147
0.625
171
     4
172
     1
173
     1
176
     2
177
     2
178
     6
271
     1
273
     8
274
     4
340
3F
341
45
343
45
344
45
  0
ENDTAB
  0
TABLE
  2
BLOCK_RECORD
  5
1
330
0
100
AcDbSymbolTable
 70
    11
  0
BLOCK_RECORD
  5
18
330
1
100
AcDbSymbolTableRecord
100
AcDbBlockTableRecord
  2
*MODEL_SPACE
340
19CF
  0
BLOCK_RECORD
  5
15
330
1
100
AcDbSymbolTableRecord
100
AcDbBlockTableRecord
  2
*PAPER_SPACE
340
19D0
  0
BLOCK_RECORD
  5
45
330
1
100
AcDbSymbolTableRecord
100
AcDbBlockTableRecord
  2
_OPEN
340
0
102
{BLKREFS
331
836
331
837
331
875
331
876
331
87E
331
87F
331
F35
331
F36
331
FD7
331
FD8
331
FE0
331
FE1
331
10CC
331
10CD
331
16A7
331
16A8
331
16B9
331
16BA
331
1700
331
1701
331
1719
331
171A
331
172E
331
172F
331
174E
331
174F
331
1808
331
1809
331
19ED
331
1A24
331
1A25
331
1A2D
331
1A2E
331
1A36
331
1A37
331
1A3F
331
1A40
102
}
  0
BLOCK_RECORD
  5
192F
330
1
100
AcDbSymbolTableRecord
100
AcDbBlockTableRecord
  2
*D3
340
0
  0
BLOCK_RECORD
  5
193C
330
1
100
AcDbSymbolTableRecord
100
AcDbBlockTableRecord
  2
*D4
340
0
  0
BLOCK_RECORD
  5
1949
330
1
100
AcDbSymbolTableRecord
100
AcDbBlockTableRecord
  2
*D5
340
0
  0
BLOCK_RECORD
  5
1956
330
1
100
AcDbSymbolTableRecord
100
AcDbBlockTableRecord
  2
*D6
340
0
  0
BLOCK_RECORD
  5
19FC
330
1
100
AcDbSymbolTableRecord
100
AcDbBlockTableRecord
  2
A$C16CD0C5E
340
0
102
{BLKREFS
331
1A19
102
}
  0
ENDTAB
  0
ENDSEC
  0
SECTION
  2
BLOCKS
  0
BLOCK
  5
19
330
18
100
AcDbEntity
  8
0
100
AcDbBlockBegin
  2
*MODEL_SPACE
 70
     0
 10
0.0
 20
0.0
 30
0.0
  3
*MODEL_SPACE
  1

  0
ENDBLK
  5
1A
330
18
100
AcDbEntity
  8
0
100
AcDbBlockEnd
  0
BLOCK
  5
16
330
15
100
AcDbEntity
 67
     1
  8
0
100
AcDbBlockBegin
  2
*PAPER_SPACE
 70
     0
 10
0.0
 20
0.0
 30
0.0
  3
*PAPER_SPACE
  1

  0
ENDBLK
  5
17
330
15
100
AcDbEntity
 67
     1
  8
0
100
AcDbBlockEnd
  0
BLOCK
  5
46
330
45
100
AcDbEntity
  8
0
100
AcDbBlockBegin
  2
_OPEN
 70
     0
 10
0.0
 20
0.0
 30
0.0
  3
_OPEN
  1

  0
LINE
  5
47
330
45
100
AcDbEntity
  8
0
  6
ByBlock
 62
     0
100
AcDbLine
 10
-1.0
 20
0.1666666666666666
 30
0.0
 11
0.0
 21
0.0
 31
0.0
  0
LINE
  5
48
330
45
100
AcDbEntity
  8
0
  6
ByBlock
 62
     0
100
AcDbLine
 10
0.0
 20
0.0
 30
0.0
 11
-1.0
 21
-0.1666666666666666
 31
0.0
  0
LINE
  5
49
330
45
100
AcDbEntity
  8
0
  6
ByBlock
 62
     0
100
AcDbLine
 10
0.0
 20
0.0
 30
0.0
 11
-1.0
 21
0.0
 31
0.0
  0
ENDBLK
  5
4A
330
45
100
AcDbEntity
  8
0
100
AcDbBlockEnd
  0
BLOCK
  5
1930
330
192F
100
AcDbEntity
  8
0
100
AcDbBlockBegin
  2
*D3
 70
     1
 10
0.0
 20
0.0
 30
0.0
  3
*D3
  1

  0
LINE
  5
1A3C
330
192F
100
AcDbEntity
  8
外形線
 62
     2
370
    -2
100
AcDbLine
 10
406.644136665818
 20
216.1353591853291
 30
0.0
 11
388.0005274298921
 21
216.1353591853291
 31
0.0
  0
LINE
  5
1A3D
330
192F
100
AcDbEntity
  8
外形線
 62
     2
370
    -2
100
AcDbLine
 10
394.9935417955926
 20
225.1352551569941
 30
0.0
 11
388.0005274298921
 21
225.1352551569941
 31
0.0
  0
LINE
  5
1A3E
330
192F
100
AcDbEntity
  8
外形線
 62
     2
370
    -2
100
AcDbLine
 10
389.2505274298921
 20
218.6353591853291
 30
0.0
 11
389.2505274298921
 21
222.6352551569941
 31
0.0
  0
INSERT
  5
1A3F
330
192F
100
AcDbEntity
  8
外形線
 62
     2
370
    -2
100
AcDbBlockReference
  2
_OPEN
 10
389.2505274298921
 20
216.1353591853291
 30
0.0
 41
2.5
 42
2.5
 43
2.5
 50
270.0
  0
INSERT
  5
1A40
330
192F
100
AcDbEntity
  8
外形線
 62
     2
370
    -2
100
AcDbBlockReference
  2
_OPEN
 10
389.2505274298921
 20
225.1352551569941
 30
0.0
 41
2.5
 42
2.5
 43
2.5
 50
90.0
  0
MTEXT
  5
1A41
330
192F
100
AcDbEntity
  8
外形線
 62
     6
100
AcDbMText
 10
387.375527429892
 20
220.6353071711617
 30
0.0
 40
2.5
 41
0.0
 71
     5
 72
     1
  1
\A1;9
  7
STYLE3
 11
0.0000000000000001
 21
1.0
 31
0.0
 73
     1
 44
1.0
  0
POINT
  5
1A42
330
192F
100
AcDbEntity
  8
DEFPOINTS
 62
     0
100
AcDbPoint
 10
406.644136665818
 20
216.1353591853291
 30
0.0
  0
POINT
  5
1A43
330
192F
100
AcDbEntity
  8
DEFPOINTS
 62
     0
100
AcDbPoint
 10
394.9935417955926
 20
225.1352551569941
 30
0.0
  0
POINT
  5
1A44
330
192F
100
AcDbEntity
  8
DEFPOINTS
 62
     0
100
AcDbPoint
 10
389.2505274298921
 20
225.1352551569941
 30
0.0
  0
ENDBLK
  5
193A
330
192F
100
AcDbEntity
  8
0
100
AcDbBlockEnd
  0
BLOCK
  5
193D
330
193C
100
AcDbEntity
  8
0
100
AcDbBlockBegin
  2
*D4
 70
     1
 10
0.0
 20
0.0
 30
0.0
  3
*D4
  1

  0
LINE
  5
1A33
330
193C
100
AcDbEntity
  8
外形線
 62
     2
370
    -2
100
AcDbLine
 10
388.0005274298921
 20
216.1353591853291
 30
0.0
 11
379.8257202890957
 21
216.1353591853291
 31
0.0
  0
LINE
  5
1A34
330
193C
100
AcDbEntity
  8
外形線
 62
     2
370
    -2
100
AcDbLine
 10
382.8275620203765
 20
253.6352551569941
 30
0.0
 11
379.8257202890957
 21
253.6352551569941
 31
0.0
  0
LINE
  5
1A35
330
193C
100
AcDbEntity
  8
外形線
 62
     2
370
    -2
100
AcDbLine
 10
381.0757202890957
 20
218.6353591853291
 30
0.0
 11
381.0757202890957
 21
251.1352551569941
 31
0.0
  0
INSERT
  5
1A36
330
193C
100
AcDbEntity
  8
外形線
 62
     2
370
    -2
100
AcDbBlockReference
  2
_OPEN
 10
381.0757202890957
 20
216.1353591853291
 30
0.0
 41
2.5
 42
2.5
 43
2.5
 50
270.0
  0
INSERT
  5
1A37
330
193C
100
AcDbEntity
  8
外形線
 62
     2
370
    -2
100
AcDbBlockReference
  2
_OPEN
 10
381.0757202890957
 20
253.6352551569941
 30
0.0
 41
2.5
 42
2.5
 43
2.5
 50
90.0
  0
MTEXT
  5
1A38
330
193C
100
AcDbEntity
  8
外形線
 62
     6
100
AcDbMText
 10
379.2007202890957
 20
234.8853071711617
 30
0.0
 40
2.5
 41
0.0
 71
     5
 72
     1
  1
\A1;37.5
  7
STYLE3
 11
0.0000000000000001
 21
1.0
 31
0.0
 73
     1
 44
1.0
  0
POINT
  5
1A39
330
193C
100
AcDbEntity
  8
DEFPOINTS
 62
     0
100
AcDbPoint
 10
388.0005274298921
 20
216.1353591853291
 30
0.0
  0
POINT
  5
1A3A
330
193C
100
AcDbEntity
  8
DEFPOINTS
 62
     0
100
AcDbPoint
 10
382.8275620203765
 20
253.6352551569941
 30
0.0
  0
POINT
  5
1A3B
330
193C
100
AcDbEntity
  8
DEFPOINTS
 62
     0
100
AcDbPoint
 10
381.0757202890957
 20
253.6352551569941
 30
0.0
  0
ENDBLK
  5
1947
330
193C
100
AcDbEntity
  8
0
100
AcDbBlockEnd
  0
BLOCK
  5
194A
330
1949
100
AcDbEntity
  8
0
100
AcDbBlockBegin
  2
*D5
 70
     1
 10
0.0
 20
0.0
 30
0.0
  3
*D5
  1

  0
LINE
  5
1A2A
330
1949
100
AcDbEntity
  8
外形線
 62
     2
370
    -2
100
AcDbLine
 10
329.1043036361366
 20
216.1352551569941
 30
0.0
 11
291.0613763407623
 21
216.1352551569941
 31
0.0
  0
LINE
  5
1A2B
330
1949
100
AcDbEntity
  8
外形線
 62
     2
370
    -2
100
AcDbLine
 10
294.9573161407599
 20
281.1352551569941
 30
0.0
 11
291.0613763407623
 21
281.1352551569941
 31
0.0
  0
LINE
  5
1A2C
330
1949
100
AcDbEntity
  8
外形線
 62
     2
370
    -2
100
AcDbLine
 10
292.3113763407623
 20
218.6352551569942
 30
0.0
 11
292.3113763407623
 21
278.6352551569941
 31
0.0
  0
INSERT
  5
1A2D
330
1949
100
AcDbEntity
  8
外形線
 62
     2
370
    -2
100
AcDbBlockReference
  2
_OPEN
 10
292.3113763407623
 20
216.1352551569941
 30
0.0
 41
2.5
 42
2.5
 43
2.5
 50
270.0
  0
INSERT
  5
1A2E
330
1949
100
AcDbEntity
  8
外形線
 62
     2
370
    -2
100
AcDbBlockReference
  2
_OPEN
 10
292.3113763407623
 20
281.1352551569941
 30
0.0
 41
2.5
 42
2.5
 43
2.5
 50
90.0
  0
MTEXT
  5
1A2F
330
1949
100
AcDbEntity
  8
外形線
 62
     6
100
AcDbMText
 10
290.4363763407623
 20
248.6352551569941
 30
0.0
 40
2.5
 41
0.0
 71
     5
 72
     1
  1
\A1;65
  7
STYLE3
 11
0.0000000000000001
 21
1.0
 31
0.0
 73
     1
 44
1.0
  0
POINT
  5
1A30
330
1949
100
AcDbEntity
  8
DEFPOINTS
 62
     0
100
AcDbPoint
 10
329.1043036361366
 20
216.1352551569941
 30
0.0
  0
POINT
  5
1A31
330
1949
100
AcDbEntity
  8
DEFPOINTS
 62
     0
100
AcDbPoint
 10
294.9573161407599
 20
281.1352551569941
 30
0.0
  0
POINT
  5
1A32
330
1949
100
AcDbEntity
  8
DEFPOINTS
 62
     0
100
AcDbPoint
 10
292.3113763407623
 20
281.1352551569941
 30
0.0
  0
ENDBLK
  5
1954
330
1949
100
AcDbEntity
  8
0
100
AcDbBlockEnd
  0
BLOCK
  5
1957
330
1956
100
AcDbEntity
  8
0
100
AcDbBlockBegin
  2
*D6
 70
     1
 10
0.0
 20
0.0
 30
0.0
  3
*D6
  1

  0
LINE
  5
1A21
330
1956
100
AcDbEntity
  8
外形線
 62
     2
370
    -2
100
AcDbLine
 10
291.0613763407623
 20
216.1352551569941
 30
0.0
 11
284.776009177536
 21
216.1352551569941
 31
0.0
  0
LINE
  5
1A22
330
1956
100
AcDbEntity
  8
外形線
 62
     2
370
    -2
100
AcDbLine
 10
286.5087825515744
 20
322.6352551569941
 30
0.0
 11
284.776009177536
 21
322.6352551569941
 31
0.0
  0
LINE
  5
1A23
330
1956
100
AcDbEntity
  8
外形線
 62
     2
370
    -2
100
AcDbLine
 10
286.026009177536
 20
218.6352551569941
 30
0.0
 11
286.026009177536
 21
320.1352551569941
 31
0.0
  0
INSERT
  5
1A24
330
1956
100
AcDbEntity
  8
外形線
 62
     2
370
    -2
100
AcDbBlockReference
  2
_OPEN
 10
286.026009177536
 20
216.1352551569941
 30
0.0
 41
2.5
 42
2.5
 43
2.5
 50
270.0
  0
INSERT
  5
1A25
330
1956
100
AcDbEntity
  8
外形線
 62
     2
370
    -2
100
AcDbBlockReference
  2
_OPEN
 10
286.026009177536
 20
322.6352551569941
 30
0.0
 41
2.5
 42
2.5
 43
2.5
 50
90.0
  0
MTEXT
  5
1A26
330
1956
100
AcDbEntity
  8
外形線
 62
     6
100
AcDbMText
 10
284.151009177536
 20
269.3852551569942
 30
0.0
 40
2.5
 41
0.0
 71
     5
 72
     1
  1
\A1;106.5
  7
STYLE3
 11
0.0000000000000001
 21
1.0
 31
0.0
 73
     1
 44
1.0
  0
POINT
  5
1A27
330
1956
100
AcDbEntity
  8
DEFPOINTS
 62
     0
100
AcDbPoint
 10
291.0613763407623
 20
216.1352551569941
 30
0.0
  0
POINT
  5
1A28
330
1956
100
AcDbEntity
  8
DEFPOINTS
 62
     0
100
AcDbPoint
 10
286.5087825515744
 20
322.6352551569941
 30
0.0
  0
POINT
  5
1A29
330
1956
100
AcDbEntity
  8
DEFPOINTS
 62
     0
100
AcDbPoint
 10
286.026009177536
 20
322.6352551569941
 30
0.0
  0
ENDBLK
  5
1961
330
1956
100
AcDbEntity
  8
0
100
AcDbBlockEnd
  0
BLOCK
  5
19FD
330
19FC
100
AcDbEntity
  8
0
100
AcDbBlockBegin
  2
A$C16CD0C5E
 70
     0
 10
0.0
 20
0.0
 30
0.0
  3
A$C16CD0C5E
  1

  0
LINE
  5
19FE
330
19FC
100
AcDbEntity
  8
外形線
100
AcDbLine
 10
0.0
 20
20.394984
 30
0.0
 11
140.791418
 21
20.394984
 31
0.0
  0
LINE
  5
19FF
330
19FC
100
AcDbEntity
  8
外形線
100
AcDbLine
 10
0.0
 20
9.614777999999999
 30
0.0
 11
140.791418
 21
9.614777999999999
 31
0.0
  0
TEXT
  5
1A00
330
19FC
100
AcDbEntity
  8
0
  6
Continuous
100
AcDbText
 10
1.457467
 20
11.512768
 30
0.0
 40
2.1
  1
Design and specifications are subject to change without notice for future improvement.
  7
STYLE3
100
AcDbText
  0
TEXT
  5
1A01
330
19FC
100
AcDbEntity
  8
0
  6
Continuous
100
AcDbText
 10
1.748960999999999
 20
15.441916
 30
0.0
 40
3.5
  1
仕様及び外観は予告なく変更される場合がございますのでご了承下さい。
  7
STYLE3
100
AcDbText
  0
TEXT
  5
1A02
330
19FC
100
AcDbEntity
  8
0
  6
Continuous
100
AcDbText
 10
1.165976
 20
1.74814
 30
0.0
 40
2.1
  1
3RD Angle Projection
  7
STYLE3
100
AcDbText
  0
TEXT
  5
1A03
330
19FC
100
AcDbEntity
  8
0
  6
Continuous
100
AcDbText
 10
3.789419
 20
5.244423
 30
0.0
 40
3.0
  1
三　　角　　法
  7
STYLE3
100
AcDbText
  0
LINE
  5
1A04
330
19FC
100
AcDbEntity
  8
外形線
100
AcDbLine
 10
0.0
 20
0.0
 30
0.0
 11
0.0
 21
20.394984
 31
0.0
  0
LINE
  5
1A05
330
19FC
100
AcDbEntity
  8
外形線
100
AcDbLine
 10
102.022767
 20
9.614777999999999
 30
0.0
 11
102.022767
 21
0.0
 31
0.0
  0
LINE
  5
1A06
330
19FC
100
AcDbEntity
  8
外形線
100
AcDbLine
 10
72.290417
 20
9.614777999999999
 30
0.0
 11
72.290417
 21
0.0
 31
0.0
  0
LINE
  5
1A07
330
19FC
100
AcDbEntity
  8
外形線
100
AcDbLine
 10
52.76034499999999
 20
9.614777999999999
 30
0.0
 11
52.76034499999999
 21
0.0
 31
0.0
  0
LINE
  5
1A08
330
19FC
100
AcDbEntity
  8
外形線
100
AcDbLine
 10
35.27072800000001
 20
9.614777999999999
 30
0.0
 11
35.27072800000001
 21
0.0
 31
0.0
  0
TEXT
  5
1A09
330
19FC
100
AcDbEntity
  8
0
  6
Continuous
100
AcDbText
 10
36.728197
 20
5.250377999999999
 30
0.0
 40
3.0
  1
単位
  7
STYLE3
100
AcDbText
  0
TEXT
  5
1A0A
330
19FC
100
AcDbEntity
  8
0
  6
Continuous
100
AcDbText
 10
36.899918
 20
1.748140999999999
 30
0.0
 40
2.1
  1
Unit
  7
STYLE3
100
AcDbText
  0
TEXT
  5
1A0B
330
19FC
100
AcDbEntity
  8
0
  6
Continuous
100
AcDbText
 10
54.046093
 20
4.959019999999999
 30
0.0
 40
3.0
  1
尺 度
  7
STYLE3
100
AcDbText
  0
TEXT
  5
1A0C
330
19FC
100
AcDbEntity
  8
0
  6
Continuous
100
AcDbText
 10
44.770245
 20
3.496283999999999
 30
0.0
 40
2.399999999999999
  1
mm
  7
STYLE3
100
AcDbText
  0
TEXT
  5
1A0D
330
19FC
100
AcDbEntity
  8
0
  6
Continuous
100
AcDbText
 10
54.509308
 20
2.039498
 30
0.0
 40
2.1
  1
Scale
  7
STYLE3
100
AcDbText
  0
TEXT
  5
1A0E
330
19FC
100
AcDbEntity
  8
0
  6
Continuous
100
AcDbText
 10
64.128597
 20
3.787641
 30
0.0
 40
2.399999999999999
  1
1/1
  7
STYLE3
100
AcDbText
  0
TEXT
  5
1A0F
330
19FC
100
AcDbEntity
  8
0
  6
Continuous
100
AcDbText
 10
74.222368
 20
1.748141999999999
 30
0.0
 40
2.1
  1
Date
  7
STYLE3
100
AcDbText
  0
TEXT
  5
1A10
330
19FC
100
AcDbEntity
  8
0
  6
Continuous
100
AcDbText
 10
73.83900699999999
 20
5.081224999999999
 30
0.0
 40
3.0
  1
日 付
  7
STYLE3
100
AcDbText
  0
TEXT
  5
1A11
330
19FC
100
AcDbEntity
  8
0
  6
Continuous
100
AcDbText
 10
82.96717599999999
 20
3.496283
 30
0.0
 40
2.1
  1
2002.11.20
  7
STYLE3
100
AcDbText
  0
TEXT
  5
1A12
330
19FC
100
AcDbEntity
  8
0
  6
Continuous
100
AcDbText
 10
103.37173
 20
5.535779999999999
 30
0.0
 40
3.0
  1
株式会社　尾崎製作所
  7
STYLE3
100
AcDbText
  0
TEXT
  5
1A13
330
19FC
100
AcDbEntity
  8
0
  6
Continuous
100
AcDbText
 10
104.246209
 20
1.748140999999999
 30
0.0
 40
2.1
  1
OZAKI MFG. CO., LTD.
  7
STYLE3
100
AcDbText
  0
ENDBLK
  5
1A14
330
19FC
100
AcDbEntity
  8
0
100
AcDbBlockEnd
  0
ENDSEC
  0
SECTION
  2
ENTITIES
  0
LINE
  5
244
330
18
100
AcDbEntity
  8
中心線
 48
0.5
100
AcDbLine
 10
291.0613763407623
 20
281.1352551569941
 30
0.0
 11
358.7049349817687
 21
281.1352551569941
 31
0.0
  0
LINE
  5
245
330
18
100
AcDbEntity
  8
中心線
 48
0.5
100
AcDbLine
 10
329.1043036361365
 20
326.2434727220825
 30
0.0
 11
329.1043036361366
 21
213.3403000857981
 31
0.0
  0
CIRCLE
  5
246
330
18
100
AcDbEntity
  8
外形線
100
AcDbCircle
 10
329.1043036361366
 20
281.1352551569941
 30
0.0
 40
15.5
  0
CIRCLE
  5
247
330
18
100
AcDbEntity
  8
外形線
100
AcDbCircle
 10
329.1043036361366
 20
281.1352551569941
 30
0.0
 40
23.0
  0
CIRCLE
  5
248
330
18
100
AcDbEntity
  8
外形線
100
AcDbCircle
 10
329.1043036361366
 20
281.1352551569941
 30
0.0
 40
26.4
  0
LINE
  5
249
330
18
100
AcDbEntity
  8
目盛
100
AcDbLine
 10
327.6601216869623
 20
304.0898699108443
 30
0.0
 11
327.7857027260209
 21
302.0938164539878
 31
0.0
  0
LINE
  5
24A
330
18
100
AcDbEntity
  8
目盛
100
AcDbLine
 10
326.2216392641576
 20
303.9538932872271
 30
0.0
 11
326.4723057312861
 21
301.9696638845981
 31
0.0
  0
LINE
  5
24B
330
18
100
AcDbEntity
  8
目盛
100
AcDbLine
 10
324.7945334006649
 20
303.727861923754
 30
0.0
 11
325.1692960298363
 21
301.7632874222966
 31
0.0
  0
LINE
  5
24C
330
18
100
AcDbEntity
  8
目盛
100
AcDbLine
 10
323.3844362313448
 20
303.4126678629526
 30
0.0
 11
323.8818160056746
 21
301.4755015406954
 31
0.0
  0
LINE
  5
24D
330
18
100
AcDbEntity
  8
目盛
100
AcDbLine
 10
321.9969127655127
 20
303.0095550317827
 30
0.0
 11
322.9239637486375
 21
300.1563854828972
 31
0.0
  0
LINE
  5
24E
330
18
100
AcDbEntity
  8
目盛
100
AcDbLine
 10
320.637438924389
 20
302.5201143324239
 30
0.0
 11
321.3736880297583
 21
300.6605613606474
 31
0.0
  0
LINE
  5
24F
330
18
100
AcDbEntity
  8
目盛
100
AcDbLine
 10
319.3113799301397
 20
301.9462773637125
 30
0.0
 11
320.1629385132699
 21
300.1366232587805
 31
0.0
  0
LINE
  5
250
330
18
100
AcDbEntity
  8
目盛
100
AcDbLine
 10
318.0239691317969
 20
301.290308798003
 30
0.0
 11
318.9874764800005
 21
299.5376954379153
 31
0.0
  0
LINE
  5
251
330
18
100
AcDbEntity
  8
目盛
100
AcDbLine
 10
316.7802873516195
 20
300.5547974435404
 30
0.0
 11
317.8519409415776
 21
298.8661415925364
 31
0.0
  0
LINE
  5
252
330
18
100
AcDbEntity
  8
目盛
100
AcDbLine
 10
315.5852428334096
 20
299.7426460276179
 30
0.0
 11
317.3485985902871
 21
297.3155950444931
 31
0.0
  0
LINE
  5
253
330
18
100
AcDbEntity
  8
目盛
100
AcDbLine
 10
314.4435518719167
 20
298.8570597408373
 30
0.0
 11
315.718399851414
 21
297.3160332552857
 31
0.0
  0
LINE
  5
254
330
18
100
AcDbEntity
  8
目盛
100
AcDbLine
 10
313.3597201997767
 20
297.9015335876866
 30
0.0
 11
314.7288144116341
 21
296.4435963328438
 31
0.0
  0
LINE
  5
255
330
18
100
AcDbEntity
  8
目盛
100
AcDbLine
 10
312.338025205444
 20
296.8798385933539
 30
0.0
 11
313.7959624602868
 21
295.5107443814966
 31
0.0
  0
LINE
  5
256
330
18
100
AcDbEntity
  8
目盛
100
AcDbLine
 10
311.3824990522934
 20
295.796006921214
 30
0.0
 11
312.9235255378449
 21
294.5211589417166
 31
0.0
  0
LINE
  5
257
330
18
100
AcDbEntity
  8
目盛
100
AcDbLine
 10
310.4969127655126
 20
294.654315959721
 30
0.0
 11
312.9239637486375
 21
292.8909602028435
 31
0.0
  0
LINE
  5
258
330
18
100
AcDbEntity
  8
目盛
100
AcDbLine
 10
309.6847613495901
 20
293.459271441511
 30
0.0
 11
311.3734172005942
 21
292.3876178515531
 31
0.0
  0
LINE
  5
259
330
18
100
AcDbEntity
  8
目盛
100
AcDbLine
 10
308.9492499951277
 20
292.2155896613336
 30
0.0
 11
310.7018633552154
 21
291.2520823131302
 31
0.0
  0
LINE
  5
25A
330
18
100
AcDbEntity
  8
目盛
100
AcDbLine
 10
308.2932814294181
 20
290.9281788629908
 30
0.0
 11
310.10293553435
 21
290.0766202798606
 31
0.0
  0
LINE
  5
25B
330
18
100
AcDbEntity
  8
目盛
100
AcDbLine
 10
307.7194444607066
 20
289.6021198687417
 30
0.0
 11
309.5789974324832
 21
288.8658707633723
 31
0.0
  0
LINE
  5
25C
330
18
100
AcDbEntity
  8
目盛
100
AcDbLine
 10
307.2300037613479
 20
288.2426460276179
 30
0.0
 11
310.0831733102333
 21
287.3155950444931
 31
0.0
  0
LINE
  5
25D
330
18
100
AcDbEntity
  8
目盛
100
AcDbLine
 10
306.826890930178
 20
286.8551225617858
 30
0.0
 11
308.7640572524353
 21
286.357742787456
 31
0.0
  0
LINE
  5
25E
330
18
100
AcDbEntity
  8
目盛
100
AcDbLine
 10
306.5116968693766
 20
285.4450253924658
 30
0.0
 11
308.476271370834
 21
285.0702627632943
 31
0.0
  0
LINE
  5
25F
330
18
100
AcDbEntity
  8
目盛
100
AcDbLine
 10
306.2856655059035
 20
284.0179195289731
 30
0.0
 11
308.2698949085324
 21
283.7672530618445
 31
0.0
  0
LINE
  5
260
330
18
100
AcDbEntity
  8
目盛
100
AcDbLine
 10
306.1496888822862
 20
282.5794371061683
 30
0.0
 11
308.1457423391427
 21
282.4538560671097
 31
0.0
  0
LINE
  5
261
330
18
100
AcDbEntity
  8
目盛
100
AcDbLine
 10
306.1496888822862
 20
279.6910732078199
 30
0.0
 11
308.1457423391427
 21
279.8166542468785
 31
0.0
  0
LINE
  5
262
330
18
100
AcDbEntity
  8
目盛
100
AcDbLine
 10
306.2856655059035
 20
278.2525907850151
 30
0.0
 11
308.2698949085326
 21
278.5032572521437
 31
0.0
  0
LINE
  5
263
330
18
100
AcDbEntity
  8
目盛
100
AcDbLine
 10
306.5116968693766
 20
276.8254849215225
 30
0.0
 11
308.4762713708339
 21
277.2002475506939
 31
0.0
  0
LINE
  5
264
330
18
100
AcDbEntity
  8
目盛
100
AcDbLine
 10
306.826890930178
 20
275.4153877522024
 30
0.0
 11
308.7640572524353
 21
275.9127675265322
 31
0.0
  0
LINE
  5
265
330
18
100
AcDbEntity
  8
目盛
100
AcDbLine
 10
307.2300037613481
 20
274.0278642863703
 30
0.0
 11
310.0831733102333
 21
274.9549152694951
 31
0.0
  0
LINE
  5
266
330
18
100
AcDbEntity
  8
目盛
100
AcDbLine
 10
307.7194444607067
 20
272.6683904452465
 30
0.0
 11
309.5789974324832
 21
273.4046395506158
 31
0.0
  0
LINE
  5
267
330
18
100
AcDbEntity
  8
目盛
100
AcDbLine
 10
308.2932814294181
 20
271.3423314509975
 30
0.0
 11
310.10293553435
 21
272.1938900341275
 31
0.0
  0
LINE
  5
268
330
18
100
AcDbEntity
  8
目盛
100
AcDbLine
 10
308.9492499951277
 20
270.0549206526546
 30
0.0
 11
310.7018633552154
 21
271.018428000858
 31
0.0
  0
LINE
  5
269
330
18
100
AcDbEntity
  8
目盛
100
AcDbLine
 10
309.6847613495901
 20
268.8112388724772
 30
0.0
 11
311.3734172005942
 21
269.8828924624351
 31
0.0
  0
LINE
  5
26A
330
18
100
AcDbEntity
  8
目盛
100
AcDbLine
 10
310.4969127655127
 20
267.6161943542672
 30
0.0
 11
312.9239637486375
 21
269.3795501111446
 31
0.0
  0
LINE
  5
26B
330
18
100
AcDbEntity
  8
目盛
100
AcDbLine
 10
311.3824990522933
 20
266.4745033927742
 30
0.0
 11
312.9235255378449
 21
267.7493513722716
 31
0.0
  0
LINE
  5
26C
330
18
100
AcDbEntity
  8
目盛
100
AcDbLine
 10
312.3380252054441
 20
265.3906717206342
 30
0.0
 11
313.7959624602869
 21
266.7597659324916
 31
0.0
  0
LINE
  5
26D
330
18
100
AcDbEntity
  8
目盛
100
AcDbLine
 10
313.3597201997766
 20
264.3689767263016
 30
0.0
 11
314.728814411634
 21
265.8269139811444
 31
0.0
  0
LINE
  5
26E
330
18
100
AcDbEntity
  8
目盛
100
AcDbLine
 10
314.4435518719167
 20
263.4134505731509
 30
0.0
 11
315.718399851414
 21
264.9544770587025
 31
0.0
  0
LINE
  5
26F
330
18
100
AcDbEntity
  8
目盛
100
AcDbLine
 10
315.5852428334096
 20
262.5278642863703
 30
0.0
 11
317.3485985902871
 21
264.9549152694951
 31
0.0
  0
LINE
  5
270
330
18
100
AcDbEntity
  8
目盛
100
AcDbLine
 10
316.7802873516195
 20
261.7157128704477
 30
0.0
 11
317.8519409415776
 21
263.4043687214518
 31
0.0
  0
LINE
  5
271
330
18
100
AcDbEntity
  8
目盛
100
AcDbLine
 10
318.0239691317972
 20
260.9802015159853
 30
0.0
 11
318.9874764800006
 21
262.7328148760729
 31
0.0
  0
LINE
  5
272
330
18
100
AcDbEntity
  8
目盛
100
AcDbLine
 10
319.31137993014
 20
260.3242329502756
 30
0.0
 11
320.16293851327
 21
262.1338870552077
 31
0.0
  0
LINE
  5
273
330
18
100
AcDbEntity
  8
目盛
100
AcDbLine
 10
320.637438924389
 20
259.7503959815643
 30
0.0
 11
321.3736880297583
 21
261.6099489533408
 31
0.0
  0
LINE
  5
274
330
18
100
AcDbEntity
  8
目盛
100
AcDbLine
 10
321.9969127655127
 20
259.2609552822056
 30
0.0
 11
322.9239637486376
 21
262.114124831091
 31
0.0
  0
LINE
  5
275
330
18
100
AcDbEntity
  8
目盛
100
AcDbLine
 10
323.384436231345
 20
258.8578424510356
 30
0.0
 11
323.8818160056746
 21
260.7950087732929
 31
0.0
  0
LINE
  5
276
330
18
100
AcDbEntity
  8
目盛
100
AcDbLine
 10
324.7945334006649
 20
258.5426483902343
 30
0.0
 11
325.1692960298364
 21
260.5072228916916
 31
0.0
  0
LINE
  5
277
330
18
100
AcDbEntity
  8
目盛
100
AcDbLine
 10
326.2216392641576
 20
258.3166170267611
 30
0.0
 11
326.4723057312862
 21
260.3008464293901
 31
0.0
  0
LINE
  5
278
330
18
100
AcDbEntity
  8
目盛
100
AcDbLine
 10
327.6601216869623
 20
258.1806404031439
 30
0.0
 11
327.7857027260209
 21
260.1766938600004
 31
0.0
  0
LINE
  5
279
330
18
100
AcDbEntity
  8
目盛
100
AcDbLine
 10
330.5484855853107
 20
258.1806404031439
 30
0.0
 11
330.422904546252
 21
260.1766938600004
 31
0.0
  0
LINE
  5
27A
330
18
100
AcDbEntity
  8
目盛
100
AcDbLine
 10
331.9869680081155
 20
258.3166170267611
 30
0.0
 11
331.7363015409869
 21
260.3008464293901
 31
0.0
  0
LINE
  5
27B
330
18
100
AcDbEntity
  8
目盛
100
AcDbLine
 10
333.4140738716082
 20
258.5426483902343
 30
0.0
 11
333.0393112424368
 21
260.5072228916917
 31
0.0
  0
LINE
  5
27C
330
18
100
AcDbEntity
  8
目盛
100
AcDbLine
 10
334.8241710409281
 20
258.8578424510356
 30
0.0
 11
334.3267912665985
 21
260.7950087732929
 31
0.0
  0
LINE
  5
27D
330
18
100
AcDbEntity
  8
目盛
100
AcDbLine
 10
336.2116945067604
 20
259.2609552822056
 30
0.0
 11
335.2846435236356
 21
262.114124831091
 31
0.0
  0
LINE
  5
27E
330
18
100
AcDbEntity
  8
目盛
100
AcDbLine
 10
337.5711683478841
 20
259.7503959815643
 30
0.0
 11
336.8349192425148
 21
261.6099489533409
 31
0.0
  0
LINE
  5
27F
330
18
100
AcDbEntity
  8
目盛
100
AcDbLine
 10
338.8972273421331
 20
260.3242329502757
 30
0.0
 11
338.045668759003
 21
262.1338870552078
 31
0.0
  0
LINE
  5
280
330
18
100
AcDbEntity
  8
目盛
100
AcDbLine
 10
340.1846381404759
 20
260.9802015159853
 30
0.0
 11
339.2211307922725
 21
262.7328148760731
 31
0.0
  0
LINE
  5
281
330
18
100
AcDbEntity
  8
目盛
100
AcDbLine
 10
341.4283199206535
 20
261.7157128704478
 30
0.0
 11
340.3566663306955
 21
263.4043687214518
 31
0.0
  0
LINE
  5
282
330
18
100
AcDbEntity
  8
目盛
100
AcDbLine
 10
342.6233644388635
 20
262.5278642863703
 30
0.0
 11
340.8600086819859
 21
264.9549152694951
 31
0.0
  0
LINE
  5
283
330
18
100
AcDbEntity
  8
目盛
100
AcDbLine
 10
343.7650554003564
 20
263.413450573151
 30
0.0
 11
342.4902074208591
 21
264.9544770587025
 31
0.0
  0
LINE
  5
284
330
18
100
AcDbEntity
  8
目盛
100
AcDbLine
 10
344.8488870724963
 20
264.3689767263017
 30
0.0
 11
343.479792860639
 21
265.8269139811445
 31
0.0
  0
LINE
  5
285
330
18
100
AcDbEntity
  8
目盛
100
AcDbLine
 10
345.8705820668289
 20
265.3906717206343
 30
0.0
 11
344.4126448119861
 21
266.7597659324917
 31
0.0
  0
LINE
  5
286
330
18
100
AcDbEntity
  8
目盛
100
AcDbLine
 10
346.8261082199796
 20
266.4745033927742
 30
0.0
 11
345.285081734428
 21
267.7493513722716
 31
0.0
  0
LINE
  5
287
330
18
100
AcDbEntity
  8
目盛
100
AcDbLine
 10
347.7116945067602
 20
267.6161943542672
 30
0.0
 11
345.2846435236356
 21
269.3795501111448
 31
0.0
  0
LINE
  5
288
330
18
100
AcDbEntity
  8
目盛
100
AcDbLine
 10
348.5238459226829
 20
268.8112388724773
 30
0.0
 11
346.8351900716788
 21
269.8828924624352
 31
0.0
  0
LINE
  5
289
330
18
100
AcDbEntity
  8
目盛
100
AcDbLine
 10
349.2593572771454
 20
270.0549206526547
 30
0.0
 11
347.5067439170577
 21
271.0184280008582
 31
0.0
  0
LINE
  5
28A
330
18
100
AcDbEntity
  8
目盛
100
AcDbLine
 10
349.915325842855
 20
271.3423314509975
 30
0.0
 11
348.1056717379228
 21
272.1938900341276
 31
0.0
  0
LINE
  5
28B
330
18
100
AcDbEntity
  8
目盛
100
AcDbLine
 10
350.4891628115662
 20
272.6683904452465
 30
0.0
 11
348.6296098397897
 21
273.4046395506159
 31
0.0
  0
LINE
  5
28C
330
18
100
AcDbEntity
  8
目盛
100
AcDbLine
 10
350.978603510925
 20
274.0278642863704
 30
0.0
 11
348.1254339620395
 21
274.9549152694952
 31
0.0
  0
LINE
  5
28D
330
18
100
AcDbEntity
  8
目盛
100
AcDbLine
 10
351.381716342095
 20
275.4153877522024
 30
0.0
 11
349.4445500198378
 21
275.9127675265322
 31
0.0
  0
LINE
  5
28E
330
18
100
AcDbEntity
  8
目盛
100
AcDbLine
 10
351.6969104028963
 20
276.8254849215225
 30
0.0
 11
349.7323359014389
 21
277.2002475506939
 31
0.0
  0
LINE
  5
28F
330
18
100
AcDbEntity
  8
目盛
100
AcDbLine
 10
351.9229417663695
 20
278.2525907850152
 30
0.0
 11
349.9387123637405
 21
278.5032572521438
 31
0.0
  0
LINE
  5
290
330
18
100
AcDbEntity
  8
目盛
100
AcDbLine
 10
352.0589183899867
 20
279.6910732078199
 30
0.0
 11
350.0628649331301
 21
279.8166542468785
 31
0.0
  0
LINE
  5
291
330
18
100
AcDbEntity
  8
目盛
100
AcDbLine
 10
352.0589183899867
 20
282.5794371061682
 30
0.0
 11
350.0628649331301
 21
282.4538560671097
 31
0.0
  0
LINE
  5
292
330
18
100
AcDbEntity
  8
目盛
100
AcDbLine
 10
351.9229417663695
 20
284.0179195289731
 30
0.0
 11
349.9387123637404
 21
283.7672530618446
 31
0.0
  0
LINE
  5
293
330
18
100
AcDbEntity
  8
目盛
100
AcDbLine
 10
351.6969104028963
 20
285.4450253924657
 30
0.0
 11
349.7323359014389
 21
285.0702627632943
 31
0.0
  0
LINE
  5
294
330
18
100
AcDbEntity
  8
目盛
100
AcDbLine
 10
351.3817163420951
 20
286.8551225617857
 30
0.0
 11
349.4445500198378
 21
286.357742787456
 31
0.0
  0
LINE
  5
295
330
18
100
AcDbEntity
  8
目盛
100
AcDbLine
 10
350.978603510925
 20
288.2426460276179
 30
0.0
 11
348.1254339620395
 21
287.3155950444931
 31
0.0
  0
LINE
  5
296
330
18
100
AcDbEntity
  8
目盛
100
AcDbLine
 10
350.4891628115662
 20
289.6021198687417
 30
0.0
 11
348.6296098397897
 21
288.8658707633723
 31
0.0
  0
LINE
  5
297
330
18
100
AcDbEntity
  8
目盛
100
AcDbLine
 10
349.915325842855
 20
290.9281788629908
 30
0.0
 11
348.1056717379229
 21
290.0766202798606
 31
0.0
  0
LINE
  5
298
330
18
100
AcDbEntity
  8
目盛
100
AcDbLine
 10
349.2593572771454
 20
292.2155896613335
 30
0.0
 11
347.5067439170577
 21
291.2520823131301
 31
0.0
  0
LINE
  5
299
330
18
100
AcDbEntity
  8
目盛
100
AcDbLine
 10
348.5238459226829
 20
293.459271441511
 30
0.0
 11
346.8351900716788
 21
292.387617851553
 31
0.0
  0
LINE
  5
29A
330
18
100
AcDbEntity
  8
目盛
100
AcDbLine
 10
347.7116945067602
 20
294.6543159597209
 30
0.0
 11
345.2846435236355
 21
292.8909602028435
 31
0.0
  0
LINE
  5
29B
330
18
100
AcDbEntity
  8
目盛
100
AcDbLine
 10
346.8261082199796
 20
295.7960069212139
 30
0.0
 11
345.285081734428
 21
294.5211589417165
 31
0.0
  0
LINE
  5
29C
330
18
100
AcDbEntity
  8
目盛
100
AcDbLine
 10
345.8705820668289
 20
296.8798385933539
 30
0.0
 11
344.4126448119861
 21
295.5107443814965
 31
0.0
  0
LINE
  5
29D
330
18
100
AcDbEntity
  8
目盛
100
AcDbLine
 10
344.8488870724963
 20
297.9015335876865
 30
0.0
 11
343.479792860639
 21
296.4435963328437
 31
0.0
  0
LINE
  5
29E
330
18
100
AcDbEntity
  8
目盛
100
AcDbLine
 10
343.7650554003564
 20
298.8570597408371
 30
0.0
 11
342.490207420859
 21
297.3160332552856
 31
0.0
  0
LINE
  5
29F
330
18
100
AcDbEntity
  8
目盛
100
AcDbLine
 10
342.6233644388635
 20
299.7426460276178
 30
0.0
 11
340.860008681986
 21
297.315595044493
 31
0.0
  0
LINE
  5
2A0
330
18
100
AcDbEntity
  8
目盛
100
AcDbLine
 10
341.4283199206536
 20
300.5547974435404
 30
0.0
 11
340.3566663306955
 21
298.8661415925363
 31
0.0
  0
LINE
  5
2A1
330
18
100
AcDbEntity
  8
目盛
100
AcDbLine
 10
340.1846381404761
 20
301.2903087980029
 30
0.0
 11
339.2211307922726
 21
299.5376954379151
 31
0.0
  0
LINE
  5
2A2
330
18
100
AcDbEntity
  8
目盛
100
AcDbLine
 10
338.8972273421334
 20
301.9462773637124
 30
0.0
 11
338.0456687590032
 21
300.1366232587804
 31
0.0
  0
LINE
  5
2A3
330
18
100
AcDbEntity
  8
目盛
100
AcDbLine
 10
337.5711683478842
 20
302.5201143324238
 30
0.0
 11
336.8349192425148
 21
300.6605613606473
 31
0.0
  0
LINE
  5
2A4
330
18
100
AcDbEntity
  8
目盛
100
AcDbLine
 10
336.2116945067605
 20
303.0095550317826
 30
0.0
 11
335.2846435236356
 21
300.1563854828971
 31
0.0
  0
LINE
  5
2A5
330
18
100
AcDbEntity
  8
目盛
100
AcDbLine
 10
334.8241710409283
 20
303.4126678629526
 30
0.0
 11
334.3267912665986
 21
301.4755015406953
 31
0.0
  0
LINE
  5
2A6
330
18
100
AcDbEntity
  8
目盛
100
AcDbLine
 10
333.4140738716083
 20
303.7278619237539
 30
0.0
 11
333.0393112424369
 21
301.7632874222965
 31
0.0
  0
LINE
  5
2A7
330
18
100
AcDbEntity
  8
目盛
100
AcDbLine
 10
331.9869680081158
 20
303.9538932872271
 30
0.0
 11
331.7363015409871
 21
301.9696638845981
 31
0.0
  0
LINE
  5
2A8
330
18
100
AcDbEntity
  8
目盛
100
AcDbLine
 10
330.548485585311
 20
304.0898699108443
 30
0.0
 11
330.4229045462522
 21
302.0938164539878
 31
0.0
  0
LINE
  5
2A9
330
18
100
AcDbEntity
  8
目盛
100
AcDbLine
 10
349.1043036361365
 20
281.1352551569941
 30
0.0
 11
352.1043036361366
 21
281.1352551569941
 31
0.0
  0
LINE
  5
2AA
330
18
100
AcDbEntity
  8
目盛
100
AcDbLine
 10
329.1043036361366
 20
261.1352551569941
 30
0.0
 11
329.1043036361366
 21
258.1352551569941
 31
0.0
  0
LINE
  5
2AB
330
18
100
AcDbEntity
  8
目盛
100
AcDbLine
 10
306.1043036361365
 20
281.1352551569941
 30
0.0
 11
309.1043036361365
 21
281.1352551569941
 31
0.0
  0
LINE
  5
2AC
330
18
100
AcDbEntity
  8
目盛
100
AcDbLine
 10
329.1043036361366
 20
304.1352551569941
 30
0.0
 11
329.1043036361366
 21
301.1352551569941
 31
0.0
  0
TEXT
  5
2AD
330
18
100
AcDbEntity
  8
文字
100
AcDbText
 10
327.8899931136876
 20
298.2557745515068
 30
0.0
 40
2.5
  1
0
  7
STYLE3
100
AcDbText
  0
TEXT
  5
2AE
330
18
100
AcDbEntity
  8
文字
100
AcDbText
 10
337.8359351934613
 20
294.524035321506
 30
0.0
 40
2.5
  1
10
  7
STYLE3
100
AcDbText
  0
TEXT
  5
2AF
330
18
100
AcDbEntity
  8
文字
100
AcDbText
 10
344.2209273471165
 20
284.3264711363689
 30
0.0
 40
2.5
  1
20
  7
STYLE3
100
AcDbText
  0
TEXT
  5
2B0
330
18
100
AcDbEntity
  8
文字
100
AcDbText
 10
343.4911760293567
 20
273.8864260859584
 30
0.0
 40
2.5
  1
30
  7
STYLE3
100
AcDbText
  0
TEXT
  5
2B1
330
18
100
AcDbEntity
  8
文字
100
AcDbText
 10
337.6936108909812
 20
265.2628260505178
 30
0.0
 40
2.5
  1
40
  7
STYLE3
100
AcDbText
  0
TEXT
  5
2B2
330
18
100
AcDbEntity
  8
文字
100
AcDbText
 10
326.7910561689877
 20
261.4523678836357
 30
0.0
 40
2.5
  1
50
  7
STYLE3
100
AcDbText
  0
TEXT
  5
2B3
330
18
100
AcDbEntity
  8
文字
100
AcDbText
 10
315.5459866268755
 20
265.3248606683835
 30
0.0
 40
2.5
  1
60
  7
STYLE3
100
AcDbText
  0
TEXT
  5
2B4
330
18
100
AcDbEntity
  8
文字
100
AcDbText
 10
309.8116495254166
 20
273.9101112711574
 30
0.0
 40
2.5
  1
70
  7
STYLE3
100
AcDbText
  0
TEXT
  5
2B5
330
18
100
AcDbEntity
  8
文字
100
AcDbText
 10
309.9173302943554
 20
285.6446423959617
 30
0.0
 40
2.5
  1
80
  7
STYLE3
100
AcDbText
  0
TEXT
  5
2B6
330
18
100
AcDbEntity
  8
文字
100
AcDbText
 10
316.111778972342
 20
294.5452301705509
 30
0.0
 40
2.5
  1
90
  7
STYLE3
100
AcDbText
  0
LINE
  5
2B7
330
18
100
AcDbEntity
  8
中心線
 48
0.2
100
AcDbLine
 10
325.9043036361365
 20
278.9244911642019
 30
0.0
 11
325.9043036361365
 21
267.9207634658904
 31
0.0
  0
LINE
  5
2B9
330
18
100
AcDbEntity
  8
中心線
 48
0.2
100
AcDbLine
 10
318.9450284492068
 20
271.0612837454802
 30
0.0
 11
333.4730158971869
 21
271.0612837454802
 31
0.0
  0
LINE
  5
2D5
330
18
100
AcDbEntity
  8
外形線
100
AcDbLine
 10
333.1043036361365
 20
255.040044868514
 30
0.0
 11
333.1043036361365
 21
241.135255156994
 31
0.0
  0
LINE
  5
2D6
330
18
100
AcDbEntity
  8
外形線
100
AcDbLine
 10
325.1043036361366
 20
255.040044868514
 30
0.0
 11
325.1043036361366
 21
241.1352551569941
 31
0.0
  0
LINE
  5
5CF
330
18
100
AcDbEntity
  8
外形線
  6
Continuous
100
AcDbLine
 10
332.8043036361365
 20
321.635255156994
 30
0.0
 11
332.8043036361365
 21
315.135255156994
 31
0.0
  0
LINE
  5
5D0
330
18
100
AcDbEntity
  8
外形線
  6
Continuous
100
AcDbLine
 10
325.4043036361366
 20
321.635255156994
 30
0.0
 11
325.4043036361366
 21
315.135255156994
 31
0.0
  0
LINE
  5
5D1
330
18
100
AcDbEntity
  8
外形線
  6
Continuous
100
AcDbLine
 10
325.4043036361366
 20
321.635255156994
 30
0.0
 11
332.8043036361365
 21
321.635255156994
 31
0.0
  0
LINE
  5
5D2
330
18
100
AcDbEntity
  8
外形線
  6
Continuous
100
AcDbLine
 10
325.1043036361366
 20
315.135255156994
 30
0.0
 11
333.1043036361365
 21
315.135255156994
 31
0.0
  0
LINE
  5
5D3
330
18
100
AcDbEntity
  8
外形線
  6
Continuous
100
AcDbLine
 10
325.1043036361365
 20
309.135255156994
 30
0.0
 11
333.1043036361365
 21
309.135255156994
 31
0.0
  0
LINE
  5
5D4
330
18
100
AcDbEntity
  8
外形線
  6
Continuous
100
AcDbLine
 10
333.1043036361365
 20
315.135255156994
 30
0.0
 11
333.1043036361365
 21
309.135255156994
 31
0.0
  0
LINE
  5
5D5
330
18
100
AcDbEntity
  8
外形線
  6
Continuous
100
AcDbLine
 10
325.1043036361366
 20
315.135255156994
 30
0.0
 11
325.1043036361366
 21
309.135255156994
 31
0.0
  0
LINE
  5
5D6
330
18
100
AcDbEntity
  8
外形線
  6
Continuous
100
AcDbLine
 10
332.8043036361365
 20
309.135255156994
 30
0.0
 11
332.8043036361365
 21
307.2746889687659
 31
0.0
  0
LINE
  5
5D7
330
18
100
AcDbEntity
  8
外形線
  6
Continuous
100
AcDbLine
 10
325.4043036361366
 20
309.135255156994
 30
0.0
 11
325.4043036361366
 21
307.2746889687659
 31
0.0
  0
ARC
  5
5D9
330
18
100
AcDbEntity
  8
外形線
  6
Continuous
100
AcDbCircle
 10
329.1043036361365
 20
315.2902551569942
 30
0.0
 40
7.344999999999885
100
AcDbArc
 50
59.75198538337817
 51
120.2480146166212
  0
TEXT
  5
661
330
18
100
AcDbEntity
  8
文字
  6
Continuous
 62
     4
100
AcDbText
 10
328.597728148158
 20
296.9126302131812
 30
0.0
 40
1.0
  1
0
  7
STYLE3
100
AcDbText
  0
TEXT
  5
662
330
18
100
AcDbEntity
  8
文字
  6
Continuous
 62
     4
100
AcDbText
 10
339.220077582589
 20
293.0362122820396
 30
0.0
 40
1.0
  1
90
  7
STYLE3
100
AcDbText
  0
TEXT
  5
663
330
18
100
AcDbEntity
  8
文字
  6
Continuous
 62
     4
100
AcDbText
 10
344.8264426444403
 20
282.9348652461229
 30
0.0
 40
1.0
  1
80
  7
STYLE3
100
AcDbText
  0
TEXT
  5
664
330
18
100
AcDbEntity
  8
文字
  6
Continuous
 62
     4
100
AcDbText
 10
344.4386605837824
 20
277.2147433541868
 30
0.0
 40
1.0
  1
70
  7
STYLE3
100
AcDbText
  0
TEXT
  5
665
330
18
100
AcDbEntity
  8
文字
  6
Continuous
 62
     4
100
AcDbText
 10
339.0023692382294
 20
268.1224952765145
 30
0.0
 40
1.0
  1
60
  7
STYLE3
100
AcDbText
  0
TEXT
  5
666
330
18
100
AcDbEntity
  8
文字
  6
Continuous
 62
     4
100
AcDbText
 10
328.1703340286289
 20
264.273793762181
 30
0.0
 40
1.0
  1
50
  7
STYLE3
100
AcDbText
  0
TEXT
  5
667
330
18
100
AcDbEntity
  8
文字
  6
Continuous
 62
     4
100
AcDbText
 10
317.2155791976365
 20
268.1924185938237
 30
0.0
 40
1.0
  1
40
  7
STYLE3
100
AcDbText
  0
TEXT
  5
668
330
18
100
AcDbEntity
  8
文字
  6
Continuous
 62
     4
100
AcDbText
 10
311.922243498885
 20
276.9765119822978
 30
0.0
 40
1.0
  1
30
  7
STYLE3
100
AcDbText
  0
TEXT
  5
669
330
18
100
AcDbEntity
  8
文字
  6
Continuous
 62
     4
100
AcDbText
 10
311.8898314379671
 20
284.0793892007724
 30
0.0
 40
1.0
  1
20
  7
STYLE3
100
AcDbText
  0
TEXT
  5
66A
330
18
100
AcDbEntity
  8
文字
  6
Continuous
 62
     4
100
AcDbText
 10
317.0989857208842
 20
292.9867144577756
 30
0.0
 40
1.0
  1
10
  7
STYLE3
100
AcDbText
  0
LINE
  5
697
330
18
100
AcDbEntity
  8
外形線
  6
Continuous
100
AcDbLine
 10
413.1286688169487
 20
305.6352551569941
 30
0.0
 11
413.1286688169487
 21
256.6352551569941
 31
0.0
  0
ARC
  5
6B8
330
18
100
AcDbEntity
  8
外形線
  6
Continuous
100
AcDbCircle
 10
406.6286688169488
 20
315.2902551569943
 30
0.0
 40
7.344999999999885
100
AcDbArc
 50
59.75198538337879
 51
120.2480146166218
  0
LINE
  5
6BB
330
18
100
AcDbEntity
  8
外形線
  6
Continuous
 62
     4
100
AcDbLine
 10
398.6286688169489
 20
279.1352551569941
 30
0.0
 11
392.6286688169487
 21
279.1352551569941
 31
0.0
  0
LINE
  5
6BC
330
18
100
AcDbEntity
  8
外形線
  6
Continuous
 62
     4
100
AcDbLine
 10
398.6286688169489
 20
280.1352551569941
 30
0.0
 11
392.6286688169487
 21
280.1352551569941
 31
0.0
  0
LINE
  5
6BD
330
18
100
AcDbEntity
  8
外形線
  6
Continuous
 62
     4
100
AcDbLine
 10
398.6286688169489
 20
281.1352551569941
 30
0.0
 11
392.6286688169487
 21
281.1352551569941
 31
0.0
  0
LINE
  5
6BE
330
18
100
AcDbEntity
  8
外形線
  6
Continuous
 62
     4
100
AcDbLine
 10
398.6286688169489
 20
282.1352551569941
 30
0.0
 11
392.6286688169487
 21
282.1352551569941
 31
0.0
  0
LINE
  5
6BF
330
18
100
AcDbEntity
  8
外形線
  6
Continuous
 62
     4
100
AcDbLine
 10
398.6286688169489
 20
284.1352551569941
 30
0.0
 11
392.6286688169487
 21
284.1352551569941
 31
0.0
  0
LINE
  5
6C0
330
18
100
AcDbEntity
  8
外形線
  6
Continuous
 62
     4
100
AcDbLine
 10
398.6286688169489
 20
283.1352551569942
 30
0.0
 11
392.6286688169487
 21
283.1352551569941
 31
0.0
  0
LINE
  5
6C1
330
18
100
AcDbEntity
  8
外形線
  6
Continuous
 62
     4
100
AcDbLine
 10
392.6286688169488
 20
302.8242698627631
 30
0.0
 11
398.6286688169489
 21
302.8242698627632
 31
0.0
  0
LINE
  5
6C2
330
18
100
AcDbEntity
  8
外形線
  6
Continuous
 62
     4
100
AcDbLine
 10
392.6286688169488
 20
303.8242698627631
 30
0.0
 11
398.6286688169489
 21
303.8242698627632
 31
0.0
  0
LINE
  5
6C3
330
18
100
AcDbEntity
  8
外形線
  6
Continuous
 62
     4
100
AcDbLine
 10
392.6286688169488
 20
304.8242698627632
 30
0.0
 11
398.6286688169489
 21
304.8242698627632
 31
0.0
  0
LINE
  5
6C4
330
18
100
AcDbEntity
  8
外形線
  6
Continuous
 62
     4
100
AcDbLine
 10
392.6286688169488
 20
305.8242698627631
 30
0.0
 11
398.6286688169489
 21
305.8242698627631
 31
0.0
  0
LINE
  5
6C5
330
18
100
AcDbEntity
  8
外形線
  6
Continuous
100
AcDbLine
 10
410.3286688169488
 20
321.635255156994
 30
0.0
 11
402.9286688169487
 21
321.635255156994
 31
0.0
  0
LINE
  5
6C6
330
18
100
AcDbEntity
  8
外形線
  6
Continuous
100
AcDbLine
 10
410.6286688169488
 20
315.135255156994
 30
0.0
 11
402.6286688169488
 21
315.135255156994
 31
0.0
  0
LINE
  5
6C7
330
18
100
AcDbEntity
  8
外形線
  6
Continuous
100
AcDbLine
 10
410.6286688169488
 20
309.135255156994
 30
0.0
 11
402.6286688169488
 21
309.135255156994
 31
0.0
  0
LINE
  5
6C9
330
18
100
AcDbEntity
  8
外形線
  6
Continuous
100
AcDbLine
 10
410.6286688169488
 20
315.135255156994
 30
0.0
 11
410.6286688169488
 21
309.135255156994
 31
0.0
  0
LINE
  5
6CA
330
18
100
AcDbEntity
  8
外形線
  6
Continuous
100
AcDbLine
 10
410.3286688169488
 20
309.135255156994
 30
0.0
 11
410.3286688169488
 21
305.6352551569941
 31
0.0
  0
LINE
  5
6CB
330
18
100
AcDbEntity
  8
外形線
  6
Continuous
100
AcDbLine
 10
410.3286688169488
 20
321.635255156994
 30
0.0
 11
410.3286688169488
 21
315.135255156994
 31
0.0
  0
LINE
  5
6CC
330
18
100
AcDbEntity
  8
外形線
  6
Continuous
100
AcDbLine
 10
402.6286688169488
 20
315.135255156994
 30
0.0
 11
402.6286688169488
 21
309.135255156994
 31
0.0
  0
LINE
  5
6CE
330
18
100
AcDbEntity
  8
外形線
  6
Continuous
100
AcDbLine
 10
402.9286688169487
 20
309.135255156994
 30
0.0
 11
402.9286688169486
 21
305.6352551569941
 31
0.0
  0
LINE
  5
6CF
330
18
100
AcDbEntity
  8
外形線
  6
Continuous
 62
     4
100
AcDbLine
 10
392.6286688169488
 20
306.8242698627632
 30
0.0
 11
398.6286688169489
 21
306.8242698627632
 31
0.0
  0
LINE
  5
6D0
330
18
100
AcDbEntity
  8
外形線
  6
Continuous
 62
     4
100
AcDbLine
 10
392.6286688169488
 20
307.8242698627632
 30
0.0
 11
398.6286688169489
 21
307.8242698627632
 31
0.0
  0
LINE
  5
6D1
330
18
100
AcDbEntity
  8
外形線
  6
Continuous
100
AcDbLine
 10
402.9286688169487
 20
321.635255156994
 30
0.0
 11
402.9286688169487
 21
315.135255156994
 31
0.0
  0
MTEXT
  5
778
330
18
100
AcDbEntity
  8
DEFPOINTS
  6
Continuous
100
AcDbMText
 10
735.8166661286731
 20
235.565234348894
 30
0.0
 40
1.0
 41
0.0
 71
     4
 72
     1
  1
\A1;
 73
     1
 44
1.0
  0
LINE
  5
789
330
18
100
AcDbEntity
  8
中心線
 48
0.5
100
AcDbLine
 10
406.6286688169488
 20
334.1540606857472
 30
0.0
 11
406.6286688169489
 21
213.3993544301429
 31
0.0
  0
LINE
  5
78E
330
18
100
AcDbEntity
  8
外形線
100
AcDbLine
 10
401.6286688169488
 20
256.6352551569941
 30
0.0
 11
413.1286688169488
 21
256.6352551569941
 31
0.0
  0
LINE
  5
78F
330
18
100
AcDbEntity
  8
外形線
100
AcDbLine
 10
401.6286688169488
 20
305.6352551569941
 30
0.0
 11
413.1286688169488
 21
305.6352551569941
 31
0.0
  0
LINE
  5
7B0
330
18
100
AcDbEntity
  8
外形線
100
AcDbLine
 10
408.6286688169487
 20
236.1352551569941
 30
0.0
 11
408.6286688169487
 21
225.1352551569941
 31
0.0
  0
LINE
  5
7B1
330
18
100
AcDbEntity
  8
外形線
100
AcDbLine
 10
404.6286688169488
 20
236.1352551569941
 30
0.0
 11
404.6286688169488
 21
225.1352551569941
 31
0.0
  0
LINE
  5
7C1
330
18
100
AcDbEntity
  8
外形線
100
AcDbLine
 10
410.6286688169488
 20
256.6352551569941
 30
0.0
 11
410.6286688169489
 21
240.635255156994
 31
0.0
  0
LINE
  5
7C2
330
18
100
AcDbEntity
  8
外形線
100
AcDbLine
 10
402.628668816949
 20
256.6352551569941
 30
0.0
 11
402.628668816949
 21
240.6352551569941
 31
0.0
  0
LINE
  5
7C5
330
18
100
AcDbEntity
  8
外形線
100
AcDbLine
 10
403.5786688169489
 20
236.135255156994
 30
0.0
 11
409.678668816949
 21
236.1352551569941
 31
0.0
  0
LINE
  5
7D6
330
18
100
AcDbEntity
  8
中心線
 48
0.5
100
AcDbLine
 10
388.6519690709949
 20
281.1352551569941
 30
0.0
 11
436.2037552502386
 21
281.1352551569941
 31
0.0
  0
LINE
  5
835
330
18
100
AcDbEntity
  8
0
  6
ByBlock
 62
     2
100
AcDbLine
 10
292.3113763407623
 20
320.1352551569941
 30
0.0
 11
292.3113763407623
 21
283.6352551569941
 31
0.0
  0
INSERT
  5
836
330
18
100
AcDbEntity
  8
0
  6
ByBlock
 62
     2
100
AcDbBlockReference
  2
_OPEN
 10
292.3113763407623
 20
322.6352551569941
 30
0.0
 41
2.5
 42
2.5
 43
2.5
 50
90.0
  0
INSERT
  5
837
330
18
100
AcDbEntity
  8
0
  6
ByBlock
 62
     2
100
AcDbBlockReference
  2
_OPEN
 10
292.3113763407623
 20
281.1352551569941
 30
0.0
 41
2.5
 42
2.5
 43
2.5
 50
270.0
  0
MTEXT
  5
838
330
18
100
AcDbEntity
  8
0
  6
ByBlock
 62
     6
100
AcDbMText
 10
290.4363763407623
 20
301.8852551569941
 30
0.0
 40
2.5
 41
0.0
 71
     5
 72
     1
  1
\A1;41.5
  7
STYLE3
 11
0.0000000000000001
 21
1.0
 31
0.0
 73
     1
 44
1.0
  0
POINT
  5
839
330
18
100
AcDbEntity
  8
DEFPOINTS
  6
ByBlock
 62
     0
100
AcDbPoint
 10
329.1043036361365
 20
322.6352551569941
 30
0.0
  0
POINT
  5
83A
330
18
100
AcDbEntity
  8
DEFPOINTS
  6
ByBlock
 62
     0
100
AcDbPoint
 10
329.1043036361365
 20
281.1352551569941
 30
0.0
  0
POINT
  5
841
330
18
100
AcDbEntity
  8
DEFPOINTS
  6
ByBlock
 62
     0
100
AcDbPoint
 10
329.1043036361365
 20
281.1352551569941
 30
0.0
  0
LINE
  5
874
330
18
100
AcDbEntity
  8
0
  6
ByBlock
 62
     2
100
AcDbLine
 10
327.6043036361365
 20
246.4850274525653
 30
0.0
 11
330.6043036361365
 21
246.4850274525653
 31
0.0
  0
INSERT
  5
875
330
18
100
AcDbEntity
  8
0
  6
ByBlock
 62
     2
100
AcDbBlockReference
  2
_OPEN
 10
325.1043036361366
 20
246.4850274525653
 30
0.0
 41
2.5
 42
2.5
 43
2.5
 50
180.0
  0
INSERT
  5
876
330
18
100
AcDbEntity
  8
0
  6
ByBlock
 62
     2
100
AcDbBlockReference
  2
_OPEN
 10
333.1043036361365
 20
246.4850274525653
 30
0.0
 41
2.5
 42
2.5
 43
2.5
  0
MTEXT
  5
877
330
18
100
AcDbEntity
  8
0
  6
ByBlock
 62
     6
100
AcDbMText
 10
329.9154061262777
 20
248.3600274525652
 30
0.0
 40
2.5
 41
0.0
 71
     5
 72
     1
  1
\A1;8.0
  7
STYLE3
 73
     1
 44
1.0
  0
POINT
  5
878
330
18
100
AcDbEntity
  8
DEFPOINTS
  6
ByBlock
 62
     0
100
AcDbPoint
 10
325.1043036361366
 20
245.9177245752965
 30
0.0
  0
POINT
  5
879
330
18
100
AcDbEntity
  8
DEFPOINTS
  6
ByBlock
 62
     0
100
AcDbPoint
 10
333.1043036361365
 20
245.7556382339508
 30
0.0
  0
POINT
  5
87A
330
18
100
AcDbEntity
  8
DEFPOINTS
  6
ByBlock
 62
     0
100
AcDbPoint
 10
333.1043036361365
 20
246.4850274525653
 30
0.0
  0
LINE
  5
87B
330
18
100
AcDbEntity
  8
0
  6
ByBlock
 62
     2
100
AcDbLine
 10
402.1286688169489
 20
229.2228086647303
 30
0.0
 11
401.2508729939652
 21
229.2228086647303
 31
0.0
  0
LINE
  5
87C
330
18
100
AcDbEntity
  8
0
  6
ByBlock
 62
     2
100
AcDbLine
 10
411.1286688169488
 20
229.2228086647303
 30
0.0
 11
415.6564250423015
 21
229.2228086647303
 31
0.0
  0
LINE
  5
87D
330
18
100
AcDbEntity
  8
0
  6
ByBlock
 62
     2
100
AcDbLine
 10
404.6286688169489
 20
229.2228086647303
 30
0.0
 11
408.6286688169488
 21
229.2228086647303
 31
0.0
  0
INSERT
  5
87E
330
18
100
AcDbEntity
  8
0
  6
ByBlock
 62
     2
100
AcDbBlockReference
  2
_OPEN
 10
404.6286688169489
 20
229.2228086647303
 30
0.0
 41
2.5
 42
2.5
 43
2.5
  0
INSERT
  5
87F
330
18
100
AcDbEntity
  8
0
  6
ByBlock
 62
     2
100
AcDbBlockReference
  2
_OPEN
 10
408.6286688169488
 20
229.2228086647303
 30
0.0
 41
2.5
 42
2.5
 43
2.5
 50
180.0
  0
MTEXT
  5
880
330
18
100
AcDbEntity
  8
0
  6
ByBlock
 62
     6
100
AcDbMText
 10
414.0908123688592
 20
231.0978086647303
 30
0.0
 40
2.5
 41
0.0
 71
     5
 72
     1
  1
\A1;4
  7
STYLE3
 73
     1
 44
1.0
  0
POINT
  5
881
330
18
100
AcDbEntity
  8
DEFPOINTS
  6
ByBlock
 62
     0
100
AcDbPoint
 10
404.6286688169489
 20
229.8711549401915
 30
0.0
  0
POINT
  5
882
330
18
100
AcDbEntity
  8
DEFPOINTS
  6
ByBlock
 62
     0
100
AcDbPoint
 10
408.6286688169488
 20
229.790111541999
 30
0.0
  0
POINT
  5
883
330
18
100
AcDbEntity
  8
DEFPOINTS
  6
ByBlock
 62
     0
100
AcDbPoint
 10
408.6286688169488
 20
229.2228086647303
 30
0.0
  0
TEXT
  5
884
330
18
100
AcDbEntity
  8
文字
100
AcDbText
 10
410.8966801111725
 20
230.6005446138451
 30
0.0
 40
2.5
  1
φ
  7
STYLE3
100
AcDbText
  0
TEXT
  5
885
330
18
100
AcDbEntity
  8
文字
100
AcDbText
 10
325.0033722128331
 20
248.7102977179667
 30
0.0
 40
2.5
  1
φ
  7
STYLE3
100
AcDbText
  0
MTEXT
  5
887
330
18
100
AcDbEntity
  8
文字
100
AcDbMText
 10
302.9558756866726
 20
261.6432165871282
 30
0.0
 40
1.0
 41
6.927999999999999
 71
     1
 72
     5
  1

  7
STYLE3
 73
     1
 44
1.0
  0
TEXT
  5
93E
330
18
100
AcDbEntity
  8
文字
100
AcDbText
 10
444.8014940783081
 20
276.0281728699768
 30
0.0
 40
2.5
  1
φ
 50
90.0
  7
STYLE3
100
AcDbText
  0
LWPOLYLINE
  5
96E
330
18
100
AcDbEntity
  8
C
100
AcDbPolyline
 90
        5
 70
     0
 43
0.4
 10
236.6915604445414
 20
366.8501752555372
 10
491.6915604445414
 20
366.8501752555372
 10
491.6915604445414
 20
171.8501752555372
 10
236.6915604445414
 20
171.8501752555372
 10
236.6915604445414
 20
366.8501752555372
  0
MTEXT
  5
EB4
330
18
100
AcDbEntity
  8
DEFPOINTS
  6
Continuous
100
AcDbMText
 10
624.6916853418142
 20
184.890767874579
 30
0.0
 40
0.35
 41
0.0
 71
     4
 72
     1
  1
\A1;
 73
     1
 44
1.0
  0
TEXT
  5
F31
330
18
100
AcDbEntity
  8
文字
100
AcDbText
 10
324.4448779770557
 20
334.6935683823013
 30
0.0
 40
2.5
  1
φ
  7
STYLE3
100
AcDbText
  0
LINE
  5
F32
330
18
100
AcDbEntity
  8
0
  6
ByBlock
 62
     2
100
AcDbLine
 10
413.1286688169487
 20
305.6352551569941
 30
0.0
 11
446.849975123331
 21
305.6352551569941
 31
0.0
  0
LINE
  5
F33
330
18
100
AcDbEntity
  8
0
  6
ByBlock
 62
     2
100
AcDbLine
 10
413.1286688169487
 20
256.6352551569941
 30
0.0
 11
446.849975123331
 21
256.6352551569941
 31
0.0
  0
LINE
  5
F34
330
18
100
AcDbEntity
  8
0
  6
ByBlock
 62
     2
100
AcDbLine
 10
445.599975123331
 20
303.1352551569941
 30
0.0
 11
445.599975123331
 21
259.1352551569941
 31
0.0
  0
INSERT
  5
F35
330
18
100
AcDbEntity
  8
0
  6
ByBlock
 62
     2
100
AcDbBlockReference
  2
_OPEN
 10
445.599975123331
 20
305.6352551569941
 30
0.0
 41
2.5
 42
2.5
 43
2.5
 50
90.0
  0
INSERT
  5
F36
330
18
100
AcDbEntity
  8
0
  6
ByBlock
 62
     2
100
AcDbBlockReference
  2
_OPEN
 10
445.599975123331
 20
256.6352551569941
 30
0.0
 41
2.5
 42
2.5
 43
2.5
 50
270.0
  0
MTEXT
  5
F37
330
18
100
AcDbEntity
  8
0
  6
ByBlock
 62
     6
100
AcDbMText
 10
443.6051316868811
 20
281.1352551569941
 30
0.0
 40
2.5
 41
0.0
 71
     5
 72
     1
  1
\A1;49
  7
STYLE3
 11
0.0000000000000001
 21
1.0
 31
0.0
 73
     1
 44
1.0
  0
POINT
  5
F3A
330
18
100
AcDbEntity
  8
DEFPOINTS
  6
ByBlock
 62
     0
100
AcDbPoint
 10
445.599975123331
 20
256.6352551569941
 30
0.0
  0
ARC
  5
F7B
330
18
100
AcDbEntity
  8
外形線
100
AcDbCircle
 10
426.6286688169488
 20
281.1352551569941
 30
0.0
 40
8.0
100
AcDbArc
 50
270.0
 51
90.0
  0
CIRCLE
  5
F7C
330
18
100
AcDbEntity
  8
外形線
100
AcDbCircle
 10
426.6286688169488
 20
281.1352551569941
 30
0.0
 40
3.25
  0
ARC
  5
F7D
330
18
100
AcDbEntity
  8
外形線
100
AcDbCircle
 10
426.6286688169488
 20
281.1352551569941
 30
0.0
 40
7.5
100
AcDbArc
 50
270.0
 51
90.0
  0
LINE
  5
F7E
330
18
100
AcDbEntity
  8
外形線
100
AcDbLine
 10
426.6286688169488
 20
289.1352551569941
 30
0.0
 11
416.7974539176617
 21
289.1352551569941
 31
0.0
  0
LINE
  5
F7F
330
18
100
AcDbEntity
  8
外形線
100
AcDbLine
 10
426.6286688169488
 20
273.1352551569941
 30
0.0
 11
416.7974539176617
 21
273.1352551569941
 31
0.0
  0
LINE
  5
F8E
330
18
100
AcDbEntity
  8
外形線
100
AcDbLine
 10
413.1286688169488
 20
304.2352551569941
 30
0.0
 11
413.3286688169488
 21
304.235255156994
 31
0.0
  0
LINE
  5
F8F
330
18
100
AcDbEntity
  8
外形線
100
AcDbLine
 10
413.1286688169488
 20
258.0352551569941
 30
0.0
 11
413.3286688169488
 21
258.0352551569941
 31
0.0
  0
ARC
  5
F90
330
18
100
AcDbEntity
  8
外形線
100
AcDbCircle
 10
426.6286688169488
 20
281.1352551569941
 30
0.0
 40
8.0
100
AcDbArc
 50
270.0
 51
90.0
  0
LINE
  5
F96
330
18
100
AcDbEntity
  8
外形線
100
AcDbLine
 10
426.6286688169488
 20
288.6352551569941
 30
0.0
 11
415.6286688169488
 21
288.6352551569941
 31
0.0
  0
LINE
  5
F97
330
18
100
AcDbEntity
  8
外形線
100
AcDbLine
 10
426.6286688169488
 20
273.6352551569941
 30
0.0
 11
415.6286688169488
 21
273.6352551569941
 31
0.0
  0
LINE
  5
F9A
330
18
100
AcDbEntity
  8
中心線
 48
0.5
100
AcDbLine
 10
426.6286688169487
 20
290.3891034610936
 30
0.0
 11
426.6286688169491
 21
247.0900226473396
 31
0.0
  0
LINE
  5
FA4
330
18
100
AcDbEntity
  8
想像線
 48
0.5
100
AcDbLine
 10
422.1286688169488
 20
273.1352551569941
 30
0.0
 11
422.1286688169488
 21
289.1352551569941
 31
0.0
  0
LINE
  5
FA5
330
18
100
AcDbEntity
  8
想像線
 48
0.5
100
AcDbLine
 10
417.1286688169488
 20
273.1336694135412
 30
0.0
 11
417.1286688169488
 21
289.136840900447
 31
0.0
  0
LINE
  5
FD6
330
18
100
AcDbEntity
  8
0
  6
ByBlock
 62
     2
100
AcDbLine
 10
409.1286688169488
 20
248.3400226473396
 30
0.0
 11
424.1286688169488
 21
248.3400226473396
 31
0.0
  0
INSERT
  5
FD7
330
18
100
AcDbEntity
  8
0
  6
ByBlock
 62
     2
100
AcDbBlockReference
  2
_OPEN
 10
406.6286688169489
 20
248.3400226473396
 30
0.0
 41
2.5
 42
2.5
 43
2.5
 50
180.0
  0
INSERT
  5
FD8
330
18
100
AcDbEntity
  8
0
  6
ByBlock
 62
     2
100
AcDbBlockReference
  2
_OPEN
 10
426.6286688169488
 20
248.3400226473396
 30
0.0
 41
2.5
 42
2.5
 43
2.5
  0
MTEXT
  5
FD9
330
18
100
AcDbEntity
  8
0
  6
ByBlock
 62
     6
100
AcDbMText
 10
416.6286688169488
 20
250.2150226473396
 30
0.0
 40
2.5
 41
0.0
 71
     5
 72
     1
  1
\A1;20
  7
STYLE3
 73
     1
 44
1.0
  0
POINT
  5
FDC
330
18
100
AcDbEntity
  8
DEFPOINTS
  6
ByBlock
 62
     0
100
AcDbPoint
 10
426.6286688169488
 20
248.3400226473396
 30
0.0
  0
LINE
  5
FDD
330
18
100
AcDbEntity
  8
0
  6
ByBlock
 62
     2
100
AcDbLine
 10
415.6286688169488
 20
288.6352551569941
 30
0.0
 11
415.6286688169488
 21
260.1008096416403
 31
0.0
  0
LINE
  5
FDF
330
18
100
AcDbEntity
  8
0
  6
ByBlock
 62
     2
100
AcDbLine
 10
418.1286688169488
 20
261.3508096416403
 30
0.0
 11
424.1286688169488
 21
261.3508096416403
 31
0.0
  0
INSERT
  5
FE0
330
18
100
AcDbEntity
  8
0
  6
ByBlock
 62
     2
100
AcDbBlockReference
  2
_OPEN
 10
415.6286688169488
 20
261.3508096416403
 30
0.0
 41
2.5
 42
2.5
 43
2.5
 50
180.0
  0
INSERT
  5
FE1
330
18
100
AcDbEntity
  8
0
  6
ByBlock
 62
     2
100
AcDbBlockReference
  2
_OPEN
 10
426.6286688169488
 20
261.3508096416403
 30
0.0
 41
2.5
 42
2.5
 43
2.5
  0
MTEXT
  5
FE2
330
18
100
AcDbEntity
  8
0
  6
ByBlock
 62
     6
100
AcDbMText
 10
421.1286688169488
 20
263.2258096416403
 30
0.0
 40
2.5
 41
0.0
 71
     5
 72
     1
  1
\A1;11
  7
STYLE3
 73
     1
 44
1.0
  0
POINT
  5
FE3
330
18
100
AcDbEntity
  8
DEFPOINTS
  6
ByBlock
 62
     0
100
AcDbPoint
 10
415.6286688169488
 20
288.6352551569941
 30
0.0
  0
ARC
  5
1008
330
18
100
AcDbEntity
  8
外形線
100
AcDbCircle
 10
266.0036688169455
 20
281.1352551569941
 30
0.0
 40
149.1250000000032
100
AcDbArc
 50
351.0887943333476
 51
356.2059438278885
  0
ARC
  5
100B
330
18
100
AcDbEntity
  8
外形線
100
AcDbCircle
 10
266.0036688169455
 20
281.1352551569941
 30
0.0
 40
149.1250000000032
100
AcDbArc
 50
3.794056172111559
 51
8.911205666652444
  0
ARC
  5
100C
330
18
100
AcDbEntity
  8
外形線
100
AcDbCircle
 10
416.7974539176617
 20
291.1352551569941
 30
0.0
 40
2.0
100
AcDbArc
 50
183.7940561721114
 51
270.0
  0
ARC
  5
100D
330
18
100
AcDbEntity
  8
外形線
100
AcDbCircle
 10
416.7974539176617
 20
271.1352551569941
 30
0.0
 40
2.0
100
AcDbArc
 50
90.0
 51
176.2059438278884
  0
ARC
  5
100F
330
18
100
AcDbEntity
  8
外形線
100
AcDbCircle
 10
266.0036688169445
 20
281.1352551569941
 30
0.0
 40
149.1250000000042
100
AcDbArc
 50
356.2059438278885
 51
3.794056172111511
  0
TEXT
  5
10B0
330
18
100
AcDbEntity
  8
文字
100
AcDbText
 10
333.4441574081796
 20
266.8092105364033
 30
0.0
 40
1.0
  1
S
 50
16.74112522991239
  7
STYLE3
100
AcDbText
  0
TEXT
  5
10B1
330
18
100
AcDbEntity
  8
文字
100
AcDbText
 10
334.2698731829601
 20
267.1294671502498
 30
0.0
 40
1.0
  1
H
 50
18.33094684325265
  7
STYLE3
100
AcDbText
  0
TEXT
  5
10B2
330
18
100
AcDbEntity
  8
文字
100
AcDbText
 10
335.1487940201189
 20
267.5120069946969
 30
0.0
 40
1.0
  1
O
 50
18.50205537425318
  7
STYLE3
100
AcDbText
  0
TEXT
  5
10B3
330
18
100
AcDbEntity
  8
文字
100
AcDbText
 10
336.0753066622117
 20
267.9807461629156
 30
0.0
 40
1.0
  1
C
 50
22.42833300859716
  7
STYLE3
100
AcDbText
  0
TEXT
  5
10B4
330
18
100
AcDbEntity
  8
文字
100
AcDbText
 10
337.0088186722986
 20
268.441941175431
 30
0.0
 40
1.0
  1
K
 50
27.88651180462494
  7
STYLE3
100
AcDbText
  0
TEXT
  5
10B5
330
18
100
AcDbEntity
  8
文字
100
AcDbText
 10
338.3608043414623
 20
269.4187552182465
 30
0.0
 40
1.0
  1
P
 50
39.9816580307698
  7
STYLE3
100
AcDbText
  0
TEXT
  5
10B6
330
18
100
AcDbEntity
  8
文字
100
AcDbText
 10
339.0762003150793
 20
270.1162502737682
 30
0.0
 40
1.0
  1
R
 50
42.80311195168548
  7
STYLE3
100
AcDbText
  0
TEXT
  5
10B7
330
18
100
AcDbEntity
  8
文字
100
AcDbText
 10
339.8230181550223
 20
270.8423002264352
 30
0.0
 40
1.0
  1
O
 50
44.47890266930122
  7
STYLE3
100
AcDbText
  0
TEXT
  5
10B8
330
18
100
AcDbEntity
  8
文字
100
AcDbText
 10
340.5689003124905
 20
271.6671289848064
 30
0.0
 40
1.0
  1
O
 50
44.39068299875359
  7
STYLE3
100
AcDbText
  0
TEXT
  5
10B9
330
18
100
AcDbEntity
  8
文字
100
AcDbText
 10
341.3540181177699
 20
272.4781574586504
 30
0.0
 40
1.0
  1
F
 50
52.03267449464927
  7
STYLE3
100
AcDbText
  0
LINE
  5
10CA
330
18
100
AcDbEntity
  8
0
  6
ByBlock
 62
     2
100
AcDbLine
 10
413.1286688169487
 20
305.6352551569941
 30
0.0
 11
413.1286688169487
 21
334.1540606857472
 31
0.0
  0
LINE
  5
10CB
330
18
100
AcDbEntity
  8
0
  6
ByBlock
 62
     2
100
AcDbLine
 10
409.1286688169487
 20
332.9040606857473
 30
0.0
 11
410.6286688169488
 21
332.9040606857473
 31
0.0
  0
INSERT
  5
10CC
330
18
100
AcDbEntity
  8
0
  6
ByBlock
 62
     2
100
AcDbBlockReference
  2
_OPEN
 10
406.6286688169488
 20
332.9040606857473
 30
0.0
 41
2.5
 42
2.5
 43
2.5
 50
180.0
  0
INSERT
  5
10CD
330
18
100
AcDbEntity
  8
0
  6
ByBlock
 62
     2
100
AcDbBlockReference
  2
_OPEN
 10
413.1286688169487
 20
332.9040606857473
 30
0.0
 41
2.5
 42
2.5
 43
2.5
  0
MTEXT
  5
10CE
330
18
100
AcDbEntity
  8
0
  6
ByBlock
 62
     6
100
AcDbMText
 10
409.8786688169488
 20
334.7790606857472
 30
0.0
 40
2.5
 41
0.0
 71
     5
 72
     1
  1
\A1;6.5
  7
STYLE3
 73
     1
 44
1.0
  0
POINT
  5
10CF
330
18
100
AcDbEntity
  8
DEFPOINTS
  6
ByBlock
 62
     0
100
AcDbPoint
 10
406.6286688169488
 20
305.6352551569941
 30
0.0
  0
POINT
  5
10D0
330
18
100
AcDbEntity
  8
DEFPOINTS
  6
ByBlock
 62
     0
100
AcDbPoint
 10
413.1286688169487
 20
305.6352551569941
 30
0.0
  0
POINT
  5
10D1
330
18
100
AcDbEntity
  8
DEFPOINTS
  6
ByBlock
 62
     0
100
AcDbPoint
 10
413.1286688169487
 20
332.9040606857473
 30
0.0
  0
POINT
  5
10D9
330
18
100
AcDbEntity
  8
DEFPOINTS
  6
ByBlock
 62
     0
100
AcDbPoint
 10
406.6286688169488
 20
322.6352551569941
 30
0.0
  0
CIRCLE
  5
111B
330
18
100
AcDbEntity
  8
針
100
AcDbCircle
 10
329.1043036361365
 20
281.1352551569941
 30
0.0
 40
1.9
  0
LINE
  5
1121
330
18
100
AcDbEntity
  8
針
100
AcDbLine
 10
316.2458396151957
 20
298.9865297059493
 30
0.0
 11
327.7682907199849
 21
283.9949001503238
 31
0.0
  0
ARC
  5
1122
330
18
100
AcDbEntity
  8
針
100
AcDbCircle
 10
330.1953417031097
 20
285.7582559072012
 30
0.0
 40
3.0
100
AcDbArc
 50
216.0
 51
245.4722791770396
  0
LINE
  5
1124
330
18
100
AcDbEntity
  8
針
100
AcDbLine
 10
316.1730280857021
 20
298.9336290332431
 30
0.0
 11
316.2458396151957
 21
298.9865297059493
 31
0.0
  0
ARC
  5
1126
330
18
100
AcDbEntity
  8
針
100
AcDbCircle
 10
324.37041934361
 20
281.5262020906953
 30
0.0
 40
3.0
100
AcDbArc
 50
6.527720822960354
 51
36.00000000000001
  0
LINE
  5
1127
330
18
100
AcDbEntity
  8
針
100
AcDbLine
 10
316.1002165562083
 20
298.8807283605367
 30
0.0
 11
326.7974703267348
 21
283.2895578475728
 31
0.0
  0
LINE
  5
1128
330
18
100
AcDbEntity
  8
針
100
AcDbLine
 10
316.173028085702
 20
298.933629033243
 30
0.0
 11
316.1002165562083
 21
298.8807283605367
 31
0.0
  0
CIRCLE
  5
1129
330
18
100
AcDbEntity
  8
針
100
AcDbCircle
 10
329.1043036361365
 20
281.1352551569941
 30
0.0
 40
0.475
  0
CIRCLE
  5
112B
330
18
100
AcDbEntity
  8
針
100
AcDbCircle
 10
329.1043036361365
 20
281.1352551569941
 30
0.0
 40
1.5
  0
HATCH
  5
1137
330
18
100
AcDbEntity
  8
針
100
AcDbHatch
 10
0.0
 20
0.0
 30
0.0
210
0.0
220
0.0
230
1.0
  2
SOLID
 70
     1
 71
     0
 91
        2
 92
        7
 72
     1
 73
     1
 93
        5
 10
316.2458396151957
 20
298.9865297059493
 42
0.0
 10
316.1730280857021
 20
298.9336290332431
 42
0.0
 10
316.1002165562083
 20
298.8807283605367
 42
0.0
 10
319.7802172624036
 20
293.5171537713089
 42
-0.0085634322047721
 10
320.2097194213899
 20
293.8292053556825
 42
0.0
 97
        0
 92
        7
 72
     1
 73
     1
 93
        6
 10
320.2097194213899
 20
293.8292053556825
 42
0.0085634322047721
 10
319.7802172624036
 20
293.5171537713089
 42
0.0
 10
326.797470326735
 20
283.2895578475723
 42
-0.1293106770632391
 10
327.3509702519693
 20
281.8672538209034
 42
-0.2805221108582334
 10
328.9499413494188
 20
283.0289743242519
 42
-0.1293106770632486
 10
327.7682907199851
 20
283.9949001503235
 42
0.0
 97
        0
 75
     0
 76
     1
 47
0.0423559757596284
 98
        2
 10
319.5928739346834
 20
294.157605542548
 10
322.2849601605382
 20
290.6686146540403
450
        0
451
        0
460
0.0
461
0.0
452
        0
462
0.0
453
        0
470

  0
LINE
  5
1278
330
18
100
AcDbEntity
  8
外形線
100
AcDbLine
 10
392.6286688169488
 20
308.6352551569941
 30
0.0
 11
398.6286688169489
 21
308.6352551569941
 31
0.0
  0
LINE
  5
127A
330
18
100
AcDbEntity
  8
外形線
100
AcDbLine
 10
391.6286688169488
 20
307.6352551569941
 30
0.0
 11
391.6286688169488
 21
281.1352551569942
 31
0.0
  0
LINE
  5
127B
330
18
100
AcDbEntity
  8
外形線
100
AcDbLine
 10
391.6286688169488
 20
307.6352551569941
 30
0.0
 11
392.6286688169488
 21
308.6352551569941
 31
0.0
  0
LINE
  5
127C
330
18
100
AcDbEntity
  8
外形線
100
AcDbLine
 10
401.6286688169487
 20
307.6352551569941
 30
0.0
 11
401.6286688169487
 21
281.1352551569941
 31
0.0
  0
LINE
  5
127D
330
18
100
AcDbEntity
  8
外形線
100
AcDbLine
 10
399.6286688169488
 20
307.6352551569941
 30
0.0
 11
399.6286688169488
 21
281.1352551569941
 31
0.0
  0
LINE
  5
127E
330
18
100
AcDbEntity
  8
外形線
100
AcDbLine
 10
398.6286688169489
 20
308.6352551569941
 30
0.0
 11
399.6286688169488
 21
307.6352551569941
 31
0.0
  0
LINE
  5
127F
330
18
100
AcDbEntity
  8
外形線
100
AcDbLine
 10
399.6286688169488
 20
307.6352551569941
 30
0.0
 11
401.6286688169487
 21
307.6352551569941
 31
0.0
  0
LINE
  5
1280
330
18
100
AcDbEntity
  8
外形線
100
AcDbLine
 10
392.6286688169488
 20
308.6352551569941
 30
0.0
 11
392.6286688169487
 21
281.1352551569942
 31
0.0
  0
LINE
  5
1281
330
18
100
AcDbEntity
  8
外形線
100
AcDbLine
 10
398.6286688169489
 20
308.6352551569941
 30
0.0
 11
398.6286688169489
 21
281.1352551569942
 31
0.0
  0
LINE
  5
128A
330
18
100
AcDbEntity
  8
外形線
100
AcDbLine
 10
392.6286688169488
 20
253.6352551569941
 30
0.0
 11
392.6286688169487
 21
281.1352551569941
 31
0.0
  0
LINE
  5
128B
330
18
100
AcDbEntity
  8
外形線
100
AcDbLine
 10
391.6286688169488
 20
254.6352551569941
 30
0.0
 11
391.6286688169488
 21
281.1352551569941
 31
0.0
  0
LINE
  5
128D
330
18
100
AcDbEntity
  8
外形線
100
AcDbLine
 10
391.6286688169488
 20
254.6352551569941
 30
0.0
 11
392.6286688169488
 21
253.6352551569941
 31
0.0
  0
LINE
  5
128E
330
18
100
AcDbEntity
  8
外形線
100
AcDbLine
 10
398.6286688169489
 20
253.6352551569941
 30
0.0
 11
398.6286688169489
 21
281.1352551569941
 31
0.0
  0
LINE
  5
128F
330
18
100
AcDbEntity
  8
外形線
100
AcDbLine
 10
399.6286688169488
 20
254.6352551569941
 30
0.0
 11
399.6286688169488
 21
281.1352551569941
 31
0.0
  0
LINE
  5
1290
330
18
100
AcDbEntity
  8
外形線
100
AcDbLine
 10
401.6286688169487
 20
254.6352551569941
 30
0.0
 11
401.6286688169487
 21
281.1352551569941
 31
0.0
  0
LINE
  5
1291
330
18
100
AcDbEntity
  8
外形線
100
AcDbLine
 10
392.6286688169488
 20
253.6352551569941
 30
0.0
 11
398.6286688169489
 21
253.6352551569941
 31
0.0
  0
LINE
  5
1292
330
18
100
AcDbEntity
  8
外形線
100
AcDbLine
 10
398.6286688169489
 20
253.6352551569941
 30
0.0
 11
399.6286688169488
 21
254.6352551569941
 31
0.0
  0
LINE
  5
1293
330
18
100
AcDbEntity
  8
外形線
100
AcDbLine
 10
399.6286688169488
 20
254.6352551569941
 30
0.0
 11
401.6286688169487
 21
254.6352551569941
 31
0.0
  0
LINE
  5
1294
330
18
100
AcDbEntity
  8
外形線
  6
Continuous
 62
     4
100
AcDbLine
 10
398.6286688169489
 20
278.1352551569942
 30
0.0
 11
392.6286688169487
 21
278.1352551569941
 31
0.0
  0
LINE
  5
1295
330
18
100
AcDbEntity
  8
外形線
  6
Continuous
 62
     4
100
AcDbLine
 10
392.6286688169488
 20
254.4462404512251
 30
0.0
 11
398.6286688169489
 21
254.4462404512251
 31
0.0
  0
LINE
  5
1296
330
18
100
AcDbEntity
  8
外形線
  6
Continuous
 62
     4
100
AcDbLine
 10
392.6286688169488
 20
255.446240451225
 30
0.0
 11
398.6286688169489
 21
255.446240451225
 31
0.0
  0
LINE
  5
1297
330
18
100
AcDbEntity
  8
外形線
  6
Continuous
 62
     4
100
AcDbLine
 10
392.6286688169488
 20
256.4462404512251
 30
0.0
 11
398.6286688169489
 21
256.4462404512251
 31
0.0
  0
LINE
  5
1298
330
18
100
AcDbEntity
  8
外形線
  6
Continuous
 62
     4
100
AcDbLine
 10
392.6286688169488
 20
257.446240451225
 30
0.0
 11
398.6286688169489
 21
257.446240451225
 31
0.0
  0
LINE
  5
1299
330
18
100
AcDbEntity
  8
外形線
  6
Continuous
 62
     4
100
AcDbLine
 10
392.6286688169488
 20
258.4462404512251
 30
0.0
 11
398.6286688169489
 21
258.4462404512251
 31
0.0
  0
LINE
  5
129A
330
18
100
AcDbEntity
  8
外形線
  6
Continuous
 62
     4
100
AcDbLine
 10
392.6286688169488
 20
259.4462404512251
 30
0.0
 11
398.6286688169489
 21
259.446240451225
 31
0.0
  0
LINE
  5
1313
330
18
100
AcDbEntity
  8
外形線
100
AcDbLine
 10
403.3786688169489
 20
236.935255156994
 30
0.0
 11
409.8786688169489
 21
236.9352551569941
 31
0.0
  0
LINE
  5
1314
330
18
100
AcDbEntity
  8
外形線
100
AcDbLine
 10
402.7286688169489
 20
238.1352551569941
 30
0.0
 11
410.5286688169488
 21
238.1352551569941
 31
0.0
  0
LINE
  5
1315
330
18
100
AcDbEntity
  8
外形線
100
AcDbLine
 10
402.628668816949
 20
240.6352551569941
 30
0.0
 11
410.6286688169489
 21
240.635255156994
 31
0.0
  0
LINE
  5
1316
330
18
100
AcDbEntity
  8
外形線
100
AcDbLine
 10
410.5286688169488
 20
240.635255156994
 30
0.0
 11
410.5286688169488
 21
238.1352551569941
 31
0.0
  0
LINE
  5
1317
330
18
100
AcDbEntity
  8
外形線
100
AcDbLine
 10
402.7286688169488
 20
240.635255156994
 30
0.0
 11
402.7286688169489
 21
238.1352551569941
 31
0.0
  0
LINE
  5
1318
330
18
100
AcDbEntity
  8
外形線
100
AcDbLine
 10
409.8786688169489
 20
236.9352551569941
 30
0.0
 11
409.8786688169489
 21
236.3352551569941
 31
0.0
  0
LINE
  5
1319
330
18
100
AcDbEntity
  8
外形線
100
AcDbLine
 10
403.3786688169489
 20
236.935255156994
 30
0.0
 11
403.3786688169489
 21
236.335255156994
 31
0.0
  0
LINE
  5
131A
330
18
100
AcDbEntity
  8
外形線
100
AcDbLine
 10
403.3786688169489
 20
236.335255156994
 30
0.0
 11
403.5786688169489
 21
236.135255156994
 31
0.0
  0
LINE
  5
131B
330
18
100
AcDbEntity
  8
外形線
 48
0.5
100
AcDbLine
 10
409.678668816949
 20
236.1352551569941
 30
0.0
 11
409.8786688169489
 21
236.3352551569941
 31
0.0
  0
ARC
  5
131C
330
18
100
AcDbEntity
  8
外形線
100
AcDbCircle
 10
410.328668816949
 20
237.4714454217322
 30
0.0
 40
0.7
100
AcDbArc
 50
108.5043392264886
 51
229.9947991151398
  0
ARC
  5
131E
330
18
100
AcDbEntity
  8
外形線
100
AcDbCircle
 10
402.9286688169487
 20
237.4714454217322
 30
0.0
 40
0.7
100
AcDbArc
 50
310.0052008848602
 51
71.49566077351135
  0
HATCH
  5
1470
330
18
100
AcDbEntity
  8
ROGO
 62
     4
100
AcDbHatch
 10
0.0
 20
0.0
 30
0.0
210
0.0
220
0.0
230
1.0
  2
SOLID
 70
     1
 71
     1
 91
        1
 92
        7
 72
     0
 73
     1
 93
       11
 10
334.0731681622187
 20
290.274916435316
 10
334.7910116572078
 20
290.2749164353161
 10
335.0445544650904
 20
290.783392940772
 10
335.2980972729732
 20
290.274916435316
 10
336.0159250621237
 20
290.274916435316
 10
335.530231910688
 20
291.2489671624036
 10
336.710278389066
 20
292.2230178894911
 10
335.9924505999154
 20
292.2230178894912
 10
335.6563423429286
 20
292.0103248533796
 10
335.7623979600795
 20
292.2230178894911
 10
335.0445544650904
 20
292.2230178894911
 97
       11
330
14B8
330
14BB
330
14BC
330
1472
330
14A8
330
147B
330
14A7
330
1471
330
14B7
330
14BA
330
14B9
 75
     0
 76
     1
 47
0.0514683685270805
 98
        1
 10
334.9827743099093
 20
291.3872444032297
450
        0
451
        0
460
0.0
461
0.0
452
        0
462
0.0
453
        0
470

  0
LINE
  5
1471
102
{ACAD_REACTORS
330
1470
102
}
330
18
100
AcDbEntity
  8
ROGO
 62
     4
100
AcDbLine
 10
335.0445544650905
 20
290.783392940772
 30
0.0
 11
335.2980972729733
 21
290.274916435316
 31
0.0
  0
LINE
  5
1472
102
{ACAD_REACTORS
330
1470
102
}
330
18
100
AcDbEntity
  8
ROGO
 62
     4
100
AcDbLine
 10
335.0445544650905
 20
292.2230178894911
 30
0.0
 11
335.7623979600794
 21
292.2230178894911
 31
0.0
  0
TEXT
  5
1474
330
18
100
AcDbEntity
  8
文字
100
AcDbText
 10
322.8261471347526
 20
287.9440302266504
 30
0.0
 40
1.0
  1
MADE  IN  JAPAN
  7
STYLE3
100
AcDbText
  0
HATCH
  5
1475
330
18
100
AcDbEntity
  8
ROGO
 62
     4
100
AcDbHatch
 10
0.0
 20
0.0
 30
0.0
210
0.0
220
0.0
230
1.0
  2
SOLID
 70
     1
 71
     1
 91
        2
 92
        5
 93
        6
 72
     1
 10
321.6043036361366
 20
290.274916435316
 11
322.5098644533359
 21
290.274916435316
 72
     1
 10
322.5098644533359
 20
290.274916435316
 11
322.827184637666
 21
290.9762875428547
 72
     1
 10
322.827184637666
 20
290.9762875428547
 11
323.6736982702245
 21
290.9762875428547
 72
     4
 94
        3
 73
     0
 74
     0
 95
       18
 96
       14
 40
0.108740278791501
 40
0.108740278791501
 40
0.108740278791501
 40
0.108740278791501
 40
0.6623149649549278
 40
1.384304701649787
 40
2.097394834876493
 40
2.774073369849618
 40
3.428974823686337
 40
4.005208313035923
 40
4.455173659284313
 40
4.720999734343524
 40
5.086034088486724
 40
5.569973738255373
 40
6.060470601257719
 40
6.060470601257719
 40
6.060470601257719
 40
6.060470601257719
 10
323.6736982702246
 20
290.9762875428547
 10
323.7332745011654
 20
290.9767311890075
 10
323.8705519499639
 20
290.9777534526026
 10
324.0626020266454
 20
291.0803508235913
 10
324.2447203716818
 20
291.2110523990861
 10
324.3914043093518
 20
291.3743503815419
 10
324.4827928219226
 20
291.5610536476336
 10
324.4969486136562
 20
291.7399915789953
 10
324.4883068505864
 20
291.8815292581269
 10
324.4265571128957
 20
291.9801845342932
 10
324.3623607253315
 20
292.0803095507791
 10
324.2446462582574
 20
292.1670415589543
 10
324.1481962971828
 20
292.2050430713484
 10
324.0991495303215
 20
292.2230178894912
 72
     1
 10
324.0991495303215
 20
292.2230178894912
 11
322.5682061181231
 21
292.2230178894911
 72
     1
 10
322.5682061181231
 20
292.2230178894911
 11
321.6043036361366
 21
290.274916435316
 97
        6
330
149D
330
147C
330
147F
330
147B
330
147D
330
147A
 92
       20
 93
        4
 72
     1
 10
323.0231118876171
 20
291.4093444963079
 11
323.1731186712071
 21
291.7409036883807
 72
     1
 10
323.1731186712071
 20
291.7409036883807
 11
323.5585721732052
 21
291.7409036883807
 72
     4
 94
        3
 73
     0
 74
     0
 95
       15
 96
       11
 40
0.0
 40
0.0
 40
0.0
 40
0.0
 40
0.1461831775054869
 40
0.2128346657926855
 40
0.2884885421222081
 40
0.3400274801801145
 40
0.4215368452530754
 40
0.4703587283434508
 40
0.5541210812769089
 40
0.5820418834082098
 40
0.5820418834082098
 40
0.5820418834082098
 40
0.5820418834082098
 10
323.5585721732053
 20
291.7409036883807
 10
323.6134757398537
 20
291.7411551760227
 10
323.6934123129794
 20
291.7415213281964
 10
323.7371244781838
 20
291.6426395560719
 10
323.7175306015359
 20
291.578975120192
 10
323.6928995016628
 20
291.5136115873135
 10
323.6493707696115
 20
291.4691960809005
 10
323.5909488354173
 20
291.4264164608045
 10
323.5357373157413
 20
291.4212377962337
 10
323.4998284198941
 20
291.4117231572039
 10
323.4908511916352
 20
291.4093444963079
 72
     1
 10
323.4908511916352
 20
291.4093444963079
 11
323.0231118876171
 21
291.4093444963079
 97
        4
330
147E
330
1479
330
149C
330
1478
 75
     0
 76
     1
 47
0.0514683685270805
 98
        2
 10
322.5763887731385
 20
291.6171066366047
 10
322.5763887731385
 20
291.6171066366047
450
        0
451
        0
460
0.0
461
0.0
452
        0
462
0.0
453
        0
470

  0
HATCH
  5
1476
330
18
100
AcDbEntity
  8
ROGO
 62
     4
100
AcDbHatch
 10
0.0
 20
0.0
 30
0.0
210
0.0
220
0.0
230
1.0
  2
SOLID
 70
     1
 71
     0
 91
        1
 92
        7
 72
     0
 73
     1
 93
        4
 10
322.5982092711446
 20
290.4701845139685
 10
322.5098644533359
 20
290.274916435316
 10
334.0731681622187
 20
290.274916435316
 10
334.1705351328068
 20
290.4701845139685
 97
        0
 75
     0
 76
     1
 47
0.0514683685270805
 98
        1
 10
329.9051940763399
 20
290.4185392453499
450
        0
451
        0
460
0.0
461
0.0
452
        0
462
0.0
453
        0
470

  0
LINE
  5
1477
330
18
100
AcDbEntity
  8
ROGO
 62
     4
100
AcDbLine
 10
322.584667222811
 20
290.4701845139685
 30
0.0
 11
334.1705351328069
 21
290.4701845139685
 31
0.0
  0
LINE
  5
1478
102
{ACAD_REACTORS
330
1475
102
}
330
18
100
AcDbEntity
  8
ROGO
 62
     4
100
AcDbLine
 10
323.4908511916353
 20
291.4093444963079
 30
0.0
 11
323.023111887617
 21
291.4093444963079
 31
0.0
  0
LINE
  5
1479
102
{ACAD_REACTORS
330
1475
102
}
330
18
100
AcDbEntity
  8
ROGO
 62
     4
100
AcDbLine
 10
323.5585721732054
 20
291.7409036883807
 30
0.0
 11
323.1731186712071
 21
291.7409036883807
 31
0.0
  0
LINE
  5
147A
102
{ACAD_REACTORS
330
1475
102
}
330
18
100
AcDbEntity
  8
ROGO
 62
     4
100
AcDbLine
 10
323.6736982705181
 20
290.9762875428547
 30
0.0
 11
322.827184637666
 21
290.9762875428547
 31
0.0
  0
LINE
  5
147B
102
{ACAD_REACTORS
330
1475
330
1470
102
}
330
18
100
AcDbEntity
  8
ROGO
 62
     4
100
AcDbLine
 10
321.6043036361365
 20
290.274916435316
 30
0.0
 11
334.7910116572078
 21
290.274916435316
 31
0.0
  0
LINE
  5
147C
102
{ACAD_REACTORS
330
1475
102
}
330
18
100
AcDbEntity
  8
ROGO
 62
     4
100
AcDbLine
 10
322.5682061181232
 20
292.2230178894911
 30
0.0
 11
324.0991495303215
 21
292.2230178894911
 31
0.0
  0
LINE
  5
147D
102
{ACAD_REACTORS
330
1475
102
}
330
18
100
AcDbEntity
  8
ROGO
 62
     4
100
AcDbLine
 10
322.827184637666
 20
290.9762875428547
 30
0.0
 11
322.5098644533359
 21
290.274916435316
 31
0.0
  0
LINE
  5
147E
102
{ACAD_REACTORS
330
1475
102
}
330
18
100
AcDbEntity
  8
ROGO
 62
     4
100
AcDbLine
 10
323.1731186712071
 20
291.7409036883807
 30
0.0
 11
323.023111887617
 21
291.4093444963079
 31
0.0
  0
LINE
  5
147F
102
{ACAD_REACTORS
330
1475
102
}
330
18
100
AcDbEntity
  8
ROGO
 62
     4
100
AcDbLine
 10
322.5682061181232
 20
292.2230178894911
 30
0.0
 11
321.6043036361365
 21
290.274916435316
 31
0.0
  0
HATCH
  5
1480
330
18
100
AcDbEntity
  8
ROGO
 62
     4
100
AcDbHatch
 10
0.0
 20
0.0
 30
0.0
210
0.0
220
0.0
230
1.0
  2
SOLID
 70
     1
 71
     1
 91
        1
 92
        5
 93
        8
 72
     1
 10
330.5350634048211
 20
291.7591533684976
 11
330.766361236418
 21
292.2230178894912
 72
     1
 10
330.766361236418
 20
292.2230178894912
 11
329.5178351396549
 21
292.2230178894912
 72
     4
 94
        3
 73
     0
 74
     0
 95
       26
 96
       22
 40
0.0
 40
0.0
 40
0.0
 40
0.0
 40
0.2261711682465229
 40
0.3775752524709292
 40
0.4867499270747143
 40
0.568267124049349
 40
0.6739992068898346
 40
0.7511733198246184
 40
0.8905317800930601
 40
1.00396756324948
 40
1.081122071918963
 40
1.156776017963923
 40
1.292106219407745
 40
1.387800824155797
 40
1.439339762213629
 40
1.512549301287549
 40
1.565415552119592
 40
1.642001295672491
 40
1.685342202005952
 40
1.779656875742603
 40
1.822721775074864
 40
1.822721775074864
 40
1.822721775074864
 40
1.822721775074864
 10
329.5178351396544
 20
292.2230178894911
 10
329.4410691506138
 20
292.2184378989451
 10
329.3129142760649
 20
292.2107919593671
 10
329.1722010034127
 20
292.1253101573794
 10
329.0691062220613
 20
292.0756147941927
 10
328.99557914903
 20
292.0080581817068
 10
328.9416835064414
 20
291.9382771359259
 10
328.8737379311205
 20
291.8551335315259
 10
328.8183302559929
 20
291.7583161686991
 10
328.7901144955
 20
291.6516065563884
 10
328.7651212426519
 20
291.5665583762278
 10
328.7465858279294
 20
291.4717832784528
 10
328.7513017621656
 20
291.3693928327197
 10
328.7580551958229
 20
291.2742978285688
 10
328.7882076348845
 20
291.2064142332798
 10
328.8225459220581
 20
291.1580857912372
 10
328.8645926844422
 20
291.1048573702493
 10
328.910601037362
 20
291.0696043593893
 10
328.9486537006898
 20
291.005741161271
 10
329.0152636041632
 20
290.9975917566067
 10
329.0576035087851
 20
290.981372009053
 10
329.0708759603552
 20
290.9762875428547
 72
     1
 10
329.0708759603551
 20
290.9762875428547
 11
330.1447012199431
 21
290.9762875428547
 72
     1
 10
330.1447012199431
 20
290.9762875428547
 11
330.3759966021591
 21
291.4401471516499
 72
     1
 10
330.3759966021591
 20
291.4401471516499
 11
329.5787839062448
 21
291.4401471516499
 72
     4
 94
        3
 73
     0
 74
     0
 95
       16
 96
       12
 40
0.0
 40
0.0
 40
0.0
 40
0.0
 40
0.0683030918787651
 40
0.1373106805328241
 40
0.1784706056911381
 40
0.2179345026857031
 40
0.2612752368189221
 40
0.2915411730568249
 40
0.3202609197926786
 40
0.3785004428982989
 40
0.4977391777073984
 40
0.4977391777073984
 40
0.4977391777073984
 40
0.4977391777073984
 10
329.5787839062449
 20
291.4401471516499
 10
329.5547371619146
 20
291.4472220564205
 10
329.5063956485544
 20
291.4614448384648
 10
329.5023498542529
 20
291.5303916607873
 10
329.507861663664
 20
291.5795219135913
 10
329.530945133789
 20
291.6152916066546
 10
329.5589493868251
 20
291.6413187647108
 10
329.5693766122536
 20
291.6752150685738
 10
329.600026491381
 20
291.7008110187877
 10
329.6543769395412
 20
291.7438342355806
 10
329.7144791265861
 20
291.7529972194661
 10
329.7548587698545
 20
291.7591533684976
 72
     1
 10
329.7548587698545
 20
291.7591533684976
 11
330.5350634048211
 21
291.7591533684976
 97
        8
330
14B1
330
1481
330
1482
330
14B2
330
14B4
330
14B3
330
14B5
330
14B6
 75
     0
 76
     1
 47
0.0514683685270805
 98
        1
 10
329.9544909415661
 20
291.9454810981441
450
        0
451
        0
460
0.0
461
0.0
452
        0
462
0.0
453
        0
470

  0
SPLINE
  5
1481
102
{ACAD_REACTORS
330
1480
102
}
330
18
100
AcDbEntity
  8
ROGO
 62
     4
100
AcDbSpline
210
0.0
220
0.0
230
1.0
 70
     8
 71
     3
 72
    26
 73
    22
 74
    20
 42
0.0000000001
 43
0.0000000001
 44
0.0000000001
 40
0.0
 40
0.0
 40
0.0
 40
0.0
 40
0.2261711682465229
 40
0.3775752524709292
 40
0.4867499270747143
 40
0.568267124049349
 40
0.6739992068898346
 40
0.7511733198246184
 40
0.8905317800930601
 40
1.00396756324948
 40
1.081122071918963
 40
1.156776017963923
 40
1.292106219407745
 40
1.387800824155797
 40
1.439339762213629
 40
1.512549301287549
 40
1.565415552119592
 40
1.642001295672491
 40
1.685342202005952
 40
1.779656875742603
 40
1.822721775074864
 40
1.822721775074864
 40
1.822721775074864
 40
1.822721775074864
 10
329.5178351396544
 20
292.2230178894911
 30
0.0
 10
329.4410691506138
 20
292.2184378989451
 30
0.0
 10
329.3129142760649
 20
292.2107919593671
 30
0.0
 10
329.1722010034127
 20
292.1253101573794
 30
0.0
 10
329.0691062220613
 20
292.0756147941927
 30
0.0
 10
328.99557914903
 20
292.0080581817068
 30
0.0
 10
328.9416835064414
 20
291.9382771359259
 30
0.0
 10
328.8737379311205
 20
291.8551335315259
 30
0.0
 10
328.8183302559929
 20
291.7583161686991
 30
0.0
 10
328.7901144955
 20
291.6516065563884
 30
0.0
 10
328.7651212426519
 20
291.5665583762278
 30
0.0
 10
328.7465858279294
 20
291.4717832784528
 30
0.0
 10
328.7513017621656
 20
291.3693928327197
 30
0.0
 10
328.7580551958229
 20
291.2742978285688
 30
0.0
 10
328.7882076348845
 20
291.2064142332798
 30
0.0
 10
328.8225459220581
 20
291.1580857912372
 30
0.0
 10
328.8645926844422
 20
291.1048573702493
 30
0.0
 10
328.910601037362
 20
291.0696043593893
 30
0.0
 10
328.9486537006898
 20
291.005741161271
 30
0.0
 10
329.0152636041632
 20
290.9975917566067
 30
0.0
 10
329.0576035087851
 20
290.981372009053
 30
0.0
 10
329.0708759603552
 20
290.9762875428547
 30
0.0
 11
329.5178351396544
 21
292.2230178894911
 31
0.0
 11
329.2943555500047
 21
292.188228949352
 31
0.0
 11
329.1589131974553
 21
292.1205638486301
 31
0.0
 11
329.0641037453753
 21
292.0664318121716
 31
0.0
 11
329.0031549787849
 21
292.0122995551181
 31
0.0
 11
328.9354339972149
 21
291.9311013901328
 31
0.0
 11
328.8880292711748
 21
291.8702028215426
 31
0.0
 11
328.8203079001956
 21
291.7484054637672
 31
0.0
 11
328.786447604115
 21
291.6401411702551
 31
0.0
 11
328.766131348585
 21
291.5657095374015
 31
0.0
 11
328.7525869186254
 21
291.4912779045479
 31
0.0
 11
328.7525869186254
 21
291.3559477031041
 31
0.0
 11
328.766131348585
 21
291.2612164738555
 31
0.0
 11
328.786447604115
 21
291.2138507489337
 31
0.0
 11
328.8270801151753
 21
291.1529521803434
 31
0.0
 11
328.860940800665
 21
291.1123529875533
 31
0.0
 11
328.9151173522754
 21
291.0582209510947
 31
0.0
 11
328.9422058227855
 21
291.0243882904362
 31
0.0
 11
329.0302434492949
 21
290.9905558503728
 31
0.0
 11
329.0708759603552
 21
290.9762875428547
 31
0.0
  0
LINE
  5
1482
102
{ACAD_REACTORS
330
1480
102
}
330
18
100
AcDbEntity
  8
ROGO
 62
     4
100
AcDbLine
 10
329.0708759603551
 20
290.9762875428547
 30
0.0
 11
330.1447012199431
 21
290.9762875428547
 31
0.0
  0
HATCH
  5
1483
330
18
100
AcDbEntity
  8
ROGO
 62
     4
100
AcDbHatch
 10
0.0
 20
0.0
 30
0.0
210
0.0
220
0.0
230
1.0
  2
SOLID
 70
     1
 71
     1
 91
        2
 92
        7
 72
     0
 73
     1
 93
        8
 10
328.1755979008234
 20
292.2230178894912
 10
327.1783203972446
 20
292.2230178894911
 10
326.2792789143633
 20
290.9762875428548
 10
326.9697443741103
 20
290.9762875428547
 10
327.1409163099034
 20
291.2136572870871
 10
327.9288208296684
 20
291.2136572870871
 10
328.0342698756267
 20
290.9762875428547
 10
328.7294449214087
 20
290.9762875428548
 97
        8
330
148A
330
1490
330
148B
330
148C
330
148E
330
1484
330
1489
330
1486
 92
       22
 72
     0
 73
     1
 93
        3
 10
327.8176005410975
 20
291.4640183141747
 10
327.3214565122461
 20
291.4640183141747
 10
327.6284684146439
 20
291.8897618007504
 97
        3
330
148D
330
148F
330
1485
 75
     0
 76
     1
 47
0.0128389261915577
 98
        2
 10
328.097503192275
 20
291.9239097644028
 10
328.097503192275
 20
291.9239097644028
450
        0
451
        0
460
0.0
461
0.0
452
        0
462
0.0
453
        0
470

  0
LINE
  5
1484
102
{ACAD_REACTORS
330
1483
102
}
330
18
100
AcDbEntity
  8
ROGO
 62
     4
100
AcDbLine
 10
327.9288208296684
 20
291.2136572870871
 30
0.0
 11
328.0342698756268
 21
290.9762875428547
 31
0.0
  0
LINE
  5
1485
102
{ACAD_REACTORS
330
1483
102
}
330
18
100
AcDbEntity
  8
ROGO
 62
     4
100
AcDbLine
 10
327.6284684146439
 20
291.8897618007502
 30
0.0
 11
327.8176005410974
 21
291.4640183141747
 31
0.0
  0
LINE
  5
1486
102
{ACAD_REACTORS
330
1483
102
}
330
18
100
AcDbEntity
  8
ROGO
 62
     4
100
AcDbLine
 10
328.1755979008235
 20
292.2230178894911
 30
0.0
 11
328.7294449214087
 21
290.9762875428547
 31
0.0
  0
HATCH
  5
1487
330
18
100
AcDbEntity
  8
ROGO
 62
     4
100
AcDbHatch
 10
0.0
 20
0.0
 30
0.0
210
0.0
220
0.0
230
1.0
  2
SOLID
 70
     1
 71
     1
 91
        1
 92
        1
 93
       12
 72
     1
 10
325.0035929117228
 20
292.2230178894911
 11
326.6898475724512
 21
292.2230178894912
 72
     1
 10
326.6898475724512
 20
292.2230178894911
 11
326.5485409244785
 21
291.9374291587381
 72
     1
 10
326.5485409244785
 20
291.9374291587381
 11
325.6622880855092
 21
291.9374291587381
 72
     1
 10
325.6622880855092
 20
291.9374291587381
 11
325.5518038463665
 21
291.7141342601773
 72
     1
 10
325.5518038463665
 20
291.7141342601773
 11
326.4380566853357
 21
291.7141342601773
 72
     1
 10
326.4380566853357
 20
291.7141342601773
 11
326.3247654482585
 21
291.4851662599702
 72
     1
 10
326.3247654482585
 20
291.4851662599702
 11
325.4385126092893
 21
291.4851662599702
 72
     1
 10
325.4385126092893
 20
291.4851662599702
 11
325.3280236927748
 21
291.2618619081769
 72
     1
 10
325.328023692775
 20
291.2618619081769
 11
326.2142765317441
 21
291.2618619081769
 72
     1
 10
326.2142765317441
 20
291.2618619081769
 11
326.072976991653
 21
290.9762875428547
 72
     1
 10
326.072976991653
 20
290.9762875428547
 11
324.3867223309246
 21
290.9762875428547
 72
     1
 10
324.3867223309246
 20
290.9762875428547
 11
325.0035929117228
 21
292.2230178894911
 97
       12
330
1488
330
149A
330
1497
330
1498
330
1496
330
1493
330
1494
330
1491
330
1495
330
1492
330
1499
330
149B
 75
     0
 76
     1
 98
        1
 10
256.0278702956712
 20
206.0171931356831
450
        0
451
        0
460
0.0
461
0.0
452
        0
462
0.0
453
        0
470

  0
LINE
  5
1488
102
{ACAD_REACTORS
330
1487
102
}
330
18
100
AcDbEntity
  8
ROGO
 62
     4
100
AcDbLine
 10
325.0035929117228
 20
292.2230178894911
 30
0.0
 11
326.6898475724512
 21
292.2230178894912
 31
0.0
  0
LINE
  5
1489
102
{ACAD_REACTORS
330
1483
102
}
330
18
100
AcDbEntity
  8
ROGO
 62
     4
100
AcDbLine
 10
328.7294449214087
 20
290.9762875428548
 30
0.0
 11
328.0342698756268
 21
290.9762875428547
 31
0.0
  0
LINE
  5
148A
102
{ACAD_REACTORS
330
1483
102
}
330
18
100
AcDbEntity
  8
ROGO
 62
     4
100
AcDbLine
 10
327.1783203972445
 20
292.2230178894911
 30
0.0
 11
328.1755979008235
 21
292.2230178894912
 31
0.0
  0
LINE
  5
148B
102
{ACAD_REACTORS
330
1483
102
}
330
18
100
AcDbEntity
  8
ROGO
 62
     4
100
AcDbLine
 10
326.2792789143633
 20
290.9762875428547
 30
0.0
 11
326.9697443741102
 21
290.9762875428547
 31
0.0
  0
LINE
  5
148C
102
{ACAD_REACTORS
330
1483
102
}
330
18
100
AcDbEntity
  8
ROGO
 62
     4
100
AcDbLine
 10
327.1409163099034
 20
291.2136572870871
 30
0.0
 11
326.9697443741104
 21
290.9762875428548
 31
0.0
  0
LINE
  5
148D
102
{ACAD_REACTORS
330
1483
102
}
330
18
100
AcDbEntity
  8
ROGO
 62
     4
100
AcDbLine
 10
327.321456512246
 20
291.4640183141747
 30
0.0
 11
327.8176005410974
 21
291.4640183141747
 31
0.0
  0
LINE
  5
148E
102
{ACAD_REACTORS
330
1483
102
}
330
18
100
AcDbEntity
  8
ROGO
 62
     4
100
AcDbLine
 10
327.1409163099034
 20
291.2136572870871
 30
0.0
 11
327.9288208296684
 21
291.2136572870871
 31
0.0
  0
LINE
  5
148F
102
{ACAD_REACTORS
330
1483
102
}
330
18
100
AcDbEntity
  8
ROGO
 62
     4
100
AcDbLine
 10
327.6284684146438
 20
291.8897618007502
 30
0.0
 11
327.321456512246
 21
291.4640183141747
 31
0.0
  0
LINE
  5
1490
102
{ACAD_REACTORS
330
1483
102
}
330
18
100
AcDbEntity
  8
ROGO
 62
     4
100
AcDbLine
 10
327.1783203972445
 20
292.2230178894911
 30
0.0
 11
326.2792789143633
 21
290.9762875428547
 31
0.0
  0
LINE
  5
1491
102
{ACAD_REACTORS
330
1487
102
}
330
18
100
AcDbEntity
  8
ROGO
 62
     4
100
AcDbLine
 10
325.4385126092893
 20
291.4851662599702
 30
0.0
 11
325.3280236927748
 21
291.2618619081769
 31
0.0
  0
LINE
  5
1492
102
{ACAD_REACTORS
330
1487
102
}
330
18
100
AcDbEntity
  8
ROGO
 62
     4
100
AcDbLine
 10
326.2142765317441
 20
291.2618619081769
 30
0.0
 11
326.072976991653
 21
290.9762875428547
 31
0.0
  0
LINE
  5
1493
102
{ACAD_REACTORS
330
1487
102
}
330
18
100
AcDbEntity
  8
ROGO
 62
     4
100
AcDbLine
 10
326.4380566853357
 20
291.7141342601773
 30
0.0
 11
326.3247654482585
 21
291.4851662599702
 31
0.0
  0
LINE
  5
1494
102
{ACAD_REACTORS
330
1487
102
}
330
18
100
AcDbEntity
  8
ROGO
 62
     4
100
AcDbLine
 10
325.4385126092893
 20
291.4851662599702
 30
0.0
 11
326.3247654482585
 21
291.4851662599702
 31
0.0
  0
LINE
  5
1495
102
{ACAD_REACTORS
330
1487
102
}
330
18
100
AcDbEntity
  8
ROGO
 62
     4
100
AcDbLine
 10
325.328023692775
 20
291.2618619081769
 30
0.0
 11
326.2142765317441
 21
291.2618619081769
 31
0.0
  0
LINE
  5
1496
102
{ACAD_REACTORS
330
1487
102
}
330
18
100
AcDbEntity
  8
ROGO
 62
     4
100
AcDbLine
 10
325.5518038463665
 20
291.7141342601773
 30
0.0
 11
326.4380566853357
 21
291.7141342601773
 31
0.0
  0
LINE
  5
1497
102
{ACAD_REACTORS
330
1487
102
}
330
18
100
AcDbEntity
  8
ROGO
 62
     4
100
AcDbLine
 10
325.6622880855092
 20
291.9374291587381
 30
0.0
 11
326.5485409244785
 21
291.9374291587381
 31
0.0
  0
LINE
  5
1498
102
{ACAD_REACTORS
330
1487
102
}
330
18
100
AcDbEntity
  8
ROGO
 62
     4
100
AcDbLine
 10
325.6622880855092
 20
291.9374291587381
 30
0.0
 11
325.5518038463665
 21
291.7141342601773
 31
0.0
  0
LINE
  5
1499
102
{ACAD_REACTORS
330
1487
102
}
330
18
100
AcDbEntity
  8
ROGO
 62
     4
100
AcDbLine
 10
324.3867223309246
 20
290.9762875428547
 30
0.0
 11
326.072976991653
 21
290.9762875428547
 31
0.0
  0
LINE
  5
149A
102
{ACAD_REACTORS
330
1487
102
}
330
18
100
AcDbEntity
  8
ROGO
 62
     4
100
AcDbLine
 10
326.6898475724512
 20
292.2230178894911
 30
0.0
 11
326.5485409244785
 21
291.9374291587381
 31
0.0
  0
LINE
  5
149B
102
{ACAD_REACTORS
330
1487
102
}
330
18
100
AcDbEntity
  8
ROGO
 62
     4
100
AcDbLine
 10
325.0035929117228
 20
292.2230178894911
 30
0.0
 11
324.3867223309246
 21
290.9762875428547
 31
0.0
  0
SPLINE
  5
149C
102
{ACAD_REACTORS
330
1475
102
}
330
18
100
AcDbEntity
  8
ROGO
 62
     4
100
AcDbSpline
210
0.0
220
0.0
230
1.0
 70
     8
 71
     3
 72
    15
 73
    11
 74
     9
 42
0.0000000001
 43
0.0000000001
 44
0.0000000001
 40
0.0
 40
0.0
 40
0.0
 40
0.0
 40
0.1461831775054869
 40
0.2128346657926855
 40
0.2884885421222081
 40
0.3400274801801145
 40
0.4215368452530754
 40
0.4703587283434508
 40
0.5541210812769089
 40
0.5820418834082098
 40
0.5820418834082098
 40
0.5820418834082098
 40
0.5820418834082098
 10
323.5585721732053
 20
291.7409036883807
 30
0.0
 10
323.6134757398537
 20
291.7411551760227
 30
0.0
 10
323.6934123129794
 20
291.7415213281964
 30
0.0
 10
323.7371244781838
 20
291.6426395560719
 30
0.0
 10
323.7175306015359
 20
291.578975120192
 30
0.0
 10
323.6928995016628
 20
291.5136115873135
 30
0.0
 10
323.6493707696115
 20
291.4691960809005
 30
0.0
 10
323.5909488354173
 20
291.4264164608045
 30
0.0
 10
323.5357373157413
 20
291.4212377962337
 30
0.0
 10
323.4998284198941
 20
291.4117231572039
 30
0.0
 10
323.4908511916352
 20
291.4093444963079
 30
0.0
 11
323.5585721732053
 21
291.7409036883807
 31
0.0
 11
323.7007863513253
 21
291.7070710277222
 31
0.0
 11
323.7278748218352
 21
291.6461724591321
 31
0.0
 11
323.7143307812849
 21
291.5717408262785
 31
0.0
 11
323.6940145257548
 21
291.5243751013566
 31
0.0
 11
323.639837584735
 21
291.4634765327664
 31
0.0
 11
323.5992050736747
 21
291.4364104042397
 31
0.0
 11
323.5179396621451
 21
291.4161110284396
 31
0.0
 11
323.4908511916352
 21
291.4093444963079
 31
0.0
  0
SPLINE
  5
149D
102
{ACAD_REACTORS
330
1475
102
}
330
18
100
AcDbEntity
  8
ROGO
 62
     4
100
AcDbSpline
210
0.0
220
0.0
230
1.0
 70
     8
 71
     3
 72
    18
 73
    14
 74
     0
 42
0.0000000001
 43
0.0000000001
 40
0.1087402787915014
 40
0.1087402787915014
 40
0.1087402787915014
 40
0.1087402787915014
 40
0.5992371417938475
 40
1.083176791562496
 40
1.448211145705696
 40
1.714037220764907
 40
2.164002567013297
 40
2.740236056362883
 40
3.395137510199602
 40
4.071816045172726
 40
4.784906178399433
 40
5.506895915094292
 40
6.060470601257719
 40
6.060470601257719
 40
6.060470601257719
 40
6.060470601257719
 10
324.0991495303215
 20
292.2230178894912
 30
0.0
 10
324.1481962971828
 20
292.2050430713484
 30
0.0
 10
324.2446462582574
 20
292.1670415589543
 30
0.0
 10
324.3623607253315
 20
292.0803095507791
 30
0.0
 10
324.4265571128957
 20
291.9801845342932
 30
0.0
 10
324.4883068505864
 20
291.8815292581269
 30
0.0
 10
324.4969486136562
 20
291.7399915789953
 30
0.0
 10
324.4827928219226
 20
291.5610536476336
 30
0.0
 10
324.3914043093518
 20
291.3743503815419
 30
0.0
 10
324.2447203716818
 20
291.2110523990861
 30
0.0
 10
324.0626020266454
 20
291.0803508235913
 30
0.0
 10
323.8705519499639
 20
290.9777534526026
 30
0.0
 10
323.7332745011654
 20
290.9767311890075
 30
0.0
 10
323.6736982702246
 20
290.9762875428547
 30
0.0
  0
HATCH
  5
149E
330
18
100
AcDbEntity
  8
ROGO
 62
     4
100
AcDbHatch
 10
0.0
 20
0.0
 30
0.0
210
0.0
220
0.0
230
1.0
  2
SOLID
 70
     1
 71
     1
 91
        2
 92
        5
 93
        6
 72
     4
 94
        3
 73
     0
 74
     0
 95
       38
 96
       34
 40
0.0
 40
0.0
 40
0.0
 40
0.0
 40
0.1716253587406554
 40
0.225525329097618
 40
0.2947831262912298
 40
0.3524980702572106
 40
0.4011947073890365
 40
0.4658749546664904
 40
0.4989240118098416
 40
0.5361459251283761
 40
0.5910040209699132
 40
0.6531463397142514
 40
0.6934574532944298
 40
0.7372488460652387
 40
0.7859279681112815
 40
0.8598010024797822
 40
0.9299880888722737
 40
0.9626177150581009
 40
0.999827438724677
 40
1.043908673224217
 40
1.075288847593879
 40
1.101594470956028
 40
1.139152958423456
 40
1.180423302418962
 40
1.221693416627904
 40
1.257804824007412
 40
1.340506365805118
 40
1.373135991990891
 40
1.438395283121542
 40
1.496081593396171
 40
1.606517709645473
 40
1.742784442245407
 40
1.939573433520977
 40
1.939573433520977
 40
1.939573433520977
 40
1.939573433520977
 10
331.4587047202762
 20
292.2282180887977
 10
331.4014968439631
 20
292.2241767555956
 10
331.3263224919491
 20
292.2188662175311
 10
331.2308686423514
 20
292.1927147086023
 10
331.1788357334839
 20
292.1615598404178
 10
331.1246850915198
 20
292.1386595189556
 10
331.0785166258974
 20
292.1047486841057
 10
331.0318181976102
 20
292.0872747576134
 10
330.9991185286067
 20
292.0557661448455
 10
330.9612713289973
 20
292.0365193242308
 10
330.93113293199
 20
291.9934393442328
 10
330.897446752253
 20
291.9531611240187
 10
330.8583665458839
 20
291.9237598196032
 10
330.8262928960251
 20
291.8928798479011
 10
330.7968697820783
 20
291.8452227731888
 10
330.779455866373
 20
291.7819006328323
 10
330.7303689609597
 20
291.7419213170511
 10
330.7229780098994
 20
291.6938542505241
 10
330.695826545611
 20
291.6654954901231
 10
330.684020139334
 20
291.6288884045358
 10
330.6795236915235
 20
291.5953498479745
 10
330.6741268819728
 20
291.5640271578631
 10
330.6600098502678
 20
291.5310770714841
 10
330.6646176981232
 20
291.4903750313107
 10
330.6633050606065
 20
291.4509618948444
 10
330.664077549326
 20
291.3977529333185
 10
330.6612895305539
 20
291.3459474659351
 10
330.6835228876936
 20
291.2895708300619
 10
330.6966798506024
 20
291.2393188586339
 10
330.7327123337979
 20
291.169738910451
 10
330.7948676122005
 20
291.0894586948556
 10
330.9130610732521
 20
290.9920137235384
 10
331.0267075417295
 20
290.9821283847937
 10
331.0938565870408
 20
290.9762875428547
 72
     1
 10
331.0938565870406
 20
290.9762875428547
 11
331.8063549056518
 21
290.9762875428547
 72
     4
 94
        3
 73
     0
 74
     0
 95
       11
 96
        7
 40
0.1647869275458135
 40
0.1647869275458135
 40
0.1647869275458135
 40
0.1647869275458135
 40
0.2545010798212315
 40
0.5111620267764023
 40
0.7602998271033902
 40
0.8850764140209603
 40
0.8850764140209603
 40
0.8850764140209603
 40
0.8850764140209603
 10
331.8063549056515
 20
290.9762875428547
 10
331.8162971714381
 20
290.9760959343882
 10
331.8546830137052
 20
290.9753561581104
 10
331.9202848782631
 20
290.9847806371825
 10
331.9893067790792
 20
290.9938119257009
 10
332.0304557436386
 20
291.0003891406082
 10
332.0437272973765
 20
291.0040832826496
 72
     4
 94
        3
 73
     0
 74
     0
 95
        9
 96
        5
 40
0.0
 40
0.0
 40
0.0
 40
0.0
 40
0.1078348623950619
 40
0.2528255661270943
 40
0.2528255661270943
 40
0.2528255661270943
 40
0.2528255661270943
 10
332.0437272973765
 20
291.0040832826496
 10
332.0783669750995
 20
291.0146810676682
 10
332.1595818617908
 20
291.0395282361768
 10
332.2266839624003
 20
291.0920430374813
 10
332.265165754168
 20
291.1221592876459
 72
     4
 94
        3
 73
     0
 74
     0
 95
       25
 96
       21
 40
0.0
 40
0.0
 40
0.0
 40
0.0
 40
0.165525918914855
 40
0.3412380755365305
 40
0.5940540902285263
 40
0.7697671103696209
 40
0.9377330196075423
 40
1.11479469302833
 40
1.274661249598185
 40
1.574522170874768
 40
1.815540668866877
 40
2.15849091873445
 40
2.536227739636605
 40
2.738070817316548
 40
2.925680654369045
 40
3.162706124480894
 40
3.395643218188267
 40
3.648478129958861
 40
3.928509979727306
 40
4.337226830236035
 40
4.337226830236035
 40
4.337226830236035
 40
4.337226830236035
 10
332.265165754168
 20
291.1221592876459
 10
332.2793051895668
 20
291.1338435966573
 10
332.3061238326832
 20
291.1616333325966
 10
332.3536911123255
 20
291.2066743029819
 10
332.3956083011741
 20
291.259150607717
 10
332.4473161714516
 20
291.3016808135964
 10
332.4742351270556
 20
291.3536771429956
 10
332.5130366766495
 20
291.3945711485439
 10
332.5455848229612
 20
291.4577279063029
 10
332.57320031645
 20
291.5302750138067
 10
332.5995278762633
 20
291.6248387897216
 10
332.6096168687852
 20
291.7315207851918
 10
332.5946839051813
 20
291.8347355622706
 10
332.5586096400222
 20
291.9118852177889
 10
332.5320882979157
 20
291.9761815043728
 10
332.491838838596
 20
292.0370814086798
 10
332.445919645499
 20
292.1033167894285
 10
332.3812276335134
 20
292.1581041725465
 10
332.2966818159291
 20
292.2241865851063
 10
332.2179336998373
 20
292.226716680858
 10
332.171203038887
 20
292.2282180887977
 72
     1
 10
332.171203038887
 20
292.2282180887977
 11
331.458704720276
 21
292.2282180887978
 97
        6
330
14A4
330
14A3
330
14A5
330
14A2
330
14A1
330
14A0
 92
       20
 93
        1
 72
     3
 10
331.6224407322844
 20
291.5847977475757
 11
0.1692676504802256
 21
0.148849717495386
 40
0.6788083417438791
 50
0.0
 51
360.0
 73
     1
 97
        1
330
149F
 75
     0
 76
     1
 47
0.088756267210375
 98
        2
 10
331.6722202052828
 20
291.8824298551232
 10
331.6722202052828
 20
291.8824298551232
450
        0
451
        0
460
0.0
461
0.0
452
        0
462
0.0
453
        0
470

  0
ELLIPSE
  5
149F
102
{ACAD_REACTORS
330
149E
102
}
330
18
100
AcDbEntity
  8
ROGO
 62
     4
100
AcDbEllipse
 10
331.6224407322844
 20
291.5847977475757
 30
0.0
 11
0.1692676504802256
 21
0.148849717495386
 31
0.0
210
0.0
220
0.0
230
1.0
 40
0.6788083417438791
 41
0.0
 42
6.283185307179586
  0
SPLINE
  5
14A0
102
{ACAD_REACTORS
330
149E
102
}
330
18
100
AcDbEntity
  8
ROGO
 62
     4
100
AcDbSpline
210
0.0
220
0.0
230
1.0
 70
     8
 71
     3
 72
     9
 73
     5
 74
     3
 42
0.0000000001
 43
0.0000000001
 44
0.0000000001
 40
0.0
 40
0.0
 40
0.0
 40
0.0
 40
0.1078348623950619
 40
0.2528255661270943
 40
0.2528255661270943
 40
0.2528255661270943
 40
0.2528255661270943
 10
332.0437272973765
 20
291.0040832826496
 30
0.0
 10
332.0783669750995
 20
291.0146810676682
 30
0.0
 10
332.1595818617908
 20
291.0395282361768
 30
0.0
 10
332.2266839624003
 20
291.0920430374813
 30
0.0
 10
332.265165754168
 20
291.1221592876459
 30
0.0
 11
332.0437272973765
 21
291.0040832826496
 31
0.0
 11
332.1450789564269
 21
291.040909886559
 31
0.0
 11
332.265165754168
 21
291.1221592876459
 31
0.0
  0
SPLINE
  5
14A1
102
{ACAD_REACTORS
330
149E
102
}
330
18
100
AcDbEntity
  8
ROGO
 62
     4
100
AcDbSpline
210
0.0
220
0.0
230
1.0
 70
     8
 71
     3
 72
    11
 73
     7
 74
     0
 42
0.0000000001
 43
0.0000000001
 40
0.1647869275458134
 40
0.1647869275458134
 40
0.1647869275458134
 40
0.1647869275458134
 40
0.2895635144633836
 40
0.5387013147903714
 40
0.7953622617455423
 40
0.8850764140209602
 40
0.8850764140209602
 40
0.8850764140209602
 40
0.8850764140209602
 10
332.0437272973765
 20
291.0040832826496
 30
0.0
 10
332.0304557436386
 20
291.0003891406082
 30
0.0
 10
331.9893067790792
 20
290.9938119257009
 30
0.0
 10
331.9202848782631
 20
290.9847806371825
 30
0.0
 10
331.8546830137052
 20
290.9753561581104
 30
0.0
 10
331.8162971714381
 20
290.9760959343882
 30
0.0
 10
331.8063549056515
 20
290.9762875428547
 30
0.0
  0
LINE
  5
14A2
102
{ACAD_REACTORS
330
149E
102
}
330
18
100
AcDbEntity
  8
ROGO
 62
     4
100
AcDbLine
 10
331.0938565870408
 20
290.9762875428547
 30
0.0
 11
331.8063549056515
 21
290.9762875428547
 31
0.0
  0
LINE
  5
14A3
102
{ACAD_REACTORS
330
149E
102
}
330
18
100
AcDbEntity
  8
ROGO
 62
     4
100
AcDbLine
 10
331.4587047202762
 20
292.2282180887977
 30
0.0
 11
332.171203038887
 21
292.2282180887977
 31
0.0
  0
SPLINE
  5
14A4
102
{ACAD_REACTORS
330
149E
102
}
330
18
100
AcDbEntity
  8
ROGO
 62
     4
100
AcDbSpline
210
0.0
220
0.0
230
1.0
 70
     8
 71
     3
 72
    25
 73
    21
 74
     0
 42
0.0000000001
 43
0.0000000001
 40
0.0
 40
0.0
 40
0.0
 40
0.0
 40
0.4087168505087288
 40
0.6887487002771746
 40
0.9415836120477687
 40
1.17452070575514
 40
1.41154617586699
 40
1.599156012919487
 40
1.80099909059943
 40
2.178735911501585
 40
2.521686161369157
 40
2.762704659361267
 40
3.06256558063785
 40
3.222432137207705
 40
3.399493810628493
 40
3.567459719866414
 40
3.743172740007509
 40
3.995988754699505
 40
4.17170091132118
 40
4.337226830236035
 40
4.337226830236035
 40
4.337226830236035
 40
4.337226830236035
 10
332.171203038887
 20
292.2282180887977
 30
0.0
 10
332.2179336998373
 20
292.226716680858
 30
0.0
 10
332.2966818159291
 20
292.2241865851063
 30
0.0
 10
332.3812276335134
 20
292.1581041725465
 30
0.0
 10
332.445919645499
 20
292.1033167894285
 30
0.0
 10
332.491838838596
 20
292.0370814086798
 30
0.0
 10
332.5320882979157
 20
291.9761815043728
 30
0.0
 10
332.5586096400222
 20
291.9118852177889
 30
0.0
 10
332.5946839051813
 20
291.8347355622706
 30
0.0
 10
332.6096168687852
 20
291.7315207851918
 30
0.0
 10
332.5995278762633
 20
291.6248387897216
 30
0.0
 10
332.57320031645
 20
291.5302750138067
 30
0.0
 10
332.5455848229612
 20
291.4577279063029
 30
0.0
 10
332.5130366766495
 20
291.3945711485439
 30
0.0
 10
332.4742351270556
 20
291.3536771429956
 30
0.0
 10
332.4473161714516
 20
291.3016808135964
 30
0.0
 10
332.3956083011741
 20
291.259150607717
 30
0.0
 10
332.3536911123255
 20
291.2066743029819
 30
0.0
 10
332.3061238326832
 20
291.1616333325966
 30
0.0
 10
332.2793051895668
 20
291.1338435966573
 30
0.0
 10
332.265165754168
 20
291.1221592876459
 30
0.0
  0
SPLINE
  5
14A5
102
{ACAD_REACTORS
330
149E
102
}
330
18
100
AcDbEntity
  8
ROGO
 62
     4
100
AcDbSpline
210
0.0
220
0.0
230
1.0
 70
     8
 71
     3
 72
    38
 73
    34
 74
    32
 42
0.0000000001
 43
0.0000000001
 44
0.0000000001
 40
0.0
 40
0.0
 40
0.0
 40
0.0
 40
0.1716253587406554
 40
0.225525329097618
 40
0.2947831262912298
 40
0.3524980702572106
 40
0.4011947073890365
 40
0.4658749546664904
 40
0.4989240118098416
 40
0.5361459251283761
 40
0.5910040209699132
 40
0.6531463397142514
 40
0.6934574532944298
 40
0.7372488460652387
 40
0.7859279681112815
 40
0.8598010024797822
 40
0.9299880888722737
 40
0.9626177150581009
 40
0.999827438724677
 40
1.043908673224217
 40
1.075288847593879
 40
1.101594470956028
 40
1.139152958423456
 40
1.180423302418962
 40
1.221693416627904
 40
1.257804824007412
 40
1.340506365805118
 40
1.373135991990891
 40
1.438395283121542
 40
1.496081593396171
 40
1.606517709645473
 40
1.742784442245407
 40
1.939573433520977
 40
1.939573433520977
 40
1.939573433520977
 40
1.939573433520977
 10
331.4587047202762
 20
292.2282180887977
 30
0.0
 10
331.4014968439631
 20
292.2241767555956
 30
0.0
 10
331.3263224919491
 20
292.2188662175311
 30
0.0
 10
331.2308686423514
 20
292.1927147086023
 30
0.0
 10
331.1788357334839
 20
292.1615598404178
 30
0.0
 10
331.1246850915198
 20
292.1386595189556
 30
0.0
 10
331.0785166258974
 20
292.1047486841057
 30
0.0
 10
331.0318181976102
 20
292.0872747576134
 30
0.0
 10
330.9991185286067
 20
292.0557661448455
 30
0.0
 10
330.9612713289973
 20
292.0365193242308
 30
0.0
 10
330.93113293199
 20
291.9934393442328
 30
0.0
 10
330.897446752253
 20
291.9531611240187
 30
0.0
 10
330.8583665458839
 20
291.9237598196032
 30
0.0
 10
330.8262928960251
 20
291.8928798479011
 30
0.0
 10
330.7968697820783
 20
291.8452227731888
 30
0.0
 10
330.779455866373
 20
291.7819006328323
 30
0.0
 10
330.7303689609597
 20
291.7419213170511
 30
0.0
 10
330.7229780098994
 20
291.6938542505241
 30
0.0
 10
330.695826545611
 20
291.6654954901231
 30
0.0
 10
330.684020139334
 20
291.6288884045358
 30
0.0
 10
330.6795236915235
 20
291.5953498479745
 30
0.0
 10
330.6741268819728
 20
291.5640271578631
 30
0.0
 10
330.6600098502678
 20
291.5310770714841
 30
0.0
 10
330.6646176981232
 20
291.4903750313107
 30
0.0
 10
330.6633050606065
 20
291.4509618948444
 30
0.0
 10
330.664077549326
 20
291.3977529333185
 30
0.0
 10
330.6612895305539
 20
291.3459474659351
 30
0.0
 10
330.6835228876936
 20
291.2895708300619
 30
0.0
 10
330.6966798506024
 20
291.2393188586339
 30
0.0
 10
330.7327123337979
 20
291.169738910451
 30
0.0
 10
330.7948676122005
 20
291.0894586948556
 30
0.0
 10
330.9130610732521
 20
290.9920137235384
 30
0.0
 10
331.0267075417295
 20
290.9821283847937
 30
0.0
 10
331.0938565870408
 20
290.9762875428547
 30
0.0
 11
331.4587047202762
 21
292.2282180887977
 31
0.0
 11
331.2883244142025
 21
292.2075828019067
 31
0.0
 11
331.2366940307145
 21
292.1921066814184
 31
0.0
 11
331.1747378139097
 21
292.1611539808683
 31
0.0
 11
331.1231074304217
 21
292.1353602169343
 31
0.0
 11
331.0818032858852
 21
292.1095662232138
 31
0.0
 11
331.0250099857388
 21
292.0786137524504
 31
0.0
 11
330.9991945911775
 21
292.0579786953459
 31
0.0
 11
330.968216279958
 21
292.0373434084548
 31
0.0
 11
330.9320750520798
 21
291.9960732942458
 31
0.0
 11
330.8907709075433
 21
291.9496444732073
 31
0.0
 11
330.8597925963235
 21
291.9238504794869
 31
0.0
 11
330.8288146907384
 21
291.8928980087234
 31
0.0
 11
330.8029992961771
 21
291.8516278945145
 31
0.0
 11
330.7720213905921
 21
291.784563786585
 31
0.0
 11
330.7307168404209
 21
291.7278173221011
 31
0.0
 11
330.7203910071041
 21
291.6968646215511
 31
0.0
 11
330.6997389348358
 21
291.6659121507875
 31
0.0
 11
330.684249779226
 21
291.6246418067921
 31
0.0
 11
330.679086456933
 21
291.5936893360285
 31
0.0
 11
330.6739235402745
 21
291.5678953423082
 31
0.0
 11
330.6635977069577
 21
291.5317841647151
 31
0.0
 11
330.6635977069577
 21
291.4905138207196
 31
0.0
 11
330.6635977069577
 21
291.4492437065107
 31
0.0
 11
330.6635977069577
 21
291.4131322991312
 31
0.0
 11
330.6687606236161
 21
291.3305920707132
 31
0.0
 11
330.679086456933
 21
291.2996393701632
 31
0.0
 11
330.6997389348358
 21
291.2377341988498
 31
0.0
 11
330.7255539237626
 21
291.1861464411953
 31
0.0
 11
330.7926734628602
 21
291.0984475059478
 31
0.0
 11
330.9010971464947
 21
291.0159070477434
 31
0.0
 11
331.0938565870408
 21
290.9762875428547
 31
0.0
  0
HATCH
  5
14A6
330
18
100
AcDbEntity
  8
ROGO
 62
     4
100
AcDbHatch
 10
0.0
 20
0.0
 30
0.0
210
0.0
220
0.0
230
1.0
  2
SOLID
 70
     1
 71
     1
 91
        1
 92
        5
 93
        8
 72
     4
 94
        3
 73
     0
 74
     0
 95
       26
 96
       22
 40
0.0
 40
0.0
 40
0.0
 40
0.0
 40
0.2261711682465229
 40
0.3775752524709292
 40
0.4867499270747143
 40
0.568267124049349
 40
0.6739992068899219
 40
0.7511733198246508
 40
0.8905317800930927
 40
1.003967563249621
 40
1.081122071918995
 40
1.156776017963945
 40
1.292106219407766
 40
1.38780082415581
 40
1.439339762213746
 40
1.512549301287572
 40
1.565415552119695
 40
1.642001295672594
 40
1.68534220200602
 40
1.779656875742671
 40
1.822721775074878
 40
1.822721775074878
 40
1.822721775074878
 40
1.822721775074878
 10
333.5349112135897
 20
292.2230178894911
 10
333.4581452245491
 20
292.2184378989451
 10
333.3299903500003
 20
292.2107919593671
 10
333.1892770773479
 20
292.1253101573793
 10
333.0861822959966
 20
292.0756147941927
 10
333.0126552229653
 20
292.0080581817069
 10
332.9587595803768
 20
291.9382771359258
 10
332.8908140050556
 20
291.8551335315259
 10
332.8354063299282
 20
291.7583161686992
 10
332.8071905694352
 20
291.6516065563882
 10
332.7821973165872
 20
291.5665583762278
 10
332.7636619018646
 20
291.4717832784527
 10
332.7683778361008
 20
291.3693928327196
 10
332.7751312697583
 20
291.274297828569
 10
332.8052837088194
 20
291.2064142332797
 10
332.8396219959934
 20
291.1580857912372
 10
332.8816687583774
 20
291.1048573702493
 10
332.9276771112974
 20
291.0696043593893
 10
332.9657297746249
 20
291.005741161271
 10
333.0323396780985
 20
290.9975917566068
 10
333.0746795827203
 20
290.981372009053
 10
333.0879520342904
 20
290.9762875428547
 72
     1
 10
333.0879520342902
 20
290.9762875428547
 11
334.1617772938783
 21
290.9762875428547
 72
     1
 10
334.1617772938783
 20
290.9762875428547
 11
334.3930726760944
 21
291.4401471516499
 72
     1
 10
334.3930726760944
 20
291.4401471516499
 11
333.5958599801799
 21
291.4401471516499
 72
     4
 94
        3
 73
     0
 74
     0
 95
       16
 96
       12
 40
0.0
 40
0.0
 40
0.0
 40
0.0
 40
0.0683030918787657
 40
0.1373106805328135
 40
0.1784706056910715
 40
0.2179345026856072
 40
0.261275236818835
 40
0.2915411730567379
 40
0.3202609197925513
 40
0.3785004428982377
 40
0.4977391777072823
 40
0.4977391777072823
 40
0.4977391777072823
 40
0.4977391777072823
 10
333.59585998018
 20
291.4401471516498
 10
333.5718132358497
 20
291.4472220564205
 10
333.5234717224897
 20
291.4614448384648
 10
333.5194259281882
 20
291.5303916607872
 10
333.5249377375994
 20
291.5795219135912
 10
333.5480212077242
 20
291.6152916066546
 10
333.5760254607604
 20
291.6413187647108
 10
333.5864526861886
 20
291.6752150685736
 10
333.6171025653163
 20
291.7008110187877
 10
333.6714530134764
 20
291.7438342355806
 10
333.7315552005212
 20
291.752997219466
 10
333.7719348437897
 20
291.7591533684976
 72
     1
 10
333.7719348437897
 20
291.7591533684976
 11
334.5521394787564
 21
291.7591533684976
 72
     1
 10
334.5521394787564
 20
291.7591533684976
 11
334.7834373103531
 21
292.2230178894911
 72
     1
 10
334.7834373103531
 20
292.2230178894911
 11
333.5349112135897
 21
292.2230178894911
 97
        8
330
14AF
330
14AD
330
14B0
330
14AC
330
14AB
330
14AE
330
14AA
330
14A9
 75
     0
 76
     1
 47
0.0514683685270805
 98
        1
 10
333.7503519004366
 20
291.9947373225237
450
        0
451
        0
460
0.0
461
0.0
452
        0
462
0.0
453
        0
470

  0
LINE
  5
14A7
102
{ACAD_REACTORS
330
1470
102
}
330
18
100
AcDbEntity
  8
ROGO
 62
     4
100
AcDbLine
 10
335.0445544650905
 20
290.783392940772
 30
0.0
 11
334.7910116572078
 21
290.274916435316
 31
0.0
  0
LINE
  5
14A8
102
{ACAD_REACTORS
330
1470
102
}
330
18
100
AcDbEntity
  8
ROGO
 62
     4
100
AcDbLine
 10
335.0445544650905
 20
292.2230178894911
 30
0.0
 11
334.0731681622188
 21
290.274916435316
 31
0.0
  0
LINE
  5
14A9
102
{ACAD_REACTORS
330
14A6
102
}
330
18
100
AcDbEntity
  8
ROGO
 62
     4
100
AcDbLine
 10
334.7834373103531
 20
292.2230178894911
 30
0.0
 11
334.5521394787564
 21
291.7591533684976
 31
0.0
  0
LINE
  5
14AA
102
{ACAD_REACTORS
330
14A6
102
}
330
18
100
AcDbEntity
  8
ROGO
 62
     4
100
AcDbLine
 10
333.7719348437897
 20
291.7591533684976
 30
0.0
 11
334.5521394787564
 21
291.7591533684976
 31
0.0
  0
LINE
  5
14AB
102
{ACAD_REACTORS
330
14A6
102
}
330
18
100
AcDbEntity
  8
ROGO
 62
     4
100
AcDbLine
 10
333.5958599801801
 20
291.4401471516499
 30
0.0
 11
334.3930726760944
 21
291.4401471516499
 31
0.0
  0
LINE
  5
14AC
102
{ACAD_REACTORS
330
14A6
102
}
330
18
100
AcDbEntity
  8
ROGO
 62
     4
100
AcDbLine
 10
334.3930726760944
 20
291.4401471516499
 30
0.0
 11
334.1617772938783
 21
290.9762875428547
 31
0.0
  0
SPLINE
  5
14AD
102
{ACAD_REACTORS
330
14A6
102
}
330
18
100
AcDbEntity
  8
ROGO
 62
     4
100
AcDbSpline
210
0.0
220
0.0
230
1.0
 70
     8
 71
     3
 72
    26
 73
    22
 74
    20
 42
0.0000000001
 43
0.0000000001
 44
0.0000000001
 40
0.0
 40
0.0
 40
0.0
 40
0.0
 40
0.2261711682465229
 40
0.3775752524709292
 40
0.4867499270747143
 40
0.568267124049349
 40
0.6739992068899219
 40
0.7511733198246508
 40
0.8905317800930927
 40
1.003967563249621
 40
1.081122071918995
 40
1.156776017963945
 40
1.292106219407766
 40
1.38780082415581
 40
1.439339762213746
 40
1.512549301287572
 40
1.565415552119695
 40
1.642001295672594
 40
1.68534220200602
 40
1.779656875742671
 40
1.822721775074878
 40
1.822721775074878
 40
1.822721775074878
 40
1.822721775074878
 10
333.5349112135897
 20
292.2230178894911
 30
0.0
 10
333.4581452245491
 20
292.2184378989451
 30
0.0
 10
333.3299903500003
 20
292.2107919593671
 30
0.0
 10
333.1892770773479
 20
292.1253101573793
 30
0.0
 10
333.0861822959966
 20
292.0756147941927
 30
0.0
 10
333.0126552229653
 20
292.0080581817069
 30
0.0
 10
332.9587595803768
 20
291.9382771359258
 30
0.0
 10
332.8908140050556
 20
291.8551335315259
 30
0.0
 10
332.8354063299282
 20
291.7583161686992
 30
0.0
 10
332.8071905694352
 20
291.6516065563882
 30
0.0
 10
332.7821973165872
 20
291.5665583762278
 30
0.0
 10
332.7636619018646
 20
291.4717832784527
 30
0.0
 10
332.7683778361008
 20
291.3693928327196
 30
0.0
 10
332.7751312697583
 20
291.274297828569
 30
0.0
 10
332.8052837088194
 20
291.2064142332797
 30
0.0
 10
332.8396219959934
 20
291.1580857912372
 30
0.0
 10
332.8816687583774
 20
291.1048573702493
 30
0.0
 10
332.9276771112974
 20
291.0696043593893
 30
0.0
 10
332.9657297746249
 20
291.005741161271
 30
0.0
 10
333.0323396780985
 20
290.9975917566068
 30
0.0
 10
333.0746795827203
 20
290.981372009053
 30
0.0
 10
333.0879520342904
 20
290.9762875428547
 30
0.0
 11
333.5349112135897
 21
292.2230178894911
 31
0.0
 11
333.31143162394
 21
292.188228949352
 31
0.0
 11
333.1759892713906
 21
292.1205638486301
 31
0.0
 11
333.0811798193106
 21
292.0664318121716
 31
0.0
 11
333.0202310527202
 21
292.0122995551181
 31
0.0
 11
332.9525100711501
 21
291.9311013901327
 31
0.0
 11
332.90510534511
 21
291.8702028215426
 31
0.0
 11
332.8373839741308
 21
291.7484054637672
 31
0.0
 11
332.8035236780502
 21
291.6401411702551
 31
0.0
 11
332.7832074225202
 21
291.5657095374015
 31
0.0
 11
332.7696629925607
 21
291.4912779045479
 31
0.0
 11
332.7696629925607
 21
291.3559477031041
 31
0.0
 11
332.7832074225202
 21
291.2612164738555
 31
0.0
 11
332.8035236780502
 21
291.2138507489336
 31
0.0
 11
332.8441561891105
 21
291.1529521803434
 31
0.0
 11
332.8780168746003
 21
291.1123529875532
 31
0.0
 11
332.9321934262107
 21
291.0582209510947
 31
0.0
 11
332.9592818967207
 21
291.0243882904362
 31
0.0
 11
333.0473195232301
 21
290.9905558503728
 31
0.0
 11
333.0879520342904
 21
290.9762875428547
 31
0.0
  0
SPLINE
  5
14AE
102
{ACAD_REACTORS
330
14A6
102
}
330
18
100
AcDbEntity
  8
ROGO
 62
     4
100
AcDbSpline
210
0.0
220
0.0
230
1.0
 70
     8
 71
     3
 72
    16
 73
    12
 74
    10
 42
0.0000000001
 43
0.0000000001
 44
0.0000000001
 40
0.0
 40
0.0
 40
0.0
 40
0.0
 40
0.1192387348090446
 40
0.177478257914731
 40
0.2061980046505444
 40
0.2364639408884473
 40
0.2798046750216751
 40
0.3192685720162108
 40
0.3604284971744688
 40
0.4294360858285167
 40
0.4977391777072823
 40
0.4977391777072823
 40
0.4977391777072823
 40
0.4977391777072823
 10
333.7719348437897
 20
291.7591533684976
 30
0.0
 10
333.7315552005212
 20
291.752997219466
 30
0.0
 10
333.6714530134764
 20
291.7438342355806
 30
0.0
 10
333.6171025653163
 20
291.7008110187877
 30
0.0
 10
333.5864526861886
 20
291.6752150685736
 30
0.0
 10
333.5760254607604
 20
291.6413187647108
 30
0.0
 10
333.5480212077242
 20
291.6152916066546
 30
0.0
 10
333.5249377375994
 20
291.5795219135912
 30
0.0
 10
333.5194259281882
 20
291.5303916607872
 30
0.0
 10
333.5234717224897
 20
291.4614448384648
 30
0.0
 10
333.5718132358497
 20
291.4472220564205
 30
0.0
 10
333.59585998018
 20
291.4401471516498
 30
0.0
 11
333.7719348437897
 21
291.7591533684976
 31
0.0
 11
333.6568091361796
 21
291.7281058673721
 31
0.0
 11
333.6094044101396
 21
291.6942734273086
 31
0.0
 11
333.5890881546094
 21
291.6739738309135
 31
0.0
 11
333.5755437246499
 21
291.6469077023867
 31
0.0
 11
333.54845525414
 21
291.6130752623233
 31
0.0
 11
333.5281389986099
 21
291.5792426016649
 31
0.0
 11
333.5213667836302
 21
291.5386436294697
 31
0.0
 11
333.5349112135897
 21
291.4709783081528
 31
0.0
 11
333.59585998018
 21
291.4401471516498
 31
0.0
  0
LINE
  5
14AF
102
{ACAD_REACTORS
330
14A6
102
}
330
18
100
AcDbEntity
  8
ROGO
 62
     4
100
AcDbLine
 10
333.53491121359
 20
292.2230178894911
 30
0.0
 11
334.7834373103531
 21
292.2230178894911
 31
0.0
  0
LINE
  5
14B0
102
{ACAD_REACTORS
330
14A6
102
}
330
18
100
AcDbEntity
  8
ROGO
 62
     4
100
AcDbLine
 10
333.0879520342903
 20
290.9762875428547
 30
0.0
 11
334.1617772938784
 21
290.9762875428547
 31
0.0
  0
LINE
  5
14B1
102
{ACAD_REACTORS
330
1480
102
}
330
18
100
AcDbEntity
  8
ROGO
 62
     4
100
AcDbLine
 10
329.5178351396548
 20
292.2230178894912
 30
0.0
 11
330.766361236418
 21
292.2230178894912
 31
0.0
  0
LINE
  5
14B2
102
{ACAD_REACTORS
330
1480
102
}
330
18
100
AcDbEntity
  8
ROGO
 62
     4
100
AcDbLine
 10
330.3759966021591
 20
291.4401471516499
 30
0.0
 11
330.1447012199431
 21
290.9762875428547
 31
0.0
  0
SPLINE
  5
14B3
102
{ACAD_REACTORS
330
1480
102
}
330
18
100
AcDbEntity
  8
ROGO
 62
     4
100
AcDbSpline
210
0.0
220
0.0
230
1.0
 70
     8
 71
     3
 72
    16
 73
    12
 74
    10
 42
0.0000000001
 43
0.0000000001
 44
0.0000000001
 40
0.0
 40
0.0
 40
0.0
 40
0.0
 40
0.1192387348090995
 40
0.1774782579147198
 40
0.2061980046505734
 40
0.2364639408884763
 40
0.2798046750216953
 40
0.3192685720162602
 40
0.3604284971745742
 40
0.4294360858286333
 40
0.4977391777073984
 40
0.4977391777073984
 40
0.4977391777073984
 40
0.4977391777073984
 10
329.7548587698545
 20
291.7591533684976
 30
0.0
 10
329.7144791265861
 20
291.7529972194661
 30
0.0
 10
329.6543769395412
 20
291.7438342355806
 30
0.0
 10
329.600026491381
 20
291.7008110187877
 30
0.0
 10
329.5693766122536
 20
291.6752150685738
 30
0.0
 10
329.5589493868251
 20
291.6413187647108
 30
0.0
 10
329.530945133789
 20
291.6152916066546
 30
0.0
 10
329.507861663664
 20
291.5795219135913
 30
0.0
 10
329.5023498542529
 20
291.5303916607873
 30
0.0
 10
329.5063956485544
 20
291.4614448384648
 30
0.0
 10
329.5547371619146
 20
291.4472220564205
 30
0.0
 10
329.5787839062449
 20
291.4401471516499
 30
0.0
 11
329.7548587698545
 21
291.7591533684976
 31
0.0
 11
329.6397330622443
 21
291.7281058673721
 31
0.0
 11
329.5923283362043
 21
291.6942734273087
 31
0.0
 11
329.5720120806743
 21
291.6739738309135
 31
0.0
 11
329.5584676507147
 21
291.6469077023867
 31
0.0
 11
329.5313791802048
 21
291.6130752623234
 31
0.0
 11
329.5110629246746
 21
291.5792426016649
 31
0.0
 11
329.5042907096949
 21
291.5386436294697
 31
0.0
 11
329.5178351396544
 21
291.4709783081528
 31
0.0
 11
329.5787839062449
 21
291.4401471516499
 31
0.0
  0
LINE
  5
14B4
102
{ACAD_REACTORS
330
1480
102
}
330
18
100
AcDbEntity
  8
ROGO
 62
     4
100
AcDbLine
 10
329.5787839062449
 20
291.4401471516499
 30
0.0
 11
330.3759966021591
 21
291.4401471516499
 31
0.0
  0
LINE
  5
14B5
102
{ACAD_REACTORS
330
1480
102
}
330
18
100
AcDbEntity
  8
ROGO
 62
     4
100
AcDbLine
 10
329.7548587698544
 20
291.7591533684976
 30
0.0
 11
330.5350634048211
 21
291.7591533684976
 31
0.0
  0
LINE
  5
14B6
102
{ACAD_REACTORS
330
1480
102
}
330
18
100
AcDbEntity
  8
ROGO
 62
     4
100
AcDbLine
 10
330.766361236418
 20
292.2230178894911
 30
0.0
 11
330.5350634048211
 21
291.7591533684976
 31
0.0
  0
LINE
  5
14B7
102
{ACAD_REACTORS
330
1470
102
}
330
18
100
AcDbEntity
  8
ROGO
 62
     4
100
AcDbLine
 10
335.2980972729733
 20
290.274916435316
 30
0.0
 11
336.0159250621238
 21
290.274916435316
 31
0.0
  0
LINE
  5
14B8
102
{ACAD_REACTORS
330
1470
102
}
330
18
100
AcDbEntity
  8
ROGO
 62
     4
100
AcDbLine
 10
335.9924505999154
 20
292.2230178894911
 30
0.0
 11
336.710278389066
 21
292.2230178894911
 31
0.0
  0
LINE
  5
14B9
102
{ACAD_REACTORS
330
1470
102
}
330
18
100
AcDbEntity
  8
ROGO
 62
     4
100
AcDbLine
 10
335.530231910688
 20
291.2489671624036
 30
0.0
 11
336.710278389066
 21
292.2230178894911
 31
0.0
  0
LINE
  5
14BA
102
{ACAD_REACTORS
330
1470
102
}
330
18
100
AcDbEntity
  8
ROGO
 62
     4
100
AcDbLine
 10
335.530231910688
 20
291.2489671624036
 30
0.0
 11
336.0159250621238
 21
290.274916435316
 31
0.0
  0
LINE
  5
14BB
102
{ACAD_REACTORS
330
1470
102
}
330
18
100
AcDbEntity
  8
ROGO
 62
     4
100
AcDbLine
 10
335.6563423429286
 20
292.0103248533796
 30
0.0
 11
335.9924505999154
 21
292.2230178894911
 31
0.0
  0
LINE
  5
14BC
102
{ACAD_REACTORS
330
1470
102
}
330
18
100
AcDbEntity
  8
ROGO
 62
     4
100
AcDbLine
 10
335.7623979600794
 20
292.2230178894911
 30
0.0
 11
335.6563423429286
 21
292.0103248533796
 31
0.0
  0
LINE
  5
16A4
330
18
100
AcDbEntity
  8
0
  6
ByBlock
 62
     2
100
AcDbLine
 10
392.6286688169488
 20
308.6352551569941
 30
0.0
 11
379.8257202890957
 21
308.6352551569941
 31
0.0
  0
LINE
  5
16A5
330
18
100
AcDbEntity
  8
0
  6
ByBlock
 62
     2
100
AcDbLine
 10
392.6286688169488
 20
253.6352551569941
 30
0.0
 11
379.8257202890957
 21
253.6352551569941
 31
0.0
  0
LINE
  5
16A6
330
18
100
AcDbEntity
  8
0
  6
ByBlock
 62
     2
100
AcDbLine
 10
381.0757202890957
 20
306.1352551569941
 30
0.0
 11
381.0757202890957
 21
256.1352551569941
 31
0.0
  0
INSERT
  5
16A7
330
18
100
AcDbEntity
  8
0
  6
ByBlock
 62
     2
100
AcDbBlockReference
  2
_OPEN
 10
381.0757202890957
 20
308.6352551569941
 30
0.0
 41
2.5
 42
2.5
 43
2.5
 50
90.0
  0
INSERT
  5
16A8
330
18
100
AcDbEntity
  8
0
  6
ByBlock
 62
     2
100
AcDbBlockReference
  2
_OPEN
 10
381.0757202890957
 20
253.6352551569941
 30
0.0
 41
2.5
 42
2.5
 43
2.5
 50
270.0
  0
MTEXT
  5
16A9
330
18
100
AcDbEntity
  8
0
  6
ByBlock
 62
     6
100
AcDbMText
 10
379.2007202890957
 20
281.1352551569941
 30
0.0
 40
2.5
 41
0.0
 71
     5
 72
     1
  1
\A1;φ55
  7
STYLE3
 11
0.0000000000000001
 21
1.0
 31
0.0
 73
     1
 44
1.0
  0
POINT
  5
16AA
330
18
100
AcDbEntity
  8
DEFPOINTS
  6
ByBlock
 62
     0
100
AcDbPoint
 10
392.6286688169488
 20
308.6352551569941
 30
0.0
  0
POINT
  5
16AB
330
18
100
AcDbEntity
  8
DEFPOINTS
  6
ByBlock
 62
     0
100
AcDbPoint
 10
392.6286688169488
 20
253.6352551569941
 30
0.0
  0
POINT
  5
16AC
330
18
100
AcDbEntity
  8
DEFPOINTS
  6
ByBlock
 62
     0
100
AcDbPoint
 10
381.0757202890957
 20
253.6352551569941
 30
0.0
  0
LINE
  5
16AD
330
18
100
AcDbEntity
  8
0
  6
ByBlock
 62
     2
100
AcDbLine
 10
329.1043036361365
 20
322.6352551569941
 30
0.0
 11
283.7932656577917
 21
322.6352551569941
 31
0.0
  0
POINT
  5
16B3
330
18
100
AcDbEntity
  8
DEFPOINTS
  6
ByBlock
 62
     0
100
AcDbPoint
 10
329.1043036361365
 20
322.6352551569941
 30
0.0
  0
LINE
  5
16B6
330
18
100
AcDbEntity
  8
0
  6
ByBlock
 62
     2
100
AcDbLine
 10
306.1043036361365
 20
281.1352551569941
 30
0.0
 11
306.1043036361365
 21
333.9856498178642
 31
0.0
  0
LINE
  5
16B7
330
18
100
AcDbEntity
  8
0
  6
ByBlock
 62
     2
100
AcDbLine
 10
352.1043036361366
 20
281.1352551569941
 30
0.0
 11
352.1043036361366
 21
333.9856498178642
 31
0.0
  0
LINE
  5
16B8
330
18
100
AcDbEntity
  8
0
  6
ByBlock
 62
     2
100
AcDbLine
 10
308.6043036361366
 20
332.7356498178642
 30
0.0
 11
349.6043036361365
 21
332.7356498178642
 31
0.0
  0
INSERT
  5
16B9
330
18
100
AcDbEntity
  8
0
  6
ByBlock
 62
     2
100
AcDbBlockReference
  2
_OPEN
 10
306.1043036361365
 20
332.7356498178642
 30
0.0
 41
2.5
 42
2.5
 43
2.5
 50
180.0
  0
INSERT
  5
16BA
330
18
100
AcDbEntity
  8
0
  6
ByBlock
 62
     2
100
AcDbBlockReference
  2
_OPEN
 10
352.1043036361366
 20
332.7356498178642
 30
0.0
 41
2.5
 42
2.5
 43
2.5
  0
MTEXT
  5
16BB
330
18
100
AcDbEntity
  8
0
  6
ByBlock
 62
     6
100
AcDbMText
 10
329.1043036361366
 20
334.6106498178642
 30
0.0
 40
2.5
 41
0.0
 71
     5
 72
     1
  1
\A1;46
  7
STYLE3
 73
     1
 44
1.0
  0
POINT
  5
16BC
330
18
100
AcDbEntity
  8
DEFPOINTS
  6
ByBlock
 62
     0
100
AcDbPoint
 10
306.1043036361365
 20
281.1352551569941
 30
0.0
  0
POINT
  5
16BD
330
18
100
AcDbEntity
  8
DEFPOINTS
  6
ByBlock
 62
     0
100
AcDbPoint
 10
352.1043036361366
 20
281.1352551569941
 30
0.0
  0
POINT
  5
16BE
330
18
100
AcDbEntity
  8
DEFPOINTS
  6
ByBlock
 62
     0
100
AcDbPoint
 10
352.1043036361366
 20
332.7356498178642
 30
0.0
  0
LINE
  5
16BF
102
{ACAD_REACTORS
330
16C2
102
}
330
18
100
AcDbEntity
  8
外形線
100
AcDbLine
 10
340.943092573604
 20
282.6748384903273
 30
0.0
 11
339.943092573604
 21
282.6748384903273
 31
0.0
  0
LINE
  5
16C0
102
{ACAD_REACTORS
330
16C2
102
}
330
18
100
AcDbEntity
  8
外形線
100
AcDbLine
 10
340.943092573604
 20
282.4956718236606
 30
0.0
 11
339.943092573604
 21
282.4956718236607
 31
0.0
  0
TEXT
  5
16C1
330
18
100
AcDbEntity
  8
文字
100
AcDbText
 10
335.1728389563903
 20
280.0989649225815
 30
0.0
 40
1.0
  1
0.01mm
  7
STYLE3
100
AcDbText
  0
HATCH
  5
16C2
330
18
100
AcDbEntity
  8
外形線
100
AcDbHatch
 10
0.0
 20
0.0
 30
0.0
210
0.0
220
0.0
230
1.0
  2
SOLID
 70
     1
 71
     1
 91
        2
 92
        1
 93
        7
 72
     1
 10
338.7764259069373
 20
282.5852551569941
 11
339.943092573604
 21
282.1606232170168
 72
     1
 10
339.943092573604
 20
282.1606232170168
 11
339.943092573604
 21
282.4956718236607
 72
     1
 10
339.943092573604
 20
282.4956718236607
 11
340.943092573604
 21
282.4956718236606
 72
     1
 10
340.943092573604
 20
282.4956718236606
 11
340.943092573604
 21
282.6748384903273
 72
     1
 10
340.943092573604
 20
282.6748384903273
 11
339.943092573604
 21
282.6748384903273
 72
     1
 10
339.943092573604
 20
282.6748384903273
 11
339.943092573604
 21
283.0098870969712
 72
     1
 10
339.943092573604
 20
283.0098870969712
 11
338.7764259069373
 21
282.5852551569941
 97
        7
330
16CB
330
16CE
330
16C0
330
16E7
330
16BF
330
16CA
330
16D1
 92
        1
 93
        4
 72
     1
 10
338.7764259069373
 20
283.3352551569941
 11
338.7764259069373
 21
281.835255156994
 72
     1
 10
338.7764259069373
 20
281.835255156994
 11
338.6097592402706
 21
281.835255156994
 72
     1
 10
338.6097592402706
 20
281.835255156994
 11
338.6097592402706
 21
283.3352551569941
 72
     1
 10
338.6097592402706
 20
283.3352551569941
 11
338.7764259069373
 21
283.3352551569941
 97
        4
330
16D0
330
16DD
330
16CF
330
16C7
 75
     0
 76
     1
 98
        1
 10
246.446869200457
 20
213.923104349813
450
        0
451
        0
460
0.0
461
0.0
452
        0
462
0.0
453
        0
470

  0
LINE
  5
16C3
102
{ACAD_REACTORS
330
16C5
102
}
330
18
100
AcDbEntity
  8
外形線
100
AcDbLine
 10
335.443092573604
 20
282.6748384903273
 30
0.0
 11
336.443092573604
 21
282.6748384903273
 31
0.0
  0
LINE
  5
16C4
102
{ACAD_REACTORS
330
16C5
102
}
330
18
100
AcDbEntity
  8
外形線
100
AcDbLine
 10
335.443092573604
 20
282.4956718236606
 30
0.0
 11
336.443092573604
 21
282.4956718236607
 31
0.0
  0
HATCH
  5
16C5
330
18
100
AcDbEntity
  8
外形線
100
AcDbHatch
 10
0.0
 20
0.0
 30
0.0
210
0.0
220
0.0
230
1.0
  2
SOLID
 70
     1
 71
     1
 91
        2
 92
        1
 93
        7
 72
     1
 10
337.6097592402708
 20
282.5852551569941
 11
336.443092573604
 21
282.1606232170168
 72
     1
 10
336.443092573604
 20
282.1606232170168
 11
336.443092573604
 21
282.4956718236607
 72
     1
 10
336.443092573604
 20
282.4956718236607
 11
335.443092573604
 21
282.4956718236606
 72
     1
 10
335.443092573604
 20
282.4956718236606
 11
335.443092573604
 21
282.6748384903273
 72
     1
 10
335.443092573604
 20
282.6748384903273
 11
336.443092573604
 21
282.6748384903273
 72
     1
 10
336.443092573604
 20
282.6748384903273
 11
336.443092573604
 21
283.0098870969712
 72
     1
 10
336.443092573604
 20
283.0098870969712
 11
337.6097592402708
 21
282.5852551569941
 97
        7
330
16D9
330
16D6
330
16C4
330
16C6
330
16C3
330
16D3
330
16DA
 92
        1
 93
        4
 72
     1
 10
337.6097592402708
 20
283.3352551569941
 11
337.6097592402708
 21
281.835255156994
 72
     1
 10
337.6097592402708
 20
281.835255156994
 11
337.7764259069373
 21
281.835255156994
 72
     1
 10
337.7764259069373
 20
281.835255156994
 11
337.7764259069373
 21
283.3352551569941
 72
     1
 10
337.7764259069373
 20
283.3352551569941
 11
337.6097592402708
 21
283.3352551569941
 97
        4
330
16DB
330
16E6
330
16DC
330
16D2
 75
     0
 76
     1
 98
        1
 10
429.939315946751
 20
213.923104349813
450
        0
451
        0
460
0.0
461
0.0
452
        0
462
0.0
453
        0
470

  0
LINE
  5
16C6
102
{ACAD_REACTORS
330
16C5
102
}
330
18
100
AcDbEntity
  8
外形線
100
AcDbLine
 10
335.443092573604
 20
282.6748384903273
 30
0.0
 11
335.443092573604
 21
282.4956718236606
 31
0.0
  0
LINE
  5
16C7
102
{ACAD_REACTORS
330
16C2
102
}
330
18
100
AcDbEntity
  8
外形線
100
AcDbLine
 10
338.6097592402706
 20
283.3352551569941
 30
0.0
 11
338.7764259069373
 21
283.3352551569941
 31
0.0
  0
POINT
  5
16C8
330
18
100
AcDbEntity
  8
DEFPOINTS
  6
ByBlock
 62
     0
100
AcDbPoint
 10
339.943092573604
 20
283.0098870969712
 30
0.0
  0
POINT
  5
16C9
330
18
100
AcDbEntity
  8
DEFPOINTS
  6
ByBlock
 62
     0
100
AcDbPoint
 10
339.943092573604
 20
283.0098870969712
 30
0.0
  0
LINE
  5
16CA
102
{ACAD_REACTORS
330
16C2
102
}
330
18
100
AcDbEntity
  8
外形線
100
AcDbLine
 10
339.943092573604
 20
283.0098870969712
 30
0.0
 11
339.943092573604
 21
282.6748384903273
 31
0.0
  0
LINE
  5
16CB
102
{ACAD_REACTORS
330
16C2
102
}
330
18
100
AcDbEntity
  8
外形線
100
AcDbLine
 10
338.7764259069373
 20
282.5852551569941
 30
0.0
 11
339.943092573604
 21
282.1606232170168
 31
0.0
  0
POINT
  5
16CC
330
18
100
AcDbEntity
  8
DEFPOINTS
  6
ByBlock
 62
     0
100
AcDbPoint
 10
339.943092573604
 20
282.1606232170168
 30
0.0
  0
POINT
  5
16CD
330
18
100
AcDbEntity
  8
DEFPOINTS
  6
ByBlock
 62
     0
100
AcDbPoint
 10
339.943092573604
 20
282.1606232170168
 30
0.0
  0
LINE
  5
16CE
102
{ACAD_REACTORS
330
16C2
102
}
330
18
100
AcDbEntity
  8
外形線
100
AcDbLine
 10
339.943092573604
 20
282.4956718236607
 30
0.0
 11
339.943092573604
 21
282.1606232170168
 31
0.0
  0
LINE
  5
16CF
102
{ACAD_REACTORS
330
16C2
102
}
330
18
100
AcDbEntity
  8
外形線
100
AcDbLine
 10
338.6097592402706
 20
283.3352551569941
 30
0.0
 11
338.6097592402706
 21
281.835255156994
 31
0.0
  0
LINE
  5
16D0
102
{ACAD_REACTORS
330
16C2
102
}
330
18
100
AcDbEntity
  8
外形線
100
AcDbLine
 10
338.7764259069373
 20
283.3352551569941
 30
0.0
 11
338.7764259069373
 21
281.835255156994
 31
0.0
  0
LINE
  5
16D1
102
{ACAD_REACTORS
330
16C2
102
}
330
18
100
AcDbEntity
  8
外形線
100
AcDbLine
 10
338.7764259069373
 20
282.5852551569941
 30
0.0
 11
339.943092573604
 21
283.0098870969712
 31
0.0
  0
LINE
  5
16D2
102
{ACAD_REACTORS
330
16C5
102
}
330
18
100
AcDbEntity
  8
外形線
100
AcDbLine
 10
337.7764259069373
 20
283.3352551569941
 30
0.0
 11
337.6097592402708
 21
283.3352551569941
 31
0.0
  0
LINE
  5
16D3
102
{ACAD_REACTORS
330
16C5
102
}
330
18
100
AcDbEntity
  8
外形線
100
AcDbLine
 10
336.443092573604
 20
283.0098870969712
 30
0.0
 11
336.443092573604
 21
282.6748384903273
 31
0.0
  0
POINT
  5
16D4
330
18
100
AcDbEntity
  8
DEFPOINTS
  6
ByBlock
 62
     0
100
AcDbPoint
 10
336.443092573604
 20
283.0098870969712
 30
0.0
  0
POINT
  5
16D5
330
18
100
AcDbEntity
  8
DEFPOINTS
  6
ByBlock
 62
     0
100
AcDbPoint
 10
336.443092573604
 20
283.0098870969712
 30
0.0
  0
LINE
  5
16D6
102
{ACAD_REACTORS
330
16C5
102
}
330
18
100
AcDbEntity
  8
外形線
100
AcDbLine
 10
336.443092573604
 20
282.4956718236607
 30
0.0
 11
336.443092573604
 21
282.1606232170168
 31
0.0
  0
POINT
  5
16D7
330
18
100
AcDbEntity
  8
DEFPOINTS
  6
ByBlock
 62
     0
100
AcDbPoint
 10
336.443092573604
 20
282.1606232170168
 30
0.0
  0
POINT
  5
16D8
330
18
100
AcDbEntity
  8
DEFPOINTS
  6
ByBlock
 62
     0
100
AcDbPoint
 10
336.443092573604
 20
282.1606232170168
 30
0.0
  0
LINE
  5
16D9
102
{ACAD_REACTORS
330
16C5
102
}
330
18
100
AcDbEntity
  8
外形線
100
AcDbLine
 10
337.6097592402708
 20
282.5852551569941
 30
0.0
 11
336.443092573604
 21
282.1606232170168
 31
0.0
  0
LINE
  5
16DA
102
{ACAD_REACTORS
330
16C5
102
}
330
18
100
AcDbEntity
  8
外形線
100
AcDbLine
 10
337.6097592402708
 20
282.5852551569941
 30
0.0
 11
336.443092573604
 21
283.0098870969712
 31
0.0
  0
LINE
  5
16DB
102
{ACAD_REACTORS
330
16C5
102
}
330
18
100
AcDbEntity
  8
外形線
100
AcDbLine
 10
337.6097592402708
 20
283.3352551569941
 30
0.0
 11
337.6097592402708
 21
281.835255156994
 31
0.0
  0
LINE
  5
16DC
102
{ACAD_REACTORS
330
16C5
102
}
330
18
100
AcDbEntity
  8
外形線
100
AcDbLine
 10
337.7764259069373
 20
283.3352551569941
 30
0.0
 11
337.7764259069373
 21
281.835255156994
 31
0.0
  0
LINE
  5
16DD
102
{ACAD_REACTORS
330
16C2
102
}
330
18
100
AcDbEntity
  8
外形線
100
AcDbLine
 10
338.6097592402706
 20
281.835255156994
 30
0.0
 11
338.7764259069373
 21
281.835255156994
 31
0.0
  0
POINT
  5
16DE
330
18
100
AcDbEntity
  8
DEFPOINTS
  6
ByBlock
 62
     0
100
AcDbPoint
 10
338.7764259069373
 20
281.835255156994
 30
0.0
  0
POINT
  5
16DF
330
18
100
AcDbEntity
  8
DEFPOINTS
  6
ByBlock
 62
     0
100
AcDbPoint
 10
338.6097592402706
 20
281.835255156994
 30
0.0
  0
POINT
  5
16E0
330
18
100
AcDbEntity
  8
DEFPOINTS
  6
ByBlock
 62
     0
100
AcDbPoint
 10
338.7764259069373
 20
281.835255156994
 30
0.0
  0
POINT
  5
16E1
330
18
100
AcDbEntity
  8
DEFPOINTS
  6
ByBlock
 62
     0
100
AcDbPoint
 10
338.6097592402706
 20
281.835255156994
 30
0.0
  0
POINT
  5
16E2
330
18
100
AcDbEntity
  8
DEFPOINTS
  6
ByBlock
 62
     0
100
AcDbPoint
 10
337.7764259069373
 20
281.835255156994
 30
0.0
  0
POINT
  5
16E3
330
18
100
AcDbEntity
  8
DEFPOINTS
  6
ByBlock
 62
     0
100
AcDbPoint
 10
337.6097592402708
 20
281.835255156994
 30
0.0
  0
POINT
  5
16E4
330
18
100
AcDbEntity
  8
DEFPOINTS
  6
ByBlock
 62
     0
100
AcDbPoint
 10
337.7764259069373
 20
281.835255156994
 30
0.0
  0
POINT
  5
16E5
330
18
100
AcDbEntity
  8
DEFPOINTS
  6
ByBlock
 62
     0
100
AcDbPoint
 10
337.6097592402708
 20
281.835255156994
 30
0.0
  0
LINE
  5
16E6
102
{ACAD_REACTORS
330
16C5
102
}
330
18
100
AcDbEntity
  8
外形線
100
AcDbLine
 10
337.7764259069373
 20
281.835255156994
 30
0.0
 11
337.6097592402708
 21
281.835255156994
 31
0.0
  0
LINE
  5
16E7
102
{ACAD_REACTORS
330
16C2
102
}
330
18
100
AcDbEntity
  8
外形線
100
AcDbLine
 10
340.943092573604
 20
282.6748384903273
 30
0.0
 11
340.943092573604
 21
282.4956718236606
 31
0.0
  0
LINE
  5
16E8
330
18
100
AcDbEntity
  8
0
  6
ByBlock
 62
     2
100
AcDbLine
 10
298.1993274460584
 20
281.1352551569941
 30
0.0
 11
291.0613763407623
 21
281.1352551569941
 31
0.0
  0
POINT
  5
16EE
330
18
100
AcDbEntity
  8
DEFPOINTS
  6
ByBlock
 62
     0
100
AcDbPoint
 10
298.1993274460584
 20
281.1352551569941
 30
0.0
  0
TEXT
  5
16F1
330
18
100
AcDbEntity
  8
文字
100
AcDbText
 10
334.8089221017884
 20
248.8653401488317
 30
0.0
 40
1.0
  1
0
  7
STYLE3
100
AcDbText
  0
TEXT
  5
16F2
330
18
100
AcDbEntity
  8
文字
100
AcDbText
 10
333.618379898171
 20
247.4535619470206
 30
0.0
 40
1.0
  1
-0.03
  7
STYLE3
100
AcDbText
  0
LINE
  5
16FE
330
18
100
AcDbEntity
  8
0
  6
ByBlock
 62
     2
100
AcDbLine
 10
404.6286688169488
 20
225.1352551569941
 30
0.0
 11
388.0005274298921
 21
225.1352551569941
 31
0.0
  0
LINE
  5
16FF
330
18
100
AcDbEntity
  8
0
  6
ByBlock
 62
     2
100
AcDbLine
 10
389.2505274298921
 20
233.6352551569941
 30
0.0
 11
389.2505274298921
 21
227.6352551569941
 31
0.0
  0
INSERT
  5
1700
330
18
100
AcDbEntity
  8
0
  6
ByBlock
 62
     2
100
AcDbBlockReference
  2
_OPEN
 10
389.2505274298921
 20
236.1352551569941
 30
0.0
 41
2.5
 42
2.5
 43
2.5
 50
90.0
  0
INSERT
  5
1701
330
18
100
AcDbEntity
  8
0
  6
ByBlock
 62
     2
100
AcDbBlockReference
  2
_OPEN
 10
389.2505274298921
 20
225.1352551569941
 30
0.0
 41
2.5
 42
2.5
 43
2.5
 50
270.0
  0
MTEXT
  5
1702
330
18
100
AcDbEntity
  8
0
  6
ByBlock
 62
     6
100
AcDbMText
 10
387.3755274298921
 20
230.6352551569941
 30
0.0
 40
2.5
 41
0.0
 71
     5
 72
     1
  1
\A1;11
  7
STYLE3
 11
0.0000000000000001
 21
1.0
 31
0.0
 73
     1
 44
1.0
  0
POINT
  5
1703
330
18
100
AcDbEntity
  8
DEFPOINTS
  6
ByBlock
 62
     0
100
AcDbPoint
 10
403.2286688169488
 20
236.1352551569941
 30
0.0
  0
POINT
  5
170B
330
18
100
AcDbEntity
  8
DEFPOINTS
  6
ByBlock
 62
     0
100
AcDbPoint
 10
392.6286688169488
 20
253.6352551569941
 30
0.0
  0
LINE
  5
1716
330
18
100
AcDbEntity
  8
0
  6
ByBlock
 62
     2
100
AcDbLine
 10
388.6421064803242
 20
253.6352551569941
 30
0.0
 11
390.5005274298921
 21
253.6352551569941
 31
0.0
  0
LINE
  5
1717
330
18
100
AcDbEntity
  8
0
  6
ByBlock
 62
     2
100
AcDbLine
 10
403.5786688169489
 20
236.135255156994
 30
0.0
 11
388.0005274298921
 21
236.135255156994
 31
0.0
  0
LINE
  5
1718
330
18
100
AcDbEntity
  8
0
  6
ByBlock
 62
     2
100
AcDbLine
 10
389.2505274298921
 20
251.1352551569941
 30
0.0
 11
389.2505274298921
 21
238.635255156994
 31
0.0
  0
INSERT
  5
1719
330
18
100
AcDbEntity
  8
0
  6
ByBlock
 62
     2
100
AcDbBlockReference
  2
_OPEN
 10
389.2505274298921
 20
253.6352551569941
 30
0.0
 41
2.5
 42
2.5
 43
2.5
 50
90.0
  0
INSERT
  5
171A
330
18
100
AcDbEntity
  8
0
  6
ByBlock
 62
     2
100
AcDbBlockReference
  2
_OPEN
 10
389.2505274298921
 20
236.135255156994
 30
0.0
 41
2.5
 42
2.5
 43
2.5
 50
270.0
  0
MTEXT
  5
171B
330
18
100
AcDbEntity
  8
0
  6
ByBlock
 62
     6
100
AcDbMText
 10
387.3755274298921
 20
244.8852551569941
 30
0.0
 40
2.5
 41
0.0
 71
     5
 72
     1
  1
\A1;17.5
  7
STYLE3
 11
0.0000000000000001
 21
1.0
 31
0.0
 73
     1
 44
1.0
  0
POINT
  5
171C
330
18
100
AcDbEntity
  8
DEFPOINTS
  6
ByBlock
 62
     0
100
AcDbPoint
 10
388.6421064803242
 20
253.6352551569941
 30
0.0
  0
POINT
  5
171D
330
18
100
AcDbEntity
  8
DEFPOINTS
  6
ByBlock
 62
     0
100
AcDbPoint
 10
403.5786688169489
 20
236.135255156994
 30
0.0
  0
POINT
  5
171E
330
18
100
AcDbEntity
  8
DEFPOINTS
  6
ByBlock
 62
     0
100
AcDbPoint
 10
389.2505274298921
 20
236.135255156994
 30
0.0
  0
LINE
  5
171F
330
18
100
AcDbEntity
  8
ﾊｯﾁﾝｸ
  6
Continuous
100
AcDbLine
 10
325.1043036361366
 20
314.9017489532918
 30
0.0
 11
325.3378098398388
 21
315.135255156994
 31
0.0
  0
LINE
  5
1720
330
18
100
AcDbEntity
  8
ﾊｯﾁﾝｸ
  6
Continuous
100
AcDbLine
 10
325.1043036361366
 20
313.1339820003254
 30
0.0
 11
327.1055767928051
 21
315.135255156994
 31
0.0
  0
LINE
  5
1721
330
18
100
AcDbEntity
  8
ﾊｯﾁﾝｸ
  6
Continuous
100
AcDbLine
 10
325.1043036361366
 20
311.3662150473591
 30
0.0
 11
328.8733437457715
 21
315.135255156994
 31
0.0
  0
LINE
  5
1722
330
18
100
AcDbEntity
  8
ﾊｯﾁﾝｸ
  6
Continuous
100
AcDbLine
 10
325.1043036361366
 20
309.5984480943927
 30
0.0
 11
329.1043036361366
 21
313.5984480943927
 31
0.0
  0
LINE
  5
1723
330
18
100
AcDbEntity
  8
ﾊｯﾁﾝｸ
  6
Continuous
100
AcDbLine
 10
326.4088776517042
 20
309.135255156994
 30
0.0
 11
329.1043036361366
 21
311.8306811414264
 31
0.0
  0
LINE
  5
1724
330
18
100
AcDbEntity
  8
ﾊｯﾁﾝｸ
  6
Continuous
100
AcDbLine
 10
328.1766446046706
 20
309.135255156994
 30
0.0
 11
329.1043036361366
 21
310.06291418846
 31
0.0
  0
LINE
  5
1725
330
18
100
AcDbEntity
  8
ﾊｯﾁﾝｸ
  6
Continuous
100
AcDbLine
 10
325.1558492824556
 20
309.135255156994
 30
0.0
 11
325.1043036361366
 21
309.1868008033129
 31
0.0
  0
LINE
  5
1726
330
18
100
AcDbEntity
  8
ﾊｯﾁﾝｸ
  6
Continuous
100
AcDbLine
 10
326.9236162354219
 20
309.135255156994
 30
0.0
 11
325.1043036361366
 21
310.9545677562794
 31
0.0
  0
LINE
  5
1727
330
18
100
AcDbEntity
  8
ﾊｯﾁﾝｸ
  6
Continuous
100
AcDbLine
 10
328.6913831883882
 20
309.135255156994
 30
0.0
 11
325.1043036361366
 21
312.7223347092457
 31
0.0
  0
LINE
  5
1728
330
18
100
AcDbEntity
  8
ﾊｯﾁﾝｸ
  6
Continuous
100
AcDbLine
 10
329.1043036361366
 20
310.490101662212
 30
0.0
 11
325.1043036361366
 21
314.490101662212
 31
0.0
  0
LINE
  5
1729
330
18
100
AcDbEntity
  8
ﾊｯﾁﾝｸ
  6
Continuous
100
AcDbLine
 10
329.1043036361366
 20
312.2578686151785
 30
0.0
 11
326.226917094321
 21
315.135255156994
 31
0.0
  0
LINE
  5
172A
330
18
100
AcDbEntity
  8
ﾊｯﾁﾝｸ
  6
Continuous
100
AcDbLine
 10
329.1043036361366
 20
314.0256355681448
 30
0.0
 11
327.9946840472874
 21
315.1352551569939
 31
0.0
  0
LINE
  5
172B
330
18
100
AcDbEntity
  8
0
  6
ByBlock
 62
     2
100
AcDbLine
 10
391.6286688169488
 20
307.6352551569941
 30
0.0
 11
391.6286688169488
 21
334.1540606857472
 31
0.0
  0
LINE
  5
172C
330
18
100
AcDbEntity
  8
0
  6
ByBlock
 62
     2
100
AcDbLine
 10
406.6286688169488
 20
325.0838739256835
 30
0.0
 11
406.6286688169488
 21
334.1540606857472
 31
0.0
  0
LINE
  5
172D
330
18
100
AcDbEntity
  8
0
  6
ByBlock
 62
     2
100
AcDbLine
 10
394.1286688169488
 20
332.9040606857473
 30
0.0
 11
404.1286688169487
 21
332.9040606857473
 31
0.0
  0
INSERT
  5
172E
330
18
100
AcDbEntity
  8
0
  6
ByBlock
 62
     2
100
AcDbBlockReference
  2
_OPEN
 10
391.6286688169488
 20
332.9040606857473
 30
0.0
 41
2.5
 42
2.5
 43
2.5
 50
180.0
  0
INSERT
  5
172F
330
18
100
AcDbEntity
  8
0
  6
ByBlock
 62
     2
100
AcDbBlockReference
  2
_OPEN
 10
406.6286688169488
 20
332.9040606857473
 30
0.0
 41
2.5
 42
2.5
 43
2.5
  0
MTEXT
  5
1730
330
18
100
AcDbEntity
  8
0
  6
ByBlock
 62
     6
100
AcDbMText
 10
399.1286688169488
 20
334.7790606857472
 30
0.0
 40
2.5
 41
0.0
 71
     5
 72
     1
  1
\A1;15
  7
STYLE3
 73
     1
 44
1.0
  0
POINT
  5
1731
330
18
100
AcDbEntity
  8
DEFPOINTS
  6
ByBlock
 62
     0
100
AcDbPoint
 10
391.6286688169488
 20
307.6352551569941
 30
0.0
  0
POINT
  5
1732
330
18
100
AcDbEntity
  8
DEFPOINTS
  6
ByBlock
 62
     0
100
AcDbPoint
 10
406.6286688169488
 20
325.0838739256835
 30
0.0
  0
POINT
  5
1733
330
18
100
AcDbEntity
  8
DEFPOINTS
  6
ByBlock
 62
     0
100
AcDbPoint
 10
406.6286688169488
 20
332.9040606857473
 30
0.0
  0
LINE
  5
1734
330
18
100
AcDbEntity
  8
ﾊｯﾁﾝｸ
  6
Continuous
100
AcDbLine
 10
402.6286688169488
 20
314.9017489532919
 30
0.0
 11
402.8621750206509
 21
315.135255156994
 31
0.0
  0
LINE
  5
1735
330
18
100
AcDbEntity
  8
ﾊｯﾁﾝｸ
  6
Continuous
100
AcDbLine
 10
402.6286688169488
 20
313.1339820003255
 30
0.0
 11
404.6299419736173
 21
315.135255156994
 31
0.0
  0
LINE
  5
1736
330
18
100
AcDbEntity
  8
ﾊｯﾁﾝｸ
  6
Continuous
100
AcDbLine
 10
402.6286688169488
 20
311.3662150473591
 30
0.0
 11
406.3977089265837
 21
315.135255156994
 31
0.0
  0
LINE
  5
1737
330
18
100
AcDbEntity
  8
ﾊｯﾁﾝｸ
  6
Continuous
100
AcDbLine
 10
402.6286688169487
 20
309.5984480943927
 30
0.0
 11
406.6286688169487
 21
313.5984480943927
 31
0.0
  0
LINE
  5
1738
330
18
100
AcDbEntity
  8
ﾊｯﾁﾝｸ
  6
Continuous
100
AcDbLine
 10
403.9332428325163
 20
309.135255156994
 30
0.0
 11
406.6286688169488
 21
311.8306811414264
 31
0.0
  0
LINE
  5
1739
330
18
100
AcDbEntity
  8
ﾊｯﾁﾝｸ
  6
Continuous
100
AcDbLine
 10
405.7010097854828
 20
309.135255156994
 30
0.0
 11
406.6286688169488
 21
310.06291418846
 31
0.0
  0
LINE
  5
173A
330
18
100
AcDbEntity
  8
ﾊｯﾁﾝｸ
  6
Continuous
100
AcDbLine
 10
402.6802144632677
 20
309.1352551569941
 30
0.0
 11
402.6286688169488
 21
309.186800803313
 31
0.0
  0
LINE
  5
173B
330
18
100
AcDbEntity
  8
ﾊｯﾁﾝｸ
  6
Continuous
100
AcDbLine
 10
404.4479814162341
 20
309.135255156994
 30
0.0
 11
402.6286688169488
 21
310.9545677562794
 31
0.0
  0
LINE
  5
173C
330
18
100
AcDbEntity
  8
ﾊｯﾁﾝｸ
  6
Continuous
100
AcDbLine
 10
406.2157483692005
 20
309.135255156994
 30
0.0
 11
402.6286688169488
 21
312.7223347092458
 31
0.0
  0
LINE
  5
173D
330
18
100
AcDbEntity
  8
ﾊｯﾁﾝｸ
  6
Continuous
100
AcDbLine
 10
406.6286688169488
 20
310.4901016622122
 30
0.0
 11
402.6286688169488
 21
314.4901016622122
 31
0.0
  0
LINE
  5
173E
330
18
100
AcDbEntity
  8
ﾊｯﾁﾝｸ
  6
Continuous
100
AcDbLine
 10
406.6286688169488
 20
312.2578686151785
 30
0.0
 11
403.7512822751332
 21
315.135255156994
 31
0.0
  0
LINE
  5
173F
330
18
100
AcDbEntity
  8
ﾊｯﾁﾝｸ
  6
Continuous
100
AcDbLine
 10
406.6286688169488
 20
314.0256355681449
 30
0.0
 11
405.5190492280996
 21
315.135255156994
 31
0.0
  0
LINE
  5
1740
330
18
100
AcDbEntity
  8
外形線
 62
     2
100
AcDbLine
 10
429.0796464626187
 20
286.4962748501083
 30
0.0
 11
432.9108864664584
 21
296.1505453441699
 31
0.0
  0
LINE
  5
1741
330
18
100
AcDbEntity
  8
外形線
 62
     2
100
AcDbLine
 10
432.9108864664584
 20
296.1505453441699
 30
0.0
 11
442.4471894435099
 21
296.1505453441699
 31
0.0
  0
LINE
  5
1746
330
18
100
AcDbEntity
  8
外形線
 62
     2
100
AcDbLine
 10
429.4786033181587
 20
286.3760894161792
 30
0.0
 11
428.3585338590443
 21
284.102533716868
 31
0.0
  0
LINE
  5
1747
330
18
100
AcDbEntity
  8
外形線
 62
     2
100
AcDbLine
 10
428.3585338590443
 20
284.102533716868
 30
0.0
 11
428.6806896070786
 21
286.6164602840374
 31
0.0
  0
LINE
  5
1748
330
18
100
AcDbEntity
  8
外形線
 62
     2
100
AcDbLine
 10
428.3585338590443
 20
284.102533716868
 30
0.0
 11
429.0796464626187
 21
286.4962748501083
 31
0.0
  0
LINE
  5
1749
330
18
100
AcDbEntity
  8
0
  6
ByBlock
 62
     2
100
AcDbLine
 10
417.1286688169487
 20
289.136840900447
 30
0.0
 11
417.1286688169487
 21
297.4005453441699
 31
0.0
  0
LINE
  5
174A
330
18
100
AcDbEntity
  8
0
  6
ByBlock
 62
     2
100
AcDbLine
 10
422.1286688169488
 20
289.1352551569941
 30
0.0
 11
422.1286688169488
 21
297.4005453441699
 31
0.0
  0
LINE
  5
174B
330
18
100
AcDbEntity
  8
0
  6
ByBlock
 62
     2
100
AcDbLine
 10
414.6286688169487
 20
296.1505453441699
 30
0.0
 11
412.1286688169488
 21
296.1505453441699
 31
0.0
  0
LINE
  5
174C
330
18
100
AcDbEntity
  8
0
  6
ByBlock
 62
     2
100
AcDbLine
 10
424.6286688169488
 20
296.1505453441699
 30
0.0
 11
427.1286688169488
 21
296.1505453441699
 31
0.0
  0
LINE
  5
174D
330
18
100
AcDbEntity
  8
0
  6
ByBlock
 62
     2
100
AcDbLine
 10
417.1286688169487
 20
296.1505453441699
 30
0.0
 11
422.1286688169488
 21
296.1505453441699
 31
0.0
  0
INSERT
  5
174E
330
18
100
AcDbEntity
  8
0
  6
ByBlock
 62
     2
100
AcDbBlockReference
  2
_OPEN
 10
417.1286688169487
 20
296.1505453441699
 30
0.0
 41
2.5
 42
2.5
 43
2.5
  0
INSERT
  5
174F
330
18
100
AcDbEntity
  8
0
  6
ByBlock
 62
     2
100
AcDbBlockReference
  2
_OPEN
 10
422.1286688169488
 20
296.1505453441699
 30
0.0
 41
2.5
 42
2.5
 43
2.5
 50
180.0
  0
MTEXT
  5
1750
330
18
100
AcDbEntity
  8
0
  6
ByBlock
 62
     6
100
AcDbMText
 10
419.6286688169488
 20
298.0255453441699
 30
0.0
 40
2.5
 41
0.0
 71
     5
 72
     1
  1
\A1;5
  7
STYLE3
 73
     1
 44
1.0
  0
POINT
  5
1751
330
18
100
AcDbEntity
  8
DEFPOINTS
  6
ByBlock
 62
     0
100
AcDbPoint
 10
417.1286688169487
 20
289.136840900447
 30
0.0
  0
POINT
  5
1752
330
18
100
AcDbEntity
  8
DEFPOINTS
  6
ByBlock
 62
     0
100
AcDbPoint
 10
422.1286688169488
 20
289.1352551569941
 30
0.0
  0
POINT
  5
1753
330
18
100
AcDbEntity
  8
DEFPOINTS
  6
ByBlock
 62
     0
100
AcDbPoint
 10
422.1286688169488
 20
296.1505453441699
 30
0.0
  0
TEXT
  5
1754
330
18
100
AcDbEntity
  8
外形線
 62
     6
100
AcDbText
 10
432.5424566638163
 20
296.5503489296755
 30
0.0
 40
2.5
  1
φ6.5
  7
STYLE3
100
AcDbText
  0
LINE
  5
1892
330
18
100
AcDbEntity
  8
外形線
100
AcDbLine
 10
325.1043036361368
 20
241.1352551569941
 30
0.0
 11
333.1043036361368
 21
241.135255156994
 31
0.0
  0
LINE
  5
1893
330
18
100
AcDbEntity
  8
外形線
100
AcDbLine
 10
325.6043036361368
 20
236.1352551569942
 30
0.0
 11
332.6043036361367
 21
236.135255156994
 31
0.0
  0
LINE
  5
1894
330
18
100
AcDbEntity
  8
外形線
100
AcDbLine
 10
325.8543036361368
 20
236.9352551569941
 30
0.0
 11
332.3543036361368
 21
236.9352551569941
 31
0.0
  0
LINE
  5
1895
330
18
100
AcDbEntity
  8
外形線
100
AcDbLine
 10
325.2543036361367
 20
238.1352551569942
 30
0.0
 11
332.9543036361366
 21
238.135255156994
 31
0.0
  0
LINE
  5
1896
330
18
100
AcDbEntity
  8
外形線
100
AcDbLine
 10
327.8043036361365
 20
217.1352551569941
 30
0.0
 11
330.4043036361365
 21
217.1352551569941
 31
0.0
  0
LINE
  5
1897
330
18
100
AcDbEntity
  8
ﾊｯﾁﾝｸ
100
AcDbLine
 10
329.9405822654565
 20
223.9852551569941
 30
0.0
 11
331.0905822654565
 21
225.1352551569941
 31
0.0
  0
LINE
  5
1898
330
18
100
AcDbEntity
  8
外形線
100
AcDbLine
 10
326.6043036361367
 20
221.6352551569941
 30
0.0
 11
331.6043036361366
 21
221.6352551569941
 31
0.0
  0
LINE
  5
1899
330
18
100
AcDbEntity
  8
外形線
100
AcDbLine
 10
326.2043036361366
 20
222.7852551569941
 30
0.0
 11
332.0043036361365
 21
222.7852551569941
 31
0.0
  0
LINE
  5
189A
330
18
100
AcDbEntity
  8
外形線
100
AcDbLine
 10
326.6043036361367
 20
223.9852551569941
 30
0.0
 11
331.6043036361366
 21
223.9852551569941
 31
0.0
  0
LINE
  5
189B
330
18
100
AcDbEntity
  8
ﾊｯﾁﾝｸ
100
AcDbLine
 10
331.1014323354438
 20
221.6352551569941
 30
0.0
 11
329.9514323354439
 21
222.7852551569941
 31
0.0
  0
LINE
  5
189C
330
18
100
AcDbEntity
  8
外形線
100
AcDbLine
 10
326.2043036361366
 20
224.785255156994
 30
0.0
 11
332.0043036361365
 21
224.785255156994
 31
0.0
  0
LINE
  5
189D
330
18
100
AcDbEntity
  8
外形線
100
AcDbLine
 10
326.6043036361367
 20
225.1352551569941
 30
0.0
 11
331.6043036361366
 21
225.1352551569941
 31
0.0
  0
LINE
  5
189E
330
18
100
AcDbEntity
  8
外形線
100
AcDbLine
 10
326.6043036361367
 20
221.6352551569941
 30
0.0
 11
327.8043036361365
 21
217.1352551569941
 31
0.0
  0
POINT
  5
18A0
330
18
100
AcDbEntity
  8
DEFPOINTS
  6
ByBlock
 62
     0
100
AcDbPoint
 10
329.1043036361366
 20
216.1352551569941
 30
0.0
  0
LINE
  5
18A1
330
18
100
AcDbEntity
  8
外形線
100
AcDbLine
 10
325.1043036361368
 20
229.512755156994
 30
0.0
 11
326.204303636137
 21
230.458255156994
 31
0.0
  0
LINE
  5
18A2
330
18
100
AcDbEntity
  8
外形線
100
AcDbLine
 10
327.1043036361364
 20
236.135255156994
 30
0.0
 11
327.1043036361366
 21
225.1352551569941
 31
0.0
  0
LINE
  5
18A3
330
18
100
AcDbEntity
  8
外形線
 48
0.5
100
AcDbLine
 10
326.2043036361366
 20
224.785255156994
 30
0.0
 11
326.2043036361366
 21
222.7852551569941
 31
0.0
  0
LINE
  5
18A4
330
18
100
AcDbEntity
  8
ﾊｯﾁﾝｸ
100
AcDbLine
 10
330.0984707536043
 20
223.9852551569941
 30
0.0
 11
328.9484707536043
 21
225.1352551569941
 31
0.0
  0
LINE
  5
18A5
330
18
100
AcDbEntity
  8
ﾊｯﾁﾝｸ
100
AcDbLine
 10
328.7514323354439
 20
223.9852551569941
 30
0.0
 11
327.6014323354439
 21
225.1352551569941
 31
0.0
  0
LINE
  5
18A6
330
18
100
AcDbEntity
  8
ﾊｯﾁﾝｸ
100
AcDbLine
 10
327.2465054291358
 20
223.9852551569941
 30
0.0
 11
328.3584709497767
 21
225.0972206776349
 31
0.0
  0
LINE
  5
18A7
330
18
100
AcDbEntity
  8
ﾊｯﾁﾝｸ
100
AcDbLine
 10
327.4043939172835
 20
223.9852551569941
 30
0.0
 11
326.6043036361366
 21
224.7853454381411
 31
0.0
  0
LINE
  5
18A8
330
18
100
AcDbEntity
  8
ﾊｯﾁﾝｸ
100
AcDbLine
 10
328.5935438472962
 20
223.9852551569941
 30
0.0
 11
329.7435438472962
 21
225.1352551569941
 31
0.0
  0
LINE
  5
18A9
330
18
100
AcDbEntity
  8
外形線
 48
0.5
100
AcDbLine
 10
326.6043036361367
 20
225.1352551569941
 30
0.0
 11
326.6043036361367
 21
223.9852551569941
 31
0.0
  0
LINE
  5
18AA
330
18
100
AcDbEntity
  8
ﾊｯﾁﾝｸ
100
AcDbLine
 10
328.4073554991231
 20
221.6352551569941
 30
0.0
 11
327.2573554991232
 21
222.7852551569942
 31
0.0
  0
LINE
  5
18AB
330
18
100
AcDbEntity
  8
ﾊｯﾁﾝｸ
100
AcDbLine
 10
327.5905822654565
 20
221.6352551569941
 30
0.0
 11
328.7405822654566
 21
222.7852551569942
 31
0.0
  0
LINE
  5
18AC
330
18
100
AcDbEntity
  8
ﾊｯﾁﾝｸ
100
AcDbLine
 10
326.6055093679369
 20
221.9972206776349
 30
0.0
 11
327.3935438472962
 21
222.7852551569941
 31
0.0
  0
LINE
  5
18AD
330
18
100
AcDbEntity
  8
ﾊｯﾁﾝｸ
100
AcDbLine
 10
327.0603170809629
 20
221.6352551569941
 30
0.0
 11
326.6043036361365
 21
222.0912686018204
 31
0.0
  0
LINE
  5
18AE
330
18
100
AcDbEntity
  8
外形線
 48
0.5
100
AcDbLine
 10
326.6043036361367
 20
222.7852551569941
 30
0.0
 11
326.6043036361367
 21
221.6352551569941
 31
0.0
  0
ARC
  5
18AF
330
18
100
AcDbEntity
  8
外形線
100
AcDbCircle
 10
326.2437485085901
 20
223.3852551569941
 30
0.0
 40
0.7
100
AcDbArc
 50
301.0027191338726
 51
58.99728086611813
  0
LINE
  5
18B0
330
18
100
AcDbEntity
  8
ﾊｯﾁﾝｸ
100
AcDbLine
 10
329.7543939172834
 20
221.6352551569941
 30
0.0
 11
328.6043939172835
 21
222.7852551569942
 31
0.0
  0
LINE
  5
18B1
330
18
100
AcDbEntity
  8
ﾊｯﾁﾝｸ
100
AcDbLine
 10
329.0047958278296
 20
221.6352551569941
 30
0.0
 11
330.1547958278296
 21
222.7852551569941
 31
0.0
  0
LINE
  5
18B2
330
18
100
AcDbEntity
  8
外形線
100
AcDbLine
 10
326.204303636137
 20
228.5672551569941
 30
0.0
 11
325.1043036361368
 21
229.512755156994
 31
0.0
  0
LINE
  5
18B3
330
18
100
AcDbEntity
  8
外形線
100
AcDbLine
 10
325.1043036361368
 20
227.621755156994
 30
0.0
 11
326.204303636137
 21
228.567255156994
 31
0.0
  0
LINE
  5
18B4
330
18
100
AcDbEntity
  8
外形線
100
AcDbLine
 10
325.1043036361368
 20
225.7307551569941
 30
0.0
 11
326.204303636137
 21
226.676255156994
 31
0.0
  0
LINE
  5
18B5
330
18
100
AcDbEntity
  8
外形線
100
AcDbLine
 10
326.204303636137
 20
224.785255156994
 30
0.0
 11
325.1043036361368
 21
225.7307551569941
 31
0.0
  0
LINE
  5
18B6
330
18
100
AcDbEntity
  8
外形線
100
AcDbLine
 10
326.204303636137
 20
226.676255156994
 30
0.0
 11
325.1043036361368
 21
227.621755156994
 31
0.0
  0
LINE
  5
18B7
330
18
100
AcDbEntity
  8
ﾊｯﾁﾝｸ
100
AcDbLine
 10
326.6043036361366
 20
224.6900917821553
 30
0.0
 11
327.0494670109755
 21
225.1352551569941
 31
0.0
  0
LINE
  5
18B8
330
18
100
AcDbEntity
  8
外形線
100
AcDbLine
 10
325.1043036361368
 20
235.1857551569941
 30
0.0
 11
325.6043036361368
 21
236.135255156994
 31
0.0
  0
LINE
  5
18B9
330
18
100
AcDbEntity
  8
外形線
100
AcDbLine
 10
325.1043036361368
 20
233.294755156994
 30
0.0
 11
326.204303636137
 21
234.240255156994
 31
0.0
  0
LINE
  5
18BA
330
18
100
AcDbEntity
  8
外形線
100
AcDbLine
 10
326.204303636137
 20
232.349255156994
 30
0.0
 11
325.1043036361368
 21
233.294755156994
 31
0.0
  0
LINE
  5
18BB
330
18
100
AcDbEntity
  8
外形線
100
AcDbLine
 10
325.1043036361368
 20
231.4037551569941
 30
0.0
 11
326.204303636137
 21
232.349255156994
 31
0.0
  0
LINE
  5
18BC
330
18
100
AcDbEntity
  8
外形線
100
AcDbLine
 10
326.204303636137
 20
230.458255156994
 30
0.0
 11
325.1043036361368
 21
231.4037551569941
 31
0.0
  0
LINE
  5
18BD
330
18
100
AcDbEntity
  8
外形線
100
AcDbLine
 10
326.204303636137
 20
234.2402551569941
 30
0.0
 11
325.1043036361368
 21
235.1857551569941
 31
0.0
  0
LINE
  5
18BE
330
18
100
AcDbEntity
  8
外形線
 48
0.5
100
AcDbLine
 10
325.6043036361367
 20
238.1352551569942
 30
0.0
 11
325.6043036361368
 21
236.1352551569942
 31
0.0
  0
LINE
  5
18BF
330
18
100
AcDbEntity
  8
外形線
 48
0.5
100
AcDbLine
 10
325.8543036361368
 20
236.9352551569941
 30
0.0
 11
325.8543036361367
 21
236.3352551569941
 31
0.0
  0
LINE
  5
18C0
330
18
100
AcDbEntity
  8
外形線
 48
0.5
100
AcDbLine
 10
326.0543036361367
 20
236.1352551569941
 30
0.0
 11
325.8543036361367
 21
236.3352551569941
 31
0.0
  0
LINE
  5
18C1
330
18
100
AcDbEntity
  8
外形線
100
AcDbLine
 10
325.2543036361366
 20
241.1352551569941
 30
0.0
 11
325.2543036361367
 21
238.1352551569942
 31
0.0
  0
ARC
  5
18C2
330
18
100
AcDbEntity
  8
外形線
100
AcDbCircle
 10
325.4043036361366
 20
237.4714454217322
 30
0.0
 40
0.7
100
AcDbArc
 50
310.0052008848602
 51
71.49566077348707
  0
LINE
  5
18C4
330
18
100
AcDbEntity
  8
外形線
100
AcDbLine
 10
409.128668816949
 20
221.6352551569941
 30
0.0
 11
407.9286688169489
 21
217.1352551569941
 31
0.0
  0
LINE
  5
18C5
330
18
100
AcDbEntity
  8
外形線
100
AcDbLine
 10
404.128668816949
 20
221.6352551569941
 30
0.0
 11
405.3286688169489
 21
217.1352551569941
 31
0.0
  0
LINE
  5
18C6
330
18
100
AcDbEntity
  8
外形線
100
AcDbLine
 10
331.6043036361366
 20
221.6352551569941
 30
0.0
 11
330.4043036361365
 21
217.1352551569941
 31
0.0
  0
LINE
  5
18C7
330
18
100
AcDbEntity
  8
外形線
100
AcDbLine
 10
405.3286688169489
 20
217.1352551569941
 30
0.0
 11
407.9286688169489
 21
217.1352551569941
 31
0.0
  0
POINT
  5
18C8
330
18
100
AcDbEntity
  8
DEFPOINTS
  6
ByBlock
 62
     0
100
AcDbPoint
 10
406.6286688169489
 20
216.1352551569941
 30
0.0
  0
LINE
  5
18CA
330
18
100
AcDbEntity
  8
外形線
100
AcDbLine
 10
333.1043036361366
 20
229.512755156994
 30
0.0
 11
332.0043036361365
 21
230.458255156994
 31
0.0
  0
LINE
  5
18CB
330
18
100
AcDbEntity
  8
外形線
100
AcDbLine
 10
331.1043036361364
 20
236.135255156994
 30
0.0
 11
331.1043036361365
 21
225.1352551569941
 31
0.0
  0
LINE
  5
18CC
330
18
100
AcDbEntity
  8
外形線
 48
0.5
100
AcDbLine
 10
332.0043036361365
 20
224.785255156994
 30
0.0
 11
332.0043036361365
 21
222.7852551569941
 31
0.0
  0
LINE
  5
18CD
330
18
100
AcDbEntity
  8
ﾊｯﾁﾝｸ
100
AcDbLine
 10
331.3547958278296
 20
223.9852551569941
 30
0.0
 11
331.6043036361366
 21
224.2347629653011
 31
0.0
  0
LINE
  5
18CE
330
18
100
AcDbEntity
  8
外形線
 48
0.5
100
AcDbLine
 10
331.6043036361366
 20
225.1352551569941
 30
0.0
 11
331.6043036361366
 21
223.9852551569941
 31
0.0
  0
LINE
  5
18CF
330
18
100
AcDbEntity
  8
ﾊｯﾁﾝｸ
100
AcDbLine
 10
331.5126843159774
 20
223.9852551569941
 30
0.0
 11
330.3626843159774
 21
225.1352551569941
 31
0.0
  0
LINE
  5
18D0
330
18
100
AcDbEntity
  8
外形線
 48
0.5
100
AcDbLine
 10
331.6043036361366
 20
222.7852551569941
 30
0.0
 11
331.6043036361366
 21
221.6352551569941
 31
0.0
  0
ARC
  5
18D1
330
18
100
AcDbEntity
  8
外形線
100
AcDbCircle
 10
331.964858763683
 20
223.3852551569941
 30
0.0
 40
0.7
100
AcDbArc
 50
121.0027191338818
 51
238.9972808661273
  0
LINE
  5
18D2
330
18
100
AcDbEntity
  8
ﾊｯﾁﾝｸ
100
AcDbLine
 10
331.6043036361366
 20
222.4794222744617
 30
0.0
 11
331.2984707536042
 21
222.7852551569942
 31
0.0
  0
LINE
  5
18D3
330
18
100
AcDbEntity
  8
ﾊｯﾁﾝｸ
100
AcDbLine
 10
330.4190093902026
 20
221.6352551569941
 30
0.0
 11
331.5690093902028
 21
222.7852551569942
 31
0.0
  0
LINE
  5
18D4
330
18
100
AcDbEntity
  8
外形線
100
AcDbLine
 10
333.1043036361366
 20
227.621755156994
 30
0.0
 11
332.0043036361365
 21
228.567255156994
 31
0.0
  0
LINE
  5
18D5
330
18
100
AcDbEntity
  8
外形線
100
AcDbLine
 10
332.0043036361365
 20
228.5672551569941
 30
0.0
 11
333.1043036361366
 21
229.512755156994
 31
0.0
  0
LINE
  5
18D6
330
18
100
AcDbEntity
  8
外形線
100
AcDbLine
 10
332.0043036361365
 20
224.785255156994
 30
0.0
 11
333.1043036361366
 21
225.7307551569941
 31
0.0
  0
LINE
  5
18D7
330
18
100
AcDbEntity
  8
外形線
100
AcDbLine
 10
333.1043036361366
 20
225.7307551569941
 30
0.0
 11
332.0043036361365
 21
226.676255156994
 31
0.0
  0
LINE
  5
18D8
330
18
100
AcDbEntity
  8
外形線
100
AcDbLine
 10
332.0043036361365
 20
226.676255156994
 30
0.0
 11
333.1043036361366
 21
227.621755156994
 31
0.0
  0
LINE
  5
18D9
330
18
100
AcDbEntity
  8
外形線
100
AcDbLine
 10
333.1043036361366
 20
235.1857551569941
 30
0.0
 11
332.6043036361367
 21
236.135255156994
 31
0.0
  0
LINE
  5
18DA
330
18
100
AcDbEntity
  8
外形線
100
AcDbLine
 10
332.0043036361365
 20
230.458255156994
 30
0.0
 11
333.1043036361366
 21
231.4037551569941
 31
0.0
  0
LINE
  5
18DB
330
18
100
AcDbEntity
  8
外形線
100
AcDbLine
 10
333.1043036361366
 20
231.4037551569941
 30
0.0
 11
332.0043036361365
 21
232.349255156994
 31
0.0
  0
LINE
  5
18DC
330
18
100
AcDbEntity
  8
外形線
100
AcDbLine
 10
332.0043036361365
 20
232.349255156994
 30
0.0
 11
333.1043036361366
 21
233.294755156994
 31
0.0
  0
LINE
  5
18DD
330
18
100
AcDbEntity
  8
外形線
100
AcDbLine
 10
333.1043036361366
 20
233.294755156994
 30
0.0
 11
332.0043036361365
 21
234.240255156994
 31
0.0
  0
LINE
  5
18DE
330
18
100
AcDbEntity
  8
外形線
100
AcDbLine
 10
332.0043036361365
 20
234.2402551569941
 30
0.0
 11
333.1043036361366
 21
235.1857551569941
 31
0.0
  0
LINE
  5
18DF
330
18
100
AcDbEntity
  8
外形線
 48
0.5
100
AcDbLine
 10
332.6043036361367
 20
238.135255156994
 30
0.0
 11
332.6043036361367
 21
236.135255156994
 31
0.0
  0
LINE
  5
18E0
330
18
100
AcDbEntity
  8
外形線
 48
0.5
100
AcDbLine
 10
332.3543036361368
 20
236.9352551569941
 30
0.0
 11
332.3543036361367
 21
236.335255156994
 31
0.0
  0
LINE
  5
18E1
330
18
100
AcDbEntity
  8
外形線
 48
0.5
100
AcDbLine
 10
332.1543036361367
 20
236.135255156994
 30
0.0
 11
332.3543036361367
 21
236.335255156994
 31
0.0
  0
LINE
  5
18E2
330
18
100
AcDbEntity
  8
外形線
100
AcDbLine
 10
332.9543036361367
 20
241.135255156994
 30
0.0
 11
332.9543036361366
 21
238.135255156994
 31
0.0
  0
ARC
  5
18E3
330
18
100
AcDbEntity
  8
外形線
100
AcDbCircle
 10
332.8043036361368
 20
237.4714454217322
 30
0.0
 40
0.7
100
AcDbArc
 50
108.5043392265129
 51
229.9947991151399
  0
LINE
  5
18EA
330
18
100
AcDbEntity
  8
ﾊｯﾁﾝｸ
100
AcDbLine
 10
409.0370494967897
 20
223.9852551569941
 30
0.0
 11
407.8870494967898
 21
225.1352551569941
 31
0.0
  0
LINE
  5
18EB
330
18
100
AcDbEntity
  8
外形線
 48
0.5
100
AcDbLine
 10
409.128668816949
 20
225.1352551569941
 30
0.0
 11
409.128668816949
 21
223.9852551569941
 31
0.0
  0
LINE
  5
18EC
330
18
100
AcDbEntity
  8
ﾊｯﾁﾝｸ
100
AcDbLine
 10
408.879161008642
 20
223.9852551569941
 30
0.0
 11
409.128668816949
 21
224.2347629653011
 31
0.0
  0
LINE
  5
18ED
330
18
100
AcDbEntity
  8
外形線
 48
0.5
100
AcDbLine
 10
404.1286688169491
 20
225.1352551569941
 30
0.0
 11
404.1286688169491
 21
223.9852551569941
 31
0.0
  0
LINE
  5
18EE
330
18
100
AcDbEntity
  8
ﾊｯﾁﾝｸ
100
AcDbLine
 10
406.1179090281085
 20
223.9852551569941
 30
0.0
 11
407.2679090281085
 21
225.1352551569941
 31
0.0
  0
LINE
  5
18EF
330
18
100
AcDbEntity
  8
ﾊｯﾁﾝｸ
100
AcDbLine
 10
404.9287590980959
 20
223.9852551569941
 30
0.0
 11
404.128668816949
 21
224.7853454381411
 31
0.0
  0
LINE
  5
18F0
330
18
100
AcDbEntity
  8
ﾊｯﾁﾝｸ
100
AcDbLine
 10
404.7708706099482
 20
223.9852551569941
 30
0.0
 11
405.882836130589
 21
225.0972206776349
 31
0.0
  0
LINE
  5
18F1
330
18
100
AcDbEntity
  8
ﾊｯﾁﾝｸ
100
AcDbLine
 10
406.2757975162563
 20
223.9852551569941
 30
0.0
 11
405.1257975162563
 21
225.1352551569941
 31
0.0
  0
LINE
  5
18F2
330
18
100
AcDbEntity
  8
ﾊｯﾁﾝｸ
100
AcDbLine
 10
407.6228359344167
 20
223.9852551569941
 30
0.0
 11
406.4728359344167
 21
225.1352551569941
 31
0.0
  0
LINE
  5
18F3
330
18
100
AcDbEntity
  8
ﾊｯﾁﾝｸ
100
AcDbLine
 10
407.4649474462689
 20
223.9852551569941
 30
0.0
 11
408.6149474462689
 21
225.1352551569941
 31
0.0
  0
LINE
  5
18F4
330
18
100
AcDbEntity
  8
外形線
100
AcDbLine
 10
404.1286688169489
 20
222.7852551569941
 30
0.0
 11
409.128668816949
 21
222.7852551569941
 31
0.0
  0
LINE
  5
18F5
330
18
100
AcDbEntity
  8
ﾊｯﾁﾝｸ
100
AcDbLine
 10
405.1149474462689
 20
221.6352551569941
 30
0.0
 11
406.264947446269
 21
222.7852551569942
 31
0.0
  0
LINE
  5
18F6
330
18
100
AcDbEntity
  8
ﾊｯﾁﾝｸ
100
AcDbLine
 10
405.9317206799355
 20
221.6352551569941
 30
0.0
 11
404.7817206799355
 21
222.7852551569942
 31
0.0
  0
LINE
  5
18F7
330
18
100
AcDbEntity
  8
外形線
100
AcDbLine
 10
404.1286688169491
 20
223.9852551569941
 30
0.0
 11
409.128668816949
 21
223.9852551569941
 31
0.0
  0
LINE
  5
18F8
330
18
100
AcDbEntity
  8
外形線
100
AcDbLine
 10
404.128668816949
 20
221.6352551569941
 30
0.0
 11
409.128668816949
 21
221.6352551569941
 31
0.0
  0
LINE
  5
18F9
330
18
100
AcDbEntity
  8
外形線
 48
0.5
100
AcDbLine
 10
404.1286688169491
 20
222.7852551569941
 30
0.0
 11
404.128668816949
 21
221.6352551569941
 31
0.0
  0
LINE
  5
18FA
330
18
100
AcDbEntity
  8
ﾊｯﾁﾝｸ
100
AcDbLine
 10
404.5846822617753
 20
221.6352551569941
 30
0.0
 11
404.1286688169489
 21
222.0912686018204
 31
0.0
  0
LINE
  5
18FB
330
18
100
AcDbEntity
  8
ﾊｯﾁﾝｸ
100
AcDbLine
 10
404.1298745487493
 20
221.9972206776349
 30
0.0
 11
404.9179090281086
 21
222.7852551569941
 31
0.0
  0
ARC
  5
18FC
330
18
100
AcDbEntity
  8
外形線
100
AcDbCircle
 10
403.7681136894025
 20
223.3852551569941
 30
0.0
 40
0.7
100
AcDbArc
 50
301.0027191338726
 51
58.99728086611813
  0
LINE
  5
18FD
330
18
100
AcDbEntity
  8
ﾊｯﾁﾝｸ
100
AcDbLine
 10
407.943374571015
 20
221.6352551569941
 30
0.0
 11
409.0933745710152
 21
222.7852551569942
 31
0.0
  0
LINE
  5
18FE
330
18
100
AcDbEntity
  8
ﾊｯﾁﾝｸ
100
AcDbLine
 10
409.128668816949
 20
222.4794222744617
 30
0.0
 11
408.8228359344165
 21
222.7852551569942
 31
0.0
  0
LINE
  5
18FF
330
18
100
AcDbEntity
  8
外形線
 48
0.5
100
AcDbLine
 10
409.128668816949
 20
222.7852551569941
 30
0.0
 11
409.128668816949
 21
221.6352551569941
 31
0.0
  0
ARC
  5
1900
330
18
100
AcDbEntity
  8
外形線
100
AcDbCircle
 10
409.4892239444954
 20
223.3852551569941
 30
0.0
 40
0.7
100
AcDbArc
 50
121.0027191338818
 51
238.9972808661273
  0
LINE
  5
1901
330
18
100
AcDbEntity
  8
ﾊｯﾁﾝｸ
100
AcDbLine
 10
406.5291610086419
 20
221.6352551569941
 30
0.0
 11
407.679161008642
 21
222.7852551569941
 31
0.0
  0
LINE
  5
1902
330
18
100
AcDbEntity
  8
ﾊｯﾁﾝｸ
100
AcDbLine
 10
407.2787590980958
 20
221.6352551569941
 30
0.0
 11
406.1287590980959
 21
222.7852551569942
 31
0.0
  0
LINE
  5
1903
330
18
100
AcDbEntity
  8
ﾊｯﾁﾝｸ
100
AcDbLine
 10
408.6257975162562
 20
221.6352551569941
 30
0.0
 11
407.4757975162563
 21
222.7852551569941
 31
0.0
  0
LINE
  5
1904
330
18
100
AcDbEntity
  8
外形線
100
AcDbLine
 10
404.1286688169491
 20
225.1352551569941
 30
0.0
 11
409.128668816949
 21
225.1352551569941
 31
0.0
  0
LINE
  5
1905
330
18
100
AcDbEntity
  8
ﾊｯﾁﾝｸ
100
AcDbLine
 10
404.128668816949
 20
224.6900917821553
 30
0.0
 11
404.5738321917879
 21
225.1352551569941
 31
0.0
  0
DIMENSION
  5
193B
330
18
100
AcDbEntity
  8
外形線
100
AcDbDimension
  2
*D3
 10
389.2505274298921
 20
225.1352551569941
 30
0.0
 11
387.375527429892
 21
220.6353071711617
 31
0.0
 70
    32
 71
     5
 42
8.999895971664983
  3
STYLE2
100
AcDbAlignedDimension
 13
406.644136665818
 23
216.1353591853291
 33
0.0
 14
394.9935417955926
 24
225.1352551569941
 34
0.0
 50
90.0
100
AcDbRotatedDimension
  0
DIMENSION
  5
1948
330
18
100
AcDbEntity
  8
外形線
100
AcDbDimension
  2
*D4
 10
381.0757202890957
 20
253.6352551569941
 30
0.0
 11
379.2007202890957
 21
234.8853071711617
 31
0.0
 70
    32
 71
     5
 42
37.49989597166499
  3
STYLE2
100
AcDbAlignedDimension
 13
388.0005274298921
 23
216.1353591853291
 33
0.0
 14
382.8275620203765
 24
253.6352551569941
 34
0.0
 50
90.0
100
AcDbRotatedDimension
  0
DIMENSION
  5
1955
330
18
100
AcDbEntity
  8
外形線
100
AcDbDimension
  2
*D5
 10
292.3113763407623
 20
281.1352551569941
 30
0.0
 11
290.4363763407623
 21
248.6352551569941
 31
0.0
 70
    32
 71
     5
 42
64.99999999999997
  3
STYLE2
100
AcDbAlignedDimension
 13
329.1043036361366
 23
216.1352551569941
 33
0.0
 14
294.9573161407599
 24
281.1352551569941
 34
0.0
 50
90.0
100
AcDbRotatedDimension
  0
DIMENSION
  5
1962
330
18
100
AcDbEntity
  8
外形線
100
AcDbDimension
  2
*D6
 10
286.026009177536
 20
322.6352551569941
 30
0.0
 11
284.151009177536
 21
269.3852551569942
 31
0.0
 70
    32
 71
     5
 42
106.5
  3
STYLE2
100
AcDbAlignedDimension
 13
291.0613763407623
 23
216.1352551569941
 33
0.0
 14
286.5087825515744
 24
322.6352551569941
 34
0.0
 50
90.0
100
AcDbRotatedDimension
  0
TEXT
  5
1988
330
18
100
AcDbEntity
  8
文字
100
AcDbText
 10
322.5614808404622
 20
272.5168147286041
 30
0.0
 40
1.0
  1
4
  7
STYLE3
100
AcDbText
  0
ARC
  5
1989
330
18
100
AcDbEntity
  8
外形線
100
AcDbCircle
 10
325.9043036361365
 20
271.0612837454801
 30
0.0
 40
4.75
100
AcDbArc
 50
0.0
 51
180.0
  0
CIRCLE
  5
198B
330
18
100
AcDbEntity
  8
針
 62
     4
100
AcDbCircle
 10
325.9043036361365
 20
271.0612837454802
 30
0.0
 40
0.4
  0
CIRCLE
  5
198C
330
18
100
AcDbEntity
  8
針
100
AcDbCircle
 10
325.9043036361365
 20
271.0612837454802
 30
0.0
 40
0.75
  0
CIRCLE
  5
198D
330
18
100
AcDbEntity
  8
針
100
AcDbCircle
 10
325.9043036361365
 20
271.0612837454802
 30
0.0
 40
1.1
  0
HATCH
  5
198E
330
18
100
AcDbEntity
  8
針
100
AcDbHatch
 10
0.0
 20
0.0
 30
0.0
210
0.0
220
0.0
230
1.0
  2
SOLID
 70
     1
 71
     0
 91
        4
 92
        7
 72
     1
 73
     1
 93
        4
 10
326.089641953658
 20
272.1455575614779
 42
0.0
 10
326.0306706708103
 20
271.8005613472968
 42
-0.4142135623730951
 10
326.6435812379531
 20
270.9349167108065
 42
0.0
 10
326.9885774521342
 20
270.8759454279587
 42
0.4142135623730996
 97
        0
 92
        7
 72
     1
 73
     1
 93
        5
 10
326.0306706708103
 20
271.8005613472968
 42
0.0
 10
326.089641953658
 20
272.1455575614779
 42
0.3173569687788799
 10
324.9447570292943
 20
271.5991222986705
 42
0.0
 10
325.1357482385213
 20
271.1926553254395
 42
0.0
 10
325.1650260343198
 20
271.187650780154
 42
-0.4142135623730839
 97
        0
 92
        7
 72
     1
 73
     1
 93
        4
 10
326.9885774521342
 20
270.8759454279587
 42
0.0
 10
326.6435812379531
 20
270.9349167108065
 42
-0.4142135623730951
 10
325.7779366014627
 20
270.3220061436635
 42
0.0
 10
325.718965318615
 20
269.9770099294824
 42
0.4142135623730996
 97
        0
 92
        7
 72
     1
 73
     1
 93
        4
 10
325.7779366014627
 20
270.3220061436635
 42
-0.1036385141593389
 10
325.4917961102671
 20
270.4349152109088
 42
0.0
 10
325.7058668248592
 20
269.9793304969846
 42
0.003023315109616
 10
325.718965318615
 20
269.9770099294824
 42
0.0
 97
        0
 75
     0
 76
     1
 47
0.0223982890607777
 98
        4
 10
326.7664281621634
 20
271.5473908839919
 10
325.6438923151989
 20
271.8983314553624
 10
326.7663658574011
 20
270.6157525149234
 10
325.703601688791
 20
270.2520581474652
450
        0
451
        0
460
0.0
461
0.0
452
        0
462
0.0
453
        0
470

  0
HATCH
  5
198F
330
18
100
AcDbEntity
  8
針
100
AcDbHatch
 10
0.0
 20
0.0
 30
0.0
210
0.0
220
0.0
230
1.0
  2
SOLID
 70
     1
 71
     0
 91
        2
 92
        7
 72
     1
 73
     1
 93
        5
 10
324.8552149903134
 20
270.7305073660255
 42
0.31735696877887
 10
325.8645479856455
 20
269.9620023946631
 42
0.0
 10
326.1387646810153
 20
270.3176683141859
 42
0.0
 10
326.1298329857647
 20
270.345996032419
 42
-0.4142135623731173
 10
325.1890159230753
 20
270.8357543958519
 42
0.0
 97
        0
 92
        7
 72
     1
 73
     1
 93
        4
 10
324.8552149903134
 20
270.7305073660255
 42
0.0
 10
325.1890159230753
 20
270.8357543958519
 42
-0.4142135623730728
 10
325.6787742865082
 20
271.7765714585413
 42
0.0
 10
325.5735272566818
 20
272.1103723913032
 42
0.4142135623730844
 97
        0
 75
     0
 76
     1
 47
0.0161501285364394
 98
        2
 10
325.1942721550713
 20
270.4144646529451
 10
324.9958248752282
 20
271.0975655054268
450
        0
451
        0
460
0.0
461
0.0
452
        0
462
0.0
453
        0
470

  0
TEXT
  5
1990
330
18
100
AcDbEntity
  8
文字
100
AcDbText
 10
321.8770581855271
 20
270.5391727798112
 30
0.0
 40
1.0
  1
5
  7
STYLE3
100
AcDbText
  0
LINE
  5
1991
330
18
100
AcDbEntity
  8
目盛
100
AcDbLine
 10
321.1543036361363
 20
271.0612837454801
 30
0.0
 11
321.6543036361365
 21
271.0612837454801
 31
0.0
  0
LINE
  5
1992
330
18
100
AcDbEntity
  8
文字
100
AcDbLine
 10
330.6011786064799
 20
270.8628763036809
 30
0.0
 11
330.6053670904566
 21
271.0628324403759
 31
0.0
  0
ARC
  5
1993
330
18
100
AcDbEntity
  8
針
100
AcDbCircle
 10
327.3817807910253
 20
271.6753368838805
 30
0.0
 40
0.5
100
AcDbArc
 50
202.5682212975195
 51
268.0065408792652
  0
ARC
  5
1994
330
18
100
AcDbEntity
  8
針
100
AcDbCircle
 10
327.3547709159404
 20
270.3858989142795
 30
0.0
 40
0.5
100
AcDbArc
 50
89.59345912073466
 51
155.0317787024804
  0
LINE
  5
1995
330
18
100
AcDbEntity
  8
針
100
AcDbLine
 10
327.3643880879557
 20
271.175639481566
 30
0.0
 11
330.6053670904566
 21
271.0628324403759
 31
0.0
  0
LINE
  5
1996
330
18
100
AcDbEntity
  8
針
100
AcDbLine
 10
327.3583186246152
 20
270.8858863278842
 30
0.0
 11
330.6011786064799
 21
270.8628763036809
 31
0.0
  0
HATCH
  5
1997
330
18
100
AcDbEntity
  8
針
100
AcDbHatch
 10
0.0
 20
0.0
 30
0.0
210
0.0
220
0.0
230
1.0
  2
SOLID
 70
     1
 71
     0
 91
        1
 92
        7
 72
     1
 73
     1
 93
        7
 10
330.60117860648
 20
270.8628763036807
 42
0.0
 10
330.6032728484683
 20
270.9628543720284
 42
0.0
 10
330.6053670904566
 20
271.0628324403759
 42
0.0
 10
327.3643880879557
 20
271.175639481566
 42
-0.2935495917910092
 10
326.9200691801227
 20
271.4834452781305
 42
-0.2104432563350663
 10
326.9015002044659
 20
270.5969573472299
 42
-0.2935491884945053
 10
327.3583186246151
 20
270.8858863278842
 42
0.0
 97
        0
 75
     0
 76
     1
 47
0.0140573597042523
 98
        1
 10
328.7970015948455
 20
270.9420757900612
450
        0
451
        0
460
0.0
461
0.0
452
        0
462
0.0
453
        0
470

  0
TEXT
  5
1998
330
18
100
AcDbEntity
  8
文字
100
AcDbText
 10
329.1175085728261
 20
270.578259291991
 30
0.0
 40
1.0
  1
0
  7
STYLE3
100
AcDbText
  0
LINE
  5
1999
330
18
100
AcDbEntity
  8
目盛
100
AcDbLine
 10
330.6543036361363
 20
271.0612837454801
 30
0.0
 11
330.1543036361364
 21
271.0612837454801
 31
0.0
  0
TEXT
  5
199A
330
18
100
AcDbEntity
  8
文字
100
AcDbText
 10
324.254724908782
 20
273.782986097597
 30
0.0
 40
1.0
  1
3
  7
STYLE3
100
AcDbText
  0
LINE
  5
199B
330
18
100
AcDbEntity
  8
目盛
100
AcDbLine
 10
322.0614729128554
 20
273.8532636938693
 30
0.0
 11
322.465981410043
 21
273.5593710677232
 31
0.0
  0
LINE
  5
199C
330
18
100
AcDbEntity
  8
目盛
100
AcDbLine
 10
324.4364729128555
 20
275.5788021978821
 30
0.0
 11
324.5909814100429
 21
275.1032739397345
 31
0.0
  0
TEXT
  5
199D
330
18
100
AcDbEntity
  8
文字
100
AcDbText
 10
326.4483720002993
 20
273.9429316523281
 30
0.0
 40
1.0
  1
2
  7
STYLE3
100
AcDbText
  0
TEXT
  5
199E
330
18
100
AcDbEntity
  8
文字
100
AcDbText
 10
328.4601636861558
 20
272.6256795593782
 30
0.0
 40
1.0
  1
1
  7
STYLE3
100
AcDbText
  0
LINE
  5
199F
330
18
100
AcDbEntity
  8
目盛
100
AcDbLine
 10
327.3721343594174
 20
275.578802197882
 30
0.0
 11
327.2176258622299
 21
275.1032739397345
 31
0.0
  0
LINE
  5
19A0
330
18
100
AcDbEntity
  8
目盛
100
AcDbLine
 10
329.7471343594174
 20
273.8532636938693
 30
0.0
 11
329.34262586223
 21
273.5593710677231
 31
0.0
  0
TEXT
  5
19C3
330
18
100
AcDbEntity
  8
文字
100
AcDbText
 10
323.8077429155508
 20
285.7554057526264
 30
0.0
 40
1.199999999999999
  1
NO.57-SWA
  7
STYLE3
100
AcDbText
  0
ARC
  5
19F1
330
18
100
AcDbEntity
  8
外形線
100
AcDbCircle
 10
329.1043036361366
 20
217.3352551569941
 30
0.0
 40
1.199999999999999
100
AcDbArc
 50
189.59406822686
 51
350.4059317731399
  0
ARC
  5
19F2
330
18
100
AcDbEntity
  8
外形線
100
AcDbCircle
 10
406.644136665818
 20
217.3353591853291
 30
0.0
 40
1.199999999999999
100
AcDbArc
 50
189.59406822686
 51
350.4059317731399
  0
LINE
  5
1A1D
330
18
100
AcDbEntity
  8
外形線
100
AcDbLine
 10
311.0087525208769
 20
352.7122980819732
 30
0.0
 11
401.0087525208769
 21
352.7122980819732
 31
0.0
  0
LINE
  5
1A1E
330
18
100
AcDbEntity
  8
外形線
100
AcDbLine
 10
311.0087515208769
 20
353.9776720819732
 30
0.0
 11
401.0087515208769
 21
353.9776720819732
 31
0.0
  0
TEXT
  5
1A1F
330
18
100
AcDbEntity
  8
文字
100
AcDbText
 10
312.438082520877
 20
356.2902660819732
 30
0.0
 40
4.0
  1
Model No.57-SWA Dial Gauge
  7
STYLE3
100
AcDbText
  0
LINE
  5
1A51
330
18
100
AcDbEntity
  8
外形線
100
AcDbLine
 10
350.0330395208769
 20
192.4063490819732
 30
0.0
 11
490.8244575208768
 21
192.4063490819732
 31
0.0
  0
LINE
  5
1A52
330
18
100
AcDbEntity
  8
外形線
100
AcDbLine
 10
350.0330395208769
 20
181.6261430819732
 30
0.0
 11
490.8244575208768
 21
181.6261430819732
 31
0.0
  0
TEXT
  5
1A53
330
18
100
AcDbEntity
  8
0
  6
Continuous
100
AcDbText
 10
351.4905065208769
 20
183.5241330819732
 30
0.0
 40
2.1
  1
Design and specifications are subject to change without notice for future improvement.
  7
STYLE3
100
AcDbText
  0
TEXT
  5
1A54
330
18
100
AcDbEntity
  8
0
  6
Continuous
100
AcDbText
 10
351.7820005208769
 20
187.4532810819732
 30
0.0
 40
3.5
  1
仕様及び外観は予告なく変更される場合がございますのでご了承下さい。
  7
STYLE3
100
AcDbText
  0
TEXT
  5
1A55
330
18
100
AcDbEntity
  8
0
  6
Continuous
100
AcDbText
 10
351.1990155208769
 20
173.7595050819732
 30
0.0
 40
2.1
  1
3RD Angle Projection
  7
STYLE3
100
AcDbText
  0
TEXT
  5
1A56
330
18
100
AcDbEntity
  8
0
  6
Continuous
100
AcDbText
 10
353.8224585208769
 20
177.2557880819732
 30
0.0
 40
3.0
  1
三　　角　　法
  7
STYLE3
100
AcDbText
  0
LINE
  5
1A57
330
18
100
AcDbEntity
  8
外形線
100
AcDbLine
 10
350.0330395208769
 20
172.0113650819732
 30
0.0
 11
350.0330395208769
 21
192.4063490819732
 31
0.0
  0
LINE
  5
1A58
330
18
100
AcDbEntity
  8
外形線
100
AcDbLine
 10
452.0558065208769
 20
181.6261430819732
 30
0.0
 11
452.0558065208769
 21
172.0113650819732
 31
0.0
  0
LINE
  5
1A59
330
18
100
AcDbEntity
  8
外形線
100
AcDbLine
 10
422.3234565208769
 20
181.6261430819732
 30
0.0
 11
422.3234565208769
 21
172.0113650819732
 31
0.0
  0
LINE
  5
1A5A
330
18
100
AcDbEntity
  8
外形線
100
AcDbLine
 10
402.7933845208768
 20
181.6261430819732
 30
0.0
 11
402.7933845208768
 21
172.0113650819732
 31
0.0
  0
LINE
  5
1A5B
330
18
100
AcDbEntity
  8
外形線
100
AcDbLine
 10
385.3037675208769
 20
181.6261430819732
 30
0.0
 11
385.3037675208769
 21
172.0113650819732
 31
0.0
  0
TEXT
  5
1A5C
330
18
100
AcDbEntity
  8
0
  6
Continuous
100
AcDbText
 10
386.7612365208769
 20
177.2617430819732
 30
0.0
 40
3.0
  1
単位
  7
STYLE3
100
AcDbText
  0
TEXT
  5
1A5D
330
18
100
AcDbEntity
  8
0
  6
Continuous
100
AcDbText
 10
386.9329575208769
 20
173.7595060819732
 30
0.0
 40
2.1
  1
Unit
  7
STYLE3
100
AcDbText
  0
TEXT
  5
1A5E
330
18
100
AcDbEntity
  8
0
  6
Continuous
100
AcDbText
 10
404.0791325208768
 20
176.9703850819732
 30
0.0
 40
3.0
  1
尺 度
  7
STYLE3
100
AcDbText
  0
TEXT
  5
1A5F
330
18
100
AcDbEntity
  8
0
  6
Continuous
100
AcDbText
 10
394.8032845208769
 20
175.5076490819732
 30
0.0
 40
2.399999999999999
  1
mm
  7
STYLE3
100
AcDbText
  0
TEXT
  5
1A60
330
18
100
AcDbEntity
  8
0
  6
Continuous
100
AcDbText
 10
404.5423475208768
 20
174.0508630819732
 30
0.0
 40
2.1
  1
Scale
  7
STYLE3
100
AcDbText
  0
TEXT
  5
1A61
330
18
100
AcDbEntity
  8
0
  6
Continuous
100
AcDbText
 10
414.1616365208768
 20
175.7990060819732
 30
0.0
 40
2.399999999999999
  1
1/1
  7
STYLE3
100
AcDbText
  0
TEXT
  5
1A62
330
18
100
AcDbEntity
  8
0
  6
Continuous
100
AcDbText
 10
424.2554075208769
 20
173.7595070819732
 30
0.0
 40
2.1
  1
Date
  7
STYLE3
100
AcDbText
  0
TEXT
  5
1A63
330
18
100
AcDbEntity
  8
0
  6
Continuous
100
AcDbText
 10
423.8720465208769
 20
177.0925900819731
 30
0.0
 40
3.0
  1
日 付
  7
STYLE3
100
AcDbText
  0
TEXT
  5
1A64
330
18
100
AcDbEntity
  8
0
  6
Continuous
100
AcDbText
 10
433.0002155208768
 20
175.5076480819732
 30
0.0
 40
2.1
  1
2010.06.07
  7
STYLE3
100
AcDbText
  0
TEXT
  5
1A65
330
18
100
AcDbEntity
  8
0
  6
Continuous
100
AcDbText
 10
453.4047695208768
 20
177.5471450819732
 30
0.0
 40
3.0
  1
株式会社　尾崎製作所
  7
STYLE3
100
AcDbText
  0
TEXT
  5
1A66
330
18
100
AcDbEntity
  8
0
  6
Continuous
100
AcDbText
 10
454.2792485208768
 20
173.7595060819732
 30
0.0
 40
2.1
  1
OZAKI MFG. CO., LTD.
  7
STYLE3
100
AcDbText
  0
ENDSEC
  0
SECTION
  2
OBJECTS
  0
DICTIONARY
  5
C
330
0
100
AcDbDictionary
281
     1
  3
ACAD_COLOR
350
19CA
  3
ACAD_GROUP
350
D
  3
ACAD_IMAGE_DICT
350
E58
  3
ACAD_LAYOUT
350
19CD
  3
ACAD_MATERIAL
350
19C9
  3
ACAD_MLINESTYLE
350
1B
  3
ACAD_PLOTSETTINGS
350
19CE
  3
ACAD_PLOTSTYLENAME
350
19C7
  3
ACAD_TABLESTYLE
350
19CB
  3
ACDBVARIABLEDICTIONARY
350
1025
  0
DICTIONARY
  5
19CA
102
{ACAD_REACTORS
330
C
102
}
330
C
100
AcDbDictionary
281
     1
  0
DICTIONARY
  5
D
102
{ACAD_REACTORS
330
C
102
}
330
C
100
AcDbDictionary
281
     1
  0
DICTIONARY
  5
E58
102
{ACAD_REACTORS
330
C
102
}
330
C
100
AcDbDictionary
281
     1
  3
ROGO01
350
E59
  0
DICTIONARY
  5
19CD
102
{ACAD_REACTORS
330
C
102
}
330
C
100
AcDbDictionary
281
     1
  3
Model
350
19CF
  3
レイアウト1
350
19D0
  0
DICTIONARY
  5
19C9
102
{ACAD_REACTORS
330
C
102
}
330
C
100
AcDbDictionary
281
     1
  0
DICTIONARY
  5
1B
102
{ACAD_REACTORS
330
C
102
}
330
C
100
AcDbDictionary
281
     1
  3
STANDARD
350
1C
  0
DICTIONARY
  5
19CE
102
{ACAD_REACTORS
330
C
102
}
330
C
100
AcDbDictionary
281
     1
  0
ACDBDICTIONARYWDFLT
  5
19C7
102
{ACAD_REACTORS
330
C
102
}
330
C
100
AcDbDictionary
281
     1
  3
Normal
350
19C8
100
AcDbDictionaryWithDefault
340
19C8
  0
DICTIONARY
  5
19CB
102
{ACAD_REACTORS
330
C
102
}
330
C
100
AcDbDictionary
281
     1
  3
Standard
350
19CC
  0
DICTIONARY
  5
1025
102
{ACAD_REACTORS
330
C
102
}
330
C
100
AcDbDictionary
281
     1
  3
CTABLESTYLE
350
19DE
  3
SORTENTS
350
1026
  0
IMAGEDEF
  5
E59
102
{ACAD_REACTORS
330
E58
102
}
330
E58
100
AcDbRasterImageDef
 90
        0
  1
D:\ﾃｽﾄ\rogo01.TIF
 10
3388.0
 20
4668.0
 11
0.0635
 21
0.0635
280
     1
281
     5
  0
LAYOUT
  5
19CF
102
{ACAD_REACTORS
330
19CD
102
}
330
19CD
100
AcDbPlotSettings
  1

  2
WIDR Printer
  4

  6

 40
0.0
 41
0.0
 42
0.0
 43
0.0
 44
0.0
 45
0.0
 46
0.0
 47
0.0
 48
0.0
 49
0.0
140
0.0
141
0.0
142
1.0
143
1.0
 70
  1712
 72
     0
 73
     0
 74
     0
  7
AutoCad LT 98.ctb
 75
     0
147
1.0
 76
     0
 77
     2
 78
   300
148
0.0
149
0.0
100
AcDbLayout
  1
Model
 70
     1
 71
     0
 10
0.0
 20
0.0
 11
12.0
 21
9.0
 12
0.0
 22
0.0
 32
0.0
 14
0.0
 24
0.0
 34
0.0
 15
0.0
 25
0.0
 35
0.0
146
0.0
 13
0.0
 23
0.0
 33
0.0
 16
1.0
 26
0.0
 36
0.0
 17
0.0
 27
1.0
 37
0.0
 76
     0
330
18
  0
LAYOUT
  5
19D0
102
{ACAD_REACTORS
330
19CD
102
}
330
19CD
100
AcDbPlotSettings
  1

  2
WIDR Printer
  4

  6

 40
0.0
 41
0.0
 42
0.0
 43
0.0
 44
0.0
 45
0.0
 46
0.0
 47
0.0
 48
0.0
 49
0.0
140
0.0
141
0.0
142
1.0
143
1.0
 70
   688
 72
     0
 73
     0
 74
     5
  7
AutoCad LT 98.ctb
 75
    16
147
1.0
 76
     0
 77
     2
 78
   300
148
0.0
149
0.0
100
AcDbLayout
  1
レイアウト1
 70
     1
 71
     1
 10
0.0
 20
0.0
 11
420.0
 21
297.0
 12
0.0
 22
0.0
 32
0.0
 14
1.000000000000000E+20
 24
1.000000000000000E+20
 34
1.000000000000000E+20
 15
-1.000000000000000E+20
 25
-1.000000000000000E+20
 35
-1.000000000000000E+20
146
0.0
 13
0.0
 23
0.0
 33
0.0
 16
1.0
 26
0.0
 36
0.0
 17
0.0
 27
1.0
 37
0.0
 76
     0
330
15
  0
MLINESTYLE
  5
1C
102
{ACAD_REACTORS
330
1B
102
}
330
1B
100
AcDbMlineStyle
  2
STANDARD
 70
     0
  3

 62
   256
 51
90.0
 52
90.0
 71
     2
 49
0.5
 62
   256
  6
BYLAYER
 49
-0.5
 62
   256
  6
BYLAYER
  0
ACDBPLACEHOLDER
  5
19C8
102
{ACAD_REACTORS
330
19C7
102
}
330
19C7
  0
ACAD_PROXY_OBJECT
  5
19CC
102
{ACAD_REACTORS
330
19CB
102
}
330
19CB
100
AcDbProxyObject
 90
      499
 91
      505
 95
  2555929
 70
     0
 93
     1849
310
4214DD185B99185C992420000000000000F83F0000000000003E0FC00000000000004901028000000C1008070000C3001FDFF8000000C1003FBFF000000182007F7FE00000030400FEFFC00000060801FDFF8000000C1003FBFF000000182000000000000000C2020B0000001820100E000186003FBFF000000182007F7FE0
310
0000030400FEFFC00000060801FDFF8000000C1003FBFF000000182007F7FE0000003040000000000000012404160000003040201C00030C007F7FE00000030400FEFFC00000060801FDFF8000000C1003FBFF000000182007F7FE00000030400FEFFC000000608000
340
F
340
F
340
F
 94
        0
  0
DICTIONARYVAR
  5
19DE
102
{ACAD_REACTORS
330
1025
102
}
330
1025
100
DictionaryVariables
280
     0
  1
STANDARD
  0
DICTIONARYVAR
  5
1026
102
{ACAD_REACTORS
330
1025
102
}
330
1025
100
DictionaryVariables
280
     0
  1
96
  0
ENDSEC
  0
EOF
