  0
SECTION
  2
HEADER
  9
$ACADVER
  1
AC1018
  9
$ACADMAINTVER
 70
     0
  9
$DWGCODEPAGE
  3
ANSI_932
  9
$INSBASE
 10
0.0
 20
0.0
 30
0.0
  9
$EXTMIN
 10
236.4547207419769
 20
171.6261346777577
 30
-0.000000000000013
  9
$EXTMAX
 10
491.914085355922
 20
367.0669833761362
 30
0.0000000000000023
  9
$LIMMIN
 10
0.0
 20
0.0
  9
$LIMMAX
 10
420.0
 20
297.0
  9
$ORTHOMODE
 70
     0
  9
$REGENMODE
 70
     1
  9
$FILLMODE
 70
     1
  9
$QTEXTMODE
 70
     0
  9
$MIRRTEXT
 70
     1
  9
$LTSCALE
 40
1.0
  9
$ATTMODE
 70
     1
  9
$TEXTSIZE
 40
3.0
  9
$TRACEWID
 40
1.0
  9
$TEXTSTYLE
  7
STYLE3
  9
$CLAYER
  8
寸法線
  9
$CELTYPE
  6
BYLAYER
  9
$CECOLOR
 62
   256
  9
$CELTSCALE
 40
1.0
  9
$DISPSILH
 70
     0
  9
$DIMSCALE
 40
1.0
  9
$DIMASZ
 40
2.5
  9
$DIMEXO
 40
0.0
  9
$DIMDLI
 40
3.75
  9
$DIMRND
 40
0.0
  9
$DIMDLE
 40
0.0
  9
$DIMEXE
 40
1.25
  9
$DIMTP
 40
0.0
  9
$DIMTM
 40
0.0
  9
$DIMTXT
 40
2.5
  9
$DIMCEN
 40
2.5
  9
$DIMTSZ
 40
0.0
  9
$DIMTOL
 70
     0
  9
$DIMLIM
 70
     0
  9
$DIMTIH
 70
     0
  9
$DIMTOH
 70
     0
  9
$DIMSE1
 70
     0
  9
$DIMSE2
 70
     0
  9
$DIMTAD
 70
     1
  9
$DIMZIN
 70
     8
  9
$DIMBLK
  1

  9
$DIMASO
 70
     1
  9
$DIMSHO
 70
     1
  9
$DIMPOST
  1

  9
$DIMAPOST
  1

  9
$DIMALT
 70
     0
  9
$DIMALTD
 70
     4
  9
$DIMALTF
 40
0.0394
  9
$DIMLFAC
 40
1.0
  9
$DIMTOFL
 70
     1
  9
$DIMTVP
 40
0.0
  9
$DIMTIX
 70
     0
  9
$DIMSOXD
 70
     0
  9
$DIMSAH
 70
     1
  9
$DIMBLK1
  1
OPEN
  9
$DIMBLK2
  1
OPEN
  9
$DIMSTYLE
  2
STYLE2
  9
$DIMCLRD
 70
     2
  9
$DIMCLRE
 70
     2
  9
$DIMCLRT
 70
     6
  9
$DIMTFAC
 40
1.0
  9
$DIMGAP
 40
0.625
  9
$DIMJUST
 70
     0
  9
$DIMSD1
 70
     0
  9
$DIMSD2
 70
     0
  9
$DIMTOLJ
 70
     1
  9
$DIMTZIN
 70
     0
  9
$DIMALTZ
 70
     0
  9
$DIMALTTZ
 70
     0
  9
$DIMUPT
 70
     0
  9
$DIMDEC
 70
     1
  9
$DIMTDEC
 70
     4
  9
$DIMALTU
 70
     8
  9
$DIMALTTD
 70
     4
  9
$DIMTXSTY
  7
STYLE3
  9
$DIMAUNIT
 70
     0
  9
$DIMADEC
 70
     0
  9
$DIMALTRND
 40
0.0
  9
$DIMAZIN
 70
     0
  9
$DIMDSEP
 70
    46
  9
$DIMATFIT
 70
     3
  9
$DIMFRAC
 70
     0
  9
$DIMLDRBLK
  1

  9
$DIMLUNIT
 70
     2
  9
$DIMLWD
 70
    -2
  9
$DIMLWE
 70
    -2
  9
$DIMTMOVE
 70
     0
  9
$LUNITS
 70
     2
  9
$LUPREC
 70
     4
  9
$SKETCHINC
 40
1.0
  9
$FILLETRAD
 40
0.0
  9
$AUNITS
 70
     0
  9
$AUPREC
 70
     0
  9
$MENU
  1
.
  9
$ELEVATION
 40
0.0
  9
$PELEVATION
 40
0.0
  9
$THICKNESS
 40
0.0
  9
$LIMCHECK
 70
     0
  9
$CHAMFERA
 40
0.3
  9
$CHAMFERB
 40
0.3
  9
$CHAMFERC
 40
20.0
  9
$CHAMFERD
 40
0.0
  9
$SKPOLY
 70
     0
  9
$TDCREATE
 40
2450717.578556713
  9
$TDUCREATE
 40
2450717.203556713
  9
$TDUPDATE
 40
2455357.486300451
  9
$TDUUPDATE
 40
2455357.111300451
  9
$TDINDWG
 40
1.5936414005
  9
$TDUSRTIMER
 40
1.5936414005
  9
$USRTIMER
 70
     1
  9
$ANGBASE
 50
0.0
  9
$ANGDIR
 70
     0
  9
$PDMODE
 70
     0
  9
$PDSIZE
 40
0.0
  9
$PLINEWID
 40
0.0
  9
$SPLFRAME
 70
     0
  9
$SPLINETYPE
 70
     6
  9
$SPLINESEGS
 70
     8
  9
$HANDSEED
  5
2732
  9
$SURFTAB1
 70
     6
  9
$SURFTAB2
 70
     6
  9
$SURFTYPE
 70
     6
  9
$SURFU
 70
     6
  9
$SURFV
 70
     6
  9
$UCSBASE
  2

  9
$UCSNAME
  2

  9
$UCSORG
 10
0.0
 20
0.0
 30
0.0
  9
$UCSXDIR
 10
1.0
 20
0.0
 30
0.0
  9
$UCSYDIR
 10
0.0
 20
1.0
 30
0.0
  9
$UCSORTHOREF
  2

  9
$UCSORTHOVIEW
 70
     0
  9
$UCSORGTOP
 10
0.0
 20
0.0
 30
0.0
  9
$UCSORGBOTTOM
 10
0.0
 20
0.0
 30
0.0
  9
$UCSORGLEFT
 10
0.0
 20
0.0
 30
0.0
  9
$UCSORGRIGHT
 10
0.0
 20
0.0
 30
0.0
  9
$UCSORGFRONT
 10
0.0
 20
0.0
 30
0.0
  9
$UCSORGBACK
 10
0.0
 20
0.0
 30
0.0
  9
$PUCSBASE
  2

  9
$PUCSNAME
  2

  9
$PUCSORG
 10
0.0
 20
0.0
 30
0.0
  9
$PUCSXDIR
 10
1.0
 20
0.0
 30
0.0
  9
$PUCSYDIR
 10
0.0
 20
1.0
 30
0.0
  9
$PUCSORTHOREF
  2

  9
$PUCSORTHOVIEW
 70
     0
  9
$PUCSORGTOP
 10
0.0
 20
0.0
 30
0.0
  9
$PUCSORGBOTTOM
 10
0.0
 20
0.0
 30
0.0
  9
$PUCSORGLEFT
 10
0.0
 20
0.0
 30
0.0
  9
$PUCSORGRIGHT
 10
0.0
 20
0.0
 30
0.0
  9
$PUCSORGFRONT
 10
0.0
 20
0.0
 30
0.0
  9
$PUCSORGBACK
 10
0.0
 20
0.0
 30
0.0
  9
$USERI1
 70
     0
  9
$USERI2
 70
     0
  9
$USERI3
 70
     0
  9
$USERI4
 70
     0
  9
$USERI5
 70
     0
  9
$USERR1
 40
0.0
  9
$USERR2
 40
0.0
  9
$USERR3
 40
0.0
  9
$USERR4
 40
0.0
  9
$USERR5
 40
0.0
  9
$WORLDVIEW
 70
     1
  9
$SHADEDGE
 70
     3
  9
$SHADEDIF
 70
    70
  9
$TILEMODE
 70
     1
  9
$MAXACTVP
 70
    48
  9
$PINSBASE
 10
0.0
 20
0.0
 30
0.0
  9
$PLIMCHECK
 70
     0
  9
$PEXTMIN
 10
1.000000000000000E+20
 20
1.000000000000000E+20
 30
1.000000000000000E+20
  9
$PEXTMAX
 10
-1.000000000000000E+20
 20
-1.000000000000000E+20
 30
-1.000000000000000E+20
  9
$PLIMMIN
 10
0.0
 20
0.0
  9
$PLIMMAX
 10
420.0
 20
297.0
  9
$UNITMODE
 70
     0
  9
$VISRETAIN
 70
     1
  9
$PLINEGEN
 70
     0
  9
$PSLTSCALE
 70
     1
  9
$TREEDEPTH
 70
  3020
  9
$CMLSTYLE
  2
STANDARD
  9
$CMLJUST
 70
     0
  9
$CMLSCALE
 40
20.0
  9
$PROXYGRAPHICS
 70
     1
  9
$MEASUREMENT
 70
     1
  9
$CELWEIGHT
370
    -1
  9
$ENDCAPS
280
     0
  9
$JOINSTYLE
280
     0
  9
$LWDISPLAY
290
     0
  9
$INSUNITS
 70
     0
  9
$HYPERLINKBASE
  1

  9
$STYLESHEET
  1
AutoCAD LT 98.ctb
  9
$XEDIT
290
     1
  9
$CEPSNTYPE
380
     0
  9
$PSTYLEMODE
290
     1
  9
$FINGERPRINTGUID
  2
{51CE6F66-0FC4-4493-9C73-755450A54EB7}
  9
$VERSIONGUID
  2
{D2BE825E-FB16-4236-A37F-348870802940}
  9
$EXTNAMES
290
     1
  9
$PSVPSCALE
 40
0.0
  9
$OLESTARTUP
290
     0
  9
$SORTENTS
280
    96
  9
$INDEXCTL
280
     0
  9
$HIDETEXT
280
     0
  9
$XCLIPFRAME
290
     0
  9
$HALOGAP
280
     0
  9
$OBSCOLOR
 70
   257
  9
$OBSLTYPE
280
     0
  9
$INTERSECTIONDISPLAY
280
     0
  9
$INTERSECTIONCOLOR
 70
   257
  9
$DIMASSOC
280
     1
  9
$PROJECTNAME
  1

  0
ENDSEC
  0
SECTION
  2
CLASSES
  0
CLASS
  1
HATCH
  2
AcDbHatch
  3
ObjectDBX Classes
 90
        0
 91
       14
280
     0
281
     1
  0
CLASS
  1
LWPOLYLINE
  2
AcDbPolyline
  3
ObjectDBX Classes
 90
        0
 91
        3
280
     0
281
     1
  0
CLASS
  1
IMAGEDEF
  2
AcDbRasterImageDef
  3
ISM
 90
        0
 91
        1
280
     0
281
     0
  0
CLASS
  1
DICTIONARYVAR
  2
AcDbDictionaryVar
  3
ObjectDBX Classes
 90
        0
 91
        2
280
     0
281
     0
  0
CLASS
  1
ACDBDICTIONARYWDFLT
  2
AcDbDictionaryWithDefault
  3
ObjectDBX Classes
 90
        0
 91
        1
280
     0
281
     0
  0
CLASS
  1
TABLESTYLE
  2
AcDbTableStyle
  3
ObjectDBX Classes
 90
     2047
 91
        1
280
     0
281
     0
  0
CLASS
  1
SORTENTSTABLE
  2
AcDbSortentsTable
  3
ObjectDBX Classes
 90
        0
 91
        0
280
     0
281
     0
  0
ENDSEC
  0
SECTION
  2
TABLES
  0
TABLE
  2
VPORT
  5
8
330
0
100
AcDbSymbolTable
 70
     2
  0
VPORT
  5
2731
330
8
100
AcDbSymbolTableRecord
100
AcDbViewportTableRecord
  2
*Active
 70
     0
 10
0.0
 20
0.0
 11
1.0
 21
1.0
 12
364.1844030489494
 22
269.346559026947
 13
0.0
 23
0.0
 14
10.0
 24
10.0
 15
10.0
 25
10.0
 16
0.0
 26
0.0
 36
1.0
 17
0.0
 27
0.0
 37
0.0
 40
196.9270908938034
 41
1.530456852791878
 42
50.0
 43
0.0
 44
0.0
 50
0.0
 51
0.0
 71
     0
 72
   100
 73
     1
 74
     1
 75
     0
 76
     0
 77
     0
 78
     0
281
     0
 65
     1
110
0.0
120
0.0
130
0.0
111
1.0
121
0.0
131
0.0
112
0.0
122
1.0
132
0.0
 79
     0
146
0.0
  0
ENDTAB
  0
TABLE
  2
LTYPE
  5
5
330
0
100
AcDbSymbolTable
 70
     4
  0
LTYPE
  5
12
330
5
100
AcDbSymbolTableRecord
100
AcDbLinetypeTableRecord
  2
BYBLOCK
 70
     0
  3

 72
    65
 73
     0
 40
0.0
  0
LTYPE
  5
13
330
5
100
AcDbSymbolTableRecord
100
AcDbLinetypeTableRecord
  2
BYLAYER
 70
     0
  3

 72
    65
 73
     0
 40
0.0
  0
LTYPE
  5
14
330
5
100
AcDbSymbolTableRecord
100
AcDbLinetypeTableRecord
  2
CONTINUOUS
 70
     0
  3
Solid line
 72
    65
 73
     0
 40
0.0
  0
LTYPE
  5
22
330
5
100
AcDbSymbolTableRecord
100
AcDbLinetypeTableRecord
  2
CENTER2
 70
     0
  3
Center (.5x) ___ _ ___ _ ___ _ ___ _ ___ _ ___
 72
    65
 73
     4
 40
28.575
 49
19.05
 74
     0
 49
-3.174999999999999
 74
     0
 49
3.174999999999999
 74
     0
 49
-3.174999999999999
 74
     0
  0
ENDTAB
  0
TABLE
  2
LAYER
  5
2
330
0
100
AcDbSymbolTable
 70
    16
  0
LAYER
  5
E
330
2
100
AcDbSymbolTableRecord
100
AcDbLayerTableRecord
  2
0
 70
     0
 62
     7
  6
CONTINUOUS
370
    -3
390
2285
  0
LAYER
  5
25
330
2
100
AcDbSymbolTableRecord
100
AcDbLayerTableRecord
  2
外形線
 70
     0
 62
     7
  6
CONTINUOUS
370
    -3
390
2285
  0
LAYER
  5
26
330
2
100
AcDbSymbolTableRecord
100
AcDbLayerTableRecord
  2
寸法線
 70
     0
 62
     2
  6
CONTINUOUS
370
    -3
390
2285
  0
LAYER
  5
27
330
2
100
AcDbSymbolTableRecord
100
AcDbLayerTableRecord
  2
中心線
 70
     0
 62
     4
  6
CENTER2
370
    -3
390
2285
  0
LAYER
  5
2B
330
2
100
AcDbSymbolTableRecord
100
AcDbLayerTableRecord
  2
文字
 70
     0
 62
     6
  6
CONTINUOUS
370
    -3
390
2285
  0
LAYER
  5
2C
330
2
100
AcDbSymbolTableRecord
100
AcDbLayerTableRecord
  2
目盛
 70
     0
 62
    70
  6
CONTINUOUS
370
    -3
390
2285
  0
LAYER
  5
2D
330
2
100
AcDbSymbolTableRecord
100
AcDbLayerTableRecord
  2
針
 70
     0
 62
     5
  6
CONTINUOUS
370
    -3
390
2285
  0
LAYER
  5
53
330
2
100
AcDbSymbolTableRecord
100
AcDbLayerTableRecord
  2
DEFPOINTS
 70
     0
 62
     7
  6
CONTINUOUS
290
     0
370
    -3
390
2285
  0
LAYER
  5
A5
330
2
100
AcDbSymbolTableRecord
100
AcDbLayerTableRecord
  2
C
 70
     0
 62
     7
  6
CONTINUOUS
370
    -3
390
2285
  0
LAYER
  5
E00
330
2
100
AcDbSymbolTableRecord
100
AcDbLayerTableRecord
  2
ROGO
 70
     0
 62
     6
  6
CONTINUOUS
370
    -3
390
2285
  0
ENDTAB
  0
TABLE
  2
STYLE
  5
3
330
0
100
AcDbSymbolTable
 70
     4
  0
STYLE
  5
F
330
3
100
AcDbSymbolTableRecord
100
AcDbTextStyleTableRecord
  2
STANDARD
 70
     0
 40
0.0
 41
1.0
 50
0.0
 71
     0
 42
2.5
  3
txt
  4

  0
STYLE
  5
3F
330
3
100
AcDbSymbolTableRecord
100
AcDbTextStyleTableRecord
  2
STYLE3
 70
     0
 40
0.0
 41
1.0
 50
0.0
 71
     0
 42
3.0
  3
romans.shx
  4
bigfont.shx
  0
STYLE
  5
265C
330
3
100
AcDbSymbolTableRecord
100
AcDbTextStyleTableRecord
  2
4
 70
     0
 40
0.0
 41
1.0
 50
0.0
 71
     0
 42
3.0
  3
MS PGothic.ttf
  4

1001
ACAD
1000
MS PGothic
1071
    32818
  0
ENDTAB
  0
TABLE
  2
VIEW
  5
6
330
0
100
AcDbSymbolTable
 70
     0
  0
ENDTAB
  0
TABLE
  2
UCS
  5
7
330
0
100
AcDbSymbolTable
 70
     0
  0
ENDTAB
  0
TABLE
  2
APPID
  5
9
330
0
100
AcDbSymbolTable
 70
     2
  0
APPID
  5
10
330
9
100
AcDbSymbolTableRecord
100
AcDbRegAppTableRecord
  2
ACAD
 70
     0
  0
APPID
  5
22B4
330
9
100
AcDbSymbolTableRecord
100
AcDbRegAppTableRecord
  2
ACAD_PSEXT
 70
     0
  0
ENDTAB
  0
TABLE
  2
DIMSTYLE
  5
A
330
0
100
AcDbSymbolTable
 70
     3
100
AcDbDimStyleTable
 71
     1
340
66
  0
DIMSTYLE
105
1D
330
A
100
AcDbSymbolTableRecord
100
AcDbDimStyleTableRecord
  2
STANDARD
 70
     0
 41
2.5
 42
0.625
 43
3.75
 44
1.25
 73
     0
 74
     0
 77
     1
 78
     8
140
2.5
141
2.5
143
0.0394
147
0.625
171
     4
172
     1
273
     8
274
     4
277
     6
340
F
  0
DIMSTYLE
105
66
102
{ACAD_REACTORS
330
2266
330
2273
330
2280
330
2536
330
25EF
102
}
330
A
100
AcDbSymbolTableRecord
100
AcDbDimStyleTableRecord
  2
STYLE2
 70
     0
 41
2.5
 42
0.0
 43
3.75
 44
1.25
 73
     0
 74
     0
 77
     1
 78
     8
140
2.5
141
2.5
143
0.0394
147
0.625
171
     4
172
     1
173
     1
176
     2
177
     2
178
     6
271
     1
273
     8
274
     4
340
3F
341
45
343
45
344
45
  0
ENDTAB
  0
TABLE
  2
BLOCK_RECORD
  5
1
330
0
100
AcDbSymbolTable
 70
     8
  0
BLOCK_RECORD
  5
18
330
1
100
AcDbSymbolTableRecord
100
AcDbBlockTableRecord
  2
*MODEL_SPACE
340
228C
  0
BLOCK_RECORD
  5
15
330
1
100
AcDbSymbolTableRecord
100
AcDbBlockTableRecord
  2
*PAPER_SPACE
340
228D
  0
BLOCK_RECORD
  5
45
330
1
100
AcDbSymbolTableRecord
100
AcDbBlockTableRecord
  2
_OPEN
340
0
102
{BLKREFS
331
836
331
837
331
F35
331
F36
331
1A42
331
1A44
331
1C6C
331
1C6D
331
1C75
331
1C76
331
1C8E
331
1C8F
331
1C99
331
1C9A
331
26FA
331
26FB
331
2703
331
2704
331
270C
331
270D
331
2715
331
2716
331
2720
331
2721
102
}
  0
BLOCK_RECORD
  5
225A
330
1
100
AcDbSymbolTableRecord
100
AcDbBlockTableRecord
  2
*D2
340
0
  0
BLOCK_RECORD
  5
2267
330
1
100
AcDbSymbolTableRecord
100
AcDbBlockTableRecord
  2
*D3
340
0
  0
BLOCK_RECORD
  5
2274
330
1
100
AcDbSymbolTableRecord
100
AcDbBlockTableRecord
  2
*D4
340
0
  0
BLOCK_RECORD
  5
2537
330
1
100
AcDbSymbolTableRecord
100
AcDbBlockTableRecord
  2
*D5
340
0
  0
BLOCK_RECORD
  5
25F0
330
1
100
AcDbSymbolTableRecord
100
AcDbBlockTableRecord
  2
*D6
340
0
  0
ENDTAB
  0
ENDSEC
  0
SECTION
  2
BLOCKS
  0
BLOCK
  5
19
330
18
100
AcDbEntity
  8
0
100
AcDbBlockBegin
  2
*MODEL_SPACE
 70
     0
 10
0.0
 20
0.0
 30
0.0
  3
*MODEL_SPACE
  1

  0
ENDBLK
  5
1A
330
18
100
AcDbEntity
  8
0
100
AcDbBlockEnd
  0
BLOCK
  5
16
330
15
100
AcDbEntity
 67
     1
  8
0
100
AcDbBlockBegin
  2
*PAPER_SPACE
 70
     0
 10
0.0
 20
0.0
 30
0.0
  3
*PAPER_SPACE
  1

  0
ENDBLK
  5
17
330
15
100
AcDbEntity
 67
     1
  8
0
100
AcDbBlockEnd
  0
BLOCK
  5
46
330
45
100
AcDbEntity
  8
0
100
AcDbBlockBegin
  2
_OPEN
 70
     0
 10
0.0
 20
0.0
 30
0.0
  3
_OPEN
  1

  0
LINE
  5
47
330
45
100
AcDbEntity
  8
0
  6
ByBlock
 62
     0
100
AcDbLine
 10
-1.0
 20
0.1666666666666666
 30
0.0
 11
0.0
 21
0.0
 31
0.0
  0
LINE
  5
48
330
45
100
AcDbEntity
  8
0
  6
ByBlock
 62
     0
100
AcDbLine
 10
0.0
 20
0.0
 30
0.0
 11
-1.0
 21
-0.1666666666666666
 31
0.0
  0
LINE
  5
49
330
45
100
AcDbEntity
  8
0
  6
ByBlock
 62
     0
100
AcDbLine
 10
0.0
 20
0.0
 30
0.0
 11
-1.0
 21
0.0
 31
0.0
  0
ENDBLK
  5
4A
330
45
100
AcDbEntity
  8
0
100
AcDbBlockEnd
  0
BLOCK
  5
225B
330
225A
100
AcDbEntity
  8
0
100
AcDbBlockBegin
  2
*D2
 70
     1
 10
0.0
 20
0.0
 30
0.0
  3
*D2
  1

  0
LINE
  5
26F7
330
225A
100
AcDbEntity
  8
寸法線
 62
     2
370
    -2
100
AcDbLine
 10
409.6420489665722
 20
216.5664525452909
 30
0.0
 11
384.3249647924586
 21
216.5664525452909
 31
0.0
  0
LINE
  5
26F8
330
225A
100
AcDbEntity
  8
寸法線
 62
     2
370
    -2
100
AcDbLine
 10
383.1571758272711
 20
229.5664525452909
 30
0.0
 11
386.8249647924586
 21
229.5664525452909
 31
0.0
  0
LINE
  5
26F9
330
225A
100
AcDbEntity
  8
寸法線
 62
     2
370
    -2
100
AcDbLine
 10
385.5749647924586
 20
219.0664525452909
 30
0.0
 11
385.5749647924586
 21
227.0664525452909
 31
0.0
  0
INSERT
  5
26FA
330
225A
100
AcDbEntity
  8
寸法線
 62
     2
370
    -2
100
AcDbBlockReference
  2
_OPEN
 10
385.5749647924586
 20
216.5664525452909
 30
0.0
 41
2.5
 42
2.5
 43
2.5
 50
270.0
  0
INSERT
  5
26FB
330
225A
100
AcDbEntity
  8
寸法線
 62
     2
370
    -2
100
AcDbBlockReference
  2
_OPEN
 10
385.5749647924586
 20
229.5664525452909
 30
0.0
 41
2.5
 42
2.5
 43
2.5
 50
90.0
  0
MTEXT
  5
26FC
330
225A
100
AcDbEntity
  8
寸法線
 62
     6
100
AcDbMText
 10
383.6999647924585
 20
223.0664525452909
 30
0.0
 40
2.5
 41
0.0
 71
     5
 72
     1
  1
\A1;13
  7
STYLE3
 11
0.0000000000000001
 21
1.0
 31
0.0
 73
     1
 44
1.0
  0
POINT
  5
26FD
330
225A
100
AcDbEntity
  8
DEFPOINTS
 62
     0
100
AcDbPoint
 10
409.6420489665722
 20
216.5664525452909
 30
0.0
  0
POINT
  5
26FE
330
225A
100
AcDbEntity
  8
DEFPOINTS
 62
     0
100
AcDbPoint
 10
383.1571758272711
 20
229.5664525452909
 30
0.0
  0
POINT
  5
26FF
330
225A
100
AcDbEntity
  8
DEFPOINTS
 62
     0
100
AcDbPoint
 10
385.5749647924586
 20
229.5664525452909
 30
0.0
  0
ENDBLK
  5
2265
330
225A
100
AcDbEntity
  8
0
100
AcDbBlockEnd
  0
BLOCK
  5
2268
330
2267
100
AcDbEntity
  8
0
100
AcDbBlockBegin
  2
*D3
 70
     1
 10
0.0
 20
0.0
 30
0.0
  3
*D3
  1

  0
LINE
  5
2709
330
2267
100
AcDbEntity
  8
寸法線
 62
     2
370
    -2
100
AcDbLine
 10
327.1457303509393
 20
216.5664525452909
 30
0.0
 11
289.1028030555651
 21
216.5664525452909
 31
0.0
  0
LINE
  5
270A
330
2267
100
AcDbEntity
  8
寸法線
 62
     2
370
    -2
100
AcDbLine
 10
293.5772188223898
 20
285.9664525452909
 30
0.0
 11
289.1028030555651
 21
285.9664525452909
 31
0.0
  0
LINE
  5
270B
330
2267
100
AcDbEntity
  8
寸法線
 62
     2
370
    -2
100
AcDbLine
 10
290.3528030555651
 20
219.0664525452909
 30
0.0
 11
290.3528030555651
 21
283.4664525452909
 31
0.0
  0
INSERT
  5
270C
330
2267
100
AcDbEntity
  8
寸法線
 62
     2
370
    -2
100
AcDbBlockReference
  2
_OPEN
 10
290.3528030555651
 20
216.5664525452909
 30
0.0
 41
2.5
 42
2.5
 43
2.5
 50
270.0
  0
INSERT
  5
270D
330
2267
100
AcDbEntity
  8
寸法線
 62
     2
370
    -2
100
AcDbBlockReference
  2
_OPEN
 10
290.3528030555651
 20
285.9664525452909
 30
0.0
 41
2.5
 42
2.5
 43
2.5
 50
90.0
  0
MTEXT
  5
270E
330
2267
100
AcDbEntity
  8
寸法線
 62
     6
100
AcDbMText
 10
288.4778030555651
 20
251.266452545291
 30
0.0
 40
2.5
 41
0.0
 71
     5
 72
     1
  1
\A1;69.4
  7
STYLE3
 11
0.0000000000000001
 21
1.0
 31
0.0
 73
     1
 44
1.0
  0
POINT
  5
270F
330
2267
100
AcDbEntity
  8
DEFPOINTS
 62
     0
100
AcDbPoint
 10
327.1457303509393
 20
216.5664525452909
 30
0.0
  0
POINT
  5
2710
330
2267
100
AcDbEntity
  8
DEFPOINTS
 62
     0
100
AcDbPoint
 10
293.5772188223898
 20
285.9664525452909
 30
0.0
  0
POINT
  5
2711
330
2267
100
AcDbEntity
  8
DEFPOINTS
 62
     0
100
AcDbPoint
 10
290.3528030555651
 20
285.9664525452909
 30
0.0
  0
ENDBLK
  5
2272
330
2267
100
AcDbEntity
  8
0
100
AcDbBlockEnd
  0
BLOCK
  5
2275
330
2274
100
AcDbEntity
  8
0
100
AcDbBlockBegin
  2
*D4
 70
     1
 10
0.0
 20
0.0
 30
0.0
  3
*D4
  1

  0
LINE
  5
2700
330
2274
100
AcDbEntity
  8
寸法線
 62
     2
370
    -2
100
AcDbLine
 10
289.1028030555651
 20
216.5664525452909
 30
0.0
 11
282.9736903572138
 21
216.5664525452909
 31
0.0
  0
LINE
  5
2701
330
2274
100
AcDbEntity
  8
寸法線
 62
     2
370
    -2
100
AcDbLine
 10
284.8578284002844
 20
327.4664525452909
 30
0.0
 11
282.9736903572138
 21
327.4664525452909
 31
0.0
  0
LINE
  5
2702
330
2274
100
AcDbEntity
  8
寸法線
 62
     2
370
    -2
100
AcDbLine
 10
284.2236903572137
 20
219.0664525452909
 30
0.0
 11
284.2236903572137
 21
324.9664525452908
 31
0.0
  0
INSERT
  5
2703
330
2274
100
AcDbEntity
  8
寸法線
 62
     2
370
    -2
100
AcDbBlockReference
  2
_OPEN
 10
284.2236903572137
 20
216.5664525452909
 30
0.0
 41
2.5
 42
2.5
 43
2.5
 50
270.0
  0
INSERT
  5
2704
330
2274
100
AcDbEntity
  8
寸法線
 62
     2
370
    -2
100
AcDbBlockReference
  2
_OPEN
 10
284.2236903572137
 20
327.4664525452909
 30
0.0
 41
2.5
 42
2.5
 43
2.5
 50
90.0
  0
MTEXT
  5
2705
330
2274
100
AcDbEntity
  8
寸法線
 62
     6
100
AcDbMText
 10
282.3486903572137
 20
272.0164525452909
 30
0.0
 40
2.5
 41
0.0
 71
     5
 72
     1
  1
\A1;110.9
  7
STYLE3
 11
0.0000000000000001
 21
1.0
 31
0.0
 73
     1
 44
1.0
  0
POINT
  5
2706
330
2274
100
AcDbEntity
  8
DEFPOINTS
 62
     0
100
AcDbPoint
 10
289.1028030555651
 20
216.5664525452909
 30
0.0
  0
POINT
  5
2707
330
2274
100
AcDbEntity
  8
DEFPOINTS
 62
     0
100
AcDbPoint
 10
284.8578284002844
 20
327.4664525452909
 30
0.0
  0
POINT
  5
2708
330
2274
100
AcDbEntity
  8
DEFPOINTS
 62
     0
100
AcDbPoint
 10
284.2236903572137
 20
327.4664525452909
 30
0.0
  0
ENDBLK
  5
227F
330
2274
100
AcDbEntity
  8
0
100
AcDbBlockEnd
  0
BLOCK
  5
2543
330
2537
100
AcDbEntity
  8
0
100
AcDbBlockBegin
  2
*D5
 70
     1
 10
0.0
 20
0.0
 30
0.0
  3
*D5
  1

  0
LINE
  5
2712
330
2537
100
AcDbEntity
  8
寸法線
 62
     2
370
    -2
100
AcDbLine
 10
310.8822743836488
 20
269.7029965780002
 30
0.0
 11
302.0108525476482
 21
260.8315747419997
 31
0.0
  0
LINE
  5
2713
330
2537
100
AcDbEntity
  8
寸法線
 62
     2
370
    -2
100
AcDbLine
 10
343.4091863182299
 20
269.7029965780002
 30
0.0
 11
352.2806081542305
 21
260.8315747419996
 31
0.0
  0
ARC
  5
2714
330
2537
100
AcDbEntity
  8
寸法線
 62
     2
370
    -2
100
AcDbCircle
 10
327.1457303509394
 20
285.9664525452907
 30
0.0
 40
34.29608507800475
100
AcDbArc
 50
229.1774791727446
 51
310.8225208272552
  0
INSERT
  5
2715
330
2537
100
AcDbEntity
  8
寸法線
 62
     2
370
    -2
100
AcDbBlockReference
  2
_OPEN
 10
302.8947360241314
 20
261.7154582184828
 30
0.0
 41
2.5
 42
2.5
 43
2.5
 50
137.0887395863721
  0
INSERT
  5
2716
330
2537
100
AcDbEntity
  8
寸法線
 62
     2
370
    -2
100
AcDbBlockReference
  2
_OPEN
 10
351.3967246777474
 20
261.7154582184828
 30
0.0
 41
2.5
 42
2.5
 43
2.5
 50
42.91126041362768
  0
MTEXT
  5
2717
330
2537
100
AcDbEntity
  8
寸法線
 62
     6
100
AcDbMText
 10
327.1457303509393
 20
253.5453674672859
 30
0.0
 40
2.5
 41
0.0
 71
     5
 72
     1
  1
\A1;90°
  7
STYLE3
 73
     1
 44
1.0
  0
POINT
  5
2718
330
2537
100
AcDbEntity
  8
DEFPOINTS
 62
     0
100
AcDbPoint
 10
318.2692503602954
 20
252.8389782278388
 30
0.0
  0
POINT
  5
2719
330
2537
100
AcDbEntity
  8
DEFPOINTS
 62
     0
100
AcDbPoint
 10
325.802227466685
 20
284.6229496610363
 30
0.0
  0
POINT
  5
271A
330
2537
100
AcDbEntity
  8
DEFPOINTS
 62
     0
100
AcDbPoint
 10
328.4892332351937
 20
284.6229496610364
 30
0.0
  0
POINT
  5
271B
330
2537
100
AcDbEntity
  8
DEFPOINTS
 62
     0
100
AcDbPoint
 10
343.4091863182299
 20
269.7029965780002
 30
0.0
  0
POINT
  5
271C
330
2537
100
AcDbEntity
  8
DEFPOINTS
 62
     0
100
AcDbPoint
 10
310.8822743836488
 20
269.7029965780002
 30
0.0
  0
ENDBLK
  5
2544
330
2537
100
AcDbEntity
  8
0
100
AcDbBlockEnd
  0
BLOCK
  5
25FA
330
25F0
100
AcDbEntity
  8
0
100
AcDbBlockBegin
  2
*D6
 70
     1
 10
0.0
 20
0.0
 30
0.0
  3
*D6
  1

  0
LINE
  5
271D
330
25F0
100
AcDbEntity
  8
寸法線
 62
     2
370
    -2
100
AcDbLine
 10
416.6420489665721
 20
308.9664525452909
 30
0.0
 11
416.6420489665721
 21
336.3343573575843
 31
0.0
  0
LINE
  5
271E
330
25F0
100
AcDbEntity
  8
寸法線
 62
     2
370
    -2
100
AcDbLine
 10
409.642048966572
 20
332.5619304127663
 30
0.0
 11
409.642048966572
 21
336.3343573575843
 31
0.0
  0
LINE
  5
271F
330
25F0
100
AcDbEntity
  8
寸法線
 62
     2
370
    -2
100
AcDbLine
 10
414.1420489665721
 20
335.0843573575843
 30
0.0
 11
412.142048966572
 21
335.0843573575843
 31
0.0
  0
INSERT
  5
2720
330
25F0
100
AcDbEntity
  8
寸法線
 62
     2
370
    -2
100
AcDbBlockReference
  2
_OPEN
 10
416.6420489665721
 20
335.0843573575843
 30
0.0
 41
2.5
 42
2.5
 43
2.5
  0
INSERT
  5
2721
330
25F0
100
AcDbEntity
  8
寸法線
 62
     2
370
    -2
100
AcDbBlockReference
  2
_OPEN
 10
409.642048966572
 20
335.0843573575843
 30
0.0
 41
2.5
 42
2.5
 43
2.5
 50
180.0
  0
MTEXT
  5
2722
330
25F0
100
AcDbEntity
  8
寸法線
 62
     6
100
AcDbMText
 10
413.142048966572
 20
336.9593573575843
 30
0.0
 40
2.5
 41
0.0
 71
     5
 72
     1
  1
\A1;7
  7
STYLE3
 73
     1
 44
1.0
  0
POINT
  5
2723
330
25F0
100
AcDbEntity
  8
DEFPOINTS
 62
     0
100
AcDbPoint
 10
416.6420489665721
 20
308.9664525452909
 30
0.0
  0
POINT
  5
2724
330
25F0
100
AcDbEntity
  8
DEFPOINTS
 62
     0
100
AcDbPoint
 10
409.642048966572
 20
332.5619304127663
 30
0.0
  0
POINT
  5
2725
330
25F0
100
AcDbEntity
  8
DEFPOINTS
 62
     0
100
AcDbPoint
 10
409.642048966572
 20
335.0843573575843
 30
0.0
  0
ENDBLK
  5
25FB
330
25F0
100
AcDbEntity
  8
0
100
AcDbBlockEnd
  0
ENDSEC
  0
SECTION
  2
ENTITIES
  0
LINE
  5
244
330
18
100
AcDbEntity
  8
中心線
 48
0.5
100
AcDbLine
 10
289.1028030555651
 20
285.9664525452909
 30
0.0
 11
357.2850260817256
 21
285.9664525452909
 31
0.0
  0
LINE
  5
245
330
18
100
AcDbEntity
  8
中心線
 48
0.5
100
AcDbLine
 10
327.1457303509393
 20
330.6082615291064
 30
0.0
 11
327.1457303509393
 21
213.3074525743146
 31
0.0
  0
CIRCLE
  5
247
330
18
100
AcDbEntity
  8
外形線
100
AcDbCircle
 10
327.1457303509393
 20
285.9664525452909
 30
0.0
 40
23.0
  0
CIRCLE
  5
248
330
18
100
AcDbEntity
  8
外形線
100
AcDbCircle
 10
327.1457303509393
 20
285.9664525452909
 30
0.0
 40
26.4
  0
LINE
  5
2D5
330
18
100
AcDbEntity
  8
外形線
100
AcDbLine
 10
331.1457303509393
 20
259.8712422568107
 30
0.0
 11
331.1457303509393
 21
230.5664525452909
 31
0.0
  0
LINE
  5
2D6
330
18
100
AcDbEntity
  8
外形線
100
AcDbLine
 10
323.1457303509393
 20
259.8712422568107
 30
0.0
 11
323.1457303509393
 21
230.5664525452909
 31
0.0
  0
LINE
  5
5CF
330
18
100
AcDbEntity
  8
外形線
  6
Continuous
100
AcDbLine
 10
330.8457303509393
 20
326.4664525452908
 30
0.0
 11
330.8457303509393
 21
319.9664525452907
 31
0.0
  0
LINE
  5
5D0
330
18
100
AcDbEntity
  8
外形線
  6
Continuous
100
AcDbLine
 10
323.4457303509393
 20
326.4664525452908
 30
0.0
 11
323.4457303509393
 21
319.9664525452907
 31
0.0
  0
LINE
  5
5D1
330
18
100
AcDbEntity
  8
外形線
  6
Continuous
100
AcDbLine
 10
323.4457303509393
 20
326.4664525452908
 30
0.0
 11
330.8457303509393
 21
326.4664525452908
 31
0.0
  0
LINE
  5
5D2
330
18
100
AcDbEntity
  8
外形線
  6
Continuous
100
AcDbLine
 10
323.1457303509394
 20
319.9664525452907
 30
0.0
 11
331.1457303509393
 21
319.9664525452907
 31
0.0
  0
LINE
  5
5D3
330
18
100
AcDbEntity
  8
外形線
  6
Continuous
100
AcDbLine
 10
323.1457303509393
 20
313.9664525452908
 30
0.0
 11
331.1457303509393
 21
313.9664525452908
 31
0.0
  0
LINE
  5
5D4
330
18
100
AcDbEntity
  8
外形線
  6
Continuous
100
AcDbLine
 10
331.1457303509393
 20
319.9664525452907
 30
0.0
 11
331.1457303509393
 21
313.9664525452908
 31
0.0
  0
LINE
  5
5D5
330
18
100
AcDbEntity
  8
外形線
  6
Continuous
100
AcDbLine
 10
323.1457303509394
 20
319.9664525452907
 30
0.0
 11
323.1457303509394
 21
313.9664525452908
 31
0.0
  0
LINE
  5
5D6
330
18
100
AcDbEntity
  8
外形線
  6
Continuous
100
AcDbLine
 10
330.8457303509393
 20
313.9664525452908
 30
0.0
 11
330.8457303509393
 21
312.1058863570627
 31
0.0
  0
LINE
  5
5D7
330
18
100
AcDbEntity
  8
外形線
  6
Continuous
100
AcDbLine
 10
323.4457303509393
 20
313.9664525452908
 30
0.0
 11
323.4457303509393
 21
312.1058863570627
 31
0.0
  0
ARC
  5
5D9
330
18
100
AcDbEntity
  8
外形線
  6
Continuous
100
AcDbCircle
 10
327.1457303509393
 20
320.1214525452909
 30
0.0
 40
7.344999999999885
100
AcDbArc
 50
59.75198538337817
 51
120.2480146166212
  0
ARC
  5
692
330
18
100
AcDbEntity
  8
外形線
  6
Continuous
100
AcDbCircle
 10
500.8087156332384
 20
285.9664525452909
 30
0.0
 40
105.6666666666664
100
AcDbArc
 50
166.3144531747381
 51
193.685546825262
  0
LINE
  5
693
330
18
100
AcDbEntity
  8
外形線
  6
Continuous
100
AcDbLine
 10
398.1420489665721
 20
310.9664525452909
 30
0.0
 11
398.1420489665721
 21
260.9664525452909
 31
0.0
  0
LINE
  5
694
330
18
100
AcDbEntity
  8
外形線
  6
Continuous
100
AcDbLine
 10
399.3420489665721
 20
312.3664525452908
 30
0.0
 11
399.3420489665721
 21
259.5664525452909
 31
0.0
  0
LINE
  5
695
330
18
100
AcDbEntity
  8
外形線
  6
Continuous
100
AcDbLine
 10
403.1420489665721
 20
312.3664525452908
 30
0.0
 11
403.1420489665721
 21
259.5664525452909
 31
0.0
  0
LINE
  5
696
330
18
100
AcDbEntity
  8
外形線
  6
Continuous
100
AcDbLine
 10
404.642048966572
 20
310.9664525452909
 30
0.0
 11
404.642048966572
 21
260.9664525452909
 31
0.0
  0
LINE
  5
69C
330
18
100
AcDbEntity
  8
外形線
  6
Continuous
100
AcDbLine
 10
399.3420489665721
 20
260.4664525452908
 30
0.0
 11
398.1420489665721
 21
260.9664525452909
 31
0.0
  0
LINE
  5
6AD
330
18
100
AcDbEntity
  8
外形線
  6
CENTER2
100
AcDbLine
 10
404.642048966572
 20
260.9664525452909
 30
0.0
 11
403.1420489665721
 21
260.9664525452909
 31
0.0
  0
LINE
  5
6AE
330
18
100
AcDbEntity
  8
外形線
  6
Continuous
100
AcDbLine
 10
399.3420489665721
 20
259.5664525452909
 30
0.0
 11
403.1420489665721
 21
259.5664525452909
 31
0.0
  0
LINE
  5
6AF
330
18
100
AcDbEntity
  8
外形線
  6
Continuous
100
AcDbLine
 10
399.3420489665721
 20
263.5664525452909
 30
0.0
 11
403.1420489665721
 21
263.5664525452909
 31
0.0
  0
LINE
  5
6B0
330
18
100
AcDbEntity
  8
外形線
  6
Continuous
100
AcDbLine
 10
399.3420489665721
 20
262.5664525452909
 30
0.0
 11
403.1420489665721
 21
262.5664525452909
 31
0.0
  0
LINE
  5
6B1
330
18
100
AcDbEntity
  8
外形線
  6
Continuous
100
AcDbLine
 10
399.3420489665721
 20
261.5664525452909
 30
0.0
 11
403.1420489665721
 21
261.5664525452909
 31
0.0
  0
LINE
  5
6B2
330
18
100
AcDbEntity
  8
外形線
  6
Continuous
100
AcDbLine
 10
399.3420489665721
 20
260.5664525452909
 30
0.0
 11
403.1420489665721
 21
260.5664525452909
 31
0.0
  0
ARC
  5
6B8
330
18
100
AcDbEntity
  8
外形線
  6
Continuous
100
AcDbCircle
 10
409.642048966572
 20
320.121452545291
 30
0.0
 40
7.344999999999885
100
AcDbArc
 50
59.75198538337879
 51
120.2480146166218
  0
LINE
  5
6B9
330
18
100
AcDbEntity
  8
外形線
  6
Continuous
100
AcDbLine
 10
399.3420489665721
 20
311.4664525452909
 30
0.0
 11
398.1420489665721
 21
310.9664525452909
 31
0.0
  0
LINE
  5
6BA
330
18
100
AcDbEntity
  8
外形線
  6
Continuous
100
AcDbLine
 10
399.3420489665721
 20
264.5664525452909
 30
0.0
 11
403.1420489665721
 21
264.5664525452909
 31
0.0
  0
LINE
  5
6BB
330
18
100
AcDbEntity
  8
外形線
  6
Continuous
100
AcDbLine
 10
403.1420489665721
 20
283.9664525452909
 30
0.0
 11
399.3420489665721
 21
283.9664525452909
 31
0.0
  0
LINE
  5
6BC
330
18
100
AcDbEntity
  8
外形線
  6
Continuous
100
AcDbLine
 10
403.1420489665721
 20
284.9664525452908
 30
0.0
 11
399.3420489665721
 21
284.9664525452908
 31
0.0
  0
LINE
  5
6BD
330
18
100
AcDbEntity
  8
外形線
  6
Continuous
100
AcDbLine
 10
403.1420489665721
 20
285.9664525452909
 30
0.0
 11
399.3420489665721
 21
285.9664525452909
 31
0.0
  0
LINE
  5
6BE
330
18
100
AcDbEntity
  8
外形線
  6
Continuous
100
AcDbLine
 10
403.1420489665721
 20
286.9664525452908
 30
0.0
 11
399.3420489665721
 21
286.9664525452908
 31
0.0
  0
LINE
  5
6BF
330
18
100
AcDbEntity
  8
外形線
  6
Continuous
100
AcDbLine
 10
403.1420489665721
 20
288.9664525452909
 30
0.0
 11
399.3420489665721
 21
288.9664525452909
 31
0.0
  0
LINE
  5
6C0
330
18
100
AcDbEntity
  8
外形線
  6
Continuous
100
AcDbLine
 10
403.1420489665721
 20
287.9664525452909
 30
0.0
 11
399.3420489665721
 21
287.9664525452909
 31
0.0
  0
LINE
  5
6C1
330
18
100
AcDbEntity
  8
外形線
  6
Continuous
100
AcDbLine
 10
399.3420489665721
 20
307.3664525452908
 30
0.0
 11
403.1420489665721
 21
307.3664525452908
 31
0.0
  0
LINE
  5
6C2
330
18
100
AcDbEntity
  8
外形線
  6
Continuous
100
AcDbLine
 10
399.3420489665721
 20
308.3664525452908
 30
0.0
 11
403.1420489665721
 21
308.3664525452908
 31
0.0
  0
LINE
  5
6C3
330
18
100
AcDbEntity
  8
外形線
  6
Continuous
100
AcDbLine
 10
399.3420489665721
 20
309.3664525452908
 30
0.0
 11
403.1420489665721
 21
309.3664525452908
 31
0.0
  0
LINE
  5
6C4
330
18
100
AcDbEntity
  8
外形線
  6
Continuous
100
AcDbLine
 10
399.3420489665721
 20
310.3664525452908
 30
0.0
 11
403.1420489665721
 21
310.3664525452908
 31
0.0
  0
LINE
  5
6C5
330
18
100
AcDbEntity
  8
外形線
  6
Continuous
100
AcDbLine
 10
413.342048966572
 20
326.4664525452908
 30
0.0
 11
405.9420489665719
 21
326.4664525452908
 31
0.0
  0
LINE
  5
6C6
330
18
100
AcDbEntity
  8
外形線
  6
Continuous
100
AcDbLine
 10
413.642048966572
 20
319.9664525452908
 30
0.0
 11
405.642048966572
 21
319.9664525452908
 31
0.0
  0
LINE
  5
6C7
330
18
100
AcDbEntity
  8
外形線
  6
Continuous
100
AcDbLine
 10
413.642048966572
 20
313.9664525452908
 30
0.0
 11
405.642048966572
 21
313.9664525452908
 31
0.0
  0
LINE
  5
6C9
330
18
100
AcDbEntity
  8
外形線
  6
Continuous
100
AcDbLine
 10
413.642048966572
 20
319.9664525452908
 30
0.0
 11
413.642048966572
 21
313.9664525452908
 31
0.0
  0
LINE
  5
6CA
330
18
100
AcDbEntity
  8
外形線
  6
Continuous
100
AcDbLine
 10
413.342048966572
 20
313.9664525452908
 30
0.0
 11
413.342048966572
 21
310.4664525452908
 31
0.0
  0
LINE
  5
6CB
330
18
100
AcDbEntity
  8
外形線
  6
Continuous
100
AcDbLine
 10
413.342048966572
 20
326.4664525452908
 30
0.0
 11
413.342048966572
 21
319.9664525452908
 31
0.0
  0
LINE
  5
6CC
330
18
100
AcDbEntity
  8
外形線
  6
Continuous
100
AcDbLine
 10
405.642048966572
 20
319.9664525452908
 30
0.0
 11
405.642048966572
 21
313.9664525452908
 31
0.0
  0
LINE
  5
6CD
330
18
100
AcDbEntity
  8
外形線
  6
CENTER2
100
AcDbLine
 10
404.642048966572
 20
310.9664525452909
 30
0.0
 11
403.1420489665721
 21
310.9664525452909
 31
0.0
  0
LINE
  5
6CE
330
18
100
AcDbEntity
  8
外形線
  6
Continuous
100
AcDbLine
 10
405.9420489665719
 20
313.9664525452908
 30
0.0
 11
405.9420489665718
 21
310.4664525452908
 31
0.0
  0
LINE
  5
6CF
330
18
100
AcDbEntity
  8
外形線
  6
Continuous
100
AcDbLine
 10
399.3420489665721
 20
311.3664525452908
 30
0.0
 11
403.1420489665721
 21
311.3664525452908
 31
0.0
  0
LINE
  5
6D0
330
18
100
AcDbEntity
  8
外形線
  6
Continuous
100
AcDbLine
 10
399.3420489665721
 20
312.3664525452908
 30
0.0
 11
403.1420489665721
 21
312.3664525452908
 31
0.0
  0
LINE
  5
6D1
330
18
100
AcDbEntity
  8
外形線
  6
Continuous
100
AcDbLine
 10
405.9420489665719
 20
326.4664525452908
 30
0.0
 11
405.9420489665719
 21
319.9664525452908
 31
0.0
  0
MTEXT
  5
778
330
18
100
AcDbEntity
  8
DEFPOINTS
  6
Continuous
100
AcDbMText
 10
735.8166661286731
 20
235.565234348894
 30
0.0
 40
1.0
 41
0.0
 71
     4
 72
     1
  1
\A1;
 73
     1
 44
1.0
  0
LINE
  5
789
330
18
100
AcDbEntity
  8
中心線
 48
0.5
100
AcDbLine
 10
409.6420489665721
 20
330.91940388947
 30
0.0
 11
409.6420489665722
 21
215.2583029718916
 31
0.0
  0
LINE
  5
78E
330
18
100
AcDbEntity
  8
外形線
100
AcDbLine
 10
404.642048966572
 20
261.4664525452909
 30
0.0
 11
416.142048966572
 21
261.4664525452909
 31
0.0
  0
LINE
  5
78F
330
18
100
AcDbEntity
  8
外形線
100
AcDbLine
 10
404.642048966572
 20
310.4664525452908
 30
0.0
 11
416.1420489665721
 21
310.4664525452908
 31
0.0
  0
LINE
  5
7D6
330
18
100
AcDbEntity
  8
中心線
 48
0.5
100
AcDbLine
 10
390.3047348564075
 20
285.9664525452909
 30
0.0
 11
420.2556001536501
 21
285.9664525452909
 31
0.0
  0
LINE
  5
835
330
18
100
AcDbEntity
  8
0
  6
ByBlock
 62
     2
100
AcDbLine
 10
290.3528030555651
 20
324.9664525452908
 30
0.0
 11
290.3528030555651
 21
288.4664525452908
 31
0.0
  0
INSERT
  5
836
330
18
100
AcDbEntity
  8
0
  6
ByBlock
 62
     2
100
AcDbBlockReference
  2
_OPEN
 10
290.3528030555651
 20
327.4664525452909
 30
0.0
 41
2.5
 42
2.5
 43
2.5
 50
90.0
  0
INSERT
  5
837
330
18
100
AcDbEntity
  8
0
  6
ByBlock
 62
     2
100
AcDbBlockReference
  2
_OPEN
 10
290.3528030555651
 20
285.9664525452909
 30
0.0
 41
2.5
 42
2.5
 43
2.5
 50
270.0
  0
MTEXT
  5
838
330
18
100
AcDbEntity
  8
0
  6
ByBlock
 62
     6
100
AcDbMText
 10
288.4778030555651
 20
306.7164525452909
 30
0.0
 40
2.5
 41
0.0
 71
     5
 72
     1
  1
\A1;41.5
  7
STYLE3
 11
0.0000000000000001
 21
1.0
 31
0.0
 73
     1
 44
1.0
  0
POINT
  5
839
330
18
100
AcDbEntity
  8
DEFPOINTS
  6
ByBlock
 62
     0
100
AcDbPoint
 10
327.1457303509393
 20
327.4664525452909
 30
0.0
  0
POINT
  5
83B
330
18
100
AcDbEntity
  8
DEFPOINTS
  6
ByBlock
 62
     0
100
AcDbPoint
 10
290.3528030555651
 20
285.9664525452909
 30
0.0
  0
POINT
  5
84A
330
18
100
AcDbEntity
  8
DEFPOINTS
  6
ByBlock
 62
     0
100
AcDbPoint
 10
289.1028030555651
 20
327.4664525452909
 30
0.0
  0
MTEXT
  5
887
330
18
100
AcDbEntity
  8
文字
100
AcDbMText
 10
302.9558756866726
 20
261.6432165871282
 30
0.0
 40
1.0
 41
6.927999999999999
 71
     1
 72
     5
  1

  7
STYLE3
 73
     1
 44
1.0
  0
TEXT
  5
93E
330
18
100
AcDbEntity
  8
文字
100
AcDbText
 10
429.4297702340496
 20
280.8593702582736
 30
0.0
 40
2.5
  1
φ
 50
90.0
  7
STYLE3
100
AcDbText
  0
LWPOLYLINE
  5
96E
330
18
100
AcDbEntity
  8
C
100
AcDbPolyline
 90
        5
 70
     0
 43
0.4
 10
236.6915604445414
 20
366.8501752555372
 10
491.6915604445414
 20
366.8501752555372
 10
491.6915604445414
 20
171.8501752555372
 10
236.6915604445414
 20
171.8501752555372
 10
236.6915604445414
 20
366.8501752555372
  0
MTEXT
  5
EB4
330
18
100
AcDbEntity
  8
DEFPOINTS
  6
Continuous
100
AcDbMText
 10
624.6916853418142
 20
184.890767874579
 30
0.0
 40
0.35
 41
0.0
 71
     4
 72
     1
  1
\A1;
 73
     1
 44
1.0
  0
LINE
  5
F32
330
18
100
AcDbEntity
  8
0
  6
ByBlock
 62
     2
100
AcDbLine
 10
416.1420489665721
 20
310.4664525452908
 30
0.0
 11
431.4782512790724
 21
310.4664525452908
 31
0.0
  0
LINE
  5
F33
330
18
100
AcDbEntity
  8
0
  6
ByBlock
 62
     2
100
AcDbLine
 10
416.142048966572
 20
261.4664525452909
 30
0.0
 11
431.4782512790724
 21
261.4664525452909
 31
0.0
  0
LINE
  5
F34
330
18
100
AcDbEntity
  8
0
  6
ByBlock
 62
     2
100
AcDbLine
 10
430.2282512790724
 20
307.9664525452908
 30
0.0
 11
430.2282512790724
 21
263.9664525452908
 31
0.0
  0
INSERT
  5
F35
330
18
100
AcDbEntity
  8
0
  6
ByBlock
 62
     2
100
AcDbBlockReference
  2
_OPEN
 10
430.2282512790724
 20
310.4664525452908
 30
0.0
 41
2.5
 42
2.5
 43
2.5
 50
90.0
  0
INSERT
  5
F36
330
18
100
AcDbEntity
  8
0
  6
ByBlock
 62
     2
100
AcDbBlockReference
  2
_OPEN
 10
430.2282512790724
 20
261.4664525452909
 30
0.0
 41
2.5
 42
2.5
 43
2.5
 50
270.0
  0
MTEXT
  5
F37
330
18
100
AcDbEntity
  8
0
  6
ByBlock
 62
     6
100
AcDbMText
 10
428.3532512790724
 20
285.9664525452909
 30
0.0
 40
2.5
 41
0.0
 71
     5
 72
     1
  1
\A1;49
  7
STYLE3
 11
0.0000000000000001
 21
1.0
 31
0.0
 73
     1
 44
1.0
  0
POINT
  5
F3A
330
18
100
AcDbEntity
  8
DEFPOINTS
  6
ByBlock
 62
     0
100
AcDbPoint
 10
430.2282512790724
 20
261.4664525452909
 30
0.0
  0
MTEXT
  5
13D2
330
18
100
AcDbEntity
  8
DEFPOINTS
  6
Continuous
100
AcDbMText
 10
1236.255313500774
 20
410.7784228578957
 30
0.0
 40
1.0
 41
0.0
 71
     4
 72
     1
  1
\A1;
 73
     1
 44
1.0
  0
MTEXT
  5
142F
330
18
100
AcDbEntity
  8
文字
100
AcDbMText
 10
803.3945230587734
 20
436.8564050961298
 30
0.0
 40
1.0
 41
6.927999999999999
 71
     1
 72
     5
  1

  7
STYLE3
 73
     1
 44
1.0
  0
MTEXT
  5
14AC
330
18
100
AcDbEntity
  8
DEFPOINTS
  6
Continuous
100
AcDbMText
 10
1125.130332713915
 20
360.1039563835807
 30
0.0
 40
0.35
 41
0.0
 71
     4
 72
     1
  1
\A1;
 73
     1
 44
1.0
  0
POINT
  5
1644
330
18
100
AcDbEntity
  8
DEFPOINTS
  6
ByBlock
 62
     0
100
AcDbPoint
 10
395.142048966572
 20
285.9664525452909
 30
0.0
  0
POINT
  5
1645
330
18
100
AcDbEntity
  8
DEFPOINTS
  6
ByBlock
 62
     0
100
AcDbPoint
 10
409.642048966572
 20
327.4664525452909
 30
0.0
  0
LINE
  5
18E2
330
18
100
AcDbEntity
  8
目盛
100
AcDbLine
 10
327.1457303509394
 20
308.9664525452909
 30
0.0
 11
327.1457303509394
 21
306.7164525452909
 31
0.0
  0
TEXT
  5
18E3
330
18
100
AcDbEntity
  8
文字
100
AcDbText
 10
325.9556656685659
 20
303.7135262023566
 30
0.0
 40
2.5
  1
0
  7
STYLE3
100
AcDbText
  0
TEXT
  5
18E4
330
18
100
AcDbEntity
  8
文字
100
AcDbText
 10
330.5649331677599
 20
302.2363919513721
 30
0.0
 40
2.5
  1
10
  7
STYLE3
100
AcDbText
  0
TEXT
  5
18E5
330
18
100
AcDbEntity
  8
文字
100
AcDbText
 10
335.9524294706558
 20
299.2649433351352
 30
0.0
 40
2.5
  1
20
  7
STYLE3
100
AcDbText
  0
TEXT
  5
18E6
330
18
100
AcDbEntity
  8
文字
100
AcDbText
 10
339.4540133887074
 20
295.2750472929632
 30
0.0
 40
2.5
  1
30
  7
STYLE3
100
AcDbText
  0
TEXT
  5
18E7
330
18
100
AcDbEntity
  8
文字
100
AcDbText
 10
341.8636569435075
 20
290.664664115128
 30
0.0
 40
2.5
  1
40
  7
STYLE3
100
AcDbText
  0
TEXT
  5
18E8
330
18
100
AcDbEntity
  8
文字
100
AcDbText
 10
343.0046980768845
 20
284.8172212823246
 30
0.0
 40
2.5
  1
50
  7
STYLE3
100
AcDbText
  0
TEXT
  5
18E9
330
18
100
AcDbEntity
  8
文字
100
AcDbText
 10
341.9998641542324
 20
278.7585161629349
 30
0.0
 40
2.5
  1
60
  7
STYLE3
100
AcDbText
  0
TEXT
  5
18EA
330
18
100
AcDbEntity
  8
文字
100
AcDbText
 10
307.5737630373116
 20
278.7456639211799
 30
0.0
 40
2.5
  1
60
  7
STYLE3
100
AcDbText
  0
TEXT
  5
18EB
330
18
100
AcDbEntity
  8
文字
100
AcDbText
 10
306.5306319605755
 20
284.7517036874612
 30
0.0
 40
2.5
  1
50
  7
STYLE3
100
AcDbText
  0
TEXT
  5
18EC
330
18
100
AcDbEntity
  8
文字
100
AcDbText
 10
307.4231901240112
 20
290.9393349211215
 30
0.0
 40
2.5
  1
40
  7
STYLE3
100
AcDbText
  0
TEXT
  5
18ED
330
18
100
AcDbEntity
  8
文字
100
AcDbText
 10
310.6909946202194
 20
296.0024829146352
 30
0.0
 40
2.5
  1
30
  7
STYLE3
100
AcDbText
  0
TEXT
  5
18EE
330
18
100
AcDbEntity
  8
文字
100
AcDbText
 10
314.3330254842032
 20
299.7201337367621
 30
0.0
 40
2.5
  1
20
  7
STYLE3
100
AcDbText
  0
TEXT
  5
18EF
330
18
100
AcDbEntity
  8
文字
100
AcDbText
 10
319.1469582448822
 20
302.4679299910922
 30
0.0
 40
2.5
  1
10
  7
STYLE3
100
AcDbText
  0
MTEXT
  5
18F1
330
18
100
AcDbEntity
  8
DEFPOINTS
  6
Continuous
100
AcDbMText
 10
1172.470139544913
 20
240.188441215189
 30
0.0
 40
1.0
 41
0.0
 71
     4
 72
     1
  1
\A1;
 73
     1
 44
1.0
  0
LINE
  5
18F2
102
{ACAD_REACTORS
330
192E
102
}
330
18
100
AcDbEntity
  8
ROGO
 62
     4
100
AcDbLine
 10
320.657983761858
 20
272.6886910223533
 30
0.0
 11
322.1707448598774
 21
272.6886910223533
 31
0.0
  0
LINE
  5
18F3
102
{ACAD_REACTORS
330
193C
330
192E
102
}
330
18
100
AcDbEntity
  8
ROGO
 62
     4
100
AcDbLine
 10
319.7055291084621
 20
270.7637262774842
 30
0.0
 11
332.7356246340532
 21
270.7637262774842
 31
0.0
  0
LINE
  5
18F4
102
{ACAD_REACTORS
330
192E
102
}
330
18
100
AcDbEntity
  8
ROGO
 62
     4
100
AcDbLine
 10
320.657983761858
 20
272.6886910223533
 30
0.0
 11
319.7055291084621
 21
270.7637262774842
 31
0.0
  0
SPLINE
  5
18F5
102
{ACAD_REACTORS
330
192E
102
}
330
18
100
AcDbEntity
  8
ROGO
 62
     4
100
AcDbSpline
210
0.0
220
0.0
230
1.0
 70
     8
 71
     3
 72
    18
 73
    14
 74
     0
 42
0.0000000001
 43
0.0000000001
 40
0.1087402787915014
 40
0.1087402787915014
 40
0.1087402787915014
 40
0.1087402787915014
 40
0.5992371417938475
 40
1.083176791562496
 40
1.448211145705696
 40
1.714037220764907
 40
2.164002567013297
 40
2.740236056362883
 40
3.395137510199602
 40
4.071816045172726
 40
4.784906178399433
 40
5.506895915094292
 40
6.060470601257719
 40
6.060470601257719
 40
6.060470601257719
 40
6.060470601257719
 10
322.1707448598774
 20
272.6886910223534
 30
0.0
 10
322.2192091207378
 20
272.6709296828984
 30
0.0
 10
322.314513589771
 20
272.6333794970732
 30
0.0
 10
322.4308300159987
 20
272.5476775652611
 30
0.0
 10
322.4942639724511
 20
272.4487416877678
 30
0.0
 10
322.5552803367707
 20
272.3512580951612
 30
0.0
 10
322.563819465576
 20
272.2114013942613
 30
0.0
 10
322.5498317957015
 20
272.0345886268088
 30
0.0
 10
322.459528662665
 20
271.8501027499526
 30
0.0
 10
322.3145868229841
 20
271.6887441828913
 30
0.0
 10
322.1346314141744
 20
271.5595948901853
 30
0.0
 10
321.9448622283503
 20
271.4582160212119
 30
0.0
 10
321.8092151609779
 20
271.4572058985737
 30
0.0
 10
321.7503464896635
 20
271.4567675214031
 30
0.0
  0
LINE
  5
18F6
102
{ACAD_REACTORS
330
192E
102
}
330
18
100
AcDbEntity
  8
ROGO
 62
     4
100
AcDbLine
 10
321.7503464899535
 20
271.4567675214031
 30
0.0
 11
320.9138865120611
 21
271.4567675214031
 31
0.0
  0
LINE
  5
18F7
102
{ACAD_REACTORS
330
192E
102
}
330
18
100
AcDbEntity
  8
ROGO
 62
     4
100
AcDbLine
 10
321.2557120454233
 20
272.2123026709411
 30
0.0
 11
321.1074868237423
 21
271.8846812556346
 31
0.0
  0
SPLINE
  5
18F8
102
{ACAD_REACTORS
330
192E
102
}
330
18
100
AcDbEntity
  8
ROGO
 62
     4
100
AcDbSpline
210
0.0
220
0.0
230
1.0
 70
     8
 71
     3
 72
    15
 73
    11
 74
     9
 42
0.0000000001
 43
0.0000000001
 44
0.0000000001
 40
0.0
 40
0.0
 40
0.0
 40
0.0
 40
0.1444470268156599
 40
0.2103069258834997
 40
0.2850622957513877
 40
0.3359891294319132
 40
0.4165304450834989
 40
0.4647724930146942
 40
0.5475400388213481
 40
0.5751292383652494
 40
0.5751292383652494
 40
0.5751292383652494
 40
0.5751292383652494
 10
321.6365876926041
 20
272.212302670941
 30
0.0
 10
321.6908391947213
 20
272.2125511717794
 30
0.0
 10
321.7698263977557
 20
272.2129129753315
 30
0.0
 10
321.8130194135814
 20
272.1152055767553
 30
0.0
 10
321.7936582444383
 20
272.0522972542403
 30
0.0
 10
321.7693196768645
 20
271.9877100141244
 30
0.0
 10
321.7263079156403
 20
271.9438220103518
 30
0.0
 10
321.6685798320183
 20
271.9015504642229
 30
0.0
 10
321.6140240342904
 20
271.8964333042809
 30
0.0
 10
321.5785416119635
 20
271.887031666264
 30
0.0
 10
321.5696710021356
 20
271.8846812556346
 30
0.0
 11
321.6365876926041
 21
272.212302670941
 31
0.0
 11
321.7771128580234
 21
272.1788718253077
 31
0.0
 11
321.8038796111678
 21
272.1186965211428
 31
0.0
 11
321.7904964269878
 21
272.0451488787245
 31
0.0
 11
321.7704214583257
 21
271.9983456948378
 31
0.0
 11
321.7168879520371
 21
271.9381703906729
 31
0.0
 11
321.6767380147128
 21
271.9114257141661
 31
0.0
 11
321.5964377552798
 21
271.8913674247612
 31
0.0
 11
321.5696710021356
 21
271.8846812556346
 31
0.0
  0
LINE
  5
18F9
102
{ACAD_REACTORS
330
192E
102
}
330
18
100
AcDbEntity
  8
ROGO
 62
     4
100
AcDbLine
 10
321.6365876926041
 20
272.2123026709411
 30
0.0
 11
321.2557120454233
 21
272.2123026709411
 31
0.0
  0
LINE
  5
18FA
102
{ACAD_REACTORS
330
192E
102
}
330
18
100
AcDbEntity
  8
ROGO
 62
     4
100
AcDbLine
 10
321.5696710021356
 20
271.8846812556346
 30
0.0
 11
321.1074868237423
 21
271.8846812556346
 31
0.0
  0
LINE
  5
18FB
102
{ACAD_REACTORS
330
192E
102
}
330
18
100
AcDbEntity
  8
ROGO
 62
     4
100
AcDbLine
 10
320.9138865120611
 20
271.4567675214031
 30
0.0
 11
320.6003349943198
 21
270.7637262774842
 31
0.0
  0
LINE
  5
18FC
102
{ACAD_REACTORS
330
192A
102
}
330
18
100
AcDbEntity
  8
ROGO
 62
     4
100
AcDbLine
 10
323.0644465812105
 20
272.6886910223533
 30
0.0
 11
322.4549022899526
 21
271.4567675214031
 31
0.0
  0
LINE
  5
18FD
102
{ACAD_REACTORS
330
192A
102
}
330
18
100
AcDbEntity
  8
ROGO
 62
     4
100
AcDbLine
 10
324.7306743671487
 20
272.6886910223533
 30
0.0
 11
324.5910459535565
 21
272.4064940982387
 31
0.0
  0
LINE
  5
18FE
102
{ACAD_REACTORS
330
192A
102
}
330
18
100
AcDbEntity
  8
ROGO
 62
     4
100
AcDbLine
 10
322.4549022899526
 20
271.4567675214031
 30
0.0
 11
324.1211300758909
 21
271.4567675214031
 31
0.0
  0
LINE
  5
18FF
102
{ACAD_REACTORS
330
192A
102
}
330
18
100
AcDbEntity
  8
ROGO
 62
     4
100
AcDbLine
 10
323.7153187339091
 20
272.4064940982387
 30
0.0
 11
323.6061466655049
 21
272.1858511709838
 31
0.0
  0
LINE
  5
1900
102
{ACAD_REACTORS
330
192A
102
}
330
18
100
AcDbEntity
  8
ROGO
 62
     4
100
AcDbLine
 10
323.7153187339091
 20
272.4064940982387
 30
0.0
 11
324.5910459535565
 21
272.4064940982387
 31
0.0
  0
LINE
  5
1901
102
{ACAD_REACTORS
330
192A
102
}
330
18
100
AcDbEntity
  8
ROGO
 62
     4
100
AcDbLine
 10
323.6061466655049
 20
272.1858511709838
 30
0.0
 11
324.4818738851523
 21
272.1858511709838
 31
0.0
  0
LINE
  5
1902
102
{ACAD_REACTORS
330
192A
102
}
330
18
100
AcDbEntity
  8
ROGO
 62
     4
100
AcDbLine
 10
323.3850242463711
 20
271.7389502506985
 30
0.0
 11
324.2607514660185
 21
271.7389502506985
 31
0.0
  0
LINE
  5
1903
102
{ACAD_REACTORS
330
192A
102
}
330
18
100
AcDbEntity
  8
ROGO
 62
     4
100
AcDbLine
 10
323.4942009365959
 20
271.9596025189142
 30
0.0
 11
324.3699281562434
 21
271.9596025189143
 31
0.0
  0
LINE
  5
1904
102
{ACAD_REACTORS
330
192A
102
}
330
18
100
AcDbEntity
  8
ROGO
 62
     4
100
AcDbLine
 10
324.4818738851523
 20
272.1858511709838
 30
0.0
 11
324.3699281562434
 21
271.9596025189142
 31
0.0
  0
LINE
  5
1905
102
{ACAD_REACTORS
330
192A
102
}
330
18
100
AcDbEntity
  8
ROGO
 62
     4
100
AcDbLine
 10
324.2607514660185
 20
271.7389502506985
 30
0.0
 11
324.1211300758909
 21
271.4567675214031
 31
0.0
  0
LINE
  5
1906
102
{ACAD_REACTORS
330
192A
102
}
330
18
100
AcDbEntity
  8
ROGO
 62
     4
100
AcDbLine
 10
323.4942009365959
 20
271.9596025189142
 30
0.0
 11
323.3850242463711
 21
271.7389502506985
 31
0.0
  0
LINE
  5
1907
102
{ACAD_REACTORS
330
1932
102
}
330
18
100
AcDbEntity
  8
ROGO
 62
     4
100
AcDbLine
 10
325.2133458237808
 20
272.6886910223533
 30
0.0
 11
324.3249818450915
 21
271.4567675214031
 31
0.0
  0
LINE
  5
1908
102
{ACAD_REACTORS
330
1932
102
}
330
18
100
AcDbEntity
  8
ROGO
 62
     4
100
AcDbLine
 10
325.6581476392147
 20
272.3593928636438
 30
0.0
 11
325.3547819766592
 21
271.9387057375913
 31
0.0
  0
LINE
  5
1909
102
{ACAD_REACTORS
330
1932
102
}
330
18
100
AcDbEntity
  8
ROGO
 62
     4
100
AcDbLine
 10
325.1763859676648
 20
271.6913181338298
 30
0.0
 11
325.9549329060801
 21
271.6913181338298
 31
0.0
  0
LINE
  5
190A
102
{ACAD_REACTORS
330
1932
102
}
330
18
100
AcDbEntity
  8
ROGO
 62
     4
100
AcDbLine
 10
325.3547819766592
 20
271.9387057375914
 30
0.0
 11
325.8450335299698
 21
271.9387057375914
 31
0.0
  0
LINE
  5
190B
102
{ACAD_REACTORS
330
1932
102
}
330
18
100
AcDbEntity
  8
ROGO
 62
     4
100
AcDbLine
 10
325.1763859676648
 20
271.6913181338298
 30
0.0
 11
325.007246962606
 21
271.4567675214031
 31
0.0
  0
LINE
  5
190C
102
{ACAD_REACTORS
330
1932
102
}
330
18
100
AcDbEntity
  8
ROGO
 62
     4
100
AcDbLine
 10
324.3249818450915
 20
271.4567675214031
 30
0.0
 11
325.007246962606
 21
271.4567675214031
 31
0.0
  0
LINE
  5
190D
102
{ACAD_REACTORS
330
1932
102
}
330
18
100
AcDbEntity
  8
ROGO
 62
     4
100
AcDbLine
 10
325.2133458237808
 20
272.6886910223533
 30
0.0
 11
326.1987791189135
 21
272.6886910223533
 31
0.0
  0
LINE
  5
190E
102
{ACAD_REACTORS
330
1932
102
}
330
18
100
AcDbEntity
  8
ROGO
 62
     4
100
AcDbLine
 10
326.7460483519365
 20
271.4567675214031
 30
0.0
 11
326.0591295819847
 21
271.4567675214031
 31
0.0
  0
LINE
  5
190F
102
{ACAD_REACTORS
330
192B
102
}
330
18
100
AcDbEntity
  8
ROGO
 62
     4
100
AcDbLine
 10
327.0834243707096
 20
271.4567675214031
 30
0.0
 11
328.1444962991899
 21
271.4567675214031
 31
0.0
  0
LINE
  5
1910
102
{ACAD_REACTORS
330
192B
102
}
330
18
100
AcDbEntity
  8
ROGO
 62
     4
100
AcDbLine
 10
328.7587731441889
 20
272.6886910223533
 30
0.0
 11
328.5302223310706
 21
272.2303356079602
 31
0.0
  0
LINE
  5
1911
102
{ACAD_REACTORS
330
192B
102
}
330
18
100
AcDbEntity
  8
ROGO
 62
     4
100
AcDbLine
 10
327.7592838294461
 20
272.2303356079602
 30
0.0
 11
328.5302223310706
 21
272.2303356079603
 31
0.0
  0
LINE
  5
1912
102
{ACAD_REACTORS
330
192B
102
}
330
18
100
AcDbEntity
  8
ROGO
 62
     4
100
AcDbLine
 10
327.5853001264004
 20
271.9151180819379
 30
0.0
 11
328.3730446920175
 21
271.9151180819379
 31
0.0
  0
SPLINE
  5
1913
102
{ACAD_REACTORS
330
192B
102
}
330
18
100
AcDbEntity
  8
ROGO
 62
     4
100
AcDbSpline
210
0.0
220
0.0
230
1.0
 70
     8
 71
     3
 72
    26
 73
    22
 74
    20
 42
0.0000000001
 43
0.0000000001
 44
0.0000000001
 40
0.0
 40
0.0
 40
0.0
 40
0.0
 40
0.2234850368020611
 40
0.3730909640173049
 40
0.4809690209812992
 40
0.5615180755186499
 40
0.6659944268058665
 40
0.7422519781245713
 40
0.8799553417461909
 40
0.9920439000268267
 40
1.068282079911162
 40
1.143037518666553
 40
1.276760465249744
 40
1.371318548977523
 40
1.422245382657944
 40
1.49458544554505
 40
1.546823828113403
 40
1.622499997844155
 40
1.665326164070649
 40
1.758520705595898
 40
1.801074142830069
 40
1.801074142830069
 40
1.801074142830069
 40
1.801074142830069
 10
327.5250752204142
 20
272.6886910223534
 30
0.0
 10
327.4492209458888
 20
272.6841654262587
 30
0.0
 10
327.3225881081272
 20
272.6766102940053
 30
0.0
 10
327.1835460226084
 20
272.5921437202541
 30
0.0
 10
327.0816756507875
 20
272.54303856615
 30
0.0
 10
327.0090218251486
 20
272.4762842926292
 30
0.0
 10
326.9557662764384
 20
272.4073320043896
 30
0.0
 10
326.8886276596163
 20
272.3251758585233
 30
0.0
 10
326.8338780360855
 20
272.2295083512006
 30
0.0
 10
326.8059973812655
 20
272.1240660801132
 30
0.0
 10
326.7813009618415
 20
272.0400279782611
 30
0.0
 10
326.7629856837562
 20
271.9463784809427
 30
0.0
 10
326.7676456089998
 20
271.8452040796686
 30
0.0
 10
326.7743188352164
 20
271.7512384753561
 30
0.0
 10
326.8041131675605
 20
271.6841611024574
 30
0.0
 10
326.8380436346144
 20
271.6364066352004
 30
0.0
 10
326.8795910268468
 20
271.5838103838054
 30
0.0
 10
326.9250529596174
 20
271.5489760568196
 30
0.0
 10
326.9626536888802
 20
271.485871332675
 30
0.0
 10
327.0284724970178
 20
271.4778187147597
 30
0.0
 10
327.070309549972
 20
271.4617916017236
 30
0.0
 10
327.0834243707096
 20
271.4567675214031
 30
0.0
 11
327.5250752204142
 21
272.6886910223534
 31
0.0
 11
327.3042497955619
 21
272.654315254533
 31
0.0
 11
327.1704160298404
 21
272.5874537812414
 31
0.0
 11
327.0767325862274
 21
272.5339646462031
 31
0.0
 11
327.016507680241
 21
272.4804752931898
 31
0.0
 11
326.9495909897725
 21
272.4002414816448
 31
0.0
 11
326.9027492679661
 21
272.3400661774799
 31
0.0
 11
326.8358321927132
 21
272.2197153511749
 31
0.0
 11
326.8023740398709
 21
272.1127368631233
 31
0.0
 11
326.7822990712088
 21
272.0391892207049
 31
0.0
 11
326.7689155022446
 21
271.9656415782866
 31
0.0
 11
326.7689155022446
 21
271.8319186317034
 31
0.0
 11
326.7822990712088
 21
271.7383124819052
 31
0.0
 11
326.8023740398709
 21
271.6915092980185
 31
0.0
 11
326.8425239771953
 21
271.6313339938535
 31
0.0
 11
326.8759825148218
 21
271.5912169790935
 31
0.0
 11
326.9295156363259
 21
271.5377278440552
 31
0.0
 11
326.9562823894704
 21
271.5042969984219
 31
0.0
 11
327.0432744333853
 21
271.4708663707637
 31
0.0
 11
327.0834243707096
 21
271.4567675214031
 31
0.0
  0
SPLINE
  5
1914
102
{ACAD_REACTORS
330
192B
102
}
330
18
100
AcDbEntity
  8
ROGO
 62
     4
100
AcDbSpline
210
0.0
220
0.0
230
1.0
 70
     8
 71
     3
 72
    16
 73
    12
 74
    10
 42
0.0000000001
 43
0.0000000001
 44
0.0000000001
 40
0.0
 40
0.0
 40
0.0
 40
0.0
 40
0.1178225909324045
 40
0.1753704298790176
 40
0.2037490853281923
 40
0.2336555668943688
 40
0.2764815629657672
 40
0.315476765318778
 40
0.3561478528852858
 40
0.4243358699943621
 40
0.4918277573139375
 40
0.4918277573139375
 40
0.4918277573139375
 40
0.4918277573139375
 10
327.7592838294462
 20
272.2303356079602
 30
0.0
 10
327.7193837567188
 20
272.224252572693
 30
0.0
 10
327.65999537584
 20
272.2151984133731
 30
0.0
 10
327.6062904230759
 20
272.1726861636341
 30
0.0
 10
327.576004558534
 20
272.1473942048053
 30
0.0
 10
327.5657011724897
 20
272.1139004718285
 30
0.0
 10
327.5380295131488
 20
272.0881824264158
 30
0.0
 10
327.5152201948332
 20
272.0528375536247
 30
0.0
 10
327.5097738466592
 20
272.0042907983459
 30
0.0
 10
327.5137715909139
 20
271.9361628258745
 30
0.0
 10
327.5615389742461
 20
271.9221089613025
 30
0.0
 10
327.5853001264005
 20
271.9151180819377
 30
0.0
 11
327.7592838294462
 21
272.2303356079602
 31
0.0
 11
327.6455254171712
 21
272.1996568437949
 31
0.0
 11
327.5986836953647
 21
272.1662262161366
 31
0.0
 11
327.5786087267026
 21
272.1461677087565
 31
0.0
 11
327.5652251577384
 21
272.1194230322498
 31
0.0
 11
327.5384584045941
 21
272.0859924045917
 31
0.0
 11
327.5183834359319
 21
272.0525615589583
 31
0.0
 11
327.5116916514496
 21
272.0124447621734
 31
0.0
 11
327.525075220414
 21
271.9455830709066
 31
0.0
 11
327.5853001264005
 21
271.9151180819377
 31
0.0
  0
LINE
  5
1915
102
{ACAD_REACTORS
330
192B
102
}
330
18
100
AcDbEntity
  8
ROGO
 62
     4
100
AcDbLine
 10
328.3730446920175
 20
271.9151180819379
 30
0.0
 11
328.1444962991899
 21
271.4567675214031
 31
0.0
  0
LINE
  5
1916
102
{ACAD_REACTORS
330
192B
102
}
330
18
100
AcDbEntity
  8
ROGO
 62
     4
100
AcDbLine
 10
327.5250752204144
 20
272.6886910223534
 30
0.0
 11
328.7587731441889
 21
272.6886910223534
 31
0.0
  0
LINE
  5
1917
102
{ACAD_REACTORS
330
192C
102
}
330
18
100
AcDbEntity
  8
ROGO
 62
     4
100
AcDbLine
 10
331.0527914707699
 20
271.4567675214031
 30
0.0
 11
332.1138633992501
 21
271.4567675214031
 31
0.0
  0
LINE
  5
1918
102
{ACAD_REACTORS
330
192C
102
}
330
18
100
AcDbEntity
  8
ROGO
 62
     4
100
AcDbLine
 10
331.4944423204747
 20
272.6886910223533
 30
0.0
 11
332.7281402442492
 21
272.6886910223533
 31
0.0
  0
SPLINE
  5
1919
102
{ACAD_REACTORS
330
192C
102
}
330
18
100
AcDbEntity
  8
ROGO
 62
     4
100
AcDbSpline
210
0.0
220
0.0
230
1.0
 70
     8
 71
     3
 72
    16
 73
    12
 74
    10
 42
0.0000000001
 43
0.0000000001
 44
0.0000000001
 40
0.0
 40
0.0
 40
0.0
 40
0.0
 40
0.1178225909325142
 40
0.1753704298789753
 40
0.2037490853281099
 40
0.2336555668943627
 40
0.2764815629657256
 40
0.3154767653188144
 40
0.3561478528852567
 40
0.4243358699944445
 40
0.4918277573139686
 40
0.4918277573139686
 40
0.4918277573139686
 40
0.4918277573139686
 10
331.7286509295066
 20
272.2303356079602
 30
0.0
 10
331.688750856779
 20
272.224252572693
 30
0.0
 10
331.6293624759003
 20
272.2151984133733
 30
0.0
 10
331.5756575231363
 20
272.1726861636339
 30
0.0
 10
331.5453716585945
 20
272.1473942048053
 30
0.0
 10
331.5350682725498
 20
272.1139004718285
 30
0.0
 10
331.5073966132092
 20
272.0881824264157
 30
0.0
 10
331.4845872948934
 20
272.0528375536248
 30
0.0
 10
331.4791409467196
 20
272.0042907983458
 30
0.0
 10
331.4831386909742
 20
271.9361628258745
 30
0.0
 10
331.5309060743067
 20
271.9221089613025
 30
0.0
 10
331.5546672264609
 20
271.9151180819377
 30
0.0
 11
331.7286509295066
 21
272.2303356079602
 31
0.0
 11
331.6148925172315
 21
272.1996568437949
 31
0.0
 11
331.5680507954252
 21
272.1662262161366
 31
0.0
 11
331.5479758267631
 21
272.1461677087565
 31
0.0
 11
331.5345922577987
 21
272.1194230322498
 31
0.0
 11
331.5078255046544
 21
272.0859924045917
 31
0.0
 11
331.4877505359922
 21
272.0525615589583
 31
0.0
 11
331.48105875151
 21
272.0124447621734
 31
0.0
 11
331.4944423204744
 21
271.9455830709065
 31
0.0
 11
331.5546672264609
 21
271.9151180819377
 31
0.0
  0
SPLINE
  5
191A
102
{ACAD_REACTORS
330
192C
102
}
330
18
100
AcDbEntity
  8
ROGO
 62
     4
100
AcDbSpline
210
0.0
220
0.0
230
1.0
 70
     8
 71
     3
 72
    26
 73
    22
 74
    20
 42
0.0000000001
 43
0.0000000001
 44
0.0000000001
 40
0.0
 40
0.0
 40
0.0
 40
0.0
 40
0.2234850368019487
 40
0.3730909640170909
 40
0.4809690209811345
 40
0.5615180755184426
 40
0.6659944268057684
 40
0.7422519781244385
 40
0.8799553417461849
 40
0.9920439000266952
 40
1.068282079911015
 40
1.143037518666407
 40
1.276760465249598
 40
1.371318548977377
 40
1.42224538265788
 40
1.494585445544954
 40
1.546823828113199
 40
1.62249999784403
 40
1.665326164070453
 40
1.75852070559585
 40
1.801074142829983
 40
1.801074142829983
 40
1.801074142829983
 40
1.801074142829983
 10
331.4944423204744
 20
272.6886910223534
 30
0.0
 10
331.4185880459491
 20
272.6841654262588
 30
0.0
 10
331.2919552081876
 20
272.6766102940054
 30
0.0
 10
331.1529131226688
 20
272.592143720254
 30
0.0
 10
331.0510427508479
 20
272.5430385661499
 30
0.0
 10
330.978388925209
 20
272.4762842926292
 30
0.0
 10
330.9251333764987
 20
272.4073320043897
 30
0.0
 10
330.8579947596765
 20
272.3251758585232
 30
0.0
 10
330.8032451361457
 20
272.2295083512006
 30
0.0
 10
330.7753644813256
 20
272.1240660801131
 30
0.0
 10
330.7506680619018
 20
272.0400279782609
 30
0.0
 10
330.7323527838164
 20
271.9463784809427
 30
0.0
 10
330.7370127090602
 20
271.8452040796686
 30
0.0
 10
330.743685935277
 20
271.7512384753561
 30
0.0
 10
330.7734802676206
 20
271.6841611024573
 30
0.0
 10
330.8074107346749
 20
271.6364066352005
 30
0.0
 10
330.8489581269071
 20
271.5838103838053
 30
0.0
 10
330.8944200596779
 20
271.5489760568197
 30
0.0
 10
330.9320207889404
 20
271.485871332675
 30
0.0
 10
330.9978395970782
 20
271.4778187147596
 30
0.0
 10
331.0396766500323
 20
271.4617916017236
 30
0.0
 10
331.05279147077
 20
271.4567675214031
 30
0.0
 11
331.4944423204744
 21
272.6886910223534
 31
0.0
 11
331.2736168956222
 21
272.654315254533
 31
0.0
 11
331.1397831299008
 21
272.5874537812414
 31
0.0
 11
331.0460996862878
 21
272.5339646462031
 31
0.0
 11
330.9858747803014
 21
272.4804752931898
 31
0.0
 11
330.9189580898328
 21
272.4002414816448
 31
0.0
 11
330.8721163680264
 21
272.3400661774799
 31
0.0
 11
330.8051992927734
 21
272.2197153511748
 31
0.0
 11
330.7717411399313
 21
272.1127368631233
 31
0.0
 11
330.7516661712692
 21
272.0391892207049
 31
0.0
 11
330.738282602305
 21
271.9656415782866
 31
0.0
 11
330.738282602305
 21
271.8319186317034
 31
0.0
 11
330.7516661712692
 21
271.7383124819052
 31
0.0
 11
330.7717411399313
 21
271.6915092980185
 31
0.0
 11
330.8118910772557
 21
271.6313339938535
 31
0.0
 11
330.845349614882
 21
271.5912169790935
 31
0.0
 11
330.8988827363863
 21
271.5377278440552
 31
0.0
 11
330.9256494895306
 21
271.5042969984219
 31
0.0
 11
331.0126415334456
 21
271.4708663707636
 31
0.0
 11
331.05279147077
 21
271.4567675214031
 31
0.0
  0
LINE
  5
191B
102
{ACAD_REACTORS
330
192C
102
}
330
18
100
AcDbEntity
  8
ROGO
 62
     4
100
AcDbLine
 10
332.3424117920778
 20
271.9151180819377
 30
0.0
 11
332.1138633992501
 21
271.4567675214031
 31
0.0
  0
LINE
  5
191C
102
{ACAD_REACTORS
330
192C
102
}
330
18
100
AcDbEntity
  8
ROGO
 62
     4
100
AcDbLine
 10
331.5546672264608
 20
271.9151180819377
 30
0.0
 11
332.3424117920778
 21
271.9151180819377
 31
0.0
  0
LINE
  5
191D
102
{ACAD_REACTORS
330
192C
102
}
330
18
100
AcDbEntity
  8
ROGO
 62
     4
100
AcDbLine
 10
331.7286509295066
 20
272.2303356079602
 30
0.0
 11
332.4995894311311
 21
272.2303356079602
 31
0.0
  0
LINE
  5
191E
102
{ACAD_REACTORS
330
192C
102
}
330
18
100
AcDbEntity
  8
ROGO
 62
     4
100
AcDbLine
 10
332.7281402442492
 20
272.6886910223533
 30
0.0
 11
332.4995894311311
 21
272.2303356079602
 31
0.0
  0
LINE
  5
191F
102
{ACAD_REACTORS
330
193C
102
}
330
18
100
AcDbEntity
  8
ROGO
 62
     4
100
AcDbLine
 10
332.9861562300556
 20
272.6886910223533
 30
0.0
 11
333.6954742264187
 21
272.6886910223533
 31
0.0
  0
LINE
  5
1920
102
{ACAD_REACTORS
330
193C
102
}
330
18
100
AcDbEntity
  8
ROGO
 62
     4
100
AcDbLine
 10
332.9861562300556
 20
272.6886910223533
 30
0.0
 11
332.02630663769
 21
270.7637262774842
 31
0.0
  0
LINE
  5
1921
102
{ACAD_REACTORS
330
193C
102
}
330
18
100
AcDbEntity
  8
ROGO
 62
     4
100
AcDbLine
 10
333.6954742264187
 20
272.6886910223533
 30
0.0
 11
333.522419842803
 21
272.3416329102751
 31
0.0
  0
LINE
  5
1922
102
{ACAD_REACTORS
330
193C
102
}
330
18
100
AcDbEntity
  8
ROGO
 62
     4
100
AcDbLine
 10
332.9861562300556
 20
271.2661638402196
 30
0.0
 11
333.2366878260583
 21
270.7637262774842
 31
0.0
  0
LINE
  5
1923
102
{ACAD_REACTORS
330
193C
102
}
330
18
100
AcDbEntity
  8
ROGO
 62
     4
100
AcDbLine
 10
333.4660655069312
 20
271.7262086499188
 30
0.0
 11
333.9459903031139
 21
270.7637262774842
 31
0.0
  0
LINE
  5
1924
102
{ACAD_REACTORS
330
193C
102
}
330
18
100
AcDbEntity
  8
ROGO
 62
     4
100
AcDbLine
 10
332.9861562300556
 20
271.2661638402196
 30
0.0
 11
332.7356246340531
 21
270.7637262774842
 31
0.0
  0
LINE
  5
1925
102
{ACAD_REACTORS
330
193C
102
}
330
18
100
AcDbEntity
  8
ROGO
 62
     4
100
AcDbLine
 10
333.4660655069312
 20
271.7262086499188
 30
0.0
 11
334.6320971134044
 21
272.6886910223533
 31
0.0
  0
LINE
  5
1926
102
{ACAD_REACTORS
330
193C
102
}
330
18
100
AcDbEntity
  8
ROGO
 62
     4
100
AcDbLine
 10
333.9227946363486
 20
272.6886910223533
 30
0.0
 11
334.6320971134044
 21
272.6886910223533
 31
0.0
  0
LINE
  5
1927
102
{ACAD_REACTORS
330
193C
102
}
330
18
100
AcDbEntity
  8
ROGO
 62
     4
100
AcDbLine
 10
333.2366878260583
 20
270.7637262774842
 30
0.0
 11
333.9459903031139
 21
270.7637262774842
 31
0.0
  0
LINE
  5
1928
102
{ACAD_REACTORS
330
192A
102
}
330
18
100
AcDbEntity
  8
ROGO
 62
     4
100
AcDbLine
 10
323.0644465812105
 20
272.6886910223533
 30
0.0
 11
324.7306743671487
 21
272.6886910223534
 31
0.0
  0
LINE
  5
1929
330
18
100
AcDbEntity
  8
ROGO
 62
     4
100
AcDbLine
 10
320.6742493655397
 20
270.9566752465427
 30
0.0
 11
332.1225172253342
 21
270.9566752465427
 31
0.0
  0
HATCH
  5
192A
330
18
100
AcDbEntity
  8
ROGO
 62
     4
100
AcDbHatch
 10
0.0
 20
0.0
 30
0.0
210
0.0
220
0.0
230
1.0
  2
SOLID
 70
     1
 71
     1
 91
        1
 92
        1
 93
       12
 72
     1
 10
323.0644465812105
 20
272.6886910223533
 11
324.7306743671487
 21
272.6886910223534
 72
     1
 10
324.7306743671487
 20
272.6886910223533
 11
324.5910459535565
 21
272.4064940982387
 72
     1
 10
324.5910459535565
 20
272.4064940982387
 11
323.7153187339091
 21
272.4064940982387
 72
     1
 10
323.7153187339091
 20
272.4064940982387
 11
323.6061466655049
 21
272.1858511709838
 72
     1
 10
323.6061466655049
 20
272.1858511709838
 11
324.4818738851523
 21
272.1858511709838
 72
     1
 10
324.4818738851523
 20
272.1858511709838
 11
324.3699281562434
 21
271.9596025189142
 72
     1
 10
324.3699281562434
 20
271.9596025189143
 11
323.4942009365959
 21
271.9596025189142
 72
     1
 10
323.4942009365959
 20
271.9596025189142
 11
323.3850242463711
 21
271.7389502506985
 72
     1
 10
323.3850242463711
 20
271.7389502506985
 11
324.2607514660185
 21
271.7389502506985
 72
     1
 10
324.2607514660185
 20
271.7389502506985
 11
324.1211300758909
 21
271.4567675214031
 72
     1
 10
324.1211300758909
 20
271.4567675214031
 11
322.4549022899526
 21
271.4567675214031
 72
     1
 10
322.4549022899526
 20
271.4567675214031
 11
323.0644465812105
 21
272.6886910223533
 97
       12
330
1928
330
18FD
330
1900
330
18FF
330
1901
330
1904
330
1903
330
1906
330
1902
330
1905
330
18FE
330
18FC
 75
     0
 76
     1
 98
        1
 10
254.9079170518028
 20
187.5066933918921
450
        0
451
        0
460
0.0
461
0.0
452
        0
462
0.0
453
        0
470

  0
HATCH
  5
192B
330
18
100
AcDbEntity
  8
ROGO
 62
     4
100
AcDbHatch
 10
0.0
 20
0.0
 30
0.0
210
0.0
220
0.0
230
1.0
  2
SOLID
 70
     1
 71
     1
 91
        1
 92
        5
 93
        8
 72
     1
 10
328.5302223310706
 20
272.2303356079602
 11
328.7587731441889
 21
272.6886910223534
 72
     1
 10
328.7587731441889
 20
272.6886910223534
 11
327.5250752204142
 21
272.6886910223534
 72
     4
 94
        3
 73
     0
 74
     0
 95
       26
 96
       22
 40
0.0
 40
0.0
 40
0.0
 40
0.0
 40
0.2234850368020611
 40
0.3730909640173049
 40
0.4809690209812992
 40
0.5615180755186499
 40
0.6659944268058665
 40
0.7422519781245713
 40
0.8799553417461909
 40
0.9920439000268267
 40
1.068282079911162
 40
1.143037518666553
 40
1.276760465249744
 40
1.371318548977523
 40
1.422245382657944
 40
1.49458544554505
 40
1.546823828113403
 40
1.622499997844155
 40
1.665326164070649
 40
1.758520705595898
 40
1.801074142830069
 40
1.801074142830069
 40
1.801074142830069
 40
1.801074142830069
 10
327.5250752204142
 20
272.6886910223534
 10
327.4492209458888
 20
272.6841654262587
 10
327.3225881081272
 20
272.6766102940053
 10
327.1835460226084
 20
272.5921437202541
 10
327.0816756507875
 20
272.54303856615
 10
327.0090218251486
 20
272.4762842926292
 10
326.9557662764384
 20
272.4073320043896
 10
326.8886276596163
 20
272.3251758585233
 10
326.8338780360855
 20
272.2295083512006
 10
326.8059973812655
 20
272.1240660801132
 10
326.7813009618415
 20
272.0400279782611
 10
326.7629856837562
 20
271.9463784809427
 10
326.7676456089998
 20
271.8452040796686
 10
326.7743188352164
 20
271.7512384753561
 10
326.8041131675605
 20
271.6841611024574
 10
326.8380436346144
 20
271.6364066352004
 10
326.8795910268468
 20
271.5838103838054
 10
326.9250529596174
 20
271.5489760568196
 10
326.9626536888802
 20
271.485871332675
 10
327.0284724970178
 20
271.4778187147597
 10
327.070309549972
 20
271.4617916017236
 10
327.0834243707096
 20
271.4567675214031
 72
     1
 10
327.0834243707096
 20
271.4567675214031
 11
328.1444962991898
 21
271.4567675214031
 72
     1
 10
328.1444962991898
 20
271.4567675214031
 11
328.3730446920175
 21
271.9151180819379
 72
     1
 10
328.3730446920175
 20
271.9151180819379
 11
327.5853001264005
 21
271.9151180819378
 72
     4
 94
        3
 73
     0
 74
     0
 95
       16
 96
       12
 40
0.0
 40
0.0
 40
0.0
 40
0.0
 40
0.0674918873195754
 40
0.1356799044286516
 40
0.1763509919951594
 40
0.2153461943481703
 40
0.2581721904195687
 40
0.2880786719857451
 40
0.3164573274349199
 40
0.374005166381533
 40
0.4918277573139375
 40
0.4918277573139375
 40
0.4918277573139375
 40
0.4918277573139375
 10
327.5853001264005
 20
271.9151180819377
 10
327.5615389742461
 20
271.9221089613025
 10
327.5137715909139
 20
271.9361628258745
 10
327.5097738466592
 20
272.0042907983459
 10
327.5152201948332
 20
272.0528375536247
 10
327.5380295131488
 20
272.0881824264158
 10
327.5657011724897
 20
272.1139004718285
 10
327.576004558534
 20
272.1473942048053
 10
327.6062904230759
 20
272.1726861636341
 10
327.65999537584
 20
272.2151984133731
 10
327.7193837567188
 20
272.224252572693
 10
327.7592838294462
 20
272.2303356079602
 72
     1
 10
327.7592838294462
 20
272.2303356079602
 11
328.5302223310706
 21
272.2303356079602
 97
        8
330
1916
330
1913
330
190F
330
1915
330
1912
330
1914
330
1911
330
1910
 75
     0
 76
     1
 47
0.0514683685270805
 98
        1
 10
327.956545061228
 20
272.4144504084456
450
        0
451
        0
460
0.0
461
0.0
452
        0
462
0.0
453
        0
470

  0
HATCH
  5
192C
330
18
100
AcDbEntity
  8
ROGO
 62
     4
100
AcDbHatch
 10
0.0
 20
0.0
 30
0.0
210
0.0
220
0.0
230
1.0
  2
SOLID
 70
     1
 71
     1
 91
        1
 92
        5
 93
        8
 72
     4
 94
        3
 73
     0
 74
     0
 95
       26
 96
       22
 40
0.0
 40
0.0
 40
0.0
 40
0.0
 40
0.2234850368019487
 40
0.3730909640170909
 40
0.4809690209811345
 40
0.5615180755184426
 40
0.6659944268057684
 40
0.7422519781244385
 40
0.8799553417461849
 40
0.9920439000266952
 40
1.068282079911015
 40
1.143037518666407
 40
1.276760465249598
 40
1.371318548977377
 40
1.42224538265788
 40
1.494585445544954
 40
1.546823828113199
 40
1.62249999784403
 40
1.665326164070453
 40
1.75852070559585
 40
1.801074142829983
 40
1.801074142829983
 40
1.801074142829983
 40
1.801074142829983
 10
331.4944423204744
 20
272.6886910223534
 10
331.4185880459491
 20
272.6841654262588
 10
331.2919552081876
 20
272.6766102940054
 10
331.1529131226688
 20
272.592143720254
 10
331.0510427508479
 20
272.5430385661499
 10
330.978388925209
 20
272.4762842926292
 10
330.9251333764987
 20
272.4073320043897
 10
330.8579947596765
 20
272.3251758585232
 10
330.8032451361457
 20
272.2295083512006
 10
330.7753644813256
 20
272.1240660801131
 10
330.7506680619018
 20
272.0400279782609
 10
330.7323527838164
 20
271.9463784809427
 10
330.7370127090602
 20
271.8452040796686
 10
330.743685935277
 20
271.7512384753561
 10
330.7734802676206
 20
271.6841611024573
 10
330.8074107346749
 20
271.6364066352005
 10
330.8489581269071
 20
271.5838103838053
 10
330.8944200596779
 20
271.5489760568197
 10
330.9320207889404
 20
271.485871332675
 10
330.9978395970782
 20
271.4778187147596
 10
331.0396766500323
 20
271.4617916017236
 10
331.05279147077
 20
271.4567675214031
 72
     1
 10
331.0527914707697
 20
271.4567675214031
 11
332.1138633992502
 21
271.4567675214031
 72
     1
 10
332.1138633992502
 20
271.4567675214031
 11
332.3424117920779
 21
271.9151180819377
 72
     1
 10
332.3424117920779
 20
271.9151180819377
 11
331.5546672264609
 21
271.9151180819377
 72
     4
 94
        3
 73
     0
 74
     0
 95
       16
 96
       12
 40
0.0
 40
0.0
 40
0.0
 40
0.0
 40
0.0674918873195241
 40
0.1356799044287118
 40
0.1763509919951541
 40
0.215346194348243
 40
0.2581721904196059
 40
0.2880786719858587
 40
0.3164573274349932
 40
0.3740051663814543
 40
0.4918277573139686
 40
0.4918277573139686
 40
0.4918277573139686
 40
0.4918277573139686
 10
331.5546672264609
 20
271.9151180819377
 10
331.5309060743067
 20
271.9221089613025
 10
331.4831386909742
 20
271.9361628258745
 10
331.4791409467196
 20
272.0042907983458
 10
331.4845872948934
 20
272.0528375536248
 10
331.5073966132092
 20
272.0881824264157
 10
331.5350682725498
 20
272.1139004718285
 10
331.5453716585945
 20
272.1473942048053
 10
331.5756575231363
 20
272.1726861636339
 10
331.6293624759003
 20
272.2151984133733
 10
331.688750856779
 20
272.224252572693
 10
331.7286509295066
 20
272.2303356079602
 72
     1
 10
331.7286509295065
 20
272.2303356079602
 11
332.4995894311312
 21
272.2303356079602
 72
     1
 10
332.4995894311312
 20
272.2303356079602
 11
332.7281402442492
 21
272.6886910223533
 72
     1
 10
332.7281402442492
 20
272.6886910223533
 11
331.4944423204742
 21
272.6886910223533
 97
        8
330
1918
330
191A
330
1917
330
191B
330
191C
330
1919
330
191D
330
191E
 75
     0
 76
     1
 47
0.0514683685270805
 98
        1
 10
331.707324316893
 20
272.4631216391934
450
        0
451
        0
460
0.0
461
0.0
452
        0
462
0.0
453
        0
470

  0
HATCH
  5
192D
330
18
100
AcDbEntity
  8
ROGO
 62
     4
100
AcDbHatch
 10
0.0
 20
0.0
 30
0.0
210
0.0
220
0.0
230
1.0
  2
SOLID
 70
     1
 71
     0
 91
        1
 92
        7
 72
     0
 73
     1
 93
        4
 10
320.6876305811637
 20
270.9566752465426
 10
320.6003349943198
 20
270.7637262774843
 10
332.02630663769
 20
270.7637262774842
 10
332.1225172253342
 20
270.9566752465428
 97
        0
 75
     0
 76
     1
 47
0.0514683685270805
 98
        1
 10
327.9078336723066
 20
270.9056433451409
450
        0
451
        0
460
0.0
461
0.0
452
        0
462
0.0
453
        0
470

  0
HATCH
  5
192E
330
18
100
AcDbEntity
  8
ROGO
 62
     4
100
AcDbHatch
 10
0.0
 20
0.0
 30
0.0
210
0.0
220
0.0
230
1.0
  2
SOLID
 70
     1
 71
     1
 91
        2
 92
        5
 93
        6
 72
     1
 10
319.7055291084621
 20
270.7637262774842
 11
320.6003349943197
 21
270.7637262774842
 72
     1
 10
320.6003349943197
 20
270.7637262774842
 11
320.9138865120611
 21
271.4567675214031
 72
     1
 10
320.9138865120611
 20
271.4567675214031
 11
321.7503464896636
 21
271.4567675214032
 72
     4
 94
        3
 73
     0
 74
     0
 95
       18
 96
       14
 40
0.108740278791501
 40
0.108740278791501
 40
0.108740278791501
 40
0.108740278791501
 40
0.6623149649549278
 40
1.384304701649787
 40
2.097394834876493
 40
2.774073369849618
 40
3.428974823686337
 40
4.005208313035923
 40
4.455173659284313
 40
4.720999734343524
 40
5.086034088486724
 40
5.569973738255373
 40
6.060470601257719
 40
6.060470601257719
 40
6.060470601257719
 40
6.060470601257719
 10
321.7503464896635
 20
271.4567675214031
 10
321.8092151609779
 20
271.4572058985737
 10
321.9448622283503
 20
271.4582160212119
 10
322.1346314141744
 20
271.5595948901853
 10
322.3145868229841
 20
271.6887441828913
 10
322.459528662665
 20
271.8501027499526
 10
322.5498317957015
 20
272.0345886268088
 10
322.563819465576
 20
272.2114013942613
 10
322.5552803367707
 20
272.3512580951612
 10
322.4942639724511
 20
272.4487416877678
 10
322.4308300159987
 20
272.5476775652611
 10
322.314513589771
 20
272.6333794970732
 10
322.2192091207378
 20
272.6709296828984
 10
322.1707448598774
 20
272.6886910223534
 72
     1
 10
322.1707448598775
 20
272.6886910223533
 11
320.657983761858
 21
272.6886910223533
 72
     1
 10
320.657983761858
 20
272.6886910223533
 11
319.7055291084621
 21
270.7637262774842
 97
        6
330
18F5
330
18F2
330
18F4
330
18F3
330
18FB
330
18F6
 92
       20
 93
        4
 72
     1
 10
321.1074868237423
 20
271.8846812556347
 11
321.2557120454233
 21
272.2123026709411
 72
     1
 10
321.2557120454233
 20
272.2123026709411
 11
321.636587692604
 21
272.212302670941
 72
     4
 94
        3
 73
     0
 74
     0
 95
       15
 96
       11
 40
0.0
 40
0.0
 40
0.0
 40
0.0
 40
0.1444470268156599
 40
0.2103069258834997
 40
0.2850622957513877
 40
0.3359891294319132
 40
0.4165304450834989
 40
0.4647724930146942
 40
0.5475400388213481
 40
0.5751292383652494
 40
0.5751292383652494
 40
0.5751292383652494
 40
0.5751292383652494
 10
321.6365876926041
 20
272.212302670941
 10
321.6908391947213
 20
272.2125511717794
 10
321.7698263977557
 20
272.2129129753315
 10
321.8130194135814
 20
272.1152055767553
 10
321.7936582444383
 20
272.0522972542403
 10
321.7693196768645
 20
271.9877100141244
 10
321.7263079156403
 20
271.9438220103518
 10
321.6685798320183
 20
271.9015504642229
 10
321.6140240342904
 20
271.8964333042809
 10
321.5785416119635
 20
271.887031666264
 10
321.5696710021356
 20
271.8846812556346
 72
     1
 10
321.5696710021355
 20
271.8846812556346
 11
321.1074868237423
 21
271.8846812556347
 97
        4
330
18F7
330
18F9
330
18F8
330
18FA
 75
     0
 76
     1
 47
0.0514683685270805
 98
        2
 10
320.6660692352248
 20
272.0899759000858
 10
320.6660692352248
 20
272.0899759000858
450
        0
451
        0
460
0.0
461
0.0
452
        0
462
0.0
453
        0
470

  0
LINE
  5
192F
102
{ACAD_REACTORS
330
1932
102
}
330
18
100
AcDbEntity
  8
ROGO
 62
     4
100
AcDbLine
 10
326.1987791189135
 20
272.6886910223533
 30
0.0
 11
326.7460483519365
 21
271.4567675214031
 31
0.0
  0
LINE
  5
1930
102
{ACAD_REACTORS
330
1932
102
}
330
18
100
AcDbEntity
  8
ROGO
 62
     4
100
AcDbLine
 10
325.6581476392147
 20
272.3593928636439
 30
0.0
 11
325.8450335299698
 21
271.9387057375913
 31
0.0
  0
LINE
  5
1931
102
{ACAD_REACTORS
330
1932
102
}
330
18
100
AcDbEntity
  8
ROGO
 62
     4
100
AcDbLine
 10
325.9549329060801
 20
271.6913181338298
 30
0.0
 11
326.0591295819847
 21
271.4567675214031
 31
0.0
  0
HATCH
  5
1932
330
18
100
AcDbEntity
  8
ROGO
 62
     4
100
AcDbHatch
 10
0.0
 20
0.0
 30
0.0
210
0.0
220
0.0
230
1.0
  2
SOLID
 70
     1
 71
     1
 91
        2
 92
        7
 72
     0
 73
     1
 93
        8
 10
326.1987791189135
 20
272.6886910223533
 10
325.2133458237808
 20
272.6886910223533
 10
324.3249818450915
 20
271.4567675214031
 10
325.007246962606
 20
271.4567675214031
 10
325.1763859676648
 20
271.6913181338298
 10
325.9549329060801
 20
271.6913181338298
 10
326.0591295819848
 20
271.4567675214032
 10
326.7460483519365
 20
271.4567675214031
 97
        8
330
190D
330
1907
330
190C
330
190B
330
1909
330
1931
330
190E
330
192F
 92
       22
 72
     0
 73
     1
 93
        3
 10
325.8450335299698
 20
271.9387057375914
 10
325.3547819766593
 20
271.9387057375914
 10
325.6581476392147
 20
272.3593928636437
 97
        3
330
190A
330
1908
330
1930
 75
     0
 76
     1
 47
0.0128389261915577
 98
        2
 10
326.1216119054738
 20
272.3931352675619
 10
326.1216119054738
 20
272.3931352675619
450
        0
451
        0
460
0.0
461
0.0
452
        0
462
0.0
453
        0
470

  0
SPLINE
  5
1933
102
{ACAD_REACTORS
330
193A
102
}
330
18
100
AcDbEntity
  8
ROGO
 62
     4
100
AcDbSpline
210
0.0
220
0.0
230
1.0
 70
     8
 71
     3
 72
    38
 73
    34
 74
    32
 42
0.0000000001
 43
0.0000000001
 44
0.0000000001
 40
0.0
 40
0.0
 40
0.0
 40
0.0
 40
0.1695870429095464
 40
0.2228468679889985
 40
0.2912821220253952
 40
0.348311612018577
 40
0.3964299014800401
 40
0.4603419710655682
 40
0.4929985196839283
 40
0.5297783653748024
 40
0.583984936721121
 40
0.6453892195888884
 40
0.6852215765239728
 40
0.7284928789664047
 40
0.7765938613609417
 40
0.849589539512636
 40
0.9189430460054206
 40
0.9511851450558513
 40
0.9879529458657232
 40
1.031510647719719
 40
1.062518134121203
 40
1.088511337635065
 40
1.125623760137804
 40
1.166403955147492
 40
1.207183923099725
 40
1.242866451822257
 40
1.324585785261427
 40
1.356827884311857
 40
1.42131212071152
 40
1.478313317082646
 40
1.587437834126957
 40
1.722086189114383
 40
1.91653800761297
 40
1.91653800761297
 40
1.91653800761297
 40
1.91653800761297
 10
329.4428939813819
 20
272.6938294612729
 30
0.0
 10
329.386365536831
 20
272.6898361251356
 30
0.0
 10
329.3120839961878
 20
272.6845886579013
 30
0.0
 10
329.2177638082719
 20
272.6587477384736
 30
0.0
 10
329.166348870447
 20
272.627962882399
 30
0.0
 10
329.1128413508719
 20
272.6053345375728
 30
0.0
 10
329.0672212069842
 20
272.5718264461874
 30
0.0
 10
329.0210773945554
 20
272.554560049522
 30
0.0
 10
328.9887660845537
 20
272.5234256501259
 30
0.0
 10
328.951368378811
 20
272.5044074151904
 30
0.0
 10
328.9215879217502
 20
272.4618390763966
 30
0.0
 10
328.8883018173515
 20
272.4220392221685
 30
0.0
 10
328.8496857487061
 20
272.3929871035879
 30
0.0
 10
328.8179930229063
 20
272.3624738791758
 30
0.0
 10
328.7889193538164
 20
272.3153828057267
 30
0.0
 10
328.7717122552178
 20
272.2528127134481
 30
0.0
 10
328.723208332512
 20
272.2133082137016
 30
0.0
 10
328.715905160395
 20
272.1658120177228
 30
0.0
 10
328.6890761616202
 20
272.1377900613392
 30
0.0
 10
328.6774099746266
 20
272.1016177413519
 30
0.0
 10
328.672966929069
 20
272.0684775068759
 30
0.0
 10
328.6676342149549
 20
272.0375268220183
 30
0.0
 10
328.6536848447742
 20
272.0049680687335
 30
0.0
 10
328.6582379673296
 20
271.9647494280616
 30
0.0
 10
328.6569409194077
 20
271.9258043833773
 30
0.0
 10
328.6577042336324
 20
271.8732273603333
 30
0.0
 10
328.6549493268831
 20
271.8220371627739
 30
0.0
 10
328.6769186286166
 20
271.766330086401
 30
0.0
 10
328.6899193322989
 20
271.7166749346368
 30
0.0
 10
328.7255238741838
 20
271.647921355651
 30
0.0
 10
328.7869409627939
 20
271.5685945914313
 30
0.0
 10
328.9037306942069
 20
271.4723069294368
 30
0.0
 10
329.0160274355954
 20
271.4625389943357
 30
0.0
 10
329.0823789824303
 20
271.4567675214031
 30
0.0
 11
329.4428939813819
 21
272.6938294612729
 31
0.0
 11
329.2745372042186
 21
272.6734392502394
 31
0.0
 11
329.2235200111638
 21
272.6581469325503
 31
0.0
 11
329.1622996199878
 21
272.6275618430574
 31
0.0
 11
329.1112824269328
 21
272.6020744198517
 31
0.0
 11
329.0704688328156
 21
272.5765867695884
 31
0.0
 11
329.0143500407002
 21
272.5460019071529
 31
0.0
 11
328.9888412437642
 21
272.5256119231768
 31
0.0
 11
328.958230847768
 21
272.5052217121432
 31
0.0
 11
328.922518852711
 21
272.464441744191
 31
0.0
 11
328.8817052585938
 21
272.4185643370091
 31
0.0
 11
328.8510948625974
 21
272.3930766867458
 31
0.0
 11
328.8204848674181
 21
272.3624918243104
 31
0.0
 11
328.794976070482
 21
272.3217118563581
 31
0.0
 11
328.7643660753027
 21
272.2554442381426
 31
0.0
 11
328.7235520803684
 21
272.1993717254439
 31
0.0
 11
328.7133488822477
 21
272.168786635951
 31
0.0
 11
328.692942085189
 21
272.1382017735156
 31
0.0
 11
328.6776368871908
 21
272.0974215785058
 31
0.0
 11
328.6725348873135
 21
272.0668367160704
 31
0.0
 11
328.667433288253
 21
272.0413490658072
 31
0.0
 11
328.6572300901322
 21
272.0056667641419
 31
0.0
 11
328.6572300901322
 21
271.9648865691322
 31
0.0
 11
328.6572300901322
 21
271.92410660118
 31
0.0
 11
328.6572300901322
 21
271.8884240724575
 31
0.0
 11
328.6623316891927
 21
271.8068641365529
 31
0.0
 11
328.6725348873135
 21
271.77627904706
 31
0.0
 11
328.692942085189
 21
271.7151090951317
 31
0.0
 11
328.718450481308
 21
271.6641340216626
 31
0.0
 11
328.7847728723612
 21
271.5774766465285
 31
0.0
 11
328.8919088575316
 21
271.4959164835664
 31
0.0
 11
329.0823789824303
 21
271.4567675214031
 31
0.0
  0
SPLINE
  5
1934
102
{ACAD_REACTORS
330
193A
102
}
330
18
100
AcDbEntity
  8
ROGO
 62
     4
100
AcDbSpline
210
0.0
220
0.0
230
1.0
 70
     8
 71
     3
 72
    25
 73
    21
 74
     0
 42
0.0000000001
 43
0.0000000001
 40
0.0
 40
0.0
 40
0.0
 40
0.0
 40
0.4087168505087288
 40
0.6887487002771746
 40
0.9415836120477687
 40
1.17452070575514
 40
1.41154617586699
 40
1.599156012919487
 40
1.80099909059943
 40
2.178735911501585
 40
2.521686161369157
 40
2.762704659361267
 40
3.06256558063785
 40
3.222432137207705
 40
3.399493810628493
 40
3.567459719866414
 40
3.743172740007509
 40
3.995988754699505
 40
4.17170091132118
 40
4.337226830236035
 40
4.337226830236035
 40
4.337226830236035
 40
4.337226830236035
 10
330.1469302835799
 20
272.6938294612729
 30
0.0
 10
330.1931059458593
 20
272.692345884868
 30
0.0
 10
330.2709188066201
 20
272.6898458379056
 30
0.0
 10
330.3544605122264
 20
272.6245482559132
 30
0.0
 10
330.4183842067958
 20
272.5704115574678
 30
0.0
 10
330.4637580386541
 20
272.5049628240196
 30
0.0
 10
330.503529473568
 20
272.4447862000015
 30
0.0
 10
330.5297358338334
 20
272.3812535309845
 30
0.0
 10
330.5653816614567
 20
272.3050201466126
 30
0.0
 10
330.5801372730869
 20
272.2030312041986
 30
0.0
 10
330.5701681029112
 20
272.0976162219594
 30
0.0
 10
330.5441532234755
 20
272.0041755367283
 30
0.0
 10
330.516865706563
 20
271.9324900380146
 30
0.0
 10
330.4847041196875
 20
271.8700833641601
 30
0.0
 10
330.4463633983382
 20
271.8296750379982
 30
0.0
 10
330.4197641468489
 20
271.7782962452039
 30
0.0
 10
330.3686703872794
 20
271.7362711511132
 30
0.0
 10
330.3272510296969
 20
271.6844180834305
 30
0.0
 10
330.2802486848628
 20
271.6399120440349
 30
0.0
 10
330.2537485544957
 20
271.6124523540697
 30
0.0
 10
330.2397770466992
 20
271.6009068142483
 30
0.0
  0
LINE
  5
1935
102
{ACAD_REACTORS
330
193A
102
}
330
18
100
AcDbEntity
  8
ROGO
 62
     4
100
AcDbLine
 10
329.4428939813818
 20
272.6938294612729
 30
0.0
 11
330.1469302835799
 21
272.6938294612729
 31
0.0
  0
LINE
  5
1936
102
{ACAD_REACTORS
330
193A
102
}
330
18
100
AcDbEntity
  8
ROGO
 62
     4
100
AcDbLine
 10
329.0823789824302
 20
271.4567675214031
 30
0.0
 11
329.7864152846283
 21
271.4567675214031
 31
0.0
  0
SPLINE
  5
1937
102
{ACAD_REACTORS
330
193A
102
}
330
18
100
AcDbEntity
  8
ROGO
 62
     4
100
AcDbSpline
210
0.0
220
0.0
230
1.0
 70
     8
 71
     3
 72
    11
 73
     7
 74
     0
 42
0.0000000001
 43
0.0000000001
 40
0.1647869275458134
 40
0.1647869275458134
 40
0.1647869275458134
 40
0.1647869275458134
 40
0.2895635144633836
 40
0.5387013147903714
 40
0.7953622617455423
 40
0.8850764140209602
 40
0.8850764140209602
 40
0.8850764140209602
 40
0.8850764140209602
 10
330.0209685131045
 20
271.4842331439188
 30
0.0
 10
330.0078545795359
 20
271.4805828755116
 30
0.0
 10
329.9671943223942
 20
271.4740837751754
 30
0.0
 10
329.8989921631021
 20
271.4651597471369
 30
0.0
 10
329.8341694218629
 20
271.4558471982891
 30
0.0
 10
329.7962394706749
 20
271.4565781885826
 30
0.0
 10
329.7864152846284
 20
271.4567675214031
 30
0.0
  0
SPLINE
  5
1938
102
{ACAD_REACTORS
330
193A
102
}
330
18
100
AcDbEntity
  8
ROGO
 62
     4
100
AcDbSpline
210
0.0
220
0.0
230
1.0
 70
     8
 71
     3
 72
     9
 73
     5
 74
     3
 42
0.0000000001
 43
0.0000000001
 44
0.0000000001
 40
0.0
 40
0.0
 40
0.0
 40
0.0
 40
0.1065541570915573
 40
0.2498228725988719
 40
0.2498228725988719
 40
0.2498228725988719
 40
0.2498228725988719
 10
330.0209685131045
 20
271.4842331439188
 30
0.0
 10
330.0551967912302
 20
271.4947050638955
 30
0.0
 10
330.135447125885
 20
271.5192571339567
 30
0.0
 10
330.2017522855589
 20
271.5711482410025
 30
0.0
 10
330.2397770466992
 20
271.6009068142483
 30
0.0
 11
330.0209685131045
 21
271.4842331439188
 31
0.0
 11
330.1211164648901
 21
271.5206223751096
 31
0.0
 11
330.2397770466992
 21
271.6009068142483
 31
0.0
  0
ELLIPSE
  5
1939
102
{ACAD_REACTORS
330
193A
102
}
330
18
100
AcDbEntity
  8
ROGO
 62
     4
100
AcDbEllipse
 10
329.6046853757191
 20
272.0580507289437
 30
0.0
 11
0.1672573360709411
 21
0.1470818975306736
 31
0.0
210
0.0
220
0.0
230
1.0
 40
0.6788083417438791
 41
0.0
 42
6.283185307179586
  0
HATCH
  5
193A
330
18
100
AcDbEntity
  8
ROGO
 62
     4
100
AcDbHatch
 10
0.0
 20
0.0
 30
0.0
210
0.0
220
0.0
230
1.0
  2
SOLID
 70
     1
 71
     1
 91
        2
 92
        5
 93
        6
 72
     4
 94
        3
 73
     0
 74
     0
 95
       38
 96
       34
 40
0.0
 40
0.0
 40
0.0
 40
0.0
 40
0.1695870429095464
 40
0.2228468679889985
 40
0.2912821220253952
 40
0.348311612018577
 40
0.3964299014800401
 40
0.4603419710655682
 40
0.4929985196839283
 40
0.5297783653748024
 40
0.583984936721121
 40
0.6453892195888884
 40
0.6852215765239728
 40
0.7284928789664047
 40
0.7765938613609417
 40
0.849589539512636
 40
0.9189430460054206
 40
0.9511851450558513
 40
0.9879529458657232
 40
1.031510647719719
 40
1.062518134121203
 40
1.088511337635065
 40
1.125623760137804
 40
1.166403955147492
 40
1.207183923099725
 40
1.242866451822257
 40
1.324585785261427
 40
1.356827884311857
 40
1.42131212071152
 40
1.478313317082646
 40
1.587437834126957
 40
1.722086189114383
 40
1.91653800761297
 40
1.91653800761297
 40
1.91653800761297
 40
1.91653800761297
 10
329.4428939813819
 20
272.6938294612729
 10
329.386365536831
 20
272.6898361251356
 10
329.3120839961878
 20
272.6845886579013
 10
329.2177638082719
 20
272.6587477384736
 10
329.166348870447
 20
272.627962882399
 10
329.1128413508719
 20
272.6053345375728
 10
329.0672212069842
 20
272.5718264461874
 10
329.0210773945554
 20
272.554560049522
 10
328.9887660845537
 20
272.5234256501259
 10
328.951368378811
 20
272.5044074151904
 10
328.9215879217502
 20
272.4618390763966
 10
328.8883018173515
 20
272.4220392221685
 10
328.8496857487061
 20
272.3929871035879
 10
328.8179930229063
 20
272.3624738791758
 10
328.7889193538164
 20
272.3153828057267
 10
328.7717122552178
 20
272.2528127134481
 10
328.723208332512
 20
272.2133082137016
 10
328.715905160395
 20
272.1658120177228
 10
328.6890761616202
 20
272.1377900613392
 10
328.6774099746266
 20
272.1016177413519
 10
328.672966929069
 20
272.0684775068759
 10
328.6676342149549
 20
272.0375268220183
 10
328.6536848447742
 20
272.0049680687335
 10
328.6582379673296
 20
271.9647494280616
 10
328.6569409194077
 20
271.9258043833773
 10
328.6577042336324
 20
271.8732273603333
 10
328.6549493268831
 20
271.8220371627739
 10
328.6769186286166
 20
271.766330086401
 10
328.6899193322989
 20
271.7166749346368
 10
328.7255238741838
 20
271.647921355651
 10
328.7869409627939
 20
271.5685945914313
 10
328.9037306942069
 20
271.4723069294368
 10
329.0160274355954
 20
271.4625389943357
 10
329.0823789824303
 20
271.4567675214031
 72
     1
 10
329.0823789824303
 20
271.4567675214031
 11
329.7864152846282
 21
271.4567675214031
 72
     4
 94
        3
 73
     0
 74
     0
 95
       11
 96
        7
 40
0.1647869275458135
 40
0.1647869275458135
 40
0.1647869275458135
 40
0.1647869275458135
 40
0.2545010798212315
 40
0.5111620267764023
 40
0.7602998271033902
 40
0.8850764140209603
 40
0.8850764140209603
 40
0.8850764140209603
 40
0.8850764140209603
 10
329.7864152846284
 20
271.4567675214031
 10
329.7962394706749
 20
271.4565781885826
 10
329.8341694218629
 20
271.4558471982891
 10
329.8989921631021
 20
271.4651597471369
 10
329.9671943223942
 20
271.4740837751754
 10
330.0078545795359
 20
271.4805828755116
 10
330.0209685131045
 20
271.4842331439188
 72
     4
 94
        3
 73
     0
 74
     0
 95
        9
 96
        5
 40
0.0
 40
0.0
 40
0.0
 40
0.0
 40
0.1065541570915573
 40
0.2498228725988719
 40
0.2498228725988719
 40
0.2498228725988719
 40
0.2498228725988719
 10
330.0209685131045
 20
271.4842331439188
 10
330.0551967912302
 20
271.4947050638955
 10
330.135447125885
 20
271.5192571339567
 10
330.2017522855589
 20
271.5711482410025
 10
330.2397770466992
 20
271.6009068142483
 72
     4
 94
        3
 73
     0
 74
     0
 95
       25
 96
       21
 40
0.0
 40
0.0
 40
0.0
 40
0.0
 40
0.165525918914855
 40
0.3412380755365305
 40
0.5940540902285263
 40
0.7697671103696209
 40
0.9377330196075423
 40
1.11479469302833
 40
1.274661249598185
 40
1.574522170874768
 40
1.815540668866877
 40
2.15849091873445
 40
2.536227739636605
 40
2.738070817316548
 40
2.925680654369045
 40
3.162706124480894
 40
3.395643218188267
 40
3.648478129958861
 40
3.928509979727306
 40
4.337226830236035
 40
4.337226830236035
 40
4.337226830236035
 40
4.337226830236035
 10
330.2397770466992
 20
271.6009068142483
 10
330.2537485544957
 20
271.6124523540697
 10
330.2802486848628
 20
271.6399120440349
 10
330.3272510296969
 20
271.6844180834305
 10
330.3686703872794
 20
271.7362711511132
 10
330.4197641468489
 20
271.7782962452039
 10
330.4463633983382
 20
271.8296750379982
 10
330.4847041196875
 20
271.8700833641601
 10
330.516865706563
 20
271.9324900380146
 10
330.5441532234755
 20
272.0041755367283
 10
330.5701681029112
 20
272.0976162219594
 10
330.5801372730869
 20
272.2030312041986
 10
330.5653816614567
 20
272.3050201466126
 10
330.5297358338334
 20
272.3812535309845
 10
330.503529473568
 20
272.4447862000015
 10
330.4637580386541
 20
272.5049628240196
 10
330.4183842067958
 20
272.5704115574678
 10
330.3544605122264
 20
272.6245482559132
 10
330.2709188066201
 20
272.6898458379056
 10
330.1931059458593
 20
272.692345884868
 10
330.1469302835799
 20
272.6938294612729
 72
     1
 10
330.1469302835799
 20
272.6938294612729
 11
329.4428939813819
 21
272.6938294612729
 97
        6
330
1934
330
1935
330
1933
330
1936
330
1937
330
1938
 92
       20
 93
        1
 72
     3
 10
329.6046853757191
 20
272.0580507289437
 11
0.1672573360709411
 21
0.1470818975306736
 40
0.6788083417438791
 50
0.0
 51
360.0
 73
     1
 97
        1
330
1939
 75
     0
 76
     1
 47
0.088756267210375
 98
        2
 10
329.6538736407013
 20
272.3521479961791
 10
329.6538736407013
 20
272.3521479961791
450
        0
451
        0
460
0.0
461
0.0
452
        0
462
0.0
453
        0
470

  0
LINE
  5
193B
102
{ACAD_REACTORS
330
193C
102
}
330
18
100
AcDbEntity
  8
ROGO
 62
     4
100
AcDbLine
 10
333.522419842803
 20
272.3416329102751
 30
0.0
 11
333.9227946363486
 21
272.6886910223533
 31
0.0
  0
HATCH
  5
193C
330
18
100
AcDbEntity
  8
ROGO
 62
     4
100
AcDbHatch
 10
0.0
 20
0.0
 30
0.0
210
0.0
220
0.0
230
1.0
  2
SOLID
 70
     1
 71
     1
 91
        1
 92
        7
 72
     0
 73
     1
 93
       11
 10
333.522419842803
 20
272.3416329102748
 10
333.6954742264187
 20
272.6886910223533
 10
332.9861562300556
 20
272.6886910223533
 10
332.0263066376901
 20
270.7637262774842
 10
332.7356246340532
 20
270.7637262774842
 10
332.9861562300556
 20
271.2661638402196
 10
333.2366878260584
 20
270.7637262774843
 10
333.945990303114
 20
270.7637262774842
 10
333.4660655069312
 20
271.7262086499189
 10
334.6320971134044
 20
272.6886910223533
 10
333.9227946363485
 20
272.6886910223533
 97
       11
330
1926
330
193B
330
1921
330
191F
330
1920
330
18F3
330
1924
330
1922
330
1927
330
1923
330
1925
 75
     0
 76
     1
 47
0.015942268611278
 98
        1
 10
333.3690513104628
 20
272.0641954304248
450
        0
451
        0
460
0.0
461
0.0
452
        0
462
0.0
453
        0
470

  0
TEXT
  5
193D
330
18
100
AcDbEntity
  8
文字
100
AcDbText
 10
323.6947125151774
 20
275.135867776327
 30
0.0
 40
1.0
  1
0.001mm
  7
STYLE3
100
AcDbText
  0
LINE
  5
193E
102
{ACAD_REACTORS
330
1940
102
}
330
18
100
AcDbEntity
  8
外形線
100
AcDbLine
 10
326.5771195457852
 20
277.4164525452909
 30
0.0
 11
325.4104528791185
 21
277.841084485268
 31
0.0
  0
LINE
  5
193F
102
{ACAD_REACTORS
330
1940
102
}
330
18
100
AcDbEntity
  8
外形線
100
AcDbLine
 10
326.5771195457852
 20
277.4164525452909
 30
0.0
 11
325.4104528791185
 21
276.9918206053136
 31
0.0
  0
HATCH
  5
1940
330
18
100
AcDbEntity
  8
外形線
100
AcDbHatch
 10
0.0
 20
0.0
 30
0.0
210
0.0
220
0.0
230
1.0
  2
SOLID
 70
     1
 71
     1
 91
        2
 92
        1
 93
        4
 72
     1
 10
326.7437862124519
 20
276.6664525452908
 11
326.5771195457852
 21
276.6664525452908
 72
     1
 10
326.5771195457852
 20
276.6664525452908
 11
326.5771195457852
 21
278.1664525452908
 72
     1
 10
326.5771195457852
 20
278.1664525452908
 11
326.7437862124519
 21
278.1664525452908
 72
     1
 10
326.7437862124519
 20
278.1664525452908
 11
326.7437862124519
 21
276.6664525452908
 97
        4
330
1954
330
1952
330
1953
330
1949
 92
        1
 93
        7
 72
     1
 10
325.4104528791186
 20
277.2497858786242
 11
325.4104528791186
 21
276.9918206053136
 72
     1
 10
325.4104528791185
 20
276.9918206053136
 11
326.5771195457852
 21
277.4164525452909
 72
     1
 10
326.5771195457852
 20
277.4164525452909
 11
325.4104528791185
 21
277.841084485268
 72
     1
 10
325.4104528791186
 20
277.841084485268
 11
325.4104528791186
 21
277.5831192119575
 72
     1
 10
325.4104528791186
 20
277.5831192119575
 11
324.4104528791185
 21
277.5831192119574
 72
     1
 10
324.4104528791185
 20
277.5831192119574
 11
324.4104528791185
 21
277.2497858786242
 72
     1
 10
324.4104528791185
 20
277.2497858786242
 11
325.4104528791186
 21
277.2497858786242
 97
        7
330
1945
330
193F
330
193E
330
1944
330
1941
330
1942
330
1943
 75
     0
 76
     1
 98
        1
 10
692.7458413160485
 20
39.65653949145235
450
        0
451
        0
460
0.0
461
0.0
452
        0
462
0.0
453
        0
470

  0
LINE
  5
1941
102
{ACAD_REACTORS
330
1940
102
}
330
18
100
AcDbEntity
  8
外形線
100
AcDbLine
 10
325.4104528791186
 20
277.5831192119575
 30
0.0
 11
324.4104528791185
 21
277.5831192119574
 31
0.0
  0
LINE
  5
1942
102
{ACAD_REACTORS
330
1940
102
}
330
18
100
AcDbEntity
  8
外形線
100
AcDbLine
 10
324.4104528791185
 20
277.5831192119574
 30
0.0
 11
324.4104528791185
 21
277.2497858786242
 31
0.0
  0
LINE
  5
1943
102
{ACAD_REACTORS
330
1940
102
}
330
18
100
AcDbEntity
  8
外形線
100
AcDbLine
 10
325.4104528791186
 20
277.2497858786242
 30
0.0
 11
324.4104528791185
 21
277.2497858786242
 31
0.0
  0
LINE
  5
1944
102
{ACAD_REACTORS
330
1940
102
}
330
18
100
AcDbEntity
  8
外形線
100
AcDbLine
 10
325.4104528791186
 20
277.841084485268
 30
0.0
 11
325.4104528791186
 21
277.5831192119575
 31
0.0
  0
LINE
  5
1945
102
{ACAD_REACTORS
330
1940
102
}
330
18
100
AcDbEntity
  8
外形線
100
AcDbLine
 10
325.4104528791186
 20
277.2497858786242
 30
0.0
 11
325.4104528791186
 21
276.9918206053136
 31
0.0
  0
HATCH
  5
1946
330
18
100
AcDbEntity
  8
外形線
100
AcDbHatch
 10
0.0
 20
0.0
 30
0.0
210
0.0
220
0.0
230
1.0
  2
SOLID
 70
     1
 71
     1
 91
        2
 92
        1
 93
        4
 72
     1
 10
327.5771195457852
 20
276.6664525452908
 11
327.7437862124518
 21
276.6664525452908
 72
     1
 10
327.7437862124518
 20
276.6664525452908
 11
327.7437862124518
 21
278.1664525452908
 72
     1
 10
327.7437862124518
 20
278.1664525452908
 11
327.5771195457852
 21
278.1664525452908
 72
     1
 10
327.5771195457852
 20
278.1664525452908
 11
327.5771195457852
 21
276.6664525452908
 97
        4
330
194B
330
194C
330
194D
330
194A
 92
        1
 93
        7
 72
     1
 10
328.9104528791185
 20
277.2497858786242
 11
328.9104528791185
 21
276.9918206053136
 72
     1
 10
328.9104528791185
 20
276.9918206053136
 11
327.7437862124518
 21
277.4164525452909
 72
     1
 10
327.7437862124518
 20
277.4164525452909
 11
328.9104528791185
 21
277.841084485268
 72
     1
 10
328.9104528791185
 20
277.841084485268
 11
328.9104528791185
 21
277.5831192119575
 72
     1
 10
328.9104528791185
 20
277.5831192119575
 11
329.9104528791185
 21
277.5831192119574
 72
     1
 10
329.9104528791185
 20
277.5831192119574
 11
329.9104528791185
 21
277.2497858786242
 72
     1
 10
329.9104528791185
 20
277.2497858786242
 11
328.9104528791185
 21
277.2497858786242
 97
        7
330
194E
330
1950
330
1951
330
194F
330
1948
330
1955
330
1947
 75
     0
 76
     1
 98
        1
 10
-38.42493555781141
 20
39.65653949145235
450
        0
451
        0
460
0.0
461
0.0
452
        0
462
0.0
453
        0
470

  0
LINE
  5
1947
102
{ACAD_REACTORS
330
1946
102
}
330
18
100
AcDbEntity
  8
外形線
100
AcDbLine
 10
328.9104528791185
 20
277.2497858786242
 30
0.0
 11
329.9104528791185
 21
277.2497858786242
 31
0.0
  0
LINE
  5
1948
102
{ACAD_REACTORS
330
1946
102
}
330
18
100
AcDbEntity
  8
外形線
100
AcDbLine
 10
328.9104528791185
 20
277.5831192119575
 30
0.0
 11
329.9104528791185
 21
277.5831192119574
 31
0.0
  0
LINE
  5
1949
102
{ACAD_REACTORS
330
1940
102
}
330
18
100
AcDbEntity
  8
外形線
100
AcDbLine
 10
326.7437862124519
 20
278.1664525452908
 30
0.0
 11
326.7437862124519
 21
276.6664525452908
 31
0.0
  0
LINE
  5
194A
102
{ACAD_REACTORS
330
1946
102
}
330
18
100
AcDbEntity
  8
外形線
100
AcDbLine
 10
327.5771195457852
 20
278.1664525452908
 30
0.0
 11
327.5771195457852
 21
276.6664525452908
 31
0.0
  0
LINE
  5
194B
102
{ACAD_REACTORS
330
1946
102
}
330
18
100
AcDbEntity
  8
外形線
100
AcDbLine
 10
327.5771195457852
 20
276.6664525452908
 30
0.0
 11
327.7437862124518
 21
276.6664525452908
 31
0.0
  0
LINE
  5
194C
102
{ACAD_REACTORS
330
1946
102
}
330
18
100
AcDbEntity
  8
外形線
100
AcDbLine
 10
327.7437862124518
 20
278.1664525452908
 30
0.0
 11
327.7437862124518
 21
276.6664525452908
 31
0.0
  0
LINE
  5
194D
102
{ACAD_REACTORS
330
1946
102
}
330
18
100
AcDbEntity
  8
外形線
100
AcDbLine
 10
327.5771195457852
 20
278.1664525452908
 30
0.0
 11
327.7437862124518
 21
278.1664525452908
 31
0.0
  0
LINE
  5
194E
102
{ACAD_REACTORS
330
1946
102
}
330
18
100
AcDbEntity
  8
外形線
100
AcDbLine
 10
328.9104528791185
 20
277.2497858786242
 30
0.0
 11
328.9104528791185
 21
276.9918206053136
 31
0.0
  0
LINE
  5
194F
102
{ACAD_REACTORS
330
1946
102
}
330
18
100
AcDbEntity
  8
外形線
100
AcDbLine
 10
328.9104528791185
 20
277.841084485268
 30
0.0
 11
328.9104528791185
 21
277.5831192119575
 31
0.0
  0
LINE
  5
1950
102
{ACAD_REACTORS
330
1946
102
}
330
18
100
AcDbEntity
  8
外形線
100
AcDbLine
 10
327.7437862124518
 20
277.4164525452909
 30
0.0
 11
328.9104528791185
 21
276.9918206053136
 31
0.0
  0
LINE
  5
1951
102
{ACAD_REACTORS
330
1946
102
}
330
18
100
AcDbEntity
  8
外形線
100
AcDbLine
 10
327.7437862124518
 20
277.4164525452909
 30
0.0
 11
328.9104528791185
 21
277.841084485268
 31
0.0
  0
LINE
  5
1952
102
{ACAD_REACTORS
330
1940
102
}
330
18
100
AcDbEntity
  8
外形線
100
AcDbLine
 10
326.5771195457852
 20
278.1664525452908
 30
0.0
 11
326.5771195457852
 21
276.6664525452908
 31
0.0
  0
LINE
  5
1953
102
{ACAD_REACTORS
330
1940
102
}
330
18
100
AcDbEntity
  8
外形線
100
AcDbLine
 10
326.7437862124519
 20
278.1664525452908
 30
0.0
 11
326.5771195457852
 21
278.1664525452908
 31
0.0
  0
LINE
  5
1954
102
{ACAD_REACTORS
330
1940
102
}
330
18
100
AcDbEntity
  8
外形線
100
AcDbLine
 10
326.7437862124519
 20
276.6664525452908
 30
0.0
 11
326.5771195457852
 21
276.6664525452908
 31
0.0
  0
LINE
  5
1955
102
{ACAD_REACTORS
330
1946
102
}
330
18
100
AcDbEntity
  8
外形線
100
AcDbLine
 10
329.9104528791185
 20
277.5831192119574
 30
0.0
 11
329.9104528791185
 21
277.2497858786242
 31
0.0
  0
LINE
  5
1959
330
18
100
AcDbEntity
  8
目盛
100
AcDbLine
 10
327.8681778097364
 20
308.9551034337027
 30
0.0
 11
327.8289143608887
 21
307.7057202332455
 31
0.0
  0
LINE
  5
195A
330
18
100
AcDbEntity
  8
目盛
100
AcDbLine
 10
328.5899123001137
 20
308.9210672991411
 30
0.0
 11
328.5114241507021
 21
307.6735338886058
 31
0.0
  0
LINE
  5
195B
330
18
100
AcDbEntity
  8
目盛
100
AcDbLine
 10
329.3102215572652
 20
308.8643777311617
 30
0.0
 11
329.1925861656171
 21
307.6199252754078
 31
0.0
  0
LINE
  5
195C
330
18
100
AcDbEntity
  8
目盛
100
AcDbLine
 10
330.0283947229184
 20
308.7850906755239
 30
0.0
 11
329.871728180963
 21
307.5449472988807
 31
0.0
  0
LINE
  5
195D
330
18
100
AcDbEntity
  8
目盛
100
AcDbLine
 10
330.7437230468647
 20
308.683284378979
 30
0.0
 11
330.3917455005242
 21
306.46098561264
 31
0.0
  0
LINE
  5
195E
330
18
100
AcDbEntity
  8
目盛
100
AcDbLine
 10
331.4555005864111
 20
308.5590593120507
 30
0.0
 11
331.221273943179
 21
307.3312002486398
 31
0.0
  0
LINE
  5
195F
330
18
100
AcDbEntity
  8
目盛
100
AcDbLine
 10
332.1630249030599
 20
308.412538069882
 30
0.0
 11
331.8903458513142
 21
307.1926421174586
 31
0.0
  0
LINE
  5
1960
330
18
100
AcDbEntity
  8
目盛
100
AcDbLine
 10
332.865597755731
 20
308.2438652512494
 30
0.0
 11
332.554735396775
 21
307.0331362998386
 31
0.0
  0
LINE
  5
1961
330
18
100
AcDbEntity
  8
目盛
100
AcDbLine
 10
333.5625257898417
 20
308.0532073158605
 30
0.0
 11
333.2137869072926
 21
306.8528402087644
 31
0.0
  0
LINE
  5
1962
330
18
100
AcDbEntity
  8
目盛
100
AcDbLine
 10
337.587511844949
 20
306.4596026016233
 30
0.0
 11
336.566033220535
 21
304.4548379221995
 31
0.0
  0
LINE
  5
1963
330
18
100
AcDbEntity
  8
目盛
100
AcDbLine
 10
334.2531212215632
 20
307.8407524200794
 30
0.0
 11
333.5578329842196
 21
305.7008752584153
 31
0.0
  0
LINE
  5
1964
330
18
100
AcDbEntity
  8
目盛
100
AcDbLine
 10
340.0736480415384
 20
304.9893057536058
 30
0.0
 11
339.3710438192233
 21
303.9554550357626
 31
0.0
  0
LINE
  5
1965
330
18
100
AcDbEntity
  8
目盛
100
AcDbLine
 10
334.9367025165812
 20
307.606710231238
 30
0.0
 11
334.5132801162745
 21
306.4306092700452
 31
0.0
  0
LINE
  5
1966
330
18
100
AcDbEntity
  8
目盛
100
AcDbLine
 10
339.4697466354563
 20
305.3859948318371
 30
0.0
 11
338.7999631417326
 21
304.3305849249597
 31
0.0
  0
LINE
  5
1967
330
18
100
AcDbEntity
  8
目盛
100
AcDbLine
 10
336.9386540569361
 20
306.7774747520092
 30
0.0
 11
336.4064299424798
 21
305.6464409364267
 31
0.0
  0
LINE
  5
1968
330
18
100
AcDbEntity
  8
目盛
100
AcDbLine
 10
336.2801318355394
 20
307.0748089360224
 30
0.0
 11
335.7836969722459
 21
305.9276156539174
 31
0.0
  0
LINE
  5
1969
330
18
100
AcDbEntity
  8
目盛
100
AcDbLine
 10
335.612595062687
 20
307.3513117207206
 30
0.0
 11
335.1524393718312
 21
306.1890911133603
 31
0.0
  0
LINE
  5
196A
330
18
100
AcDbEntity
  8
目盛
100
AcDbLine
 10
338.8536829131979
 20
305.7635191663815
 30
0.0
 11
338.21738114351
 21
304.6875916326266
 31
0.0
  0
LINE
  5
196B
330
18
100
AcDbEntity
  8
目盛
100
AcDbLine
 10
338.2260648552789
 20
306.1215061862997
 30
0.0
 11
337.6238727626518
 21
305.0261228362448
 31
0.0
  0
LINE
  5
196C
330
18
100
AcDbEntity
  8
目盛
100
AcDbLine
 10
343.4091863182299
 20
302.2299085125814
 30
0.0
 11
341.8181960605602
 21
300.6389182549118
 31
0.0
  0
LINE
  5
196D
330
18
100
AcDbEntity
  8
目盛
100
AcDbLine
 10
340.6647911536663
 20
304.5738434159146
 30
0.0
 11
339.3422743360082
 21
302.753555178571
 31
0.0
  0
LINE
  5
196E
330
18
100
AcDbEntity
  8
目盛
100
AcDbLine
 10
345.3192956355803
 20
300.0633147793093
 30
0.0
 11
344.3316018701107
 21
299.2971809622431
 31
0.0
  0
LINE
  5
196F
330
18
100
AcDbEntity
  8
目盛
100
AcDbLine
 10
341.2425925849579
 20
304.1400178299317
 30
0.0
 11
340.4764587678917
 21
303.1523240644621
 31
0.0
  0
LINE
  5
1970
330
18
100
AcDbEntity
  8
目盛
100
AcDbLine
 10
344.8675349347825
 20
300.6272043095107
 30
0.0
 11
343.9043933813128
 21
299.8304243223249
 31
0.0
  0
LINE
  5
1971
330
18
100
AcDbEntity
  8
目盛
100
AcDbLine
 10
342.8903137872993
 20
302.7327309759832
 30
0.0
 11
342.0346299048885
 21
301.8215201917065
 31
0.0
  0
LINE
  5
1972
330
18
100
AcDbEntity
  8
目盛
100
AcDbLine
 10
342.3559032533834
 20
303.2190071467914
 30
0.0
 11
341.5292634217288
 21
302.2813683097534
 31
0.0
  0
LINE
  5
1973
330
18
100
AcDbEntity
  8
目盛
100
AcDbLine
 10
341.8064821151593
 20
303.6882571291339
 30
0.0
 11
341.0097021279735
 21
302.7251155756642
 31
0.0
  0
LINE
  5
1974
330
18
100
AcDbEntity
  8
目盛
100
AcDbLine
 10
344.3982849524399
 20
301.1766254477348
 30
0.0
 11
343.4606461154019
 21
300.3499856160803
 31
0.0
  0
LINE
  5
1975
330
18
100
AcDbEntity
  8
目盛
100
AcDbLine
 10
343.9120087816319
 20
301.7110359816506
 30
0.0
 11
343.0007979973552
 21
300.8553520992398
 31
0.0
  0
LINE
  5
1976
330
18
100
AcDbEntity
  8
目盛
100
AcDbLine
 10
347.6388804072718
 20
296.4082340393004
 30
0.0
 11
345.634115727848
 21
295.3867554148865
 31
0.0
  0
LINE
  5
1977
330
18
100
AcDbEntity
  8
目盛
100
AcDbLine
 10
345.7531212215632
 20
299.4855133480177
 30
0.0
 11
343.9328329842195
 21
298.1629965303597
 31
0.0
  0
LINE
  5
1978
330
18
100
AcDbEntity
  8
目盛
100
AcDbLine
 10
348.7859880368865
 20
293.7574247109325
 30
0.0
 11
347.6098870756938
 21
293.3340023106259
 31
0.0
  0
LINE
  5
1979
330
18
100
AcDbEntity
  8
目盛
100
AcDbLine
 10
346.1685835592543
 20
298.8943702358898
 30
0.0
 11
345.1347328414111
 21
298.1917660135747
 31
0.0
  0
LINE
  5
197A
330
18
100
AcDbEntity
  8
目盛
100
AcDbLine
 10
348.5305895263691
 20
294.4333172570385
 30
0.0
 11
347.3683689190088
 21
293.9731615661827
 31
0.0
  0
LINE
  5
197B
330
18
100
AcDbEntity
  8
目盛
100
AcDbLine
 10
347.3007839919482
 20
297.0467870496303
 30
0.0
 11
346.2054006418934
 21
296.4445949570031
 31
0.0
  0
LINE
  5
197C
330
18
100
AcDbEntity
  8
目盛
100
AcDbLine
 10
346.94279697203
 20
297.6744051075494
 30
0.0
 11
345.8668694382752
 21
297.0381033378615
 31
0.0
  0
LINE
  5
197D
330
18
100
AcDbEntity
  8
目盛
100
AcDbLine
 10
346.5652726374857
 20
298.2904688298077
 30
0.0
 11
345.5098627306082
 21
297.620685336084
 31
0.0
  0
LINE
  5
197E
330
18
100
AcDbEntity
  8
目盛
100
AcDbLine
 10
348.2540867416709
 20
295.1008540298908
 30
0.0
 11
347.106893459566
 21
294.6044191665973
 31
0.0
  0
LINE
  5
197F
330
18
100
AcDbEntity
  8
目盛
100
AcDbLine
 10
347.9567525576578
 20
295.7593762512875
 30
0.0
 11
346.8257187420753
 21
295.2271521368311
 31
0.0
  0
LINE
  5
1980
330
18
100
AcDbEntity
  8
目盛
100
AcDbLine
 10
349.8625621846275
 20
289.5644452412161
 30
0.0
 11
347.6402634182885
 21
289.2124676948757
 31
0.0
  0
LINE
  5
1981
330
18
100
AcDbEntity
  8
目盛
100
AcDbLine
 10
349.0200302257279
 20
293.0738434159146
 30
0.0
 11
346.8801530640639
 21
292.378555178571
 31
0.0
  0
LINE
  5
1982
330
18
100
AcDbEntity
  8
目盛
100
AcDbLine
 10
350.1343812393512
 20
286.6889000040877
 30
0.0
 11
348.8849980388941
 21
286.6496365552401
 31
0.0
  0
LINE
  5
1983
330
18
100
AcDbEntity
  8
目盛
100
AcDbLine
 10
349.2324851215091
 20
292.383247984193
 30
0.0
 11
348.032118014413
 21
292.0345091016441
 31
0.0
  0
LINE
  5
1984
330
18
100
AcDbEntity
  8
目盛
100
AcDbLine
 10
350.1003451047896
 20
287.410634494465
 30
0.0
 11
348.8528116942543
 21
287.3321463450534
 31
0.0
  0
LINE
  5
1985
330
18
100
AcDbEntity
  8
目盛
100
AcDbLine
 10
349.7383371176992
 20
290.2762227807624
 30
0.0
 11
348.5104780542884
 21
290.0419961375303
 31
0.0
  0
LINE
  5
1986
330
18
100
AcDbEntity
  8
目盛
100
AcDbLine
 10
349.5918158755305
 20
290.9837470974113
 30
0.0
 11
348.3719199231071
 21
290.7110680456657
 31
0.0
  0
LINE
  5
1987
330
18
100
AcDbEntity
  8
目盛
100
AcDbLine
 10
349.4231430568979
 20
291.6863199500825
 30
0.0
 11
348.2124141054872
 21
291.3754575911264
 31
0.0
  0
LINE
  5
1988
330
18
100
AcDbEntity
  8
目盛
100
AcDbLine
 10
350.0436555368102
 20
288.1309437516167
 30
0.0
 11
348.7992030810564
 21
288.0133083599685
 31
0.0
  0
LINE
  5
1989
330
18
100
AcDbEntity
  8
目盛
100
AcDbLine
 10
349.9643684811724
 20
288.8491169172698
 30
0.0
 11
348.7242251045293
 21
288.6924503753144
 31
0.0
  0
LINE
  5
198A
330
18
100
AcDbEntity
  8
目盛
100
AcDbLine
 10
349.8625621846275
 20
282.3684598493656
 30
0.0
 11
347.6402634182885
 21
282.7204373957061
 31
0.0
  0
LINE
  5
198B
330
18
100
AcDbEntity
  8
目盛
100
AcDbLine
 10
350.1457303509393
 20
285.9664525452909
 30
0.0
 11
347.8957303509394
 21
285.9664525452909
 31
0.0
  0
LINE
  5
198C
330
18
100
AcDbEntity
  8
目盛
100
AcDbLine
 10
349.2324851215091
 20
279.5496571063885
 30
0.0
 11
348.0321180144129
 21
279.8983959889376
 31
0.0
  0
LINE
  5
198D
330
18
100
AcDbEntity
  8
目盛
100
AcDbLine
 10
350.1343812393512
 20
285.2440050864939
 30
0.0
 11
348.8849980388941
 21
285.2832685353416
 31
0.0
  0
LINE
  5
198E
330
18
100
AcDbEntity
  8
目盛
100
AcDbLine
 10
349.4231430568979
 20
280.2465851404992
 30
0.0
 11
348.2124141054872
 21
280.5574474994553
 31
0.0
  0
LINE
  5
198F
330
18
100
AcDbEntity
  8
目盛
100
AcDbLine
 10
349.9643684811723
 20
283.0837881733118
 30
0.0
 11
348.7242251045293
 21
283.2404547152672
 31
0.0
  0
LINE
  5
1990
330
18
100
AcDbEntity
  8
目盛
100
AcDbLine
 10
350.0436555368102
 20
283.8019613389651
 30
0.0
 11
348.7992030810564
 21
283.9195967306132
 31
0.0
  0
LINE
  5
1991
330
18
100
AcDbEntity
  8
目盛
100
AcDbLine
 10
350.1003451047896
 20
284.5222705961167
 30
0.0
 11
348.8528116942543
 21
284.6007587455282
 31
0.0
  0
LINE
  5
1992
330
18
100
AcDbEntity
  8
目盛
100
AcDbLine
 10
349.5918158755305
 20
280.9491579931703
 30
0.0
 11
348.3719199231071
 21
281.221837044916
 31
0.0
  0
LINE
  5
1993
330
18
100
AcDbEntity
  8
目盛
100
AcDbLine
 10
349.7383371176992
 20
281.6566823098192
 30
0.0
 11
348.5104780542883
 21
281.8909089530513
 31
0.0
  0
LINE
  5
1994
330
18
100
AcDbEntity
  8
目盛
100
AcDbLine
 10
347.6388804072718
 20
275.5246710512813
 30
0.0
 11
345.6341157278481
 21
276.5461496756953
 31
0.0
  0
LINE
  5
1995
330
18
100
AcDbEntity
  8
目盛
100
AcDbLine
 10
349.0200302257279
 20
278.8590616746671
 30
0.0
 11
346.8801530640639
 21
279.5543499120107
 31
0.0
  0
LINE
  5
1996
330
18
100
AcDbEntity
  8
目盛
100
AcDbLine
 10
346.1685835592543
 20
273.0385348546919
 30
0.0
 11
345.1347328414111
 21
273.741139077007
 31
0.0
  0
LINE
  5
1997
330
18
100
AcDbEntity
  8
目盛
100
AcDbLine
 10
348.7859880368865
 20
278.1754803796492
 30
0.0
 11
347.6098870756938
 21
278.5989027799558
 31
0.0
  0
LINE
  5
1998
330
18
100
AcDbEntity
  8
目盛
100
AcDbLine
 10
346.5652726374857
 20
273.6424362607739
 30
0.0
 11
345.5098627306082
 21
274.3122197544977
 31
0.0
  0
LINE
  5
1999
330
18
100
AcDbEntity
  8
目盛
100
AcDbLine
 10
347.9567525576578
 20
276.1735288392942
 30
0.0
 11
346.8257187420753
 21
276.7057529537504
 31
0.0
  0
LINE
  5
199A
330
18
100
AcDbEntity
  8
目盛
100
AcDbLine
 10
348.2540867416709
 20
276.832051060691
 30
0.0
 11
347.106893459566
 21
277.3284859239844
 31
0.0
  0
LINE
  5
199B
330
18
100
AcDbEntity
  8
目盛
100
AcDbLine
 10
348.5305895263691
 20
277.4995878335432
 30
0.0
 11
347.3683689190088
 21
277.9597435243991
 31
0.0
  0
LINE
  5
199C
330
18
100
AcDbEntity
  8
目盛
100
AcDbLine
 10
346.94279697203
 20
274.2584999830324
 30
0.0
 11
345.8668694382752
 21
274.8948017527202
 31
0.0
  0
LINE
  5
199D
330
18
100
AcDbEntity
  8
目盛
100
AcDbLine
 10
347.3007839919483
 20
274.8861180409514
 30
0.0
 11
346.2054006418934
 21
275.4883101335785
 31
0.0
  0
LINE
  5
199E
330
18
100
AcDbEntity
  8
目盛
100
AcDbLine
 10
305.5054726649922
 20
278.1754803796492
 30
0.0
 11
306.681573626185
 21
278.5989027799558
 31
0.0
  0
LINE
  5
199F
330
18
100
AcDbEntity
  8
目盛
100
AcDbLine
 10
306.9906767099305
 20
274.8861180409513
 30
0.0
 11
308.0860600599854
 21
275.4883101335785
 31
0.0
  0
LINE
  5
19A0
330
18
100
AcDbEntity
  8
目盛
100
AcDbLine
 10
306.0373739602078
 20
276.8320510606909
 30
0.0
 11
307.1845672423128
 21
277.3284859239844
 31
0.0
  0
LINE
  5
19A1
330
18
100
AcDbEntity
  8
目盛
100
AcDbLine
 10
306.334708144221
 20
276.1735288392941
 30
0.0
 11
307.4657419598035
 21
276.7057529537504
 31
0.0
  0
LINE
  5
19A2
330
18
100
AcDbEntity
  8
目盛
100
AcDbLine
 10
306.6525802946069
 20
275.5246710512813
 30
0.0
 11
308.6573449740307
 21
276.5461496756953
 31
0.0
  0
LINE
  5
19A3
330
18
100
AcDbEntity
  8
目盛
100
AcDbLine
 10
307.3486637298486
 20
274.2584999830323
 30
0.0
 11
308.4245912636037
 21
274.8948017527202
 31
0.0
  0
LINE
  5
19A5
330
18
100
AcDbEntity
  8
目盛
100
AcDbLine
 10
307.726188064393
 20
273.6424362607739
 30
0.0
 11
308.7815979712706
 21
274.3122197544977
 31
0.0
  0
LINE
  5
19A6
330
18
100
AcDbEntity
  8
目盛
100
AcDbLine
 10
308.1228771426245
 20
273.0385348546918
 30
0.0
 11
309.1567278604677
 21
273.741139077007
 31
0.0
  0
LINE
  5
19A7
330
18
100
AcDbEntity
  8
目盛
100
AcDbLine
 10
305.7608711755096
 20
277.4995878335432
 30
0.0
 11
306.92309178287
 21
277.9597435243991
 31
0.0
  0
LINE
  5
19A8
330
18
100
AcDbEntity
  8
目盛
100
AcDbLine
 10
305.2714304761508
 20
293.0738434159147
 30
0.0
 11
307.411307637815
 21
292.378555178571
 31
0.0
  0
LINE
  5
19A9
330
18
100
AcDbEntity
  8
目盛
100
AcDbLine
 10
305.2714304761508
 20
278.859061674667
 30
0.0
 11
307.411307637815
 21
279.5543499120107
 31
0.0
  0
LINE
  5
19AA
330
18
100
AcDbEntity
  8
目盛
100
AcDbLine
 10
304.5531235841795
 20
281.6566823098192
 30
0.0
 11
305.7809826475905
 21
281.8909089530513
 31
0.0
  0
LINE
  5
19AB
330
18
100
AcDbEntity
  8
目盛
100
AcDbLine
 10
304.6996448263481
 20
280.9491579931704
 30
0.0
 11
305.9195407787716
 21
281.221837044916
 31
0.0
  0
LINE
  5
19AC
330
18
100
AcDbEntity
  8
目盛
100
AcDbLine
 10
304.8683176449809
 20
280.2465851404992
 30
0.0
 11
306.0790465963917
 21
280.5574474994553
 31
0.0
  0
LINE
  5
19AD
330
18
100
AcDbEntity
  8
目盛
100
AcDbLine
 10
305.0589755803696
 20
279.5496571063885
 30
0.0
 11
306.2593426874659
 21
279.8983959889376
 31
0.0
  0
LINE
  5
19AE
330
18
100
AcDbEntity
  8
目盛
100
AcDbLine
 10
304.1911155970891
 20
284.5222705961166
 30
0.0
 11
305.4386490076244
 21
284.6007587455282
 31
0.0
  0
LINE
  5
19AF
330
18
100
AcDbEntity
  8
目盛
100
AcDbLine
 10
304.2478051650685
 20
283.8019613389651
 30
0.0
 11
305.4922576208225
 21
283.9195967306132
 31
0.0
  0
LINE
  5
19B0
330
18
100
AcDbEntity
  8
目盛
100
AcDbLine
 10
304.3270922207063
 20
283.0837881733118
 30
0.0
 11
305.5672355973495
 21
283.2404547152672
 31
0.0
  0
LINE
  5
19B1
330
18
100
AcDbEntity
  8
目盛
100
AcDbLine
 10
304.1570794625275
 20
285.2440050864938
 30
0.0
 11
305.4064626629847
 21
285.2832685353416
 31
0.0
  0
LINE
  5
19B2
330
18
100
AcDbEntity
  8
目盛
100
AcDbLine
 10
304.4288985172512
 20
282.3684598493656
 30
0.0
 11
306.6511972835903
 21
282.7204373957061
 31
0.0
  0
LINE
  5
19B3
330
18
100
AcDbEntity
  8
目盛
100
AcDbLine
 10
304.1457303509393
 20
285.9664525452909
 30
0.0
 11
306.3957303509394
 21
285.9664525452909
 31
0.0
  0
LINE
  5
19B4
330
18
100
AcDbEntity
  8
目盛
100
AcDbLine
 10
304.3270922207063
 20
288.8491169172698
 30
0.0
 11
305.5672355973495
 21
288.6924503753144
 31
0.0
  0
LINE
  5
19B5
330
18
100
AcDbEntity
  8
目盛
100
AcDbLine
 10
304.2478051650685
 20
288.1309437516167
 30
0.0
 11
305.4922576208225
 21
288.0133083599685
 31
0.0
  0
LINE
  5
19B6
330
18
100
AcDbEntity
  8
目盛
100
AcDbLine
 10
304.1911155970891
 20
287.410634494465
 30
0.0
 11
305.4386490076244
 21
287.3321463450534
 31
0.0
  0
LINE
  5
19B7
330
18
100
AcDbEntity
  8
目盛
100
AcDbLine
 10
304.1570794625275
 20
286.6889000040878
 30
0.0
 11
305.4064626629847
 21
286.6496365552401
 31
0.0
  0
LINE
  5
19B8
330
18
100
AcDbEntity
  8
目盛
100
AcDbLine
 10
304.8683176449809
 20
291.6863199500825
 30
0.0
 11
306.0790465963917
 21
291.3754575911264
 31
0.0
  0
LINE
  5
19B9
330
18
100
AcDbEntity
  8
目盛
100
AcDbLine
 10
304.6996448263481
 20
290.9837470974113
 30
0.0
 11
305.9195407787716
 21
290.7110680456657
 31
0.0
  0
LINE
  5
19BA
330
18
100
AcDbEntity
  8
目盛
100
AcDbLine
 10
304.5531235841795
 20
290.2762227807624
 30
0.0
 11
305.7809826475904
 21
290.0419961375303
 31
0.0
  0
LINE
  5
19BB
330
18
100
AcDbEntity
  8
目盛
100
AcDbLine
 10
304.4288985172512
 20
289.5644452412162
 30
0.0
 11
306.6511972835903
 21
289.2124676948757
 31
0.0
  0
LINE
  5
19BC
330
18
100
AcDbEntity
  8
目盛
100
AcDbLine
 10
305.0589755803696
 20
292.3832479841932
 30
0.0
 11
306.2593426874658
 21
292.0345091016441
 31
0.0
  0
LINE
  5
19BD
330
18
100
AcDbEntity
  8
目盛
100
AcDbLine
 10
306.3347081442209
 20
295.7593762512875
 30
0.0
 11
307.4657419598035
 21
295.2271521368311
 31
0.0
  0
LINE
  5
19BE
330
18
100
AcDbEntity
  8
目盛
100
AcDbLine
 10
306.0373739602078
 20
295.1008540298909
 30
0.0
 11
307.1845672423128
 21
294.6044191665973
 31
0.0
  0
LINE
  5
19BF
330
18
100
AcDbEntity
  8
目盛
100
AcDbLine
 10
306.6525802946069
 20
296.4082340393004
 30
0.0
 11
308.6573449740308
 21
295.3867554148865
 31
0.0
  0
LINE
  5
19C0
330
18
100
AcDbEntity
  8
目盛
100
AcDbLine
 10
305.7608711755096
 20
294.4333172570385
 30
0.0
 11
306.92309178287
 21
293.9731615661827
 31
0.0
  0
LINE
  5
19C1
330
18
100
AcDbEntity
  8
目盛
100
AcDbLine
 10
305.5054726649922
 20
293.7574247109325
 30
0.0
 11
306.681573626185
 21
293.3340023106259
 31
0.0
  0
LINE
  5
19C2
330
18
100
AcDbEntity
  8
目盛
100
AcDbLine
 10
306.9906767099305
 20
297.0467870496303
 30
0.0
 11
308.0860600599854
 21
296.4445949570031
 31
0.0
  0
LINE
  5
19C3
330
18
100
AcDbEntity
  8
目盛
100
AcDbLine
 10
308.9721650662984
 20
300.0633147793093
 30
0.0
 11
309.9598588317681
 21
299.2971809622431
 31
0.0
  0
LINE
  5
19C4
330
18
100
AcDbEntity
  8
目盛
100
AcDbLine
 10
308.5383394803155
 20
299.4855133480177
 30
0.0
 11
310.3586277176593
 21
298.1629965303597
 31
0.0
  0
LINE
  5
19C5
330
18
100
AcDbEntity
  8
目盛
100
AcDbLine
 10
307.7261880643929
 20
298.2904688298077
 30
0.0
 11
308.7815979712706
 21
297.620685336084
 31
0.0
  0
LINE
  5
19C6
330
18
100
AcDbEntity
  8
目盛
100
AcDbLine
 10
307.3486637298487
 20
297.6744051075495
 30
0.0
 11
308.4245912636037
 21
297.0381033378615
 31
0.0
  0
LINE
  5
19C7
330
18
100
AcDbEntity
  8
目盛
100
AcDbLine
 10
308.1228771426244
 20
298.8943702358898
 30
0.0
 11
309.1567278604677
 21
298.1917660135747
 31
0.0
  0
LINE
  5
19C8
330
18
100
AcDbEntity
  8
目盛
100
AcDbLine
 10
311.4011469145796
 20
302.7327309759834
 30
0.0
 11
312.2568307969904
 21
301.8215201917065
 31
0.0
  0
LINE
  5
19C9
330
18
100
AcDbEntity
  8
目盛
100
AcDbLine
 10
309.4239257670963
 20
300.6272043095108
 30
0.0
 11
310.387067320566
 21
299.8304243223249
 31
0.0
  0
LINE
  5
19CA
330
18
100
AcDbEntity
  8
目盛
100
AcDbLine
 10
310.379451920247
 20
301.7110359816507
 30
0.0
 11
311.2906627045236
 21
300.8553520992398
 31
0.0
  0
LINE
  5
19CB
330
18
100
AcDbEntity
  8
目盛
100
AcDbLine
 10
309.8931757494388
 20
301.1766254477349
 30
0.0
 11
310.8308145864769
 21
300.3499856160803
 31
0.0
  0
LINE
  5
19CC
330
18
100
AcDbEntity
  8
目盛
100
AcDbLine
 10
316.0653958465999
 20
306.1215061862997
 30
0.0
 11
316.667587939227
 21
305.0261228362448
 31
0.0
  0
LINE
  5
19CD
330
18
100
AcDbEntity
  8
目盛
100
AcDbLine
 10
316.7039488569297
 20
306.4596026016233
 30
0.0
 11
317.7254274813438
 21
304.4548379221995
 31
0.0
  0
LINE
  5
19CE
330
18
100
AcDbEntity
  8
目盛
100
AcDbLine
 10
318.6788656391918
 20
307.3513117207206
 30
0.0
 11
319.1390213300476
 21
306.1890911133603
 31
0.0
  0
LINE
  5
19CF
330
18
100
AcDbEntity
  8
目盛
100
AcDbLine
 10
318.0113288663394
 20
307.0748089360224
 30
0.0
 11
318.5077637296329
 21
305.9276156539174
 31
0.0
  0
LINE
  5
19D0
330
18
100
AcDbEntity
  8
目盛
100
AcDbLine
 10
317.3528066449426
 20
306.7774747520092
 30
0.0
 11
317.885030759399
 21
305.6464409364267
 31
0.0
  0
LINE
  5
19D1
330
18
100
AcDbEntity
  8
目盛
100
AcDbLine
 10
319.3547581852977
 20
307.6067102312381
 30
0.0
 11
319.7781805856043
 21
306.4306092700452
 31
0.0
  0
LINE
  5
19D2
330
18
100
AcDbEntity
  8
目盛
100
AcDbLine
 10
311.9355574484954
 20
303.2190071467915
 30
0.0
 11
312.76219728015
 21
302.2813683097534
 31
0.0
  0
LINE
  5
19D3
330
18
100
AcDbEntity
  8
目盛
100
AcDbLine
 10
310.8822743836488
 20
302.2299085125815
 30
0.0
 11
312.4732646413186
 21
300.6389182549118
 31
0.0
  0
LINE
  5
19D4
330
18
100
AcDbEntity
  8
目盛
100
AcDbLine
 10
312.4849785867195
 20
303.6882571291341
 30
0.0
 11
313.2817585739053
 21
302.7251155756642
 31
0.0
  0
LINE
  5
19D5
330
18
100
AcDbEntity
  8
目盛
100
AcDbLine
 10
313.0488681169209
 20
304.1400178299318
 30
0.0
 11
313.8150019339871
 21
303.1523240644621
 31
0.0
  0
LINE
  5
19D6
330
18
100
AcDbEntity
  8
目盛
100
AcDbLine
 10
313.6266695482125
 20
304.5738434159147
 30
0.0
 11
314.9491863658706
 21
302.753555178571
 31
0.0
  0
LINE
  5
19D7
330
18
100
AcDbEntity
  8
目盛
100
AcDbLine
 10
314.2178126603404
 20
304.9893057536058
 30
0.0
 11
314.9204168826555
 21
303.9554550357626
 31
0.0
  0
LINE
  5
19D8
330
18
100
AcDbEntity
  8
目盛
100
AcDbLine
 10
315.4377777886809
 20
305.7635191663816
 30
0.0
 11
316.0740795583688
 21
304.6875916326266
 31
0.0
  0
LINE
  5
19D9
330
18
100
AcDbEntity
  8
目盛
100
AcDbLine
 10
314.8217140664225
 20
305.3859948318372
 30
0.0
 11
315.4914975601462
 21
304.3305849249597
 31
0.0
  0
LINE
  5
19DA
330
18
100
AcDbEntity
  8
目盛
100
AcDbLine
 10
320.0383394803157
 20
307.8407524200794
 30
0.0
 11
320.7336277176592
 21
305.7008752584153
 31
0.0
  0
LINE
  5
19DB
330
18
100
AcDbEntity
  8
目盛
100
AcDbLine
 10
323.547737655014
 20
308.683284378979
 30
0.0
 11
323.8997152013546
 21
306.46098561264
 31
0.0
  0
LINE
  5
19DC
330
18
100
AcDbEntity
  8
目盛
100
AcDbLine
 10
327.1457303509394
 20
308.9664525452909
 30
0.0
 11
327.1457303509394
 21
306.7164525452909
 31
0.0
  0
LINE
  5
19DD
330
18
100
AcDbEntity
  8
目盛
100
AcDbLine
 10
320.7289349120371
 20
308.0532073158606
 30
0.0
 11
321.0776737945862
 21
306.8528402087644
 31
0.0
  0
LINE
  5
19DE
330
18
100
AcDbEntity
  8
目盛
100
AcDbLine
 10
326.4232828921425
 20
308.9551034337027
 30
0.0
 11
326.4625463409901
 21
307.7057202332455
 31
0.0
  0
LINE
  5
19DF
330
18
100
AcDbEntity
  8
目盛
100
AcDbLine
 10
321.4258629461478
 20
308.2438652512494
 30
0.0
 11
321.7367253051039
 21
307.0331362998386
 31
0.0
  0
LINE
  5
19E0
330
18
100
AcDbEntity
  8
目盛
100
AcDbLine
 10
324.2630659789603
 20
308.7850906755239
 30
0.0
 11
324.4197325209158
 21
307.5449472988807
 31
0.0
  0
LINE
  5
19E1
330
18
100
AcDbEntity
  8
目盛
100
AcDbLine
 10
324.9812391446136
 20
308.8643777311617
 30
0.0
 11
325.0988745362617
 21
307.6199252754078
 31
0.0
  0
LINE
  5
19E2
330
18
100
AcDbEntity
  8
目盛
100
AcDbLine
 10
325.7015484017652
 20
308.9210672991411
 30
0.0
 11
325.7800365511767
 21
307.6735338886058
 31
0.0
  0
LINE
  5
19E3
330
18
100
AcDbEntity
  8
目盛
100
AcDbLine
 10
322.1284357988189
 20
308.412538069882
 30
0.0
 11
322.4011148505646
 21
307.1926421174586
 31
0.0
  0
LINE
  5
19E4
330
18
100
AcDbEntity
  8
目盛
100
AcDbLine
 10
322.8359601154677
 20
308.5590593120507
 30
0.0
 11
323.0701867586998
 21
307.3312002486398
 31
0.0
  0
POINT
  5
19E5
330
18
100
AcDbEntity
  8
目盛
100
AcDbPoint
 10
310.3586277176593
 20
273.769908560222
 30
0.0
  0
POINT
  5
19E6
330
18
100
AcDbEntity
  8
目盛
100
AcDbPoint
 10
343.9328329842195
 20
273.769908560222
 30
0.0
  0
POINT
  5
19E9
330
18
100
AcDbEntity
  8
目盛
100
AcDbPoint
 10
343.9328329842195
 20
273.769908560222
 30
0.0
  0
POINT
  5
19EB
330
18
100
AcDbEntity
  8
DEFPOINTS
  6
ByBlock
 62
     0
100
AcDbPoint
 10
319.7055291084621
 20
270.7637262774842
 30
0.0
  0
POINT
  5
19EC
330
18
100
AcDbEntity
  8
DEFPOINTS
  6
ByBlock
 62
     0
100
AcDbPoint
 10
334.6320971134044
 20
272.6886910223533
 30
0.0
  0
POINT
  5
19ED
330
18
100
AcDbEntity
  8
目盛
100
AcDbPoint
 10
327.1457303509394
 20
306.7164525452909
 30
0.0
  0
POINT
  5
19EE
330
18
100
AcDbEntity
  8
目盛
100
AcDbPoint
 10
333.2137869072926
 20
306.8528402087643
 30
0.0
  0
CIRCLE
  5
19FE
330
18
100
AcDbEntity
  8
針
100
AcDbCircle
 10
327.1457303509393
 20
285.9664525452909
 30
0.0
 40
1.9
  0
CIRCLE
  5
19FF
330
18
100
AcDbEntity
  8
針
100
AcDbCircle
 10
327.1457303509393
 20
285.9664525452909
 30
0.0
 40
1.5
  0
POINT
  5
1A00
330
18
100
AcDbEntity
  8
DEFPOINTS
  6
ByBlock
 62
     0
100
AcDbPoint
 10
327.1457303509393
 20
285.9664525452908
 30
0.0
  0
POINT
  5
1A01
330
18
100
AcDbEntity
  8
DEFPOINTS
  6
ByBlock
 62
     0
100
AcDbPoint
 10
327.1457303509393
 20
285.9664525452908
 30
0.0
  0
CIRCLE
  5
1A02
330
18
100
AcDbEntity
  8
針
100
AcDbCircle
 10
327.1457303509393
 20
285.9664525452909
 30
0.0
 40
0.475
  0
ARC
  5
1A03
330
18
100
AcDbEntity
  8
針
100
AcDbCircle
 10
328.666989155424
 20
281.4666445883024
 30
0.0
 40
3.0
100
AcDbArc
 50
119.9277208229603
 51
149.4
  0
HATCH
  5
1A04
330
18
100
AcDbEntity
  8
針
100
AcDbHatch
 10
0.0
 20
0.0
 30
0.0
210
0.0
220
0.0
230
1.0
  2
SOLID
 70
     1
 71
     0
 91
        2
 92
        7
 72
     1
 73
     1
 93
        5
 10
315.8693524220007
 20
267.0759416786216
 42
0.0
 10
315.9468192044309
 20
267.030127951204
 42
0.0
 10
316.0242859868614
 20
266.9843142237866
 42
0.0
 10
319.4852268583263
 20
272.4917842287917
 42
-0.0085634322047721
 10
319.0282641968509
 20
272.7620311934394
 42
0.0
 97
        0
 92
        7
 72
     1
 73
     1
 93
        6
 10
319.0282641968509
 20
272.7620311934394
 42
0.0085634322047721
 10
319.4852268583263
 20
272.4917842287917
 42
0.0
 10
326.0847630744124
 20
282.9937688355538
 42
-0.1293106770632391
 10
327.1702678462435
 20
284.0666109962863
 42
-0.2805221108582334
 10
325.4690654820055
 20
285.0726992698935
 42
-0.1293106770632486
 10
325.0518726420075
 20
283.6046185344543
 42
0.0
 97
        0
 75
     0
 76
     1
 47
0.0423559757596284
 98
        2
 10
318.9718522901726
 20
272.0654949531846
 10
321.1047334510646
 20
275.9218149115177
450
        0
451
        0
460
0.0
461
0.0
452
        0
462
0.0
453
        0
470

  0
LINE
  5
1A05
330
18
100
AcDbEntity
  8
針
100
AcDbLine
 10
316.0242859868614
 20
266.9843142237866
 30
0.0
 11
326.0847630744122
 21
282.9937688355534
 31
0.0
  0
ARC
  5
1A06
330
18
100
AcDbEntity
  8
針
100
AcDbCircle
 10
322.4696465609956
 20
285.1317427817051
 30
0.0
 40
3.0
100
AcDbArc
 50
329.4
 51
358.8722791770396
  0
LINE
  5
1A07
330
18
100
AcDbEntity
  8
針
100
AcDbLine
 10
315.9468192044311
 20
267.0301279512039
 30
0.0
 11
316.0242859868614
 21
266.9843142237866
 31
0.0
  0
LINE
  5
1A08
330
18
100
AcDbEntity
  8
針
100
AcDbLine
 10
315.9468192044309
 20
267.030127951204
 30
0.0
 11
315.8693524220007
 21
267.0759416786216
 31
0.0
  0
LINE
  5
1A09
330
18
100
AcDbEntity
  8
針
100
AcDbLine
 10
315.8693524220007
 20
267.0759416786216
 30
0.0
 11
325.0518726420073
 21
283.604618534454
 31
0.0
  0
LINE
  5
1A1B
330
18
100
AcDbEntity
  8
外形線
100
AcDbLine
 10
324.1457303509394
 20
229.5664525452909
 30
0.0
 11
330.1457303509394
 21
229.5664525452909
 31
0.0
  0
ARC
  5
1A27
330
18
100
AcDbEntity
  8
外形線
100
AcDbCircle
 10
324.1457303509394
 20
230.5664525452909
 30
0.0
 40
1.0
100
AcDbArc
 50
180.0
 51
270.0
  0
ARC
  5
1A29
330
18
100
AcDbEntity
  8
外形線
100
AcDbCircle
 10
330.1457303509394
 20
230.5664525452909
 30
0.0
 40
1.0
100
AcDbArc
 50
270.0
 51
0.0
  0
LINE
  5
1A2A
330
18
100
AcDbEntity
  8
外形線
100
AcDbLine
 10
329.1457303509394
 20
229.5664525452909
 30
0.0
 11
329.1457303509393
 21
225.5664525452909
 31
0.0
  0
LINE
  5
1A2B
330
18
100
AcDbEntity
  8
外形線
100
AcDbLine
 10
325.1457303509393
 20
229.5664525452909
 30
0.0
 11
325.1457303509393
 21
225.5664525452909
 31
0.0
  0
LINE
  5
1A2C
330
18
100
AcDbEntity
  8
外形線
100
AcDbLine
 10
325.1457303509393
 20
225.5664525452909
 30
0.0
 11
329.1457303509394
 21
225.5664525452909
 31
0.0
  0
LINE
  5
1A36
330
18
100
AcDbEntity
  8
外形線
100
AcDbLine
 10
405.642048966572
 20
261.4664525452909
 30
0.0
 11
405.6420489665721
 21
230.5664525452909
 31
0.0
  0
LINE
  5
1A37
330
18
100
AcDbEntity
  8
外形線
100
AcDbLine
 10
413.6420489665721
 20
261.4664525452909
 30
0.0
 11
413.6420489665721
 21
230.5664525452909
 31
0.0
  0
LINE
  5
1A38
330
18
100
AcDbEntity
  8
外形線
100
AcDbLine
 10
411.6420489665721
 20
229.5664525452909
 30
0.0
 11
411.6420489665721
 21
225.5664525452909
 31
0.0
  0
LINE
  5
1A39
330
18
100
AcDbEntity
  8
外形線
100
AcDbLine
 10
407.6420489665721
 20
229.5664525452909
 30
0.0
 11
407.6420489665721
 21
225.5664525452909
 31
0.0
  0
LINE
  5
1A3D
330
18
100
AcDbEntity
  8
外形線
100
AcDbLine
 10
406.6420489665721
 20
229.5664525452909
 30
0.0
 11
412.6420489665721
 21
229.5664525452909
 31
0.0
  0
LINE
  5
1A3E
330
18
100
AcDbEntity
  8
外形線
100
AcDbLine
 10
407.6420489665721
 20
225.5664525452909
 30
0.0
 11
411.6420489665721
 21
225.5664525452909
 31
0.0
  0
ARC
  5
1A40
330
18
100
AcDbEntity
  8
外形線
100
AcDbCircle
 10
406.6420489665721
 20
230.5664525452909
 30
0.0
 40
1.0
100
AcDbArc
 50
180.0
 51
270.0
  0
ARC
  5
1A41
330
18
100
AcDbEntity
  8
外形線
100
AcDbCircle
 10
412.6420489665721
 20
230.5664525452909
 30
0.0
 40
1.0
100
AcDbArc
 50
270.0
 51
0.0
  0
INSERT
  5
1A42
330
18
100
AcDbEntity
  8
0
  6
ByBlock
 62
     2
100
AcDbBlockReference
  2
_OPEN
 10
413.6420489665721
 20
245.9624315971411
 30
0.0
 41
2.5
 42
2.5
 43
2.5
  0
MTEXT
  5
1A43
330
18
100
AcDbEntity
  8
0
  6
ByBlock
 62
     6
100
AcDbMText
 10
420.7336000043986
 20
247.8374315971411
 30
0.0
 40
2.5
 41
0.0
 71
     5
 72
     1
  1
\A1;8.0
  7
STYLE3
 73
     1
 44
1.0
  0
INSERT
  5
1A44
330
18
100
AcDbEntity
  8
0
  6
ByBlock
 62
     2
100
AcDbBlockReference
  2
_OPEN
 10
405.6420489665721
 20
245.9624315971411
 30
0.0
 41
2.5
 42
2.5
 43
2.5
 50
180.0
  0
POINT
  5
1A45
330
18
100
AcDbEntity
  8
DEFPOINTS
  6
ByBlock
 62
     0
100
AcDbPoint
 10
405.6420489665721
 20
245.3951287198723
 30
0.0
  0
LINE
  5
1A46
330
18
100
AcDbEntity
  8
0
  6
ByBlock
 62
     2
100
AcDbLine
 10
408.1420489665721
 20
245.9624315971411
 30
0.0
 11
411.1420489665721
 21
245.9624315971411
 31
0.0
  0
TEXT
  5
1A47
330
18
100
AcDbEntity
  8
文字
100
AcDbText
 10
414.6388534640423
 20
246.6892756392365
 30
0.0
 40
2.5
  1
φ
  7
STYLE3
100
AcDbText
  0
POINT
  5
1A6D
330
18
100
AcDbEntity
  8
DEFPOINTS
  6
ByBlock
 62
     0
100
AcDbPoint
 10
325.7205193186415
 20
284.7099600011759
 30
0.0
  0
POINT
  5
1A70
330
18
100
AcDbEntity
  8
目盛
100
AcDbPoint
 10
308.5383394803157
 20
272.4473917425639
 30
0.0
  0
POINT
  5
1AB6
330
18
100
AcDbEntity
  8
DEFPOINTS
  6
ByBlock
 62
     0
100
AcDbPoint
 10
407.6420489665721
 20
225.5664525452909
 30
0.0
  0
LINE
  5
1AB9
330
18
100
AcDbEntity
  8
0
  6
ByBlock
 62
     2
100
AcDbLine
 10
397.2844758566002
 20
229.5664525452909
 30
0.0
 11
388.3167287342014
 21
229.5664525452909
 31
0.0
  0
MTEXT
  5
1AC0
330
18
100
AcDbEntity
  8
0
  6
ByBlock
 62
     6
100
AcDbMText
 10
365.2186902367128
 20
234.0558116767514
 30
0.0
 40
2.5
 41
0.0
 71
     5
 72
     1
  1

  7
STYLE3
 11
0.0000000000000001
 21
1.0
 31
0.0
 73
     1
 44
1.0
  0
POINT
  5
1AC1
330
18
100
AcDbEntity
  8
DEFPOINTS
  6
ByBlock
 62
     0
100
AcDbPoint
 10
397.2844758566002
 20
229.5664525452909
 30
0.0
  0
POINT
  5
1AC2
330
18
100
AcDbEntity
  8
DEFPOINTS
  6
ByBlock
 62
     0
100
AcDbPoint
 10
407.6420489665721
 20
225.5664525452909
 30
0.0
  0
LINE
  5
1BE5
330
18
100
AcDbEntity
  8
外形線
  6
Continuous
100
AcDbLine
 10
416.1420489665721
 20
310.4664525452908
 30
0.0
 11
416.142048966572
 21
261.4664525452909
 31
0.0
  0
TEXT
  5
1C5E
330
18
100
AcDbEntity
  8
文字
100
AcDbText
 10
425.5724846619954
 20
249.56121218602
 30
0.0
 40
1.5
  1
0
  7
STYLE3
100
AcDbText
  0
TEXT
  5
1C5F
330
18
100
AcDbEntity
  8
文字
100
AcDbText
 10
423.7667649884081
 20
247.7678413366121
 30
0.0
 40
1.5
  1
-0.03
  7
STYLE3
100
AcDbText
  0
LINE
  5
1C69
330
18
100
AcDbEntity
  8
0
  6
ByBlock
 62
     2
100
AcDbLine
 10
395.142048966572
 20
285.9664525452909
 30
0.0
 11
395.142048966572
 21
336.3343573575843
 31
0.0
  0
LINE
  5
1C6A
330
18
100
AcDbEntity
  8
0
  6
ByBlock
 62
     2
100
AcDbLine
 10
409.6420489665721
 20
327.4664525452909
 30
0.0
 11
409.6420489665721
 21
336.3343573575843
 31
0.0
  0
LINE
  5
1C6B
330
18
100
AcDbEntity
  8
0
  6
ByBlock
 62
     2
100
AcDbLine
 10
397.642048966572
 20
335.0843573575843
 30
0.0
 11
407.1420489665721
 21
335.0843573575843
 31
0.0
  0
INSERT
  5
1C6C
330
18
100
AcDbEntity
  8
0
  6
ByBlock
 62
     2
100
AcDbBlockReference
  2
_OPEN
 10
395.142048966572
 20
335.0843573575843
 30
0.0
 41
2.5
 42
2.5
 43
2.5
 50
180.0
  0
INSERT
  5
1C6D
330
18
100
AcDbEntity
  8
0
  6
ByBlock
 62
     2
100
AcDbBlockReference
  2
_OPEN
 10
409.6420489665721
 20
335.0843573575843
 30
0.0
 41
2.5
 42
2.5
 43
2.5
  0
MTEXT
  5
1C6E
330
18
100
AcDbEntity
  8
0
  6
ByBlock
 62
     6
100
AcDbMText
 10
402.392048966572
 20
336.9593573575843
 30
0.0
 40
2.5
 41
0.0
 71
     5
 72
     1
  1
\A1;14.5
  7
STYLE3
 73
     1
 44
1.0
  0
POINT
  5
1C6F
330
18
100
AcDbEntity
  8
DEFPOINTS
  6
ByBlock
 62
     0
100
AcDbPoint
 10
395.142048966572
 20
285.9664525452909
 30
0.0
  0
POINT
  5
1C70
330
18
100
AcDbEntity
  8
DEFPOINTS
  6
ByBlock
 62
     0
100
AcDbPoint
 10
409.6420489665721
 20
327.4664525452909
 30
0.0
  0
POINT
  5
1C71
330
18
100
AcDbEntity
  8
DEFPOINTS
  6
ByBlock
 62
     0
100
AcDbPoint
 10
409.6420489665721
 20
335.0843573575843
 30
0.0
  0
LINE
  5
1C72
330
18
100
AcDbEntity
  8
0
  6
ByBlock
 62
     2
100
AcDbLine
 10
399.3420489665721
 20
312.3664525452908
 30
0.0
 11
384.3249647924586
 21
312.3664525452908
 31
0.0
  0
LINE
  5
1C73
330
18
100
AcDbEntity
  8
0
  6
ByBlock
 62
     2
100
AcDbLine
 10
399.3420489665721
 20
259.5664525452909
 30
0.0
 11
384.3249647924586
 21
259.5664525452909
 31
0.0
  0
LINE
  5
1C74
330
18
100
AcDbEntity
  8
0
  6
ByBlock
 62
     2
100
AcDbLine
 10
385.5749647924586
 20
309.8664525452908
 30
0.0
 11
385.5749647924586
 21
262.0664525452909
 31
0.0
  0
INSERT
  5
1C75
330
18
100
AcDbEntity
  8
0
  6
ByBlock
 62
     2
100
AcDbBlockReference
  2
_OPEN
 10
385.5749647924586
 20
312.3664525452908
 30
0.0
 41
2.5
 42
2.5
 43
2.5
 50
90.0
  0
INSERT
  5
1C76
330
18
100
AcDbEntity
  8
0
  6
ByBlock
 62
     2
100
AcDbBlockReference
  2
_OPEN
 10
385.5749647924586
 20
259.5664525452909
 30
0.0
 41
2.5
 42
2.5
 43
2.5
 50
270.0
  0
MTEXT
  5
1C77
330
18
100
AcDbEntity
  8
0
  6
ByBlock
 62
     6
100
AcDbMText
 10
383.6999647924586
 20
285.9664525452909
 30
0.0
 40
2.5
 41
0.0
 71
     5
 72
     1
  1
\A1;φ53
  7
STYLE3
 11
0.0000000000000001
 21
1.0
 31
0.0
 73
     1
 44
1.0
  0
POINT
  5
1C78
330
18
100
AcDbEntity
  8
DEFPOINTS
  6
ByBlock
 62
     0
100
AcDbPoint
 10
399.3420489665721
 20
312.3664525452908
 30
0.0
  0
POINT
  5
1C79
330
18
100
AcDbEntity
  8
DEFPOINTS
  6
ByBlock
 62
     0
100
AcDbPoint
 10
399.3420489665721
 20
259.5664525452909
 30
0.0
  0
POINT
  5
1C7A
330
18
100
AcDbEntity
  8
DEFPOINTS
  6
ByBlock
 62
     0
100
AcDbPoint
 10
385.5749647924586
 20
259.5664525452909
 30
0.0
  0
LINE
  5
1C8C
330
18
100
AcDbEntity
  8
0
  6
ByBlock
 62
     2
100
AcDbLine
 10
331.6457303509394
 20
227.2721479599998
 30
0.0
 11
337.4844336275788
 21
227.2721479599998
 31
0.0
  0
LINE
  5
1C8D
330
18
100
AcDbEntity
  8
0
  6
ByBlock
 62
     2
100
AcDbLine
 10
325.1457303509393
 20
227.2721479599998
 30
0.0
 11
329.1457303509394
 21
227.2721479599998
 31
0.0
  0
INSERT
  5
1C8E
330
18
100
AcDbEntity
  8
0
  6
ByBlock
 62
     2
100
AcDbBlockReference
  2
_OPEN
 10
325.1457303509393
 20
227.2721479599998
 30
0.0
 41
2.5
 42
2.5
 43
2.5
  0
INSERT
  5
1C8F
330
18
100
AcDbEntity
  8
0
  6
ByBlock
 62
     2
100
AcDbBlockReference
  2
_OPEN
 10
329.1457303509394
 20
227.2721479599998
 30
0.0
 41
2.5
 42
2.5
 43
2.5
 50
180.0
  0
MTEXT
  5
1C90
330
18
100
AcDbEntity
  8
0
  6
ByBlock
 62
     6
100
AcDbMText
 10
335.1089337881034
 20
228.9068670646595
 30
0.0
 40
2.5
 41
0.0
 71
     5
 72
     1
  1
\A1;φ4
  7
STYLE3
 73
     1
 44
1.0
  0
POINT
  5
1C91
330
18
100
AcDbEntity
  8
DEFPOINTS
  6
ByBlock
 62
     0
100
AcDbPoint
 10
325.1457303509393
 20
227.8427867590606
 30
0.0
  0
POINT
  5
1C92
330
18
100
AcDbEntity
  8
DEFPOINTS
  6
ByBlock
 62
     0
100
AcDbPoint
 10
329.1457303509394
 20
227.7953257841225
 30
0.0
  0
POINT
  5
1C93
330
18
100
AcDbEntity
  8
DEFPOINTS
  6
ByBlock
 62
     0
100
AcDbPoint
 10
329.1457303509394
 20
227.1783344902626
 30
0.0
  0
LINE
  5
1C97
330
18
100
AcDbEntity
  8
0
  6
ByBlock
 62
     2
100
AcDbLine
 10
407.6420489665721
 20
229.5664525452909
 30
0.0
 11
384.3249647924586
 21
229.5664525452909
 31
0.0
  0
LINE
  5
1C98
330
18
100
AcDbEntity
  8
0
  6
ByBlock
 62
     2
100
AcDbLine
 10
385.5749647924586
 20
257.0664525452909
 30
0.0
 11
385.5749647924586
 21
232.0664525452909
 31
0.0
  0
INSERT
  5
1C99
330
18
100
AcDbEntity
  8
0
  6
ByBlock
 62
     2
100
AcDbBlockReference
  2
_OPEN
 10
385.5749647924586
 20
259.5664525452909
 30
0.0
 41
2.5
 42
2.5
 43
2.5
 50
90.0
  0
INSERT
  5
1C9A
330
18
100
AcDbEntity
  8
0
  6
ByBlock
 62
     2
100
AcDbBlockReference
  2
_OPEN
 10
385.5749647924586
 20
229.5664525452909
 30
0.0
 41
2.5
 42
2.5
 43
2.5
 50
270.0
  0
MTEXT
  5
1C9B
330
18
100
AcDbEntity
  8
0
  6
ByBlock
 62
     6
100
AcDbMText
 10
383.6999647924586
 20
244.5664525452909
 30
0.0
 40
2.5
 41
0.0
 71
     5
 72
     1
  1
29.9
  7
STYLE3
 11
0.0000000000000001
 21
1.0
 31
0.0
 73
     1
 44
1.0
  0
POINT
  5
1C9C
330
18
100
AcDbEntity
  8
DEFPOINTS
  6
ByBlock
 62
     0
100
AcDbPoint
 10
399.3420489665721
 20
259.5664525452909
 30
0.0
  0
POINT
  5
1C9D
330
18
100
AcDbEntity
  8
DEFPOINTS
  6
ByBlock
 62
     0
100
AcDbPoint
 10
407.6420489665721
 20
229.5664525452909
 30
0.0
  0
POINT
  5
1C9E
330
18
100
AcDbEntity
  8
DEFPOINTS
  6
ByBlock
 62
     0
100
AcDbPoint
 10
385.5749647924586
 20
229.5664525452909
 30
0.0
  0
POINT
  5
1CA7
330
18
100
AcDbEntity
  8
DEFPOINTS
  6
ByBlock
 62
     0
100
AcDbPoint
 10
407.6420489665721
 20
229.5664525452909
 30
0.0
  0
LINE
  5
1CB4
330
18
100
AcDbEntity
  8
中心線
 48
0.5
100
AcDbLine
 10
323.1457303509394
 20
319.7329463415885
 30
0.0
 11
323.3792365546415
 21
319.9664525452907
 31
0.0
  0
LINE
  5
1CB5
330
18
100
AcDbEntity
  8
中心線
 48
0.5
100
AcDbLine
 10
323.1457303509394
 20
317.9651793886222
 30
0.0
 11
325.1470035076079
 21
319.9664525452907
 31
0.0
  0
LINE
  5
1CB6
330
18
100
AcDbEntity
  8
中心線
 48
0.5
100
AcDbLine
 10
323.1457303509394
 20
316.1974124356559
 30
0.0
 11
326.9147704605743
 21
319.9664525452907
 31
0.0
  0
LINE
  5
1CB7
330
18
100
AcDbEntity
  8
中心線
 48
0.5
100
AcDbLine
 10
323.1457303509394
 20
314.4296454826895
 30
0.0
 11
327.1457303509394
 21
318.4296454826895
 31
0.0
  0
LINE
  5
1CB8
330
18
100
AcDbEntity
  8
中心線
 48
0.5
100
AcDbLine
 10
324.450304366507
 20
313.9664525452908
 30
0.0
 11
327.1457303509394
 21
316.6618785297231
 31
0.0
  0
LINE
  5
1CB9
330
18
100
AcDbEntity
  8
中心線
 48
0.5
100
AcDbLine
 10
326.2180713194734
 20
313.9664525452908
 30
0.0
 11
327.1457303509394
 21
314.8941115767568
 31
0.0
  0
LINE
  5
1CBA
330
18
100
AcDbEntity
  8
中心線
 48
0.5
100
AcDbLine
 10
323.1972759972584
 20
313.9664525452907
 30
0.0
 11
323.1457303509394
 21
314.0179981916097
 31
0.0
  0
LINE
  5
1CBB
330
18
100
AcDbEntity
  8
中心線
 48
0.5
100
AcDbLine
 10
324.9650429502247
 20
313.9664525452908
 30
0.0
 11
323.1457303509394
 21
315.785765144576
 31
0.0
  0
LINE
  5
1CBC
330
18
100
AcDbEntity
  8
中心線
 48
0.5
100
AcDbLine
 10
326.732809903191
 20
313.9664525452908
 30
0.0
 11
323.1457303509394
 21
317.5535320975424
 31
0.0
  0
LINE
  5
1CBD
330
18
100
AcDbEntity
  8
中心線
 48
0.5
100
AcDbLine
 10
327.1457303509394
 20
315.3212990505088
 30
0.0
 11
323.1457303509394
 21
319.3212990505088
 31
0.0
  0
LINE
  5
1CBE
330
18
100
AcDbEntity
  8
中心線
 48
0.5
100
AcDbLine
 10
327.1457303509394
 20
317.0890660034751
 30
0.0
 11
324.2683438091237
 21
319.9664525452908
 31
0.0
  0
LINE
  5
1CBF
330
18
100
AcDbEntity
  8
中心線
 48
0.5
100
AcDbLine
 10
327.1457303509394
 20
318.8568329564414
 30
0.0
 11
326.0361107620901
 21
319.9664525452907
 31
0.0
  0
POINT
  5
1CC5
330
18
100
AcDbEntity
  8
DEFPOINTS
  6
ByBlock
 62
     0
100
AcDbPoint
 10
409.6420489665721
 20
327.4664525452909
 30
0.0
  0
POINT
  5
1CC6
330
18
100
AcDbEntity
  8
DEFPOINTS
  6
ByBlock
 62
     0
100
AcDbPoint
 10
416.1420489665721
 20
310.4664525452908
 30
0.0
  0
LINE
  5
1CC8
330
18
100
AcDbEntity
  8
中心線
 48
0.5
100
AcDbLine
 10
405.642048966572
 20
319.7329463415887
 30
0.0
 11
405.8755551702741
 21
319.9664525452908
 31
0.0
  0
LINE
  5
1CC9
330
18
100
AcDbEntity
  8
中心線
 48
0.5
100
AcDbLine
 10
405.642048966572
 20
317.9651793886222
 30
0.0
 11
407.6433221232405
 21
319.9664525452908
 31
0.0
  0
LINE
  5
1CCA
330
18
100
AcDbEntity
  8
中心線
 48
0.5
100
AcDbLine
 10
405.642048966572
 20
316.1974124356559
 30
0.0
 11
409.411089076207
 21
319.9664525452908
 31
0.0
  0
LINE
  5
1CCB
330
18
100
AcDbEntity
  8
中心線
 48
0.5
100
AcDbLine
 10
405.642048966572
 20
314.4296454826895
 30
0.0
 11
409.642048966572
 21
318.4296454826895
 31
0.0
  0
LINE
  5
1CCC
330
18
100
AcDbEntity
  8
中心線
 48
0.5
100
AcDbLine
 10
406.9466229821395
 20
313.9664525452908
 30
0.0
 11
409.642048966572
 21
316.6618785297231
 31
0.0
  0
LINE
  5
1CCD
330
18
100
AcDbEntity
  8
中心線
 48
0.5
100
AcDbLine
 10
408.714389935106
 20
313.9664525452908
 30
0.0
 11
409.642048966572
 21
314.8941115767568
 31
0.0
  0
LINE
  5
1CCE
330
18
100
AcDbEntity
  8
中心線
 48
0.5
100
AcDbLine
 10
405.6935946128909
 20
313.9664525452908
 30
0.0
 11
405.6420489665719
 21
314.0179981916098
 31
0.0
  0
LINE
  5
1CCF
330
18
100
AcDbEntity
  8
中心線
 48
0.5
100
AcDbLine
 10
407.4613615658574
 20
313.9664525452908
 30
0.0
 11
405.642048966572
 21
315.7857651445761
 31
0.0
  0
LINE
  5
1CD0
330
18
100
AcDbEntity
  8
中心線
 48
0.5
100
AcDbLine
 10
409.2291285188237
 20
313.9664525452908
 30
0.0
 11
405.642048966572
 21
317.5535320975425
 31
0.0
  0
LINE
  5
1CD1
330
18
100
AcDbEntity
  8
中心線
 48
0.5
100
AcDbLine
 10
409.642048966572
 20
315.3212990505089
 30
0.0
 11
405.642048966572
 21
319.3212990505089
 31
0.0
  0
LINE
  5
1CD2
330
18
100
AcDbEntity
  8
中心線
 48
0.5
100
AcDbLine
 10
409.642048966572
 20
317.0890660034752
 30
0.0
 11
406.7646624247564
 21
319.9664525452907
 31
0.0
  0
LINE
  5
1CD3
330
18
100
AcDbEntity
  8
中心線
 48
0.5
100
AcDbLine
 10
409.642048966572
 20
318.8568329564416
 30
0.0
 11
408.5324293777228
 21
319.9664525452908
 31
0.0
  0
LINE
  5
2238
330
18
100
AcDbEntity
  8
外形線
100
AcDbLine
 10
407.1420489665722
 20
225.3664525452909
 30
0.0
 11
407.1420489665722
 21
222.2664525452909
 31
0.0
  0
HATCH
  5
2239
330
18
100
AcDbEntity
  8
中心線
 48
0.5
100
AcDbHatch
 10
0.0
 20
0.0
 30
0.0
210
0.0
220
0.0
230
1.0
  2
ANSI37
 70
     0
 71
     0
 91
        1
 92
        7
 72
     0
 73
     1
 93
        4
 10
407.1420489665722
 20
222.2664525452909
 10
409.6420489665722
 20
222.2664525452908
 10
409.6420489665722
 20
225.3664525452908
 10
407.1420489665722
 20
225.3664525452909
 97
        0
 75
     0
 76
     1
 52
0.0
 41
0.3
 77
     0
 78
     2
 53
45.0
 43
159.3346068530564
 44
152.266875897144
 45
-0.6735192090801864
 46
0.6735192090801866
 79
     0
 53
135.0
 43
159.3346068530564
 44
152.266875897144
 45
-0.6735192090801866
 46
-0.6735192090801864
 79
     0
 47
0.0297960672888047
 98
        1
 10
407.6801906501727
 20
223.8550907299628
  0
LINE
  5
223A
330
18
100
AcDbEntity
  8
外形線
100
AcDbLine
 10
412.1420489665721
 20
225.3664525452909
 30
0.0
 11
412.142048966572
 21
222.2664525452909
 31
0.0
  0
POINT
  5
223C
330
18
100
AcDbEntity
  8
DEFPOINTS
  6
ByBlock
 62
     0
100
AcDbPoint
 10
409.6420489665722
 20
216.5664525452909
 30
0.0
  0
LINE
  5
223D
330
18
100
AcDbEntity
  8
外形線
100
AcDbLine
 10
408.3420489665721
 20
217.5664525452909
 30
0.0
 11
410.9420489665721
 21
217.5664525452909
 31
0.0
  0
LINE
  5
223E
330
18
100
AcDbEntity
  8
外形線
100
AcDbLine
 10
407.3920489665722
 20
222.0664525452909
 30
0.0
 11
411.892048966572
 21
222.0664525452909
 31
0.0
  0
LINE
  5
223F
330
18
100
AcDbEntity
  8
外形線
100
AcDbLine
 10
407.1420489665721
 20
222.2664525452909
 30
0.0
 11
412.1420489665721
 21
222.2664525452909
 31
0.0
  0
LINE
  5
2240
330
18
100
AcDbEntity
  8
外形線
100
AcDbLine
 10
407.3920489665722
 20
222.0664525452909
 30
0.0
 11
408.3420489665721
 21
217.5664525452909
 31
0.0
  0
LINE
  5
2241
330
18
100
AcDbEntity
  8
外形線
100
AcDbLine
 10
407.1420489665722
 20
222.2664525452909
 30
0.0
 11
407.3920489665722
 21
222.0664525452909
 31
0.0
  0
LINE
  5
2242
330
18
100
AcDbEntity
  8
外形線
100
AcDbLine
 10
411.8920489665722
 20
222.0664525452909
 30
0.0
 11
410.9420489665721
 21
217.5664525452909
 31
0.0
  0
LINE
  5
2243
330
18
100
AcDbEntity
  8
外形線
100
AcDbLine
 10
412.1420489665721
 20
222.2664525452909
 30
0.0
 11
411.8920489665722
 21
222.0664525452909
 31
0.0
  0
LINE
  5
2244
330
18
100
AcDbEntity
  8
外形線
100
AcDbLine
 10
407.3920489665722
 20
225.5664525452909
 30
0.0
 11
411.8920489665722
 21
225.5664525452909
 31
0.0
  0
LINE
  5
2245
330
18
100
AcDbEntity
  8
外形線
100
AcDbLine
 10
407.1420489665721
 20
225.3664525452909
 30
0.0
 11
412.1420489665721
 21
225.3664525452909
 31
0.0
  0
LINE
  5
2246
330
18
100
AcDbEntity
  8
外形線
100
AcDbLine
 10
407.3920489665722
 20
225.5664525452909
 30
0.0
 11
407.1420489665722
 21
225.3664525452909
 31
0.0
  0
LINE
  5
2247
330
18
100
AcDbEntity
  8
外形線
100
AcDbLine
 10
411.8920489665722
 20
225.5664525452909
 30
0.0
 11
412.1420489665721
 21
225.3664525452909
 31
0.0
  0
LINE
  5
224A
330
18
100
AcDbEntity
  8
外形線
100
AcDbLine
 10
324.8957303509393
 20
222.0664525452909
 30
0.0
 11
325.8457303509393
 21
217.5664525452909
 31
0.0
  0
LINE
  5
224B
330
18
100
AcDbEntity
  8
外形線
100
AcDbLine
 10
329.3957303509393
 20
222.0664525452909
 30
0.0
 11
328.4457303509393
 21
217.5664525452909
 31
0.0
  0
POINT
  5
224C
330
18
100
AcDbEntity
  8
DEFPOINTS
  6
ByBlock
 62
     0
100
AcDbPoint
 10
327.1457303509393
 20
216.5664525452909
 30
0.0
  0
LINE
  5
224E
330
18
100
AcDbEntity
  8
外形線
100
AcDbLine
 10
325.8457303509393
 20
217.5664525452909
 30
0.0
 11
328.4457303509393
 21
217.5664525452909
 31
0.0
  0
HATCH
  5
224F
330
18
100
AcDbEntity
  8
中心線
 48
0.5
100
AcDbHatch
 10
0.0
 20
0.0
 30
0.0
210
0.0
220
0.0
230
1.0
  2
ANSI37
 70
     0
 71
     0
 91
        1
 92
        7
 72
     0
 73
     1
 93
        4
 10
324.6457303509393
 20
222.2664525452909
 10
327.1457303509393
 20
222.2664525452908
 10
327.1457303509394
 20
225.3664525452908
 10
324.6457303509393
 20
225.3664525452909
 97
        0
 75
     0
 76
     1
 52
0.0
 41
0.3
 77
     0
 78
     2
 53
45.0
 43
76.83828823742363
 44
152.266875897144
 45
-0.6735192090801864
 46
0.6735192090801866
 79
     0
 53
135.0
 43
76.83828823742363
 44
152.266875897144
 45
-0.6735192090801866
 46
-0.6735192090801864
 79
     0
 47
0.0297960672888047
 98
        1
 10
325.1838720345399
 20
223.8550907299628
  0
LINE
  5
2250
330
18
100
AcDbEntity
  8
外形線
100
AcDbLine
 10
324.8957303509393
 20
222.0664525452909
 30
0.0
 11
329.3957303509392
 21
222.0664525452909
 31
0.0
  0
LINE
  5
2251
330
18
100
AcDbEntity
  8
外形線
100
AcDbLine
 10
324.6457303509392
 20
222.2664525452909
 30
0.0
 11
329.6457303509393
 21
222.2664525452909
 31
0.0
  0
LINE
  5
2252
330
18
100
AcDbEntity
  8
外形線
100
AcDbLine
 10
324.8957303509393
 20
225.5664525452909
 30
0.0
 11
329.3957303509393
 21
225.5664525452909
 31
0.0
  0
LINE
  5
2253
330
18
100
AcDbEntity
  8
外形線
100
AcDbLine
 10
324.6457303509392
 20
225.3664525452909
 30
0.0
 11
329.6457303509393
 21
225.3664525452909
 31
0.0
  0
LINE
  5
2254
330
18
100
AcDbEntity
  8
外形線
100
AcDbLine
 10
324.6457303509393
 20
225.3664525452909
 30
0.0
 11
324.6457303509393
 21
222.2664525452909
 31
0.0
  0
LINE
  5
2255
330
18
100
AcDbEntity
  8
外形線
100
AcDbLine
 10
324.8957303509393
 20
225.5664525452909
 30
0.0
 11
324.6457303509393
 21
225.3664525452909
 31
0.0
  0
LINE
  5
2256
330
18
100
AcDbEntity
  8
外形線
100
AcDbLine
 10
324.6457303509393
 20
222.2664525452909
 30
0.0
 11
324.8957303509393
 21
222.0664525452909
 31
0.0
  0
LINE
  5
2257
330
18
100
AcDbEntity
  8
外形線
100
AcDbLine
 10
329.6457303509393
 20
225.3664525452909
 30
0.0
 11
329.6457303509392
 21
222.2664525452909
 31
0.0
  0
LINE
  5
2258
330
18
100
AcDbEntity
  8
外形線
100
AcDbLine
 10
329.3957303509393
 20
225.5664525452909
 30
0.0
 11
329.6457303509393
 21
225.3664525452909
 31
0.0
  0
LINE
  5
2259
330
18
100
AcDbEntity
  8
外形線
100
AcDbLine
 10
329.6457303509393
 20
222.2664525452909
 30
0.0
 11
329.3957303509393
 21
222.0664525452909
 31
0.0
  0
DIMENSION
  5
2266
330
18
100
AcDbEntity
  8
寸法線
100
AcDbDimension
  2
*D2
 10
385.5749647924586
 20
229.5664525452909
 30
0.0
 11
383.6999647924585
 21
223.0664525452909
 31
0.0
 70
    32
 71
     5
 42
13.0
  3
STYLE2
100
AcDbAlignedDimension
 13
409.6420489665722
 23
216.5664525452909
 33
0.0
 14
383.1571758272711
 24
229.5664525452909
 34
0.0
 50
90.0
100
AcDbRotatedDimension
  0
DIMENSION
  5
2273
330
18
100
AcDbEntity
  8
寸法線
100
AcDbDimension
  2
*D3
 10
290.3528030555651
 20
285.9664525452909
 30
0.0
 11
288.4778030555651
 21
251.266452545291
 31
0.0
 70
    32
 71
     5
 42
69.40000000000001
  3
STYLE2
100
AcDbAlignedDimension
 13
327.1457303509393
 23
216.5664525452909
 33
0.0
 14
293.5772188223898
 24
285.9664525452909
 34
0.0
 50
90.0
100
AcDbRotatedDimension
  0
DIMENSION
  5
2280
330
18
100
AcDbEntity
  8
寸法線
100
AcDbDimension
  2
*D4
 10
284.2236903572137
 20
327.4664525452909
 30
0.0
 11
282.3486903572137
 21
272.0164525452909
 31
0.0
 70
    32
 71
     5
 42
110.8999999999999
  3
STYLE2
100
AcDbAlignedDimension
 13
289.1028030555651
 23
216.5664525452909
 33
0.0
 14
284.8578284002844
 24
327.4664525452909
 34
0.0
 50
90.0
100
AcDbRotatedDimension
  0
LINE
  5
2281
330
18
100
AcDbEntity
  8
寸法線
100
AcDbLine
 10
413.6420489665721
 20
245.9624315971411
 30
0.0
 11
423.7727087333996
 21
245.9624315971411
 31
0.0
  0
LINE
  5
2528
330
18
100
AcDbEntity
  8
外形線
100
AcDbLine
 10
328.4892332351937
 20
284.6229496610364
 30
0.0
 11
343.4091863182299
 21
269.7029965780002
 31
0.0
  0
LINE
  5
2529
330
18
100
AcDbEntity
  8
目盛
100
AcDbLine
 10
345.7531212215632
 20
272.447391742564
 30
0.0
 11
343.9328329842197
 21
273.769908560222
 31
0.0
  0
LINE
  5
252A
330
18
100
AcDbEntity
  8
目盛
100
AcDbLine
 10
343.9120087816319
 20
270.221869108931
 30
0.0
 11
343.0007979973551
 21
271.0775529913419
 31
0.0
  0
LINE
  5
252B
330
18
100
AcDbEntity
  8
目盛
100
AcDbLine
 10
344.3982849524399
 20
270.756279642847
 30
0.0
 11
343.4606461154019
 21
271.5829194745014
 31
0.0
  0
LINE
  5
252C
330
18
100
AcDbEntity
  8
目盛
100
AcDbLine
 10
344.8675349347825
 20
271.3057007810711
 30
0.0
 11
343.9043933813128
 21
272.1024807682569
 31
0.0
  0
LINE
  5
252D
330
18
100
AcDbEntity
  8
目盛
100
AcDbLine
 10
345.3192956355803
 20
271.8695903112724
 30
0.0
 11
344.3316018701107
 21
272.6357241283385
 31
0.0
  0
LINE
  5
252E
330
18
100
AcDbEntity
  8
目盛
100
AcDbLine
 10
308.9721650662986
 20
271.8695903112723
 30
0.0
 11
309.9598588317681
 21
272.6357241283385
 31
0.0
  0
LINE
  5
252F
330
18
100
AcDbEntity
  8
目盛
100
AcDbLine
 10
308.5383394803155
 20
272.447391742564
 30
0.0
 11
310.3586277176591
 21
273.769908560222
 31
0.0
  0
LINE
  5
2530
330
18
100
AcDbEntity
  8
目盛
100
AcDbLine
 10
309.4239257670962
 20
271.3057007810709
 30
0.0
 11
310.387067320566
 21
272.1024807682568
 31
0.0
  0
LINE
  5
2531
330
18
100
AcDbEntity
  8
外形線
100
AcDbLine
 10
325.802227466685
 20
284.6229496610363
 30
0.0
 11
310.8822743836488
 21
269.7029965780002
 31
0.0
  0
LINE
  5
2532
330
18
100
AcDbEntity
  8
目盛
100
AcDbLine
 10
309.8931757494388
 20
270.7562796428468
 30
0.0
 11
310.8308145864769
 21
271.5829194745014
 31
0.0
  0
LINE
  5
2533
330
18
100
AcDbEntity
  8
目盛
100
AcDbLine
 10
310.379451920247
 20
270.221869108931
 30
0.0
 11
311.2906627045237
 21
271.0775529913419
 31
0.0
  0
TEXT
  5
2534
330
18
100
AcDbEntity
  8
文字
100
AcDbText
 10
310.3918400155241
 20
273.6600172831348
 30
0.0
 40
2.5
  1
70
  7
STYLE3
100
AcDbText
  0
TEXT
  5
2535
330
18
100
AcDbEntity
  8
文字
100
AcDbText
 10
339.433685791239
 20
273.8164992292193
 30
0.0
 40
2.5
  1
70
  7
STYLE3
100
AcDbText
  0
DIMENSION
  5
2536
330
18
100
AcDbEntity
  8
寸法線
100
AcDbDimension
  2
*D5
 10
310.8822743836488
 20
269.7029965780002
 30
0.0
 11
327.1457303509393
 21
253.5453674672859
 31
0.0
 70
    34
 71
     5
 42
1.570796326794901
  3
STYLE2
100
AcDb2LineAngularDimension
 13
328.4892332351937
 23
284.6229496610364
 33
0.0
 14
343.4091863182299
 24
269.7029965780002
 34
0.0
 15
325.802227466685
 25
284.6229496610363
 35
0.0
 16
318.2692503602954
 26
252.8389782278388
 36
0.0
1001
ACAD
1000
DSTYLE
1002
{
1070
   341
1005
0
1002
}
  0
LINE
  5
25DF
330
18
100
AcDbEntity
  8
外形線
  6
Continuous
100
AcDbLine
 10
416.6420489665719
 20
308.9664525452909
 30
0.0
 11
416.6420489665721
 21
262.9664525452909
 31
0.0
  0
LINE
  5
25E1
330
18
100
AcDbEntity
  8
外形線
100
AcDbLine
 10
416.142048966572
 20
308.9664525452909
 30
0.0
 11
416.6420489665721
 21
308.9664525452909
 31
0.0
  0
LINE
  5
25E2
330
18
100
AcDbEntity
  8
外形線
100
AcDbLine
 10
416.142048966572
 20
262.9664525452909
 30
0.0
 11
416.6420489665721
 21
262.9664525452909
 31
0.0
  0
POINT
  5
25E4
330
18
100
AcDbEntity
  8
DEFPOINTS
  6
ByBlock
 62
     0
100
AcDbPoint
 10
416.142048966572
 20
310.4664525452908
 30
0.0
  0
DIMENSION
  5
25EF
330
18
100
AcDbEntity
  8
寸法線
100
AcDbDimension
  2
*D6
 10
409.642048966572
 20
335.0843573575843
 30
0.0
 11
413.142048966572
 21
336.9593573575843
 31
0.0
 70
    32
 71
     5
 42
7.000000000000113
  3
STYLE2
100
AcDbAlignedDimension
 13
416.6420489665721
 23
308.9664525452909
 33
0.0
 14
409.642048966572
 24
332.5619304127663
 34
0.0
100
AcDbRotatedDimension
1001
ACAD
1000
DSTYLE
1002
{
1070
   341
1005
0
1002
}
  0
LINE
  5
2632
330
18
100
AcDbEntity
  8
寸法線
100
AcDbLine
 10
322.6457303509393
 20
227.2721479599998
 30
0.0
 11
320.2551777820051
 21
227.2721479599998
 31
0.0
  0
LINE
  5
2639
330
18
100
AcDbEntity
  8
寸法線
100
AcDbLine
 10
284.8578284002844
 20
327.4664525452909
 30
0.0
 11
327.1457303509393
 21
327.4664525452909
 31
0.0
  0
TEXT
  5
2663
330
18
100
AcDbEntity
  8
文字
100
AcDbText
 10
320.730947862258
 20
268.828949915004
 30
0.0
 40
1.0
  1
MADE IN JAPAN
 41
1.199999999999999
  7
4
100
AcDbText
  0
ARC
  5
267C
330
18
100
AcDbEntity
  8
外形線
100
AcDbCircle
 10
327.1457303509393
 20
217.7664525452909
 30
0.0
 40
1.199999999999999
100
AcDbArc
 50
189.59406822686
 51
350.40593177314
  0
ARC
  5
267D
330
18
100
AcDbEntity
  8
外形線
100
AcDbCircle
 10
409.6420489665722
 20
217.7664525452909
 30
0.0
 40
1.199999999999999
100
AcDbArc
 50
189.59406822686
 51
350.40593177314
  0
TEXT
  5
26A4
330
18
100
AcDbEntity
  8
文字
100
AcDbText
 10
302.3196226542461
 20
356.8164589311134
 30
0.0
 40
3.5
  1
Model No.5Z-XB One Revolution Dial Gauge
  7
STYLE3
100
AcDbText
  0
LINE
  5
26A5
330
18
100
AcDbEntity
  8
外形線
100
AcDbLine
 10
302.0089956542462
 20
353.2384039311134
 30
0.0
 11
416.0089956542462
 21
353.2384039311134
 31
0.0
  0
LINE
  5
26A6
330
18
100
AcDbEntity
  8
外形線
100
AcDbLine
 10
302.0089956542462
 20
354.2384039311134
 30
0.0
 11
416.0089956542462
 21
354.2384039311134
 31
0.0
  0
TEXT
  5
26A7
330
18
100
AcDbEntity
  8
0
  6
Continuous
100
AcDbText
 10
351.856945033242
 20
183.7685303315197
 30
0.0
 40
2.1
  1
Design and specifications are subject to change without notice for future improvement.
  7
STYLE3
100
AcDbText
  0
LINE
  5
26A8
330
18
100
AcDbEntity
  8
外形線
100
AcDbLine
 10
350.399477033242
 20
172.2557623315197
 30
0.0
 11
350.399477033242
 21
192.6507463315198
 31
0.0
  0
TEXT
  5
26A9
330
18
100
AcDbEntity
  8
0
  6
Continuous
100
AcDbText
 10
395.169722033242
 20
175.7520463315198
 30
0.0
 40
2.399999999999999
  1
mm
  7
STYLE3
100
AcDbText
  0
LINE
  5
26AA
330
18
100
AcDbEntity
  8
外形線
100
AcDbLine
 10
350.399477033242
 20
181.8705403315197
 30
0.0
 11
491.190895033242
 21
181.8705403315197
 31
0.0
  0
TEXT
  5
26AB
330
18
100
AcDbEntity
  8
0
  6
Continuous
100
AcDbText
 10
354.188896033242
 20
177.5001853315198
 30
0.0
 40
3.0
  1
三　　角　　法
  7
STYLE3
100
AcDbText
  0
TEXT
  5
26AC
330
18
100
AcDbEntity
  8
0
  6
Continuous
100
AcDbText
 10
351.565453033242
 20
174.0039023315198
 30
0.0
 40
2.1
  1
3RD Angle Projection
  7
STYLE3
100
AcDbText
  0
TEXT
  5
26AD
330
18
100
AcDbEntity
  8
0
  6
Continuous
100
AcDbText
 10
387.299395033242
 20
174.0039033315198
 30
0.0
 40
2.1
  1
Unit
  7
STYLE3
100
AcDbText
  0
TEXT
  5
26AE
330
18
100
AcDbEntity
  8
0
  6
Continuous
100
AcDbText
 10
387.127674033242
 20
177.5061403315198
 30
0.0
 40
3.0
  1
単位
  7
STYLE3
100
AcDbText
  0
LINE
  5
26AF
330
18
100
AcDbEntity
  8
外形線
100
AcDbLine
 10
385.670205033242
 20
181.8705403315197
 30
0.0
 11
385.670205033242
 21
172.2557623315197
 31
0.0
  0
TEXT
  5
26B0
330
18
100
AcDbEntity
  8
0
  6
Continuous
100
AcDbText
 10
453.7712070332419
 20
177.7915423315198
 30
0.0
 40
3.0
  1
株式会社　尾崎製作所
  7
STYLE3
100
AcDbText
  0
TEXT
  5
26B1
330
18
100
AcDbEntity
  8
0
  6
Continuous
100
AcDbText
 10
454.6456860332419
 20
174.0039033315198
 30
0.0
 40
2.1
  1
OZAKI MFG. CO., LTD.
  7
STYLE3
100
AcDbText
  0
TEXT
  5
26B2
330
18
100
AcDbEntity
  8
0
  6
Continuous
100
AcDbText
 10
433.3666530332419
 20
175.7520453315198
 30
0.0
 40
2.1
  1
2010.06.09
  7
STYLE3
100
AcDbText
  0
TEXT
  5
26B3
330
18
100
AcDbEntity
  8
0
  6
Continuous
100
AcDbText
 10
414.528074033242
 20
176.0434033315197
 30
0.0
 40
2.399999999999999
  1
1/1
  7
STYLE3
100
AcDbText
  0
TEXT
  5
26B4
330
18
100
AcDbEntity
  8
0
  6
Continuous
100
AcDbText
 10
404.9087850332419
 20
174.2952603315198
 30
0.0
 40
2.1
  1
Scale
  7
STYLE3
100
AcDbText
  0
TEXT
  5
26B5
330
18
100
AcDbEntity
  8
0
  6
Continuous
100
AcDbText
 10
404.4455700332419
 20
177.2147823315198
 30
0.0
 40
3.0
  1
尺 度
  7
STYLE3
100
AcDbText
  0
LINE
  5
26B6
330
18
100
AcDbEntity
  8
外形線
100
AcDbLine
 10
403.1598220332419
 20
181.8705403315197
 30
0.0
 11
403.1598220332419
 21
172.2557623315197
 31
0.0
  0
TEXT
  5
26B7
330
18
100
AcDbEntity
  8
0
  6
Continuous
100
AcDbText
 10
424.621846033242
 20
174.0039043315197
 30
0.0
 40
2.1
  1
Date
  7
STYLE3
100
AcDbText
  0
TEXT
  5
26B8
330
18
100
AcDbEntity
  8
0
  6
Continuous
100
AcDbText
 10
424.2384850332419
 20
177.3369883315198
 30
0.0
 40
3.0
  1
日 付
  7
STYLE3
100
AcDbText
  0
LINE
  5
26B9
330
18
100
AcDbEntity
  8
外形線
100
AcDbLine
 10
422.6898950332419
 20
181.8705403315197
 30
0.0
 11
422.6898950332419
 21
172.2557623315197
 31
0.0
  0
LINE
  5
26BA
330
18
100
AcDbEntity
  8
外形線
100
AcDbLine
 10
452.422244033242
 20
181.8705403315197
 30
0.0
 11
452.422244033242
 21
172.2557623315197
 31
0.0
  0
LINE
  5
26BB
330
18
100
AcDbEntity
  8
外形線
100
AcDbLine
 10
350.399477033242
 20
192.6507463315198
 30
0.0
 11
491.190895033242
 21
192.6507463315198
 31
0.0
  0
TEXT
  5
26BC
330
18
100
AcDbEntity
  8
0
  6
Continuous
100
AcDbText
 10
352.148439033242
 20
187.6976783315198
 30
0.0
 40
3.5
  1
仕様及び外観は予告なく変更される場合がございますのでご了承下さい。
  7
STYLE3
100
AcDbText
  0
ENDSEC
  0
SECTION
  2
OBJECTS
  0
DICTIONARY
  5
C
330
0
100
AcDbDictionary
281
     1
  3
ACAD_COLOR
350
2287
  3
ACAD_GROUP
350
D
  3
ACAD_IMAGE_DICT
350
E58
  3
ACAD_LAYOUT
350
228A
  3
ACAD_MATERIAL
350
2286
  3
ACAD_MLINESTYLE
350
1B
  3
ACAD_PLOTSETTINGS
350
228B
  3
ACAD_PLOTSTYLENAME
350
2284
  3
ACAD_TABLESTYLE
350
2288
  3
ACDBVARIABLEDICTIONARY
350
101E
  0
DICTIONARY
  5
2287
102
{ACAD_REACTORS
330
C
102
}
330
C
100
AcDbDictionary
281
     1
  0
DICTIONARY
  5
D
102
{ACAD_REACTORS
330
C
102
}
330
C
100
AcDbDictionary
281
     1
  0
DICTIONARY
  5
E58
102
{ACAD_REACTORS
330
C
102
}
330
C
100
AcDbDictionary
281
     1
  3
ROGO01
350
E59
  0
DICTIONARY
  5
228A
102
{ACAD_REACTORS
330
C
102
}
330
C
100
AcDbDictionary
281
     1
  3
Model
350
228C
  3
レイアウト1
350
228D
  0
DICTIONARY
  5
2286
102
{ACAD_REACTORS
330
C
102
}
330
C
100
AcDbDictionary
281
     1
  0
DICTIONARY
  5
1B
102
{ACAD_REACTORS
330
C
102
}
330
C
100
AcDbDictionary
281
     1
  3
STANDARD
350
1C
  0
DICTIONARY
  5
228B
102
{ACAD_REACTORS
330
C
102
}
330
C
100
AcDbDictionary
281
     1
  0
ACDBDICTIONARYWDFLT
  5
2284
102
{ACAD_REACTORS
330
C
102
}
330
C
100
AcDbDictionary
281
     1
  3
Normal
350
2285
100
AcDbDictionaryWithDefault
340
2285
  0
DICTIONARY
  5
2288
102
{ACAD_REACTORS
330
C
102
}
330
C
100
AcDbDictionary
281
     1
  3
Standard
350
2289
  0
DICTIONARY
  5
101E
102
{ACAD_REACTORS
330
C
102
}
330
C
100
AcDbDictionary
281
     1
  3
CTABLESTYLE
350
2294
  3
SORTENTS
350
101F
  0
IMAGEDEF
  5
E59
102
{ACAD_REACTORS
330
E58
102
}
330
E58
100
AcDbRasterImageDef
 90
        0
  1
D:\ﾃｽﾄ\rogo01.TIF
 10
3388.0
 20
4668.0
 11
0.0635
 21
0.0635
280
     1
281
     5
  0
LAYOUT
  5
228C
102
{ACAD_REACTORS
330
228A
102
}
330
228A
100
AcDbPlotSettings
  1

  2
A4 EPSON LP-6100.pc3
  4
A4
  6

 40
5.873749732971191
 41
5.873747825622558
 42
5.873748779296875
 43
5.873748779296875
 44
209.9733276367187
 45
297.0106506347656
 46
1.5
 47
25.0
 48
0.0
 49
0.0
140
0.0
141
0.0
142
1.0
143
1.0
 70
 28336
 72
     1
 73
     1
 74
     1
  7
AutoCAD LT 98.ctb
 75
    16
147
1.0
 76
     1
 77
     2
 78
   300
148
-236.4886379941705
149
-171.6235136330668
100
AcDbLayout
  1
Model
 70
     1
 71
     0
 10
0.0
 20
0.0
 11
12.0
 21
9.0
 12
0.0
 22
0.0
 32
0.0
 14
0.0
 24
0.0
 34
0.0
 15
0.0
 25
0.0
 35
0.0
146
0.0
 13
0.0
 23
0.0
 33
0.0
 16
1.0
 26
0.0
 36
0.0
 17
0.0
 27
1.0
 37
0.0
 76
     0
330
18
1001
ACAD_PSEXT
1000
A4 EPSON LP-6100.pc3
1000
EPSON LP-6100
1000
USB002
1000

1070
     0
  0
LAYOUT
  5
228D
102
{ACAD_REACTORS
330
228A
102
}
330
228A
100
AcDbPlotSettings
  1

  2
C:\Documents and Settings\佐藤\Application Data\Autodesk\AutoCAD LT 2005\R10\jpn\plotters\PEACOCK EPSON LP-6100.pc3
  4

  6

 40
0.0
 41
0.0
 42
0.0
 43
0.0
 44
0.0
 45
0.0
 46
0.0
 47
0.0
 48
0.0
 49
0.0
140
0.0
141
0.0
142
1.0
143
1.0
 70
   688
 72
     0
 73
     0
 74
     5
  7
AutoCAD LT 98.ctb
 75
    16
147
1.0
 76
     0
 77
     2
 78
   300
148
0.0
149
0.0
100
AcDbLayout
  1
レイアウト1
 70
     1
 71
     1
 10
0.0
 20
0.0
 11
420.0
 21
297.0
 12
0.0
 22
0.0
 32
0.0
 14
1.000000000000000E+20
 24
1.000000000000000E+20
 34
1.000000000000000E+20
 15
-1.000000000000000E+20
 25
-1.000000000000000E+20
 35
-1.000000000000000E+20
146
0.0
 13
0.0
 23
0.0
 33
0.0
 16
1.0
 26
0.0
 36
0.0
 17
0.0
 27
1.0
 37
0.0
 76
     0
330
15
  0
MLINESTYLE
  5
1C
102
{ACAD_REACTORS
330
1B
102
}
330
1B
100
AcDbMlineStyle
  2
STANDARD
 70
     0
  3

 62
   256
 51
90.0
 52
90.0
 71
     2
 49
0.5
 62
   256
  6
BYLAYER
 49
-0.5
 62
   256
  6
BYLAYER
  0
ACDBPLACEHOLDER
  5
2285
102
{ACAD_REACTORS
330
2284
102
}
330
2284
  0
ACAD_PROXY_OBJECT
  5
2289
102
{ACAD_REACTORS
330
2288
102
}
330
2288
100
AcDbProxyObject
 90
      499
 91
      505
 95
  2555929
 70
     0
 93
     1849
310
4214DD185B99185C992420000000000000F83F0000000000003E0FC00000000000004901028000000C1008070000C3001FDFF8000000C1003FBFF000000182007F7FE00000030400FEFFC00000060801FDFF8000000C1003FBFF000000182000000000000000C2020B0000001820100E000186003FBFF000000182007F7FE0
310
0000030400FEFFC00000060801FDFF8000000C1003FBFF000000182007F7FE0000003040000000000000012404160000003040201C00030C007F7FE00000030400FEFFC00000060801FDFF8000000C1003FBFF000000182007F7FE00000030400FEFFC000000608000
340
F
340
F
340
F
 94
        0
  0
DICTIONARYVAR
  5
2294
102
{ACAD_REACTORS
330
101E
102
}
330
101E
100
DictionaryVariables
280
     0
  1
STANDARD
  0
DICTIONARYVAR
  5
101F
102
{ACAD_REACTORS
330
101E
102
}
330
101E
100
DictionaryVariables
280
     0
  1
96
  0
ENDSEC
  0
EOF
