  0
SECTION
  2
HEADER
  9
$ACADVER
  1
AC1018
  9
$ACADMAINTVER
 70
     0
  9
$DWGCODEPAGE
  3
ANSI_932
  9
$INSBASE
 10
0.0
 20
0.0
 30
0.0
  9
$EXTMIN
 10
8.799134288913478
 20
15.58917475548685
 30
-0.0000762951084532
  9
$EXTMAX
 10
387.1362314083804
 20
298.8898024674406
 30
0.0000000046571813
  9
$LIMMIN
 10
0.0
 20
0.0
  9
$LIMMAX
 10
420.0
 20
297.0
  9
$ORTHOMODE
 70
     0
  9
$REGENMODE
 70
     1
  9
$FILLMODE
 70
     1
  9
$QTEXTMODE
 70
     0
  9
$MIRRTEXT
 70
     1
  9
$LTSCALE
 40
1.0
  9
$ATTMODE
 70
     1
  9
$TEXTSIZE
 40
5.0
  9
$TRACEWID
 40
1.0
  9
$TEXTSTYLE
  7
STYLE3
  9
$CLAYER
  8
寸法線
  9
$CELTYPE
  6
BYLAYER
  9
$CECOLOR
 62
   256
  9
$CELTSCALE
 40
1.0
  9
$DISPSILH
 70
     0
  9
$DIMSCALE
 40
1.0
  9
$DIMASZ
 40
2.5
  9
$DIMEXO
 40
0.0
  9
$DIMDLI
 40
3.75
  9
$DIMRND
 40
0.0
  9
$DIMDLE
 40
0.0
  9
$DIMEXE
 40
1.25
  9
$DIMTP
 40
0.0
  9
$DIMTM
 40
0.0
  9
$DIMTXT
 40
2.5
  9
$DIMCEN
 40
2.5
  9
$DIMTSZ
 40
0.0
  9
$DIMTOL
 70
     0
  9
$DIMLIM
 70
     0
  9
$DIMTIH
 70
     0
  9
$DIMTOH
 70
     0
  9
$DIMSE1
 70
     0
  9
$DIMSE2
 70
     0
  9
$DIMTAD
 70
     1
  9
$DIMZIN
 70
     8
  9
$DIMBLK
  1

  9
$DIMASO
 70
     1
  9
$DIMSHO
 70
     1
  9
$DIMPOST
  1

  9
$DIMAPOST
  1

  9
$DIMALT
 70
     0
  9
$DIMALTD
 70
     4
  9
$DIMALTF
 40
0.0394
  9
$DIMLFAC
 40
1.0
  9
$DIMTOFL
 70
     1
  9
$DIMTVP
 40
0.0
  9
$DIMTIX
 70
     0
  9
$DIMSOXD
 70
     0
  9
$DIMSAH
 70
     1
  9
$DIMBLK1
  1
OPEN
  9
$DIMBLK2
  1
OPEN
  9
$DIMSTYLE
  2
STYLE3
  9
$DIMCLRD
 70
     2
  9
$DIMCLRE
 70
     2
  9
$DIMCLRT
 70
     6
  9
$DIMTFAC
 40
1.0
  9
$DIMGAP
 40
0.625
  9
$DIMJUST
 70
     0
  9
$DIMSD1
 70
     0
  9
$DIMSD2
 70
     0
  9
$DIMTOLJ
 70
     1
  9
$DIMTZIN
 70
     0
  9
$DIMALTZ
 70
     0
  9
$DIMALTTZ
 70
     0
  9
$DIMUPT
 70
     0
  9
$DIMDEC
 70
     2
  9
$DIMTDEC
 70
     4
  9
$DIMALTU
 70
     8
  9
$DIMALTTD
 70
     4
  9
$DIMTXSTY
  7
STYLE3
  9
$DIMAUNIT
 70
     0
  9
$DIMADEC
 70
     0
  9
$DIMALTRND
 40
0.0
  9
$DIMAZIN
 70
     0
  9
$DIMDSEP
 70
    46
  9
$DIMATFIT
 70
     3
  9
$DIMFRAC
 70
     0
  9
$DIMLDRBLK
  1

  9
$DIMLUNIT
 70
     2
  9
$DIMLWD
 70
    -2
  9
$DIMLWE
 70
    -2
  9
$DIMTMOVE
 70
     0
  9
$LUNITS
 70
     2
  9
$LUPREC
 70
     4
  9
$SKETCHINC
 40
1.0
  9
$FILLETRAD
 40
3.0
  9
$AUNITS
 70
     0
  9
$AUPREC
 70
     0
  9
$MENU
  1
.
  9
$ELEVATION
 40
0.0
  9
$PELEVATION
 40
0.0
  9
$THICKNESS
 40
0.0
  9
$LIMCHECK
 70
     0
  9
$CHAMFERA
 40
0.5
  9
$CHAMFERB
 40
0.5
  9
$CHAMFERC
 40
20.0
  9
$CHAMFERD
 40
0.0
  9
$SKPOLY
 70
     0
  9
$TDCREATE
 40
2451208.694320486
  9
$TDUCREATE
 40
2451208.319320486
  9
$TDUPDATE
 40
2455356.612818820
  9
$TDUUPDATE
 40
2455356.237818819
  9
$TDINDWG
 40
1.1365756713
  9
$TDUSRTIMER
 40
1.1365756713
  9
$USRTIMER
 70
     1
  9
$ANGBASE
 50
0.0
  9
$ANGDIR
 70
     0
  9
$PDMODE
 70
     0
  9
$PDSIZE
 40
0.0
  9
$PLINEWID
 40
0.0
  9
$SPLFRAME
 70
     0
  9
$SPLINETYPE
 70
     6
  9
$SPLINESEGS
 70
     8
  9
$HANDSEED
  5
BF0
  9
$SURFTAB1
 70
     6
  9
$SURFTAB2
 70
     6
  9
$SURFTYPE
 70
     6
  9
$SURFU
 70
     6
  9
$SURFV
 70
     6
  9
$UCSBASE
  2

  9
$UCSNAME
  2

  9
$UCSORG
 10
0.0
 20
0.0
 30
0.0
  9
$UCSXDIR
 10
1.0
 20
0.0
 30
0.0
  9
$UCSYDIR
 10
0.0
 20
1.0
 30
0.0
  9
$UCSORTHOREF
  2

  9
$UCSORTHOVIEW
 70
     0
  9
$UCSORGTOP
 10
0.0
 20
0.0
 30
0.0
  9
$UCSORGBOTTOM
 10
0.0
 20
0.0
 30
0.0
  9
$UCSORGLEFT
 10
0.0
 20
0.0
 30
0.0
  9
$UCSORGRIGHT
 10
0.0
 20
0.0
 30
0.0
  9
$UCSORGFRONT
 10
0.0
 20
0.0
 30
0.0
  9
$UCSORGBACK
 10
0.0
 20
0.0
 30
0.0
  9
$PUCSBASE
  2

  9
$PUCSNAME
  2

  9
$PUCSORG
 10
0.0
 20
0.0
 30
0.0
  9
$PUCSXDIR
 10
1.0
 20
0.0
 30
0.0
  9
$PUCSYDIR
 10
0.0
 20
1.0
 30
0.0
  9
$PUCSORTHOREF
  2

  9
$PUCSORTHOVIEW
 70
     0
  9
$PUCSORGTOP
 10
0.0
 20
0.0
 30
0.0
  9
$PUCSORGBOTTOM
 10
0.0
 20
0.0
 30
0.0
  9
$PUCSORGLEFT
 10
0.0
 20
0.0
 30
0.0
  9
$PUCSORGRIGHT
 10
0.0
 20
0.0
 30
0.0
  9
$PUCSORGFRONT
 10
0.0
 20
0.0
 30
0.0
  9
$PUCSORGBACK
 10
0.0
 20
0.0
 30
0.0
  9
$USERI1
 70
     0
  9
$USERI2
 70
     0
  9
$USERI3
 70
     0
  9
$USERI4
 70
     0
  9
$USERI5
 70
     0
  9
$USERR1
 40
0.0
  9
$USERR2
 40
0.0
  9
$USERR3
 40
0.0
  9
$USERR4
 40
0.0
  9
$USERR5
 40
0.0
  9
$WORLDVIEW
 70
     1
  9
$SHADEDGE
 70
     3
  9
$SHADEDIF
 70
    70
  9
$TILEMODE
 70
     1
  9
$MAXACTVP
 70
    48
  9
$PINSBASE
 10
0.0
 20
0.0
 30
0.0
  9
$PLIMCHECK
 70
     0
  9
$PEXTMIN
 10
1.000000000000000E+20
 20
1.000000000000000E+20
 30
1.000000000000000E+20
  9
$PEXTMAX
 10
-1.000000000000000E+20
 20
-1.000000000000000E+20
 30
-1.000000000000000E+20
  9
$PLIMMIN
 10
0.0
 20
0.0
  9
$PLIMMAX
 10
420.0
 20
297.0
  9
$UNITMODE
 70
     0
  9
$VISRETAIN
 70
     1
  9
$PLINEGEN
 70
     0
  9
$PSLTSCALE
 70
     1
  9
$TREEDEPTH
 70
  3020
  9
$CMLSTYLE
  2
STANDARD
  9
$CMLJUST
 70
     0
  9
$CMLSCALE
 40
20.0
  9
$PROXYGRAPHICS
 70
     1
  9
$MEASUREMENT
 70
     1
  9
$CELWEIGHT
370
    -1
  9
$ENDCAPS
280
     0
  9
$JOINSTYLE
280
     0
  9
$LWDISPLAY
290
     0
  9
$INSUNITS
 70
     0
  9
$HYPERLINKBASE
  1

  9
$STYLESHEET
  1
AutoCAD LT 98.ctb
  9
$XEDIT
290
     1
  9
$CEPSNTYPE
380
     0
  9
$PSTYLEMODE
290
     1
  9
$FINGERPRINTGUID
  2
{FACD2C34-7166-42BF-A42C-D4F93232F69F}
  9
$VERSIONGUID
  2
{7D71AF5E-C1BC-4D36-B091-F4C6CBE44EC1}
  9
$EXTNAMES
290
     1
  9
$PSVPSCALE
 40
0.0
  9
$OLESTARTUP
290
     0
  9
$SORTENTS
280
    96
  9
$INDEXCTL
280
     0
  9
$HIDETEXT
280
     0
  9
$XCLIPFRAME
290
     0
  9
$HALOGAP
280
     0
  9
$OBSCOLOR
 70
   257
  9
$OBSLTYPE
280
     0
  9
$INTERSECTIONDISPLAY
280
     0
  9
$INTERSECTIONCOLOR
 70
   257
  9
$DIMASSOC
280
     1
  9
$PROJECTNAME
  1

  0
ENDSEC
  0
SECTION
  2
CLASSES
  0
CLASS
  1
HATCH
  2
AcDbHatch
  3
ObjectDBX Classes
 90
        0
 91
       20
280
     0
281
     1
  0
CLASS
  1
DICTIONARYVAR
  2
AcDbDictionaryVar
  3
ObjectDBX Classes
 90
        0
 91
        2
280
     0
281
     0
  0
CLASS
  1
ACDBDICTIONARYWDFLT
  2
AcDbDictionaryWithDefault
  3
ObjectDBX Classes
 90
        0
 91
        1
280
     0
281
     0
  0
CLASS
  1
TABLESTYLE
  2
AcDbTableStyle
  3
ObjectDBX Classes
 90
     2047
 91
        1
280
     0
281
     0
  0
CLASS
  1
SORTENTSTABLE
  2
AcDbSortentsTable
  3
ObjectDBX Classes
 90
        0
 91
        1
280
     0
281
     0
  0
ENDSEC
  0
SECTION
  2
TABLES
  0
TABLE
  2
VPORT
  5
8
330
0
100
AcDbSymbolTable
 70
     2
  0
VPORT
  5
BEF
330
8
100
AcDbSymbolTableRecord
100
AcDbViewportTableRecord
  2
*Active
 70
     0
 10
0.0
 20
0.0
 11
1.0
 21
1.0
 12
197.9676828486469
 22
157.2394886114637
 13
0.0
 23
0.0
 14
10.0
 24
10.0
 15
10.0
 25
10.0
 16
0.0
 26
0.0
 36
1.0
 17
0.0
 27
0.0
 37
0.0
 40
285.4550051090029
 41
1.530456852791878
 42
50.0
 43
0.0
 44
0.0
 50
0.0
 51
0.0
 71
     0
 72
   100
 73
     1
 74
     1
 75
     0
 76
     0
 77
     0
 78
     0
281
     0
 65
     1
110
0.0
120
0.0
130
0.0
111
1.0
121
0.0
131
0.0
112
0.0
122
1.0
132
0.0
 79
     0
146
0.0
  0
ENDTAB
  0
TABLE
  2
LTYPE
  5
5
330
0
100
AcDbSymbolTable
 70
     4
  0
LTYPE
  5
12
330
5
100
AcDbSymbolTableRecord
100
AcDbLinetypeTableRecord
  2
BYBLOCK
 70
     0
  3

 72
    65
 73
     0
 40
0.0
  0
LTYPE
  5
13
330
5
100
AcDbSymbolTableRecord
100
AcDbLinetypeTableRecord
  2
BYLAYER
 70
     0
  3

 72
    65
 73
     0
 40
0.0
  0
LTYPE
  5
14
330
5
100
AcDbSymbolTableRecord
100
AcDbLinetypeTableRecord
  2
CONTINUOUS
 70
     0
  3
Solid line
 72
    65
 73
     0
 40
0.0
  0
LTYPE
  5
22
330
5
100
AcDbSymbolTableRecord
100
AcDbLinetypeTableRecord
  2
CENTER2
 70
     0
  3
Center (.5x) ___ _ ___ _ ___ _ ___ _ ___ _ ___
 72
    65
 73
     4
 40
28.575
 49
19.05
 74
     0
 49
-3.174999999999999
 74
     0
 49
3.174999999999999
 74
     0
 49
-3.174999999999999
 74
     0
  0
LTYPE
  5
24
330
5
100
AcDbSymbolTableRecord
100
AcDbLinetypeTableRecord
  2
PHANTOM2
 70
     0
  3
Phantom (.5x) ___ _ _ ___ _ _ ___ _ _ ___ _ _
 72
    65
 73
     6
 40
31.75
 49
15.875
 74
     0
 49
-3.174999999999999
 74
     0
 49
3.174999999999999
 74
     0
 49
-3.174999999999999
 74
     0
 49
3.174999999999999
 74
     0
 49
-3.174999999999999
 74
     0
  0
ENDTAB
  0
TABLE
  2
LAYER
  5
2
330
0
100
AcDbSymbolTable
 70
    16
  0
LAYER
  5
E
330
2
100
AcDbSymbolTableRecord
100
AcDbLayerTableRecord
  2
0
 70
     0
 62
     7
  6
CONTINUOUS
370
    -3
390
90D
  0
LAYER
  5
25
330
2
100
AcDbSymbolTableRecord
100
AcDbLayerTableRecord
  2
外形線
 70
     0
 62
     7
  6
CONTINUOUS
370
    -3
390
90D
  0
LAYER
  5
26
330
2
100
AcDbSymbolTableRecord
100
AcDbLayerTableRecord
  2
寸法線
 70
     0
 62
     2
  6
CONTINUOUS
370
    -3
390
90D
  0
LAYER
  5
27
330
2
100
AcDbSymbolTableRecord
100
AcDbLayerTableRecord
  2
中心線
 70
     0
 62
     4
  6
CENTER2
370
    -3
390
90D
  0
LAYER
  5
29
330
2
100
AcDbSymbolTableRecord
100
AcDbLayerTableRecord
  2
想像線
 70
     0
 62
     1
  6
PHANTOM2
370
    -3
390
90D
  0
LAYER
  5
2A
330
2
100
AcDbSymbolTableRecord
100
AcDbLayerTableRecord
  2
ﾊｯﾁﾝｸ
 70
     0
 62
     4
  6
CONTINUOUS
370
    -3
390
90D
  0
LAYER
  5
2B
330
2
100
AcDbSymbolTableRecord
100
AcDbLayerTableRecord
  2
文字
 70
     0
 62
     6
  6
CONTINUOUS
370
    -3
390
90D
  0
LAYER
  5
2C
330
2
100
AcDbSymbolTableRecord
100
AcDbLayerTableRecord
  2
目盛
 70
     0
 62
    72
  6
CONTINUOUS
370
    -3
390
90D
  0
LAYER
  5
2D
330
2
100
AcDbSymbolTableRecord
100
AcDbLayerTableRecord
  2
針
 70
     0
 62
     5
  6
CONTINUOUS
370
    -3
390
90D
  0
LAYER
  5
53
330
2
100
AcDbSymbolTableRecord
100
AcDbLayerTableRecord
  2
DEFPOINTS
 70
     0
 62
     7
  6
CONTINUOUS
290
     0
370
    -3
390
90D
  0
LAYER
  5
A5
330
2
100
AcDbSymbolTableRecord
100
AcDbLayerTableRecord
  2
C
 70
     0
 62
     7
  6
CONTINUOUS
370
    -3
390
90D
  0
LAYER
  5
4F2
330
2
100
AcDbSymbolTableRecord
100
AcDbLayerTableRecord
  2
ROGO
 70
     0
 62
     6
  6
CONTINUOUS
370
    -3
390
90D
  0
ENDTAB
  0
TABLE
  2
STYLE
  5
3
330
0
100
AcDbSymbolTable
 70
     3
  0
STYLE
  5
F
330
3
100
AcDbSymbolTableRecord
100
AcDbTextStyleTableRecord
  2
STANDARD
 70
     0
 40
0.0
 41
1.0
 50
0.0
 71
     0
 42
2.5
  3
txt
  4

  0
STYLE
  5
3F
330
3
100
AcDbSymbolTableRecord
100
AcDbTextStyleTableRecord
  2
STYLE3
 70
     0
 40
0.0
 41
1.0
 50
0.0
 71
     0
 42
5.0
  3
romans.shx
  4
bigfont.shx
  0
ENDTAB
  0
TABLE
  2
VIEW
  5
6
330
0
100
AcDbSymbolTable
 70
     0
  0
ENDTAB
  0
TABLE
  2
UCS
  5
7
330
0
100
AcDbSymbolTable
 70
     0
  0
ENDTAB
  0
TABLE
  2
APPID
  5
9
330
0
100
AcDbSymbolTable
 70
     2
  0
APPID
  5
10
330
9
100
AcDbSymbolTableRecord
100
AcDbRegAppTableRecord
  2
ACAD
 70
     0
  0
APPID
  5
9B7
330
9
100
AcDbSymbolTableRecord
100
AcDbRegAppTableRecord
  2
ACAD_PSEXT
 70
     0
  0
ENDTAB
  0
TABLE
  2
DIMSTYLE
  5
A
330
0
100
AcDbSymbolTable
 70
     3
100
AcDbDimStyleTable
 71
     1
340
8F
  0
DIMSTYLE
105
1D
330
A
100
AcDbSymbolTableRecord
100
AcDbDimStyleTableRecord
  2
STANDARD
 70
     0
 41
2.5
 42
0.625
 43
3.75
 44
1.25
 73
     0
 74
     0
 77
     1
 78
     8
140
2.5
141
2.5
143
0.0394
147
0.625
171
     4
172
     1
273
     8
274
     4
277
     6
340
F
  0
DIMSTYLE
105
8F
102
{ACAD_REACTORS
330
92B
102
}
330
A
100
AcDbSymbolTableRecord
100
AcDbDimStyleTableRecord
  2
STYLE3
 70
     0
 41
2.5
 42
0.0
 43
3.75
 44
1.25
 73
     0
 74
     0
 77
     1
 78
     8
140
2.5
141
2.5
143
0.0394
147
0.625
171
     4
172
     1
173
     1
176
     2
177
     2
178
     6
271
     1
273
     8
274
     4
340
3F
341
45
343
45
344
45
  0
ENDTAB
  0
TABLE
  2
BLOCK_RECORD
  5
1
330
0
100
AcDbSymbolTable
 70
     8
  0
BLOCK_RECORD
  5
18
102
{ACAD_XDICTIONARY
360
B1E
102
}
330
1
100
AcDbSymbolTableRecord
100
AcDbBlockTableRecord
  2
*MODEL_SPACE
340
914
  0
BLOCK_RECORD
  5
15
330
1
100
AcDbSymbolTableRecord
100
AcDbBlockTableRecord
  2
*PAPER_SPACE
340
915
  0
BLOCK_RECORD
  5
45
330
1
100
AcDbSymbolTableRecord
100
AcDbBlockTableRecord
  2
_OPEN
340
0
102
{BLKREFS
331
36D
331
7DD
331
7DE
331
7E5
331
7E6
331
7EE
331
7EF
331
7F7
331
7F8
331
800
331
801
331
813
331
814
331
81C
331
81D
331
825
331
826
331
8A6
331
8A7
331
8AF
331
8B0
331
8C2
331
8C3
331
8CD
331
8CE
331
8D6
331
8D7
331
BCD
331
BCE
102
}
  0
BLOCK_RECORD
  5
92C
330
1
100
AcDbSymbolTableRecord
100
AcDbBlockTableRecord
  2
*D1
340
0
  0
ENDTAB
  0
ENDSEC
  0
SECTION
  2
BLOCKS
  0
BLOCK
  5
19
330
18
100
AcDbEntity
  8
0
100
AcDbBlockBegin
  2
*MODEL_SPACE
 70
     0
 10
0.0
 20
0.0
 30
0.0
  3
*MODEL_SPACE
  1

  0
ENDBLK
  5
1A
330
18
100
AcDbEntity
  8
0
100
AcDbBlockEnd
  0
BLOCK
  5
16
330
15
100
AcDbEntity
 67
     1
  8
0
100
AcDbBlockBegin
  2
*PAPER_SPACE
 70
     0
 10
0.0
 20
0.0
 30
0.0
  3
*PAPER_SPACE
  1

  0
ENDBLK
  5
17
330
15
100
AcDbEntity
 67
     1
  8
0
100
AcDbBlockEnd
  0
BLOCK
  5
46
330
45
100
AcDbEntity
  8
0
100
AcDbBlockBegin
  2
_OPEN
 70
     0
 10
0.0
 20
0.0
 30
0.0
  3
_OPEN
  1

  0
LINE
  5
47
330
45
100
AcDbEntity
  8
0
  6
ByBlock
 62
     0
100
AcDbLine
 10
-1.0
 20
0.1666666666666666
 30
0.0
 11
0.0
 21
0.0
 31
0.0
  0
LINE
  5
48
330
45
100
AcDbEntity
  8
0
  6
ByBlock
 62
     0
100
AcDbLine
 10
0.0
 20
0.0
 30
0.0
 11
-1.0
 21
-0.1666666666666666
 31
0.0
  0
LINE
  5
49
330
45
100
AcDbEntity
  8
0
  6
ByBlock
 62
     0
100
AcDbLine
 10
0.0
 20
0.0
 30
0.0
 11
-1.0
 21
0.0
 31
0.0
  0
ENDBLK
  5
4A
330
45
100
AcDbEntity
  8
0
100
AcDbBlockEnd
  0
BLOCK
  5
936
330
92C
100
AcDbEntity
  8
0
100
AcDbBlockBegin
  2
*D1
 70
     1
 10
0.0
 20
0.0
 30
0.0
  3
*D1
  1

  0
LINE
  5
BCA
330
92C
100
AcDbEntity
  8
C
 62
     2
370
    -2
100
AcDbLine
 10
138.6883387865155
 20
135.0611941979265
 30
0.0
 11
211.8328731376878
 21
135.0611941979265
 31
0.0
  0
LINE
  5
BCB
330
92C
100
AcDbEntity
  8
C
 62
     2
370
    -2
100
AcDbLine
 10
138.6883387865155
 20
236.0611941979265
 30
0.0
 11
211.8328731376878
 21
236.0611941979265
 31
0.0
  0
LINE
  5
BCC
330
92C
100
AcDbEntity
  8
C
 62
     2
370
    -2
100
AcDbLine
 10
210.5828731376877
 20
137.5611941979265
 30
0.0
 11
210.5828731376878
 21
233.5611941979265
 31
0.0
  0
INSERT
  5
BCD
330
92C
100
AcDbEntity
  8
C
 62
     2
370
    -2
100
AcDbBlockReference
  2
_OPEN
 10
210.5828731376877
 20
135.0611941979265
 30
0.0
 41
2.5
 42
2.5
 43
2.5
 50
270.0
  0
INSERT
  5
BCE
330
92C
100
AcDbEntity
  8
C
 62
     2
370
    -2
100
AcDbBlockReference
  2
_OPEN
 10
210.5828731376878
 20
236.0611941979265
 30
0.0
 41
2.5
 42
2.5
 43
2.5
 50
90.0
  0
MTEXT
  5
BCF
330
92C
100
AcDbEntity
  8
C
 62
     6
100
AcDbMText
 10
208.7078731376877
 20
185.5611941979265
 30
0.0
 40
2.5
 41
0.0
 71
     5
 72
     1
  1
\A1;φ101
  7
STYLE3
 11
0.0000000000000001
 21
1.0
 31
0.0
 73
     1
 44
1.0
  0
POINT
  5
BD0
330
92C
100
AcDbEntity
  8
DEFPOINTS
 62
     0
100
AcDbPoint
 10
138.6883387865155
 20
135.0611941979265
 30
0.0
  0
POINT
  5
BD1
330
92C
100
AcDbEntity
  8
DEFPOINTS
 62
     0
100
AcDbPoint
 10
138.6883387865155
 20
236.0611941979265
 30
0.0
  0
POINT
  5
BD2
330
92C
100
AcDbEntity
  8
DEFPOINTS
 62
     0
100
AcDbPoint
 10
210.5828731376878
 20
236.0611941979265
 30
0.0
  0
ENDBLK
  5
937
330
92C
100
AcDbEntity
  8
0
100
AcDbBlockEnd
  0
ENDSEC
  0
SECTION
  2
ENTITIES
  0
LINE
  5
212
330
18
100
AcDbEntity
  8
中心線
100
AcDbLine
 10
74.28695888830702
 20
185.5611941979265
 30
0.0
 11
202.3324438139769
 21
185.5611941979265
 31
0.0
  0
LINE
  5
213
330
18
100
AcDbEntity
  8
中心線
100
AcDbLine
 10
138.6883387865155
 20
277.3477662088573
 30
0.0
 11
138.6883387865154
 21
41.62526610439295
 31
0.0
  0
CIRCLE
  5
217
330
18
100
AcDbEntity
  8
外形線
100
AcDbCircle
 10
138.6883387865155
 20
185.5611941979265
 30
0.0
 40
50.5
  0
CIRCLE
  5
218
330
18
100
AcDbEntity
  8
外形線
100
AcDbCircle
 10
138.6883387865155
 20
185.5611941979265
 30
0.0
 40
56.0
  0
LINE
  5
219
330
18
100
AcDbEntity
  8
外形線
100
AcDbLine
 10
145.6883387865155
 20
263.9611941979265
 30
0.0
 11
145.6883387865155
 21
241.1219717302829
 31
0.0
  0
LINE
  5
21A
330
18
100
AcDbEntity
  8
外形線
100
AcDbLine
 10
131.6883387865155
 20
263.9611941979265
 30
0.0
 11
131.6883387865155
 21
241.1219717302829
 31
0.0
  0
LINE
  5
21B
330
18
100
AcDbEntity
  8
外形線
100
AcDbLine
 10
145.6883387865155
 20
130.0004166655701
 30
0.0
 11
145.6883387865155
 21
85.56119419792651
 31
0.0
  0
LINE
  5
21C
330
18
100
AcDbEntity
  8
外形線
100
AcDbLine
 10
131.6883387865155
 20
130.0004166655701
 30
0.0
 11
131.6883387865155
 21
85.56119419792651
 31
0.0
  0
LINE
  5
21E
330
18
100
AcDbEntity
  8
外形線
100
AcDbLine
 10
133.7883387865154
 20
75.56119419792651
 30
0.0
 11
143.5883387865155
 21
75.56119419792651
 31
0.0
  0
LINE
  5
21F
330
18
100
AcDbEntity
  8
外形線
100
AcDbLine
 10
133.6883387865155
 20
265.9611941979265
 30
0.0
 11
143.6883387865155
 21
265.9611941979265
 31
0.0
  0
ARC
  5
220
330
18
100
AcDbEntity
  8
外形線
100
AcDbCircle
 10
133.6883387865155
 20
263.9611941979265
 30
0.0
 40
2.0
100
AcDbArc
 50
90.0
 51
180.0
  0
ARC
  5
221
330
18
100
AcDbEntity
  8
外形線
100
AcDbCircle
 10
143.6883387865155
 20
263.9611941979265
 30
0.0
 40
2.0
100
AcDbArc
 50
0.0
 51
90.0
  0
LINE
  5
222
330
18
100
AcDbEntity
  8
外形線
100
AcDbLine
 10
145.5883387865155
 20
85.56119419792651
 30
0.0
 11
145.5883387865155
 21
77.56119419792651
 31
0.0
  0
LINE
  5
223
330
18
100
AcDbEntity
  8
外形線
100
AcDbLine
 10
131.7883387865155
 20
85.56119419792651
 30
0.0
 11
131.7883387865154
 21
77.56119419792651
 31
0.0
  0
LINE
  5
224
330
18
100
AcDbEntity
  8
外形線
100
AcDbLine
 10
131.6883387865155
 20
85.56119419792651
 30
0.0
 11
145.6883387865155
 21
85.56119419792651
 31
0.0
  0
ARC
  5
225
330
18
100
AcDbEntity
  8
外形線
100
AcDbCircle
 10
133.7883387865154
 20
77.56119419792651
 30
0.0
 40
2.0
100
AcDbArc
 50
179.9999999999999
 51
270.0
  0
ARC
  5
226
330
18
100
AcDbEntity
  8
外形線
100
AcDbCircle
 10
143.5883387865155
 20
77.56119419792651
 30
0.0
 40
2.0
100
AcDbArc
 50
270.0
 51
359.9999999999999
  0
LINE
  5
228
330
18
100
AcDbEntity
  8
外形線
100
AcDbLine
 10
135.6883387865155
 20
75.56119419792651
 30
0.0
 11
135.6883387865155
 21
64.72643330791697
 31
0.0
  0
LINE
  5
229
330
18
100
AcDbEntity
  8
外形線
100
AcDbLine
 10
141.6883387865155
 20
75.56119419792651
 30
0.0
 11
141.6883387865155
 21
64.72643330791697
 31
0.0
  0
LINE
  5
240
330
18
100
AcDbEntity
  8
外形線
100
AcDbLine
 10
140.9383387865155
 20
49.4019312706589
 30
0.0
 11
139.9883387865154
 21
44.9019312706589
 31
0.0
  0
LINE
  5
241
330
18
100
AcDbEntity
  8
外形線
100
AcDbLine
 10
136.1883387865153
 20
49.60193127065889
 30
0.0
 11
141.1883387865155
 21
49.60193127065889
 31
0.0
  0
LINE
  5
242
330
18
100
AcDbEntity
  8
外形線
100
AcDbLine
 10
136.1883387865153
 20
52.70193127065891
 30
0.0
 11
141.1883387865155
 21
52.70193127065891
 31
0.0
  0
LINE
  5
243
330
18
100
AcDbEntity
  8
外形線
100
AcDbLine
 10
136.4383387865155
 20
49.4019312706589
 30
0.0
 11
140.9383387865154
 21
49.4019312706589
 31
0.0
  0
LINE
  5
244
330
18
100
AcDbEntity
  8
外形線
100
AcDbLine
 10
135.6883387865155
 20
52.9019312706589
 30
0.0
 11
141.6883387865155
 21
52.9019312706589
 31
0.0
  0
LINE
  5
246
330
18
100
AcDbEntity
  8
外形線
100
AcDbLine
 10
136.1883387865155
 20
52.70193127065891
 30
0.0
 11
136.1883387865155
 21
49.60193127065889
 31
0.0
  0
POINT
  5
247
330
18
100
AcDbEntity
  8
DEFPOINTS
  6
ByBlock
 62
     0
100
AcDbPoint
 10
138.6883387865155
 20
43.90193127065891
 30
0.0
  0
LINE
  5
248
330
18
100
AcDbEntity
  8
外形線
100
AcDbLine
 10
136.4383387865155
 20
49.4019312706589
 30
0.0
 11
137.3883387865154
 21
44.9019312706589
 31
0.0
  0
LINE
  5
249
330
18
100
AcDbEntity
  8
外形線
100
AcDbLine
 10
137.3883387865154
 20
44.9019312706589
 30
0.0
 11
139.9883387865154
 21
44.9019312706589
 31
0.0
  0
LINE
  5
24B
330
18
100
AcDbEntity
  8
外形線
100
AcDbLine
 10
136.1883387865155
 20
49.60193127065889
 30
0.0
 11
136.4383387865155
 21
49.4019312706589
 31
0.0
  0
LINE
  5
24C
330
18
100
AcDbEntity
  8
外形線
100
AcDbLine
 10
136.4383387865155
 20
52.9019312706589
 30
0.0
 11
136.1883387865155
 21
52.70193127065891
 31
0.0
  0
LINE
  5
24D
330
18
100
AcDbEntity
  8
外形線
100
AcDbLine
 10
141.1883387865155
 20
52.70193127065891
 30
0.0
 11
141.1883387865153
 21
49.60193127065889
 31
0.0
  0
LINE
  5
24E
330
18
100
AcDbEntity
  8
外形線
100
AcDbLine
 10
141.1883387865155
 20
49.60193127065889
 30
0.0
 11
140.9383387865155
 21
49.4019312706589
 31
0.0
  0
LINE
  5
24F
330
18
100
AcDbEntity
  8
外形線
100
AcDbLine
 10
140.9383387865155
 20
52.9019312706589
 30
0.0
 11
141.1883387865155
 21
52.70193127065891
 31
0.0
  0
LINE
  5
252
330
18
100
AcDbEntity
  8
中心線
100
AcDbLine
 10
282.4066331375438
 20
277.3477662088573
 30
0.0
 11
282.4066331375438
 21
41.62526610439295
 31
0.0
  0
LINE
  5
253
330
18
100
AcDbEntity
  8
外形線
100
AcDbLine
 10
285.4066331375438
 20
75.56119419792651
 30
0.0
 11
285.4066331375438
 21
64.72643330791699
 31
0.0
  0
LINE
  5
254
330
18
100
AcDbEntity
  8
外形線
100
AcDbLine
 10
279.4066331375439
 20
75.56119419792651
 30
0.0
 11
279.4066331375439
 21
64.72643330791699
 31
0.0
  0
LINE
  5
255
330
18
100
AcDbEntity
  8
外形線
100
AcDbLine
 10
279.4066331375439
 20
52.9019312706589
 30
0.0
 11
285.4066331375438
 21
52.9019312706589
 31
0.0
  0
LINE
  5
257
330
18
100
AcDbEntity
  8
外形線
100
AcDbLine
 10
281.1066331375438
 20
44.9019312706589
 30
0.0
 11
283.7066331375438
 21
44.9019312706589
 31
0.0
  0
LINE
  5
259
330
18
100
AcDbEntity
  8
外形線
100
AcDbLine
 10
280.1566331375438
 20
49.4019312706589
 30
0.0
 11
284.6566331375437
 21
49.4019312706589
 31
0.0
  0
LINE
  5
25A
330
18
100
AcDbEntity
  8
外形線
100
AcDbLine
 10
279.9066331375438
 20
52.70193127065891
 30
0.0
 11
284.9066331375439
 21
52.70193127065891
 31
0.0
  0
LINE
  5
25B
330
18
100
AcDbEntity
  8
外形線
100
AcDbLine
 10
279.9066331375438
 20
49.60193127065889
 30
0.0
 11
284.9066331375439
 21
49.60193127065889
 31
0.0
  0
LINE
  5
25C
330
18
100
AcDbEntity
  8
外形線
100
AcDbLine
 10
279.9066331375438
 20
52.70193127065891
 30
0.0
 11
279.9066331375438
 21
49.60193127065889
 31
0.0
  0
LINE
  5
25D
330
18
100
AcDbEntity
  8
外形線
100
AcDbLine
 10
279.9066331375438
 20
49.60193127065889
 30
0.0
 11
280.1566331375438
 21
49.4019312706589
 31
0.0
  0
LINE
  5
25E
330
18
100
AcDbEntity
  8
外形線
100
AcDbLine
 10
280.1566331375438
 20
49.4019312706589
 30
0.0
 11
281.1066331375438
 21
44.9019312706589
 31
0.0
  0
LINE
  5
25F
330
18
100
AcDbEntity
  8
外形線
100
AcDbLine
 10
280.1566331375438
 20
52.9019312706589
 30
0.0
 11
279.9066331375438
 21
52.70193127065891
 31
0.0
  0
POINT
  5
260
330
18
100
AcDbEntity
  8
DEFPOINTS
  6
ByBlock
 62
     0
100
AcDbPoint
 10
282.4066331375438
 20
43.90193127065891
 30
0.0
  0
LINE
  5
261
330
18
100
AcDbEntity
  8
外形線
100
AcDbLine
 10
284.9066331375439
 20
52.70193127065891
 30
0.0
 11
284.9066331375437
 21
49.60193127065889
 31
0.0
  0
LINE
  5
262
330
18
100
AcDbEntity
  8
外形線
100
AcDbLine
 10
284.9066331375439
 20
49.60193127065889
 30
0.0
 11
284.6566331375438
 21
49.4019312706589
 31
0.0
  0
LINE
  5
263
330
18
100
AcDbEntity
  8
外形線
100
AcDbLine
 10
284.6566331375438
 20
49.4019312706589
 30
0.0
 11
283.7066331375438
 21
44.9019312706589
 31
0.0
  0
LINE
  5
264
330
18
100
AcDbEntity
  8
外形線
100
AcDbLine
 10
284.6566331375438
 20
52.9019312706589
 30
0.0
 11
284.9066331375439
 21
52.70193127065891
 31
0.0
  0
LINE
  5
265
330
18
100
AcDbEntity
  8
外形線
100
AcDbLine
 10
277.5066331375438
 20
75.56119419792651
 30
0.0
 11
287.3066331375439
 21
75.56119419792651
 31
0.0
  0
LINE
  5
266
330
18
100
AcDbEntity
  8
外形線
100
AcDbLine
 10
275.4066331375438
 20
85.56119419792651
 30
0.0
 11
289.4066331375439
 21
85.56119419792651
 31
0.0
  0
LINE
  5
267
330
18
100
AcDbEntity
  8
外形線
100
AcDbLine
 10
275.4066331375438
 20
131.5611941979265
 30
0.0
 11
275.4066331375438
 21
85.56119419792651
 31
0.0
  0
LINE
  5
268
330
18
100
AcDbEntity
  8
外形線
100
AcDbLine
 10
275.5066331375439
 20
85.56119419792651
 30
0.0
 11
275.5066331375438
 21
77.56119419792651
 31
0.0
  0
ARC
  5
269
330
18
100
AcDbEntity
  8
外形線
100
AcDbCircle
 10
277.5066331375438
 20
77.56119419792651
 30
0.0
 40
2.0
100
AcDbArc
 50
179.9999999999999
 51
270.0
  0
LINE
  5
26A
330
18
100
AcDbEntity
  8
外形線
100
AcDbLine
 10
289.4066331375439
 20
131.5611941979265
 30
0.0
 11
289.4066331375439
 21
85.56119419792651
 31
0.0
  0
LINE
  5
26B
330
18
100
AcDbEntity
  8
外形線
100
AcDbLine
 10
289.3066331375439
 20
85.56119419792651
 30
0.0
 11
289.3066331375439
 21
77.56119419792651
 31
0.0
  0
ARC
  5
26C
330
18
100
AcDbEntity
  8
外形線
100
AcDbCircle
 10
287.3066331375439
 20
77.56119419792651
 30
0.0
 40
2.0
100
AcDbArc
 50
270.0
 51
359.9999999999999
  0
LINE
  5
26D
330
18
100
AcDbEntity
  8
外形線
100
AcDbLine
 10
289.4066331375439
 20
263.9611941979265
 30
0.0
 11
289.4066331375439
 21
239.5611941979265
 31
0.0
  0
LINE
  5
26E
330
18
100
AcDbEntity
  8
外形線
100
AcDbLine
 10
275.4066331375438
 20
263.9611941979265
 30
0.0
 11
275.4066331375438
 21
239.5611941979265
 31
0.0
  0
LINE
  5
26F
330
18
100
AcDbEntity
  8
中心線
100
AcDbLine
 10
251.8876393384885
 20
185.5611941979265
 30
0.0
 11
318.4429034028137
 21
185.5611941979265
 31
0.0
  0
LINE
  5
274
330
18
100
AcDbEntity
  8
外形線
100
AcDbLine
 10
292.4066331375438
 20
239.5611941979265
 30
0.0
 11
292.4066331375438
 21
131.5611941979265
 31
0.0
  0
LINE
  5
276
330
18
100
AcDbEntity
  8
外形線
100
AcDbLine
 10
274.0066331375438
 20
239.5611941979265
 30
0.0
 11
292.4066331375438
 21
239.5611941979265
 31
0.0
  0
LINE
  5
277
330
18
100
AcDbEntity
  8
外形線
100
AcDbLine
 10
274.0066331375439
 20
131.5611941979265
 30
0.0
 11
292.4066331375438
 21
131.5611941979265
 31
0.0
  0
LINE
  5
278
330
18
100
AcDbEntity
  8
外形線
100
AcDbLine
 10
274.0066331375438
 20
241.0611941979265
 30
0.0
 11
274.0066331375439
 21
130.0611941979265
 31
0.0
  0
LINE
  5
279
330
18
100
AcDbEntity
  8
外形線
100
AcDbLine
 10
273.5066331375439
 20
241.5611941979265
 30
0.0
 11
273.506633137544
 21
129.5611941979266
 31
0.0
  0
LINE
  5
27A
330
18
100
AcDbEntity
  8
外形線
100
AcDbLine
 10
267.8066331375439
 20
241.5611941979265
 30
0.0
 11
273.5066331375438
 21
241.5611941979265
 31
0.0
  0
LINE
  5
27B
330
18
100
AcDbEntity
  8
外形線
100
AcDbLine
 10
274.0066331375438
 20
241.0611941979265
 30
0.0
 11
273.5066331375438
 21
241.5611941979265
 31
0.0
  0
LINE
  5
27C
330
18
100
AcDbEntity
  8
外形線
100
AcDbLine
 10
267.8066331375439
 20
241.5611941979265
 30
0.0
 11
267.8066331375439
 21
129.5611941979265
 31
0.0
  0
LINE
  5
27D
330
18
100
AcDbEntity
  8
外形線
100
AcDbLine
 10
264.3066331375438
 20
239.5611941979265
 30
0.0
 11
264.306633137544
 21
131.5611941979265
 31
0.0
  0
LINE
  5
27F
330
18
100
AcDbEntity
  8
外形線
100
AcDbLine
 10
264.3066331375438
 20
239.5611941979265
 30
0.0
 11
267.8066331375439
 21
241.5611941979265
 31
0.0
  0
LINE
  5
280
330
18
100
AcDbEntity
  8
外形線
100
AcDbLine
 10
264.3066331375438
 20
131.5611941979265
 30
0.0
 11
267.8066331375439
 21
129.5611941979265
 31
0.0
  0
LINE
  5
281
330
18
100
AcDbEntity
  8
外形線
100
AcDbLine
 10
267.8066331375439
 20
129.5611941979265
 30
0.0
 11
273.5066331375438
 21
129.5611941979265
 31
0.0
  0
LINE
  5
282
330
18
100
AcDbEntity
  8
外形線
100
AcDbLine
 10
274.0066331375438
 20
130.0611941979264
 30
0.0
 11
273.5066331375438
 21
129.5611941979265
 31
0.0
  0
ARC
  5
284
330
18
100
AcDbEntity
  8
外形線
100
AcDbCircle
 10
508.475277205339
 20
185.5611941979267
 30
0.0
 40
250.0686440677952
100
AcDbArc
 50
167.5292775938527
 51
192.4707224061473
  0
LINE
  5
285
330
18
100
AcDbEntity
  8
ﾊｯﾁﾝｸ
100
AcDbLine
 10
267.8066331375439
 20
240.6611941979265
 30
0.0
 11
273.5066331375438
 21
240.6611941979265
 31
0.0
  0
LINE
  5
286
330
18
100
AcDbEntity
  8
ﾊｯﾁﾝｸ
100
AcDbLine
 10
267.8066331375439
 20
239.6611941979265
 30
0.0
 11
273.5066331375438
 21
239.6611941979265
 31
0.0
  0
LINE
  5
287
330
18
100
AcDbEntity
  8
ﾊｯﾁﾝｸ
100
AcDbLine
 10
267.8066331375439
 20
238.5611941979266
 30
0.0
 11
273.5066331375438
 21
238.5611941979266
 31
0.0
  0
LINE
  5
288
330
18
100
AcDbEntity
  8
ﾊｯﾁﾝｸ
100
AcDbLine
 10
267.8066331375439
 20
237.3611941979266
 30
0.0
 11
273.5066331375438
 21
237.3611941979266
 31
0.0
  0
LINE
  5
289
330
18
100
AcDbEntity
  8
ﾊｯﾁﾝｸ
100
AcDbLine
 10
267.8066331375439
 20
236.0611941979265
 30
0.0
 11
273.5066331375438
 21
236.0611941979265
 31
0.0
  0
LINE
  5
28A
330
18
100
AcDbEntity
  8
ﾊｯﾁﾝｸ
100
AcDbLine
 10
267.8066331375439
 20
135.0611941979265
 30
0.0
 11
273.5066331375438
 21
135.0611941979265
 31
0.0
  0
LINE
  5
28B
330
18
100
AcDbEntity
  8
ﾊｯﾁﾝｸ
100
AcDbLine
 10
267.8066331375439
 20
130.4611941979265
 30
0.0
 11
273.5066331375438
 21
130.4611941979265
 31
0.0
  0
LINE
  5
28C
330
18
100
AcDbEntity
  8
ﾊｯﾁﾝｸ
100
AcDbLine
 10
267.8066331375439
 20
131.4611941979265
 30
0.0
 11
273.5066331375438
 21
131.4611941979265
 31
0.0
  0
LINE
  5
28D
330
18
100
AcDbEntity
  8
ﾊｯﾁﾝｸ
100
AcDbLine
 10
267.8066331375439
 20
132.5611941979265
 30
0.0
 11
273.5066331375438
 21
132.5611941979265
 31
0.0
  0
LINE
  5
28E
330
18
100
AcDbEntity
  8
ﾊｯﾁﾝｸ
100
AcDbLine
 10
267.8066331375439
 20
133.7611941979264
 30
0.0
 11
273.5066331375438
 21
133.7611941979264
 31
0.0
  0
LINE
  5
28F
330
18
100
AcDbEntity
  8
ﾊｯﾁﾝｸ
100
AcDbLine
 10
267.8066331375439
 20
185.5611941979265
 30
0.0
 11
273.5066331375438
 21
185.5611941979265
 31
0.0
  0
LINE
  5
290
330
18
100
AcDbEntity
  8
ﾊｯﾁﾝｸ
100
AcDbLine
 10
267.8066331375439
 20
186.8611941979265
 30
0.0
 11
273.5066331375438
 21
186.8611941979265
 31
0.0
  0
LINE
  5
291
330
18
100
AcDbEntity
  8
ﾊｯﾁﾝｸ
100
AcDbLine
 10
267.8066331375439
 20
188.0611941979265
 30
0.0
 11
273.5066331375438
 21
188.0611941979265
 31
0.0
  0
LINE
  5
292
330
18
100
AcDbEntity
  8
ﾊｯﾁﾝｸ
100
AcDbLine
 10
267.8066331375439
 20
183.0611941979265
 30
0.0
 11
273.5066331375438
 21
183.0611941979265
 31
0.0
  0
LINE
  5
293
330
18
100
AcDbEntity
  8
ﾊｯﾁﾝｸ
100
AcDbLine
 10
267.8066331375439
 20
184.2611941979265
 30
0.0
 11
273.5066331375438
 21
184.2611941979265
 31
0.0
  0
LINE
  5
295
330
18
100
AcDbEntity
  8
ﾊｯﾁﾝｸ
100
AcDbLine
 10
267.8066331375439
 20
189.0611941979265
 30
0.0
 11
273.5066331375438
 21
189.0611941979265
 31
0.0
  0
LINE
  5
296
330
18
100
AcDbEntity
  8
ﾊｯﾁﾝｸ
100
AcDbLine
 10
267.8066331375439
 20
182.0611941979265
 30
0.0
 11
273.5066331375438
 21
182.0611941979265
 31
0.0
  0
LINE
  5
29F
330
18
100
AcDbEntity
  8
中心線
100
AcDbLine
 10
304.9066331375438
 20
195.1336262760909
 30
0.0
 11
304.9066331375438
 21
178.7298731421867
 31
0.0
  0
LINE
  5
2A0
330
18
100
AcDbEntity
  8
外形線
100
AcDbLine
 10
292.4066331375438
 20
238.0611941979265
 30
0.0
 11
292.9066331375438
 21
238.0611941979265
 31
0.0
  0
LINE
  5
2A1
330
18
100
AcDbEntity
  8
外形線
100
AcDbLine
 10
292.4066331375438
 20
133.0611941979265
 30
0.0
 11
292.9066331375439
 21
133.0611941979265
 31
0.0
  0
LINE
  5
2A2
330
18
100
AcDbEntity
  8
外形線
100
AcDbLine
 10
292.9066331375438
 20
238.0611941979265
 30
0.0
 11
292.9066331375439
 21
133.0611941979265
 31
0.0
  0
LINE
  5
2A3
330
18
100
AcDbEntity
  8
外形線
100
AcDbLine
 10
312.9066331375438
 20
205.5611941979265
 30
0.0
 11
312.9066331375439
 21
165.5611941979265
 31
0.0
  0
LINE
  5
2A4
330
18
100
AcDbEntity
  8
外形線
100
AcDbLine
 10
292.906633137544
 20
205.5611941979265
 30
0.0
 11
312.9066331375438
 21
205.5611941979265
 31
0.0
  0
LINE
  5
2A5
330
18
100
AcDbEntity
  8
外形線
100
AcDbLine
 10
292.906633137544
 20
165.5611941979265
 30
0.0
 11
312.9066331375439
 21
165.5611941979265
 31
0.0
  0
CIRCLE
  5
2B3
330
18
100
AcDbEntity
  8
外形線
100
AcDbCircle
 10
304.9066331375438
 20
185.5611941979265
 30
0.0
 40
3.25
  0
LINE
  5
2D6
330
18
100
AcDbEntity
  8
外形線
100
AcDbLine
 10
277.4066331375439
 20
265.9611941979265
 30
0.0
 11
287.4066331375439
 21
265.9611941979265
 31
0.0
  0
ARC
  5
2D7
330
18
100
AcDbEntity
  8
外形線
100
AcDbCircle
 10
277.4066331375439
 20
263.9611941979265
 30
0.0
 40
2.0
100
AcDbArc
 50
90.0
 51
180.0
  0
ARC
  5
2D8
330
18
100
AcDbEntity
  8
外形線
100
AcDbCircle
 10
287.4066331375439
 20
263.9611941979265
 30
0.0
 40
2.0
100
AcDbArc
 50
0.0
 51
90.0
  0
LINE
  5
34D
330
18
100
AcDbEntity
  8
想像線
 48
0.5
100
AcDbLine
 10
295.5581243831139
 20
205.5611941979265
 30
0.0
 11
295.5581243831139
 21
165.5611941979265
 31
0.0
  0
LINE
  5
34E
330
18
100
AcDbEntity
  8
想像線
 48
0.5
100
AcDbLine
 10
300.5581243831139
 20
205.5611941979265
 30
0.0
 11
300.5581243831139
 21
165.5611941979265
 31
0.0
  0
LINE
  5
35F
330
18
100
AcDbEntity
  8
寸法線
100
AcDbLine
 10
320.1968438814917
 20
212.0985588086612
 30
0.0
 11
328.7168479523514
 21
212.0985588086612
 31
0.0
  0
LINE
  5
36A
330
18
100
AcDbEntity
  8
0
  6
ByBlock
 62
     2
100
AcDbLine
 10
320.1968438814917
 20
212.0985588086612
 30
0.0
 11
306.5291538845417
 21
188.3772067024374
 31
0.0
  0
INSERT
  5
36D
330
18
100
AcDbEntity
  8
0
  6
ByBlock
 62
     2
100
AcDbBlockReference
  2
_OPEN
 10
306.5291538845417
 20
188.3772067024374
 30
0.0
 41
2.5
 42
2.5
 43
2.5
 50
240.0504567359231
  0
POINT
  5
36E
330
18
100
AcDbEntity
  8
DEFPOINTS
  6
ByBlock
 62
     0
100
AcDbPoint
 10
306.5291538845417
 20
188.3772067024374
 30
0.0
  0
POINT
  5
36F
330
18
100
AcDbEntity
  8
DEFPOINTS
  6
ByBlock
 62
     0
100
AcDbPoint
 10
304.9066331375438
 20
185.5611941979265
 30
0.0
  0
TEXT
  5
370
330
18
100
AcDbEntity
  8
文字
100
AcDbText
 10
320.0364076861335
 20
212.7596434927623
 30
0.0
 40
2.5
  1
φ6.5
  7
STYLE3
100
AcDbText
  0
CIRCLE
  5
3E6
330
18
100
AcDbEntity
  8
外形線
100
AcDbCircle
 10
138.6883387865155
 20
185.5611941979265
 30
0.0
 40
30.0
  0
LINE
  5
3EA
330
18
100
AcDbEntity
  8
目盛
100
AcDbLine
 10
138.6883387865155
 20
236.0611941979265
 30
0.0
 11
138.6883387865155
 21
228.0611941979265
 31
0.0
  0
LINE
  5
3EB
330
18
100
AcDbEntity
  8
目盛
 62
     4
100
AcDbLine
 10
141.8592600227458
 20
235.9615439835542
 30
0.0
 11
141.5296097952169
 21
230.7219036593058
 31
0.0
  0
LINE
  5
3EC
330
18
100
AcDbEntity
  8
目盛
 62
     4
100
AcDbLine
 10
145.0176670815128
 20
235.6629866143077
 30
0.0
 11
144.3596676053003
 21
230.4543844324066
 31
0.0
  0
LINE
  5
3ED
330
18
100
AcDbEntity
  8
目盛
 62
     4
100
AcDbLine
 10
148.1510951730945
 20
235.1667003597253
 30
0.0
 11
147.1673432715195
 21
230.0096922933997
 31
0.0
  0
LINE
  5
3EE
330
18
100
AcDbEntity
  8
目盛
 62
     4
100
AcDbLine
 10
151.2471780883406
 20
234.4746438349224
 30
0.0
 11
149.9415561807252
 21
229.3895822389971
 31
0.0
  0
LINE
  5
3EF
330
18
100
AcDbEntity
  8
目盛
100
AcDbLine
 10
154.2936970024503
 20
233.5895482708318
 30
0.0
 11
152.2850865390131
 21
227.4076809149133
 31
0.0
  0
LINE
  5
3F0
330
18
100
AcDbEntity
  8
目盛
 62
     4
100
AcDbLine
 10
157.2786286970917
 20
232.5149067352832
 30
0.0
 11
155.3459747954971
 21
227.6335801843699
 31
0.0
  0
LINE
  5
3F1
330
18
100
AcDbEntity
  8
目盛
 62
     4
100
AcDbLine
 10
160.1901930105516
 20
231.2549603474605
 30
0.0
 11
157.954851729835
 21
226.5046183220139
 31
0.0
  0
LINE
  5
3F2
330
18
100
AcDbEntity
  8
目盛
 62
     4
100
AcDbLine
 10
163.0168993286521
 20
229.8146815401416
 30
0.0
 11
160.4876925396181
 21
225.2140714699113
 31
0.0
  0
LINE
  5
3F3
330
18
100
AcDbEntity
  8
目盛
 62
     4
100
AcDbLine
 10
165.7475919329548
 20
228.1997544357783
 30
0.0
 11
162.9345012593151
 21
223.7670328268927
 31
0.0
  0
LINE
  5
3F5
330
18
100
AcDbEntity
  8
目盛
 62
     4
100
AcDbLine
 10
135.5174175502852
 20
235.9615439835542
 30
0.0
 11
135.847067777814
 21
230.7219036593058
 31
0.0
  0
LINE
  5
3F6
330
18
100
AcDbEntity
  8
目盛
100
AcDbLine
 10
109.0051835457455
 20
226.4165524138613
 30
0.0
 11
113.7074655640854
 21
219.9444164588618
 31
0.0
  0
LINE
  5
3F7
330
18
100
AcDbEntity
  8
目盛
 62
     4
100
AcDbLine
 10
111.6290856400761
 20
228.1997544357783
 30
0.0
 11
114.4421763137159
 21
223.7670328268927
 31
0.0
  0
LINE
  5
3F8
330
18
100
AcDbEntity
  8
目盛
 62
     4
100
AcDbLine
 10
114.3597782443788
 20
229.8146815401416
 30
0.0
 11
116.8889850334128
 21
225.2140714699113
 31
0.0
  0
LINE
  5
3F9
330
18
100
AcDbEntity
  8
目盛
 62
     4
100
AcDbLine
 10
120.0980488759392
 20
232.5149067352832
 30
0.0
 11
122.0307027775338
 21
227.6335801843699
 31
0.0
  0
LINE
  5
3FA
330
18
100
AcDbEntity
  8
目盛
 62
     4
100
AcDbLine
 10
117.1864845624793
 20
231.2549603474604
 30
0.0
 11
119.4218258431959
 21
226.5046183220139
 31
0.0
  0
LINE
  5
3FB
330
18
100
AcDbEntity
  8
目盛
 62
     4
100
AcDbLine
 10
129.2255823999364
 20
235.1667003597253
 30
0.0
 11
130.2093343015115
 21
230.0096922933997
 31
0.0
  0
LINE
  5
3FC
330
18
100
AcDbEntity
  8
目盛
 62
     4
100
AcDbLine
 10
126.1294994846903
 20
234.4746438349223
 30
0.0
 11
127.4351213923058
 21
229.3895822389971
 31
0.0
  0
LINE
  5
3FD
330
18
100
AcDbEntity
  8
目盛
100
AcDbLine
 10
123.0829805705806
 20
233.5895482708318
 30
0.0
 11
125.0915910340178
 21
227.4076809149133
 31
0.0
  0
LINE
  5
3FE
330
18
100
AcDbEntity
  8
目盛
 62
     4
100
AcDbLine
 10
132.3590104915181
 20
235.6629866143076
 30
0.0
 11
133.0170099677307
 21
230.4543844324066
 31
0.0
  0
LINE
  5
3FF
330
18
100
AcDbEntity
  8
目盛
 62
     4
100
AcDbLine
 10
106.4984273042066
 20
224.4721129581039
 30
0.0
 11
109.8449032503873
 21
220.426918433531
 31
0.0
  0
LINE
  5
400
330
18
100
AcDbEntity
  8
目盛
100
AcDbLine
 10
90.65998471361025
 20
201.1665524138614
 30
0.0
 11
98.26843684397147
 21
198.6944164588618
 31
0.0
  0
LINE
  5
401
330
18
100
AcDbEntity
  8
目盛
 62
     4
100
AcDbLine
 10
91.73462624915879
 20
204.1514841085028
 30
0.0
 11
96.61595280007214
 21
202.2188302069082
 31
0.0
  0
LINE
  5
402
330
18
100
AcDbEntity
  8
目盛
 62
     4
100
AcDbLine
 10
92.99457263698149
 20
207.0630484219627
 30
0.0
 11
97.74491466242807
 21
204.827707141246
 31
0.0
  0
LINE
  5
403
330
18
100
AcDbEntity
  8
目盛
 62
     4
100
AcDbLine
 10
96.04977854866371
 20
212.6204473443658
 30
0.0
 11
100.4825001575493
 21
209.8073566707261
 31
0.0
  0
LINE
  5
404
330
18
100
AcDbEntity
  8
目盛
 62
     4
100
AcDbLine
 10
94.43485144430042
 20
209.8897547400631
 30
0.0
 11
99.0354615145307
 21
207.3605479510291
 31
0.0
  0
LINE
  5
405
330
18
100
AcDbEntity
  8
目盛
 62
     4
100
AcDbLine
 10
101.8754231017342
 20
220.1308230473253
 30
0.0
 11
105.7025083956966
 21
216.5369507411997
 31
0.0
  0
LINE
  5
406
330
18
100
AcDbEntity
  8
目盛
 62
     4
100
AcDbLine
 10
99.77742002633817
 20
217.7511056802354
 30
0.0
 11
103.822614550911
 21
214.4046297340547
 31
0.0
  0
LINE
  5
407
330
18
100
AcDbEntity
  8
目盛
100
AcDbLine
 10
97.83298057058068
 20
215.2443494386965
 30
0.0
 11
103.0915910340178
 21
211.4237452987953
 31
0.0
  0
LINE
  5
408
330
18
100
AcDbEntity
  8
目盛
 62
     4
100
AcDbLine
 10
104.1187099371167
 20
222.3741098827078
 30
0.0
 11
107.7125822432423
 21
218.5470245887454
 31
0.0
  0
LINE
  5
409
330
18
100
AcDbEntity
  8
目盛
 62
     4
100
AcDbLine
 10
89.7748891495196
 20
198.1200334997517
 30
0.0
 11
94.85995074544495
 21
196.8144115921362
 31
0.0
  0
LINE
  5
40A
330
18
100
AcDbEntity
  8
目盛
100
AcDbLine
 10
90.65998471361025
 20
169.9558359819917
 30
0.0
 11
98.26843684397147
 21
172.4279719369912
 31
0.0
  0
LINE
  5
40B
330
18
100
AcDbEntity
  8
目盛
 62
     4
100
AcDbLine
 10
89.77488914951965
 20
173.0023548961013
 30
0.0
 11
94.85995074544495
 21
174.3079768037168
 31
0.0
  0
LINE
  5
40C
330
18
100
AcDbEntity
  8
目盛
 62
     4
100
AcDbLine
 10
89.08283262471673
 20
176.0984378113474
 30
0.0
 11
94.23984069104234
 21
177.0821897129224
 31
0.0
  0
LINE
  5
40D
330
18
100
AcDbEntity
  8
目盛
 62
     4
100
AcDbLine
 10
88.28798900088782
 20
182.3902729616962
 30
0.0
 11
93.52762932513622
 21
182.7199231892251
 31
0.0
  0
LINE
  5
40E
330
18
100
AcDbEntity
  8
目盛
 62
     4
100
AcDbLine
 10
88.58654637013444
 20
179.2318659029291
 30
0.0
 11
93.79514855203542
 21
179.8898653791417
 31
0.0
  0
LINE
  5
40F
330
18
100
AcDbEntity
  8
目盛
 62
     4
100
AcDbLine
 10
88.58654637013438
 20
191.8905224929239
 30
0.0
 11
93.79514855203542
 21
191.2325230167113
 31
0.0
  0
LINE
  5
410
330
18
100
AcDbEntity
  8
目盛
 62
     4
100
AcDbLine
 10
88.28798900088782
 20
188.7321154341568
 30
0.0
 11
93.52762932513622
 21
188.4024652066279
 31
0.0
  0
LINE
  5
411
330
18
100
AcDbEntity
  8
目盛
100
AcDbLine
 10
88.18833878651554
 20
185.5611941979265
 30
0.0
 11
94.68833878651555
 21
185.5611941979265
 31
0.0
  0
LINE
  5
412
330
18
100
AcDbEntity
  8
目盛
 62
     4
100
AcDbLine
 10
89.08283262471679
 20
195.0239505845056
 30
0.0
 11
94.23984069104234
 21
194.0401986829305
 31
0.0
  0
LINE
  5
413
330
18
100
AcDbEntity
  8
目盛
 62
     4
100
AcDbLine
 10
91.73462624915874
 20
166.9709042873502
 30
0.0
 11
96.61595280007208
 21
168.9035581889448
 31
0.0
  0
LINE
  5
414
330
18
100
AcDbEntity
  8
目盛
100
AcDbLine
 10
109.0051835457455
 20
144.7058359819916
 30
0.0
 11
113.7074655640853
 21
151.1779719369912
 31
0.0
  0
LINE
  5
415
330
18
100
AcDbEntity
  8
目盛
 62
     4
100
AcDbLine
 10
106.4984273042066
 20
146.6502754377491
 30
0.0
 11
109.8449032503872
 21
150.695469962322
 31
0.0
  0
LINE
  5
416
330
18
100
AcDbEntity
  8
目盛
 62
     4
100
AcDbLine
 10
104.1187099371166
 20
148.7482785131452
 30
0.0
 11
107.7125822432423
 21
152.5753638071076
 31
0.0
  0
LINE
  5
417
330
18
100
AcDbEntity
  8
目盛
 62
     4
100
AcDbLine
 10
99.77742002633807
 20
153.3712827156176
 30
0.0
 11
103.822614550911
 21
156.7177586617983
 31
0.0
  0
LINE
  5
418
330
18
100
AcDbEntity
  8
目盛
 62
     4
100
AcDbLine
 10
101.8754231017342
 20
150.9915653485277
 30
0.0
 11
105.7025083956965
 21
154.5854376546533
 31
0.0
  0
LINE
  5
419
330
18
100
AcDbEntity
  8
目盛
 62
     4
100
AcDbLine
 10
94.43485144430031
 20
161.2326336557899
 30
0.0
 11
99.03546151453065
 21
163.7618404448239
 31
0.0
  0
LINE
  5
41A
330
18
100
AcDbEntity
  8
目盛
 62
     4
100
AcDbLine
 10
96.04977854866366
 20
158.5019410514872
 30
0.0
 11
100.4825001575492
 21
161.3150317251269
 31
0.0
  0
LINE
  5
41B
330
18
100
AcDbEntity
  8
目盛
100
AcDbLine
 10
97.83298057058061
 20
155.8780389571566
 30
0.0
 11
103.0915910340177
 21
159.6986430970577
 31
0.0
  0
LINE
  5
41C
330
18
100
AcDbEntity
  8
目盛
 62
     4
100
AcDbLine
 10
92.99457263698149
 20
164.0593399738903
 30
0.0
 11
97.74491466242807
 21
166.294681254607
 31
0.0
  0
LINE
  5
41D
330
18
100
AcDbEntity
  8
目盛
 62
     4
100
AcDbLine
 10
111.6290856400761
 20
142.9226339600747
 30
0.0
 11
114.4421763137159
 21
147.3553555689603
 31
0.0
  0
LINE
  5
41E
330
18
100
AcDbEntity
  8
目盛
100
AcDbLine
 10
138.6883387865155
 20
135.0611941979265
 30
0.0
 11
138.6883387865155
 21
143.0611941979265
 31
0.0
  0
LINE
  5
41F
330
18
100
AcDbEntity
  8
目盛
 62
     4
100
AcDbLine
 10
135.5174175502851
 20
135.1608444122988
 30
0.0
 11
135.847067777814
 21
140.4004847365472
 31
0.0
  0
LINE
  5
420
330
18
100
AcDbEntity
  8
目盛
 62
     4
100
AcDbLine
 10
132.3590104915181
 20
135.4594017815454
 30
0.0
 11
133.0170099677307
 21
140.6680039634464
 31
0.0
  0
LINE
  5
421
330
18
100
AcDbEntity
  8
目盛
 62
     4
100
AcDbLine
 10
126.1294994846903
 20
136.6477445609306
 30
0.0
 11
127.4351213923058
 21
141.732806156856
 31
0.0
  0
LINE
  5
422
330
18
100
AcDbEntity
  8
目盛
 62
     4
100
AcDbLine
 10
129.2255823999364
 20
135.9556880361278
 30
0.0
 11
130.2093343015114
 21
141.1126961024534
 31
0.0
  0
LINE
  5
423
330
18
100
AcDbEntity
  8
目盛
 62
     4
100
AcDbLine
 10
117.1864845624793
 20
139.8674280483925
 30
0.0
 11
119.4218258431959
 21
144.6177700738392
 31
0.0
  0
LINE
  5
424
330
18
100
AcDbEntity
  8
目盛
 62
     4
100
AcDbLine
 10
120.0980488759392
 20
138.6074816605698
 30
0.0
 11
122.0307027775338
 21
143.4888082114831
 31
0.0
  0
LINE
  5
425
330
18
100
AcDbEntity
  8
目盛
100
AcDbLine
 10
123.0829805705806
 20
137.5328401250213
 30
0.0
 11
125.0915910340178
 21
143.7147074809398
 31
0.0
  0
LINE
  5
426
330
18
100
AcDbEntity
  8
目盛
 62
     4
100
AcDbLine
 10
114.3597782443788
 20
141.3077068557114
 30
0.0
 11
116.8889850334128
 21
145.9083169259417
 31
0.0
  0
LINE
  5
427
330
18
100
AcDbEntity
  8
目盛
 62
     4
100
AcDbLine
 10
141.8592600227458
 20
135.1608444122988
 30
0.0
 11
141.5296097952169
 21
140.4004847365472
 31
0.0
  0
LINE
  5
428
330
18
100
AcDbEntity
  8
目盛
100
AcDbLine
 10
168.3714940272854
 20
144.7058359819916
 30
0.0
 11
163.6692120089455
 21
151.1779719369912
 31
0.0
  0
LINE
  5
429
330
18
100
AcDbEntity
  8
目盛
 62
     4
100
AcDbLine
 10
165.7475919329548
 20
142.9226339600747
 30
0.0
 11
162.9345012593151
 21
147.3553555689603
 31
0.0
  0
LINE
  5
42A
330
18
100
AcDbEntity
  8
目盛
 62
     4
100
AcDbLine
 10
163.0168993286521
 20
141.3077068557113
 30
0.0
 11
160.4876925396181
 21
145.9083169259417
 31
0.0
  0
LINE
  5
42B
330
18
100
AcDbEntity
  8
目盛
 62
     4
100
AcDbLine
 10
157.2786286970917
 20
138.6074816605698
 30
0.0
 11
155.3459747954971
 21
143.4888082114831
 31
0.0
  0
LINE
  5
42C
330
18
100
AcDbEntity
  8
目盛
 62
     4
100
AcDbLine
 10
160.1901930105516
 20
139.8674280483925
 30
0.0
 11
157.954851729835
 21
144.6177700738391
 31
0.0
  0
LINE
  5
42D
330
18
100
AcDbEntity
  8
目盛
 62
     4
100
AcDbLine
 10
148.1510951730945
 20
135.9556880361277
 30
0.0
 11
147.1673432715195
 21
141.1126961024533
 31
0.0
  0
LINE
  5
42E
330
18
100
AcDbEntity
  8
目盛
 62
     4
100
AcDbLine
 10
151.2471780883406
 20
136.6477445609306
 30
0.0
 11
149.9415561807252
 21
141.7328061568559
 31
0.0
  0
LINE
  5
42F
330
18
100
AcDbEntity
  8
目盛
100
AcDbLine
 10
154.2936970024503
 20
137.5328401250212
 30
0.0
 11
152.2850865390131
 21
143.7147074809397
 31
0.0
  0
LINE
  5
430
330
18
100
AcDbEntity
  8
目盛
 62
     4
100
AcDbLine
 10
145.0176670815128
 20
135.4594017815454
 30
0.0
 11
144.3596676053003
 21
140.6680039634464
 31
0.0
  0
LINE
  5
431
330
18
100
AcDbEntity
  8
目盛
 62
     4
100
AcDbLine
 10
170.8782502688243
 20
146.6502754377491
 30
0.0
 11
167.5317743226436
 21
150.6954699623221
 31
0.0
  0
LINE
  5
432
330
18
100
AcDbEntity
  8
目盛
100
AcDbLine
 10
186.7166928594207
 20
169.9558359819916
 30
0.0
 11
179.1082407290595
 21
172.4279719369912
 31
0.0
  0
LINE
  5
433
330
18
100
AcDbEntity
  8
目盛
 62
     4
100
AcDbLine
 10
185.6420513238722
 20
166.9709042873502
 30
0.0
 11
180.7607247729588
 21
168.9035581889448
 31
0.0
  0
LINE
  5
434
330
18
100
AcDbEntity
  8
目盛
 62
     4
100
AcDbLine
 10
184.3821049360494
 20
164.0593399738903
 30
0.0
 11
179.6317629106029
 21
166.294681254607
 31
0.0
  0
LINE
  5
435
330
18
100
AcDbEntity
  8
目盛
 62
     4
100
AcDbLine
 10
181.3268990243672
 20
158.5019410514871
 30
0.0
 11
176.8941774154816
 21
161.3150317251269
 31
0.0
  0
LINE
  5
436
330
18
100
AcDbEntity
  8
目盛
 62
     4
100
AcDbLine
 10
182.9418261287305
 20
161.2326336557899
 30
0.0
 11
178.3412160585003
 21
163.7618404448239
 31
0.0
  0
LINE
  5
437
330
18
100
AcDbEntity
  8
目盛
 62
     4
100
AcDbLine
 10
175.5012544712967
 20
150.9915653485277
 30
0.0
 11
171.6741691773343
 21
154.5854376546533
 31
0.0
  0
LINE
  5
438
330
18
100
AcDbEntity
  8
目盛
 62
     4
100
AcDbLine
 10
177.5992575466928
 20
153.3712827156176
 30
0.0
 11
173.5540630221199
 21
156.7177586617983
 31
0.0
  0
LINE
  5
439
330
18
100
AcDbEntity
  8
目盛
100
AcDbLine
 10
179.5436970024503
 20
155.8780389571566
 30
0.0
 11
174.2850865390131
 21
159.6986430970577
 31
0.0
  0
LINE
  5
43A
330
18
100
AcDbEntity
  8
目盛
 62
     4
100
AcDbLine
 10
173.2579676359143
 20
148.7482785131452
 30
0.0
 11
169.6640953297887
 21
152.5753638071076
 31
0.0
  0
LINE
  5
43B
330
18
100
AcDbEntity
  8
目盛
 62
     4
100
AcDbLine
 10
187.6017884235114
 20
173.0023548961013
 30
0.0
 11
182.516726827586
 21
174.3079768037168
 31
0.0
  0
LINE
  5
43C
330
18
100
AcDbEntity
  8
目盛
100
AcDbLine
 10
186.7166928594207
 20
201.1665524138614
 30
0.0
 11
179.1082407290595
 21
198.6944164588618
 31
0.0
  0
LINE
  5
43D
330
18
100
AcDbEntity
  8
目盛
 62
     4
100
AcDbLine
 10
187.6017884235114
 20
198.1200334997517
 30
0.0
 11
182.516726827586
 21
196.8144115921361
 31
0.0
  0
LINE
  5
43E
330
18
100
AcDbEntity
  8
目盛
 62
     4
100
AcDbLine
 10
188.2938449483143
 20
195.0239505845056
 30
0.0
 11
183.1368368819886
 21
194.0401986829305
 31
0.0
  0
LINE
  5
43F
330
18
100
AcDbEntity
  8
目盛
 62
     4
100
AcDbLine
 10
189.0886885721432
 20
188.7321154341568
 30
0.0
 11
183.8490482478947
 21
188.4024652066279
 31
0.0
  0
LINE
  5
440
330
18
100
AcDbEntity
  8
目盛
 62
     4
100
AcDbLine
 10
188.7901312028965
 20
191.8905224929239
 30
0.0
 11
183.5815290209956
 21
191.2325230167112
 31
0.0
  0
LINE
  5
441
330
18
100
AcDbEntity
  8
目盛
 62
     4
100
AcDbLine
 10
188.7901312028966
 20
179.2318659029291
 30
0.0
 11
183.5815290209956
 21
179.8898653791417
 31
0.0
  0
LINE
  5
442
330
18
100
AcDbEntity
  8
目盛
 62
     4
100
AcDbLine
 10
189.0886885721432
 20
182.3902729616961
 30
0.0
 11
183.8490482478947
 21
182.7199231892251
 31
0.0
  0
LINE
  5
443
330
18
100
AcDbEntity
  8
目盛
100
AcDbLine
 10
189.1883387865155
 20
185.5611941979265
 30
0.0
 11
182.6883387865155
 21
185.5611941979265
 31
0.0
  0
LINE
  5
444
330
18
100
AcDbEntity
  8
目盛
 62
     4
100
AcDbLine
 10
188.2938449483142
 20
176.0984378113474
 30
0.0
 11
183.1368368819886
 21
177.0821897129224
 31
0.0
  0
LINE
  5
445
330
18
100
AcDbEntity
  8
目盛
 62
     4
100
AcDbLine
 10
185.6420513238722
 20
204.1514841085028
 30
0.0
 11
180.7607247729588
 21
202.2188302069082
 31
0.0
  0
LINE
  5
446
330
18
100
AcDbEntity
  8
目盛
100
AcDbLine
 10
168.3714940272854
 20
226.4165524138614
 30
0.0
 11
163.6692120089455
 21
219.9444164588618
 31
0.0
  0
LINE
  5
447
330
18
100
AcDbEntity
  8
目盛
 62
     4
100
AcDbLine
 10
170.8782502688243
 20
224.4721129581039
 30
0.0
 11
167.5317743226437
 21
220.426918433531
 31
0.0
  0
LINE
  5
448
330
18
100
AcDbEntity
  8
目盛
 62
     4
100
AcDbLine
 10
173.2579676359143
 20
222.3741098827078
 30
0.0
 11
169.6640953297887
 21
218.5470245887454
 31
0.0
  0
LINE
  5
449
330
18
100
AcDbEntity
  8
目盛
 62
     4
100
AcDbLine
 10
177.5992575466928
 20
217.7511056802353
 30
0.0
 11
173.5540630221199
 21
214.4046297340547
 31
0.0
  0
LINE
  5
44A
330
18
100
AcDbEntity
  8
目盛
 62
     4
100
AcDbLine
 10
175.5012544712967
 20
220.1308230473252
 30
0.0
 11
171.6741691773343
 21
216.5369507411996
 31
0.0
  0
LINE
  5
44B
330
18
100
AcDbEntity
  8
目盛
 62
     4
100
AcDbLine
 10
182.9418261287306
 20
209.8897547400631
 30
0.0
 11
178.3412160585003
 21
207.3605479510291
 31
0.0
  0
LINE
  5
44C
330
18
100
AcDbEntity
  8
目盛
 62
     4
100
AcDbLine
 10
181.3268990243672
 20
212.6204473443658
 30
0.0
 11
176.8941774154817
 21
209.8073566707261
 31
0.0
  0
LINE
  5
44D
330
18
100
AcDbEntity
  8
目盛
100
AcDbLine
 10
179.5436970024503
 20
215.2443494386964
 30
0.0
 11
174.2850865390131
 21
211.4237452987953
 31
0.0
  0
LINE
  5
44E
330
18
100
AcDbEntity
  8
目盛
 62
     4
100
AcDbLine
 10
184.3821049360494
 20
207.0630484219627
 30
0.0
 11
179.6317629106029
 21
204.827707141246
 31
0.0
  0
TEXT
  5
453
330
18
100
AcDbEntity
  8
文字
100
AcDbText
 10
135.4849077740521
 20
221.0348933337873
 30
0.0
 40
6.0
  1
0
  7
STYLE3
100
AcDbText
  0
TEXT
  5
454
330
18
100
AcDbEntity
  8
文字
100
AcDbText
 10
136.5603805876635
 20
216.404864422061
 30
0.0
 40
4.0
  1
0
  7
STYLE3
100
AcDbText
  0
TEXT
  5
455
330
18
100
AcDbEntity
  8
文字
100
AcDbText
 10
159.2123146104206
 20
213.19822604353
 30
0.0
 40
6.0
  1
1
  7
STYLE3
100
AcDbText
  0
TEXT
  5
456
330
18
100
AcDbEntity
  8
文字
100
AcDbText
 10
159.9644329020689
 20
207.0603869314776
 30
0.0
 40
4.0
  1
9
  7
STYLE3
100
AcDbText
  0
TEXT
  5
457
330
18
100
AcDbEntity
  8
文字
100
AcDbText
 10
172.7701272850158
 20
194.3826607579979
 30
0.0
 40
6.0
  1
2
  7
STYLE3
100
AcDbText
  0
TEXT
  5
458
330
18
100
AcDbEntity
  8
文字
100
AcDbText
 10
168.5641557902868
 20
192.1220472544499
 30
0.0
 40
4.0
  1
8
  7
STYLE3
100
AcDbText
  0
TEXT
  5
459
330
18
100
AcDbEntity
  8
文字
100
AcDbText
 10
173.0712648595661
 20
171.0823045497448
 30
0.0
 40
6.0
  1
3
  7
STYLE3
100
AcDbText
  0
TEXT
  5
45A
330
18
100
AcDbEntity
  8
文字
100
AcDbText
 10
168.3263724863975
 20
173.5605247601125
 30
0.0
 40
4.0
  1
7
  7
STYLE3
100
AcDbText
  0
TEXT
  5
45B
330
18
100
AcDbEntity
  8
文字
100
AcDbText
 10
158.1566835668934
 20
151.7224805509584
 30
0.0
 40
6.0
  1
4
  7
STYLE3
100
AcDbText
  0
TEXT
  5
45C
330
18
100
AcDbEntity
  8
文字
100
AcDbText
 10
156.8608965357728
 20
157.8625261544522
 30
0.0
 40
4.0
  1
6
  7
STYLE3
100
AcDbText
  0
TEXT
  5
45D
330
18
100
AcDbEntity
  8
文字
100
AcDbText
 10
136.0295901718807
 20
144.0707956224639
 30
0.0
 40
6.0
  1
5
  7
STYLE3
100
AcDbText
  0
TEXT
  5
45E
330
18
100
AcDbEntity
  8
文字
100
AcDbText
 10
136.9972773136296
 20
150.8570454940418
 30
0.0
 40
4.0
  1
5
  7
STYLE3
100
AcDbText
  0
TEXT
  5
45F
330
18
100
AcDbEntity
  8
文字
100
AcDbText
 10
112.517753432425
 20
151.8466235835412
 30
0.0
 40
6.0
  1
6
  7
STYLE3
100
AcDbText
  0
TEXT
  5
460
330
18
100
AcDbEntity
  8
文字
100
AcDbText
 10
115.7489159938559
 20
158.0943700191141
 30
0.0
 40
4.0
  1
4
  7
STYLE3
100
AcDbText
  0
TEXT
  5
461
330
18
100
AcDbEntity
  8
文字
100
AcDbText
 10
99.12861076529361
 20
170.7148070980014
 30
0.0
 40
6.0
  1
7
  7
STYLE3
100
AcDbText
  0
TEXT
  5
462
330
18
100
AcDbEntity
  8
文字
100
AcDbText
 10
105.8088786687722
 20
174.2700341803793
 30
0.0
 40
4.0
  1
3
  7
STYLE3
100
AcDbText
  0
TEXT
  5
463
330
18
100
AcDbEntity
  8
文字
100
AcDbText
 10
99.04304204084406
 20
195.0617508758695
 30
0.0
 40
6.0
  1
8
  7
STYLE3
100
AcDbText
  0
TEXT
  5
464
330
18
100
AcDbEntity
  8
文字
100
AcDbText
 10
105.8310943693732
 20
195.1705542292794
 30
0.0
 40
4.0
  1
2
  7
STYLE3
100
AcDbText
  0
TEXT
  5
465
330
18
100
AcDbEntity
  8
文字
100
AcDbText
 10
114.2423054800429
 20
214.2916765648235
 30
0.0
 40
6.0
  1
9
  7
STYLE3
100
AcDbText
  0
TEXT
  5
466
330
18
100
AcDbEntity
  8
文字
100
AcDbText
 10
117.796822563437
 20
210.3078519211815
 30
0.0
 40
4.0
  1
1
  7
STYLE3
100
AcDbText
  0
LINE
  5
497
102
{ACAD_REACTORS
330
49A
102
}
330
18
100
AcDbEntity
  8
外形線
100
AcDbLine
 10
159.1140812286881
 20
187.6421851110523
 30
0.0
 11
157.6140812286881
 21
187.6421851110523
 31
0.0
  0
LINE
  5
498
102
{ACAD_REACTORS
330
49A
102
}
330
18
100
AcDbEntity
  8
外形線
100
AcDbLine
 10
159.1140812286881
 20
187.3734351110523
 30
0.0
 11
157.6140812286881
 21
187.3734351110524
 31
0.0
  0
TEXT
  5
499
330
18
100
AcDbEntity
  8
文字
100
AcDbText
 10
150.0289108093024
 20
183.5808340794101
 30
0.0
 40
2.0
  1
0.1mm
  7
STYLE3
100
AcDbText
  0
HATCH
  5
49A
330
18
100
AcDbEntity
  8
外形線
100
AcDbHatch
 10
0.0
 20
0.0
 30
0.0
210
0.0
220
0.0
230
1.0
  2
SOLID
 70
     1
 71
     1
 91
        2
 92
        1
 93
        7
 72
     1
 10
155.864081228688
 20
187.5078101110524
 11
157.6140812286881
 21
186.8708622010865
 72
     1
 10
157.6140812286881
 20
186.8708622010866
 11
157.6140812286881
 21
187.3734351110524
 72
     1
 10
157.6140812286881
 20
187.3734351110524
 11
159.1140812286881
 21
187.3734351110523
 72
     1
 10
159.1140812286881
 20
187.3734351110523
 11
159.1140812286881
 21
187.6421851110523
 72
     1
 10
159.1140812286881
 20
187.6421851110523
 11
157.6140812286881
 21
187.6421851110523
 72
     1
 10
157.6140812286881
 20
187.6421851110523
 11
157.6140812286881
 21
188.1447580210182
 72
     1
 10
157.6140812286881
 20
188.1447580210182
 11
155.864081228688
 21
187.5078101110524
 97
        7
330
4A3
330
4A6
330
498
330
4BF
330
497
330
4A2
330
4A9
 92
        1
 93
        4
 72
     1
 10
155.864081228688
 20
188.6328101110524
 11
155.864081228688
 21
186.3828101110524
 72
     1
 10
155.864081228688
 20
186.3828101110524
 11
155.614081228688
 21
186.3828101110524
 72
     1
 10
155.614081228688
 20
186.3828101110524
 11
155.614081228688
 21
188.6328101110524
 72
     1
 10
155.614081228688
 20
188.6328101110524
 11
155.864081228688
 21
188.6328101110524
 97
        4
330
4A8
330
4B5
330
4A7
330
49F
 75
     0
 76
     1
 98
        1
 10
17.36974616896759
 20
84.51458390028088
450
        0
451
        0
460
0.0
461
0.0
452
        0
462
0.0
453
        0
470

  0
LINE
  5
49B
102
{ACAD_REACTORS
330
49D
102
}
330
18
100
AcDbEntity
  8
外形線
100
AcDbLine
 10
150.8640812286881
 20
187.6421851110523
 30
0.0
 11
152.3640812286881
 21
187.6421851110523
 31
0.0
  0
LINE
  5
49C
102
{ACAD_REACTORS
330
49D
102
}
330
18
100
AcDbEntity
  8
外形線
100
AcDbLine
 10
150.8640812286881
 20
187.3734351110523
 30
0.0
 11
152.3640812286881
 21
187.3734351110524
 31
0.0
  0
HATCH
  5
49D
330
18
100
AcDbEntity
  8
外形線
100
AcDbHatch
 10
0.0
 20
0.0
 30
0.0
210
0.0
220
0.0
230
1.0
  2
SOLID
 70
     1
 71
     1
 91
        2
 92
        1
 93
        7
 72
     1
 10
154.1140812286882
 20
187.5078101110524
 11
152.3640812286881
 21
186.8708622010865
 72
     1
 10
152.3640812286881
 20
186.8708622010866
 11
152.3640812286881
 21
187.3734351110524
 72
     1
 10
152.3640812286881
 20
187.3734351110524
 11
150.8640812286881
 21
187.3734351110523
 72
     1
 10
150.8640812286881
 20
187.3734351110523
 11
150.8640812286881
 21
187.6421851110523
 72
     1
 10
150.8640812286881
 20
187.6421851110523
 11
152.3640812286881
 21
187.6421851110523
 72
     1
 10
152.3640812286881
 20
187.6421851110523
 11
152.3640812286881
 21
188.1447580210182
 72
     1
 10
152.3640812286881
 20
188.1447580210182
 11
154.1140812286882
 21
187.5078101110524
 97
        7
330
4B1
330
4AE
330
49C
330
49E
330
49B
330
4AB
330
4B2
 92
        1
 93
        4
 72
     1
 10
154.1140812286882
 20
188.6328101110524
 11
154.1140812286882
 21
186.3828101110524
 72
     1
 10
154.1140812286882
 20
186.3828101110524
 11
154.364081228688
 21
186.3828101110524
 72
     1
 10
154.364081228688
 20
186.3828101110524
 11
154.364081228688
 21
188.6328101110524
 72
     1
 10
154.364081228688
 20
188.6328101110524
 11
154.1140812286882
 21
188.6328101110524
 97
        4
330
4B3
330
4BE
330
4B4
330
4AA
 75
     0
 76
     1
 98
        1
 10
292.6084162884087
 20
84.51458390028088
450
        0
451
        0
460
0.0
461
0.0
452
        0
462
0.0
453
        0
470

  0
LINE
  5
49E
102
{ACAD_REACTORS
330
49D
102
}
330
18
100
AcDbEntity
  8
外形線
100
AcDbLine
 10
150.8640812286881
 20
187.6421851110523
 30
0.0
 11
150.8640812286881
 21
187.3734351110523
 31
0.0
  0
LINE
  5
49F
102
{ACAD_REACTORS
330
49A
102
}
330
18
100
AcDbEntity
  8
外形線
100
AcDbLine
 10
155.614081228688
 20
188.6328101110524
 30
0.0
 11
155.864081228688
 21
188.6328101110524
 31
0.0
  0
POINT
  5
4A0
330
18
100
AcDbEntity
  8
DEFPOINTS
  6
ByBlock
 62
     0
100
AcDbPoint
 10
157.6140812286881
 20
188.1447580210182
 30
0.0
  0
POINT
  5
4A1
330
18
100
AcDbEntity
  8
DEFPOINTS
  6
ByBlock
 62
     0
100
AcDbPoint
 10
157.6140812286881
 20
188.1447580210182
 30
0.0
  0
LINE
  5
4A2
102
{ACAD_REACTORS
330
49A
102
}
330
18
100
AcDbEntity
  8
外形線
100
AcDbLine
 10
157.6140812286881
 20
188.1447580210182
 30
0.0
 11
157.6140812286881
 21
187.6421851110523
 31
0.0
  0
LINE
  5
4A3
102
{ACAD_REACTORS
330
49A
102
}
330
18
100
AcDbEntity
  8
外形線
100
AcDbLine
 10
155.864081228688
 20
187.5078101110524
 30
0.0
 11
157.6140812286881
 21
186.8708622010865
 31
0.0
  0
POINT
  5
4A4
330
18
100
AcDbEntity
  8
DEFPOINTS
  6
ByBlock
 62
     0
100
AcDbPoint
 10
157.6140812286881
 20
186.8708622010865
 30
0.0
  0
POINT
  5
4A5
330
18
100
AcDbEntity
  8
DEFPOINTS
  6
ByBlock
 62
     0
100
AcDbPoint
 10
157.6140812286881
 20
186.8708622010865
 30
0.0
  0
LINE
  5
4A6
102
{ACAD_REACTORS
330
49A
102
}
330
18
100
AcDbEntity
  8
外形線
100
AcDbLine
 10
157.6140812286881
 20
187.3734351110524
 30
0.0
 11
157.6140812286881
 21
186.8708622010866
 31
0.0
  0
LINE
  5
4A7
102
{ACAD_REACTORS
330
49A
102
}
330
18
100
AcDbEntity
  8
外形線
100
AcDbLine
 10
155.614081228688
 20
188.6328101110524
 30
0.0
 11
155.614081228688
 21
186.3828101110524
 31
0.0
  0
LINE
  5
4A8
102
{ACAD_REACTORS
330
49A
102
}
330
18
100
AcDbEntity
  8
外形線
100
AcDbLine
 10
155.864081228688
 20
188.6328101110524
 30
0.0
 11
155.864081228688
 21
186.3828101110524
 31
0.0
  0
LINE
  5
4A9
102
{ACAD_REACTORS
330
49A
102
}
330
18
100
AcDbEntity
  8
外形線
100
AcDbLine
 10
155.864081228688
 20
187.5078101110524
 30
0.0
 11
157.6140812286881
 21
188.1447580210182
 31
0.0
  0
LINE
  5
4AA
102
{ACAD_REACTORS
330
49D
102
}
330
18
100
AcDbEntity
  8
外形線
100
AcDbLine
 10
154.364081228688
 20
188.6328101110524
 30
0.0
 11
154.1140812286882
 21
188.6328101110524
 31
0.0
  0
LINE
  5
4AB
102
{ACAD_REACTORS
330
49D
102
}
330
18
100
AcDbEntity
  8
外形線
100
AcDbLine
 10
152.3640812286881
 20
188.1447580210182
 30
0.0
 11
152.3640812286881
 21
187.6421851110523
 31
0.0
  0
POINT
  5
4AC
330
18
100
AcDbEntity
  8
DEFPOINTS
  6
ByBlock
 62
     0
100
AcDbPoint
 10
152.3640812286881
 20
188.1447580210182
 30
0.0
  0
POINT
  5
4AD
330
18
100
AcDbEntity
  8
DEFPOINTS
  6
ByBlock
 62
     0
100
AcDbPoint
 10
152.3640812286881
 20
188.1447580210182
 30
0.0
  0
LINE
  5
4AE
102
{ACAD_REACTORS
330
49D
102
}
330
18
100
AcDbEntity
  8
外形線
100
AcDbLine
 10
152.3640812286881
 20
187.3734351110524
 30
0.0
 11
152.3640812286881
 21
186.8708622010866
 31
0.0
  0
POINT
  5
4AF
330
18
100
AcDbEntity
  8
DEFPOINTS
  6
ByBlock
 62
     0
100
AcDbPoint
 10
152.3640812286881
 20
186.8708622010865
 30
0.0
  0
POINT
  5
4B0
330
18
100
AcDbEntity
  8
DEFPOINTS
  6
ByBlock
 62
     0
100
AcDbPoint
 10
152.3640812286881
 20
186.8708622010865
 30
0.0
  0
LINE
  5
4B1
102
{ACAD_REACTORS
330
49D
102
}
330
18
100
AcDbEntity
  8
外形線
100
AcDbLine
 10
154.1140812286882
 20
187.5078101110524
 30
0.0
 11
152.3640812286881
 21
186.8708622010865
 31
0.0
  0
LINE
  5
4B2
102
{ACAD_REACTORS
330
49D
102
}
330
18
100
AcDbEntity
  8
外形線
100
AcDbLine
 10
154.1140812286882
 20
187.5078101110524
 30
0.0
 11
152.3640812286881
 21
188.1447580210182
 31
0.0
  0
LINE
  5
4B3
102
{ACAD_REACTORS
330
49D
102
}
330
18
100
AcDbEntity
  8
外形線
100
AcDbLine
 10
154.1140812286882
 20
188.6328101110524
 30
0.0
 11
154.1140812286882
 21
186.3828101110524
 31
0.0
  0
LINE
  5
4B4
102
{ACAD_REACTORS
330
49D
102
}
330
18
100
AcDbEntity
  8
外形線
100
AcDbLine
 10
154.364081228688
 20
188.6328101110524
 30
0.0
 11
154.364081228688
 21
186.3828101110524
 31
0.0
  0
LINE
  5
4B5
102
{ACAD_REACTORS
330
49A
102
}
330
18
100
AcDbEntity
  8
外形線
100
AcDbLine
 10
155.614081228688
 20
186.3828101110524
 30
0.0
 11
155.864081228688
 21
186.3828101110524
 31
0.0
  0
POINT
  5
4B6
330
18
100
AcDbEntity
  8
DEFPOINTS
  6
ByBlock
 62
     0
100
AcDbPoint
 10
155.864081228688
 20
186.3828101110524
 30
0.0
  0
POINT
  5
4B7
330
18
100
AcDbEntity
  8
DEFPOINTS
  6
ByBlock
 62
     0
100
AcDbPoint
 10
155.614081228688
 20
186.3828101110524
 30
0.0
  0
POINT
  5
4B8
330
18
100
AcDbEntity
  8
DEFPOINTS
  6
ByBlock
 62
     0
100
AcDbPoint
 10
155.864081228688
 20
186.3828101110524
 30
0.0
  0
POINT
  5
4B9
330
18
100
AcDbEntity
  8
DEFPOINTS
  6
ByBlock
 62
     0
100
AcDbPoint
 10
155.614081228688
 20
186.3828101110524
 30
0.0
  0
POINT
  5
4BA
330
18
100
AcDbEntity
  8
DEFPOINTS
  6
ByBlock
 62
     0
100
AcDbPoint
 10
154.364081228688
 20
186.3828101110524
 30
0.0
  0
POINT
  5
4BB
330
18
100
AcDbEntity
  8
DEFPOINTS
  6
ByBlock
 62
     0
100
AcDbPoint
 10
154.1140812286882
 20
186.3828101110524
 30
0.0
  0
POINT
  5
4BC
330
18
100
AcDbEntity
  8
DEFPOINTS
  6
ByBlock
 62
     0
100
AcDbPoint
 10
154.364081228688
 20
186.3828101110524
 30
0.0
  0
POINT
  5
4BD
330
18
100
AcDbEntity
  8
DEFPOINTS
  6
ByBlock
 62
     0
100
AcDbPoint
 10
154.1140812286882
 20
186.3828101110524
 30
0.0
  0
LINE
  5
4BE
102
{ACAD_REACTORS
330
49D
102
}
330
18
100
AcDbEntity
  8
外形線
100
AcDbLine
 10
154.364081228688
 20
186.3828101110524
 30
0.0
 11
154.1140812286882
 21
186.3828101110524
 31
0.0
  0
LINE
  5
4BF
102
{ACAD_REACTORS
330
49A
102
}
330
18
100
AcDbEntity
  8
外形線
100
AcDbLine
 10
159.1140812286881
 20
187.6421851110523
 30
0.0
 11
159.1140812286881
 21
187.3734351110523
 31
0.0
  0
LINE
  5
4D0
330
18
100
AcDbEntity
  8
目盛
100
AcDbLine
 10
125.6983387865155
 20
192.6811941979265
 30
0.0
 11
125.6983387865155
 21
191.4311941979265
 31
0.0
  0
TEXT
  5
4F0
330
18
100
AcDbEntity
  8
文字
100
AcDbText
 10
133.6221557375393
 20
172.6178393145474
 30
0.0
 40
2.0
  1
NO.809
  7
STYLE3
100
AcDbText
  0
TEXT
  5
4F1
330
18
100
AcDbEntity
  8
文字
100
AcDbText
 10
132.8226891333813
 20
165.3861894413536
 30
0.0
 40
1.0
  1
MADE IN JAPAN
  7
STYLE3
100
AcDbText
  0
TEXT
  5
561
330
18
100
AcDbEntity
  8
文字
 48
0.8
100
AcDbText
 10
140.0567791424015
 20
156.6619952679013
 30
0.0
 40
1.5
  1
H
 50
1.589821613340259
  7
STYLE3
100
AcDbText
  0
TEXT
  5
562
330
18
100
AcDbEntity
  8
文字
 48
0.8
100
AcDbText
 10
138.7323273116195
 20
156.5587395820317
 30
0.0
 40
1.5
  1
S
  7
STYLE3
100
AcDbText
  0
TEXT
  5
563
330
18
100
AcDbEntity
  8
文字
 48
0.8
100
AcDbText
 10
148.2621996731791
 20
158.148712037562
 30
0.0
 40
1.5
  1
R
 50
23.6400985410321
  7
STYLE3
100
AcDbText
  0
TEXT
  5
564
330
18
100
AcDbEntity
  8
文字
 48
0.8
100
AcDbText
 10
146.9333347710727
 20
157.6960377982178
 30
0.0
 40
1.5
  1
P
 50
20.81864462011641
  7
STYLE3
100
AcDbText
  0
TEXT
  5
565
330
18
100
AcDbEntity
  8
文字
 48
0.8
100
AcDbText
 10
144.5581492976392
 20
157.2117464433795
 30
0.0
 40
1.5
  1
K
 50
11.14538657471254
  7
STYLE3
100
AcDbText
  0
TEXT
  5
566
330
18
100
AcDbEntity
  8
文字
 48
0.8
100
AcDbText
 10
143.017960845436
 20
156.9526191871379
 30
0.0
 40
1.5
  1
C
 50
5.687207778684769
  7
STYLE3
100
AcDbText
  0
TEXT
  5
567
330
18
100
AcDbEntity
  8
文字
 48
0.8
100
AcDbText
 10
141.4845668354965
 20
156.7513288891651
 30
0.0
 40
1.5
  1
O
 50
1.760930144340787
  7
STYLE3
100
AcDbText
  0
TEXT
  5
568
330
18
100
AcDbEntity
  8
文字
 48
0.8
100
AcDbText
 10
149.6547419092804
 20
158.6816641688726
 30
0.0
 40
1.5
  1
O
 50
25.31588925864784
  7
STYLE3
100
AcDbText
  0
TEXT
  5
569
330
18
100
AcDbEntity
  8
文字
 48
0.8
100
AcDbText
 10
152.6406779306594
 20
160.092548335094
 30
0.0
 40
1.5
  1
F
 50
32.86966108399589
  7
STYLE3
100
AcDbText
  0
TEXT
  5
56A
330
18
100
AcDbEntity
  8
文字
 48
0.8
100
AcDbText
 10
151.1126069150111
 20
159.3625973321719
 30
0.0
 40
1.5
  1
O
 50
25.2276695881002
  7
STYLE3
100
AcDbText
  0
CIRCLE
  5
56C
330
18
100
AcDbEntity
  8
針
100
AcDbCircle
 10
138.6883387865155
 20
185.5611941979265
 30
0.0
 40
2.0
  0
CIRCLE
  5
56E
330
18
100
AcDbEntity
  8
針
100
AcDbCircle
 10
138.6883387865155
 20
185.5611941979265
 30
0.0
 40
0.475
  0
LINE
  5
570
330
18
100
AcDbEntity
  8
針
100
AcDbLine
 10
139.3900977381623
 20
188.7404290703107
 30
0.0
 11
139.3629107754008
 21
189.172553469092
 31
0.0
  0
ARC
  5
572
330
18
100
AcDbEntity
  8
針
100
AcDbCircle
 10
142.384177923447
 20
188.9288006288986
 30
0.0
 40
3.0
100
AcDbArc
 50
183.6
 51
222.3394245978558
  0
LINE
  5
575
330
18
100
AcDbEntity
  8
針
100
AcDbLine
 10
135.4248871670014
 20
233.4507795326012
 30
0.0
 11
135.9239005312155
 21
233.4821747923659
 31
0.0
  0
LINE
  5
576
330
18
100
AcDbEntity
  8
針
100
AcDbLine
 10
139.3629107754008
 20
189.172553469092
 30
0.0
 11
135.9239005312155
 21
233.4821747923659
 31
0.0
  0
LINE
  5
577
330
18
100
AcDbEntity
  8
針
100
AcDbLine
 10
137.5664626642299
 20
189.0595305339392
 30
0.0
 11
135.4248871670014
 21
233.4507795326012
 31
0.0
  0
HATCH
  5
5E8
330
18
100
AcDbEntity
  8
針
100
AcDbHatch
 10
0.0
 20
0.0
 30
0.0
210
0.0
220
0.0
230
1.0
  2
SOLID
 70
     1
 71
     0
 91
        1
 92
        7
 72
     1
 73
     1
 93
        8
 10
135.9239005312155
 20
233.4821747923658
 42
0.0
 10
135.4248871670014
 20
233.4507795326011
 42
0.0
 10
137.5664626642299
 20
189.0595305339384
 42
0.0
 10
137.5936496269914
 20
188.6274061351574
 42
-0.1706611099299534
 10
137.0528310485919
 20
186.7123303493839
 42
-0.4797698539916924
 10
140.1666744412881
 20
186.9082367703153
 42
-0.1706611099299982
 10
139.3900977381623
 20
188.7404290703107
 42
0.0
 10
139.362910775401
 20
189.1725534690898
 42
0.0
 97
        0
 75
     0
 76
     1
 47
0.1754538240511161
 98
        1
 10
138.2512501424117
 20
195.7902708736438
450
        0
451
        0
460
0.0
461
0.0
452
        0
462
0.0
453
        0
470

  0
LWPOLYLINE
  5
6B1
330
18
100
AcDbEntity
  8
C
100
AcDbPolyline
 90
        5
 70
     0
 43
0.8
 10
9.215839443126924
 20
298.4898000317763
 10
386.7158394431269
 20
298.4898000317763
 10
386.7158394431269
 20
15.98980003177632
 10
9.215839443126924
 20
15.98980003177632
 10
9.215839443126924
 20
298.4898000317763
  0
LINE
  5
700
330
18
100
AcDbEntity
  8
外形線
100
AcDbLine
 10
141.6883387865155
 20
60.92920574211837
 30
0.0
 11
141.6883387865155
 21
52.9019312706589
 31
0.0
  0
LINE
  5
701
330
18
100
AcDbEntity
  8
外形線
100
AcDbLine
 10
135.6883387865155
 20
60.92920574211831
 30
0.0
 11
135.6883387865155
 21
52.9019312706589
 31
0.0
  0
LINE
  5
708
330
18
100
AcDbEntity
  8
外形線
100
AcDbLine
 10
285.4066331375438
 20
60.92920574211838
 30
0.0
 11
285.4066331375438
 21
52.9019312706589
 31
0.0
  0
LINE
  5
709
330
18
100
AcDbEntity
  8
外形線
100
AcDbLine
 10
279.4066331375439
 20
60.9292057421184
 30
0.0
 11
279.4066331375439
 21
52.9019312706589
 31
0.0
  0
LINE
  5
7DA
330
18
100
AcDbEntity
  8
0
  6
ByBlock
 62
     2
100
AcDbLine
 10
279.4066331375439
 20
52.9019312706589
 30
0.0
 11
267.3628009257341
 21
52.9019312706589
 31
0.0
  0
LINE
  5
7DB
330
18
100
AcDbEntity
  8
0
  6
ByBlock
 62
     2
100
AcDbLine
 10
282.4066331375438
 20
43.90193127065891
 30
0.0
 11
267.3628009257341
 21
43.90193127065891
 31
0.0
  0
LINE
  5
7DC
330
18
100
AcDbEntity
  8
0
  6
ByBlock
 62
     2
100
AcDbLine
 10
268.6128009257341
 20
50.4019312706589
 30
0.0
 11
268.6128009257341
 21
46.40193127065891
 31
0.0
  0
INSERT
  5
7DD
330
18
100
AcDbEntity
  8
0
  6
ByBlock
 62
     2
100
AcDbBlockReference
  2
_OPEN
 10
268.6128009257341
 20
52.9019312706589
 30
0.0
 41
2.5
 42
2.5
 43
2.5
 50
90.0
  0
INSERT
  5
7DE
330
18
100
AcDbEntity
  8
0
  6
ByBlock
 62
     2
100
AcDbBlockReference
  2
_OPEN
 10
268.6128009257341
 20
43.90193127065891
 30
0.0
 41
2.5
 42
2.5
 43
2.5
 50
270.0
  0
MTEXT
  5
7DF
330
18
100
AcDbEntity
  8
0
  6
ByBlock
 62
     6
100
AcDbMText
 10
266.737800925734
 20
48.40193127065891
 30
0.0
 40
2.5
 41
0.0
 71
     5
 72
     1
  1
\A1;9
  7
STYLE3
 11
0.0000000000000001
 21
1.0
 31
0.0
 73
     1
 44
1.0
  0
POINT
  5
7E0
330
18
100
AcDbEntity
  8
DEFPOINTS
  6
ByBlock
 62
     0
100
AcDbPoint
 10
279.4066331375439
 20
52.9019312706589
 30
0.0
  0
POINT
  5
7E1
330
18
100
AcDbEntity
  8
DEFPOINTS
  6
ByBlock
 62
     0
100
AcDbPoint
 10
282.4066331375438
 20
43.90193127065891
 30
0.0
  0
POINT
  5
7E2
330
18
100
AcDbEntity
  8
DEFPOINTS
  6
ByBlock
 62
     0
100
AcDbPoint
 10
268.6128009257341
 20
43.90193127065891
 30
0.0
  0
LINE
  5
7E3
330
18
100
AcDbEntity
  8
0
  6
ByBlock
 62
     2
100
AcDbLine
 10
279.4066331375439
 20
75.56119419792651
 30
0.0
 11
241.0234872058977
 21
75.56119419792651
 31
0.0
  0
LINE
  5
7E4
330
18
100
AcDbEntity
  8
0
  6
ByBlock
 62
     2
100
AcDbLine
 10
242.2734872058977
 20
127.0611941979264
 30
0.0
 11
242.2734872058977
 21
78.06119419792651
 31
0.0
  0
INSERT
  5
7E5
330
18
100
AcDbEntity
  8
0
  6
ByBlock
 62
     2
100
AcDbBlockReference
  2
_OPEN
 10
242.2734872058977
 20
129.5611941979265
 30
0.0
 41
2.5
 42
2.5
 43
2.5
 50
90.0
  0
INSERT
  5
7E6
330
18
100
AcDbEntity
  8
0
  6
ByBlock
 62
     2
100
AcDbBlockReference
  2
_OPEN
 10
242.2734872058977
 20
75.56119419792651
 30
0.0
 41
2.5
 42
2.5
 43
2.5
 50
270.0
  0
MTEXT
  5
7E7
330
18
100
AcDbEntity
  8
0
  6
ByBlock
 62
     6
100
AcDbMText
 10
240.3984872058977
 20
102.5611941979265
 30
0.0
 40
2.5
 41
0.0
 71
     5
 72
     1
  1
\A1;54
  7
STYLE3
 11
0.0000000000000001
 21
1.0
 31
0.0
 73
     1
 44
1.0
  0
POINT
  5
7E8
330
18
100
AcDbEntity
  8
DEFPOINTS
  6
ByBlock
 62
     0
100
AcDbPoint
 10
267.8066331375439
 20
129.5611941979265
 30
0.0
  0
POINT
  5
7E9
330
18
100
AcDbEntity
  8
DEFPOINTS
  6
ByBlock
 62
     0
100
AcDbPoint
 10
279.4066331375439
 20
75.56119419792651
 30
0.0
  0
POINT
  5
7EA
330
18
100
AcDbEntity
  8
DEFPOINTS
  6
ByBlock
 62
     0
100
AcDbPoint
 10
242.2734872058977
 20
75.56119419792651
 30
0.0
  0
LINE
  5
7EB
330
18
100
AcDbEntity
  8
0
  6
ByBlock
 62
     2
100
AcDbLine
 10
267.8066331375439
 20
241.5611941979265
 30
0.0
 11
241.0234872058977
 21
241.5611941979265
 31
0.0
  0
LINE
  5
7EC
330
18
100
AcDbEntity
  8
0
  6
ByBlock
 62
     2
100
AcDbLine
 10
267.8066331375439
 20
129.5611941979265
 30
0.0
 11
241.0234872058977
 21
129.5611941979265
 31
0.0
  0
LINE
  5
7ED
330
18
100
AcDbEntity
  8
0
  6
ByBlock
 62
     2
100
AcDbLine
 10
242.2734872058977
 20
239.0611941979265
 30
0.0
 11
242.2734872058977
 21
132.0611941979265
 31
0.0
  0
INSERT
  5
7EE
330
18
100
AcDbEntity
  8
0
  6
ByBlock
 62
     2
100
AcDbBlockReference
  2
_OPEN
 10
242.2734872058977
 20
241.5611941979265
 30
0.0
 41
2.5
 42
2.5
 43
2.5
 50
90.0
  0
INSERT
  5
7EF
330
18
100
AcDbEntity
  8
0
  6
ByBlock
 62
     2
100
AcDbBlockReference
  2
_OPEN
 10
242.2734872058977
 20
129.5611941979265
 30
0.0
 41
2.5
 42
2.5
 43
2.5
 50
270.0
  0
MTEXT
  5
7F0
330
18
100
AcDbEntity
  8
0
  6
ByBlock
 62
     6
100
AcDbMText
 10
240.3984872058977
 20
185.5611941979265
 30
0.0
 40
2.5
 41
0.0
 71
     5
 72
     1
  1
\A1;φ112
  7
STYLE3
 11
0.0000000000000001
 21
1.0
 31
0.0
 73
     1
 44
1.0
  0
POINT
  5
7F1
330
18
100
AcDbEntity
  8
DEFPOINTS
  6
ByBlock
 62
     0
100
AcDbPoint
 10
267.8066331375439
 20
241.5611941979265
 30
0.0
  0
POINT
  5
7F2
330
18
100
AcDbEntity
  8
DEFPOINTS
  6
ByBlock
 62
     0
100
AcDbPoint
 10
267.8066331375439
 20
129.5611941979265
 30
0.0
  0
POINT
  5
7F3
330
18
100
AcDbEntity
  8
DEFPOINTS
  6
ByBlock
 62
     0
100
AcDbPoint
 10
242.2734872058977
 20
129.5611941979265
 30
0.0
  0
LINE
  5
7F4
330
18
100
AcDbEntity
  8
0
  6
ByBlock
 62
     2
100
AcDbLine
 10
66.54592193979692
 20
272.0611941979265
 30
0.0
 11
56.65954774702822
 21
272.0611941979265
 31
0.0
  0
LINE
  5
7F5
330
18
100
AcDbEntity
  8
0
  6
ByBlock
 62
     2
100
AcDbLine
 10
66.54592193979692
 20
43.90193127065891
 30
0.0
 11
56.65954774702822
 21
43.90193127065891
 31
0.0
  0
LINE
  5
7F6
330
18
100
AcDbEntity
  8
0
  6
ByBlock
 62
     2
100
AcDbLine
 10
57.90954774702822
 20
269.5611941979265
 30
0.0
 11
57.90954774702822
 21
46.40193127065891
 31
0.0
  0
INSERT
  5
7F7
330
18
100
AcDbEntity
  8
0
  6
ByBlock
 62
     2
100
AcDbBlockReference
  2
_OPEN
 10
57.90954774702822
 20
272.0611941979265
 30
0.0
 41
2.5
 42
2.5
 43
2.5
 50
90.0
  0
INSERT
  5
7F8
330
18
100
AcDbEntity
  8
0
  6
ByBlock
 62
     2
100
AcDbBlockReference
  2
_OPEN
 10
57.90954774702822
 20
43.90193127065891
 30
0.0
 41
2.5
 42
2.5
 43
2.5
 50
270.0
  0
MTEXT
  5
7F9
330
18
100
AcDbEntity
  8
0
  6
ByBlock
 62
     6
100
AcDbMText
 10
56.03454774702822
 20
165.9924921393385
 30
0.0
 40
2.5
 41
0.0
 71
     5
 72
     1
  1
\A1;288
  7
STYLE3
 11
0.0000000000000001
 21
1.0
 31
0.0
 73
     1
 44
1.0
  0
POINT
  5
7FA
330
18
100
AcDbEntity
  8
DEFPOINTS
  6
ByBlock
 62
     0
100
AcDbPoint
 10
66.54592193979692
 20
272.0611941979265
 30
0.0
  0
POINT
  5
7FB
330
18
100
AcDbEntity
  8
DEFPOINTS
  6
ByBlock
 62
     0
100
AcDbPoint
 10
66.54592193979692
 20
43.90193127065891
 30
0.0
  0
POINT
  5
7FC
330
18
100
AcDbEntity
  8
DEFPOINTS
  6
ByBlock
 62
     0
100
AcDbPoint
 10
57.90954774702822
 20
43.90193127065891
 30
0.0
  0
LINE
  5
7FD
330
18
100
AcDbEntity
  8
0
  6
ByBlock
 62
     2
100
AcDbLine
 10
138.6883387865155
 20
43.90193127065891
 30
0.0
 11
66.54592193979692
 21
43.90193127065892
 31
0.0
  0
LINE
  5
7FE
330
18
100
AcDbEntity
  8
0
  6
ByBlock
 62
     2
100
AcDbLine
 10
67.79592193979692
 20
183.0611941979265
 30
0.0
 11
67.79592193979692
 21
46.40193127065892
 31
0.0
  0
MTEXT
  5
7FF
330
18
100
AcDbEntity
  8
0
  6
ByBlock
 62
     6
100
AcDbMText
 10
65.92092193979692
 20
118.1616473167474
 30
0.0
 40
2.5
 41
0.0
 71
     5
 72
     1
  1
\A1;201.5
  7
STYLE3
 11
0.0000000000000001
 21
1.0
 31
0.0
 73
     1
 44
1.0
  0
INSERT
  5
800
330
18
100
AcDbEntity
  8
0
  6
ByBlock
 62
     2
100
AcDbBlockReference
  2
_OPEN
 10
67.79592193979692
 20
185.5611941979265
 30
0.0
 41
2.5
 42
2.5
 43
2.5
 50
90.0
  0
INSERT
  5
801
330
18
100
AcDbEntity
  8
0
  6
ByBlock
 62
     2
100
AcDbBlockReference
  2
_OPEN
 10
67.79592193979692
 20
43.90193127065892
 30
0.0
 41
2.5
 42
2.5
 43
2.5
 50
270.0
  0
POINT
  5
802
330
18
100
AcDbEntity
  8
DEFPOINTS
  6
ByBlock
 62
     0
100
AcDbPoint
 10
74.28695888830702
 20
185.5611941979265
 30
0.0
  0
POINT
  5
803
330
18
100
AcDbEntity
  8
DEFPOINTS
  6
ByBlock
 62
     0
100
AcDbPoint
 10
138.6883387865155
 20
43.90193127065891
 30
0.0
  0
POINT
  5
804
330
18
100
AcDbEntity
  8
DEFPOINTS
  6
ByBlock
 62
     0
100
AcDbPoint
 10
67.79592193979692
 20
43.90193127065892
 30
0.0
  0
LINE
  5
805
330
18
100
AcDbEntity
  8
ﾊｯﾁﾝｸ
100
AcDbLine
 10
136.1883387865155
 20
52.29480237517927
 30
0.0
 11
136.5954676819951
 21
52.70193127065894
 31
0.0
  0
LINE
  5
806
330
18
100
AcDbEntity
  8
ﾊｯﾁﾝｸ
100
AcDbLine
 10
136.1883387865155
 20
50.94776395701889
 30
0.0
 11
137.9425061001555
 21
52.70193127065887
 31
0.0
  0
LINE
  5
807
330
18
100
AcDbEntity
  8
ﾊｯﾁﾝｸ
100
AcDbLine
 10
136.1895445183158
 20
49.60193127065891
 30
0.0
 11
138.6883387865155
 21
52.10072553885858
 31
0.0
  0
LINE
  5
808
330
18
100
AcDbEntity
  8
ﾊｯﾁﾝｸ
100
AcDbLine
 10
137.5365829364762
 20
49.60193127065888
 30
0.0
 11
138.6883387865155
 21
50.75368712069816
 31
0.0
  0
LINE
  5
809
330
18
100
AcDbEntity
  8
ﾊｯﾁﾝｸ
100
AcDbLine
 10
136.2823867107009
 20
49.60193127065888
 30
0.0
 11
136.1883387865155
 21
49.69597919484434
 31
0.0
  0
LINE
  5
80A
330
18
100
AcDbEntity
  8
ﾊｯﾁﾝｸ
100
AcDbLine
 10
137.6294251288613
 20
49.60193127065888
 30
0.0
 11
136.1883387865155
 21
51.04301761300471
 31
0.0
  0
LINE
  5
80B
330
18
100
AcDbEntity
  8
ﾊｯﾁﾝｸ
100
AcDbLine
 10
138.6883387865155
 20
49.89005603116507
 30
0.0
 11
136.1883387865155
 21
52.39005603116507
 31
0.0
  0
LINE
  5
80C
330
18
100
AcDbEntity
  8
ﾊｯﾁﾝｸ
100
AcDbLine
 10
138.6883387865155
 20
51.23709444932543
 30
0.0
 11
137.223501965182
 21
52.70193127065889
 31
0.0
  0
LINE
  5
80D
330
18
100
AcDbEntity
  8
ﾊｯﾁﾝｸ
100
AcDbLine
 10
138.6883387865155
 20
52.58413286748575
 30
0.0
 11
138.5705403833424
 21
52.70193127065886
 31
0.0
  0
LINE
  5
80E
330
18
100
AcDbEntity
  8
0
  6
ByBlock
 62
     2
100
AcDbLine
 10
135.6883387865155
 20
67.01055586216864
 30
0.0
 11
135.6883387865155
 21
69.97103440211049
 31
0.0
  0
LINE
  5
80F
330
18
100
AcDbEntity
  8
0
  6
ByBlock
 62
     2
100
AcDbLine
 10
141.6883387865155
 20
68.72103440211049
 30
0.0
 11
141.6883387865155
 21
69.97103440211049
 31
0.0
  0
LINE
  5
810
330
18
100
AcDbEntity
  8
0
  6
ByBlock
 62
     2
100
AcDbLine
 10
133.1883387865155
 20
68.72103440211049
 30
0.0
 11
130.6883387865155
 21
68.72103440211049
 31
0.0
  0
LINE
  5
811
330
18
100
AcDbEntity
  8
0
  6
ByBlock
 62
     2
100
AcDbLine
 10
144.1883387865155
 20
68.72103440211049
 30
0.0
 11
146.6883387865155
 21
68.72103440211049
 31
0.0
  0
LINE
  5
812
330
18
100
AcDbEntity
  8
0
  6
ByBlock
 62
     2
100
AcDbLine
 10
135.6883387865155
 20
68.72103440211049
 30
0.0
 11
141.6883387865155
 21
68.72103440211049
 31
0.0
  0
INSERT
  5
813
330
18
100
AcDbEntity
  8
0
  6
ByBlock
 62
     2
100
AcDbBlockReference
  2
_OPEN
 10
135.6883387865155
 20
68.72103440211049
 30
0.0
 41
2.5
 42
2.5
 43
2.5
  0
INSERT
  5
814
330
18
100
AcDbEntity
  8
0
  6
ByBlock
 62
     2
100
AcDbBlockReference
  2
_OPEN
 10
141.6883387865155
 20
68.72103440211049
 30
0.0
 41
2.5
 42
2.5
 43
2.5
 50
180.0
  0
MTEXT
  5
815
330
18
100
AcDbEntity
  8
0
  6
ByBlock
 62
     6
100
AcDbMText
 10
138.6883387865155
 20
70.59603440211049
 30
0.0
 40
2.5
 41
0.0
 71
     5
 72
     1
  1
\A1;φ6
  7
STYLE3
 73
     1
 44
1.0
  0
POINT
  5
816
330
18
100
AcDbEntity
  8
DEFPOINTS
  6
ByBlock
 62
     0
100
AcDbPoint
 10
135.6883387865155
 20
67.01055586216864
 30
0.0
  0
POINT
  5
817
330
18
100
AcDbEntity
  8
DEFPOINTS
  6
ByBlock
 62
     0
100
AcDbPoint
 10
141.6883387865155
 20
68.72103440211049
 30
0.0
  0
POINT
  5
818
330
18
100
AcDbEntity
  8
DEFPOINTS
  6
ByBlock
 62
     0
100
AcDbPoint
 10
141.6883387865155
 20
68.72103440211049
 30
0.0
  0
LINE
  5
819
330
18
100
AcDbEntity
  8
0
  6
ByBlock
 62
     2
100
AcDbLine
 10
131.6883387865155
 20
102.3609750391877
 30
0.0
 11
131.6883387865155
 21
100.3779120833941
 31
0.0
  0
LINE
  5
81A
330
18
100
AcDbEntity
  8
0
  6
ByBlock
 62
     2
100
AcDbLine
 10
145.6883387865155
 20
101.6279120833941
 30
0.0
 11
145.6883387865155
 21
102.8779120833941
 31
0.0
  0
LINE
  5
81B
330
18
100
AcDbEntity
  8
0
  6
ByBlock
 62
     2
100
AcDbLine
 10
134.1883387865155
 20
101.6279120833941
 30
0.0
 11
143.1883387865155
 21
101.6279120833941
 31
0.0
  0
INSERT
  5
81C
330
18
100
AcDbEntity
  8
0
  6
ByBlock
 62
     2
100
AcDbBlockReference
  2
_OPEN
 10
131.6883387865155
 20
101.6279120833941
 30
0.0
 41
2.5
 42
2.5
 43
2.5
 50
180.0
  0
INSERT
  5
81D
330
18
100
AcDbEntity
  8
0
  6
ByBlock
 62
     2
100
AcDbBlockReference
  2
_OPEN
 10
145.6883387865155
 20
101.6279120833941
 30
0.0
 41
2.5
 42
2.5
 43
2.5
  0
MTEXT
  5
81E
330
18
100
AcDbEntity
  8
0
  6
ByBlock
 62
     6
100
AcDbMText
 10
138.6883387865155
 20
103.5029120833941
 30
0.0
 40
2.5
 41
0.0
 71
     5
 72
     1
  1
\A1;φ14.0
  7
STYLE3
 73
     1
 44
1.0
  0
POINT
  5
81F
330
18
100
AcDbEntity
  8
DEFPOINTS
  6
ByBlock
 62
     0
100
AcDbPoint
 10
131.6883387865155
 20
102.3609750391877
 30
0.0
  0
POINT
  5
820
330
18
100
AcDbEntity
  8
DEFPOINTS
  6
ByBlock
 62
     0
100
AcDbPoint
 10
145.6883387865155
 20
101.6279120833941
 30
0.0
  0
POINT
  5
821
330
18
100
AcDbEntity
  8
DEFPOINTS
  6
ByBlock
 62
     0
100
AcDbPoint
 10
145.6883387865155
 20
101.6279120833941
 30
0.0
  0
LINE
  5
822
330
18
100
AcDbEntity
  8
0
  6
ByBlock
 62
     2
100
AcDbLine
 10
138.6883387865155
 20
272.0611941979265
 30
0.0
 11
66.54592193979692
 21
272.0611941979265
 31
0.0
  0
LINE
  5
823
330
18
100
AcDbEntity
  8
0
  6
ByBlock
 62
     2
100
AcDbLine
 10
74.28695888830702
 20
185.5611941979265
 30
0.0
 11
66.54592193979692
 21
185.5611941979265
 31
0.0
  0
LINE
  5
824
330
18
100
AcDbEntity
  8
0
  6
ByBlock
 62
     2
100
AcDbLine
 10
67.79592193979692
 20
269.5611941979265
 30
0.0
 11
67.79592193979692
 21
188.0611941979265
 31
0.0
  0
INSERT
  5
825
330
18
100
AcDbEntity
  8
0
  6
ByBlock
 62
     2
100
AcDbBlockReference
  2
_OPEN
 10
67.79592193979692
 20
272.0611941979265
 30
0.0
 41
2.5
 42
2.5
 43
2.5
 50
90.0
  0
INSERT
  5
826
330
18
100
AcDbEntity
  8
0
  6
ByBlock
 62
     2
100
AcDbBlockReference
  2
_OPEN
 10
67.79592193979692
 20
185.5611941979265
 30
0.0
 41
2.5
 42
2.5
 43
2.5
 50
270.0
  0
MTEXT
  5
827
330
18
100
AcDbEntity
  8
0
  6
ByBlock
 62
     6
100
AcDbMText
 10
65.92092193979692
 20
228.8111941979265
 30
0.0
 40
2.5
 41
0.0
 71
     5
 72
     1
  1
\A1;86.5
  7
STYLE3
 11
0.0000000000000001
 21
1.0
 31
0.0
 73
     1
 44
1.0
  0
POINT
  5
828
330
18
100
AcDbEntity
  8
DEFPOINTS
  6
ByBlock
 62
     0
100
AcDbPoint
 10
138.6883387865155
 20
272.0611941979265
 30
0.0
  0
POINT
  5
829
330
18
100
AcDbEntity
  8
DEFPOINTS
  6
ByBlock
 62
     0
100
AcDbPoint
 10
74.28695888830702
 20
185.5611941979265
 30
0.0
  0
POINT
  5
82A
330
18
100
AcDbEntity
  8
DEFPOINTS
  6
ByBlock
 62
     0
100
AcDbPoint
 10
67.79592193979692
 20
185.5611941979265
 30
0.0
  0
POINT
  5
831
330
18
100
AcDbEntity
  8
DEFPOINTS
  6
ByBlock
 62
     0
100
AcDbPoint
 10
88.18833878651549
 20
185.5611941979265
 30
0.0
  0
POINT
  5
832
330
18
100
AcDbEntity
  8
DEFPOINTS
  6
ByBlock
 62
     0
100
AcDbPoint
 10
189.1883387865155
 20
185.5611941979265
 30
0.0
  0
HATCH
  5
834
330
18
100
AcDbEntity
  8
針
100
AcDbHatch
 10
0.0
 20
0.0
 30
0.0
210
0.0
220
0.0
230
1.0
  2
SOLID
 70
     1
 71
     0
 91
        7
 92
        7
 72
     1
 73
     1
 93
        5
 10
125.8419606304184
 20
187.9923292666668
 42
0.0
 10
125.7983387865156
 20
192.5811941979265
 42
0.0
 10
125.6983387865155
 20
192.5811941979266
 42
0.0
 10
125.6983387865155
 20
187.3311941979265
 42
-0.1411355954995574
 10
126.3100193281273
 20
187.1550252484753
 42
-0.2554624148390979
 97
        0
 92
        7
 72
     1
 73
     1
 93
        5
 10
125.6983387865155
 20
192.5811941979265
 42
0.0
 10
125.5983387865148
 20
192.5811941979265
 42
0.0
 10
125.5547169426124
 20
187.9923292666667
 42
-0.2554624148390825
 10
125.0866582449037
 20
187.1550252484753
 42
-0.141135595499561
 10
125.6983387865155
 20
187.3311941979265
 42
0.0
 97
        0
 92
        7
 72
     1
 73
     1
 93
        4
 10
125.6983387865155
 20
187.3311941979265
 42
0.0
 10
125.6983387865155
 20
186.9311941979266
 42
-0.4142135623730951
 10
126.4483387865155
 20
186.1811941979265
 42
0.0
 10
126.8483387865154
 20
186.1811941979265
 42
0.4142135623730835
 97
        0
 92
        7
 72
     1
 73
     1
 93
        4
 10
126.8483387865154
 20
186.1811941979265
 42
0.0
 10
126.4483387865155
 20
186.1811941979265
 42
-0.4142135623730951
 10
125.6983387865155
 20
185.4311941979266
 42
0.0
 10
125.6983387865155
 20
185.0311941979266
 42
0.4142135623730835
 97
        0
 92
        7
 72
     1
 73
     1
 93
        4
 10
124.9483387865155
 20
186.1811941979265
 42
0.0
 10
124.5483387865155
 20
186.1811941979265
 42
0.4142135623730835
 10
125.6983387865155
 20
185.0311941979266
 42
0.0
 10
125.6983387865155
 20
185.4311941979266
 42
-0.4142135623730951
 97
        0
 92
        7
 72
     1
 73
     1
 93
        4
 10
125.6983387865155
 20
186.9311941979266
 42
0.0
 10
125.6983387865155
 20
187.3311941979265
 42
0.4142135623730835
 10
124.5483387865155
 20
186.1811941979265
 42
0.0
 10
124.9483387865155
 20
186.1811941979265
 42
-0.4142135623730951
 97
        0
 92
      137
 93
        4
 72
     1
 10
125.1271698252511
 20
189.9265148223557
 11
126.2938364919177
 21
189.9265148223557
 72
     1
 10
126.2938364919177
 20
189.9265148223557
 11
126.2938364919177
 21
191.4265148223558
 72
     1
 10
126.2938364919177
 20
191.4265148223558
 11
125.1271698252511
 21
191.4265148223558
 72
     1
 10
125.1271698252511
 20
191.4265148223558
 11
125.1271698252511
 21
189.9265148223557
 97
        0
 75
     0
 76
     1
 47
0.0222682335681739
 98
        6
 10
125.8964485556142
 20
187.4663305258632
 10
125.5844211823289
 20
187.4663305258632
 10
126.3867781379929
 20
186.8428195942806
 10
126.5427924216868
 20
185.7294081117088
 10
125.0940904058478
 20
185.5289938601407
 10
124.8935014654576
 20
186.6424060023736
450
        0
451
        0
460
0.0
461
0.0
452
        0
462
0.0
453
        0
470

  0
CIRCLE
  5
835
330
18
100
AcDbEntity
  8
外形線
100
AcDbCircle
 10
125.6983387865155
 20
186.1811941979265
 30
0.0
 40
0.5
  0
CIRCLE
  5
836
330
18
100
AcDbEntity
  8
針
100
AcDbCircle
 10
125.6983387865155
 20
186.1811941979265
 30
0.0
 40
1.149999999999999
  0
CIRCLE
  5
837
330
18
100
AcDbEntity
  8
針
100
AcDbCircle
 10
125.6983387865155
 20
186.1811941979265
 30
0.0
 40
0.75
  0
ARC
  5
838
330
18
100
AcDbEntity
  8
針
100
AcDbCircle
 10
124.5547621217629
 20
188.0018348576479
 30
0.0
 40
1.0
100
AcDbArc
 50
302.1336579706784
 51
359.4553615528732
  0
ARC
  5
839
330
18
100
AcDbEntity
  8
針
100
AcDbCircle
 10
126.8419154512679
 20
188.0018348576481
 30
0.0
 40
1.0
100
AcDbArc
 50
180.5446384471343
 51
237.8663420293291
  0
LINE
  5
83A
330
18
100
AcDbEntity
  8
針
100
AcDbLine
 10
125.8419606304184
 20
187.9923292666667
 30
0.0
 11
125.7983387865155
 21
192.5811941979265
 31
0.0
  0
LINE
  5
83B
330
18
100
AcDbEntity
  8
針
100
AcDbLine
 10
125.5547169426124
 20
187.9923292666667
 30
0.0
 11
125.5983387865148
 21
192.5811941979265
 31
0.0
  0
LINE
  5
83C
330
18
100
AcDbEntity
  8
針
100
AcDbLine
 10
125.5983387865148
 20
192.5811941979265
 30
0.0
 11
125.7983387865155
 21
192.5811941979265
 31
0.0
  0
HATCH
  5
83D
330
18
100
AcDbEntity
  8
ROGO
 62
     4
100
AcDbHatch
 10
0.0
 20
0.0
 30
0.0
210
0.0
220
0.0
230
1.0
  2
SOLID
 70
     1
 71
     1
 91
        1
 92
        7
 72
     0
 73
     1
 93
       11
 10
146.5717707078388
 20
167.5611941979265
 10
147.6661199607589
 20
167.5611941979265
 10
148.0526448569606
 20
168.3363643955497
 10
148.4391697531623
 20
167.5611941979265
 10
149.5334950626008
 20
167.5611941979265
 10
148.79305798804
 20
169.0461302500541
 10
150.5920336575815
 20
170.5310663021819
 10
149.497708348143
 20
170.5310663021818
 10
148.9853127876882
 20
170.2068167034952
 10
149.1469941098805
 20
170.5310663021818
 10
148.0526448569606
 20
170.5310663021818
 97
       11
330
88B
330
88E
330
88D
330
88C
330
842
330
83F
330
888
330
887
330
889
330
886
330
88A
 75
     0
 76
     1
 47
0.0514683685270805
 98
        1
 10
147.9584612819338
 20
169.2569332959133
450
        0
451
        0
460
0.0
461
0.0
452
        0
462
0.0
453
        0
470

  0
HATCH
  5
83E
330
18
100
AcDbEntity
  8
ROGO
 62
     4
100
AcDbHatch
 10
0.0
 20
0.0
 30
0.0
210
0.0
220
0.0
230
1.0
  2
SOLID
 70
     1
 71
     1
 91
        1
 92
        5
 93
        8
 72
     4
 94
        3
 73
     0
 74
     0
 95
       26
 96
       22
 40
0.0
 40
0.0
 40
0.0
 40
0.0
 40
0.3447969518849593
 40
0.5756118128073928
 40
0.7420481243774421
 40
0.8663207328666773
 40
1.027508828425037
 40
1.145160424384914
 40
1.357611784531618
 40
1.530544137360957
 40
1.648165846704565
 40
1.76349995492273
 40
1.96981025219693
 40
2.115696256521843
 40
2.194267141058169
 40
2.305874761592818
 40
2.386469128619501
 40
2.50322375804292
 40
2.569296779248671
 40
2.713079084812022
 40
2.77873133455758
 40
2.77873133455758
 40
2.77873133455758
 40
2.77873133455758
 10
145.7512003554945
 20
170.5310663021819
 10
145.6341709426173
 20
170.5240841267252
 10
145.4387993996562
 20
170.5124279254451
 10
145.2242826339853
 20
170.3821112940396
 10
145.0671150929552
 20
170.3063509312911
 10
144.955023393298
 20
170.2033611724929
 10
144.8728597230631
 20
170.0969802749138
 10
144.7692769921326
 20
169.970228215453
 10
144.684808234938
 20
169.8226305713723
 10
144.6417934320856
 20
169.6599522364332
 10
144.6036913279731
 20
169.5302966595968
 10
144.5754341696988
 20
169.3858124396109
 10
144.5826235907137
 20
169.2297186551353
 10
144.5929191706402
 20
169.0847467392853
 10
144.6388864314583
 20
168.981258496641
 10
144.6912349993252
 20
168.9075819991686
 10
144.7553351037682
 20
168.8264355053314
 10
144.8254746355709
 20
168.7726924452254
 10
144.8834857535582
 20
168.675333280397
 10
144.9850322586279
 20
168.6629095488059
 10
145.0495792571242
 20
168.638182614952
 10
145.0698130512054
 20
168.6304313685809
 72
     1
 10
145.0698130512055
 20
168.6304313685809
 11
146.7068549395836
 21
168.6304313685808
 72
     1
 10
146.7068549395836
 20
168.6304313685808
 11
147.0594637331422
 21
169.3375833033526
 72
     1
 10
147.0594637331422
 20
169.3375833033526
 11
145.8441164822689
 21
169.3375833033526
 72
     4
 94
        3
 73
     0
 74
     0
 95
       16
 96
       12
 40
0.0
 40
0.0
 40
0.0
 40
0.0
 40
0.1041277633515977
 40
0.2093295289405457
 40
0.272077653931076
 40
0.3322401914407023
 40
0.3983129501280422
 40
0.4444532368926476
 40
0.4882363645573351
 40
0.5770222615474103
 40
0.7588011886649772
 40
0.7588011886649772
 40
0.7588011886649772
 40
0.7588011886649772
 10
145.8441164822689
 20
169.3375833033526
 10
145.8074573262318
 20
169.3483689645784
 10
145.7337609015934
 20
169.3700515332906
 10
145.7275931059633
 20
169.4751606608742
 10
145.7359958351843
 20
169.5500595153279
 10
145.7711864839292
 20
169.6045902551819
 10
145.8138788445936
 20
169.6442685432394
 10
145.8297751039276
 20
169.6959433094916
 10
145.8765007099397
 20
169.7349642230891
 10
145.9593577292695
 20
169.8005529279864
 10
146.0509832492478
 20
169.8145218566452
 10
146.1125418379268
 20
169.8239068787852
 72
     1
 10
146.1125418379269
 20
169.8239068787852
 11
147.3019603746422
 21
169.8239068787852
 72
     1
 10
147.3019603746422
 20
169.8239068787852
 11
147.6545729022711
 21
170.5310663021818
 72
     1
 10
147.6545729022711
 20
170.5310663021818
 11
145.7512003554945
 21
170.5310663021819
 97
        8
330
840
330
864
330
870
330
869
330
884
330
883
330
885
330
841
 75
     0
 76
     1
 47
0.0514683685270805
 98
        1
 10
146.0796387356501
 20
170.1830535812184
450
        0
451
        0
460
0.0
461
0.0
452
        0
462
0.0
453
        0
470

  0
LINE
  5
83F
102
{ACAD_REACTORS
330
83D
330
848
102
}
330
18
100
AcDbEntity
  8
ROGO
 62
     4
100
AcDbLine
 10
127.5630415431506
 20
167.5611941979265
 30
0.0
 11
147.6661199607589
 21
167.5611941979265
 31
0.0
  0
LINE
  5
840
102
{ACAD_REACTORS
330
83E
102
}
330
18
100
AcDbEntity
  8
ROGO
 62
     4
100
AcDbLine
 10
145.751200355495
 20
170.5310663021819
 30
0.0
 11
147.6545729022711
 21
170.5310663021819
 31
0.0
  0
LINE
  5
841
102
{ACAD_REACTORS
330
83E
102
}
330
18
100
AcDbEntity
  8
ROGO
 62
     4
100
AcDbLine
 10
147.6545729022711
 20
170.5310663021819
 30
0.0
 11
147.3019603746422
 21
169.8239068787852
 31
0.0
  0
LINE
  5
842
102
{ACAD_REACTORS
330
83D
102
}
330
18
100
AcDbEntity
  8
ROGO
 62
     4
100
AcDbLine
 10
148.0526448569606
 20
170.5310663021819
 30
0.0
 11
146.5717707078388
 21
167.5611941979265
 31
0.0
  0
HATCH
  5
843
330
18
100
AcDbEntity
  8
ROGO
 62
     4
100
AcDbHatch
 10
0.0
 20
0.0
 30
0.0
210
0.0
220
0.0
230
1.0
  2
SOLID
 70
     1
 71
     0
 91
        1
 92
        7
 72
     0
 73
     1
 93
        4
 10
146.720206226536
 20
167.858879525556
 10
129.0782463151334
 20
167.858879525556
 10
128.9435650286925
 20
167.5611941979264
 10
146.5717707078388
 20
167.5611941979264
 97
        0
 75
     0
 76
     1
 47
0.0514683685270805
 98
        1
 10
140.2177125337219
 20
167.7801465405472
450
        0
451
        0
460
0.0
461
0.0
452
        0
462
0.0
453
        0
470

  0
HATCH
  5
844
330
18
100
AcDbEntity
  8
ROGO
 62
     4
100
AcDbHatch
 10
0.0
 20
0.0
 30
0.0
210
0.0
220
0.0
230
1.0
  2
SOLID
 70
     1
 71
     1
 91
        2
 92
        7
 72
     0
 73
     1
 93
        8
 10
137.1590982502492
 20
170.5310663021818
 10
136.0606055955708
 20
170.5310663021819
 10
134.690020806542
 20
168.6304313685808
 10
135.7426323650722
 20
168.6304313685808
 10
136.0035832288243
 20
168.9923005003343
 10
137.2161206169958
 20
168.9923005003343
 10
137.4770714807478
 20
168.6304313685809
 10
138.5296830392781
 20
168.6304313685809
 97
        8
330
846
330
84E
330
853
330
84F
330
845
330
867
330
86D
330
866
 92
       22
 72
     0
 73
     1
 93
        3
 10
136.9408878720662
 20
169.3739747856989
 10
136.2788159737539
 20
169.3739747856989
 10
136.60985192291
 20
169.8330332068052
 97
        3
330
872
330
871
330
873
 75
     0
 76
     1
 47
0.0514683685270805
 98
        2
 10
137.2867494327577
 20
169.5572965498862
 10
137.2867494327577
 20
169.5572965498862
450
        0
451
        0
460
0.0
461
0.0
452
        0
462
0.0
453
        0
470

  0
LINE
  5
845
102
{ACAD_REACTORS
330
844
102
}
330
18
100
AcDbEntity
  8
ROGO
 62
     4
100
AcDbLine
 10
136.0035832288243
 20
168.9923005003343
 30
0.0
 11
137.2161206169958
 21
168.9923005003343
 31
0.0
  0
LINE
  5
846
102
{ACAD_REACTORS
330
844
102
}
330
18
100
AcDbEntity
  8
ROGO
 62
     4
100
AcDbLine
 10
136.0606055955708
 20
170.5310663021819
 30
0.0
 11
137.1590982502492
 21
170.5310663021819
 31
0.0
  0
LINE
  5
847
330
18
100
AcDbEntity
  8
ROGO
 62
     4
100
AcDbLine
 10
129.0576015219711
 20
167.858879525556
 30
0.0
 11
146.720206226536
 21
167.858879525556
 31
0.0
  0
HATCH
  5
848
330
18
100
AcDbEntity
  8
ROGO
 62
     4
100
AcDbHatch
 10
0.0
 20
0.0
 30
0.0
210
0.0
220
0.0
230
1.0
  2
SOLID
 70
     1
 71
     1
 91
        2
 92
        5
 93
        6
 72
     1
 10
127.5630415431505
 20
167.5611941979265
 11
128.9435650286925
 21
167.5611941979265
 72
     1
 10
128.9435650286925
 20
167.5611941979265
 11
129.4273182549628
 21
168.6304313685809
 72
     1
 10
129.4273182549628
 20
168.6304313685809
 11
130.7178245670543
 21
168.6304313685808
 72
     4
 94
        3
 73
     0
 74
     0
 95
       18
 96
       14
 40
0.108740278791501
 40
0.108740278791501
 40
0.108740278791501
 40
0.108740278791501
 40
0.6623149649549278
 40
1.384304701649787
 40
2.097394834876493
 40
2.774073369849618
 40
3.428974823686337
 40
4.005208313035923
 40
4.455173659284313
 40
4.720999734343524
 40
5.086034088486724
 40
5.569973738255373
 40
6.060470601257719
 40
6.060470601257719
 40
6.060470601257719
 40
6.060470601257719
 10
130.7178245670544
 20
168.6304313685809
 10
130.8086482692637
 20
168.6311077051908
 10
131.0179271365713
 20
168.6326661415484
 10
131.3107066343405
 20
168.7890753826668
 10
131.5883452508701
 20
168.9883293600263
 10
131.8119642691172
 20
169.2372764165243
 10
131.9512856548447
 20
169.5219047250506
 10
131.9728660971227
 20
169.7946948149122
 10
131.9596917673064
 20
170.0104683846373
 10
131.8655545636101
 20
170.1608679195259
 10
131.7676874529357
 20
170.3135080670718
 10
131.5882322652805
 20
170.4457306323152
 10
131.4411947235557
 20
170.5036637709293
 10
131.3664231430546
 20
170.5310663021819
 72
     1
 10
131.3664231430547
 20
170.5310663021818
 11
129.0325066402273
 21
170.5310663021819
 72
     1
 10
129.0325066402273
 20
170.5310663021819
 11
127.5630415431505
 21
167.5611941979265
 97
        6
330
84A
330
854
330
84B
330
83F
330
851
330
850
 92
       20
 93
        4
 72
     1
 10
129.7260084863396
 20
169.290624790673
 11
129.9546931685867
 21
169.7960853216613
 72
     1
 10
129.9546931685867
 20
169.7960853216613
 11
130.5423153381707
 21
169.7960853216613
 72
     4
 94
        3
 73
     0
 74
     0
 95
       15
 96
       11
 40
0.0
 40
0.0
 40
0.0
 40
0.0
 40
0.2228556115773003
 40
0.3244655125128763
 40
0.4397995144501905
 40
0.5183703989865159
 40
0.6426310677761338
 40
0.7170598139568773
 40
0.8447551528371224
 40
0.8873202929638775
 40
0.8873202929638775
 40
0.8873202929638775
 40
0.8873202929638775
 10
130.5423153381707
 20
169.7960853216613
 10
130.6260155842043
 20
169.796468713466
 10
130.7478785385832
 20
169.7970269108457
 10
130.8145175423061
 20
169.6462820838641
 10
130.7846467634788
 20
169.549225931194
 10
130.7470967599853
 20
169.4495795126182
 10
130.680737399298
 20
169.3818682683142
 10
130.5916734174056
 20
169.3166509255104
 10
130.5075036983345
 20
169.3087560741344
 10
130.4527607444486
 20
169.2942510487539
 10
130.4390749994261
 20
169.290624790673
 72
     1
 10
130.4390749994261
 20
169.290624790673
 11
129.7260084863396
 21
169.290624790673
 97
        4
330
857
330
855
330
859
330
856
 75
     0
 76
     1
 47
0.0514683685270805
 98
        2
 10
129.0449810618322
 20
169.607357260363
 10
129.0449810618322
 20
169.607357260363
450
        0
451
        0
460
0.0
461
0.0
452
        0
462
0.0
453
        0
470

  0
HATCH
  5
849
330
18
100
AcDbEntity
  8
ROGO
 62
     4
100
AcDbHatch
 10
0.0
 20
0.0
 30
0.0
210
0.0
220
0.0
230
1.0
  2
SOLID
 70
     1
 71
     1
 91
        1
 92
        1
 93
       12
 72
     1
 10
132.7452431026339
 20
170.5310663021819
 11
135.3159309211943
 21
170.5310663021819
 72
     1
 10
135.3159309211943
 20
170.5310663021819
 11
135.1005095574554
 21
170.0956875374181
 72
     1
 10
135.1005095574554
 20
170.0956875374181
 11
133.7494209998596
 21
170.0956875374181
 72
     1
 10
133.7494209998596
 20
170.0956875374181
 11
133.5809882629059
 21
169.7552754460268
 72
     1
 10
133.5809882629059
 20
169.7552754460268
 11
134.9320768205017
 21
169.7552754460268
 72
     1
 10
134.9320768205017
 20
169.7552754460268
 11
134.759364827535
 21
169.406214736111
 72
     1
 10
134.759364827535
 20
169.4062147361111
 11
133.4082762699392
 21
169.406214736111
 72
     1
 10
133.4082762699392
 20
169.406214736111
 11
133.2398364023531
 21
169.0657882333082
 72
     1
 10
133.2398364023531
 20
169.0657882333082
 11
134.5909249599488
 21
169.0657882333082
 72
     1
 10
134.5909249599488
 20
169.0657882333082
 11
134.3755144321444
 21
168.6304313685809
 72
     1
 10
134.3755144321444
 20
168.6304313685809
 11
131.8048266135839
 21
168.6304313685809
 72
     1
 10
131.8048266135839
 20
168.6304313685809
 11
132.7452431026339
 21
170.5310663021819
 97
       12
330
858
330
85A
330
85C
330
85B
330
85D
330
860
330
85F
330
861
330
85E
330
84D
330
852
330
84C
 75
     0
 76
     1
 98
        1
 10
27.59205714856761
 20
39.1106653718505
450
        0
451
        0
460
0.0
461
0.0
452
        0
462
0.0
453
        0
470

  0
SPLINE
  5
84A
102
{ACAD_REACTORS
330
848
102
}
330
18
100
AcDbEntity
  8
ROGO
 62
     4
100
AcDbSpline
210
0.0
220
0.0
230
1.0
 70
     8
 71
     3
 72
    18
 73
    14
 74
     0
 42
0.0000000001
 43
0.0000000001
 40
0.1087402787915014
 40
0.1087402787915014
 40
0.1087402787915014
 40
0.1087402787915014
 40
0.5992371417938475
 40
1.083176791562496
 40
1.448211145705696
 40
1.714037220764907
 40
2.164002567013297
 40
2.740236056362883
 40
3.395137510199602
 40
4.071816045172726
 40
4.784906178399433
 40
5.506895915094292
 40
6.060470601257719
 40
6.060470601257719
 40
6.060470601257719
 40
6.060470601257719
 10
131.3664231430546
 20
170.5310663021819
 30
0.0
 10
131.4411947235557
 20
170.5036637709293
 30
0.0
 10
131.5882322652805
 20
170.4457306323152
 30
0.0
 10
131.7676874529357
 20
170.3135080670718
 30
0.0
 10
131.8655545636101
 20
170.1608679195259
 30
0.0
 10
131.9596917673064
 20
170.0104683846373
 30
0.0
 10
131.9728660971227
 20
169.7946948149122
 30
0.0
 10
131.9512856548447
 20
169.5219047250506
 30
0.0
 10
131.8119642691172
 20
169.2372764165243
 30
0.0
 10
131.5883452508701
 20
168.9883293600263
 30
0.0
 10
131.3107066343405
 20
168.7890753826668
 30
0.0
 10
131.0179271365713
 20
168.6326661415484
 30
0.0
 10
130.8086482692637
 20
168.6311077051908
 30
0.0
 10
130.7178245670544
 20
168.6304313685809
 30
0.0
  0
LINE
  5
84B
102
{ACAD_REACTORS
330
848
102
}
330
18
100
AcDbEntity
  8
ROGO
 62
     4
100
AcDbLine
 10
129.0325066402273
 20
170.5310663021819
 30
0.0
 11
127.5630415431505
 21
167.5611941979265
 31
0.0
  0
LINE
  5
84C
102
{ACAD_REACTORS
330
849
102
}
330
18
100
AcDbEntity
  8
ROGO
 62
     4
100
AcDbLine
 10
132.7452431026339
 20
170.5310663021819
 30
0.0
 11
131.8048266135839
 21
168.6304313685809
 31
0.0
  0
LINE
  5
84D
102
{ACAD_REACTORS
330
849
102
}
330
18
100
AcDbEntity
  8
ROGO
 62
     4
100
AcDbLine
 10
134.5909249599488
 20
169.0657882333082
 30
0.0
 11
134.3755144321444
 21
168.6304313685809
 31
0.0
  0
LINE
  5
84E
102
{ACAD_REACTORS
330
844
102
}
330
18
100
AcDbEntity
  8
ROGO
 62
     4
100
AcDbLine
 10
136.0606055955708
 20
170.5310663021819
 30
0.0
 11
134.690020806542
 21
168.6304313685809
 31
0.0
  0
LINE
  5
84F
102
{ACAD_REACTORS
330
844
102
}
330
18
100
AcDbEntity
  8
ROGO
 62
     4
100
AcDbLine
 10
136.0035832288243
 20
168.9923005003343
 30
0.0
 11
135.7426323650723
 21
168.630431368581
 31
0.0
  0
LINE
  5
850
102
{ACAD_REACTORS
330
848
102
}
330
18
100
AcDbEntity
  8
ROGO
 62
     4
100
AcDbLine
 10
130.7178245675017
 20
168.6304313685809
 30
0.0
 11
129.4273182549628
 21
168.6304313685809
 31
0.0
  0
LINE
  5
851
102
{ACAD_REACTORS
330
848
102
}
330
18
100
AcDbEntity
  8
ROGO
 62
     4
100
AcDbLine
 10
129.4273182549628
 20
168.6304313685809
 30
0.0
 11
128.9435650286925
 21
167.5611941979265
 31
0.0
  0
LINE
  5
852
102
{ACAD_REACTORS
330
849
102
}
330
18
100
AcDbEntity
  8
ROGO
 62
     4
100
AcDbLine
 10
131.8048266135839
 20
168.6304313685809
 30
0.0
 11
134.3755144321444
 21
168.6304313685809
 31
0.0
  0
LINE
  5
853
102
{ACAD_REACTORS
330
844
102
}
330
18
100
AcDbEntity
  8
ROGO
 62
     4
100
AcDbLine
 10
134.690020806542
 20
168.6304313685809
 30
0.0
 11
135.7426323650723
 21
168.6304313685809
 31
0.0
  0
LINE
  5
854
102
{ACAD_REACTORS
330
848
102
}
330
18
100
AcDbEntity
  8
ROGO
 62
     4
100
AcDbLine
 10
129.0325066402273
 20
170.5310663021819
 30
0.0
 11
131.3664231430546
 21
170.5310663021819
 31
0.0
  0
LINE
  5
855
102
{ACAD_REACTORS
330
848
102
}
330
18
100
AcDbEntity
  8
ROGO
 62
     4
100
AcDbLine
 10
130.5423153381707
 20
169.7960853216613
 30
0.0
 11
129.9546931685867
 21
169.7960853216613
 31
0.0
  0
LINE
  5
856
102
{ACAD_REACTORS
330
848
102
}
330
18
100
AcDbEntity
  8
ROGO
 62
     4
100
AcDbLine
 10
130.4390749994261
 20
169.290624790673
 30
0.0
 11
129.7260084863396
 21
169.290624790673
 31
0.0
  0
LINE
  5
857
102
{ACAD_REACTORS
330
848
102
}
330
18
100
AcDbEntity
  8
ROGO
 62
     4
100
AcDbLine
 10
129.9546931685867
 20
169.7960853216613
 30
0.0
 11
129.7260084863396
 21
169.290624790673
 31
0.0
  0
LINE
  5
858
102
{ACAD_REACTORS
330
849
102
}
330
18
100
AcDbEntity
  8
ROGO
 62
     4
100
AcDbLine
 10
132.7452431026339
 20
170.5310663021819
 30
0.0
 11
135.3159309211943
 21
170.5310663021819
 31
0.0
  0
SPLINE
  5
859
102
{ACAD_REACTORS
330
848
102
}
330
18
100
AcDbEntity
  8
ROGO
 62
     4
100
AcDbSpline
210
0.0
220
0.0
230
1.0
 70
     8
 71
     3
 72
    15
 73
    11
 74
     9
 42
0.0000000001
 43
0.0000000001
 44
0.0000000001
 40
0.0
 40
0.0
 40
0.0
 40
0.0
 40
0.2228556115773003
 40
0.3244655125128763
 40
0.4397995144501905
 40
0.5183703989865159
 40
0.6426310677761338
 40
0.7170598139568773
 40
0.8447551528371224
 40
0.8873202929638775
 40
0.8873202929638775
 40
0.8873202929638775
 40
0.8873202929638775
 10
130.5423153381707
 20
169.7960853216613
 30
0.0
 10
130.6260155842043
 20
169.796468713466
 30
0.0
 10
130.7478785385832
 20
169.7970269108457
 30
0.0
 10
130.8145175423061
 20
169.6462820838641
 30
0.0
 10
130.7846467634788
 20
169.549225931194
 30
0.0
 10
130.7470967599853
 20
169.4495795126182
 30
0.0
 10
130.680737399298
 20
169.3818682683142
 30
0.0
 10
130.5916734174056
 20
169.3166509255104
 30
0.0
 10
130.5075036983345
 20
169.3087560741344
 30
0.0
 10
130.4527607444486
 20
169.2942510487539
 30
0.0
 10
130.4390749994261
 20
169.290624790673
 30
0.0
 11
130.5423153381707
 21
169.7960853216613
 31
0.0
 11
130.7591202276302
 21
169.7445075791947
 31
0.0
 11
130.8004164818585
 21
169.6516679790509
 31
0.0
 11
130.7797686515705
 21
169.5381972819204
 31
0.0
 11
130.7487966093125
 21
169.4659884424672
 31
0.0
 11
130.6662041008557
 21
169.3731488423234
 31
0.0
 11
130.6042600163396
 21
169.3318866483501
 31
0.0
 11
130.4803712536545
 21
169.3009403391663
 31
0.0
 11
130.4390749994261
 21
169.290624790673
 31
0.0
  0
LINE
  5
85A
102
{ACAD_REACTORS
330
849
102
}
330
18
100
AcDbEntity
  8
ROGO
 62
     4
100
AcDbLine
 10
135.3159309211943
 20
170.5310663021819
 30
0.0
 11
135.1005095574554
 21
170.0956875374181
 31
0.0
  0
LINE
  5
85B
102
{ACAD_REACTORS
330
849
102
}
330
18
100
AcDbEntity
  8
ROGO
 62
     4
100
AcDbLine
 10
133.7494209998596
 20
170.0956875374181
 30
0.0
 11
133.5809882629059
 21
169.7552754460268
 31
0.0
  0
LINE
  5
85C
102
{ACAD_REACTORS
330
849
102
}
330
18
100
AcDbEntity
  8
ROGO
 62
     4
100
AcDbLine
 10
133.7494209998596
 20
170.0956875374181
 30
0.0
 11
135.1005095574554
 21
170.0956875374181
 31
0.0
  0
LINE
  5
85D
102
{ACAD_REACTORS
330
849
102
}
330
18
100
AcDbEntity
  8
ROGO
 62
     4
100
AcDbLine
 10
133.5809882629059
 20
169.7552754460268
 30
0.0
 11
134.9320768205017
 21
169.7552754460268
 31
0.0
  0
LINE
  5
85E
102
{ACAD_REACTORS
330
849
102
}
330
18
100
AcDbEntity
  8
ROGO
 62
     4
100
AcDbLine
 10
133.2398364023531
 20
169.0657882333082
 30
0.0
 11
134.5909249599488
 21
169.0657882333082
 31
0.0
  0
LINE
  5
85F
102
{ACAD_REACTORS
330
849
102
}
330
18
100
AcDbEntity
  8
ROGO
 62
     4
100
AcDbLine
 10
133.4082762699392
 20
169.406214736111
 30
0.0
 11
134.759364827535
 21
169.4062147361111
 31
0.0
  0
LINE
  5
860
102
{ACAD_REACTORS
330
849
102
}
330
18
100
AcDbEntity
  8
ROGO
 62
     4
100
AcDbLine
 10
134.9320768205017
 20
169.7552754460268
 30
0.0
 11
134.759364827535
 21
169.406214736111
 31
0.0
  0
LINE
  5
861
102
{ACAD_REACTORS
330
849
102
}
330
18
100
AcDbEntity
  8
ROGO
 62
     4
100
AcDbLine
 10
133.4082762699392
 20
169.406214736111
 30
0.0
 11
133.2398364023531
 21
169.0657882333082
 31
0.0
  0
HATCH
  5
862
330
18
100
AcDbEntity
  8
ROGO
 62
     4
100
AcDbHatch
 10
0.0
 20
0.0
 30
0.0
210
0.0
220
0.0
230
1.0
  2
SOLID
 70
     1
 71
     1
 91
        2
 92
        7
 72
     1
 73
     1
 93
        4
 10
143.2624545242094
 20
170.5310663021819
 42
0.0
 10
142.4939065246539
 20
170.5310663021819
 42
0.9597396185052327
 10
142.4939065246537
 20
168.6304313685809
 42
0.0
 10
143.3176857756633
 20
168.6304313685809
 42
0.971362765577285
 97
        4
330
882
330
86A
330
86F
330
86B
 92
       22
 72
     1
 73
     1
 93
        2
 10
143.1456009034955
 20
169.5697398652486
 42
0.0
 10
143.1342828311944
 20
169.4887652010822
 42
0.103417365020702
 97
        8
330
87A
330
880
330
87C
330
87F
330
87B
330
87E
330
879
330
87D
 75
     0
 76
     1
 47
0.0514683685270805
 98
        2
 10
143.4492870521226
 20
169.7575387192014
 10
143.4492870521226
 20
169.7575387192014
450
        0
451
        0
460
0.0
461
0.0
452
        0
462
0.0
453
        0
470

  0
HATCH
  5
863
330
18
100
AcDbEntity
  8
ROGO
 62
     4
100
AcDbHatch
 10
0.0
 20
0.0
 30
0.0
210
0.0
220
0.0
230
1.0
  2
SOLID
 70
     1
 71
     1
 91
        1
 92
        5
 93
        8
 72
     1
 10
141.1779455564801
 20
169.8239068787852
 11
141.530558084109
 21
170.5310663021819
 72
     1
 10
141.530558084109
 20
170.5310663021819
 11
139.6271855373326
 21
170.5310663021819
 72
     4
 94
        3
 73
     0
 74
     0
 95
       26
 96
       22
 40
0.0
 40
0.0
 40
0.0
 40
0.0
 40
0.3447969518849409
 40
0.5756118128073745
 40
0.7420481243774097
 40
0.8663207328666826
 40
1.02750882842502
 40
1.145160424384929
 40
1.357611784531601
 40
1.530544137360959
 40
1.64816584670452
 40
1.76349995492274
 40
1.96981025219694
 40
2.115696256521797
 40
2.194267141058186
 40
2.305874761592819
 40
2.386469128619472
 40
2.503223758042901
 40
2.569296779248652
 40
2.713079084811993
 40
2.77873133455757
 40
2.77873133455757
 40
2.77873133455757
 40
2.77873133455757
 10
139.6271855373323
 20
170.5310663021819
 10
139.5101561244551
 20
170.5240841267252
 10
139.314784581494
 20
170.5124279254451
 10
139.1002678158232
 20
170.3821112940396
 10
138.943100274793
 20
170.3063509312911
 10
138.8310085751359
 20
170.2033611724929
 10
138.748844904901
 20
170.0969802749138
 10
138.6452621739704
 20
169.970228215453
 10
138.5607934167759
 20
169.8226305713723
 10
138.5177786139235
 20
169.6599522364332
 10
138.479676509811
 20
169.5302966595969
 10
138.4514193515367
 20
169.3858124396108
 10
138.4586087725515
 20
169.2297186551354
 10
138.468904352478
 20
169.0847467392853
 10
138.5148716132962
 20
168.9812584966411
 10
138.567220181163
 20
168.9075819991686
 10
138.631320285606
 20
168.8264355053314
 10
138.7014598174087
 20
168.7726924452255
 10
138.759470935396
 20
168.675333280397
 10
138.8610174404658
 20
168.662909548806
 10
138.9255644389621
 20
168.638182614952
 10
138.9457982330433
 20
168.6304313685809
 72
     1
 10
138.9457982330433
 20
168.6304313685809
 11
140.5828401214215
 21
168.6304313685809
 72
     1
 10
140.5828401214215
 20
168.6304313685809
 11
140.93544891498
 21
169.3375833033526
 72
     1
 10
140.93544891498
 20
169.3375833033526
 11
139.7201016641067
 21
169.3375833033526
 72
     4
 94
        3
 73
     0
 74
     0
 95
       16
 96
       12
 40
0.0
 40
0.0
 40
0.0
 40
0.0
 40
0.1041277633515596
 40
0.2093295289405689
 40
0.2720776539310479
 40
0.3322401914406596
 40
0.3983129501280438
 40
0.4444532368926239
 40
0.4882363645573113
 40
0.5770222615473634
 40
0.7588011886649316
 40
0.7588011886649316
 40
0.7588011886649316
 40
0.7588011886649316
 10
139.7201016641067
 20
169.3375833033526
 10
139.6834425080697
 20
169.3483689645785
 10
139.6097460834313
 20
169.3700515332907
 10
139.6035782878011
 20
169.4751606608742
 10
139.6119810170222
 20
169.550059515328
 10
139.6471716657671
 20
169.6045902551819
 10
139.6898640264314
 20
169.6442685432393
 10
139.7057602857656
 20
169.6959433094917
 10
139.7524858917776
 20
169.734964223089
 10
139.8353429111074
 20
169.8005529279865
 10
139.9269684310857
 20
169.8145218566452
 10
139.9885270197647
 20
169.8239068787852
 72
     1
 10
139.9885270197647
 20
169.8239068787852
 11
141.1779455564801
 21
169.8239068787852
 97
        8
330
878
330
865
330
86C
330
868
330
877
330
874
330
876
330
875
 75
     0
 76
     1
 47
0.0514683685270805
 98
        1
 10
140.292865388081
 20
170.1079626836512
450
        0
451
        0
460
0.0
461
0.0
452
        0
462
0.0
453
        0
470

  0
SPLINE
  5
864
102
{ACAD_REACTORS
330
83E
102
}
330
18
100
AcDbEntity
  8
ROGO
 62
     4
100
AcDbSpline
210
0.0
220
0.0
230
1.0
 70
     8
 71
     3
 72
    26
 73
    22
 74
    20
 42
0.0000000001
 43
0.0000000001
 44
0.0000000001
 40
0.0
 40
0.0
 40
0.0
 40
0.0
 40
0.3447969518849593
 40
0.5756118128073928
 40
0.7420481243774421
 40
0.8663207328666773
 40
1.027508828425037
 40
1.145160424384914
 40
1.357611784531618
 40
1.530544137360957
 40
1.648165846704565
 40
1.76349995492273
 40
1.96981025219693
 40
2.115696256521843
 40
2.194267141058169
 40
2.305874761592818
 40
2.386469128619501
 40
2.50322375804292
 40
2.569296779248671
 40
2.713079084812022
 40
2.77873133455758
 40
2.77873133455758
 40
2.77873133455758
 40
2.77873133455758
 10
145.7512003554945
 20
170.5310663021819
 30
0.0
 10
145.6341709426173
 20
170.5240841267252
 30
0.0
 10
145.4387993996562
 20
170.5124279254451
 30
0.0
 10
145.2242826339853
 20
170.3821112940396
 30
0.0
 10
145.0671150929552
 20
170.3063509312911
 30
0.0
 10
144.955023393298
 20
170.2033611724929
 30
0.0
 10
144.8728597230631
 20
170.0969802749138
 30
0.0
 10
144.7692769921326
 20
169.970228215453
 30
0.0
 10
144.684808234938
 20
169.8226305713723
 30
0.0
 10
144.6417934320856
 20
169.6599522364332
 30
0.0
 10
144.6036913279731
 20
169.5302966595968
 30
0.0
 10
144.5754341696988
 20
169.3858124396109
 30
0.0
 10
144.5826235907137
 20
169.2297186551353
 30
0.0
 10
144.5929191706402
 20
169.0847467392853
 30
0.0
 10
144.6388864314583
 20
168.981258496641
 30
0.0
 10
144.6912349993252
 20
168.9075819991686
 30
0.0
 10
144.7553351037682
 20
168.8264355053314
 30
0.0
 10
144.8254746355709
 20
168.7726924452254
 30
0.0
 10
144.8834857535582
 20
168.675333280397
 30
0.0
 10
144.9850322586279
 20
168.6629095488059
 30
0.0
 10
145.0495792571242
 20
168.638182614952
 30
0.0
 10
145.0698130512054
 20
168.6304313685809
 30
0.0
 11
145.7512003554945
 21
170.5310663021819
 31
0.0
 11
145.4105067033499
 21
170.4780307158501
 31
0.0
 11
145.2040254322082
 21
170.374875567213
 31
0.0
 11
145.0594888392352
 21
170.2923515155626
 31
0.0
 11
144.9665727124608
 21
170.209827127616
 31
0.0
 11
144.8633323737162
 21
170.0860408819922
 31
0.0
 11
144.7910640772297
 21
169.9932012818485
 31
0.0
 11
144.6878231448325
 21
169.8075217452647
 31
0.0
 11
144.6362032722864
 21
169.6424733056677
 31
0.0
 11
144.6052312300284
 21
169.5290026085372
 31
0.0
 11
144.5845828060878
 21
169.4155319114068
 31
0.0
 11
144.5845828060878
 21
169.2092216141326
 31
0.0
 11
144.6052312300284
 21
169.0648042715222
 31
0.0
 11
144.6362032722864
 21
168.992595432069
 31
0.0
 11
144.6981473568027
 21
168.8997558319252
 31
0.0
 11
144.7497678230014
 21
168.8378625409652
 31
0.0
 11
144.8323597378054
 21
168.7553384893148
 31
0.0
 11
144.8736559920339
 21
168.7037607468481
 31
0.0
 11
145.0078689666892
 21
168.6521833406776
 31
0.0
 11
145.0698130512054
 21
168.6304313685809
 31
0.0
  0
SPLINE
  5
865
102
{ACAD_REACTORS
330
863
102
}
330
18
100
AcDbEntity
  8
ROGO
 62
     4
100
AcDbSpline
210
0.0
220
0.0
230
1.0
 70
     8
 71
     3
 72
    26
 73
    22
 74
    20
 42
0.0000000001
 43
0.0000000001
 44
0.0000000001
 40
0.0
 40
0.0
 40
0.0
 40
0.0
 40
0.3447969518849409
 40
0.5756118128073745
 40
0.7420481243774097
 40
0.8663207328666826
 40
1.02750882842502
 40
1.145160424384929
 40
1.357611784531601
 40
1.530544137360959
 40
1.64816584670452
 40
1.76349995492274
 40
1.96981025219694
 40
2.115696256521797
 40
2.194267141058186
 40
2.305874761592819
 40
2.386469128619472
 40
2.503223758042901
 40
2.569296779248652
 40
2.713079084811993
 40
2.77873133455757
 40
2.77873133455757
 40
2.77873133455757
 40
2.77873133455757
 10
139.6271855373323
 20
170.5310663021819
 30
0.0
 10
139.5101561244551
 20
170.5240841267252
 30
0.0
 10
139.314784581494
 20
170.5124279254451
 30
0.0
 10
139.1002678158232
 20
170.3821112940396
 30
0.0
 10
138.943100274793
 20
170.3063509312911
 30
0.0
 10
138.8310085751359
 20
170.2033611724929
 30
0.0
 10
138.748844904901
 20
170.0969802749138
 30
0.0
 10
138.6452621739704
 20
169.970228215453
 30
0.0
 10
138.5607934167759
 20
169.8226305713723
 30
0.0
 10
138.5177786139235
 20
169.6599522364332
 30
0.0
 10
138.479676509811
 20
169.5302966595969
 30
0.0
 10
138.4514193515367
 20
169.3858124396108
 30
0.0
 10
138.4586087725515
 20
169.2297186551354
 30
0.0
 10
138.468904352478
 20
169.0847467392853
 30
0.0
 10
138.5148716132962
 20
168.9812584966411
 30
0.0
 10
138.567220181163
 20
168.9075819991686
 30
0.0
 10
138.631320285606
 20
168.8264355053314
 30
0.0
 10
138.7014598174087
 20
168.7726924452255
 30
0.0
 10
138.759470935396
 20
168.675333280397
 30
0.0
 10
138.8610174404658
 20
168.662909548806
 30
0.0
 10
138.9255644389621
 20
168.638182614952
 30
0.0
 10
138.9457982330433
 20
168.6304313685809
 30
0.0
 11
139.6271855373323
 21
170.5310663021819
 31
0.0
 11
139.2864918851878
 21
170.4780307158501
 31
0.0
 11
139.080010614046
 21
170.3748755672131
 31
0.0
 11
138.935474021073
 21
170.2923515155626
 31
0.0
 11
138.8425578942986
 21
170.209827127616
 31
0.0
 11
138.739317555554
 21
170.0860408819922
 31
0.0
 11
138.6670492590675
 21
169.9932012818485
 31
0.0
 11
138.5638083266704
 21
169.8075217452648
 31
0.0
 11
138.5121884541243
 21
169.6424733056677
 31
0.0
 11
138.4812164118662
 21
169.5290026085373
 31
0.0
 11
138.4605679879257
 21
169.4155319114068
 31
0.0
 11
138.4605679879257
 21
169.2092216141326
 31
0.0
 11
138.4812164118662
 21
169.0648042715223
 31
0.0
 11
138.5121884541243
 21
168.992595432069
 31
0.0
 11
138.5741325386405
 21
168.8997558319252
 31
0.0
 11
138.6257530048392
 21
168.8378625409652
 31
0.0
 11
138.7083449196433
 21
168.7553384893148
 31
0.0
 11
138.7496411738717
 21
168.7037607468482
 31
0.0
 11
138.8838541485271
 21
168.6521833406777
 31
0.0
 11
138.9457982330433
 21
168.6304313685809
 31
0.0
  0
LINE
  5
866
102
{ACAD_REACTORS
330
844
102
}
330
18
100
AcDbEntity
  8
ROGO
 62
     4
100
AcDbLine
 10
137.1590982502492
 20
170.5310663021819
 30
0.0
 11
138.529683039278
 21
168.6304313685809
 31
0.0
  0
LINE
  5
867
102
{ACAD_REACTORS
330
844
102
}
330
18
100
AcDbEntity
  8
ROGO
 62
     4
100
AcDbLine
 10
137.2161206169958
 20
168.9923005003343
 30
0.0
 11
137.4770714807478
 21
168.630431368581
 31
0.0
  0
LINE
  5
868
102
{ACAD_REACTORS
330
863
102
}
330
18
100
AcDbEntity
  8
ROGO
 62
     4
100
AcDbLine
 10
140.93544891498
 20
169.3375833033526
 30
0.0
 11
140.5828401214215
 21
168.6304313685809
 31
0.0
  0
LINE
  5
869
102
{ACAD_REACTORS
330
83E
102
}
330
18
100
AcDbEntity
  8
ROGO
 62
     4
100
AcDbLine
 10
147.0594637331422
 20
169.3375833033526
 30
0.0
 11
146.7068549395836
 21
168.6304313685808
 31
0.0
  0
ARC
  5
86A
102
{ACAD_REACTORS
330
862
102
}
330
18
100
AcDbEntity
  8
ROGO
 62
     4
100
AcDbCircle
 10
142.5329691610605
 20
169.5807488353814
 30
0.0
 40
0.9511199594526129
100
AcDbArc
 50
92.3538081120337
 51
270.0
  0
ARC
  5
86B
102
{ACAD_REACTORS
330
862
102
}
330
18
100
AcDbEntity
  8
ROGO
 62
     4
100
AcDbCircle
 10
143.2624545242094
 20
169.5799463427293
 30
0.0
 40
0.9511199594526129
100
AcDbArc
 50
273.3290215232082
 51
90.0000000000006
  0
LINE
  5
86C
102
{ACAD_REACTORS
330
863
102
}
330
18
100
AcDbEntity
  8
ROGO
 62
     4
100
AcDbLine
 10
138.9457982330432
 20
168.6304313685809
 30
0.0
 11
140.5828401214215
 21
168.6304313685809
 31
0.0
  0
LINE
  5
86D
102
{ACAD_REACTORS
330
844
102
}
330
18
100
AcDbEntity
  8
ROGO
 62
     4
100
AcDbLine
 10
138.529683039278
 20
168.6304313685809
 30
0.0
 11
137.4770714807478
 21
168.6304313685809
 31
0.0
  0
LINE
  5
86E
330
18
100
AcDbEntity
  8
ROGO
 62
     4
100
AcDbLine
 10
142.4939065246545
 20
168.6304313685809
 30
0.0
 11
143.3176857756627
 21
168.6304313685809
 31
0.0
  0
LINE
  5
86F
102
{ACAD_REACTORS
330
862
102
}
330
18
100
AcDbEntity
  8
ROGO
 62
     4
100
AcDbLine
 10
142.4939065246538
 20
168.6304313685809
 30
0.0
 11
143.3176857756633
 21
168.6304313685809
 31
0.0
  0
LINE
  5
870
102
{ACAD_REACTORS
330
83E
102
}
330
18
100
AcDbEntity
  8
ROGO
 62
     4
100
AcDbLine
 10
145.0698130512053
 20
168.6304313685809
 30
0.0
 11
146.7068549395836
 21
168.6304313685809
 31
0.0
  0
LINE
  5
871
102
{ACAD_REACTORS
330
844
102
}
330
18
100
AcDbEntity
  8
ROGO
 62
     4
100
AcDbLine
 10
136.60985192291
 20
169.8330332068052
 30
0.0
 11
136.2788159737539
 21
169.3739747856989
 31
0.0
  0
LINE
  5
872
102
{ACAD_REACTORS
330
844
102
}
330
18
100
AcDbEntity
  8
ROGO
 62
     4
100
AcDbLine
 10
136.2788159737539
 20
169.3739747856989
 30
0.0
 11
136.9408878720662
 21
169.3739747856989
 31
0.0
  0
LINE
  5
873
102
{ACAD_REACTORS
330
844
102
}
330
18
100
AcDbEntity
  8
ROGO
 62
     4
100
AcDbLine
 10
136.60985192291
 20
169.8330332068052
 30
0.0
 11
136.9408878720662
 21
169.3739747856989
 31
0.0
  0
SPLINE
  5
874
102
{ACAD_REACTORS
330
863
102
}
330
18
100
AcDbEntity
  8
ROGO
 62
     4
100
AcDbSpline
210
0.0
220
0.0
230
1.0
 70
     8
 71
     3
 72
    16
 73
    12
 74
    10
 42
0.0000000001
 43
0.0000000001
 44
0.0000000001
 40
0.0
 40
0.0
 40
0.0
 40
0.0
 40
0.1817789271175681
 40
0.2705648241076202
 40
0.3143479517723077
 40
0.3604882385368877
 40
0.426560997224272
 40
0.4867235347338836
 40
0.5494716597243627
 40
0.654673425313372
 40
0.7588011886649316
 40
0.7588011886649316
 40
0.7588011886649316
 40
0.7588011886649316
 10
139.9885270197647
 20
169.8239068787852
 30
0.0
 10
139.9269684310857
 20
169.8145218566452
 30
0.0
 10
139.8353429111074
 20
169.8005529279865
 30
0.0
 10
139.7524858917776
 20
169.734964223089
 30
0.0
 10
139.7057602857656
 20
169.6959433094917
 30
0.0
 10
139.6898640264314
 20
169.6442685432393
 30
0.0
 10
139.6471716657671
 20
169.6045902551819
 30
0.0
 10
139.6119810170222
 20
169.550059515328
 30
0.0
 10
139.6035782878011
 20
169.4751606608742
 30
0.0
 10
139.6097460834313
 20
169.3700515332907
 30
0.0
 10
139.6834425080697
 20
169.3483689645785
 30
0.0
 10
139.7201016641067
 20
169.3375833033526
 30
0.0
 11
139.9885270197647
 21
169.8239068787852
 31
0.0
 11
139.8130183845336
 21
169.7765750997848
 31
0.0
 11
139.7407500880471
 21
169.7249976936143
 31
0.0
 11
139.7097780457891
 21
169.6940510481343
 31
0.0
 11
139.6891296218485
 21
169.652788854161
 31
0.0
 11
139.6478333676202
 21
169.6012114479906
 31
0.0
 11
139.6168613253621
 21
169.5496337055239
 31
0.0
 11
139.6065371133918
 21
169.4877407508601
 31
0.0
 11
139.6271855373323
 21
169.3845852659269
 31
0.0
 11
139.7201016641067
 21
169.3375833033526
 31
0.0
  0
LINE
  5
875
102
{ACAD_REACTORS
330
863
102
}
330
18
100
AcDbEntity
  8
ROGO
 62
     4
100
AcDbLine
 10
141.5305580841089
 20
170.5310663021819
 30
0.0
 11
141.1779455564801
 21
169.8239068787852
 31
0.0
  0
LINE
  5
876
102
{ACAD_REACTORS
330
863
102
}
330
18
100
AcDbEntity
  8
ROGO
 62
     4
100
AcDbLine
 10
139.9885270197646
 20
169.8239068787852
 30
0.0
 11
141.1779455564801
 21
169.8239068787852
 31
0.0
  0
LINE
  5
877
102
{ACAD_REACTORS
330
863
102
}
330
18
100
AcDbEntity
  8
ROGO
 62
     4
100
AcDbLine
 10
139.7201016641066
 20
169.3375833033526
 30
0.0
 11
140.93544891498
 21
169.3375833033526
 31
0.0
  0
LINE
  5
878
102
{ACAD_REACTORS
330
863
102
}
330
18
100
AcDbEntity
  8
ROGO
 62
     4
100
AcDbLine
 10
139.6271855373329
 20
170.5310663021819
 30
0.0
 11
141.5305580841089
 21
170.5310663021819
 31
0.0
  0
LINE
  5
879
102
{ACAD_REACTORS
330
862
102
}
330
18
100
AcDbEntity
  8
ROGO
 62
     4
100
AcDbLine
 10
142.9113797903697
 20
169.7628019706793
 30
0.0
 11
142.9802575668261
 21
169.7531747167488
 31
0.0
  0
LINE
  5
87A
102
{ACAD_REACTORS
330
862
102
}
330
18
100
AcDbEntity
  8
ROGO
 62
     4
100
AcDbLine
 10
143.1456009034955
 20
169.5697398652486
 30
0.0
 11
143.1203074465982
 21
169.3887789097614
 31
0.0
  0
LINE
  5
87B
102
{ACAD_REACTORS
330
862
102
}
330
18
100
AcDbEntity
  8
ROGO
 62
     4
100
AcDbLine
 10
142.6676064095133
 20
169.4556662651745
 30
0.0
 11
142.6928998664106
 21
169.6366272206615
 31
0.0
  0
LINE
  5
87C
102
{ACAD_REACTORS
330
862
102
}
330
18
100
AcDbEntity
  8
ROGO
 62
     4
100
AcDbLine
 10
142.8456940417463
 20
169.2928560917501
 30
0.0
 11
142.9145718182027
 21
169.2832288378195
 31
0.0
  0
ARC
  5
87D
102
{ACAD_REACTORS
330
862
102
}
330
18
100
AcDbEntity
  8
ROGO
 62
     4
100
AcDbCircle
 10
142.9462881519885
 20
169.5563200952766
 30
0.0
 40
0.1997640186304353
100
AcDbArc
 50
3.851923331663601
 51
80.20940670206341
  0
ARC
  5
87E
102
{ACAD_REACTORS
330
862
102
}
330
18
100
AcDbEntity
  8
ROGO
 62
     4
100
AcDbCircle
 10
142.8845734267369
 20
169.5569753685595
 30
0.0
 40
0.2075648603965122
100
AcDbArc
 50
82.57970078354313
 51
157.4341870372611
  0
ARC
  5
87F
102
{ACAD_REACTORS
330
862
102
}
330
18
100
AcDbEntity
  8
ROGO
 62
     4
100
AcDbCircle
 10
142.8571496486829
 20
169.4841910674604
 30
0.0
 40
0.1916776039613113
100
AcDbArc
 50
188.5583509056651
 51
266.5736774635929
  0
ARC
  5
880
102
{ACAD_REACTORS
330
862
102
}
330
18
100
AcDbEntity
  8
ROGO
 62
     4
100
AcDbCircle
 10
142.9557989848832
 20
169.4561523219948
 30
0.0
 40
0.1777701061815605
100
AcDbArc
 50
256.5902863289752
 51
337.7287536965499
  0
LINE
  5
881
330
18
100
AcDbEntity
  8
ROGO
 62
     4
100
AcDbLine
 10
142.4939065246541
 20
170.5310663021819
 30
0.0
 11
143.032533342947
 21
170.5310663021819
 31
0.0
  0
LINE
  5
882
102
{ACAD_REACTORS
330
862
102
}
330
18
100
AcDbEntity
  8
ROGO
 62
     4
100
AcDbLine
 10
142.4939065246539
 20
170.5310663021819
 30
0.0
 11
143.2624545242094
 21
170.5310663021819
 31
0.0
  0
SPLINE
  5
883
102
{ACAD_REACTORS
330
83E
102
}
330
18
100
AcDbEntity
  8
ROGO
 62
     4
100
AcDbSpline
210
0.0
220
0.0
230
1.0
 70
     8
 71
     3
 72
    16
 73
    12
 74
    10
 42
0.0000000001
 43
0.0000000001
 44
0.0000000001
 40
0.0
 40
0.0
 40
0.0
 40
0.0
 40
0.181778927117567
 40
0.2705648241076423
 40
0.3143479517723296
 40
0.3604882385369351
 40
0.4265609972242749
 40
0.4867235347339013
 40
0.5494716597244316
 40
0.6546734253133796
 40
0.7588011886649772
 40
0.7588011886649772
 40
0.7588011886649772
 40
0.7588011886649772
 10
146.1125418379268
 20
169.8239068787852
 30
0.0
 10
146.0509832492478
 20
169.8145218566452
 30
0.0
 10
145.9593577292695
 20
169.8005529279864
 30
0.0
 10
145.8765007099397
 20
169.7349642230891
 30
0.0
 10
145.8297751039276
 20
169.6959433094916
 30
0.0
 10
145.8138788445936
 20
169.6442685432394
 30
0.0
 10
145.7711864839292
 20
169.6045902551819
 30
0.0
 10
145.7359958351843
 20
169.5500595153279
 30
0.0
 10
145.7275931059633
 20
169.4751606608742
 30
0.0
 10
145.7337609015934
 20
169.3700515332906
 30
0.0
 10
145.8074573262318
 20
169.3483689645784
 30
0.0
 10
145.8441164822689
 20
169.3375833033526
 30
0.0
 11
146.1125418379268
 21
169.8239068787852
 31
0.0
 11
145.9370332026957
 21
169.7765750997848
 31
0.0
 11
145.8647649062092
 21
169.7249976936143
 31
0.0
 11
145.8337928639512
 21
169.6940510481343
 31
0.0
 11
145.8131444400107
 21
169.6527888541609
 31
0.0
 11
145.7718481857823
 21
169.6012114479906
 31
0.0
 11
145.7408761435242
 21
169.5496337055239
 31
0.0
 11
145.7305519315539
 21
169.4877407508601
 31
0.0
 11
145.7512003554944
 21
169.3845852659269
 31
0.0
 11
145.8441164822689
 21
169.3375833033526
 31
0.0
  0
LINE
  5
884
102
{ACAD_REACTORS
330
83E
102
}
330
18
100
AcDbEntity
  8
ROGO
 62
     4
100
AcDbLine
 10
145.8441164822688
 20
169.3375833033526
 30
0.0
 11
147.0594637331422
 21
169.3375833033526
 31
0.0
  0
LINE
  5
885
102
{ACAD_REACTORS
330
83E
102
}
330
18
100
AcDbEntity
  8
ROGO
 62
     4
100
AcDbLine
 10
146.1125418379267
 20
169.8239068787852
 30
0.0
 11
147.3019603746422
 21
169.8239068787852
 31
0.0
  0
LINE
  5
886
102
{ACAD_REACTORS
330
83D
102
}
330
18
100
AcDbEntity
  8
ROGO
 62
     4
100
AcDbLine
 10
148.7930579880399
 20
169.0461302500541
 30
0.0
 11
149.5334950626008
 21
167.5611941979265
 31
0.0
  0
LINE
  5
887
102
{ACAD_REACTORS
330
83D
102
}
330
18
100
AcDbEntity
  8
ROGO
 62
     4
100
AcDbLine
 10
148.0526448569606
 20
168.3363643955498
 30
0.0
 11
148.4391697531623
 21
167.5611941979265
 31
0.0
  0
LINE
  5
888
102
{ACAD_REACTORS
330
83D
102
}
330
18
100
AcDbEntity
  8
ROGO
 62
     4
100
AcDbLine
 10
148.0526448569606
 20
168.3363643955497
 30
0.0
 11
147.6661199607589
 21
167.5611941979265
 31
0.0
  0
LINE
  5
889
102
{ACAD_REACTORS
330
83D
102
}
330
18
100
AcDbEntity
  8
ROGO
 62
     4
100
AcDbLine
 10
148.4391697531623
 20
167.5611941979265
 30
0.0
 11
149.5334950626008
 21
167.5611941979265
 31
0.0
  0
LINE
  5
88A
102
{ACAD_REACTORS
330
83D
102
}
330
18
100
AcDbEntity
  8
ROGO
 62
     4
100
AcDbLine
 10
148.7930579880399
 20
169.0461302500541
 30
0.0
 11
150.5920336575815
 21
170.5310663021819
 31
0.0
  0
LINE
  5
88B
102
{ACAD_REACTORS
330
83D
102
}
330
18
100
AcDbEntity
  8
ROGO
 62
     4
100
AcDbLine
 10
149.497708348143
 20
170.5310663021819
 30
0.0
 11
150.5920336575815
 21
170.5310663021819
 31
0.0
  0
LINE
  5
88C
102
{ACAD_REACTORS
330
83D
102
}
330
18
100
AcDbEntity
  8
ROGO
 62
     4
100
AcDbLine
 10
148.0526448569606
 20
170.5310663021819
 30
0.0
 11
149.1469941098805
 21
170.5310663021818
 31
0.0
  0
LINE
  5
88D
102
{ACAD_REACTORS
330
83D
102
}
330
18
100
AcDbEntity
  8
ROGO
 62
     4
100
AcDbLine
 10
149.1469941098805
 20
170.5310663021818
 30
0.0
 11
148.9853127876882
 21
170.2068167034952
 31
0.0
  0
LINE
  5
88E
102
{ACAD_REACTORS
330
83D
102
}
330
18
100
AcDbEntity
  8
ROGO
 62
     4
100
AcDbLine
 10
148.9853127876882
 20
170.2068167034952
 30
0.0
 11
149.497708348143
 21
170.5310663021819
 31
0.0
  0
LINE
  5
891
330
18
100
AcDbEntity
  8
外形線
100
AcDbLine
 10
134.4383387865155
 20
271.1131276930423
 30
0.0
 11
142.9383387865155
 21
271.1131276930424
 31
0.0
  0
ARC
  5
892
330
18
100
AcDbEntity
  8
外形線
100
AcDbCircle
 10
138.6883387865155
 20
262.0611941979265
 30
0.0
 40
10.0
100
AcDbArc
 50
64.84933658745635
 51
115.1506634125438
  0
LINE
  5
893
330
18
100
AcDbEntity
  8
外形線
100
AcDbLine
 10
134.4383387865155
 20
268.2611941979266
 30
0.0
 11
142.9383387865155
 21
268.2611941979266
 31
0.0
  0
LINE
  5
894
330
18
100
AcDbEntity
  8
外形線
100
AcDbLine
 10
134.7383387865155
 20
267.9611941979266
 30
0.0
 11
142.6383387865156
 21
267.9611941979266
 31
0.0
  0
LINE
  5
895
330
18
100
AcDbEntity
  8
ﾊｯﾁﾝｸ
100
AcDbLine
 10
134.4383387865155
 20
270.5051679998531
 30
0.0
 11
135.0462984797047
 21
271.1131276930424
 31
0.0
  0
LINE
  5
896
330
18
100
AcDbEntity
  8
ﾊｯﾁﾝｸ
100
AcDbLine
 10
134.7550622833607
 20
268.2611941979266
 30
0.0
 11
134.4383387865155
 21
268.5779176947719
 31
0.0
  0
LINE
  5
897
330
18
100
AcDbEntity
  8
ﾊｯﾁﾝｸ
100
AcDbLine
 10
138.6883387865155
 20
269.7832465116261
 30
0.0
 11
137.3584576050994
 21
271.1131276930423
 31
0.0
  0
LINE
  5
898
330
18
100
AcDbEntity
  8
ﾊｯﾁﾝｸ
100
AcDbLine
 10
138.6883387865155
 20
268.4362080934658
 30
0.0
 11
136.0114191869389
 21
271.1131276930424
 31
0.0
  0
LINE
  5
899
330
18
100
AcDbEntity
  8
ﾊｯﾁﾝｸ
100
AcDbLine
 10
137.5163142638944
 20
268.2611941979266
 30
0.0
 11
134.6643807687789
 21
271.1131276930424
 31
0.0
  0
LINE
  5
89A
330
18
100
AcDbEntity
  8
ﾊｯﾁﾝｸ
100
AcDbLine
 10
136.1692758457339
 20
268.2611941979266
 30
0.0
 11
134.4383387865155
 21
269.9921312571449
 31
0.0
  0
LINE
  5
89B
330
18
100
AcDbEntity
  8
ﾊｯﾁﾝｸ
100
AcDbLine
 10
137.6496938014432
 20
268.2611941979266
 30
0.0
 11
138.6883387865155
 21
269.299839182999
 31
0.0
  0
LINE
  5
89C
330
18
100
AcDbEntity
  8
ﾊｯﾁﾝｸ
100
AcDbLine
 10
136.3026553832828
 20
268.2611941979266
 30
0.0
 11
138.6883387865155
 21
270.6468776011593
 31
0.0
  0
LINE
  5
89D
330
18
100
AcDbEntity
  8
ﾊｯﾁﾝｸ
100
AcDbLine
 10
134.9556169651223
 20
268.2611941979266
 30
0.0
 11
137.8075504602382
 21
271.1131276930424
 31
0.0
  0
LINE
  5
89E
330
18
100
AcDbEntity
  8
ﾊｯﾁﾝｸ
100
AcDbLine
 10
134.4383387865155
 20
269.09095443748
 30
0.0
 11
136.4605120420779
 21
271.1131276930424
 31
0.0
  0
LINE
  5
89F
330
18
100
AcDbEntity
  8
外形線
100
AcDbLine
 10
134.7383387865155
 20
267.9611941979266
 30
0.0
 11
134.4383387865155
 21
268.2611941979266
 31
0.0
  0
LINE
  5
8A0
330
18
100
AcDbEntity
  8
外形線
100
AcDbLine
 10
134.4383387865155
 20
271.1131276930423
 30
0.0
 11
134.4383387865155
 21
268.2611941979266
 31
0.0
  0
LINE
  5
8A1
330
18
100
AcDbEntity
  8
外形線
100
AcDbLine
 10
142.6383387865156
 20
267.9611941979266
 30
0.0
 11
142.9383387865156
 21
268.2611941979266
 31
0.0
  0
LINE
  5
8A2
330
18
100
AcDbEntity
  8
外形線
100
AcDbLine
 10
142.9383387865155
 20
271.1131276930424
 30
0.0
 11
142.9383387865156
 21
268.2611941979266
 31
0.0
  0
LINE
  5
8A3
330
18
100
AcDbEntity
  8
0
  6
ByBlock
 62
     2
100
AcDbLine
 10
292.4066331375438
 20
239.5611941979265
 30
0.0
 11
332.0993008603402
 21
239.5611941979265
 31
0.0
  0
LINE
  5
8A4
330
18
100
AcDbEntity
  8
0
  6
ByBlock
 62
     2
100
AcDbLine
 10
292.4066331375438
 20
131.5611941979265
 30
0.0
 11
332.0993008603402
 21
131.5611941979265
 31
0.0
  0
LINE
  5
8A5
330
18
100
AcDbEntity
  8
0
  6
ByBlock
 62
     2
100
AcDbLine
 10
331.2112529630137
 20
239.5937479378249
 30
0.0
 11
331.2112529630137
 21
136.5937479378249
 31
0.0
  0
INSERT
  5
8A6
330
18
100
AcDbEntity
  8
0
  6
ByBlock
 62
     2
100
AcDbBlockReference
  2
_OPEN
 10
331.2112529630137
 20
242.0937479378249
 30
0.0
 41
2.5
 42
2.5
 43
2.5
 50
90.0
  0
INSERT
  5
8A7
330
18
100
AcDbEntity
  8
0
  6
ByBlock
 62
     2
100
AcDbBlockReference
  2
_OPEN
 10
331.2112529630137
 20
134.0937479378249
 30
0.0
 41
2.5
 42
2.5
 43
2.5
 50
270.0
  0
MTEXT
  5
8A8
330
18
100
AcDbEntity
  8
0
  6
ByBlock
 62
     6
100
AcDbMText
 10
329.3362529630138
 20
188.0937479378249
 30
0.0
 40
2.5
 41
0.0
 71
     5
 72
     1
  1
\A1;φ108
  7
STYLE3
 11
0.0000000000000001
 21
1.0
 31
0.0
 73
     1
 44
1.0
  0
POINT
  5
8A9
330
18
100
AcDbEntity
  8
DEFPOINTS
  6
ByBlock
 62
     0
100
AcDbPoint
 10
292.4066331375438
 20
239.5611941979265
 30
0.0
  0
POINT
  5
8AA
330
18
100
AcDbEntity
  8
DEFPOINTS
  6
ByBlock
 62
     0
100
AcDbPoint
 10
292.4066331375438
 20
131.5611941979265
 30
0.0
  0
POINT
  5
8AB
330
18
100
AcDbEntity
  8
DEFPOINTS
  6
ByBlock
 62
     0
100
AcDbPoint
 10
331.2112529630137
 20
134.0937479378249
 30
0.0
  0
LINE
  5
8AC
330
18
100
AcDbEntity
  8
0
  6
ByBlock
 62
     2
100
AcDbLine
 10
282.4066331375438
 20
102.5736797999851
 30
0.0
 11
282.4066331375438
 21
96.39750438660962
 31
0.0
  0
LINE
  5
8AD
330
18
100
AcDbEntity
  8
0
  6
ByBlock
 62
     2
100
AcDbLine
 10
304.9066331375438
 20
178.7298731421867
 30
0.0
 11
304.9066331375438
 21
96.39750438660962
 31
0.0
  0
LINE
  5
8AE
330
18
100
AcDbEntity
  8
0
  6
ByBlock
 62
     2
100
AcDbLine
 10
284.9066331375439
 20
97.64750438660962
 30
0.0
 11
302.4066331375439
 21
97.64750438660962
 31
0.0
  0
INSERT
  5
8AF
330
18
100
AcDbEntity
  8
0
  6
ByBlock
 62
     2
100
AcDbBlockReference
  2
_OPEN
 10
282.4066331375438
 20
97.64750438660962
 30
0.0
 41
2.5
 42
2.5
 43
2.5
 50
180.0
  0
INSERT
  5
8B0
330
18
100
AcDbEntity
  8
0
  6
ByBlock
 62
     2
100
AcDbBlockReference
  2
_OPEN
 10
304.9066331375438
 20
97.64750438660962
 30
0.0
 41
2.5
 42
2.5
 43
2.5
  0
MTEXT
  5
8B1
330
18
100
AcDbEntity
  8
0
  6
ByBlock
 62
     6
100
AcDbMText
 10
293.6566331375439
 20
99.52250438660962
 30
0.0
 40
2.5
 41
0.0
 71
     5
 72
     1
  1
\A1;22.5
  7
STYLE3
 73
     1
 44
1.0
  0
POINT
  5
8B2
330
18
100
AcDbEntity
  8
DEFPOINTS
  6
ByBlock
 62
     0
100
AcDbPoint
 10
282.4066331375438
 20
102.5736797999851
 30
0.0
  0
POINT
  5
8B3
330
18
100
AcDbEntity
  8
DEFPOINTS
  6
ByBlock
 62
     0
100
AcDbPoint
 10
304.9066331375438
 20
178.7298731421867
 30
0.0
  0
POINT
  5
8B4
330
18
100
AcDbEntity
  8
DEFPOINTS
  6
ByBlock
 62
     0
100
AcDbPoint
 10
304.9066331375438
 20
97.64750438660962
 30
0.0
  0
LINE
  5
8B7
330
18
100
AcDbEntity
  8
ﾊｯﾁﾝｸ
100
AcDbLine
 10
279.9066331375438
 20
52.29480237517927
 30
0.0
 11
280.3137620330235
 21
52.70193127065891
 31
0.0
  0
LINE
  5
8B8
330
18
100
AcDbEntity
  8
ﾊｯﾁﾝｸ
100
AcDbLine
 10
279.9066331375438
 20
50.94776395701889
 30
0.0
 11
281.6608004511838
 21
52.70193127065887
 31
0.0
  0
LINE
  5
8B9
330
18
100
AcDbEntity
  8
ﾊｯﾁﾝｸ
100
AcDbLine
 10
279.9078388693442
 20
49.60193127065891
 30
0.0
 11
282.4066331375439
 21
52.10072553885858
 31
0.0
  0
LINE
  5
8BA
330
18
100
AcDbEntity
  8
ﾊｯﾁﾝｸ
100
AcDbLine
 10
281.2548772875045
 20
49.60193127065888
 30
0.0
 11
282.4066331375438
 21
50.75368712069819
 31
0.0
  0
LINE
  5
8BB
330
18
100
AcDbEntity
  8
ﾊｯﾁﾝｸ
100
AcDbLine
 10
280.0006810617293
 20
49.60193127065889
 30
0.0
 11
279.9066331375438
 21
49.69597919484431
 31
0.0
  0
LINE
  5
8BC
330
18
100
AcDbEntity
  8
ﾊｯﾁﾝｸ
100
AcDbLine
 10
281.3477194798896
 20
49.60193127065888
 30
0.0
 11
279.9066331375438
 21
51.04301761300469
 31
0.0
  0
LINE
  5
8BD
330
18
100
AcDbEntity
  8
ﾊｯﾁﾝｸ
100
AcDbLine
 10
282.4066331375438
 20
49.89005603116507
 30
0.0
 11
279.9066331375438
 21
52.39005603116506
 31
0.0
  0
LINE
  5
8BE
330
18
100
AcDbEntity
  8
ﾊｯﾁﾝｸ
100
AcDbLine
 10
282.4066331375438
 20
51.23709444932543
 30
0.0
 11
280.9417963162104
 21
52.70193127065889
 31
0.0
  0
LINE
  5
8BF
330
18
100
AcDbEntity
  8
ﾊｯﾁﾝｸ
100
AcDbLine
 10
282.4066331375439
 20
52.58413286748575
 30
0.0
 11
282.2888347343708
 21
52.70193127065886
 31
0.0
  0
LINE
  5
8C0
330
18
100
AcDbEntity
  8
0
  6
ByBlock
 62
     2
100
AcDbLine
 10
258.4066331375439
 20
185.5611941979267
 30
0.0
 11
258.4066331375439
 21
281.7607397443978
 31
0.0
  0
LINE
  5
8C1
330
18
100
AcDbEntity
  8
0
  6
ByBlock
 62
     2
100
AcDbLine
 10
279.9066331375438
 20
280.5107397443978
 30
0.0
 11
260.9066331375438
 21
280.5107397443978
 31
0.0
  0
INSERT
  5
8C2
330
18
100
AcDbEntity
  8
0
  6
ByBlock
 62
     2
100
AcDbBlockReference
  2
_OPEN
 10
282.4066331375438
 20
280.5107397443978
 30
0.0
 41
2.5
 42
2.5
 43
2.5
  0
INSERT
  5
8C3
330
18
100
AcDbEntity
  8
0
  6
ByBlock
 62
     2
100
AcDbBlockReference
  2
_OPEN
 10
258.4066331375439
 20
280.5107397443978
 30
0.0
 41
2.5
 42
2.5
 43
2.5
 50
180.0
  0
MTEXT
  5
8C4
330
18
100
AcDbEntity
  8
0
  6
ByBlock
 62
     6
100
AcDbMText
 10
270.4066331375439
 20
282.3857397443978
 30
0.0
 40
2.5
 41
0.0
 71
     5
 72
     1
  1
\A1;24
  7
STYLE3
 73
     1
 44
1.0
  0
POINT
  5
8C5
330
18
100
AcDbEntity
  8
DEFPOINTS
  6
ByBlock
 62
     0
100
AcDbPoint
 10
282.4066331375438
 20
272.0611941979265
 30
0.0
  0
POINT
  5
8C6
330
18
100
AcDbEntity
  8
DEFPOINTS
  6
ByBlock
 62
     0
100
AcDbPoint
 10
258.4066331375439
 20
185.5611941979267
 30
0.0
  0
POINT
  5
8C7
330
18
100
AcDbEntity
  8
DEFPOINTS
  6
ByBlock
 62
     0
100
AcDbPoint
 10
258.4066331375439
 20
280.5107397443978
 30
0.0
  0
LINE
  5
8C8
330
18
100
AcDbEntity
  8
0
  6
ByBlock
 62
     2
100
AcDbLine
 10
295.5581243831139
 20
205.5611941979265
 30
0.0
 11
295.5581243831139
 21
213.3485588086612
 31
0.0
  0
LINE
  5
8C9
330
18
100
AcDbEntity
  8
0
  6
ByBlock
 62
     2
100
AcDbLine
 10
300.5581243831139
 20
205.5611941979265
 30
0.0
 11
300.5581243831139
 21
213.3485588086612
 31
0.0
  0
LINE
  5
8CA
330
18
100
AcDbEntity
  8
0
  6
ByBlock
 62
     2
100
AcDbLine
 10
293.0581243831138
 20
212.0985588086612
 30
0.0
 11
290.5581243831139
 21
212.0985588086612
 31
0.0
  0
LINE
  5
8CB
330
18
100
AcDbEntity
  8
0
  6
ByBlock
 62
     2
100
AcDbLine
 10
303.0581243831139
 20
212.0985588086612
 30
0.0
 11
305.5581243831138
 21
212.0985588086612
 31
0.0
  0
LINE
  5
8CC
330
18
100
AcDbEntity
  8
0
  6
ByBlock
 62
     2
100
AcDbLine
 10
295.5581243831139
 20
212.0985588086612
 30
0.0
 11
300.5581243831139
 21
212.0985588086612
 31
0.0
  0
INSERT
  5
8CD
330
18
100
AcDbEntity
  8
0
  6
ByBlock
 62
     2
100
AcDbBlockReference
  2
_OPEN
 10
295.5581243831139
 20
212.0985588086612
 30
0.0
 41
2.5
 42
2.5
 43
2.5
  0
INSERT
  5
8CE
330
18
100
AcDbEntity
  8
0
  6
ByBlock
 62
     2
100
AcDbBlockReference
  2
_OPEN
 10
300.5581243831139
 20
212.0985588086612
 30
0.0
 41
2.5
 42
2.5
 43
2.5
 50
180.0
  0
MTEXT
  5
8CF
330
18
100
AcDbEntity
  8
0
  6
ByBlock
 62
     6
100
AcDbMText
 10
298.0581243831139
 20
213.9735588086612
 30
0.0
 40
2.5
 41
0.0
 71
     5
 72
     1
  1
\A1;5
  7
STYLE3
 73
     1
 44
1.0
  0
POINT
  5
8D0
330
18
100
AcDbEntity
  8
DEFPOINTS
  6
ByBlock
 62
     0
100
AcDbPoint
 10
295.5581243831139
 20
205.5611941979265
 30
0.0
  0
POINT
  5
8D1
330
18
100
AcDbEntity
  8
DEFPOINTS
  6
ByBlock
 62
     0
100
AcDbPoint
 10
300.5581243831139
 20
205.5611941979265
 30
0.0
  0
POINT
  5
8D2
330
18
100
AcDbEntity
  8
DEFPOINTS
  6
ByBlock
 62
     0
100
AcDbPoint
 10
300.5581243831139
 20
212.0985588086612
 30
0.0
  0
LINE
  5
8D3
330
18
100
AcDbEntity
  8
0
  6
ByBlock
 62
     2
100
AcDbLine
 10
292.4066331375438
 20
239.5611941979265
 30
0.0
 11
292.4066331375438
 21
281.7607397443978
 31
0.0
  0
LINE
  5
8D4
330
18
100
AcDbEntity
  8
0
  6
ByBlock
 62
     2
100
AcDbLine
 10
282.4066331375438
 20
272.0611941979265
 30
0.0
 11
282.4066331375438
 21
281.7607397443978
 31
0.0
  0
LINE
  5
8D5
330
18
100
AcDbEntity
  8
0
  6
ByBlock
 62
     2
100
AcDbLine
 10
289.9066331375438
 20
280.5107397443978
 30
0.0
 11
284.9066331375439
 21
280.5107397443978
 31
0.0
  0
INSERT
  5
8D6
330
18
100
AcDbEntity
  8
0
  6
ByBlock
 62
     2
100
AcDbBlockReference
  2
_OPEN
 10
292.4066331375438
 20
280.5107397443978
 30
0.0
 41
2.5
 42
2.5
 43
2.5
  0
INSERT
  5
8D7
330
18
100
AcDbEntity
  8
0
  6
ByBlock
 62
     2
100
AcDbBlockReference
  2
_OPEN
 10
282.4066331375438
 20
280.5107397443978
 30
0.0
 41
2.5
 42
2.5
 43
2.5
 50
180.0
  0
MTEXT
  5
8D8
330
18
100
AcDbEntity
  8
0
  6
ByBlock
 62
     6
100
AcDbMText
 10
287.4066331375439
 20
282.3857397443978
 30
0.0
 40
2.5
 41
0.0
 71
     5
 72
     1
  1
\A1;10
  7
STYLE3
 73
     1
 44
1.0
  0
POINT
  5
8D9
330
18
100
AcDbEntity
  8
DEFPOINTS
  6
ByBlock
 62
     0
100
AcDbPoint
 10
292.4066331375438
 20
239.5611941979265
 30
0.0
  0
POINT
  5
8DA
330
18
100
AcDbEntity
  8
DEFPOINTS
  6
ByBlock
 62
     0
100
AcDbPoint
 10
282.4066331375438
 20
272.0611941979265
 30
0.0
  0
POINT
  5
8DB
330
18
100
AcDbEntity
  8
DEFPOINTS
  6
ByBlock
 62
     0
100
AcDbPoint
 10
282.4066331375438
 20
280.5107397443978
 30
0.0
  0
LINE
  5
8DE
330
18
100
AcDbEntity
  8
外形線
100
AcDbLine
 10
278.1566331375438
 20
271.1131276930423
 30
0.0
 11
286.6566331375438
 21
271.1131276930424
 31
0.0
  0
ARC
  5
8DF
330
18
100
AcDbEntity
  8
外形線
100
AcDbCircle
 10
282.4066331375438
 20
262.0611941979265
 30
0.0
 40
10.0
100
AcDbArc
 50
64.84933658745635
 51
115.1506634125438
  0
LINE
  5
8E0
330
18
100
AcDbEntity
  8
外形線
100
AcDbLine
 10
278.1566331375438
 20
268.2611941979266
 30
0.0
 11
286.6566331375439
 21
268.2611941979266
 31
0.0
  0
LINE
  5
8E1
330
18
100
AcDbEntity
  8
外形線
100
AcDbLine
 10
278.4566331375438
 20
267.9611941979266
 30
0.0
 11
286.3566331375439
 21
267.9611941979266
 31
0.0
  0
LINE
  5
8E2
330
18
100
AcDbEntity
  8
ﾊｯﾁﾝｸ
100
AcDbLine
 10
278.1566331375438
 20
270.5051679998531
 30
0.0
 11
278.7645928307331
 21
271.1131276930424
 31
0.0
  0
LINE
  5
8E3
330
18
100
AcDbEntity
  8
ﾊｯﾁﾝｸ
100
AcDbLine
 10
278.4733566343891
 20
268.2611941979266
 30
0.0
 11
278.1566331375438
 21
268.5779176947719
 31
0.0
  0
LINE
  5
8E4
330
18
100
AcDbEntity
  8
ﾊｯﾁﾝｸ
100
AcDbLine
 10
282.4066331375438
 20
269.7832465116261
 30
0.0
 11
281.0767519561278
 21
271.1131276930423
 31
0.0
  0
LINE
  5
8E5
330
18
100
AcDbEntity
  8
ﾊｯﾁﾝｸ
100
AcDbLine
 10
282.4066331375438
 20
268.4362080934658
 30
0.0
 11
279.7297135379673
 21
271.1131276930424
 31
0.0
  0
LINE
  5
8E6
330
18
100
AcDbEntity
  8
ﾊｯﾁﾝｸ
100
AcDbLine
 10
281.2346086149228
 20
268.2611941979266
 30
0.0
 11
278.3826751198073
 21
271.1131276930424
 31
0.0
  0
LINE
  5
8E7
330
18
100
AcDbEntity
  8
ﾊｯﾁﾝｸ
100
AcDbLine
 10
279.8875701967623
 20
268.2611941979266
 30
0.0
 11
278.1566331375438
 21
269.9921312571449
 31
0.0
  0
LINE
  5
8E8
330
18
100
AcDbEntity
  8
ﾊｯﾁﾝｸ
100
AcDbLine
 10
281.3679881524716
 20
268.2611941979266
 30
0.0
 11
282.4066331375438
 21
269.299839182999
 31
0.0
  0
LINE
  5
8E9
330
18
100
AcDbEntity
  8
ﾊｯﾁﾝｸ
100
AcDbLine
 10
280.0209497343112
 20
268.2611941979266
 30
0.0
 11
282.4066331375439
 21
270.6468776011593
 31
0.0
  0
LINE
  5
8EA
330
18
100
AcDbEntity
  8
ﾊｯﾁﾝｸ
100
AcDbLine
 10
278.6739113161507
 20
268.2611941979266
 30
0.0
 11
281.5258448112666
 21
271.1131276930424
 31
0.0
  0
LINE
  5
8EB
330
18
100
AcDbEntity
  8
ﾊｯﾁﾝｸ
100
AcDbLine
 10
278.1566331375438
 20
269.09095443748
 30
0.0
 11
280.1788063931063
 21
271.1131276930424
 31
0.0
  0
LINE
  5
8EC
330
18
100
AcDbEntity
  8
外形線
100
AcDbLine
 10
278.4566331375438
 20
267.9611941979266
 30
0.0
 11
278.1566331375438
 21
268.2611941979266
 31
0.0
  0
LINE
  5
8ED
330
18
100
AcDbEntity
  8
外形線
100
AcDbLine
 10
278.1566331375438
 20
271.1131276930423
 30
0.0
 11
278.1566331375438
 21
268.2611941979266
 31
0.0
  0
LINE
  5
8EE
330
18
100
AcDbEntity
  8
外形線
100
AcDbLine
 10
286.3566331375439
 20
267.9611941979266
 30
0.0
 11
286.656633137544
 21
268.2611941979266
 31
0.0
  0
LINE
  5
8EF
330
18
100
AcDbEntity
  8
外形線
100
AcDbLine
 10
286.6566331375438
 20
271.1131276930424
 30
0.0
 11
286.656633137544
 21
268.2611941979266
 31
0.0
  0
DIMENSION
  5
92B
330
18
100
AcDbEntity
  8
C
100
AcDbDimension
  2
*D1
 10
210.5828731376878
 20
236.0611941979265
 30
0.0
 11
208.7078731376877
 21
185.5611941979265
 31
0.0
 70
    32
  1
φ<>
 71
     5
 42
101.0
  3
STYLE3
100
AcDbAlignedDimension
 13
138.6883387865155
 23
135.0611941979265
 33
0.0
 14
138.6883387865155
 24
236.0611941979265
 34
0.0
 50
90.0
100
AcDbRotatedDimension
1001
ACAD
1000
DSTYLE
1002
{
1070
   271
1070
     2
1070
   341
1005
0
1002
}
  0
TEXT
  5
A75
330
18
100
AcDbEntity
  8
文字
100
AcDbText
 10
121.1379394947426
 20
185.7002837774557
 30
0.0
 40
1.199999999999999
  1
60
  7
STYLE3
100
AcDbText
  0
TEXT
  5
A76
330
18
100
AcDbEntity
  8
文字
100
AcDbText
 10
128.1492497448629
 20
185.5134605199715
 30
0.0
 40
1.199999999999999
  1
20
  7
STYLE3
100
AcDbText
  0
CIRCLE
  5
A77
330
18
100
AcDbEntity
  8
外形線
100
AcDbCircle
 10
125.6983387865155
 20
186.1811941979265
 30
0.0
 40
6.5
  0
LINE
  5
A78
330
18
100
AcDbEntity
  8
中心線
100
AcDbLine
 10
125.6983387865155
 20
194.2007281584298
 30
0.0
 11
125.6983387865155
 21
178.0807640987147
 31
0.0
  0
TEXT
  5
A79
330
18
100
AcDbEntity
  8
文字
100
AcDbText
 10
127.3078930161513
 20
182.6644105762121
 30
0.0
 40
1.199999999999999
  1
30
  7
STYLE3
100
AcDbText
  0
LINE
  5
A7A
330
18
100
AcDbEntity
  8
目盛
100
AcDbLine
 10
125.6983387865155
 20
179.6811941979266
 30
0.0
 11
125.6983387865155
 21
180.9311941979266
 31
0.0
  0
TEXT
  5
A7B
330
18
100
AcDbEntity
  8
文字
100
AcDbText
 10
122.3064916208485
 20
182.4775880468624
 30
0.0
 40
1.199999999999999
  1
50
  7
STYLE3
100
AcDbText
  0
LINE
  5
A7C
330
18
100
AcDbEntity
  8
目盛
100
AcDbLine
 10
121.1021447088029
 20
181.585000120214
 30
0.0
 11
121.9860281852861
 21
182.4688835966972
 31
0.0
  0
TEXT
  5
A7D
330
18
100
AcDbEntity
  8
文字
100
AcDbText
 10
124.6128096079991
 20
181.2928741260174
 30
0.0
 40
1.199999999999999
  1
40
  7
STYLE3
100
AcDbText
  0
LINE
  5
A7E
330
18
100
AcDbEntity
  8
目盛
100
AcDbLine
 10
130.294532864228
 20
181.585000120214
 30
0.0
 11
129.4106493877448
 21
182.4688835966972
 31
0.0
  0
LINE
  5
A7F
330
18
100
AcDbEntity
  8
目盛
100
AcDbLine
 10
119.1983387865155
 20
186.1811941979265
 30
0.0
 11
120.4483387865155
 21
186.1811941979265
 31
0.0
  0
LINE
  5
A80
330
18
100
AcDbEntity
  8
中心線
100
AcDbLine
 10
117.4397514913944
 20
186.1811941979265
 30
0.0
 11
133.8083387865155
 21
186.1811941979265
 31
0.0
  0
TEXT
  5
A81
330
18
100
AcDbEntity
  8
文字
100
AcDbText
 10
127.4081398126478
 20
188.3158050134271
 30
0.0
 40
1.199999999999999
  1
10
  7
STYLE3
100
AcDbText
  0
LINE
  5
A82
330
18
100
AcDbEntity
  8
目盛
100
AcDbLine
 10
125.6983387865155
 20
192.6811941979265
 30
0.0
 11
125.6983387865155
 21
191.4311941979265
 31
0.0
  0
LINE
  5
A83
330
18
100
AcDbEntity
  8
目盛
100
AcDbLine
 10
121.1021447088029
 20
190.7773882756391
 30
0.0
 11
121.9860281852861
 21
189.8935047991559
 31
0.0
  0
TEXT
  5
A84
330
18
100
AcDbEntity
  8
文字
100
AcDbText
 10
121.6188882549069
 20
188.2587869962009
 30
0.0
 40
1.199999999999999
  1
70
  7
STYLE3
100
AcDbText
  0
TEXT
  5
A85
330
18
100
AcDbEntity
  8
文字
100
AcDbText
 10
125.1725869977605
 20
189.5871712917623
 30
0.0
 40
1.199999999999999
  1
0
  7
STYLE3
100
AcDbText
  0
LINE
  5
A86
330
18
100
AcDbEntity
  8
目盛
100
AcDbLine
 10
130.294532864228
 20
190.7773882756391
 30
0.0
 11
129.4106493877448
 21
189.8935047991559
 31
0.0
  0
LINE
  5
A87
330
18
100
AcDbEntity
  8
目盛
100
AcDbLine
 10
132.1983387865155
 20
186.1811941979265
 30
0.0
 11
130.9483387865155
 21
186.1811941979265
 31
0.0
  0
POINT
  5
A92
330
18
100
AcDbEntity
  8
DEFPOINTS
  6
ByBlock
 62
     0
100
AcDbPoint
 10
125.6983387865155
 20
191.4311941979265
 30
0.0
  0
TEXT
  5
B0B
330
18
100
AcDbEntity
  8
寸法線
 62
     6
100
AcDbText
 10
146.7922693106001
 20
104.7436952601737
 30
0.0
 40
1.75
  1
 0
  7
STYLE3
100
AcDbText
  0
TEXT
  5
B0C
330
18
100
AcDbEntity
  8
寸法線
 62
     6
100
AcDbText
 10
145.71232691951
 20
102.4103619268404
 30
0.0
 40
1.75
  1
-0.03
  7
STYLE3
100
AcDbText
  0
LINE
  5
B1D
330
18
100
AcDbEntity
  8
外形線
100
AcDbLine
 10
278.5566331375439
 20
267.9611941979266
 30
0.0
 11
278.5566331375439
 21
265.9611941979265
 31
0.0
  0
LINE
  5
B20
330
18
100
AcDbEntity
  8
外形線
100
AcDbLine
 10
286.2566331375439
 20
267.9611941979266
 30
0.0
 11
286.2566331375439
 21
265.9611941979265
 31
0.0
  0
LINE
  5
B21
330
18
100
AcDbEntity
  8
外形線
100
AcDbLine
 10
142.5383387865155
 20
267.9611941979266
 30
0.0
 11
142.5383387865155
 21
265.9611941979265
 31
0.0
  0
LINE
  5
B22
330
18
100
AcDbEntity
  8
外形線
100
AcDbLine
 10
134.8383387865155
 20
267.9611941979266
 30
0.0
 11
134.8383387865155
 21
265.9611941979265
 31
0.0
  0
SPLINE
  5
B23
330
18
100
AcDbEntity
  8
寸法線
100
AcDbSpline
210
0.0
220
0.0
230
1.0
 70
     8
 71
     3
 72
    10
 73
     6
 74
     4
 42
0.0000000001
 43
0.0000000001
 44
0.0000000001
 40
0.0
 40
0.0
 40
0.0
 40
0.0
 40
2.279065038175651
 40
5.009796367131242
 40
6.533055554017263
 40
6.533055554017263
 40
6.533055554017263
 40
6.533055554017263
 10
135.6883387865155
 20
64.72643330791697
 30
0.0
 10
136.4209428579267
 20
65.17403233300631
 30
0.0
 10
138.0313388554186
 20
66.15793579002176
 30
0.0
 10
139.8549969259351
 20
63.67253510908262
 30
0.0
 10
141.2049505004746
 20
64.44855712183849
 30
0.0
 10
141.6883387865155
 20
64.72643330791697
 30
0.0
 11
135.6883387865155
 21
64.72643330791697
 31
0.0
 11
137.8422881106021
 21
65.47117471102365
 31
0.0
 11
140.2590071880693
 21
64.19981225619586
 31
0.0
 11
141.6883387865155
 21
64.72643330791697
 31
0.0
  0
SPLINE
  5
B24
330
18
100
AcDbEntity
  8
寸法線
100
AcDbSpline
210
0.0
220
0.0
230
1.0
 70
     8
 71
     3
 72
    10
 73
     6
 74
     4
 42
0.0000000001
 43
0.0000000001
 44
0.0000000001
 40
0.0
 40
0.0
 40
0.0
 40
0.0
 40
2.279065038175638
 40
5.009796367131228
 40
6.533055554017235
 40
6.533055554017235
 40
6.533055554017235
 40
6.533055554017235
 10
279.4066331375439
 20
64.72643330791697
 30
0.0
 10
280.1392372089552
 20
65.17403233300632
 30
0.0
 10
281.749633206447
 20
66.15793579002176
 30
0.0
 10
283.5732912769635
 20
63.67253510908262
 30
0.0
 10
284.923244851503
 20
64.44855712183848
 30
0.0
 10
285.4066331375439
 20
64.72643330791697
 30
0.0
 11
279.4066331375439
 21
64.72643330791697
 31
0.0
 11
281.5605824616305
 21
65.47117471102365
 31
0.0
 11
283.9773015390977
 21
64.19981225619586
 31
0.0
 11
285.4066331375439
 21
64.72643330791697
 31
0.0
  0
SPLINE
  5
B25
330
18
100
AcDbEntity
  8
寸法線
100
AcDbSpline
210
0.0
220
0.0
230
1.0
 70
     8
 71
     3
 72
    10
 73
     6
 74
     4
 42
0.0000000001
 43
0.0000000001
 44
0.0000000001
 40
0.0
 40
0.0
 40
0.0
 40
0.0
 40
2.279065038175638
 40
5.009796367131228
 40
6.533055554017235
 40
6.533055554017235
 40
6.533055554017235
 40
6.533055554017235
 10
279.4066331375438
 20
60.92920574211837
 30
0.0
 10
280.1392372089551
 20
61.37680476720771
 30
0.0
 10
281.7496332064469
 20
62.36070822422316
 30
0.0
 10
283.5732912769633
 20
59.87530754328398
 30
0.0
 10
284.9232448515029
 20
60.65132955603987
 30
0.0
 10
285.4066331375438
 20
60.92920574211837
 30
0.0
 11
279.4066331375438
 21
60.92920574211837
 31
0.0
 11
281.5605824616304
 21
61.67394714522504
 31
0.0
 11
283.9773015390976
 21
60.40258469039724
 31
0.0
 11
285.4066331375438
 21
60.92920574211837
 31
0.0
  0
SPLINE
  5
B26
330
18
100
AcDbEntity
  8
寸法線
100
AcDbSpline
210
0.0
220
0.0
230
1.0
 70
     8
 71
     3
 72
    10
 73
     6
 74
     4
 42
0.0000000001
 43
0.0000000001
 44
0.0000000001
 40
0.0
 40
0.0
 40
0.0
 40
0.0
 40
2.279065038175651
 40
5.009796367131242
 40
6.533055554017263
 40
6.533055554017263
 40
6.533055554017263
 40
6.533055554017263
 10
135.6883387865155
 20
60.92920574211831
 30
0.0
 10
136.4209428579267
 20
61.37680476720764
 30
0.0
 10
138.0313388554186
 20
62.36070822422312
 30
0.0
 10
139.8549969259351
 20
59.87530754328395
 30
0.0
 10
141.2049505004746
 20
60.65132955603982
 30
0.0
 10
141.6883387865155
 20
60.92920574211831
 30
0.0
 11
135.6883387865155
 21
60.92920574211831
 31
0.0
 11
137.8422881106021
 21
61.67394714522498
 31
0.0
 11
140.2590071880693
 21
60.40258469039719
 31
0.0
 11
141.6883387865155
 21
60.92920574211831
 31
0.0
  0
ARC
  5
B61
330
18
100
AcDbEntity
  8
外形線
100
AcDbCircle
 10
138.6883387865155
 20
45.10193127065891
 30
0.0
 40
1.199999999999999
100
AcDbArc
 50
189.5940682268598
 51
350.4059317731401
  0
ARC
  5
B62
330
18
100
AcDbEntity
  8
外形線
100
AcDbCircle
 10
282.4066331375438
 20
45.10193127065891
 30
0.0
 40
1.199999999999999
100
AcDbArc
 50
189.5940682268598
 51
350.4059317731401
  0
TEXT
  5
B83
330
18
100
AcDbEntity
  8
文字
100
AcDbText
 10
136.2113418972005
 20
289.7745883054937
 30
0.0
 40
4.0
  1
Model No.809 Long Travel Dial Gauge
  7
STYLE3
100
AcDbText
  0
LINE
  5
B84
330
18
100
AcDbEntity
  8
外形線
100
AcDbLine
 10
135.7118668972005
 20
286.7615323054937
 30
0.0
 11
247.7118668972005
 21
286.7615323054937
 31
0.0
  0
LINE
  5
B85
330
18
100
AcDbEntity
  8
外形線
100
AcDbLine
 10
135.7118668972005
 20
287.7615323054937
 30
0.0
 11
247.7118668972005
 21
287.7615323054937
 31
0.0
  0
LINE
  5
BD9
330
18
100
AcDbEntity
  8
外形線
100
AcDbLine
 10
245.7454026101963
 20
36.53504043970925
 30
0.0
 11
386.5368206101962
 21
36.53504043970925
 31
0.0
  0
LINE
  5
BDA
330
18
100
AcDbEntity
  8
外形線
100
AcDbLine
 10
245.7454026101963
 20
25.75483443970925
 30
0.0
 11
386.5368206101962
 21
25.75483443970925
 31
0.0
  0
TEXT
  5
BDB
330
18
100
AcDbEntity
  8
0
  6
Continuous
100
AcDbText
 10
247.2028696101963
 20
27.65282443970925
 30
0.0
 40
2.1
  1
Design and specifications are subject to change without notice for future improvement.
  7
STYLE3
100
AcDbText
  0
TEXT
  5
BDC
330
18
100
AcDbEntity
  8
0
  6
Continuous
100
AcDbText
 10
247.4943636101962
 20
31.58197243970925
 30
0.0
 40
3.5
  1
仕様及び外観は予告なく変更される場合がございますのでご了承下さい。
  7
STYLE3
100
AcDbText
  0
TEXT
  5
BDD
330
18
100
AcDbEntity
  8
0
  6
Continuous
100
AcDbText
 10
246.9113786101962
 20
17.88819643970924
 30
0.0
 40
2.1
  1
3RD Angle Projection
  7
STYLE3
100
AcDbText
  0
TEXT
  5
BDE
330
18
100
AcDbEntity
  8
0
  6
Continuous
100
AcDbText
 10
249.5348216101962
 20
21.38447943970925
 30
0.0
 40
3.0
  1
三　　角　　法
  7
STYLE3
100
AcDbText
  0
LINE
  5
BDF
330
18
100
AcDbEntity
  8
外形線
100
AcDbLine
 10
245.7454026101963
 20
16.14005643970925
 30
0.0
 11
245.7454026101963
 21
36.53504043970925
 31
0.0
  0
LINE
  5
BE0
330
18
100
AcDbEntity
  8
外形線
100
AcDbLine
 10
347.7681696101963
 20
25.75483443970925
 30
0.0
 11
347.7681696101963
 21
16.14005643970925
 31
0.0
  0
LINE
  5
BE1
330
18
100
AcDbEntity
  8
外形線
100
AcDbLine
 10
318.0358196101963
 20
25.75483443970925
 30
0.0
 11
318.0358196101963
 21
16.14005643970925
 31
0.0
  0
LINE
  5
BE2
330
18
100
AcDbEntity
  8
外形線
100
AcDbLine
 10
298.5057476101962
 20
25.75483443970925
 30
0.0
 11
298.5057476101962
 21
16.14005643970925
 31
0.0
  0
LINE
  5
BE3
330
18
100
AcDbEntity
  8
外形線
100
AcDbLine
 10
281.0161306101962
 20
25.75483443970925
 30
0.0
 11
281.0161306101962
 21
16.14005643970925
 31
0.0
  0
TEXT
  5
BE4
330
18
100
AcDbEntity
  8
0
  6
Continuous
100
AcDbText
 10
282.4735996101962
 20
21.39043443970924
 30
0.0
 40
3.0
  1
単位
  7
STYLE3
100
AcDbText
  0
TEXT
  5
BE5
330
18
100
AcDbEntity
  8
0
  6
Continuous
100
AcDbText
 10
282.6453206101962
 20
17.88819743970925
 30
0.0
 40
2.1
  1
Unit
  7
STYLE3
100
AcDbText
  0
TEXT
  5
BE6
330
18
100
AcDbEntity
  8
0
  6
Continuous
100
AcDbText
 10
299.7914956101963
 20
21.09907643970925
 30
0.0
 40
3.0
  1
尺 度
  7
STYLE3
100
AcDbText
  0
TEXT
  5
BE7
330
18
100
AcDbEntity
  8
0
  6
Continuous
100
AcDbText
 10
290.5156476101963
 20
19.63634043970925
 30
0.0
 40
2.399999999999999
  1
mm
  7
STYLE3
100
AcDbText
  0
TEXT
  5
BE8
330
18
100
AcDbEntity
  8
0
  6
Continuous
100
AcDbText
 10
300.2547106101963
 20
18.17955443970925
 30
0.0
 40
2.1
  1
Scale
  7
STYLE3
100
AcDbText
  0
TEXT
  5
BE9
330
18
100
AcDbEntity
  8
0
  6
Continuous
100
AcDbText
 10
309.8739996101962
 20
19.92769743970925
 30
0.0
 40
2.399999999999999
  1
1/1
  7
STYLE3
100
AcDbText
  0
TEXT
  5
BEA
330
18
100
AcDbEntity
  8
0
  6
Continuous
100
AcDbText
 10
319.9677706101962
 20
17.88819843970925
 30
0.0
 40
2.1
  1
Date
  7
STYLE3
100
AcDbText
  0
TEXT
  5
BEB
330
18
100
AcDbEntity
  8
0
  6
Continuous
100
AcDbText
 10
319.5844096101962
 20
21.22128143970925
 30
0.0
 40
3.0
  1
日 付
  7
STYLE3
100
AcDbText
  0
TEXT
  5
BEC
330
18
100
AcDbEntity
  8
0
  6
Continuous
100
AcDbText
 10
328.7125786101963
 20
19.63633943970924
 30
0.0
 40
2.1
  1
2010.06.08
  7
STYLE3
100
AcDbText
  0
TEXT
  5
BED
330
18
100
AcDbEntity
  8
0
  6
Continuous
100
AcDbText
 10
349.1171326101962
 20
21.67583643970925
 30
0.0
 40
3.0
  1
株式会社　尾崎製作所
  7
STYLE3
100
AcDbText
  0
TEXT
  5
BEE
330
18
100
AcDbEntity
  8
0
  6
Continuous
100
AcDbText
 10
349.9916116101962
 20
17.88819743970925
 30
0.0
 40
2.1
  1
OZAKI MFG. CO., LTD.
  7
STYLE3
100
AcDbText
  0
ENDSEC
  0
SECTION
  2
OBJECTS
  0
DICTIONARY
  5
C
330
0
100
AcDbDictionary
281
     1
  3
ACAD_COLOR
350
90F
  3
ACAD_GROUP
350
D
  3
ACAD_LAYOUT
350
912
  3
ACAD_MATERIAL
350
90E
  3
ACAD_MLINESTYLE
350
1B
  3
ACAD_PLOTSETTINGS
350
913
  3
ACAD_PLOTSTYLENAME
350
90C
  3
ACAD_TABLESTYLE
350
910
  3
ACDBVARIABLEDICTIONARY
350
578
  0
DICTIONARY
  5
B1E
330
18
100
AcDbDictionary
280
     1
281
     1
  3
ACAD_SORTENTS
360
B1F
  0
DICTIONARY
  5
90F
102
{ACAD_REACTORS
330
C
102
}
330
C
100
AcDbDictionary
281
     1
  0
DICTIONARY
  5
D
102
{ACAD_REACTORS
330
C
102
}
330
C
100
AcDbDictionary
281
     1
  0
DICTIONARY
  5
912
102
{ACAD_REACTORS
330
C
102
}
330
C
100
AcDbDictionary
281
     1
  3
Model
350
914
  3
レイアウト1
350
915
  0
DICTIONARY
  5
90E
102
{ACAD_REACTORS
330
C
102
}
330
C
100
AcDbDictionary
281
     1
  0
DICTIONARY
  5
1B
102
{ACAD_REACTORS
330
C
102
}
330
C
100
AcDbDictionary
281
     1
  3
STANDARD
350
1C
  0
DICTIONARY
  5
913
102
{ACAD_REACTORS
330
C
102
}
330
C
100
AcDbDictionary
281
     1
  0
ACDBDICTIONARYWDFLT
  5
90C
102
{ACAD_REACTORS
330
C
102
}
330
C
100
AcDbDictionary
281
     1
  3
Normal
350
90D
100
AcDbDictionaryWithDefault
340
90D
  0
DICTIONARY
  5
910
102
{ACAD_REACTORS
330
C
102
}
330
C
100
AcDbDictionary
281
     1
  3
Standard
350
911
  0
DICTIONARY
  5
578
102
{ACAD_REACTORS
330
C
102
}
330
C
100
AcDbDictionary
281
     1
  3
CTABLESTYLE
350
91C
  3
SORTENTS
350
579
  0
SORTENTSTABLE
  5
B1F
102
{ACAD_REACTORS
330
B1E
102
}
330
B1E
100
AcDbSortentsTable
330
18
331
850
  5
852
331
7DA
  5
7DC
331
811
  5
813
331
429
  5
42B
331
858
  5
85A
331
819
  5
81B
331
70B
  5
70D
331
7E2
  5
7E4
331
8CE
  5
8D0
331
27C
  5
27F
331
3F2
  5
3F5
331
498
  5
49A
331
8D6
  5
8D8
331
897
  5
899
331
821
  5
823
331
773
  5
775
331
7EA
  5
7EC
331
860
  5
862
331
284
  5
286
331
3FA
  5
3FC
331
431
  5
433
331
6C6
  5
6C8
331
567
  5
569
331
4A0
  5
4A2
331
402
  5
404
331
8DE
  5
8E0
331
89F
  5
8A1
331
829
  5
831
331
7F2
  5
7F4
331
77B
  5
77D
331
868
  5
86A
331
24D
  5
24D
331
28C
  5
28E
331
439
  5
43B
331
6CE
  5
6D0
331
4A8
  5
4AA
331
441
  5
443
331
8A7
  5
8A9
331
8E6
  5
8E8
331
255
  5
257
331
40A
  5
40C
331
6D6
  5
6D8
331
6DE
  5
6E0
331
577
  5
6B0
331
B20
  5
253
331
21E
  5
21E
331
870
  5
872
331
7FA
  5
7FC
331
783
  5
786
331
831
  5
834
331
226
  5
226
331
449
  5
44B
331
412
  5
414
331
8EE
  5
92B
331
878
  5
87A
331
839
  5
83B
331
78B
  5
78D
331
802
  5
804
331
8AF
  5
8B1
331
25D
  5
25F
331
4B0
  5
4B2
331
2A4
  5
2B3
331
8B7
  5
8B9
331
841
  5
843
331
80A
  5
80C
331
880
  5
882
331
265
  5
267
331
41A
  5
41C
331
4B8
  5
4BA
331
6E6
  5
6E8
331
4D0
  5
4F1
331
422
  5
424
331
849
  5
84B
331
79B
  5
7DB
331
8BF
  5
8C1
331
26D
  5
26F
331
459
  5
45B
331
6EE
  5
6F0
331
8C7
  5
8C9
331
3EB
  5
3ED
331
461
  5
463
331
A79
  5
A7B
331
6BF
  5
6C1
331
A81
  5
A83
331
888
  5
88A
331
812
  5
814
331
7DB
  5
7DD
331
851
  5
853
331
3F3
  5
3F6
331
81A
  5
81C
331
7E3
  5
7E5
331
70C
  5
70E
331
859
  5
85B
331
8CF
  5
8D1
331
27D
  5
280
331
42A
  5
42C
331
4F0
  5
561
331
499
  5
49B
331
432
  5
434
331
285
  5
287
331
898
  5
89A
331
861
  5
863
331
7EB
  5
7ED
331
774
  5
776
331
822
  5
824
331
8D7
  5
8D9
331
246
  5
246
331
3FB
  5
3FD
331
6C7
  5
6C9
331
6CF
  5
6D1
331
568
  5
56A
331
43A
  5
43C
331
28D
  5
28F
331
8DF
  5
8E1
331
869
  5
86B
331
82A
  5
832
331
77C
  5
77F
331
7F3
  5
7F5
331
8A0
  5
8A2
331
24E
  5
24E
331
403
  5
405
331
4A1
  5
4A3
331
570
  5
575
331
4A9
  5
4AB
331
8E7
  5
8E9
331
295
  5
29F
331
40B
  5
40D
331
442
  5
444
331
6D7
  5
6D9
331
6DF
  5
6E1
331
217
  5
217
331
21F
  5
21F
331
8A8
  5
8AA
331
832
  5
835
331
7FB
  5
7FD
331
871
  5
873
331
4B1
  5
4B3
331
413
  5
415
331
25E
  5
260
331
44A
  5
44C
331
8EF
  5
A75
331
8B0
  5
8B2
331
83A
  5
83C
331
803
  5
805
331
78C
  5
78E
331
879
  5
87B
331
6E7
  5
6E9
331
4B9
  5
4BB
331
2A5
  5
2D6
331
266
  5
268
331
41B
  5
41D
331
5E8
  5
6B1
331
8B8
  5
8BA
331
881
  5
883
331
842
  5
844
331
794
  5
796
331
80B
  5
80D
331
6EF
  5
6F1
331
45A
  5
45C
331
423
  5
425
331
26E
  5
274
331
6B0
  5
6B8
331
84A
  5
84C
331
8C0
  5
8C2
331
462
  5
464
331
276
  5
278
331
3EC
  5
3EE
331
6B8
  5
6BA
331
A7A
  5
A7C
331
A82
  5
A84
331
889
  5
88B
331
852
  5
854
331
7DC
  5
7DE
331
813
  5
815
331
8C8
  5
8CA
331
6C0
  5
6C2
331
42B
  5
42D
331
4F1
  5
562
331
8D0
  5
8D2
331
85A
  5
85C
331
81B
  5
81D
331
70D
  5
771
331
7E4
  5
7E6
331
891
  5
893
331
561
  5
563
331
49A
  5
49C
331
3FC
  5
3FE
331
247
  5
247
331
286
  5
288
331
433
  5
435
331
6C8
  5
6CA
331
8D8
  5
8DA
331
899
  5
89B
331
823
  5
825
331
7EC
  5
7EE
331
775
  5
777
331
862
  5
864
331
A92
  5
B0C
331
6D0
  5
6D2
331
4A2
  5
4A4
331
404
  5
406
331
34D
  5
35F
331
24F
  5
24F
331
28E
  5
290
331
43B
  5
43D
331
569
  5
56C
331
8A1
  5
8A3
331
7F4
  5
7F6
331
77D
  5
780
331
86A
  5
86C
331
8E0
  5
8E2
331
4AA
  5
4AC
331
443
  5
445
331
296
  5
2A0
331
257
  5
25A
331
40C
  5
40E
331
6D8
  5
6DA
331
218
  5
218
331
220
  5
220
331
8A9
  5
8AB
331
7FC
  5
7FE
331
785
  5
788
331
872
  5
874
331
8E8
  5
8EA
331
6E0
  5
6E2
331
44B
  5
44D
331
414
  5
416
331
25F
  5
261
331
36D
  5
36F
331
4B2
  5
4B4
331
87A
  5
87C
331
83B
  5
83D
331
78D
  5
78F
331
804
  5
806
331
8B1
  5
8B3
331
4BA
  5
4BC
331
41C
  5
41E
331
267
  5
269
331
453
  5
455
331
6E8
  5
6EA
331
8B9
  5
8BB
331
843
  5
845
331
795
  5
797
331
80C
  5
80E
331
882
  5
884
331
6B1
  5
6B9
331
424
  5
426
331
26F
  5
276
331
45B
  5
45D
331
6F0
  5
6F2
331
84B
  5
84D
331
8C1
  5
8C3
331
3ED
  5
3EF
331
277
  5
279
331
463
  5
465
331
6B9
  5
6BB
331
A7B
  5
A7D
331
A83
  5
A85
331
228
  5
228
331
8C9
  5
8CB
331
88A
  5
88C
331
814
  5
816
331
7DD
  5
7DF
331
853
  5
855
331
6C1
  5
6C3
331
42C
  5
42E
331
2D6
  5
2D8
331
240
  5
240
331
27F
  5
281
331
3F5
  5
3F7
331
892
  5
894
331
85B
  5
85D
331
7E5
  5
7E7
331
70E
  5
772
331
81C
  5
81E
331
8D1
  5
8D3
331
6C9
  5
6CB
331
49B
  5
49D
331
434
  5
436
331
287
  5
289
331
248
  5
248
331
3FD
  5
3FF
331
562
  5
564
331
89A
  5
89C
331
863
  5
865
331
7ED
  5
7EF
331
776
  5
779
331
824
  5
826
331
8D9
  5
8DB
331
6D1
  5
6D3
331
56A
  5
56E
331
43C
  5
43E
331
405
  5
407
331
28F
  5
291
331
34E
  5
36A
331
4A3
  5
4A5
331
8E1
  5
8E3
331
86B
  5
86D
331
7F5
  5
7F7
331
8A2
  5
8A4
331
B0B
  5
B1D
331
572
  5
576
331
4AB
  5
4AD
331
40D
  5
40F
331
444
  5
446
331
6D9
  5
6DB
331
219
  5
219
331
221
  5
221
331
8E9
  5
8EB
331
8AA
  5
8AC
331
834
  5
836
331
7FD
  5
7FF
331
786
  5
78A
331
873
  5
875
331
4B3
  5
4B5
331
415
  5
417
331
36E
  5
370
331
260
  5
262
331
29F
  5
2A1
331
44C
  5
44E
331
6E1
  5
6E3
331
8B2
  5
8B4
331
83C
  5
83E
331
805
  5
807
331
78E
  5
790
331
87B
  5
87D
331
4BB
  5
4BD
331
454
  5
456
331
41D
  5
41F
331
268
  5
26A
331
6E9
  5
6EB
331
8BA
  5
8BC
331
883
  5
885
331
844
  5
846
331
796
  5
799
331
80D
  5
80F
331
6F1
  5
6F3
331
45C
  5
45E
331
425
  5
427
331
3E6
  5
3EB
331
84C
  5
84E
331
8C2
  5
8C4
331
6BA
  5
6BC
331
3EE
  5
3F0
331
464
  5
466
331
A7C
  5
A7E
331
A84
  5
A86
331
278
  5
27A
331
229
  5
229
331
8CA
  5
8CC
331
854
  5
856
331
7DE
  5
7E0
331
815
  5
817
331
88B
  5
88D
331
6C2
  5
6C4
331
42D
  5
42F
331
3F6
  5
3F8
331
280
  5
282
331
241
  5
241
331
2D7
  5
34D
331
8D2
  5
8D4
331
85C
  5
85E
331
81D
  5
81F
331
7E6
  5
7E8
331
893
  5
895
331
563
  5
565
331
49C
  5
49E
331
3FE
  5
400
331
249
  5
249
331
288
  5
28A
331
435
  5
437
331
6CA
  5
6CC
331
8DA
  5
8DC
331
89B
  5
89D
331
825
  5
827
331
7EE
  5
7F0
331
777
  5
77A
331
864
  5
866
331
4A4
  5
4A6
331
43D
  5
43F
331
290
  5
292
331
406
  5
408
331
6D2
  5
6D4
331
8A3
  5
8A5
331
7F6
  5
7F8
331
77F
  5
781
331
86C
  5
86E
331
8E2
  5
8E4
331
4AC
  5
4AE
331
445
  5
447
331
35F
  5
36D
331
40E
  5
410
331
6DA
  5
6DC
331
B0C
  5
B20
331
212
  5
212
331
21A
  5
21A
331
222
  5
222
331
259
  5
25B
331
8AB
  5
8AD
331
874
  5
876
331
7FE
  5
800
331
835
  5
837
331
8EA
  5
8EC
331
6E2
  5
6E4
331
44D
  5
453
331
416
  5
418
331
2A0
  5
2A2
331
261
  5
263
331
36F
  5
3E6
331
4B4
  5
4B6
331
87C
  5
87E
331
83D
  5
83F
331
78F
  5
792
331
806
  5
808
331
8B3
  5
8B5
331
4BC
  5
4BE
331
41E
  5
420
331
269
  5
26B
331
455
  5
457
331
6EA
  5
6EC
331
8BB
  5
8BD
331
845
  5
847
331
80E
  5
810
331
797
  5
79A
331
884
  5
886
331
6F2
  5
6F4
331
426
  5
428
331
45D
  5
45F
331
84D
  5
84F
331
8C3
  5
8C5
331
3EF
  5
3F1
331
465
  5
497
331
6BB
  5
6BD
331
A75
  5
A77
331
A7D
  5
A7F
331
A85
  5
A87
331
700
  5
702
331
279
  5
27B
331
8CB
  5
8CD
331
88C
  5
88E
331
816
  5
818
331
7DF
  5
7E1
331
708
  5
70A
331
855
  5
857
331
6C3
  5
6C5
331
42E
  5
430
331
2D8
  5
34E
331
281
  5
284
331
242
  5
242
331
3F7
  5
3F9
331
894
  5
896
331
85D
  5
85F
331
7E7
  5
7E9
331
81E
  5
820
331
8D3
  5
8D5
331
6CB
  5
6CD
331
564
  5
566
331
436
  5
438
331
289
  5
28B
331
3FF
  5
401
331
49D
  5
49F
331
8DB
  5
8DD
331
865
  5
867
331
7EF
  5
7F1
331
826
  5
828
331
89C
  5
89E
331
6D3
  5
6D5
331
56C
  5
570
331
43E
  5
440
331
291
  5
293
331
252
  5
252
331
407
  5
409
331
4A5
  5
4A7
331
8E3
  5
8E5
331
86D
  5
86F
331
7F7
  5
7F9
331
8A4
  5
8A6
331
4AD
  5
4AF
331
40F
  5
411
331
446
  5
448
331
6DB
  5
6DD
331
B1D
  5
254
331
213
  5
213
331
21B
  5
21B
331
223
  5
223
331
780
  5
783
331
25A
  5
25C
331
8EB
  5
8ED
331
8AC
  5
8AE
331
836
  5
838
331
7FF
  5
801
331
788
  5
78B
331
875
  5
877
331
4B5
  5
4B7
331
44E
  5
454
331
370
  5
3EA
331
262
  5
264
331
2A1
  5
2A3
331
417
  5
419
331
6E3
  5
6E5
331
8B4
  5
8B6
331
87D
  5
87F
331
807
  5
809
331
790
  5
794
331
83E
  5
840
331
4BD
  5
4BF
331
456
  5
458
331
41F
  5
421
331
26A
  5
26C
331
6EB
  5
6ED
331
8BC
  5
8BE
331
885
  5
887
331
846
  5
848
331
80F
  5
811
331
6F3
  5
6F5
331
45E
  5
460
331
427
  5
429
331
84E
  5
850
331
8C4
  5
8C6
331
6BC
  5
6BE
331
466
  5
498
331
A76
  5
A78
331
A7E
  5
A80
331
A86
  5
A92
331
701
  5
703
331
27A
  5
27C
331
3F0
  5
3F2
331
8CC
  5
8CE
331
856
  5
858
331
817
  5
819
331
709
  5
70B
331
7E0
  5
7E2
331
88D
  5
88F
331
42F
  5
431
331
282
  5
285
331
243
  5
243
331
3F8
  5
3FA
331
6C4
  5
6C6
331
8D4
  5
8D6
331
85E
  5
860
331
81F
  5
821
331
771
  5
773
331
7E8
  5
7EA
331
895
  5
897
331
565
  5
567
331
49E
  5
4A0
331
400
  5
402
331
24B
  5
24B
331
28A
  5
28C
331
437
  5
439
331
6CC
  5
6CE
331
89D
  5
89F
331
827
  5
829
331
7F0
  5
7F2
331
779
  5
77B
331
866
  5
868
331
4A6
  5
4A8
331
43F
  5
441
331
292
  5
295
331
408
  5
40A
331
6D4
  5
6D6
331
253
  5
255
331
92B
  5
A76
331
8A5
  5
8A7
331
86E
  5
870
331
8E4
  5
8E6
331
6DC
  5
6DE
331
575
  5
577
331
447
  5
449
331
4AE
  5
4B0
331
21C
  5
21C
331
7F8
  5
7FA
331
224
  5
224
331
781
  5
785
331
410
  5
412
331
25B
  5
25D
331
8EC
  5
8EE
331
876
  5
878
331
800
  5
802
331
837
  5
839
331
8AD
  5
8AF
331
6E4
  5
6E6
331
2A2
  5
2A4
331
263
  5
265
331
418
  5
41A
331
4B6
  5
4B8
331
87E
  5
880
331
83F
  5
841
331
808
  5
80A
331
8B5
  5
8B7
331
4BE
  5
4D0
331
420
  5
422
331
26B
  5
26D
331
457
  5
459
331
6EC
  5
6EE
331
8BD
  5
8BF
331
847
  5
849
331
799
  5
79B
331
886
  5
888
331
6F4
  5
6FA
331
45F
  5
461
331
8C5
  5
8C7
331
84F
  5
851
331
6BD
  5
6BF
331
A77
  5
A79
331
A7F
  5
A81
331
A87
  5
B0B
331
810
  5
812
331
3F1
  5
3F3
331
27B
  5
27D
331
428
  5
42A
331
8CD
  5
8CF
331
88E
  5
890
331
818
  5
81A
331
7E1
  5
7E3
331
70A
  5
70C
331
857
  5
859
331
497
  5
499
331
430
  5
432
331
3F9
  5
3FB
331
244
  5
244
331
6C5
  5
6C7
331
896
  5
898
331
85F
  5
861
331
7E9
  5
7EB
331
772
  5
774
331
820
  5
822
331
8D5
  5
8D7
331
6CD
  5
6CF
331
566
  5
568
331
438
  5
43A
331
28B
  5
28D
331
24C
  5
24C
331
401
  5
403
331
49F
  5
4A1
331
867
  5
869
331
828
  5
82A
331
77A
  5
77C
331
7F1
  5
7F3
331
89E
  5
8A0
331
56E
  5
572
331
440
  5
442
331
293
  5
296
331
254
  5
256
331
409
  5
40B
331
4A7
  5
4A9
331
6D5
  5
6D7
331
8E5
  5
8E7
331
86F
  5
871
331
8A6
  5
8A8
331
576
  5
5E8
331
4AF
  5
4B1
331
6DD
  5
6DF
331
7F9
  5
7FB
331
225
  5
225
331
411
  5
413
331
8ED
  5
8EF
331
8AE
  5
8B0
331
838
  5
83A
331
801
  5
803
331
78A
  5
78C
331
877
  5
879
331
25C
  5
25E
331
36A
  5
36E
331
448
  5
44A
331
4B7
  5
4B9
331
2A3
  5
2A5
331
8B6
  5
8B8
331
87F
  5
881
331
809
  5
80B
331
792
  5
795
331
840
  5
842
331
264
  5
266
331
419
  5
41B
331
6E5
  5
6E7
331
6ED
  5
6EF
331
458
  5
45A
331
2B3
  5
2D7
331
887
  5
889
331
79A
  5
7DA
331
848
  5
84A
331
8BE
  5
8C0
331
26C
  5
26E
331
421
  5
423
331
4BF
  5
4F0
331
6F5
  5
6FB
331
460
  5
462
331
8C6
  5
8C8
331
274
  5
277
331
3EA
  5
3EC
331
A78
  5
A7A
331
6BE
  5
6C0
331
A80
  5
A82
  0
LAYOUT
  5
914
102
{ACAD_REACTORS
330
912
102
}
330
912
100
AcDbPlotSettings
  1

  2
A3 EPSON LP-6100.pc3
  4
A3
  6

 40
5.873749732971191
 41
5.873747825622558
 42
5.873748779296875
 43
5.873748779296875
 44
297.0106506347656
 45
419.9466552734374
 46
1.5
 47
25.0
 48
0.0
 49
0.0
140
0.0
141
0.0
142
1.0
143
1.0
 70
 28336
 72
     1
 73
     1
 74
     1
  7
AutoCAD LT 98.ctb
 75
    16
147
1.0
 76
     1
 77
     2
 78
   300
148
-8.799134288913478
149
-15.58846104896361
100
AcDbLayout
  1
Model
 70
     1
 71
     0
 10
0.0
 20
0.0
 11
12.0
 21
9.0
 12
0.0
 22
0.0
 32
0.0
 14
0.0
 24
0.0
 34
0.0
 15
0.0
 25
0.0
 35
0.0
146
0.0
 13
0.0
 23
0.0
 33
0.0
 16
1.0
 26
0.0
 36
0.0
 17
0.0
 27
1.0
 37
0.0
 76
     0
330
18
1001
ACAD_PSEXT
1000
A3 EPSON LP-6100.pc3
1000
EPSON LP-6100
1000
USB002
1000

1070
     0
  0
LAYOUT
  5
915
102
{ACAD_REACTORS
330
912
102
}
330
912
100
AcDbPlotSettings
  1

  2
WIDR Printer
  4

  6

 40
0.0
 41
0.0
 42
0.0
 43
0.0
 44
0.0
 45
0.0
 46
0.0
 47
0.0
 48
0.0
 49
0.0
140
0.0
141
0.0
142
1.0
143
1.0
 70
   688
 72
     0
 73
     0
 74
     5
  7
AutoCad LT 98.ctb
 75
    16
147
1.0
 76
     0
 77
     2
 78
   300
148
0.0
149
0.0
100
AcDbLayout
  1
レイアウト1
 70
     1
 71
     1
 10
0.0
 20
0.0
 11
420.0
 21
297.0
 12
0.0
 22
0.0
 32
0.0
 14
1.000000000000000E+20
 24
1.000000000000000E+20
 34
1.000000000000000E+20
 15
-1.000000000000000E+20
 25
-1.000000000000000E+20
 35
-1.000000000000000E+20
146
0.0
 13
0.0
 23
0.0
 33
0.0
 16
1.0
 26
0.0
 36
0.0
 17
0.0
 27
1.0
 37
0.0
 76
     0
330
15
  0
MLINESTYLE
  5
1C
102
{ACAD_REACTORS
330
1B
102
}
330
1B
100
AcDbMlineStyle
  2
STANDARD
 70
     0
  3

 62
   256
 51
90.0
 52
90.0
 71
     2
 49
0.5
 62
   256
  6
BYLAYER
 49
-0.5
 62
   256
  6
BYLAYER
  0
ACDBPLACEHOLDER
  5
90D
102
{ACAD_REACTORS
330
90C
102
}
330
90C
  0
ACAD_PROXY_OBJECT
  5
911
102
{ACAD_REACTORS
330
910
102
}
330
910
100
AcDbProxyObject
 90
      499
 91
      503
 95
  2555929
 70
     0
 93
     1849
310
4214DD185B99185C992420000000000000F83F0000000000003E0FC00000000000004901028000000C1008070000C3001FDFF8000000C1003FBFF000000182007F7FE00000030400FEFFC00000060801FDFF8000000C1003FBFF000000182000000000000000C2020B0000001820100E000186003FBFF000000182007F7FE0
310
0000030400FEFFC00000060801FDFF8000000C1003FBFF000000182007F7FE0000003040000000000000012404160000003040201C00030C007F7FE00000030400FEFFC00000060801FDFF8000000C1003FBFF000000182007F7FE00000030400FEFFC000000608000
340
F
340
F
340
F
 94
        0
  0
DICTIONARYVAR
  5
91C
102
{ACAD_REACTORS
330
578
102
}
330
578
100
DictionaryVariables
280
     0
  1
STANDARD
  0
DICTIONARYVAR
  5
579
102
{ACAD_REACTORS
330
578
102
}
330
578
100
DictionaryVariables
280
     0
  1
96
  0
ENDSEC
  0
EOF
