  0
SECTION
  2
HEADER
  9
$ACADVER
  1
AC1009
  9
$INSBASE
 10
0.0
 20
0.0
 30
0.0
  9
$EXTMIN
 10
236.48863799417049
 20
171.62351363306681
 30
-0.0015258207003583
  9
$EXTMAX
 10
491.9065729289581
 20
367.06137759255449
 30
0.0000000349246037
  9
$LIMMIN
 10
0.0
 20
0.0
  9
$LIMMAX
 10
420.0
 20
297.0
  9
$ORTHOMODE
 70
     0
  9
$REGENMODE
 70
     1
  9
$FILLMODE
 70
     1
  9
$QTEXTMODE
 70
     0
  9
$MIRRTEXT
 70
     1
  9
$DRAGMODE
 70
     2
  9
$LTSCALE
 40
1.0
  9
$OSMODE
 70
    37
  9
$ATTMODE
 70
     1
  9
$TEXTSIZE
 40
3.0
  9
$TRACEWID
 40
1.0
  9
$TEXTSTYLE
  7
STYLE3
  9
$CLAYER
  8
寸法線
  9
$CELTYPE
  6
BYLAYER
  9
$CECOLOR
 62
   256
  9
$DIMSCALE
 40
1.0
  9
$DIMASZ
 40
2.5
  9
$DIMEXO
 40
0.0
  9
$DIMDLI
 40
3.75
  9
$DIMRND
 40
0.0
  9
$DIMDLE
 40
0.0
  9
$DIMEXE
 40
1.25
  9
$DIMTP
 40
0.0
  9
$DIMTM
 40
0.0
  9
$DIMTXT
 40
2.5
  9
$DIMCEN
 40
2.5
  9
$DIMTSZ
 40
0.0
  9
$DIMTOL
 70
     0
  9
$DIMLIM
 70
     0
  9
$DIMTIH
 70
     0
  9
$DIMTOH
 70
     0
  9
$DIMSE1
 70
     0
  9
$DIMSE2
 70
     0
  9
$DIMTAD
 70
     1
  9
$DIMZIN
 70
     8
  9
$DIMBLK
  1

  9
$DIMASO
 70
     1
  9
$DIMSHO
 70
     1
  9
$DIMPOST
  1

  9
$DIMAPOST
  1

  9
$DIMALT
 70
     0
  9
$DIMALTD
 70
     4
  9
$DIMALTF
 40
0.0394
  9
$DIMLFAC
 40
1.0
  9
$DIMTOFL
 70
     1
  9
$DIMTVP
 40
0.0
  9
$DIMTIX
 70
     0
  9
$DIMSOXD
 70
     0
  9
$DIMSAH
 70
     1
  9
$DIMBLK1
  1
OPEN
  9
$DIMBLK2
  1
OPEN
  9
$DIMSTYLE
  2
STYLE3
  9
$DIMCLRD
 70
     2
  9
$DIMCLRE
 70
     2
  9
$DIMCLRT
 70
     6
  9
$DIMTFAC
 40
1.0
  9
$DIMGAP
 40
0.625
  9
$LUNITS
 70
     2
  9
$LUPREC
 70
     4
  9
$SKETCHINC
 40
1.0
  9
$FILLETRAD
 40
0.0
  9
$AUNITS
 70
     0
  9
$AUPREC
 70
     0
  9
$MENU
  1
.
  9
$ELEVATION
 40
0.0
  9
$PELEVATION
 40
0.0
  9
$THICKNESS
 40
0.0
  9
$LIMCHECK
 70
     0
  9
$BLIPMODE
 70
     0
  9
$CHAMFERA
 40
10.0
  9
$CHAMFERB
 40
10.0
  9
$SKPOLY
 70
     0
  9
$TDCREATE
 40
2450753.4625406251
  9
$TDUPDATE
 40
2455371.39213794
  9
$TDINDWG
 40
0.8090780208
  9
$TDUSRTIMER
 40
0.8090780208
  9
$USRTIMER
 70
     1
  9
$ANGBASE
 50
0.0
  9
$ANGDIR
 70
     0
  9
$PDMODE
 70
     0
  9
$PDSIZE
 40
0.0
  9
$PLINEWID
 40
0.0
  9
$COORDS
 70
     1
  9
$SPLFRAME
 70
     0
  9
$SPLINETYPE
 70
     6
  9
$SPLINESEGS
 70
     8
  9
$ATTDIA
 70
     0
  9
$ATTREQ
 70
     1
  9
$HANDLING
 70
     1
  9
$HANDSEED
  5
13F9
  9
$SURFTAB1
 70
     6
  9
$SURFTAB2
 70
     6
  9
$SURFTYPE
 70
     6
  9
$SURFU
 70
     6
  9
$SURFV
 70
     6
  9
$UCSNAME
  2

  9
$UCSORG
 10
0.0
 20
0.0
 30
0.0
  9
$UCSXDIR
 10
1.0
 20
0.0
 30
0.0
  9
$UCSYDIR
 10
0.0
 20
1.0
 30
0.0
  9
$PUCSNAME
  2

  9
$PUCSORG
 10
0.0
 20
0.0
 30
0.0
  9
$PUCSXDIR
 10
1.0
 20
0.0
 30
0.0
  9
$PUCSYDIR
 10
0.0
 20
1.0
 30
0.0
  9
$USERI1
 70
     0
  9
$USERI2
 70
     0
  9
$USERI3
 70
     0
  9
$USERI4
 70
     0
  9
$USERI5
 70
     0
  9
$USERR1
 40
0.0
  9
$USERR2
 40
0.0
  9
$USERR3
 40
0.0
  9
$USERR4
 40
0.0
  9
$USERR5
 40
0.0
  9
$WORLDVIEW
 70
     1
  9
$SHADEDGE
 70
     3
  9
$SHADEDIF
 70
    70
  9
$TILEMODE
 70
     1
  9
$MAXACTVP
 70
    48
  9
$PLIMCHECK
 70
     0
  9
$PEXTMIN
 10
1.0000000000000000E+020
 20
1.0000000000000000E+020
 30
1.0000000000000000E+020
  9
$PEXTMAX
 10
-1.0000000000000000E+020
 20
-1.0000000000000000E+020
 30
-1.0000000000000000E+020
  9
$PLIMMIN
 10
0.0
 20
0.0
  9
$PLIMMAX
 10
420.0
 20
297.0
  9
$UNITMODE
 70
     0
  9
$VISRETAIN
 70
     1
  9
$PLINEGEN
 70
     0
  9
$PSLTSCALE
 70
     1
  0
ENDSEC
  0
SECTION
  2
TABLES
  0
TABLE
  2
VPORT
 70
     3
  0
VPORT
  2
*ACTIVE
 70
     0
 10
0.0
 20
0.0
 11
1.0
 21
1.0
 12
364.19760546156431
 22
269.34244561281071
 13
0.0
 23
0.0
 14
10.0
 24
10.0
 15
10.0
 25
10.0
 16
0.0
 26
0.0
 36
1.0
 17
0.0
 27
0.0
 37
0.0
 40
196.9240834572785
 41
1.530456852791878
 42
50.0
 43
0.0
 44
0.0
 50
0.0
 51
0.0
 71
     0
 72
   100
 73
     1
 74
     1
 75
     0
 76
     0
 77
     0
 78
     0
  0
ENDTAB
  0
TABLE
  2
LTYPE
 70
    12
  0
LTYPE
  2
CONTINUOUS
 70
     0
  3
Solid line
 72
    65
 73
     0
 40
0.0
  0
LTYPE
  2
CENTER2
 70
     0
  3
Center (.5x) ___ _ ___ _ ___ _ ___ _ ___ _ ___
 72
    65
 73
     4
 40
28.574999999999999
 49
19.050000000000001
 49
-3.1749999999999989
 49
3.1749999999999989
 49
-3.1749999999999989
  0
ENDTAB
  0
TABLE
  2
LAYER
 70
    14
  0
LAYER
  2
0
 70
     0
 62
     7
  6
CONTINUOUS
  0
LAYER
  2
外形線
 70
     0
 62
     7
  6
CONTINUOUS
  0
LAYER
  2
寸法線
 70
     0
 62
     2
  6
CONTINUOUS
  0
LAYER
  2
中心線
 70
     0
 62
     4
  6
CENTER2
  0
LAYER
  2
ﾊｯﾁﾝｸ
 70
     0
 62
     6
  6
CONTINUOUS
  0
LAYER
  2
文字
 70
     0
 62
     6
  6
CONTINUOUS
  0
LAYER
  2
DEFPOINTS
 70
     0
 62
     7
  6
CONTINUOUS
  0
LAYER
  2
C
 70
     0
 62
     7
  6
CONTINUOUS
  0
ENDTAB
  0
TABLE
  2
STYLE
 70
     7
  0
STYLE
  2
STANDARD
 70
     0
 40
0.0
 41
1.0
 50
0.0
 71
     0
 42
2.5
  3
txt
  4

  0
STYLE
  2
STYLE3
 70
     0
 40
0.0
 41
1.0
 50
0.0
 71
     0
 42
3.0
  3
romans.shx
  4
bigfont.shx
  0
ENDTAB
  0
TABLE
  2
VIEW
 70
     0
  0
ENDTAB
  0
TABLE
  2
UCS
 70
     0
  0
ENDTAB
  0
TABLE
  2
APPID
 70
     2
  0
APPID
  2
ACAD
 70
     0
  0
APPID
  2
ACAD_PSEXT
 70
     0
  0
ENDTAB
  0
TABLE
  2
DIMSTYLE
 70
     6
  0
DIMSTYLE
  2
STANDARD
 70
     0
  3

  4

  5

  6

  7

 40
1.0
 41
2.5
 42
0.625
 43
3.75
 44
1.25
 45
0.0
 46
0.0
 47
0.0
 48
0.0
140
2.5
141
2.5
142
0.0
143
0.0394
144
1.0
145
0.0
146
1.0
147
0.625
 71
     0
 72
     0
 73
     0
 74
     0
 75
     0
 76
     0
 77
     1
 78
     8
170
     0
171
     4
172
     1
173
     0
174
     0
175
     0
176
     0
177
     0
178
     0
  0
DIMSTYLE
  2
STYLE3
 70
     0
  3

  4

  5

  6
OPEN
  7
OPEN
 40
1.0
 41
2.5
 42
0.0
 43
3.75
 44
1.25
 45
0.0
 46
0.0
 47
0.0
 48
0.0
140
2.5
141
2.5
142
0.0
143
0.0394
144
1.0
145
0.0
146
1.0
147
0.625
 71
     0
 72
     0
 73
     0
 74
     0
 75
     0
 76
     0
 77
     1
 78
     8
170
     0
171
     4
172
     1
173
     1
174
     0
175
     0
176
     2
177
     2
178
     6
  0
ENDTAB
  0
ENDSEC
  0
SECTION
  2
BLOCKS
  0
BLOCK
  8
0
  2
$MODEL_SPACE
 70
     0
 10
0.0
 20
0.0
 30
0.0
  3
$MODEL_SPACE
  1

  0
ENDBLK
  5
1A
  8
0
  0
BLOCK
 67
     1
  8
0
  2
$PAPER_SPACE
 70
     0
 10
0.0
 20
0.0
 30
0.0
  3
$PAPER_SPACE
  1

  0
ENDBLK
  5
17
 67
     1
  8
0
  0
BLOCK
  8
0
  2
_OPEN
 70
     0
 10
0.0
 20
0.0
 30
0.0
  3
_OPEN
  1

  0
LINE
  5
47
  8
0
  6
BYBLOCK
 62
     0
 10
-1.0
 20
0.1666666666666666
 30
0.0
 11
0.0
 21
0.0
 31
0.0
  0
LINE
  5
48
  8
0
  6
BYBLOCK
 62
     0
 10
0.0
 20
0.0
 30
0.0
 11
-1.0
 21
-0.1666666666666666
 31
0.0
  0
LINE
  5
49
  8
0
  6
BYBLOCK
 62
     0
 10
0.0
 20
0.0
 30
0.0
 11
-1.0
 21
0.0
 31
0.0
  0
ENDBLK
  5
4A
  8
0
  0
BLOCK
  8
0
  2
*D3
 70
     1
 10
0.0
 20
0.0
 30
0.0
  3
*D3
  1

  0
LINE
  5
337
  8
0
  6
BYBLOCK
 62
     2
 10
291.36182702052542
 20
271.96462892568297
 30
0.0
 11
291.36182702052542
 21
287.53571170056182
 31
0.0
  0
LINE
  5
338
  8
0
  6
BYBLOCK
 62
     2
 10
361.36182702052542
 20
273.07143022967881
 30
0.0
 11
361.36182702052542
 21
287.53571170056182
 31
0.0
  0
LINE
  5
339
  8
0
  6
BYBLOCK
 62
     2
 10
293.86182702052542
 20
286.28571170056182
 30
0.0
 11
358.86182702052542
 21
286.28571170056182
 31
0.0
  0
INSERT
  5
33A
  8
0
  6
BYBLOCK
 62
     2
  2
_OPEN
 10
291.36182702052542
 20
286.28571170056182
 30
0.0
 41
2.5
 42
2.5
 43
2.5
 50
180.0
  0
INSERT
  5
33B
  8
0
  6
BYBLOCK
 62
     2
  2
_OPEN
 10
361.36182702052542
 20
286.28571170056182
 30
0.0
 41
2.5
 42
2.5
 43
2.5
  0
INSERT
  5
33C
  8
寸法線
  2
*U14
 10
0.0
 20
0.0
 30
0.0
  0
POINT
  5
33D
  8
DEFPOINTS
  6
BYBLOCK
 62
     0
 10
291.36182702052542
 20
271.96462892568297
 30
0.0
  0
POINT
  5
33E
  8
DEFPOINTS
  6
BYBLOCK
 62
     0
 10
361.36182702052542
 20
273.07143022967881
 30
0.0
  0
POINT
  5
33F
  8
DEFPOINTS
  6
BYBLOCK
 62
     0
 10
361.36182702052542
 20
286.28571170056182
 30
0.0
  0
ENDBLK
  5
340
  8
0
  0
BLOCK
  8
0
  2
*D4
 70
     1
 10
0.0
 20
0.0
 30
0.0
  3
*D4
  1

  0
LINE
  5
641
  8
中心線
 62
     2
 10
426.82820865582579
 20
319.5292574490519
 30
0.0
 11
440.46352664463552
 21
319.5292574490519
 31
0.0
  0
LINE
  5
642
  8
中心線
 62
     2
 10
426.8282086558259
 20
306.5292574490519
 30
0.0
 11
440.46352664463552
 21
306.5292574490519
 31
0.0
  0
LINE
  5
643
  8
中心線
 62
     2
 10
439.21352664463558
 20
317.0292574490519
 30
0.0
 11
439.21352664463558
 21
309.02925744905178
 31
0.0
  0
INSERT
  5
644
  8
中心線
 62
     2
  2
_OPEN
 10
439.21352664463558
 20
319.5292574490519
 30
0.0
 41
2.5
 42
2.5
 43
2.5
 50
90.0
  0
INSERT
  5
645
  8
中心線
 62
     2
  2
_OPEN
 10
439.21352664463558
 20
306.5292574490519
 30
0.0
 41
2.5
 42
2.5
 43
2.5
 50
270.0
  0
INSERT
  5
646
  8
寸法線
  2
*U19
 10
0.0
 20
0.0
 30
0.0
  0
POINT
  5
647
  8
DEFPOINTS
 62
     0
 10
426.82820865582579
 20
319.5292574490519
 30
0.0
  0
POINT
  5
648
  8
DEFPOINTS
 62
     0
 10
426.8282086558259
 20
306.5292574490519
 30
0.0
  0
POINT
  5
649
  8
DEFPOINTS
 62
     0
 10
439.21352664463558
 20
306.5292574490519
 30
0.0
  0
ENDBLK
  5
5AA
  8
0
  0
BLOCK
  8
0
  2
*D5
 70
     1
 10
0.0
 20
0.0
 30
0.0
  3
*D5
  1

  0
LINE
  5
638
  8
中心線
 62
     2
 10
415.3282086558259
 20
319.5292574490519
 30
0.0
 11
415.3282086558259
 21
328.92195238359341
 31
0.0
  0
LINE
  5
639
  8
中心線
 62
     2
 10
426.82820865582579
 20
319.5292574490519
 30
0.0
 11
426.82820865582579
 21
328.92195238359341
 31
0.0
  0
LINE
  5
63A
  8
中心線
 62
     2
 10
417.8282086558259
 20
327.67195238359341
 30
0.0
 11
424.32820865582579
 21
327.67195238359341
 31
0.0
  0
INSERT
  5
63B
  8
中心線
 62
     2
  2
_OPEN
 10
415.3282086558259
 20
327.67195238359341
 30
0.0
 41
2.5
 42
2.5
 43
2.5
 50
180.0
  0
INSERT
  5
63C
  8
中心線
 62
     2
  2
_OPEN
 10
426.82820865582579
 20
327.67195238359341
 30
0.0
 41
2.5
 42
2.5
 43
2.5
  0
INSERT
  5
63D
  8
寸法線
  2
*U18
 10
0.0
 20
0.0
 30
0.0
  0
POINT
  5
63E
  8
DEFPOINTS
 62
     0
 10
415.3282086558259
 20
319.5292574490519
 30
0.0
  0
POINT
  5
63F
  8
DEFPOINTS
 62
     0
 10
426.82820865582579
 20
319.5292574490519
 30
0.0
  0
POINT
  5
640
  8
DEFPOINTS
 62
     0
 10
426.82820865582579
 20
327.67195238359341
 30
0.0
  0
ENDBLK
  5
5B5
  8
0
  0
BLOCK
  8
0
  2
六角ﾈｼ3
 70
     0
 10
0.0
 20
0.0
 30
0.0
  3
六角ﾈｼ3
  1

  0
LINE
  5
468
  8
外形線
 10
0.0000000000000568
 20
-5.2000000000000171
 30
0.0
 11
2.4999999999998859
 21
-5.1999999999999877
 31
0.0
  0
LINE
  5
469
  8
外形線
 10
2.500000000000397
 20
-2.6000000000000218
 30
0.0
 11
0.0000000000001137
 21
-2.599999999999965
 31
0.0
  0
LINE
  5
46A
  8
外形線
 10
2.500000000000056
 20
2.6000000000000218
 30
0.0
 11
-0.0000000000000568
 21
2.6000000000000218
 31
0.0
  0
LINE
  5
46B
  8
外形線
 10
-0.0000000000000568
 20
5.1999999999999877
 30
0.0
 11
2.4999999999998859
 21
5.1999999999999877
 31
0.0
  0
LINE
  5
46C
  8
外形線
 10
-0.0000000000000568
 20
5.1999999999999877
 30
0.0
 11
0.0000000000000568
 21
-5.2000000000000171
 31
0.0
  0
ARC
  5
46D
  8
外形線
 10
1.059999999999774
 20
3.8999999999998631
 30
0.0
 40
1.940000000000166
 50
317.92497794916551
 51
42.075022050844218
  0
ARC
  5
46E
  8
外形線
 10
-4.0100000000027194
 20
-0.0000000000005116
 30
0.0
 40
7.0100000000027221
 50
338.22894589069568
 51
21.77105410931329
  0
ARC
  5
46F
  8
外形線
 10
1.059999999999774
 20
-3.8999999999998631
 30
0.0
 40
1.940000000000166
 50
317.92497794915579
 51
42.075022050834569
  0
LINE
  5
470
  8
外形線
 10
2.9999999999999432
 20
3.8999999999998631
 30
0.0
 11
2.9999999999999432
 21
-3.8999999999998631
 31
0.0
  0
ENDBLK
  5
472
  8
0
  0
BLOCK
  8
0
  2
六角ﾈｼ
 70
     0
 10
0.0
 20
0.0
 30
0.0
  3
六角ﾈｼ
  1

  0
LINE
  5
477
  8
外形線
 10
-0.0000000000000568
 20
4.4999999999999432
 30
0.0
 11
2.7375995731816261
 21
4.4999999999999432
 31
0.0
  0
ARC
  5
478
  8
外形線
 10
-4.0100000000026617
 20
2.5999999999995111
 30
0.0
 40
7.0100000000027221
 50
338.22894589069568
 51
15.726243792790671
  0
ARC
  5
479
  8
外形線
 10
-4.0100000000026617
 20
-2.5999999999995111
 30
0.0
 40
7.0100000000027221
 50
344.27375620720881
 51
21.771054109304352
  0
LINE
  5
47A
  8
外形線
 10
0.0000000000001705
 20
-4.5
 30
0.0
 11
2.7375995731815692
 21
-4.5
 31
0.0
  0
ENDBLK
  5
47C
  8
0
  0
BLOCK
  8
0
  2
*D8
 70
     1
 10
0.0
 20
0.0
 30
0.0
  3
*D8
  1

  0
LINE
  5
62F
  8
外形線
 62
     2
 10
391.51936551854612
 20
250.06159930625429
 30
0.0
 11
393.20549172274809
 21
250.06159930625429
 31
0.0
  0
LINE
  5
630
  8
外形線
 62
     2
 10
391.37399011714541
 20
240.06159930625429
 30
0.0
 11
393.20549172274809
 21
240.06159930625429
 31
0.0
  0
LINE
  5
631
  8
外形線
 62
     2
 10
391.95549172274821
 20
247.56159930625429
 30
0.0
 11
391.95549172274821
 21
242.56159930625429
 31
0.0
  0
INSERT
  5
632
  8
外形線
 62
     2
  2
_OPEN
 10
391.95549172274821
 20
250.06159930625429
 30
0.0
 41
2.5
 42
2.5
 43
2.5
 50
90.0
  0
INSERT
  5
633
  8
外形線
 62
     2
  2
_OPEN
 10
391.95549172274821
 20
240.06159930625429
 30
0.0
 41
2.5
 42
2.5
 43
2.5
 50
270.0
  0
INSERT
  5
634
  8
寸法線
  2
*U17
 10
0.0
 20
0.0
 30
0.0
  0
POINT
  5
635
  8
DEFPOINTS
 62
     0
 10
391.51936551854612
 20
250.06159930625429
 30
0.0
  0
POINT
  5
636
  8
DEFPOINTS
 62
     0
 10
391.37399011714541
 20
240.06159930625429
 30
0.0
  0
POINT
  5
637
  8
DEFPOINTS
 62
     0
 10
391.95549172274821
 20
240.06159930625429
 30
0.0
  0
ENDBLK
  5
51B
  8
0
  0
BLOCK
  8
0
  2
*D11
 70
     1
 10
0.0
 20
0.0
 30
0.0
  3
*D11
  1

  0
LINE
  5
BA4
  8
寸法線
 62
     2
 10
281.1874660371451
 20
265.38268208113323
 30
0.0
 11
281.1874660371451
 21
266.63268208113311
 31
0.0
  0
LINE
  5
BA5
  8
寸法線
 62
     2
 10
258.1874660371451
 20
249.76159930625431
 30
0.0
 11
258.1874660371451
 21
266.63268208113311
 31
0.0
  0
LINE
  5
BA6
  8
寸法線
 62
     2
 10
278.6874660371451
 20
265.38268208113323
 30
0.0
 11
260.6874660371451
 21
265.38268208113323
 31
0.0
  0
INSERT
  5
BA7
  8
寸法線
 62
     2
  2
_OPEN
 10
281.1874660371451
 20
265.38268208113323
 30
0.0
 41
2.5
 42
2.5
 43
2.5
  0
INSERT
  5
BA8
  8
寸法線
 62
     2
  2
_OPEN
 10
258.1874660371451
 20
265.38268208113323
 30
0.0
 41
2.5
 42
2.5
 43
2.5
 50
180.0
  0
INSERT
  5
BA9
  8
寸法線
  2
*U20
 10
0.0
 20
0.0
 30
0.0
  0
POINT
  5
BAA
  8
DEFPOINTS
 62
     0
 10
281.1874660371451
 20
265.38268208113323
 30
0.0
  0
POINT
  5
BAB
  8
DEFPOINTS
 62
     0
 10
258.1874660371451
 20
249.76159930625431
 30
0.0
  0
POINT
  5
BAC
  8
DEFPOINTS
 62
     0
 10
258.1874660371451
 20
265.38268208113323
 30
0.0
  0
ENDBLK
  5
BA3
  8
0
  0
BLOCK
  8
0
  2
*X13
 70
     1
 10
0.0
 20
0.0
 30
0.0
  3
*X13
  1

  0
LINE
  5
C2E
  8
0
 62
     0
 10
311.13563901661962
 20
235.6369703805714
 30
0.0
 11
311.13563901661962
 21
235.6369703805714
 31
0.0
  0
LINE
  5
C2F
  8
0
 62
     0
 10
310.50063901661957
 20
235.6369703805714
 30
0.0
 11
310.50063901661957
 21
235.6369703805714
 31
0.0
  0
LINE
  5
C30
  8
0
 62
     0
 10
309.86563901661958
 20
235.6369703805714
 30
0.0
 11
309.86563901661958
 21
235.6369703805714
 31
0.0
  0
LINE
  5
C31
  8
0
 62
     0
 10
309.23063901661959
 20
235.6369703805714
 30
0.0
 11
309.23063901661959
 21
235.6369703805714
 31
0.0
  0
LINE
  5
C32
  8
0
 62
     0
 10
308.5956390166196
 20
235.6369703805714
 30
0.0
 11
308.5956390166196
 21
235.6369703805714
 31
0.0
  0
LINE
  5
C33
  8
0
 62
     0
 10
307.96063901661961
 20
235.6369703805714
 30
0.0
 11
307.96063901661961
 21
235.6369703805714
 31
0.0
  0
LINE
  5
C34
  8
0
 62
     0
 10
307.32563901661962
 20
235.6369703805714
 30
0.0
 11
307.32563901661962
 21
235.6369703805714
 31
0.0
  0
LINE
  5
C35
  8
0
 62
     0
 10
306.69063901661963
 20
235.6369703805714
 30
0.0
 11
306.69063901661963
 21
235.6369703805714
 31
0.0
  0
LINE
  5
C36
  8
0
 62
     0
 10
306.05563901661958
 20
235.6369703805714
 30
0.0
 11
306.05563901661958
 21
235.6369703805714
 31
0.0
  0
LINE
  5
C37
  8
0
 62
     0
 10
305.42063901661959
 20
235.6369703805714
 30
0.0
 11
305.42063901661959
 21
235.6369703805714
 31
0.0
  0
LINE
  5
C38
  8
0
 62
     0
 10
304.78563901661971
 20
235.6369703805714
 30
0.0
 11
304.78563901661971
 21
235.6369703805714
 31
0.0
  0
LINE
  5
C39
  8
0
 62
     0
 10
304.15063901661972
 20
235.6369703805714
 30
0.0
 11
304.15063901661972
 21
235.6369703805714
 31
0.0
  0
LINE
  5
C3A
  8
0
 62
     0
 10
303.51563901661967
 20
235.6369703805714
 30
0.0
 11
303.51563901661967
 21
235.6369703805714
 31
0.0
  0
LINE
  5
C3B
  8
0
 62
     0
 10
334.63063901661951
 20
235.6369703805714
 30
0.0
 11
334.63063901661951
 21
235.6369703805714
 31
0.0
  0
LINE
  5
C3C
  8
0
 62
     0
 10
333.99563901661952
 20
235.6369703805714
 30
0.0
 11
333.99563901661952
 21
235.6369703805714
 31
0.0
  0
LINE
  5
C3D
  8
0
 62
     0
 10
333.36063901661947
 20
235.6369703805714
 30
0.0
 11
333.36063901661947
 21
235.6369703805714
 31
0.0
  0
LINE
  5
C3E
  8
0
 62
     0
 10
332.7256390166196
 20
235.6369703805714
 30
0.0
 11
332.7256390166196
 21
235.6369703805714
 31
0.0
  0
LINE
  5
C3F
  8
0
 62
     0
 10
332.0906390166196
 20
235.6369703805714
 30
0.0
 11
332.0906390166196
 21
235.6369703805714
 31
0.0
  0
LINE
  5
C40
  8
0
 62
     0
 10
331.45563901661961
 20
235.6369703805714
 30
0.0
 11
331.45563901661961
 21
235.6369703805714
 31
0.0
  0
LINE
  5
C41
  8
0
 62
     0
 10
330.82063901661951
 20
235.6369703805714
 30
0.0
 11
330.82063901661951
 21
235.6369703805714
 31
0.0
  0
LINE
  5
C42
  8
0
 62
     0
 10
330.18563901661958
 20
235.6369703805714
 30
0.0
 11
330.18563901661958
 21
235.6369703805714
 31
0.0
  0
LINE
  5
C43
  8
0
 62
     0
 10
329.55063901661958
 20
235.6369703805714
 30
0.0
 11
329.55063901661958
 21
235.6369703805714
 31
0.0
  0
LINE
  5
C44
  8
0
 62
     0
 10
328.91563901661959
 20
235.6369703805714
 30
0.0
 11
328.91563901661959
 21
235.6369703805714
 31
0.0
  0
LINE
  5
C45
  8
0
 62
     0
 10
328.2806390166196
 20
235.6369703805714
 30
0.0
 11
328.2806390166196
 21
235.6369703805714
 31
0.0
  0
LINE
  5
C46
  8
0
 62
     0
 10
327.64563901661961
 20
235.6369703805714
 30
0.0
 11
327.64563901661961
 21
235.6369703805714
 31
0.0
  0
LINE
  5
C47
  8
0
 62
     0
 10
327.01063901661962
 20
235.6369703805714
 30
0.0
 11
327.01063901661962
 21
235.6369703805714
 31
0.0
  0
LINE
  5
C48
  8
0
 62
     0
 10
326.37563901661969
 20
235.6369703805714
 30
0.0
 11
326.37563901661969
 21
235.6369703805714
 31
0.0
  0
LINE
  5
C49
  8
0
 62
     0
 10
325.74063901661958
 20
235.6369703805714
 30
0.0
 11
325.74063901661958
 21
235.6369703805714
 31
0.0
  0
LINE
  5
C4A
  8
0
 62
     0
 10
325.10563901661959
 20
235.6369703805714
 30
0.0
 11
325.10563901661959
 21
235.6369703805714
 31
0.0
  0
LINE
  5
C4B
  8
0
 62
     0
 10
324.4706390166196
 20
235.6369703805714
 30
0.0
 11
324.4706390166196
 21
235.6369703805714
 31
0.0
  0
LINE
  5
C4C
  8
0
 62
     0
 10
323.83563901661972
 20
235.6369703805714
 30
0.0
 11
323.83563901661972
 21
235.6369703805714
 31
0.0
  0
LINE
  5
C4D
  8
0
 62
     0
 10
323.20063901661968
 20
235.6369703805714
 30
0.0
 11
323.20063901661968
 21
235.6369703805714
 31
0.0
  0
LINE
  5
C4E
  8
0
 62
     0
 10
322.56563901661968
 20
235.6369703805714
 30
0.0
 11
322.56563901661968
 21
235.6369703805714
 31
0.0
  0
LINE
  5
C4F
  8
0
 62
     0
 10
321.93063901661969
 20
235.6369703805714
 30
0.0
 11
321.93063901661969
 21
235.6369703805714
 31
0.0
  0
LINE
  5
C50
  8
0
 62
     0
 10
321.2956390166197
 20
235.6369703805714
 30
0.0
 11
321.2956390166197
 21
235.6369703805714
 31
0.0
  0
LINE
  5
C51
  8
0
 62
     0
 10
299.07063901661968
 20
235.6369703805714
 30
0.0
 11
299.07063901661968
 21
235.6369703805714
 31
0.0
  0
LINE
  5
C52
  8
0
 62
     0
 10
298.43563901661969
 20
235.6369703805714
 30
0.0
 11
298.43563901661969
 21
235.6369703805714
 31
0.0
  0
LINE
  5
C53
  8
0
 62
     0
 10
297.8006390166197
 20
235.6369703805714
 30
0.0
 11
297.8006390166197
 21
235.6369703805714
 31
0.0
  0
LINE
  5
C54
  8
0
 62
     0
 10
310.81813901661963
 20
236.2719703805713
 30
0.0
 11
310.81813901661963
 21
236.2719703805713
 31
0.0
  0
LINE
  5
C55
  8
0
 62
     0
 10
310.18313901661958
 20
236.2719703805713
 30
0.0
 11
310.18313901661958
 21
236.2719703805713
 31
0.0
  0
LINE
  5
C56
  8
0
 62
     0
 10
309.54813901661959
 20
236.2719703805713
 30
0.0
 11
309.54813901661959
 21
236.2719703805713
 31
0.0
  0
LINE
  5
C57
  8
0
 62
     0
 10
308.9131390166196
 20
236.2719703805713
 30
0.0
 11
308.9131390166196
 21
236.2719703805713
 31
0.0
  0
LINE
  5
C58
  8
0
 62
     0
 10
308.2781390166196
 20
236.2719703805713
 30
0.0
 11
308.2781390166196
 21
236.2719703805713
 31
0.0
  0
LINE
  5
C59
  8
0
 62
     0
 10
307.64313901661961
 20
236.2719703805713
 30
0.0
 11
307.64313901661961
 21
236.2719703805713
 31
0.0
  0
LINE
  5
C5A
  8
0
 62
     0
 10
307.00813901661962
 20
236.2719703805713
 30
0.0
 11
307.00813901661962
 21
236.2719703805713
 31
0.0
  0
LINE
  5
C5B
  8
0
 62
     0
 10
306.37313901661958
 20
236.2719703805713
 30
0.0
 11
306.37313901661958
 21
236.2719703805713
 31
0.0
  0
LINE
  5
C5C
  8
0
 62
     0
 10
305.7381390166197
 20
236.2719703805713
 30
0.0
 11
305.7381390166197
 21
236.2719703805713
 31
0.0
  0
LINE
  5
C5D
  8
0
 62
     0
 10
305.10313901661971
 20
236.2719703805713
 30
0.0
 11
305.10313901661971
 21
236.2719703805713
 31
0.0
  0
LINE
  5
C5E
  8
0
 62
     0
 10
304.46813901661972
 20
236.2719703805713
 30
0.0
 11
304.46813901661972
 21
236.2719703805713
 31
0.0
  0
LINE
  5
C5F
  8
0
 62
     0
 10
303.83313901661973
 20
236.2719703805713
 30
0.0
 11
303.83313901661973
 21
236.2719703805713
 31
0.0
  0
LINE
  5
C60
  8
0
 62
     0
 10
303.19813901661968
 20
236.2719703805713
 30
0.0
 11
303.19813901661968
 21
236.2719703805713
 31
0.0
  0
LINE
  5
C61
  8
0
 62
     0
 10
340.66313901661943
 20
236.2719703805713
 30
0.0
 11
340.66313901661943
 21
236.2719703805713
 31
0.0
  0
LINE
  5
C62
  8
0
 62
     0
 10
340.02813901661949
 20
236.2719703805713
 30
0.0
 11
340.02813901661949
 21
236.2719703805713
 31
0.0
  0
LINE
  5
C63
  8
0
 62
     0
 10
339.3931390166195
 20
236.2719703805713
 30
0.0
 11
339.3931390166195
 21
236.2719703805713
 31
0.0
  0
LINE
  5
C64
  8
0
 62
     0
 10
338.7581390166194
 20
236.2719703805713
 30
0.0
 11
338.7581390166194
 21
236.2719703805713
 31
0.0
  0
LINE
  5
C65
  8
0
 62
     0
 10
338.12313901661952
 20
236.2719703805713
 30
0.0
 11
338.12313901661952
 21
236.2719703805713
 31
0.0
  0
LINE
  5
C66
  8
0
 62
     0
 10
337.48813901661953
 20
236.2719703805713
 30
0.0
 11
337.48813901661953
 21
236.2719703805713
 31
0.0
  0
LINE
  5
C67
  8
0
 62
     0
 10
336.85313901661948
 20
236.2719703805713
 30
0.0
 11
336.85313901661948
 21
236.2719703805713
 31
0.0
  0
LINE
  5
C68
  8
0
 62
     0
 10
336.21813901661949
 20
236.2719703805713
 30
0.0
 11
336.21813901661949
 21
236.2719703805713
 31
0.0
  0
LINE
  5
C69
  8
0
 62
     0
 10
335.5831390166195
 20
236.2719703805713
 30
0.0
 11
335.5831390166195
 21
236.2719703805713
 31
0.0
  0
LINE
  5
C6A
  8
0
 62
     0
 10
334.94813901661951
 20
236.2719703805713
 30
0.0
 11
334.94813901661951
 21
236.2719703805713
 31
0.0
  0
LINE
  5
C6B
  8
0
 62
     0
 10
334.31313901661952
 20
236.2719703805713
 30
0.0
 11
334.31313901661952
 21
236.2719703805713
 31
0.0
  0
LINE
  5
C6C
  8
0
 62
     0
 10
333.67813901661953
 20
236.2719703805713
 30
0.0
 11
333.67813901661953
 21
236.2719703805713
 31
0.0
  0
LINE
  5
C6D
  8
0
 62
     0
 10
333.04313901661948
 20
236.2719703805713
 30
0.0
 11
333.04313901661948
 21
236.2719703805713
 31
0.0
  0
LINE
  5
C6E
  8
0
 62
     0
 10
332.40813901661949
 20
236.2719703805713
 30
0.0
 11
332.40813901661949
 21
236.2719703805713
 31
0.0
  0
LINE
  5
C6F
  8
0
 62
     0
 10
331.77313901661961
 20
236.2719703805713
 30
0.0
 11
331.77313901661961
 21
236.2719703805713
 31
0.0
  0
LINE
  5
C70
  8
0
 62
     0
 10
331.13813901661962
 20
236.2719703805713
 30
0.0
 11
331.13813901661962
 21
236.2719703805713
 31
0.0
  0
LINE
  5
C71
  8
0
 62
     0
 10
330.50313901661963
 20
236.2719703805713
 30
0.0
 11
330.50313901661963
 21
236.2719703805713
 31
0.0
  0
LINE
  5
C72
  8
0
 62
     0
 10
329.86813901661958
 20
236.2719703805713
 30
0.0
 11
329.86813901661958
 21
236.2719703805713
 31
0.0
  0
LINE
  5
C73
  8
0
 62
     0
 10
329.23313901661959
 20
236.2719703805713
 30
0.0
 11
329.23313901661959
 21
236.2719703805713
 31
0.0
  0
LINE
  5
C74
  8
0
 62
     0
 10
328.5981390166196
 20
236.2719703805713
 30
0.0
 11
328.5981390166196
 21
236.2719703805713
 31
0.0
  0
LINE
  5
C75
  8
0
 62
     0
 10
327.96313901661961
 20
236.2719703805713
 30
0.0
 11
327.96313901661961
 21
236.2719703805713
 31
0.0
  0
LINE
  5
C76
  8
0
 62
     0
 10
327.32813901661962
 20
236.2719703805713
 30
0.0
 11
327.32813901661962
 21
236.2719703805713
 31
0.0
  0
LINE
  5
C77
  8
0
 62
     0
 10
326.69313901661963
 20
236.2719703805713
 30
0.0
 11
326.69313901661963
 21
236.2719703805713
 31
0.0
  0
LINE
  5
C78
  8
0
 62
     0
 10
326.05813901661958
 20
236.2719703805713
 30
0.0
 11
326.05813901661958
 21
236.2719703805713
 31
0.0
  0
LINE
  5
C79
  8
0
 62
     0
 10
325.4231390166197
 20
236.2719703805713
 30
0.0
 11
325.4231390166197
 21
236.2719703805713
 31
0.0
  0
LINE
  5
C7A
  8
0
 62
     0
 10
324.78813901661971
 20
236.2719703805713
 30
0.0
 11
324.78813901661971
 21
236.2719703805713
 31
0.0
  0
LINE
  5
C7B
  8
0
 62
     0
 10
324.15313901661972
 20
236.2719703805713
 30
0.0
 11
324.15313901661972
 21
236.2719703805713
 31
0.0
  0
LINE
  5
C7C
  8
0
 62
     0
 10
323.51813901661973
 20
236.2719703805713
 30
0.0
 11
323.51813901661973
 21
236.2719703805713
 31
0.0
  0
LINE
  5
C7D
  8
0
 62
     0
 10
322.88313901661968
 20
236.2719703805713
 30
0.0
 11
322.88313901661968
 21
236.2719703805713
 31
0.0
  0
LINE
  5
C7E
  8
0
 62
     0
 10
322.24813901661969
 20
236.2719703805713
 30
0.0
 11
322.24813901661969
 21
236.2719703805713
 31
0.0
  0
LINE
  5
C7F
  8
0
 62
     0
 10
321.6131390166197
 20
236.2719703805713
 30
0.0
 11
321.6131390166197
 21
236.2719703805713
 31
0.0
  0
LINE
  5
C80
  8
0
 62
     0
 10
299.38813901661962
 20
236.2719703805713
 30
0.0
 11
299.38813901661962
 21
236.2719703805713
 31
0.0
  0
LINE
  5
C81
  8
0
 62
     0
 10
298.75313901661963
 20
236.2719703805713
 30
0.0
 11
298.75313901661963
 21
236.2719703805713
 31
0.0
  0
LINE
  5
C82
  8
0
 62
     0
 10
298.11813901661958
 20
236.2719703805713
 30
0.0
 11
298.11813901661958
 21
236.2719703805713
 31
0.0
  0
LINE
  5
C83
  8
0
 62
     0
 10
297.48313901661959
 20
236.2719703805713
 30
0.0
 11
297.48313901661959
 21
236.2719703805713
 31
0.0
  0
LINE
  5
C84
  8
0
 62
     0
 10
296.8481390166196
 20
236.2719703805713
 30
0.0
 11
296.8481390166196
 21
236.2719703805713
 31
0.0
  0
LINE
  5
C85
  8
0
 62
     0
 10
296.21313901661961
 20
236.2719703805713
 30
0.0
 11
296.21313901661961
 21
236.2719703805713
 31
0.0
  0
LINE
  5
C86
  8
0
 62
     0
 10
295.57813901661962
 20
236.2719703805713
 30
0.0
 11
295.57813901661962
 21
236.2719703805713
 31
0.0
  0
LINE
  5
C87
  8
0
 62
     0
 10
294.94313901661963
 20
236.2719703805713
 30
0.0
 11
294.94313901661963
 21
236.2719703805713
 31
0.0
  0
LINE
  5
C88
  8
0
 62
     0
 10
294.30813901661969
 20
236.2719703805713
 30
0.0
 11
294.30813901661969
 21
236.2719703805713
 31
0.0
  0
LINE
  5
C89
  8
0
 62
     0
 10
293.6731390166197
 20
236.2719703805713
 30
0.0
 11
293.6731390166197
 21
236.2719703805713
 31
0.0
  0
LINE
  5
C8A
  8
0
 62
     0
 10
293.0381390166196
 20
236.2719703805713
 30
0.0
 11
293.0381390166196
 21
236.2719703805713
 31
0.0
  0
LINE
  5
C8B
  8
0
 62
     0
 10
292.40313901661972
 20
236.2719703805713
 30
0.0
 11
292.40313901661972
 21
236.2719703805713
 31
0.0
  0
LINE
  5
C8C
  8
0
 62
     0
 10
291.76813901661973
 20
236.2719703805713
 30
0.0
 11
291.76813901661973
 21
236.2719703805713
 31
0.0
  0
LINE
  5
C8D
  8
0
 62
     0
 10
311.13563901661962
 20
236.90697038057129
 30
0.0
 11
311.13563901661962
 21
236.90697038057129
 31
0.0
  0
LINE
  5
C8E
  8
0
 62
     0
 10
310.50063901661957
 20
236.90697038057129
 30
0.0
 11
310.50063901661957
 21
236.90697038057129
 31
0.0
  0
LINE
  5
C8F
  8
0
 62
     0
 10
309.86563901661958
 20
236.90697038057129
 30
0.0
 11
309.86563901661958
 21
236.90697038057129
 31
0.0
  0
LINE
  5
C90
  8
0
 62
     0
 10
309.23063901661959
 20
236.90697038057129
 30
0.0
 11
309.23063901661959
 21
236.90697038057129
 31
0.0
  0
LINE
  5
C91
  8
0
 62
     0
 10
308.5956390166196
 20
236.90697038057129
 30
0.0
 11
308.5956390166196
 21
236.90697038057129
 31
0.0
  0
LINE
  5
C92
  8
0
 62
     0
 10
307.96063901661961
 20
236.90697038057129
 30
0.0
 11
307.96063901661961
 21
236.90697038057129
 31
0.0
  0
LINE
  5
C93
  8
0
 62
     0
 10
307.32563901661962
 20
236.90697038057129
 30
0.0
 11
307.32563901661962
 21
236.90697038057129
 31
0.0
  0
LINE
  5
C94
  8
0
 62
     0
 10
306.69063901661963
 20
236.90697038057129
 30
0.0
 11
306.69063901661963
 21
236.90697038057129
 31
0.0
  0
LINE
  5
C95
  8
0
 62
     0
 10
306.05563901661958
 20
236.90697038057129
 30
0.0
 11
306.05563901661958
 21
236.90697038057129
 31
0.0
  0
LINE
  5
C96
  8
0
 62
     0
 10
305.42063901661959
 20
236.90697038057129
 30
0.0
 11
305.42063901661959
 21
236.90697038057129
 31
0.0
  0
LINE
  5
C97
  8
0
 62
     0
 10
304.78563901661971
 20
236.90697038057129
 30
0.0
 11
304.78563901661971
 21
236.90697038057129
 31
0.0
  0
LINE
  5
C98
  8
0
 62
     0
 10
304.15063901661972
 20
236.90697038057129
 30
0.0
 11
304.15063901661972
 21
236.90697038057129
 31
0.0
  0
LINE
  5
C99
  8
0
 62
     0
 10
303.51563901661967
 20
236.90697038057129
 30
0.0
 11
303.51563901661967
 21
236.90697038057129
 31
0.0
  0
LINE
  5
C9A
  8
0
 62
     0
 10
302.88063901661968
 20
236.90697038057129
 30
0.0
 11
302.88063901661968
 21
236.90697038057129
 31
0.0
  0
LINE
  5
C9B
  8
0
 62
     0
 10
302.24563901661969
 20
236.90697038057129
 30
0.0
 11
302.24563901661969
 21
236.90697038057129
 31
0.0
  0
LINE
  5
C9C
  8
0
 62
     0
 10
301.6106390166197
 20
236.90697038057129
 30
0.0
 11
301.6106390166197
 21
236.90697038057129
 31
0.0
  0
LINE
  5
C9D
  8
0
 62
     0
 10
340.98063901661942
 20
236.90697038057129
 30
0.0
 11
340.98063901661942
 21
236.90697038057129
 31
0.0
  0
LINE
  5
C9E
  8
0
 62
     0
 10
340.34563901661937
 20
236.90697038057129
 30
0.0
 11
340.34563901661937
 21
236.90697038057129
 31
0.0
  0
LINE
  5
C9F
  8
0
 62
     0
 10
339.71063901661938
 20
236.90697038057129
 30
0.0
 11
339.71063901661938
 21
236.90697038057129
 31
0.0
  0
LINE
  5
CA0
  8
0
 62
     0
 10
339.0756390166195
 20
236.90697038057129
 30
0.0
 11
339.0756390166195
 21
236.90697038057129
 31
0.0
  0
LINE
  5
CA1
  8
0
 62
     0
 10
338.44063901661951
 20
236.90697038057129
 30
0.0
 11
338.44063901661951
 21
236.90697038057129
 31
0.0
  0
LINE
  5
CA2
  8
0
 62
     0
 10
337.80563901661952
 20
236.90697038057129
 30
0.0
 11
337.80563901661952
 21
236.90697038057129
 31
0.0
  0
LINE
  5
CA3
  8
0
 62
     0
 10
337.17063901661948
 20
236.90697038057129
 30
0.0
 11
337.17063901661948
 21
236.90697038057129
 31
0.0
  0
LINE
  5
CA4
  8
0
 62
     0
 10
336.53563901661948
 20
236.90697038057129
 30
0.0
 11
336.53563901661948
 21
236.90697038057129
 31
0.0
  0
LINE
  5
CA5
  8
0
 62
     0
 10
335.90063901661949
 20
236.90697038057129
 30
0.0
 11
335.90063901661949
 21
236.90697038057129
 31
0.0
  0
LINE
  5
CA6
  8
0
 62
     0
 10
335.2656390166195
 20
236.90697038057129
 30
0.0
 11
335.2656390166195
 21
236.90697038057129
 31
0.0
  0
LINE
  5
CA7
  8
0
 62
     0
 10
334.63063901661951
 20
236.90697038057129
 30
0.0
 11
334.63063901661951
 21
236.90697038057129
 31
0.0
  0
LINE
  5
CA8
  8
0
 62
     0
 10
333.99563901661952
 20
236.90697038057129
 30
0.0
 11
333.99563901661952
 21
236.90697038057129
 31
0.0
  0
LINE
  5
CA9
  8
0
 62
     0
 10
333.36063901661947
 20
236.90697038057129
 30
0.0
 11
333.36063901661947
 21
236.90697038057129
 31
0.0
  0
LINE
  5
CAA
  8
0
 62
     0
 10
332.7256390166196
 20
236.90697038057129
 30
0.0
 11
332.7256390166196
 21
236.90697038057129
 31
0.0
  0
LINE
  5
CAB
  8
0
 62
     0
 10
332.0906390166196
 20
236.90697038057129
 30
0.0
 11
332.0906390166196
 21
236.90697038057129
 31
0.0
  0
LINE
  5
CAC
  8
0
 62
     0
 10
331.45563901661961
 20
236.90697038057129
 30
0.0
 11
331.45563901661961
 21
236.90697038057129
 31
0.0
  0
LINE
  5
CAD
  8
0
 62
     0
 10
330.82063901661951
 20
236.90697038057129
 30
0.0
 11
330.82063901661951
 21
236.90697038057129
 31
0.0
  0
LINE
  5
CAE
  8
0
 62
     0
 10
330.18563901661958
 20
236.90697038057129
 30
0.0
 11
330.18563901661958
 21
236.90697038057129
 31
0.0
  0
LINE
  5
CAF
  8
0
 62
     0
 10
329.55063901661958
 20
236.90697038057129
 30
0.0
 11
329.55063901661958
 21
236.90697038057129
 31
0.0
  0
LINE
  5
CB0
  8
0
 62
     0
 10
328.91563901661959
 20
236.90697038057129
 30
0.0
 11
328.91563901661959
 21
236.90697038057129
 31
0.0
  0
LINE
  5
CB1
  8
0
 62
     0
 10
328.2806390166196
 20
236.90697038057129
 30
0.0
 11
328.2806390166196
 21
236.90697038057129
 31
0.0
  0
LINE
  5
CB2
  8
0
 62
     0
 10
327.64563901661961
 20
236.90697038057129
 30
0.0
 11
327.64563901661961
 21
236.90697038057129
 31
0.0
  0
LINE
  5
CB3
  8
0
 62
     0
 10
327.01063901661962
 20
236.90697038057129
 30
0.0
 11
327.01063901661962
 21
236.90697038057129
 31
0.0
  0
LINE
  5
CB4
  8
0
 62
     0
 10
326.37563901661969
 20
236.90697038057129
 30
0.0
 11
326.37563901661969
 21
236.90697038057129
 31
0.0
  0
LINE
  5
CB5
  8
0
 62
     0
 10
325.74063901661958
 20
236.90697038057129
 30
0.0
 11
325.74063901661958
 21
236.90697038057129
 31
0.0
  0
LINE
  5
CB6
  8
0
 62
     0
 10
325.10563901661959
 20
236.90697038057129
 30
0.0
 11
325.10563901661959
 21
236.90697038057129
 31
0.0
  0
LINE
  5
CB7
  8
0
 62
     0
 10
324.4706390166196
 20
236.90697038057129
 30
0.0
 11
324.4706390166196
 21
236.90697038057129
 31
0.0
  0
LINE
  5
CB8
  8
0
 62
     0
 10
323.83563901661972
 20
236.90697038057129
 30
0.0
 11
323.83563901661972
 21
236.90697038057129
 31
0.0
  0
LINE
  5
CB9
  8
0
 62
     0
 10
323.20063901661968
 20
236.90697038057129
 30
0.0
 11
323.20063901661968
 21
236.90697038057129
 31
0.0
  0
LINE
  5
CBA
  8
0
 62
     0
 10
322.56563901661968
 20
236.90697038057129
 30
0.0
 11
322.56563901661968
 21
236.90697038057129
 31
0.0
  0
LINE
  5
CBB
  8
0
 62
     0
 10
321.93063901661969
 20
236.90697038057129
 30
0.0
 11
321.93063901661969
 21
236.90697038057129
 31
0.0
  0
LINE
  5
CBC
  8
0
 62
     0
 10
321.2956390166197
 20
236.90697038057129
 30
0.0
 11
321.2956390166197
 21
236.90697038057129
 31
0.0
  0
LINE
  5
CBD
  8
0
 62
     0
 10
300.9756390166196
 20
236.90697038057129
 30
0.0
 11
300.9756390166196
 21
236.90697038057129
 31
0.0
  0
LINE
  5
CBE
  8
0
 62
     0
 10
300.34063901661949
 20
236.90697038057129
 30
0.0
 11
300.34063901661949
 21
236.90697038057129
 31
0.0
  0
LINE
  5
CBF
  8
0
 62
     0
 10
299.7056390166195
 20
236.90697038057129
 30
0.0
 11
299.7056390166195
 21
236.90697038057129
 31
0.0
  0
LINE
  5
CC0
  8
0
 62
     0
 10
299.07063901661962
 20
236.90697038057129
 30
0.0
 11
299.07063901661962
 21
236.90697038057129
 31
0.0
  0
LINE
  5
CC1
  8
0
 62
     0
 10
298.43563901661958
 20
236.90697038057129
 30
0.0
 11
298.43563901661958
 21
236.90697038057129
 31
0.0
  0
LINE
  5
CC2
  8
0
 62
     0
 10
297.80063901661958
 20
236.90697038057129
 30
0.0
 11
297.80063901661958
 21
236.90697038057129
 31
0.0
  0
LINE
  5
CC3
  8
0
 62
     0
 10
297.16563901661959
 20
236.90697038057129
 30
0.0
 11
297.16563901661959
 21
236.90697038057129
 31
0.0
  0
LINE
  5
CC4
  8
0
 62
     0
 10
296.5306390166196
 20
236.90697038057129
 30
0.0
 11
296.5306390166196
 21
236.90697038057129
 31
0.0
  0
LINE
  5
CC5
  8
0
 62
     0
 10
295.89563901661961
 20
236.90697038057129
 30
0.0
 11
295.89563901661961
 21
236.90697038057129
 31
0.0
  0
LINE
  5
CC6
  8
0
 62
     0
 10
295.26063901661962
 20
236.90697038057129
 30
0.0
 11
295.26063901661962
 21
236.90697038057129
 31
0.0
  0
LINE
  5
CC7
  8
0
 62
     0
 10
294.62563901661957
 20
236.90697038057129
 30
0.0
 11
294.62563901661957
 21
236.90697038057129
 31
0.0
  0
LINE
  5
CC8
  8
0
 62
     0
 10
293.99063901661958
 20
236.90697038057129
 30
0.0
 11
293.99063901661958
 21
236.90697038057129
 31
0.0
  0
LINE
  5
CC9
  8
0
 62
     0
 10
293.3556390166197
 20
236.90697038057129
 30
0.0
 11
293.3556390166197
 21
236.90697038057129
 31
0.0
  0
LINE
  5
CCA
  8
0
 62
     0
 10
292.72063901661971
 20
236.90697038057129
 30
0.0
 11
292.72063901661971
 21
236.90697038057129
 31
0.0
  0
LINE
  5
CCB
  8
0
 62
     0
 10
292.08563901661972
 20
236.90697038057129
 30
0.0
 11
292.08563901661972
 21
236.90697038057129
 31
0.0
  0
LINE
  5
CCC
  8
0
 62
     0
 10
291.45063901661968
 20
236.90697038057129
 30
0.0
 11
291.45063901661968
 21
236.90697038057129
 31
0.0
  0
LINE
  5
CCD
  8
0
 62
     0
 10
340.66313901661943
 20
237.5419703805714
 30
0.0
 11
340.66313901661943
 21
237.5419703805714
 31
0.0
  0
LINE
  5
CCE
  8
0
 62
     0
 10
340.02813901661949
 20
237.5419703805714
 30
0.0
 11
340.02813901661949
 21
237.5419703805714
 31
0.0
  0
LINE
  5
CCF
  8
0
 62
     0
 10
339.3931390166195
 20
237.5419703805714
 30
0.0
 11
339.3931390166195
 21
237.5419703805714
 31
0.0
  0
LINE
  5
CD0
  8
0
 62
     0
 10
338.7581390166194
 20
237.5419703805714
 30
0.0
 11
338.7581390166194
 21
237.5419703805714
 31
0.0
  0
LINE
  5
CD1
  8
0
 62
     0
 10
338.12313901661952
 20
237.5419703805714
 30
0.0
 11
338.12313901661952
 21
237.5419703805714
 31
0.0
  0
LINE
  5
CD2
  8
0
 62
     0
 10
337.48813901661953
 20
237.5419703805714
 30
0.0
 11
337.48813901661953
 21
237.5419703805714
 31
0.0
  0
LINE
  5
CD3
  8
0
 62
     0
 10
336.85313901661948
 20
237.5419703805714
 30
0.0
 11
336.85313901661948
 21
237.5419703805714
 31
0.0
  0
LINE
  5
CD4
  8
0
 62
     0
 10
336.21813901661949
 20
237.5419703805714
 30
0.0
 11
336.21813901661949
 21
237.5419703805714
 31
0.0
  0
LINE
  5
CD5
  8
0
 62
     0
 10
335.5831390166195
 20
237.5419703805714
 30
0.0
 11
335.5831390166195
 21
237.5419703805714
 31
0.0
  0
LINE
  5
CD6
  8
0
 62
     0
 10
334.94813901661951
 20
237.5419703805714
 30
0.0
 11
334.94813901661951
 21
237.5419703805714
 31
0.0
  0
LINE
  5
CD7
  8
0
 62
     0
 10
334.31313901661952
 20
237.5419703805714
 30
0.0
 11
334.31313901661952
 21
237.5419703805714
 31
0.0
  0
LINE
  5
CD8
  8
0
 62
     0
 10
333.67813901661953
 20
237.5419703805714
 30
0.0
 11
333.67813901661953
 21
237.5419703805714
 31
0.0
  0
LINE
  5
CD9
  8
0
 62
     0
 10
333.04313901661948
 20
237.5419703805714
 30
0.0
 11
333.04313901661948
 21
237.5419703805714
 31
0.0
  0
LINE
  5
CDA
  8
0
 62
     0
 10
332.40813901661949
 20
237.5419703805714
 30
0.0
 11
332.40813901661949
 21
237.5419703805714
 31
0.0
  0
LINE
  5
CDB
  8
0
 62
     0
 10
331.77313901661961
 20
237.5419703805714
 30
0.0
 11
331.77313901661961
 21
237.5419703805714
 31
0.0
  0
LINE
  5
CDC
  8
0
 62
     0
 10
331.13813901661962
 20
237.5419703805714
 30
0.0
 11
331.13813901661962
 21
237.5419703805714
 31
0.0
  0
LINE
  5
CDD
  8
0
 62
     0
 10
330.50313901661963
 20
237.5419703805714
 30
0.0
 11
330.50313901661963
 21
237.5419703805714
 31
0.0
  0
LINE
  5
CDE
  8
0
 62
     0
 10
329.86813901661958
 20
237.5419703805714
 30
0.0
 11
329.86813901661958
 21
237.5419703805714
 31
0.0
  0
LINE
  5
CDF
  8
0
 62
     0
 10
329.23313901661959
 20
237.5419703805714
 30
0.0
 11
329.23313901661959
 21
237.5419703805714
 31
0.0
  0
LINE
  5
CE0
  8
0
 62
     0
 10
328.5981390166196
 20
237.5419703805714
 30
0.0
 11
328.5981390166196
 21
237.5419703805714
 31
0.0
  0
LINE
  5
CE1
  8
0
 62
     0
 10
327.96313901661961
 20
237.5419703805714
 30
0.0
 11
327.96313901661961
 21
237.5419703805714
 31
0.0
  0
LINE
  5
CE2
  8
0
 62
     0
 10
327.32813901661962
 20
237.5419703805714
 30
0.0
 11
327.32813901661962
 21
237.5419703805714
 31
0.0
  0
LINE
  5
CE3
  8
0
 62
     0
 10
326.69313901661963
 20
237.5419703805714
 30
0.0
 11
326.69313901661963
 21
237.5419703805714
 31
0.0
  0
LINE
  5
CE4
  8
0
 62
     0
 10
326.05813901661958
 20
237.5419703805714
 30
0.0
 11
326.05813901661958
 21
237.5419703805714
 31
0.0
  0
LINE
  5
CE5
  8
0
 62
     0
 10
325.4231390166197
 20
237.5419703805714
 30
0.0
 11
325.4231390166197
 21
237.5419703805714
 31
0.0
  0
LINE
  5
CE6
  8
0
 62
     0
 10
324.78813901661971
 20
237.5419703805714
 30
0.0
 11
324.78813901661971
 21
237.5419703805714
 31
0.0
  0
LINE
  5
CE7
  8
0
 62
     0
 10
324.15313901661972
 20
237.5419703805714
 30
0.0
 11
324.15313901661972
 21
237.5419703805714
 31
0.0
  0
LINE
  5
CE8
  8
0
 62
     0
 10
323.51813901661973
 20
237.5419703805714
 30
0.0
 11
323.51813901661973
 21
237.5419703805714
 31
0.0
  0
LINE
  5
CE9
  8
0
 62
     0
 10
322.88313901661968
 20
237.5419703805714
 30
0.0
 11
322.88313901661968
 21
237.5419703805714
 31
0.0
  0
LINE
  5
CEA
  8
0
 62
     0
 10
322.24813901661969
 20
237.5419703805714
 30
0.0
 11
322.24813901661969
 21
237.5419703805714
 31
0.0
  0
LINE
  5
CEB
  8
0
 62
     0
 10
321.6131390166197
 20
237.5419703805714
 30
0.0
 11
321.6131390166197
 21
237.5419703805714
 31
0.0
  0
LINE
  5
CEC
  8
0
 62
     0
 10
310.8181390166194
 20
237.5419703805714
 30
0.0
 11
310.8181390166194
 21
237.5419703805714
 31
0.0
  0
LINE
  5
CED
  8
0
 62
     0
 10
310.18313901661941
 20
237.5419703805714
 30
0.0
 11
310.18313901661941
 21
237.5419703805714
 31
0.0
  0
LINE
  5
CEE
  8
0
 62
     0
 10
309.54813901661942
 20
237.5419703805714
 30
0.0
 11
309.54813901661942
 21
237.5419703805714
 31
0.0
  0
LINE
  5
CEF
  8
0
 62
     0
 10
308.91313901661943
 20
237.5419703805714
 30
0.0
 11
308.91313901661943
 21
237.5419703805714
 31
0.0
  0
LINE
  5
CF0
  8
0
 62
     0
 10
308.27813901661938
 20
237.5419703805714
 30
0.0
 11
308.27813901661938
 21
237.5419703805714
 31
0.0
  0
LINE
  5
CF1
  8
0
 62
     0
 10
307.64313901661939
 20
237.5419703805714
 30
0.0
 11
307.64313901661939
 21
237.5419703805714
 31
0.0
  0
LINE
  5
CF2
  8
0
 62
     0
 10
307.0081390166194
 20
237.5419703805714
 30
0.0
 11
307.0081390166194
 21
237.5419703805714
 31
0.0
  0
LINE
  5
CF3
  8
0
 62
     0
 10
306.37313901661952
 20
237.5419703805714
 30
0.0
 11
306.37313901661952
 21
237.5419703805714
 31
0.0
  0
LINE
  5
CF4
  8
0
 62
     0
 10
305.73813901661953
 20
237.5419703805714
 30
0.0
 11
305.73813901661953
 21
237.5419703805714
 31
0.0
  0
LINE
  5
CF5
  8
0
 62
     0
 10
305.10313901661948
 20
237.5419703805714
 30
0.0
 11
305.10313901661948
 21
237.5419703805714
 31
0.0
  0
LINE
  5
CF6
  8
0
 62
     0
 10
304.46813901661949
 20
237.5419703805714
 30
0.0
 11
304.46813901661949
 21
237.5419703805714
 31
0.0
  0
LINE
  5
CF7
  8
0
 62
     0
 10
303.8331390166195
 20
237.5419703805714
 30
0.0
 11
303.8331390166195
 21
237.5419703805714
 31
0.0
  0
LINE
  5
CF8
  8
0
 62
     0
 10
303.19813901661951
 20
237.5419703805714
 30
0.0
 11
303.19813901661951
 21
237.5419703805714
 31
0.0
  0
LINE
  5
CF9
  8
0
 62
     0
 10
302.56313901661952
 20
237.5419703805714
 30
0.0
 11
302.56313901661952
 21
237.5419703805714
 31
0.0
  0
LINE
  5
CFA
  8
0
 62
     0
 10
301.92813901661953
 20
237.5419703805714
 30
0.0
 11
301.92813901661953
 21
237.5419703805714
 31
0.0
  0
LINE
  5
CFB
  8
0
 62
     0
 10
301.29313901661948
 20
237.5419703805714
 30
0.0
 11
301.29313901661948
 21
237.5419703805714
 31
0.0
  0
LINE
  5
CFC
  8
0
 62
     0
 10
300.65813901661949
 20
237.5419703805714
 30
0.0
 11
300.65813901661949
 21
237.5419703805714
 31
0.0
  0
LINE
  5
CFD
  8
0
 62
     0
 10
300.02313901661961
 20
237.5419703805714
 30
0.0
 11
300.02313901661961
 21
237.5419703805714
 31
0.0
  0
LINE
  5
CFE
  8
0
 62
     0
 10
299.38813901661962
 20
237.5419703805714
 30
0.0
 11
299.38813901661962
 21
237.5419703805714
 31
0.0
  0
LINE
  5
CFF
  8
0
 62
     0
 10
298.75313901661963
 20
237.5419703805714
 30
0.0
 11
298.75313901661963
 21
237.5419703805714
 31
0.0
  0
LINE
  5
D00
  8
0
 62
     0
 10
298.11813901661958
 20
237.5419703805714
 30
0.0
 11
298.11813901661958
 21
237.5419703805714
 31
0.0
  0
LINE
  5
D01
  8
0
 62
     0
 10
297.48313901661959
 20
237.5419703805714
 30
0.0
 11
297.48313901661959
 21
237.5419703805714
 31
0.0
  0
LINE
  5
D02
  8
0
 62
     0
 10
296.8481390166196
 20
237.5419703805714
 30
0.0
 11
296.8481390166196
 21
237.5419703805714
 31
0.0
  0
LINE
  5
D03
  8
0
 62
     0
 10
296.21313901661961
 20
237.5419703805714
 30
0.0
 11
296.21313901661961
 21
237.5419703805714
 31
0.0
  0
LINE
  5
D04
  8
0
 62
     0
 10
295.57813901661962
 20
237.5419703805714
 30
0.0
 11
295.57813901661962
 21
237.5419703805714
 31
0.0
  0
LINE
  5
D05
  8
0
 62
     0
 10
294.94313901661963
 20
237.5419703805714
 30
0.0
 11
294.94313901661963
 21
237.5419703805714
 31
0.0
  0
LINE
  5
D06
  8
0
 62
     0
 10
294.30813901661969
 20
237.5419703805714
 30
0.0
 11
294.30813901661969
 21
237.5419703805714
 31
0.0
  0
LINE
  5
D07
  8
0
 62
     0
 10
293.6731390166197
 20
237.5419703805714
 30
0.0
 11
293.6731390166197
 21
237.5419703805714
 31
0.0
  0
LINE
  5
D08
  8
0
 62
     0
 10
293.0381390166196
 20
237.5419703805714
 30
0.0
 11
293.0381390166196
 21
237.5419703805714
 31
0.0
  0
LINE
  5
D09
  8
0
 62
     0
 10
292.40313901661972
 20
237.5419703805714
 30
0.0
 11
292.40313901661972
 21
237.5419703805714
 31
0.0
  0
LINE
  5
D0A
  8
0
 62
     0
 10
291.76813901661973
 20
237.5419703805714
 30
0.0
 11
291.76813901661973
 21
237.5419703805714
 31
0.0
  0
LINE
  5
D0B
  8
0
 62
     0
 10
340.98063901661942
 20
238.1769703805713
 30
0.0
 11
340.98063901661942
 21
238.1769703805713
 31
0.0
  0
LINE
  5
D0C
  8
0
 62
     0
 10
340.34563901661937
 20
238.1769703805713
 30
0.0
 11
340.34563901661937
 21
238.1769703805713
 31
0.0
  0
LINE
  5
D0D
  8
0
 62
     0
 10
339.71063901661938
 20
238.1769703805713
 30
0.0
 11
339.71063901661938
 21
238.1769703805713
 31
0.0
  0
LINE
  5
D0E
  8
0
 62
     0
 10
339.0756390166195
 20
238.1769703805713
 30
0.0
 11
339.0756390166195
 21
238.1769703805713
 31
0.0
  0
LINE
  5
D0F
  8
0
 62
     0
 10
338.44063901661951
 20
238.1769703805713
 30
0.0
 11
338.44063901661951
 21
238.1769703805713
 31
0.0
  0
LINE
  5
D10
  8
0
 62
     0
 10
337.80563901661952
 20
238.1769703805713
 30
0.0
 11
337.80563901661952
 21
238.1769703805713
 31
0.0
  0
LINE
  5
D11
  8
0
 62
     0
 10
337.17063901661948
 20
238.1769703805713
 30
0.0
 11
337.17063901661948
 21
238.1769703805713
 31
0.0
  0
LINE
  5
D12
  8
0
 62
     0
 10
336.53563901661948
 20
238.1769703805713
 30
0.0
 11
336.53563901661948
 21
238.1769703805713
 31
0.0
  0
LINE
  5
D13
  8
0
 62
     0
 10
335.90063901661949
 20
238.1769703805713
 30
0.0
 11
335.90063901661949
 21
238.1769703805713
 31
0.0
  0
LINE
  5
D14
  8
0
 62
     0
 10
335.2656390166195
 20
238.1769703805713
 30
0.0
 11
335.2656390166195
 21
238.1769703805713
 31
0.0
  0
LINE
  5
D15
  8
0
 62
     0
 10
334.63063901661951
 20
238.1769703805713
 30
0.0
 11
334.63063901661951
 21
238.1769703805713
 31
0.0
  0
LINE
  5
D16
  8
0
 62
     0
 10
333.99563901661952
 20
238.1769703805713
 30
0.0
 11
333.99563901661952
 21
238.1769703805713
 31
0.0
  0
LINE
  5
D17
  8
0
 62
     0
 10
333.36063901661947
 20
238.1769703805713
 30
0.0
 11
333.36063901661947
 21
238.1769703805713
 31
0.0
  0
LINE
  5
D18
  8
0
 62
     0
 10
332.7256390166196
 20
238.1769703805713
 30
0.0
 11
332.7256390166196
 21
238.1769703805713
 31
0.0
  0
LINE
  5
D19
  8
0
 62
     0
 10
332.0906390166196
 20
238.1769703805713
 30
0.0
 11
332.0906390166196
 21
238.1769703805713
 31
0.0
  0
LINE
  5
D1A
  8
0
 62
     0
 10
331.45563901661961
 20
238.1769703805713
 30
0.0
 11
331.45563901661961
 21
238.1769703805713
 31
0.0
  0
LINE
  5
D1B
  8
0
 62
     0
 10
330.82063901661951
 20
238.1769703805713
 30
0.0
 11
330.82063901661951
 21
238.1769703805713
 31
0.0
  0
LINE
  5
D1C
  8
0
 62
     0
 10
330.18563901661958
 20
238.1769703805713
 30
0.0
 11
330.18563901661958
 21
238.1769703805713
 31
0.0
  0
LINE
  5
D1D
  8
0
 62
     0
 10
329.55063901661958
 20
238.1769703805713
 30
0.0
 11
329.55063901661958
 21
238.1769703805713
 31
0.0
  0
LINE
  5
D1E
  8
0
 62
     0
 10
328.91563901661959
 20
238.1769703805713
 30
0.0
 11
328.91563901661959
 21
238.1769703805713
 31
0.0
  0
LINE
  5
D1F
  8
0
 62
     0
 10
328.2806390166196
 20
238.1769703805713
 30
0.0
 11
328.2806390166196
 21
238.1769703805713
 31
0.0
  0
LINE
  5
D20
  8
0
 62
     0
 10
327.64563901661961
 20
238.1769703805713
 30
0.0
 11
327.64563901661961
 21
238.1769703805713
 31
0.0
  0
LINE
  5
D21
  8
0
 62
     0
 10
327.01063901661962
 20
238.1769703805713
 30
0.0
 11
327.01063901661962
 21
238.1769703805713
 31
0.0
  0
LINE
  5
D22
  8
0
 62
     0
 10
326.37563901661969
 20
238.1769703805713
 30
0.0
 11
326.37563901661969
 21
238.1769703805713
 31
0.0
  0
LINE
  5
D23
  8
0
 62
     0
 10
325.74063901661958
 20
238.1769703805713
 30
0.0
 11
325.74063901661958
 21
238.1769703805713
 31
0.0
  0
LINE
  5
D24
  8
0
 62
     0
 10
325.10563901661959
 20
238.1769703805713
 30
0.0
 11
325.10563901661959
 21
238.1769703805713
 31
0.0
  0
LINE
  5
D25
  8
0
 62
     0
 10
324.4706390166196
 20
238.1769703805713
 30
0.0
 11
324.4706390166196
 21
238.1769703805713
 31
0.0
  0
LINE
  5
D26
  8
0
 62
     0
 10
323.83563901661972
 20
238.1769703805713
 30
0.0
 11
323.83563901661972
 21
238.1769703805713
 31
0.0
  0
LINE
  5
D27
  8
0
 62
     0
 10
323.20063901661968
 20
238.1769703805713
 30
0.0
 11
323.20063901661968
 21
238.1769703805713
 31
0.0
  0
LINE
  5
D28
  8
0
 62
     0
 10
322.56563901661968
 20
238.1769703805713
 30
0.0
 11
322.56563901661968
 21
238.1769703805713
 31
0.0
  0
LINE
  5
D29
  8
0
 62
     0
 10
321.93063901661969
 20
238.1769703805713
 30
0.0
 11
321.93063901661969
 21
238.1769703805713
 31
0.0
  0
LINE
  5
D2A
  8
0
 62
     0
 10
321.2956390166197
 20
238.1769703805713
 30
0.0
 11
321.2956390166197
 21
238.1769703805713
 31
0.0
  0
LINE
  5
D2B
  8
0
 62
     0
 10
311.13563901661939
 20
238.1769703805713
 30
0.0
 11
311.13563901661939
 21
238.1769703805713
 31
0.0
  0
LINE
  5
D2C
  8
0
 62
     0
 10
310.5006390166194
 20
238.1769703805713
 30
0.0
 11
310.5006390166194
 21
238.1769703805713
 31
0.0
  0
LINE
  5
D2D
  8
0
 62
     0
 10
309.86563901661941
 20
238.1769703805713
 30
0.0
 11
309.86563901661941
 21
238.1769703805713
 31
0.0
  0
LINE
  5
D2E
  8
0
 62
     0
 10
309.23063901661942
 20
238.1769703805713
 30
0.0
 11
309.23063901661942
 21
238.1769703805713
 31
0.0
  0
LINE
  5
D2F
  8
0
 62
     0
 10
308.59563901661937
 20
238.1769703805713
 30
0.0
 11
308.59563901661937
 21
238.1769703805713
 31
0.0
  0
LINE
  5
D30
  8
0
 62
     0
 10
307.96063901661938
 20
238.1769703805713
 30
0.0
 11
307.96063901661938
 21
238.1769703805713
 31
0.0
  0
LINE
  5
D31
  8
0
 62
     0
 10
307.3256390166195
 20
238.1769703805713
 30
0.0
 11
307.3256390166195
 21
238.1769703805713
 31
0.0
  0
LINE
  5
D32
  8
0
 62
     0
 10
306.69063901661951
 20
238.1769703805713
 30
0.0
 11
306.69063901661951
 21
238.1769703805713
 31
0.0
  0
LINE
  5
D33
  8
0
 62
     0
 10
306.05563901661941
 20
238.1769703805713
 30
0.0
 11
306.05563901661941
 21
238.1769703805713
 31
0.0
  0
LINE
  5
D34
  8
0
 62
     0
 10
305.42063901661948
 20
238.1769703805713
 30
0.0
 11
305.42063901661948
 21
238.1769703805713
 31
0.0
  0
LINE
  5
D35
  8
0
 62
     0
 10
304.78563901661948
 20
238.1769703805713
 30
0.0
 11
304.78563901661948
 21
238.1769703805713
 31
0.0
  0
LINE
  5
D36
  8
0
 62
     0
 10
304.15063901661949
 20
238.1769703805713
 30
0.0
 11
304.15063901661949
 21
238.1769703805713
 31
0.0
  0
LINE
  5
D37
  8
0
 62
     0
 10
303.5156390166195
 20
238.1769703805713
 30
0.0
 11
303.5156390166195
 21
238.1769703805713
 31
0.0
  0
LINE
  5
D38
  8
0
 62
     0
 10
302.88063901661951
 20
238.1769703805713
 30
0.0
 11
302.88063901661951
 21
238.1769703805713
 31
0.0
  0
LINE
  5
D39
  8
0
 62
     0
 10
302.24563901661952
 20
238.1769703805713
 30
0.0
 11
302.24563901661952
 21
238.1769703805713
 31
0.0
  0
LINE
  5
D3A
  8
0
 62
     0
 10
301.61063901661947
 20
238.1769703805713
 30
0.0
 11
301.61063901661947
 21
238.1769703805713
 31
0.0
  0
LINE
  5
D3B
  8
0
 62
     0
 10
300.9756390166196
 20
238.1769703805713
 30
0.0
 11
300.9756390166196
 21
238.1769703805713
 31
0.0
  0
LINE
  5
D3C
  8
0
 62
     0
 10
300.34063901661949
 20
238.1769703805713
 30
0.0
 11
300.34063901661949
 21
238.1769703805713
 31
0.0
  0
LINE
  5
D3D
  8
0
 62
     0
 10
299.7056390166195
 20
238.1769703805713
 30
0.0
 11
299.7056390166195
 21
238.1769703805713
 31
0.0
  0
LINE
  5
D3E
  8
0
 62
     0
 10
299.07063901661962
 20
238.1769703805713
 30
0.0
 11
299.07063901661962
 21
238.1769703805713
 31
0.0
  0
LINE
  5
D3F
  8
0
 62
     0
 10
298.43563901661958
 20
238.1769703805713
 30
0.0
 11
298.43563901661958
 21
238.1769703805713
 31
0.0
  0
LINE
  5
D40
  8
0
 62
     0
 10
297.80063901661958
 20
238.1769703805713
 30
0.0
 11
297.80063901661958
 21
238.1769703805713
 31
0.0
  0
LINE
  5
D41
  8
0
 62
     0
 10
297.16563901661959
 20
238.1769703805713
 30
0.0
 11
297.16563901661959
 21
238.1769703805713
 31
0.0
  0
LINE
  5
D42
  8
0
 62
     0
 10
296.5306390166196
 20
238.1769703805713
 30
0.0
 11
296.5306390166196
 21
238.1769703805713
 31
0.0
  0
LINE
  5
D43
  8
0
 62
     0
 10
295.89563901661961
 20
238.1769703805713
 30
0.0
 11
295.89563901661961
 21
238.1769703805713
 31
0.0
  0
LINE
  5
D44
  8
0
 62
     0
 10
295.26063901661962
 20
238.1769703805713
 30
0.0
 11
295.26063901661962
 21
238.1769703805713
 31
0.0
  0
LINE
  5
D45
  8
0
 62
     0
 10
294.62563901661957
 20
238.1769703805713
 30
0.0
 11
294.62563901661957
 21
238.1769703805713
 31
0.0
  0
LINE
  5
D46
  8
0
 62
     0
 10
293.99063901661958
 20
238.1769703805713
 30
0.0
 11
293.99063901661958
 21
238.1769703805713
 31
0.0
  0
LINE
  5
D47
  8
0
 62
     0
 10
293.3556390166197
 20
238.1769703805713
 30
0.0
 11
293.3556390166197
 21
238.1769703805713
 31
0.0
  0
LINE
  5
D48
  8
0
 62
     0
 10
292.72063901661971
 20
238.1769703805713
 30
0.0
 11
292.72063901661971
 21
238.1769703805713
 31
0.0
  0
LINE
  5
D49
  8
0
 62
     0
 10
292.08563901661972
 20
238.1769703805713
 30
0.0
 11
292.08563901661972
 21
238.1769703805713
 31
0.0
  0
LINE
  5
D4A
  8
0
 62
     0
 10
291.45063901661968
 20
238.1769703805713
 30
0.0
 11
291.45063901661968
 21
238.1769703805713
 31
0.0
  0
LINE
  5
D4B
  8
0
 62
     0
 10
340.66313901661943
 20
238.81197038057141
 30
0.0
 11
340.66313901661943
 21
238.81197038057141
 31
0.0
  0
LINE
  5
D4C
  8
0
 62
     0
 10
340.02813901661949
 20
238.81197038057141
 30
0.0
 11
340.02813901661949
 21
238.81197038057141
 31
0.0
  0
LINE
  5
D4D
  8
0
 62
     0
 10
339.3931390166195
 20
238.81197038057141
 30
0.0
 11
339.3931390166195
 21
238.81197038057141
 31
0.0
  0
LINE
  5
D4E
  8
0
 62
     0
 10
338.7581390166194
 20
238.81197038057141
 30
0.0
 11
338.7581390166194
 21
238.81197038057141
 31
0.0
  0
LINE
  5
D4F
  8
0
 62
     0
 10
338.12313901661952
 20
238.81197038057141
 30
0.0
 11
338.12313901661952
 21
238.81197038057141
 31
0.0
  0
LINE
  5
D50
  8
0
 62
     0
 10
337.48813901661953
 20
238.81197038057141
 30
0.0
 11
337.48813901661953
 21
238.81197038057141
 31
0.0
  0
LINE
  5
D51
  8
0
 62
     0
 10
336.85313901661948
 20
238.81197038057141
 30
0.0
 11
336.85313901661948
 21
238.81197038057141
 31
0.0
  0
LINE
  5
D52
  8
0
 62
     0
 10
336.21813901661949
 20
238.81197038057141
 30
0.0
 11
336.21813901661949
 21
238.81197038057141
 31
0.0
  0
LINE
  5
D53
  8
0
 62
     0
 10
335.5831390166195
 20
238.81197038057141
 30
0.0
 11
335.5831390166195
 21
238.81197038057141
 31
0.0
  0
LINE
  5
D54
  8
0
 62
     0
 10
334.94813901661951
 20
238.81197038057141
 30
0.0
 11
334.94813901661951
 21
238.81197038057141
 31
0.0
  0
LINE
  5
D55
  8
0
 62
     0
 10
334.31313901661952
 20
238.81197038057141
 30
0.0
 11
334.31313901661952
 21
238.81197038057141
 31
0.0
  0
LINE
  5
D56
  8
0
 62
     0
 10
333.67813901661953
 20
238.81197038057141
 30
0.0
 11
333.67813901661953
 21
238.81197038057141
 31
0.0
  0
LINE
  5
D57
  8
0
 62
     0
 10
333.04313901661948
 20
238.81197038057141
 30
0.0
 11
333.04313901661948
 21
238.81197038057141
 31
0.0
  0
LINE
  5
D58
  8
0
 62
     0
 10
332.40813901661949
 20
238.81197038057141
 30
0.0
 11
332.40813901661949
 21
238.81197038057141
 31
0.0
  0
LINE
  5
D59
  8
0
 62
     0
 10
331.77313901661961
 20
238.81197038057141
 30
0.0
 11
331.77313901661961
 21
238.81197038057141
 31
0.0
  0
LINE
  5
D5A
  8
0
 62
     0
 10
331.13813901661962
 20
238.81197038057141
 30
0.0
 11
331.13813901661962
 21
238.81197038057141
 31
0.0
  0
LINE
  5
D5B
  8
0
 62
     0
 10
330.50313901661963
 20
238.81197038057141
 30
0.0
 11
330.50313901661963
 21
238.81197038057141
 31
0.0
  0
LINE
  5
D5C
  8
0
 62
     0
 10
329.86813901661958
 20
238.81197038057141
 30
0.0
 11
329.86813901661958
 21
238.81197038057141
 31
0.0
  0
LINE
  5
D5D
  8
0
 62
     0
 10
329.23313901661959
 20
238.81197038057141
 30
0.0
 11
329.23313901661959
 21
238.81197038057141
 31
0.0
  0
LINE
  5
D5E
  8
0
 62
     0
 10
328.5981390166196
 20
238.81197038057141
 30
0.0
 11
328.5981390166196
 21
238.81197038057141
 31
0.0
  0
LINE
  5
D5F
  8
0
 62
     0
 10
327.96313901661961
 20
238.81197038057141
 30
0.0
 11
327.96313901661961
 21
238.81197038057141
 31
0.0
  0
LINE
  5
D60
  8
0
 62
     0
 10
327.32813901661962
 20
238.81197038057141
 30
0.0
 11
327.32813901661962
 21
238.81197038057141
 31
0.0
  0
LINE
  5
D61
  8
0
 62
     0
 10
326.69313901661963
 20
238.81197038057141
 30
0.0
 11
326.69313901661963
 21
238.81197038057141
 31
0.0
  0
LINE
  5
D62
  8
0
 62
     0
 10
326.05813901661958
 20
238.81197038057141
 30
0.0
 11
326.05813901661958
 21
238.81197038057141
 31
0.0
  0
LINE
  5
D63
  8
0
 62
     0
 10
325.4231390166197
 20
238.81197038057141
 30
0.0
 11
325.4231390166197
 21
238.81197038057141
 31
0.0
  0
LINE
  5
D64
  8
0
 62
     0
 10
324.78813901661971
 20
238.81197038057141
 30
0.0
 11
324.78813901661971
 21
238.81197038057141
 31
0.0
  0
LINE
  5
D65
  8
0
 62
     0
 10
324.15313901661972
 20
238.81197038057141
 30
0.0
 11
324.15313901661972
 21
238.81197038057141
 31
0.0
  0
LINE
  5
D66
  8
0
 62
     0
 10
323.51813901661973
 20
238.81197038057141
 30
0.0
 11
323.51813901661973
 21
238.81197038057141
 31
0.0
  0
LINE
  5
D67
  8
0
 62
     0
 10
322.88313901661968
 20
238.81197038057141
 30
0.0
 11
322.88313901661968
 21
238.81197038057141
 31
0.0
  0
LINE
  5
D68
  8
0
 62
     0
 10
322.24813901661969
 20
238.81197038057141
 30
0.0
 11
322.24813901661969
 21
238.81197038057141
 31
0.0
  0
LINE
  5
D69
  8
0
 62
     0
 10
321.6131390166197
 20
238.81197038057141
 30
0.0
 11
321.6131390166197
 21
238.81197038057141
 31
0.0
  0
LINE
  5
D6A
  8
0
 62
     0
 10
310.8181390166194
 20
238.81197038057141
 30
0.0
 11
310.8181390166194
 21
238.81197038057141
 31
0.0
  0
LINE
  5
D6B
  8
0
 62
     0
 10
310.18313901661941
 20
238.81197038057141
 30
0.0
 11
310.18313901661941
 21
238.81197038057141
 31
0.0
  0
LINE
  5
D6C
  8
0
 62
     0
 10
309.54813901661942
 20
238.81197038057141
 30
0.0
 11
309.54813901661942
 21
238.81197038057141
 31
0.0
  0
LINE
  5
D6D
  8
0
 62
     0
 10
308.91313901661943
 20
238.81197038057141
 30
0.0
 11
308.91313901661943
 21
238.81197038057141
 31
0.0
  0
LINE
  5
D6E
  8
0
 62
     0
 10
308.27813901661938
 20
238.81197038057141
 30
0.0
 11
308.27813901661938
 21
238.81197038057141
 31
0.0
  0
LINE
  5
D6F
  8
0
 62
     0
 10
307.64313901661939
 20
238.81197038057141
 30
0.0
 11
307.64313901661939
 21
238.81197038057141
 31
0.0
  0
LINE
  5
D70
  8
0
 62
     0
 10
307.0081390166194
 20
238.81197038057141
 30
0.0
 11
307.0081390166194
 21
238.81197038057141
 31
0.0
  0
LINE
  5
D71
  8
0
 62
     0
 10
306.37313901661952
 20
238.81197038057141
 30
0.0
 11
306.37313901661952
 21
238.81197038057141
 31
0.0
  0
LINE
  5
D72
  8
0
 62
     0
 10
305.73813901661953
 20
238.81197038057141
 30
0.0
 11
305.73813901661953
 21
238.81197038057141
 31
0.0
  0
LINE
  5
D73
  8
0
 62
     0
 10
305.10313901661948
 20
238.81197038057141
 30
0.0
 11
305.10313901661948
 21
238.81197038057141
 31
0.0
  0
LINE
  5
D74
  8
0
 62
     0
 10
304.46813901661949
 20
238.81197038057141
 30
0.0
 11
304.46813901661949
 21
238.81197038057141
 31
0.0
  0
LINE
  5
D75
  8
0
 62
     0
 10
303.8331390166195
 20
238.81197038057141
 30
0.0
 11
303.8331390166195
 21
238.81197038057141
 31
0.0
  0
LINE
  5
D76
  8
0
 62
     0
 10
303.19813901661951
 20
238.81197038057141
 30
0.0
 11
303.19813901661951
 21
238.81197038057141
 31
0.0
  0
LINE
  5
D77
  8
0
 62
     0
 10
302.56313901661952
 20
238.81197038057141
 30
0.0
 11
302.56313901661952
 21
238.81197038057141
 31
0.0
  0
LINE
  5
D78
  8
0
 62
     0
 10
301.92813901661953
 20
238.81197038057141
 30
0.0
 11
301.92813901661953
 21
238.81197038057141
 31
0.0
  0
LINE
  5
D79
  8
0
 62
     0
 10
301.29313901661948
 20
238.81197038057141
 30
0.0
 11
301.29313901661948
 21
238.81197038057141
 31
0.0
  0
LINE
  5
D7A
  8
0
 62
     0
 10
300.65813901661949
 20
238.81197038057141
 30
0.0
 11
300.65813901661949
 21
238.81197038057141
 31
0.0
  0
LINE
  5
D7B
  8
0
 62
     0
 10
300.02313901661961
 20
238.81197038057141
 30
0.0
 11
300.02313901661961
 21
238.81197038057141
 31
0.0
  0
LINE
  5
D7C
  8
0
 62
     0
 10
299.38813901661962
 20
238.81197038057141
 30
0.0
 11
299.38813901661962
 21
238.81197038057141
 31
0.0
  0
LINE
  5
D7D
  8
0
 62
     0
 10
298.75313901661963
 20
238.81197038057141
 30
0.0
 11
298.75313901661963
 21
238.81197038057141
 31
0.0
  0
LINE
  5
D7E
  8
0
 62
     0
 10
298.11813901661958
 20
238.81197038057141
 30
0.0
 11
298.11813901661958
 21
238.81197038057141
 31
0.0
  0
LINE
  5
D7F
  8
0
 62
     0
 10
297.48313901661959
 20
238.81197038057141
 30
0.0
 11
297.48313901661959
 21
238.81197038057141
 31
0.0
  0
LINE
  5
D80
  8
0
 62
     0
 10
296.8481390166196
 20
238.81197038057141
 30
0.0
 11
296.8481390166196
 21
238.81197038057141
 31
0.0
  0
LINE
  5
D81
  8
0
 62
     0
 10
296.21313901661961
 20
238.81197038057141
 30
0.0
 11
296.21313901661961
 21
238.81197038057141
 31
0.0
  0
LINE
  5
D82
  8
0
 62
     0
 10
295.57813901661962
 20
238.81197038057141
 30
0.0
 11
295.57813901661962
 21
238.81197038057141
 31
0.0
  0
LINE
  5
D83
  8
0
 62
     0
 10
294.94313901661963
 20
238.81197038057141
 30
0.0
 11
294.94313901661963
 21
238.81197038057141
 31
0.0
  0
LINE
  5
D84
  8
0
 62
     0
 10
294.30813901661969
 20
238.81197038057141
 30
0.0
 11
294.30813901661969
 21
238.81197038057141
 31
0.0
  0
LINE
  5
D85
  8
0
 62
     0
 10
293.6731390166197
 20
238.81197038057141
 30
0.0
 11
293.6731390166197
 21
238.81197038057141
 31
0.0
  0
LINE
  5
D86
  8
0
 62
     0
 10
293.0381390166196
 20
238.81197038057141
 30
0.0
 11
293.0381390166196
 21
238.81197038057141
 31
0.0
  0
LINE
  5
D87
  8
0
 62
     0
 10
292.40313901661972
 20
238.81197038057141
 30
0.0
 11
292.40313901661972
 21
238.81197038057141
 31
0.0
  0
LINE
  5
D88
  8
0
 62
     0
 10
291.76813901661973
 20
238.81197038057141
 30
0.0
 11
291.76813901661973
 21
238.81197038057141
 31
0.0
  0
LINE
  5
D89
  8
0
 62
     0
 10
340.98063901661942
 20
239.4469703805714
 30
0.0
 11
340.98063901661942
 21
239.4469703805714
 31
0.0
  0
LINE
  5
D8A
  8
0
 62
     0
 10
340.34563901661937
 20
239.4469703805714
 30
0.0
 11
340.34563901661937
 21
239.4469703805714
 31
0.0
  0
LINE
  5
D8B
  8
0
 62
     0
 10
339.71063901661938
 20
239.4469703805714
 30
0.0
 11
339.71063901661938
 21
239.4469703805714
 31
0.0
  0
LINE
  5
D8C
  8
0
 62
     0
 10
339.0756390166195
 20
239.4469703805714
 30
0.0
 11
339.0756390166195
 21
239.4469703805714
 31
0.0
  0
LINE
  5
D8D
  8
0
 62
     0
 10
338.44063901661951
 20
239.4469703805714
 30
0.0
 11
338.44063901661951
 21
239.4469703805714
 31
0.0
  0
LINE
  5
D8E
  8
0
 62
     0
 10
337.80563901661952
 20
239.4469703805714
 30
0.0
 11
337.80563901661952
 21
239.4469703805714
 31
0.0
  0
LINE
  5
D8F
  8
0
 62
     0
 10
337.17063901661948
 20
239.4469703805714
 30
0.0
 11
337.17063901661948
 21
239.4469703805714
 31
0.0
  0
LINE
  5
D90
  8
0
 62
     0
 10
336.53563901661948
 20
239.4469703805714
 30
0.0
 11
336.53563901661948
 21
239.4469703805714
 31
0.0
  0
LINE
  5
D91
  8
0
 62
     0
 10
335.90063901661949
 20
239.4469703805714
 30
0.0
 11
335.90063901661949
 21
239.4469703805714
 31
0.0
  0
LINE
  5
D92
  8
0
 62
     0
 10
335.2656390166195
 20
239.4469703805714
 30
0.0
 11
335.2656390166195
 21
239.4469703805714
 31
0.0
  0
LINE
  5
D93
  8
0
 62
     0
 10
334.63063901661951
 20
239.4469703805714
 30
0.0
 11
334.63063901661951
 21
239.4469703805714
 31
0.0
  0
LINE
  5
D94
  8
0
 62
     0
 10
333.99563901661952
 20
239.4469703805714
 30
0.0
 11
333.99563901661952
 21
239.4469703805714
 31
0.0
  0
LINE
  5
D95
  8
0
 62
     0
 10
333.36063901661947
 20
239.4469703805714
 30
0.0
 11
333.36063901661947
 21
239.4469703805714
 31
0.0
  0
LINE
  5
D96
  8
0
 62
     0
 10
332.7256390166196
 20
239.4469703805714
 30
0.0
 11
332.7256390166196
 21
239.4469703805714
 31
0.0
  0
LINE
  5
D97
  8
0
 62
     0
 10
332.0906390166196
 20
239.4469703805714
 30
0.0
 11
332.0906390166196
 21
239.4469703805714
 31
0.0
  0
LINE
  5
D98
  8
0
 62
     0
 10
331.45563901661961
 20
239.4469703805714
 30
0.0
 11
331.45563901661961
 21
239.4469703805714
 31
0.0
  0
LINE
  5
D99
  8
0
 62
     0
 10
330.82063901661951
 20
239.4469703805714
 30
0.0
 11
330.82063901661951
 21
239.4469703805714
 31
0.0
  0
LINE
  5
D9A
  8
0
 62
     0
 10
330.18563901661958
 20
239.4469703805714
 30
0.0
 11
330.18563901661958
 21
239.4469703805714
 31
0.0
  0
LINE
  5
D9B
  8
0
 62
     0
 10
329.55063901661958
 20
239.4469703805714
 30
0.0
 11
329.55063901661958
 21
239.4469703805714
 31
0.0
  0
LINE
  5
D9C
  8
0
 62
     0
 10
328.91563901661959
 20
239.4469703805714
 30
0.0
 11
328.91563901661959
 21
239.4469703805714
 31
0.0
  0
LINE
  5
D9D
  8
0
 62
     0
 10
328.2806390166196
 20
239.4469703805714
 30
0.0
 11
328.2806390166196
 21
239.4469703805714
 31
0.0
  0
LINE
  5
D9E
  8
0
 62
     0
 10
327.64563901661961
 20
239.4469703805714
 30
0.0
 11
327.64563901661961
 21
239.4469703805714
 31
0.0
  0
LINE
  5
D9F
  8
0
 62
     0
 10
327.01063901661962
 20
239.4469703805714
 30
0.0
 11
327.01063901661962
 21
239.4469703805714
 31
0.0
  0
LINE
  5
DA0
  8
0
 62
     0
 10
326.37563901661969
 20
239.4469703805714
 30
0.0
 11
326.37563901661969
 21
239.4469703805714
 31
0.0
  0
LINE
  5
DA1
  8
0
 62
     0
 10
325.74063901661958
 20
239.4469703805714
 30
0.0
 11
325.74063901661958
 21
239.4469703805714
 31
0.0
  0
LINE
  5
DA2
  8
0
 62
     0
 10
325.10563901661959
 20
239.4469703805714
 30
0.0
 11
325.10563901661959
 21
239.4469703805714
 31
0.0
  0
LINE
  5
DA3
  8
0
 62
     0
 10
324.4706390166196
 20
239.4469703805714
 30
0.0
 11
324.4706390166196
 21
239.4469703805714
 31
0.0
  0
LINE
  5
DA4
  8
0
 62
     0
 10
323.83563901661972
 20
239.4469703805714
 30
0.0
 11
323.83563901661972
 21
239.4469703805714
 31
0.0
  0
LINE
  5
DA5
  8
0
 62
     0
 10
323.20063901661968
 20
239.4469703805714
 30
0.0
 11
323.20063901661968
 21
239.4469703805714
 31
0.0
  0
LINE
  5
DA6
  8
0
 62
     0
 10
322.56563901661968
 20
239.4469703805714
 30
0.0
 11
322.56563901661968
 21
239.4469703805714
 31
0.0
  0
LINE
  5
DA7
  8
0
 62
     0
 10
321.93063901661969
 20
239.4469703805714
 30
0.0
 11
321.93063901661969
 21
239.4469703805714
 31
0.0
  0
LINE
  5
DA8
  8
0
 62
     0
 10
321.2956390166197
 20
239.4469703805714
 30
0.0
 11
321.2956390166197
 21
239.4469703805714
 31
0.0
  0
LINE
  5
DA9
  8
0
 62
     0
 10
311.13563901661939
 20
239.4469703805714
 30
0.0
 11
311.13563901661939
 21
239.4469703805714
 31
0.0
  0
LINE
  5
DAA
  8
0
 62
     0
 10
310.5006390166194
 20
239.4469703805714
 30
0.0
 11
310.5006390166194
 21
239.4469703805714
 31
0.0
  0
LINE
  5
DAB
  8
0
 62
     0
 10
309.86563901661941
 20
239.4469703805714
 30
0.0
 11
309.86563901661941
 21
239.4469703805714
 31
0.0
  0
LINE
  5
DAC
  8
0
 62
     0
 10
309.23063901661942
 20
239.4469703805714
 30
0.0
 11
309.23063901661942
 21
239.4469703805714
 31
0.0
  0
LINE
  5
DAD
  8
0
 62
     0
 10
308.59563901661937
 20
239.4469703805714
 30
0.0
 11
308.59563901661937
 21
239.4469703805714
 31
0.0
  0
LINE
  5
DAE
  8
0
 62
     0
 10
307.96063901661938
 20
239.4469703805714
 30
0.0
 11
307.96063901661938
 21
239.4469703805714
 31
0.0
  0
LINE
  5
DAF
  8
0
 62
     0
 10
307.3256390166195
 20
239.4469703805714
 30
0.0
 11
307.3256390166195
 21
239.4469703805714
 31
0.0
  0
LINE
  5
DB0
  8
0
 62
     0
 10
306.69063901661951
 20
239.4469703805714
 30
0.0
 11
306.69063901661951
 21
239.4469703805714
 31
0.0
  0
LINE
  5
DB1
  8
0
 62
     0
 10
306.05563901661941
 20
239.4469703805714
 30
0.0
 11
306.05563901661941
 21
239.4469703805714
 31
0.0
  0
LINE
  5
DB2
  8
0
 62
     0
 10
305.42063901661948
 20
239.4469703805714
 30
0.0
 11
305.42063901661948
 21
239.4469703805714
 31
0.0
  0
LINE
  5
DB3
  8
0
 62
     0
 10
304.78563901661948
 20
239.4469703805714
 30
0.0
 11
304.78563901661948
 21
239.4469703805714
 31
0.0
  0
LINE
  5
DB4
  8
0
 62
     0
 10
304.15063901661949
 20
239.4469703805714
 30
0.0
 11
304.15063901661949
 21
239.4469703805714
 31
0.0
  0
LINE
  5
DB5
  8
0
 62
     0
 10
303.5156390166195
 20
239.4469703805714
 30
0.0
 11
303.5156390166195
 21
239.4469703805714
 31
0.0
  0
LINE
  5
DB6
  8
0
 62
     0
 10
302.88063901661951
 20
239.4469703805714
 30
0.0
 11
302.88063901661951
 21
239.4469703805714
 31
0.0
  0
LINE
  5
DB7
  8
0
 62
     0
 10
302.24563901661952
 20
239.4469703805714
 30
0.0
 11
302.24563901661952
 21
239.4469703805714
 31
0.0
  0
LINE
  5
DB8
  8
0
 62
     0
 10
301.61063901661947
 20
239.4469703805714
 30
0.0
 11
301.61063901661947
 21
239.4469703805714
 31
0.0
  0
LINE
  5
DB9
  8
0
 62
     0
 10
300.9756390166196
 20
239.4469703805714
 30
0.0
 11
300.9756390166196
 21
239.4469703805714
 31
0.0
  0
LINE
  5
DBA
  8
0
 62
     0
 10
300.34063901661949
 20
239.4469703805714
 30
0.0
 11
300.34063901661949
 21
239.4469703805714
 31
0.0
  0
LINE
  5
DBB
  8
0
 62
     0
 10
299.7056390166195
 20
239.4469703805714
 30
0.0
 11
299.7056390166195
 21
239.4469703805714
 31
0.0
  0
LINE
  5
DBC
  8
0
 62
     0
 10
299.07063901661962
 20
239.4469703805714
 30
0.0
 11
299.07063901661962
 21
239.4469703805714
 31
0.0
  0
LINE
  5
DBD
  8
0
 62
     0
 10
298.43563901661958
 20
239.4469703805714
 30
0.0
 11
298.43563901661958
 21
239.4469703805714
 31
0.0
  0
LINE
  5
DBE
  8
0
 62
     0
 10
297.80063901661958
 20
239.4469703805714
 30
0.0
 11
297.80063901661958
 21
239.4469703805714
 31
0.0
  0
LINE
  5
DBF
  8
0
 62
     0
 10
297.16563901661959
 20
239.4469703805714
 30
0.0
 11
297.16563901661959
 21
239.4469703805714
 31
0.0
  0
LINE
  5
DC0
  8
0
 62
     0
 10
296.5306390166196
 20
239.4469703805714
 30
0.0
 11
296.5306390166196
 21
239.4469703805714
 31
0.0
  0
LINE
  5
DC1
  8
0
 62
     0
 10
295.89563901661961
 20
239.4469703805714
 30
0.0
 11
295.89563901661961
 21
239.4469703805714
 31
0.0
  0
LINE
  5
DC2
  8
0
 62
     0
 10
295.26063901661962
 20
239.4469703805714
 30
0.0
 11
295.26063901661962
 21
239.4469703805714
 31
0.0
  0
LINE
  5
DC3
  8
0
 62
     0
 10
294.62563901661957
 20
239.4469703805714
 30
0.0
 11
294.62563901661957
 21
239.4469703805714
 31
0.0
  0
LINE
  5
DC4
  8
0
 62
     0
 10
293.99063901661958
 20
239.4469703805714
 30
0.0
 11
293.99063901661958
 21
239.4469703805714
 31
0.0
  0
LINE
  5
DC5
  8
0
 62
     0
 10
293.3556390166197
 20
239.4469703805714
 30
0.0
 11
293.3556390166197
 21
239.4469703805714
 31
0.0
  0
LINE
  5
DC6
  8
0
 62
     0
 10
292.72063901661971
 20
239.4469703805714
 30
0.0
 11
292.72063901661971
 21
239.4469703805714
 31
0.0
  0
LINE
  5
DC7
  8
0
 62
     0
 10
292.08563901661972
 20
239.4469703805714
 30
0.0
 11
292.08563901661972
 21
239.4469703805714
 31
0.0
  0
LINE
  5
DC8
  8
0
 62
     0
 10
291.45063901661968
 20
239.4469703805714
 30
0.0
 11
291.45063901661968
 21
239.4469703805714
 31
0.0
  0
LINE
  5
DC9
  8
0
 62
     0
 10
340.66313901661943
 20
240.08197038057131
 30
0.0
 11
340.66313901661943
 21
240.08197038057131
 31
0.0
  0
LINE
  5
DCA
  8
0
 62
     0
 10
340.02813901661949
 20
240.08197038057131
 30
0.0
 11
340.02813901661949
 21
240.08197038057131
 31
0.0
  0
LINE
  5
DCB
  8
0
 62
     0
 10
339.3931390166195
 20
240.08197038057131
 30
0.0
 11
339.3931390166195
 21
240.08197038057131
 31
0.0
  0
LINE
  5
DCC
  8
0
 62
     0
 10
338.7581390166194
 20
240.08197038057131
 30
0.0
 11
338.7581390166194
 21
240.08197038057131
 31
0.0
  0
LINE
  5
DCD
  8
0
 62
     0
 10
338.12313901661952
 20
240.08197038057131
 30
0.0
 11
338.12313901661952
 21
240.08197038057131
 31
0.0
  0
LINE
  5
DCE
  8
0
 62
     0
 10
337.48813901661953
 20
240.08197038057131
 30
0.0
 11
337.48813901661953
 21
240.08197038057131
 31
0.0
  0
LINE
  5
DCF
  8
0
 62
     0
 10
336.85313901661948
 20
240.08197038057131
 30
0.0
 11
336.85313901661948
 21
240.08197038057131
 31
0.0
  0
LINE
  5
DD0
  8
0
 62
     0
 10
336.21813901661949
 20
240.08197038057131
 30
0.0
 11
336.21813901661949
 21
240.08197038057131
 31
0.0
  0
LINE
  5
DD1
  8
0
 62
     0
 10
335.5831390166195
 20
240.08197038057131
 30
0.0
 11
335.5831390166195
 21
240.08197038057131
 31
0.0
  0
LINE
  5
DD2
  8
0
 62
     0
 10
334.94813901661951
 20
240.08197038057131
 30
0.0
 11
334.94813901661951
 21
240.08197038057131
 31
0.0
  0
LINE
  5
DD3
  8
0
 62
     0
 10
334.31313901661952
 20
240.08197038057131
 30
0.0
 11
334.31313901661952
 21
240.08197038057131
 31
0.0
  0
LINE
  5
DD4
  8
0
 62
     0
 10
333.67813901661953
 20
240.08197038057131
 30
0.0
 11
333.67813901661953
 21
240.08197038057131
 31
0.0
  0
LINE
  5
DD5
  8
0
 62
     0
 10
333.04313901661948
 20
240.08197038057131
 30
0.0
 11
333.04313901661948
 21
240.08197038057131
 31
0.0
  0
LINE
  5
DD6
  8
0
 62
     0
 10
332.40813901661949
 20
240.08197038057131
 30
0.0
 11
332.40813901661949
 21
240.08197038057131
 31
0.0
  0
LINE
  5
DD7
  8
0
 62
     0
 10
331.77313901661961
 20
240.08197038057131
 30
0.0
 11
331.77313901661961
 21
240.08197038057131
 31
0.0
  0
LINE
  5
DD8
  8
0
 62
     0
 10
331.13813901661962
 20
240.08197038057131
 30
0.0
 11
331.13813901661962
 21
240.08197038057131
 31
0.0
  0
LINE
  5
DD9
  8
0
 62
     0
 10
330.50313901661963
 20
240.08197038057131
 30
0.0
 11
330.50313901661963
 21
240.08197038057131
 31
0.0
  0
LINE
  5
DDA
  8
0
 62
     0
 10
329.86813901661958
 20
240.08197038057131
 30
0.0
 11
329.86813901661958
 21
240.08197038057131
 31
0.0
  0
LINE
  5
DDB
  8
0
 62
     0
 10
329.23313901661959
 20
240.08197038057131
 30
0.0
 11
329.23313901661959
 21
240.08197038057131
 31
0.0
  0
LINE
  5
DDC
  8
0
 62
     0
 10
328.5981390166196
 20
240.08197038057131
 30
0.0
 11
328.5981390166196
 21
240.08197038057131
 31
0.0
  0
LINE
  5
DDD
  8
0
 62
     0
 10
327.96313901661961
 20
240.08197038057131
 30
0.0
 11
327.96313901661961
 21
240.08197038057131
 31
0.0
  0
LINE
  5
DDE
  8
0
 62
     0
 10
327.32813901661962
 20
240.08197038057131
 30
0.0
 11
327.32813901661962
 21
240.08197038057131
 31
0.0
  0
LINE
  5
DDF
  8
0
 62
     0
 10
326.69313901661963
 20
240.08197038057131
 30
0.0
 11
326.69313901661963
 21
240.08197038057131
 31
0.0
  0
LINE
  5
DE0
  8
0
 62
     0
 10
326.05813901661958
 20
240.08197038057131
 30
0.0
 11
326.05813901661958
 21
240.08197038057131
 31
0.0
  0
LINE
  5
DE1
  8
0
 62
     0
 10
325.4231390166197
 20
240.08197038057131
 30
0.0
 11
325.4231390166197
 21
240.08197038057131
 31
0.0
  0
LINE
  5
DE2
  8
0
 62
     0
 10
324.78813901661971
 20
240.08197038057131
 30
0.0
 11
324.78813901661971
 21
240.08197038057131
 31
0.0
  0
LINE
  5
DE3
  8
0
 62
     0
 10
324.15313901661972
 20
240.08197038057131
 30
0.0
 11
324.15313901661972
 21
240.08197038057131
 31
0.0
  0
LINE
  5
DE4
  8
0
 62
     0
 10
323.51813901661973
 20
240.08197038057131
 30
0.0
 11
323.51813901661973
 21
240.08197038057131
 31
0.0
  0
LINE
  5
DE5
  8
0
 62
     0
 10
322.88313901661968
 20
240.08197038057131
 30
0.0
 11
322.88313901661968
 21
240.08197038057131
 31
0.0
  0
LINE
  5
DE6
  8
0
 62
     0
 10
322.24813901661969
 20
240.08197038057131
 30
0.0
 11
322.24813901661969
 21
240.08197038057131
 31
0.0
  0
LINE
  5
DE7
  8
0
 62
     0
 10
321.6131390166197
 20
240.08197038057131
 30
0.0
 11
321.6131390166197
 21
240.08197038057131
 31
0.0
  0
LINE
  5
DE8
  8
0
 62
     0
 10
310.8181390166194
 20
240.08197038057131
 30
0.0
 11
310.8181390166194
 21
240.08197038057131
 31
0.0
  0
LINE
  5
DE9
  8
0
 62
     0
 10
310.18313901661941
 20
240.08197038057131
 30
0.0
 11
310.18313901661941
 21
240.08197038057131
 31
0.0
  0
LINE
  5
DEA
  8
0
 62
     0
 10
309.54813901661942
 20
240.08197038057131
 30
0.0
 11
309.54813901661942
 21
240.08197038057131
 31
0.0
  0
LINE
  5
DEB
  8
0
 62
     0
 10
308.91313901661943
 20
240.08197038057131
 30
0.0
 11
308.91313901661943
 21
240.08197038057131
 31
0.0
  0
LINE
  5
DEC
  8
0
 62
     0
 10
308.27813901661938
 20
240.08197038057131
 30
0.0
 11
308.27813901661938
 21
240.08197038057131
 31
0.0
  0
LINE
  5
DED
  8
0
 62
     0
 10
307.64313901661939
 20
240.08197038057131
 30
0.0
 11
307.64313901661939
 21
240.08197038057131
 31
0.0
  0
LINE
  5
DEE
  8
0
 62
     0
 10
307.0081390166194
 20
240.08197038057131
 30
0.0
 11
307.0081390166194
 21
240.08197038057131
 31
0.0
  0
LINE
  5
DEF
  8
0
 62
     0
 10
306.37313901661952
 20
240.08197038057131
 30
0.0
 11
306.37313901661952
 21
240.08197038057131
 31
0.0
  0
LINE
  5
DF0
  8
0
 62
     0
 10
305.73813901661953
 20
240.08197038057131
 30
0.0
 11
305.73813901661953
 21
240.08197038057131
 31
0.0
  0
LINE
  5
DF1
  8
0
 62
     0
 10
305.10313901661948
 20
240.08197038057131
 30
0.0
 11
305.10313901661948
 21
240.08197038057131
 31
0.0
  0
LINE
  5
DF2
  8
0
 62
     0
 10
304.46813901661949
 20
240.08197038057131
 30
0.0
 11
304.46813901661949
 21
240.08197038057131
 31
0.0
  0
LINE
  5
DF3
  8
0
 62
     0
 10
303.8331390166195
 20
240.08197038057131
 30
0.0
 11
303.8331390166195
 21
240.08197038057131
 31
0.0
  0
LINE
  5
DF4
  8
0
 62
     0
 10
303.19813901661951
 20
240.08197038057131
 30
0.0
 11
303.19813901661951
 21
240.08197038057131
 31
0.0
  0
LINE
  5
DF5
  8
0
 62
     0
 10
302.56313901661952
 20
240.08197038057131
 30
0.0
 11
302.56313901661952
 21
240.08197038057131
 31
0.0
  0
LINE
  5
DF6
  8
0
 62
     0
 10
301.92813901661953
 20
240.08197038057131
 30
0.0
 11
301.92813901661953
 21
240.08197038057131
 31
0.0
  0
LINE
  5
DF7
  8
0
 62
     0
 10
301.29313901661948
 20
240.08197038057131
 30
0.0
 11
301.29313901661948
 21
240.08197038057131
 31
0.0
  0
LINE
  5
DF8
  8
0
 62
     0
 10
300.65813901661949
 20
240.08197038057131
 30
0.0
 11
300.65813901661949
 21
240.08197038057131
 31
0.0
  0
LINE
  5
DF9
  8
0
 62
     0
 10
300.02313901661961
 20
240.08197038057131
 30
0.0
 11
300.02313901661961
 21
240.08197038057131
 31
0.0
  0
LINE
  5
DFA
  8
0
 62
     0
 10
299.38813901661962
 20
240.08197038057131
 30
0.0
 11
299.38813901661962
 21
240.08197038057131
 31
0.0
  0
LINE
  5
DFB
  8
0
 62
     0
 10
298.75313901661963
 20
240.08197038057131
 30
0.0
 11
298.75313901661963
 21
240.08197038057131
 31
0.0
  0
LINE
  5
DFC
  8
0
 62
     0
 10
298.11813901661958
 20
240.08197038057131
 30
0.0
 11
298.11813901661958
 21
240.08197038057131
 31
0.0
  0
LINE
  5
DFD
  8
0
 62
     0
 10
297.48313901661959
 20
240.08197038057131
 30
0.0
 11
297.48313901661959
 21
240.08197038057131
 31
0.0
  0
LINE
  5
DFE
  8
0
 62
     0
 10
296.8481390166196
 20
240.08197038057131
 30
0.0
 11
296.8481390166196
 21
240.08197038057131
 31
0.0
  0
LINE
  5
DFF
  8
0
 62
     0
 10
296.21313901661961
 20
240.08197038057131
 30
0.0
 11
296.21313901661961
 21
240.08197038057131
 31
0.0
  0
LINE
  5
E00
  8
0
 62
     0
 10
295.57813901661962
 20
240.08197038057131
 30
0.0
 11
295.57813901661962
 21
240.08197038057131
 31
0.0
  0
LINE
  5
E01
  8
0
 62
     0
 10
294.94313901661963
 20
240.08197038057131
 30
0.0
 11
294.94313901661963
 21
240.08197038057131
 31
0.0
  0
LINE
  5
E02
  8
0
 62
     0
 10
294.30813901661969
 20
240.08197038057131
 30
0.0
 11
294.30813901661969
 21
240.08197038057131
 31
0.0
  0
LINE
  5
E03
  8
0
 62
     0
 10
293.6731390166197
 20
240.08197038057131
 30
0.0
 11
293.6731390166197
 21
240.08197038057131
 31
0.0
  0
LINE
  5
E04
  8
0
 62
     0
 10
293.0381390166196
 20
240.08197038057131
 30
0.0
 11
293.0381390166196
 21
240.08197038057131
 31
0.0
  0
LINE
  5
E05
  8
0
 62
     0
 10
292.40313901661972
 20
240.08197038057131
 30
0.0
 11
292.40313901661972
 21
240.08197038057131
 31
0.0
  0
LINE
  5
E06
  8
0
 62
     0
 10
291.76813901661973
 20
240.08197038057131
 30
0.0
 11
291.76813901661973
 21
240.08197038057131
 31
0.0
  0
LINE
  5
E07
  8
0
 62
     0
 10
340.98063901661942
 20
240.7169703805713
 30
0.0
 11
340.98063901661942
 21
240.7169703805713
 31
0.0
  0
LINE
  5
E08
  8
0
 62
     0
 10
340.34563901661937
 20
240.7169703805713
 30
0.0
 11
340.34563901661937
 21
240.7169703805713
 31
0.0
  0
LINE
  5
E09
  8
0
 62
     0
 10
339.71063901661938
 20
240.7169703805713
 30
0.0
 11
339.71063901661938
 21
240.7169703805713
 31
0.0
  0
LINE
  5
E0A
  8
0
 62
     0
 10
339.0756390166195
 20
240.7169703805713
 30
0.0
 11
339.0756390166195
 21
240.7169703805713
 31
0.0
  0
LINE
  5
E0B
  8
0
 62
     0
 10
338.44063901661951
 20
240.7169703805713
 30
0.0
 11
338.44063901661951
 21
240.7169703805713
 31
0.0
  0
LINE
  5
E0C
  8
0
 62
     0
 10
337.80563901661952
 20
240.7169703805713
 30
0.0
 11
337.80563901661952
 21
240.7169703805713
 31
0.0
  0
LINE
  5
E0D
  8
0
 62
     0
 10
337.17063901661948
 20
240.7169703805713
 30
0.0
 11
337.17063901661948
 21
240.7169703805713
 31
0.0
  0
LINE
  5
E0E
  8
0
 62
     0
 10
336.53563901661948
 20
240.7169703805713
 30
0.0
 11
336.53563901661948
 21
240.7169703805713
 31
0.0
  0
LINE
  5
E0F
  8
0
 62
     0
 10
335.90063901661949
 20
240.7169703805713
 30
0.0
 11
335.90063901661949
 21
240.7169703805713
 31
0.0
  0
LINE
  5
E10
  8
0
 62
     0
 10
335.2656390166195
 20
240.7169703805713
 30
0.0
 11
335.2656390166195
 21
240.7169703805713
 31
0.0
  0
LINE
  5
E11
  8
0
 62
     0
 10
334.63063901661951
 20
240.7169703805713
 30
0.0
 11
334.63063901661951
 21
240.7169703805713
 31
0.0
  0
LINE
  5
E12
  8
0
 62
     0
 10
333.99563901661952
 20
240.7169703805713
 30
0.0
 11
333.99563901661952
 21
240.7169703805713
 31
0.0
  0
LINE
  5
E13
  8
0
 62
     0
 10
333.36063901661947
 20
240.7169703805713
 30
0.0
 11
333.36063901661947
 21
240.7169703805713
 31
0.0
  0
LINE
  5
E14
  8
0
 62
     0
 10
332.7256390166196
 20
240.7169703805713
 30
0.0
 11
332.7256390166196
 21
240.7169703805713
 31
0.0
  0
LINE
  5
E15
  8
0
 62
     0
 10
332.0906390166196
 20
240.7169703805713
 30
0.0
 11
332.0906390166196
 21
240.7169703805713
 31
0.0
  0
LINE
  5
E16
  8
0
 62
     0
 10
331.45563901661961
 20
240.7169703805713
 30
0.0
 11
331.45563901661961
 21
240.7169703805713
 31
0.0
  0
LINE
  5
E17
  8
0
 62
     0
 10
330.82063901661951
 20
240.7169703805713
 30
0.0
 11
330.82063901661951
 21
240.7169703805713
 31
0.0
  0
LINE
  5
E18
  8
0
 62
     0
 10
330.18563901661958
 20
240.7169703805713
 30
0.0
 11
330.18563901661958
 21
240.7169703805713
 31
0.0
  0
LINE
  5
E19
  8
0
 62
     0
 10
329.55063901661958
 20
240.7169703805713
 30
0.0
 11
329.55063901661958
 21
240.7169703805713
 31
0.0
  0
LINE
  5
E1A
  8
0
 62
     0
 10
328.91563901661959
 20
240.7169703805713
 30
0.0
 11
328.91563901661959
 21
240.7169703805713
 31
0.0
  0
LINE
  5
E1B
  8
0
 62
     0
 10
328.2806390166196
 20
240.7169703805713
 30
0.0
 11
328.2806390166196
 21
240.7169703805713
 31
0.0
  0
LINE
  5
E1C
  8
0
 62
     0
 10
327.64563901661961
 20
240.7169703805713
 30
0.0
 11
327.64563901661961
 21
240.7169703805713
 31
0.0
  0
LINE
  5
E1D
  8
0
 62
     0
 10
327.01063901661962
 20
240.7169703805713
 30
0.0
 11
327.01063901661962
 21
240.7169703805713
 31
0.0
  0
LINE
  5
E1E
  8
0
 62
     0
 10
326.37563901661969
 20
240.7169703805713
 30
0.0
 11
326.37563901661969
 21
240.7169703805713
 31
0.0
  0
LINE
  5
E1F
  8
0
 62
     0
 10
325.74063901661958
 20
240.7169703805713
 30
0.0
 11
325.74063901661958
 21
240.7169703805713
 31
0.0
  0
LINE
  5
E20
  8
0
 62
     0
 10
325.10563901661959
 20
240.7169703805713
 30
0.0
 11
325.10563901661959
 21
240.7169703805713
 31
0.0
  0
LINE
  5
E21
  8
0
 62
     0
 10
324.4706390166196
 20
240.7169703805713
 30
0.0
 11
324.4706390166196
 21
240.7169703805713
 31
0.0
  0
LINE
  5
E22
  8
0
 62
     0
 10
323.83563901661972
 20
240.7169703805713
 30
0.0
 11
323.83563901661972
 21
240.7169703805713
 31
0.0
  0
LINE
  5
E23
  8
0
 62
     0
 10
323.20063901661968
 20
240.7169703805713
 30
0.0
 11
323.20063901661968
 21
240.7169703805713
 31
0.0
  0
LINE
  5
E24
  8
0
 62
     0
 10
322.56563901661968
 20
240.7169703805713
 30
0.0
 11
322.56563901661968
 21
240.7169703805713
 31
0.0
  0
LINE
  5
E25
  8
0
 62
     0
 10
321.93063901661969
 20
240.7169703805713
 30
0.0
 11
321.93063901661969
 21
240.7169703805713
 31
0.0
  0
LINE
  5
E26
  8
0
 62
     0
 10
321.2956390166197
 20
240.7169703805713
 30
0.0
 11
321.2956390166197
 21
240.7169703805713
 31
0.0
  0
LINE
  5
E27
  8
0
 62
     0
 10
311.13563901661939
 20
240.7169703805713
 30
0.0
 11
311.13563901661939
 21
240.7169703805713
 31
0.0
  0
LINE
  5
E28
  8
0
 62
     0
 10
310.5006390166194
 20
240.7169703805713
 30
0.0
 11
310.5006390166194
 21
240.7169703805713
 31
0.0
  0
LINE
  5
E29
  8
0
 62
     0
 10
309.86563901661941
 20
240.7169703805713
 30
0.0
 11
309.86563901661941
 21
240.7169703805713
 31
0.0
  0
LINE
  5
E2A
  8
0
 62
     0
 10
309.23063901661942
 20
240.7169703805713
 30
0.0
 11
309.23063901661942
 21
240.7169703805713
 31
0.0
  0
LINE
  5
E2B
  8
0
 62
     0
 10
308.59563901661937
 20
240.7169703805713
 30
0.0
 11
308.59563901661937
 21
240.7169703805713
 31
0.0
  0
LINE
  5
E2C
  8
0
 62
     0
 10
307.96063901661938
 20
240.7169703805713
 30
0.0
 11
307.96063901661938
 21
240.7169703805713
 31
0.0
  0
LINE
  5
E2D
  8
0
 62
     0
 10
307.3256390166195
 20
240.7169703805713
 30
0.0
 11
307.3256390166195
 21
240.7169703805713
 31
0.0
  0
LINE
  5
E2E
  8
0
 62
     0
 10
306.69063901661951
 20
240.7169703805713
 30
0.0
 11
306.69063901661951
 21
240.7169703805713
 31
0.0
  0
LINE
  5
E2F
  8
0
 62
     0
 10
306.05563901661941
 20
240.7169703805713
 30
0.0
 11
306.05563901661941
 21
240.7169703805713
 31
0.0
  0
LINE
  5
E30
  8
0
 62
     0
 10
305.42063901661948
 20
240.7169703805713
 30
0.0
 11
305.42063901661948
 21
240.7169703805713
 31
0.0
  0
LINE
  5
E31
  8
0
 62
     0
 10
304.78563901661948
 20
240.7169703805713
 30
0.0
 11
304.78563901661948
 21
240.7169703805713
 31
0.0
  0
LINE
  5
E32
  8
0
 62
     0
 10
304.15063901661949
 20
240.7169703805713
 30
0.0
 11
304.15063901661949
 21
240.7169703805713
 31
0.0
  0
LINE
  5
E33
  8
0
 62
     0
 10
303.5156390166195
 20
240.7169703805713
 30
0.0
 11
303.5156390166195
 21
240.7169703805713
 31
0.0
  0
LINE
  5
E34
  8
0
 62
     0
 10
302.88063901661951
 20
240.7169703805713
 30
0.0
 11
302.88063901661951
 21
240.7169703805713
 31
0.0
  0
LINE
  5
E35
  8
0
 62
     0
 10
302.24563901661952
 20
240.7169703805713
 30
0.0
 11
302.24563901661952
 21
240.7169703805713
 31
0.0
  0
LINE
  5
E36
  8
0
 62
     0
 10
301.61063901661947
 20
240.7169703805713
 30
0.0
 11
301.61063901661947
 21
240.7169703805713
 31
0.0
  0
LINE
  5
E37
  8
0
 62
     0
 10
300.9756390166196
 20
240.7169703805713
 30
0.0
 11
300.9756390166196
 21
240.7169703805713
 31
0.0
  0
LINE
  5
E38
  8
0
 62
     0
 10
300.34063901661949
 20
240.7169703805713
 30
0.0
 11
300.34063901661949
 21
240.7169703805713
 31
0.0
  0
LINE
  5
E39
  8
0
 62
     0
 10
299.7056390166195
 20
240.7169703805713
 30
0.0
 11
299.7056390166195
 21
240.7169703805713
 31
0.0
  0
LINE
  5
E3A
  8
0
 62
     0
 10
299.07063901661962
 20
240.7169703805713
 30
0.0
 11
299.07063901661962
 21
240.7169703805713
 31
0.0
  0
LINE
  5
E3B
  8
0
 62
     0
 10
298.43563901661958
 20
240.7169703805713
 30
0.0
 11
298.43563901661958
 21
240.7169703805713
 31
0.0
  0
LINE
  5
E3C
  8
0
 62
     0
 10
297.80063901661958
 20
240.7169703805713
 30
0.0
 11
297.80063901661958
 21
240.7169703805713
 31
0.0
  0
LINE
  5
E3D
  8
0
 62
     0
 10
297.16563901661959
 20
240.7169703805713
 30
0.0
 11
297.16563901661959
 21
240.7169703805713
 31
0.0
  0
LINE
  5
E3E
  8
0
 62
     0
 10
296.5306390166196
 20
240.7169703805713
 30
0.0
 11
296.5306390166196
 21
240.7169703805713
 31
0.0
  0
LINE
  5
E3F
  8
0
 62
     0
 10
295.89563901661961
 20
240.7169703805713
 30
0.0
 11
295.89563901661961
 21
240.7169703805713
 31
0.0
  0
LINE
  5
E40
  8
0
 62
     0
 10
295.26063901661962
 20
240.7169703805713
 30
0.0
 11
295.26063901661962
 21
240.7169703805713
 31
0.0
  0
LINE
  5
E41
  8
0
 62
     0
 10
294.62563901661957
 20
240.7169703805713
 30
0.0
 11
294.62563901661957
 21
240.7169703805713
 31
0.0
  0
LINE
  5
E42
  8
0
 62
     0
 10
293.99063901661958
 20
240.7169703805713
 30
0.0
 11
293.99063901661958
 21
240.7169703805713
 31
0.0
  0
LINE
  5
E43
  8
0
 62
     0
 10
293.3556390166197
 20
240.7169703805713
 30
0.0
 11
293.3556390166197
 21
240.7169703805713
 31
0.0
  0
LINE
  5
E44
  8
0
 62
     0
 10
292.72063901661971
 20
240.7169703805713
 30
0.0
 11
292.72063901661971
 21
240.7169703805713
 31
0.0
  0
LINE
  5
E45
  8
0
 62
     0
 10
292.08563901661972
 20
240.7169703805713
 30
0.0
 11
292.08563901661972
 21
240.7169703805713
 31
0.0
  0
LINE
  5
E46
  8
0
 62
     0
 10
291.45063901661968
 20
240.7169703805713
 30
0.0
 11
291.45063901661968
 21
240.7169703805713
 31
0.0
  0
LINE
  5
E47
  8
0
 62
     0
 10
340.66313901661948
 20
241.3519703805714
 30
0.0
 11
340.66313901661948
 21
241.3519703805714
 31
0.0
  0
LINE
  5
E48
  8
0
 62
     0
 10
340.02813901661949
 20
241.3519703805714
 30
0.0
 11
340.02813901661949
 21
241.3519703805714
 31
0.0
  0
LINE
  5
E49
  8
0
 62
     0
 10
339.39313901661961
 20
241.3519703805714
 30
0.0
 11
339.39313901661961
 21
241.3519703805714
 31
0.0
  0
LINE
  5
E4A
  8
0
 62
     0
 10
338.75813901661962
 20
241.3519703805714
 30
0.0
 11
338.75813901661962
 21
241.3519703805714
 31
0.0
  0
LINE
  5
E4B
  8
0
 62
     0
 10
338.12313901661958
 20
241.3519703805714
 30
0.0
 11
338.12313901661958
 21
241.3519703805714
 31
0.0
  0
LINE
  5
E4C
  8
0
 62
     0
 10
337.48813901661958
 20
241.3519703805714
 30
0.0
 11
337.48813901661958
 21
241.3519703805714
 31
0.0
  0
LINE
  5
E4D
  8
0
 62
     0
 10
336.85313901661959
 20
241.3519703805714
 30
0.0
 11
336.85313901661959
 21
241.3519703805714
 31
0.0
  0
LINE
  5
E4E
  8
0
 62
     0
 10
336.2181390166196
 20
241.3519703805714
 30
0.0
 11
336.2181390166196
 21
241.3519703805714
 31
0.0
  0
LINE
  5
E4F
  8
0
 62
     0
 10
335.58313901661961
 20
241.3519703805714
 30
0.0
 11
335.58313901661961
 21
241.3519703805714
 31
0.0
  0
LINE
  5
E50
  8
0
 62
     0
 10
334.94813901661962
 20
241.3519703805714
 30
0.0
 11
334.94813901661962
 21
241.3519703805714
 31
0.0
  0
LINE
  5
E51
  8
0
 62
     0
 10
334.31313901661957
 20
241.3519703805714
 30
0.0
 11
334.31313901661957
 21
241.3519703805714
 31
0.0
  0
LINE
  5
E52
  8
0
 62
     0
 10
333.67813901661958
 20
241.3519703805714
 30
0.0
 11
333.67813901661958
 21
241.3519703805714
 31
0.0
  0
LINE
  5
E53
  8
0
 62
     0
 10
333.0431390166197
 20
241.3519703805714
 30
0.0
 11
333.0431390166197
 21
241.3519703805714
 31
0.0
  0
LINE
  5
E54
  8
0
 62
     0
 10
332.40813901661971
 20
241.3519703805714
 30
0.0
 11
332.40813901661971
 21
241.3519703805714
 31
0.0
  0
LINE
  5
E55
  8
0
 62
     0
 10
331.77313901661972
 20
241.3519703805714
 30
0.0
 11
331.77313901661972
 21
241.3519703805714
 31
0.0
  0
LINE
  5
E56
  8
0
 62
     0
 10
300.65813901661949
 20
241.3519703805714
 30
0.0
 11
300.65813901661949
 21
241.3519703805714
 31
0.0
  0
LINE
  5
E57
  8
0
 62
     0
 10
300.02313901661961
 20
241.3519703805714
 30
0.0
 11
300.02313901661961
 21
241.3519703805714
 31
0.0
  0
LINE
  5
E58
  8
0
 62
     0
 10
299.38813901661962
 20
241.3519703805714
 30
0.0
 11
299.38813901661962
 21
241.3519703805714
 31
0.0
  0
LINE
  5
E59
  8
0
 62
     0
 10
298.75313901661963
 20
241.3519703805714
 30
0.0
 11
298.75313901661963
 21
241.3519703805714
 31
0.0
  0
LINE
  5
E5A
  8
0
 62
     0
 10
298.11813901661958
 20
241.3519703805714
 30
0.0
 11
298.11813901661958
 21
241.3519703805714
 31
0.0
  0
LINE
  5
E5B
  8
0
 62
     0
 10
297.48313901661959
 20
241.3519703805714
 30
0.0
 11
297.48313901661959
 21
241.3519703805714
 31
0.0
  0
LINE
  5
E5C
  8
0
 62
     0
 10
296.8481390166196
 20
241.3519703805714
 30
0.0
 11
296.8481390166196
 21
241.3519703805714
 31
0.0
  0
LINE
  5
E5D
  8
0
 62
     0
 10
296.21313901661961
 20
241.3519703805714
 30
0.0
 11
296.21313901661961
 21
241.3519703805714
 31
0.0
  0
LINE
  5
E5E
  8
0
 62
     0
 10
295.57813901661962
 20
241.3519703805714
 30
0.0
 11
295.57813901661962
 21
241.3519703805714
 31
0.0
  0
LINE
  5
E5F
  8
0
 62
     0
 10
294.94313901661963
 20
241.3519703805714
 30
0.0
 11
294.94313901661963
 21
241.3519703805714
 31
0.0
  0
LINE
  5
E60
  8
0
 62
     0
 10
294.30813901661969
 20
241.3519703805714
 30
0.0
 11
294.30813901661969
 21
241.3519703805714
 31
0.0
  0
LINE
  5
E61
  8
0
 62
     0
 10
293.6731390166197
 20
241.3519703805714
 30
0.0
 11
293.6731390166197
 21
241.3519703805714
 31
0.0
  0
LINE
  5
E62
  8
0
 62
     0
 10
293.0381390166196
 20
241.3519703805714
 30
0.0
 11
293.0381390166196
 21
241.3519703805714
 31
0.0
  0
LINE
  5
E63
  8
0
 62
     0
 10
292.40313901661972
 20
241.3519703805714
 30
0.0
 11
292.40313901661972
 21
241.3519703805714
 31
0.0
  0
LINE
  5
E64
  8
0
 62
     0
 10
291.76813901661973
 20
241.3519703805714
 30
0.0
 11
291.76813901661973
 21
241.3519703805714
 31
0.0
  0
LINE
  5
E65
  8
0
 62
     0
 10
340.98063901661948
 20
241.98697038057131
 30
0.0
 11
340.98063901661948
 21
241.98697038057131
 31
0.0
  0
LINE
  5
E66
  8
0
 62
     0
 10
340.3456390166196
 20
241.98697038057131
 30
0.0
 11
340.3456390166196
 21
241.98697038057131
 31
0.0
  0
LINE
  5
E67
  8
0
 62
     0
 10
339.71063901661961
 20
241.98697038057131
 30
0.0
 11
339.71063901661961
 21
241.98697038057131
 31
0.0
  0
LINE
  5
E68
  8
0
 62
     0
 10
339.07563901661962
 20
241.98697038057131
 30
0.0
 11
339.07563901661962
 21
241.98697038057131
 31
0.0
  0
LINE
  5
E69
  8
0
 62
     0
 10
338.44063901661963
 20
241.98697038057131
 30
0.0
 11
338.44063901661963
 21
241.98697038057131
 31
0.0
  0
LINE
  5
E6A
  8
0
 62
     0
 10
337.80563901661958
 20
241.98697038057131
 30
0.0
 11
337.80563901661958
 21
241.98697038057131
 31
0.0
  0
LINE
  5
E6B
  8
0
 62
     0
 10
337.17063901661959
 20
241.98697038057131
 30
0.0
 11
337.17063901661959
 21
241.98697038057131
 31
0.0
  0
LINE
  5
E6C
  8
0
 62
     0
 10
336.5356390166196
 20
241.98697038057131
 30
0.0
 11
336.5356390166196
 21
241.98697038057131
 31
0.0
  0
LINE
  5
E6D
  8
0
 62
     0
 10
335.90063901661961
 20
241.98697038057131
 30
0.0
 11
335.90063901661961
 21
241.98697038057131
 31
0.0
  0
LINE
  5
E6E
  8
0
 62
     0
 10
335.26563901661962
 20
241.98697038057131
 30
0.0
 11
335.26563901661962
 21
241.98697038057131
 31
0.0
  0
LINE
  5
E6F
  8
0
 62
     0
 10
334.63063901661963
 20
241.98697038057131
 30
0.0
 11
334.63063901661963
 21
241.98697038057131
 31
0.0
  0
LINE
  5
E70
  8
0
 62
     0
 10
333.99563901661969
 20
241.98697038057131
 30
0.0
 11
333.99563901661969
 21
241.98697038057131
 31
0.0
  0
LINE
  5
E71
  8
0
 62
     0
 10
333.36063901661959
 20
241.98697038057131
 30
0.0
 11
333.36063901661959
 21
241.98697038057131
 31
0.0
  0
LINE
  5
E72
  8
0
 62
     0
 10
332.7256390166196
 20
241.98697038057131
 30
0.0
 11
332.7256390166196
 21
241.98697038057131
 31
0.0
  0
LINE
  5
E73
  8
0
 62
     0
 10
332.09063901661972
 20
241.98697038057131
 30
0.0
 11
332.09063901661972
 21
241.98697038057131
 31
0.0
  0
LINE
  5
E74
  8
0
 62
     0
 10
300.34063901661949
 20
241.98697038057131
 30
0.0
 11
300.34063901661949
 21
241.98697038057131
 31
0.0
  0
LINE
  5
E75
  8
0
 62
     0
 10
299.7056390166195
 20
241.98697038057131
 30
0.0
 11
299.7056390166195
 21
241.98697038057131
 31
0.0
  0
LINE
  5
E76
  8
0
 62
     0
 10
299.07063901661962
 20
241.98697038057131
 30
0.0
 11
299.07063901661962
 21
241.98697038057131
 31
0.0
  0
LINE
  5
E77
  8
0
 62
     0
 10
298.43563901661958
 20
241.98697038057131
 30
0.0
 11
298.43563901661958
 21
241.98697038057131
 31
0.0
  0
LINE
  5
E78
  8
0
 62
     0
 10
297.80063901661958
 20
241.98697038057131
 30
0.0
 11
297.80063901661958
 21
241.98697038057131
 31
0.0
  0
LINE
  5
E79
  8
0
 62
     0
 10
297.16563901661959
 20
241.98697038057131
 30
0.0
 11
297.16563901661959
 21
241.98697038057131
 31
0.0
  0
LINE
  5
E7A
  8
0
 62
     0
 10
296.5306390166196
 20
241.98697038057131
 30
0.0
 11
296.5306390166196
 21
241.98697038057131
 31
0.0
  0
LINE
  5
E7B
  8
0
 62
     0
 10
295.89563901661961
 20
241.98697038057131
 30
0.0
 11
295.89563901661961
 21
241.98697038057131
 31
0.0
  0
LINE
  5
E7C
  8
0
 62
     0
 10
295.26063901661962
 20
241.98697038057131
 30
0.0
 11
295.26063901661962
 21
241.98697038057131
 31
0.0
  0
LINE
  5
E7D
  8
0
 62
     0
 10
294.62563901661957
 20
241.98697038057131
 30
0.0
 11
294.62563901661957
 21
241.98697038057131
 31
0.0
  0
LINE
  5
E7E
  8
0
 62
     0
 10
293.99063901661958
 20
241.98697038057131
 30
0.0
 11
293.99063901661958
 21
241.98697038057131
 31
0.0
  0
LINE
  5
E7F
  8
0
 62
     0
 10
293.3556390166197
 20
241.98697038057131
 30
0.0
 11
293.3556390166197
 21
241.98697038057131
 31
0.0
  0
LINE
  5
E80
  8
0
 62
     0
 10
292.72063901661971
 20
241.98697038057131
 30
0.0
 11
292.72063901661971
 21
241.98697038057131
 31
0.0
  0
LINE
  5
E81
  8
0
 62
     0
 10
292.08563901661972
 20
241.98697038057131
 30
0.0
 11
292.08563901661972
 21
241.98697038057131
 31
0.0
  0
LINE
  5
E82
  8
0
 62
     0
 10
291.45063901661968
 20
241.98697038057131
 30
0.0
 11
291.45063901661968
 21
241.98697038057131
 31
0.0
  0
LINE
  5
E83
  8
0
 62
     0
 10
340.66313901661948
 20
242.6219703805713
 30
0.0
 11
340.66313901661948
 21
242.6219703805713
 31
0.0
  0
LINE
  5
E84
  8
0
 62
     0
 10
340.02813901661949
 20
242.6219703805713
 30
0.0
 11
340.02813901661949
 21
242.6219703805713
 31
0.0
  0
LINE
  5
E85
  8
0
 62
     0
 10
339.39313901661961
 20
242.6219703805713
 30
0.0
 11
339.39313901661961
 21
242.6219703805713
 31
0.0
  0
LINE
  5
E86
  8
0
 62
     0
 10
338.75813901661962
 20
242.6219703805713
 30
0.0
 11
338.75813901661962
 21
242.6219703805713
 31
0.0
  0
LINE
  5
E87
  8
0
 62
     0
 10
338.12313901661958
 20
242.6219703805713
 30
0.0
 11
338.12313901661958
 21
242.6219703805713
 31
0.0
  0
LINE
  5
E88
  8
0
 62
     0
 10
337.48813901661958
 20
242.6219703805713
 30
0.0
 11
337.48813901661958
 21
242.6219703805713
 31
0.0
  0
LINE
  5
E89
  8
0
 62
     0
 10
336.85313901661959
 20
242.6219703805713
 30
0.0
 11
336.85313901661959
 21
242.6219703805713
 31
0.0
  0
LINE
  5
E8A
  8
0
 62
     0
 10
336.2181390166196
 20
242.6219703805713
 30
0.0
 11
336.2181390166196
 21
242.6219703805713
 31
0.0
  0
LINE
  5
E8B
  8
0
 62
     0
 10
335.58313901661961
 20
242.6219703805713
 30
0.0
 11
335.58313901661961
 21
242.6219703805713
 31
0.0
  0
LINE
  5
E8C
  8
0
 62
     0
 10
334.94813901661962
 20
242.6219703805713
 30
0.0
 11
334.94813901661962
 21
242.6219703805713
 31
0.0
  0
LINE
  5
E8D
  8
0
 62
     0
 10
334.31313901661957
 20
242.6219703805713
 30
0.0
 11
334.31313901661957
 21
242.6219703805713
 31
0.0
  0
LINE
  5
E8E
  8
0
 62
     0
 10
333.67813901661958
 20
242.6219703805713
 30
0.0
 11
333.67813901661958
 21
242.6219703805713
 31
0.0
  0
LINE
  5
E8F
  8
0
 62
     0
 10
333.0431390166197
 20
242.6219703805713
 30
0.0
 11
333.0431390166197
 21
242.6219703805713
 31
0.0
  0
LINE
  5
E90
  8
0
 62
     0
 10
332.40813901661971
 20
242.6219703805713
 30
0.0
 11
332.40813901661971
 21
242.6219703805713
 31
0.0
  0
LINE
  5
E91
  8
0
 62
     0
 10
331.77313901661972
 20
242.6219703805713
 30
0.0
 11
331.77313901661972
 21
242.6219703805713
 31
0.0
  0
LINE
  5
E92
  8
0
 62
     0
 10
300.65813901661949
 20
242.6219703805713
 30
0.0
 11
300.65813901661949
 21
242.6219703805713
 31
0.0
  0
LINE
  5
E93
  8
0
 62
     0
 10
300.02313901661961
 20
242.6219703805713
 30
0.0
 11
300.02313901661961
 21
242.6219703805713
 31
0.0
  0
LINE
  5
E94
  8
0
 62
     0
 10
299.38813901661962
 20
242.6219703805713
 30
0.0
 11
299.38813901661962
 21
242.6219703805713
 31
0.0
  0
LINE
  5
E95
  8
0
 62
     0
 10
298.75313901661963
 20
242.6219703805713
 30
0.0
 11
298.75313901661963
 21
242.6219703805713
 31
0.0
  0
LINE
  5
E96
  8
0
 62
     0
 10
298.11813901661958
 20
242.6219703805713
 30
0.0
 11
298.11813901661958
 21
242.6219703805713
 31
0.0
  0
LINE
  5
E97
  8
0
 62
     0
 10
297.48313901661959
 20
242.6219703805713
 30
0.0
 11
297.48313901661959
 21
242.6219703805713
 31
0.0
  0
LINE
  5
E98
  8
0
 62
     0
 10
296.8481390166196
 20
242.6219703805713
 30
0.0
 11
296.8481390166196
 21
242.6219703805713
 31
0.0
  0
LINE
  5
E99
  8
0
 62
     0
 10
296.21313901661961
 20
242.6219703805713
 30
0.0
 11
296.21313901661961
 21
242.6219703805713
 31
0.0
  0
LINE
  5
E9A
  8
0
 62
     0
 10
295.57813901661962
 20
242.6219703805713
 30
0.0
 11
295.57813901661962
 21
242.6219703805713
 31
0.0
  0
LINE
  5
E9B
  8
0
 62
     0
 10
294.94313901661963
 20
242.6219703805713
 30
0.0
 11
294.94313901661963
 21
242.6219703805713
 31
0.0
  0
LINE
  5
E9C
  8
0
 62
     0
 10
294.30813901661969
 20
242.6219703805713
 30
0.0
 11
294.30813901661969
 21
242.6219703805713
 31
0.0
  0
LINE
  5
E9D
  8
0
 62
     0
 10
293.6731390166197
 20
242.6219703805713
 30
0.0
 11
293.6731390166197
 21
242.6219703805713
 31
0.0
  0
LINE
  5
E9E
  8
0
 62
     0
 10
293.0381390166196
 20
242.6219703805713
 30
0.0
 11
293.0381390166196
 21
242.6219703805713
 31
0.0
  0
LINE
  5
E9F
  8
0
 62
     0
 10
292.40313901661972
 20
242.6219703805713
 30
0.0
 11
292.40313901661972
 21
242.6219703805713
 31
0.0
  0
LINE
  5
EA0
  8
0
 62
     0
 10
291.76813901661973
 20
242.6219703805713
 30
0.0
 11
291.76813901661973
 21
242.6219703805713
 31
0.0
  0
LINE
  5
EA1
  8
0
 62
     0
 10
340.98063901661959
 20
247.06697038057141
 30
0.0
 11
340.98063901661959
 21
247.06697038057141
 31
0.0
  0
LINE
  5
EA2
  8
0
 62
     0
 10
340.3456390166196
 20
247.06697038057141
 30
0.0
 11
340.3456390166196
 21
247.06697038057141
 31
0.0
  0
LINE
  5
EA3
  8
0
 62
     0
 10
339.71063901661961
 20
247.06697038057141
 30
0.0
 11
339.71063901661961
 21
247.06697038057141
 31
0.0
  0
LINE
  5
EA4
  8
0
 62
     0
 10
339.07563901661962
 20
247.06697038057141
 30
0.0
 11
339.07563901661962
 21
247.06697038057141
 31
0.0
  0
LINE
  5
EA5
  8
0
 62
     0
 10
338.44063901661963
 20
247.06697038057141
 30
0.0
 11
338.44063901661963
 21
247.06697038057141
 31
0.0
  0
LINE
  5
EA6
  8
0
 62
     0
 10
337.80563901661969
 20
247.06697038057141
 30
0.0
 11
337.80563901661969
 21
247.06697038057141
 31
0.0
  0
LINE
  5
EA7
  8
0
 62
     0
 10
337.17063901661959
 20
247.06697038057141
 30
0.0
 11
337.17063901661959
 21
247.06697038057141
 31
0.0
  0
LINE
  5
EA8
  8
0
 62
     0
 10
336.5356390166196
 20
247.06697038057141
 30
0.0
 11
336.5356390166196
 21
247.06697038057141
 31
0.0
  0
LINE
  5
EA9
  8
0
 62
     0
 10
335.90063901661972
 20
247.06697038057141
 30
0.0
 11
335.90063901661972
 21
247.06697038057141
 31
0.0
  0
LINE
  5
EAA
  8
0
 62
     0
 10
335.26563901661967
 20
247.06697038057141
 30
0.0
 11
335.26563901661967
 21
247.06697038057141
 31
0.0
  0
LINE
  5
EAB
  8
0
 62
     0
 10
334.63063901661968
 20
247.06697038057141
 30
0.0
 11
334.63063901661968
 21
247.06697038057141
 31
0.0
  0
LINE
  5
EAC
  8
0
 62
     0
 10
333.99563901661969
 20
247.06697038057141
 30
0.0
 11
333.99563901661969
 21
247.06697038057141
 31
0.0
  0
LINE
  5
EAD
  8
0
 62
     0
 10
333.3606390166197
 20
247.06697038057141
 30
0.0
 11
333.3606390166197
 21
247.06697038057141
 31
0.0
  0
LINE
  5
EAE
  8
0
 62
     0
 10
332.72563901661971
 20
247.06697038057141
 30
0.0
 11
332.72563901661971
 21
247.06697038057141
 31
0.0
  0
LINE
  5
EAF
  8
0
 62
     0
 10
332.09063901661972
 20
247.06697038057141
 30
0.0
 11
332.09063901661972
 21
247.06697038057141
 31
0.0
  0
LINE
  5
EB0
  8
0
 62
     0
 10
300.34063901661949
 20
247.06697038057141
 30
0.0
 11
300.34063901661949
 21
247.06697038057141
 31
0.0
  0
LINE
  5
EB1
  8
0
 62
     0
 10
299.7056390166195
 20
247.06697038057141
 30
0.0
 11
299.7056390166195
 21
247.06697038057141
 31
0.0
  0
LINE
  5
EB2
  8
0
 62
     0
 10
299.07063901661962
 20
247.06697038057141
 30
0.0
 11
299.07063901661962
 21
247.06697038057141
 31
0.0
  0
LINE
  5
EB3
  8
0
 62
     0
 10
298.43563901661958
 20
247.06697038057141
 30
0.0
 11
298.43563901661958
 21
247.06697038057141
 31
0.0
  0
LINE
  5
EB4
  8
0
 62
     0
 10
297.80063901661958
 20
247.06697038057141
 30
0.0
 11
297.80063901661958
 21
247.06697038057141
 31
0.0
  0
LINE
  5
EB5
  8
0
 62
     0
 10
297.16563901661959
 20
247.06697038057141
 30
0.0
 11
297.16563901661959
 21
247.06697038057141
 31
0.0
  0
LINE
  5
EB6
  8
0
 62
     0
 10
296.5306390166196
 20
247.06697038057141
 30
0.0
 11
296.5306390166196
 21
247.06697038057141
 31
0.0
  0
LINE
  5
EB7
  8
0
 62
     0
 10
295.89563901661961
 20
247.06697038057141
 30
0.0
 11
295.89563901661961
 21
247.06697038057141
 31
0.0
  0
LINE
  5
EB8
  8
0
 62
     0
 10
295.26063901661962
 20
247.06697038057141
 30
0.0
 11
295.26063901661962
 21
247.06697038057141
 31
0.0
  0
LINE
  5
EB9
  8
0
 62
     0
 10
294.62563901661957
 20
247.06697038057141
 30
0.0
 11
294.62563901661957
 21
247.06697038057141
 31
0.0
  0
LINE
  5
EBA
  8
0
 62
     0
 10
293.99063901661958
 20
247.06697038057141
 30
0.0
 11
293.99063901661958
 21
247.06697038057141
 31
0.0
  0
LINE
  5
EBB
  8
0
 62
     0
 10
293.3556390166197
 20
247.06697038057141
 30
0.0
 11
293.3556390166197
 21
247.06697038057141
 31
0.0
  0
LINE
  5
EBC
  8
0
 62
     0
 10
292.72063901661971
 20
247.06697038057141
 30
0.0
 11
292.72063901661971
 21
247.06697038057141
 31
0.0
  0
LINE
  5
EBD
  8
0
 62
     0
 10
292.08563901661972
 20
247.06697038057141
 30
0.0
 11
292.08563901661972
 21
247.06697038057141
 31
0.0
  0
LINE
  5
EBE
  8
0
 62
     0
 10
291.45063901661968
 20
247.06697038057141
 30
0.0
 11
291.45063901661968
 21
247.06697038057141
 31
0.0
  0
LINE
  5
EBF
  8
0
 62
     0
 10
340.66313901661948
 20
247.7019703805714
 30
0.0
 11
340.66313901661948
 21
247.7019703805714
 31
0.0
  0
LINE
  5
EC0
  8
0
 62
     0
 10
340.02813901661949
 20
247.7019703805714
 30
0.0
 11
340.02813901661949
 21
247.7019703805714
 31
0.0
  0
LINE
  5
EC1
  8
0
 62
     0
 10
339.39313901661961
 20
247.7019703805714
 30
0.0
 11
339.39313901661961
 21
247.7019703805714
 31
0.0
  0
LINE
  5
EC2
  8
0
 62
     0
 10
338.75813901661962
 20
247.7019703805714
 30
0.0
 11
338.75813901661962
 21
247.7019703805714
 31
0.0
  0
LINE
  5
EC3
  8
0
 62
     0
 10
338.12313901661958
 20
247.7019703805714
 30
0.0
 11
338.12313901661958
 21
247.7019703805714
 31
0.0
  0
LINE
  5
EC4
  8
0
 62
     0
 10
337.48813901661958
 20
247.7019703805714
 30
0.0
 11
337.48813901661958
 21
247.7019703805714
 31
0.0
  0
LINE
  5
EC5
  8
0
 62
     0
 10
336.85313901661959
 20
247.7019703805714
 30
0.0
 11
336.85313901661959
 21
247.7019703805714
 31
0.0
  0
LINE
  5
EC6
  8
0
 62
     0
 10
336.2181390166196
 20
247.7019703805714
 30
0.0
 11
336.2181390166196
 21
247.7019703805714
 31
0.0
  0
LINE
  5
EC7
  8
0
 62
     0
 10
335.58313901661961
 20
247.7019703805714
 30
0.0
 11
335.58313901661961
 21
247.7019703805714
 31
0.0
  0
LINE
  5
EC8
  8
0
 62
     0
 10
334.94813901661962
 20
247.7019703805714
 30
0.0
 11
334.94813901661962
 21
247.7019703805714
 31
0.0
  0
LINE
  5
EC9
  8
0
 62
     0
 10
334.31313901661957
 20
247.7019703805714
 30
0.0
 11
334.31313901661957
 21
247.7019703805714
 31
0.0
  0
LINE
  5
ECA
  8
0
 62
     0
 10
333.67813901661958
 20
247.7019703805714
 30
0.0
 11
333.67813901661958
 21
247.7019703805714
 31
0.0
  0
LINE
  5
ECB
  8
0
 62
     0
 10
333.0431390166197
 20
247.7019703805714
 30
0.0
 11
333.0431390166197
 21
247.7019703805714
 31
0.0
  0
LINE
  5
ECC
  8
0
 62
     0
 10
332.40813901661971
 20
247.7019703805714
 30
0.0
 11
332.40813901661971
 21
247.7019703805714
 31
0.0
  0
LINE
  5
ECD
  8
0
 62
     0
 10
331.77313901661972
 20
247.7019703805714
 30
0.0
 11
331.77313901661972
 21
247.7019703805714
 31
0.0
  0
LINE
  5
ECE
  8
0
 62
     0
 10
300.65813901661949
 20
247.7019703805714
 30
0.0
 11
300.65813901661949
 21
247.7019703805714
 31
0.0
  0
LINE
  5
ECF
  8
0
 62
     0
 10
300.02313901661961
 20
247.7019703805714
 30
0.0
 11
300.02313901661961
 21
247.7019703805714
 31
0.0
  0
LINE
  5
ED0
  8
0
 62
     0
 10
299.38813901661962
 20
247.7019703805714
 30
0.0
 11
299.38813901661962
 21
247.7019703805714
 31
0.0
  0
LINE
  5
ED1
  8
0
 62
     0
 10
298.75313901661963
 20
247.7019703805714
 30
0.0
 11
298.75313901661963
 21
247.7019703805714
 31
0.0
  0
LINE
  5
ED2
  8
0
 62
     0
 10
298.11813901661958
 20
247.7019703805714
 30
0.0
 11
298.11813901661958
 21
247.7019703805714
 31
0.0
  0
LINE
  5
ED3
  8
0
 62
     0
 10
297.48313901661959
 20
247.7019703805714
 30
0.0
 11
297.48313901661959
 21
247.7019703805714
 31
0.0
  0
LINE
  5
ED4
  8
0
 62
     0
 10
296.8481390166196
 20
247.7019703805714
 30
0.0
 11
296.8481390166196
 21
247.7019703805714
 31
0.0
  0
LINE
  5
ED5
  8
0
 62
     0
 10
296.21313901661961
 20
247.7019703805714
 30
0.0
 11
296.21313901661961
 21
247.7019703805714
 31
0.0
  0
LINE
  5
ED6
  8
0
 62
     0
 10
295.57813901661962
 20
247.7019703805714
 30
0.0
 11
295.57813901661962
 21
247.7019703805714
 31
0.0
  0
LINE
  5
ED7
  8
0
 62
     0
 10
294.94313901661963
 20
247.7019703805714
 30
0.0
 11
294.94313901661963
 21
247.7019703805714
 31
0.0
  0
LINE
  5
ED8
  8
0
 62
     0
 10
294.30813901661969
 20
247.7019703805714
 30
0.0
 11
294.30813901661969
 21
247.7019703805714
 31
0.0
  0
LINE
  5
ED9
  8
0
 62
     0
 10
293.6731390166197
 20
247.7019703805714
 30
0.0
 11
293.6731390166197
 21
247.7019703805714
 31
0.0
  0
LINE
  5
EDA
  8
0
 62
     0
 10
293.0381390166196
 20
247.7019703805714
 30
0.0
 11
293.0381390166196
 21
247.7019703805714
 31
0.0
  0
LINE
  5
EDB
  8
0
 62
     0
 10
292.40313901661972
 20
247.7019703805714
 30
0.0
 11
292.40313901661972
 21
247.7019703805714
 31
0.0
  0
LINE
  5
EDC
  8
0
 62
     0
 10
291.76813901661973
 20
247.7019703805714
 30
0.0
 11
291.76813901661973
 21
247.7019703805714
 31
0.0
  0
LINE
  5
EDD
  8
0
 62
     0
 10
340.98063901661948
 20
248.3369703805713
 30
0.0
 11
340.98063901661948
 21
248.3369703805713
 31
0.0
  0
LINE
  5
EDE
  8
0
 62
     0
 10
340.3456390166196
 20
248.3369703805713
 30
0.0
 11
340.3456390166196
 21
248.3369703805713
 31
0.0
  0
LINE
  5
EDF
  8
0
 62
     0
 10
339.71063901661961
 20
248.3369703805713
 30
0.0
 11
339.71063901661961
 21
248.3369703805713
 31
0.0
  0
LINE
  5
EE0
  8
0
 62
     0
 10
339.07563901661962
 20
248.3369703805713
 30
0.0
 11
339.07563901661962
 21
248.3369703805713
 31
0.0
  0
LINE
  5
EE1
  8
0
 62
     0
 10
338.44063901661963
 20
248.3369703805713
 30
0.0
 11
338.44063901661963
 21
248.3369703805713
 31
0.0
  0
LINE
  5
EE2
  8
0
 62
     0
 10
337.80563901661958
 20
248.3369703805713
 30
0.0
 11
337.80563901661958
 21
248.3369703805713
 31
0.0
  0
LINE
  5
EE3
  8
0
 62
     0
 10
337.17063901661959
 20
248.3369703805713
 30
0.0
 11
337.17063901661959
 21
248.3369703805713
 31
0.0
  0
LINE
  5
EE4
  8
0
 62
     0
 10
336.5356390166196
 20
248.3369703805713
 30
0.0
 11
336.5356390166196
 21
248.3369703805713
 31
0.0
  0
LINE
  5
EE5
  8
0
 62
     0
 10
335.90063901661961
 20
248.3369703805713
 30
0.0
 11
335.90063901661961
 21
248.3369703805713
 31
0.0
  0
LINE
  5
EE6
  8
0
 62
     0
 10
335.26563901661962
 20
248.3369703805713
 30
0.0
 11
335.26563901661962
 21
248.3369703805713
 31
0.0
  0
LINE
  5
EE7
  8
0
 62
     0
 10
334.63063901661963
 20
248.3369703805713
 30
0.0
 11
334.63063901661963
 21
248.3369703805713
 31
0.0
  0
LINE
  5
EE8
  8
0
 62
     0
 10
333.99563901661969
 20
248.3369703805713
 30
0.0
 11
333.99563901661969
 21
248.3369703805713
 31
0.0
  0
LINE
  5
EE9
  8
0
 62
     0
 10
333.36063901661959
 20
248.3369703805713
 30
0.0
 11
333.36063901661959
 21
248.3369703805713
 31
0.0
  0
LINE
  5
EEA
  8
0
 62
     0
 10
332.7256390166196
 20
248.3369703805713
 30
0.0
 11
332.7256390166196
 21
248.3369703805713
 31
0.0
  0
LINE
  5
EEB
  8
0
 62
     0
 10
332.09063901661972
 20
248.3369703805713
 30
0.0
 11
332.09063901661972
 21
248.3369703805713
 31
0.0
  0
LINE
  5
EEC
  8
0
 62
     0
 10
300.34063901661949
 20
248.3369703805713
 30
0.0
 11
300.34063901661949
 21
248.3369703805713
 31
0.0
  0
LINE
  5
EED
  8
0
 62
     0
 10
299.7056390166195
 20
248.3369703805713
 30
0.0
 11
299.7056390166195
 21
248.3369703805713
 31
0.0
  0
LINE
  5
EEE
  8
0
 62
     0
 10
299.07063901661962
 20
248.3369703805713
 30
0.0
 11
299.07063901661962
 21
248.3369703805713
 31
0.0
  0
LINE
  5
EEF
  8
0
 62
     0
 10
298.43563901661958
 20
248.3369703805713
 30
0.0
 11
298.43563901661958
 21
248.3369703805713
 31
0.0
  0
LINE
  5
EF0
  8
0
 62
     0
 10
297.80063901661958
 20
248.3369703805713
 30
0.0
 11
297.80063901661958
 21
248.3369703805713
 31
0.0
  0
LINE
  5
EF1
  8
0
 62
     0
 10
297.16563901661959
 20
248.3369703805713
 30
0.0
 11
297.16563901661959
 21
248.3369703805713
 31
0.0
  0
LINE
  5
EF2
  8
0
 62
     0
 10
296.5306390166196
 20
248.3369703805713
 30
0.0
 11
296.5306390166196
 21
248.3369703805713
 31
0.0
  0
LINE
  5
EF3
  8
0
 62
     0
 10
295.89563901661961
 20
248.3369703805713
 30
0.0
 11
295.89563901661961
 21
248.3369703805713
 31
0.0
  0
LINE
  5
EF4
  8
0
 62
     0
 10
295.26063901661962
 20
248.3369703805713
 30
0.0
 11
295.26063901661962
 21
248.3369703805713
 31
0.0
  0
LINE
  5
EF5
  8
0
 62
     0
 10
294.62563901661957
 20
248.3369703805713
 30
0.0
 11
294.62563901661957
 21
248.3369703805713
 31
0.0
  0
LINE
  5
EF6
  8
0
 62
     0
 10
293.99063901661958
 20
248.3369703805713
 30
0.0
 11
293.99063901661958
 21
248.3369703805713
 31
0.0
  0
LINE
  5
EF7
  8
0
 62
     0
 10
293.3556390166197
 20
248.3369703805713
 30
0.0
 11
293.3556390166197
 21
248.3369703805713
 31
0.0
  0
LINE
  5
EF8
  8
0
 62
     0
 10
292.72063901661971
 20
248.3369703805713
 30
0.0
 11
292.72063901661971
 21
248.3369703805713
 31
0.0
  0
LINE
  5
EF9
  8
0
 62
     0
 10
292.08563901661972
 20
248.3369703805713
 30
0.0
 11
292.08563901661972
 21
248.3369703805713
 31
0.0
  0
LINE
  5
EFA
  8
0
 62
     0
 10
291.45063901661968
 20
248.3369703805713
 30
0.0
 11
291.45063901661968
 21
248.3369703805713
 31
0.0
  0
LINE
  5
EFB
  8
0
 62
     0
 10
340.66313901661948
 20
248.97197038057141
 30
0.0
 11
340.66313901661948
 21
248.97197038057141
 31
0.0
  0
LINE
  5
EFC
  8
0
 62
     0
 10
340.02813901661949
 20
248.97197038057141
 30
0.0
 11
340.02813901661949
 21
248.97197038057141
 31
0.0
  0
LINE
  5
EFD
  8
0
 62
     0
 10
339.39313901661961
 20
248.97197038057141
 30
0.0
 11
339.39313901661961
 21
248.97197038057141
 31
0.0
  0
LINE
  5
EFE
  8
0
 62
     0
 10
338.75813901661962
 20
248.97197038057141
 30
0.0
 11
338.75813901661962
 21
248.97197038057141
 31
0.0
  0
LINE
  5
EFF
  8
0
 62
     0
 10
338.12313901661958
 20
248.97197038057141
 30
0.0
 11
338.12313901661958
 21
248.97197038057141
 31
0.0
  0
LINE
  5
F00
  8
0
 62
     0
 10
337.48813901661958
 20
248.97197038057141
 30
0.0
 11
337.48813901661958
 21
248.97197038057141
 31
0.0
  0
LINE
  5
F01
  8
0
 62
     0
 10
336.85313901661959
 20
248.97197038057141
 30
0.0
 11
336.85313901661959
 21
248.97197038057141
 31
0.0
  0
LINE
  5
F02
  8
0
 62
     0
 10
336.2181390166196
 20
248.97197038057141
 30
0.0
 11
336.2181390166196
 21
248.97197038057141
 31
0.0
  0
LINE
  5
F03
  8
0
 62
     0
 10
335.58313901661961
 20
248.97197038057141
 30
0.0
 11
335.58313901661961
 21
248.97197038057141
 31
0.0
  0
LINE
  5
F04
  8
0
 62
     0
 10
334.94813901661962
 20
248.97197038057141
 30
0.0
 11
334.94813901661962
 21
248.97197038057141
 31
0.0
  0
LINE
  5
F05
  8
0
 62
     0
 10
334.31313901661957
 20
248.97197038057141
 30
0.0
 11
334.31313901661957
 21
248.97197038057141
 31
0.0
  0
LINE
  5
F06
  8
0
 62
     0
 10
333.67813901661958
 20
248.97197038057141
 30
0.0
 11
333.67813901661958
 21
248.97197038057141
 31
0.0
  0
LINE
  5
F07
  8
0
 62
     0
 10
333.0431390166197
 20
248.97197038057141
 30
0.0
 11
333.0431390166197
 21
248.97197038057141
 31
0.0
  0
LINE
  5
F08
  8
0
 62
     0
 10
332.40813901661971
 20
248.97197038057141
 30
0.0
 11
332.40813901661971
 21
248.97197038057141
 31
0.0
  0
LINE
  5
F09
  8
0
 62
     0
 10
331.77313901661972
 20
248.97197038057141
 30
0.0
 11
331.77313901661972
 21
248.97197038057141
 31
0.0
  0
LINE
  5
F0A
  8
0
 62
     0
 10
300.65813901661949
 20
248.97197038057141
 30
0.0
 11
300.65813901661949
 21
248.97197038057141
 31
0.0
  0
LINE
  5
F0B
  8
0
 62
     0
 10
300.02313901661961
 20
248.97197038057141
 30
0.0
 11
300.02313901661961
 21
248.97197038057141
 31
0.0
  0
LINE
  5
F0C
  8
0
 62
     0
 10
299.38813901661962
 20
248.97197038057141
 30
0.0
 11
299.38813901661962
 21
248.97197038057141
 31
0.0
  0
LINE
  5
F0D
  8
0
 62
     0
 10
298.75313901661963
 20
248.97197038057141
 30
0.0
 11
298.75313901661963
 21
248.97197038057141
 31
0.0
  0
LINE
  5
F0E
  8
0
 62
     0
 10
298.11813901661958
 20
248.97197038057141
 30
0.0
 11
298.11813901661958
 21
248.97197038057141
 31
0.0
  0
LINE
  5
F0F
  8
0
 62
     0
 10
297.48313901661959
 20
248.97197038057141
 30
0.0
 11
297.48313901661959
 21
248.97197038057141
 31
0.0
  0
LINE
  5
F10
  8
0
 62
     0
 10
296.8481390166196
 20
248.97197038057141
 30
0.0
 11
296.8481390166196
 21
248.97197038057141
 31
0.0
  0
LINE
  5
F11
  8
0
 62
     0
 10
296.21313901661961
 20
248.97197038057141
 30
0.0
 11
296.21313901661961
 21
248.97197038057141
 31
0.0
  0
LINE
  5
F12
  8
0
 62
     0
 10
295.57813901661962
 20
248.97197038057141
 30
0.0
 11
295.57813901661962
 21
248.97197038057141
 31
0.0
  0
LINE
  5
F13
  8
0
 62
     0
 10
294.94313901661963
 20
248.97197038057141
 30
0.0
 11
294.94313901661963
 21
248.97197038057141
 31
0.0
  0
LINE
  5
F14
  8
0
 62
     0
 10
294.30813901661969
 20
248.97197038057141
 30
0.0
 11
294.30813901661969
 21
248.97197038057141
 31
0.0
  0
LINE
  5
F15
  8
0
 62
     0
 10
293.6731390166197
 20
248.97197038057141
 30
0.0
 11
293.6731390166197
 21
248.97197038057141
 31
0.0
  0
LINE
  5
F16
  8
0
 62
     0
 10
293.0381390166196
 20
248.97197038057141
 30
0.0
 11
293.0381390166196
 21
248.97197038057141
 31
0.0
  0
LINE
  5
F17
  8
0
 62
     0
 10
292.40313901661972
 20
248.97197038057141
 30
0.0
 11
292.40313901661972
 21
248.97197038057141
 31
0.0
  0
LINE
  5
F18
  8
0
 62
     0
 10
291.76813901661973
 20
248.97197038057141
 30
0.0
 11
291.76813901661973
 21
248.97197038057141
 31
0.0
  0
LINE
  5
F19
  8
0
 62
     0
 10
340.98063901661942
 20
249.6069703805714
 30
0.0
 11
340.98063901661942
 21
249.6069703805714
 31
0.0
  0
LINE
  5
F1A
  8
0
 62
     0
 10
340.34563901661937
 20
249.6069703805714
 30
0.0
 11
340.34563901661937
 21
249.6069703805714
 31
0.0
  0
LINE
  5
F1B
  8
0
 62
     0
 10
339.71063901661938
 20
249.6069703805714
 30
0.0
 11
339.71063901661938
 21
249.6069703805714
 31
0.0
  0
LINE
  5
F1C
  8
0
 62
     0
 10
339.0756390166195
 20
249.6069703805714
 30
0.0
 11
339.0756390166195
 21
249.6069703805714
 31
0.0
  0
LINE
  5
F1D
  8
0
 62
     0
 10
338.44063901661951
 20
249.6069703805714
 30
0.0
 11
338.44063901661951
 21
249.6069703805714
 31
0.0
  0
LINE
  5
F1E
  8
0
 62
     0
 10
337.80563901661952
 20
249.6069703805714
 30
0.0
 11
337.80563901661952
 21
249.6069703805714
 31
0.0
  0
LINE
  5
F1F
  8
0
 62
     0
 10
337.17063901661948
 20
249.6069703805714
 30
0.0
 11
337.17063901661948
 21
249.6069703805714
 31
0.0
  0
LINE
  5
F20
  8
0
 62
     0
 10
336.53563901661948
 20
249.6069703805714
 30
0.0
 11
336.53563901661948
 21
249.6069703805714
 31
0.0
  0
LINE
  5
F21
  8
0
 62
     0
 10
335.90063901661949
 20
249.6069703805714
 30
0.0
 11
335.90063901661949
 21
249.6069703805714
 31
0.0
  0
LINE
  5
F22
  8
0
 62
     0
 10
335.2656390166195
 20
249.6069703805714
 30
0.0
 11
335.2656390166195
 21
249.6069703805714
 31
0.0
  0
LINE
  5
F23
  8
0
 62
     0
 10
334.63063901661951
 20
249.6069703805714
 30
0.0
 11
334.63063901661951
 21
249.6069703805714
 31
0.0
  0
LINE
  5
F24
  8
0
 62
     0
 10
333.99563901661952
 20
249.6069703805714
 30
0.0
 11
333.99563901661952
 21
249.6069703805714
 31
0.0
  0
LINE
  5
F25
  8
0
 62
     0
 10
333.36063901661947
 20
249.6069703805714
 30
0.0
 11
333.36063901661947
 21
249.6069703805714
 31
0.0
  0
LINE
  5
F26
  8
0
 62
     0
 10
332.7256390166196
 20
249.6069703805714
 30
0.0
 11
332.7256390166196
 21
249.6069703805714
 31
0.0
  0
LINE
  5
F27
  8
0
 62
     0
 10
332.0906390166196
 20
249.6069703805714
 30
0.0
 11
332.0906390166196
 21
249.6069703805714
 31
0.0
  0
LINE
  5
F28
  8
0
 62
     0
 10
331.45563901661961
 20
249.6069703805714
 30
0.0
 11
331.45563901661961
 21
249.6069703805714
 31
0.0
  0
LINE
  5
F29
  8
0
 62
     0
 10
330.82063901661951
 20
249.6069703805714
 30
0.0
 11
330.82063901661951
 21
249.6069703805714
 31
0.0
  0
LINE
  5
F2A
  8
0
 62
     0
 10
330.18563901661958
 20
249.6069703805714
 30
0.0
 11
330.18563901661958
 21
249.6069703805714
 31
0.0
  0
LINE
  5
F2B
  8
0
 62
     0
 10
329.55063901661958
 20
249.6069703805714
 30
0.0
 11
329.55063901661958
 21
249.6069703805714
 31
0.0
  0
LINE
  5
F2C
  8
0
 62
     0
 10
328.91563901661959
 20
249.6069703805714
 30
0.0
 11
328.91563901661959
 21
249.6069703805714
 31
0.0
  0
LINE
  5
F2D
  8
0
 62
     0
 10
328.2806390166196
 20
249.6069703805714
 30
0.0
 11
328.2806390166196
 21
249.6069703805714
 31
0.0
  0
LINE
  5
F2E
  8
0
 62
     0
 10
327.64563901661961
 20
249.6069703805714
 30
0.0
 11
327.64563901661961
 21
249.6069703805714
 31
0.0
  0
LINE
  5
F2F
  8
0
 62
     0
 10
327.01063901661962
 20
249.6069703805714
 30
0.0
 11
327.01063901661962
 21
249.6069703805714
 31
0.0
  0
LINE
  5
F30
  8
0
 62
     0
 10
326.37563901661969
 20
249.6069703805714
 30
0.0
 11
326.37563901661969
 21
249.6069703805714
 31
0.0
  0
LINE
  5
F31
  8
0
 62
     0
 10
325.74063901661958
 20
249.6069703805714
 30
0.0
 11
325.74063901661958
 21
249.6069703805714
 31
0.0
  0
LINE
  5
F32
  8
0
 62
     0
 10
325.10563901661959
 20
249.6069703805714
 30
0.0
 11
325.10563901661959
 21
249.6069703805714
 31
0.0
  0
LINE
  5
F33
  8
0
 62
     0
 10
324.4706390166196
 20
249.6069703805714
 30
0.0
 11
324.4706390166196
 21
249.6069703805714
 31
0.0
  0
LINE
  5
F34
  8
0
 62
     0
 10
323.83563901661972
 20
249.6069703805714
 30
0.0
 11
323.83563901661972
 21
249.6069703805714
 31
0.0
  0
LINE
  5
F35
  8
0
 62
     0
 10
323.20063901661968
 20
249.6069703805714
 30
0.0
 11
323.20063901661968
 21
249.6069703805714
 31
0.0
  0
LINE
  5
F36
  8
0
 62
     0
 10
322.56563901661968
 20
249.6069703805714
 30
0.0
 11
322.56563901661968
 21
249.6069703805714
 31
0.0
  0
LINE
  5
F37
  8
0
 62
     0
 10
321.93063901661969
 20
249.6069703805714
 30
0.0
 11
321.93063901661969
 21
249.6069703805714
 31
0.0
  0
LINE
  5
F38
  8
0
 62
     0
 10
321.2956390166197
 20
249.6069703805714
 30
0.0
 11
321.2956390166197
 21
249.6069703805714
 31
0.0
  0
LINE
  5
F39
  8
0
 62
     0
 10
311.13563901661939
 20
249.6069703805714
 30
0.0
 11
311.13563901661939
 21
249.6069703805714
 31
0.0
  0
LINE
  5
F3A
  8
0
 62
     0
 10
310.5006390166194
 20
249.6069703805714
 30
0.0
 11
310.5006390166194
 21
249.6069703805714
 31
0.0
  0
LINE
  5
F3B
  8
0
 62
     0
 10
309.86563901661941
 20
249.6069703805714
 30
0.0
 11
309.86563901661941
 21
249.6069703805714
 31
0.0
  0
LINE
  5
F3C
  8
0
 62
     0
 10
309.23063901661942
 20
249.6069703805714
 30
0.0
 11
309.23063901661942
 21
249.6069703805714
 31
0.0
  0
LINE
  5
F3D
  8
0
 62
     0
 10
308.59563901661937
 20
249.6069703805714
 30
0.0
 11
308.59563901661937
 21
249.6069703805714
 31
0.0
  0
LINE
  5
F3E
  8
0
 62
     0
 10
307.96063901661938
 20
249.6069703805714
 30
0.0
 11
307.96063901661938
 21
249.6069703805714
 31
0.0
  0
LINE
  5
F3F
  8
0
 62
     0
 10
307.3256390166195
 20
249.6069703805714
 30
0.0
 11
307.3256390166195
 21
249.6069703805714
 31
0.0
  0
LINE
  5
F40
  8
0
 62
     0
 10
306.69063901661951
 20
249.6069703805714
 30
0.0
 11
306.69063901661951
 21
249.6069703805714
 31
0.0
  0
LINE
  5
F41
  8
0
 62
     0
 10
306.05563901661941
 20
249.6069703805714
 30
0.0
 11
306.05563901661941
 21
249.6069703805714
 31
0.0
  0
LINE
  5
F42
  8
0
 62
     0
 10
305.42063901661948
 20
249.6069703805714
 30
0.0
 11
305.42063901661948
 21
249.6069703805714
 31
0.0
  0
LINE
  5
F43
  8
0
 62
     0
 10
304.78563901661948
 20
249.6069703805714
 30
0.0
 11
304.78563901661948
 21
249.6069703805714
 31
0.0
  0
LINE
  5
F44
  8
0
 62
     0
 10
304.15063901661949
 20
249.6069703805714
 30
0.0
 11
304.15063901661949
 21
249.6069703805714
 31
0.0
  0
LINE
  5
F45
  8
0
 62
     0
 10
303.5156390166195
 20
249.6069703805714
 30
0.0
 11
303.5156390166195
 21
249.6069703805714
 31
0.0
  0
LINE
  5
F46
  8
0
 62
     0
 10
302.88063901661951
 20
249.6069703805714
 30
0.0
 11
302.88063901661951
 21
249.6069703805714
 31
0.0
  0
LINE
  5
F47
  8
0
 62
     0
 10
302.24563901661952
 20
249.6069703805714
 30
0.0
 11
302.24563901661952
 21
249.6069703805714
 31
0.0
  0
LINE
  5
F48
  8
0
 62
     0
 10
301.61063901661947
 20
249.6069703805714
 30
0.0
 11
301.61063901661947
 21
249.6069703805714
 31
0.0
  0
LINE
  5
F49
  8
0
 62
     0
 10
300.9756390166196
 20
249.6069703805714
 30
0.0
 11
300.9756390166196
 21
249.6069703805714
 31
0.0
  0
LINE
  5
F4A
  8
0
 62
     0
 10
300.34063901661949
 20
249.6069703805714
 30
0.0
 11
300.34063901661949
 21
249.6069703805714
 31
0.0
  0
LINE
  5
F4B
  8
0
 62
     0
 10
299.7056390166195
 20
249.6069703805714
 30
0.0
 11
299.7056390166195
 21
249.6069703805714
 31
0.0
  0
LINE
  5
F4C
  8
0
 62
     0
 10
299.07063901661962
 20
249.6069703805714
 30
0.0
 11
299.07063901661962
 21
249.6069703805714
 31
0.0
  0
LINE
  5
F4D
  8
0
 62
     0
 10
298.43563901661958
 20
249.6069703805714
 30
0.0
 11
298.43563901661958
 21
249.6069703805714
 31
0.0
  0
LINE
  5
F4E
  8
0
 62
     0
 10
297.80063901661958
 20
249.6069703805714
 30
0.0
 11
297.80063901661958
 21
249.6069703805714
 31
0.0
  0
LINE
  5
F4F
  8
0
 62
     0
 10
297.16563901661959
 20
249.6069703805714
 30
0.0
 11
297.16563901661959
 21
249.6069703805714
 31
0.0
  0
LINE
  5
F50
  8
0
 62
     0
 10
296.5306390166196
 20
249.6069703805714
 30
0.0
 11
296.5306390166196
 21
249.6069703805714
 31
0.0
  0
LINE
  5
F51
  8
0
 62
     0
 10
295.89563901661961
 20
249.6069703805714
 30
0.0
 11
295.89563901661961
 21
249.6069703805714
 31
0.0
  0
LINE
  5
F52
  8
0
 62
     0
 10
295.26063901661962
 20
249.6069703805714
 30
0.0
 11
295.26063901661962
 21
249.6069703805714
 31
0.0
  0
LINE
  5
F53
  8
0
 62
     0
 10
294.62563901661957
 20
249.6069703805714
 30
0.0
 11
294.62563901661957
 21
249.6069703805714
 31
0.0
  0
LINE
  5
F54
  8
0
 62
     0
 10
293.99063901661958
 20
249.6069703805714
 30
0.0
 11
293.99063901661958
 21
249.6069703805714
 31
0.0
  0
LINE
  5
F55
  8
0
 62
     0
 10
293.3556390166197
 20
249.6069703805714
 30
0.0
 11
293.3556390166197
 21
249.6069703805714
 31
0.0
  0
LINE
  5
F56
  8
0
 62
     0
 10
292.72063901661971
 20
249.6069703805714
 30
0.0
 11
292.72063901661971
 21
249.6069703805714
 31
0.0
  0
LINE
  5
F57
  8
0
 62
     0
 10
292.08563901661972
 20
249.6069703805714
 30
0.0
 11
292.08563901661972
 21
249.6069703805714
 31
0.0
  0
LINE
  5
F58
  8
0
 62
     0
 10
291.45063901661968
 20
249.6069703805714
 30
0.0
 11
291.45063901661968
 21
249.6069703805714
 31
0.0
  0
LINE
  5
F59
  8
0
 62
     0
 10
340.66313901661943
 20
250.2419703805713
 30
0.0
 11
340.66313901661943
 21
250.2419703805713
 31
0.0
  0
LINE
  5
F5A
  8
0
 62
     0
 10
340.02813901661949
 20
250.2419703805713
 30
0.0
 11
340.02813901661949
 21
250.2419703805713
 31
0.0
  0
LINE
  5
F5B
  8
0
 62
     0
 10
339.3931390166195
 20
250.2419703805713
 30
0.0
 11
339.3931390166195
 21
250.2419703805713
 31
0.0
  0
LINE
  5
F5C
  8
0
 62
     0
 10
338.7581390166194
 20
250.2419703805713
 30
0.0
 11
338.7581390166194
 21
250.2419703805713
 31
0.0
  0
LINE
  5
F5D
  8
0
 62
     0
 10
338.12313901661952
 20
250.2419703805713
 30
0.0
 11
338.12313901661952
 21
250.2419703805713
 31
0.0
  0
LINE
  5
F5E
  8
0
 62
     0
 10
337.48813901661953
 20
250.2419703805713
 30
0.0
 11
337.48813901661953
 21
250.2419703805713
 31
0.0
  0
LINE
  5
F5F
  8
0
 62
     0
 10
336.85313901661948
 20
250.2419703805713
 30
0.0
 11
336.85313901661948
 21
250.2419703805713
 31
0.0
  0
LINE
  5
F60
  8
0
 62
     0
 10
336.21813901661949
 20
250.2419703805713
 30
0.0
 11
336.21813901661949
 21
250.2419703805713
 31
0.0
  0
LINE
  5
F61
  8
0
 62
     0
 10
335.5831390166195
 20
250.2419703805713
 30
0.0
 11
335.5831390166195
 21
250.2419703805713
 31
0.0
  0
LINE
  5
F62
  8
0
 62
     0
 10
334.94813901661951
 20
250.2419703805713
 30
0.0
 11
334.94813901661951
 21
250.2419703805713
 31
0.0
  0
LINE
  5
F63
  8
0
 62
     0
 10
334.31313901661952
 20
250.2419703805713
 30
0.0
 11
334.31313901661952
 21
250.2419703805713
 31
0.0
  0
LINE
  5
F64
  8
0
 62
     0
 10
333.67813901661953
 20
250.2419703805713
 30
0.0
 11
333.67813901661953
 21
250.2419703805713
 31
0.0
  0
LINE
  5
F65
  8
0
 62
     0
 10
333.04313901661948
 20
250.2419703805713
 30
0.0
 11
333.04313901661948
 21
250.2419703805713
 31
0.0
  0
LINE
  5
F66
  8
0
 62
     0
 10
332.40813901661949
 20
250.2419703805713
 30
0.0
 11
332.40813901661949
 21
250.2419703805713
 31
0.0
  0
LINE
  5
F67
  8
0
 62
     0
 10
331.77313901661961
 20
250.2419703805713
 30
0.0
 11
331.77313901661961
 21
250.2419703805713
 31
0.0
  0
LINE
  5
F68
  8
0
 62
     0
 10
331.13813901661962
 20
250.2419703805713
 30
0.0
 11
331.13813901661962
 21
250.2419703805713
 31
0.0
  0
LINE
  5
F69
  8
0
 62
     0
 10
330.50313901661963
 20
250.2419703805713
 30
0.0
 11
330.50313901661963
 21
250.2419703805713
 31
0.0
  0
LINE
  5
F6A
  8
0
 62
     0
 10
329.86813901661958
 20
250.2419703805713
 30
0.0
 11
329.86813901661958
 21
250.2419703805713
 31
0.0
  0
LINE
  5
F6B
  8
0
 62
     0
 10
329.23313901661959
 20
250.2419703805713
 30
0.0
 11
329.23313901661959
 21
250.2419703805713
 31
0.0
  0
LINE
  5
F6C
  8
0
 62
     0
 10
328.5981390166196
 20
250.2419703805713
 30
0.0
 11
328.5981390166196
 21
250.2419703805713
 31
0.0
  0
LINE
  5
F6D
  8
0
 62
     0
 10
327.96313901661961
 20
250.2419703805713
 30
0.0
 11
327.96313901661961
 21
250.2419703805713
 31
0.0
  0
LINE
  5
F6E
  8
0
 62
     0
 10
327.32813901661962
 20
250.2419703805713
 30
0.0
 11
327.32813901661962
 21
250.2419703805713
 31
0.0
  0
LINE
  5
F6F
  8
0
 62
     0
 10
326.69313901661963
 20
250.2419703805713
 30
0.0
 11
326.69313901661963
 21
250.2419703805713
 31
0.0
  0
LINE
  5
F70
  8
0
 62
     0
 10
326.05813901661958
 20
250.2419703805713
 30
0.0
 11
326.05813901661958
 21
250.2419703805713
 31
0.0
  0
LINE
  5
F71
  8
0
 62
     0
 10
325.4231390166197
 20
250.2419703805713
 30
0.0
 11
325.4231390166197
 21
250.2419703805713
 31
0.0
  0
LINE
  5
F72
  8
0
 62
     0
 10
324.78813901661971
 20
250.2419703805713
 30
0.0
 11
324.78813901661971
 21
250.2419703805713
 31
0.0
  0
LINE
  5
F73
  8
0
 62
     0
 10
324.15313901661972
 20
250.2419703805713
 30
0.0
 11
324.15313901661972
 21
250.2419703805713
 31
0.0
  0
LINE
  5
F74
  8
0
 62
     0
 10
323.51813901661973
 20
250.2419703805713
 30
0.0
 11
323.51813901661973
 21
250.2419703805713
 31
0.0
  0
LINE
  5
F75
  8
0
 62
     0
 10
322.88313901661968
 20
250.2419703805713
 30
0.0
 11
322.88313901661968
 21
250.2419703805713
 31
0.0
  0
LINE
  5
F76
  8
0
 62
     0
 10
322.24813901661969
 20
250.2419703805713
 30
0.0
 11
322.24813901661969
 21
250.2419703805713
 31
0.0
  0
LINE
  5
F77
  8
0
 62
     0
 10
321.6131390166197
 20
250.2419703805713
 30
0.0
 11
321.6131390166197
 21
250.2419703805713
 31
0.0
  0
LINE
  5
F78
  8
0
 62
     0
 10
310.8181390166194
 20
250.2419703805713
 30
0.0
 11
310.8181390166194
 21
250.2419703805713
 31
0.0
  0
LINE
  5
F79
  8
0
 62
     0
 10
310.18313901661941
 20
250.2419703805713
 30
0.0
 11
310.18313901661941
 21
250.2419703805713
 31
0.0
  0
LINE
  5
F7A
  8
0
 62
     0
 10
309.54813901661942
 20
250.2419703805713
 30
0.0
 11
309.54813901661942
 21
250.2419703805713
 31
0.0
  0
LINE
  5
F7B
  8
0
 62
     0
 10
308.91313901661943
 20
250.2419703805713
 30
0.0
 11
308.91313901661943
 21
250.2419703805713
 31
0.0
  0
LINE
  5
F7C
  8
0
 62
     0
 10
308.27813901661938
 20
250.2419703805713
 30
0.0
 11
308.27813901661938
 21
250.2419703805713
 31
0.0
  0
LINE
  5
F7D
  8
0
 62
     0
 10
307.64313901661939
 20
250.2419703805713
 30
0.0
 11
307.64313901661939
 21
250.2419703805713
 31
0.0
  0
LINE
  5
F7E
  8
0
 62
     0
 10
307.0081390166194
 20
250.2419703805713
 30
0.0
 11
307.0081390166194
 21
250.2419703805713
 31
0.0
  0
LINE
  5
F7F
  8
0
 62
     0
 10
306.37313901661952
 20
250.2419703805713
 30
0.0
 11
306.37313901661952
 21
250.2419703805713
 31
0.0
  0
LINE
  5
F80
  8
0
 62
     0
 10
305.73813901661953
 20
250.2419703805713
 30
0.0
 11
305.73813901661953
 21
250.2419703805713
 31
0.0
  0
LINE
  5
F81
  8
0
 62
     0
 10
305.10313901661948
 20
250.2419703805713
 30
0.0
 11
305.10313901661948
 21
250.2419703805713
 31
0.0
  0
LINE
  5
F82
  8
0
 62
     0
 10
304.46813901661949
 20
250.2419703805713
 30
0.0
 11
304.46813901661949
 21
250.2419703805713
 31
0.0
  0
LINE
  5
F83
  8
0
 62
     0
 10
303.8331390166195
 20
250.2419703805713
 30
0.0
 11
303.8331390166195
 21
250.2419703805713
 31
0.0
  0
LINE
  5
F84
  8
0
 62
     0
 10
303.19813901661951
 20
250.2419703805713
 30
0.0
 11
303.19813901661951
 21
250.2419703805713
 31
0.0
  0
LINE
  5
F85
  8
0
 62
     0
 10
302.56313901661952
 20
250.2419703805713
 30
0.0
 11
302.56313901661952
 21
250.2419703805713
 31
0.0
  0
LINE
  5
F86
  8
0
 62
     0
 10
301.92813901661953
 20
250.2419703805713
 30
0.0
 11
301.92813901661953
 21
250.2419703805713
 31
0.0
  0
LINE
  5
F87
  8
0
 62
     0
 10
301.29313901661948
 20
250.2419703805713
 30
0.0
 11
301.29313901661948
 21
250.2419703805713
 31
0.0
  0
LINE
  5
F88
  8
0
 62
     0
 10
300.65813901661949
 20
250.2419703805713
 30
0.0
 11
300.65813901661949
 21
250.2419703805713
 31
0.0
  0
LINE
  5
F89
  8
0
 62
     0
 10
300.02313901661961
 20
250.2419703805713
 30
0.0
 11
300.02313901661961
 21
250.2419703805713
 31
0.0
  0
LINE
  5
F8A
  8
0
 62
     0
 10
299.38813901661962
 20
250.2419703805713
 30
0.0
 11
299.38813901661962
 21
250.2419703805713
 31
0.0
  0
LINE
  5
F8B
  8
0
 62
     0
 10
298.75313901661963
 20
250.2419703805713
 30
0.0
 11
298.75313901661963
 21
250.2419703805713
 31
0.0
  0
LINE
  5
F8C
  8
0
 62
     0
 10
298.11813901661958
 20
250.2419703805713
 30
0.0
 11
298.11813901661958
 21
250.2419703805713
 31
0.0
  0
LINE
  5
F8D
  8
0
 62
     0
 10
297.48313901661959
 20
250.2419703805713
 30
0.0
 11
297.48313901661959
 21
250.2419703805713
 31
0.0
  0
LINE
  5
F8E
  8
0
 62
     0
 10
296.8481390166196
 20
250.2419703805713
 30
0.0
 11
296.8481390166196
 21
250.2419703805713
 31
0.0
  0
LINE
  5
F8F
  8
0
 62
     0
 10
296.21313901661961
 20
250.2419703805713
 30
0.0
 11
296.21313901661961
 21
250.2419703805713
 31
0.0
  0
LINE
  5
F90
  8
0
 62
     0
 10
295.57813901661962
 20
250.2419703805713
 30
0.0
 11
295.57813901661962
 21
250.2419703805713
 31
0.0
  0
LINE
  5
F91
  8
0
 62
     0
 10
294.94313901661963
 20
250.2419703805713
 30
0.0
 11
294.94313901661963
 21
250.2419703805713
 31
0.0
  0
LINE
  5
F92
  8
0
 62
     0
 10
294.30813901661969
 20
250.2419703805713
 30
0.0
 11
294.30813901661969
 21
250.2419703805713
 31
0.0
  0
LINE
  5
F93
  8
0
 62
     0
 10
293.6731390166197
 20
250.2419703805713
 30
0.0
 11
293.6731390166197
 21
250.2419703805713
 31
0.0
  0
LINE
  5
F94
  8
0
 62
     0
 10
293.0381390166196
 20
250.2419703805713
 30
0.0
 11
293.0381390166196
 21
250.2419703805713
 31
0.0
  0
LINE
  5
F95
  8
0
 62
     0
 10
292.40313901661972
 20
250.2419703805713
 30
0.0
 11
292.40313901661972
 21
250.2419703805713
 31
0.0
  0
LINE
  5
F96
  8
0
 62
     0
 10
291.76813901661973
 20
250.2419703805713
 30
0.0
 11
291.76813901661973
 21
250.2419703805713
 31
0.0
  0
LINE
  5
F97
  8
0
 62
     0
 10
340.98063901661942
 20
250.87697038057141
 30
0.0
 11
340.98063901661942
 21
250.87697038057141
 31
0.0
  0
LINE
  5
F98
  8
0
 62
     0
 10
340.34563901661937
 20
250.87697038057141
 30
0.0
 11
340.34563901661937
 21
250.87697038057141
 31
0.0
  0
LINE
  5
F99
  8
0
 62
     0
 10
339.71063901661938
 20
250.87697038057141
 30
0.0
 11
339.71063901661938
 21
250.87697038057141
 31
0.0
  0
LINE
  5
F9A
  8
0
 62
     0
 10
339.0756390166195
 20
250.87697038057141
 30
0.0
 11
339.0756390166195
 21
250.87697038057141
 31
0.0
  0
LINE
  5
F9B
  8
0
 62
     0
 10
338.44063901661951
 20
250.87697038057141
 30
0.0
 11
338.44063901661951
 21
250.87697038057141
 31
0.0
  0
LINE
  5
F9C
  8
0
 62
     0
 10
337.80563901661952
 20
250.87697038057141
 30
0.0
 11
337.80563901661952
 21
250.87697038057141
 31
0.0
  0
LINE
  5
F9D
  8
0
 62
     0
 10
337.17063901661948
 20
250.87697038057141
 30
0.0
 11
337.17063901661948
 21
250.87697038057141
 31
0.0
  0
LINE
  5
F9E
  8
0
 62
     0
 10
336.53563901661948
 20
250.87697038057141
 30
0.0
 11
336.53563901661948
 21
250.87697038057141
 31
0.0
  0
LINE
  5
F9F
  8
0
 62
     0
 10
335.90063901661949
 20
250.87697038057141
 30
0.0
 11
335.90063901661949
 21
250.87697038057141
 31
0.0
  0
LINE
  5
FA0
  8
0
 62
     0
 10
335.2656390166195
 20
250.87697038057141
 30
0.0
 11
335.2656390166195
 21
250.87697038057141
 31
0.0
  0
LINE
  5
FA1
  8
0
 62
     0
 10
334.63063901661951
 20
250.87697038057141
 30
0.0
 11
334.63063901661951
 21
250.87697038057141
 31
0.0
  0
LINE
  5
FA2
  8
0
 62
     0
 10
333.99563901661952
 20
250.87697038057141
 30
0.0
 11
333.99563901661952
 21
250.87697038057141
 31
0.0
  0
LINE
  5
FA3
  8
0
 62
     0
 10
333.36063901661947
 20
250.87697038057141
 30
0.0
 11
333.36063901661947
 21
250.87697038057141
 31
0.0
  0
LINE
  5
FA4
  8
0
 62
     0
 10
332.7256390166196
 20
250.87697038057141
 30
0.0
 11
332.7256390166196
 21
250.87697038057141
 31
0.0
  0
LINE
  5
FA5
  8
0
 62
     0
 10
332.0906390166196
 20
250.87697038057141
 30
0.0
 11
332.0906390166196
 21
250.87697038057141
 31
0.0
  0
LINE
  5
FA6
  8
0
 62
     0
 10
331.45563901661961
 20
250.87697038057141
 30
0.0
 11
331.45563901661961
 21
250.87697038057141
 31
0.0
  0
LINE
  5
FA7
  8
0
 62
     0
 10
330.82063901661951
 20
250.87697038057141
 30
0.0
 11
330.82063901661951
 21
250.87697038057141
 31
0.0
  0
LINE
  5
FA8
  8
0
 62
     0
 10
330.18563901661958
 20
250.87697038057141
 30
0.0
 11
330.18563901661958
 21
250.87697038057141
 31
0.0
  0
LINE
  5
FA9
  8
0
 62
     0
 10
329.55063901661958
 20
250.87697038057141
 30
0.0
 11
329.55063901661958
 21
250.87697038057141
 31
0.0
  0
LINE
  5
FAA
  8
0
 62
     0
 10
328.91563901661959
 20
250.87697038057141
 30
0.0
 11
328.91563901661959
 21
250.87697038057141
 31
0.0
  0
LINE
  5
FAB
  8
0
 62
     0
 10
328.2806390166196
 20
250.87697038057141
 30
0.0
 11
328.2806390166196
 21
250.87697038057141
 31
0.0
  0
LINE
  5
FAC
  8
0
 62
     0
 10
327.64563901661961
 20
250.87697038057141
 30
0.0
 11
327.64563901661961
 21
250.87697038057141
 31
0.0
  0
LINE
  5
FAD
  8
0
 62
     0
 10
327.01063901661962
 20
250.87697038057141
 30
0.0
 11
327.01063901661962
 21
250.87697038057141
 31
0.0
  0
LINE
  5
FAE
  8
0
 62
     0
 10
326.37563901661969
 20
250.87697038057141
 30
0.0
 11
326.37563901661969
 21
250.87697038057141
 31
0.0
  0
LINE
  5
FAF
  8
0
 62
     0
 10
325.74063901661958
 20
250.87697038057141
 30
0.0
 11
325.74063901661958
 21
250.87697038057141
 31
0.0
  0
LINE
  5
FB0
  8
0
 62
     0
 10
325.10563901661959
 20
250.87697038057141
 30
0.0
 11
325.10563901661959
 21
250.87697038057141
 31
0.0
  0
LINE
  5
FB1
  8
0
 62
     0
 10
324.4706390166196
 20
250.87697038057141
 30
0.0
 11
324.4706390166196
 21
250.87697038057141
 31
0.0
  0
LINE
  5
FB2
  8
0
 62
     0
 10
323.83563901661972
 20
250.87697038057141
 30
0.0
 11
323.83563901661972
 21
250.87697038057141
 31
0.0
  0
LINE
  5
FB3
  8
0
 62
     0
 10
323.20063901661968
 20
250.87697038057141
 30
0.0
 11
323.20063901661968
 21
250.87697038057141
 31
0.0
  0
LINE
  5
FB4
  8
0
 62
     0
 10
322.56563901661968
 20
250.87697038057141
 30
0.0
 11
322.56563901661968
 21
250.87697038057141
 31
0.0
  0
LINE
  5
FB5
  8
0
 62
     0
 10
321.93063901661969
 20
250.87697038057141
 30
0.0
 11
321.93063901661969
 21
250.87697038057141
 31
0.0
  0
LINE
  5
FB6
  8
0
 62
     0
 10
321.2956390166197
 20
250.87697038057141
 30
0.0
 11
321.2956390166197
 21
250.87697038057141
 31
0.0
  0
LINE
  5
FB7
  8
0
 62
     0
 10
311.13563901661939
 20
250.87697038057141
 30
0.0
 11
311.13563901661939
 21
250.87697038057141
 31
0.0
  0
LINE
  5
FB8
  8
0
 62
     0
 10
310.5006390166194
 20
250.87697038057141
 30
0.0
 11
310.5006390166194
 21
250.87697038057141
 31
0.0
  0
LINE
  5
FB9
  8
0
 62
     0
 10
309.86563901661941
 20
250.87697038057141
 30
0.0
 11
309.86563901661941
 21
250.87697038057141
 31
0.0
  0
LINE
  5
FBA
  8
0
 62
     0
 10
309.23063901661942
 20
250.87697038057141
 30
0.0
 11
309.23063901661942
 21
250.87697038057141
 31
0.0
  0
LINE
  5
FBB
  8
0
 62
     0
 10
308.59563901661937
 20
250.87697038057141
 30
0.0
 11
308.59563901661937
 21
250.87697038057141
 31
0.0
  0
LINE
  5
FBC
  8
0
 62
     0
 10
307.96063901661938
 20
250.87697038057141
 30
0.0
 11
307.96063901661938
 21
250.87697038057141
 31
0.0
  0
LINE
  5
FBD
  8
0
 62
     0
 10
307.3256390166195
 20
250.87697038057141
 30
0.0
 11
307.3256390166195
 21
250.87697038057141
 31
0.0
  0
LINE
  5
FBE
  8
0
 62
     0
 10
306.69063901661951
 20
250.87697038057141
 30
0.0
 11
306.69063901661951
 21
250.87697038057141
 31
0.0
  0
LINE
  5
FBF
  8
0
 62
     0
 10
306.05563901661941
 20
250.87697038057141
 30
0.0
 11
306.05563901661941
 21
250.87697038057141
 31
0.0
  0
LINE
  5
FC0
  8
0
 62
     0
 10
305.42063901661948
 20
250.87697038057141
 30
0.0
 11
305.42063901661948
 21
250.87697038057141
 31
0.0
  0
LINE
  5
FC1
  8
0
 62
     0
 10
304.78563901661948
 20
250.87697038057141
 30
0.0
 11
304.78563901661948
 21
250.87697038057141
 31
0.0
  0
LINE
  5
FC2
  8
0
 62
     0
 10
304.15063901661949
 20
250.87697038057141
 30
0.0
 11
304.15063901661949
 21
250.87697038057141
 31
0.0
  0
LINE
  5
FC3
  8
0
 62
     0
 10
303.5156390166195
 20
250.87697038057141
 30
0.0
 11
303.5156390166195
 21
250.87697038057141
 31
0.0
  0
LINE
  5
FC4
  8
0
 62
     0
 10
302.88063901661951
 20
250.87697038057141
 30
0.0
 11
302.88063901661951
 21
250.87697038057141
 31
0.0
  0
LINE
  5
FC5
  8
0
 62
     0
 10
302.24563901661952
 20
250.87697038057141
 30
0.0
 11
302.24563901661952
 21
250.87697038057141
 31
0.0
  0
LINE
  5
FC6
  8
0
 62
     0
 10
301.61063901661947
 20
250.87697038057141
 30
0.0
 11
301.61063901661947
 21
250.87697038057141
 31
0.0
  0
LINE
  5
FC7
  8
0
 62
     0
 10
300.9756390166196
 20
250.87697038057141
 30
0.0
 11
300.9756390166196
 21
250.87697038057141
 31
0.0
  0
LINE
  5
FC8
  8
0
 62
     0
 10
300.34063901661949
 20
250.87697038057141
 30
0.0
 11
300.34063901661949
 21
250.87697038057141
 31
0.0
  0
LINE
  5
FC9
  8
0
 62
     0
 10
299.7056390166195
 20
250.87697038057141
 30
0.0
 11
299.7056390166195
 21
250.87697038057141
 31
0.0
  0
LINE
  5
FCA
  8
0
 62
     0
 10
299.07063901661962
 20
250.87697038057141
 30
0.0
 11
299.07063901661962
 21
250.87697038057141
 31
0.0
  0
LINE
  5
FCB
  8
0
 62
     0
 10
298.43563901661958
 20
250.87697038057141
 30
0.0
 11
298.43563901661958
 21
250.87697038057141
 31
0.0
  0
LINE
  5
FCC
  8
0
 62
     0
 10
297.80063901661958
 20
250.87697038057141
 30
0.0
 11
297.80063901661958
 21
250.87697038057141
 31
0.0
  0
LINE
  5
FCD
  8
0
 62
     0
 10
297.16563901661959
 20
250.87697038057141
 30
0.0
 11
297.16563901661959
 21
250.87697038057141
 31
0.0
  0
LINE
  5
FCE
  8
0
 62
     0
 10
296.5306390166196
 20
250.87697038057141
 30
0.0
 11
296.5306390166196
 21
250.87697038057141
 31
0.0
  0
LINE
  5
FCF
  8
0
 62
     0
 10
295.89563901661961
 20
250.87697038057141
 30
0.0
 11
295.89563901661961
 21
250.87697038057141
 31
0.0
  0
LINE
  5
FD0
  8
0
 62
     0
 10
295.26063901661962
 20
250.87697038057141
 30
0.0
 11
295.26063901661962
 21
250.87697038057141
 31
0.0
  0
LINE
  5
FD1
  8
0
 62
     0
 10
294.62563901661957
 20
250.87697038057141
 30
0.0
 11
294.62563901661957
 21
250.87697038057141
 31
0.0
  0
LINE
  5
FD2
  8
0
 62
     0
 10
293.99063901661958
 20
250.87697038057141
 30
0.0
 11
293.99063901661958
 21
250.87697038057141
 31
0.0
  0
LINE
  5
FD3
  8
0
 62
     0
 10
293.3556390166197
 20
250.87697038057141
 30
0.0
 11
293.3556390166197
 21
250.87697038057141
 31
0.0
  0
LINE
  5
FD4
  8
0
 62
     0
 10
292.72063901661971
 20
250.87697038057141
 30
0.0
 11
292.72063901661971
 21
250.87697038057141
 31
0.0
  0
LINE
  5
FD5
  8
0
 62
     0
 10
292.08563901661972
 20
250.87697038057141
 30
0.0
 11
292.08563901661972
 21
250.87697038057141
 31
0.0
  0
LINE
  5
FD6
  8
0
 62
     0
 10
291.45063901661968
 20
250.87697038057141
 30
0.0
 11
291.45063901661968
 21
250.87697038057141
 31
0.0
  0
LINE
  5
FD7
  8
0
 62
     0
 10
340.66313901661943
 20
251.5119703805714
 30
0.0
 11
340.66313901661943
 21
251.5119703805714
 31
0.0
  0
LINE
  5
FD8
  8
0
 62
     0
 10
340.02813901661949
 20
251.5119703805714
 30
0.0
 11
340.02813901661949
 21
251.5119703805714
 31
0.0
  0
LINE
  5
FD9
  8
0
 62
     0
 10
339.3931390166195
 20
251.5119703805714
 30
0.0
 11
339.3931390166195
 21
251.5119703805714
 31
0.0
  0
LINE
  5
FDA
  8
0
 62
     0
 10
338.7581390166194
 20
251.5119703805714
 30
0.0
 11
338.7581390166194
 21
251.5119703805714
 31
0.0
  0
LINE
  5
FDB
  8
0
 62
     0
 10
338.12313901661952
 20
251.5119703805714
 30
0.0
 11
338.12313901661952
 21
251.5119703805714
 31
0.0
  0
LINE
  5
FDC
  8
0
 62
     0
 10
337.48813901661953
 20
251.5119703805714
 30
0.0
 11
337.48813901661953
 21
251.5119703805714
 31
0.0
  0
LINE
  5
FDD
  8
0
 62
     0
 10
336.85313901661948
 20
251.5119703805714
 30
0.0
 11
336.85313901661948
 21
251.5119703805714
 31
0.0
  0
LINE
  5
FDE
  8
0
 62
     0
 10
336.21813901661949
 20
251.5119703805714
 30
0.0
 11
336.21813901661949
 21
251.5119703805714
 31
0.0
  0
LINE
  5
FDF
  8
0
 62
     0
 10
335.5831390166195
 20
251.5119703805714
 30
0.0
 11
335.5831390166195
 21
251.5119703805714
 31
0.0
  0
LINE
  5
FE0
  8
0
 62
     0
 10
334.94813901661951
 20
251.5119703805714
 30
0.0
 11
334.94813901661951
 21
251.5119703805714
 31
0.0
  0
LINE
  5
FE1
  8
0
 62
     0
 10
334.31313901661952
 20
251.5119703805714
 30
0.0
 11
334.31313901661952
 21
251.5119703805714
 31
0.0
  0
LINE
  5
FE2
  8
0
 62
     0
 10
333.67813901661953
 20
251.5119703805714
 30
0.0
 11
333.67813901661953
 21
251.5119703805714
 31
0.0
  0
LINE
  5
FE3
  8
0
 62
     0
 10
333.04313901661948
 20
251.5119703805714
 30
0.0
 11
333.04313901661948
 21
251.5119703805714
 31
0.0
  0
LINE
  5
FE4
  8
0
 62
     0
 10
332.40813901661949
 20
251.5119703805714
 30
0.0
 11
332.40813901661949
 21
251.5119703805714
 31
0.0
  0
LINE
  5
FE5
  8
0
 62
     0
 10
331.77313901661961
 20
251.5119703805714
 30
0.0
 11
331.77313901661961
 21
251.5119703805714
 31
0.0
  0
LINE
  5
FE6
  8
0
 62
     0
 10
331.13813901661962
 20
251.5119703805714
 30
0.0
 11
331.13813901661962
 21
251.5119703805714
 31
0.0
  0
LINE
  5
FE7
  8
0
 62
     0
 10
330.50313901661963
 20
251.5119703805714
 30
0.0
 11
330.50313901661963
 21
251.5119703805714
 31
0.0
  0
LINE
  5
FE8
  8
0
 62
     0
 10
329.86813901661958
 20
251.5119703805714
 30
0.0
 11
329.86813901661958
 21
251.5119703805714
 31
0.0
  0
LINE
  5
FE9
  8
0
 62
     0
 10
329.23313901661959
 20
251.5119703805714
 30
0.0
 11
329.23313901661959
 21
251.5119703805714
 31
0.0
  0
LINE
  5
FEA
  8
0
 62
     0
 10
328.5981390166196
 20
251.5119703805714
 30
0.0
 11
328.5981390166196
 21
251.5119703805714
 31
0.0
  0
LINE
  5
FEB
  8
0
 62
     0
 10
327.96313901661961
 20
251.5119703805714
 30
0.0
 11
327.96313901661961
 21
251.5119703805714
 31
0.0
  0
LINE
  5
FEC
  8
0
 62
     0
 10
327.32813901661962
 20
251.5119703805714
 30
0.0
 11
327.32813901661962
 21
251.5119703805714
 31
0.0
  0
LINE
  5
FED
  8
0
 62
     0
 10
326.69313901661963
 20
251.5119703805714
 30
0.0
 11
326.69313901661963
 21
251.5119703805714
 31
0.0
  0
LINE
  5
FEE
  8
0
 62
     0
 10
326.05813901661958
 20
251.5119703805714
 30
0.0
 11
326.05813901661958
 21
251.5119703805714
 31
0.0
  0
LINE
  5
FEF
  8
0
 62
     0
 10
325.4231390166197
 20
251.5119703805714
 30
0.0
 11
325.4231390166197
 21
251.5119703805714
 31
0.0
  0
LINE
  5
FF0
  8
0
 62
     0
 10
324.78813901661971
 20
251.5119703805714
 30
0.0
 11
324.78813901661971
 21
251.5119703805714
 31
0.0
  0
LINE
  5
FF1
  8
0
 62
     0
 10
324.15313901661972
 20
251.5119703805714
 30
0.0
 11
324.15313901661972
 21
251.5119703805714
 31
0.0
  0
LINE
  5
FF2
  8
0
 62
     0
 10
323.51813901661973
 20
251.5119703805714
 30
0.0
 11
323.51813901661973
 21
251.5119703805714
 31
0.0
  0
LINE
  5
FF3
  8
0
 62
     0
 10
322.88313901661968
 20
251.5119703805714
 30
0.0
 11
322.88313901661968
 21
251.5119703805714
 31
0.0
  0
LINE
  5
FF4
  8
0
 62
     0
 10
322.24813901661969
 20
251.5119703805714
 30
0.0
 11
322.24813901661969
 21
251.5119703805714
 31
0.0
  0
LINE
  5
FF5
  8
0
 62
     0
 10
321.6131390166197
 20
251.5119703805714
 30
0.0
 11
321.6131390166197
 21
251.5119703805714
 31
0.0
  0
LINE
  5
FF6
  8
0
 62
     0
 10
310.8181390166194
 20
251.5119703805714
 30
0.0
 11
310.8181390166194
 21
251.5119703805714
 31
0.0
  0
LINE
  5
FF7
  8
0
 62
     0
 10
310.18313901661941
 20
251.5119703805714
 30
0.0
 11
310.18313901661941
 21
251.5119703805714
 31
0.0
  0
LINE
  5
FF8
  8
0
 62
     0
 10
309.54813901661942
 20
251.5119703805714
 30
0.0
 11
309.54813901661942
 21
251.5119703805714
 31
0.0
  0
LINE
  5
FF9
  8
0
 62
     0
 10
308.91313901661943
 20
251.5119703805714
 30
0.0
 11
308.91313901661943
 21
251.5119703805714
 31
0.0
  0
LINE
  5
FFA
  8
0
 62
     0
 10
308.27813901661938
 20
251.5119703805714
 30
0.0
 11
308.27813901661938
 21
251.5119703805714
 31
0.0
  0
LINE
  5
FFB
  8
0
 62
     0
 10
307.64313901661939
 20
251.5119703805714
 30
0.0
 11
307.64313901661939
 21
251.5119703805714
 31
0.0
  0
LINE
  5
FFC
  8
0
 62
     0
 10
307.0081390166194
 20
251.5119703805714
 30
0.0
 11
307.0081390166194
 21
251.5119703805714
 31
0.0
  0
LINE
  5
FFD
  8
0
 62
     0
 10
306.37313901661952
 20
251.5119703805714
 30
0.0
 11
306.37313901661952
 21
251.5119703805714
 31
0.0
  0
LINE
  5
FFE
  8
0
 62
     0
 10
305.73813901661953
 20
251.5119703805714
 30
0.0
 11
305.73813901661953
 21
251.5119703805714
 31
0.0
  0
LINE
  5
FFF
  8
0
 62
     0
 10
305.10313901661948
 20
251.5119703805714
 30
0.0
 11
305.10313901661948
 21
251.5119703805714
 31
0.0
  0
LINE
  5
1000
  8
0
 62
     0
 10
304.46813901661949
 20
251.5119703805714
 30
0.0
 11
304.46813901661949
 21
251.5119703805714
 31
0.0
  0
LINE
  5
1001
  8
0
 62
     0
 10
303.8331390166195
 20
251.5119703805714
 30
0.0
 11
303.8331390166195
 21
251.5119703805714
 31
0.0
  0
LINE
  5
1002
  8
0
 62
     0
 10
303.19813901661951
 20
251.5119703805714
 30
0.0
 11
303.19813901661951
 21
251.5119703805714
 31
0.0
  0
LINE
  5
1003
  8
0
 62
     0
 10
302.56313901661952
 20
251.5119703805714
 30
0.0
 11
302.56313901661952
 21
251.5119703805714
 31
0.0
  0
LINE
  5
1004
  8
0
 62
     0
 10
301.92813901661953
 20
251.5119703805714
 30
0.0
 11
301.92813901661953
 21
251.5119703805714
 31
0.0
  0
LINE
  5
1005
  8
0
 62
     0
 10
301.29313901661948
 20
251.5119703805714
 30
0.0
 11
301.29313901661948
 21
251.5119703805714
 31
0.0
  0
LINE
  5
1006
  8
0
 62
     0
 10
300.65813901661949
 20
251.5119703805714
 30
0.0
 11
300.65813901661949
 21
251.5119703805714
 31
0.0
  0
LINE
  5
1007
  8
0
 62
     0
 10
300.02313901661961
 20
251.5119703805714
 30
0.0
 11
300.02313901661961
 21
251.5119703805714
 31
0.0
  0
LINE
  5
1008
  8
0
 62
     0
 10
299.38813901661962
 20
251.5119703805714
 30
0.0
 11
299.38813901661962
 21
251.5119703805714
 31
0.0
  0
LINE
  5
1009
  8
0
 62
     0
 10
298.75313901661963
 20
251.5119703805714
 30
0.0
 11
298.75313901661963
 21
251.5119703805714
 31
0.0
  0
LINE
  5
100A
  8
0
 62
     0
 10
298.11813901661958
 20
251.5119703805714
 30
0.0
 11
298.11813901661958
 21
251.5119703805714
 31
0.0
  0
LINE
  5
100B
  8
0
 62
     0
 10
297.48313901661959
 20
251.5119703805714
 30
0.0
 11
297.48313901661959
 21
251.5119703805714
 31
0.0
  0
LINE
  5
100C
  8
0
 62
     0
 10
296.8481390166196
 20
251.5119703805714
 30
0.0
 11
296.8481390166196
 21
251.5119703805714
 31
0.0
  0
LINE
  5
100D
  8
0
 62
     0
 10
296.21313901661961
 20
251.5119703805714
 30
0.0
 11
296.21313901661961
 21
251.5119703805714
 31
0.0
  0
LINE
  5
100E
  8
0
 62
     0
 10
295.57813901661962
 20
251.5119703805714
 30
0.0
 11
295.57813901661962
 21
251.5119703805714
 31
0.0
  0
LINE
  5
100F
  8
0
 62
     0
 10
294.94313901661963
 20
251.5119703805714
 30
0.0
 11
294.94313901661963
 21
251.5119703805714
 31
0.0
  0
LINE
  5
1010
  8
0
 62
     0
 10
294.30813901661969
 20
251.5119703805714
 30
0.0
 11
294.30813901661969
 21
251.5119703805714
 31
0.0
  0
LINE
  5
1011
  8
0
 62
     0
 10
293.6731390166197
 20
251.5119703805714
 30
0.0
 11
293.6731390166197
 21
251.5119703805714
 31
0.0
  0
LINE
  5
1012
  8
0
 62
     0
 10
293.0381390166196
 20
251.5119703805714
 30
0.0
 11
293.0381390166196
 21
251.5119703805714
 31
0.0
  0
LINE
  5
1013
  8
0
 62
     0
 10
292.40313901661972
 20
251.5119703805714
 30
0.0
 11
292.40313901661972
 21
251.5119703805714
 31
0.0
  0
LINE
  5
1014
  8
0
 62
     0
 10
291.76813901661973
 20
251.5119703805714
 30
0.0
 11
291.76813901661973
 21
251.5119703805714
 31
0.0
  0
LINE
  5
1015
  8
0
 62
     0
 10
340.98063901661942
 20
252.1469703805713
 30
0.0
 11
340.98063901661942
 21
252.1469703805713
 31
0.0
  0
LINE
  5
1016
  8
0
 62
     0
 10
340.34563901661937
 20
252.1469703805713
 30
0.0
 11
340.34563901661937
 21
252.1469703805713
 31
0.0
  0
LINE
  5
1017
  8
0
 62
     0
 10
339.71063901661938
 20
252.1469703805713
 30
0.0
 11
339.71063901661938
 21
252.1469703805713
 31
0.0
  0
LINE
  5
1018
  8
0
 62
     0
 10
339.0756390166195
 20
252.1469703805713
 30
0.0
 11
339.0756390166195
 21
252.1469703805713
 31
0.0
  0
LINE
  5
1019
  8
0
 62
     0
 10
338.44063901661951
 20
252.1469703805713
 30
0.0
 11
338.44063901661951
 21
252.1469703805713
 31
0.0
  0
LINE
  5
101A
  8
0
 62
     0
 10
337.80563901661952
 20
252.1469703805713
 30
0.0
 11
337.80563901661952
 21
252.1469703805713
 31
0.0
  0
LINE
  5
101B
  8
0
 62
     0
 10
337.17063901661948
 20
252.1469703805713
 30
0.0
 11
337.17063901661948
 21
252.1469703805713
 31
0.0
  0
LINE
  5
101C
  8
0
 62
     0
 10
336.53563901661948
 20
252.1469703805713
 30
0.0
 11
336.53563901661948
 21
252.1469703805713
 31
0.0
  0
LINE
  5
101D
  8
0
 62
     0
 10
335.90063901661949
 20
252.1469703805713
 30
0.0
 11
335.90063901661949
 21
252.1469703805713
 31
0.0
  0
LINE
  5
101E
  8
0
 62
     0
 10
335.2656390166195
 20
252.1469703805713
 30
0.0
 11
335.2656390166195
 21
252.1469703805713
 31
0.0
  0
LINE
  5
101F
  8
0
 62
     0
 10
334.63063901661951
 20
252.1469703805713
 30
0.0
 11
334.63063901661951
 21
252.1469703805713
 31
0.0
  0
LINE
  5
1020
  8
0
 62
     0
 10
333.99563901661952
 20
252.1469703805713
 30
0.0
 11
333.99563901661952
 21
252.1469703805713
 31
0.0
  0
LINE
  5
1021
  8
0
 62
     0
 10
333.36063901661947
 20
252.1469703805713
 30
0.0
 11
333.36063901661947
 21
252.1469703805713
 31
0.0
  0
LINE
  5
1022
  8
0
 62
     0
 10
332.7256390166196
 20
252.1469703805713
 30
0.0
 11
332.7256390166196
 21
252.1469703805713
 31
0.0
  0
LINE
  5
1023
  8
0
 62
     0
 10
332.0906390166196
 20
252.1469703805713
 30
0.0
 11
332.0906390166196
 21
252.1469703805713
 31
0.0
  0
LINE
  5
1024
  8
0
 62
     0
 10
331.45563901661961
 20
252.1469703805713
 30
0.0
 11
331.45563901661961
 21
252.1469703805713
 31
0.0
  0
LINE
  5
1025
  8
0
 62
     0
 10
330.82063901661951
 20
252.1469703805713
 30
0.0
 11
330.82063901661951
 21
252.1469703805713
 31
0.0
  0
LINE
  5
1026
  8
0
 62
     0
 10
330.18563901661958
 20
252.1469703805713
 30
0.0
 11
330.18563901661958
 21
252.1469703805713
 31
0.0
  0
LINE
  5
1027
  8
0
 62
     0
 10
329.55063901661958
 20
252.1469703805713
 30
0.0
 11
329.55063901661958
 21
252.1469703805713
 31
0.0
  0
LINE
  5
1028
  8
0
 62
     0
 10
328.91563901661959
 20
252.1469703805713
 30
0.0
 11
328.91563901661959
 21
252.1469703805713
 31
0.0
  0
LINE
  5
1029
  8
0
 62
     0
 10
328.2806390166196
 20
252.1469703805713
 30
0.0
 11
328.2806390166196
 21
252.1469703805713
 31
0.0
  0
LINE
  5
102A
  8
0
 62
     0
 10
327.64563901661961
 20
252.1469703805713
 30
0.0
 11
327.64563901661961
 21
252.1469703805713
 31
0.0
  0
LINE
  5
102B
  8
0
 62
     0
 10
327.01063901661962
 20
252.1469703805713
 30
0.0
 11
327.01063901661962
 21
252.1469703805713
 31
0.0
  0
LINE
  5
102C
  8
0
 62
     0
 10
326.37563901661969
 20
252.1469703805713
 30
0.0
 11
326.37563901661969
 21
252.1469703805713
 31
0.0
  0
LINE
  5
102D
  8
0
 62
     0
 10
325.74063901661958
 20
252.1469703805713
 30
0.0
 11
325.74063901661958
 21
252.1469703805713
 31
0.0
  0
LINE
  5
102E
  8
0
 62
     0
 10
325.10563901661959
 20
252.1469703805713
 30
0.0
 11
325.10563901661959
 21
252.1469703805713
 31
0.0
  0
LINE
  5
102F
  8
0
 62
     0
 10
324.4706390166196
 20
252.1469703805713
 30
0.0
 11
324.4706390166196
 21
252.1469703805713
 31
0.0
  0
LINE
  5
1030
  8
0
 62
     0
 10
323.83563901661972
 20
252.1469703805713
 30
0.0
 11
323.83563901661972
 21
252.1469703805713
 31
0.0
  0
LINE
  5
1031
  8
0
 62
     0
 10
323.20063901661968
 20
252.1469703805713
 30
0.0
 11
323.20063901661968
 21
252.1469703805713
 31
0.0
  0
LINE
  5
1032
  8
0
 62
     0
 10
322.56563901661968
 20
252.1469703805713
 30
0.0
 11
322.56563901661968
 21
252.1469703805713
 31
0.0
  0
LINE
  5
1033
  8
0
 62
     0
 10
321.93063901661969
 20
252.1469703805713
 30
0.0
 11
321.93063901661969
 21
252.1469703805713
 31
0.0
  0
LINE
  5
1034
  8
0
 62
     0
 10
321.2956390166197
 20
252.1469703805713
 30
0.0
 11
321.2956390166197
 21
252.1469703805713
 31
0.0
  0
LINE
  5
1035
  8
0
 62
     0
 10
311.13563901661939
 20
252.1469703805713
 30
0.0
 11
311.13563901661939
 21
252.1469703805713
 31
0.0
  0
LINE
  5
1036
  8
0
 62
     0
 10
310.5006390166194
 20
252.1469703805713
 30
0.0
 11
310.5006390166194
 21
252.1469703805713
 31
0.0
  0
LINE
  5
1037
  8
0
 62
     0
 10
309.86563901661941
 20
252.1469703805713
 30
0.0
 11
309.86563901661941
 21
252.1469703805713
 31
0.0
  0
LINE
  5
1038
  8
0
 62
     0
 10
309.23063901661942
 20
252.1469703805713
 30
0.0
 11
309.23063901661942
 21
252.1469703805713
 31
0.0
  0
LINE
  5
1039
  8
0
 62
     0
 10
308.59563901661937
 20
252.1469703805713
 30
0.0
 11
308.59563901661937
 21
252.1469703805713
 31
0.0
  0
LINE
  5
103A
  8
0
 62
     0
 10
307.96063901661938
 20
252.1469703805713
 30
0.0
 11
307.96063901661938
 21
252.1469703805713
 31
0.0
  0
LINE
  5
103B
  8
0
 62
     0
 10
307.3256390166195
 20
252.1469703805713
 30
0.0
 11
307.3256390166195
 21
252.1469703805713
 31
0.0
  0
LINE
  5
103C
  8
0
 62
     0
 10
306.69063901661951
 20
252.1469703805713
 30
0.0
 11
306.69063901661951
 21
252.1469703805713
 31
0.0
  0
LINE
  5
103D
  8
0
 62
     0
 10
306.05563901661941
 20
252.1469703805713
 30
0.0
 11
306.05563901661941
 21
252.1469703805713
 31
0.0
  0
LINE
  5
103E
  8
0
 62
     0
 10
305.42063901661948
 20
252.1469703805713
 30
0.0
 11
305.42063901661948
 21
252.1469703805713
 31
0.0
  0
LINE
  5
103F
  8
0
 62
     0
 10
304.78563901661948
 20
252.1469703805713
 30
0.0
 11
304.78563901661948
 21
252.1469703805713
 31
0.0
  0
LINE
  5
1040
  8
0
 62
     0
 10
304.15063901661949
 20
252.1469703805713
 30
0.0
 11
304.15063901661949
 21
252.1469703805713
 31
0.0
  0
LINE
  5
1041
  8
0
 62
     0
 10
303.5156390166195
 20
252.1469703805713
 30
0.0
 11
303.5156390166195
 21
252.1469703805713
 31
0.0
  0
LINE
  5
1042
  8
0
 62
     0
 10
302.88063901661951
 20
252.1469703805713
 30
0.0
 11
302.88063901661951
 21
252.1469703805713
 31
0.0
  0
LINE
  5
1043
  8
0
 62
     0
 10
302.24563901661952
 20
252.1469703805713
 30
0.0
 11
302.24563901661952
 21
252.1469703805713
 31
0.0
  0
LINE
  5
1044
  8
0
 62
     0
 10
301.61063901661947
 20
252.1469703805713
 30
0.0
 11
301.61063901661947
 21
252.1469703805713
 31
0.0
  0
LINE
  5
1045
  8
0
 62
     0
 10
300.9756390166196
 20
252.1469703805713
 30
0.0
 11
300.9756390166196
 21
252.1469703805713
 31
0.0
  0
LINE
  5
1046
  8
0
 62
     0
 10
300.34063901661949
 20
252.1469703805713
 30
0.0
 11
300.34063901661949
 21
252.1469703805713
 31
0.0
  0
LINE
  5
1047
  8
0
 62
     0
 10
299.7056390166195
 20
252.1469703805713
 30
0.0
 11
299.7056390166195
 21
252.1469703805713
 31
0.0
  0
LINE
  5
1048
  8
0
 62
     0
 10
299.07063901661962
 20
252.1469703805713
 30
0.0
 11
299.07063901661962
 21
252.1469703805713
 31
0.0
  0
LINE
  5
1049
  8
0
 62
     0
 10
298.43563901661958
 20
252.1469703805713
 30
0.0
 11
298.43563901661958
 21
252.1469703805713
 31
0.0
  0
LINE
  5
104A
  8
0
 62
     0
 10
297.80063901661958
 20
252.1469703805713
 30
0.0
 11
297.80063901661958
 21
252.1469703805713
 31
0.0
  0
LINE
  5
104B
  8
0
 62
     0
 10
297.16563901661959
 20
252.1469703805713
 30
0.0
 11
297.16563901661959
 21
252.1469703805713
 31
0.0
  0
LINE
  5
104C
  8
0
 62
     0
 10
296.5306390166196
 20
252.1469703805713
 30
0.0
 11
296.5306390166196
 21
252.1469703805713
 31
0.0
  0
LINE
  5
104D
  8
0
 62
     0
 10
295.89563901661961
 20
252.1469703805713
 30
0.0
 11
295.89563901661961
 21
252.1469703805713
 31
0.0
  0
LINE
  5
104E
  8
0
 62
     0
 10
295.26063901661962
 20
252.1469703805713
 30
0.0
 11
295.26063901661962
 21
252.1469703805713
 31
0.0
  0
LINE
  5
104F
  8
0
 62
     0
 10
294.62563901661957
 20
252.1469703805713
 30
0.0
 11
294.62563901661957
 21
252.1469703805713
 31
0.0
  0
LINE
  5
1050
  8
0
 62
     0
 10
293.99063901661958
 20
252.1469703805713
 30
0.0
 11
293.99063901661958
 21
252.1469703805713
 31
0.0
  0
LINE
  5
1051
  8
0
 62
     0
 10
293.3556390166197
 20
252.1469703805713
 30
0.0
 11
293.3556390166197
 21
252.1469703805713
 31
0.0
  0
LINE
  5
1052
  8
0
 62
     0
 10
292.72063901661971
 20
252.1469703805713
 30
0.0
 11
292.72063901661971
 21
252.1469703805713
 31
0.0
  0
LINE
  5
1053
  8
0
 62
     0
 10
292.08563901661972
 20
252.1469703805713
 30
0.0
 11
292.08563901661972
 21
252.1469703805713
 31
0.0
  0
LINE
  5
1054
  8
0
 62
     0
 10
291.45063901661968
 20
252.1469703805713
 30
0.0
 11
291.45063901661968
 21
252.1469703805713
 31
0.0
  0
LINE
  5
1055
  8
0
 62
     0
 10
340.66313901661943
 20
252.78197038057141
 30
0.0
 11
340.66313901661943
 21
252.78197038057141
 31
0.0
  0
LINE
  5
1056
  8
0
 62
     0
 10
340.02813901661949
 20
252.78197038057141
 30
0.0
 11
340.02813901661949
 21
252.78197038057141
 31
0.0
  0
LINE
  5
1057
  8
0
 62
     0
 10
339.3931390166195
 20
252.78197038057141
 30
0.0
 11
339.3931390166195
 21
252.78197038057141
 31
0.0
  0
LINE
  5
1058
  8
0
 62
     0
 10
338.7581390166194
 20
252.78197038057141
 30
0.0
 11
338.7581390166194
 21
252.78197038057141
 31
0.0
  0
LINE
  5
1059
  8
0
 62
     0
 10
338.12313901661952
 20
252.78197038057141
 30
0.0
 11
338.12313901661952
 21
252.78197038057141
 31
0.0
  0
LINE
  5
105A
  8
0
 62
     0
 10
337.48813901661953
 20
252.78197038057141
 30
0.0
 11
337.48813901661953
 21
252.78197038057141
 31
0.0
  0
LINE
  5
105B
  8
0
 62
     0
 10
336.85313901661948
 20
252.78197038057141
 30
0.0
 11
336.85313901661948
 21
252.78197038057141
 31
0.0
  0
LINE
  5
105C
  8
0
 62
     0
 10
336.21813901661949
 20
252.78197038057141
 30
0.0
 11
336.21813901661949
 21
252.78197038057141
 31
0.0
  0
LINE
  5
105D
  8
0
 62
     0
 10
335.5831390166195
 20
252.78197038057141
 30
0.0
 11
335.5831390166195
 21
252.78197038057141
 31
0.0
  0
LINE
  5
105E
  8
0
 62
     0
 10
334.94813901661951
 20
252.78197038057141
 30
0.0
 11
334.94813901661951
 21
252.78197038057141
 31
0.0
  0
LINE
  5
105F
  8
0
 62
     0
 10
334.31313901661952
 20
252.78197038057141
 30
0.0
 11
334.31313901661952
 21
252.78197038057141
 31
0.0
  0
LINE
  5
1060
  8
0
 62
     0
 10
333.67813901661953
 20
252.78197038057141
 30
0.0
 11
333.67813901661953
 21
252.78197038057141
 31
0.0
  0
LINE
  5
1061
  8
0
 62
     0
 10
333.04313901661948
 20
252.78197038057141
 30
0.0
 11
333.04313901661948
 21
252.78197038057141
 31
0.0
  0
LINE
  5
1062
  8
0
 62
     0
 10
332.40813901661949
 20
252.78197038057141
 30
0.0
 11
332.40813901661949
 21
252.78197038057141
 31
0.0
  0
LINE
  5
1063
  8
0
 62
     0
 10
331.77313901661961
 20
252.78197038057141
 30
0.0
 11
331.77313901661961
 21
252.78197038057141
 31
0.0
  0
LINE
  5
1064
  8
0
 62
     0
 10
331.13813901661962
 20
252.78197038057141
 30
0.0
 11
331.13813901661962
 21
252.78197038057141
 31
0.0
  0
LINE
  5
1065
  8
0
 62
     0
 10
330.50313901661963
 20
252.78197038057141
 30
0.0
 11
330.50313901661963
 21
252.78197038057141
 31
0.0
  0
LINE
  5
1066
  8
0
 62
     0
 10
329.86813901661958
 20
252.78197038057141
 30
0.0
 11
329.86813901661958
 21
252.78197038057141
 31
0.0
  0
LINE
  5
1067
  8
0
 62
     0
 10
329.23313901661959
 20
252.78197038057141
 30
0.0
 11
329.23313901661959
 21
252.78197038057141
 31
0.0
  0
LINE
  5
1068
  8
0
 62
     0
 10
328.5981390166196
 20
252.78197038057141
 30
0.0
 11
328.5981390166196
 21
252.78197038057141
 31
0.0
  0
LINE
  5
1069
  8
0
 62
     0
 10
327.96313901661961
 20
252.78197038057141
 30
0.0
 11
327.96313901661961
 21
252.78197038057141
 31
0.0
  0
LINE
  5
106A
  8
0
 62
     0
 10
327.32813901661962
 20
252.78197038057141
 30
0.0
 11
327.32813901661962
 21
252.78197038057141
 31
0.0
  0
LINE
  5
106B
  8
0
 62
     0
 10
326.69313901661963
 20
252.78197038057141
 30
0.0
 11
326.69313901661963
 21
252.78197038057141
 31
0.0
  0
LINE
  5
106C
  8
0
 62
     0
 10
326.05813901661958
 20
252.78197038057141
 30
0.0
 11
326.05813901661958
 21
252.78197038057141
 31
0.0
  0
LINE
  5
106D
  8
0
 62
     0
 10
325.4231390166197
 20
252.78197038057141
 30
0.0
 11
325.4231390166197
 21
252.78197038057141
 31
0.0
  0
LINE
  5
106E
  8
0
 62
     0
 10
324.78813901661971
 20
252.78197038057141
 30
0.0
 11
324.78813901661971
 21
252.78197038057141
 31
0.0
  0
LINE
  5
106F
  8
0
 62
     0
 10
324.15313901661972
 20
252.78197038057141
 30
0.0
 11
324.15313901661972
 21
252.78197038057141
 31
0.0
  0
LINE
  5
1070
  8
0
 62
     0
 10
323.51813901661973
 20
252.78197038057141
 30
0.0
 11
323.51813901661973
 21
252.78197038057141
 31
0.0
  0
LINE
  5
1071
  8
0
 62
     0
 10
322.88313901661968
 20
252.78197038057141
 30
0.0
 11
322.88313901661968
 21
252.78197038057141
 31
0.0
  0
LINE
  5
1072
  8
0
 62
     0
 10
322.24813901661969
 20
252.78197038057141
 30
0.0
 11
322.24813901661969
 21
252.78197038057141
 31
0.0
  0
LINE
  5
1073
  8
0
 62
     0
 10
321.6131390166197
 20
252.78197038057141
 30
0.0
 11
321.6131390166197
 21
252.78197038057141
 31
0.0
  0
LINE
  5
1074
  8
0
 62
     0
 10
310.8181390166194
 20
252.78197038057141
 30
0.0
 11
310.8181390166194
 21
252.78197038057141
 31
0.0
  0
LINE
  5
1075
  8
0
 62
     0
 10
310.18313901661941
 20
252.78197038057141
 30
0.0
 11
310.18313901661941
 21
252.78197038057141
 31
0.0
  0
LINE
  5
1076
  8
0
 62
     0
 10
309.54813901661942
 20
252.78197038057141
 30
0.0
 11
309.54813901661942
 21
252.78197038057141
 31
0.0
  0
LINE
  5
1077
  8
0
 62
     0
 10
308.91313901661943
 20
252.78197038057141
 30
0.0
 11
308.91313901661943
 21
252.78197038057141
 31
0.0
  0
LINE
  5
1078
  8
0
 62
     0
 10
308.27813901661938
 20
252.78197038057141
 30
0.0
 11
308.27813901661938
 21
252.78197038057141
 31
0.0
  0
LINE
  5
1079
  8
0
 62
     0
 10
307.64313901661939
 20
252.78197038057141
 30
0.0
 11
307.64313901661939
 21
252.78197038057141
 31
0.0
  0
LINE
  5
107A
  8
0
 62
     0
 10
307.0081390166194
 20
252.78197038057141
 30
0.0
 11
307.0081390166194
 21
252.78197038057141
 31
0.0
  0
LINE
  5
107B
  8
0
 62
     0
 10
306.37313901661952
 20
252.78197038057141
 30
0.0
 11
306.37313901661952
 21
252.78197038057141
 31
0.0
  0
LINE
  5
107C
  8
0
 62
     0
 10
305.73813901661953
 20
252.78197038057141
 30
0.0
 11
305.73813901661953
 21
252.78197038057141
 31
0.0
  0
LINE
  5
107D
  8
0
 62
     0
 10
305.10313901661948
 20
252.78197038057141
 30
0.0
 11
305.10313901661948
 21
252.78197038057141
 31
0.0
  0
LINE
  5
107E
  8
0
 62
     0
 10
304.46813901661949
 20
252.78197038057141
 30
0.0
 11
304.46813901661949
 21
252.78197038057141
 31
0.0
  0
LINE
  5
107F
  8
0
 62
     0
 10
303.8331390166195
 20
252.78197038057141
 30
0.0
 11
303.8331390166195
 21
252.78197038057141
 31
0.0
  0
LINE
  5
1080
  8
0
 62
     0
 10
303.19813901661951
 20
252.78197038057141
 30
0.0
 11
303.19813901661951
 21
252.78197038057141
 31
0.0
  0
LINE
  5
1081
  8
0
 62
     0
 10
302.56313901661952
 20
252.78197038057141
 30
0.0
 11
302.56313901661952
 21
252.78197038057141
 31
0.0
  0
LINE
  5
1082
  8
0
 62
     0
 10
301.92813901661953
 20
252.78197038057141
 30
0.0
 11
301.92813901661953
 21
252.78197038057141
 31
0.0
  0
LINE
  5
1083
  8
0
 62
     0
 10
301.29313901661948
 20
252.78197038057141
 30
0.0
 11
301.29313901661948
 21
252.78197038057141
 31
0.0
  0
LINE
  5
1084
  8
0
 62
     0
 10
300.65813901661949
 20
252.78197038057141
 30
0.0
 11
300.65813901661949
 21
252.78197038057141
 31
0.0
  0
LINE
  5
1085
  8
0
 62
     0
 10
300.02313901661961
 20
252.78197038057141
 30
0.0
 11
300.02313901661961
 21
252.78197038057141
 31
0.0
  0
LINE
  5
1086
  8
0
 62
     0
 10
299.38813901661962
 20
252.78197038057141
 30
0.0
 11
299.38813901661962
 21
252.78197038057141
 31
0.0
  0
LINE
  5
1087
  8
0
 62
     0
 10
298.75313901661963
 20
252.78197038057141
 30
0.0
 11
298.75313901661963
 21
252.78197038057141
 31
0.0
  0
LINE
  5
1088
  8
0
 62
     0
 10
298.11813901661958
 20
252.78197038057141
 30
0.0
 11
298.11813901661958
 21
252.78197038057141
 31
0.0
  0
LINE
  5
1089
  8
0
 62
     0
 10
297.48313901661959
 20
252.78197038057141
 30
0.0
 11
297.48313901661959
 21
252.78197038057141
 31
0.0
  0
LINE
  5
108A
  8
0
 62
     0
 10
296.8481390166196
 20
252.78197038057141
 30
0.0
 11
296.8481390166196
 21
252.78197038057141
 31
0.0
  0
LINE
  5
108B
  8
0
 62
     0
 10
296.21313901661961
 20
252.78197038057141
 30
0.0
 11
296.21313901661961
 21
252.78197038057141
 31
0.0
  0
LINE
  5
108C
  8
0
 62
     0
 10
295.57813901661962
 20
252.78197038057141
 30
0.0
 11
295.57813901661962
 21
252.78197038057141
 31
0.0
  0
LINE
  5
108D
  8
0
 62
     0
 10
294.94313901661963
 20
252.78197038057141
 30
0.0
 11
294.94313901661963
 21
252.78197038057141
 31
0.0
  0
LINE
  5
108E
  8
0
 62
     0
 10
294.30813901661969
 20
252.78197038057141
 30
0.0
 11
294.30813901661969
 21
252.78197038057141
 31
0.0
  0
LINE
  5
108F
  8
0
 62
     0
 10
293.6731390166197
 20
252.78197038057141
 30
0.0
 11
293.6731390166197
 21
252.78197038057141
 31
0.0
  0
LINE
  5
1090
  8
0
 62
     0
 10
293.0381390166196
 20
252.78197038057141
 30
0.0
 11
293.0381390166196
 21
252.78197038057141
 31
0.0
  0
LINE
  5
1091
  8
0
 62
     0
 10
292.40313901661972
 20
252.78197038057141
 30
0.0
 11
292.40313901661972
 21
252.78197038057141
 31
0.0
  0
LINE
  5
1092
  8
0
 62
     0
 10
291.76813901661973
 20
252.78197038057141
 30
0.0
 11
291.76813901661973
 21
252.78197038057141
 31
0.0
  0
LINE
  5
1093
  8
0
 62
     0
 10
340.98063901661942
 20
253.4169703805714
 30
0.0
 11
340.98063901661942
 21
253.4169703805714
 31
0.0
  0
LINE
  5
1094
  8
0
 62
     0
 10
340.34563901661937
 20
253.4169703805714
 30
0.0
 11
340.34563901661937
 21
253.4169703805714
 31
0.0
  0
LINE
  5
1095
  8
0
 62
     0
 10
339.71063901661938
 20
253.4169703805714
 30
0.0
 11
339.71063901661938
 21
253.4169703805714
 31
0.0
  0
LINE
  5
1096
  8
0
 62
     0
 10
339.0756390166195
 20
253.4169703805714
 30
0.0
 11
339.0756390166195
 21
253.4169703805714
 31
0.0
  0
LINE
  5
1097
  8
0
 62
     0
 10
338.44063901661951
 20
253.4169703805714
 30
0.0
 11
338.44063901661951
 21
253.4169703805714
 31
0.0
  0
LINE
  5
1098
  8
0
 62
     0
 10
337.80563901661952
 20
253.4169703805714
 30
0.0
 11
337.80563901661952
 21
253.4169703805714
 31
0.0
  0
LINE
  5
1099
  8
0
 62
     0
 10
337.17063901661948
 20
253.4169703805714
 30
0.0
 11
337.17063901661948
 21
253.4169703805714
 31
0.0
  0
LINE
  5
109A
  8
0
 62
     0
 10
336.53563901661948
 20
253.4169703805714
 30
0.0
 11
336.53563901661948
 21
253.4169703805714
 31
0.0
  0
LINE
  5
109B
  8
0
 62
     0
 10
335.90063901661949
 20
253.4169703805714
 30
0.0
 11
335.90063901661949
 21
253.4169703805714
 31
0.0
  0
LINE
  5
109C
  8
0
 62
     0
 10
335.2656390166195
 20
253.4169703805714
 30
0.0
 11
335.2656390166195
 21
253.4169703805714
 31
0.0
  0
LINE
  5
109D
  8
0
 62
     0
 10
334.63063901661951
 20
253.4169703805714
 30
0.0
 11
334.63063901661951
 21
253.4169703805714
 31
0.0
  0
LINE
  5
109E
  8
0
 62
     0
 10
333.99563901661952
 20
253.4169703805714
 30
0.0
 11
333.99563901661952
 21
253.4169703805714
 31
0.0
  0
LINE
  5
109F
  8
0
 62
     0
 10
333.36063901661947
 20
253.4169703805714
 30
0.0
 11
333.36063901661947
 21
253.4169703805714
 31
0.0
  0
LINE
  5
10A0
  8
0
 62
     0
 10
332.7256390166196
 20
253.4169703805714
 30
0.0
 11
332.7256390166196
 21
253.4169703805714
 31
0.0
  0
LINE
  5
10A1
  8
0
 62
     0
 10
332.0906390166196
 20
253.4169703805714
 30
0.0
 11
332.0906390166196
 21
253.4169703805714
 31
0.0
  0
LINE
  5
10A2
  8
0
 62
     0
 10
331.45563901661961
 20
253.4169703805714
 30
0.0
 11
331.45563901661961
 21
253.4169703805714
 31
0.0
  0
LINE
  5
10A3
  8
0
 62
     0
 10
330.82063901661951
 20
253.4169703805714
 30
0.0
 11
330.82063901661951
 21
253.4169703805714
 31
0.0
  0
LINE
  5
10A4
  8
0
 62
     0
 10
330.18563901661958
 20
253.4169703805714
 30
0.0
 11
330.18563901661958
 21
253.4169703805714
 31
0.0
  0
LINE
  5
10A5
  8
0
 62
     0
 10
329.55063901661958
 20
253.4169703805714
 30
0.0
 11
329.55063901661958
 21
253.4169703805714
 31
0.0
  0
LINE
  5
10A6
  8
0
 62
     0
 10
328.91563901661959
 20
253.4169703805714
 30
0.0
 11
328.91563901661959
 21
253.4169703805714
 31
0.0
  0
LINE
  5
10A7
  8
0
 62
     0
 10
328.2806390166196
 20
253.4169703805714
 30
0.0
 11
328.2806390166196
 21
253.4169703805714
 31
0.0
  0
LINE
  5
10A8
  8
0
 62
     0
 10
327.64563901661961
 20
253.4169703805714
 30
0.0
 11
327.64563901661961
 21
253.4169703805714
 31
0.0
  0
LINE
  5
10A9
  8
0
 62
     0
 10
327.01063901661962
 20
253.4169703805714
 30
0.0
 11
327.01063901661962
 21
253.4169703805714
 31
0.0
  0
LINE
  5
10AA
  8
0
 62
     0
 10
326.37563901661969
 20
253.4169703805714
 30
0.0
 11
326.37563901661969
 21
253.4169703805714
 31
0.0
  0
LINE
  5
10AB
  8
0
 62
     0
 10
325.74063901661958
 20
253.4169703805714
 30
0.0
 11
325.74063901661958
 21
253.4169703805714
 31
0.0
  0
LINE
  5
10AC
  8
0
 62
     0
 10
325.10563901661959
 20
253.4169703805714
 30
0.0
 11
325.10563901661959
 21
253.4169703805714
 31
0.0
  0
LINE
  5
10AD
  8
0
 62
     0
 10
324.4706390166196
 20
253.4169703805714
 30
0.0
 11
324.4706390166196
 21
253.4169703805714
 31
0.0
  0
LINE
  5
10AE
  8
0
 62
     0
 10
323.83563901661972
 20
253.4169703805714
 30
0.0
 11
323.83563901661972
 21
253.4169703805714
 31
0.0
  0
LINE
  5
10AF
  8
0
 62
     0
 10
323.20063901661968
 20
253.4169703805714
 30
0.0
 11
323.20063901661968
 21
253.4169703805714
 31
0.0
  0
LINE
  5
10B0
  8
0
 62
     0
 10
322.56563901661968
 20
253.4169703805714
 30
0.0
 11
322.56563901661968
 21
253.4169703805714
 31
0.0
  0
LINE
  5
10B1
  8
0
 62
     0
 10
321.93063901661969
 20
253.4169703805714
 30
0.0
 11
321.93063901661969
 21
253.4169703805714
 31
0.0
  0
LINE
  5
10B2
  8
0
 62
     0
 10
321.2956390166197
 20
253.4169703805714
 30
0.0
 11
321.2956390166197
 21
253.4169703805714
 31
0.0
  0
LINE
  5
10B3
  8
0
 62
     0
 10
311.13563901661939
 20
253.4169703805714
 30
0.0
 11
311.13563901661939
 21
253.4169703805714
 31
0.0
  0
LINE
  5
10B4
  8
0
 62
     0
 10
310.5006390166194
 20
253.4169703805714
 30
0.0
 11
310.5006390166194
 21
253.4169703805714
 31
0.0
  0
LINE
  5
10B5
  8
0
 62
     0
 10
309.86563901661941
 20
253.4169703805714
 30
0.0
 11
309.86563901661941
 21
253.4169703805714
 31
0.0
  0
LINE
  5
10B6
  8
0
 62
     0
 10
309.23063901661942
 20
253.4169703805714
 30
0.0
 11
309.23063901661942
 21
253.4169703805714
 31
0.0
  0
LINE
  5
10B7
  8
0
 62
     0
 10
308.59563901661937
 20
253.4169703805714
 30
0.0
 11
308.59563901661937
 21
253.4169703805714
 31
0.0
  0
LINE
  5
10B8
  8
0
 62
     0
 10
307.96063901661938
 20
253.4169703805714
 30
0.0
 11
307.96063901661938
 21
253.4169703805714
 31
0.0
  0
LINE
  5
10B9
  8
0
 62
     0
 10
307.3256390166195
 20
253.4169703805714
 30
0.0
 11
307.3256390166195
 21
253.4169703805714
 31
0.0
  0
LINE
  5
10BA
  8
0
 62
     0
 10
306.69063901661951
 20
253.4169703805714
 30
0.0
 11
306.69063901661951
 21
253.4169703805714
 31
0.0
  0
LINE
  5
10BB
  8
0
 62
     0
 10
306.05563901661941
 20
253.4169703805714
 30
0.0
 11
306.05563901661941
 21
253.4169703805714
 31
0.0
  0
LINE
  5
10BC
  8
0
 62
     0
 10
305.42063901661948
 20
253.4169703805714
 30
0.0
 11
305.42063901661948
 21
253.4169703805714
 31
0.0
  0
LINE
  5
10BD
  8
0
 62
     0
 10
304.78563901661948
 20
253.4169703805714
 30
0.0
 11
304.78563901661948
 21
253.4169703805714
 31
0.0
  0
LINE
  5
10BE
  8
0
 62
     0
 10
304.15063901661949
 20
253.4169703805714
 30
0.0
 11
304.15063901661949
 21
253.4169703805714
 31
0.0
  0
LINE
  5
10BF
  8
0
 62
     0
 10
303.5156390166195
 20
253.4169703805714
 30
0.0
 11
303.5156390166195
 21
253.4169703805714
 31
0.0
  0
LINE
  5
10C0
  8
0
 62
     0
 10
302.88063901661951
 20
253.4169703805714
 30
0.0
 11
302.88063901661951
 21
253.4169703805714
 31
0.0
  0
LINE
  5
10C1
  8
0
 62
     0
 10
302.24563901661952
 20
253.4169703805714
 30
0.0
 11
302.24563901661952
 21
253.4169703805714
 31
0.0
  0
LINE
  5
10C2
  8
0
 62
     0
 10
301.61063901661947
 20
253.4169703805714
 30
0.0
 11
301.61063901661947
 21
253.4169703805714
 31
0.0
  0
LINE
  5
10C3
  8
0
 62
     0
 10
300.9756390166196
 20
253.4169703805714
 30
0.0
 11
300.9756390166196
 21
253.4169703805714
 31
0.0
  0
LINE
  5
10C4
  8
0
 62
     0
 10
300.34063901661949
 20
253.4169703805714
 30
0.0
 11
300.34063901661949
 21
253.4169703805714
 31
0.0
  0
LINE
  5
10C5
  8
0
 62
     0
 10
299.7056390166195
 20
253.4169703805714
 30
0.0
 11
299.7056390166195
 21
253.4169703805714
 31
0.0
  0
LINE
  5
10C6
  8
0
 62
     0
 10
299.07063901661962
 20
253.4169703805714
 30
0.0
 11
299.07063901661962
 21
253.4169703805714
 31
0.0
  0
LINE
  5
10C7
  8
0
 62
     0
 10
298.43563901661958
 20
253.4169703805714
 30
0.0
 11
298.43563901661958
 21
253.4169703805714
 31
0.0
  0
LINE
  5
10C8
  8
0
 62
     0
 10
297.80063901661958
 20
253.4169703805714
 30
0.0
 11
297.80063901661958
 21
253.4169703805714
 31
0.0
  0
LINE
  5
10C9
  8
0
 62
     0
 10
297.16563901661959
 20
253.4169703805714
 30
0.0
 11
297.16563901661959
 21
253.4169703805714
 31
0.0
  0
LINE
  5
10CA
  8
0
 62
     0
 10
296.5306390166196
 20
253.4169703805714
 30
0.0
 11
296.5306390166196
 21
253.4169703805714
 31
0.0
  0
LINE
  5
10CB
  8
0
 62
     0
 10
295.89563901661961
 20
253.4169703805714
 30
0.0
 11
295.89563901661961
 21
253.4169703805714
 31
0.0
  0
LINE
  5
10CC
  8
0
 62
     0
 10
295.26063901661962
 20
253.4169703805714
 30
0.0
 11
295.26063901661962
 21
253.4169703805714
 31
0.0
  0
LINE
  5
10CD
  8
0
 62
     0
 10
294.62563901661957
 20
253.4169703805714
 30
0.0
 11
294.62563901661957
 21
253.4169703805714
 31
0.0
  0
LINE
  5
10CE
  8
0
 62
     0
 10
293.99063901661958
 20
253.4169703805714
 30
0.0
 11
293.99063901661958
 21
253.4169703805714
 31
0.0
  0
LINE
  5
10CF
  8
0
 62
     0
 10
293.3556390166197
 20
253.4169703805714
 30
0.0
 11
293.3556390166197
 21
253.4169703805714
 31
0.0
  0
LINE
  5
10D0
  8
0
 62
     0
 10
292.72063901661971
 20
253.4169703805714
 30
0.0
 11
292.72063901661971
 21
253.4169703805714
 31
0.0
  0
LINE
  5
10D1
  8
0
 62
     0
 10
292.08563901661972
 20
253.4169703805714
 30
0.0
 11
292.08563901661972
 21
253.4169703805714
 31
0.0
  0
LINE
  5
10D2
  8
0
 62
     0
 10
291.45063901661968
 20
253.4169703805714
 30
0.0
 11
291.45063901661968
 21
253.4169703805714
 31
0.0
  0
LINE
  5
10D3
  8
0
 62
     0
 10
340.66313901661943
 20
254.0519703805713
 30
0.0
 11
340.66313901661943
 21
254.0519703805713
 31
0.0
  0
LINE
  5
10D4
  8
0
 62
     0
 10
340.02813901661949
 20
254.0519703805713
 30
0.0
 11
340.02813901661949
 21
254.0519703805713
 31
0.0
  0
LINE
  5
10D5
  8
0
 62
     0
 10
339.3931390166195
 20
254.0519703805713
 30
0.0
 11
339.3931390166195
 21
254.0519703805713
 31
0.0
  0
LINE
  5
10D6
  8
0
 62
     0
 10
338.7581390166194
 20
254.0519703805713
 30
0.0
 11
338.7581390166194
 21
254.0519703805713
 31
0.0
  0
LINE
  5
10D7
  8
0
 62
     0
 10
338.12313901661952
 20
254.0519703805713
 30
0.0
 11
338.12313901661952
 21
254.0519703805713
 31
0.0
  0
LINE
  5
10D8
  8
0
 62
     0
 10
337.48813901661953
 20
254.0519703805713
 30
0.0
 11
337.48813901661953
 21
254.0519703805713
 31
0.0
  0
LINE
  5
10D9
  8
0
 62
     0
 10
336.85313901661948
 20
254.0519703805713
 30
0.0
 11
336.85313901661948
 21
254.0519703805713
 31
0.0
  0
LINE
  5
10DA
  8
0
 62
     0
 10
336.21813901661949
 20
254.0519703805713
 30
0.0
 11
336.21813901661949
 21
254.0519703805713
 31
0.0
  0
LINE
  5
10DB
  8
0
 62
     0
 10
335.5831390166195
 20
254.0519703805713
 30
0.0
 11
335.5831390166195
 21
254.0519703805713
 31
0.0
  0
LINE
  5
10DC
  8
0
 62
     0
 10
334.94813901661951
 20
254.0519703805713
 30
0.0
 11
334.94813901661951
 21
254.0519703805713
 31
0.0
  0
LINE
  5
10DD
  8
0
 62
     0
 10
334.31313901661952
 20
254.0519703805713
 30
0.0
 11
334.31313901661952
 21
254.0519703805713
 31
0.0
  0
LINE
  5
10DE
  8
0
 62
     0
 10
333.67813901661953
 20
254.0519703805713
 30
0.0
 11
333.67813901661953
 21
254.0519703805713
 31
0.0
  0
LINE
  5
10DF
  8
0
 62
     0
 10
333.04313901661948
 20
254.0519703805713
 30
0.0
 11
333.04313901661948
 21
254.0519703805713
 31
0.0
  0
LINE
  5
10E0
  8
0
 62
     0
 10
332.40813901661949
 20
254.0519703805713
 30
0.0
 11
332.40813901661949
 21
254.0519703805713
 31
0.0
  0
LINE
  5
10E1
  8
0
 62
     0
 10
331.77313901661961
 20
254.0519703805713
 30
0.0
 11
331.77313901661961
 21
254.0519703805713
 31
0.0
  0
LINE
  5
10E2
  8
0
 62
     0
 10
331.13813901661962
 20
254.0519703805713
 30
0.0
 11
331.13813901661962
 21
254.0519703805713
 31
0.0
  0
LINE
  5
10E3
  8
0
 62
     0
 10
330.50313901661963
 20
254.0519703805713
 30
0.0
 11
330.50313901661963
 21
254.0519703805713
 31
0.0
  0
LINE
  5
10E4
  8
0
 62
     0
 10
329.86813901661958
 20
254.0519703805713
 30
0.0
 11
329.86813901661958
 21
254.0519703805713
 31
0.0
  0
LINE
  5
10E5
  8
0
 62
     0
 10
329.23313901661959
 20
254.0519703805713
 30
0.0
 11
329.23313901661959
 21
254.0519703805713
 31
0.0
  0
LINE
  5
10E6
  8
0
 62
     0
 10
328.5981390166196
 20
254.0519703805713
 30
0.0
 11
328.5981390166196
 21
254.0519703805713
 31
0.0
  0
LINE
  5
10E7
  8
0
 62
     0
 10
327.96313901661961
 20
254.0519703805713
 30
0.0
 11
327.96313901661961
 21
254.0519703805713
 31
0.0
  0
LINE
  5
10E8
  8
0
 62
     0
 10
327.32813901661962
 20
254.0519703805713
 30
0.0
 11
327.32813901661962
 21
254.0519703805713
 31
0.0
  0
LINE
  5
10E9
  8
0
 62
     0
 10
326.69313901661963
 20
254.0519703805713
 30
0.0
 11
326.69313901661963
 21
254.0519703805713
 31
0.0
  0
LINE
  5
10EA
  8
0
 62
     0
 10
326.05813901661958
 20
254.0519703805713
 30
0.0
 11
326.05813901661958
 21
254.0519703805713
 31
0.0
  0
LINE
  5
10EB
  8
0
 62
     0
 10
325.4231390166197
 20
254.0519703805713
 30
0.0
 11
325.4231390166197
 21
254.0519703805713
 31
0.0
  0
LINE
  5
10EC
  8
0
 62
     0
 10
324.78813901661971
 20
254.0519703805713
 30
0.0
 11
324.78813901661971
 21
254.0519703805713
 31
0.0
  0
LINE
  5
10ED
  8
0
 62
     0
 10
324.15313901661972
 20
254.0519703805713
 30
0.0
 11
324.15313901661972
 21
254.0519703805713
 31
0.0
  0
LINE
  5
10EE
  8
0
 62
     0
 10
323.51813901661973
 20
254.0519703805713
 30
0.0
 11
323.51813901661973
 21
254.0519703805713
 31
0.0
  0
LINE
  5
10EF
  8
0
 62
     0
 10
322.88313901661968
 20
254.0519703805713
 30
0.0
 11
322.88313901661968
 21
254.0519703805713
 31
0.0
  0
LINE
  5
10F0
  8
0
 62
     0
 10
322.24813901661969
 20
254.0519703805713
 30
0.0
 11
322.24813901661969
 21
254.0519703805713
 31
0.0
  0
LINE
  5
10F1
  8
0
 62
     0
 10
321.6131390166197
 20
254.0519703805713
 30
0.0
 11
321.6131390166197
 21
254.0519703805713
 31
0.0
  0
LINE
  5
10F2
  8
0
 62
     0
 10
310.8181390166194
 20
254.0519703805713
 30
0.0
 11
310.8181390166194
 21
254.0519703805713
 31
0.0
  0
LINE
  5
10F3
  8
0
 62
     0
 10
310.18313901661941
 20
254.0519703805713
 30
0.0
 11
310.18313901661941
 21
254.0519703805713
 31
0.0
  0
LINE
  5
10F4
  8
0
 62
     0
 10
309.54813901661942
 20
254.0519703805713
 30
0.0
 11
309.54813901661942
 21
254.0519703805713
 31
0.0
  0
LINE
  5
10F5
  8
0
 62
     0
 10
308.91313901661943
 20
254.0519703805713
 30
0.0
 11
308.91313901661943
 21
254.0519703805713
 31
0.0
  0
LINE
  5
10F6
  8
0
 62
     0
 10
308.27813901661938
 20
254.0519703805713
 30
0.0
 11
308.27813901661938
 21
254.0519703805713
 31
0.0
  0
LINE
  5
10F7
  8
0
 62
     0
 10
307.64313901661939
 20
254.0519703805713
 30
0.0
 11
307.64313901661939
 21
254.0519703805713
 31
0.0
  0
LINE
  5
10F8
  8
0
 62
     0
 10
307.0081390166194
 20
254.0519703805713
 30
0.0
 11
307.0081390166194
 21
254.0519703805713
 31
0.0
  0
LINE
  5
10F9
  8
0
 62
     0
 10
306.37313901661952
 20
254.0519703805713
 30
0.0
 11
306.37313901661952
 21
254.0519703805713
 31
0.0
  0
LINE
  5
10FA
  8
0
 62
     0
 10
305.73813901661953
 20
254.0519703805713
 30
0.0
 11
305.73813901661953
 21
254.0519703805713
 31
0.0
  0
LINE
  5
10FB
  8
0
 62
     0
 10
305.10313901661948
 20
254.0519703805713
 30
0.0
 11
305.10313901661948
 21
254.0519703805713
 31
0.0
  0
LINE
  5
10FC
  8
0
 62
     0
 10
304.46813901661949
 20
254.0519703805713
 30
0.0
 11
304.46813901661949
 21
254.0519703805713
 31
0.0
  0
LINE
  5
10FD
  8
0
 62
     0
 10
303.8331390166195
 20
254.0519703805713
 30
0.0
 11
303.8331390166195
 21
254.0519703805713
 31
0.0
  0
LINE
  5
10FE
  8
0
 62
     0
 10
303.19813901661951
 20
254.0519703805713
 30
0.0
 11
303.19813901661951
 21
254.0519703805713
 31
0.0
  0
LINE
  5
10FF
  8
0
 62
     0
 10
302.56313901661952
 20
254.0519703805713
 30
0.0
 11
302.56313901661952
 21
254.0519703805713
 31
0.0
  0
LINE
  5
1100
  8
0
 62
     0
 10
301.92813901661953
 20
254.0519703805713
 30
0.0
 11
301.92813901661953
 21
254.0519703805713
 31
0.0
  0
LINE
  5
1101
  8
0
 62
     0
 10
301.29313901661948
 20
254.0519703805713
 30
0.0
 11
301.29313901661948
 21
254.0519703805713
 31
0.0
  0
LINE
  5
1102
  8
0
 62
     0
 10
300.65813901661949
 20
254.0519703805713
 30
0.0
 11
300.65813901661949
 21
254.0519703805713
 31
0.0
  0
LINE
  5
1103
  8
0
 62
     0
 10
300.02313901661961
 20
254.0519703805713
 30
0.0
 11
300.02313901661961
 21
254.0519703805713
 31
0.0
  0
LINE
  5
1104
  8
0
 62
     0
 10
299.38813901661962
 20
254.0519703805713
 30
0.0
 11
299.38813901661962
 21
254.0519703805713
 31
0.0
  0
LINE
  5
1105
  8
0
 62
     0
 10
298.75313901661963
 20
254.0519703805713
 30
0.0
 11
298.75313901661963
 21
254.0519703805713
 31
0.0
  0
LINE
  5
1106
  8
0
 62
     0
 10
298.11813901661958
 20
254.0519703805713
 30
0.0
 11
298.11813901661958
 21
254.0519703805713
 31
0.0
  0
LINE
  5
1107
  8
0
 62
     0
 10
297.48313901661959
 20
254.0519703805713
 30
0.0
 11
297.48313901661959
 21
254.0519703805713
 31
0.0
  0
LINE
  5
1108
  8
0
 62
     0
 10
296.8481390166196
 20
254.0519703805713
 30
0.0
 11
296.8481390166196
 21
254.0519703805713
 31
0.0
  0
LINE
  5
1109
  8
0
 62
     0
 10
296.21313901661961
 20
254.0519703805713
 30
0.0
 11
296.21313901661961
 21
254.0519703805713
 31
0.0
  0
LINE
  5
110A
  8
0
 62
     0
 10
295.57813901661962
 20
254.0519703805713
 30
0.0
 11
295.57813901661962
 21
254.0519703805713
 31
0.0
  0
LINE
  5
110B
  8
0
 62
     0
 10
294.94313901661963
 20
254.0519703805713
 30
0.0
 11
294.94313901661963
 21
254.0519703805713
 31
0.0
  0
LINE
  5
110C
  8
0
 62
     0
 10
294.30813901661969
 20
254.0519703805713
 30
0.0
 11
294.30813901661969
 21
254.0519703805713
 31
0.0
  0
LINE
  5
110D
  8
0
 62
     0
 10
293.6731390166197
 20
254.0519703805713
 30
0.0
 11
293.6731390166197
 21
254.0519703805713
 31
0.0
  0
LINE
  5
110E
  8
0
 62
     0
 10
293.0381390166196
 20
254.0519703805713
 30
0.0
 11
293.0381390166196
 21
254.0519703805713
 31
0.0
  0
LINE
  5
110F
  8
0
 62
     0
 10
292.40313901661972
 20
254.0519703805713
 30
0.0
 11
292.40313901661972
 21
254.0519703805713
 31
0.0
  0
LINE
  5
1110
  8
0
 62
     0
 10
291.76813901661973
 20
254.0519703805713
 30
0.0
 11
291.76813901661973
 21
254.0519703805713
 31
0.0
  0
LINE
  5
1111
  8
0
 62
     0
 10
330.82063901661951
 20
254.68697038057141
 30
0.0
 11
330.82063901661951
 21
254.68697038057141
 31
0.0
  0
LINE
  5
1112
  8
0
 62
     0
 10
330.18563901661958
 20
254.68697038057141
 30
0.0
 11
330.18563901661958
 21
254.68697038057141
 31
0.0
  0
LINE
  5
1113
  8
0
 62
     0
 10
329.55063901661958
 20
254.68697038057141
 30
0.0
 11
329.55063901661958
 21
254.68697038057141
 31
0.0
  0
LINE
  5
1114
  8
0
 62
     0
 10
328.91563901661959
 20
254.68697038057141
 30
0.0
 11
328.91563901661959
 21
254.68697038057141
 31
0.0
  0
LINE
  5
1115
  8
0
 62
     0
 10
328.2806390166196
 20
254.68697038057141
 30
0.0
 11
328.2806390166196
 21
254.68697038057141
 31
0.0
  0
LINE
  5
1116
  8
0
 62
     0
 10
327.64563901661961
 20
254.68697038057141
 30
0.0
 11
327.64563901661961
 21
254.68697038057141
 31
0.0
  0
LINE
  5
1117
  8
0
 62
     0
 10
327.01063901661962
 20
254.68697038057141
 30
0.0
 11
327.01063901661962
 21
254.68697038057141
 31
0.0
  0
LINE
  5
1118
  8
0
 62
     0
 10
326.37563901661969
 20
254.68697038057141
 30
0.0
 11
326.37563901661969
 21
254.68697038057141
 31
0.0
  0
LINE
  5
1119
  8
0
 62
     0
 10
325.74063901661958
 20
254.68697038057141
 30
0.0
 11
325.74063901661958
 21
254.68697038057141
 31
0.0
  0
LINE
  5
111A
  8
0
 62
     0
 10
325.10563901661959
 20
254.68697038057141
 30
0.0
 11
325.10563901661959
 21
254.68697038057141
 31
0.0
  0
LINE
  5
111B
  8
0
 62
     0
 10
324.4706390166196
 20
254.68697038057141
 30
0.0
 11
324.4706390166196
 21
254.68697038057141
 31
0.0
  0
LINE
  5
111C
  8
0
 62
     0
 10
323.83563901661972
 20
254.68697038057141
 30
0.0
 11
323.83563901661972
 21
254.68697038057141
 31
0.0
  0
LINE
  5
111D
  8
0
 62
     0
 10
323.20063901661968
 20
254.68697038057141
 30
0.0
 11
323.20063901661968
 21
254.68697038057141
 31
0.0
  0
LINE
  5
111E
  8
0
 62
     0
 10
322.56563901661968
 20
254.68697038057141
 30
0.0
 11
322.56563901661968
 21
254.68697038057141
 31
0.0
  0
LINE
  5
111F
  8
0
 62
     0
 10
321.93063901661969
 20
254.68697038057141
 30
0.0
 11
321.93063901661969
 21
254.68697038057141
 31
0.0
  0
LINE
  5
1120
  8
0
 62
     0
 10
321.2956390166197
 20
254.68697038057141
 30
0.0
 11
321.2956390166197
 21
254.68697038057141
 31
0.0
  0
LINE
  5
1121
  8
0
 62
     0
 10
311.13563901661962
 20
254.68697038057141
 30
0.0
 11
311.13563901661962
 21
254.68697038057141
 31
0.0
  0
LINE
  5
1122
  8
0
 62
     0
 10
310.50063901661957
 20
254.68697038057141
 30
0.0
 11
310.50063901661957
 21
254.68697038057141
 31
0.0
  0
LINE
  5
1123
  8
0
 62
     0
 10
309.86563901661958
 20
254.68697038057141
 30
0.0
 11
309.86563901661958
 21
254.68697038057141
 31
0.0
  0
LINE
  5
1124
  8
0
 62
     0
 10
309.23063901661959
 20
254.68697038057141
 30
0.0
 11
309.23063901661959
 21
254.68697038057141
 31
0.0
  0
LINE
  5
1125
  8
0
 62
     0
 10
308.5956390166196
 20
254.68697038057141
 30
0.0
 11
308.5956390166196
 21
254.68697038057141
 31
0.0
  0
LINE
  5
1126
  8
0
 62
     0
 10
307.96063901661961
 20
254.68697038057141
 30
0.0
 11
307.96063901661961
 21
254.68697038057141
 31
0.0
  0
LINE
  5
1127
  8
0
 62
     0
 10
307.32563901661962
 20
254.68697038057141
 30
0.0
 11
307.32563901661962
 21
254.68697038057141
 31
0.0
  0
LINE
  5
1128
  8
0
 62
     0
 10
306.69063901661963
 20
254.68697038057141
 30
0.0
 11
306.69063901661963
 21
254.68697038057141
 31
0.0
  0
LINE
  5
1129
  8
0
 62
     0
 10
306.05563901661958
 20
254.68697038057141
 30
0.0
 11
306.05563901661958
 21
254.68697038057141
 31
0.0
  0
LINE
  5
112A
  8
0
 62
     0
 10
305.42063901661959
 20
254.68697038057141
 30
0.0
 11
305.42063901661959
 21
254.68697038057141
 31
0.0
  0
LINE
  5
112B
  8
0
 62
     0
 10
304.78563901661971
 20
254.68697038057141
 30
0.0
 11
304.78563901661971
 21
254.68697038057141
 31
0.0
  0
LINE
  5
112C
  8
0
 62
     0
 10
304.15063901661972
 20
254.68697038057141
 30
0.0
 11
304.15063901661972
 21
254.68697038057141
 31
0.0
  0
LINE
  5
112D
  8
0
 62
     0
 10
303.51563901661967
 20
254.68697038057141
 30
0.0
 11
303.51563901661967
 21
254.68697038057141
 31
0.0
  0
LINE
  5
112E
  8
0
 62
     0
 10
302.88063901661968
 20
254.68697038057141
 30
0.0
 11
302.88063901661968
 21
254.68697038057141
 31
0.0
  0
LINE
  5
112F
  8
0
 62
     0
 10
302.24563901661969
 20
254.68697038057141
 30
0.0
 11
302.24563901661969
 21
254.68697038057141
 31
0.0
  0
LINE
  5
1130
  8
0
 62
     0
 10
301.6106390166197
 20
254.68697038057141
 30
0.0
 11
301.6106390166197
 21
254.68697038057141
 31
0.0
  0
ENDBLK
  5
1132
  8
0
  0
BLOCK
  8
0
  2
*U14
 70
     1
 10
0.0
 20
0.0
 30
0.0
  3
*U14
  1

  0
TEXT
  5
1134
  8
0
 62
     6
 10
323.98087463957307
 20
286.91071170056182
 30
0.0
 40
2.5
  1
70
  7
STYLE3
  0
ENDBLK
  5
1136
  8
0
  0
BLOCK
  8
0
  2
*U15
 70
     1
 10
0.0
 20
0.0
 30
0.0
  3
*U15
  1

  0
TEXT
  5
1138
  8
0
 62
     6
 10
432.44606579868321
 20
266.00768208113323
 30
0.0
 40
2.5
  1
5.75
  7
STYLE3
  0
ENDBLK
  5
113A
  8
0
  0
BLOCK
  8
0
  2
*U16
 70
     1
 10
0.0
 20
0.0
 30
0.0
  3
*U16
  1

  0
TEXT
  5
113C
  8
0
 62
     6
 10
384.58147952291091
 20
260.079794631119
 30
0.0
 40
2.5
  1
12.7
  7
STYLE3
  0
ENDBLK
  5
113E
  8
0
  0
BLOCK
  8
0
  2
*U17
 70
     1
 10
0.0
 20
0.0
 30
0.0
  3
*U17
  1

  0
TEXT
  5
1144
  8
外形線
 62
     6
 10
391.33049172274809
 20
241.60921835387339
 30
0.0
 40
2.5
  1
φ10
 50
90.0
  7
STYLE3
  0
ENDBLK
  5
1146
  8
0
  0
BLOCK
  8
0
  2
*U18
 70
     1
 10
0.0
 20
0.0
 30
0.0
  3
*U18
  1

  0
TEXT
  5
1148
  8
中心線
 62
     6
 10
416.73297056058772
 20
328.29695238359341
 30
0.0
 40
2.5
  1
11.5
  7
STYLE3
  0
ENDBLK
  5
114A
  8
0
  0
BLOCK
  8
0
  2
*U19
 70
     1
 10
0.0
 20
0.0
 30
0.0
  3
*U19
  1

  0
TEXT
  5
114C
  8
中心線
 62
     6
 10
438.58852664463552
 20
310.46973363952822
 30
0.0
 40
2.5
  1
13
 50
90.0
  7
STYLE3
  0
ENDBLK
  5
114E
  8
0
  0
BLOCK
  8
0
  2
*U20
 70
     1
 10
0.0
 20
0.0
 30
0.0
  3
*U20
  1

  0
TEXT
  5
1150
  8
寸法線
 62
     6
 10
267.30651365619269
 20
266.00768208113323
 30
0.0
 40
2.5
  1
23
  7
STYLE3
  0
ENDBLK
  5
1152
  8
0
  0
ENDSEC
  0
SECTION
  2
ENTITIES
  0
POLYLINE
  5
10B
  8
C
 66
     1
 10
0.0
 20
0.0
 30
0.0
 40
0.4
 41
0.4
  0
VERTEX
  5
C27
  8
C
 10
236.69156044454141
 20
366.85017525553718
 30
0.0
  0
VERTEX
  5
C28
  8
C
 10
491.69156044454138
 20
366.85017525553718
 30
0.0
  0
VERTEX
  5
C29
  8
C
 10
491.69156044454138
 20
171.85017525553721
 30
0.0
  0
VERTEX
  5
C2A
  8
C
 10
236.69156044454141
 20
171.85017525553721
 30
0.0
  0
VERTEX
  5
C2B
  8
C
 10
236.69156044454141
 20
366.85017525553718
 30
0.0
  0
SEQEND
  5
C2C
  8
C
  0
LINE
  5
16A
  8
中心線
 10
255.25524743593871
 20
245.06159930625441
 30
0.0
 11
430.3698317833605
 21
245.06159930625421
 31
0.0
  0
LINE
  5
16C
  8
外形線
 10
321.1874660371451
 20
255.0209131299078
 30
0.0
 11
321.1874660371451
 21
249.06159930625429
 31
0.0
1001
ACAD
1000
ASC_BOUNDS
1002
{
1070
    19
1005
317
1002
}
  0
LINE
  5
16D
  8
外形線
 10
341.1874660371451
 20
254.04282322047251
 30
0.0
 11
341.18746603714521
 21
247.06159930625429
 31
0.0
1001
ACAD
1000
ASC_BOUNDS
1002
{
1070
    19
1005
317
1002
}
  0
LINE
  5
16E
  8
外形線
 10
351.1874660371451
 20
252.16840061025019
 30
0.0
 11
351.1874660371451
 21
237.9547980022584
 31
0.0
  0
LINE
  5
171
  8
外形線
 10
281.1874660371451
 20
252.16840061025019
 30
0.0
 11
281.1874660371451
 21
251.06159930625441
 31
0.0
  0
ARC
  5
173
  8
外形線
 10
316.1874660371451
 20
-52.188400693745677
 30
0.0
 40
307.25
 50
83.625859040713934
 51
96.374140959286052
1001
ACAD
1000
ASC_BOUNDS
1002
{
1070
    19
1005
317
1005
317
1002
}
  0
ARC
  5
175
  8
外形線
 10
316.1874660371451
 20
542.31159930625415
 30
0.0
 40
307.25
 50
263.62585904071392
 51
276.37414095928608
1001
ACAD
1000
ASC_BOUNDS
1002
{
1070
    19
1005
317
1005
317
1002
}
  0
LINE
  5
176
  8
外形線
 10
331.1874660371451
 20
248.56159930625429
 30
0.0
 11
331.1874660371451
 21
241.56159930625429
 31
0.0
  0
LINE
  5
177
  8
外形線
 10
301.1874660371451
 20
248.56159930625429
 30
0.0
 11
301.1874660371451
 21
241.56159930625429
 31
0.0
  0
LINE
  5
178
  8
外形線
 10
301.1874660371451
 20
248.56159930625429
 30
0.0
 11
331.1874660371451
 21
248.56159930625429
 31
0.0
  0
LINE
  5
179
  8
外形線
 10
301.1874660371451
 20
241.56159930625429
 30
0.0
 11
331.1874660371451
 21
241.56159930625429
 31
0.0
  0
LINE
  5
17A
  8
外形線
 10
321.1874660371451
 20
249.06159930625429
 30
0.0
 11
331.6874660371451
 21
249.06159930625429
 31
0.0
1001
ACAD
1000
ASC_BOUNDS
1002
{
1070
    19
1005
317
1002
}
  0
LINE
  5
17C
  8
外形線
 10
331.6874660371451
 20
247.06159930625429
 30
0.0
 11
341.18746603714521
 21
247.06159930625429
 31
0.0
1001
ACAD
1000
ASC_BOUNDS
1002
{
1070
    19
1005
317
1002
}
  0
LINE
  5
17F
  8
外形線
 10
331.6874660371451
 20
249.06159930625429
 30
0.0
 11
331.6874660371451
 21
247.06159930625429
 31
0.0
1001
ACAD
1000
ASC_BOUNDS
1002
{
1070
    19
1005
317
1002
}
  0
LINE
  5
181
  8
外形線
 10
331.6874660371451
 20
243.06159930625429
 30
0.0
 11
341.18746603714521
 21
243.06159930625429
 31
0.0
1001
ACAD
1000
ASC_BOUNDS
1002
{
1070
    19
1005
317
1002
}
  0
LINE
  5
182
  8
外形線
 10
341.1874660371451
 20
236.0803753920361
 30
0.0
 11
341.18746603714521
 21
243.06159930625429
 31
0.0
1001
ACAD
1000
ASC_BOUNDS
1002
{
1070
    19
1005
317
1002
}
  0
LINE
  5
183
  8
外形線
 10
331.6874660371451
 20
241.06159930625429
 30
0.0
 11
331.6874660371451
 21
243.06159930625429
 31
0.0
1001
ACAD
1000
ASC_BOUNDS
1002
{
1070
    19
1005
317
1002
}
  0
LINE
  5
184
  8
外形線
 10
321.1874660371451
 20
241.06159930625429
 30
0.0
 11
331.6874660371451
 21
241.06159930625429
 31
0.0
1001
ACAD
1000
ASC_BOUNDS
1002
{
1070
    19
1005
317
1002
}
  0
LINE
  5
185
  8
外形線
 10
321.1874660371451
 20
235.10228548260091
 30
0.0
 11
321.1874660371451
 21
241.06159930625429
 31
0.0
1001
ACAD
1000
ASC_BOUNDS
1002
{
1070
    19
1005
317
1002
}
  0
LINE
  5
186
  8
外形線
 10
291.1874660371451
 20
236.0803753920361
 30
0.0
 11
291.18746603714499
 21
243.06159930625429
 31
0.0
1001
ACAD
1000
ASC_BOUNDS
1002
{
1070
    19
1005
317
1002
}
  0
LINE
  5
188
  8
外形線
 10
311.1874660371451
 20
235.10228548260091
 30
0.0
 11
311.1874660371451
 21
241.06159930625429
 31
0.0
1001
ACAD
1000
ASC_BOUNDS
1002
{
1070
    19
1005
317
1002
}
  0
LINE
  5
189
  8
外形線
 10
311.1874660371451
 20
241.06159930625429
 30
0.0
 11
300.6874660371451
 21
241.06159930625429
 31
0.0
1001
ACAD
1000
ASC_BOUNDS
1002
{
1070
    19
1005
317
1002
}
  0
LINE
  5
18A
  8
外形線
 10
300.6874660371451
 20
241.06159930625429
 30
0.0
 11
300.6874660371451
 21
243.06159930625429
 31
0.0
1001
ACAD
1000
ASC_BOUNDS
1002
{
1070
    19
1005
317
1002
}
  0
LINE
  5
18B
  8
外形線
 10
300.6874660371451
 20
243.06159930625429
 30
0.0
 11
291.18746603714499
 21
243.06159930625429
 31
0.0
1001
ACAD
1000
ASC_BOUNDS
1002
{
1070
    19
1005
317
1002
}
  0
LINE
  5
18D
  8
外形線
 10
311.1874660371451
 20
255.0209131299078
 30
0.0
 11
311.1874660371451
 21
249.06159930625429
 31
0.0
1001
ACAD
1000
ASC_BOUNDS
1002
{
1070
    19
1005
317
1002
}
  0
LINE
  5
18E
  8
外形線
 10
300.6874660371451
 20
247.06159930625429
 30
0.0
 11
291.18746603714499
 21
247.06159930625429
 31
0.0
1001
ACAD
1000
ASC_BOUNDS
1002
{
1070
    19
1005
317
1002
}
  0
LINE
  5
18F
  8
外形線
 10
291.1874660371451
 20
254.04282322047251
 30
0.0
 11
291.18746603714499
 21
247.06159930625429
 31
0.0
1001
ACAD
1000
ASC_BOUNDS
1002
{
1070
    19
1005
317
1002
}
  0
LINE
  5
190
  8
外形線
 10
300.6874660371451
 20
249.06159930625429
 30
0.0
 11
300.6874660371451
 21
247.06159930625429
 31
0.0
1001
ACAD
1000
ASC_BOUNDS
1002
{
1070
    19
1005
317
1002
}
  0
LINE
  5
191
  8
外形線
 10
311.1874660371451
 20
249.06159930625429
 30
0.0
 11
300.6874660371451
 21
249.06159930625429
 31
0.0
1001
ACAD
1000
ASC_BOUNDS
1002
{
1070
    19
1005
317
1002
}
  0
TEXT
  5
1AE
  8
文字
 10
309.616859749257
 20
243.8345409909287
 30
0.0
 40
2.5
  1
18-35mm
  7
STYLE3
  0
LINE
  5
1B2
  8
外形線
 10
351.1874660371451
 20
250.06159930625429
 30
0.0
 11
382.07625815198861
 21
250.06159930625429
 31
0.0
  0
LINE
  5
1B3
  8
外形線
 10
351.1874660371451
 20
240.06159930625429
 30
0.0
 11
378.7195525718015
 21
240.06159930625429
 31
0.0
  0
LINE
  5
1C3
  8
外形線
 10
384.63852425647701
 20
250.06159930625429
 30
0.0
 11
411.8282086558259
 21
250.06159930625429
 31
0.0
  0
LINE
  5
1C4
  8
外形線
 10
381.2818186762899
 20
240.06159930625429
 30
0.0
 11
411.82820865582602
 21
240.06159930625429
 31
0.0
  0
LINE
  5
1C6
  8
外形線
 10
426.52820865582601
 20
243.20127219231259
 30
0.0
 11
416.3282086558259
 21
243.20127219231259
 31
0.0
  0
LINE
  5
1C8
  8
外形線
 10
416.3282086558259
 20
243.20127219231259
 30
0.0
 11
416.32820865582602
 21
253.7012721923125
 31
0.0
  0
LINE
  5
1CA
  8
外形線
 10
415.67820865582593
 20
253.7012721923125
 30
0.0
 11
415.67820865582598
 21
255.12736313245739
 31
0.0
  0
LINE
  5
1CC
  8
外形線
 10
427.17820865582598
 20
253.7012721923125
 30
0.0
 11
415.67820865582593
 21
253.7012721923125
 31
0.0
  0
ARC
  5
1CE
  8
外形線
 10
421.42820865582593
 20
240.1962714108183
 30
0.0
 40
16.0
 50
68.938182398350449
 51
111.0618176016491
  0
ARC
  5
1D1
  8
外形線
 10
421.42820865582593
 20
256.75659852476002
 30
0.0
 40
1.0
 50
23.578178478193848
 51
156.42182152180311
  0
LINE
  5
1D2
  8
外形線
 10
420.37820865582921
 20
256.16178111142
 30
0.0
 11
420.37820865582592
 21
257.15659852475977
 31
0.0
  0
LINE
  5
1D3
  8
外形線
 10
422.47820865582588
 20
256.16178111141983
 30
0.0
 11
422.47820865582588
 21
257.15659852475977
 31
0.0
  0
LINE
  5
1D5
  8
外形線
 10
422.47820865582588
 20
257.15659852476
 30
0.0
 11
420.37820865582597
 21
257.15659852476
 31
0.0
  0
LINE
  5
21A
  8
外形線
 10
415.32820865582602
 20
248.7615993062542
 30
0.0
 11
415.32820865582602
 21
241.36159930625419
 31
0.0
  0
LINE
  5
21B
  8
外形線
 10
415.8282086558259
 20
250.16159930625429
 30
0.0
 11
415.8282086558259
 21
241.06159930625421
 31
0.0
  0
LINE
  5
21D
  8
外形線
 10
414.8282086558259
 20
248.7615993062542
 30
0.0
 11
415.32820865582602
 21
248.7615993062542
 31
0.0
  0
LINE
  5
21E
  8
外形線
 10
414.8282086558259
 20
241.36159930625419
 30
0.0
 11
415.32820865582602
 21
241.36159930625419
 31
0.0
  0
LINE
  5
21F
  8
外形線
 10
415.32820865582602
 20
248.56159930625421
 30
0.0
 11
415.8282086558259
 21
248.56159930625421
 31
0.0
  0
LINE
  5
220
  8
外形線
 10
415.32820865582602
 20
241.56159930625421
 30
0.0
 11
415.8282086558259
 21
241.56159930625421
 31
0.0
  0
LINE
  5
221
  8
外形線
 10
415.8282086558259
 20
241.06159930625421
 30
0.0
 11
425.8282086558259
 21
241.06159930625421
 31
0.0
  0
LINE
  5
227
  8
外形線
 10
415.8282086558259
 20
250.16159930625429
 30
0.0
 11
416.3282086558259
 21
250.16159930625429
 31
0.0
  0
LINE
  5
229
  8
外形線
 10
425.8282086558259
 20
243.20127219231259
 30
0.0
 11
425.8282086558259
 21
241.06159930625421
 31
0.0
  0
LINE
  5
22B
  8
外形線
 10
426.52820865582601
 20
243.20127219231259
 30
0.0
 11
426.52820865582612
 21
253.7012721923125
 31
0.0
  0
LINE
  5
22C
  8
外形線
 10
427.17820865582598
 20
253.7012721923125
 30
0.0
 11
427.17820865582598
 21
255.12736313245739
 31
0.0
  0
LINE
  5
235
  8
中心線
 10
421.42820865582593
 20
257.75659852476002
 30
0.0
 11
421.42820865582593
 21
225.2090323758178
 31
0.0
  0
LINE
  5
23B
  8
外形線
 10
424.92820865582598
 20
241.06159930625421
 30
0.0
 11
424.92820865582593
 21
239.56159930625421
 31
0.0
  0
LINE
  5
242
  8
外形線
 10
419.72820865582588
 20
229.56159930625421
 30
0.0
 11
423.12820865582592
 21
229.56159930625421
 31
0.0
  0
ARC
  5
243
  8
外形線
 10
421.42820865582593
 20
229.56159930625421
 30
0.0
 40
1.5
 50
180.0
 51
0.0
  0
LINE
  5
247
  8
外形線
 10
418.92820865582598
 20
231.74341748807231
 30
0.0
 11
419.72820865582588
 21
229.56159930625421
 31
0.0
  0
LINE
  5
248
  8
外形線
 10
423.92820865582598
 20
231.743417488072
 30
0.0
 11
423.12820865582592
 21
229.56159930625421
 31
0.0
  0
ARC
  5
24E
  8
外形線
 10
282.1874660371451
 20
252.16840061025019
 30
0.0
 40
1.0
 50
96.374140959279515
 51
180.0
  0
ARC
  5
24F
  8
外形線
 10
282.1874660371451
 20
237.9547980022584
 30
0.0
 40
1.0
 50
180.0
 51
263.62585904071119
  0
ARC
  5
250
  8
外形線
 10
350.1874660371451
 20
252.16840061025019
 30
0.0
 40
1.0
 50
0.0
 51
83.625859040714033
  0
ARC
  5
251
  8
外形線
 10
350.1874660371451
 20
237.9547980022584
 30
0.0
 40
1.0
 50
276.37414095928563
 51
0.0
  0
LINE
  5
253
  8
外形線
 10
258.1874660371451
 20
249.76159930625431
 30
0.0
 11
258.1874660371451
 21
242.8710743255655
 31
0.0
  0
LINE
  5
254
  8
外形線
 10
280.1874660371451
 20
250.06159930625441
 30
0.0
 11
280.1874660371451
 21
240.06159930625429
 31
0.0
  0
LINE
  5
255
  8
外形線
 10
269.1874660371451
 20
250.06159930625441
 30
0.0
 11
269.1874660371451
 21
242.8710743255655
 31
0.0
  0
LINE
  5
256
  8
外形線
 10
269.1874660371451
 20
250.06159930625441
 30
0.0
 11
280.1874660371451
 21
250.06159930625441
 31
0.0
  0
LINE
  5
257
  8
外形線
 10
271.1036645242408
 20
240.06159930625441
 30
0.0
 11
280.1874660371451
 21
240.06159930625429
 31
0.0
  0
LINE
  5
25C
  8
外形線
 10
281.18746603714499
 20
239.06159930625429
 30
0.0
 11
281.18746603714499
 21
237.9547980022584
 31
0.0
  0
LINE
  5
25E
  8
外形線
 10
281.1874660371451
 20
251.06159930625441
 30
0.0
 11
281.18746603714499
 21
239.06159930625429
 31
0.0
  0
ARC
  5
25F
  8
外形線
 10
278.95161748559087
 20
237.88842688842331
 30
0.0
 40
2.5
 50
26.57629387126569
 51
60.373799584725838
  0
ARC
  5
260
  8
外形線
 10
278.95161748559087
 20
252.23477172408531
 30
0.0
 40
2.5
 50
299.62620041527418
 51
333.4237061287343
  0
LINE
  5
261
  8
外形線
 10
259.1874660371451
 20
250.2615993062544
 30
0.0
 11
268.18746603714499
 21
250.26159930625431
 31
0.0
  0
LINE
  5
263
  8
外形線
 10
259.1874660371451
 20
249.26159930625431
 30
0.0
 11
268.18746603714499
 21
249.26159930625431
 31
0.0
  0
LINE
  5
264
  8
外形線
 10
268.1874660371451
 20
250.26159930625431
 30
0.0
 11
268.1874660371451
 21
249.26159930625431
 31
0.0
  0
LINE
  5
265
  8
外形線
 10
259.1874660371451
 20
250.2615993062544
 30
0.0
 11
259.1874660371451
 21
249.26159930625431
 31
0.0
  0
LINE
  5
26B
  8
外形線
 10
268.1874660371451
 20
249.26159930625431
 30
0.0
 11
269.1874660371451
 21
248.76159930625431
 31
0.0
  0
LINE
  5
26C
  8
外形線
 10
268.1874660371451
 20
250.26159930625431
 30
0.0
 11
269.1874660371451
 21
249.76159930625431
 31
0.0
  0
LINE
  5
273
  8
外形線
 10
259.1874660371451
 20
250.26159930625431
 30
0.0
 11
258.1874660371451
 21
249.76159930625431
 31
0.0
  0
LINE
  5
274
  8
外形線
 10
259.1874660371451
 20
249.26159930625431
 30
0.0
 11
258.1874660371451
 21
248.76159930625431
 31
0.0
  0
LINE
  5
275
  8
外形線
 10
259.1874660371451
 20
250.26159930625431
 30
0.0
 11
259.1874660371451
 21
249.26159930625431
 31
0.0
  0
LINE
  5
276
  8
中心線
 10
263.6874660371451
 20
247.5856186486931
 30
0.0
 11
263.6874660371451
 21
225.41342726754399
 31
0.0
  0
LINE
  5
277
  8
中心線
 10
253.20160535154051
 20
237.06159930625441
 30
0.0
 11
274.0692746569888
 21
237.06159930625441
 31
0.0
  0
CIRCLE
  5
278
  8
外形線
 10
263.6874660371451
 20
237.06159930625441
 30
0.0
 40
8.0
  0
TEXT
  5
27E
  8
文字
 10
303.46545372724319
 20
243.68452234204389
 30
0.0
 40
1.0
  1
CC-1
  7
STYLE3
  0
LINE
  5
299
  8
中心線
 10
380.02161566202523
 20
313.0292574490519
 30
0.0
 11
412.7273663912768
 21
313.0292574490519
 31
0.0
  0
LINE
  5
29A
  8
外形線
 10
380.47725369569872
 20
308.02925744905201
 30
0.0
 11
411.82820865582602
 21
308.02925744905201
 31
0.0
  0
LINE
  5
29B
  8
外形線
 10
383.83395927588577
 20
318.02925744905201
 30
0.0
 11
411.8282086558259
 21
318.02925744905201
 31
0.0
  0
LINE
  5
2A3
  8
外形線
 10
411.82820865582579
 20
318.02925744905201
 30
0.0
 11
411.82820865582607
 21
308.02925744905201
 31
0.0
  0
LINE
  5
2AC
  8
外形線
 10
414.8282086558259
 20
309.32925744905191
 30
0.0
 11
415.32820865582602
 21
309.32925744905191
 31
0.0
  0
LINE
  5
2C3
  8
外形線
 10
414.8282086558259
 20
316.72925744905189
 30
0.0
 11
415.32820865582602
 21
316.72925744905189
 31
0.0
  0
LINE
  5
2CC
  8
外形線
 10
414.8282086558259
 20
313.77925744905178
 30
0.0
 11
415.32820865582607
 21
313.7792574490519
 31
0.0
  0
LINE
  5
2CD
  8
外形線
 10
414.82820865582602
 20
312.27925744905178
 30
0.0
 11
415.32820865582602
 21
312.27925744905178
 31
0.0
  0
LINE
  5
2CE
  8
外形線
 10
415.32820865582551
 20
319.5292574490519
 30
0.0
 11
415.32820865582602
 21
306.5292574490519
 31
0.0
  0
LINE
  5
2CF
  8
外形線
 10
414.8282086558259
 20
317.52925744905178
 30
0.0
 11
414.82820865582602
 21
308.5292574490519
 31
0.0
  0
LINE
  5
2D1
  8
外形線
 10
415.3282086558259
 20
319.5292574490519
 30
0.0
 11
426.82820865582579
 21
319.5292574490519
 31
0.0
  0
LINE
  5
2D2
  8
外形線
 10
415.32820865582602
 20
306.5292574490519
 30
0.0
 11
426.8282086558259
 21
306.5292574490519
 31
0.0
  0
CIRCLE
  5
2D4
  8
外形線
 62
     4
 10
421.07820865582579
 20
313.0292574490519
 30
0.0
 40
1.0
  0
LINE
  5
2D6
  8
外形線
 10
415.3282086558259
 20
318.0292574490519
 30
0.0
 11
426.82820865582579
 21
318.0292574490519
 31
0.0
  0
LINE
  5
2D7
  8
外形線
 10
415.32820865582602
 20
308.02925744905178
 30
0.0
 11
426.8282086558259
 21
308.02925744905178
 31
0.0
  0
CIRCLE
  5
2D9
  8
外形線
 10
421.07820865582579
 20
313.0292574490519
 30
0.0
 40
1.3
  0
CIRCLE
  5
2DB
  8
外形線
 10
423.07820865582579
 20
313.0292574490519
 30
0.0
 40
0.5
  0
CIRCLE
  5
2DC
  8
外形線
 10
419.07820865582579
 20
313.0292574490519
 30
0.0
 40
0.5
  0
CIRCLE
  5
2DE
  8
外形線
 10
421.07820865582579
 20
313.0292574490519
 30
0.0
 40
4.0
  0
ARC
  5
2F6
  8
外形線
 10
301.1874660371451
 20
234.9116028412603
 30
0.0
 40
2.0
 50
12.330391968689311
 51
162.08238913091691
1001
ACAD
1000
ASC_BOUNDS
1002
{
1070
    19
1005
317
1002
}
  0
INSERT
  5
317
  8
ﾊｯﾁﾝｸ
  6
CONTINUOUS
  2
*X13
 10
0.0
 20
0.0
 30
0.0
1001
ACAD
1000
HATCH
1002
{
1070
    19
1000
DOTS
1040
0.4
1040
0.0
1000
ASC_BOUNDS
1070
     4
1070
     1
1070
     7
1005
188
1005
2F6
1005
175
1005
186
1005
18B
1005
18A
1005
189
1070
     1
1070
     6
1005
182
1005
175
1005
185
1005
184
1005
183
1005
181
1070
     1
1070
     6
1005
16D
1005
17C
1005
17F
1005
17A
1005
16C
1005
173
1070
     1
1070
     6
1005
18D
1005
191
1005
190
1005
18E
1005
18F
1005
173
1000
ASC_SEEDPOINT
1011
295.61943557861599
1021
0.0
1031
-0.0
1021
249.94548415579899
1031
0.0
1000
R14_HATCH_DATA
1000
317
1011
1.0
1021
0.0
1031
-0.0
1021
0.0
1031
0.0
1011
0.0
1021
0.0
1031
-0.0
1021
1.0
1031
0.0
1011
0.0
1021
0.0
1031
-0.0
1021
0.0
1031
1.0
1040
0.0
1010
0.0
1020
0.0
1030
1.0
1000
DOTS
1070
     0
1070
     1
1071
        4
1071
        7
1070
     1
1070
     1
1071
        6
1040
300.6874660371451
1040
247.06159930625429
1040
0.0
1040
300.6874660371451
1040
249.06159930625429
1040
0.0
1040
311.1874660371451
1040
249.06159930625441
1040
0.0
1040
311.1874660371451
1040
255.0209131299078
1040
0.0162971688498792
1040
291.1874660371451
1040
254.04282322047251
1040
0.0
1040
291.18746603714487
1040
247.06159930625429
1040
0.0
1071
        6
1005
173
1005
18F
1005
18E
1005
190
1005
191
1005
18D
1071
        7
1070
     1
1070
     1
1071
        6
1040
331.6874660371451
1040
249.06159930625429
1040
0.0
1040
331.6874660371451
1040
247.06159930625429
1040
0.0
1040
341.18746603714533
1040
247.06159930625441
1040
0.0
1040
341.1874660371451
1040
254.0428232204724
1040
0.0162971688498792
1040
321.1874660371451
1040
255.02091312990771
1040
0.0
1040
321.1874660371451
1040
249.06159930625429
1040
0.0
1071
        6
1005
173
1005
16C
1005
17A
1005
17F
1005
17C
1005
16D
1071
        7
1070
     1
1070
     1
1071
        6
1040
341.1874660371451
1040
236.0803753920363
1040
0.0
1040
341.18746603714521
1040
243.06159930625429
1040
0.0
1040
331.6874660371451
1040
243.06159930625429
1040
0.0
1040
331.6874660371451
1040
241.06159930625429
1040
0.0
1040
321.1874660371451
1040
241.06159930625429
1040
0.0
1040
321.1874660371451
1040
235.10228548260091
1040
0.0162971688498792
1071
        6
1005
181
1005
183
1005
184
1005
185
1005
175
1005
182
1071
        7
1070
     1
1070
     1
1071
        8
1040
299.28446626224741
1040
235.5269010264839
1040
-0.7656091570197176
1040
303.1413309114763
1040
235.33870008177431
1040
0.0065500023894979
1040
311.1874660371451
1040
235.10228548260091
1040
0.0
1040
311.1874660371451
1040
241.06159930625429
1040
0.0
1040
300.6874660371451
1040
241.06159930625429
1040
0.0
1040
300.6874660371451
1040
243.06159930625429
1040
0.0
1040
291.18746603714499
1040
243.06159930625429
1040
0.0
1040
291.1874660371451
1040
236.08037539203619
1040
0.0066039451871049
1071
        7
1005
189
1005
18A
1005
18B
1005
186
1005
175
1005
2F6
1005
188
1070
     0
1070
     1
1040
0.0
1040
0.4
1070
     0
1070
     1
1040
0.0
1040
-10.174360983380319
1040
-20.903029619428651
1040
0.3175
1040
0.635
1070
     2
1040
0.0
1040
-0.635
1040
0.3765170278403226
1071
        4
1040
295.61943557861599
1040
249.94548415579899
1040
0.0
1040
334.43273918430071
1040
250.32200091200369
1040
0.0
1040
334.809567249868
1040
237.89693931150319
1040
0.0
1040
297.50357670971829
1040
238.64997327895179
1040
0.0
1002
}
  0
DIMENSION
  5
341
  8
外形線
  2
*D3
 10
351.1874660371451
 20
265.38268208113323
 30
0.0
 11
316.1874660371451
 21
267.25768208113323
 31
0.0
 12
-10.174360983380319
 22
-20.903029619428651
 32
0.0
 70
     0
 13
281.1874660371451
 23
251.06159930625441
 33
0.0
 14
351.1874660371451
 24
252.16840061025019
 34
0.0
1001
ACAD
1000
DSTYLE
1002
{
1070
   271
1070
     2
1002
}
  0
LINE
  5
390
  8
0
  6
BYBLOCK
 62
     2
 10
418.92820865582593
 20
265.38268208113323
 30
0.0
 11
416.42820865582598
 21
265.38268208113323
 31
0.0
  0
LINE
  5
391
  8
0
  6
BYBLOCK
 62
     2
 10
429.6782086558261
 20
265.38268208113323
 30
0.0
 11
441.04725627487358
 21
265.38268208113323
 31
0.0
  0
LINE
  5
392
  8
0
  6
BYBLOCK
 62
     2
 10
421.42820865582593
 20
265.38268208113323
 30
0.0
 11
427.17820865582598
 21
265.38268208113323
 31
0.0
  0
INSERT
  5
394
  8
0
  6
BYBLOCK
 62
     2
  2
_OPEN
 10
427.17820865582598
 20
265.38268208113323
 30
0.0
 41
2.5
 42
2.5
 43
2.5
 50
180.0
  0
INSERT
  5
395
  8
寸法線
  2
*U15
 10
0.0
 20
0.0
 30
0.0
  0
LINE
  5
399
  8
0
  6
BYBLOCK
 62
     2
 10
258.1874660371451
 20
249.76159930625431
 30
0.0
 11
258.1874660371451
 21
273.07490301143082
 31
0.0
  0
LINE
  5
39A
  8
0
  6
BYBLOCK
 62
     2
 10
427.17820865582598
 20
255.12736313245739
 30
0.0
 11
427.17820865582598
 21
273.07490301143082
 31
0.0
  0
LINE
  5
39B
  8
0
  6
BYBLOCK
 62
     2
 10
260.6874660371451
 20
271.82490301143082
 30
0.0
 11
424.67820865582598
 21
271.82490301143082
 31
0.0
  0
INSERT
  5
39C
  8
0
  6
BYBLOCK
 62
     2
  2
_OPEN
 10
258.1874660371451
 20
271.82490301143082
 30
0.0
 41
2.5
 42
2.5
 43
2.5
 50
180.0
  0
INSERT
  5
39D
  8
0
  6
BYBLOCK
 62
     2
  2
_OPEN
 10
427.17820865582598
 20
271.82490301143082
 30
0.0
 41
2.5
 42
2.5
 43
2.5
  0
POINT
  5
39F
  8
DEFPOINTS
  6
BYBLOCK
 62
     0
 10
258.1874660371451
 20
248.76159930625431
 30
0.0
  0
POINT
  5
3A0
  8
DEFPOINTS
  6
BYBLOCK
 62
     0
 10
427.17820865582598
 20
255.12736313245739
 30
0.0
  0
POINT
  5
3A1
  8
DEFPOINTS
  6
BYBLOCK
 62
     0
 10
427.17820865582598
 20
271.82490301143082
 30
0.0
  0
LINE
  5
3A2
  8
0
  6
BYBLOCK
 62
     2
 10
421.42820865582593
 20
257.75659852476002
 30
0.0
 11
421.42820865582593
 21
266.63268208113311
 31
0.0
  0
LINE
  5
3A3
  8
0
  6
BYBLOCK
 62
     2
 10
353.6874660371451
 20
265.38268208113323
 30
0.0
 11
418.92820865582593
 21
265.38268208113323
 31
0.0
  0
INSERT
  5
3A4
  8
0
  6
BYBLOCK
 62
     2
  2
_OPEN
 10
351.1874660371451
 20
265.38268208113323
 30
0.0
 41
2.5
 42
2.5
 43
2.5
 50
180.0
  0
INSERT
  5
3A5
  8
0
  6
BYBLOCK
 62
     2
  2
_OPEN
 10
421.42820865582593
 20
265.38268208113323
 30
0.0
 41
2.5
 42
2.5
 43
2.5
  0
POINT
  5
3A7
  8
DEFPOINTS
  6
BYBLOCK
 62
     0
 10
351.1874660371451
 20
252.16840061025019
 30
0.0
  0
POINT
  5
3A8
  8
DEFPOINTS
  6
BYBLOCK
 62
     0
 10
421.42820865582593
 20
260.89208858436882
 30
0.0
  0
POINT
  5
3A9
  8
DEFPOINTS
  6
BYBLOCK
 62
     0
 10
421.42820865582593
 20
265.38268208113323
 30
0.0
  0
LINE
  5
3D1
  8
外形線
 10
426.82820865582579
 20
319.5292574490519
 30
0.0
 11
426.8282086558259
 21
306.5292574490519
 31
0.0
  0
LINE
  5
3D2
  8
中心線
 10
421.07820865582579
 20
321.38011094776232
 30
0.0
 11
421.07820865582579
 21
304.67840395034142
 31
0.0
  0
DIMENSION
  5
3E0
  8
中心線
  2
*D4
 10
439.21352664463558
 20
306.5292574490519
 30
0.0
 11
437.33852664463552
 21
313.02925744905201
 31
0.0
 70
     0
 13
426.82820865582579
 23
319.5292574490519
 33
0.0
 14
426.8282086558259
 24
306.5292574490519
 34
0.0
 50
90.0
1001
ACAD
1000
DSTYLE
1002
{
1070
   271
1070
     2
1002
}
  0
DIMENSION
  5
3ED
  8
中心線
  2
*D5
 10
426.82820865582579
 20
327.67195238359341
 30
0.0
 11
421.07820865582579
 21
329.54695238359341
 31
0.0
 70
     0
 13
415.3282086558259
 23
319.5292574490519
 33
0.0
 14
426.82820865582579
 24
319.5292574490519
 34
0.0
1001
ACAD
1000
DSTYLE
1002
{
1070
   271
1070
     2
1002
}
  0
LINE
  5
3EF
  8
外形線
 10
417.32820865582602
 20
243.2012721923125
 30
0.0
 11
417.32820865582602
 21
241.06159930625421
 31
0.0
  0
TEXT
  5
3F3
  8
文字
 10
343.5336782381566
 20
272.95445373508397
 30
0.0
 40
2.5
  1
248.75
  7
STYLE3
  0
TEXT
  5
3F4
  8
文字
 10
380.91181466370398
 20
266.13571650362098
 30
0.0
 40
2.5
  1
150
  7
STYLE3
  0
LINE
  5
3F5
  8
0
  6
BYBLOCK
 62
     2
 10
421.42820865582593
 20
257.75659852476002
 30
0.0
 11
441.30824341848569
 21
257.75659852475991
 31
0.0
  0
LINE
  5
3F6
  8
0
  6
BYBLOCK
 62
     2
 10
421.42820865582593
 20
228.06159930625421
 30
0.0
 11
441.30824341848569
 21
228.06159930625421
 31
0.0
  0
LINE
  5
3F7
  8
0
  6
BYBLOCK
 62
     2
 10
440.05824341848557
 20
255.25659852475991
 30
0.0
 11
440.05824341848557
 21
230.56159930625421
 31
0.0
  0
INSERT
  5
3F8
  8
0
  6
BYBLOCK
 62
     2
  2
_OPEN
 10
440.05824341848557
 20
257.75659852475991
 30
0.0
 41
2.5
 42
2.5
 43
2.5
 50
90.0
  0
INSERT
  5
3F9
  8
0
  6
BYBLOCK
 62
     2
  2
_OPEN
 10
440.05824341848557
 20
228.06159930625421
 30
0.0
 41
2.5
 42
2.5
 43
2.5
 50
270.0
  0
POINT
  5
3FB
  8
DEFPOINTS
  6
BYBLOCK
 62
     0
 10
421.42820865582593
 20
257.75659852476002
 30
0.0
  0
POINT
  5
3FC
  8
DEFPOINTS
  6
BYBLOCK
 62
     0
 10
421.42820865582593
 20
228.06159930625421
 30
0.0
  0
POINT
  5
3FD
  8
DEFPOINTS
  6
BYBLOCK
 62
     0
 10
440.05824341848557
 20
228.06159930625421
 30
0.0
  0
TEXT
  5
3FE
  8
文字
 10
439.28413051649119
 20
236.5694474298229
 30
0.0
 40
2.5
  1
18～35
 50
90.0
  7
STYLE3
  0
LINE
  5
403
  8
外形線
 10
329.68746603714521
 20
247.56159930625441
 30
0.0
 11
329.6874660371451
 21
242.56159930625429
 31
0.0
  0
LINE
  5
404
  8
外形線
 10
302.6874660371451
 20
247.56159930625441
 30
0.0
 11
302.6874660371451
 21
242.56159930625429
 31
0.0
  0
LINE
  5
405
  8
外形線
 10
302.6874660371451
 20
247.56159930625441
 30
0.0
 11
329.68746603714521
 21
247.56159930625441
 31
0.0
  0
LINE
  5
406
  8
外形線
 10
302.6874660371451
 20
242.56159930625429
 30
0.0
 11
329.6874660371451
 21
242.56159930625429
 31
0.0
  0
LINE
  5
449
  8
外形線
 10
414.8282086558259
 20
317.52925744905178
 30
0.0
 11
415.32820865582579
 21
317.52925744905178
 31
0.0
  0
LINE
  5
462
  8
外形線
 10
414.8282086558259
 20
308.52925744905178
 30
0.0
 11
415.32820865582602
 21
308.5292574490519
 31
0.0
  0
INSERT
  5
473
  8
外形線
  2
六角ﾈｼ3
 10
411.8282086558259
 20
245.06159930625421
 30
0.0
  0
INSERT
  5
47D
  8
外形線
  2
六角ﾈｼ
 10
411.8282086558259
 20
313.0292574490519
 30
0.0
  0
LINE
  5
499
  8
中心線
 10
423.07820865582579
 20
313.86852380341719
 30
0.0
 11
423.07820865582579
 21
312.0064991209718
 31
0.0
  0
LINE
  5
49B
  8
中心線
 10
419.07820865582579
 20
313.86852380341719
 30
0.0
 11
419.07820865582579
 21
312.0064991209718
 31
0.0
  0
POINT
  5
4BC
  8
DEFPOINTS
  6
BYBLOCK
 62
     0
 10
421.42820865582593
 20
257.75659852476002
 30
0.0
  0
LINE
  5
4E1
  8
0
  6
BYBLOCK
 62
     2
 10
421.42820865582593
 20
257.75659852476002
 30
0.0
 11
397.78749032786249
 21
257.75659852476002
 31
0.0
  0
LINE
  5
4E3
  8
0
  6
BYBLOCK
 62
     2
 10
399.03749032786249
 20
255.25659852475999
 30
0.0
 11
399.03749032786249
 21
247.56159930625421
 31
0.0
  0
INSERT
  5
4E5
  8
0
  6
BYBLOCK
 62
     2
  2
_OPEN
 10
399.03749032786249
 20
257.75659852476002
 30
0.0
 41
2.5
 42
2.5
 43
2.5
 50
90.0
  0
INSERT
  5
4E6
  8
0
  6
BYBLOCK
 62
     2
  2
_OPEN
 10
399.03749032786249
 20
245.06159930625421
 30
0.0
 41
2.5
 42
2.5
 43
2.5
 50
270.0
  0
INSERT
  5
4E7
  8
寸法線
  2
*U16
 10
0.0
 20
0.0
 30
0.0
  0
POINT
  5
4E8
  8
DEFPOINTS
  6
BYBLOCK
 62
     0
 10
421.42820865582593
 20
257.75659852476002
 30
0.0
  0
DIMENSION
  5
510
  8
外形線
  2
*D8
 10
391.95549172274821
 20
240.06159930625429
 30
0.0
 11
390.08049172274809
 21
245.06159930625441
 31
0.0
 70
     0
  1
φ10
 13
391.51936551854612
 23
250.06159930625429
 33
0.0
 14
391.37399011714541
 24
240.06159930625429
 34
0.0
 50
90.0
1001
ACAD
1000
DSTYLE
1002
{
1070
   271
1070
     2
1002
}
  0
LINE
  5
520
  8
寸法線
 10
399.03749032786249
 20
251.9978316044627
 30
0.0
 11
393.97082355727429
 21
259.34206874535789
 31
0.0
  0
LINE
  5
521
  8
寸法線
 10
383.5066941796228
 20
259.34206874535789
 30
0.0
 11
393.97082355727429
 21
259.34206874535789
 31
0.0
  0
LINE
  5
541
  8
外形線
 10
418.9282086558257
 20
239.06159930625441
 30
0.0
 11
423.92820865582581
 21
239.06159930625421
 31
0.0
  0
LINE
  5
551
  8
外形線
 10
423.92820865582598
 20
239.56159930625421
 30
0.0
 11
424.92820865582581
 21
239.5615993062541
 31
0.0
  0
LINE
  5
553
  8
外形線
 10
423.92820865582593
 20
241.06159930625421
 30
0.0
 11
423.92820865582598
 21
239.56159930625421
 31
0.0
  0
LINE
  5
554
  8
外形線
 10
422.92820865582593
 20
239.06159930625421
 30
0.0
 11
423.92820865582598
 21
239.56159930625421
 31
0.0
  0
LINE
  5
555
  8
外形線
 10
423.92820865582581
 20
239.06159930625421
 30
0.0
 11
424.92820865582581
 21
239.5615993062541
 31
0.0
  0
LINE
  5
556
  8
外形線
 10
418.92820865582598
 20
241.06159930625421
 30
0.0
 11
418.92820865582593
 21
239.56159930625421
 31
0.0
  0
LINE
  5
557
  8
外形線
 10
417.92820865582593
 20
241.06159930625421
 30
0.0
 11
417.92820865582598
 21
239.56159930625421
 31
0.0
  0
LINE
  5
558
  8
外形線
 10
418.92820865582593
 20
239.56159930625421
 30
0.0
 11
417.92820865582598
 21
239.5615993062541
 31
0.0
  0
LINE
  5
559
  8
外形線
 10
418.9282086558261
 20
239.06159930625421
 30
0.0
 11
417.92820865582598
 21
239.5615993062541
 31
0.0
  0
LINE
  5
55A
  8
外形線
 10
419.92820865582598
 20
239.06159930625421
 30
0.0
 11
418.92820865582593
 21
239.56159930625421
 31
0.0
  0
LINE
  5
582
  8
外形線
 10
423.92820865582598
 20
239.06159930625421
 30
0.0
 11
423.92820865582598
 21
231.743417488072
 31
0.0
  0
LINE
  5
583
  8
外形線
 10
418.92820865582598
 20
239.06159930625429
 30
0.0
 11
418.92820865582598
 21
231.74341748807231
 31
0.0
  0
LINE
  5
584
  8
外形線
 10
423.92820865582598
 20
231.74341748807231
 30
0.0
 11
418.92820865582598
 21
231.74341748807231
 31
0.0
  0
LINE
  5
64A
  8
中心線
 10
457.96577556427297
 20
245.06159930625421
 30
0.0
 11
474.88428753831562
 21
245.06159930625421
 31
0.0
  0
LINE
  5
64B
  8
中心線
 10
466.58892780548172
 20
259.03242101438201
 30
0.0
 11
466.58892780548172
 21
226.48485486543979
 31
0.0
  0
LINE
  5
64C
  8
外形線
 10
472.08892780548172
 20
243.20127219231259
 30
0.0
 11
461.08892780548172
 21
243.20127219231259
 31
0.0
  0
LINE
  5
64D
  8
外形線
 10
473.0889278054816
 20
253.7012721923125
 30
0.0
 11
460.0889278054816
 21
253.70127219231259
 31
0.0
  0
ARC
  5
64E
  8
外形線
 10
466.58892780548172
 20
256.75659852476002
 30
0.0
 40
1.0
 50
23.578178478193848
 51
156.42182152180311
  0
LINE
  5
64F
  8
外形線
 10
465.53892780548642
 20
255.70127219231259
 30
0.0
 11
465.53892780548159
 21
257.15659852475977
 31
0.0
  0
LINE
  5
650
  8
外形線
 10
467.63892780548173
 20
255.70127219231259
 30
0.0
 11
467.63892780548161
 21
257.15659852475977
 31
0.0
  0
LINE
  5
651
  8
外形線
 10
467.63892780548161
 20
257.15659852476
 30
0.0
 11
465.53892780548171
 21
257.15659852476
 31
0.0
  0
LINE
  5
652
  8
外形線
 10
462.08892780548189
 20
241.06159930625421
 30
0.0
 11
471.08892780548138
 21
241.06159930625421
 31
0.0
  0
POINT
  5
653
  8
DEFPOINTS
  6
BYBLOCK
 62
     0
 10
466.58892780548172
 20
257.75659852476002
 30
0.0
  0
POINT
  5
654
  8
DEFPOINTS
  6
BYBLOCK
 62
     0
 10
466.58892780548172
 20
257.75659852476002
 30
0.0
  0
POINT
  5
655
  8
DEFPOINTS
  6
BYBLOCK
 62
     0
 10
466.58892780548172
 20
257.75659852476002
 30
0.0
  0
LINE
  5
656
  8
外形線
 10
471.5889278054816
 20
254.7012721923125
 30
0.0
 11
461.58892780548172
 21
254.70127219231259
 31
0.0
  0
LINE
  5
659
  8
外形線
 10
461.08892780548172
 20
253.70127219231259
 30
0.0
 11
461.0889278054816
 21
243.20127219231259
 31
0.0
  0
LINE
  5
65A
  8
外形線
 10
472.08892780548172
 20
253.7012721923125
 30
0.0
 11
472.08892780548172
 21
243.20127219231259
 31
0.0
  0
LINE
  5
65B
  8
外形線
 10
460.08892780548172
 20
254.70127219231259
 30
0.0
 11
460.0889278054816
 21
253.70127219231259
 31
0.0
  0
LINE
  5
65C
  8
外形線
 10
473.08892780548172
 20
254.70127219231259
 30
0.0
 11
473.08892780548172
 21
253.7012721923125
 31
0.0
  0
LINE
  5
65D
  8
外形線
 10
461.58892780548172
 20
256.2012721923125
 30
0.0
 11
461.58892780548172
 21
254.70127219231259
 31
0.0
  0
LINE
  5
65E
  8
外形線
 10
471.58892780548177
 20
256.2012721923125
 30
0.0
 11
471.58892780548177
 21
254.7012721923125
 31
0.0
  0
ARC
  5
662
  8
外形線
 10
461.58892780548172
 20
254.70127219231259
 30
0.0
 40
1.5
 50
90.0
 51
180.0
  0
ARC
  5
663
  8
外形線
 10
471.58892780548177
 20
254.70127219231259
 30
0.0
 40
1.5
 50
0.0
 51
90.0
  0
LINE
  5
665
  8
外形線
 10
470.58892780548189
 20
255.10127219231251
 30
0.0
 11
462.58892780548177
 21
255.10127219231259
 31
0.0
  0
LINE
  5
666
  8
外形線
 10
467.63892780548173
 20
255.70127219231259
 30
0.0
 11
465.53892780548642
 21
255.70127219231259
 31
0.0
  0
LINE
  5
667
  8
外形線
 10
462.58892780548177
 20
255.10127219231251
 30
0.0
 11
462.58892780548172
 21
254.70127219231259
 31
0.0
  0
LINE
  5
668
  8
外形線
 10
470.58892780548177
 20
255.10127219231251
 30
0.0
 11
470.58892780548177
 21
254.7012721923125
 31
0.0
  0
LINE
  5
669
  8
外形線
 10
462.58892780548177
 20
255.10127219231259
 30
0.0
 11
465.53892780548642
 21
255.70127219231259
 31
0.0
  0
LINE
  5
66A
  8
外形線
 10
467.63892780548173
 20
255.70127219231259
 30
0.0
 11
470.58892780548189
 21
255.10127219231251
 31
0.0
  0
LINE
  5
66B
  8
外形線
 10
462.08892780548172
 20
243.20127219231259
 30
0.0
 11
462.08892780548177
 21
241.06159930625429
 31
0.0
  0
LINE
  5
66C
  8
外形線
 10
471.0889278054816
 20
243.20127219231259
 30
0.0
 11
471.0889278054816
 21
241.06159930625421
 31
0.0
  0
LINE
  5
66D
  8
外形線
 10
464.0889278054816
 20
239.06159930625441
 30
0.0
 11
469.0889278054816
 21
239.06159930625429
 31
0.0
  0
LINE
  5
66E
  8
外形線
 10
464.0889278054816
 20
241.06159930625421
 30
0.0
 11
464.0889278054816
 21
239.06159930625441
 31
0.0
  0
LINE
  5
66F
  8
外形線
 10
469.0889278054816
 20
241.06159930625421
 30
0.0
 11
469.0889278054816
 21
239.06159930625421
 31
0.0
  0
LINE
  5
670
  8
外形線
 10
464.88892780548161
 20
229.56159930625421
 30
0.0
 11
468.28892780548159
 21
229.56159930625421
 31
0.0
  0
ARC
  5
671
  8
外形線
 10
466.58892780548172
 20
229.56159930625421
 30
0.0
 40
1.5
 50
180.0
 51
0.0
  0
LINE
  5
672
  8
外形線
 10
464.08892780548172
 20
231.74341748807231
 30
0.0
 11
464.88892780548161
 21
229.56159930625421
 31
0.0
  0
LINE
  5
673
  8
外形線
 10
469.08892780548172
 20
231.743417488072
 30
0.0
 11
468.28892780548159
 21
229.56159930625421
 31
0.0
  0
POINT
  5
674
  8
DEFPOINTS
  6
BYBLOCK
 62
     0
 10
466.58892780548172
 20
228.06159930625421
 30
0.0
  0
LINE
  5
675
  8
外形線
 10
469.08892780548172
 20
239.06159930625421
 30
0.0
 11
469.08892780548172
 21
231.743417488072
 31
0.0
  0
LINE
  5
676
  8
外形線
 10
464.08892780548172
 20
239.06159930625429
 30
0.0
 11
464.08892780548172
 21
231.74341748807231
 31
0.0
  0
LINE
  5
677
  8
外形線
 10
469.08892780548172
 20
231.74341748807231
 30
0.0
 11
464.08892780548172
 21
231.74341748807231
 31
0.0
  0
LINE
  5
6B1
  8
外形線
 10
464.0889278054816
 20
239.56159930625429
 30
0.0
 11
469.0889278054816
 21
239.56159930625401
 31
0.0
  0
POLYLINE
  8
寸法線
  5
1153
  66
     1
 10
0.000000
 20
0.000000
 30
0.000000
  70
     8
  0
VERTEX
  8
寸法線
  5
1154
 10
383.834
 20
318.029
 30
0.000000
  70
    32
  0
VERTEX
  8
寸法線
  5
1155
 10
383.770
 20
317.967
 30
0.000000
  70
    32
  0
VERTEX
  8
寸法線
  5
1156
 10
383.712
 20
317.905
 30
0.000000
  70
    32
  0
VERTEX
  8
寸法線
  5
1157
 10
383.660
 20
317.844
 30
0.000000
  70
    32
  0
VERTEX
  8
寸法線
  5
1158
 10
383.613
 20
317.783
 30
0.000000
  70
    32
  0
VERTEX
  8
寸法線
  5
1159
 10
383.572
 20
317.724
 30
0.000000
  70
    32
  0
VERTEX
  8
寸法線
  5
115A
 10
383.535
 20
317.665
 30
0.000000
  70
    32
  0
VERTEX
  8
寸法線
  5
115B
 10
383.504
 20
317.607
 30
0.000000
  70
    32
  0
VERTEX
  8
寸法線
  5
115C
 10
383.477
 20
317.550
 30
0.000000
  70
    32
  0
VERTEX
  8
寸法線
  5
115D
 10
383.454
 20
317.493
 30
0.000000
  70
    32
  0
VERTEX
  8
寸法線
  5
115E
 10
383.436
 20
317.437
 30
0.000000
  70
    32
  0
VERTEX
  8
寸法線
  5
115F
 10
383.421
 20
317.382
 30
0.000000
  70
    32
  0
VERTEX
  8
寸法線
  5
1160
 10
383.411
 20
317.327
 30
0.000000
  70
    32
  0
VERTEX
  8
寸法線
  5
1161
 10
383.404
 20
317.274
 30
0.000000
  70
    32
  0
VERTEX
  8
寸法線
  5
1162
 10
383.400
 20
317.220
 30
0.000000
  70
    32
  0
VERTEX
  8
寸法線
  5
1163
 10
383.400
 20
317.168
 30
0.000000
  70
    32
  0
VERTEX
  8
寸法線
  5
1164
 10
383.402
 20
317.116
 30
0.000000
  70
    32
  0
VERTEX
  8
寸法線
  5
1165
 10
383.407
 20
317.064
 30
0.000000
  70
    32
  0
VERTEX
  8
寸法線
  5
1166
 10
383.415
 20
317.013
 30
0.000000
  70
    32
  0
VERTEX
  8
寸法線
  5
1167
 10
383.425
 20
316.963
 30
0.000000
  70
    32
  0
VERTEX
  8
寸法線
  5
1168
 10
383.437
 20
316.913
 30
0.000000
  70
    32
  0
VERTEX
  8
寸法線
  5
1169
 10
383.451
 20
316.864
 30
0.000000
  70
    32
  0
VERTEX
  8
寸法線
  5
116A
 10
383.467
 20
316.815
 30
0.000000
  70
    32
  0
VERTEX
  8
寸法線
  5
116B
 10
383.484
 20
316.766
 30
0.000000
  70
    32
  0
VERTEX
  8
寸法線
  5
116C
 10
383.503
 20
316.718
 30
0.000000
  70
    32
  0
VERTEX
  8
寸法線
  5
116D
 10
383.523
 20
316.671
 30
0.000000
  70
    32
  0
VERTEX
  8
寸法線
  5
116E
 10
383.543
 20
316.624
 30
0.000000
  70
    32
  0
VERTEX
  8
寸法線
  5
116F
 10
383.564
 20
316.577
 30
0.000000
  70
    32
  0
VERTEX
  8
寸法線
  5
1170
 10
383.586
 20
316.531
 30
0.000000
  70
    32
  0
VERTEX
  8
寸法線
  5
1171
 10
383.608
 20
316.485
 30
0.000000
  70
    32
  0
VERTEX
  8
寸法線
  5
1172
 10
383.630
 20
316.439
 30
0.000000
  70
    32
  0
VERTEX
  8
寸法線
  5
1173
 10
383.652
 20
316.394
 30
0.000000
  70
    32
  0
VERTEX
  8
寸法線
  5
1174
 10
383.673
 20
316.349
 30
0.000000
  70
    32
  0
VERTEX
  8
寸法線
  5
1175
 10
383.694
 20
316.305
 30
0.000000
  70
    32
  0
VERTEX
  8
寸法線
  5
1176
 10
383.714
 20
316.261
 30
0.000000
  70
    32
  0
VERTEX
  8
寸法線
  5
1177
 10
383.733
 20
316.217
 30
0.000000
  70
    32
  0
VERTEX
  8
寸法線
  5
1178
 10
383.751
 20
316.173
 30
0.000000
  70
    32
  0
VERTEX
  8
寸法線
  5
1179
 10
383.767
 20
316.129
 30
0.000000
  70
    32
  0
VERTEX
  8
寸法線
  5
117A
 10
383.782
 20
316.086
 30
0.000000
  70
    32
  0
VERTEX
  8
寸法線
  5
117B
 10
383.795
 20
316.043
 30
0.000000
  70
    32
  0
VERTEX
  8
寸法線
  5
117C
 10
383.806
 20
316.000
 30
0.000000
  70
    32
  0
VERTEX
  8
寸法線
  5
117D
 10
383.815
 20
315.957
 30
0.000000
  70
    32
  0
VERTEX
  8
寸法線
  5
117E
 10
383.822
 20
315.915
 30
0.000000
  70
    32
  0
VERTEX
  8
寸法線
  5
117F
 10
383.828
 20
315.872
 30
0.000000
  70
    32
  0
VERTEX
  8
寸法線
  5
1180
 10
383.832
 20
315.830
 30
0.000000
  70
    32
  0
VERTEX
  8
寸法線
  5
1181
 10
383.834
 20
315.788
 30
0.000000
  70
    32
  0
VERTEX
  8
寸法線
  5
1182
 10
383.834
 20
315.746
 30
0.000000
  70
    32
  0
VERTEX
  8
寸法線
  5
1183
 10
383.833
 20
315.705
 30
0.000000
  70
    32
  0
VERTEX
  8
寸法線
  5
1184
 10
383.831
 20
315.663
 30
0.000000
  70
    32
  0
VERTEX
  8
寸法線
  5
1185
 10
383.827
 20
315.622
 30
0.000000
  70
    32
  0
VERTEX
  8
寸法線
  5
1186
 10
383.821
 20
315.581
 30
0.000000
  70
    32
  0
VERTEX
  8
寸法線
  5
1187
 10
383.814
 20
315.539
 30
0.000000
  70
    32
  0
VERTEX
  8
寸法線
  5
1188
 10
383.805
 20
315.498
 30
0.000000
  70
    32
  0
VERTEX
  8
寸法線
  5
1189
 10
383.795
 20
315.458
 30
0.000000
  70
    32
  0
VERTEX
  8
寸法線
  5
118A
 10
383.784
 20
315.417
 30
0.000000
  70
    32
  0
VERTEX
  8
寸法線
  5
118B
 10
383.772
 20
315.376
 30
0.000000
  70
    32
  0
VERTEX
  8
寸法線
  5
118C
 10
383.758
 20
315.335
 30
0.000000
  70
    32
  0
VERTEX
  8
寸法線
  5
118D
 10
383.743
 20
315.295
 30
0.000000
  70
    32
  0
VERTEX
  8
寸法線
  5
118E
 10
383.727
 20
315.255
 30
0.000000
  70
    32
  0
VERTEX
  8
寸法線
  5
118F
 10
383.710
 20
315.214
 30
0.000000
  70
    32
  0
VERTEX
  8
寸法線
  5
1190
 10
383.691
 20
315.174
 30
0.000000
  70
    32
  0
VERTEX
  8
寸法線
  5
1191
 10
383.672
 20
315.134
 30
0.000000
  70
    32
  0
VERTEX
  8
寸法線
  5
1192
 10
383.651
 20
315.094
 30
0.000000
  70
    32
  0
VERTEX
  8
寸法線
  5
1193
 10
383.630
 20
315.054
 30
0.000000
  70
    32
  0
VERTEX
  8
寸法線
  5
1194
 10
383.608
 20
315.014
 30
0.000000
  70
    32
  0
VERTEX
  8
寸法線
  5
1195
 10
383.585
 20
314.974
 30
0.000000
  70
    32
  0
VERTEX
  8
寸法線
  5
1196
 10
383.560
 20
314.934
 30
0.000000
  70
    32
  0
VERTEX
  8
寸法線
  5
1197
 10
383.536
 20
314.894
 30
0.000000
  70
    32
  0
VERTEX
  8
寸法線
  5
1198
 10
383.510
 20
314.854
 30
0.000000
  70
    32
  0
VERTEX
  8
寸法線
  5
1199
 10
383.484
 20
314.814
 30
0.000000
  70
    32
  0
VERTEX
  8
寸法線
  5
119A
 10
383.456
 20
314.774
 30
0.000000
  70
    32
  0
VERTEX
  8
寸法線
  5
119B
 10
383.429
 20
314.734
 30
0.000000
  70
    32
  0
VERTEX
  8
寸法線
  5
119C
 10
383.400
 20
314.695
 30
0.000000
  70
    32
  0
VERTEX
  8
寸法線
  5
119D
 10
383.372
 20
314.655
 30
0.000000
  70
    32
  0
VERTEX
  8
寸法線
  5
119E
 10
383.342
 20
314.615
 30
0.000000
  70
    32
  0
VERTEX
  8
寸法線
  5
119F
 10
383.312
 20
314.575
 30
0.000000
  70
    32
  0
VERTEX
  8
寸法線
  5
11A0
 10
383.282
 20
314.535
 30
0.000000
  70
    32
  0
VERTEX
  8
寸法線
  5
11A1
 10
383.251
 20
314.495
 30
0.000000
  70
    32
  0
VERTEX
  8
寸法線
  5
11A2
 10
383.220
 20
314.455
 30
0.000000
  70
    32
  0
VERTEX
  8
寸法線
  5
11A3
 10
383.188
 20
314.415
 30
0.000000
  70
    32
  0
VERTEX
  8
寸法線
  5
11A4
 10
383.157
 20
314.375
 30
0.000000
  70
    32
  0
VERTEX
  8
寸法線
  5
11A5
 10
383.124
 20
314.335
 30
0.000000
  70
    32
  0
VERTEX
  8
寸法線
  5
11A6
 10
383.092
 20
314.295
 30
0.000000
  70
    32
  0
VERTEX
  8
寸法線
  5
11A7
 10
383.060
 20
314.255
 30
0.000000
  70
    32
  0
VERTEX
  8
寸法線
  5
11A8
 10
383.027
 20
314.214
 30
0.000000
  70
    32
  0
VERTEX
  8
寸法線
  5
11A9
 10
382.995
 20
314.174
 30
0.000000
  70
    32
  0
VERTEX
  8
寸法線
  5
11AA
 10
382.962
 20
314.133
 30
0.000000
  70
    32
  0
VERTEX
  8
寸法線
  5
11AB
 10
382.929
 20
314.093
 30
0.000000
  70
    32
  0
VERTEX
  8
寸法線
  5
11AC
 10
382.896
 20
314.052
 30
0.000000
  70
    32
  0
VERTEX
  8
寸法線
  5
11AD
 10
382.864
 20
314.011
 30
0.000000
  70
    32
  0
VERTEX
  8
寸法線
  5
11AE
 10
382.831
 20
313.971
 30
0.000000
  70
    32
  0
VERTEX
  8
寸法線
  5
11AF
 10
382.799
 20
313.930
 30
0.000000
  70
    32
  0
VERTEX
  8
寸法線
  5
11B0
 10
382.767
 20
313.888
 30
0.000000
  70
    32
  0
VERTEX
  8
寸法線
  5
11B1
 10
382.735
 20
313.847
 30
0.000000
  70
    32
  0
VERTEX
  8
寸法線
  5
11B2
 10
382.703
 20
313.806
 30
0.000000
  70
    32
  0
VERTEX
  8
寸法線
  5
11B3
 10
382.671
 20
313.764
 30
0.000000
  70
    32
  0
VERTEX
  8
寸法線
  5
11B4
 10
382.640
 20
313.723
 30
0.000000
  70
    32
  0
VERTEX
  8
寸法線
  5
11B5
 10
382.610
 20
313.681
 30
0.000000
  70
    32
  0
VERTEX
  8
寸法線
  5
11B6
 10
382.579
 20
313.639
 30
0.000000
  70
    32
  0
VERTEX
  8
寸法線
  5
11B7
 10
382.549
 20
313.597
 30
0.000000
  70
    32
  0
VERTEX
  8
寸法線
  5
11B8
 10
382.520
 20
313.555
 30
0.000000
  70
    32
  0
VERTEX
  8
寸法線
  5
11B9
 10
382.491
 20
313.512
 30
0.000000
  70
    32
  0
VERTEX
  8
寸法線
  5
11BA
 10
382.463
 20
313.469
 30
0.000000
  70
    32
  0
VERTEX
  8
寸法線
  5
11BB
 10
382.436
 20
313.427
 30
0.000000
  70
    32
  0
VERTEX
  8
寸法線
  5
11BC
 10
382.409
 20
313.384
 30
0.000000
  70
    32
  0
VERTEX
  8
寸法線
  5
11BD
 10
382.382
 20
313.340
 30
0.000000
  70
    32
  0
VERTEX
  8
寸法線
  5
11BE
 10
382.357
 20
313.297
 30
0.000000
  70
    32
  0
VERTEX
  8
寸法線
  5
11BF
 10
382.332
 20
313.253
 30
0.000000
  70
    32
  0
VERTEX
  8
寸法線
  5
11C0
 10
382.308
 20
313.209
 30
0.000000
  70
    32
  0
VERTEX
  8
寸法線
  5
11C1
 10
382.285
 20
313.165
 30
0.000000
  70
    32
  0
VERTEX
  8
寸法線
  5
11C2
 10
382.263
 20
313.121
 30
0.000000
  70
    32
  0
VERTEX
  8
寸法線
  5
11C3
 10
382.242
 20
313.076
 30
0.000000
  70
    32
  0
VERTEX
  8
寸法線
  5
11C4
 10
382.222
 20
313.032
 30
0.000000
  70
    32
  0
VERTEX
  8
寸法線
  5
11C5
 10
382.203
 20
312.986
 30
0.000000
  70
    32
  0
VERTEX
  8
寸法線
  5
11C6
 10
382.185
 20
312.941
 30
0.000000
  70
    32
  0
VERTEX
  8
寸法線
  5
11C7
 10
382.168
 20
312.896
 30
0.000000
  70
    32
  0
VERTEX
  8
寸法線
  5
11C8
 10
382.152
 20
312.850
 30
0.000000
  70
    32
  0
VERTEX
  8
寸法線
  5
11C9
 10
382.137
 20
312.804
 30
0.000000
  70
    32
  0
VERTEX
  8
寸法線
  5
11CA
 10
382.123
 20
312.757
 30
0.000000
  70
    32
  0
VERTEX
  8
寸法線
  5
11CB
 10
382.110
 20
312.711
 30
0.000000
  70
    32
  0
VERTEX
  8
寸法線
  5
11CC
 10
382.098
 20
312.664
 30
0.000000
  70
    32
  0
VERTEX
  8
寸法線
  5
11CD
 10
382.087
 20
312.617
 30
0.000000
  70
    32
  0
VERTEX
  8
寸法線
  5
11CE
 10
382.077
 20
312.570
 30
0.000000
  70
    32
  0
VERTEX
  8
寸法線
  5
11CF
 10
382.067
 20
312.523
 30
0.000000
  70
    32
  0
VERTEX
  8
寸法線
  5
11D0
 10
382.059
 20
312.475
 30
0.000000
  70
    32
  0
VERTEX
  8
寸法線
  5
11D1
 10
382.051
 20
312.427
 30
0.000000
  70
    32
  0
VERTEX
  8
寸法線
  5
11D2
 10
382.044
 20
312.380
 30
0.000000
  70
    32
  0
VERTEX
  8
寸法線
  5
11D3
 10
382.038
 20
312.332
 30
0.000000
  70
    32
  0
VERTEX
  8
寸法線
  5
11D4
 10
382.033
 20
312.283
 30
0.000000
  70
    32
  0
VERTEX
  8
寸法線
  5
11D5
 10
382.028
 20
312.235
 30
0.000000
  70
    32
  0
VERTEX
  8
寸法線
  5
11D6
 10
382.024
 20
312.187
 30
0.000000
  70
    32
  0
VERTEX
  8
寸法線
  5
11D7
 10
382.020
 20
312.138
 30
0.000000
  70
    32
  0
VERTEX
  8
寸法線
  5
11D8
 10
382.017
 20
312.090
 30
0.000000
  70
    32
  0
VERTEX
  8
寸法線
  5
11D9
 10
382.015
 20
312.041
 30
0.000000
  70
    32
  0
VERTEX
  8
寸法線
  5
11DA
 10
382.013
 20
311.992
 30
0.000000
  70
    32
  0
VERTEX
  8
寸法線
  5
11DB
 10
382.012
 20
311.943
 30
0.000000
  70
    32
  0
VERTEX
  8
寸法線
  5
11DC
 10
382.011
 20
311.894
 30
0.000000
  70
    32
  0
VERTEX
  8
寸法線
  5
11DD
 10
382.010
 20
311.845
 30
0.000000
  70
    32
  0
VERTEX
  8
寸法線
  5
11DE
 10
382.010
 20
311.796
 30
0.000000
  70
    32
  0
VERTEX
  8
寸法線
  5
11DF
 10
382.011
 20
311.747
 30
0.000000
  70
    32
  0
VERTEX
  8
寸法線
  5
11E0
 10
382.011
 20
311.698
 30
0.000000
  70
    32
  0
VERTEX
  8
寸法線
  5
11E1
 10
382.012
 20
311.649
 30
0.000000
  70
    32
  0
VERTEX
  8
寸法線
  5
11E2
 10
382.014
 20
311.600
 30
0.000000
  70
    32
  0
VERTEX
  8
寸法線
  5
11E3
 10
382.015
 20
311.551
 30
0.000000
  70
    32
  0
VERTEX
  8
寸法線
  5
11E4
 10
382.017
 20
311.501
 30
0.000000
  70
    32
  0
VERTEX
  8
寸法線
  5
11E5
 10
382.019
 20
311.452
 30
0.000000
  70
    32
  0
VERTEX
  8
寸法線
  5
11E6
 10
382.021
 20
311.403
 30
0.000000
  70
    32
  0
VERTEX
  8
寸法線
  5
11E7
 10
382.024
 20
311.354
 30
0.000000
  70
    32
  0
VERTEX
  8
寸法線
  5
11E8
 10
382.026
 20
311.305
 30
0.000000
  70
    32
  0
VERTEX
  8
寸法線
  5
11E9
 10
382.029
 20
311.256
 30
0.000000
  70
    32
  0
VERTEX
  8
寸法線
  5
11EA
 10
382.031
 20
311.207
 30
0.000000
  70
    32
  0
VERTEX
  8
寸法線
  5
11EB
 10
382.034
 20
311.158
 30
0.000000
  70
    32
  0
VERTEX
  8
寸法線
  5
11EC
 10
382.036
 20
311.109
 30
0.000000
  70
    32
  0
VERTEX
  8
寸法線
  5
11ED
 10
382.039
 20
311.061
 30
0.000000
  70
    32
  0
VERTEX
  8
寸法線
  5
11EE
 10
382.041
 20
311.012
 30
0.000000
  70
    32
  0
VERTEX
  8
寸法線
  5
11EF
 10
382.044
 20
310.964
 30
0.000000
  70
    32
  0
VERTEX
  8
寸法線
  5
11F0
 10
382.046
 20
310.915
 30
0.000000
  70
    32
  0
VERTEX
  8
寸法線
  5
11F1
 10
382.048
 20
310.867
 30
0.000000
  70
    32
  0
VERTEX
  8
寸法線
  5
11F2
 10
382.050
 20
310.819
 30
0.000000
  70
    32
  0
VERTEX
  8
寸法線
  5
11F3
 10
382.052
 20
310.771
 30
0.000000
  70
    32
  0
VERTEX
  8
寸法線
  5
11F4
 10
382.053
 20
310.723
 30
0.000000
  70
    32
  0
VERTEX
  8
寸法線
  5
11F5
 10
382.054
 20
310.675
 30
0.000000
  70
    32
  0
VERTEX
  8
寸法線
  5
11F6
 10
382.055
 20
310.628
 30
0.000000
  70
    32
  0
VERTEX
  8
寸法線
  5
11F7
 10
382.055
 20
310.581
 30
0.000000
  70
    32
  0
VERTEX
  8
寸法線
  5
11F8
 10
382.056
 20
310.534
 30
0.000000
  70
    32
  0
VERTEX
  8
寸法線
  5
11F9
 10
382.055
 20
310.487
 30
0.000000
  70
    32
  0
VERTEX
  8
寸法線
  5
11FA
 10
382.055
 20
310.440
 30
0.000000
  70
    32
  0
VERTEX
  8
寸法線
  5
11FB
 10
382.053
 20
310.393
 30
0.000000
  70
    32
  0
VERTEX
  8
寸法線
  5
11FC
 10
382.052
 20
310.347
 30
0.000000
  70
    32
  0
VERTEX
  8
寸法線
  5
11FD
 10
382.050
 20
310.301
 30
0.000000
  70
    32
  0
VERTEX
  8
寸法線
  5
11FE
 10
382.047
 20
310.255
 30
0.000000
  70
    32
  0
VERTEX
  8
寸法線
  5
11FF
 10
382.044
 20
310.210
 30
0.000000
  70
    32
  0
VERTEX
  8
寸法線
  5
1200
 10
382.040
 20
310.164
 30
0.000000
  70
    32
  0
VERTEX
  8
寸法線
  5
1201
 10
382.035
 20
310.119
 30
0.000000
  70
    32
  0
VERTEX
  8
寸法線
  5
1202
 10
382.030
 20
310.075
 30
0.000000
  70
    32
  0
VERTEX
  8
寸法線
  5
1203
 10
382.024
 20
310.030
 30
0.000000
  70
    32
  0
VERTEX
  8
寸法線
  5
1204
 10
382.017
 20
309.986
 30
0.000000
  70
    32
  0
VERTEX
  8
寸法線
  5
1205
 10
382.010
 20
309.942
 30
0.000000
  70
    32
  0
VERTEX
  8
寸法線
  5
1206
 10
382.002
 20
309.899
 30
0.000000
  70
    32
  0
VERTEX
  8
寸法線
  5
1207
 10
381.993
 20
309.856
 30
0.000000
  70
    32
  0
VERTEX
  8
寸法線
  5
1208
 10
381.983
 20
309.813
 30
0.000000
  70
    32
  0
VERTEX
  8
寸法線
  5
1209
 10
381.972
 20
309.770
 30
0.000000
  70
    32
  0
VERTEX
  8
寸法線
  5
120A
 10
381.960
 20
309.728
 30
0.000000
  70
    32
  0
VERTEX
  8
寸法線
  5
120B
 10
381.948
 20
309.686
 30
0.000000
  70
    32
  0
VERTEX
  8
寸法線
  5
120C
 10
381.934
 20
309.645
 30
0.000000
  70
    32
  0
VERTEX
  8
寸法線
  5
120D
 10
381.920
 20
309.604
 30
0.000000
  70
    32
  0
VERTEX
  8
寸法線
  5
120E
 10
381.904
 20
309.563
 30
0.000000
  70
    32
  0
VERTEX
  8
寸法線
  5
120F
 10
381.887
 20
309.523
 30
0.000000
  70
    32
  0
VERTEX
  8
寸法線
  5
1210
 10
381.870
 20
309.483
 30
0.000000
  70
    32
  0
VERTEX
  8
寸法線
  5
1211
 10
381.851
 20
309.444
 30
0.000000
  70
    32
  0
VERTEX
  8
寸法線
  5
1212
 10
381.831
 20
309.405
 30
0.000000
  70
    32
  0
VERTEX
  8
寸法線
  5
1213
 10
381.810
 20
309.366
 30
0.000000
  70
    32
  0
VERTEX
  8
寸法線
  5
1214
 10
381.787
 20
309.328
 30
0.000000
  70
    32
  0
VERTEX
  8
寸法線
  5
1215
 10
381.764
 20
309.290
 30
0.000000
  70
    32
  0
VERTEX
  8
寸法線
  5
1216
 10
381.739
 20
309.253
 30
0.000000
  70
    32
  0
VERTEX
  8
寸法線
  5
1217
 10
381.713
 20
309.216
 30
0.000000
  70
    32
  0
VERTEX
  8
寸法線
  5
1218
 10
381.685
 20
309.180
 30
0.000000
  70
    32
  0
VERTEX
  8
寸法線
  5
1219
 10
381.656
 20
309.145
 30
0.000000
  70
    32
  0
VERTEX
  8
寸法線
  5
121A
 10
381.626
 20
309.109
 30
0.000000
  70
    32
  0
VERTEX
  8
寸法線
  5
121B
 10
381.594
 20
309.075
 30
0.000000
  70
    32
  0
VERTEX
  8
寸法線
  5
121C
 10
381.561
 20
309.040
 30
0.000000
  70
    32
  0
VERTEX
  8
寸法線
  5
121D
 10
381.526
 20
309.007
 30
0.000000
  70
    32
  0
VERTEX
  8
寸法線
  5
121E
 10
381.490
 20
308.974
 30
0.000000
  70
    32
  0
VERTEX
  8
寸法線
  5
121F
 10
381.453
 20
308.941
 30
0.000000
  70
    32
  0
VERTEX
  8
寸法線
  5
1220
 10
381.413
 20
308.909
 30
0.000000
  70
    32
  0
VERTEX
  8
寸法線
  5
1221
 10
381.373
 20
308.877
 30
0.000000
  70
    32
  0
VERTEX
  8
寸法線
  5
1222
 10
381.330
 20
308.847
 30
0.000000
  70
    32
  0
VERTEX
  8
寸法線
  5
1223
 10
381.286
 20
308.816
 30
0.000000
  70
    32
  0
VERTEX
  8
寸法線
  5
1224
 10
381.240
 20
308.786
 30
0.000000
  70
    32
  0
VERTEX
  8
寸法線
  5
1225
 10
381.193
 20
308.755
 30
0.000000
  70
    32
  0
VERTEX
  8
寸法線
  5
1226
 10
381.145
 20
308.724
 30
0.000000
  70
    32
  0
VERTEX
  8
寸法線
  5
1227
 10
381.096
 20
308.691
 30
0.000000
  70
    32
  0
VERTEX
  8
寸法線
  5
1228
 10
381.046
 20
308.657
 30
0.000000
  70
    32
  0
VERTEX
  8
寸法線
  5
1229
 10
380.995
 20
308.620
 30
0.000000
  70
    32
  0
VERTEX
  8
寸法線
  5
122A
 10
380.943
 20
308.581
 30
0.000000
  70
    32
  0
VERTEX
  8
寸法線
  5
122B
 10
380.891
 20
308.539
 30
0.000000
  70
    32
  0
VERTEX
  8
寸法線
  5
122C
 10
380.839
 20
308.492
 30
0.000000
  70
    32
  0
VERTEX
  8
寸法線
  5
122D
 10
380.787
 20
308.442
 30
0.000000
  70
    32
  0
VERTEX
  8
寸法線
  5
122E
 10
380.734
 20
308.388
 30
0.000000
  70
    32
  0
VERTEX
  8
寸法線
  5
122F
 10
380.682
 20
308.328
 30
0.000000
  70
    32
  0
VERTEX
  8
寸法線
  5
1230
 10
380.630
 20
308.263
 30
0.000000
  70
    32
  0
VERTEX
  8
寸法線
  5
1231
 10
380.578
 20
308.191
 30
0.000000
  70
    32
  0
VERTEX
  8
寸法線
  5
1232
 10
380.527
 20
308.114
 30
0.000000
  70
    32
  0
VERTEX
  8
寸法線
  5
1233
 10
380.477
 20
308.029
 30
0.000000
  70
    32
  0
SEQEND
  8
寸法線
  5
1234
  0
LINE
  5
B94
  8
中心線
 10
412.7273663912768
 20
313.0292574490519
 30
0.0
 11
429.42906215453633
 21
313.0292574490519
 31
0.0
  0
POLYLINE
  8
寸法線
  5
1235
  66
     1
 10
0.000000
 20
0.000000
 30
0.000000
  70
     8
  0
VERTEX
  8
寸法線
  5
1236
 10
384.639
 20
250.062
 30
0.000000
  70
    32
  0
VERTEX
  8
寸法線
  5
1237
 10
384.575
 20
249.999
 30
0.000000
  70
    32
  0
VERTEX
  8
寸法線
  5
1238
 10
384.517
 20
249.937
 30
0.000000
  70
    32
  0
VERTEX
  8
寸法線
  5
1239
 10
384.465
 20
249.876
 30
0.000000
  70
    32
  0
VERTEX
  8
寸法線
  5
123A
 10
384.418
 20
249.816
 30
0.000000
  70
    32
  0
VERTEX
  8
寸法線
  5
123B
 10
384.376
 20
249.756
 30
0.000000
  70
    32
  0
VERTEX
  8
寸法線
  5
123C
 10
384.340
 20
249.697
 30
0.000000
  70
    32
  0
VERTEX
  8
寸法線
  5
123D
 10
384.308
 20
249.639
 30
0.000000
  70
    32
  0
VERTEX
  8
寸法線
  5
123E
 10
384.281
 20
249.582
 30
0.000000
  70
    32
  0
VERTEX
  8
寸法線
  5
123F
 10
384.259
 20
249.525
 30
0.000000
  70
    32
  0
VERTEX
  8
寸法線
  5
1240
 10
384.240
 20
249.470
 30
0.000000
  70
    32
  0
VERTEX
  8
寸法線
  5
1241
 10
384.226
 20
249.414
 30
0.000000
  70
    32
  0
VERTEX
  8
寸法線
  5
1242
 10
384.215
 20
249.360
 30
0.000000
  70
    32
  0
VERTEX
  8
寸法線
  5
1243
 10
384.208
 20
249.306
 30
0.000000
  70
    32
  0
VERTEX
  8
寸法線
  5
1244
 10
384.205
 20
249.253
 30
0.000000
  70
    32
  0
VERTEX
  8
寸法線
  5
1245
 10
384.204
 20
249.200
 30
0.000000
  70
    32
  0
VERTEX
  8
寸法線
  5
1246
 10
384.207
 20
249.148
 30
0.000000
  70
    32
  0
VERTEX
  8
寸法線
  5
1247
 10
384.212
 20
249.096
 30
0.000000
  70
    32
  0
VERTEX
  8
寸法線
  5
1248
 10
384.219
 20
249.046
 30
0.000000
  70
    32
  0
VERTEX
  8
寸法線
  5
1249
 10
384.230
 20
248.995
 30
0.000000
  70
    32
  0
VERTEX
  8
寸法線
  5
124A
 10
384.242
 20
248.945
 30
0.000000
  70
    32
  0
VERTEX
  8
寸法線
  5
124B
 10
384.256
 20
248.896
 30
0.000000
  70
    32
  0
VERTEX
  8
寸法線
  5
124C
 10
384.272
 20
248.847
 30
0.000000
  70
    32
  0
VERTEX
  8
寸法線
  5
124D
 10
384.289
 20
248.799
 30
0.000000
  70
    32
  0
VERTEX
  8
寸法線
  5
124E
 10
384.308
 20
248.751
 30
0.000000
  70
    32
  0
VERTEX
  8
寸法線
  5
124F
 10
384.327
 20
248.703
 30
0.000000
  70
    32
  0
VERTEX
  8
寸法線
  5
1250
 10
384.348
 20
248.656
 30
0.000000
  70
    32
  0
VERTEX
  8
寸法線
  5
1251
 10
384.369
 20
248.609
 30
0.000000
  70
    32
  0
VERTEX
  8
寸法線
  5
1252
 10
384.391
 20
248.563
 30
0.000000
  70
    32
  0
VERTEX
  8
寸法線
  5
1253
 10
384.413
 20
248.517
 30
0.000000
  70
    32
  0
VERTEX
  8
寸法線
  5
1254
 10
384.435
 20
248.472
 30
0.000000
  70
    32
  0
VERTEX
  8
寸法線
  5
1255
 10
384.456
 20
248.427
 30
0.000000
  70
    32
  0
VERTEX
  8
寸法線
  5
1256
 10
384.478
 20
248.382
 30
0.000000
  70
    32
  0
VERTEX
  8
寸法線
  5
1257
 10
384.499
 20
248.337
 30
0.000000
  70
    32
  0
VERTEX
  8
寸法線
  5
1258
 10
384.519
 20
248.293
 30
0.000000
  70
    32
  0
VERTEX
  8
寸法線
  5
1259
 10
384.538
 20
248.249
 30
0.000000
  70
    32
  0
VERTEX
  8
寸法線
  5
125A
 10
384.555
 20
248.205
 30
0.000000
  70
    32
  0
VERTEX
  8
寸法線
  5
125B
 10
384.572
 20
248.162
 30
0.000000
  70
    32
  0
VERTEX
  8
寸法線
  5
125C
 10
384.586
 20
248.118
 30
0.000000
  70
    32
  0
VERTEX
  8
寸法線
  5
125D
 10
384.599
 20
248.075
 30
0.000000
  70
    32
  0
VERTEX
  8
寸法線
  5
125E
 10
384.610
 20
248.032
 30
0.000000
  70
    32
  0
VERTEX
  8
寸法線
  5
125F
 10
384.619
 20
247.990
 30
0.000000
  70
    32
  0
VERTEX
  8
寸法線
  5
1260
 10
384.627
 20
247.947
 30
0.000000
  70
    32
  0
VERTEX
  8
寸法線
  5
1261
 10
384.632
 20
247.905
 30
0.000000
  70
    32
  0
VERTEX
  8
寸法線
  5
1262
 10
384.636
 20
247.863
 30
0.000000
  70
    32
  0
VERTEX
  8
寸法線
  5
1263
 10
384.638
 20
247.821
 30
0.000000
  70
    32
  0
VERTEX
  8
寸法線
  5
1264
 10
384.639
 20
247.779
 30
0.000000
  70
    32
  0
VERTEX
  8
寸法線
  5
1265
 10
384.638
 20
247.737
 30
0.000000
  70
    32
  0
VERTEX
  8
寸法線
  5
1266
 10
384.635
 20
247.696
 30
0.000000
  70
    32
  0
VERTEX
  8
寸法線
  5
1267
 10
384.631
 20
247.654
 30
0.000000
  70
    32
  0
VERTEX
  8
寸法線
  5
1268
 10
384.625
 20
247.613
 30
0.000000
  70
    32
  0
VERTEX
  8
寸法線
  5
1269
 10
384.618
 20
247.572
 30
0.000000
  70
    32
  0
VERTEX
  8
寸法線
  5
126A
 10
384.610
 20
247.531
 30
0.000000
  70
    32
  0
VERTEX
  8
寸法線
  5
126B
 10
384.600
 20
247.490
 30
0.000000
  70
    32
  0
VERTEX
  8
寸法線
  5
126C
 10
384.589
 20
247.449
 30
0.000000
  70
    32
  0
VERTEX
  8
寸法線
  5
126D
 10
384.576
 20
247.408
 30
0.000000
  70
    32
  0
VERTEX
  8
寸法線
  5
126E
 10
384.562
 20
247.368
 30
0.000000
  70
    32
  0
VERTEX
  8
寸法線
  5
126F
 10
384.548
 20
247.327
 30
0.000000
  70
    32
  0
VERTEX
  8
寸法線
  5
1270
 10
384.531
 20
247.287
 30
0.000000
  70
    32
  0
VERTEX
  8
寸法線
  5
1271
 10
384.514
 20
247.247
 30
0.000000
  70
    32
  0
VERTEX
  8
寸法線
  5
1272
 10
384.496
 20
247.206
 30
0.000000
  70
    32
  0
VERTEX
  8
寸法線
  5
1273
 10
384.476
 20
247.166
 30
0.000000
  70
    32
  0
VERTEX
  8
寸法線
  5
1274
 10
384.456
 20
247.126
 30
0.000000
  70
    32
  0
VERTEX
  8
寸法線
  5
1275
 10
384.435
 20
247.086
 30
0.000000
  70
    32
  0
VERTEX
  8
寸法線
  5
1276
 10
384.412
 20
247.046
 30
0.000000
  70
    32
  0
VERTEX
  8
寸法線
  5
1277
 10
384.389
 20
247.006
 30
0.000000
  70
    32
  0
VERTEX
  8
寸法線
  5
1278
 10
384.365
 20
246.966
 30
0.000000
  70
    32
  0
VERTEX
  8
寸法線
  5
1279
 10
384.340
 20
246.926
 30
0.000000
  70
    32
  0
VERTEX
  8
寸法線
  5
127A
 10
384.315
 20
246.886
 30
0.000000
  70
    32
  0
VERTEX
  8
寸法線
  5
127B
 10
384.288
 20
246.846
 30
0.000000
  70
    32
  0
VERTEX
  8
寸法線
  5
127C
 10
384.261
 20
246.807
 30
0.000000
  70
    32
  0
VERTEX
  8
寸法線
  5
127D
 10
384.233
 20
246.767
 30
0.000000
  70
    32
  0
VERTEX
  8
寸法線
  5
127E
 10
384.205
 20
246.727
 30
0.000000
  70
    32
  0
VERTEX
  8
寸法線
  5
127F
 10
384.176
 20
246.687
 30
0.000000
  70
    32
  0
VERTEX
  8
寸法線
  5
1280
 10
384.147
 20
246.647
 30
0.000000
  70
    32
  0
VERTEX
  8
寸法線
  5
1281
 10
384.117
 20
246.607
 30
0.000000
  70
    32
  0
VERTEX
  8
寸法線
  5
1282
 10
384.086
 20
246.567
 30
0.000000
  70
    32
  0
VERTEX
  8
寸法線
  5
1283
 10
384.056
 20
246.527
 30
0.000000
  70
    32
  0
VERTEX
  8
寸法線
  5
1284
 10
384.024
 20
246.488
 30
0.000000
  70
    32
  0
VERTEX
  8
寸法線
  5
1285
 10
383.993
 20
246.448
 30
0.000000
  70
    32
  0
VERTEX
  8
寸法線
  5
1286
 10
383.961
 20
246.407
 30
0.000000
  70
    32
  0
VERTEX
  8
寸法線
  5
1287
 10
383.929
 20
246.367
 30
0.000000
  70
    32
  0
VERTEX
  8
寸法線
  5
1288
 10
383.897
 20
246.327
 30
0.000000
  70
    32
  0
VERTEX
  8
寸法線
  5
1289
 10
383.864
 20
246.287
 30
0.000000
  70
    32
  0
VERTEX
  8
寸法線
  5
128A
 10
383.832
 20
246.247
 30
0.000000
  70
    32
  0
VERTEX
  8
寸法線
  5
128B
 10
383.799
 20
246.206
 30
0.000000
  70
    32
  0
VERTEX
  8
寸法線
  5
128C
 10
383.766
 20
246.166
 30
0.000000
  70
    32
  0
VERTEX
  8
寸法線
  5
128D
 10
383.734
 20
246.125
 30
0.000000
  70
    32
  0
VERTEX
  8
寸法線
  5
128E
 10
383.701
 20
246.085
 30
0.000000
  70
    32
  0
VERTEX
  8
寸法線
  5
128F
 10
383.668
 20
246.044
 30
0.000000
  70
    32
  0
VERTEX
  8
寸法線
  5
1290
 10
383.636
 20
246.003
 30
0.000000
  70
    32
  0
VERTEX
  8
寸法線
  5
1291
 10
383.603
 20
245.962
 30
0.000000
  70
    32
  0
VERTEX
  8
寸法線
  5
1292
 10
383.571
 20
245.921
 30
0.000000
  70
    32
  0
VERTEX
  8
寸法線
  5
1293
 10
383.539
 20
245.880
 30
0.000000
  70
    32
  0
VERTEX
  8
寸法線
  5
1294
 10
383.507
 20
245.838
 30
0.000000
  70
    32
  0
VERTEX
  8
寸法線
  5
1295
 10
383.476
 20
245.797
 30
0.000000
  70
    32
  0
VERTEX
  8
寸法線
  5
1296
 10
383.445
 20
245.755
 30
0.000000
  70
    32
  0
VERTEX
  8
寸法線
  5
1297
 10
383.414
 20
245.713
 30
0.000000
  70
    32
  0
VERTEX
  8
寸法線
  5
1298
 10
383.384
 20
245.671
 30
0.000000
  70
    32
  0
VERTEX
  8
寸法線
  5
1299
 10
383.354
 20
245.629
 30
0.000000
  70
    32
  0
VERTEX
  8
寸法線
  5
129A
 10
383.325
 20
245.587
 30
0.000000
  70
    32
  0
VERTEX
  8
寸法線
  5
129B
 10
383.296
 20
245.544
 30
0.000000
  70
    32
  0
VERTEX
  8
寸法線
  5
129C
 10
383.268
 20
245.502
 30
0.000000
  70
    32
  0
VERTEX
  8
寸法線
  5
129D
 10
383.240
 20
245.459
 30
0.000000
  70
    32
  0
VERTEX
  8
寸法線
  5
129E
 10
383.213
 20
245.416
 30
0.000000
  70
    32
  0
VERTEX
  8
寸法線
  5
129F
 10
383.187
 20
245.373
 30
0.000000
  70
    32
  0
VERTEX
  8
寸法線
  5
12A0
 10
383.161
 20
245.329
 30
0.000000
  70
    32
  0
VERTEX
  8
寸法線
  5
12A1
 10
383.137
 20
245.286
 30
0.000000
  70
    32
  0
VERTEX
  8
寸法線
  5
12A2
 10
383.113
 20
245.242
 30
0.000000
  70
    32
  0
VERTEX
  8
寸法線
  5
12A3
 10
383.090
 20
245.198
 30
0.000000
  70
    32
  0
VERTEX
  8
寸法線
  5
12A4
 10
383.068
 20
245.153
 30
0.000000
  70
    32
  0
VERTEX
  8
寸法線
  5
12A5
 10
383.047
 20
245.109
 30
0.000000
  70
    32
  0
VERTEX
  8
寸法線
  5
12A6
 10
383.026
 20
245.064
 30
0.000000
  70
    32
  0
VERTEX
  8
寸法線
  5
12A7
 10
383.007
 20
245.019
 30
0.000000
  70
    32
  0
VERTEX
  8
寸法線
  5
12A8
 10
382.989
 20
244.973
 30
0.000000
  70
    32
  0
VERTEX
  8
寸法線
  5
12A9
 10
382.972
 20
244.928
 30
0.000000
  70
    32
  0
VERTEX
  8
寸法線
  5
12AA
 10
382.956
 20
244.882
 30
0.000000
  70
    32
  0
VERTEX
  8
寸法線
  5
12AB
 10
382.941
 20
244.836
 30
0.000000
  70
    32
  0
VERTEX
  8
寸法線
  5
12AC
 10
382.927
 20
244.790
 30
0.000000
  70
    32
  0
VERTEX
  8
寸法線
  5
12AD
 10
382.914
 20
244.743
 30
0.000000
  70
    32
  0
VERTEX
  8
寸法線
  5
12AE
 10
382.902
 20
244.696
 30
0.000000
  70
    32
  0
VERTEX
  8
寸法線
  5
12AF
 10
382.891
 20
244.649
 30
0.000000
  70
    32
  0
VERTEX
  8
寸法線
  5
12B0
 10
382.881
 20
244.602
 30
0.000000
  70
    32
  0
VERTEX
  8
寸法線
  5
12B1
 10
382.872
 20
244.555
 30
0.000000
  70
    32
  0
VERTEX
  8
寸法線
  5
12B2
 10
382.863
 20
244.507
 30
0.000000
  70
    32
  0
VERTEX
  8
寸法線
  5
12B3
 10
382.856
 20
244.460
 30
0.000000
  70
    32
  0
VERTEX
  8
寸法線
  5
12B4
 10
382.849
 20
244.412
 30
0.000000
  70
    32
  0
VERTEX
  8
寸法線
  5
12B5
 10
382.843
 20
244.364
 30
0.000000
  70
    32
  0
VERTEX
  8
寸法線
  5
12B6
 10
382.837
 20
244.316
 30
0.000000
  70
    32
  0
VERTEX
  8
寸法線
  5
12B7
 10
382.832
 20
244.268
 30
0.000000
  70
    32
  0
VERTEX
  8
寸法線
  5
12B8
 10
382.828
 20
244.219
 30
0.000000
  70
    32
  0
VERTEX
  8
寸法線
  5
12B9
 10
382.825
 20
244.171
 30
0.000000
  70
    32
  0
VERTEX
  8
寸法線
  5
12BA
 10
382.822
 20
244.122
 30
0.000000
  70
    32
  0
VERTEX
  8
寸法線
  5
12BB
 10
382.819
 20
244.073
 30
0.000000
  70
    32
  0
VERTEX
  8
寸法線
  5
12BC
 10
382.818
 20
244.025
 30
0.000000
  70
    32
  0
VERTEX
  8
寸法線
  5
12BD
 10
382.816
 20
243.976
 30
0.000000
  70
    32
  0
VERTEX
  8
寸法線
  5
12BE
 10
382.815
 20
243.927
 30
0.000000
  70
    32
  0
VERTEX
  8
寸法線
  5
12BF
 10
382.815
 20
243.878
 30
0.000000
  70
    32
  0
VERTEX
  8
寸法線
  5
12C0
 10
382.815
 20
243.829
 30
0.000000
  70
    32
  0
VERTEX
  8
寸法線
  5
12C1
 10
382.815
 20
243.780
 30
0.000000
  70
    32
  0
VERTEX
  8
寸法線
  5
12C2
 10
382.816
 20
243.730
 30
0.000000
  70
    32
  0
VERTEX
  8
寸法線
  5
12C3
 10
382.817
 20
243.681
 30
0.000000
  70
    32
  0
VERTEX
  8
寸法線
  5
12C4
 10
382.818
 20
243.632
 30
0.000000
  70
    32
  0
VERTEX
  8
寸法線
  5
12C5
 10
382.820
 20
243.583
 30
0.000000
  70
    32
  0
VERTEX
  8
寸法線
  5
12C6
 10
382.822
 20
243.534
 30
0.000000
  70
    32
  0
VERTEX
  8
寸法線
  5
12C7
 10
382.824
 20
243.485
 30
0.000000
  70
    32
  0
VERTEX
  8
寸法線
  5
12C8
 10
382.826
 20
243.436
 30
0.000000
  70
    32
  0
VERTEX
  8
寸法線
  5
12C9
 10
382.828
 20
243.386
 30
0.000000
  70
    32
  0
VERTEX
  8
寸法線
  5
12CA
 10
382.831
 20
243.337
 30
0.000000
  70
    32
  0
VERTEX
  8
寸法線
  5
12CB
 10
382.833
 20
243.288
 30
0.000000
  70
    32
  0
VERTEX
  8
寸法線
  5
12CC
 10
382.836
 20
243.239
 30
0.000000
  70
    32
  0
VERTEX
  8
寸法線
  5
12CD
 10
382.838
 20
243.191
 30
0.000000
  70
    32
  0
VERTEX
  8
寸法線
  5
12CE
 10
382.841
 20
243.142
 30
0.000000
  70
    32
  0
VERTEX
  8
寸法線
  5
12CF
 10
382.843
 20
243.093
 30
0.000000
  70
    32
  0
VERTEX
  8
寸法線
  5
12D0
 10
382.846
 20
243.045
 30
0.000000
  70
    32
  0
VERTEX
  8
寸法線
  5
12D1
 10
382.848
 20
242.996
 30
0.000000
  70
    32
  0
VERTEX
  8
寸法線
  5
12D2
 10
382.851
 20
242.948
 30
0.000000
  70
    32
  0
VERTEX
  8
寸法線
  5
12D3
 10
382.853
 20
242.899
 30
0.000000
  70
    32
  0
VERTEX
  8
寸法線
  5
12D4
 10
382.854
 20
242.851
 30
0.000000
  70
    32
  0
VERTEX
  8
寸法線
  5
12D5
 10
382.856
 20
242.803
 30
0.000000
  70
    32
  0
VERTEX
  8
寸法線
  5
12D6
 10
382.858
 20
242.755
 30
0.000000
  70
    32
  0
VERTEX
  8
寸法線
  5
12D7
 10
382.859
 20
242.708
 30
0.000000
  70
    32
  0
VERTEX
  8
寸法線
  5
12D8
 10
382.860
 20
242.660
 30
0.000000
  70
    32
  0
VERTEX
  8
寸法線
  5
12D9
 10
382.860
 20
242.613
 30
0.000000
  70
    32
  0
VERTEX
  8
寸法線
  5
12DA
 10
382.860
 20
242.566
 30
0.000000
  70
    32
  0
VERTEX
  8
寸法線
  5
12DB
 10
382.860
 20
242.519
 30
0.000000
  70
    32
  0
VERTEX
  8
寸法線
  5
12DC
 10
382.859
 20
242.472
 30
0.000000
  70
    32
  0
VERTEX
  8
寸法線
  5
12DD
 10
382.858
 20
242.426
 30
0.000000
  70
    32
  0
VERTEX
  8
寸法線
  5
12DE
 10
382.856
 20
242.379
 30
0.000000
  70
    32
  0
VERTEX
  8
寸法線
  5
12DF
 10
382.854
 20
242.333
 30
0.000000
  70
    32
  0
VERTEX
  8
寸法線
  5
12E0
 10
382.851
 20
242.288
 30
0.000000
  70
    32
  0
VERTEX
  8
寸法線
  5
12E1
 10
382.848
 20
242.242
 30
0.000000
  70
    32
  0
VERTEX
  8
寸法線
  5
12E2
 10
382.844
 20
242.197
 30
0.000000
  70
    32
  0
VERTEX
  8
寸法線
  5
12E3
 10
382.840
 20
242.152
 30
0.000000
  70
    32
  0
VERTEX
  8
寸法線
  5
12E4
 10
382.834
 20
242.107
 30
0.000000
  70
    32
  0
VERTEX
  8
寸法線
  5
12E5
 10
382.829
 20
242.063
 30
0.000000
  70
    32
  0
VERTEX
  8
寸法線
  5
12E6
 10
382.822
 20
242.018
 30
0.000000
  70
    32
  0
VERTEX
  8
寸法線
  5
12E7
 10
382.814
 20
241.975
 30
0.000000
  70
    32
  0
VERTEX
  8
寸法線
  5
12E8
 10
382.806
 20
241.931
 30
0.000000
  70
    32
  0
VERTEX
  8
寸法線
  5
12E9
 10
382.797
 20
241.888
 30
0.000000
  70
    32
  0
VERTEX
  8
寸法線
  5
12EA
 10
382.787
 20
241.845
 30
0.000000
  70
    32
  0
VERTEX
  8
寸法線
  5
12EB
 10
382.777
 20
241.803
 30
0.000000
  70
    32
  0
VERTEX
  8
寸法線
  5
12EC
 10
382.765
 20
241.760
 30
0.000000
  70
    32
  0
VERTEX
  8
寸法線
  5
12ED
 10
382.752
 20
241.719
 30
0.000000
  70
    32
  0
VERTEX
  8
寸法線
  5
12EE
 10
382.739
 20
241.677
 30
0.000000
  70
    32
  0
VERTEX
  8
寸法線
  5
12EF
 10
382.724
 20
241.636
 30
0.000000
  70
    32
  0
VERTEX
  8
寸法線
  5
12F0
 10
382.709
 20
241.595
 30
0.000000
  70
    32
  0
VERTEX
  8
寸法線
  5
12F1
 10
382.692
 20
241.555
 30
0.000000
  70
    32
  0
VERTEX
  8
寸法線
  5
12F2
 10
382.674
 20
241.515
 30
0.000000
  70
    32
  0
VERTEX
  8
寸法線
  5
12F3
 10
382.655
 20
241.476
 30
0.000000
  70
    32
  0
VERTEX
  8
寸法線
  5
12F4
 10
382.635
 20
241.437
 30
0.000000
  70
    32
  0
VERTEX
  8
寸法線
  5
12F5
 10
382.614
 20
241.398
 30
0.000000
  70
    32
  0
VERTEX
  8
寸法線
  5
12F6
 10
382.592
 20
241.360
 30
0.000000
  70
    32
  0
VERTEX
  8
寸法線
  5
12F7
 10
382.568
 20
241.323
 30
0.000000
  70
    32
  0
VERTEX
  8
寸法線
  5
12F8
 10
382.543
 20
241.286
 30
0.000000
  70
    32
  0
VERTEX
  8
寸法線
  5
12F9
 10
382.517
 20
241.249
 30
0.000000
  70
    32
  0
VERTEX
  8
寸法線
  5
12FA
 10
382.490
 20
241.213
 30
0.000000
  70
    32
  0
VERTEX
  8
寸法線
  5
12FB
 10
382.461
 20
241.177
 30
0.000000
  70
    32
  0
VERTEX
  8
寸法線
  5
12FC
 10
382.430
 20
241.142
 30
0.000000
  70
    32
  0
VERTEX
  8
寸法線
  5
12FD
 10
382.399
 20
241.107
 30
0.000000
  70
    32
  0
VERTEX
  8
寸法線
  5
12FE
 10
382.366
 20
241.073
 30
0.000000
  70
    32
  0
VERTEX
  8
寸法線
  5
12FF
 10
382.331
 20
241.039
 30
0.000000
  70
    32
  0
VERTEX
  8
寸法線
  5
1300
 10
382.295
 20
241.006
 30
0.000000
  70
    32
  0
VERTEX
  8
寸法線
  5
1301
 10
382.257
 20
240.973
 30
0.000000
  70
    32
  0
VERTEX
  8
寸法線
  5
1302
 10
382.218
 20
240.941
 30
0.000000
  70
    32
  0
VERTEX
  8
寸法線
  5
1303
 10
382.177
 20
240.910
 30
0.000000
  70
    32
  0
VERTEX
  8
寸法線
  5
1304
 10
382.135
 20
240.879
 30
0.000000
  70
    32
  0
VERTEX
  8
寸法線
  5
1305
 10
382.091
 20
240.849
 30
0.000000
  70
    32
  0
VERTEX
  8
寸法線
  5
1306
 10
382.045
 20
240.818
 30
0.000000
  70
    32
  0
VERTEX
  8
寸法線
  5
1307
 10
381.998
 20
240.788
 30
0.000000
  70
    32
  0
VERTEX
  8
寸法線
  5
1308
 10
381.950
 20
240.756
 30
0.000000
  70
    32
  0
VERTEX
  8
寸法線
  5
1309
 10
381.901
 20
240.724
 30
0.000000
  70
    32
  0
VERTEX
  8
寸法線
  5
130A
 10
381.850
 20
240.689
 30
0.000000
  70
    32
  0
VERTEX
  8
寸法線
  5
130B
 10
381.799
 20
240.653
 30
0.000000
  70
    32
  0
VERTEX
  8
寸法線
  5
130C
 10
381.748
 20
240.613
 30
0.000000
  70
    32
  0
VERTEX
  8
寸法線
  5
130D
 10
381.696
 20
240.571
 30
0.000000
  70
    32
  0
VERTEX
  8
寸法線
  5
130E
 10
381.644
 20
240.525
 30
0.000000
  70
    32
  0
VERTEX
  8
寸法線
  5
130F
 10
381.591
 20
240.475
 30
0.000000
  70
    32
  0
VERTEX
  8
寸法線
  5
1310
 10
381.539
 20
240.420
 30
0.000000
  70
    32
  0
VERTEX
  8
寸法線
  5
1311
 10
381.486
 20
240.360
 30
0.000000
  70
    32
  0
VERTEX
  8
寸法線
  5
1312
 10
381.434
 20
240.295
 30
0.000000
  70
    32
  0
VERTEX
  8
寸法線
  5
1313
 10
381.383
 20
240.224
 30
0.000000
  70
    32
  0
VERTEX
  8
寸法線
  5
1314
 10
381.332
 20
240.146
 30
0.000000
  70
    32
  0
VERTEX
  8
寸法線
  5
1315
 10
381.282
 20
240.062
 30
0.000000
  70
    32
  0
SEQEND
  8
寸法線
  5
1316
  0
POLYLINE
  8
寸法線
  5
1317
  66
     1
 10
0.000000
 20
0.000000
 30
0.000000
  70
     8
  0
VERTEX
  8
寸法線
  5
1318
 10
382.076
 20
250.062
 30
0.000000
  70
    32
  0
VERTEX
  8
寸法線
  5
1319
 10
382.012
 20
249.999
 30
0.000000
  70
    32
  0
VERTEX
  8
寸法線
  5
131A
 10
381.955
 20
249.937
 30
0.000000
  70
    32
  0
VERTEX
  8
寸法線
  5
131B
 10
381.902
 20
249.876
 30
0.000000
  70
    32
  0
VERTEX
  8
寸法線
  5
131C
 10
381.856
 20
249.816
 30
0.000000
  70
    32
  0
VERTEX
  8
寸法線
  5
131D
 10
381.814
 20
249.756
 30
0.000000
  70
    32
  0
VERTEX
  8
寸法線
  5
131E
 10
381.778
 20
249.697
 30
0.000000
  70
    32
  0
VERTEX
  8
寸法線
  5
131F
 10
381.746
 20
249.639
 30
0.000000
  70
    32
  0
VERTEX
  8
寸法線
  5
1320
 10
381.719
 20
249.582
 30
0.000000
  70
    32
  0
VERTEX
  8
寸法線
  5
1321
 10
381.696
 20
249.525
 30
0.000000
  70
    32
  0
VERTEX
  8
寸法線
  5
1322
 10
381.678
 20
249.470
 30
0.000000
  70
    32
  0
VERTEX
  8
寸法線
  5
1323
 10
381.664
 20
249.414
 30
0.000000
  70
    32
  0
VERTEX
  8
寸法線
  5
1324
 10
381.653
 20
249.360
 30
0.000000
  70
    32
  0
VERTEX
  8
寸法線
  5
1325
 10
381.646
 20
249.306
 30
0.000000
  70
    32
  0
VERTEX
  8
寸法線
  5
1326
 10
381.642
 20
249.253
 30
0.000000
  70
    32
  0
VERTEX
  8
寸法線
  5
1327
 10
381.642
 20
249.200
 30
0.000000
  70
    32
  0
VERTEX
  8
寸法線
  5
1328
 10
381.644
 20
249.148
 30
0.000000
  70
    32
  0
VERTEX
  8
寸法線
  5
1329
 10
381.649
 20
249.096
 30
0.000000
  70
    32
  0
VERTEX
  8
寸法線
  5
132A
 10
381.657
 20
249.046
 30
0.000000
  70
    32
  0
VERTEX
  8
寸法線
  5
132B
 10
381.667
 20
248.995
 30
0.000000
  70
    32
  0
VERTEX
  8
寸法線
  5
132C
 10
381.680
 20
248.945
 30
0.000000
  70
    32
  0
VERTEX
  8
寸法線
  5
132D
 10
381.694
 20
248.896
 30
0.000000
  70
    32
  0
VERTEX
  8
寸法線
  5
132E
 10
381.709
 20
248.847
 30
0.000000
  70
    32
  0
VERTEX
  8
寸法線
  5
132F
 10
381.727
 20
248.799
 30
0.000000
  70
    32
  0
VERTEX
  8
寸法線
  5
1330
 10
381.745
 20
248.751
 30
0.000000
  70
    32
  0
VERTEX
  8
寸法線
  5
1331
 10
381.765
 20
248.703
 30
0.000000
  70
    32
  0
VERTEX
  8
寸法線
  5
1332
 10
381.786
 20
248.656
 30
0.000000
  70
    32
  0
VERTEX
  8
寸法線
  5
1333
 10
381.807
 20
248.609
 30
0.000000
  70
    32
  0
VERTEX
  8
寸法線
  5
1334
 10
381.828
 20
248.563
 30
0.000000
  70
    32
  0
VERTEX
  8
寸法線
  5
1335
 10
381.850
 20
248.517
 30
0.000000
  70
    32
  0
VERTEX
  8
寸法線
  5
1336
 10
381.872
 20
248.472
 30
0.000000
  70
    32
  0
VERTEX
  8
寸法線
  5
1337
 10
381.894
 20
248.427
 30
0.000000
  70
    32
  0
VERTEX
  8
寸法線
  5
1338
 10
381.915
 20
248.382
 30
0.000000
  70
    32
  0
VERTEX
  8
寸法線
  5
1339
 10
381.936
 20
248.337
 30
0.000000
  70
    32
  0
VERTEX
  8
寸法線
  5
133A
 10
381.956
 20
248.293
 30
0.000000
  70
    32
  0
VERTEX
  8
寸法線
  5
133B
 10
381.975
 20
248.249
 30
0.000000
  70
    32
  0
VERTEX
  8
寸法線
  5
133C
 10
381.993
 20
248.205
 30
0.000000
  70
    32
  0
VERTEX
  8
寸法線
  5
133D
 10
382.009
 20
248.162
 30
0.000000
  70
    32
  0
VERTEX
  8
寸法線
  5
133E
 10
382.024
 20
248.118
 30
0.000000
  70
    32
  0
VERTEX
  8
寸法線
  5
133F
 10
382.037
 20
248.075
 30
0.000000
  70
    32
  0
VERTEX
  8
寸法線
  5
1340
 10
382.048
 20
248.032
 30
0.000000
  70
    32
  0
VERTEX
  8
寸法線
  5
1341
 10
382.057
 20
247.990
 30
0.000000
  70
    32
  0
VERTEX
  8
寸法線
  5
1342
 10
382.065
 20
247.947
 30
0.000000
  70
    32
  0
VERTEX
  8
寸法線
  5
1343
 10
382.070
 20
247.905
 30
0.000000
  70
    32
  0
VERTEX
  8
寸法線
  5
1344
 10
382.074
 20
247.863
 30
0.000000
  70
    32
  0
VERTEX
  8
寸法線
  5
1345
 10
382.076
 20
247.821
 30
0.000000
  70
    32
  0
VERTEX
  8
寸法線
  5
1346
 10
382.077
 20
247.779
 30
0.000000
  70
    32
  0
VERTEX
  8
寸法線
  5
1347
 10
382.076
 20
247.737
 30
0.000000
  70
    32
  0
VERTEX
  8
寸法線
  5
1348
 10
382.073
 20
247.696
 30
0.000000
  70
    32
  0
VERTEX
  8
寸法線
  5
1349
 10
382.069
 20
247.654
 30
0.000000
  70
    32
  0
VERTEX
  8
寸法線
  5
134A
 10
382.063
 20
247.613
 30
0.000000
  70
    32
  0
VERTEX
  8
寸法線
  5
134B
 10
382.056
 20
247.572
 30
0.000000
  70
    32
  0
VERTEX
  8
寸法線
  5
134C
 10
382.048
 20
247.531
 30
0.000000
  70
    32
  0
VERTEX
  8
寸法線
  5
134D
 10
382.038
 20
247.490
 30
0.000000
  70
    32
  0
VERTEX
  8
寸法線
  5
134E
 10
382.026
 20
247.449
 30
0.000000
  70
    32
  0
VERTEX
  8
寸法線
  5
134F
 10
382.014
 20
247.408
 30
0.000000
  70
    32
  0
VERTEX
  8
寸法線
  5
1350
 10
382.000
 20
247.368
 30
0.000000
  70
    32
  0
VERTEX
  8
寸法線
  5
1351
 10
381.985
 20
247.327
 30
0.000000
  70
    32
  0
VERTEX
  8
寸法線
  5
1352
 10
381.969
 20
247.287
 30
0.000000
  70
    32
  0
VERTEX
  8
寸法線
  5
1353
 10
381.952
 20
247.247
 30
0.000000
  70
    32
  0
VERTEX
  8
寸法線
  5
1354
 10
381.934
 20
247.206
 30
0.000000
  70
    32
  0
VERTEX
  8
寸法線
  5
1355
 10
381.914
 20
247.166
 30
0.000000
  70
    32
  0
VERTEX
  8
寸法線
  5
1356
 10
381.894
 20
247.126
 30
0.000000
  70
    32
  0
VERTEX
  8
寸法線
  5
1357
 10
381.872
 20
247.086
 30
0.000000
  70
    32
  0
VERTEX
  8
寸法線
  5
1358
 10
381.850
 20
247.046
 30
0.000000
  70
    32
  0
VERTEX
  8
寸法線
  5
1359
 10
381.827
 20
247.006
 30
0.000000
  70
    32
  0
VERTEX
  8
寸法線
  5
135A
 10
381.803
 20
246.966
 30
0.000000
  70
    32
  0
VERTEX
  8
寸法線
  5
135B
 10
381.778
 20
246.926
 30
0.000000
  70
    32
  0
VERTEX
  8
寸法線
  5
135C
 10
381.752
 20
246.886
 30
0.000000
  70
    32
  0
VERTEX
  8
寸法線
  5
135D
 10
381.726
 20
246.846
 30
0.000000
  70
    32
  0
VERTEX
  8
寸法線
  5
135E
 10
381.699
 20
246.807
 30
0.000000
  70
    32
  0
VERTEX
  8
寸法線
  5
135F
 10
381.671
 20
246.767
 30
0.000000
  70
    32
  0
VERTEX
  8
寸法線
  5
1360
 10
381.643
 20
246.727
 30
0.000000
  70
    32
  0
VERTEX
  8
寸法線
  5
1361
 10
381.614
 20
246.687
 30
0.000000
  70
    32
  0
VERTEX
  8
寸法線
  5
1362
 10
381.584
 20
246.647
 30
0.000000
  70
    32
  0
VERTEX
  8
寸法線
  5
1363
 10
381.554
 20
246.607
 30
0.000000
  70
    32
  0
VERTEX
  8
寸法線
  5
1364
 10
381.524
 20
246.567
 30
0.000000
  70
    32
  0
VERTEX
  8
寸法線
  5
1365
 10
381.493
 20
246.527
 30
0.000000
  70
    32
  0
VERTEX
  8
寸法線
  5
1366
 10
381.462
 20
246.488
 30
0.000000
  70
    32
  0
VERTEX
  8
寸法線
  5
1367
 10
381.431
 20
246.448
 30
0.000000
  70
    32
  0
VERTEX
  8
寸法線
  5
1368
 10
381.399
 20
246.407
 30
0.000000
  70
    32
  0
VERTEX
  8
寸法線
  5
1369
 10
381.367
 20
246.367
 30
0.000000
  70
    32
  0
VERTEX
  8
寸法線
  5
136A
 10
381.335
 20
246.327
 30
0.000000
  70
    32
  0
VERTEX
  8
寸法線
  5
136B
 10
381.302
 20
246.287
 30
0.000000
  70
    32
  0
VERTEX
  8
寸法線
  5
136C
 10
381.269
 20
246.247
 30
0.000000
  70
    32
  0
VERTEX
  8
寸法線
  5
136D
 10
381.237
 20
246.206
 30
0.000000
  70
    32
  0
VERTEX
  8
寸法線
  5
136E
 10
381.204
 20
246.166
 30
0.000000
  70
    32
  0
VERTEX
  8
寸法線
  5
136F
 10
381.171
 20
246.125
 30
0.000000
  70
    32
  0
VERTEX
  8
寸法線
  5
1370
 10
381.139
 20
246.085
 30
0.000000
  70
    32
  0
VERTEX
  8
寸法線
  5
1371
 10
381.106
 20
246.044
 30
0.000000
  70
    32
  0
VERTEX
  8
寸法線
  5
1372
 10
381.073
 20
246.003
 30
0.000000
  70
    32
  0
VERTEX
  8
寸法線
  5
1373
 10
381.041
 20
245.962
 30
0.000000
  70
    32
  0
VERTEX
  8
寸法線
  5
1374
 10
381.009
 20
245.921
 30
0.000000
  70
    32
  0
VERTEX
  8
寸法線
  5
1375
 10
380.977
 20
245.880
 30
0.000000
  70
    32
  0
VERTEX
  8
寸法線
  5
1376
 10
380.945
 20
245.838
 30
0.000000
  70
    32
  0
VERTEX
  8
寸法線
  5
1377
 10
380.914
 20
245.797
 30
0.000000
  70
    32
  0
VERTEX
  8
寸法線
  5
1378
 10
380.883
 20
245.755
 30
0.000000
  70
    32
  0
VERTEX
  8
寸法線
  5
1379
 10
380.852
 20
245.713
 30
0.000000
  70
    32
  0
VERTEX
  8
寸法線
  5
137A
 10
380.822
 20
245.671
 30
0.000000
  70
    32
  0
VERTEX
  8
寸法線
  5
137B
 10
380.792
 20
245.629
 30
0.000000
  70
    32
  0
VERTEX
  8
寸法線
  5
137C
 10
380.762
 20
245.587
 30
0.000000
  70
    32
  0
VERTEX
  8
寸法線
  5
137D
 10
380.734
 20
245.544
 30
0.000000
  70
    32
  0
VERTEX
  8
寸法線
  5
137E
 10
380.705
 20
245.502
 30
0.000000
  70
    32
  0
VERTEX
  8
寸法線
  5
137F
 10
380.678
 20
245.459
 30
0.000000
  70
    32
  0
VERTEX
  8
寸法線
  5
1380
 10
380.651
 20
245.416
 30
0.000000
  70
    32
  0
VERTEX
  8
寸法線
  5
1381
 10
380.625
 20
245.373
 30
0.000000
  70
    32
  0
VERTEX
  8
寸法線
  5
1382
 10
380.599
 20
245.329
 30
0.000000
  70
    32
  0
VERTEX
  8
寸法線
  5
1383
 10
380.575
 20
245.286
 30
0.000000
  70
    32
  0
VERTEX
  8
寸法線
  5
1384
 10
380.551
 20
245.242
 30
0.000000
  70
    32
  0
VERTEX
  8
寸法線
  5
1385
 10
380.528
 20
245.198
 30
0.000000
  70
    32
  0
VERTEX
  8
寸法線
  5
1386
 10
380.506
 20
245.153
 30
0.000000
  70
    32
  0
VERTEX
  8
寸法線
  5
1387
 10
380.484
 20
245.109
 30
0.000000
  70
    32
  0
VERTEX
  8
寸法線
  5
1388
 10
380.464
 20
245.064
 30
0.000000
  70
    32
  0
VERTEX
  8
寸法線
  5
1389
 10
380.445
 20
245.019
 30
0.000000
  70
    32
  0
VERTEX
  8
寸法線
  5
138A
 10
380.427
 20
244.973
 30
0.000000
  70
    32
  0
VERTEX
  8
寸法線
  5
138B
 10
380.410
 20
244.928
 30
0.000000
  70
    32
  0
VERTEX
  8
寸法線
  5
138C
 10
380.394
 20
244.882
 30
0.000000
  70
    32
  0
VERTEX
  8
寸法線
  5
138D
 10
380.379
 20
244.836
 30
0.000000
  70
    32
  0
VERTEX
  8
寸法線
  5
138E
 10
380.365
 20
244.790
 30
0.000000
  70
    32
  0
VERTEX
  8
寸法線
  5
138F
 10
380.352
 20
244.743
 30
0.000000
  70
    32
  0
VERTEX
  8
寸法線
  5
1390
 10
380.340
 20
244.696
 30
0.000000
  70
    32
  0
VERTEX
  8
寸法線
  5
1391
 10
380.329
 20
244.649
 30
0.000000
  70
    32
  0
VERTEX
  8
寸法線
  5
1392
 10
380.319
 20
244.602
 30
0.000000
  70
    32
  0
VERTEX
  8
寸法線
  5
1393
 10
380.310
 20
244.555
 30
0.000000
  70
    32
  0
VERTEX
  8
寸法線
  5
1394
 10
380.301
 20
244.507
 30
0.000000
  70
    32
  0
VERTEX
  8
寸法線
  5
1395
 10
380.293
 20
244.460
 30
0.000000
  70
    32
  0
VERTEX
  8
寸法線
  5
1396
 10
380.286
 20
244.412
 30
0.000000
  70
    32
  0
VERTEX
  8
寸法線
  5
1397
 10
380.280
 20
244.364
 30
0.000000
  70
    32
  0
VERTEX
  8
寸法線
  5
1398
 10
380.275
 20
244.316
 30
0.000000
  70
    32
  0
VERTEX
  8
寸法線
  5
1399
 10
380.270
 20
244.268
 30
0.000000
  70
    32
  0
VERTEX
  8
寸法線
  5
139A
 10
380.266
 20
244.219
 30
0.000000
  70
    32
  0
VERTEX
  8
寸法線
  5
139B
 10
380.262
 20
244.171
 30
0.000000
  70
    32
  0
VERTEX
  8
寸法線
  5
139C
 10
380.259
 20
244.122
 30
0.000000
  70
    32
  0
VERTEX
  8
寸法線
  5
139D
 10
380.257
 20
244.073
 30
0.000000
  70
    32
  0
VERTEX
  8
寸法線
  5
139E
 10
380.255
 20
244.025
 30
0.000000
  70
    32
  0
VERTEX
  8
寸法線
  5
139F
 10
380.254
 20
243.976
 30
0.000000
  70
    32
  0
VERTEX
  8
寸法線
  5
13A0
 10
380.253
 20
243.927
 30
0.000000
  70
    32
  0
VERTEX
  8
寸法線
  5
13A1
 10
380.253
 20
243.878
 30
0.000000
  70
    32
  0
VERTEX
  8
寸法線
  5
13A2
 10
380.253
 20
243.829
 30
0.000000
  70
    32
  0
VERTEX
  8
寸法線
  5
13A3
 10
380.253
 20
243.780
 30
0.000000
  70
    32
  0
VERTEX
  8
寸法線
  5
13A4
 10
380.254
 20
243.730
 30
0.000000
  70
    32
  0
VERTEX
  8
寸法線
  5
13A5
 10
380.255
 20
243.681
 30
0.000000
  70
    32
  0
VERTEX
  8
寸法線
  5
13A6
 10
380.256
 20
243.632
 30
0.000000
  70
    32
  0
VERTEX
  8
寸法線
  5
13A7
 10
380.258
 20
243.583
 30
0.000000
  70
    32
  0
VERTEX
  8
寸法線
  5
13A8
 10
380.259
 20
243.534
 30
0.000000
  70
    32
  0
VERTEX
  8
寸法線
  5
13A9
 10
380.261
 20
243.485
 30
0.000000
  70
    32
  0
VERTEX
  8
寸法線
  5
13AA
 10
380.264
 20
243.436
 30
0.000000
  70
    32
  0
VERTEX
  8
寸法線
  5
13AB
 10
380.266
 20
243.386
 30
0.000000
  70
    32
  0
VERTEX
  8
寸法線
  5
13AC
 10
380.268
 20
243.337
 30
0.000000
  70
    32
  0
VERTEX
  8
寸法線
  5
13AD
 10
380.271
 20
243.288
 30
0.000000
  70
    32
  0
VERTEX
  8
寸法線
  5
13AE
 10
380.273
 20
243.239
 30
0.000000
  70
    32
  0
VERTEX
  8
寸法線
  5
13AF
 10
380.276
 20
243.191
 30
0.000000
  70
    32
  0
VERTEX
  8
寸法線
  5
13B0
 10
380.279
 20
243.142
 30
0.000000
  70
    32
  0
VERTEX
  8
寸法線
  5
13B1
 10
380.281
 20
243.093
 30
0.000000
  70
    32
  0
VERTEX
  8
寸法線
  5
13B2
 10
380.284
 20
243.045
 30
0.000000
  70
    32
  0
VERTEX
  8
寸法線
  5
13B3
 10
380.286
 20
242.996
 30
0.000000
  70
    32
  0
VERTEX
  8
寸法線
  5
13B4
 10
380.288
 20
242.948
 30
0.000000
  70
    32
  0
VERTEX
  8
寸法線
  5
13B5
 10
380.290
 20
242.899
 30
0.000000
  70
    32
  0
VERTEX
  8
寸法線
  5
13B6
 10
380.292
 20
242.851
 30
0.000000
  70
    32
  0
VERTEX
  8
寸法線
  5
13B7
 10
380.294
 20
242.803
 30
0.000000
  70
    32
  0
VERTEX
  8
寸法線
  5
13B8
 10
380.295
 20
242.755
 30
0.000000
  70
    32
  0
VERTEX
  8
寸法線
  5
13B9
 10
380.296
 20
242.708
 30
0.000000
  70
    32
  0
VERTEX
  8
寸法線
  5
13BA
 10
380.297
 20
242.660
 30
0.000000
  70
    32
  0
VERTEX
  8
寸法線
  5
13BB
 10
380.298
 20
242.613
 30
0.000000
  70
    32
  0
VERTEX
  8
寸法線
  5
13BC
 10
380.298
 20
242.566
 30
0.000000
  70
    32
  0
VERTEX
  8
寸法線
  5
13BD
 10
380.298
 20
242.519
 30
0.000000
  70
    32
  0
VERTEX
  8
寸法線
  5
13BE
 10
380.297
 20
242.472
 30
0.000000
  70
    32
  0
VERTEX
  8
寸法線
  5
13BF
 10
380.296
 20
242.426
 30
0.000000
  70
    32
  0
VERTEX
  8
寸法線
  5
13C0
 10
380.294
 20
242.379
 30
0.000000
  70
    32
  0
VERTEX
  8
寸法線
  5
13C1
 10
380.292
 20
242.333
 30
0.000000
  70
    32
  0
VERTEX
  8
寸法線
  5
13C2
 10
380.289
 20
242.288
 30
0.000000
  70
    32
  0
VERTEX
  8
寸法線
  5
13C3
 10
380.286
 20
242.242
 30
0.000000
  70
    32
  0
VERTEX
  8
寸法線
  5
13C4
 10
380.282
 20
242.197
 30
0.000000
  70
    32
  0
VERTEX
  8
寸法線
  5
13C5
 10
380.277
 20
242.152
 30
0.000000
  70
    32
  0
VERTEX
  8
寸法線
  5
13C6
 10
380.272
 20
242.107
 30
0.000000
  70
    32
  0
VERTEX
  8
寸法線
  5
13C7
 10
380.266
 20
242.063
 30
0.000000
  70
    32
  0
VERTEX
  8
寸法線
  5
13C8
 10
380.260
 20
242.018
 30
0.000000
  70
    32
  0
VERTEX
  8
寸法線
  5
13C9
 10
380.252
 20
241.975
 30
0.000000
  70
    32
  0
VERTEX
  8
寸法線
  5
13CA
 10
380.244
 20
241.931
 30
0.000000
  70
    32
  0
VERTEX
  8
寸法線
  5
13CB
 10
380.235
 20
241.888
 30
0.000000
  70
    32
  0
VERTEX
  8
寸法線
  5
13CC
 10
380.225
 20
241.845
 30
0.000000
  70
    32
  0
VERTEX
  8
寸法線
  5
13CD
 10
380.214
 20
241.803
 30
0.000000
  70
    32
  0
VERTEX
  8
寸法線
  5
13CE
 10
380.203
 20
241.760
 30
0.000000
  70
    32
  0
VERTEX
  8
寸法線
  5
13CF
 10
380.190
 20
241.719
 30
0.000000
  70
    32
  0
VERTEX
  8
寸法線
  5
13D0
 10
380.177
 20
241.677
 30
0.000000
  70
    32
  0
VERTEX
  8
寸法線
  5
13D1
 10
380.162
 20
241.636
 30
0.000000
  70
    32
  0
VERTEX
  8
寸法線
  5
13D2
 10
380.146
 20
241.595
 30
0.000000
  70
    32
  0
VERTEX
  8
寸法線
  5
13D3
 10
380.130
 20
241.555
 30
0.000000
  70
    32
  0
VERTEX
  8
寸法線
  5
13D4
 10
380.112
 20
241.515
 30
0.000000
  70
    32
  0
VERTEX
  8
寸法線
  5
13D5
 10
380.093
 20
241.476
 30
0.000000
  70
    32
  0
VERTEX
  8
寸法線
  5
13D6
 10
380.073
 20
241.437
 30
0.000000
  70
    32
  0
VERTEX
  8
寸法線
  5
13D7
 10
380.052
 20
241.398
 30
0.000000
  70
    32
  0
VERTEX
  8
寸法線
  5
13D8
 10
380.030
 20
241.360
 30
0.000000
  70
    32
  0
VERTEX
  8
寸法線
  5
13D9
 10
380.006
 20
241.323
 30
0.000000
  70
    32
  0
VERTEX
  8
寸法線
  5
13DA
 10
379.981
 20
241.286
 30
0.000000
  70
    32
  0
VERTEX
  8
寸法線
  5
13DB
 10
379.955
 20
241.249
 30
0.000000
  70
    32
  0
VERTEX
  8
寸法線
  5
13DC
 10
379.927
 20
241.213
 30
0.000000
  70
    32
  0
VERTEX
  8
寸法線
  5
13DD
 10
379.898
 20
241.177
 30
0.000000
  70
    32
  0
VERTEX
  8
寸法線
  5
13DE
 10
379.868
 20
241.142
 30
0.000000
  70
    32
  0
VERTEX
  8
寸法線
  5
13DF
 10
379.836
 20
241.107
 30
0.000000
  70
    32
  0
VERTEX
  8
寸法線
  5
13E0
 10
379.803
 20
241.073
 30
0.000000
  70
    32
  0
VERTEX
  8
寸法線
  5
13E1
 10
379.769
 20
241.039
 30
0.000000
  70
    32
  0
VERTEX
  8
寸法線
  5
13E2
 10
379.733
 20
241.006
 30
0.000000
  70
    32
  0
VERTEX
  8
寸法線
  5
13E3
 10
379.695
 20
240.973
 30
0.000000
  70
    32
  0
VERTEX
  8
寸法線
  5
13E4
 10
379.656
 20
240.941
 30
0.000000
  70
    32
  0
VERTEX
  8
寸法線
  5
13E5
 10
379.615
 20
240.910
 30
0.000000
  70
    32
  0
VERTEX
  8
寸法線
  5
13E6
 10
379.572
 20
240.879
 30
0.000000
  70
    32
  0
VERTEX
  8
寸法線
  5
13E7
 10
379.528
 20
240.849
 30
0.000000
  70
    32
  0
VERTEX
  8
寸法線
  5
13E8
 10
379.483
 20
240.818
 30
0.000000
  70
    32
  0
VERTEX
  8
寸法線
  5
13E9
 10
379.436
 20
240.788
 30
0.000000
  70
    32
  0
VERTEX
  8
寸法線
  5
13EA
 10
379.387
 20
240.756
 30
0.000000
  70
    32
  0
VERTEX
  8
寸法線
  5
13EB
 10
379.338
 20
240.724
 30
0.000000
  70
    32
  0
VERTEX
  8
寸法線
  5
13EC
 10
379.288
 20
240.689
 30
0.000000
  70
    32
  0
VERTEX
  8
寸法線
  5
13ED
 10
379.237
 20
240.653
 30
0.000000
  70
    32
  0
VERTEX
  8
寸法線
  5
13EE
 10
379.186
 20
240.613
 30
0.000000
  70
    32
  0
VERTEX
  8
寸法線
  5
13EF
 10
379.134
 20
240.571
 30
0.000000
  70
    32
  0
VERTEX
  8
寸法線
  5
13F0
 10
379.081
 20
240.525
 30
0.000000
  70
    32
  0
VERTEX
  8
寸法線
  5
13F1
 10
379.029
 20
240.475
 30
0.000000
  70
    32
  0
VERTEX
  8
寸法線
  5
13F2
 10
378.977
 20
240.420
 30
0.000000
  70
    32
  0
VERTEX
  8
寸法線
  5
13F3
 10
378.924
 20
240.360
 30
0.000000
  70
    32
  0
VERTEX
  8
寸法線
  5
13F4
 10
378.872
 20
240.295
 30
0.000000
  70
    32
  0
VERTEX
  8
寸法線
  5
13F5
 10
378.821
 20
240.224
 30
0.000000
  70
    32
  0
VERTEX
  8
寸法線
  5
13F6
 10
378.770
 20
240.146
 30
0.000000
  70
    32
  0
VERTEX
  8
寸法線
  5
13F7
 10
378.720
 20
240.062
 30
0.000000
  70
    32
  0
SEQEND
  8
寸法線
  5
13F8
  0
DIMENSION
  5
B97
  8
寸法線
  2
*D11
 10
258.1874660371451
 20
265.38268208113323
 30
0.0
 11
269.6874660371451
 21
267.25768208113323
 31
0.0
 70
     0
 13
281.1874660371451
 23
265.38268208113323
 33
0.0
 14
258.1874660371451
 24
249.76159930625431
 34
0.0
1001
ACAD
1000
DSTYLE
1002
{
1070
   271
1070
     2
1070
   341
1005
0
1002
}
  0
LINE
  5
C01
  8
外形線
 10
306.19076451041877
 20
353.06584149551981
 30
0.0
 11
399.19076451041889
 21
353.06584149551981
 31
0.0
  0
LINE
  5
C02
  8
外形線
 10
306.19076451041877
 20
354.06584149551969
 30
0.0
 11
399.19076451041889
 21
354.06584149551969
 31
0.0
  0
TEXT
  5
C03
  8
文字
 10
306.27663851041888
 20
356.52572249551969
 30
0.0
 40
4.0
  1
Model No.CC-1 Cylinder Gauge
  7
STYLE3
  0
LINE
  5
C04
  8
外形線
 10
350.50518751041892
 20
172.4749254955197
 30
0.0
 11
350.50518751041892
 21
192.8699084955197
 31
0.0
  0
TEXT
  5
C05
  8
0
  6
CONTINUOUS
 10
351.96265551041893
 20
183.98769349551969
 30
0.0
 40
2.1000000000000001
  1
Design and specifications are subject to change without notice for future improvement.
  7
STYLE3
  0
TEXT
  5
C06
  8
0
  6
CONTINUOUS
 10
395.27543251041891
 20
175.9712084955197
 30
0.0
 40
2.399999999999999
  1
mm
  7
STYLE3
  0
LINE
  5
C07
  8
外形線
 10
350.50518751041892
 20
182.0897024955197
 30
0.0
 11
491.29660551041877
 21
182.0897024955197
 31
0.0
  0
TEXT
  5
C08
  8
0
  6
CONTINUOUS
 10
351.67116351041892
 20
174.22306549551971
 30
0.0
 40
2.1000000000000001
  1
3RD Angle Projection
  7
STYLE3
  0
TEXT
  5
C09
  8
0
  6
CONTINUOUS
 10
354.29460651041882
 20
177.71934849551971
 30
0.0
 40
3.0
  1
三　　角　　法
  7
STYLE3
  0
TEXT
  5
C0A
  8
0
  6
CONTINUOUS
 10
387.23338451041889
 20
177.72530249551971
 30
0.0
 40
3.0
  1
単位
  7
STYLE3
  0
TEXT
  5
C0B
  8
0
  6
CONTINUOUS
 10
387.40510551041888
 20
174.2230664955197
 30
0.0
 40
2.1000000000000001
  1
Unit
  7
STYLE3
  0
LINE
  5
C0C
  8
外形線
 10
385.77591551041888
 20
182.0897024955197
 30
0.0
 11
385.77591551041888
 21
172.4749254955197
 31
0.0
  0
TEXT
  5
C0D
  8
0
  6
CONTINUOUS
 10
453.87691751041882
 20
178.01070549551969
 30
0.0
 40
3.0
  1
株式会社　尾崎製作所
  7
STYLE3
  0
TEXT
  5
C0E
  8
0
  6
CONTINUOUS
 10
454.75139651041877
 20
174.2230664955197
 30
0.0
 40
2.1000000000000001
  1
OZAKI MFG. CO., LTD.
  7
STYLE3
  0
TEXT
  5
C0F
  8
0
  6
CONTINUOUS
 10
433.4723635104188
 20
175.97120749551971
 30
0.0
 40
2.1000000000000001
  1
2010.06.23
  7
STYLE3
  0
TEXT
  5
C10
  8
0
  6
CONTINUOUS
 10
414.63378451041888
 20
176.26256549551971
 30
0.0
 40
2.399999999999999
  1
1/1
  7
STYLE3
  0
TEXT
  5
C11
  8
0
  6
CONTINUOUS
 10
404.55128051041879
 20
177.43394549551959
 30
0.0
 40
3.0
  1
尺 度
  7
STYLE3
  0
TEXT
  5
C12
  8
0
  6
CONTINUOUS
 10
405.01449551041878
 20
174.51442349551971
 30
0.0
 40
2.1000000000000001
  1
Scale
  7
STYLE3
  0
LINE
  5
C13
  8
外形線
 10
403.26553251041878
 20
182.0897024955197
 30
0.0
 11
403.26553251041878
 21
172.4749254955197
 31
0.0
  0
TEXT
  5
C14
  8
0
  6
CONTINUOUS
 10
424.72755651041882
 20
174.2230674955197
 30
0.0
 40
2.1000000000000001
  1
Date
  7
STYLE3
  0
TEXT
  5
C15
  8
0
  6
CONTINUOUS
 10
424.34419551041879
 20
177.55615049551969
 30
0.0
 40
3.0
  1
日 付
  7
STYLE3
  0
LINE
  5
C16
  8
外形線
 10
422.79560551041868
 20
182.0897024955197
 30
0.0
 11
422.79560551041868
 21
172.4749254955197
 31
0.0
  0
LINE
  5
C17
  8
外形線
 10
452.52795451041879
 20
182.0897024955197
 30
0.0
 11
452.52795451041879
 21
172.4749254955197
 31
0.0
  0
LINE
  5
C18
  8
外形線
 10
350.50518751041892
 20
192.8699084955197
 30
0.0
 11
491.29660551041877
 21
192.8699084955197
 31
0.0
  0
TEXT
  5
C19
  8
0
  6
CONTINUOUS
 10
352.25414951041893
 20
187.91684149551969
 30
0.0
 40
3.5
  1
仕様及び外観は予告なく変更される場合がございますのでご了承下さい。
  7
STYLE3
  0
ENDSEC
  0
EOF
