  0
SECTION
  2
HEADER
  9
$ACADVER
  1
AC1018
  9
$ACADMAINTVER
 70
     0
  9
$DWGCODEPAGE
  3
ANSI_932
  9
$INSBASE
 10
0.0
 20
0.0
 30
0.0
  9
$EXTMIN
 10
236.4583261120649
 20
171.6287515666504
 30
-0.0000000349181948
  9
$EXTMAX
 10
491.9215858715545
 20
367.0725802714662
 30
0.0000000814935746
  9
$LIMMIN
 10
0.0
 20
0.0
  9
$LIMMAX
 10
420.0
 20
297.0
  9
$ORTHOMODE
 70
     0
  9
$REGENMODE
 70
     1
  9
$FILLMODE
 70
     1
  9
$QTEXTMODE
 70
     0
  9
$MIRRTEXT
 70
     1
  9
$LTSCALE
 40
1.0
  9
$ATTMODE
 70
     1
  9
$TEXTSIZE
 40
3.0
  9
$TRACEWID
 40
1.0
  9
$TEXTSTYLE
  7
STYLE3
  9
$CLAYER
  8
外形線
  9
$CELTYPE
  6
BYLAYER
  9
$CECOLOR
 62
   256
  9
$CELTSCALE
 40
1.0
  9
$DISPSILH
 70
     0
  9
$DIMSCALE
 40
1.0
  9
$DIMASZ
 40
2.5
  9
$DIMEXO
 40
0.0
  9
$DIMDLI
 40
3.75
  9
$DIMRND
 40
0.0
  9
$DIMDLE
 40
0.0
  9
$DIMEXE
 40
1.25
  9
$DIMTP
 40
0.0
  9
$DIMTM
 40
0.0
  9
$DIMTXT
 40
2.5
  9
$DIMCEN
 40
2.5
  9
$DIMTSZ
 40
0.0
  9
$DIMTOL
 70
     0
  9
$DIMLIM
 70
     0
  9
$DIMTIH
 70
     0
  9
$DIMTOH
 70
     0
  9
$DIMSE1
 70
     0
  9
$DIMSE2
 70
     0
  9
$DIMTAD
 70
     1
  9
$DIMZIN
 70
     8
  9
$DIMBLK
  1

  9
$DIMASO
 70
     1
  9
$DIMSHO
 70
     1
  9
$DIMPOST
  1

  9
$DIMAPOST
  1

  9
$DIMALT
 70
     0
  9
$DIMALTD
 70
     4
  9
$DIMALTF
 40
0.0394
  9
$DIMLFAC
 40
1.0
  9
$DIMTOFL
 70
     1
  9
$DIMTVP
 40
0.0
  9
$DIMTIX
 70
     0
  9
$DIMSOXD
 70
     0
  9
$DIMSAH
 70
     1
  9
$DIMBLK1
  1
OPEN
  9
$DIMBLK2
  1
OPEN
  9
$DIMSTYLE
  2
STYLE3
  9
$DIMCLRD
 70
     2
  9
$DIMCLRE
 70
     2
  9
$DIMCLRT
 70
     6
  9
$DIMTFAC
 40
1.0
  9
$DIMGAP
 40
0.625
  9
$DIMJUST
 70
     0
  9
$DIMSD1
 70
     0
  9
$DIMSD2
 70
     0
  9
$DIMTOLJ
 70
     1
  9
$DIMTZIN
 70
     0
  9
$DIMALTZ
 70
     0
  9
$DIMALTTZ
 70
     0
  9
$DIMUPT
 70
     0
  9
$DIMDEC
 70
     2
  9
$DIMTDEC
 70
     4
  9
$DIMALTU
 70
     8
  9
$DIMALTTD
 70
     4
  9
$DIMTXSTY
  7
STYLE3
  9
$DIMAUNIT
 70
     0
  9
$DIMADEC
 70
     0
  9
$DIMALTRND
 40
0.0
  9
$DIMAZIN
 70
     0
  9
$DIMDSEP
 70
    46
  9
$DIMATFIT
 70
     3
  9
$DIMFRAC
 70
     0
  9
$DIMLDRBLK
  1

  9
$DIMLUNIT
 70
     2
  9
$DIMLWD
 70
    -2
  9
$DIMLWE
 70
    -2
  9
$DIMTMOVE
 70
     0
  9
$LUNITS
 70
     2
  9
$LUPREC
 70
     4
  9
$SKETCHINC
 40
1.0
  9
$FILLETRAD
 40
0.0
  9
$AUNITS
 70
     0
  9
$AUPREC
 70
     0
  9
$MENU
  1
.
  9
$ELEVATION
 40
0.0
  9
$PELEVATION
 40
0.0
  9
$THICKNESS
 40
0.0
  9
$LIMCHECK
 70
     0
  9
$CHAMFERA
 40
10.0
  9
$CHAMFERB
 40
10.0
  9
$CHAMFERC
 40
20.0
  9
$CHAMFERD
 40
0.0
  9
$SKPOLY
 70
     0
  9
$TDCREATE
 40
2450753.462540625
  9
$TDUCREATE
 40
2450753.087540625
  9
$TDUPDATE
 40
2455371.634579896
  9
$TDUUPDATE
 40
2455371.259579896
  9
$TDINDWG
 40
0.7234404051
  9
$TDUSRTIMER
 40
0.7234404051
  9
$USRTIMER
 70
     1
  9
$ANGBASE
 50
0.0
  9
$ANGDIR
 70
     0
  9
$PDMODE
 70
     0
  9
$PDSIZE
 40
0.0
  9
$PLINEWID
 40
0.0
  9
$SPLFRAME
 70
     0
  9
$SPLINETYPE
 70
     6
  9
$SPLINESEGS
 70
     8
  9
$HANDSEED
  5
959
  9
$SURFTAB1
 70
     6
  9
$SURFTAB2
 70
     6
  9
$SURFTYPE
 70
     6
  9
$SURFU
 70
     6
  9
$SURFV
 70
     6
  9
$UCSBASE
  2

  9
$UCSNAME
  2

  9
$UCSORG
 10
0.0
 20
0.0
 30
0.0
  9
$UCSXDIR
 10
1.0
 20
0.0
 30
0.0
  9
$UCSYDIR
 10
0.0
 20
1.0
 30
0.0
  9
$UCSORTHOREF
  2

  9
$UCSORTHOVIEW
 70
     0
  9
$UCSORGTOP
 10
0.0
 20
0.0
 30
0.0
  9
$UCSORGBOTTOM
 10
0.0
 20
0.0
 30
0.0
  9
$UCSORGLEFT
 10
0.0
 20
0.0
 30
0.0
  9
$UCSORGRIGHT
 10
0.0
 20
0.0
 30
0.0
  9
$UCSORGFRONT
 10
0.0
 20
0.0
 30
0.0
  9
$UCSORGBACK
 10
0.0
 20
0.0
 30
0.0
  9
$PUCSBASE
  2

  9
$PUCSNAME
  2

  9
$PUCSORG
 10
0.0
 20
0.0
 30
0.0
  9
$PUCSXDIR
 10
1.0
 20
0.0
 30
0.0
  9
$PUCSYDIR
 10
0.0
 20
1.0
 30
0.0
  9
$PUCSORTHOREF
  2

  9
$PUCSORTHOVIEW
 70
     0
  9
$PUCSORGTOP
 10
0.0
 20
0.0
 30
0.0
  9
$PUCSORGBOTTOM
 10
0.0
 20
0.0
 30
0.0
  9
$PUCSORGLEFT
 10
0.0
 20
0.0
 30
0.0
  9
$PUCSORGRIGHT
 10
0.0
 20
0.0
 30
0.0
  9
$PUCSORGFRONT
 10
0.0
 20
0.0
 30
0.0
  9
$PUCSORGBACK
 10
0.0
 20
0.0
 30
0.0
  9
$USERI1
 70
     0
  9
$USERI2
 70
     0
  9
$USERI3
 70
     0
  9
$USERI4
 70
     0
  9
$USERI5
 70
     0
  9
$USERR1
 40
0.0
  9
$USERR2
 40
0.0
  9
$USERR3
 40
0.0
  9
$USERR4
 40
0.0
  9
$USERR5
 40
0.0
  9
$WORLDVIEW
 70
     1
  9
$SHADEDGE
 70
     3
  9
$SHADEDIF
 70
    70
  9
$TILEMODE
 70
     1
  9
$MAXACTVP
 70
    48
  9
$PINSBASE
 10
0.0
 20
0.0
 30
0.0
  9
$PLIMCHECK
 70
     0
  9
$PEXTMIN
 10
1.000000000000000E+20
 20
1.000000000000000E+20
 30
1.000000000000000E+20
  9
$PEXTMAX
 10
-1.000000000000000E+20
 20
-1.000000000000000E+20
 30
-1.000000000000000E+20
  9
$PLIMMIN
 10
0.0
 20
0.0
  9
$PLIMMAX
 10
420.0
 20
297.0
  9
$UNITMODE
 70
     0
  9
$VISRETAIN
 70
     1
  9
$PLINEGEN
 70
     0
  9
$PSLTSCALE
 70
     1
  9
$TREEDEPTH
 70
  3020
  9
$CMLSTYLE
  2
STANDARD
  9
$CMLJUST
 70
     0
  9
$CMLSCALE
 40
20.0
  9
$PROXYGRAPHICS
 70
     1
  9
$MEASUREMENT
 70
     1
  9
$CELWEIGHT
370
    -1
  9
$ENDCAPS
280
     0
  9
$JOINSTYLE
280
     0
  9
$LWDISPLAY
290
     0
  9
$INSUNITS
 70
     0
  9
$HYPERLINKBASE
  1

  9
$STYLESHEET
  1

  9
$XEDIT
290
     1
  9
$CEPSNTYPE
380
     0
  9
$PSTYLEMODE
290
     1
  9
$FINGERPRINTGUID
  2
{5364397E-0686-4E0E-A5D9-83069C1AC992}
  9
$VERSIONGUID
  2
{8DBD60F2-B498-4296-928A-5EA8F0075DF5}
  9
$EXTNAMES
290
     1
  9
$PSVPSCALE
 40
0.0
  9
$OLESTARTUP
290
     0
  9
$SORTENTS
280
    96
  9
$INDEXCTL
280
     0
  9
$HIDETEXT
280
     0
  9
$XCLIPFRAME
290
     0
  9
$HALOGAP
280
     0
  9
$OBSCOLOR
 70
   257
  9
$OBSLTYPE
280
     0
  9
$INTERSECTIONDISPLAY
280
     0
  9
$INTERSECTIONCOLOR
 70
   257
  9
$DIMASSOC
280
     1
  9
$PROJECTNAME
  1

  0
ENDSEC
  0
SECTION
  2
CLASSES
  0
CLASS
  1
DICTIONARYVAR
  2
AcDbDictionaryVar
  3
ObjectDBX Classes
 90
        0
 91
        2
280
     0
281
     0
  0
CLASS
  1
HATCH
  2
AcDbHatch
  3
ObjectDBX Classes
 90
        0
 91
        1
280
     0
281
     1
  0
CLASS
  1
LWPOLYLINE
  2
AcDbPolyline
  3
ObjectDBX Classes
 90
        0
 91
        2
280
     0
281
     1
  0
CLASS
  1
ACDBDICTIONARYWDFLT
  2
AcDbDictionaryWithDefault
  3
ObjectDBX Classes
 90
        0
 91
        1
280
     0
281
     0
  0
CLASS
  1
TABLESTYLE
  2
AcDbTableStyle
  3
ObjectDBX Classes
 90
     2047
 91
        1
280
     0
281
     0
  0
CLASS
  1
SORTENTSTABLE
  2
AcDbSortentsTable
  3
ObjectDBX Classes
 90
        0
 91
        1
280
     0
281
     0
  0
ENDSEC
  0
SECTION
  2
TABLES
  0
TABLE
  2
VPORT
  5
8
330
0
100
AcDbSymbolTable
 70
     2
  0
VPORT
  5
958
330
8
100
AcDbSymbolTableRecord
100
AcDbViewportTableRecord
  2
*Active
 70
     0
 10
0.0
 20
0.0
 11
1.0
 21
1.0
 12
364.1899559918097
 22
269.3506659190583
 13
0.0
 23
0.0
 14
10.0
 24
10.0
 15
10.0
 25
10.0
 16
0.0
 26
0.0
 36
1.0
 17
0.0
 27
0.0
 37
0.0
 40
196.9300935618867
 41
1.530456852791878
 42
50.0
 43
0.0
 44
0.0
 50
0.0
 51
0.0
 71
     0
 72
   100
 73
     1
 74
     1
 75
     0
 76
     0
 77
     0
 78
     0
281
     0
 65
     1
110
0.0
120
0.0
130
0.0
111
1.0
121
0.0
131
0.0
112
0.0
122
1.0
132
0.0
 79
     0
146
0.0
  0
ENDTAB
  0
TABLE
  2
LTYPE
  5
5
330
0
100
AcDbSymbolTable
 70
    12
  0
LTYPE
  5
12
330
5
100
AcDbSymbolTableRecord
100
AcDbLinetypeTableRecord
  2
BYBLOCK
 70
     0
  3

 72
    65
 73
     0
 40
0.0
  0
LTYPE
  5
13
330
5
100
AcDbSymbolTableRecord
100
AcDbLinetypeTableRecord
  2
BYLAYER
 70
     0
  3

 72
    65
 73
     0
 40
0.0
  0
LTYPE
  5
14
330
5
100
AcDbSymbolTableRecord
100
AcDbLinetypeTableRecord
  2
CONTINUOUS
 70
     0
  3
Solid line
 72
    65
 73
     0
 40
0.0
  0
LTYPE
  5
22
330
5
100
AcDbSymbolTableRecord
100
AcDbLinetypeTableRecord
  2
CENTER2
 70
     0
  3
Center (.5x) ___ _ ___ _ ___ _ ___ _ ___ _ ___
 72
    65
 73
     4
 40
28.575
 49
19.05
 74
     0
 49
-3.174999999999999
 74
     0
 49
3.174999999999999
 74
     0
 49
-3.174999999999999
 74
     0
  0
ENDTAB
  0
TABLE
  2
LAYER
  5
2
330
0
100
AcDbSymbolTable
 70
    14
  0
LAYER
  5
E
330
2
100
AcDbSymbolTableRecord
100
AcDbLayerTableRecord
  2
0
 70
     0
 62
     7
  6
CONTINUOUS
370
    -3
390
5D7
  0
LAYER
  5
25
330
2
100
AcDbSymbolTableRecord
100
AcDbLayerTableRecord
  2
外形線
 70
     0
 62
     7
  6
CONTINUOUS
370
    -3
390
5D7
  0
LAYER
  5
26
330
2
100
AcDbSymbolTableRecord
100
AcDbLayerTableRecord
  2
寸法線
 70
     0
 62
     2
  6
CONTINUOUS
370
    -3
390
5D7
  0
LAYER
  5
27
330
2
100
AcDbSymbolTableRecord
100
AcDbLayerTableRecord
  2
中心線
 70
     0
 62
     4
  6
CENTER2
370
    -3
390
5D7
  0
LAYER
  5
2A
330
2
100
AcDbSymbolTableRecord
100
AcDbLayerTableRecord
  2
ﾊｯﾁﾝｸ
 70
     0
 62
     6
  6
CONTINUOUS
370
    -3
390
5D7
  0
LAYER
  5
2B
330
2
100
AcDbSymbolTableRecord
100
AcDbLayerTableRecord
  2
文字
 70
     0
 62
     6
  6
CONTINUOUS
370
    -3
390
5D7
  0
LAYER
  5
53
330
2
100
AcDbSymbolTableRecord
100
AcDbLayerTableRecord
  2
DEFPOINTS
 70
     0
 62
     7
  6
CONTINUOUS
290
     0
370
    -3
390
5D7
  0
LAYER
  5
A5
330
2
100
AcDbSymbolTableRecord
100
AcDbLayerTableRecord
  2
C
 70
     0
 62
     7
  6
CONTINUOUS
370
    -3
390
5D7
  0
ENDTAB
  0
TABLE
  2
STYLE
  5
3
330
0
100
AcDbSymbolTable
 70
     6
  0
STYLE
  5
F
330
3
100
AcDbSymbolTableRecord
100
AcDbTextStyleTableRecord
  2
STANDARD
 70
     0
 40
0.0
 41
1.0
 50
0.0
 71
     0
 42
2.5
  3
txt
  4

  0
STYLE
  5
3F
330
3
100
AcDbSymbolTableRecord
100
AcDbTextStyleTableRecord
  2
STYLE3
 70
     0
 40
0.0
 41
1.0
 50
0.0
 71
     0
 42
3.0
  3
romans.shx
  4
bigfont.shx
  0
ENDTAB
  0
TABLE
  2
VIEW
  5
6
330
0
100
AcDbSymbolTable
 70
     0
  0
ENDTAB
  0
TABLE
  2
UCS
  5
7
330
0
100
AcDbSymbolTable
 70
     0
  0
ENDTAB
  0
TABLE
  2
APPID
  5
9
330
0
100
AcDbSymbolTable
 70
     2
  0
APPID
  5
10
330
9
100
AcDbSymbolTableRecord
100
AcDbRegAppTableRecord
  2
ACAD
 70
     0
  0
APPID
  5
5E9
330
9
100
AcDbSymbolTableRecord
100
AcDbRegAppTableRecord
  2
ACAD_PSEXT
 70
     0
  0
ENDTAB
  0
TABLE
  2
DIMSTYLE
  5
A
330
0
100
AcDbSymbolTable
 70
     4
100
AcDbDimStyleTable
 71
     0
  0
DIMSTYLE
105
1D
330
A
100
AcDbSymbolTableRecord
100
AcDbDimStyleTableRecord
  2
STANDARD
 70
     0
 41
2.5
 42
0.625
 43
3.75
 44
1.25
 73
     0
 74
     0
 77
     1
 78
     8
140
2.5
141
2.5
143
0.0394
147
0.625
171
     4
172
     1
273
     8
274
     4
277
     6
340
F
  0
DIMSTYLE
105
8F
102
{ACAD_REACTORS
330
341
330
3E0
330
3ED
330
510
102
}
330
A
100
AcDbSymbolTableRecord
100
AcDbDimStyleTableRecord
  2
STYLE3
 70
     0
 41
2.5
 42
0.0
 43
3.75
 44
1.25
 73
     0
 74
     0
 77
     1
 78
     8
140
2.5
141
2.5
143
0.0394
147
0.625
171
     4
172
     1
173
     1
176
     2
177
     2
178
     6
271
     1
273
     8
274
     4
340
3F
341
45
343
45
344
45
  0
ENDTAB
  0
TABLE
  2
BLOCK_RECORD
  5
1
330
0
100
AcDbSymbolTable
 70
    12
  0
BLOCK_RECORD
  5
18
102
{ACAD_XDICTIONARY
360
8D6
102
}
330
1
100
AcDbSymbolTableRecord
100
AcDbBlockTableRecord
  2
*MODEL_SPACE
340
5DE
  0
BLOCK_RECORD
  5
15
330
1
100
AcDbSymbolTableRecord
100
AcDbBlockTableRecord
  2
*PAPER_SPACE
340
5DF
  0
BLOCK_RECORD
  5
45
330
1
100
AcDbSymbolTableRecord
100
AcDbBlockTableRecord
  2
_OPEN
340
0
102
{BLKREFS
331
394
331
39C
331
39D
331
3A4
331
3A5
331
3F8
331
3F9
331
4E5
331
4E6
331
901
331
902
331
90A
331
90B
331
913
331
914
331
91C
331
91D
102
}
  0
BLOCK_RECORD
  5
335
330
1
100
AcDbSymbolTableRecord
100
AcDbBlockTableRecord
  2
*D3
340
0
  0
BLOCK_RECORD
  5
3D4
330
1
100
AcDbSymbolTableRecord
100
AcDbBlockTableRecord
  2
*D4
340
0
  0
BLOCK_RECORD
  5
3E1
330
1
100
AcDbSymbolTableRecord
100
AcDbBlockTableRecord
  2
*D5
340
0
  0
BLOCK_RECORD
  5
476
330
1
100
AcDbSymbolTableRecord
100
AcDbBlockTableRecord
  2
六角ﾈｼ
340
0
102
{BLKREFS
331
47D
102
}
  0
BLOCK_RECORD
  5
504
330
1
100
AcDbSymbolTableRecord
100
AcDbBlockTableRecord
  2
*D8
340
0
  0
ENDTAB
  0
ENDSEC
  0
SECTION
  2
BLOCKS
  0
BLOCK
  5
19
330
18
100
AcDbEntity
  8
0
100
AcDbBlockBegin
  2
*MODEL_SPACE
 70
     0
 10
0.0
 20
0.0
 30
0.0
  3
*MODEL_SPACE
  1

  0
ENDBLK
  5
1A
330
18
100
AcDbEntity
  8
0
100
AcDbBlockEnd
  0
BLOCK
  5
16
330
15
100
AcDbEntity
 67
     1
  8
0
100
AcDbBlockBegin
  2
*PAPER_SPACE
 70
     0
 10
0.0
 20
0.0
 30
0.0
  3
*PAPER_SPACE
  1

  0
ENDBLK
  5
17
330
15
100
AcDbEntity
 67
     1
  8
0
100
AcDbBlockEnd
  0
BLOCK
  5
46
330
45
100
AcDbEntity
  8
0
100
AcDbBlockBegin
  2
_OPEN
 70
     0
 10
0.0
 20
0.0
 30
0.0
  3
_OPEN
  1

  0
LINE
  5
47
330
45
100
AcDbEntity
  8
0
  6
ByBlock
 62
     0
100
AcDbLine
 10
-1.0
 20
0.1666666666666666
 30
0.0
 11
0.0
 21
0.0
 31
0.0
  0
LINE
  5
48
330
45
100
AcDbEntity
  8
0
  6
ByBlock
 62
     0
100
AcDbLine
 10
0.0
 20
0.0
 30
0.0
 11
-1.0
 21
-0.1666666666666666
 31
0.0
  0
LINE
  5
49
330
45
100
AcDbEntity
  8
0
  6
ByBlock
 62
     0
100
AcDbLine
 10
0.0
 20
0.0
 30
0.0
 11
-1.0
 21
0.0
 31
0.0
  0
ENDBLK
  5
4A
330
45
100
AcDbEntity
  8
0
100
AcDbBlockEnd
  0
BLOCK
  5
336
330
335
100
AcDbEntity
  8
0
100
AcDbBlockBegin
  2
*D3
 70
     1
 10
0.0
 20
0.0
 30
0.0
  3
*D3
  1

  0
LINE
  5
8FE
330
335
100
AcDbEntity
  8
外形線
 62
     2
370
    -2
100
AcDbLine
 10
307.8542106747705
 20
256.6753349255362
 30
0.0
 11
307.8542106747705
 21
272.246417700415
 31
0.0
  0
LINE
  5
8FF
330
335
100
AcDbEntity
  8
外形線
 62
     2
370
    -2
100
AcDbLine
 10
377.8542106747705
 20
257.782136229532
 30
0.0
 11
377.8542106747705
 21
272.246417700415
 31
0.0
  0
LINE
  5
900
330
335
100
AcDbEntity
  8
外形線
 62
     2
370
    -2
100
AcDbLine
 10
310.3542106747704
 20
270.996417700415
 30
0.0
 11
375.3542106747705
 21
270.996417700415
 31
0.0
  0
INSERT
  5
901
330
335
100
AcDbEntity
  8
外形線
 62
     2
370
    -2
100
AcDbBlockReference
  2
_OPEN
 10
307.8542106747705
 20
270.996417700415
 30
0.0
 41
2.5
 42
2.5
 43
2.5
 50
180.0
  0
INSERT
  5
902
330
335
100
AcDbEntity
  8
外形線
 62
     2
370
    -2
100
AcDbBlockReference
  2
_OPEN
 10
377.8542106747705
 20
270.996417700415
 30
0.0
 41
2.5
 42
2.5
 43
2.5
  0
MTEXT
  5
903
330
335
100
AcDbEntity
  8
外形線
 62
     6
100
AcDbMText
 10
342.8542106747705
 20
272.871417700415
 30
0.0
 40
2.5
 41
0.0
 71
     5
 72
     1
  1
\A1;70
  7
STYLE3
 73
     1
 44
1.0
  0
POINT
  5
904
330
335
100
AcDbEntity
  8
DEFPOINTS
 62
     0
100
AcDbPoint
 10
307.8542106747705
 20
256.6753349255362
 30
0.0
  0
POINT
  5
905
330
335
100
AcDbEntity
  8
DEFPOINTS
 62
     0
100
AcDbPoint
 10
377.8542106747705
 20
257.782136229532
 30
0.0
  0
POINT
  5
906
330
335
100
AcDbEntity
  8
DEFPOINTS
 62
     0
100
AcDbPoint
 10
377.8542106747705
 20
270.996417700415
 30
0.0
  0
ENDBLK
  5
340
330
335
100
AcDbEntity
  8
0
100
AcDbBlockEnd
  0
BLOCK
  5
3D5
330
3D4
100
AcDbEntity
  8
0
100
AcDbBlockBegin
  2
*D4
 70
     1
 10
0.0
 20
0.0
 30
0.0
  3
*D4
  1

  0
LINE
  5
919
330
3D4
100
AcDbEntity
  8
中心線
 62
     2
370
    -2
100
AcDbLine
 10
433.6042106747704
 20
309.8877188873287
 30
0.0
 11
448.8184160644419
 21
309.8877188873287
 31
0.0
  0
LINE
  5
91A
330
3D4
100
AcDbEntity
  8
中心線
 62
     2
370
    -2
100
AcDbLine
 10
433.6042106747705
 20
296.8877188873286
 30
0.0
 11
448.8184160644419
 21
296.8877188873286
 31
0.0
  0
LINE
  5
91B
330
3D4
100
AcDbEntity
  8
中心線
 62
     2
370
    -2
100
AcDbLine
 10
447.5684160644418
 20
307.3877188873287
 30
0.0
 11
447.5684160644418
 21
299.3877188873286
 31
0.0
  0
INSERT
  5
91C
330
3D4
100
AcDbEntity
  8
中心線
 62
     2
370
    -2
100
AcDbBlockReference
  2
_OPEN
 10
447.5684160644418
 20
309.8877188873287
 30
0.0
 41
2.5
 42
2.5
 43
2.5
 50
90.0
  0
INSERT
  5
91D
330
3D4
100
AcDbEntity
  8
中心線
 62
     2
370
    -2
100
AcDbBlockReference
  2
_OPEN
 10
447.5684160644418
 20
296.8877188873286
 30
0.0
 41
2.5
 42
2.5
 43
2.5
 50
270.0
  0
MTEXT
  5
91E
330
3D4
100
AcDbEntity
  8
中心線
 62
     6
100
AcDbMText
 10
445.6934160644419
 20
303.3877188873288
 30
0.0
 40
2.5
 41
0.0
 71
     5
 72
     1
  1
\A1;13
  7
STYLE3
 11
0.0000000000000001
 21
1.0
 31
0.0
 73
     1
 44
1.0
  0
POINT
  5
91F
330
3D4
100
AcDbEntity
  8
DEFPOINTS
 62
     0
100
AcDbPoint
 10
433.6042106747704
 20
309.8877188873287
 30
0.0
  0
POINT
  5
920
330
3D4
100
AcDbEntity
  8
DEFPOINTS
 62
     0
100
AcDbPoint
 10
433.6042106747705
 20
296.8877188873286
 30
0.0
  0
POINT
  5
921
330
3D4
100
AcDbEntity
  8
DEFPOINTS
 62
     0
100
AcDbPoint
 10
447.5684160644418
 20
296.8877188873286
 30
0.0
  0
ENDBLK
  5
3DF
330
3D4
100
AcDbEntity
  8
0
100
AcDbBlockEnd
  0
BLOCK
  5
3E2
330
3E1
100
AcDbEntity
  8
0
100
AcDbBlockBegin
  2
*D5
 70
     1
 10
0.0
 20
0.0
 30
0.0
  3
*D5
  1

  0
LINE
  5
910
330
3E1
100
AcDbEntity
  8
中心線
 62
     2
370
    -2
100
AcDbLine
 10
422.1042106747705
 20
309.8877188873287
 30
0.0
 11
422.1042106747705
 21
322.6996998900224
 31
0.0
  0
LINE
  5
911
330
3E1
100
AcDbEntity
  8
中心線
 62
     2
370
    -2
100
AcDbLine
 10
433.6042106747704
 20
309.8877188873287
 30
0.0
 11
433.6042106747704
 21
322.6996998900224
 31
0.0
  0
LINE
  5
912
330
3E1
100
AcDbEntity
  8
中心線
 62
     2
370
    -2
100
AcDbLine
 10
424.6042106747704
 20
321.4496998900224
 30
0.0
 11
431.1042106747704
 21
321.4496998900224
 31
0.0
  0
INSERT
  5
913
330
3E1
100
AcDbEntity
  8
中心線
 62
     2
370
    -2
100
AcDbBlockReference
  2
_OPEN
 10
422.1042106747705
 20
321.4496998900224
 30
0.0
 41
2.5
 42
2.5
 43
2.5
 50
180.0
  0
INSERT
  5
914
330
3E1
100
AcDbEntity
  8
中心線
 62
     2
370
    -2
100
AcDbBlockReference
  2
_OPEN
 10
433.6042106747704
 20
321.4496998900224
 30
0.0
 41
2.5
 42
2.5
 43
2.5
  0
MTEXT
  5
915
330
3E1
100
AcDbEntity
  8
中心線
 62
     6
100
AcDbMText
 10
427.8542106747704
 20
323.3246998900224
 30
0.0
 40
2.5
 41
0.0
 71
     5
 72
     1
  1
\A1;11.5
  7
STYLE3
 73
     1
 44
1.0
  0
POINT
  5
916
330
3E1
100
AcDbEntity
  8
DEFPOINTS
 62
     0
100
AcDbPoint
 10
422.1042106747705
 20
309.8877188873287
 30
0.0
  0
POINT
  5
917
330
3E1
100
AcDbEntity
  8
DEFPOINTS
 62
     0
100
AcDbPoint
 10
433.6042106747704
 20
309.8877188873287
 30
0.0
  0
POINT
  5
918
330
3E1
100
AcDbEntity
  8
DEFPOINTS
 62
     0
100
AcDbPoint
 10
433.6042106747704
 20
321.4496998900224
 30
0.0
  0
ENDBLK
  5
3EC
330
3E1
100
AcDbEntity
  8
0
100
AcDbBlockEnd
  0
BLOCK
  5
47B
330
476
100
AcDbEntity
  8
0
100
AcDbBlockBegin
  2
六角ﾈｼ
 70
     0
 10
0.0
 20
0.0
 30
0.0
  3
六角ﾈｼ
  1

  0
LINE
  5
477
330
476
100
AcDbEntity
  8
外形線
 48
0.8
100
AcDbLine
 10
-0.0000000000000568
 20
4.499999999999943
 30
0.0
 11
2.737599573181626
 21
4.499999999999943
 31
0.0
  0
ARC
  5
478
330
476
100
AcDbEntity
  8
外形線
100
AcDbCircle
 10
-4.010000000002662
 20
2.599999999999511
 30
0.0
 40
7.010000000002722
100
AcDbArc
 50
338.2289458906957
 51
15.72624379279067
  0
ARC
  5
479
330
476
100
AcDbEntity
  8
外形線
100
AcDbCircle
 10
-4.010000000002662
 20
-2.599999999999511
 30
0.0
 40
7.010000000002722
100
AcDbArc
 50
344.2737562072088
 51
21.77105410930435
  0
LINE
  5
47A
330
476
100
AcDbEntity
  8
外形線
 48
0.8
100
AcDbLine
 10
0.0000000000001705
 20
-4.5
 30
0.0
 11
2.737599573181569
 21
-4.5
 31
0.0
  0
ENDBLK
  5
47C
330
476
100
AcDbEntity
  8
0
100
AcDbBlockEnd
  0
BLOCK
  5
511
330
504
100
AcDbEntity
  8
0
100
AcDbBlockBegin
  2
*D8
 70
     1
 10
0.0
 20
0.0
 30
0.0
  3
*D8
  1

  0
LINE
  5
907
330
504
100
AcDbEntity
  8
外形線
 62
     2
370
    -2
100
AcDbLine
 10
391.0310345360531
 20
255.6753349255362
 30
0.0
 11
392.7171607402551
 21
255.6753349255362
 31
0.0
  0
LINE
  5
908
330
504
100
AcDbEntity
  8
外形線
 62
     2
370
    -2
100
AcDbLine
 10
390.8856591346524
 20
245.6753349255361
 30
0.0
 11
392.7171607402551
 21
245.6753349255361
 31
0.0
  0
LINE
  5
909
330
504
100
AcDbEntity
  8
外形線
 62
     2
370
    -2
100
AcDbLine
 10
391.4671607402551
 20
253.1753349255362
 30
0.0
 11
391.4671607402551
 21
248.1753349255362
 31
0.0
  0
INSERT
  5
90A
330
504
100
AcDbEntity
  8
外形線
 62
     2
370
    -2
100
AcDbBlockReference
  2
_OPEN
 10
391.4671607402551
 20
255.6753349255362
 30
0.0
 41
2.5
 42
2.5
 43
2.5
 50
90.0
  0
INSERT
  5
90B
330
504
100
AcDbEntity
  8
外形線
 62
     2
370
    -2
100
AcDbBlockReference
  2
_OPEN
 10
391.4671607402551
 20
245.6753349255361
 30
0.0
 41
2.5
 42
2.5
 43
2.5
 50
270.0
  0
MTEXT
  5
90C
330
504
100
AcDbEntity
  8
外形線
 62
     6
100
AcDbMText
 10
389.592160740255
 20
250.6753349255362
 30
0.0
 40
2.5
 41
0.0
 71
     5
 72
     1
  1
\A1;φ10
  7
STYLE3
 11
0.0000000000000001
 21
1.0
 31
0.0
 73
     1
 44
1.0
  0
POINT
  5
90D
330
504
100
AcDbEntity
  8
DEFPOINTS
 62
     0
100
AcDbPoint
 10
391.0310345360531
 20
255.6753349255362
 30
0.0
  0
POINT
  5
90E
330
504
100
AcDbEntity
  8
DEFPOINTS
 62
     0
100
AcDbPoint
 10
390.8856591346524
 20
245.6753349255361
 30
0.0
  0
POINT
  5
90F
330
504
100
AcDbEntity
  8
DEFPOINTS
 62
     0
100
AcDbPoint
 10
391.4671607402551
 20
245.6753349255361
 30
0.0
  0
ENDBLK
  5
51B
330
504
100
AcDbEntity
  8
0
100
AcDbBlockEnd
  0
ENDSEC
  0
SECTION
  2
ENTITIES
  0
LWPOLYLINE
  5
10B
330
18
100
AcDbEntity
  8
C
100
AcDbPolyline
 90
        5
 70
     0
 43
0.4
 10
236.6915604445414
 20
366.8501752555372
 10
491.6915604445414
 20
366.8501752555372
 10
491.6915604445414
 20
171.8501752555372
 10
236.6915604445414
 20
171.8501752555372
 10
236.6915604445414
 20
366.8501752555372
  0
LINE
  5
16A
330
18
100
AcDbEntity
  8
中心線
 48
0.5
100
AcDbLine
 10
279.816808872415
 20
250.6753349255362
 30
0.0
 11
437.8484254028795
 21
250.6753349255361
 31
0.0
  0
LINE
  5
16C
102
{ACAD_REACTORS
330
317
102
}
330
18
100
AcDbEntity
  8
外形線
100
AcDbLine
 10
347.8542106747704
 20
260.6346487491896
 30
0.0
 11
347.8542106747704
 21
254.6753349255362
 31
0.0
  0
LINE
  5
16D
102
{ACAD_REACTORS
330
317
102
}
330
18
100
AcDbEntity
  8
外形線
100
AcDbLine
 10
367.8542106747705
 20
259.6565588397543
 30
0.0
 11
367.8542106747706
 21
252.6753349255362
 31
0.0
  0
LINE
  5
16E
330
18
100
AcDbEntity
  8
外形線
100
AcDbLine
 10
377.8542106747705
 20
257.782136229532
 30
0.0
 11
377.8542106747705
 21
243.5685336215403
 31
0.0
  0
LINE
  5
171
330
18
100
AcDbEntity
  8
外形線
100
AcDbLine
 10
307.8542106747705
 20
257.782136229532
 30
0.0
 11
307.8542106747705
 21
256.6753349255362
 31
0.0
  0
ARC
  5
173
102
{ACAD_REACTORS
330
317
102
}
330
18
100
AcDbEntity
  8
外形線
100
AcDbCircle
 10
342.8542106747705
 20
-46.57466507446389
 30
0.0
 40
307.25
100
AcDbArc
 50
83.62585904071393
 51
96.37414095928605
  0
ARC
  5
175
102
{ACAD_REACTORS
330
317
102
}
330
18
100
AcDbEntity
  8
外形線
100
AcDbCircle
 10
342.8542106747705
 20
547.9253349255361
 30
0.0
 40
307.25
100
AcDbArc
 50
263.6258590407139
 51
276.3741409592861
  0
LINE
  5
176
330
18
100
AcDbEntity
  8
外形線
100
AcDbLine
 10
357.8542106747705
 20
254.1753349255362
 30
0.0
 11
357.8542106747705
 21
247.1753349255362
 31
0.0
  0
LINE
  5
177
330
18
100
AcDbEntity
  8
外形線
100
AcDbLine
 10
327.8542106747705
 20
254.1753349255362
 30
0.0
 11
327.8542106747705
 21
247.1753349255362
 31
0.0
  0
LINE
  5
178
330
18
100
AcDbEntity
  8
外形線
100
AcDbLine
 10
327.8542106747705
 20
254.1753349255362
 30
0.0
 11
357.8542106747705
 21
254.1753349255362
 31
0.0
  0
LINE
  5
179
330
18
100
AcDbEntity
  8
外形線
100
AcDbLine
 10
327.8542106747705
 20
247.1753349255362
 30
0.0
 11
357.8542106747705
 21
247.1753349255362
 31
0.0
  0
LINE
  5
17A
102
{ACAD_REACTORS
330
317
102
}
330
18
100
AcDbEntity
  8
外形線
100
AcDbLine
 10
347.8542106747704
 20
254.6753349255362
 30
0.0
 11
358.3542106747704
 21
254.6753349255362
 31
0.0
  0
LINE
  5
17C
102
{ACAD_REACTORS
330
317
102
}
330
18
100
AcDbEntity
  8
外形線
100
AcDbLine
 10
358.3542106747704
 20
252.6753349255362
 30
0.0
 11
367.8542106747706
 21
252.6753349255362
 31
0.0
  0
LINE
  5
17F
102
{ACAD_REACTORS
330
317
102
}
330
18
100
AcDbEntity
  8
外形線
100
AcDbLine
 10
358.3542106747704
 20
254.6753349255362
 30
0.0
 11
358.3542106747704
 21
252.6753349255362
 31
0.0
  0
LINE
  5
181
102
{ACAD_REACTORS
330
317
102
}
330
18
100
AcDbEntity
  8
外形線
100
AcDbLine
 10
358.3542106747704
 20
248.6753349255362
 30
0.0
 11
367.8542106747706
 21
248.6753349255362
 31
0.0
  0
LINE
  5
182
102
{ACAD_REACTORS
330
317
102
}
330
18
100
AcDbEntity
  8
外形線
100
AcDbLine
 10
367.8542106747705
 20
241.694111011318
 30
0.0
 11
367.8542106747706
 21
248.6753349255362
 31
0.0
  0
LINE
  5
183
102
{ACAD_REACTORS
330
317
102
}
330
18
100
AcDbEntity
  8
外形線
100
AcDbLine
 10
358.3542106747704
 20
246.6753349255362
 30
0.0
 11
358.3542106747704
 21
248.6753349255362
 31
0.0
  0
LINE
  5
184
102
{ACAD_REACTORS
330
317
102
}
330
18
100
AcDbEntity
  8
外形線
100
AcDbLine
 10
347.8542106747704
 20
246.6753349255362
 30
0.0
 11
358.3542106747704
 21
246.6753349255362
 31
0.0
  0
LINE
  5
185
102
{ACAD_REACTORS
330
317
102
}
330
18
100
AcDbEntity
  8
外形線
100
AcDbLine
 10
347.8542106747704
 20
240.7160211018827
 30
0.0
 11
347.8542106747704
 21
246.6753349255362
 31
0.0
  0
LINE
  5
186
102
{ACAD_REACTORS
330
317
102
}
330
18
100
AcDbEntity
  8
外形線
100
AcDbLine
 10
317.8542106747705
 20
241.694111011318
 30
0.0
 11
317.8542106747703
 21
248.6753349255362
 31
0.0
  0
LINE
  5
188
102
{ACAD_REACTORS
330
317
102
}
330
18
100
AcDbEntity
  8
外形線
100
AcDbLine
 10
337.8542106747705
 20
240.7160211018827
 30
0.0
 11
337.8542106747705
 21
246.6753349255362
 31
0.0
  0
LINE
  5
189
102
{ACAD_REACTORS
330
317
102
}
330
18
100
AcDbEntity
  8
外形線
100
AcDbLine
 10
337.8542106747705
 20
246.6753349255362
 30
0.0
 11
327.3542106747705
 21
246.6753349255362
 31
0.0
  0
LINE
  5
18A
102
{ACAD_REACTORS
330
317
102
}
330
18
100
AcDbEntity
  8
外形線
100
AcDbLine
 10
327.3542106747705
 20
246.6753349255362
 30
0.0
 11
327.3542106747705
 21
248.6753349255362
 31
0.0
  0
LINE
  5
18B
102
{ACAD_REACTORS
330
317
102
}
330
18
100
AcDbEntity
  8
外形線
100
AcDbLine
 10
327.3542106747705
 20
248.6753349255362
 30
0.0
 11
317.8542106747703
 21
248.6753349255362
 31
0.0
  0
LINE
  5
18D
102
{ACAD_REACTORS
330
317
102
}
330
18
100
AcDbEntity
  8
外形線
100
AcDbLine
 10
337.8542106747705
 20
260.6346487491896
 30
0.0
 11
337.8542106747705
 21
254.6753349255362
 31
0.0
  0
LINE
  5
18E
102
{ACAD_REACTORS
330
317
102
}
330
18
100
AcDbEntity
  8
外形線
100
AcDbLine
 10
327.3542106747705
 20
252.6753349255362
 30
0.0
 11
317.8542106747703
 21
252.6753349255362
 31
0.0
  0
LINE
  5
18F
102
{ACAD_REACTORS
330
317
102
}
330
18
100
AcDbEntity
  8
外形線
100
AcDbLine
 10
317.8542106747705
 20
259.6565588397543
 30
0.0
 11
317.8542106747703
 21
252.6753349255362
 31
0.0
  0
LINE
  5
190
102
{ACAD_REACTORS
330
317
102
}
330
18
100
AcDbEntity
  8
外形線
100
AcDbLine
 10
327.3542106747705
 20
254.6753349255362
 30
0.0
 11
327.3542106747705
 21
252.6753349255362
 31
0.0
  0
LINE
  5
191
102
{ACAD_REACTORS
330
317
102
}
330
18
100
AcDbEntity
  8
外形線
100
AcDbLine
 10
337.8542106747705
 20
254.6753349255362
 30
0.0
 11
327.3542106747705
 21
254.6753349255362
 31
0.0
  0
TEXT
  5
1AE
330
18
100
AcDbEntity
  8
文字
100
AcDbText
 10
336.2836043868823
 20
249.4482766102105
 30
0.0
 40
2.5
  1
18-35mm
  7
STYLE3
100
AcDbText
  0
LINE
  5
1B2
330
18
100
AcDbEntity
  8
外形線
100
AcDbLine
 10
377.8542106747705
 20
255.6753349255362
 30
0.0
 11
418.2542106747702
 21
255.6753349255362
 31
0.0
  0
LINE
  5
1B3
330
18
100
AcDbEntity
  8
外形線
100
AcDbLine
 10
377.8542106747705
 20
245.6753349255361
 30
0.0
 11
418.2542106747704
 21
245.6753349255361
 31
0.0
  0
LINE
  5
1C6
330
18
100
AcDbEntity
  8
外形線
100
AcDbLine
 10
432.9542106747704
 20
248.8150078115944
 30
0.0
 11
422.7542106747704
 21
248.8150078115944
 31
0.0
  0
LINE
  5
1C8
330
18
100
AcDbEntity
  8
外形線
100
AcDbLine
 10
422.7542106747704
 20
248.8150078115944
 30
0.0
 11
422.7542106747705
 21
259.3150078115944
 31
0.0
  0
LINE
  5
1CA
330
18
100
AcDbEntity
  8
外形線
100
AcDbLine
 10
422.1042106747704
 20
259.3150078115944
 30
0.0
 11
422.1042106747705
 21
260.7410987517393
 31
0.0
  0
LINE
  5
1CC
330
18
100
AcDbEntity
  8
外形線
100
AcDbLine
 10
433.6042106747704
 20
259.3150078115944
 30
0.0
 11
422.1042106747704
 21
259.3150078115944
 31
0.0
  0
ARC
  5
1CE
330
18
100
AcDbEntity
  8
外形線
100
AcDbCircle
 10
427.8542106747704
 20
245.8100070301002
 30
0.0
 40
16.0
100
AcDbArc
 50
68.93818239835045
 51
111.0618176016491
  0
ARC
  5
1D1
330
18
100
AcDbEntity
  8
外形線
100
AcDbCircle
 10
427.8542106747704
 20
262.3703341440418
 30
0.0
 40
1.0
100
AcDbArc
 50
23.57817847819385
 51
156.4218215218031
  0
LINE
  5
1D2
330
18
100
AcDbEntity
  8
外形線
100
AcDbLine
 10
426.8042106747737
 20
261.7755167307019
 30
0.0
 11
426.8042106747704
 21
262.7703341440417
 31
0.0
  0
LINE
  5
1D3
330
18
100
AcDbEntity
  8
外形線
100
AcDbLine
 10
428.9042106747704
 20
261.7755167307017
 30
0.0
 11
428.9042106747704
 21
262.7703341440417
 31
0.0
  0
LINE
  5
1D5
330
18
100
AcDbEntity
  8
外形線
100
AcDbLine
 10
428.9042106747704
 20
262.7703341440418
 30
0.0
 11
426.8042106747705
 21
262.7703341440418
 31
0.0
  0
LINE
  5
21A
330
18
100
AcDbEntity
  8
外形線
100
AcDbLine
 10
421.7542106747705
 20
254.3753349255361
 30
0.0
 11
421.7542106747704
 21
246.9753349255361
 31
0.0
  0
LINE
  5
21B
330
18
100
AcDbEntity
  8
外形線
100
AcDbLine
 10
422.2542106747704
 20
255.7753349255362
 30
0.0
 11
422.2542106747704
 21
246.6753349255361
 31
0.0
  0
LINE
  5
21D
330
18
100
AcDbEntity
  8
外形線
100
AcDbLine
 10
421.2542106747704
 20
254.3753349255361
 30
0.0
 11
421.7542106747705
 21
254.3753349255361
 31
0.0
  0
LINE
  5
21E
330
18
100
AcDbEntity
  8
外形線
100
AcDbLine
 10
421.2542106747704
 20
246.9753349255361
 30
0.0
 11
421.7542106747704
 21
246.9753349255361
 31
0.0
  0
LINE
  5
21F
330
18
100
AcDbEntity
  8
外形線
100
AcDbLine
 10
421.7542106747705
 20
254.1753349255361
 30
0.0
 11
422.2542106747704
 21
254.1753349255361
 31
0.0
  0
LINE
  5
220
330
18
100
AcDbEntity
  8
外形線
100
AcDbLine
 10
421.7542106747705
 20
247.1753349255361
 30
0.0
 11
422.2542106747704
 21
247.1753349255361
 31
0.0
  0
LINE
  5
221
330
18
100
AcDbEntity
  8
外形線
100
AcDbLine
 10
422.2542106747704
 20
246.6753349255361
 30
0.0
 11
432.2542106747704
 21
246.6753349255361
 31
0.0
  0
LINE
  5
227
330
18
100
AcDbEntity
  8
外形線
100
AcDbLine
 10
422.2542106747704
 20
255.7753349255362
 30
0.0
 11
422.7542106747704
 21
255.7753349255362
 31
0.0
  0
LINE
  5
229
330
18
100
AcDbEntity
  8
外形線
100
AcDbLine
 10
432.2542106747704
 20
248.8150078115944
 30
0.0
 11
432.2542106747704
 21
246.6753349255361
 31
0.0
  0
LINE
  5
22B
330
18
100
AcDbEntity
  8
外形線
100
AcDbLine
 10
432.9542106747704
 20
248.8150078115944
 30
0.0
 11
432.9542106747705
 21
259.3150078115944
 31
0.0
  0
LINE
  5
22C
330
18
100
AcDbEntity
  8
外形線
100
AcDbLine
 10
433.6042106747704
 20
259.3150078115944
 30
0.0
 11
433.6042106747704
 21
260.7410987517393
 31
0.0
  0
LINE
  5
235
330
18
100
AcDbEntity
  8
中心線
 48
0.4
100
AcDbLine
 10
427.8542106747704
 20
263.3703341440419
 30
0.0
 11
427.8542106747704
 21
230.8227679950997
 31
0.0
  0
LINE
  5
23B
330
18
100
AcDbEntity
  8
外形線
100
AcDbLine
 10
431.3542106747704
 20
246.6753349255361
 30
0.0
 11
431.3542106747703
 21
245.1753349255361
 31
0.0
  0
LINE
  5
242
330
18
100
AcDbEntity
  8
外形線
100
AcDbLine
 10
426.1542106747704
 20
235.1753349255361
 30
0.0
 11
429.5542106747704
 21
235.1753349255361
 31
0.0
  0
ARC
  5
243
330
18
100
AcDbEntity
  8
外形線
100
AcDbCircle
 10
427.8542106747704
 20
235.1753349255361
 30
0.0
 40
1.5
100
AcDbArc
 50
180.0
 51
0.0
  0
LINE
  5
247
330
18
100
AcDbEntity
  8
外形線
100
AcDbLine
 10
425.3542106747705
 20
237.3571531073542
 30
0.0
 11
426.1542106747704
 21
235.1753349255361
 31
0.0
  0
LINE
  5
248
330
18
100
AcDbEntity
  8
外形線
100
AcDbLine
 10
430.3542106747705
 20
237.3571531073539
 30
0.0
 11
429.5542106747704
 21
235.1753349255361
 31
0.0
  0
ARC
  5
24E
330
18
100
AcDbEntity
  8
外形線
100
AcDbCircle
 10
308.8542106747705
 20
257.782136229532
 30
0.0
 40
1.0
100
AcDbArc
 50
96.37414095927951
 51
180.0
  0
ARC
  5
24F
330
18
100
AcDbEntity
  8
外形線
100
AcDbCircle
 10
308.8542106747704
 20
243.5685336215403
 30
0.0
 40
1.0
100
AcDbArc
 50
180.0
 51
263.6258590407112
  0
ARC
  5
250
330
18
100
AcDbEntity
  8
外形線
100
AcDbCircle
 10
376.8542106747704
 20
257.782136229532
 30
0.0
 40
1.0
100
AcDbArc
 50
0.0
 51
83.62585904071403
  0
ARC
  5
251
330
18
100
AcDbEntity
  8
外形線
100
AcDbCircle
 10
376.8542106747704
 20
243.5685336215403
 30
0.0
 40
1.0
100
AcDbArc
 50
276.3741409592856
 51
0.0
  0
LINE
  5
253
330
18
100
AcDbEntity
  8
外形線
100
AcDbLine
 10
284.8542106747705
 20
255.3753349255361
 30
0.0
 11
284.8542106747705
 21
248.4848099448473
 31
0.0
  0
LINE
  5
254
330
18
100
AcDbEntity
  8
外形線
100
AcDbLine
 10
306.8542106747704
 20
255.6753349255362
 30
0.0
 11
306.8542106747705
 21
245.6753349255361
 31
0.0
  0
LINE
  5
255
330
18
100
AcDbEntity
  8
外形線
100
AcDbLine
 10
295.8542106747704
 20
255.6753349255362
 30
0.0
 11
295.8542106747704
 21
248.4848099448473
 31
0.0
  0
LINE
  5
256
330
18
100
AcDbEntity
  8
外形線
100
AcDbLine
 10
295.8542106747704
 20
255.6753349255362
 30
0.0
 11
306.8542106747705
 21
255.6753349255362
 31
0.0
  0
LINE
  5
257
330
18
100
AcDbEntity
  8
外形線
100
AcDbLine
 10
297.7704091618662
 20
245.6753349255362
 30
0.0
 11
306.8542106747704
 21
245.6753349255361
 31
0.0
  0
LINE
  5
25C
330
18
100
AcDbEntity
  8
外形線
100
AcDbLine
 10
307.8542106747704
 20
244.6753349255362
 30
0.0
 11
307.8542106747704
 21
243.5685336215403
 31
0.0
  0
LINE
  5
25E
330
18
100
AcDbEntity
  8
外形線
100
AcDbLine
 10
307.8542106747705
 20
256.6753349255362
 30
0.0
 11
307.8542106747704
 21
244.6753349255362
 31
0.0
  0
ARC
  5
25F
330
18
100
AcDbEntity
  8
外形線
100
AcDbCircle
 10
305.6183621232162
 20
243.5021625077052
 30
0.0
 40
2.5
100
AcDbArc
 50
26.57629387126569
 51
60.37379958472584
  0
ARC
  5
260
330
18
100
AcDbEntity
  8
外形線
100
AcDbCircle
 10
305.6183621232162
 20
257.8485073433672
 30
0.0
 40
2.5
100
AcDbArc
 50
299.6262004152742
 51
333.4237061287343
  0
LINE
  5
261
330
18
100
AcDbEntity
  8
外形線
100
AcDbLine
 10
285.8542106747705
 20
255.8753349255362
 30
0.0
 11
294.8542106747704
 21
255.8753349255361
 31
0.0
  0
LINE
  5
263
330
18
100
AcDbEntity
  8
外形線
100
AcDbLine
 10
285.8542106747705
 20
254.8753349255362
 30
0.0
 11
294.8542106747704
 21
254.8753349255362
 31
0.0
  0
LINE
  5
264
330
18
100
AcDbEntity
  8
外形線
100
AcDbLine
 10
294.8542106747705
 20
255.8753349255361
 30
0.0
 11
294.8542106747705
 21
254.8753349255362
 31
0.0
  0
LINE
  5
265
330
18
100
AcDbEntity
  8
外形線
100
AcDbLine
 10
285.8542106747705
 20
255.8753349255362
 30
0.0
 11
285.8542106747705
 21
254.8753349255362
 31
0.0
  0
LINE
  5
26B
330
18
100
AcDbEntity
  8
外形線
100
AcDbLine
 10
294.8542106747705
 20
254.8753349255362
 30
0.0
 11
295.8542106747704
 21
254.3753349255362
 31
0.0
  0
LINE
  5
26C
330
18
100
AcDbEntity
  8
外形線
100
AcDbLine
 10
294.8542106747705
 20
255.8753349255361
 30
0.0
 11
295.8542106747704
 21
255.3753349255361
 31
0.0
  0
LINE
  5
273
330
18
100
AcDbEntity
  8
外形線
100
AcDbLine
 10
285.8542106747705
 20
255.8753349255361
 30
0.0
 11
284.8542106747705
 21
255.3753349255361
 31
0.0
  0
LINE
  5
274
330
18
100
AcDbEntity
  8
外形線
100
AcDbLine
 10
285.8542106747705
 20
254.8753349255362
 30
0.0
 11
284.8542106747705
 21
254.3753349255362
 31
0.0
  0
LINE
  5
275
330
18
100
AcDbEntity
  8
外形線
100
AcDbLine
 10
285.8542106747705
 20
255.8753349255361
 30
0.0
 11
285.8542106747705
 21
254.8753349255362
 31
0.0
  0
LINE
  5
276
330
18
100
AcDbEntity
  8
中心線
 48
0.4
100
AcDbLine
 10
290.3542106747705
 20
253.1993542679749
 30
0.0
 11
290.3542106747705
 21
231.0271628868258
 31
0.0
  0
LINE
  5
277
330
18
100
AcDbEntity
  8
中心線
 48
0.4
100
AcDbLine
 10
279.8683499891658
 20
242.6753349255362
 30
0.0
 11
300.7360192946141
 21
242.6753349255362
 31
0.0
  0
CIRCLE
  5
278
330
18
100
AcDbEntity
  8
外形線
100
AcDbCircle
 10
290.3542106747705
 20
242.6753349255362
 30
0.0
 40
8.0
  0
TEXT
  5
27E
330
18
100
AcDbEntity
  8
文字
100
AcDbText
 10
330.1321983648686
 20
249.2982579613258
 30
0.0
 40
1.0
  1
CC-1
  7
STYLE3
100
AcDbText
  0
LINE
  5
299
330
18
100
AcDbEntity
  8
中心線
 48
0.3
100
AcDbLine
 10
390.6673285239552
 20
303.3877188873287
 30
0.0
 11
437.7937599203917
 21
303.3877188873286
 31
0.0
  0
LINE
  5
29A
330
18
100
AcDbEntity
  8
外形線
100
AcDbLine
 10
396.6066846876626
 20
298.3877188873287
 30
0.0
 11
418.6042106747707
 21
298.3877188873287
 31
0.0
  0
LINE
  5
29B
330
18
100
AcDbEntity
  8
外形線
100
AcDbLine
 10
396.6066846876626
 20
308.3877188873287
 30
0.0
 11
418.6042106747705
 21
308.3877188873287
 31
0.0
  0
ARC
  5
29C
330
18
100
AcDbEntity
  8
外形線
100
AcDbCircle
 10
400.9368117065849
 20
300.8877188873287
 30
0.0
 40
5.0
100
AcDbArc
 50
150.0000000000001
 51
209.9999999999999
  0
ARC
  5
29D
330
18
100
AcDbEntity
  8
外形線
100
AcDbCircle
 10
400.9368117065849
 20
305.8877188873287
 30
0.0
 40
5.0
100
AcDbArc
 50
150.0
 51
209.9999999999999
  0
ARC
  5
29E
330
18
100
AcDbEntity
  8
外形線
100
AcDbCircle
 10
392.2765576687405
 20
305.8877188873287
 30
0.0
 40
5.0
100
AcDbArc
 50
330.0000000000001
 51
29.9999999999999
  0
LINE
  5
2A3
330
18
100
AcDbEntity
  8
外形線
100
AcDbLine
 10
418.6042106747704
 20
308.3877188873287
 30
0.0
 11
418.6042106747707
 21
298.3877188873287
 31
0.0
  0
LINE
  5
2AC
330
18
100
AcDbEntity
  8
外形線
100
AcDbLine
 10
421.6042106747705
 20
299.6877188873287
 30
0.0
 11
422.1042106747706
 21
299.6877188873287
 31
0.0
  0
LINE
  5
2C3
330
18
100
AcDbEntity
  8
外形線
100
AcDbLine
 10
421.6042106747705
 20
307.0877188873287
 30
0.0
 11
422.1042106747707
 21
307.0877188873287
 31
0.0
  0
LINE
  5
2CC
330
18
100
AcDbEntity
  8
外形線
100
AcDbLine
 10
421.6042106747705
 20
304.1377188873286
 30
0.0
 11
422.1042106747707
 21
304.1377188873287
 31
0.0
  0
LINE
  5
2CD
330
18
100
AcDbEntity
  8
外形線
100
AcDbLine
 10
421.6042106747706
 20
302.6377188873286
 30
0.0
 11
422.1042106747705
 21
302.6377188873286
 31
0.0
  0
LINE
  5
2CE
330
18
100
AcDbEntity
  8
外形線
100
AcDbLine
 10
422.1042106747701
 20
309.8877188873287
 30
0.0
 11
422.1042106747707
 21
296.8877188873286
 31
0.0
  0
LINE
  5
2CF
330
18
100
AcDbEntity
  8
外形線
100
AcDbLine
 10
421.6042106747705
 20
307.8877188873286
 30
0.0
 11
421.6042106747706
 21
298.8877188873286
 31
0.0
  0
LINE
  5
2D1
330
18
100
AcDbEntity
  8
外形線
100
AcDbLine
 10
422.1042106747705
 20
309.8877188873287
 30
0.0
 11
433.6042106747704
 21
309.8877188873287
 31
0.0
  0
LINE
  5
2D2
330
18
100
AcDbEntity
  8
外形線
100
AcDbLine
 10
422.1042106747705
 20
296.8877188873286
 30
0.0
 11
433.6042106747705
 21
296.8877188873286
 31
0.0
  0
CIRCLE
  5
2D4
330
18
100
AcDbEntity
  8
外形線
 62
     4
100
AcDbCircle
 10
427.8542106747704
 20
303.3877188873286
 30
0.0
 40
1.0
  0
LINE
  5
2D6
330
18
100
AcDbEntity
  8
外形線
100
AcDbLine
 10
422.1042106747705
 20
308.3877188873287
 30
0.0
 11
433.6042106747704
 21
308.3877188873287
 31
0.0
  0
LINE
  5
2D7
330
18
100
AcDbEntity
  8
外形線
100
AcDbLine
 10
422.1042106747705
 20
298.3877188873286
 30
0.0
 11
433.6042106747705
 21
298.3877188873286
 31
0.0
  0
CIRCLE
  5
2D9
330
18
100
AcDbEntity
  8
外形線
100
AcDbCircle
 10
427.8542106747704
 20
303.3877188873286
 30
0.0
 40
1.3
  0
CIRCLE
  5
2DB
330
18
100
AcDbEntity
  8
外形線
100
AcDbCircle
 10
429.8542106747704
 20
303.3877188873286
 30
0.0
 40
0.5
  0
CIRCLE
  5
2DC
330
18
100
AcDbEntity
  8
外形線
100
AcDbCircle
 10
425.8542106747704
 20
303.3877188873286
 30
0.0
 40
0.5
  0
CIRCLE
  5
2DE
330
18
100
AcDbEntity
  8
外形線
100
AcDbCircle
 10
427.8542106747704
 20
303.3877188873286
 30
0.0
 40
4.0
  0
ARC
  5
2F6
102
{ACAD_REACTORS
330
317
102
}
330
18
100
AcDbEntity
  8
外形線
100
AcDbCircle
 10
327.8542106747705
 20
240.5253384605421
 30
0.0
 40
2.0
100
AcDbArc
 50
12.33039196868931
 51
162.0823891309169
  0
HATCH
  5
317
330
18
100
AcDbEntity
  8
ﾊｯﾁﾝｸ
100
AcDbHatch
 10
0.0
 20
0.0
 30
0.0
210
0.0
220
0.0
230
1.0
  2
DOTS
 70
     0
 71
     1
 91
        4
 92
        7
 72
     1
 73
     1
 93
        6
 10
327.3542106747705
 20
252.6753349255362
 42
0.0
 10
327.3542106747704
 20
254.6753349255361
 42
0.0
 10
337.8542106747704
 20
254.6753349255361
 42
0.0
 10
337.8542106747705
 20
260.6346487491895
 42
0.0162971688498792
 10
317.8542106747705
 20
259.6565588397542
 42
0.0
 10
317.8542106747703
 20
252.6753349255362
 42
0.0
 97
        6
330
173
330
18F
330
18E
330
190
330
191
330
18D
 92
        7
 72
     1
 73
     1
 93
        6
 10
358.3542106747704
 20
254.6753349255361
 42
0.0
 10
358.3542106747704
 20
252.6753349255362
 42
0.0
 10
367.8542106747706
 20
252.6753349255362
 42
0.0
 10
367.8542106747705
 20
259.6565588397542
 42
0.0162971688498792
 10
347.8542106747704
 20
260.6346487491895
 42
0.0
 10
347.8542106747704
 20
254.6753349255361
 42
0.0
 97
        6
330
173
330
16C
330
17A
330
17F
330
17C
330
16D
 92
        7
 72
     1
 73
     1
 93
        6
 10
367.8542106747705
 20
241.6941110113182
 42
0.0
 10
367.8542106747706
 20
248.6753349255362
 42
0.0
 10
358.3542106747704
 20
248.6753349255362
 42
0.0
 10
358.3542106747705
 20
246.6753349255362
 42
0.0
 10
347.8542106747704
 20
246.6753349255361
 42
0.0
 10
347.8542106747704
 20
240.7160211018829
 42
0.0162971688498792
 97
        6
330
181
330
183
330
184
330
185
330
175
330
182
 92
        7
 72
     1
 73
     1
 93
        8
 10
325.9512108998729
 20
241.1406366457658
 42
-0.7656091570196323
 10
329.8080755491016
 20
240.9524357010562
 42
0.0065500023894979
 10
337.8542106747705
 20
240.7160211018827
 42
0.0
 10
337.8542106747704
 20
246.6753349255361
 42
0.0
 10
327.3542106747705
 20
246.6753349255362
 42
0.0
 10
327.3542106747704
 20
248.6753349255361
 42
0.0
 10
317.8542106747703
 20
248.6753349255361
 42
0.0
 10
317.8542106747705
 20
241.6941110113182
 42
0.006603945187105
 97
        7
330
189
330
18A
330
18B
330
186
330
175
330
2F6
330
188
 75
     0
 76
     1
 52
0.0
 41
0.4
 77
     0
 78
     1
 53
0.0
 43
16.49238365424503
 44
-15.28929400014681
 45
0.3175
 46
0.635
 79
     2
 49
0.0
 49
-0.635
 47
0.3765170278403226
 98
        4
 10
322.2861802162413
 20
255.5592197750808
 10
361.0994838219261
 20
255.9357365312855
 10
361.4763118874933
 20
243.5106749307851
 10
324.1703213473436
 20
244.2637088982337
  0
DIMENSION
  5
341
330
18
100
AcDbEntity
  8
外形線
100
AcDbDimension
  2
*D3
 10
377.8542106747705
 20
270.996417700415
 30
0.0
 11
342.8542106747705
 21
272.871417700415
 31
0.0
 70
    32
 71
     5
 42
70.0
  3
STYLE3
100
AcDbAlignedDimension
 13
307.8542106747705
 23
256.6753349255362
 33
0.0
 14
377.8542106747705
 24
257.782136229532
 34
0.0
100
AcDbRotatedDimension
1001
ACAD
1000
DSTYLE
1002
{
1070
   271
1070
     2
1002
}
  0
LINE
  5
390
330
18
100
AcDbEntity
  8
0
  6
ByBlock
 62
     2
100
AcDbLine
 10
425.3542106747704
 20
270.9964177004151
 30
0.0
 11
422.8542106747704
 21
270.9964177004151
 31
0.0
  0
LINE
  5
391
330
18
100
AcDbEntity
  8
0
  6
ByBlock
 62
     2
100
AcDbLine
 10
436.1042106747706
 20
270.9964177004151
 30
0.0
 11
447.4732582938181
 21
270.9964177004151
 31
0.0
  0
LINE
  5
392
330
18
100
AcDbEntity
  8
0
  6
ByBlock
 62
     2
100
AcDbLine
 10
427.8542106747704
 20
270.9964177004151
 30
0.0
 11
433.6042106747705
 21
270.9964177004151
 31
0.0
  0
INSERT
  5
394
330
18
100
AcDbEntity
  8
0
  6
ByBlock
 62
     2
100
AcDbBlockReference
  2
_OPEN
 10
433.6042106747705
 20
270.9964177004151
 30
0.0
 41
2.5
 42
2.5
 43
2.5
 50
180.0
  0
MTEXT
  5
395
330
18
100
AcDbEntity
  8
0
  6
ByBlock
 62
     6
100
AcDbMText
 10
443.0387344842944
 20
272.871417700415
 30
0.0
 40
2.5
 41
0.0
 71
     5
 72
     1
  1
\A1;5.75
  7
STYLE3
 73
     1
 44
1.0
  0
LINE
  5
399
330
18
100
AcDbEntity
  8
0
  6
ByBlock
 62
     2
100
AcDbLine
 10
284.8542106747705
 20
254.3753349255362
 30
0.0
 11
284.8542106747705
 21
280.5297927074676
 31
0.0
  0
LINE
  5
39A
330
18
100
AcDbEntity
  8
0
  6
ByBlock
 62
     2
100
AcDbLine
 10
433.6042106747704
 20
260.7410987517393
 30
0.0
 11
433.6042106747704
 21
280.5297927074677
 31
0.0
  0
LINE
  5
39B
330
18
100
AcDbEntity
  8
0
  6
ByBlock
 62
     2
100
AcDbLine
 10
287.3542106747704
 20
279.2797927074677
 30
0.0
 11
431.1042106747705
 21
279.2797927074677
 31
0.0
  0
INSERT
  5
39C
330
18
100
AcDbEntity
  8
0
  6
ByBlock
 62
     2
100
AcDbBlockReference
  2
_OPEN
 10
284.8542106747705
 20
279.2797927074677
 30
0.0
 41
2.5
 42
2.5
 43
2.5
 50
180.0
  0
INSERT
  5
39D
330
18
100
AcDbEntity
  8
0
  6
ByBlock
 62
     2
100
AcDbBlockReference
  2
_OPEN
 10
433.6042106747704
 20
279.2797927074677
 30
0.0
 41
2.5
 42
2.5
 43
2.5
  0
POINT
  5
39F
330
18
100
AcDbEntity
  8
DEFPOINTS
  6
ByBlock
 62
     0
100
AcDbPoint
 10
284.8542106747705
 20
254.3753349255362
 30
0.0
  0
POINT
  5
3A0
330
18
100
AcDbEntity
  8
DEFPOINTS
  6
ByBlock
 62
     0
100
AcDbPoint
 10
433.6042106747704
 20
260.7410987517393
 30
0.0
  0
POINT
  5
3A1
330
18
100
AcDbEntity
  8
DEFPOINTS
  6
ByBlock
 62
     0
100
AcDbPoint
 10
433.6042106747704
 20
279.2797927074677
 30
0.0
  0
LINE
  5
3A2
330
18
100
AcDbEntity
  8
0
  6
ByBlock
 62
     2
100
AcDbLine
 10
427.8542106747704
 20
263.3703341440419
 30
0.0
 11
427.8542106747704
 21
272.2464177004151
 31
0.0
  0
LINE
  5
3A3
330
18
100
AcDbEntity
  8
0
  6
ByBlock
 62
     2
100
AcDbLine
 10
380.3542106747705
 20
270.996417700415
 30
0.0
 11
425.3542106747704
 21
270.9964177004151
 31
0.0
  0
INSERT
  5
3A4
330
18
100
AcDbEntity
  8
0
  6
ByBlock
 62
     2
100
AcDbBlockReference
  2
_OPEN
 10
377.8542106747705
 20
270.996417700415
 30
0.0
 41
2.5
 42
2.5
 43
2.5
 50
180.0
  0
INSERT
  5
3A5
330
18
100
AcDbEntity
  8
0
  6
ByBlock
 62
     2
100
AcDbBlockReference
  2
_OPEN
 10
427.8542106747704
 20
270.9964177004151
 30
0.0
 41
2.5
 42
2.5
 43
2.5
  0
POINT
  5
3A7
330
18
100
AcDbEntity
  8
DEFPOINTS
  6
ByBlock
 62
     0
100
AcDbPoint
 10
377.8542106747705
 20
257.782136229532
 30
0.0
  0
POINT
  5
3A8
330
18
100
AcDbEntity
  8
DEFPOINTS
  6
ByBlock
 62
     0
100
AcDbPoint
 10
427.8542106747704
 20
266.5058242036506
 30
0.0
  0
POINT
  5
3A9
330
18
100
AcDbEntity
  8
DEFPOINTS
  6
ByBlock
 62
     0
100
AcDbPoint
 10
427.8542106747704
 20
270.9964177004151
 30
0.0
  0
LINE
  5
3D1
330
18
100
AcDbEntity
  8
外形線
100
AcDbLine
 10
433.6042106747704
 20
309.8877188873287
 30
0.0
 11
433.6042106747705
 21
296.8877188873286
 31
0.0
  0
LINE
  5
3D2
330
18
100
AcDbEntity
  8
中心線
 48
0.5
100
AcDbLine
 10
427.8542106747704
 20
311.7385723860391
 30
0.0
 11
427.8542106747704
 21
294.597235681598
 31
0.0
  0
DIMENSION
  5
3E0
330
18
100
AcDbEntity
  8
中心線
100
AcDbDimension
  2
*D4
 10
447.5684160644418
 20
296.8877188873286
 30
0.0
 11
445.6934160644419
 21
303.3877188873288
 31
0.0
 70
    32
 71
     5
 42
13.00000000000006
  3
STYLE3
100
AcDbAlignedDimension
 13
433.6042106747704
 23
309.8877188873287
 33
0.0
 14
433.6042106747705
 24
296.8877188873286
 34
0.0
 50
90.0
100
AcDbRotatedDimension
1001
ACAD
1000
DSTYLE
1002
{
1070
   271
1070
     2
1002
}
  0
DIMENSION
  5
3ED
330
18
100
AcDbEntity
  8
中心線
100
AcDbDimension
  2
*D5
 10
433.6042106747704
 20
321.4496998900224
 30
0.0
 11
427.8542106747704
 21
323.3246998900224
 31
0.0
 70
    32
 71
     5
 42
11.49999999999994
  3
STYLE3
100
AcDbAlignedDimension
 13
422.1042106747705
 23
309.8877188873287
 33
0.0
 14
433.6042106747704
 24
309.8877188873287
 34
0.0
100
AcDbRotatedDimension
1001
ACAD
1000
DSTYLE
1002
{
1070
   271
1070
     2
1002
}
  0
LINE
  5
3EF
330
18
100
AcDbEntity
  8
外形線
 62
     4
100
AcDbLine
 10
423.7542106747705
 20
248.8150078115944
 30
0.0
 11
423.7542106747705
 21
246.6753349255361
 31
0.0
  0
TEXT
  5
3F3
330
18
100
AcDbEntity
  8
文字
100
AcDbText
 10
353.1596603780727
 20
280.4093434311209
 30
0.0
 40
2.5
  1
150
  7
STYLE3
100
AcDbText
  0
TEXT
  5
3F4
330
18
100
AcDbEntity
  8
文字
100
AcDbText
 10
399.8201296895816
 20
271.7494521229028
 30
0.0
 40
2.5
  1
50
  7
STYLE3
100
AcDbText
  0
LINE
  5
3F5
330
18
100
AcDbEntity
  8
0
  6
ByBlock
 62
     2
100
AcDbLine
 10
427.8542106747704
 20
263.3703341440419
 30
0.0
 11
449.0499853440271
 21
263.3703341440418
 31
0.0
  0
LINE
  5
3F6
330
18
100
AcDbEntity
  8
0
  6
ByBlock
 62
     2
100
AcDbLine
 10
427.8542106747704
 20
233.6753349255361
 30
0.0
 11
449.0499853440271
 21
233.6753349255361
 31
0.0
  0
LINE
  5
3F7
330
18
100
AcDbEntity
  8
0
  6
ByBlock
 62
     2
100
AcDbLine
 10
447.799985344027
 20
260.8703341440418
 30
0.0
 11
447.799985344027
 21
236.1753349255361
 31
0.0
  0
INSERT
  5
3F8
330
18
100
AcDbEntity
  8
0
  6
ByBlock
 62
     2
100
AcDbBlockReference
  2
_OPEN
 10
447.799985344027
 20
263.3703341440418
 30
0.0
 41
2.5
 42
2.5
 43
2.5
 50
90.0
  0
INSERT
  5
3F9
330
18
100
AcDbEntity
  8
0
  6
ByBlock
 62
     2
100
AcDbBlockReference
  2
_OPEN
 10
447.799985344027
 20
233.6753349255361
 30
0.0
 41
2.5
 42
2.5
 43
2.5
 50
270.0
  0
POINT
  5
3FB
330
18
100
AcDbEntity
  8
DEFPOINTS
  6
ByBlock
 62
     0
100
AcDbPoint
 10
427.8542106747704
 20
263.3703341440419
 30
0.0
  0
POINT
  5
3FC
330
18
100
AcDbEntity
  8
DEFPOINTS
  6
ByBlock
 62
     0
100
AcDbPoint
 10
427.8542106747704
 20
233.6753349255361
 30
0.0
  0
POINT
  5
3FD
330
18
100
AcDbEntity
  8
DEFPOINTS
  6
ByBlock
 62
     0
100
AcDbPoint
 10
447.799985344027
 20
233.6753349255361
 30
0.0
  0
TEXT
  5
3FE
330
18
100
AcDbEntity
  8
文字
100
AcDbText
 10
447.0258724420326
 20
242.1831830491047
 30
0.0
 40
2.5
  1
18～35
 50
90.0
  7
STYLE3
100
AcDbText
  0
LINE
  5
403
330
18
100
AcDbEntity
  8
外形線
100
AcDbLine
 10
356.3542106747705
 20
253.1753349255362
 30
0.0
 11
356.3542106747704
 21
248.1753349255362
 31
0.0
  0
LINE
  5
404
330
18
100
AcDbEntity
  8
外形線
100
AcDbLine
 10
329.3542106747704
 20
253.1753349255362
 30
0.0
 11
329.3542106747704
 21
248.1753349255362
 31
0.0
  0
LINE
  5
405
330
18
100
AcDbEntity
  8
外形線
100
AcDbLine
 10
329.3542106747704
 20
253.1753349255362
 30
0.0
 11
356.3542106747705
 21
253.1753349255362
 31
0.0
  0
LINE
  5
406
330
18
100
AcDbEntity
  8
外形線
100
AcDbLine
 10
329.3542106747704
 20
248.1753349255362
 30
0.0
 11
356.3542106747704
 21
248.1753349255362
 31
0.0
  0
LINE
  5
449
330
18
100
AcDbEntity
  8
外形線
 48
0.8
100
AcDbLine
 10
421.6042106747705
 20
307.8877188873286
 30
0.0
 11
422.1042106747704
 21
307.8877188873286
 31
0.0
  0
LINE
  5
462
330
18
100
AcDbEntity
  8
外形線
 48
0.8
100
AcDbLine
 10
421.6042106747705
 20
298.8877188873285
 30
0.0
 11
422.1042106747705
 21
298.8877188873286
 31
0.0
  0
INSERT
  5
47D
330
18
100
AcDbEntity
  8
外形線
100
AcDbBlockReference
  2
六角ﾈｼ
 10
418.6042106747705
 20
303.3877188873286
 30
0.0
  0
LINE
  5
499
330
18
100
AcDbEntity
  8
中心線
100
AcDbLine
 10
429.8542106747704
 20
304.226985241694
 30
0.0
 11
429.8542106747704
 21
302.3649605592485
 31
0.0
  0
LINE
  5
49B
330
18
100
AcDbEntity
  8
中心線
100
AcDbLine
 10
425.8542106747704
 20
304.226985241694
 30
0.0
 11
425.8542106747704
 21
302.3649605592485
 31
0.0
  0
POINT
  5
4BC
330
18
100
AcDbEntity
  8
DEFPOINTS
  6
ByBlock
 62
     0
100
AcDbPoint
 10
427.8542106747704
 20
263.3703341440419
 30
0.0
  0
LINE
  5
4E1
330
18
100
AcDbEntity
  8
0
  6
ByBlock
 62
     2
100
AcDbLine
 10
427.8542106747704
 20
263.3703341440419
 30
0.0
 11
404.2134923468069
 21
263.3703341440419
 31
0.0
  0
LINE
  5
4E3
330
18
100
AcDbEntity
  8
0
  6
ByBlock
 62
     2
100
AcDbLine
 10
405.463492346807
 20
260.8703341440419
 30
0.0
 11
405.463492346807
 21
253.1753349255361
 31
0.0
  0
INSERT
  5
4E5
330
18
100
AcDbEntity
  8
0
  6
ByBlock
 62
     2
100
AcDbBlockReference
  2
_OPEN
 10
405.463492346807
 20
263.3703341440419
 30
0.0
 41
2.5
 42
2.5
 43
2.5
 50
90.0
  0
INSERT
  5
4E6
330
18
100
AcDbEntity
  8
0
  6
ByBlock
 62
     2
100
AcDbBlockReference
  2
_OPEN
 10
405.463492346807
 20
250.6753349255361
 30
0.0
 41
2.5
 42
2.5
 43
2.5
 50
270.0
  0
MTEXT
  5
4E7
330
18
100
AcDbEntity
  8
0
  6
ByBlock
 62
     6
100
AcDbMText
 10
387.5882742641561
 20
237.3751549593054
 30
0.0
 40
2.5
 41
0.0
 71
     5
 72
     1
  1
\A1;12.7
  7
STYLE3
 73
     1
 44
1.0
  0
POINT
  5
4E8
330
18
100
AcDbEntity
  8
DEFPOINTS
  6
ByBlock
 62
     0
100
AcDbPoint
 10
427.8542106747704
 20
263.3703341440419
 30
0.0
  0
DIMENSION
  5
510
330
18
100
AcDbEntity
  8
外形線
100
AcDbDimension
  2
*D8
 10
391.4671607402551
 20
245.6753349255361
 30
0.0
 11
389.592160740255
 21
250.6753349255362
 31
0.0
 70
    32
  1
φ10
 71
     5
 42
10.0
  3
STYLE3
100
AcDbAlignedDimension
 13
391.0310345360531
 23
255.6753349255362
 33
0.0
 14
390.8856591346524
 24
245.6753349255361
 34
0.0
 50
90.0
100
AcDbRotatedDimension
1001
ACAD
1000
DSTYLE
1002
{
1070
   271
1070
     2
1002
}
  0
LINE
  5
520
330
18
100
AcDbEntity
  8
寸法線
100
AcDbLine
 10
405.463492346807
 20
257.6115672237446
 30
0.0
 11
392.6323802032813
 21
235.3874290735442
 31
0.0
  0
LINE
  5
521
330
18
100
AcDbEntity
  8
寸法線
100
AcDbLine
 10
382.1682508256298
 20
235.3874290735442
 30
0.0
 11
392.6323802032813
 21
235.3874290735442
 31
0.0
  0
LINE
  5
541
330
18
100
AcDbEntity
  8
外形線
100
AcDbLine
 10
425.3542106747702
 20
244.6753349255363
 30
0.0
 11
430.3542106747703
 21
244.6753349255361
 31
0.0
  0
LINE
  5
551
330
18
100
AcDbEntity
  8
外形線
100
AcDbLine
 10
430.3542106747705
 20
245.1753349255361
 30
0.0
 11
431.3542106747703
 21
245.1753349255361
 31
0.0
  0
LINE
  5
553
330
18
100
AcDbEntity
  8
外形線
 48
0.4
100
AcDbLine
 10
430.3542106747704
 20
246.6753349255361
 30
0.0
 11
430.3542106747705
 21
245.1753349255361
 31
0.0
  0
LINE
  5
554
330
18
100
AcDbEntity
  8
外形線
100
AcDbLine
 10
429.3542106747704
 20
244.6753349255361
 30
0.0
 11
430.3542106747705
 21
245.1753349255361
 31
0.0
  0
LINE
  5
555
330
18
100
AcDbEntity
  8
外形線
100
AcDbLine
 10
430.3542106747703
 20
244.6753349255361
 30
0.0
 11
431.3542106747703
 21
245.1753349255361
 31
0.0
  0
LINE
  5
556
330
18
100
AcDbEntity
  8
外形線
 48
0.4
100
AcDbLine
 10
425.3542106747705
 20
246.6753349255361
 30
0.0
 11
425.3542106747704
 21
245.1753349255361
 31
0.0
  0
LINE
  5
557
330
18
100
AcDbEntity
  8
外形線
100
AcDbLine
 10
424.3542106747704
 20
246.6753349255361
 30
0.0
 11
424.3542106747705
 21
245.1753349255361
 31
0.0
  0
LINE
  5
558
330
18
100
AcDbEntity
  8
外形線
100
AcDbLine
 10
425.3542106747704
 20
245.1753349255361
 30
0.0
 11
424.3542106747705
 21
245.1753349255361
 31
0.0
  0
LINE
  5
559
330
18
100
AcDbEntity
  8
外形線
100
AcDbLine
 10
425.3542106747706
 20
244.6753349255361
 30
0.0
 11
424.3542106747705
 21
245.1753349255361
 31
0.0
  0
LINE
  5
55A
330
18
100
AcDbEntity
  8
外形線
100
AcDbLine
 10
426.3542106747705
 20
244.6753349255361
 30
0.0
 11
425.3542106747704
 21
245.1753349255361
 31
0.0
  0
LINE
  5
582
330
18
100
AcDbEntity
  8
外形線
100
AcDbLine
 10
430.3542106747705
 20
244.6753349255361
 30
0.0
 11
430.3542106747705
 21
237.3571531073539
 31
0.0
  0
LINE
  5
583
330
18
100
AcDbEntity
  8
外形線
100
AcDbLine
 10
425.3542106747705
 20
244.6753349255362
 30
0.0
 11
425.3542106747705
 21
237.3571531073542
 31
0.0
  0
LINE
  5
584
330
18
100
AcDbEntity
  8
外形線
100
AcDbLine
 10
430.3542106747705
 20
237.3571531073542
 30
0.0
 11
425.3542106747705
 21
237.3571531073542
 31
0.0
  0
LINE
  5
59E
330
18
100
AcDbEntity
  8
外形線
100
AcDbLine
 10
418.2542106747704
 20
245.4753349255361
 30
0.0
 11
420.7542106747703
 21
245.4753349255361
 31
0.0
  0
LINE
  5
59F
330
18
100
AcDbEntity
  8
外形線
100
AcDbLine
 10
420.7542106747708
 20
248.0753349255361
 30
0.0
 11
418.2542106747705
 21
248.0753349255361
 31
0.0
  0
LINE
  5
5A0
330
18
100
AcDbEntity
  8
外形線
100
AcDbLine
 10
420.7542106747705
 20
253.2753349255361
 30
0.0
 11
418.2542106747703
 21
253.2753349255361
 31
0.0
  0
LINE
  5
5A1
330
18
100
AcDbEntity
  8
外形線
100
AcDbLine
 10
418.2542106747703
 20
255.8753349255361
 30
0.0
 11
420.7542106747703
 21
255.8753349255361
 31
0.0
  0
LINE
  5
5A2
330
18
100
AcDbEntity
  8
外形線
100
AcDbLine
 10
418.2542106747703
 20
255.8753349255361
 30
0.0
 11
418.2542106747704
 21
245.4753349255361
 31
0.0
  0
ARC
  5
5A3
330
18
100
AcDbEntity
  8
外形線
100
AcDbCircle
 10
419.3142106747702
 20
254.575334925536
 30
0.0
 40
1.940000000000166
100
AcDbArc
 50
317.9249779491655
 51
42.07502205084422
  0
ARC
  5
5A4
330
18
100
AcDbEntity
  8
外形線
100
AcDbCircle
 10
414.2442106747677
 20
250.6753349255356
 30
0.0
 40
7.010000000002722
100
AcDbArc
 50
338.2289458906957
 51
21.77105410931329
  0
ARC
  5
5A5
330
18
100
AcDbEntity
  8
外形線
100
AcDbCircle
 10
419.3142106747702
 20
246.7753349255362
 30
0.0
 40
1.940000000000166
100
AcDbArc
 50
317.9249779491558
 51
42.07502205083457
  0
LINE
  5
5A6
330
18
100
AcDbEntity
  8
外形線
100
AcDbLine
 10
421.2542106747704
 20
254.575334925536
 30
0.0
 11
421.2542106747704
 21
246.7753349255362
 31
0.0
  0
LINE
  5
93F
330
18
100
AcDbEntity
  8
外形線
100
AcDbLine
 10
298.5177416578171
 20
351.8833533256034
 30
0.0
 11
411.517741657817
 21
351.8833533256034
 31
0.0
  0
LINE
  5
940
330
18
100
AcDbEntity
  8
外形線
100
AcDbLine
 10
298.5177416578171
 20
352.8833533256034
 30
0.0
 11
411.517741657817
 21
352.8833533256034
 31
0.0
  0
TEXT
  5
941
330
18
100
AcDbEntity
  8
文字
100
AcDbText
 10
298.927850657817
 20
354.5620253256034
 30
0.0
 40
3.5
  1
Model No.CC-1S Short size Cylinder Gauge
  7
STYLE3
100
AcDbText
  0
LINE
  5
942
330
18
100
AcDbEntity
  8
外形線
100
AcDbLine
 10
350.1678794193962
 20
172.5079837164045
 30
0.0
 11
350.1678794193962
 21
192.9029677164045
 31
0.0
  0
TEXT
  5
943
330
18
100
AcDbEntity
  8
0
  6
Continuous
100
AcDbText
 10
351.6253464193962
 20
184.0207517164045
 30
0.0
 40
2.1
  1
Design and specifications are subject to change without notice for future improvement.
  7
STYLE3
100
AcDbText
  0
TEXT
  5
944
330
18
100
AcDbEntity
  8
0
  6
Continuous
100
AcDbText
 10
394.9381234193962
 20
176.0042677164045
 30
0.0
 40
2.399999999999999
  1
mm
  7
STYLE3
100
AcDbText
  0
LINE
  5
945
330
18
100
AcDbEntity
  8
外形線
100
AcDbLine
 10
350.1678794193962
 20
182.1227617164045
 30
0.0
 11
490.9592974193962
 21
182.1227617164045
 31
0.0
  0
TEXT
  5
946
330
18
100
AcDbEntity
  8
0
  6
Continuous
100
AcDbText
 10
353.9572974193962
 20
177.7524067164045
 30
0.0
 40
3.0
  1
三　　角　　法
  7
STYLE3
100
AcDbText
  0
TEXT
  5
947
330
18
100
AcDbEntity
  8
0
  6
Continuous
100
AcDbText
 10
351.3338554193962
 20
174.2561237164045
 30
0.0
 40
2.1
  1
3RD Angle Projection
  7
STYLE3
100
AcDbText
  0
TEXT
  5
948
330
18
100
AcDbEntity
  8
0
  6
Continuous
100
AcDbText
 10
387.0677974193963
 20
174.2561247164045
 30
0.0
 40
2.1
  1
Unit
  7
STYLE3
100
AcDbText
  0
TEXT
  5
949
330
18
100
AcDbEntity
  8
0
  6
Continuous
100
AcDbText
 10
386.8960764193963
 20
177.7583617164045
 30
0.0
 40
3.0
  1
単位
  7
STYLE3
100
AcDbText
  0
LINE
  5
94A
330
18
100
AcDbEntity
  8
外形線
100
AcDbLine
 10
385.4386074193962
 20
182.1227617164045
 30
0.0
 11
385.4386074193962
 21
172.5079837164045
 31
0.0
  0
TEXT
  5
94B
330
18
100
AcDbEntity
  8
0
  6
Continuous
100
AcDbText
 10
454.4140884193963
 20
174.2561247164045
 30
0.0
 40
2.1
  1
OZAKI MFG. CO., LTD.
  7
STYLE3
100
AcDbText
  0
TEXT
  5
94C
330
18
100
AcDbEntity
  8
0
  6
Continuous
100
AcDbText
 10
453.5396094193962
 20
178.0437637164045
 30
0.0
 40
3.0
  1
株式会社　尾崎製作所
  7
STYLE3
100
AcDbText
  0
TEXT
  5
94D
330
18
100
AcDbEntity
  8
0
  6
Continuous
100
AcDbText
 10
433.1350544193962
 20
176.0042667164045
 30
0.0
 40
2.1
  1
2010.06.23
  7
STYLE3
100
AcDbText
  0
TEXT
  5
94E
330
18
100
AcDbEntity
  8
0
  6
Continuous
100
AcDbText
 10
414.2964764193962
 20
176.2956247164045
 30
0.0
 40
2.399999999999999
  1
1/1
  7
STYLE3
100
AcDbText
  0
TEXT
  5
94F
330
18
100
AcDbEntity
  8
0
  6
Continuous
100
AcDbText
 10
404.6771874193962
 20
174.5474817164045
 30
0.0
 40
2.1
  1
Scale
  7
STYLE3
100
AcDbText
  0
TEXT
  5
950
330
18
100
AcDbEntity
  8
0
  6
Continuous
100
AcDbText
 10
404.2139724193962
 20
177.4670037164045
 30
0.0
 40
3.0
  1
尺 度
  7
STYLE3
100
AcDbText
  0
LINE
  5
951
330
18
100
AcDbEntity
  8
外形線
100
AcDbLine
 10
402.9282244193962
 20
182.1227617164045
 30
0.0
 11
402.9282244193962
 21
172.5079837164045
 31
0.0
  0
TEXT
  5
952
330
18
100
AcDbEntity
  8
0
  6
Continuous
100
AcDbText
 10
424.0068864193962
 20
177.5892097164045
 30
0.0
 40
3.0
  1
日 付
  7
STYLE3
100
AcDbText
  0
TEXT
  5
953
330
18
100
AcDbEntity
  8
0
  6
Continuous
100
AcDbText
 10
424.3902474193962
 20
174.2561257164045
 30
0.0
 40
2.1
  1
Date
  7
STYLE3
100
AcDbText
  0
LINE
  5
954
330
18
100
AcDbEntity
  8
外形線
100
AcDbLine
 10
422.4582964193961
 20
182.1227617164045
 30
0.0
 11
422.4582964193961
 21
172.5079837164045
 31
0.0
  0
LINE
  5
955
330
18
100
AcDbEntity
  8
外形線
100
AcDbLine
 10
452.1906464193962
 20
182.1227617164045
 30
0.0
 11
452.1906464193962
 21
172.5079837164045
 31
0.0
  0
TEXT
  5
956
330
18
100
AcDbEntity
  8
0
  6
Continuous
100
AcDbText
 10
351.9168404193962
 20
187.9498997164045
 30
0.0
 40
3.5
  1
仕様及び外観は予告なく変更される場合がございますのでご了承下さい。
  7
STYLE3
100
AcDbText
  0
LINE
  5
957
330
18
100
AcDbEntity
  8
外形線
100
AcDbLine
 10
350.1678794193962
 20
192.9029677164045
 30
0.0
 11
490.9592974193962
 21
192.9029677164045
 31
0.0
  0
ENDSEC
  0
SECTION
  2
OBJECTS
  0
DICTIONARY
  5
C
330
0
100
AcDbDictionary
281
     1
  3
ACAD_COLOR
350
5D9
  3
ACAD_GROUP
350
D
  3
ACAD_LAYOUT
350
5DC
  3
ACAD_MATERIAL
350
5D8
  3
ACAD_MLINESTYLE
350
1B
  3
ACAD_PLOTSETTINGS
350
5DD
  3
ACAD_PLOTSTYLENAME
350
5D6
  3
ACAD_TABLESTYLE
350
5DA
  3
ACDBVARIABLEDICTIONARY
350
192
  0
DICTIONARY
  5
8D6
330
18
100
AcDbDictionary
280
     1
281
     1
  3
ACAD_SORTENTS
360
8D7
  0
DICTIONARY
  5
5D9
102
{ACAD_REACTORS
330
C
102
}
330
C
100
AcDbDictionary
281
     1
  0
DICTIONARY
  5
D
102
{ACAD_REACTORS
330
C
102
}
330
C
100
AcDbDictionary
281
     1
  0
DICTIONARY
  5
5DC
102
{ACAD_REACTORS
330
C
102
}
330
C
100
AcDbDictionary
281
     1
  3
Model
350
5DE
  3
レイアウト1
350
5DF
  0
DICTIONARY
  5
5D8
102
{ACAD_REACTORS
330
C
102
}
330
C
100
AcDbDictionary
281
     1
  0
DICTIONARY
  5
1B
102
{ACAD_REACTORS
330
C
102
}
330
C
100
AcDbDictionary
281
     1
  3
STANDARD
350
1C
  0
DICTIONARY
  5
5DD
102
{ACAD_REACTORS
330
C
102
}
330
C
100
AcDbDictionary
281
     1
  0
ACDBDICTIONARYWDFLT
  5
5D6
102
{ACAD_REACTORS
330
C
102
}
330
C
100
AcDbDictionary
281
     1
  3
Normal
350
5D7
100
AcDbDictionaryWithDefault
340
5D7
  0
DICTIONARY
  5
5DA
102
{ACAD_REACTORS
330
C
102
}
330
C
100
AcDbDictionary
281
     1
  3
Standard
350
5DB
  0
DICTIONARY
  5
192
102
{ACAD_REACTORS
330
C
102
}
330
C
100
AcDbDictionary
281
     1
  3
CTABLESTYLE
350
8F5
  3
SORTENTS
350
193
  0
SORTENTSTABLE
  5
8D7
102
{ACAD_REACTORS
330
8D6
102
}
330
8D6
100
AcDbSortentsTable
330
18
331
5A2
  5
5A3
331
4BC
  5
4E1
331
184
  5
184
331
1D3
  5
1D3
331
135
  5
135
331
21B
  5
21B
331
2E0
  5
2E2
331
13D
  5
13D
331
145
  5
145
331
299
  5
29A
331
2E8
  5
2E9
331
22B
  5
22B
331
2F0
  5
2F1
331
116
  5
116
331
14D
  5
14D
331
553
  5
554
331
3F6
  5
3F7
331
39F
  5
3A0
331
3FE
  5
403
331
583
  5
584
331
406
  5
40A
331
47D
  5
499
331
3A7
  5
3A8
331
11E
  5
11E
331
23B
  5
23B
331
126
  5
126
331
16D
  5
16D
331
282
  5
283
331
175
  5
175
331
1CC
  5
1CC
331
12E
  5
12E
331
243
  5
243
331
2D1
  5
2D2
331
40E
  5
40F
331
5A3
  5
5A4
331
4E5
  5
4E6
331
2D9
  5
2DB
331
253
  5
253
331
136
  5
136
331
185
  5
185
331
13E
  5
13E
331
18D
  5
18D
331
29A
  5
29B
331
2E9
  5
2EA
331
146
  5
146
331
263
  5
264
331
26B
  5
26C
331
22C
  5
22C
331
2F1
  5
2F6
331
117
  5
117
331
14E
  5
14E
331
554
  5
555
331
390
  5
391
331
3EF
  5
3F3
331
3F7
  5
3F8
331
3A0
  5
3A1
331
584
  5
59E
331
273
  5
274
331
11F
  5
11F
331
127
  5
127
331
16E
  5
16E
331
12F
  5
12F
331
176
  5
176
331
283
  5
299
331
2D2
  5
2D4
331
3A8
  5
3A9
331
40F
  5
410
331
5A4
  5
5A5
331
3E0
  5
3ED
331
4E6
  5
4E7
331
186
  5
186
331
1D5
  5
1D5
331
137
  5
137
331
254
  5
255
331
25C
  5
25E
331
13F
  5
13F
331
18E
  5
18E
331
21D
  5
21D
331
2E2
  5
2E3
331
2EA
  5
2EC
331
147
  5
147
331
264
  5
265
331
29B
  5
29C
331
26C
  5
273
331
14F
  5
14F
331
1AE
  5
1AE
331
2A3
  5
2AC
331
341
  5
390
331
391
  5
392
331
555
  5
556
331
399
  5
39A
331
3F8
  5
3F9
331
3A1
  5
3A2
331
118
  5
118
331
120
  5
120
331
235
  5
235
331
274
  5
275
331
1C6
  5
1C6
331
2C3
  5
2CC
331
128
  5
128
331
177
  5
177
331
1CE
  5
1CE
331
17F
  5
17F
331
3A9
  5
3D1
331
3D1
  5
3D2
331
410
  5
449
331
5A5
  5
5A6
331
4E7
  5
4E8
331
130
  5
130
331
2DB
  5
2DC
331
138
  5
138
331
255
  5
256
331
21E
  5
21E
331
2E3
  5
2E4
331
140
  5
140
331
18F
  5
18F
331
29C
  5
29D
331
265
  5
26B
331
556
  5
557
331
392
  5
394
331
3F9
  5
3FB
331
39A
  5
39B
331
3A2
  5
3A3
331
59E
  5
59F
331
150
  5
150
331
119
  5
119
331
275
  5
276
331
2AC
  5
2C3
331
121
  5
121
331
129
  5
129
331
2CC
  5
2CD
331
178
  5
178
331
2D4
  5
2D6
331
24E
  5
24E
331
5A6
  5
756
331
3D2
  5
3E0
331
449
  5
462
331
4E8
  5
4FB
331
131
  5
131
331
2DC
  5
2DE
331
188
  5
188
331
139
  5
139
331
256
  5
257
331
25E
  5
25F
331
141
  5
141
331
190
  5
190
331
21F
  5
21F
331
2E4
  5
2E5
331
2EC
  5
2ED
331
227
  5
227
331
149
  5
149
331
29D
  5
29E
331
112
  5
112
331
557
  5
558
331
39B
  5
39C
331
510
  5
520
331
3A3
  5
3A4
331
59F
  5
5A0
331
11A
  5
11A
331
151
  5
151
331
122
  5
122
331
276
  5
277
331
27E
  5
281
331
171
  5
171
331
1C8
  5
1C8
331
12A
  5
12A
331
2CD
  5
2CE
331
179
  5
179
331
247
  5
247
331
24F
  5
24F
331
40A
  5
40B
331
499
  5
49B
331
520
  5
521
331
4E1
  5
4E3
331
132
  5
132
331
181
  5
181
331
257
  5
25C
331
13A
  5
13A
331
189
  5
189
331
2E5
  5
2E6
331
220
  5
220
331
25F
  5
260
331
10B
  5
10B
331
142
  5
142
331
191
  5
191
331
29E
  5
2A3
331
2ED
  5
2EE
331
113
  5
113
331
14A
  5
14A
331
462
  5
47D
331
3F3
  5
3F4
331
558
  5
559
331
394
  5
395
331
3FB
  5
3FC
331
39C
  5
39D
331
3A4
  5
3A5
331
403
  5
404
331
11B
  5
11B
331
16A
  5
16A
331
277
  5
278
331
123
  5
123
331
12B
  5
12B
331
2CE
  5
2CF
331
248
  5
248
331
17A
  5
17A
331
521
  5
541
331
2D6
  5
2D7
331
40B
  5
40C
331
5A0
  5
5A1
331
541
  5
551
331
182
  5
182
331
1D1
  5
1D1
331
133
  5
133
331
250
  5
250
331
18A
  5
18A
331
2DE
  5
2E0
331
13B
  5
13B
331
260
  5
261
331
143
  5
143
331
221
  5
221
331
2E6
  5
2E7
331
229
  5
229
331
2EE
  5
2EF
331
114
  5
114
331
14B
  5
14B
331
2F6
  5
317
331
551
  5
553
331
395
  5
399
331
3F4
  5
3F5
331
559
  5
55A
331
39D
  5
39F
331
3FC
  5
3FD
331
404
  5
405
331
3A5
  5
3A7
331
11C
  5
11C
331
1B2
  5
1B2
331
124
  5
124
331
278
  5
27E
331
173
  5
173
331
1CA
  5
1CA
331
12C
  5
12C
331
2CF
  5
2D1
331
5A1
  5
5A2
331
40C
  5
40E
331
49B
  5
4BC
331
2D7
  5
2D9
331
4E3
  5
4E5
331
251
  5
251
331
134
  5
134
331
183
  5
183
331
1D2
  5
1D2
331
21A
  5
21A
331
13C
  5
13C
331
18B
  5
18B
331
2E7
  5
2E8
331
144
  5
144
331
261
  5
263
331
2EF
  5
2F0
331
115
  5
115
331
14C
  5
14C
331
4FB
  5
510
331
3ED
  5
3EF
331
3F5
  5
3F6
331
55A
  5
582
331
3FD
  5
3FE
331
582
  5
583
331
405
  5
406
331
1B3
  5
1B3
331
11D
  5
11D
331
317
  5
341
331
125
  5
125
331
16C
  5
16C
331
12D
  5
12D
331
242
  5
242
331
281
  5
282
331
17C
  5
17C
  0
LAYOUT
  5
5DE
102
{ACAD_REACTORS
330
5DC
102
}
330
5DC
100
AcDbPlotSettings
  1

  2
C:\Documents and Settings\佐藤\Application Data\Autodesk\AutoCAD LT 2005\R10\jpn\plotters\PEACOCK EPSON LP-6100.pc3
  4

  6

 40
0.0
 41
0.0
 42
0.0
 43
0.0
 44
0.0
 45
0.0
 46
0.0
 47
0.0
 48
0.0
 49
0.0
140
0.0
141
0.0
142
1.0
143
1.0
 70
  1712
 72
     0
 73
     0
 74
     0
  7
AutoCAD LT 98.ctb
 75
     0
147
1.0
 76
     0
 77
     2
 78
   300
148
0.0
149
0.0
100
AcDbLayout
  1
Model
 70
     1
 71
     0
 10
0.0
 20
0.0
 11
12.0
 21
9.0
 12
0.0
 22
0.0
 32
0.0
 14
0.0
 24
0.0
 34
0.0
 15
0.0
 25
0.0
 35
0.0
146
0.0
 13
0.0
 23
0.0
 33
0.0
 16
1.0
 26
0.0
 36
0.0
 17
0.0
 27
1.0
 37
0.0
 76
     0
330
18
  0
LAYOUT
  5
5DF
102
{ACAD_REACTORS
330
5DC
102
}
330
5DC
100
AcDbPlotSettings
  1

  2
C:\Documents and Settings\佐藤\Application Data\Autodesk\AutoCAD LT 2005\R10\jpn\plotters\PEACOCK EPSON LP-6100.pc3
  4

  6

 40
0.0
 41
0.0
 42
0.0
 43
0.0
 44
0.0
 45
0.0
 46
0.0
 47
0.0
 48
0.0
 49
0.0
140
0.0
141
0.0
142
1.0
143
1.0
 70
   688
 72
     0
 73
     0
 74
     5
  7
AutoCAD LT 98.ctb
 75
    16
147
1.0
 76
     0
 77
     2
 78
   300
148
0.0
149
0.0
100
AcDbLayout
  1
レイアウト1
 70
     1
 71
     1
 10
0.0
 20
0.0
 11
420.0
 21
297.0
 12
0.0
 22
0.0
 32
0.0
 14
1.000000000000000E+20
 24
1.000000000000000E+20
 34
1.000000000000000E+20
 15
-1.000000000000000E+20
 25
-1.000000000000000E+20
 35
-1.000000000000000E+20
146
0.0
 13
0.0
 23
0.0
 33
0.0
 16
1.0
 26
0.0
 36
0.0
 17
0.0
 27
1.0
 37
0.0
 76
     0
330
15
  0
MLINESTYLE
  5
1C
102
{ACAD_REACTORS
330
1B
102
}
330
1B
100
AcDbMlineStyle
  2
STANDARD
 70
     0
  3

 62
   256
 51
90.0
 52
90.0
 71
     2
 49
0.5
 62
   256
  6
BYLAYER
 49
-0.5
 62
   256
  6
BYLAYER
  0
ACDBPLACEHOLDER
  5
5D7
102
{ACAD_REACTORS
330
5D6
102
}
330
5D6
  0
ACAD_PROXY_OBJECT
  5
5DB
102
{ACAD_REACTORS
330
5DA
102
}
330
5DA
100
AcDbProxyObject
 90
      499
 91
      504
 95
  2555929
 70
     0
 93
     1849
310
4214DD185B99185C992420000000000000F83F0000000000003E0FC00000000000004901028000000C1008070000C3001FDFF8000000C1003FBFF000000182007F7FE00000030400FEFFC00000060801FDFF8000000C1003FBFF000000182000000000000000C2020B0000001820100E000186003FBFF000000182007F7FE0
310
0000030400FEFFC00000060801FDFF8000000C1003FBFF000000182007F7FE0000003040000000000000012404160000003040201C00030C007F7FE00000030400FEFFC00000060801FDFF8000000C1003FBFF000000182007F7FE00000030400FEFFC000000608000
340
F
340
F
340
F
 94
        0
  0
DICTIONARYVAR
  5
8F5
102
{ACAD_REACTORS
330
192
102
}
330
192
100
DictionaryVariables
280
     0
  1
STANDARD
  0
DICTIONARYVAR
  5
193
102
{ACAD_REACTORS
330
192
102
}
330
192
100
DictionaryVariables
280
     0
  1
96
  0
ENDSEC
  0
EOF
