  0
SECTION
  2
HEADER
  9
$ACADVER
  1
AC1018
  9
$ACADMAINTVER
 70
     0
  9
$DWGCODEPAGE
  3
ANSI_932
  9
$INSBASE
 10
0.0
 20
0.0
 30
0.0
  9
$EXTMIN
 10
236.4655427980613
 20
171.6339896600951
 30
-0.0000000000112498
  9
$EXTMAX
 10
491.8990686337299
 20
367.055777876885
 30
0.0000000000002956
  9
$LIMMIN
 10
0.0
 20
0.0
  9
$LIMMAX
 10
420.0
 20
297.0
  9
$ORTHOMODE
 70
     1
  9
$REGENMODE
 70
     1
  9
$FILLMODE
 70
     1
  9
$QTEXTMODE
 70
     0
  9
$MIRRTEXT
 70
     1
  9
$LTSCALE
 40
1.0
  9
$ATTMODE
 70
     1
  9
$TEXTSIZE
 40
3.0
  9
$TRACEWID
 40
1.0
  9
$TEXTSTYLE
  7
STYLE3
  9
$CLAYER
  8
寸法線
  9
$CELTYPE
  6
BYLAYER
  9
$CECOLOR
 62
   256
  9
$CELTSCALE
 40
1.0
  9
$DISPSILH
 70
     0
  9
$DIMSCALE
 40
1.0
  9
$DIMASZ
 40
2.5
  9
$DIMEXO
 40
0.0
  9
$DIMDLI
 40
3.75
  9
$DIMRND
 40
0.0
  9
$DIMDLE
 40
0.0
  9
$DIMEXE
 40
1.25
  9
$DIMTP
 40
0.0
  9
$DIMTM
 40
0.0
  9
$DIMTXT
 40
2.5
  9
$DIMCEN
 40
2.5
  9
$DIMTSZ
 40
0.0
  9
$DIMTOL
 70
     0
  9
$DIMLIM
 70
     0
  9
$DIMTIH
 70
     0
  9
$DIMTOH
 70
     0
  9
$DIMSE1
 70
     0
  9
$DIMSE2
 70
     0
  9
$DIMTAD
 70
     1
  9
$DIMZIN
 70
     8
  9
$DIMBLK
  1

  9
$DIMASO
 70
     1
  9
$DIMSHO
 70
     1
  9
$DIMPOST
  1

  9
$DIMAPOST
  1

  9
$DIMALT
 70
     0
  9
$DIMALTD
 70
     4
  9
$DIMALTF
 40
0.0394
  9
$DIMLFAC
 40
1.0
  9
$DIMTOFL
 70
     1
  9
$DIMTVP
 40
0.0
  9
$DIMTIX
 70
     0
  9
$DIMSOXD
 70
     0
  9
$DIMSAH
 70
     1
  9
$DIMBLK1
  1
OPEN
  9
$DIMBLK2
  1
OPEN
  9
$DIMSTYLE
  2
STYLE3
  9
$DIMCLRD
 70
     2
  9
$DIMCLRE
 70
     2
  9
$DIMCLRT
 70
     6
  9
$DIMTFAC
 40
1.0
  9
$DIMGAP
 40
0.625
  9
$DIMJUST
 70
     0
  9
$DIMSD1
 70
     0
  9
$DIMSD2
 70
     0
  9
$DIMTOLJ
 70
     1
  9
$DIMTZIN
 70
     0
  9
$DIMALTZ
 70
     0
  9
$DIMALTTZ
 70
     0
  9
$DIMUPT
 70
     0
  9
$DIMDEC
 70
     2
  9
$DIMTDEC
 70
     4
  9
$DIMALTU
 70
     8
  9
$DIMALTTD
 70
     4
  9
$DIMTXSTY
  7
STYLE3
  9
$DIMAUNIT
 70
     0
  9
$DIMADEC
 70
     0
  9
$DIMALTRND
 40
0.0
  9
$DIMAZIN
 70
     0
  9
$DIMDSEP
 70
    46
  9
$DIMATFIT
 70
     3
  9
$DIMFRAC
 70
     0
  9
$DIMLDRBLK
  1

  9
$DIMLUNIT
 70
     2
  9
$DIMLWD
 70
    -2
  9
$DIMLWE
 70
    -2
  9
$DIMTMOVE
 70
     0
  9
$LUNITS
 70
     2
  9
$LUPREC
 70
     4
  9
$SKETCHINC
 40
1.0
  9
$FILLETRAD
 40
0.0
  9
$AUNITS
 70
     0
  9
$AUPREC
 70
     0
  9
$MENU
  1
.
  9
$ELEVATION
 40
0.0
  9
$PELEVATION
 40
0.0
  9
$THICKNESS
 40
0.0
  9
$LIMCHECK
 70
     0
  9
$CHAMFERA
 40
0.5
  9
$CHAMFERB
 40
0.5
  9
$CHAMFERC
 40
20.0
  9
$CHAMFERD
 40
0.0
  9
$SKPOLY
 70
     0
  9
$TDCREATE
 40
2450753.462540625
  9
$TDUCREATE
 40
2450753.087540625
  9
$TDUPDATE
 40
2455371.638885452
  9
$TDUUPDATE
 40
2455371.263885452
  9
$TDINDWG
 40
0.6313894329
  9
$TDUSRTIMER
 40
0.6313894329
  9
$USRTIMER
 70
     1
  9
$ANGBASE
 50
0.0
  9
$ANGDIR
 70
     0
  9
$PDMODE
 70
     0
  9
$PDSIZE
 40
0.0
  9
$PLINEWID
 40
0.0
  9
$SPLFRAME
 70
     0
  9
$SPLINETYPE
 70
     6
  9
$SPLINESEGS
 70
     8
  9
$HANDSEED
  5
103C
  9
$SURFTAB1
 70
     6
  9
$SURFTAB2
 70
     6
  9
$SURFTYPE
 70
     6
  9
$SURFU
 70
     6
  9
$SURFV
 70
     6
  9
$UCSBASE
  2

  9
$UCSNAME
  2

  9
$UCSORG
 10
0.0
 20
0.0
 30
0.0
  9
$UCSXDIR
 10
1.0
 20
0.0
 30
0.0
  9
$UCSYDIR
 10
0.0
 20
1.0
 30
0.0
  9
$UCSORTHOREF
  2

  9
$UCSORTHOVIEW
 70
     0
  9
$UCSORGTOP
 10
0.0
 20
0.0
 30
0.0
  9
$UCSORGBOTTOM
 10
0.0
 20
0.0
 30
0.0
  9
$UCSORGLEFT
 10
0.0
 20
0.0
 30
0.0
  9
$UCSORGRIGHT
 10
0.0
 20
0.0
 30
0.0
  9
$UCSORGFRONT
 10
0.0
 20
0.0
 30
0.0
  9
$UCSORGBACK
 10
0.0
 20
0.0
 30
0.0
  9
$PUCSBASE
  2

  9
$PUCSNAME
  2

  9
$PUCSORG
 10
0.0
 20
0.0
 30
0.0
  9
$PUCSXDIR
 10
1.0
 20
0.0
 30
0.0
  9
$PUCSYDIR
 10
0.0
 20
1.0
 30
0.0
  9
$PUCSORTHOREF
  2

  9
$PUCSORTHOVIEW
 70
     0
  9
$PUCSORGTOP
 10
0.0
 20
0.0
 30
0.0
  9
$PUCSORGBOTTOM
 10
0.0
 20
0.0
 30
0.0
  9
$PUCSORGLEFT
 10
0.0
 20
0.0
 30
0.0
  9
$PUCSORGRIGHT
 10
0.0
 20
0.0
 30
0.0
  9
$PUCSORGFRONT
 10
0.0
 20
0.0
 30
0.0
  9
$PUCSORGBACK
 10
0.0
 20
0.0
 30
0.0
  9
$USERI1
 70
     0
  9
$USERI2
 70
     0
  9
$USERI3
 70
     0
  9
$USERI4
 70
     0
  9
$USERI5
 70
     0
  9
$USERR1
 40
0.0
  9
$USERR2
 40
0.0
  9
$USERR3
 40
0.0
  9
$USERR4
 40
0.0
  9
$USERR5
 40
0.0
  9
$WORLDVIEW
 70
     1
  9
$SHADEDGE
 70
     3
  9
$SHADEDIF
 70
    70
  9
$TILEMODE
 70
     1
  9
$MAXACTVP
 70
    48
  9
$PINSBASE
 10
0.0
 20
0.0
 30
0.0
  9
$PLIMCHECK
 70
     0
  9
$PEXTMIN
 10
1.000000000000000E+20
 20
1.000000000000000E+20
 30
1.000000000000000E+20
  9
$PEXTMAX
 10
-1.000000000000000E+20
 20
-1.000000000000000E+20
 30
-1.000000000000000E+20
  9
$PLIMMIN
 10
0.0
 20
0.0
  9
$PLIMMAX
 10
420.0
 20
297.0
  9
$UNITMODE
 70
     0
  9
$VISRETAIN
 70
     1
  9
$PLINEGEN
 70
     0
  9
$PSLTSCALE
 70
     1
  9
$TREEDEPTH
 70
  3020
  9
$CMLSTYLE
  2
STANDARD
  9
$CMLJUST
 70
     0
  9
$CMLSCALE
 40
20.0
  9
$PROXYGRAPHICS
 70
     1
  9
$MEASUREMENT
 70
     1
  9
$CELWEIGHT
370
    -1
  9
$ENDCAPS
280
     0
  9
$JOINSTYLE
280
     0
  9
$LWDISPLAY
290
     0
  9
$INSUNITS
 70
     0
  9
$HYPERLINKBASE
  1

  9
$STYLESHEET
  1

  9
$XEDIT
290
     1
  9
$CEPSNTYPE
380
     0
  9
$PSTYLEMODE
290
     1
  9
$FINGERPRINTGUID
  2
{1AC618A4-9635-4AF7-8DC4-075DC25D74F0}
  9
$VERSIONGUID
  2
{BA28657B-6D57-45EF-B041-C9B8013CCF5C}
  9
$EXTNAMES
290
     1
  9
$PSVPSCALE
 40
0.0
  9
$OLESTARTUP
290
     0
  9
$SORTENTS
280
    96
  9
$INDEXCTL
280
     0
  9
$HIDETEXT
280
     0
  9
$XCLIPFRAME
290
     0
  9
$HALOGAP
280
     0
  9
$OBSCOLOR
 70
   257
  9
$OBSLTYPE
280
     0
  9
$INTERSECTIONDISPLAY
280
     0
  9
$INTERSECTIONCOLOR
 70
   257
  9
$DIMASSOC
280
     1
  9
$PROJECTNAME
  1

  0
ENDSEC
  0
SECTION
  2
CLASSES
  0
CLASS
  1
DICTIONARYVAR
  2
AcDbDictionaryVar
  3
ObjectDBX Classes
 90
        0
 91
        2
280
     0
281
     0
  0
CLASS
  1
HATCH
  2
AcDbHatch
  3
ObjectDBX Classes
 90
        0
 91
        1
280
     0
281
     1
  0
CLASS
  1
ACDBDICTIONARYWDFLT
  2
AcDbDictionaryWithDefault
  3
ObjectDBX Classes
 90
        0
 91
        1
280
     0
281
     0
  0
CLASS
  1
TABLESTYLE
  2
AcDbTableStyle
  3
ObjectDBX Classes
 90
     2047
 91
        1
280
     0
281
     0
  0
CLASS
  1
SORTENTSTABLE
  2
AcDbSortentsTable
  3
ObjectDBX Classes
 90
        0
 91
        1
280
     0
281
     0
  0
ENDSEC
  0
SECTION
  2
TABLES
  0
TABLE
  2
VPORT
  5
8
330
0
100
AcDbSymbolTable
 70
     2
  0
VPORT
  5
103B
330
8
100
AcDbSymbolTableRecord
100
AcDbViewportTableRecord
  2
*Active
 70
     0
 10
0.0
 20
0.0
 11
1.0
 21
1.0
 12
364.1823057158956
 22
269.3448837684901
 13
0.0
 23
0.0
 14
10.0
 24
10.0
 15
10.0
 25
10.0
 16
0.0
 26
0.0
 36
1.0
 17
0.0
 27
0.0
 37
0.0
 40
196.9078854655868
 41
1.530456852791878
 42
50.0
 43
0.0
 44
0.0
 50
0.0
 51
0.0
 71
     0
 72
   100
 73
     1
 74
     1
 75
     0
 76
     0
 77
     0
 78
     0
281
     0
 65
     1
110
0.0
120
0.0
130
0.0
111
1.0
121
0.0
131
0.0
112
0.0
122
1.0
132
0.0
 79
     0
146
0.0
  0
ENDTAB
  0
TABLE
  2
LTYPE
  5
5
330
0
100
AcDbSymbolTable
 70
     2
  0
LTYPE
  5
12
330
5
100
AcDbSymbolTableRecord
100
AcDbLinetypeTableRecord
  2
BYBLOCK
 70
     0
  3

 72
    65
 73
     0
 40
0.0
  0
LTYPE
  5
13
330
5
100
AcDbSymbolTableRecord
100
AcDbLinetypeTableRecord
  2
BYLAYER
 70
     0
  3

 72
    65
 73
     0
 40
0.0
  0
LTYPE
  5
14
330
5
100
AcDbSymbolTableRecord
100
AcDbLinetypeTableRecord
  2
CONTINUOUS
 70
     0
  3
Solid line
 72
    65
 73
     0
 40
0.0
  0
LTYPE
  5
22
330
5
100
AcDbSymbolTableRecord
100
AcDbLinetypeTableRecord
  2
CENTER2
 70
     0
  3
Center (.5x) ___ _ ___ _ ___ _ ___ _ ___ _ ___
 72
    65
 73
     4
 40
28.575
 49
19.05
 74
     0
 49
-3.174999999999999
 74
     0
 49
3.174999999999999
 74
     0
 49
-3.174999999999999
 74
     0
  0
ENDTAB
  0
TABLE
  2
LAYER
  5
2
330
0
100
AcDbSymbolTable
 70
    11
  0
LAYER
  5
E
330
2
100
AcDbSymbolTableRecord
100
AcDbLayerTableRecord
  2
0
 70
     0
 62
     7
  6
CONTINUOUS
370
    -3
390
C70
  0
LAYER
  5
25
330
2
100
AcDbSymbolTableRecord
100
AcDbLayerTableRecord
  2
外形線
 70
     0
 62
     7
  6
CONTINUOUS
370
    -3
390
C70
  0
LAYER
  5
26
330
2
100
AcDbSymbolTableRecord
100
AcDbLayerTableRecord
  2
寸法線
 70
     0
 62
     2
  6
CONTINUOUS
370
    -3
390
C70
  0
LAYER
  5
27
330
2
100
AcDbSymbolTableRecord
100
AcDbLayerTableRecord
  2
中心線
 70
     0
 62
     4
  6
CENTER2
370
    -3
390
C70
  0
LAYER
  5
2A
330
2
100
AcDbSymbolTableRecord
100
AcDbLayerTableRecord
  2
ﾊｯﾁﾝｸ
 70
     0
 62
     6
  6
CONTINUOUS
370
    -3
390
C70
  0
LAYER
  5
2B
330
2
100
AcDbSymbolTableRecord
100
AcDbLayerTableRecord
  2
文字
 70
     0
 62
     6
  6
CONTINUOUS
370
    -3
390
C70
  0
LAYER
  5
53
330
2
100
AcDbSymbolTableRecord
100
AcDbLayerTableRecord
  2
DEFPOINTS
 70
     0
 62
     7
  6
CONTINUOUS
290
     0
370
    -3
390
C70
  0
LAYER
  5
A5
330
2
100
AcDbSymbolTableRecord
100
AcDbLayerTableRecord
  2
C
 70
     0
 62
     7
  6
CONTINUOUS
370
    -3
390
C70
  0
ENDTAB
  0
TABLE
  2
STYLE
  5
3
330
0
100
AcDbSymbolTable
 70
     3
  0
STYLE
  5
F
330
3
100
AcDbSymbolTableRecord
100
AcDbTextStyleTableRecord
  2
STANDARD
 70
     0
 40
0.0
 41
1.0
 50
0.0
 71
     0
 42
2.5
  3
txt
  4

  0
STYLE
  5
3F
330
3
100
AcDbSymbolTableRecord
100
AcDbTextStyleTableRecord
  2
STYLE3
 70
     0
 40
0.0
 41
1.0
 50
0.0
 71
     0
 42
3.0
  3
romans.shx
  4
bigfont.shx
  0
ENDTAB
  0
TABLE
  2
VIEW
  5
6
330
0
100
AcDbSymbolTable
 70
     0
  0
ENDTAB
  0
TABLE
  2
UCS
  5
7
330
0
100
AcDbSymbolTable
 70
     0
  0
ENDTAB
  0
TABLE
  2
APPID
  5
9
330
0
100
AcDbSymbolTable
 70
     2
  0
APPID
  5
10
330
9
100
AcDbSymbolTableRecord
100
AcDbRegAppTableRecord
  2
ACAD
 70
     0
  0
APPID
  5
C83
330
9
100
AcDbSymbolTableRecord
100
AcDbRegAppTableRecord
  2
ACAD_PSEXT
 70
     0
  0
ENDTAB
  0
TABLE
  2
DIMSTYLE
  5
A
330
0
100
AcDbSymbolTable
 70
     2
100
AcDbDimStyleTable
 71
     1
340
8F
  0
DIMSTYLE
105
1D
330
A
100
AcDbSymbolTableRecord
100
AcDbDimStyleTableRecord
  2
STANDARD
 70
     0
 41
2.5
 42
0.625
 43
3.75
 44
1.25
 73
     0
 74
     0
 77
     1
 78
     8
140
2.5
141
2.5
143
0.0394
147
0.625
171
     4
172
     1
273
     8
274
     4
277
     6
340
F
  0
DIMSTYLE
105
8F
102
{ACAD_REACTORS
330
5BE
330
61D
330
637
330
341
102
}
330
A
100
AcDbSymbolTableRecord
100
AcDbDimStyleTableRecord
  2
STYLE3
 70
     0
 41
2.5
 42
0.0
 43
3.75
 44
1.25
 73
     0
 74
     0
 77
     1
 78
     8
140
2.5
141
2.5
143
0.0394
147
0.625
171
     4
172
     1
173
     1
176
     2
177
     2
178
     6
271
     1
273
     8
274
     4
340
3F
341
45
343
45
344
45
  0
ENDTAB
  0
TABLE
  2
BLOCK_RECORD
  5
1
330
0
100
AcDbSymbolTable
 70
    12
  0
BLOCK_RECORD
  5
18
102
{ACAD_XDICTIONARY
360
F59
102
}
330
1
100
AcDbSymbolTableRecord
100
AcDbBlockTableRecord
  2
*MODEL_SPACE
340
C77
  0
BLOCK_RECORD
  5
15
330
1
100
AcDbSymbolTableRecord
100
AcDbBlockTableRecord
  2
*PAPER_SPACE
340
C78
  0
BLOCK_RECORD
  5
45
330
1
100
AcDbSymbolTableRecord
100
AcDbBlockTableRecord
  2
_OPEN
340
0
102
{BLKREFS
331
39C
331
39D
331
57E
331
57F
331
5A1
331
5A2
331
5DA
331
5DB
331
5F0
331
5F1
331
F61
331
F62
331
F70
331
F71
331
F7E
331
F7F
331
101A
331
101B
331
1023
331
1024
331
102C
331
102D
331
1035
331
1036
102
}
  0
BLOCK_RECORD
  5
335
330
1
100
AcDbSymbolTableRecord
100
AcDbBlockTableRecord
  2
*D1
340
0
  0
BLOCK_RECORD
  5
443
330
1
100
AcDbSymbolTableRecord
100
AcDbBlockTableRecord
  2
六角ﾈｼ3
340
0
102
{BLKREFS
331
44F
102
}
  0
BLOCK_RECORD
  5
51C
330
1
100
AcDbSymbolTableRecord
100
AcDbBlockTableRecord
  2
六角ﾈｼ
340
0
102
{BLKREFS
331
523
102
}
  0
BLOCK_RECORD
  5
5B2
330
1
100
AcDbSymbolTableRecord
100
AcDbBlockTableRecord
  2
*D4
340
0
  0
BLOCK_RECORD
  5
611
330
1
100
AcDbSymbolTableRecord
100
AcDbBlockTableRecord
  2
*D5
340
0
  0
BLOCK_RECORD
  5
62B
330
1
100
AcDbSymbolTableRecord
100
AcDbBlockTableRecord
  2
*D6
340
0
  0
ENDTAB
  0
ENDSEC
  0
SECTION
  2
BLOCKS
  0
BLOCK
  5
19
330
18
100
AcDbEntity
  8
0
100
AcDbBlockBegin
  2
*MODEL_SPACE
 70
     0
 10
0.0
 20
0.0
 30
0.0
  3
*MODEL_SPACE
  1

  0
ENDBLK
  5
1A
330
18
100
AcDbEntity
  8
0
100
AcDbBlockEnd
  0
BLOCK
  5
16
330
15
100
AcDbEntity
 67
     1
  8
0
100
AcDbBlockBegin
  2
*PAPER_SPACE
 70
     0
 10
0.0
 20
0.0
 30
0.0
  3
*PAPER_SPACE
  1

  0
ENDBLK
  5
17
330
15
100
AcDbEntity
 67
     1
  8
0
100
AcDbBlockEnd
  0
BLOCK
  5
46
330
45
100
AcDbEntity
  8
0
100
AcDbBlockBegin
  2
_OPEN
 70
     0
 10
0.0
 20
0.0
 30
0.0
  3
_OPEN
  1

  0
LINE
  5
47
330
45
100
AcDbEntity
  8
0
  6
ByBlock
 62
     0
100
AcDbLine
 10
-1.0
 20
0.1666666666666666
 30
0.0
 11
0.0
 21
0.0
 31
0.0
  0
LINE
  5
48
330
45
100
AcDbEntity
  8
0
  6
ByBlock
 62
     0
100
AcDbLine
 10
0.0
 20
0.0
 30
0.0
 11
-1.0
 21
-0.1666666666666666
 31
0.0
  0
LINE
  5
49
330
45
100
AcDbEntity
  8
0
  6
ByBlock
 62
     0
100
AcDbLine
 10
0.0
 20
0.0
 30
0.0
 11
-1.0
 21
0.0
 31
0.0
  0
ENDBLK
  5
4A
330
45
100
AcDbEntity
  8
0
100
AcDbBlockEnd
  0
BLOCK
  5
5A7
330
335
100
AcDbEntity
  8
0
100
AcDbBlockBegin
  2
*D1
 70
     1
 10
0.0
 20
0.0
 30
0.0
  3
*D1
  1

  0
LINE
  5
1017
330
335
100
AcDbEntity
  8
外形線
 62
     2
370
    -2
100
AcDbLine
 10
306.2340963421428
 20
250.1260106884877
 30
0.0
 11
306.2340963421428
 21
278.8498537885084
 31
0.0
  0
LINE
  5
1018
330
335
100
AcDbEntity
  8
外形線
 62
     2
370
    -2
100
AcDbLine
 10
376.2340963421428
 20
251.2328119924835
 30
0.0
 11
376.2340963421428
 21
278.8498537885084
 31
0.0
  0
LINE
  5
1019
330
335
100
AcDbEntity
  8
外形線
 62
     2
370
    -2
100
AcDbLine
 10
308.7340963421429
 20
277.5998537885084
 30
0.0
 11
373.7340963421428
 21
277.5998537885084
 31
0.0
  0
INSERT
  5
101A
330
335
100
AcDbEntity
  8
外形線
 62
     2
370
    -2
100
AcDbBlockReference
  2
_OPEN
 10
306.2340963421428
 20
277.5998537885084
 30
0.0
 41
2.5
 42
2.5
 43
2.5
 50
180.0
  0
INSERT
  5
101B
330
335
100
AcDbEntity
  8
外形線
 62
     2
370
    -2
100
AcDbBlockReference
  2
_OPEN
 10
376.2340963421428
 20
277.5998537885084
 30
0.0
 41
2.5
 42
2.5
 43
2.5
  0
MTEXT
  5
101C
330
335
100
AcDbEntity
  8
外形線
 62
     6
100
AcDbMText
 10
341.2340963421428
 20
279.4748537885084
 30
0.0
 40
2.5
 41
0.0
 71
     5
 72
     1
  1
\A1;70
  7
STYLE3
 73
     1
 44
1.0
  0
POINT
  5
101D
330
335
100
AcDbEntity
  8
DEFPOINTS
 62
     0
100
AcDbPoint
 10
306.2340963421428
 20
250.1260106884877
 30
0.0
  0
POINT
  5
101E
330
335
100
AcDbEntity
  8
DEFPOINTS
 62
     0
100
AcDbPoint
 10
376.2340963421428
 20
251.2328119924835
 30
0.0
  0
POINT
  5
101F
330
335
100
AcDbEntity
  8
DEFPOINTS
 62
     0
100
AcDbPoint
 10
376.2340963421428
 20
277.5998537885084
 30
0.0
  0
ENDBLK
  5
5B1
330
335
100
AcDbEntity
  8
0
100
AcDbBlockEnd
  0
BLOCK
  5
44D
330
443
100
AcDbEntity
  8
0
100
AcDbBlockBegin
  2
六角ﾈｼ3
 70
     0
 10
0.0
 20
0.0
 30
0.0
  3
六角ﾈｼ3
  1

  0
LINE
  5
444
330
443
100
AcDbEntity
  8
外形線
100
AcDbLine
 10
0.0000000000000568
 20
-5.200000000000017
 30
0.0
 11
2.499999999999886
 21
-5.199999999999988
 31
0.0
  0
LINE
  5
445
330
443
100
AcDbEntity
  8
外形線
100
AcDbLine
 10
2.500000000000397
 20
-2.600000000000022
 30
0.0
 11
0.0000000000001137
 21
-2.599999999999965
 31
0.0
  0
LINE
  5
446
330
443
100
AcDbEntity
  8
外形線
100
AcDbLine
 10
2.500000000000056
 20
2.600000000000022
 30
0.0
 11
-0.0000000000000568
 21
2.600000000000022
 31
0.0
  0
LINE
  5
447
330
443
100
AcDbEntity
  8
外形線
100
AcDbLine
 10
-0.0000000000000568
 20
5.199999999999988
 30
0.0
 11
2.499999999999886
 21
5.199999999999988
 31
0.0
  0
LINE
  5
448
330
443
100
AcDbEntity
  8
外形線
100
AcDbLine
 10
-0.0000000000000568
 20
5.199999999999988
 30
0.0
 11
0.0000000000000568
 21
-5.200000000000017
 31
0.0
  0
ARC
  5
449
330
443
100
AcDbEntity
  8
外形線
100
AcDbCircle
 10
1.059999999999774
 20
3.899999999999863
 30
0.0
 40
1.940000000000166
100
AcDbArc
 50
317.9249779491655
 51
42.07502205084422
  0
ARC
  5
44A
330
443
100
AcDbEntity
  8
外形線
100
AcDbCircle
 10
-4.010000000002719
 20
-0.0000000000005116
 30
0.0
 40
7.010000000002722
100
AcDbArc
 50
338.2289458906957
 51
21.77105410931329
  0
ARC
  5
44B
330
443
100
AcDbEntity
  8
外形線
100
AcDbCircle
 10
1.059999999999774
 20
-3.899999999999863
 30
0.0
 40
1.940000000000166
100
AcDbArc
 50
317.9249779491558
 51
42.07502205083457
  0
LINE
  5
44C
330
443
100
AcDbEntity
  8
外形線
100
AcDbLine
 10
2.999999999999943
 20
3.899999999999863
 30
0.0
 11
2.999999999999943
 21
-3.899999999999863
 31
0.0
  0
ENDBLK
  5
44E
330
443
100
AcDbEntity
  8
0
100
AcDbBlockEnd
  0
BLOCK
  5
521
330
51C
100
AcDbEntity
  8
0
100
AcDbBlockBegin
  2
六角ﾈｼ
 70
     0
 10
0.0
 20
0.0
 30
0.0
  3
六角ﾈｼ
  1

  0
LINE
  5
51D
330
51C
100
AcDbEntity
  8
外形線
 48
0.8
100
AcDbLine
 10
-0.0000000000000568
 20
4.499999999999943
 30
0.0
 11
2.737599573181626
 21
4.499999999999943
 31
0.0
  0
ARC
  5
51E
330
51C
100
AcDbEntity
  8
外形線
100
AcDbCircle
 10
-4.010000000002662
 20
2.599999999999511
 30
0.0
 40
7.010000000002722
100
AcDbArc
 50
338.2289458906957
 51
15.72624379279067
  0
ARC
  5
51F
330
51C
100
AcDbEntity
  8
外形線
100
AcDbCircle
 10
-4.010000000002662
 20
-2.599999999999511
 30
0.0
 40
7.010000000002722
100
AcDbArc
 50
344.2737562072088
 51
21.77105410930435
  0
LINE
  5
520
330
51C
100
AcDbEntity
  8
外形線
 48
0.8
100
AcDbLine
 10
0.0000000000001705
 20
-4.5
 30
0.0
 11
2.737599573181569
 21
-4.5
 31
0.0
  0
ENDBLK
  5
522
330
51C
100
AcDbEntity
  8
0
100
AcDbBlockEnd
  0
BLOCK
  5
6D5
330
5B2
100
AcDbEntity
  8
0
100
AcDbBlockBegin
  2
*D4
 70
     1
 10
0.0
 20
0.0
 30
0.0
  3
*D4
  1

  0
LINE
  5
1029
330
5B2
100
AcDbEntity
  8
寸法線
 62
     2
370
    -2
100
AcDbLine
 10
426.2340963421428
 20
272.3260106884876
 30
0.0
 11
450.7891376767487
 21
272.3260106884876
 31
0.0
  0
LINE
  5
102A
330
5B2
100
AcDbEntity
  8
寸法線
 62
     2
370
    -2
100
AcDbLine
 10
426.2340963421427
 20
227.1260106884876
 30
0.0
 11
450.7891376767487
 21
227.1260106884876
 31
0.0
  0
LINE
  5
102B
330
5B2
100
AcDbEntity
  8
寸法線
 62
     2
370
    -2
100
AcDbLine
 10
449.5391376767487
 20
269.8260106884876
 30
0.0
 11
449.5391376767487
 21
229.6260106884876
 31
0.0
  0
INSERT
  5
102C
330
5B2
100
AcDbEntity
  8
寸法線
 62
     2
370
    -2
100
AcDbBlockReference
  2
_OPEN
 10
449.5391376767487
 20
272.3260106884876
 30
0.0
 41
2.5
 42
2.5
 43
2.5
 50
90.0
  0
INSERT
  5
102D
330
5B2
100
AcDbEntity
  8
寸法線
 62
     2
370
    -2
100
AcDbBlockReference
  2
_OPEN
 10
449.5391376767487
 20
227.1260106884876
 30
0.0
 41
2.5
 42
2.5
 43
2.5
 50
270.0
  0
MTEXT
  5
102E
330
5B2
100
AcDbEntity
  8
寸法線
 62
     6
100
AcDbMText
 10
447.6641376767486
 20
249.7260106884877
 30
0.0
 40
2.5
 41
0.0
 71
     5
 72
     1
  1
\A1;35～60
  7
STYLE3
 11
0.0000000000000001
 21
1.0
 31
0.0
 73
     1
 44
1.0
  0
POINT
  5
102F
330
5B2
100
AcDbEntity
  8
DEFPOINTS
 62
     0
100
AcDbPoint
 10
426.2340963421428
 20
272.3260106884876
 30
0.0
  0
POINT
  5
1030
330
5B2
100
AcDbEntity
  8
DEFPOINTS
 62
     0
100
AcDbPoint
 10
426.2340963421427
 20
227.1260106884876
 30
0.0
  0
POINT
  5
1031
330
5B2
100
AcDbEntity
  8
DEFPOINTS
 62
     0
100
AcDbPoint
 10
449.5391376767487
 20
227.1260106884876
 30
0.0
  0
ENDBLK
  5
6DF
330
5B2
100
AcDbEntity
  8
0
100
AcDbBlockEnd
  0
BLOCK
  5
612
330
611
100
AcDbEntity
  8
0
100
AcDbBlockBegin
  2
*D5
 70
     1
 10
0.0
 20
0.0
 30
0.0
  3
*D5
  1

  0
LINE
  5
1032
330
611
100
AcDbEntity
  8
外形線
 62
     2
370
    -2
100
AcDbLine
 10
434.7340963421427
 20
333.2909843592581
 30
0.0
 11
448.463654032058
 21
333.2909843592581
 31
0.0
  0
LINE
  5
1033
330
611
100
AcDbEntity
  8
外形線
 62
     2
370
    -2
100
AcDbLine
 10
434.7340963421428
 20
311.2909843592581
 30
0.0
 11
448.463654032058
 21
311.2909843592581
 31
0.0
  0
LINE
  5
1034
330
611
100
AcDbEntity
  8
外形線
 62
     2
370
    -2
100
AcDbLine
 10
447.213654032058
 20
330.7909843592581
 30
0.0
 11
447.213654032058
 21
313.7909843592581
 31
0.0
  0
INSERT
  5
1035
330
611
100
AcDbEntity
  8
外形線
 62
     2
370
    -2
100
AcDbBlockReference
  2
_OPEN
 10
447.213654032058
 20
333.2909843592581
 30
0.0
 41
2.5
 42
2.5
 43
2.5
 50
90.0
  0
INSERT
  5
1036
330
611
100
AcDbEntity
  8
外形線
 62
     2
370
    -2
100
AcDbBlockReference
  2
_OPEN
 10
447.213654032058
 20
311.2909843592581
 30
0.0
 41
2.5
 42
2.5
 43
2.5
 50
270.0
  0
MTEXT
  5
1037
330
611
100
AcDbEntity
  8
外形線
 62
     6
100
AcDbMText
 10
445.3386540320579
 20
322.2909843592582
 30
0.0
 40
2.5
 41
0.0
 71
     5
 72
     1
  1
\A1;22
  7
STYLE3
 11
0.0000000000000001
 21
1.0
 31
0.0
 73
     1
 44
1.0
  0
POINT
  5
1038
330
611
100
AcDbEntity
  8
DEFPOINTS
 62
     0
100
AcDbPoint
 10
434.7340963421427
 20
333.2909843592581
 30
0.0
  0
POINT
  5
1039
330
611
100
AcDbEntity
  8
DEFPOINTS
 62
     0
100
AcDbPoint
 10
434.7340963421428
 20
311.2909843592581
 30
0.0
  0
POINT
  5
103A
330
611
100
AcDbEntity
  8
DEFPOINTS
 62
     0
100
AcDbPoint
 10
447.213654032058
 20
311.2909843592581
 30
0.0
  0
ENDBLK
  5
61C
330
611
100
AcDbEntity
  8
0
100
AcDbBlockEnd
  0
BLOCK
  5
62C
330
62B
100
AcDbEntity
  8
0
100
AcDbBlockBegin
  2
*D6
 70
     1
 10
0.0
 20
0.0
 30
0.0
  3
*D6
  1

  0
LINE
  5
1020
330
62B
100
AcDbEntity
  8
外形線
 62
     2
370
    -2
100
AcDbLine
 10
417.7340963421428
 20
311.2909843592581
 30
0.0
 11
417.7340963421428
 21
295.7851040251918
 31
0.0
  0
LINE
  5
1021
330
62B
100
AcDbEntity
  8
外形線
 62
     2
370
    -2
100
AcDbLine
 10
434.7340963421428
 20
311.2909843592581
 30
0.0
 11
434.7340963421428
 21
295.7851040251918
 31
0.0
  0
LINE
  5
1022
330
62B
100
AcDbEntity
  8
外形線
 62
     2
370
    -2
100
AcDbLine
 10
420.2340963421429
 20
297.0351040251919
 30
0.0
 11
432.2340963421428
 21
297.0351040251919
 31
0.0
  0
INSERT
  5
1023
330
62B
100
AcDbEntity
  8
外形線
 62
     2
370
    -2
100
AcDbBlockReference
  2
_OPEN
 10
417.7340963421428
 20
297.0351040251919
 30
0.0
 41
2.5
 42
2.5
 43
2.5
 50
180.0
  0
INSERT
  5
1024
330
62B
100
AcDbEntity
  8
外形線
 62
     2
370
    -2
100
AcDbBlockReference
  2
_OPEN
 10
434.7340963421428
 20
297.0351040251919
 30
0.0
 41
2.5
 42
2.5
 43
2.5
  0
MTEXT
  5
1025
330
62B
100
AcDbEntity
  8
外形線
 62
     6
100
AcDbMText
 10
426.2340963421427
 20
298.9101040251918
 30
0.0
 40
2.5
 41
0.0
 71
     5
 72
     1
  1
\A1;17
  7
STYLE3
 73
     1
 44
1.0
  0
POINT
  5
1026
330
62B
100
AcDbEntity
  8
DEFPOINTS
 62
     0
100
AcDbPoint
 10
417.7340963421428
 20
311.2909843592581
 30
0.0
  0
POINT
  5
1027
330
62B
100
AcDbEntity
  8
DEFPOINTS
 62
     0
100
AcDbPoint
 10
434.7340963421428
 20
311.2909843592581
 30
0.0
  0
POINT
  5
1028
330
62B
100
AcDbEntity
  8
DEFPOINTS
 62
     0
100
AcDbPoint
 10
434.7340963421428
 20
297.0351040251919
 30
0.0
  0
ENDBLK
  5
636
330
62B
100
AcDbEntity
  8
0
100
AcDbBlockEnd
  0
ENDSEC
  0
SECTION
  2
ENTITIES
  0
LWPOLYLINE
  5
10B
330
18
100
AcDbEntity
  8
C
100
AcDbPolyline
 90
        5
 70
     0
 43
0.4
 10
236.6915604445414
 20
366.8501752555372
 10
491.6915604445414
 20
366.8501752555372
 10
491.6915604445414
 20
171.8501752555372
 10
236.6915604445414
 20
171.8501752555372
 10
236.6915604445414
 20
366.8501752555372
  0
LINE
  5
16A
330
18
100
AcDbEntity
  8
中心線
 48
0.5
100
AcDbLine
 10
280.8943947226566
 20
244.1260106884877
 30
0.0
 11
434.7663346296884
 21
244.1260106884876
 31
0.0
  0
LINE
  5
16C
102
{ACAD_REACTORS
330
317
102
}
330
18
100
AcDbEntity
  8
外形線
100
AcDbLine
 10
346.2340963421429
 20
254.0853245121411
 30
0.0
 11
346.2340963421429
 21
248.1260106884877
 31
0.0
  0
LINE
  5
16D
102
{ACAD_REACTORS
330
317
102
}
330
18
100
AcDbEntity
  8
外形線
100
AcDbLine
 10
366.2340963421428
 20
253.1072346027058
 30
0.0
 11
366.234096342143
 21
246.1260106884877
 31
0.0
  0
LINE
  5
16E
330
18
100
AcDbEntity
  8
外形線
100
AcDbLine
 10
376.2340963421428
 20
251.2328119924835
 30
0.0
 11
376.2340963421428
 21
237.0192093844918
 31
0.0
  0
LINE
  5
171
330
18
100
AcDbEntity
  8
外形線
100
AcDbLine
 10
306.2340963421428
 20
251.2328119924835
 30
0.0
 11
306.2340963421428
 21
250.1260106884877
 31
0.0
  0
ARC
  5
173
102
{ACAD_REACTORS
330
317
102
}
330
18
100
AcDbEntity
  8
外形線
100
AcDbCircle
 10
341.2340963421428
 20
-53.12398931151242
 30
0.0
 40
307.25
100
AcDbArc
 50
83.62585904071393
 51
96.37414095928605
  0
ARC
  5
175
102
{ACAD_REACTORS
330
317
102
}
330
18
100
AcDbEntity
  8
外形線
100
AcDbCircle
 10
341.2340963421428
 20
541.3760106884876
 30
0.0
 40
307.25
100
AcDbArc
 50
263.6258590407139
 51
276.3741409592861
  0
LINE
  5
176
330
18
100
AcDbEntity
  8
外形線
100
AcDbLine
 10
356.2340963421428
 20
247.6260106884877
 30
0.0
 11
356.2340963421428
 21
240.6260106884877
 31
0.0
  0
LINE
  5
177
330
18
100
AcDbEntity
  8
外形線
100
AcDbLine
 10
326.2340963421428
 20
247.6260106884877
 30
0.0
 11
326.2340963421428
 21
240.6260106884877
 31
0.0
  0
LINE
  5
178
330
18
100
AcDbEntity
  8
外形線
100
AcDbLine
 10
326.2340963421428
 20
247.6260106884877
 30
0.0
 11
356.2340963421428
 21
247.6260106884877
 31
0.0
  0
LINE
  5
179
330
18
100
AcDbEntity
  8
外形線
100
AcDbLine
 10
326.2340963421428
 20
240.6260106884877
 30
0.0
 11
356.2340963421428
 21
240.6260106884877
 31
0.0
  0
LINE
  5
17A
102
{ACAD_REACTORS
330
317
102
}
330
18
100
AcDbEntity
  8
外形線
100
AcDbLine
 10
346.2340963421429
 20
248.1260106884877
 30
0.0
 11
356.7340963421429
 21
248.1260106884877
 31
0.0
  0
LINE
  5
17C
102
{ACAD_REACTORS
330
317
102
}
330
18
100
AcDbEntity
  8
外形線
100
AcDbLine
 10
356.7340963421429
 20
246.1260106884877
 30
0.0
 11
366.234096342143
 21
246.1260106884877
 31
0.0
  0
LINE
  5
17F
102
{ACAD_REACTORS
330
317
102
}
330
18
100
AcDbEntity
  8
外形線
100
AcDbLine
 10
356.7340963421429
 20
248.1260106884877
 30
0.0
 11
356.7340963421429
 21
246.1260106884877
 31
0.0
  0
LINE
  5
181
102
{ACAD_REACTORS
330
317
102
}
330
18
100
AcDbEntity
  8
外形線
100
AcDbLine
 10
356.7340963421429
 20
242.1260106884877
 30
0.0
 11
366.234096342143
 21
242.1260106884877
 31
0.0
  0
LINE
  5
182
102
{ACAD_REACTORS
330
317
102
}
330
18
100
AcDbEntity
  8
外形線
100
AcDbLine
 10
366.2340963421428
 20
235.1447867742695
 30
0.0
 11
366.234096342143
 21
242.1260106884877
 31
0.0
  0
LINE
  5
183
102
{ACAD_REACTORS
330
317
102
}
330
18
100
AcDbEntity
  8
外形線
100
AcDbLine
 10
356.7340963421429
 20
240.1260106884877
 30
0.0
 11
356.7340963421429
 21
242.1260106884877
 31
0.0
  0
LINE
  5
184
102
{ACAD_REACTORS
330
317
102
}
330
18
100
AcDbEntity
  8
外形線
100
AcDbLine
 10
346.2340963421429
 20
240.1260106884877
 30
0.0
 11
356.7340963421429
 21
240.1260106884877
 31
0.0
  0
LINE
  5
185
102
{ACAD_REACTORS
330
317
102
}
330
18
100
AcDbEntity
  8
外形線
100
AcDbLine
 10
346.2340963421429
 20
234.1666968648342
 30
0.0
 11
346.2340963421429
 21
240.1260106884877
 31
0.0
  0
LINE
  5
186
102
{ACAD_REACTORS
330
317
102
}
330
18
100
AcDbEntity
  8
外形線
100
AcDbLine
 10
316.2340963421428
 20
235.1447867742695
 30
0.0
 11
316.2340963421427
 21
242.1260106884877
 31
0.0
  0
LINE
  5
188
102
{ACAD_REACTORS
330
317
102
}
330
18
100
AcDbEntity
  8
外形線
100
AcDbLine
 10
336.2340963421428
 20
234.1666968648342
 30
0.0
 11
336.2340963421428
 21
240.1260106884877
 31
0.0
  0
LINE
  5
189
102
{ACAD_REACTORS
330
317
102
}
330
18
100
AcDbEntity
  8
外形線
100
AcDbLine
 10
336.2340963421428
 20
240.1260106884877
 30
0.0
 11
325.7340963421428
 21
240.1260106884877
 31
0.0
  0
LINE
  5
18A
102
{ACAD_REACTORS
330
317
102
}
330
18
100
AcDbEntity
  8
外形線
100
AcDbLine
 10
325.7340963421428
 20
240.1260106884877
 30
0.0
 11
325.7340963421428
 21
242.1260106884877
 31
0.0
  0
LINE
  5
18B
102
{ACAD_REACTORS
330
317
102
}
330
18
100
AcDbEntity
  8
外形線
100
AcDbLine
 10
325.7340963421428
 20
242.1260106884877
 30
0.0
 11
316.2340963421427
 21
242.1260106884877
 31
0.0
  0
LINE
  5
18D
102
{ACAD_REACTORS
330
317
102
}
330
18
100
AcDbEntity
  8
外形線
100
AcDbLine
 10
336.2340963421428
 20
254.0853245121411
 30
0.0
 11
336.2340963421428
 21
248.1260106884877
 31
0.0
  0
LINE
  5
18E
102
{ACAD_REACTORS
330
317
102
}
330
18
100
AcDbEntity
  8
外形線
100
AcDbLine
 10
325.7340963421428
 20
246.1260106884877
 30
0.0
 11
316.2340963421427
 21
246.1260106884877
 31
0.0
  0
LINE
  5
18F
102
{ACAD_REACTORS
330
317
102
}
330
18
100
AcDbEntity
  8
外形線
100
AcDbLine
 10
316.2340963421428
 20
253.1072346027058
 30
0.0
 11
316.2340963421427
 21
246.1260106884877
 31
0.0
  0
LINE
  5
190
102
{ACAD_REACTORS
330
317
102
}
330
18
100
AcDbEntity
  8
外形線
100
AcDbLine
 10
325.7340963421428
 20
248.1260106884877
 30
0.0
 11
325.7340963421428
 21
246.1260106884877
 31
0.0
  0
LINE
  5
191
102
{ACAD_REACTORS
330
317
102
}
330
18
100
AcDbEntity
  8
外形線
100
AcDbLine
 10
336.2340963421428
 20
248.1260106884877
 30
0.0
 11
325.7340963421428
 21
248.1260106884877
 31
0.0
  0
TEXT
  5
1AE
330
18
100
AcDbEntity
  8
文字
100
AcDbText
 10
334.6634900542547
 20
242.898952373162
 30
0.0
 40
2.5
  1
35-60mm
  7
STYLE3
100
AcDbText
  0
LINE
  5
1B2
330
18
100
AcDbEntity
  8
外形線
100
AcDbLine
 10
401.2340963421427
 20
249.126010688488
 30
0.0
 11
376.2340963421429
 21
249.1260106884878
 31
0.0
  0
LINE
  5
1B3
330
18
100
AcDbEntity
  8
外形線
100
AcDbLine
 10
401.2340963421428
 20
239.1260106884879
 30
0.0
 11
376.2340963421429
 21
239.1260106884878
 31
0.0
  0
ARC
  5
24E
330
18
100
AcDbEntity
  8
外形線
100
AcDbCircle
 10
307.2340963421428
 20
251.2328119924835
 30
0.0
 40
1.0
100
AcDbArc
 50
96.37414095927951
 51
180.0
  0
ARC
  5
24F
330
18
100
AcDbEntity
  8
外形線
100
AcDbCircle
 10
307.2340963421428
 20
237.0192093844918
 30
0.0
 40
1.0
100
AcDbArc
 50
180.0
 51
263.6258590407112
  0
ARC
  5
250
330
18
100
AcDbEntity
  8
外形線
100
AcDbCircle
 10
375.2340963421428
 20
251.2328119924835
 30
0.0
 40
1.0
100
AcDbArc
 50
0.0
 51
83.62585904071403
  0
ARC
  5
251
330
18
100
AcDbEntity
  8
外形線
100
AcDbCircle
 10
375.2340963421428
 20
237.0192093844918
 30
0.0
 40
1.0
100
AcDbArc
 50
276.3741409592856
 51
0.0
  0
LINE
  5
253
330
18
100
AcDbEntity
  8
外形線
100
AcDbLine
 10
283.2340963421428
 20
248.8260106884876
 30
0.0
 11
283.2340963421428
 21
241.9354857077988
 31
0.0
  0
LINE
  5
254
330
18
100
AcDbEntity
  8
外形線
100
AcDbLine
 10
305.2340963421428
 20
249.1260106884877
 30
0.0
 11
305.2340963421428
 21
239.1260106884877
 31
0.0
  0
LINE
  5
255
330
18
100
AcDbEntity
  8
外形線
100
AcDbLine
 10
294.2340963421429
 20
249.1260106884877
 30
0.0
 11
294.2340963421429
 21
241.9354857077988
 31
0.0
  0
LINE
  5
256
330
18
100
AcDbEntity
  8
外形線
100
AcDbLine
 10
294.2340963421429
 20
249.1260106884877
 30
0.0
 11
305.2340963421428
 21
249.1260106884877
 31
0.0
  0
LINE
  5
257
330
18
100
AcDbEntity
  8
外形線
100
AcDbLine
 10
296.1502948292385
 20
239.1260106884877
 30
0.0
 11
305.2340963421428
 21
239.1260106884877
 31
0.0
  0
LINE
  5
25C
330
18
100
AcDbEntity
  8
外形線
100
AcDbLine
 10
306.2340963421428
 20
238.1260106884877
 30
0.0
 11
306.2340963421428
 21
237.0192093844918
 31
0.0
  0
LINE
  5
25E
330
18
100
AcDbEntity
  8
外形線
100
AcDbLine
 10
306.2340963421428
 20
250.1260106884877
 30
0.0
 11
306.2340963421428
 21
238.1260106884877
 31
0.0
  0
ARC
  5
25F
330
18
100
AcDbEntity
  8
外形線
100
AcDbCircle
 10
303.9982477905886
 20
236.9528382706567
 30
0.0
 40
2.5
100
AcDbArc
 50
26.57629387126569
 51
60.37379958472584
  0
ARC
  5
260
330
18
100
AcDbEntity
  8
外形線
100
AcDbCircle
 10
303.9982477905886
 20
251.2991831063187
 30
0.0
 40
2.5
100
AcDbArc
 50
299.6262004152742
 51
333.4237061287343
  0
LINE
  5
261
330
18
100
AcDbEntity
  8
外形線
100
AcDbLine
 10
284.2340963421429
 20
249.3260106884877
 30
0.0
 11
293.2340963421428
 21
249.3260106884877
 31
0.0
  0
LINE
  5
263
330
18
100
AcDbEntity
  8
外形線
100
AcDbLine
 10
284.2340963421428
 20
248.3260106884876
 30
0.0
 11
293.2340963421428
 21
248.3260106884876
 31
0.0
  0
LINE
  5
264
330
18
100
AcDbEntity
  8
外形線
100
AcDbLine
 10
293.2340963421428
 20
249.3260106884877
 30
0.0
 11
293.2340963421428
 21
248.3260106884876
 31
0.0
  0
LINE
  5
265
330
18
100
AcDbEntity
  8
外形線
100
AcDbLine
 10
284.2340963421428
 20
249.3260106884877
 30
0.0
 11
284.2340963421428
 21
248.3260106884876
 31
0.0
  0
LINE
  5
26B
330
18
100
AcDbEntity
  8
外形線
100
AcDbLine
 10
293.2340963421428
 20
248.3260106884876
 30
0.0
 11
294.2340963421429
 21
247.8260106884877
 31
0.0
  0
LINE
  5
26C
330
18
100
AcDbEntity
  8
外形線
100
AcDbLine
 10
293.2340963421428
 20
249.3260106884877
 30
0.0
 11
294.2340963421429
 21
248.8260106884876
 31
0.0
  0
LINE
  5
273
330
18
100
AcDbEntity
  8
外形線
100
AcDbLine
 10
284.2340963421428
 20
249.3260106884877
 30
0.0
 11
283.2340963421428
 21
248.8260106884876
 31
0.0
  0
LINE
  5
274
330
18
100
AcDbEntity
  8
外形線
100
AcDbLine
 10
284.2340963421428
 20
248.3260106884876
 30
0.0
 11
283.2340963421428
 21
247.8260106884877
 31
0.0
  0
LINE
  5
275
330
18
100
AcDbEntity
  8
外形線
100
AcDbLine
 10
284.2340963421428
 20
249.3260106884877
 30
0.0
 11
284.2340963421428
 21
248.3260106884876
 31
0.0
  0
LINE
  5
276
330
18
100
AcDbEntity
  8
中心線
 48
0.4
100
AcDbLine
 10
288.7340963421429
 20
246.6500300309265
 30
0.0
 11
288.7340963421428
 21
224.4778386497773
 31
0.0
  0
LINE
  5
277
330
18
100
AcDbEntity
  8
中心線
 48
0.4
100
AcDbLine
 10
278.2482356565382
 20
236.1260106884877
 30
0.0
 11
299.1159049619865
 21
236.1260106884877
 31
0.0
  0
CIRCLE
  5
278
330
18
100
AcDbEntity
  8
外形線
100
AcDbCircle
 10
288.7340963421428
 20
236.1260106884877
 30
0.0
 40
8.0
  0
TEXT
  5
27E
330
18
100
AcDbEntity
  8
文字
100
AcDbText
 10
328.512084032241
 20
242.7489337242773
 30
0.0
 40
1.0
  1
CC-2
  7
STYLE3
100
AcDbText
  0
ARC
  5
2F6
102
{ACAD_REACTORS
330
317
102
}
330
18
100
AcDbEntity
  8
外形線
100
AcDbCircle
 10
326.2340963421428
 20
233.9760142234936
 30
0.0
 40
2.0
100
AcDbArc
 50
12.33039196868931
 51
162.0823891309169
  0
HATCH
  5
317
330
18
100
AcDbEntity
  8
ﾊｯﾁﾝｸ
100
AcDbHatch
 10
0.0
 20
0.0
 30
0.0
210
0.0
220
0.0
230
1.0
  2
DOTS
 70
     0
 71
     1
 91
        4
 92
        7
 72
     1
 73
     1
 93
        6
 10
325.7340963421428
 20
246.1260106884877
 42
0.0
 10
325.7340963421428
 20
248.1260106884876
 42
0.0
 10
336.2340963421428
 20
248.1260106884877
 42
0.0
 10
336.2340963421428
 20
254.085324512141
 42
0.0162971688498792
 10
316.2340963421428
 20
253.1072346027057
 42
0.0
 10
316.2340963421428
 20
246.1260106884877
 42
0.0
 97
        6
330
173
330
18F
330
18E
330
190
330
191
330
18D
 92
        7
 72
     1
 73
     1
 93
        6
 10
356.7340963421428
 20
248.1260106884877
 42
0.0
 10
356.7340963421429
 20
246.1260106884877
 42
0.0
 10
366.234096342143
 20
246.1260106884877
 42
0.0
 10
366.2340963421428
 20
253.1072346027057
 42
0.0162971688498792
 10
346.2340963421429
 20
254.085324512141
 42
0.0
 10
346.2340963421429
 20
248.1260106884877
 42
0.0
 97
        6
330
173
330
16C
330
17A
330
17F
330
17C
330
16D
 92
        7
 72
     1
 73
     1
 93
        6
 10
366.2340963421428
 20
235.1447867742697
 42
0.0
 10
366.234096342143
 20
242.1260106884876
 42
0.0
 10
356.7340963421428
 20
242.1260106884877
 42
0.0
 10
356.7340963421428
 20
240.1260106884876
 42
0.0
 10
346.2340963421429
 20
240.1260106884877
 42
0.0
 10
346.2340963421429
 20
234.1666968648343
 42
0.0162971688498792
 97
        6
330
181
330
183
330
184
330
185
330
175
330
182
 92
        7
 72
     1
 73
     1
 93
        8
 10
324.3310965672453
 20
234.5913124087173
 42
-0.7656091570196323
 10
328.187961216474
 20
234.4031114640077
 42
0.0065500023894979
 10
336.2340963421428
 20
234.1666968648342
 42
0.0
 10
336.2340963421428
 20
240.1260106884876
 42
0.0
 10
325.7340963421429
 20
240.1260106884877
 42
0.0
 10
325.7340963421428
 20
242.1260106884876
 42
0.0
 10
316.2340963421428
 20
242.1260106884877
 42
0.0
 10
316.2340963421428
 20
235.1447867742696
 42
0.006603945187105
 97
        7
330
189
330
18A
330
18B
330
186
330
175
330
2F6
330
188
 75
     0
 76
     1
 52
0.0
 41
0.4
 77
     0
 78
     1
 53
0.0
 43
14.87226932161741
 44
-21.83861823719531
 45
0.3175
 46
0.635
 79
     2
 49
0.0
 49
-0.635
 47
0.3765170278403226
 98
        4
 10
320.6660658836137
 20
249.0098955380324
 10
359.4793694892985
 20
249.3864122942371
 10
359.8561975548657
 20
236.9613506937366
 10
322.550207014716
 20
237.7143846611852
  0
DIMENSION
  5
341
330
18
100
AcDbEntity
  8
外形線
100
AcDbDimension
  2
*D1
 10
376.2340963421428
 20
277.5998537885084
 30
0.0
 11
341.2340963421428
 21
279.4748537885084
 31
0.0
 70
    32
 71
     5
 42
70.0
  3
STYLE3
100
AcDbAlignedDimension
 13
306.2340963421428
 23
250.1260106884877
 33
0.0
 14
376.2340963421428
 24
251.2328119924835
 34
0.0
100
AcDbRotatedDimension
1001
ACAD
1000
DSTYLE
1002
{
1070
   271
1070
     2
1002
}
  0
LINE
  5
399
330
18
100
AcDbEntity
  8
0
  6
ByBlock
 62
     2
100
AcDbLine
 10
283.2340963421428
 20
247.8260106884877
 30
0.0
 11
283.2340963421429
 21
286.8433905924646
 31
0.0
  0
LINE
  5
39B
330
18
100
AcDbEntity
  8
0
  6
ByBlock
 62
     2
100
AcDbLine
 10
285.7340963421429
 20
285.5933905924646
 30
0.0
 11
432.2340963421429
 21
285.5933905924646
 31
0.0
  0
INSERT
  5
39C
330
18
100
AcDbEntity
  8
0
  6
ByBlock
 62
     2
100
AcDbBlockReference
  2
_OPEN
 10
283.2340963421429
 20
285.5933905924646
 30
0.0
 41
2.5
 42
2.5
 43
2.5
 50
180.0
  0
INSERT
  5
39D
330
18
100
AcDbEntity
  8
0
  6
ByBlock
 62
     2
100
AcDbBlockReference
  2
_OPEN
 10
434.7340963421428
 20
285.5933905924646
 30
0.0
 41
2.5
 42
2.5
 43
2.5
  0
POINT
  5
39F
330
18
100
AcDbEntity
  8
DEFPOINTS
  6
ByBlock
 62
     0
100
AcDbPoint
 10
283.2340963421428
 20
247.8260106884877
 30
0.0
  0
POINT
  5
3A7
330
18
100
AcDbEntity
  8
DEFPOINTS
  6
ByBlock
 62
     0
100
AcDbPoint
 10
376.2340963421428
 20
251.2328119924835
 30
0.0
  0
TEXT
  5
3F3
330
18
100
AcDbEntity
  8
文字
100
AcDbText
 10
352.9508595195158
 20
286.2174108419341
 30
0.0
 40
2.5
  1
152.5
  7
STYLE3
100
AcDbText
  0
LINE
  5
403
330
18
100
AcDbEntity
  8
外形線
100
AcDbLine
 10
354.7340963421429
 20
246.6260106884877
 30
0.0
 11
354.7340963421429
 21
241.6260106884877
 31
0.0
  0
LINE
  5
404
330
18
100
AcDbEntity
  8
外形線
100
AcDbLine
 10
327.7340963421428
 20
246.6260106884877
 30
0.0
 11
327.7340963421428
 21
241.6260106884877
 31
0.0
  0
LINE
  5
405
330
18
100
AcDbEntity
  8
外形線
100
AcDbLine
 10
327.7340963421428
 20
246.6260106884877
 30
0.0
 11
354.7340963421429
 21
246.6260106884877
 31
0.0
  0
LINE
  5
406
330
18
100
AcDbEntity
  8
外形線
100
AcDbLine
 10
327.7340963421428
 20
241.6260106884877
 30
0.0
 11
354.7340963421429
 21
241.6260106884877
 31
0.0
  0
LINE
  5
427
330
18
100
AcDbEntity
  8
中心線
 48
0.5
100
AcDbLine
 10
426.2340963421427
 20
224.8616193393579
 30
0.0
 11
426.2340963421428
 21
279.9186351530808
 31
0.0
  0
LINE
  5
428
330
18
100
AcDbEntity
  8
外形線
100
AcDbLine
 10
404.2340963421429
 20
239.6260106884876
 30
0.0
 11
406.2340963421428
 21
239.6260106884876
 31
0.0
  0
LINE
  5
429
330
18
100
AcDbEntity
  8
外形線
100
AcDbLine
 10
404.234096342143
 20
248.6260106884877
 30
0.0
 11
406.234096342143
 21
248.6260106884877
 31
0.0
  0
LINE
  5
42A
330
18
100
AcDbEntity
  8
外形線
100
AcDbLine
 10
406.2340963421432
 20
257.3260106884877
 30
0.0
 11
406.2340963421428
 21
239.6260106884876
 31
0.0
  0
LINE
  5
42B
330
18
100
AcDbEntity
  8
外形線
100
AcDbLine
 10
418.2340963421428
 20
239.6260106884876
 30
0.0
 11
418.2340963421428
 21
248.3260106884876
 31
0.0
  0
LINE
  5
42C
330
18
100
AcDbEntity
  8
外形線
100
AcDbLine
 10
406.2340963421428
 20
239.6260106884876
 30
0.0
 11
418.2340963421428
 21
239.6260106884876
 31
0.0
  0
LINE
  5
42D
330
18
100
AcDbEntity
  8
外形線
100
AcDbLine
 10
418.2340963421428
 20
248.3260106884876
 30
0.0
 11
433.2340963421429
 21
248.3260106884876
 31
0.0
  0
LINE
  5
42E
330
18
100
AcDbEntity
  8
外形線
100
AcDbLine
 10
413.0340963421431
 20
264.1260106884876
 30
0.0
 11
419.434096342143
 21
264.1260106884876
 31
0.0
  0
ARC
  5
432
330
18
100
AcDbEntity
  8
外形線
100
AcDbCircle
 10
413.0340963421431
 20
257.3260106884876
 30
0.0
 40
6.799999999999999
100
AcDbArc
 50
90.0
 51
179.9999999999992
  0
LINE
  5
434
330
18
100
AcDbEntity
  8
外形線
100
AcDbLine
 10
407.0340963421432
 20
257.3260106884877
 30
0.0
 11
407.0340963421429
 21
245.8260106884876
 31
0.0
  0
ARC
  5
435
330
18
100
AcDbEntity
  8
外形線
100
AcDbCircle
 10
413.0340963421431
 20
257.3260106884876
 30
0.0
 40
6.0
100
AcDbArc
 50
90.0
 51
179.9999999999992
  0
LINE
  5
436
330
18
100
AcDbEntity
  8
外形線
100
AcDbLine
 10
413.0340963421431
 20
263.3260106884876
 30
0.0
 11
419.4340963421429
 21
263.3260106884876
 31
0.0
  0
LINE
  5
438
330
18
100
AcDbEntity
  8
外形線
100
AcDbLine
 10
406.234096342143
 20
245.8260106884876
 30
0.0
 11
407.0340963421429
 21
245.8260106884876
 31
0.0
  0
INSERT
  5
44F
330
18
100
AcDbEntity
  8
外形線
100
AcDbBlockReference
  2
六角ﾈｼ3
 10
401.2340963421427
 20
244.1260106884876
 30
0.0
  0
LINE
  5
45B
330
18
100
AcDbEntity
  8
外形線
100
AcDbLine
 10
424.4840963421428
 20
271.3260106884877
 30
0.0
 11
427.9840963421428
 21
271.3260106884877
 31
0.0
  0
ARC
  5
45E
330
18
100
AcDbEntity
  8
外形線
100
AcDbCircle
 10
426.2340963421428
 20
270.8260106884876
 30
0.0
 40
1.5
100
AcDbArc
 50
19.47122063449332
 51
160.5287793655067
  0
LINE
  5
465
330
18
100
AcDbEntity
  8
外形線
100
AcDbLine
 10
428.7340963421429
 20
229.6260106884876
 30
0.0
 11
428.7340963421429
 21
239.1260106884876
 31
0.0
  0
LINE
  5
466
330
18
100
AcDbEntity
  8
外形線
100
AcDbLine
 10
423.7340963421428
 20
229.6260106884876
 30
0.0
 11
423.7340963421429
 21
239.1260106884876
 31
0.0
  0
LINE
  5
474
330
18
100
AcDbEntity
  8
外形線
100
AcDbLine
 10
434.4340963421426
 20
251.3760106884876
 30
0.0
 11
434.4340963421429
 21
268.2797194867041
 31
0.0
  0
LINE
  5
479
330
18
100
AcDbEntity
  8
外形線
100
AcDbLine
 10
433.2340963421429
 20
240.1260106884876
 30
0.0
 11
433.2340963421429
 21
247.4260106884876
 31
0.0
  0
LINE
  5
47A
330
18
100
AcDbEntity
  8
外形線
100
AcDbLine
 10
419.2340963421428
 20
240.1260106884876
 30
0.0
 11
419.2340963421427
 21
247.4260106884876
 31
0.0
  0
LINE
  5
47D
330
18
100
AcDbEntity
  8
外形線
100
AcDbLine
 10
419.2340963421427
 20
247.4260106884876
 30
0.0
 11
433.2340963421429
 21
247.4260106884876
 31
0.0
  0
LINE
  5
47E
330
18
100
AcDbEntity
  8
外形線
100
AcDbLine
 10
419.2340963421427
 20
240.1260106884876
 30
0.0
 11
433.2340963421429
 21
240.1260106884876
 31
0.0
  0
LINE
  5
47F
330
18
100
AcDbEntity
  8
外形線
100
AcDbLine
 10
419.7340963421427
 20
247.9260106884876
 30
0.0
 11
432.7340963421429
 21
247.9260106884876
 31
0.0
  0
LINE
  5
480
330
18
100
AcDbEntity
  8
外形線
100
AcDbLine
 10
419.7340963421428
 20
239.6260106884876
 30
0.0
 11
432.7340963421429
 21
239.6260106884876
 31
0.0
  0
LINE
  5
481
330
18
100
AcDbEntity
  8
外形線
100
AcDbLine
 10
419.2340963421427
 20
247.4260106884876
 30
0.0
 11
419.7340963421427
 21
247.9260106884876
 31
0.0
  0
LINE
  5
482
330
18
100
AcDbEntity
  8
外形線
100
AcDbLine
 10
432.7340963421429
 20
247.9260106884876
 30
0.0
 11
433.2340963421429
 21
247.4260106884876
 31
0.0
  0
LINE
  5
483
330
18
100
AcDbEntity
  8
外形線
100
AcDbLine
 10
419.2340963421428
 20
240.1260106884876
 30
0.0
 11
419.7340963421428
 21
239.6260106884876
 31
0.0
  0
LINE
  5
484
330
18
100
AcDbEntity
  8
外形線
100
AcDbLine
 10
432.7340963421429
 20
239.6260106884876
 30
0.0
 11
433.2340963421429
 21
240.1260106884876
 31
0.0
  0
LINE
  5
485
330
18
100
AcDbEntity
  8
外形線
100
AcDbLine
 10
419.7340963421428
 20
239.6260106884876
 30
0.0
 11
423.7340963421429
 21
239.1260106884876
 31
0.0
  0
LINE
  5
486
330
18
100
AcDbEntity
  8
外形線
100
AcDbLine
 10
432.7340963421429
 20
239.6260106884876
 30
0.0
 11
428.7340963421429
 21
239.1260106884876
 31
0.0
  0
LINE
  5
487
330
18
100
AcDbEntity
  8
外形線
100
AcDbLine
 10
423.7340963421429
 20
239.1260106884876
 30
0.0
 11
428.7340963421429
 21
239.1260106884876
 31
0.0
  0
LINE
  5
488
330
18
100
AcDbEntity
  8
外形線
100
AcDbLine
 10
430.2340963421428
 20
247.9260106884876
 30
0.0
 11
430.2340963421428
 21
248.3260106884875
 31
0.0
  0
LINE
  5
489
330
18
100
AcDbEntity
  8
外形線
100
AcDbLine
 10
422.2340963421428
 20
247.9260106884876
 30
0.0
 11
422.2340963421428
 21
248.3260106884875
 31
0.0
  0
LINE
  5
48A
330
18
100
AcDbEntity
  8
外形線
100
AcDbLine
 10
419.4340963421427
 20
251.3760106884876
 30
0.0
 11
434.4340963421426
 21
251.3760106884876
 31
0.0
  0
LINE
  5
48B
330
18
100
AcDbEntity
  8
外形線
100
AcDbLine
 10
433.2340963421429
 20
248.3260106884876
 30
0.0
 11
433.2340963421429
 21
251.3760106884876
 31
0.0
  0
LINE
  5
48C
330
18
100
AcDbEntity
  8
外形線
100
AcDbLine
 10
419.4340963421427
 20
251.3760106884876
 30
0.0
 11
419.434096342143
 21
267.6260106884876
 31
0.0
  0
LINE
  5
48D
330
18
100
AcDbEntity
  8
外形線
100
AcDbLine
 10
417.7340963421428
 20
269.1260106884877
 30
0.0
 11
417.9340963421429
 21
269.1260106884875
 31
0.0
  0
LINE
  5
48E
330
18
100
AcDbEntity
  8
外形線
100
AcDbLine
 10
420.6340963421428
 20
248.3260106884876
 30
0.0
 11
420.6340963421427
 21
251.3760106884876
 31
0.0
  0
LINE
  5
498
330
18
100
AcDbEntity
  8
外形線
100
AcDbLine
 10
417.7340963421429
 20
269.1260106884877
 30
0.0
 11
417.7340963421428
 21
270.1260106884877
 31
0.0
  0
ARC
  5
49C
330
18
100
AcDbEntity
  8
外形線
100
AcDbCircle
 10
417.9340963421429
 20
267.6260106884876
 30
0.0
 40
1.5
100
AcDbArc
 50
359.9999999999992
 51
90.0
  0
LINE
  5
49E
330
18
100
AcDbEntity
  8
外形線
100
AcDbLine
 10
434.7340963421428
 20
269.1260106884875
 30
0.0
 11
417.7340963421429
 21
269.1260106884877
 31
0.0
  0
LINE
  5
4A0
330
18
100
AcDbEntity
  8
外形線
100
AcDbLine
 10
434.7340963421428
 20
269.1260106884875
 30
0.0
 11
434.7340963421428
 21
270.1260106884877
 31
0.0
  0
LINE
  5
4A3
330
18
100
AcDbEntity
  8
外形線
100
AcDbLine
 10
434.4698579967003
 20
268.4654148248812
 30
0.0
 11
434.7340963421428
 21
269.1260106884875
 31
0.0
  0
ARC
  5
4A4
330
18
100
AcDbEntity
  8
外形線
100
AcDbCircle
 10
434.9340963421429
 20
268.2797194867041
 30
0.0
 40
0.5
100
AcDbArc
 50
158.1985905136459
 51
179.999999999999
  0
ARC
  5
4A5
330
18
100
AcDbEntity
  8
外形線
100
AcDbCircle
 10
426.2340963421428
 20
240.6218440218222
 30
0.0
 40
30.70416666666546
100
AcDbArc
 50
73.92857857892979
 51
106.0714214210702
  0
LINE
  5
4A6
330
18
100
AcDbEntity
  8
外形線
100
AcDbLine
 10
427.9840963421428
 20
271.3260106884877
 30
0.0
 11
427.9840963421428
 21
271.2760990395905
 31
0.0
  0
LINE
  5
4A7
330
18
100
AcDbEntity
  8
外形線
100
AcDbLine
 10
424.4840963421428
 20
271.3260106884877
 30
0.0
 11
424.4840963421428
 21
271.2760990395905
 31
0.0
  0
LINE
  5
4A8
330
18
100
AcDbEntity
  8
外形線
100
AcDbLine
 10
423.9840963421428
 20
228.6260106884876
 30
0.0
 11
428.4840963421427
 21
228.6260106884876
 31
0.0
  0
LINE
  5
4A9
330
18
100
AcDbEntity
  8
外形線
100
AcDbLine
 10
423.7340963421429
 20
229.6260106884876
 30
0.0
 11
428.7340963421427
 21
229.6260106884876
 31
0.0
  0
LINE
  5
4AE
330
18
100
AcDbEntity
  8
外形線
100
AcDbLine
 10
423.9840963421428
 20
228.6260106884876
 30
0.0
 11
423.7340963421428
 21
229.6260106884876
 31
0.0
  0
LINE
  5
4AF
330
18
100
AcDbEntity
  8
外形線
100
AcDbLine
 10
428.4840963421427
 20
228.6260106884876
 30
0.0
 11
428.7340963421429
 21
229.6260106884876
 31
0.0
  0
ARC
  5
4B0
330
18
100
AcDbEntity
  8
外形線
100
AcDbCircle
 10
426.2340963421427
 20
229.0260106884876
 30
0.0
 40
1.9
100
AcDbArc
 50
192.153197469007
 51
347.8468025309921
  0
LINE
  5
4DE
330
18
100
AcDbEntity
  8
外形線
100
AcDbLine
 10
380.9865424518154
 20
317.2909843592582
 30
0.0
 11
401.2340963421429
 21
317.2909843592581
 31
0.0
  0
LINE
  5
4DF
330
18
100
AcDbEntity
  8
外形線
100
AcDbLine
 10
380.9865424518154
 20
327.2909843592582
 30
0.0
 11
401.2340963421427
 21
327.2909843592581
 31
0.0
  0
ARC
  5
4E0
330
18
100
AcDbEntity
  8
外形線
100
AcDbCircle
 10
385.3166694707377
 20
319.7909843592579
 30
0.0
 40
5.0
100
AcDbArc
 50
150.0000000000001
 51
209.9999999999999
  0
ARC
  5
4E1
330
18
100
AcDbEntity
  8
外形線
100
AcDbCircle
 10
385.3166694707377
 20
324.7909843592579
 30
0.0
 40
5.0
100
AcDbArc
 50
150.0
 51
209.9999999999999
  0
ARC
  5
4E2
330
18
100
AcDbEntity
  8
外形線
100
AcDbCircle
 10
376.6564154328933
 20
324.7909843592579
 30
0.0
 40
5.0
100
AcDbArc
 50
330.0000000000001
 51
29.9999999999999
  0
LINE
  5
4E3
330
18
100
AcDbEntity
  8
中心線
 48
0.5
100
AcDbLine
 10
426.2340963421429
 20
308.3140030086162
 30
0.0
 11
426.2340963421429
 21
338.1563185417656
 31
0.0
  0
LINE
  5
4E6
330
18
100
AcDbEntity
  8
外形線
100
AcDbLine
 10
404.2340963421429
 20
317.7909843592581
 30
0.0
 11
406.2340963421428
 21
317.7909843592581
 31
0.0
  0
LINE
  5
4E7
330
18
100
AcDbEntity
  8
外形線
100
AcDbLine
 10
404.234096342143
 20
326.7909843592581
 30
0.0
 11
406.234096342143
 21
326.7909843592581
 31
0.0
  0
LINE
  5
4E9
330
18
100
AcDbEntity
  8
外形線
100
AcDbLine
 10
406.234096342143
 20
326.7909843592581
 30
0.0
 11
406.2340963421428
 21
317.7909843592581
 31
0.0
  0
INSERT
  5
523
330
18
100
AcDbEntity
  8
外形線
100
AcDbBlockReference
  2
六角ﾈｼ
 10
401.2340963421427
 20
322.2909843592581
 30
0.0
  0
LINE
  5
524
330
18
100
AcDbEntity
  8
外形線
100
AcDbLine
 10
401.2340963421427
 20
327.2909843592581
 30
0.0
 11
401.2340963421429
 21
317.2909843592581
 31
0.0
  0
LINE
  5
525
330
18
100
AcDbEntity
  8
外形線
100
AcDbLine
 10
403.7340963421432
 20
322.2909843592581
 30
0.0
 11
401.2340963421429
 21
322.2909843592581
 31
0.0
  0
LINE
  5
526
330
18
100
AcDbEntity
  8
外形線
100
AcDbLine
 10
404.234096342143
 20
326.7909843592581
 30
0.0
 11
404.234096342143
 21
317.7909843592581
 31
0.0
  0
LINE
  5
527
330
18
100
AcDbEntity
  8
中心線
 48
0.5
100
AcDbLine
 10
376.8596470146546
 20
322.290984359258
 30
0.0
 11
436.5073566601461
 21
322.290984359258
 31
0.0
  0
LINE
  5
528
330
18
100
AcDbEntity
  8
外形線
100
AcDbLine
 10
417.7340963421429
 20
333.2909843592581
 30
0.0
 11
434.7340963421427
 21
333.2909843592581
 31
0.0
  0
LINE
  5
529
330
18
100
AcDbEntity
  8
外形線
100
AcDbLine
 10
417.7340963421428
 20
311.2909843592581
 30
0.0
 11
434.7340963421428
 21
311.2909843592581
 31
0.0
  0
LINE
  5
57A
330
18
100
AcDbEntity
  8
寸法線
100
AcDbLine
 10
434.7340963421428
 20
270.1260106884877
 30
0.0
 11
434.7340963421428
 21
287.0047584800132
 31
0.0
  0
LINE
  5
57D
330
18
100
AcDbEntity
  8
0
  6
ByBlock
 62
     2
100
AcDbLine
 10
378.7340963421428
 20
277.5998537885084
 30
0.0
 11
423.7340963421429
 21
277.5998537885084
 31
0.0
  0
INSERT
  5
57E
330
18
100
AcDbEntity
  8
0
  6
ByBlock
 62
     2
100
AcDbBlockReference
  2
_OPEN
 10
376.2340963421428
 20
277.5998537885084
 30
0.0
 41
2.5
 42
2.5
 43
2.5
 50
180.0
  0
INSERT
  5
57F
330
18
100
AcDbEntity
  8
0
  6
ByBlock
 62
     2
100
AcDbBlockReference
  2
_OPEN
 10
426.2340963421429
 20
277.5998537885084
 30
0.0
 41
2.5
 42
2.5
 43
2.5
  0
MTEXT
  5
580
330
18
100
AcDbEntity
  8
0
  6
ByBlock
 62
     6
100
AcDbMText
 10
398.5432941451234
 20
279.4748537885084
 30
0.0
 40
2.5
 41
0.0
 71
     5
 72
     1
  1
50
  7
STYLE3
 73
     1
 44
1.0
  0
POINT
  5
581
330
18
100
AcDbEntity
  8
DEFPOINTS
  6
ByBlock
 62
     0
100
AcDbPoint
 10
376.2340963421428
 20
251.2328119924835
 30
0.0
  0
LINE
  5
5A0
330
18
100
AcDbEntity
  8
0
  6
ByBlock
 62
     2
100
AcDbLine
 10
428.7340963421429
 20
277.5998537885084
 30
0.0
 11
432.2340963421429
 21
277.5998537885084
 31
0.0
  0
INSERT
  5
5A1
330
18
100
AcDbEntity
  8
0
  6
ByBlock
 62
     2
100
AcDbBlockReference
  2
_OPEN
 10
426.2340963421429
 20
277.5998537885084
 30
0.0
 41
2.5
 42
2.5
 43
2.5
 50
180.0
  0
INSERT
  5
5A2
330
18
100
AcDbEntity
  8
0
  6
ByBlock
 62
     2
100
AcDbBlockReference
  2
_OPEN
 10
434.7340963421428
 20
277.5998537885084
 30
0.0
 41
2.5
 42
2.5
 43
2.5
  0
MTEXT
  5
5A3
330
18
100
AcDbEntity
  8
0
  6
ByBlock
 62
     6
100
AcDbMText
 10
430.4840963421429
 20
279.4748537885084
 30
0.0
 40
2.5
 41
0.0
 71
     5
 72
     1
  1
\A1;8.5
  7
STYLE3
 73
     1
 44
1.0
  0
DIMENSION
  5
5BE
330
18
100
AcDbEntity
  8
寸法線
100
AcDbDimension
  2
*D4
 10
449.5391376767487
 20
227.1260106884876
 30
0.0
 11
447.6641376767486
 21
249.7260106884877
 31
0.0
 70
    32
  1
35～60
 71
     5
 42
45.20000000000002
  3
STYLE3
100
AcDbAlignedDimension
 13
426.2340963421428
 23
272.3260106884876
 33
0.0
 14
426.2340963421427
 24
227.1260106884876
 34
0.0
 50
90.0
100
AcDbRotatedDimension
1001
ACAD
1000
DSTYLE
1002
{
1070
   271
1070
     2
1002
}
  0
LINE
  5
5D9
330
18
100
AcDbEntity
  8
0
  6
ByBlock
 62
     2
100
AcDbLine
 10
394.626701052346
 20
246.6260106884877
 30
0.0
 11
394.626701052346
 21
241.6260106884877
 31
0.0
  0
INSERT
  5
5DA
330
18
100
AcDbEntity
  8
0
  6
ByBlock
 62
     2
100
AcDbBlockReference
  2
_OPEN
 10
394.626701052346
 20
249.1260106884876
 30
0.0
 41
2.5
 42
2.5
 43
2.5
 50
90.0
  0
INSERT
  5
5DB
330
18
100
AcDbEntity
  8
0
  6
ByBlock
 62
     2
100
AcDbBlockReference
  2
_OPEN
 10
394.626701052346
 20
239.1260106884877
 30
0.0
 41
2.5
 42
2.5
 43
2.5
 50
270.0
  0
MTEXT
  5
5DC
330
18
100
AcDbEntity
  8
0
  6
ByBlock
 62
     6
100
AcDbMText
 10
392.7517010523459
 20
243.4287212745314
 30
0.0
 40
2.5
 41
0.0
 71
     5
 72
     1
  1
φ10
  7
STYLE3
 11
0.0000000000000001
 21
1.0
 31
0.0
 73
     1
 44
1.0
  0
LINE
  5
5ED
330
18
100
AcDbEntity
  8
0
  6
ByBlock
 62
     2
100
AcDbLine
 10
426.2340963421428
 20
272.3260106884876
 30
0.0
 11
387.2260623832029
 21
272.3260106884876
 31
0.0
  0
LINE
  5
5EF
330
18
100
AcDbEntity
  8
0
  6
ByBlock
 62
     2
100
AcDbLine
 10
388.4760623832029
 20
269.8260106884876
 30
0.0
 11
388.4760623832029
 21
246.6260106884876
 31
0.0
  0
INSERT
  5
5F0
330
18
100
AcDbEntity
  8
0
  6
ByBlock
 62
     2
100
AcDbBlockReference
  2
_OPEN
 10
388.4760623832029
 20
272.3260106884876
 30
0.0
 41
2.5
 42
2.5
 43
2.5
 50
90.0
  0
INSERT
  5
5F1
330
18
100
AcDbEntity
  8
0
  6
ByBlock
 62
     2
100
AcDbBlockReference
  2
_OPEN
 10
388.4760623832029
 20
244.1260106884876
 30
0.0
 41
2.5
 42
2.5
 43
2.5
 50
270.0
  0
MTEXT
  5
5F2
330
18
100
AcDbEntity
  8
0
  6
ByBlock
 62
     6
100
AcDbMText
 10
386.6010623832029
 20
258.2260106884876
 30
0.0
 40
2.5
 41
0.0
 71
     5
 72
     1
  1
\A1;28.2
  7
STYLE3
 11
0.0000000000000001
 21
1.0
 31
0.0
 73
     1
 44
1.0
  0
POINT
  5
5F3
330
18
100
AcDbEntity
  8
DEFPOINTS
  6
ByBlock
 62
     0
100
AcDbPoint
 10
426.2340963421428
 20
272.3260106884876
 30
0.0
  0
LINE
  5
5F6
330
18
100
AcDbEntity
  8
外形線
100
AcDbLine
 10
417.7340963421428
 20
311.2909843592581
 30
0.0
 11
417.7340963421429
 21
317.890984359258
 31
0.0
  0
LINE
  5
5F7
330
18
100
AcDbEntity
  8
外形線
100
AcDbLine
 10
434.7340963421428
 20
311.2909843592581
 30
0.0
 11
434.7340963421427
 21
333.2909843592581
 31
0.0
  0
LINE
  5
5FC
330
18
100
AcDbEntity
  8
外形線
100
AcDbLine
 10
417.7340963421428
 20
331.2909843592581
 30
0.0
 11
434.7340963421427
 21
331.2909843592581
 31
0.0
  0
LINE
  5
5FD
330
18
100
AcDbEntity
  8
外形線
100
AcDbLine
 10
417.7340963421429
 20
313.2909843592581
 30
0.0
 11
434.7340963421427
 21
313.2909843592581
 31
0.0
  0
CIRCLE
  5
5FE
330
18
100
AcDbEntity
  8
外形線
100
AcDbCircle
 10
426.2340963421428
 20
322.290984359258
 30
0.0
 40
4.049999999999999
  0
LINE
  5
5FF
330
18
100
AcDbEntity
  8
外形線
100
AcDbLine
 10
417.7340963421428
 20
326.690984359258
 30
0.0
 11
420.734096342143
 21
326.690984359258
 31
0.0
  0
LINE
  5
600
330
18
100
AcDbEntity
  8
外形線
100
AcDbLine
 10
417.7340963421428
 20
317.890984359258
 30
0.0
 11
420.7340963421429
 21
317.890984359258
 31
0.0
  0
LINE
  5
601
330
18
100
AcDbEntity
  8
外形線
100
AcDbLine
 10
420.7340963421429
 20
317.890984359258
 30
0.0
 11
420.734096342143
 21
326.690984359258
 31
0.0
  0
LINE
  5
602
330
18
100
AcDbEntity
  8
外形線
100
AcDbLine
 10
417.7340963421429
 20
326.690984359258
 30
0.0
 11
417.7340963421429
 21
333.2909843592581
 31
0.0
  0
CIRCLE
  5
603
330
18
100
AcDbEntity
  8
外形線
 62
     4
100
AcDbCircle
 10
426.2340963421428
 20
322.290984359258
 30
0.0
 40
1.75
  0
CIRCLE
  5
604
330
18
100
AcDbEntity
  8
外形線
 62
     4
100
AcDbCircle
 10
426.2340963421428
 20
322.290984359258
 30
0.0
 40
1.5
  0
LINE
  5
607
330
18
100
AcDbEntity
  8
外形線
100
AcDbLine
 10
406.2340963421428
 20
326.290984359258
 30
0.0
 11
420.7340963421429
 21
326.2909843592579
 31
0.0
  0
LINE
  5
608
330
18
100
AcDbEntity
  8
外形線
100
AcDbLine
 10
406.2340963421428
 20
318.290984359258
 30
0.0
 11
420.734096342143
 21
318.2909843592581
 31
0.0
  0
CIRCLE
  5
60D
330
18
100
AcDbEntity
  8
外形線
100
AcDbCircle
 10
418.8340963421431
 20
322.290984359258
 30
0.0
 40
1.0
  0
LINE
  5
60E
330
18
100
AcDbEntity
  8
外形線
 62
     4
100
AcDbLine
 10
419.1926092504719
 20
322.6637289239027
 30
0.0
 11
418.4304461653554
 21
321.8713107410416
 31
0.0
  0
LINE
  5
610
330
18
100
AcDbEntity
  8
外形線
 62
     4
100
AcDbLine
 10
418.4340847765104
 20
322.6757231948109
 30
0.0
 11
419.2376974514936
 21
321.9027930313554
 31
0.0
  0
DIMENSION
  5
61D
330
18
100
AcDbEntity
  8
外形線
100
AcDbDimension
  2
*D5
 10
447.213654032058
 20
311.2909843592581
 30
0.0
 11
445.3386540320579
 21
322.2909843592582
 31
0.0
 70
    32
 71
     5
 42
21.99999999999994
  3
STYLE3
100
AcDbAlignedDimension
 13
434.7340963421427
 23
333.2909843592581
 33
0.0
 14
434.7340963421428
 24
311.2909843592581
 34
0.0
 50
90.0
100
AcDbRotatedDimension
1001
ACAD
1000
DSTYLE
1002
{
1070
   271
1070
     2
1002
}
  0
DIMENSION
  5
637
330
18
100
AcDbEntity
  8
外形線
100
AcDbDimension
  2
*D6
 10
434.7340963421428
 20
297.0351040251919
 30
0.0
 11
426.2340963421427
 21
298.9101040251918
 31
0.0
 70
    32
 71
     5
 42
16.99999999999994
  3
STYLE3
100
AcDbAlignedDimension
 13
417.7340963421428
 23
311.2909843592581
 33
0.0
 14
434.7340963421428
 24
311.2909843592581
 34
0.0
100
AcDbRotatedDimension
1001
ACAD
1000
DSTYLE
1002
{
1070
   271
1070
     2
1002
}
  0
POINT
  5
66B
330
18
100
AcDbEntity
  8
DEFPOINTS
  6
ByBlock
 62
     0
100
AcDbPoint
 10
426.2340963421428
 20
326.340984359258
 30
0.0
  0
POINT
  5
66C
330
18
100
AcDbEntity
  8
DEFPOINTS
  6
ByBlock
 62
     0
100
AcDbPoint
 10
426.2340963421428
 20
318.240984359258
 30
0.0
  0
CIRCLE
  5
66F
330
18
100
AcDbEntity
  8
外形線
100
AcDbCircle
 10
411.7340963421428
 20
258.6260106884875
 30
0.0
 40
1.0
  0
LINE
  5
691
330
18
100
AcDbEntity
  8
中心線
100
AcDbLine
 10
411.7340963421428
 20
260.0823228029408
 30
0.0
 11
411.7340963421428
 21
256.9445211225642
 31
0.0
  0
LINE
  5
693
330
18
100
AcDbEntity
  8
中心線
100
AcDbLine
 10
410.1818447263432
 20
258.6260106884876
 30
0.0
 11
413.3737134592389
 21
258.6260106884875
 31
0.0
  0
LINE
  5
695
330
18
100
AcDbEntity
  8
ﾊｯﾁﾝｸ
 62
     4
100
AcDbLine
 10
427.457507181558
 20
240.1346387905329
 30
0.0
 11
426.2340963421428
 21
242.2536485229304
 31
0.0
  0
LINE
  5
696
330
18
100
AcDbEntity
  8
ﾊｯﾁﾝｸ
 62
     4
100
AcDbLine
 10
428.6122077199373
 20
240.1346387905329
 30
0.0
 11
426.2340963421429
 21
244.2536485229306
 31
0.0
  0
LINE
  5
697
330
18
100
AcDbEntity
  8
ﾊｯﾁﾝｸ
 62
     4
100
AcDbLine
 10
429.7669082583166
 20
240.1346387905328
 30
0.0
 11
426.2340963421428
 21
246.2536485229304
 31
0.0
  0
LINE
  5
698
330
18
100
AcDbEntity
  8
ﾊｯﾁﾝｸ
 62
     4
100
AcDbLine
 10
430.9216087966958
 20
240.1346387905328
 30
0.0
 11
426.7119332686499
 21
247.4260106884876
 31
0.0
  0
LINE
  5
699
330
18
100
AcDbEntity
  8
ﾊｯﾁﾝｸ
 62
     4
100
AcDbLine
 10
432.076309335075
 20
240.1346387905328
 30
0.0
 11
427.8666338070292
 21
247.4260106884876
 31
0.0
  0
LINE
  5
69A
330
18
100
AcDbEntity
  8
ﾊｯﾁﾝｸ
 62
     4
100
AcDbLine
 10
433.2359913104927
 20
240.1260106884876
 30
0.0
 11
429.0213343454085
 21
247.4260106884876
 31
0.0
  0
LINE
  5
69B
330
18
100
AcDbEntity
  8
ﾊｯﾁﾝｸ
 62
     4
100
AcDbLine
 10
433.2340963421429
 20
242.1292928699482
 30
0.0
 11
430.1760348837877
 21
247.4260106884876
 31
0.0
  0
LINE
  5
69C
330
18
100
AcDbEntity
  8
ﾊｯﾁﾝｸ
 62
     4
100
AcDbLine
 10
433.2444947388953
 20
244.8610105173612
 30
0.0
 11
430.5157227501206
 21
240.1346387905328
 31
0.0
  0
LINE
  5
69D
330
18
100
AcDbEntity
  8
ﾊｯﾁﾝｸ
 62
     4
100
AcDbLine
 10
433.2444947388953
 20
246.8610105173613
 30
0.0
 11
429.3610222117413
 21
240.1346387905329
 31
0.0
  0
LINE
  5
69E
330
18
100
AcDbEntity
  8
ﾊｯﾁﾝｸ
 62
     4
100
AcDbLine
 10
432.4159972014079
 20
247.4260106884876
 30
0.0
 11
428.2063216733621
 21
240.1346387905329
 31
0.0
  0
LINE
  5
69F
330
18
100
AcDbEntity
  8
ﾊｯﾁﾝｸ
 62
     4
100
AcDbLine
 10
431.2612966630287
 20
247.4260106884876
 30
0.0
 11
427.0516211349827
 21
240.1346387905329
 31
0.0
  0
LINE
  5
6A0
330
18
100
AcDbEntity
  8
ﾊｯﾁﾝｸ
 62
     4
100
AcDbLine
 10
430.1065961246494
 20
247.4260106884876
 30
0.0
 11
426.2340963421428
 21
240.7186443128868
 31
0.0
  0
LINE
  5
6A1
330
18
100
AcDbEntity
  8
ﾊｯﾁﾝｸ
 62
     4
100
AcDbLine
 10
428.9518955862702
 20
247.4260106884876
 30
0.0
 11
426.2340963421427
 21
242.7186443128867
 31
0.0
  0
LINE
  5
6A2
330
18
100
AcDbEntity
  8
ﾊｯﾁﾝｸ
 62
     4
100
AcDbLine
 10
427.797195047891
 20
247.4260106884876
 30
0.0
 11
426.2340963421429
 21
244.7186443128866
 31
0.0
  0
LINE
  5
6A6
330
18
100
AcDbEntity
  8
ﾊｯﾁﾝｸ
 62
     4
100
AcDbLine
 10
426.3028066431787
 20
240.1346387905329
 30
0.0
 11
426.2340963421427
 21
240.2536485229304
 31
0.0
  0
LINE
  5
6A8
330
18
100
AcDbEntity
  8
ﾊｯﾁﾝｸ
 62
     4
100
AcDbLine
 10
433.2444947388953
 20
242.8610105173612
 30
0.0
 11
431.6704232885
 21
240.1346387905328
 31
0.0
  0
LINE
  5
6A9
330
18
100
AcDbEntity
  8
ﾊｯﾁﾝｸ
 62
     4
100
AcDbLine
 10
433.2444947388953
 20
240.8610105173614
 30
0.0
 11
432.8251238268791
 21
240.1346387905329
 31
0.0
  0
LINE
  5
6AA
330
18
100
AcDbEntity
  8
ﾊｯﾁﾝｸ
 62
     4
100
AcDbLine
 10
433.2444947388953
 20
244.1112823184557
 30
0.0
 11
431.3307354221669
 21
247.4260106884876
 31
0.0
  0
LINE
  5
6AB
330
18
100
AcDbEntity
  8
ﾊｯﾁﾝｸ
 62
     4
100
AcDbLine
 10
433.2340963421429
 20
246.1292928699483
 30
0.0
 11
432.4854359605462
 21
247.4260106884876
 31
0.0
  0
LINE
  5
6AD
330
18
100
AcDbEntity
  8
ﾊｯﾁﾝｸ
 62
     4
100
AcDbLine
 10
426.6424945095116
 20
247.4260106884876
 30
0.0
 11
426.2340963421429
 21
246.7186443128869
 31
0.0
  0
LINE
  5
6E9
330
18
100
AcDbEntity
  8
中心線
100
AcDbLine
 10
418.8340963421433
 20
320.9808161808038
 30
0.0
 11
418.8340963421432
 21
323.6813830329902
 31
0.0
  0
LINE
  5
FDA
330
18
100
AcDbEntity
  8
外形線
100
AcDbLine
 10
283.2872573069752
 20
353.8852481770992
 30
0.0
 11
396.2872573069752
 21
353.8852481770992
 31
0.0
  0
LINE
  5
FDB
330
18
100
AcDbEntity
  8
外形線
100
AcDbLine
 10
283.2872573069752
 20
354.8852481770992
 30
0.0
 11
396.2872573069752
 21
354.8852481770992
 31
0.0
  0
TEXT
  5
FDC
330
18
100
AcDbEntity
  8
文字
100
AcDbText
 10
283.6973653069752
 20
356.5639201770992
 30
0.0
 40
3.5
  1
Model No.CC-2S Short size Cylinder Gauge
  7
STYLE3
100
AcDbText
  0
TEXT
  5
FDD
330
18
100
AcDbEntity
  8
0
  6
Continuous
100
AcDbText
 10
351.6268193069752
 20
184.0258901770992
 30
0.0
 40
2.1
  1
Design and specifications are subject to change without notice for future improvement.
  7
STYLE3
100
AcDbText
  0
LINE
  5
FDE
330
18
100
AcDbEntity
  8
外形線
100
AcDbLine
 10
350.1693523069752
 20
172.5131221770992
 30
0.0
 11
350.1693523069752
 21
192.9081061770992
 31
0.0
  0
LINE
  5
FDF
330
18
100
AcDbEntity
  8
外形線
100
AcDbLine
 10
350.1693523069752
 20
182.1279001770992
 30
0.0
 11
490.9607703069752
 21
182.1279001770992
 31
0.0
  0
TEXT
  5
FE0
330
18
100
AcDbEntity
  8
0
  6
Continuous
100
AcDbText
 10
394.9395963069752
 20
176.0094061770992
 30
0.0
 40
2.399999999999999
  1
mm
  7
STYLE3
100
AcDbText
  0
TEXT
  5
FE1
330
18
100
AcDbEntity
  8
0
  6
Continuous
100
AcDbText
 10
351.3353283069752
 20
174.2612621770992
 30
0.0
 40
2.1
  1
3RD Angle Projection
  7
STYLE3
100
AcDbText
  0
TEXT
  5
FE2
330
18
100
AcDbEntity
  8
0
  6
Continuous
100
AcDbText
 10
353.9587703069752
 20
177.7575451770992
 30
0.0
 40
3.0
  1
三　　角　　法
  7
STYLE3
100
AcDbText
  0
TEXT
  5
FE3
330
18
100
AcDbEntity
  8
0
  6
Continuous
100
AcDbText
 10
386.8975493069752
 20
177.7635001770992
 30
0.0
 40
3.0
  1
単位
  7
STYLE3
100
AcDbText
  0
TEXT
  5
FE4
330
18
100
AcDbEntity
  8
0
  6
Continuous
100
AcDbText
 10
387.0692703069752
 20
174.2612631770992
 30
0.0
 40
2.1
  1
Unit
  7
STYLE3
100
AcDbText
  0
LINE
  5
FE5
330
18
100
AcDbEntity
  8
外形線
100
AcDbLine
 10
385.4400803069752
 20
182.1279001770992
 30
0.0
 11
385.4400803069752
 21
172.5131221770992
 31
0.0
  0
TEXT
  5
FE6
330
18
100
AcDbEntity
  8
0
  6
Continuous
100
AcDbText
 10
453.5410823069752
 20
178.0489021770992
 30
0.0
 40
3.0
  1
株式会社　尾崎製作所
  7
STYLE3
100
AcDbText
  0
TEXT
  5
FE7
330
18
100
AcDbEntity
  8
0
  6
Continuous
100
AcDbText
 10
454.4155613069752
 20
174.2612631770992
 30
0.0
 40
2.1
  1
OZAKI MFG. CO., LTD.
  7
STYLE3
100
AcDbText
  0
TEXT
  5
FE8
330
18
100
AcDbEntity
  8
0
  6
Continuous
100
AcDbText
 10
433.1365273069751
 20
176.0094051770992
 30
0.0
 40
2.1
  1
2010.06.23
  7
STYLE3
100
AcDbText
  0
TEXT
  5
FE9
330
18
100
AcDbEntity
  8
0
  6
Continuous
100
AcDbText
 10
414.2979493069752
 20
176.3007631770992
 30
0.0
 40
2.399999999999999
  1
1/1
  7
STYLE3
100
AcDbText
  0
TEXT
  5
FEA
330
18
100
AcDbEntity
  8
0
  6
Continuous
100
AcDbText
 10
404.2154453069752
 20
177.4721421770992
 30
0.0
 40
3.0
  1
尺 度
  7
STYLE3
100
AcDbText
  0
TEXT
  5
FEB
330
18
100
AcDbEntity
  8
0
  6
Continuous
100
AcDbText
 10
404.6786603069752
 20
174.5526201770992
 30
0.0
 40
2.1
  1
Scale
  7
STYLE3
100
AcDbText
  0
LINE
  5
FEC
330
18
100
AcDbEntity
  8
外形線
100
AcDbLine
 10
402.9296973069752
 20
182.1279001770992
 30
0.0
 11
402.9296973069752
 21
172.5131221770992
 31
0.0
  0
TEXT
  5
FED
330
18
100
AcDbEntity
  8
0
  6
Continuous
100
AcDbText
 10
424.3917203069752
 20
174.2612641770992
 30
0.0
 40
2.1
  1
Date
  7
STYLE3
100
AcDbText
  0
TEXT
  5
FEE
330
18
100
AcDbEntity
  8
0
  6
Continuous
100
AcDbText
 10
424.0083593069751
 20
177.5943481770992
 30
0.0
 40
3.0
  1
日 付
  7
STYLE3
100
AcDbText
  0
LINE
  5
FEF
330
18
100
AcDbEntity
  8
外形線
100
AcDbLine
 10
422.4597693069752
 20
182.1279001770992
 30
0.0
 11
422.4597693069752
 21
172.5131221770992
 31
0.0
  0
LINE
  5
FF0
330
18
100
AcDbEntity
  8
外形線
100
AcDbLine
 10
452.1921193069752
 20
182.1279001770992
 30
0.0
 11
452.1921193069752
 21
172.5131221770992
 31
0.0
  0
LINE
  5
FF1
330
18
100
AcDbEntity
  8
外形線
100
AcDbLine
 10
350.1693523069752
 20
192.9081061770992
 30
0.0
 11
490.9607703069752
 21
192.9081061770992
 31
0.0
  0
TEXT
  5
FF2
330
18
100
AcDbEntity
  8
0
  6
Continuous
100
AcDbText
 10
351.9183133069752
 20
187.9550381770992
 30
0.0
 40
3.5
  1
仕様及び外観は予告なく変更される場合がございますのでご了承下さい。
  7
STYLE3
100
AcDbText
  0
ENDSEC
  0
SECTION
  2
OBJECTS
  0
DICTIONARY
  5
C
330
0
100
AcDbDictionary
281
     1
  3
ACAD_COLOR
350
C72
  3
ACAD_GROUP
350
D
  3
ACAD_LAYOUT
350
C75
  3
ACAD_MATERIAL
350
C71
  3
ACAD_MLINESTYLE
350
1B
  3
ACAD_PLOTSETTINGS
350
C76
  3
ACAD_PLOTSTYLENAME
350
C6F
  3
ACAD_TABLESTYLE
350
C73
  3
ACDBVARIABLEDICTIONARY
350
192
  0
DICTIONARY
  5
F59
330
18
100
AcDbDictionary
280
     1
281
     1
  3
ACAD_SORTENTS
360
F5A
  0
DICTIONARY
  5
C72
102
{ACAD_REACTORS
330
C
102
}
330
C
100
AcDbDictionary
281
     1
  0
DICTIONARY
  5
D
102
{ACAD_REACTORS
330
C
102
}
330
C
100
AcDbDictionary
281
     1
  0
DICTIONARY
  5
C75
102
{ACAD_REACTORS
330
C
102
}
330
C
100
AcDbDictionary
281
     1
  3
Model
350
C77
  3
レイアウト1
350
C78
  0
DICTIONARY
  5
C71
102
{ACAD_REACTORS
330
C
102
}
330
C
100
AcDbDictionary
281
     1
  0
DICTIONARY
  5
1B
102
{ACAD_REACTORS
330
C
102
}
330
C
100
AcDbDictionary
281
     1
  3
STANDARD
350
1C
  0
DICTIONARY
  5
C76
102
{ACAD_REACTORS
330
C
102
}
330
C
100
AcDbDictionary
281
     1
  0
ACDBDICTIONARYWDFLT
  5
C6F
102
{ACAD_REACTORS
330
C
102
}
330
C
100
AcDbDictionary
281
     1
  3
Normal
350
C70
100
AcDbDictionaryWithDefault
340
C70
  0
DICTIONARY
  5
C73
102
{ACAD_REACTORS
330
C
102
}
330
C
100
AcDbDictionary
281
     1
  3
Standard
350
C74
  0
DICTIONARY
  5
192
102
{ACAD_REACTORS
330
C
102
}
330
C
100
AcDbDictionary
281
     1
  3
CTABLESTYLE
350
F6A
  3
SORTENTS
350
193
  0
SORTENTSTABLE
  5
F5A
102
{ACAD_REACTORS
330
F59
102
}
330
F59
100
AcDbSortentsTable
330
18
331
117
  5
117
331
142
  5
142
331
11F
  5
11F
331
191
  5
191
331
465
  5
474
331
14A
  5
14A
331
278
  5
281
331
5A3
  5
5D9
331
16A
  5
16A
331
39F
  5
3F3
331
42E
  5
434
331
47D
  5
47F
331
436
  5
44F
331
5F2
  5
5F6
331
691
  5
695
331
602
  5
604
331
699
  5
69B
331
123
  5
123
331
2E0
  5
2E3
331
485
  5
487
331
251
  5
251
331
2E8
  5
2EA
331
12B
  5
12B
331
17A
  5
17A
331
3A7
  5
403
331
2F0
  5
2F6
331
48D
  5
498
331
133
  5
133
331
182
  5
182
331
524
  5
526
331
18A
  5
18A
331
261
  5
264
331
13B
  5
13B
331
4A5
  5
4A7
331
40F
  5
427
331
45E
  5
466
331
6A1
  5
6A6
331
6A9
  5
6AB
331
5DB
  5
5ED
331
118
  5
118
331
143
  5
143
331
466
  5
479
331
14B
  5
14B
331
1B2
  5
1B2
331
427
  5
429
331
281
  5
283
331
47E
  5
480
331
6E9
  5
DF0
331
5F3
  5
5F7
331
69A
  5
69C
331
603
  5
607
331
124
  5
124
331
173
  5
173
331
12C
  5
12C
331
2E9
  5
2EC
331
486
  5
488
331
2F1
  5
317
331
48E
  5
49C
331
134
  5
134
331
183
  5
183
331
44F
  5
45E
331
49E
  5
4A3
331
13C
  5
13C
331
18B
  5
18B
331
525
  5
527
331
4A6
  5
4A8
331
6A2
  5
6A8
331
6AA
  5
6AD
331
5DC
  5
5EF
331
119
  5
119
331
144
  5
144
331
410
  5
428
331
57D
  5
57F
331
14C
  5
14C
331
341
  5
39B
331
4AE
  5
4B0
331
399
  5
39C
331
1B3
  5
1B3
331
428
  5
42A
331
47F
  5
481
331
4DE
  5
4E0
331
16C
  5
16C
331
282
  5
2E0
331
4E6
  5
4E9
331
66B
  5
66F
331
5FC
  5
5FE
331
693
  5
696
331
604
  5
608
331
69B
  5
69D
331
125
  5
125
331
2E2
  5
2E4
331
438
  5
45B
331
253
  5
253
331
2EA
  5
2ED
331
487
  5
489
331
12D
  5
12D
331
17C
  5
17C
331
135
  5
135
331
184
  5
184
331
526
  5
528
331
263
  5
265
331
13D
  5
13D
331
4A7
  5
4A9
331
6AB
  5
6E9
331
5ED
  5
5F0
331
112
  5
112
331
11A
  5
11A
331
145
  5
145
331
26B
  5
273
331
273
  5
275
331
14D
  5
14D
331
4AF
  5
4DE
331
57E
  5
580
331
429
  5
42B
331
283
  5
2E2
331
16D
  5
16D
331
4DF
  5
4E1
331
4E7
  5
523
331
66C
  5
691
331
5FD
  5
5FF
331
69C
  5
69E
331
60D
  5
610
331
175
  5
175
331
126
  5
126
331
2E3
  5
2E5
331
480
  5
482
331
488
  5
48A
331
254
  5
256
331
12E
  5
12E
331
498
  5
49E
331
136
  5
136
331
185
  5
185
331
25C
  5
25F
331
4A0
  5
4A4
331
264
  5
26B
331
13E
  5
13E
331
18D
  5
18D
331
40A
  5
40C
331
527
  5
529
331
5BE
  5
5DA
331
61D
  5
66B
331
10B
  5
10B
331
113
  5
113
331
11B
  5
11B
331
26C
  5
274
331
146
  5
146
331
4A8
  5
4AE
331
57F
  5
581
331
274
  5
276
331
14E
  5
14E
331
4B0
  5
4DF
331
39B
  5
39D
331
42A
  5
42C
331
479
  5
47D
331
4E0
  5
4E2
331
16E
  5
16E
331
432
  5
435
331
6EC
  5
DF1
331
5F6
  5
5FC
331
5FE
  5
600
331
695
  5
697
331
69D
  5
69F
331
60E
  5
61D
331
2E4
  5
2E6
331
481
  5
483
331
127
  5
127
331
176
  5
176
331
489
  5
48B
331
255
  5
257
331
12F
  5
12F
331
2EC
  5
2EE
331
3F3
  5
404
331
186
  5
186
331
403
  5
405
331
137
  5
137
331
40B
  5
40E
331
528
  5
57A
331
18E
  5
18E
331
265
  5
26C
331
13F
  5
13F
331
6AD
  5
6EC
331
5EF
  5
5F1
331
114
  5
114
331
11C
  5
11C
331
147
  5
147
331
4A9
  5
4AF
331
275
  5
277
331
14F
  5
14F
331
1AE
  5
1AE
331
580
  5
5A0
331
5A0
  5
5A2
331
42B
  5
42D
331
47A
  5
47E
331
39C
  5
39F
331
4E1
  5
4E3
331
5F7
  5
5FD
331
696
  5
698
331
5FF
  5
601
331
69E
  5
6A0
331
607
  5
60D
331
120
  5
120
331
4E9
  5
524
331
177
  5
177
331
24E
  5
24E
331
128
  5
128
331
2E5
  5
2E7
331
482
  5
484
331
2ED
  5
2EF
331
48A
  5
48C
331
17F
  5
17F
331
256
  5
25C
331
130
  5
130
331
404
  5
406
331
138
  5
138
331
25E
  5
260
331
45B
  5
465
331
18F
  5
18F
331
40C
  5
40F
331
529
  5
57D
331
6A6
  5
6A9
331
637
  5
66C
331
115
  5
115
331
140
  5
140
331
11D
  5
11D
331
581
  5
5A1
331
276
  5
278
331
150
  5
150
331
39D
  5
3A7
331
42C
  5
42E
331
5A1
  5
5A3
331
27E
  5
282
331
4E2
  5
4E6
331
434
  5
436
331
5F0
  5
5F2
331
66F
  5
693
331
600
  5
602
331
697
  5
699
331
69F
  5
6A1
331
608
  5
60E
331
121
  5
121
331
2E6
  5
2E8
331
483
  5
485
331
129
  5
129
331
178
  5
178
331
24F
  5
24F
331
257
  5
25E
331
131
  5
131
331
2EE
  5
2F0
331
48B
  5
48D
331
405
  5
40A
331
188
  5
188
331
25F
  5
261
331
139
  5
139
331
2F6
  5
341
331
4A3
  5
4A5
331
610
  5
637
331
5D9
  5
5DB
331
116
  5
116
331
190
  5
190
331
11E
  5
11E
331
141
  5
141
331
149
  5
149
331
57A
  5
57E
331
277
  5
27E
331
474
  5
47A
331
151
  5
151
331
42D
  5
432
331
5A2
  5
5BE
331
4E3
  5
4E7
331
435
  5
438
331
5F1
  5
5F3
331
698
  5
69A
331
601
  5
603
331
122
  5
122
331
171
  5
171
331
179
  5
179
331
250
  5
250
331
12A
  5
12A
331
2E7
  5
2E9
331
484
  5
486
331
2EF
  5
2F1
331
48C
  5
48E
331
132
  5
132
331
181
  5
181
331
49C
  5
4A0
331
406
  5
40B
331
523
  5
525
331
13A
  5
13A
331
189
  5
189
331
260
  5
263
331
4A4
  5
4A6
331
317
  5
399
331
40E
  5
410
331
6A0
  5
6A2
331
6A8
  5
6AA
331
5DA
  5
5DC
  0
LAYOUT
  5
C77
102
{ACAD_REACTORS
330
C75
102
}
330
C75
100
AcDbPlotSettings
  1

  2
C:\Documents and Settings\佐藤\Application Data\Autodesk\AutoCAD LT 2005\R10\jpn\plotters\PEACOCK EPSON LP-6100.pc3
  4

  6

 40
0.0
 41
0.0
 42
0.0
 43
0.0
 44
0.0
 45
0.0
 46
0.0
 47
0.0
 48
0.0
 49
0.0
140
0.0
141
0.0
142
1.0
143
1.0
 70
  1712
 72
     0
 73
     0
 74
     0
  7
AutoCAD LT 98.ctb
 75
     0
147
1.0
 76
     0
 77
     2
 78
   300
148
0.0
149
0.0
100
AcDbLayout
  1
Model
 70
     1
 71
     0
 10
0.0
 20
0.0
 11
12.0
 21
9.0
 12
0.0
 22
0.0
 32
0.0
 14
0.0
 24
0.0
 34
0.0
 15
0.0
 25
0.0
 35
0.0
146
0.0
 13
0.0
 23
0.0
 33
0.0
 16
1.0
 26
0.0
 36
0.0
 17
0.0
 27
1.0
 37
0.0
 76
     0
330
18
  0
LAYOUT
  5
C78
102
{ACAD_REACTORS
330
C75
102
}
330
C75
100
AcDbPlotSettings
  1

  2
C:\Documents and Settings\佐藤\Application Data\Autodesk\AutoCAD LT 2005\R10\jpn\plotters\PEACOCK EPSON LP-6100.pc3
  4

  6

 40
0.0
 41
0.0
 42
0.0
 43
0.0
 44
0.0
 45
0.0
 46
0.0
 47
0.0
 48
0.0
 49
0.0
140
0.0
141
0.0
142
1.0
143
1.0
 70
   688
 72
     0
 73
     0
 74
     5
  7
AutoCAD LT 98.ctb
 75
    16
147
1.0
 76
     0
 77
     2
 78
   300
148
0.0
149
0.0
100
AcDbLayout
  1
レイアウト1
 70
     1
 71
     1
 10
0.0
 20
0.0
 11
420.0
 21
297.0
 12
0.0
 22
0.0
 32
0.0
 14
1.000000000000000E+20
 24
1.000000000000000E+20
 34
1.000000000000000E+20
 15
-1.000000000000000E+20
 25
-1.000000000000000E+20
 35
-1.000000000000000E+20
146
0.0
 13
0.0
 23
0.0
 33
0.0
 16
1.0
 26
0.0
 36
0.0
 17
0.0
 27
1.0
 37
0.0
 76
     0
330
15
  0
MLINESTYLE
  5
1C
102
{ACAD_REACTORS
330
1B
102
}
330
1B
100
AcDbMlineStyle
  2
STANDARD
 70
     0
  3

 62
   256
 51
90.0
 52
90.0
 71
     2
 49
0.5
 62
   256
  6
BYLAYER
 49
-0.5
 62
   256
  6
BYLAYER
  0
ACDBPLACEHOLDER
  5
C70
102
{ACAD_REACTORS
330
C6F
102
}
330
C6F
  0
ACAD_PROXY_OBJECT
  5
C74
102
{ACAD_REACTORS
330
C73
102
}
330
C73
100
AcDbProxyObject
 90
      499
 91
      503
 95
  2555929
 70
     0
 93
     1849
310
4214DD185B99185C992420000000000000F83F0000000000003E0FC00000000000004901028000000C1008070000C3001FDFF8000000C1003FBFF000000182007F7FE00000030400FEFFC00000060801FDFF8000000C1003FBFF000000182000000000000000C2020B0000001820100E000186003FBFF000000182007F7FE0
310
0000030400FEFFC00000060801FDFF8000000C1003FBFF000000182007F7FE0000003040000000000000012404160000003040201C00030C007F7FE00000030400FEFFC00000060801FDFF8000000C1003FBFF000000182007F7FE00000030400FEFFC000000608000
340
F
340
F
340
F
 94
        0
  0
DICTIONARYVAR
  5
F6A
102
{ACAD_REACTORS
330
192
102
}
330
192
100
DictionaryVariables
280
     0
  1
STANDARD
  0
DICTIONARYVAR
  5
193
102
{ACAD_REACTORS
330
192
102
}
330
192
100
DictionaryVariables
280
     0
  1
96
  0
ENDSEC
  0
EOF
