  0
SECTION
  2
HEADER
  9
$ACADVER
  1
AC1018
  9
$ACADMAINTVER
 70
     0
  9
$DWGCODEPAGE
  3
ANSI_932
  9
$INSBASE
 10
0.0
 20
0.0
 30
0.0
  9
$EXTMIN
 10
236.4886379941705
 20
171.6235136330668
 30
-0.0015258207003583
  9
$EXTMAX
 10
491.9065729289581
 20
367.0613775925545
 30
0.0000000349246037
  9
$LIMMIN
 10
0.0
 20
0.0
  9
$LIMMAX
 10
420.0
 20
297.0
  9
$ORTHOMODE
 70
     1
  9
$REGENMODE
 70
     1
  9
$FILLMODE
 70
     1
  9
$QTEXTMODE
 70
     0
  9
$MIRRTEXT
 70
     1
  9
$LTSCALE
 40
1.0
  9
$ATTMODE
 70
     1
  9
$TEXTSIZE
 40
3.0
  9
$TRACEWID
 40
1.0
  9
$TEXTSTYLE
  7
STYLE3
  9
$CLAYER
  8
寸法線
  9
$CELTYPE
  6
BYLAYER
  9
$CECOLOR
 62
   256
  9
$CELTSCALE
 40
1.0
  9
$DISPSILH
 70
     0
  9
$DIMSCALE
 40
1.0
  9
$DIMASZ
 40
2.5
  9
$DIMEXO
 40
0.0
  9
$DIMDLI
 40
3.75
  9
$DIMRND
 40
0.0
  9
$DIMDLE
 40
0.0
  9
$DIMEXE
 40
1.25
  9
$DIMTP
 40
0.0
  9
$DIMTM
 40
0.0
  9
$DIMTXT
 40
2.5
  9
$DIMCEN
 40
2.5
  9
$DIMTSZ
 40
0.0
  9
$DIMTOL
 70
     0
  9
$DIMLIM
 70
     0
  9
$DIMTIH
 70
     0
  9
$DIMTOH
 70
     0
  9
$DIMSE1
 70
     0
  9
$DIMSE2
 70
     0
  9
$DIMTAD
 70
     1
  9
$DIMZIN
 70
     8
  9
$DIMBLK
  1

  9
$DIMASO
 70
     1
  9
$DIMSHO
 70
     1
  9
$DIMPOST
  1

  9
$DIMAPOST
  1

  9
$DIMALT
 70
     0
  9
$DIMALTD
 70
     4
  9
$DIMALTF
 40
0.0394
  9
$DIMLFAC
 40
1.0
  9
$DIMTOFL
 70
     1
  9
$DIMTVP
 40
0.0
  9
$DIMTIX
 70
     0
  9
$DIMSOXD
 70
     0
  9
$DIMSAH
 70
     1
  9
$DIMBLK1
  1
OPEN
  9
$DIMBLK2
  1
OPEN
  9
$DIMSTYLE
  2
STYLE3
  9
$DIMCLRD
 70
     2
  9
$DIMCLRE
 70
     2
  9
$DIMCLRT
 70
     6
  9
$DIMTFAC
 40
1.0
  9
$DIMGAP
 40
0.625
  9
$DIMJUST
 70
     0
  9
$DIMSD1
 70
     0
  9
$DIMSD2
 70
     0
  9
$DIMTOLJ
 70
     1
  9
$DIMTZIN
 70
     0
  9
$DIMALTZ
 70
     0
  9
$DIMALTTZ
 70
     0
  9
$DIMUPT
 70
     0
  9
$DIMDEC
 70
     2
  9
$DIMTDEC
 70
     4
  9
$DIMALTU
 70
     8
  9
$DIMALTTD
 70
     4
  9
$DIMTXSTY
  7
STYLE3
  9
$DIMAUNIT
 70
     0
  9
$DIMADEC
 70
     0
  9
$DIMALTRND
 40
0.0
  9
$DIMAZIN
 70
     0
  9
$DIMDSEP
 70
    46
  9
$DIMATFIT
 70
     3
  9
$DIMFRAC
 70
     0
  9
$DIMLDRBLK
  1

  9
$DIMLUNIT
 70
     2
  9
$DIMLWD
 70
    -2
  9
$DIMLWE
 70
    -2
  9
$DIMTMOVE
 70
     0
  9
$LUNITS
 70
     2
  9
$LUPREC
 70
     4
  9
$SKETCHINC
 40
1.0
  9
$FILLETRAD
 40
1.0
  9
$AUNITS
 70
     0
  9
$AUPREC
 70
     0
  9
$MENU
  1
.
  9
$ELEVATION
 40
0.0
  9
$PELEVATION
 40
0.0
  9
$THICKNESS
 40
0.0
  9
$LIMCHECK
 70
     0
  9
$CHAMFERA
 40
0.5
  9
$CHAMFERB
 40
0.5
  9
$CHAMFERC
 40
20.0
  9
$CHAMFERD
 40
0.0
  9
$SKPOLY
 70
     0
  9
$TDCREATE
 40
2450753.462540625
  9
$TDUCREATE
 40
2450753.087540625
  9
$TDUPDATE
 40
2455371.400442708
  9
$TDUUPDATE
 40
2455371.025442708
  9
$TDINDWG
 40
1.2524404282
  9
$TDUSRTIMER
 40
1.2524404282
  9
$USRTIMER
 70
     1
  9
$ANGBASE
 50
0.0
  9
$ANGDIR
 70
     0
  9
$PDMODE
 70
     0
  9
$PDSIZE
 40
0.0
  9
$PLINEWID
 40
0.0
  9
$SPLFRAME
 70
     0
  9
$SPLINETYPE
 70
     6
  9
$SPLINESEGS
 70
     8
  9
$HANDSEED
  5
A53
  9
$SURFTAB1
 70
     6
  9
$SURFTAB2
 70
     6
  9
$SURFTYPE
 70
     6
  9
$SURFU
 70
     6
  9
$SURFV
 70
     6
  9
$UCSBASE
  2

  9
$UCSNAME
  2

  9
$UCSORG
 10
0.0
 20
0.0
 30
0.0
  9
$UCSXDIR
 10
1.0
 20
0.0
 30
0.0
  9
$UCSYDIR
 10
0.0
 20
1.0
 30
0.0
  9
$UCSORTHOREF
  2

  9
$UCSORTHOVIEW
 70
     0
  9
$UCSORGTOP
 10
0.0
 20
0.0
 30
0.0
  9
$UCSORGBOTTOM
 10
0.0
 20
0.0
 30
0.0
  9
$UCSORGLEFT
 10
0.0
 20
0.0
 30
0.0
  9
$UCSORGRIGHT
 10
0.0
 20
0.0
 30
0.0
  9
$UCSORGFRONT
 10
0.0
 20
0.0
 30
0.0
  9
$UCSORGBACK
 10
0.0
 20
0.0
 30
0.0
  9
$PUCSBASE
  2

  9
$PUCSNAME
  2

  9
$PUCSORG
 10
0.0
 20
0.0
 30
0.0
  9
$PUCSXDIR
 10
1.0
 20
0.0
 30
0.0
  9
$PUCSYDIR
 10
0.0
 20
1.0
 30
0.0
  9
$PUCSORTHOREF
  2

  9
$PUCSORTHOVIEW
 70
     0
  9
$PUCSORGTOP
 10
0.0
 20
0.0
 30
0.0
  9
$PUCSORGBOTTOM
 10
0.0
 20
0.0
 30
0.0
  9
$PUCSORGLEFT
 10
0.0
 20
0.0
 30
0.0
  9
$PUCSORGRIGHT
 10
0.0
 20
0.0
 30
0.0
  9
$PUCSORGFRONT
 10
0.0
 20
0.0
 30
0.0
  9
$PUCSORGBACK
 10
0.0
 20
0.0
 30
0.0
  9
$USERI1
 70
     0
  9
$USERI2
 70
     0
  9
$USERI3
 70
     0
  9
$USERI4
 70
     0
  9
$USERI5
 70
     0
  9
$USERR1
 40
0.0
  9
$USERR2
 40
0.0
  9
$USERR3
 40
0.0
  9
$USERR4
 40
0.0
  9
$USERR5
 40
0.0
  9
$WORLDVIEW
 70
     1
  9
$SHADEDGE
 70
     3
  9
$SHADEDIF
 70
    70
  9
$TILEMODE
 70
     1
  9
$MAXACTVP
 70
    48
  9
$PINSBASE
 10
0.0
 20
0.0
 30
0.0
  9
$PLIMCHECK
 70
     0
  9
$PEXTMIN
 10
1.000000000000000E+20
 20
1.000000000000000E+20
 30
1.000000000000000E+20
  9
$PEXTMAX
 10
-1.000000000000000E+20
 20
-1.000000000000000E+20
 30
-1.000000000000000E+20
  9
$PLIMMIN
 10
0.0
 20
0.0
  9
$PLIMMAX
 10
420.0
 20
297.0
  9
$UNITMODE
 70
     0
  9
$VISRETAIN
 70
     1
  9
$PLINEGEN
 70
     0
  9
$PSLTSCALE
 70
     1
  9
$TREEDEPTH
 70
  3020
  9
$CMLSTYLE
  2
STANDARD
  9
$CMLJUST
 70
     0
  9
$CMLSCALE
 40
20.0
  9
$PROXYGRAPHICS
 70
     1
  9
$MEASUREMENT
 70
     1
  9
$CELWEIGHT
370
    -1
  9
$ENDCAPS
280
     0
  9
$JOINSTYLE
280
     0
  9
$LWDISPLAY
290
     0
  9
$INSUNITS
 70
     0
  9
$HYPERLINKBASE
  1

  9
$STYLESHEET
  1
AutoCAD LT 98.ctb
  9
$XEDIT
290
     1
  9
$CEPSNTYPE
380
     0
  9
$PSTYLEMODE
290
     1
  9
$FINGERPRINTGUID
  2
{F9A3FCA2-4493-46A6-9475-0EA29279C0D1}
  9
$VERSIONGUID
  2
{468C82E3-87D7-4A29-B596-A27C42C2924A}
  9
$EXTNAMES
290
     1
  9
$PSVPSCALE
 40
0.0
  9
$OLESTARTUP
290
     0
  9
$SORTENTS
280
    96
  9
$INDEXCTL
280
     0
  9
$HIDETEXT
280
     0
  9
$XCLIPFRAME
290
     0
  9
$HALOGAP
280
     0
  9
$OBSCOLOR
 70
   257
  9
$OBSLTYPE
280
     0
  9
$INTERSECTIONDISPLAY
280
     0
  9
$INTERSECTIONCOLOR
 70
   257
  9
$DIMASSOC
280
     1
  9
$PROJECTNAME
  1

  0
ENDSEC
  0
SECTION
  2
CLASSES
  0
CLASS
  1
DICTIONARYVAR
  2
AcDbDictionaryVar
  3
ObjectDBX Classes
 90
        0
 91
        2
280
     0
281
     0
  0
CLASS
  1
HATCH
  2
AcDbHatch
  3
ObjectDBX Classes
 90
        0
 91
        1
280
     0
281
     1
  0
CLASS
  1
ACDBDICTIONARYWDFLT
  2
AcDbDictionaryWithDefault
  3
ObjectDBX Classes
 90
        0
 91
        1
280
     0
281
     0
  0
CLASS
  1
TABLESTYLE
  2
AcDbTableStyle
  3
ObjectDBX Classes
 90
     2047
 91
        1
280
     0
281
     0
  0
CLASS
  1
SORTENTSTABLE
  2
AcDbSortentsTable
  3
ObjectDBX Classes
 90
        0
 91
        1
280
     0
281
     0
  0
ENDSEC
  0
SECTION
  2
TABLES
  0
TABLE
  2
VPORT
  5
8
330
0
100
AcDbSymbolTable
 70
     2
  0
VPORT
  5
A52
330
8
100
AcDbSymbolTableRecord
100
AcDbViewportTableRecord
  2
*Active
 70
     0
 10
0.0
 20
0.0
 11
1.0
 21
1.0
 12
364.1976054615643
 22
269.3424456128107
 13
0.0
 23
0.0
 14
10.0
 24
10.0
 15
10.0
 25
10.0
 16
0.0
 26
0.0
 36
1.0
 17
0.0
 27
0.0
 37
0.0
 40
196.9240834572785
 41
1.530456852791878
 42
50.0
 43
0.0
 44
0.0
 50
0.0
 51
0.0
 71
     0
 72
   100
 73
     1
 74
     1
 75
     0
 76
     0
 77
     0
 78
     0
281
     0
 65
     1
110
0.0
120
0.0
130
0.0
111
1.0
121
0.0
131
0.0
112
0.0
122
1.0
132
0.0
 79
     0
146
0.0
  0
ENDTAB
  0
TABLE
  2
LTYPE
  5
5
330
0
100
AcDbSymbolTable
 70
    12
  0
LTYPE
  5
12
330
5
100
AcDbSymbolTableRecord
100
AcDbLinetypeTableRecord
  2
BYBLOCK
 70
     0
  3

 72
    65
 73
     0
 40
0.0
  0
LTYPE
  5
13
330
5
100
AcDbSymbolTableRecord
100
AcDbLinetypeTableRecord
  2
BYLAYER
 70
     0
  3

 72
    65
 73
     0
 40
0.0
  0
LTYPE
  5
14
330
5
100
AcDbSymbolTableRecord
100
AcDbLinetypeTableRecord
  2
CONTINUOUS
 70
     0
  3
Solid line
 72
    65
 73
     0
 40
0.0
  0
LTYPE
  5
22
330
5
100
AcDbSymbolTableRecord
100
AcDbLinetypeTableRecord
  2
CENTER2
 70
     0
  3
Center (.5x) ___ _ ___ _ ___ _ ___ _ ___ _ ___
 72
    65
 73
     4
 40
28.575
 49
19.05
 74
     0
 49
-3.174999999999999
 74
     0
 49
3.174999999999999
 74
     0
 49
-3.174999999999999
 74
     0
  0
ENDTAB
  0
TABLE
  2
LAYER
  5
2
330
0
100
AcDbSymbolTable
 70
    13
  0
LAYER
  5
E
330
2
100
AcDbSymbolTableRecord
100
AcDbLayerTableRecord
  2
0
 70
     0
 62
     7
  6
CONTINUOUS
370
    -3
390
83B
  0
LAYER
  5
25
330
2
100
AcDbSymbolTableRecord
100
AcDbLayerTableRecord
  2
外形線
 70
     0
 62
     7
  6
CONTINUOUS
370
    -3
390
83B
  0
LAYER
  5
26
330
2
100
AcDbSymbolTableRecord
100
AcDbLayerTableRecord
  2
寸法線
 70
     0
 62
     2
  6
CONTINUOUS
370
    -3
390
83B
  0
LAYER
  5
27
330
2
100
AcDbSymbolTableRecord
100
AcDbLayerTableRecord
  2
中心線
 70
     0
 62
     4
  6
CENTER2
370
    -3
390
83B
  0
LAYER
  5
2A
330
2
100
AcDbSymbolTableRecord
100
AcDbLayerTableRecord
  2
ﾊｯﾁﾝｸ
 70
     0
 62
     6
  6
CONTINUOUS
370
    -3
390
83B
  0
LAYER
  5
2B
330
2
100
AcDbSymbolTableRecord
100
AcDbLayerTableRecord
  2
文字
 70
     0
 62
     6
  6
CONTINUOUS
370
    -3
390
83B
  0
LAYER
  5
53
330
2
100
AcDbSymbolTableRecord
100
AcDbLayerTableRecord
  2
DEFPOINTS
 70
     0
 62
     7
  6
CONTINUOUS
290
     0
370
    -3
390
83B
  0
LAYER
  5
A5
330
2
100
AcDbSymbolTableRecord
100
AcDbLayerTableRecord
  2
C
 70
     0
 62
     7
  6
CONTINUOUS
370
    -3
390
83B
  0
ENDTAB
  0
TABLE
  2
STYLE
  5
3
330
0
100
AcDbSymbolTable
 70
     6
  0
STYLE
  5
F
330
3
100
AcDbSymbolTableRecord
100
AcDbTextStyleTableRecord
  2
STANDARD
 70
     0
 40
0.0
 41
1.0
 50
0.0
 71
     0
 42
2.5
  3
txt
  4

  0
STYLE
  5
3F
330
3
100
AcDbSymbolTableRecord
100
AcDbTextStyleTableRecord
  2
STYLE3
 70
     0
 40
0.0
 41
1.0
 50
0.0
 71
     0
 42
3.0
  3
romans.shx
  4
bigfont.shx
  0
ENDTAB
  0
TABLE
  2
VIEW
  5
6
330
0
100
AcDbSymbolTable
 70
     0
  0
ENDTAB
  0
TABLE
  2
UCS
  5
7
330
0
100
AcDbSymbolTable
 70
     0
  0
ENDTAB
  0
TABLE
  2
APPID
  5
9
330
0
100
AcDbSymbolTable
 70
     2
  0
APPID
  5
10
330
9
100
AcDbSymbolTableRecord
100
AcDbRegAppTableRecord
  2
ACAD
 70
     0
  0
APPID
  5
956
330
9
100
AcDbSymbolTableRecord
100
AcDbRegAppTableRecord
  2
ACAD_PSEXT
 70
     0
  0
ENDTAB
  0
TABLE
  2
DIMSTYLE
  5
A
330
0
100
AcDbSymbolTable
 70
     4
100
AcDbDimStyleTable
 71
     1
340
8F
  0
DIMSTYLE
105
1D
330
A
100
AcDbSymbolTableRecord
100
AcDbDimStyleTableRecord
  2
STANDARD
 70
     0
 41
2.5
 42
0.625
 43
3.75
 44
1.25
 73
     0
 74
     0
 77
     1
 78
     8
140
2.5
141
2.5
143
0.0394
147
0.625
171
     4
172
     1
273
     8
274
     4
277
     6
340
F
  0
DIMSTYLE
105
8F
102
{ACAD_REACTORS
330
341
330
74E
330
75B
330
79C
330
9DF
102
}
330
A
100
AcDbSymbolTableRecord
100
AcDbDimStyleTableRecord
  2
STYLE3
 70
     0
 41
2.5
 42
0.0
 43
3.75
 44
1.25
 73
     0
 74
     0
 77
     1
 78
     8
140
2.5
141
2.5
143
0.0394
147
0.625
171
     4
172
     1
173
     1
176
     2
177
     2
178
     6
271
     1
273
     8
274
     4
340
3F
341
45
343
45
344
45
  0
ENDTAB
  0
TABLE
  2
BLOCK_RECORD
  5
1
330
0
100
AcDbSymbolTable
 70
    12
  0
BLOCK_RECORD
  5
18
102
{ACAD_XDICTIONARY
360
929
102
}
330
1
100
AcDbSymbolTableRecord
100
AcDbBlockTableRecord
  2
*MODEL_SPACE
340
842
  0
BLOCK_RECORD
  5
15
330
1
100
AcDbSymbolTableRecord
100
AcDbBlockTableRecord
  2
*PAPER_SPACE
340
843
  0
BLOCK_RECORD
  5
45
330
1
100
AcDbSymbolTableRecord
100
AcDbBlockTableRecord
  2
_OPEN
340
0
102
{BLKREFS
331
39C
331
39D
331
57E
331
57F
331
5DA
331
5DB
331
78A
331
78B
331
9A0
331
9A1
331
9BB
331
9BC
331
9CD
331
9CE
331
9F1
331
9F2
331
9FA
331
9FB
102
}
  0
BLOCK_RECORD
  5
335
330
1
100
AcDbSymbolTableRecord
100
AcDbBlockTableRecord
  2
*D3
340
0
  0
BLOCK_RECORD
  5
443
330
1
100
AcDbSymbolTableRecord
100
AcDbBlockTableRecord
  2
六角ﾈｼ3
340
0
102
{BLKREFS
331
44F
102
}
  0
BLOCK_RECORD
  5
51C
330
1
100
AcDbSymbolTableRecord
100
AcDbBlockTableRecord
  2
六角ﾈｼ
340
0
102
{BLKREFS
331
523
102
}
  0
BLOCK_RECORD
  5
742
330
1
100
AcDbSymbolTableRecord
100
AcDbBlockTableRecord
  2
*D6
340
0
  0
BLOCK_RECORD
  5
74F
330
1
100
AcDbSymbolTableRecord
100
AcDbBlockTableRecord
  2
*D7
340
0
  0
BLOCK_RECORD
  5
790
330
1
100
AcDbSymbolTableRecord
100
AcDbBlockTableRecord
  2
*D8
340
0
  0
BLOCK_RECORD
  5
9E0
330
1
100
AcDbSymbolTableRecord
100
AcDbBlockTableRecord
  2
*D10
340
0
  0
ENDTAB
  0
ENDSEC
  0
SECTION
  2
BLOCKS
  0
BLOCK
  5
19
330
18
100
AcDbEntity
  8
0
100
AcDbBlockBegin
  2
*MODEL_SPACE
 70
     0
 10
0.0
 20
0.0
 30
0.0
  3
*MODEL_SPACE
  1

  0
ENDBLK
  5
1A
330
18
100
AcDbEntity
  8
0
100
AcDbBlockEnd
  0
BLOCK
  5
16
330
15
100
AcDbEntity
 67
     1
  8
0
100
AcDbBlockBegin
  2
*PAPER_SPACE
 70
     0
 10
0.0
 20
0.0
 30
0.0
  3
*PAPER_SPACE
  1

  0
ENDBLK
  5
17
330
15
100
AcDbEntity
 67
     1
  8
0
100
AcDbBlockEnd
  0
BLOCK
  5
46
330
45
100
AcDbEntity
  8
0
100
AcDbBlockBegin
  2
_OPEN
 70
     0
 10
0.0
 20
0.0
 30
0.0
  3
_OPEN
  1

  0
LINE
  5
47
330
45
100
AcDbEntity
  8
0
  6
ByBlock
 62
     0
100
AcDbLine
 10
-1.0
 20
0.1666666666666666
 30
0.0
 11
0.0
 21
0.0
 31
0.0
  0
LINE
  5
48
330
45
100
AcDbEntity
  8
0
  6
ByBlock
 62
     0
100
AcDbLine
 10
0.0
 20
0.0
 30
0.0
 11
-1.0
 21
-0.1666666666666666
 31
0.0
  0
LINE
  5
49
330
45
100
AcDbEntity
  8
0
  6
ByBlock
 62
     0
100
AcDbLine
 10
0.0
 20
0.0
 30
0.0
 11
-1.0
 21
0.0
 31
0.0
  0
ENDBLK
  5
4A
330
45
100
AcDbEntity
  8
0
100
AcDbBlockEnd
  0
BLOCK
  5
5A7
330
335
100
AcDbEntity
  8
0
100
AcDbBlockBegin
  2
*D3
 70
     1
 10
0.0
 20
0.0
 30
0.0
  3
*D3
  1

  0
LINE
  5
99D
330
335
100
AcDbEntity
  8
外形線
 62
     2
370
    -2
100
AcDbLine
 10
275.1698217644248
 20
241.8903194426192
 30
0.0
 11
275.1698217644248
 21
272.0453878437091
 31
0.0
  0
LINE
  5
99E
330
335
100
AcDbEntity
  8
外形線
 62
     2
370
    -2
100
AcDbLine
 10
345.1698217644248
 20
242.997120746615
 30
0.0
 11
345.1698217644248
 21
272.0453878437091
 31
0.0
  0
LINE
  5
99F
330
335
100
AcDbEntity
  8
外形線
 62
     2
370
    -2
100
AcDbLine
 10
277.6698217644248
 20
270.7953878437091
 30
0.0
 11
342.6698217644248
 21
270.7953878437091
 31
0.0
  0
INSERT
  5
9A0
330
335
100
AcDbEntity
  8
外形線
 62
     2
370
    -2
100
AcDbBlockReference
  2
_OPEN
 10
275.1698217644248
 20
270.7953878437091
 30
0.0
 41
2.5
 42
2.5
 43
2.5
 50
180.0
  0
INSERT
  5
9A1
330
335
100
AcDbEntity
  8
外形線
 62
     2
370
    -2
100
AcDbBlockReference
  2
_OPEN
 10
345.1698217644248
 20
270.7953878437091
 30
0.0
 41
2.5
 42
2.5
 43
2.5
  0
MTEXT
  5
9A2
330
335
100
AcDbEntity
  8
外形線
 62
     6
100
AcDbMText
 10
310.1698217644248
 20
272.6703878437092
 30
0.0
 40
2.5
 41
0.0
 71
     5
 72
     1
  1
\A1;70
  7
STYLE3
 73
     1
 44
1.0
  0
POINT
  5
9A3
330
335
100
AcDbEntity
  8
DEFPOINTS
 62
     0
100
AcDbPoint
 10
275.1698217644248
 20
241.8903194426192
 30
0.0
  0
POINT
  5
9A4
330
335
100
AcDbEntity
  8
DEFPOINTS
 62
     0
100
AcDbPoint
 10
345.1698217644248
 20
242.997120746615
 30
0.0
  0
POINT
  5
9A5
330
335
100
AcDbEntity
  8
DEFPOINTS
 62
     0
100
AcDbPoint
 10
345.1698217644248
 20
270.7953878437091
 30
0.0
  0
ENDBLK
  5
5B1
330
335
100
AcDbEntity
  8
0
100
AcDbBlockEnd
  0
BLOCK
  5
44D
330
443
100
AcDbEntity
  8
0
100
AcDbBlockBegin
  2
六角ﾈｼ3
 70
     0
 10
0.0
 20
0.0
 30
0.0
  3
六角ﾈｼ3
  1

  0
LINE
  5
444
330
443
100
AcDbEntity
  8
外形線
100
AcDbLine
 10
0.0000000000000568
 20
-5.200000000000017
 30
0.0
 11
2.499999999999886
 21
-5.199999999999988
 31
0.0
  0
LINE
  5
445
330
443
100
AcDbEntity
  8
外形線
100
AcDbLine
 10
2.500000000000397
 20
-2.600000000000022
 30
0.0
 11
0.0000000000001137
 21
-2.599999999999965
 31
0.0
  0
LINE
  5
446
330
443
100
AcDbEntity
  8
外形線
100
AcDbLine
 10
2.500000000000056
 20
2.600000000000022
 30
0.0
 11
-0.0000000000000568
 21
2.600000000000022
 31
0.0
  0
LINE
  5
447
330
443
100
AcDbEntity
  8
外形線
100
AcDbLine
 10
-0.0000000000000568
 20
5.199999999999988
 30
0.0
 11
2.499999999999886
 21
5.199999999999988
 31
0.0
  0
LINE
  5
448
330
443
100
AcDbEntity
  8
外形線
100
AcDbLine
 10
-0.0000000000000568
 20
5.199999999999988
 30
0.0
 11
0.0000000000000568
 21
-5.200000000000017
 31
0.0
  0
ARC
  5
449
330
443
100
AcDbEntity
  8
外形線
100
AcDbCircle
 10
1.059999999999774
 20
3.899999999999863
 30
0.0
 40
1.940000000000166
100
AcDbArc
 50
317.9249779491655
 51
42.07502205084422
  0
ARC
  5
44A
330
443
100
AcDbEntity
  8
外形線
100
AcDbCircle
 10
-4.010000000002719
 20
-0.0000000000005116
 30
0.0
 40
7.010000000002722
100
AcDbArc
 50
338.2289458906957
 51
21.77105410931329
  0
ARC
  5
44B
330
443
100
AcDbEntity
  8
外形線
100
AcDbCircle
 10
1.059999999999774
 20
-3.899999999999863
 30
0.0
 40
1.940000000000166
100
AcDbArc
 50
317.9249779491558
 51
42.07502205083457
  0
LINE
  5
44C
330
443
100
AcDbEntity
  8
外形線
100
AcDbLine
 10
2.999999999999943
 20
3.899999999999863
 30
0.0
 11
2.999999999999943
 21
-3.899999999999863
 31
0.0
  0
ENDBLK
  5
44E
330
443
100
AcDbEntity
  8
0
100
AcDbBlockEnd
  0
BLOCK
  5
521
330
51C
100
AcDbEntity
  8
0
100
AcDbBlockBegin
  2
六角ﾈｼ
 70
     0
 10
0.0
 20
0.0
 30
0.0
  3
六角ﾈｼ
  1

  0
LINE
  5
51D
330
51C
100
AcDbEntity
  8
外形線
 48
0.8
100
AcDbLine
 10
-0.0000000000000568
 20
4.499999999999943
 30
0.0
 11
2.737599573181626
 21
4.499999999999943
 31
0.0
  0
ARC
  5
51E
330
51C
100
AcDbEntity
  8
外形線
100
AcDbCircle
 10
-4.010000000002662
 20
2.599999999999511
 30
0.0
 40
7.010000000002722
100
AcDbArc
 50
338.2289458906957
 51
15.72624379279067
  0
ARC
  5
51F
330
51C
100
AcDbEntity
  8
外形線
100
AcDbCircle
 10
-4.010000000002662
 20
-2.599999999999511
 30
0.0
 40
7.010000000002722
100
AcDbArc
 50
344.2737562072088
 51
21.77105410930435
  0
LINE
  5
520
330
51C
100
AcDbEntity
  8
外形線
 48
0.8
100
AcDbLine
 10
0.0000000000001705
 20
-4.5
 30
0.0
 11
2.737599573181569
 21
-4.5
 31
0.0
  0
ENDBLK
  5
522
330
51C
100
AcDbEntity
  8
0
100
AcDbBlockEnd
  0
BLOCK
  5
743
330
742
100
AcDbEntity
  8
0
100
AcDbBlockBegin
  2
*D6
 70
     1
 10
0.0
 20
0.0
 30
0.0
  3
*D6
  1

  0
LINE
  5
9B8
330
742
100
AcDbEntity
  8
外形線
 62
     2
370
    -2
100
AcDbLine
 10
414.3254397866726
 20
299.0552931133894
 30
0.0
 11
414.3254397866726
 21
286.8899616465345
 31
0.0
  0
LINE
  5
9B9
330
742
100
AcDbEntity
  8
外形線
 62
     2
370
    -2
100
AcDbLine
 10
432.3254397866726
 20
299.0552931133894
 30
0.0
 11
432.3254397866726
 21
286.8899616465345
 31
0.0
  0
LINE
  5
9BA
330
742
100
AcDbEntity
  8
外形線
 62
     2
370
    -2
100
AcDbLine
 10
416.8254397866726
 20
288.1399616465345
 30
0.0
 11
429.8254397866726
 21
288.1399616465345
 31
0.0
  0
INSERT
  5
9BB
330
742
100
AcDbEntity
  8
外形線
 62
     2
370
    -2
100
AcDbBlockReference
  2
_OPEN
 10
414.3254397866726
 20
288.1399616465345
 30
0.0
 41
2.5
 42
2.5
 43
2.5
 50
180.0
  0
INSERT
  5
9BC
330
742
100
AcDbEntity
  8
外形線
 62
     2
370
    -2
100
AcDbBlockReference
  2
_OPEN
 10
432.3254397866726
 20
288.1399616465345
 30
0.0
 41
2.5
 42
2.5
 43
2.5
  0
MTEXT
  5
9BD
330
742
100
AcDbEntity
  8
外形線
 62
     6
100
AcDbMText
 10
423.3254397866726
 20
290.0149616465345
 30
0.0
 40
2.5
 41
0.0
 71
     5
 72
     1
  1
\A1;18
  7
STYLE3
 73
     1
 44
1.0
  0
POINT
  5
9BE
330
742
100
AcDbEntity
  8
DEFPOINTS
 62
     0
100
AcDbPoint
 10
414.3254397866726
 20
299.0552931133894
 30
0.0
  0
POINT
  5
9BF
330
742
100
AcDbEntity
  8
DEFPOINTS
 62
     0
100
AcDbPoint
 10
432.3254397866726
 20
299.0552931133894
 30
0.0
  0
POINT
  5
9C0
330
742
100
AcDbEntity
  8
DEFPOINTS
 62
     0
100
AcDbPoint
 10
432.3254397866726
 20
288.1399616465345
 30
0.0
  0
ENDBLK
  5
74D
330
742
100
AcDbEntity
  8
0
100
AcDbBlockEnd
  0
BLOCK
  5
750
330
74F
100
AcDbEntity
  8
0
100
AcDbBlockBegin
  2
*D7
 70
     1
 10
0.0
 20
0.0
 30
0.0
  3
*D7
  1

  0
LINE
  5
9CA
330
74F
100
AcDbEntity
  8
外形線
 62
     2
370
    -2
100
AcDbLine
 10
432.3254397866731
 20
329.0552931133894
 30
0.0
 11
442.3181946782149
 21
329.0552931133894
 31
0.0
  0
LINE
  5
9CB
330
74F
100
AcDbEntity
  8
外形線
 62
     2
370
    -2
100
AcDbLine
 10
432.3254397866726
 20
299.0552931133894
 30
0.0
 11
442.3181946782149
 21
299.0552931133894
 31
0.0
  0
LINE
  5
9CC
330
74F
100
AcDbEntity
  8
外形線
 62
     2
370
    -2
100
AcDbLine
 10
441.0681946782148
 20
326.5552931133894
 30
0.0
 11
441.0681946782148
 21
301.5552931133894
 31
0.0
  0
INSERT
  5
9CD
330
74F
100
AcDbEntity
  8
外形線
 62
     2
370
    -2
100
AcDbBlockReference
  2
_OPEN
 10
441.0681946782148
 20
329.0552931133894
 30
0.0
 41
2.5
 42
2.5
 43
2.5
 50
90.0
  0
INSERT
  5
9CE
330
74F
100
AcDbEntity
  8
外形線
 62
     2
370
    -2
100
AcDbBlockReference
  2
_OPEN
 10
441.0681946782148
 20
299.0552931133894
 30
0.0
 41
2.5
 42
2.5
 43
2.5
 50
270.0
  0
MTEXT
  5
9CF
330
74F
100
AcDbEntity
  8
外形線
 62
     6
100
AcDbMText
 10
439.1931946782148
 20
314.0552931133896
 30
0.0
 40
2.5
 41
0.0
 71
     5
 72
     1
  1
\A1;30
  7
STYLE3
 11
0.0000000000000001
 21
1.0
 31
0.0
 73
     1
 44
1.0
  0
POINT
  5
9D0
330
74F
100
AcDbEntity
  8
DEFPOINTS
 62
     0
100
AcDbPoint
 10
432.3254397866731
 20
329.0552931133894
 30
0.0
  0
POINT
  5
9D1
330
74F
100
AcDbEntity
  8
DEFPOINTS
 62
     0
100
AcDbPoint
 10
432.3254397866726
 20
299.0552931133894
 30
0.0
  0
POINT
  5
9D2
330
74F
100
AcDbEntity
  8
DEFPOINTS
 62
     0
100
AcDbPoint
 10
441.0681946782148
 20
299.0552931133894
 30
0.0
  0
ENDBLK
  5
75A
330
74F
100
AcDbEntity
  8
0
100
AcDbBlockEnd
  0
BLOCK
  5
7A7
330
790
100
AcDbEntity
  8
0
100
AcDbBlockBegin
  2
*D8
 70
     1
 10
0.0
 20
0.0
 30
0.0
  3
*D8
  1

  0
LINE
  5
9F7
330
790
100
AcDbEntity
  8
寸法線
 62
     2
370
    -2
100
AcDbLine
 10
422.8254397866726
 20
264.590319442619
 30
0.0
 11
449.3481239351175
 21
264.590319442619
 31
0.0
  0
LINE
  5
9F8
330
790
100
AcDbEntity
  8
寸法線
 62
     2
370
    -2
100
AcDbLine
 10
422.8254397866725
 20
204.3903194426192
 30
0.0
 11
449.3481239351175
 21
204.3903194426191
 31
0.0
  0
LINE
  5
9F9
330
790
100
AcDbEntity
  8
寸法線
 62
     2
370
    -2
100
AcDbLine
 10
448.0981239351175
 20
262.090319442619
 30
0.0
 11
448.0981239351175
 21
206.8903194426191
 31
0.0
  0
INSERT
  5
9FA
330
790
100
AcDbEntity
  8
寸法線
 62
     2
370
    -2
100
AcDbBlockReference
  2
_OPEN
 10
448.0981239351175
 20
264.590319442619
 30
0.0
 41
2.5
 42
2.5
 43
2.5
 50
90.0
  0
INSERT
  5
9FB
330
790
100
AcDbEntity
  8
寸法線
 62
     2
370
    -2
100
AcDbBlockReference
  2
_OPEN
 10
448.0981239351175
 20
204.3903194426191
 30
0.0
 41
2.5
 42
2.5
 43
2.5
 50
270.0
  0
MTEXT
  5
9FC
330
790
100
AcDbEntity
  8
寸法線
 62
     6
100
AcDbMText
 10
446.2231239351175
 20
234.4903194426191
 30
0.0
 40
2.5
 41
0.0
 71
     5
 72
     1
  1
\A1;50～100
  7
STYLE3
 11
0.0000000000000001
 21
1.0
 31
0.0
 73
     1
 44
1.0
  0
POINT
  5
9FD
330
790
100
AcDbEntity
  8
DEFPOINTS
 62
     0
100
AcDbPoint
 10
422.8254397866726
 20
264.590319442619
 30
0.0
  0
POINT
  5
9FE
330
790
100
AcDbEntity
  8
DEFPOINTS
 62
     0
100
AcDbPoint
 10
422.8254397866725
 20
204.3903194426192
 30
0.0
  0
POINT
  5
9FF
330
790
100
AcDbEntity
  8
DEFPOINTS
 62
     0
100
AcDbPoint
 10
448.0981239351175
 20
204.3903194426191
 30
0.0
  0
ENDBLK
  5
7B1
330
790
100
AcDbEntity
  8
0
100
AcDbBlockEnd
  0
BLOCK
  5
9EA
330
9E0
100
AcDbEntity
  8
0
100
AcDbBlockBegin
  2
*D10
 70
     1
 10
0.0
 20
0.0
 30
0.0
  3
*D10
  1

  0
LINE
  5
9EE
330
9E0
100
AcDbEntity
  8
寸法線
 62
     2
370
    -2
100
AcDbLine
 10
440.8300309153443
 20
264.590319442619
 30
0.0
 11
443.1235768547258
 21
264.590319442619
 31
0.0
  0
LINE
  5
9EF
330
9E0
100
AcDbEntity
  8
寸法線
 62
     2
370
    -2
100
AcDbLine
 10
434.8848926367826
 20
235.890319442619
 30
0.0
 11
443.1235768547258
 21
235.890319442619
 31
0.0
  0
LINE
  5
9F0
330
9E0
100
AcDbEntity
  8
寸法線
 62
     2
370
    -2
100
AcDbLine
 10
441.8735768547258
 20
262.090319442619
 30
0.0
 11
441.8735768547258
 21
238.390319442619
 31
0.0
  0
INSERT
  5
9F1
330
9E0
100
AcDbEntity
  8
寸法線
 62
     2
370
    -2
100
AcDbBlockReference
  2
_OPEN
 10
441.8735768547258
 20
264.590319442619
 30
0.0
 41
2.5
 42
2.5
 43
2.5
 50
90.0
  0
INSERT
  5
9F2
330
9E0
100
AcDbEntity
  8
寸法線
 62
     2
370
    -2
100
AcDbBlockReference
  2
_OPEN
 10
441.8735768547258
 20
235.890319442619
 30
0.0
 41
2.5
 42
2.5
 43
2.5
 50
270.0
  0
MTEXT
  5
9F3
330
9E0
100
AcDbEntity
  8
寸法線
 62
     6
100
AcDbMText
 10
439.9985768547257
 20
250.2403194426191
 30
0.0
 40
2.5
 41
0.0
 71
     5
 72
     1
  1
\A1;28.7
  7
STYLE3
 11
0.0000000000000001
 21
1.0
 31
0.0
 73
     1
 44
1.0
  0
POINT
  5
9F4
330
9E0
100
AcDbEntity
  8
DEFPOINTS
 62
     0
100
AcDbPoint
 10
440.8300309153443
 20
264.590319442619
 30
0.0
  0
POINT
  5
9F5
330
9E0
100
AcDbEntity
  8
DEFPOINTS
 62
     0
100
AcDbPoint
 10
434.8848926367826
 20
235.890319442619
 30
0.0
  0
POINT
  5
9F6
330
9E0
100
AcDbEntity
  8
DEFPOINTS
 62
     0
100
AcDbPoint
 10
441.8735768547258
 20
235.890319442619
 30
0.0
  0
ENDBLK
  5
9EB
330
9E0
100
AcDbEntity
  8
0
100
AcDbBlockEnd
  0
ENDSEC
  0
SECTION
  2
ENTITIES
  0
LWPOLYLINE
  5
10B
330
18
100
AcDbEntity
  8
C
100
AcDbPolyline
 90
        5
 70
     0
 43
0.4
 10
236.6915604445414
 20
366.8501752555372
 10
491.6915604445414
 20
366.8501752555372
 10
491.6915604445414
 20
171.8501752555372
 10
236.6915604445414
 20
171.8501752555372
 10
236.6915604445414
 20
366.8501752555372
  0
LINE
  5
16A
330
18
100
AcDbEntity
  8
中心線
 48
0.5
100
AcDbLine
 10
249.8301201449386
 20
235.8903194426192
 30
0.0
 11
434.8848926367826
 21
235.890319442619
 31
0.0
  0
LINE
  5
16C
102
{ACAD_REACTORS
330
317
102
}
330
18
100
AcDbEntity
  8
外形線
100
AcDbLine
 10
315.1698217644248
 20
245.8496332662726
 30
0.0
 11
315.1698217644248
 21
239.8903194426191
 31
0.0
  0
LINE
  5
16D
102
{ACAD_REACTORS
330
317
102
}
330
18
100
AcDbEntity
  8
外形線
100
AcDbLine
 10
335.1698217644248
 20
244.8715433568373
 30
0.0
 11
335.1698217644249
 21
237.8903194426191
 31
0.0
  0
LINE
  5
16E
330
18
100
AcDbEntity
  8
外形線
100
AcDbLine
 10
345.1698217644248
 20
242.997120746615
 30
0.0
 11
345.1698217644248
 21
228.7835181386232
 31
0.0
  0
LINE
  5
171
330
18
100
AcDbEntity
  8
外形線
100
AcDbLine
 10
275.1698217644248
 20
242.997120746615
 30
0.0
 11
275.1698217644248
 21
241.8903194426192
 31
0.0
  0
ARC
  5
173
102
{ACAD_REACTORS
330
317
102
}
330
18
100
AcDbEntity
  8
外形線
100
AcDbCircle
 10
310.1698217644248
 20
-61.35968055738089
 30
0.0
 40
307.25
100
AcDbArc
 50
83.62585904071393
 51
96.37414095928605
  0
ARC
  5
175
102
{ACAD_REACTORS
330
317
102
}
330
18
100
AcDbEntity
  8
外形線
100
AcDbCircle
 10
310.1698217644248
 20
533.1403194426191
 30
0.0
 40
307.25
100
AcDbArc
 50
263.6258590407139
 51
276.3741409592861
  0
LINE
  5
176
330
18
100
AcDbEntity
  8
外形線
100
AcDbLine
 10
325.1698217644248
 20
239.3903194426191
 30
0.0
 11
325.1698217644248
 21
232.3903194426191
 31
0.0
  0
LINE
  5
177
330
18
100
AcDbEntity
  8
外形線
100
AcDbLine
 10
295.1698217644248
 20
239.3903194426191
 30
0.0
 11
295.1698217644248
 21
232.3903194426191
 31
0.0
  0
LINE
  5
178
330
18
100
AcDbEntity
  8
外形線
100
AcDbLine
 10
295.1698217644248
 20
239.3903194426191
 30
0.0
 11
325.1698217644248
 21
239.3903194426191
 31
0.0
  0
LINE
  5
179
330
18
100
AcDbEntity
  8
外形線
100
AcDbLine
 10
295.1698217644248
 20
232.3903194426191
 30
0.0
 11
325.1698217644248
 21
232.3903194426191
 31
0.0
  0
LINE
  5
17A
102
{ACAD_REACTORS
330
317
102
}
330
18
100
AcDbEntity
  8
外形線
100
AcDbLine
 10
315.1698217644248
 20
239.8903194426191
 30
0.0
 11
325.6698217644248
 21
239.8903194426191
 31
0.0
  0
LINE
  5
17C
102
{ACAD_REACTORS
330
317
102
}
330
18
100
AcDbEntity
  8
外形線
100
AcDbLine
 10
325.6698217644248
 20
237.8903194426191
 30
0.0
 11
335.1698217644249
 21
237.8903194426191
 31
0.0
  0
LINE
  5
17F
102
{ACAD_REACTORS
330
317
102
}
330
18
100
AcDbEntity
  8
外形線
100
AcDbLine
 10
325.6698217644248
 20
239.8903194426191
 30
0.0
 11
325.6698217644248
 21
237.8903194426191
 31
0.0
  0
LINE
  5
181
102
{ACAD_REACTORS
330
317
102
}
330
18
100
AcDbEntity
  8
外形線
100
AcDbLine
 10
325.6698217644248
 20
233.8903194426191
 30
0.0
 11
335.1698217644249
 21
233.8903194426191
 31
0.0
  0
LINE
  5
182
102
{ACAD_REACTORS
330
317
102
}
330
18
100
AcDbEntity
  8
外形線
100
AcDbLine
 10
335.1698217644248
 20
226.909095528401
 30
0.0
 11
335.1698217644249
 21
233.8903194426191
 31
0.0
  0
LINE
  5
183
102
{ACAD_REACTORS
330
317
102
}
330
18
100
AcDbEntity
  8
外形線
100
AcDbLine
 10
325.6698217644248
 20
231.8903194426191
 30
0.0
 11
325.6698217644248
 21
233.8903194426191
 31
0.0
  0
LINE
  5
184
102
{ACAD_REACTORS
330
317
102
}
330
18
100
AcDbEntity
  8
外形線
100
AcDbLine
 10
315.1698217644248
 20
231.8903194426191
 30
0.0
 11
325.6698217644248
 21
231.8903194426191
 31
0.0
  0
LINE
  5
185
102
{ACAD_REACTORS
330
317
102
}
330
18
100
AcDbEntity
  8
外形線
100
AcDbLine
 10
315.1698217644248
 20
225.9310056189657
 30
0.0
 11
315.1698217644248
 21
231.8903194426191
 31
0.0
  0
LINE
  5
186
102
{ACAD_REACTORS
330
317
102
}
330
18
100
AcDbEntity
  8
外形線
100
AcDbLine
 10
285.1698217644248
 20
226.909095528401
 30
0.0
 11
285.1698217644247
 21
233.8903194426191
 31
0.0
  0
LINE
  5
188
102
{ACAD_REACTORS
330
317
102
}
330
18
100
AcDbEntity
  8
外形線
100
AcDbLine
 10
305.1698217644248
 20
225.9310056189657
 30
0.0
 11
305.1698217644248
 21
231.8903194426191
 31
0.0
  0
LINE
  5
189
102
{ACAD_REACTORS
330
317
102
}
330
18
100
AcDbEntity
  8
外形線
100
AcDbLine
 10
305.1698217644248
 20
231.8903194426191
 30
0.0
 11
294.6698217644248
 21
231.8903194426191
 31
0.0
  0
LINE
  5
18A
102
{ACAD_REACTORS
330
317
102
}
330
18
100
AcDbEntity
  8
外形線
100
AcDbLine
 10
294.6698217644248
 20
231.8903194426191
 30
0.0
 11
294.6698217644248
 21
233.8903194426191
 31
0.0
  0
LINE
  5
18B
102
{ACAD_REACTORS
330
317
102
}
330
18
100
AcDbEntity
  8
外形線
100
AcDbLine
 10
294.6698217644248
 20
233.8903194426191
 30
0.0
 11
285.1698217644247
 21
233.8903194426191
 31
0.0
  0
LINE
  5
18D
102
{ACAD_REACTORS
330
317
102
}
330
18
100
AcDbEntity
  8
外形線
100
AcDbLine
 10
305.1698217644248
 20
245.8496332662726
 30
0.0
 11
305.1698217644248
 21
239.8903194426191
 31
0.0
  0
LINE
  5
18E
102
{ACAD_REACTORS
330
317
102
}
330
18
100
AcDbEntity
  8
外形線
100
AcDbLine
 10
294.6698217644248
 20
237.8903194426191
 30
0.0
 11
285.1698217644247
 21
237.8903194426191
 31
0.0
  0
LINE
  5
18F
102
{ACAD_REACTORS
330
317
102
}
330
18
100
AcDbEntity
  8
外形線
100
AcDbLine
 10
285.1698217644248
 20
244.8715433568373
 30
0.0
 11
285.1698217644247
 21
237.8903194426191
 31
0.0
  0
LINE
  5
190
102
{ACAD_REACTORS
330
317
102
}
330
18
100
AcDbEntity
  8
外形線
100
AcDbLine
 10
294.6698217644248
 20
239.8903194426191
 30
0.0
 11
294.6698217644248
 21
237.8903194426191
 31
0.0
  0
LINE
  5
191
102
{ACAD_REACTORS
330
317
102
}
330
18
100
AcDbEntity
  8
外形線
100
AcDbLine
 10
305.1698217644248
 20
239.8903194426191
 30
0.0
 11
294.6698217644248
 21
239.8903194426191
 31
0.0
  0
TEXT
  5
1AE
330
18
100
AcDbEntity
  8
文字
100
AcDbText
 10
301.4704011980375
 20
234.6632611272935
 30
0.0
 40
2.5
  1
50-100mm
  7
STYLE3
100
AcDbText
  0
LINE
  5
1B2
330
18
100
AcDbEntity
  8
外形線
100
AcDbLine
 10
345.1698217644248
 20
240.8903194426191
 30
0.0
 11
371.7584324618192
 21
240.8903194426192
 31
0.0
  0
LINE
  5
1B3
330
18
100
AcDbEntity
  8
外形線
100
AcDbLine
 10
345.1698217644248
 20
230.8903194426191
 30
0.0
 11
372.6283989155064
 21
230.8903194426191
 31
0.0
  0
LINE
  5
1C3
330
18
100
AcDbEntity
  8
外形線
100
AcDbLine
 10
374.6745645093864
 20
240.8903194426192
 30
0.0
 11
397.8254397866726
 21
240.8903194426191
 31
0.0
  0
LINE
  5
1C4
330
18
100
AcDbEntity
  8
外形線
100
AcDbLine
 10
375.5445309630736
 20
230.8903194426191
 30
0.0
 11
397.8254397866728
 21
230.8903194426191
 31
0.0
  0
ARC
  5
24E
330
18
100
AcDbEntity
  8
外形線
100
AcDbCircle
 10
276.1698217644248
 20
242.997120746615
 30
0.0
 40
1.0
100
AcDbArc
 50
96.37414095927951
 51
180.0
  0
ARC
  5
24F
330
18
100
AcDbEntity
  8
外形線
100
AcDbCircle
 10
276.1698217644247
 20
228.7835181386232
 30
0.0
 40
1.0
100
AcDbArc
 50
180.0
 51
263.6258590407112
  0
ARC
  5
250
330
18
100
AcDbEntity
  8
外形線
100
AcDbCircle
 10
344.1698217644248
 20
242.997120746615
 30
0.0
 40
1.0
100
AcDbArc
 50
0.0
 51
83.62585904071403
  0
ARC
  5
251
330
18
100
AcDbEntity
  8
外形線
100
AcDbCircle
 10
344.1698217644248
 20
228.7835181386232
 30
0.0
 40
1.0
100
AcDbArc
 50
276.3741409592856
 51
0.0
  0
LINE
  5
253
330
18
100
AcDbEntity
  8
外形線
100
AcDbLine
 10
252.1698217644248
 20
240.5903194426191
 30
0.0
 11
252.1698217644248
 21
233.6997944619303
 31
0.0
  0
LINE
  5
254
330
18
100
AcDbEntity
  8
外形線
100
AcDbLine
 10
274.1698217644247
 20
240.8903194426192
 30
0.0
 11
274.1698217644248
 21
230.8903194426191
 31
0.0
  0
LINE
  5
255
330
18
100
AcDbEntity
  8
外形線
100
AcDbLine
 10
263.1698217644248
 20
240.8903194426192
 30
0.0
 11
263.1698217644248
 21
233.6997944619303
 31
0.0
  0
LINE
  5
256
330
18
100
AcDbEntity
  8
外形線
100
AcDbLine
 10
263.1698217644248
 20
240.8903194426192
 30
0.0
 11
274.1698217644248
 21
240.8903194426192
 31
0.0
  0
LINE
  5
257
330
18
100
AcDbEntity
  8
外形線
100
AcDbLine
 10
265.0860202515205
 20
230.8903194426192
 30
0.0
 11
274.1698217644247
 21
230.8903194426191
 31
0.0
  0
LINE
  5
25C
330
18
100
AcDbEntity
  8
外形線
100
AcDbLine
 10
275.1698217644247
 20
229.8903194426191
 30
0.0
 11
275.1698217644247
 21
228.7835181386232
 31
0.0
  0
LINE
  5
25E
330
18
100
AcDbEntity
  8
外形線
100
AcDbLine
 10
275.1698217644248
 20
241.8903194426192
 30
0.0
 11
275.1698217644247
 21
229.8903194426191
 31
0.0
  0
ARC
  5
25F
330
18
100
AcDbEntity
  8
外形線
100
AcDbCircle
 10
272.9339732128706
 20
228.7171470247881
 30
0.0
 40
2.5
100
AcDbArc
 50
26.57629387126569
 51
60.37379958472584
  0
ARC
  5
260
330
18
100
AcDbEntity
  8
外形線
100
AcDbCircle
 10
272.9339732128706
 20
243.0634918604501
 30
0.0
 40
2.5
100
AcDbArc
 50
299.6262004152742
 51
333.4237061287343
  0
LINE
  5
261
330
18
100
AcDbEntity
  8
外形線
100
AcDbLine
 10
253.1698217644248
 20
241.0903194426192
 30
0.0
 11
262.1698217644247
 21
241.0903194426191
 31
0.0
  0
LINE
  5
263
330
18
100
AcDbEntity
  8
外形線
100
AcDbLine
 10
253.1698217644248
 20
240.0903194426191
 30
0.0
 11
262.1698217644247
 21
240.0903194426191
 31
0.0
  0
LINE
  5
264
330
18
100
AcDbEntity
  8
外形線
100
AcDbLine
 10
262.1698217644248
 20
241.0903194426191
 30
0.0
 11
262.1698217644248
 21
240.0903194426191
 31
0.0
  0
LINE
  5
265
330
18
100
AcDbEntity
  8
外形線
100
AcDbLine
 10
253.1698217644248
 20
241.0903194426192
 30
0.0
 11
253.1698217644248
 21
240.0903194426191
 31
0.0
  0
LINE
  5
26B
330
18
100
AcDbEntity
  8
外形線
100
AcDbLine
 10
262.1698217644248
 20
240.0903194426191
 30
0.0
 11
263.1698217644248
 21
239.5903194426191
 31
0.0
  0
LINE
  5
26C
330
18
100
AcDbEntity
  8
外形線
100
AcDbLine
 10
262.1698217644248
 20
241.0903194426191
 30
0.0
 11
263.1698217644248
 21
240.5903194426191
 31
0.0
  0
LINE
  5
273
330
18
100
AcDbEntity
  8
外形線
100
AcDbLine
 10
253.1698217644248
 20
241.0903194426191
 30
0.0
 11
252.1698217644248
 21
240.5903194426191
 31
0.0
  0
LINE
  5
274
330
18
100
AcDbEntity
  8
外形線
100
AcDbLine
 10
253.1698217644248
 20
240.0903194426191
 30
0.0
 11
252.1698217644248
 21
239.5903194426191
 31
0.0
  0
LINE
  5
275
330
18
100
AcDbEntity
  8
外形線
100
AcDbLine
 10
253.1698217644248
 20
241.0903194426191
 30
0.0
 11
253.1698217644248
 21
240.0903194426191
 31
0.0
  0
LINE
  5
276
330
18
100
AcDbEntity
  8
中心線
 48
0.4
100
AcDbLine
 10
257.6698217644249
 20
238.4143387850579
 30
0.0
 11
257.6698217644248
 21
216.2421474039088
 31
0.0
  0
LINE
  5
277
330
18
100
AcDbEntity
  8
中心線
 48
0.4
100
AcDbLine
 10
247.1839610788202
 20
227.8903194426192
 30
0.0
 11
268.0516303842685
 21
227.8903194426192
 31
0.0
  0
CIRCLE
  5
278
330
18
100
AcDbEntity
  8
外形線
100
AcDbCircle
 10
257.6698217644248
 20
227.8903194426192
 30
0.0
 40
8.0
  0
TEXT
  5
27E
330
18
100
AcDbEntity
  8
文字
100
AcDbText
 10
296.9317328722164
 20
234.7710682740127
 30
0.0
 40
1.0
  1
CC-3
  7
STYLE3
100
AcDbText
  0
ARC
  5
2F6
102
{ACAD_REACTORS
330
317
102
}
330
18
100
AcDbEntity
  8
外形線
100
AcDbCircle
 10
295.1698217644248
 20
225.7403229776251
 30
0.0
 40
2.0
100
AcDbArc
 50
12.33039196868931
 51
162.0823891309169
  0
HATCH
  5
317
330
18
100
AcDbEntity
  8
ﾊｯﾁﾝｸ
100
AcDbHatch
 10
0.0
 20
0.0
 30
0.0
210
0.0
220
0.0
230
1.0
  2
DOTS
 70
     0
 71
     1
 91
        4
 92
        7
 72
     1
 73
     1
 93
        6
 10
294.6698217644248
 20
237.8903194426191
 42
0.0
 10
294.6698217644248
 20
239.8903194426191
 42
0.0
 10
305.1698217644248
 20
239.8903194426191
 42
0.0
 10
305.1698217644248
 20
245.8496332662725
 42
0.0162971688498792
 10
285.1698217644248
 20
244.8715433568372
 42
0.0
 10
285.1698217644247
 20
237.8903194426191
 42
0.0
 97
        6
330
173
330
18F
330
18E
330
190
330
191
330
18D
 92
        7
 72
     1
 73
     1
 93
        6
 10
325.6698217644248
 20
239.8903194426192
 42
0.0
 10
325.6698217644248
 20
237.8903194426191
 42
0.0
 10
335.1698217644249
 20
237.8903194426191
 42
0.0
 10
335.1698217644248
 20
244.8715433568371
 42
0.0162971688498792
 10
315.1698217644248
 20
245.8496332662725
 42
0.0
 10
315.1698217644248
 20
239.8903194426191
 42
0.0
 97
        6
330
173
330
16C
330
17A
330
17F
330
17C
330
16D
 92
        7
 72
     1
 73
     1
 93
        6
 10
335.1698217644248
 20
226.9090955284012
 42
0.0
 10
335.1698217644248
 20
233.8903194426191
 42
0.0
 10
325.6698217644248
 20
233.8903194426191
 42
0.0
 10
325.6698217644248
 20
231.8903194426191
 42
0.0
 10
315.1698217644248
 20
231.8903194426192
 42
0.0
 10
315.1698217644248
 20
225.9310056189657
 42
0.0162971688498792
 97
        6
330
181
330
183
330
184
330
185
330
175
330
182
 92
        7
 72
     1
 73
     1
 93
        8
 10
293.2668219895272
 20
226.3556211628487
 42
-0.7656091570197175
 10
297.123686638756
 20
226.1674202181392
 42
0.0065500023894979
 10
305.1698217644248
 20
225.9310056189658
 42
0.0
 10
305.1698217644248
 20
231.8903194426191
 42
0.0
 10
294.6698217644248
 20
231.8903194426191
 42
0.0
 10
294.6698217644248
 20
233.8903194426191
 42
0.0
 10
285.1698217644247
 20
233.8903194426191
 42
0.0
 10
285.1698217644248
 20
226.9090955284011
 42
0.0066039451871049
 97
        7
330
189
330
18A
330
18B
330
186
330
175
330
2F6
330
188
 75
     0
 76
     1
 52
0.0
 41
0.4
 77
     0
 78
     1
 53
0.0
 43
-16.19200525610063
 44
-30.07430948306384
 45
0.3175
 46
0.635
 79
     2
 49
0.0
 49
-0.635
 47
0.3765170278403226
 98
        4
 10
289.6017913058957
 20
240.7742042921638
 10
328.4150949115804
 20
241.1507210483685
 10
328.7919229771476
 20
228.725659447868
 10
291.485932436998
 20
229.4786934153167
  0
DIMENSION
  5
341
330
18
100
AcDbEntity
  8
外形線
100
AcDbDimension
  2
*D3
 10
345.1698217644248
 20
270.7953878437091
 30
0.0
 11
310.1698217644248
 21
272.6703878437092
 31
0.0
 70
    32
 71
     5
 42
70.0
  3
STYLE3
100
AcDbAlignedDimension
 13
275.1698217644248
 23
241.8903194426192
 33
0.0
 14
345.1698217644248
 24
242.997120746615
 34
0.0
100
AcDbRotatedDimension
1001
ACAD
1000
DSTYLE
1002
{
1070
   271
1070
     2
1002
}
  0
LINE
  5
399
330
18
100
AcDbEntity
  8
0
  6
ByBlock
 62
     2
100
AcDbLine
 10
252.1698217644248
 20
239.5903194426191
 30
0.0
 11
252.1698217644249
 21
278.4287962986145
 31
0.0
  0
LINE
  5
39B
330
18
100
AcDbEntity
  8
0
  6
ByBlock
 62
     2
100
AcDbLine
 10
254.6698217644248
 20
277.1787962986144
 30
0.0
 11
429.3254397866726
 21
277.1787962986144
 31
0.0
  0
INSERT
  5
39C
330
18
100
AcDbEntity
  8
0
  6
ByBlock
 62
     2
100
AcDbBlockReference
  2
_OPEN
 10
252.1698217644249
 20
277.1787962986144
 30
0.0
 41
2.5
 42
2.5
 43
2.5
 50
180.0
  0
INSERT
  5
39D
330
18
100
AcDbEntity
  8
0
  6
ByBlock
 62
     2
100
AcDbBlockReference
  2
_OPEN
 10
431.8254397866726
 20
277.1787962986144
 30
0.0
 41
2.5
 42
2.5
 43
2.5
  0
POINT
  5
39F
330
18
100
AcDbEntity
  8
DEFPOINTS
  6
ByBlock
 62
     0
100
AcDbPoint
 10
252.1698217644248
 20
239.5903194426191
 30
0.0
  0
POINT
  5
3A7
330
18
100
AcDbEntity
  8
DEFPOINTS
  6
ByBlock
 62
     0
100
AcDbPoint
 10
345.1698217644248
 20
242.997120746615
 30
0.0
  0
TEXT
  5
3F3
330
18
100
AcDbEntity
  8
文字
100
AcDbText
 10
333.547703986765
 20
278.0377496850243
 30
0.0
 40
2.5
  1
253
  7
STYLE3
100
AcDbText
  0
LINE
  5
403
330
18
100
AcDbEntity
  8
外形線
100
AcDbLine
 10
323.6698217644248
 20
238.3903194426192
 30
0.0
 11
323.6698217644248
 21
233.3903194426191
 31
0.0
  0
LINE
  5
404
330
18
100
AcDbEntity
  8
外形線
100
AcDbLine
 10
296.6698217644248
 20
238.3903194426192
 30
0.0
 11
296.6698217644248
 21
233.3903194426191
 31
0.0
  0
LINE
  5
405
330
18
100
AcDbEntity
  8
外形線
100
AcDbLine
 10
296.6698217644248
 20
238.3903194426192
 30
0.0
 11
323.6698217644248
 21
238.3903194426192
 31
0.0
  0
LINE
  5
406
330
18
100
AcDbEntity
  8
外形線
100
AcDbLine
 10
296.6698217644248
 20
233.3903194426191
 30
0.0
 11
323.6698217644248
 21
233.3903194426191
 31
0.0
  0
LINE
  5
427
330
18
100
AcDbEntity
  8
中心線
 48
0.5
100
AcDbLine
 10
422.8254397866726
 20
202.1163873431425
 30
0.0
 11
422.8254397866726
 21
273.1141692082815
 31
0.0
  0
LINE
  5
428
330
18
100
AcDbEntity
  8
外形線
100
AcDbLine
 10
400.8254397866727
 20
231.390319442619
 30
0.0
 11
402.8254397866726
 21
231.390319442619
 31
0.0
  0
LINE
  5
429
330
18
100
AcDbEntity
  8
外形線
100
AcDbLine
 10
400.8254397866727
 20
240.3903194426191
 30
0.0
 11
402.8254397866728
 21
240.3903194426191
 31
0.0
  0
LINE
  5
42A
330
18
100
AcDbEntity
  8
外形線
100
AcDbLine
 10
402.825439786673
 20
249.0903194426191
 30
0.0
 11
402.8254397866726
 21
231.390319442619
 31
0.0
  0
LINE
  5
42C
330
18
100
AcDbEntity
  8
外形線
100
AcDbLine
 10
402.8254397866726
 20
231.390319442619
 30
0.0
 11
417.2254397866726
 21
231.390319442619
 31
0.0
  0
LINE
  5
42E
330
18
100
AcDbEntity
  8
外形線
100
AcDbLine
 10
409.6254397866729
 20
255.890319442619
 30
0.0
 11
415.8254397866726
 21
255.890319442619
 31
0.0
  0
ARC
  5
432
330
18
100
AcDbEntity
  8
外形線
100
AcDbCircle
 10
409.6254397866729
 20
249.090319442619
 30
0.0
 40
6.799999999999999
100
AcDbArc
 50
90.0
 51
179.9999999999992
  0
LINE
  5
434
330
18
100
AcDbEntity
  8
外形線
100
AcDbLine
 10
403.625439786673
 20
249.0903194426191
 30
0.0
 11
403.6254397866727
 21
237.590319442619
 31
0.0
  0
ARC
  5
435
330
18
100
AcDbEntity
  8
外形線
100
AcDbCircle
 10
409.6254397866729
 20
249.090319442619
 30
0.0
 40
6.0
100
AcDbArc
 50
90.0
 51
179.9999999999992
  0
LINE
  5
436
330
18
100
AcDbEntity
  8
外形線
100
AcDbLine
 10
409.6254397866729
 20
255.090319442619
 30
0.0
 11
415.8254397866726
 21
255.090319442619
 31
0.0
  0
LINE
  5
438
330
18
100
AcDbEntity
  8
外形線
100
AcDbLine
 10
402.8254397866728
 20
237.590319442619
 30
0.0
 11
403.6254397866727
 21
237.590319442619
 31
0.0
  0
INSERT
  5
44F
330
18
100
AcDbEntity
  8
外形線
100
AcDbBlockReference
  2
六角ﾈｼ3
 10
397.8254397866726
 20
235.8903194426191
 30
0.0
  0
LINE
  5
465
330
18
100
AcDbEntity
  8
外形線
100
AcDbLine
 10
425.3254397866727
 20
206.8903194426192
 30
0.0
 11
425.3254397866727
 21
216.3903194426191
 31
0.0
  0
LINE
  5
466
330
18
100
AcDbEntity
  8
外形線
100
AcDbLine
 10
420.3254397866726
 20
206.8903194426192
 30
0.0
 11
420.3254397866727
 21
216.3903194426191
 31
0.0
  0
LINE
  5
474
330
18
100
AcDbEntity
  8
外形線
100
AcDbLine
 10
431.0254397866723
 20
237.140319442619
 30
0.0
 11
431.0254397866727
 21
258.3903194426192
 31
0.0
  0
LINE
  5
479
330
18
100
AcDbEntity
  8
外形線
100
AcDbLine
 10
429.8254397866727
 20
217.3903194426191
 30
0.0
 11
429.8254397866727
 21
224.6903194426192
 31
0.0
  0
LINE
  5
47A
330
18
100
AcDbEntity
  8
外形線
100
AcDbLine
 10
415.8254397866726
 20
217.3903194426191
 30
0.0
 11
415.8254397866725
 21
224.6903194426192
 31
0.0
  0
LINE
  5
47D
330
18
100
AcDbEntity
  8
外形線
100
AcDbLine
 10
415.8254397866725
 20
224.6903194426192
 30
0.0
 11
429.8254397866727
 21
224.6903194426192
 31
0.0
  0
LINE
  5
47E
330
18
100
AcDbEntity
  8
外形線
100
AcDbLine
 10
415.8254397866725
 20
217.3903194426191
 30
0.0
 11
429.8254397866727
 21
217.3903194426191
 31
0.0
  0
LINE
  5
47F
330
18
100
AcDbEntity
  8
外形線
100
AcDbLine
 10
416.3254397866725
 20
225.1903194426192
 30
0.0
 11
429.3254397866727
 21
225.1903194426192
 31
0.0
  0
LINE
  5
480
330
18
100
AcDbEntity
  8
外形線
100
AcDbLine
 10
416.3254397866726
 20
216.8903194426192
 30
0.0
 11
429.3254397866727
 21
216.8903194426191
 31
0.0
  0
LINE
  5
481
330
18
100
AcDbEntity
  8
外形線
100
AcDbLine
 10
415.8254397866725
 20
224.6903194426192
 30
0.0
 11
416.3254397866725
 21
225.1903194426192
 31
0.0
  0
LINE
  5
482
330
18
100
AcDbEntity
  8
外形線
100
AcDbLine
 10
429.3254397866727
 20
225.1903194426192
 30
0.0
 11
429.8254397866727
 21
224.6903194426192
 31
0.0
  0
LINE
  5
483
330
18
100
AcDbEntity
  8
外形線
100
AcDbLine
 10
415.8254397866726
 20
217.3903194426191
 30
0.0
 11
416.3254397866726
 21
216.8903194426192
 31
0.0
  0
LINE
  5
484
330
18
100
AcDbEntity
  8
外形線
100
AcDbLine
 10
429.3254397866727
 20
216.8903194426191
 30
0.0
 11
429.8254397866727
 21
217.3903194426191
 31
0.0
  0
LINE
  5
485
330
18
100
AcDbEntity
  8
外形線
100
AcDbLine
 10
416.3254397866726
 20
216.8903194426192
 30
0.0
 11
420.3254397866727
 21
216.3903194426191
 31
0.0
  0
LINE
  5
486
330
18
100
AcDbEntity
  8
外形線
100
AcDbLine
 10
429.3254397866727
 20
216.8903194426191
 30
0.0
 11
425.3254397866727
 21
216.3903194426191
 31
0.0
  0
LINE
  5
487
330
18
100
AcDbEntity
  8
外形線
100
AcDbLine
 10
420.3254397866727
 20
216.3903194426191
 30
0.0
 11
425.3254397866727
 21
216.3903194426191
 31
0.0
  0
LINE
  5
488
330
18
100
AcDbEntity
  8
外形線
100
AcDbLine
 10
426.8254397866726
 20
225.1903194426192
 30
0.0
 11
426.8254397866726
 21
225.5903194426191
 31
0.0
  0
LINE
  5
489
330
18
100
AcDbEntity
  8
外形線
100
AcDbLine
 10
418.8254397866726
 20
225.1903194426192
 30
0.0
 11
418.8254397866726
 21
225.5903194426191
 31
0.0
  0
LINE
  5
4A8
330
18
100
AcDbEntity
  8
外形線
100
AcDbLine
 10
420.5754397866726
 20
205.8903194426191
 30
0.0
 11
425.0754397866725
 21
205.8903194426191
 31
0.0
  0
LINE
  5
4A9
330
18
100
AcDbEntity
  8
外形線
100
AcDbLine
 10
420.3254397866727
 20
206.8903194426192
 30
0.0
 11
425.3254397866725
 21
206.8903194426191
 31
0.0
  0
LINE
  5
4AE
330
18
100
AcDbEntity
  8
外形線
100
AcDbLine
 10
420.5754397866726
 20
205.8903194426191
 30
0.0
 11
420.3254397866726
 21
206.8903194426192
 31
0.0
  0
LINE
  5
4AF
330
18
100
AcDbEntity
  8
外形線
100
AcDbLine
 10
425.0754397866725
 20
205.8903194426191
 30
0.0
 11
425.3254397866727
 21
206.8903194426192
 31
0.0
  0
ARC
  5
4B0
330
18
100
AcDbEntity
  8
外形線
100
AcDbCircle
 10
422.8254397866725
 20
206.2903194426191
 30
0.0
 40
1.9
100
AcDbArc
 50
192.153197469007
 51
347.8468025309921
  0
LINE
  5
4DE
330
18
100
AcDbEntity
  8
外形線
100
AcDbLine
 10
374.6572279172459
 20
309.0552931133896
 30
0.0
 11
397.8254397866728
 21
309.0552931133895
 31
0.0
  0
LINE
  5
4DF
330
18
100
AcDbEntity
  8
外形線
100
AcDbLine
 10
373.7872614635587
 20
319.0552931133896
 30
0.0
 11
397.8254397866726
 21
319.0552931133896
 31
0.0
  0
LINE
  5
4E3
330
18
100
AcDbEntity
  8
中心線
 48
0.5
100
AcDbLine
 10
423.3254397866729
 20
296.8619641435864
 30
0.0
 11
423.3254397866729
 21
330.9208372411513
 31
0.0
  0
LINE
  5
4E6
330
18
100
AcDbEntity
  8
外形線
100
AcDbLine
 10
400.8254397866727
 20
309.5552931133895
 30
0.0
 11
402.8254397866726
 21
309.5552931133895
 31
0.0
  0
LINE
  5
4E7
330
18
100
AcDbEntity
  8
外形線
100
AcDbLine
 10
400.8254397866727
 20
318.5552931133896
 30
0.0
 11
402.8254397866728
 21
318.5552931133896
 31
0.0
  0
LINE
  5
4E9
330
18
100
AcDbEntity
  8
外形線
100
AcDbLine
 10
402.8254397866728
 20
318.5552931133895
 30
0.0
 11
402.8254397866726
 21
309.5552931133895
 31
0.0
  0
INSERT
  5
523
330
18
100
AcDbEntity
  8
外形線
100
AcDbBlockReference
  2
六角ﾈｼ
 10
397.8254397866726
 20
314.0552931133896
 30
0.0
  0
LINE
  5
524
330
18
100
AcDbEntity
  8
外形線
100
AcDbLine
 10
397.8254397866726
 20
319.0552931133896
 30
0.0
 11
397.8254397866728
 21
309.0552931133895
 31
0.0
  0
LINE
  5
525
330
18
100
AcDbEntity
  8
外形線
100
AcDbLine
 10
400.325439786673
 20
314.0552931133896
 30
0.0
 11
397.8254397866728
 21
314.0552931133896
 31
0.0
  0
LINE
  5
526
330
18
100
AcDbEntity
  8
外形線
100
AcDbLine
 10
400.8254397866727
 20
318.5552931133896
 30
0.0
 11
400.8254397866727
 21
309.5552931133895
 31
0.0
  0
LINE
  5
527
330
18
100
AcDbEntity
  8
中心線
 48
0.5
100
AcDbLine
 10
370.9056810605369
 20
314.0552931133894
 30
0.0
 11
434.7003547148803
 21
314.0552931133894
 31
0.0
  0
LINE
  5
57D
330
18
100
AcDbEntity
  8
0
  6
ByBlock
 62
     2
100
AcDbLine
 10
347.6698217644248
 20
270.7953878437091
 30
0.0
 11
420.3254397866727
 21
270.7953878437091
 31
0.0
  0
INSERT
  5
57E
330
18
100
AcDbEntity
  8
0
  6
ByBlock
 62
     2
100
AcDbBlockReference
  2
_OPEN
 10
345.1698217644248
 20
270.7953878437091
 30
0.0
 41
2.5
 42
2.5
 43
2.5
 50
180.0
  0
INSERT
  5
57F
330
18
100
AcDbEntity
  8
0
  6
ByBlock
 62
     2
100
AcDbBlockReference
  2
_OPEN
 10
422.8254397866727
 20
270.7953878437091
 30
0.0
 41
2.5
 42
2.5
 43
2.5
  0
MTEXT
  5
580
330
18
100
AcDbEntity
  8
0
  6
ByBlock
 62
     6
100
AcDbMText
 10
390.9316900624904
 20
272.6703878437092
 30
0.0
 40
2.5
 41
0.0
 71
     5
 72
     1
  1
150
  7
STYLE3
 73
     1
 44
1.0
  0
POINT
  5
581
330
18
100
AcDbEntity
  8
DEFPOINTS
  6
ByBlock
 62
     0
100
AcDbPoint
 10
345.1698217644248
 20
242.997120746615
 30
0.0
  0
LINE
  5
5D9
330
18
100
AcDbEntity
  8
0
  6
ByBlock
 62
     2
100
AcDbLine
 10
361.8103213706878
 20
238.3903194426191
 30
0.0
 11
361.8103213706878
 21
233.3903194426191
 31
0.0
  0
INSERT
  5
5DA
330
18
100
AcDbEntity
  8
0
  6
ByBlock
 62
     2
100
AcDbBlockReference
  2
_OPEN
 10
361.8103213706878
 20
240.8903194426191
 30
0.0
 41
2.5
 42
2.5
 43
2.5
 50
90.0
  0
INSERT
  5
5DB
330
18
100
AcDbEntity
  8
0
  6
ByBlock
 62
     2
100
AcDbBlockReference
  2
_OPEN
 10
361.8103213706878
 20
230.8903194426191
 30
0.0
 41
2.5
 42
2.5
 43
2.5
 50
270.0
  0
MTEXT
  5
5DC
330
18
100
AcDbEntity
  8
0
  6
ByBlock
 62
     6
100
AcDbMText
 10
359.9353213706877
 20
235.1930300286628
 30
0.0
 40
2.5
 41
0.0
 71
     5
 72
     1
  1
φ10
  7
STYLE3
 11
0.0000000000000001
 21
1.0
 31
0.0
 73
     1
 44
1.0
  0
LINE
  5
5F6
330
18
100
AcDbEntity
  8
外形線
100
AcDbLine
 10
414.3254397866726
 20
299.0552931133894
 30
0.0
 11
414.3254397866727
 21
309.6552931133895
 31
0.0
  0
CIRCLE
  5
5FE
330
18
100
AcDbEntity
  8
外形線
100
AcDbCircle
 10
423.3254397866729
 20
314.0552931133894
 30
0.0
 40
4.049999999999999
  0
LINE
  5
5FF
330
18
100
AcDbEntity
  8
外形線
100
AcDbLine
 10
414.3254397866726
 20
318.4552931133894
 30
0.0
 11
417.8254397866727
 21
318.4552931133894
 31
0.0
  0
LINE
  5
600
330
18
100
AcDbEntity
  8
外形線
100
AcDbLine
 10
414.3254397866726
 20
309.6552931133895
 30
0.0
 11
417.8254397866727
 21
309.6552931133895
 31
0.0
  0
LINE
  5
602
330
18
100
AcDbEntity
  8
外形線
100
AcDbLine
 10
414.3254397866727
 20
318.4552931133894
 30
0.0
 11
414.3254397866727
 21
329.0552931133894
 31
0.0
  0
CIRCLE
  5
603
330
18
100
AcDbEntity
  8
外形線
 62
     4
100
AcDbCircle
 10
423.3254397866729
 20
314.0552931133894
 30
0.0
 40
1.75
  0
CIRCLE
  5
604
330
18
100
AcDbEntity
  8
外形線
 62
     4
100
AcDbCircle
 10
423.3254397866729
 20
314.0552931133894
 30
0.0
 40
1.5
  0
LINE
  5
607
330
18
100
AcDbEntity
  8
外形線
100
AcDbLine
 10
402.8254397866726
 20
318.0552931133894
 30
0.0
 11
417.8254397866727
 21
318.0552931133893
 31
0.0
  0
LINE
  5
608
330
18
100
AcDbEntity
  8
外形線
100
AcDbLine
 10
402.8254397866726
 20
310.0552931133894
 30
0.0
 11
417.8254397866727
 21
310.0552931133895
 31
0.0
  0
CIRCLE
  5
60D
330
18
100
AcDbEntity
  8
外形線
100
AcDbCircle
 10
415.4254397866729
 20
314.0552931133894
 30
0.0
 40
1.0
  0
LINE
  5
60E
330
18
100
AcDbEntity
  8
外形線
 62
     4
100
AcDbLine
 10
415.7839526950017
 20
314.4280376780341
 30
0.0
 11
415.0217896098852
 21
313.635619495173
 31
0.0
  0
LINE
  5
610
330
18
100
AcDbEntity
  8
外形線
 62
     4
100
AcDbLine
 10
415.0254282210402
 20
314.4400319489424
 30
0.0
 11
415.8290408960234
 21
313.6671017854869
 31
0.0
  0
POINT
  5
66B
330
18
100
AcDbEntity
  8
DEFPOINTS
  6
ByBlock
 62
     0
100
AcDbPoint
 10
422.8254397866726
 20
318.1052931133895
 30
0.0
  0
POINT
  5
66C
330
18
100
AcDbEntity
  8
DEFPOINTS
  6
ByBlock
 62
     0
100
AcDbPoint
 10
422.8254397866726
 20
310.0052931133894
 30
0.0
  0
CIRCLE
  5
66F
330
18
100
AcDbEntity
  8
外形線
100
AcDbCircle
 10
408.3254397866726
 20
250.390319442619
 30
0.0
 40
1.0
  0
LINE
  5
693
330
18
100
AcDbEntity
  8
中心線
 48
0.5
100
AcDbLine
 10
408.3254397866727
 20
248.1449254049614
 30
0.0
 11
408.3254397866727
 21
252.178157645847
 31
0.0
  0
LINE
  5
696
330
18
100
AcDbEntity
  8
中心線
 48
0.5
100
AcDbLine
 10
405.9990787374894
 20
250.390319442619
 30
0.0
 11
410.9875959156387
 21
250.390319442619
 31
0.0
  0
LINE
  5
69E
330
18
100
AcDbEntity
  8
外形線
 48
0.5
100
AcDbLine
 10
415.8254397866726
 20
237.140319442619
 30
0.0
 11
415.8254397866727
 21
256.890319442619
 31
0.0
  0
LINE
  5
69F
330
18
100
AcDbEntity
  8
外形線
 48
0.5
100
AcDbLine
 10
415.8254397866726
 20
237.140319442619
 30
0.0
 11
431.0254397866723
 21
237.140319442619
 31
0.0
  0
LINE
  5
6A2
330
18
100
AcDbEntity
  8
外形線
 48
0.5
100
AcDbLine
 10
429.8254397866727
 20
225.590319442619
 30
0.0
 11
429.8254397866728
 21
237.140319442619
 31
0.0
  0
LINE
  5
6A3
330
18
100
AcDbEntity
  8
外形線
 48
0.5
100
AcDbLine
 10
417.2254397866727
 20
231.3903194426196
 30
0.0
 11
417.2254397866727
 21
237.140319442619
 31
0.0
  0
LINE
  5
6A4
330
18
100
AcDbEntity
  8
外形線
 48
0.5
100
AcDbLine
 10
415.8254397866725
 20
225.590319442619
 30
0.0
 11
429.8254397866727
 21
225.590319442619
 31
0.0
  0
LINE
  5
6A7
330
18
100
AcDbEntity
  8
外形線
100
AcDbLine
 10
415.8254397866725
 20
225.590319442619
 30
0.0
 11
415.8254397866725
 21
227.390319442619
 31
0.0
  0
ARC
  5
6A9
330
18
100
AcDbEntity
  8
外形線
100
AcDbCircle
 10
406.5461578735479
 20
232.8830681122129
 30
0.0
 40
10.78310533986232
100
AcDbArc
 50
329.3771476844252
 51
352.0427598771948
  0
ARC
  5
6B9
330
18
100
AcDbEntity
  8
外形線
100
AcDbCircle
 10
422.8254397866726
 20
263.090319442619
 30
0.0
 40
1.5
100
AcDbArc
 50
19.47122063449054
 51
160.5287793655095
  0
LINE
  5
6BA
330
18
100
AcDbEntity
  8
外形線
 48
0.5
100
AcDbLine
 10
421.3754397866726
 20
263.5903194426191
 30
0.0
 11
424.2754397866727
 21
263.5903194426191
 31
0.0
  0
LINE
  5
6BC
330
18
100
AcDbEntity
  8
外形線
 48
0.5
100
AcDbLine
 10
424.5754397866727
 20
262.7868340119476
 30
0.0
 11
424.5754397866727
 21
263.2903194426191
 31
0.0
  0
LINE
  5
6BD
330
18
100
AcDbEntity
  8
外形線
 48
0.5
100
AcDbLine
 10
421.0754397866727
 20
262.7868340119476
 30
0.0
 11
421.0754397866726
 21
263.2903194426191
 31
0.0
  0
LINE
  5
6C0
330
18
100
AcDbEntity
  8
外形線
100
AcDbLine
 10
431.5254397866727
 20
258.8903194426192
 30
0.0
 11
431.8254397866726
 21
258.8903194426193
 31
0.0
  0
LINE
  5
6C1
330
18
100
AcDbEntity
  8
外形線
 48
0.5
100
AcDbLine
 10
413.8254397866726
 20
258.890319442619
 30
0.0
 11
413.8254397866727
 21
261.840319442619
 31
0.0
  0
LINE
  5
6C2
330
18
100
AcDbEntity
  8
外形線
 48
0.5
100
AcDbLine
 10
431.8254397866726
 20
258.890319442619
 30
0.0
 11
431.8254397866726
 21
261.840319442619
 31
0.0
  0
ARC
  5
6C3
330
18
100
AcDbEntity
  8
外形線
 48
0.5
100
AcDbCircle
 10
413.8254397866727
 20
256.890319442619
 30
0.0
 40
2.0
100
AcDbArc
 50
0.0
 51
90.0
  0
ARC
  5
6C5
330
18
100
AcDbEntity
  8
外形線
100
AcDbCircle
 10
431.5254397866727
 20
258.3903194426192
 30
0.0
 40
0.5
100
AcDbArc
 50
90.00000000000074
 51
179.9999999999989
  0
LINE
  5
6C6
330
18
100
AcDbEntity
  8
外形線
100
AcDbLine
 10
413.8254397866726
 20
258.890319442619
 30
0.0
 11
431.8254397866726
 21
258.890319442619
 31
0.0
  0
ARC
  5
6F3
330
18
100
AcDbEntity
  8
外形線
 48
0.5
100
AcDbCircle
 10
421.3754397866726
 20
263.2903194426191
 30
0.0
 40
0.3
100
AcDbArc
 50
90.0
 51
180.0000000000043
  0
ARC
  5
6F4
330
18
100
AcDbEntity
  8
外形線
 48
0.5
100
AcDbCircle
 10
424.2754397866727
 20
263.2903194426191
 30
0.0
 40
0.3
100
AcDbArc
 50
0.0000000000043256
 51
90.0
  0
LINE
  5
70F
330
18
100
AcDbEntity
  8
外形線
100
AcDbLine
 10
431.3254397866725
 20
248.790319442619
 30
0.0
 11
431.3254397866725
 21
250.990319442619
 31
0.0
  0
LINE
  5
724
330
18
100
AcDbEntity
  8
外形線
100
AcDbLine
 10
417.8254397866727
 20
309.6552931133895
 30
0.0
 11
417.8254397866727
 21
318.4552931133894
 31
0.0
  0
LINE
  5
738
330
18
100
AcDbEntity
  8
外形線
 48
0.5
100
AcDbLine
 10
414.3254397866727
 20
329.0552931133894
 30
0.0
 11
432.3254397866731
 21
329.0552931133894
 31
0.0
  0
LINE
  5
739
330
18
100
AcDbEntity
  8
外形線
 48
0.5
100
AcDbLine
 10
414.3254397866726
 20
299.0552931133894
 30
0.0
 11
432.3254397866726
 21
299.0552931133894
 31
0.0
  0
LINE
  5
73A
330
18
100
AcDbEntity
  8
外形線
100
AcDbLine
 10
432.3254397866726
 20
299.0552931133894
 30
0.0
 11
432.3254397866731
 21
329.0552931133894
 31
0.0
  0
LINE
  5
73C
330
18
100
AcDbEntity
  8
外形線
 48
0.5
100
AcDbLine
 10
414.3254397866727
 20
327.0552931133894
 30
0.0
 11
432.3254397866731
 21
327.0552931133894
 31
0.0
  0
LINE
  5
73D
330
18
100
AcDbEntity
  8
外形線
 48
0.5
100
AcDbLine
 10
414.3254397866726
 20
301.0552931133894
 30
0.0
 11
432.3254397866726
 21
301.0552931133894
 31
0.0
  0
DIMENSION
  5
74E
330
18
100
AcDbEntity
  8
外形線
100
AcDbDimension
  2
*D6
 10
432.3254397866726
 20
288.1399616465345
 30
0.0
 11
423.3254397866726
 21
290.0149616465345
 31
0.0
 70
    32
 71
     5
 42
18.0
  3
STYLE3
100
AcDbAlignedDimension
 13
414.3254397866726
 23
299.0552931133894
 33
0.0
 14
432.3254397866726
 24
299.0552931133894
 34
0.0
100
AcDbRotatedDimension
1001
ACAD
1000
DSTYLE
1002
{
1070
   271
1070
     2
1002
}
  0
DIMENSION
  5
75B
330
18
100
AcDbEntity
  8
外形線
100
AcDbDimension
  2
*D7
 10
441.0681946782148
 20
299.0552931133894
 30
0.0
 11
439.1931946782148
 21
314.0552931133896
 31
0.0
 70
    32
 71
     5
 42
30.0
  3
STYLE3
100
AcDbAlignedDimension
 13
432.3254397866731
 23
329.0552931133894
 33
0.0
 14
432.3254397866726
 24
299.0552931133894
 34
0.0
 50
90.0
100
AcDbRotatedDimension
1001
ACAD
1000
DSTYLE
1002
{
1070
   271
1070
     2
1002
}
  0
LINE
  5
75F
330
18
100
AcDbEntity
  8
外形線
 48
0.5
100
AcDbLine
 10
431.0254397866725
 20
250.990319442619
 30
0.0
 11
431.3254397866725
 21
250.990319442619
 31
0.0
  0
LINE
  5
760
330
18
100
AcDbEntity
  8
外形線
 48
0.5
100
AcDbLine
 10
431.0254397866724
 20
248.790319442619
 30
0.0
 11
431.3254397866725
 21
248.790319442619
 31
0.0
  0
LINE
  5
76A
330
18
100
AcDbEntity
  8
寸法線
100
AcDbLine
 10
431.8254397866726
 20
261.3903194426191
 30
0.0
 11
431.8254397866726
 21
279.0706215856389
 31
0.0
  0
LINE
  5
788
330
18
100
AcDbEntity
  8
0
  6
ByBlock
 62
     2
100
AcDbLine
 10
431.8254397866726
 20
265.6527426124302
 30
0.0
 11
431.8254397866726
 21
272.0453878437091
 31
0.0
  0
LINE
  5
789
330
18
100
AcDbEntity
  8
0
  6
ByBlock
 62
     2
100
AcDbLine
 10
425.3254397866726
 20
270.7953878437091
 30
0.0
 11
429.3254397866727
 21
270.7953878437091
 31
0.0
  0
INSERT
  5
78A
330
18
100
AcDbEntity
  8
0
  6
ByBlock
 62
     2
100
AcDbBlockReference
  2
_OPEN
 10
422.8254397866725
 20
270.7953878437091
 30
0.0
 41
2.5
 42
2.5
 43
2.5
 50
180.0
  0
INSERT
  5
78B
330
18
100
AcDbEntity
  8
0
  6
ByBlock
 62
     2
100
AcDbBlockReference
  2
_OPEN
 10
431.8254397866726
 20
270.7953878437091
 30
0.0
 41
2.5
 42
2.5
 43
2.5
  0
MTEXT
  5
78C
330
18
100
AcDbEntity
  8
0
  6
ByBlock
 62
     6
100
AcDbMText
 10
427.3254397866726
 20
272.6703878437092
 30
0.0
 40
2.5
 41
0.0
 71
     5
 72
     1
  1
\A1;9
  7
STYLE3
 73
     1
 44
1.0
  0
POINT
  5
78E
330
18
100
AcDbEntity
  8
DEFPOINTS
  6
ByBlock
 62
     0
100
AcDbPoint
 10
431.8254397866726
 20
265.6527426124302
 30
0.0
  0
POINT
  5
78F
330
18
100
AcDbEntity
  8
DEFPOINTS
  6
ByBlock
 62
     0
100
AcDbPoint
 10
431.8254397866726
 20
270.7953878437091
 30
0.0
  0
DIMENSION
  5
79C
330
18
100
AcDbEntity
  8
寸法線
100
AcDbDimension
  2
*D8
 10
448.0981239351175
 20
204.3903194426191
 30
0.0
 11
446.2231239351175
 21
234.4903194426191
 31
0.0
 70
    32
  1
50～100
 71
     5
 42
60.1999999999999
  3
STYLE3
100
AcDbAlignedDimension
 13
422.8254397866726
 23
264.590319442619
 33
0.0
 14
422.8254397866725
 24
204.3903194426192
 34
0.0
 50
90.0
100
AcDbRotatedDimension
1001
ACAD
1000
DSTYLE
1002
{
1070
   271
1070
     2
1002
}
  0
POINT
  5
7A4
330
18
100
AcDbEntity
  8
DEFPOINTS
  6
ByBlock
 62
     0
100
AcDbPoint
 10
422.8254397866726
 20
264.590319442619
 30
0.0
  0
LINE
  5
7B9
330
18
100
AcDbEntity
  8
ﾊｯﾁﾝｸ
 62
     4
100
AcDbLine
 10
426.97133209033
 20
224.6903194426192
 30
0.0
 11
429.8254397866726
 21
219.7468599022804
 31
0.0
  0
LINE
  5
7C6
330
18
100
AcDbEntity
  8
ﾊｯﾁﾝｸ
 62
     4
100
AcDbLine
 10
424.3665773335455
 20
217.3903194426191
 30
0.0
 11
428.5812342986298
 21
224.6903194426192
 31
0.0
  0
LINE
  5
7F7
330
18
100
AcDbEntity
  8
中心線
100
AcDbLine
 10
415.425439786673
 20
312.525435526904
 30
0.0
 11
415.425439786673
 21
315.4489063319834
 31
0.0
  0
LINE
  5
7F9
330
18
100
AcDbEntity
  8
中心線
100
AcDbLine
 10
432.5133469773083
 20
249.890319442619
 30
0.0
 11
429.6046283694214
 21
249.890319442619
 31
0.0
  0
LINE
  5
7FD
330
18
100
AcDbEntity
  8
ﾊｯﾁﾝｸ
 62
     4
100
AcDbLine
 10
425.8166315519508
 20
224.6903194426192
 30
0.0
 11
429.8254397866726
 21
217.7468599022804
 31
0.0
  0
LINE
  5
7FE
330
18
100
AcDbEntity
  8
ﾊｯﾁﾝｸ
 62
     4
100
AcDbLine
 10
424.6619310135716
 20
224.6903194426192
 30
0.0
 11
428.8765879786559
 21
217.3903194426191
 31
0.0
  0
LINE
  5
7FF
330
18
100
AcDbEntity
  8
ﾊｯﾁﾝｸ
 62
     4
100
AcDbLine
 10
424.1412034139592
 20
223.5922461020509
 30
0.0
 11
427.5120278825085
 21
217.7538068591272
 31
0.0
  0
LINE
  5
800
330
18
100
AcDbEntity
  8
ﾊｯﾁﾝｸ
 62
     4
100
AcDbLine
 10
422.8254397866726
 20
223.8712155552625
 30
0.0
 11
426.5671869018974
 21
217.3903194426192
 31
0.0
  0
LINE
  5
801
330
18
100
AcDbEntity
  8
ﾊｯﾁﾝｸ
 62
     4
100
AcDbLine
 10
422.8254397866726
 20
221.8712155552626
 30
0.0
 11
425.4124863635181
 21
217.3903194426191
 31
0.0
  0
LINE
  5
802
330
18
100
AcDbEntity
  8
ﾊｯﾁﾝｸ
 62
     4
100
AcDbLine
 10
422.8254397866726
 20
219.8712155552628
 30
0.0
 11
424.2577858251388
 21
217.3903194426191
 31
0.0
  0
LINE
  5
803
330
18
100
AcDbEntity
  8
ﾊｯﾁﾝｸ
 62
     4
100
AcDbLine
 10
428.1260326287092
 20
224.6903194426192
 30
0.0
 11
429.8254397866727
 21
221.7468599022803
 31
0.0
  0
LINE
  5
804
330
18
100
AcDbEntity
  8
ﾊｯﾁﾝｸ
 62
     4
100
AcDbLine
 10
429.2807331670887
 20
224.6903194426192
 30
0.0
 11
429.8254397866727
 21
223.7468599022804
 31
0.0
  0
LINE
  5
805
330
18
100
AcDbEntity
  8
ﾊｯﾁﾝｸ
 62
     4
100
AcDbLine
 10
425.5212778719247
 20
217.3903194426191
 30
0.0
 11
429.6793121674317
 21
224.5922461020509
 31
0.0
  0
LINE
  5
806
330
18
100
AcDbEntity
  8
ﾊｯﾁﾝｸ
 62
     4
100
AcDbLine
 10
426.675978410304
 20
217.3903194426191
 30
0.0
 11
429.8254397866727
 21
222.8453465629654
 31
0.0
  0
LINE
  5
807
330
18
100
AcDbEntity
  8
ﾊｯﾁﾝｸ
 62
     4
100
AcDbLine
 10
427.8306789486832
 20
217.3903194426191
 30
0.0
 11
429.8254397866727
 21
220.8453465629655
 31
0.0
  0
LINE
  5
808
330
18
100
AcDbEntity
  8
ﾊｯﾁﾝｸ
 62
     4
100
AcDbLine
 10
423.5072304751922
 20
224.6903194426192
 30
0.0
 11
427.7218874402767
 21
217.3903194426191
 31
0.0
  0
LINE
  5
809
330
18
100
AcDbEntity
  8
ﾊｯﾁﾝｸ
 62
     4
100
AcDbLine
 10
423.2118767951662
 20
217.3903194426191
 30
0.0
 11
427.4265337602506
 21
224.6903194426192
 31
0.0
  0
LINE
  5
80A
330
18
100
AcDbEntity
  8
ﾊｯﾁﾝｸ
 62
     4
100
AcDbLine
 10
422.8254397866726
 20
218.7209909099832
 30
0.0
 11
426.2718332218714
 21
224.6903194426192
 31
0.0
  0
LINE
  5
80B
330
18
100
AcDbEntity
  8
ﾊｯﾁﾝｸ
 62
     4
100
AcDbLine
 10
422.8254397866726
 20
220.7209909099832
 30
0.0
 11
425.1171326834922
 21
224.6903194426192
 31
0.0
  0
LINE
  5
80C
330
18
100
AcDbEntity
  8
ﾊｯﾁﾝｸ
 62
     4
100
AcDbLine
 10
422.8254397866726
 20
222.720990909983
 30
0.0
 11
423.9624321451128
 21
224.6903194426192
 31
0.0
  0
LINE
  5
80D
330
18
100
AcDbEntity
  8
ﾊｯﾁﾝｸ
 62
     4
100
AcDbLine
 10
428.9853794870624
 20
217.3903194426191
 30
0.0
 11
429.8254397866727
 21
218.8453465629655
 31
0.0
  0
LINE
  5
80F
330
18
100
AcDbEntity
  8
ﾊｯﾁﾝｸ
 62
     4
100
AcDbLine
 10
422.8254397866726
 20
217.8712155552626
 30
0.0
 11
423.1030852867595
 21
217.3903194426191
 31
0.0
  0
LINE
  5
8C1
330
18
100
AcDbEntity
  8
中心線
 48
0.5
100
AcDbLine
 10
470.776650571656
 20
202.1163873431425
 30
0.0
 11
470.776650571656
 21
267.8660272248768
 31
0.0
  0
LINE
  5
8C2
330
18
100
AcDbEntity
  8
外形線
100
AcDbLine
 10
473.276650571656
 20
206.8903194426192
 30
0.0
 11
473.276650571656
 21
216.3903194426191
 31
0.0
  0
LINE
  5
8C3
330
18
100
AcDbEntity
  8
外形線
100
AcDbLine
 10
468.276650571656
 20
206.8903194426192
 30
0.0
 11
468.276650571656
 21
216.3903194426191
 31
0.0
  0
LINE
  5
8C4
330
18
100
AcDbEntity
  8
外形線
100
AcDbLine
 10
478.9766505716555
 20
237.140319442619
 30
0.0
 11
478.9766505716561
 21
257.1403194426192
 31
0.0
  0
LINE
  5
8C5
330
18
100
AcDbEntity
  8
外形線
100
AcDbLine
 10
477.776650571656
 20
217.3903194426191
 30
0.0
 11
477.776650571656
 21
224.6903194426192
 31
0.0
  0
LINE
  5
8C6
330
18
100
AcDbEntity
  8
外形線
100
AcDbLine
 10
463.776650571656
 20
217.3903194426191
 30
0.0
 11
463.7766505716559
 21
224.6903194426192
 31
0.0
  0
LINE
  5
8C7
330
18
100
AcDbEntity
  8
外形線
100
AcDbLine
 10
463.7766505716558
 20
224.6903194426192
 30
0.0
 11
477.776650571656
 21
224.6903194426192
 31
0.0
  0
LINE
  5
8C8
330
18
100
AcDbEntity
  8
外形線
100
AcDbLine
 10
463.7766505716559
 20
217.3903194426191
 30
0.0
 11
477.776650571656
 21
217.3903194426191
 31
0.0
  0
LINE
  5
8C9
330
18
100
AcDbEntity
  8
外形線
100
AcDbLine
 10
464.2766505716559
 20
225.1903194426192
 30
0.0
 11
477.276650571656
 21
225.1903194426192
 31
0.0
  0
LINE
  5
8CA
330
18
100
AcDbEntity
  8
外形線
100
AcDbLine
 10
464.276650571656
 20
216.8903194426192
 30
0.0
 11
477.276650571656
 21
216.8903194426191
 31
0.0
  0
LINE
  5
8CB
330
18
100
AcDbEntity
  8
外形線
100
AcDbLine
 10
463.7766505716559
 20
224.6903194426192
 30
0.0
 11
464.2766505716559
 21
225.1903194426192
 31
0.0
  0
LINE
  5
8CC
330
18
100
AcDbEntity
  8
外形線
100
AcDbLine
 10
477.276650571656
 20
225.1903194426192
 30
0.0
 11
477.776650571656
 21
224.6903194426192
 31
0.0
  0
LINE
  5
8CD
330
18
100
AcDbEntity
  8
外形線
100
AcDbLine
 10
463.776650571656
 20
217.3903194426191
 30
0.0
 11
464.276650571656
 21
216.8903194426192
 31
0.0
  0
LINE
  5
8CE
330
18
100
AcDbEntity
  8
外形線
100
AcDbLine
 10
477.276650571656
 20
216.8903194426191
 30
0.0
 11
477.776650571656
 21
217.3903194426191
 31
0.0
  0
LINE
  5
8CF
330
18
100
AcDbEntity
  8
外形線
100
AcDbLine
 10
464.276650571656
 20
216.8903194426192
 30
0.0
 11
468.276650571656
 21
216.3903194426191
 31
0.0
  0
LINE
  5
8D0
330
18
100
AcDbEntity
  8
外形線
100
AcDbLine
 10
477.276650571656
 20
216.8903194426191
 30
0.0
 11
473.276650571656
 21
216.3903194426191
 31
0.0
  0
LINE
  5
8D1
330
18
100
AcDbEntity
  8
外形線
100
AcDbLine
 10
468.276650571656
 20
216.3903194426191
 30
0.0
 11
473.276650571656
 21
216.3903194426191
 31
0.0
  0
LINE
  5
8D2
330
18
100
AcDbEntity
  8
外形線
100
AcDbLine
 10
474.7766505716559
 20
225.1903194426192
 30
0.0
 11
474.7766505716559
 21
225.5903194426191
 31
0.0
  0
LINE
  5
8D3
330
18
100
AcDbEntity
  8
外形線
100
AcDbLine
 10
466.7766505716559
 20
225.1903194426192
 30
0.0
 11
466.776650571656
 21
225.5903194426191
 31
0.0
  0
LINE
  5
8D4
330
18
100
AcDbEntity
  8
外形線
100
AcDbLine
 10
468.5266505716559
 20
205.8903194426191
 30
0.0
 11
473.0266505716559
 21
205.8903194426191
 31
0.0
  0
LINE
  5
8D5
330
18
100
AcDbEntity
  8
外形線
100
AcDbLine
 10
468.276650571656
 20
206.8903194426192
 30
0.0
 11
473.2766505716559
 21
206.8903194426191
 31
0.0
  0
LINE
  5
8D6
330
18
100
AcDbEntity
  8
外形線
100
AcDbLine
 10
468.5266505716559
 20
205.8903194426191
 30
0.0
 11
468.276650571656
 21
206.8903194426192
 31
0.0
  0
LINE
  5
8D7
330
18
100
AcDbEntity
  8
外形線
100
AcDbLine
 10
473.0266505716559
 20
205.8903194426191
 30
0.0
 11
473.276650571656
 21
206.8903194426192
 31
0.0
  0
ARC
  5
8D8
330
18
100
AcDbEntity
  8
外形線
100
AcDbCircle
 10
470.7766505716559
 20
206.2903194426191
 30
0.0
 40
1.9
100
AcDbArc
 50
192.153197469007
 51
347.8468025309921
  0
LINE
  5
8DA
330
18
100
AcDbEntity
  8
外形線
 48
0.5
100
AcDbLine
 10
462.4766505716555
 20
237.1403194426191
 30
0.0
 11
478.9766505716555
 21
237.140319442619
 31
0.0
  0
LINE
  5
8DB
330
18
100
AcDbEntity
  8
外形線
 48
0.5
100
AcDbLine
 10
477.776650571656
 20
225.590319442619
 30
0.0
 11
477.7766505716561
 21
237.140319442619
 31
0.0
  0
LINE
  5
8DD
330
18
100
AcDbEntity
  8
外形線
 48
0.5
100
AcDbLine
 10
463.7766505716559
 20
225.590319442619
 30
0.0
 11
477.776650571656
 21
225.590319442619
 31
0.0
  0
LINE
  5
8DE
330
18
100
AcDbEntity
  8
外形線
100
AcDbLine
 10
463.7766505716559
 20
225.590319442619
 30
0.0
 11
463.7766505716559
 21
237.140319442619
 31
0.0
  0
ARC
  5
8E0
330
18
100
AcDbEntity
  8
外形線
100
AcDbCircle
 10
470.776650571656
 20
263.090319442619
 30
0.0
 40
1.5
100
AcDbArc
 50
19.47122063449054
 51
160.5287793655095
  0
LINE
  5
8E1
330
18
100
AcDbEntity
  8
外形線
 48
0.5
100
AcDbLine
 10
469.3266505716559
 20
263.5903194426191
 30
0.0
 11
472.2266505716561
 21
263.5903194426191
 31
0.0
  0
LINE
  5
8E2
330
18
100
AcDbEntity
  8
外形線
 48
0.5
100
AcDbLine
 10
472.5266505716559
 20
261.390319442619
 30
0.0
 11
472.5266505716561
 21
263.2903194426191
 31
0.0
  0
LINE
  5
8E3
330
18
100
AcDbEntity
  8
外形線
 48
0.5
100
AcDbLine
 10
469.0266505716564
 20
261.390319442619
 30
0.0
 11
469.0266505716559
 21
263.2903194426191
 31
0.0
  0
LINE
  5
8E9
330
18
100
AcDbEntity
  8
外形線
100
AcDbLine
 10
455.776650571656
 20
258.8903194426194
 30
0.0
 11
485.776650571656
 21
258.8903194426191
 31
0.0
  0
ARC
  5
8EA
330
18
100
AcDbEntity
  8
外形線
 48
0.5
100
AcDbCircle
 10
469.3266505716559
 20
263.2903194426191
 30
0.0
 40
0.3
100
AcDbArc
 50
90.0
 51
180.0000000000043
  0
ARC
  5
8EB
330
18
100
AcDbEntity
  8
外形線
 48
0.5
100
AcDbCircle
 10
472.2266505716561
 20
263.2903194426191
 30
0.0
 40
0.3
100
AcDbArc
 50
0.0000000000043256
 51
90.0
  0
POINT
  5
8F1
330
18
100
AcDbEntity
  8
DEFPOINTS
  6
ByBlock
 62
     0
100
AcDbPoint
 10
470.776650571656
 20
264.590319442619
 30
0.0
  0
LINE
  5
8F2
330
18
100
AcDbEntity
  8
ﾊｯﾁﾝｸ
 62
     4
100
AcDbLine
 10
474.9225428753134
 20
224.6903194426192
 30
0.0
 11
477.7766505716559
 21
219.7468599022804
 31
0.0
  0
LINE
  5
8F3
330
18
100
AcDbEntity
  8
ﾊｯﾁﾝｸ
 62
     4
100
AcDbLine
 10
472.3177881185288
 20
217.3903194426191
 30
0.0
 11
476.5324450836132
 21
224.6903194426192
 31
0.0
  0
LINE
  5
8F4
330
18
100
AcDbEntity
  8
中心線
 48
0.1
100
AcDbLine
 10
473.4547676290927
 20
249.890319442619
 30
0.0
 11
468.0772308924371
 21
249.890319442619
 31
0.0
  0
LINE
  5
8F5
330
18
100
AcDbEntity
  8
ﾊｯﾁﾝｸ
 62
     4
100
AcDbLine
 10
473.7678423369342
 20
224.6903194426192
 30
0.0
 11
477.7766505716559
 21
217.7468599022804
 31
0.0
  0
LINE
  5
8F6
330
18
100
AcDbEntity
  8
ﾊｯﾁﾝｸ
 62
     4
100
AcDbLine
 10
472.6131417985548
 20
224.6903194426192
 30
0.0
 11
476.8277987636393
 21
217.3903194426191
 31
0.0
  0
LINE
  5
8F7
330
18
100
AcDbEntity
  8
ﾊｯﾁﾝｸ
 62
     4
100
AcDbLine
 10
472.0924141989426
 20
223.5922461020509
 30
0.0
 11
475.4632386674919
 21
217.7538068591272
 31
0.0
  0
LINE
  5
8F8
330
18
100
AcDbEntity
  8
ﾊｯﾁﾝｸ
 62
     4
100
AcDbLine
 10
470.776650571656
 20
223.8712155552625
 30
0.0
 11
474.5183976868807
 21
217.3903194426192
 31
0.0
  0
LINE
  5
8F9
330
18
100
AcDbEntity
  8
ﾊｯﾁﾝｸ
 62
     4
100
AcDbLine
 10
470.776650571656
 20
221.8712155552626
 30
0.0
 11
473.3636971485014
 21
217.3903194426191
 31
0.0
  0
LINE
  5
8FA
330
18
100
AcDbEntity
  8
ﾊｯﾁﾝｸ
 62
     4
100
AcDbLine
 10
470.776650571656
 20
219.8712155552628
 30
0.0
 11
472.2089966101222
 21
217.3903194426191
 31
0.0
  0
LINE
  5
8FB
330
18
100
AcDbEntity
  8
ﾊｯﾁﾝｸ
 62
     4
100
AcDbLine
 10
476.0772434136926
 20
224.6903194426192
 30
0.0
 11
477.776650571656
 21
221.7468599022803
 31
0.0
  0
LINE
  5
8FC
330
18
100
AcDbEntity
  8
ﾊｯﾁﾝｸ
 62
     4
100
AcDbLine
 10
477.231943952072
 20
224.6903194426192
 30
0.0
 11
477.776650571656
 21
223.7468599022804
 31
0.0
  0
LINE
  5
8FD
330
18
100
AcDbEntity
  8
ﾊｯﾁﾝｸ
 62
     4
100
AcDbLine
 10
473.4724886569081
 20
217.3903194426191
 30
0.0
 11
477.6305229524151
 21
224.5922461020509
 31
0.0
  0
LINE
  5
8FE
330
18
100
AcDbEntity
  8
ﾊｯﾁﾝｸ
 62
     4
100
AcDbLine
 10
474.6271891952873
 20
217.3903194426191
 30
0.0
 11
477.776650571656
 21
222.8453465629654
 31
0.0
  0
LINE
  5
8FF
330
18
100
AcDbEntity
  8
ﾊｯﾁﾝｸ
 62
     4
100
AcDbLine
 10
475.7818897336664
 20
217.3903194426191
 30
0.0
 11
477.776650571656
 21
220.8453465629655
 31
0.0
  0
LINE
  5
900
330
18
100
AcDbEntity
  8
ﾊｯﾁﾝｸ
 62
     4
100
AcDbLine
 10
471.4584412601756
 20
224.6903194426192
 30
0.0
 11
475.67309822526
 21
217.3903194426191
 31
0.0
  0
LINE
  5
901
330
18
100
AcDbEntity
  8
ﾊｯﾁﾝｸ
 62
     4
100
AcDbLine
 10
471.1630875801495
 20
217.3903194426191
 30
0.0
 11
475.377744545234
 21
224.6903194426192
 31
0.0
  0
LINE
  5
902
330
18
100
AcDbEntity
  8
ﾊｯﾁﾝｸ
 62
     4
100
AcDbLine
 10
470.776650571656
 20
218.7209909099832
 30
0.0
 11
474.2230440068547
 21
224.6903194426192
 31
0.0
  0
LINE
  5
903
330
18
100
AcDbEntity
  8
ﾊｯﾁﾝｸ
 62
     4
100
AcDbLine
 10
470.776650571656
 20
220.7209909099832
 30
0.0
 11
473.0683434684755
 21
224.6903194426192
 31
0.0
  0
LINE
  5
904
330
18
100
AcDbEntity
  8
ﾊｯﾁﾝｸ
 62
     4
100
AcDbLine
 10
470.776650571656
 20
222.720990909983
 30
0.0
 11
471.9136429300962
 21
224.6903194426192
 31
0.0
  0
LINE
  5
905
330
18
100
AcDbEntity
  8
ﾊｯﾁﾝｸ
 62
     4
100
AcDbLine
 10
476.9365902720458
 20
217.3903194426191
 30
0.0
 11
477.776650571656
 21
218.8453465629655
 31
0.0
  0
LINE
  5
906
330
18
100
AcDbEntity
  8
ﾊｯﾁﾝｸ
 62
     4
100
AcDbLine
 10
470.776650571656
 20
217.8712155552626
 30
0.0
 11
471.0542960717429
 21
217.3903194426191
 31
0.0
  0
CIRCLE
  5
924
330
18
100
AcDbEntity
  8
外形線
100
AcDbCircle
 10
470.776650571656
 20
249.890319442619
 30
0.0
 40
1.25
  0
LINE
  5
928
330
18
100
AcDbEntity
  8
外形線
100
AcDbLine
 10
462.4766505716556
 20
237.1403194426194
 30
0.0
 11
462.4766505716561
 21
257.140319442619
 31
0.0
  0
LINE
  5
92B
330
18
100
AcDbEntity
  8
外形線
100
AcDbLine
 10
470.1057012179086
 20
249.2193700888716
 30
0.0
 11
471.4475999254034
 21
250.5612687963663
 31
0.0
  0
LINE
  5
92C
330
18
100
AcDbEntity
  8
外形線
100
AcDbLine
 10
470.1057012179085
 20
250.5612687963663
 30
0.0
 11
471.4475999254033
 21
249.2193700888716
 31
0.0
  0
LINE
  5
92F
330
18
100
AcDbEntity
  8
外形線
100
AcDbLine
 10
457.776650571656
 20
260.890319442619
 30
0.0
 11
483.7766505716559
 21
260.890319442619
 31
0.0
  0
LINE
  5
930
330
18
100
AcDbEntity
  8
外形線
100
AcDbLine
 10
455.776650571656
 20
258.890319442619
 30
0.0
 11
455.776650571656
 21
261.340319442619
 31
0.0
  0
LINE
  5
932
330
18
100
AcDbEntity
  8
外形線
100
AcDbLine
 10
457.7766505716561
 20
260.890319442619
 30
0.0
 11
457.776650571656
 21
262.7545330049922
 31
0.0
  0
ARC
  5
939
330
18
100
AcDbEntity
  8
外形線
100
AcDbCircle
 10
422.8254397866726
 20
221.8403194426191
 30
0.0
 40
41.0
100
AcDbArc
 50
77.31961650818018
 51
102.6803834918197
  0
ARC
  5
93D
330
18
100
AcDbEntity
  8
外形線
100
AcDbCircle
 10
457.276650571656
 20
261.340319442619
 30
0.0
 40
1.5
100
AcDbArc
 50
70.5287793655074
 51
180.0
  0
ARC
  5
93E
330
18
100
AcDbEntity
  8
外形線
100
AcDbCircle
 10
457.276650571656
 20
260.340319442619
 30
0.0
 40
1.5
100
AcDbArc
 50
70.5287793655074
 51
180.0
  0
LINE
  5
940
330
18
100
AcDbEntity
  8
外形線
100
AcDbLine
 10
483.7766505716559
 20
260.890319442619
 30
0.0
 11
483.7766505716559
 21
262.7545330049922
 31
0.0
  0
LINE
  5
941
330
18
100
AcDbEntity
  8
外形線
100
AcDbLine
 10
485.776650571656
 20
258.890319442619
 30
0.0
 11
485.776650571656
 21
261.340319442619
 31
0.0
  0
ARC
  5
942
330
18
100
AcDbEntity
  8
外形線
100
AcDbCircle
 10
484.276650571656
 20
261.340319442619
 30
0.0
 40
1.5
100
AcDbArc
 50
0.000000000000007
 51
109.4712206344926
  0
ARC
  5
943
330
18
100
AcDbEntity
  8
外形線
100
AcDbCircle
 10
484.276650571656
 20
260.340319442619
 30
0.0
 40
1.5
100
AcDbArc
 50
0.000000000000007
 51
109.4712206344926
  0
ARC
  5
944
330
18
100
AcDbEntity
  8
外形線
100
AcDbCircle
 10
460.7266505716561
 20
257.140319442619
 30
0.0
 40
1.75
100
AcDbArc
 50
359.9999999999988
 51
89.99999999999991
  0
ARC
  5
945
330
18
100
AcDbEntity
  8
外形線
100
AcDbCircle
 10
480.7266505716561
 20
257.1403194426192
 30
0.0
 40
1.75
100
AcDbArc
 50
90.00000000000012
 51
179.9999999999988
  0
ARC
  5
94A
330
18
100
AcDbEntity
  8
外形線
100
AcDbCircle
 10
470.776650571656
 20
254.390319442619
 30
0.0
 40
1.25
100
AcDbArc
 50
0.0
 51
180.0
  0
LINE
  5
94B
330
18
100
AcDbEntity
  8
外形線
100
AcDbLine
 10
469.526650571656
 20
254.390319442619
 30
0.0
 11
469.526650571656
 21
249.890319442619
 31
0.0
  0
LINE
  5
94C
330
18
100
AcDbEntity
  8
外形線
100
AcDbLine
 10
472.026650571656
 20
254.390319442619
 30
0.0
 11
472.026650571656
 21
249.890319442619
 31
0.0
  0
LINE
  5
94F
330
18
100
AcDbEntity
  8
外形線
 48
0.5
100
AcDbLine
 10
467.8766505716561
 20
261.390319442619
 30
0.0
 11
473.6766505716561
 21
261.3903194426191
 31
0.0
  0
ARC
  5
952
330
18
100
AcDbEntity
  8
外形線
 48
0.5
100
AcDbCircle
 10
467.8766505716561
 20
260.3903194426191
 30
0.0
 40
1.0
100
AcDbArc
 50
90.0
 51
150.0000000000039
  0
ARC
  5
953
330
18
100
AcDbEntity
  8
外形線
 48
0.5
100
AcDbCircle
 10
473.6766505716561
 20
260.3903194426191
 30
0.0
 40
1.0
100
AcDbArc
 50
29.99999999999328
 51
90.0
  0
SPLINE
  5
9B4
330
18
100
AcDbEntity
  8
寸法線
100
AcDbSpline
210
0.0
220
0.0
230
1.0
 70
     8
 71
     3
 72
    11
 73
     7
 74
     5
 42
0.0000000001
 43
0.0000000001
 44
0.0000000001
 40
0.0
 40
0.0
 40
0.0
 40
0.0
 40
2.118689458715854
 40
5.077191829636448
 40
9.220424667385614
 40
10.81363555070969
 40
10.81363555070969
 40
10.81363555070969
 40
10.81363555070969
 10
373.7872614635587
 20
319.0552931133896
 30
0.0
 10
373.3035042748134
 20
318.403500162989
 30
0.0
 10
372.1442366737399
 20
316.8415544853083
 30
0.0
 10
375.6795178216891
 20
314.4458011651843
 30
0.0
 10
373.3014015853502
 20
311.2110118810209
 30
0.0
 10
374.3625186322302
 20
309.5238710733818
 30
0.0
 10
374.6572279172459
 20
309.0552931133896
 30
0.0
 11
373.7872614635587
 21
319.0552931133896
 31
0.0
 11
372.8768474133138
 21
317.1421827455357
 31
0.0
 11
374.4156254789203
 21
314.6153471071232
 31
0.0
 11
373.9759747038785
 21
310.4955066315941
 31
0.0
 11
374.6572279172459
 21
309.0552931133896
 31
0.0
  0
DIMENSION
  5
9DF
330
18
100
AcDbEntity
  8
寸法線
100
AcDbDimension
  2
*D10
 10
441.8735768547258
 20
235.890319442619
 30
0.0
 11
439.9985768547257
 21
250.2403194426191
 31
0.0
 70
    32
 71
     5
 42
28.70000000000004
  3
STYLE3
100
AcDbAlignedDimension
 13
440.8300309153443
 23
264.590319442619
 33
0.0
 14
434.8848926367826
 24
235.890319442619
 34
0.0
 50
90.0
100
AcDbRotatedDimension
1001
ACAD
1000
DSTYLE
1002
{
1070
   271
1070
     2
1070
   341
1005
0
1002
}
  0
SPLINE
  5
A02
330
18
100
AcDbEntity
  8
寸法線
100
AcDbSpline
210
0.0
220
0.0
230
1.0
 70
     8
 71
     3
 72
    11
 73
     7
 74
     5
 42
0.0000000001
 43
0.0000000001
 44
0.0000000001
 40
0.0
 40
0.0
 40
0.0
 40
0.0
 40
2.118689458715854
 40
5.077191829636448
 40
9.220424667385614
 40
10.81363555070969
 40
10.81363555070969
 40
10.81363555070969
 40
10.81363555070969
 10
374.6745645093864
 20
240.8903194426191
 30
0.0
 10
374.1908073206411
 20
240.2385264922184
 30
0.0
 10
373.0315397195676
 20
238.6765808145378
 30
0.0
 10
376.5668208675168
 20
236.2808274944137
 30
0.0
 10
374.1887046311779
 20
233.0460382102506
 30
0.0
 10
375.249821678058
 20
231.3588974026114
 30
0.0
 10
375.5445309630736
 20
230.8903194426191
 30
0.0
 11
374.6745645093864
 21
240.8903194426191
 31
0.0
 11
373.7641504591415
 21
238.9772090747652
 31
0.0
 11
375.302928524748
 21
236.4503734363527
 31
0.0
 11
374.8632777497062
 21
232.3305329608236
 31
0.0
 11
375.5445309630736
 21
230.8903194426191
 31
0.0
  0
SPLINE
  5
A03
330
18
100
AcDbEntity
  8
寸法線
100
AcDbSpline
210
0.0
220
0.0
230
1.0
 70
     8
 71
     3
 72
    11
 73
     7
 74
     5
 42
0.0000000001
 43
0.0000000001
 44
0.0000000001
 40
0.0
 40
0.0
 40
0.0
 40
0.0
 40
2.118689458715854
 40
5.077191829636448
 40
9.220424667385614
 40
10.81363555070969
 40
10.81363555070969
 40
10.81363555070969
 40
10.81363555070969
 10
371.7584324618191
 20
240.8903194426191
 30
0.0
 10
371.2746752730739
 20
240.2385264922184
 30
0.0
 10
370.1154076720003
 20
238.6765808145378
 30
0.0
 10
373.6506888199496
 20
236.2808274944137
 30
0.0
 10
371.2725725836106
 20
233.0460382102506
 30
0.0
 10
372.3336896304907
 20
231.3588974026114
 30
0.0
 10
372.6283989155064
 20
230.8903194426191
 30
0.0
 11
371.7584324618191
 21
240.8903194426191
 31
0.0
 11
370.8480184115742
 21
238.9772090747652
 31
0.0
 11
372.3867964771807
 21
236.4503734363527
 31
0.0
 11
371.947145702139
 21
232.3305329608236
 31
0.0
 11
372.6283989155064
 21
230.8903194426191
 31
0.0
  0
TEXT
  5
A39
330
18
100
AcDbEntity
  8
文字
100
AcDbText
 10
305.9007415250527
 20
356.553515641706
 30
0.0
 40
4.0
  1
Model No.CC-3 Cylinder Gauge
  7
STYLE3
100
AcDbText
  0
LINE
  5
A3A
330
18
100
AcDbEntity
  8
外形線
100
AcDbLine
 10
305.5189015250526
 20
354.093634641706
 30
0.0
 11
398.5189015250526
 21
354.093634641706
 31
0.0
  0
LINE
  5
A3B
330
18
100
AcDbEntity
  8
外形線
100
AcDbLine
 10
305.5189015250526
 20
353.093634641706
 30
0.0
 11
398.5189015250526
 21
353.093634641706
 31
0.0
  0
TEXT
  5
A3C
330
18
100
AcDbEntity
  8
0
  6
Continuous
100
AcDbText
 10
351.5867585250526
 20
184.0154866417059
 30
0.0
 40
2.1
  1
Design and specifications are subject to change without notice for future improvement.
  7
STYLE3
100
AcDbText
  0
LINE
  5
A3D
330
18
100
AcDbEntity
  8
外形線
100
AcDbLine
 10
350.1292915250526
 20
172.5027186417059
 30
0.0
 11
350.1292915250526
 21
192.897701641706
 31
0.0
  0
LINE
  5
A3E
330
18
100
AcDbEntity
  8
外形線
100
AcDbLine
 10
350.1292915250526
 20
182.117495641706
 30
0.0
 11
490.9207085250526
 21
182.117495641706
 31
0.0
  0
TEXT
  5
A3F
330
18
100
AcDbEntity
  8
0
  6
Continuous
100
AcDbText
 10
394.8995355250527
 20
175.999001641706
 30
0.0
 40
2.399999999999999
  1
mm
  7
STYLE3
100
AcDbText
  0
TEXT
  5
A40
330
18
100
AcDbEntity
  8
0
  6
Continuous
100
AcDbText
 10
353.9187095250526
 20
177.747141641706
 30
0.0
 40
3.0
  1
三　　角　　法
  7
STYLE3
100
AcDbText
  0
TEXT
  5
A41
330
18
100
AcDbEntity
  8
0
  6
Continuous
100
AcDbText
 10
351.2952665250526
 20
174.2508586417059
 30
0.0
 40
2.1
  1
3RD Angle Projection
  7
STYLE3
100
AcDbText
  0
TEXT
  5
A42
330
18
100
AcDbEntity
  8
0
  6
Continuous
100
AcDbText
 10
387.0292095250526
 20
174.2508596417059
 30
0.0
 40
2.1
  1
Unit
  7
STYLE3
100
AcDbText
  0
TEXT
  5
A43
330
18
100
AcDbEntity
  8
0
  6
Continuous
100
AcDbText
 10
386.8574875250526
 20
177.753095641706
 30
0.0
 40
3.0
  1
単位
  7
STYLE3
100
AcDbText
  0
LINE
  5
A44
330
18
100
AcDbEntity
  8
外形線
100
AcDbLine
 10
385.4000185250526
 20
182.117495641706
 30
0.0
 11
385.4000185250526
 21
172.5027186417059
 31
0.0
  0
TEXT
  5
A45
330
18
100
AcDbEntity
  8
0
  6
Continuous
100
AcDbText
 10
454.3755005250526
 20
174.2508596417059
 30
0.0
 40
2.1
  1
OZAKI MFG. CO., LTD.
  7
STYLE3
100
AcDbText
  0
TEXT
  5
A46
330
18
100
AcDbEntity
  8
0
  6
Continuous
100
AcDbText
 10
453.5010215250526
 20
178.0384986417059
 30
0.0
 40
3.0
  1
株式会社　尾崎製作所
  7
STYLE3
100
AcDbText
  0
TEXT
  5
A47
330
18
100
AcDbEntity
  8
0
  6
Continuous
100
AcDbText
 10
433.0964665250526
 20
175.9990006417059
 30
0.0
 40
2.1
  1
2010.06.23
  7
STYLE3
100
AcDbText
  0
TEXT
  5
A48
330
18
100
AcDbEntity
  8
0
  6
Continuous
100
AcDbText
 10
414.2578875250526
 20
176.290358641706
 30
0.0
 40
2.399999999999999
  1
1/1
  7
STYLE3
100
AcDbText
  0
TEXT
  5
A49
330
18
100
AcDbEntity
  8
0
  6
Continuous
100
AcDbText
 10
404.6385995250526
 20
174.5422166417059
 30
0.0
 40
2.1
  1
Scale
  7
STYLE3
100
AcDbText
  0
TEXT
  5
A4A
330
18
100
AcDbEntity
  8
0
  6
Continuous
100
AcDbText
 10
404.1753835250526
 20
177.461738641706
 30
0.0
 40
3.0
  1
尺 度
  7
STYLE3
100
AcDbText
  0
LINE
  5
A4B
330
18
100
AcDbEntity
  8
外形線
100
AcDbLine
 10
402.8896365250526
 20
182.117495641706
 30
0.0
 11
402.8896365250526
 21
172.5027186417059
 31
0.0
  0
TEXT
  5
A4C
330
18
100
AcDbEntity
  8
0
  6
Continuous
100
AcDbText
 10
423.9682985250525
 20
177.583943641706
 30
0.0
 40
3.0
  1
日 付
  7
STYLE3
100
AcDbText
  0
TEXT
  5
A4D
330
18
100
AcDbEntity
  8
0
  6
Continuous
100
AcDbText
 10
424.3516595250526
 20
174.2508606417059
 30
0.0
 40
2.1
  1
Date
  7
STYLE3
100
AcDbText
  0
LINE
  5
A4E
330
18
100
AcDbEntity
  8
外形線
100
AcDbLine
 10
422.4197085250526
 20
182.117495641706
 30
0.0
 11
422.4197085250526
 21
172.5027186417059
 31
0.0
  0
LINE
  5
A4F
330
18
100
AcDbEntity
  8
外形線
100
AcDbLine
 10
452.1520575250526
 20
182.117495641706
 30
0.0
 11
452.1520575250526
 21
172.5027186417059
 31
0.0
  0
TEXT
  5
A50
330
18
100
AcDbEntity
  8
0
  6
Continuous
100
AcDbText
 10
351.8782525250526
 20
187.9446346417059
 30
0.0
 40
3.5
  1
仕様及び外観は予告なく変更される場合がございますのでご了承下さい。
  7
STYLE3
100
AcDbText
  0
LINE
  5
A51
330
18
100
AcDbEntity
  8
外形線
100
AcDbLine
 10
350.1292915250526
 20
192.897701641706
 30
0.0
 11
490.9207085250526
 21
192.897701641706
 31
0.0
  0
ENDSEC
  0
SECTION
  2
OBJECTS
  0
DICTIONARY
  5
C
330
0
100
AcDbDictionary
281
     1
  3
ACAD_COLOR
350
83D
  3
ACAD_GROUP
350
D
  3
ACAD_LAYOUT
350
840
  3
ACAD_MATERIAL
350
83C
  3
ACAD_MLINESTYLE
350
1B
  3
ACAD_PLOTSETTINGS
350
841
  3
ACAD_PLOTSTYLENAME
350
83A
  3
ACAD_TABLESTYLE
350
83E
  3
ACDBVARIABLEDICTIONARY
350
192
  0
DICTIONARY
  5
929
330
18
100
AcDbDictionary
280
     1
281
     1
  3
ACAD_SORTENTS
360
92A
  0
DICTIONARY
  5
83D
102
{ACAD_REACTORS
330
C
102
}
330
C
100
AcDbDictionary
281
     1
  0
DICTIONARY
  5
D
102
{ACAD_REACTORS
330
C
102
}
330
C
100
AcDbDictionary
281
     1
  0
DICTIONARY
  5
840
102
{ACAD_REACTORS
330
C
102
}
330
C
100
AcDbDictionary
281
     1
  3
Model
350
842
  3
レイアウト1
350
843
  0
DICTIONARY
  5
83C
102
{ACAD_REACTORS
330
C
102
}
330
C
100
AcDbDictionary
281
     1
  0
DICTIONARY
  5
1B
102
{ACAD_REACTORS
330
C
102
}
330
C
100
AcDbDictionary
281
     1
  3
STANDARD
350
1C
  0
DICTIONARY
  5
841
102
{ACAD_REACTORS
330
C
102
}
330
C
100
AcDbDictionary
281
     1
  0
ACDBDICTIONARYWDFLT
  5
83A
102
{ACAD_REACTORS
330
C
102
}
330
C
100
AcDbDictionary
281
     1
  3
Normal
350
83B
100
AcDbDictionaryWithDefault
340
83B
  0
DICTIONARY
  5
83E
102
{ACAD_REACTORS
330
C
102
}
330
C
100
AcDbDictionary
281
     1
  3
Standard
350
83F
  0
DICTIONARY
  5
192
102
{ACAD_REACTORS
330
C
102
}
330
C
100
AcDbDictionary
281
     1
  3
CTABLESTYLE
350
923
  3
SORTENTS
350
193
  0
SORTENTSTABLE
  5
92A
102
{ACAD_REACTORS
330
929
102
}
330
929
100
AcDbSortentsTable
330
18
331
94A
  5
952
331
952
  5
8FA
331
982
  5
2E9
331
4DE
  5
4DF
331
66C
  5
66F
331
4E6
  5
4E7
331
76A
  5
789
331
8FF
  5
937
331
8C8
  5
8D5
331
78A
  5
78C
331
7F9
  5
7FD
331
40A
  5
40B
331
274
  5
274
331
11F
  5
11F
331
6A4
  5
6A9
331
8D0
  5
8E0
331
127
  5
127
331
16E
  5
16E
331
479
  5
47A
331
12F
  5
12F
331
176
  5
176
331
42A
  5
42C
331
92B
  5
943
331
526
  5
527
331
487
  5
488
331
801
  5
803
331
8D8
  5
8F3
331
943
  5
951
331
809
  5
80B
331
57E
  5
57F
331
6BC
  5
6C0
331
8E0
  5
8FC
331
4AF
  5
4B0
331
60D
  5
60E
331
432
  5
434
331
39B
  5
39C
331
186
  5
186
331
137
  5
137
331
255
  5
255
331
75B
  5
760
331
6F4
  5
724
331
2E4
  5
2E4
331
13F
  5
13F
331
18E
  5
18E
331
3F3
  5
403
331
2EC
  5
2ED
331
265
  5
265
331
147
  5
147
331
403
  5
404
331
14F
  5
14F
331
1AE
  5
1AE
331
94B
  5
953
331
953
  5
8C9
331
4DF
  5
4E3
331
8F8
  5
92F
331
4E7
  5
4E9
331
724
  5
739
331
8C1
  5
8C6
331
900
  5
938
331
118
  5
118
331
78B
  5
78E
331
73C
  5
74E
331
5F6
  5
5FE
331
8C9
  5
8D6
331
40B
  5
40C
331
120
  5
120
331
275
  5
275
331
8D1
  5
8E1
331
128
  5
128
331
47A
  5
47D
331
24E
  5
24E
331
177
  5
177
331
17F
  5
17F
331
92C
  5
944
331
480
  5
481
331
802
  5
804
331
527
  5
57D
331
488
  5
489
331
5FE
  5
5FF
331
944
  5
8D1
331
80A
  5
80C
331
4A8
  5
4A9
331
57F
  5
580
331
6BD
  5
6C1
331
8E1
  5
8FD
331
130
  5
130
331
6C5
  5
6F3
331
4B0
  5
4DE
331
60E
  5
610
331
8E9
  5
900
331
39C
  5
39D
331
256
  5
256
331
138
  5
138
331
8F1
  5
904
331
25E
  5
25E
331
140
  5
140
331
18F
  5
18F
331
2E5
  5
2E5
331
2ED
  5
2EE
331
404
  5
405
331
94C
  5
982
331
8F9
  5
930
331
901
  5
939
331
696
  5
69E
331
8C2
  5
8CC
331
150
  5
150
331
119
  5
119
331
8CA
  5
8D7
331
73D
  5
75B
331
69E
  5
69F
331
78C
  5
78F
331
40C
  5
40E
331
276
  5
276
331
121
  5
121
331
8D2
  5
8E2
331
129
  5
129
331
27E
  5
27E
331
24F
  5
24F
331
178
  5
178
331
42C
  5
42E
331
481
  5
482
331
93D
  5
94A
331
803
  5
805
331
489
  5
4A8
331
5FF
  5
600
331
79C
  5
7A0
331
8DA
  5
8F4
331
945
  5
8CF
331
80B
  5
80D
331
580
  5
581
331
4A9
  5
4AE
331
607
  5
608
331
7A4
  5
7C6
331
8E2
  5
8FE
331
131
  5
131
331
6C6
  5
6F4
331
8EA
  5
902
331
434
  5
435
331
39D
  5
39F
331
188
  5
188
331
139
  5
139
331
257
  5
257
331
8F2
  5
905
331
25F
  5
25F
331
141
  5
141
331
190
  5
190
331
2E6
  5
2E6
331
2EE
  5
2EF
331
149
  5
149
331
112
  5
112
331
2F6
  5
317
331
405
  5
406
331
66F
  5
693
331
8FA
  5
931
331
4E9
  5
523
331
8C3
  5
8CD
331
902
  5
93D
331
11A
  5
11A
331
151
  5
151
331
8CB
  5
8D8
331
69F
  5
6A3
331
7FC
  5
7FE
331
122
  5
122
331
277
  5
277
331
6A7
  5
6B9
331
8D3
  5
8E3
331
474
  5
479
331
171
  5
171
331
12A
  5
12A
331
179
  5
179
331
482
  5
483
331
93E
  5
94B
331
804
  5
806
331
600
  5
602
331
8DB
  5
8F5
331
80C
  5
80F
331
74E
  5
75F
331
581
  5
5D9
331
608
  5
60D
331
8E3
  5
8FF
331
250
  5
250
331
132
  5
132
331
181
  5
181
331
610
  5
66B
331
8EB
  5
903
331
435
  5
436
331
13A
  5
13A
331
189
  5
189
331
8F3
  5
906
331
260
  5
260
331
10B
  5
10B
331
142
  5
142
331
191
  5
191
331
2E7
  5
2E7
331
2EF
  5
2F0
331
113
  5
113
331
14A
  5
14A
331
406
  5
40A
331
70F
  5
738
331
5D9
  5
5DA
331
8FB
  5
932
331
8C4
  5
8CE
331
903
  5
93E
331
8CC
  5
8DA
331
78E
  5
79C
331
7FD
  5
7FF
331
11B
  5
11B
331
465
  5
466
331
40E
  5
40F
331
278
  5
278
331
16A
  5
16A
331
123
  5
123
331
317
  5
341
331
8D4
  5
8E8
331
12B
  5
12B
331
47D
  5
47E
331
17A
  5
17A
331
42E
  5
432
331
92F
  5
901
331
483
  5
484
331
805
  5
807
331
80D
  5
8A3
331
6C0
  5
6C2
331
182
  5
182
331
133
  5
133
331
251
  5
251
331
436
  5
438
331
39F
  5
3A7
331
2E0
  5
2E0
331
18A
  5
18A
331
13B
  5
13B
331
75F
  5
76A
331
8F4
  5
924
331
3A7
  5
3F3
331
261
  5
261
331
143
  5
143
331
2E8
  5
2E8
331
2F0
  5
2F1
331
114
  5
114
331
14B
  5
14B
331
94F
  5
8F7
331
7C6
  5
7F9
331
4E3
  5
4E6
331
5DA
  5
5DB
331
8FC
  5
933
331
8C5
  5
8D2
331
738
  5
73A
331
904
  5
93F
331
11C
  5
11C
331
1B2
  5
1B2
331
8CD
  5
8DB
331
78F
  5
79E
331
7FE
  5
800
331
924
  5
942
331
466
  5
474
331
40F
  5
410
331
124
  5
124
331
8D5
  5
8E9
331
281
  5
281
331
173
  5
173
331
12C
  5
12C
331
47E
  5
47F
331
427
  5
428
331
928
  5
8D0
331
930
  5
8CB
331
523
  5
524
331
940
  5
94C
331
484
  5
485
331
6A9
  5
6BA
331
806
  5
808
331
6B9
  5
6BC
331
602
  5
603
331
8DD
  5
8F6
331
6C1
  5
6C3
331
134
  5
134
331
183
  5
183
331
13C
  5
13C
331
18B
  5
18B
331
8F5
  5
928
331
2E9
  5
2EA
331
144
  5
144
331
2F1
  5
2F6
331
115
  5
115
331
14C
  5
14C
331
44F
  5
465
331
760
  5
788
331
5DB
  5
5DC
331
8FD
  5
934
331
7F7
  5
7FC
331
788
  5
78A
331
739
  5
73C
331
8C6
  5
8D3
331
905
  5
940
331
1B3
  5
1B3
331
11D
  5
11D
331
8CE
  5
8DD
331
6A2
  5
6A4
331
7FF
  5
801
331
410
  5
427
331
125
  5
125
331
16C
  5
16C
331
1C3
  5
1C3
331
8D6
  5
8EA
331
341
  5
399
331
12D
  5
12D
331
282
  5
282
331
47F
  5
480
331
428
  5
429
331
17C
  5
17C
331
939
  5
945
331
524
  5
525
331
941
  5
94F
331
485
  5
486
331
807
  5
809
331
6BA
  5
6BD
331
603
  5
604
331
8DE
  5
8FB
331
80F
  5
8A4
331
6C2
  5
6C5
331
399
  5
39B
331
184
  5
184
331
135
  5
135
331
253
  5
253
331
438
  5
44F
331
2E2
  5
2E2
331
13D
  5
13D
331
8F6
  5
92B
331
2EA
  5
2EC
331
263
  5
263
331
145
  5
145
331
26B
  5
26B
331
116
  5
116
331
14D
  5
14D
331
66B
  5
66C
331
693
  5
696
331
5DC
  5
5F6
331
8FE
  5
936
331
789
  5
78B
331
73A
  5
73D
331
8C7
  5
8D4
331
906
  5
941
331
11E
  5
11E
331
273
  5
273
331
6A3
  5
6A7
331
8CF
  5
8DE
331
1C4
  5
1C4
331
126
  5
126
331
16D
  5
16D
331
8D7
  5
8F2
331
283
  5
283
331
175
  5
175
331
12E
  5
12E
331
429
  5
42A
331
932
  5
8CA
331
942
  5
950
331
486
  5
487
331
525
  5
526
331
800
  5
802
331
808
  5
80A
331
57D
  5
57E
331
604
  5
607
331
4AE
  5
4AF
331
6C3
  5
6C6
331
254
  5
254
331
136
  5
136
331
185
  5
185
331
7B9
  5
7F7
331
6F3
  5
70F
331
25C
  5
25C
331
13E
  5
13E
331
18D
  5
18D
331
2E3
  5
2E3
331
8F7
  5
92C
331
264
  5
264
331
146
  5
146
331
26C
  5
26C
331
117
  5
117
331
14E
  5
14E
  0
LAYOUT
  5
842
102
{ACAD_REACTORS
330
840
102
}
330
840
100
AcDbPlotSettings
  1

  2
A3 EPSON LP-6100.pc3
  4
A3
  6

 40
5.873749732971191
 41
5.873747825622558
 42
5.873748779296875
 43
5.873748779296875
 44
297.0106506347656
 45
419.9466552734374
 46
1.5
 47
25.0
 48
0.0
 49
0.0
140
0.0
141
0.0
142
1.0
143
1.0
 70
 28336
 72
     1
 73
     1
 74
     1
  7
AutoCAD LT 98.ctb
 75
    16
147
1.0
 76
     1
 77
     2
 78
   300
148
-236.4583261120649
149
-171.6287515666504
100
AcDbLayout
  1
Model
 70
     1
 71
     0
 10
0.0
 20
0.0
 11
12.0
 21
9.0
 12
0.0
 22
0.0
 32
0.0
 14
0.0
 24
0.0
 34
0.0
 15
0.0
 25
0.0
 35
0.0
146
0.0
 13
0.0
 23
0.0
 33
0.0
 16
1.0
 26
0.0
 36
0.0
 17
0.0
 27
1.0
 37
0.0
 76
     0
330
18
1001
ACAD_PSEXT
1000
A3 EPSON LP-6100.pc3
1000
EPSON LP-6100
1000
USB002
1000

1070
     0
  0
LAYOUT
  5
843
102
{ACAD_REACTORS
330
840
102
}
330
840
100
AcDbPlotSettings
  1

  2
C:\Documents and Settings\佐藤\Application Data\Autodesk\AutoCAD LT 2005\R10\jpn\plotters\PEACOCK EPSON LP-6100.pc3
  4

  6

 40
0.0
 41
0.0
 42
0.0
 43
0.0
 44
0.0
 45
0.0
 46
0.0
 47
0.0
 48
0.0
 49
0.0
140
0.0
141
0.0
142
1.0
143
1.0
 70
   688
 72
     0
 73
     0
 74
     5
  7
AutoCAD LT 98.ctb
 75
    16
147
1.0
 76
     0
 77
     2
 78
   300
148
0.0
149
0.0
100
AcDbLayout
  1
レイアウト1
 70
     1
 71
     1
 10
0.0
 20
0.0
 11
420.0
 21
297.0
 12
0.0
 22
0.0
 32
0.0
 14
1.000000000000000E+20
 24
1.000000000000000E+20
 34
1.000000000000000E+20
 15
-1.000000000000000E+20
 25
-1.000000000000000E+20
 35
-1.000000000000000E+20
146
0.0
 13
0.0
 23
0.0
 33
0.0
 16
1.0
 26
0.0
 36
0.0
 17
0.0
 27
1.0
 37
0.0
 76
     0
330
15
  0
MLINESTYLE
  5
1C
102
{ACAD_REACTORS
330
1B
102
}
330
1B
100
AcDbMlineStyle
  2
STANDARD
 70
     0
  3

 62
   256
 51
90.0
 52
90.0
 71
     2
 49
0.5
 62
   256
  6
BYLAYER
 49
-0.5
 62
   256
  6
BYLAYER
  0
ACDBPLACEHOLDER
  5
83B
102
{ACAD_REACTORS
330
83A
102
}
330
83A
  0
ACAD_PROXY_OBJECT
  5
83F
102
{ACAD_REACTORS
330
83E
102
}
330
83E
100
AcDbProxyObject
 90
      499
 91
      503
 95
  2555929
 70
     0
 93
     1849
310
4214DD185B99185C992420000000000000F83F0000000000003E0FC00000000000004901028000000C1008070000C3001FDFF8000000C1003FBFF000000182007F7FE00000030400FEFFC00000060801FDFF8000000C1003FBFF000000182000000000000000C2020B0000001820100E000186003FBFF000000182007F7FE0
310
0000030400FEFFC00000060801FDFF8000000C1003FBFF000000182007F7FE0000003040000000000000012404160000003040201C00030C007F7FE00000030400FEFFC00000060801FDFF8000000C1003FBFF000000182007F7FE00000030400FEFFC000000608000
340
F
340
F
340
F
 94
        0
  0
DICTIONARYVAR
  5
923
102
{ACAD_REACTORS
330
192
102
}
330
192
100
DictionaryVariables
280
     0
  1
STANDARD
  0
DICTIONARYVAR
  5
193
102
{ACAD_REACTORS
330
192
102
}
330
192
100
DictionaryVariables
280
     0
  1
96
  0
ENDSEC
  0
EOF
