  0
SECTION
  2
HEADER
  9
$ACADVER
  1
AC1018
  9
$ACADMAINTVER
 70
     0
  9
$DWGCODEPAGE
  3
ANSI_932
  9
$INSBASE
 10
0.0
 20
0.0
 30
0.0
  9
$EXTMIN
 10
236.4583261120649
 20
171.6287515666504
 30
-0.000000001396689
  9
$EXTMAX
 10
491.9215858715545
 20
367.0725802714662
 30
0.0000000044238995
  9
$LIMMIN
 10
0.0
 20
0.0
  9
$LIMMAX
 10
420.0
 20
297.0
  9
$ORTHOMODE
 70
     1
  9
$REGENMODE
 70
     1
  9
$FILLMODE
 70
     1
  9
$QTEXTMODE
 70
     0
  9
$MIRRTEXT
 70
     1
  9
$LTSCALE
 40
1.0
  9
$ATTMODE
 70
     1
  9
$TEXTSIZE
 40
3.0
  9
$TRACEWID
 40
1.0
  9
$TEXTSTYLE
  7
STYLE3
  9
$CLAYER
  8
想像線
  9
$CELTYPE
  6
BYLAYER
  9
$CECOLOR
 62
   256
  9
$CELTSCALE
 40
1.0
  9
$DISPSILH
 70
     0
  9
$DIMSCALE
 40
1.0
  9
$DIMASZ
 40
2.5
  9
$DIMEXO
 40
0.0
  9
$DIMDLI
 40
3.75
  9
$DIMRND
 40
0.0
  9
$DIMDLE
 40
0.0
  9
$DIMEXE
 40
1.25
  9
$DIMTP
 40
0.0
  9
$DIMTM
 40
0.0
  9
$DIMTXT
 40
2.5
  9
$DIMCEN
 40
2.5
  9
$DIMTSZ
 40
0.0
  9
$DIMTOL
 70
     0
  9
$DIMLIM
 70
     0
  9
$DIMTIH
 70
     0
  9
$DIMTOH
 70
     0
  9
$DIMSE1
 70
     0
  9
$DIMSE2
 70
     0
  9
$DIMTAD
 70
     1
  9
$DIMZIN
 70
     8
  9
$DIMBLK
  1

  9
$DIMASO
 70
     1
  9
$DIMSHO
 70
     1
  9
$DIMPOST
  1

  9
$DIMAPOST
  1

  9
$DIMALT
 70
     0
  9
$DIMALTD
 70
     4
  9
$DIMALTF
 40
0.0394
  9
$DIMLFAC
 40
1.0
  9
$DIMTOFL
 70
     1
  9
$DIMTVP
 40
0.0
  9
$DIMTIX
 70
     0
  9
$DIMSOXD
 70
     0
  9
$DIMSAH
 70
     1
  9
$DIMBLK1
  1
OPEN
  9
$DIMBLK2
  1
OPEN
  9
$DIMSTYLE
  2
STYLE3
  9
$DIMCLRD
 70
     2
  9
$DIMCLRE
 70
     2
  9
$DIMCLRT
 70
     6
  9
$DIMTFAC
 40
1.0
  9
$DIMGAP
 40
0.625
  9
$DIMJUST
 70
     0
  9
$DIMSD1
 70
     0
  9
$DIMSD2
 70
     0
  9
$DIMTOLJ
 70
     1
  9
$DIMTZIN
 70
     0
  9
$DIMALTZ
 70
     0
  9
$DIMALTTZ
 70
     0
  9
$DIMUPT
 70
     0
  9
$DIMDEC
 70
     2
  9
$DIMTDEC
 70
     4
  9
$DIMALTU
 70
     8
  9
$DIMALTTD
 70
     4
  9
$DIMTXSTY
  7
STYLE3
  9
$DIMAUNIT
 70
     0
  9
$DIMADEC
 70
     0
  9
$DIMALTRND
 40
0.0
  9
$DIMAZIN
 70
     0
  9
$DIMDSEP
 70
    46
  9
$DIMATFIT
 70
     3
  9
$DIMFRAC
 70
     0
  9
$DIMLDRBLK
  1

  9
$DIMLUNIT
 70
     2
  9
$DIMLWD
 70
    -2
  9
$DIMLWE
 70
    -2
  9
$DIMTMOVE
 70
     0
  9
$LUNITS
 70
     2
  9
$LUPREC
 70
     4
  9
$SKETCHINC
 40
1.0
  9
$FILLETRAD
 40
0.0
  9
$AUNITS
 70
     0
  9
$AUPREC
 70
     0
  9
$MENU
  1
.
  9
$ELEVATION
 40
0.0
  9
$PELEVATION
 40
0.0
  9
$THICKNESS
 40
0.0
  9
$LIMCHECK
 70
     0
  9
$CHAMFERA
 40
0.5
  9
$CHAMFERB
 40
0.5
  9
$CHAMFERC
 40
20.0
  9
$CHAMFERD
 40
0.0
  9
$SKPOLY
 70
     0
  9
$TDCREATE
 40
2450753.462540625
  9
$TDUCREATE
 40
2450753.087540625
  9
$TDUPDATE
 40
2455371.404665614
  9
$TDUUPDATE
 40
2455371.029665614
  9
$TDINDWG
 40
0.8950133681
  9
$TDUSRTIMER
 40
0.8950133681
  9
$USRTIMER
 70
     1
  9
$ANGBASE
 50
0.0
  9
$ANGDIR
 70
     0
  9
$PDMODE
 70
     0
  9
$PDSIZE
 40
0.0
  9
$PLINEWID
 40
0.0
  9
$SPLFRAME
 70
     0
  9
$SPLINETYPE
 70
     6
  9
$SPLINESEGS
 70
     8
  9
$HANDSEED
  5
93C
  9
$SURFTAB1
 70
     6
  9
$SURFTAB2
 70
     6
  9
$SURFTYPE
 70
     6
  9
$SURFU
 70
     6
  9
$SURFV
 70
     6
  9
$UCSBASE
  2

  9
$UCSNAME
  2

  9
$UCSORG
 10
0.0
 20
0.0
 30
0.0
  9
$UCSXDIR
 10
1.0
 20
0.0
 30
0.0
  9
$UCSYDIR
 10
0.0
 20
1.0
 30
0.0
  9
$UCSORTHOREF
  2

  9
$UCSORTHOVIEW
 70
     0
  9
$UCSORGTOP
 10
0.0
 20
0.0
 30
0.0
  9
$UCSORGBOTTOM
 10
0.0
 20
0.0
 30
0.0
  9
$UCSORGLEFT
 10
0.0
 20
0.0
 30
0.0
  9
$UCSORGRIGHT
 10
0.0
 20
0.0
 30
0.0
  9
$UCSORGFRONT
 10
0.0
 20
0.0
 30
0.0
  9
$UCSORGBACK
 10
0.0
 20
0.0
 30
0.0
  9
$PUCSBASE
  2

  9
$PUCSNAME
  2

  9
$PUCSORG
 10
0.0
 20
0.0
 30
0.0
  9
$PUCSXDIR
 10
1.0
 20
0.0
 30
0.0
  9
$PUCSYDIR
 10
0.0
 20
1.0
 30
0.0
  9
$PUCSORTHOREF
  2

  9
$PUCSORTHOVIEW
 70
     0
  9
$PUCSORGTOP
 10
0.0
 20
0.0
 30
0.0
  9
$PUCSORGBOTTOM
 10
0.0
 20
0.0
 30
0.0
  9
$PUCSORGLEFT
 10
0.0
 20
0.0
 30
0.0
  9
$PUCSORGRIGHT
 10
0.0
 20
0.0
 30
0.0
  9
$PUCSORGFRONT
 10
0.0
 20
0.0
 30
0.0
  9
$PUCSORGBACK
 10
0.0
 20
0.0
 30
0.0
  9
$USERI1
 70
     0
  9
$USERI2
 70
     0
  9
$USERI3
 70
     0
  9
$USERI4
 70
     0
  9
$USERI5
 70
     0
  9
$USERR1
 40
0.0
  9
$USERR2
 40
0.0
  9
$USERR3
 40
0.0
  9
$USERR4
 40
0.0
  9
$USERR5
 40
0.0
  9
$WORLDVIEW
 70
     1
  9
$SHADEDGE
 70
     3
  9
$SHADEDIF
 70
    70
  9
$TILEMODE
 70
     1
  9
$MAXACTVP
 70
    48
  9
$PINSBASE
 10
0.0
 20
0.0
 30
0.0
  9
$PLIMCHECK
 70
     0
  9
$PEXTMIN
 10
1.000000000000000E+20
 20
1.000000000000000E+20
 30
1.000000000000000E+20
  9
$PEXTMAX
 10
-1.000000000000000E+20
 20
-1.000000000000000E+20
 30
-1.000000000000000E+20
  9
$PLIMMIN
 10
0.0
 20
0.0
  9
$PLIMMAX
 10
420.0
 20
297.0
  9
$UNITMODE
 70
     0
  9
$VISRETAIN
 70
     1
  9
$PLINEGEN
 70
     0
  9
$PSLTSCALE
 70
     1
  9
$TREEDEPTH
 70
  3020
  9
$CMLSTYLE
  2
STANDARD
  9
$CMLJUST
 70
     0
  9
$CMLSCALE
 40
20.0
  9
$PROXYGRAPHICS
 70
     1
  9
$MEASUREMENT
 70
     1
  9
$CELWEIGHT
370
    -1
  9
$ENDCAPS
280
     0
  9
$JOINSTYLE
280
     0
  9
$LWDISPLAY
290
     0
  9
$INSUNITS
 70
     0
  9
$HYPERLINKBASE
  1

  9
$STYLESHEET
  1

  9
$XEDIT
290
     1
  9
$CEPSNTYPE
380
     0
  9
$PSTYLEMODE
290
     1
  9
$FINGERPRINTGUID
  2
{1778B16A-5314-4060-87FA-1A67905EED14}
  9
$VERSIONGUID
  2
{55E209FC-7E87-491A-AD4E-AB375DBC62DA}
  9
$EXTNAMES
290
     1
  9
$PSVPSCALE
 40
0.0
  9
$OLESTARTUP
290
     0
  9
$SORTENTS
280
    96
  9
$INDEXCTL
280
     0
  9
$HIDETEXT
280
     0
  9
$XCLIPFRAME
290
     0
  9
$HALOGAP
280
     0
  9
$OBSCOLOR
 70
   257
  9
$OBSLTYPE
280
     0
  9
$INTERSECTIONDISPLAY
280
     0
  9
$INTERSECTIONCOLOR
 70
   257
  9
$DIMASSOC
280
     1
  9
$PROJECTNAME
  1

  0
ENDSEC
  0
SECTION
  2
CLASSES
  0
CLASS
  1
DICTIONARYVAR
  2
AcDbDictionaryVar
  3
ObjectDBX Classes
 90
        0
 91
        1
280
     0
281
     0
  0
CLASS
  1
ACDBDICTIONARYWDFLT
  2
AcDbDictionaryWithDefault
  3
ObjectDBX Classes
 90
        0
 91
        1
280
     0
281
     0
  0
ENDSEC
  0
SECTION
  2
TABLES
  0
TABLE
  2
VPORT
  5
8
330
0
100
AcDbSymbolTable
 70
     2
  0
VPORT
  5
93B
330
8
100
AcDbSymbolTableRecord
100
AcDbViewportTableRecord
  2
*Active
 70
     0
 10
0.0
 20
0.0
 11
1.0
 21
1.0
 12
364.1899559918097
 22
269.3506659190583
 13
0.0
 23
0.0
 14
10.0
 24
10.0
 15
10.0
 25
10.0
 16
0.0
 26
0.0
 36
1.0
 17
0.0
 27
0.0
 37
0.0
 40
196.9300935618867
 41
1.530456852791878
 42
50.0
 43
0.0
 44
0.0
 50
0.0
 51
0.0
 71
     0
 72
   100
 73
     1
 74
     1
 75
     0
 76
     0
 77
     0
 78
     0
281
     0
 65
     1
110
0.0
120
0.0
130
0.0
111
1.0
121
0.0
131
0.0
112
0.0
122
1.0
132
0.0
 79
     0
146
0.0
  0
ENDTAB
  0
TABLE
  2
LTYPE
  5
5
330
0
100
AcDbSymbolTable
 70
    12
  0
LTYPE
  5
12
330
5
100
AcDbSymbolTableRecord
100
AcDbLinetypeTableRecord
  2
BYBLOCK
 70
     0
  3

 72
    65
 73
     0
 40
0.0
  0
LTYPE
  5
13
330
5
100
AcDbSymbolTableRecord
100
AcDbLinetypeTableRecord
  2
BYLAYER
 70
     0
  3

 72
    65
 73
     0
 40
0.0
  0
LTYPE
  5
14
330
5
100
AcDbSymbolTableRecord
100
AcDbLinetypeTableRecord
  2
CONTINUOUS
 70
     0
  3
Solid line
 72
    65
 73
     0
 40
0.0
  0
LTYPE
  5
22
330
5
100
AcDbSymbolTableRecord
100
AcDbLinetypeTableRecord
  2
CENTER2
 70
     0
  3
Center (.5x) ___ _ ___ _ ___ _ ___ _ ___ _ ___
 72
    65
 73
     4
 40
28.575
 49
19.05
 74
     0
 49
-3.174999999999999
 74
     0
 49
3.174999999999999
 74
     0
 49
-3.174999999999999
 74
     0
  0
LTYPE
  5
24
330
5
100
AcDbSymbolTableRecord
100
AcDbLinetypeTableRecord
  2
PHANTOM2
 70
     0
  3
Phantom (.5x) ___ _ _ ___ _ _ ___ _ _ ___ _ _
 72
    65
 73
     6
 40
31.75
 49
15.875
 74
     0
 49
-3.174999999999999
 74
     0
 49
3.174999999999999
 74
     0
 49
-3.174999999999999
 74
     0
 49
3.174999999999999
 74
     0
 49
-3.174999999999999
 74
     0
  0
ENDTAB
  0
TABLE
  2
LAYER
  5
2
330
0
100
AcDbSymbolTable
 70
    13
  0
LAYER
  5
E
330
2
100
AcDbSymbolTableRecord
100
AcDbLayerTableRecord
  2
0
 70
     0
 62
     7
  6
CONTINUOUS
370
    -3
390
8F9
  0
LAYER
  5
25
330
2
100
AcDbSymbolTableRecord
100
AcDbLayerTableRecord
  2
外形線
 70
     0
 62
     7
  6
CONTINUOUS
370
    -3
390
8F9
  0
LAYER
  5
26
330
2
100
AcDbSymbolTableRecord
100
AcDbLayerTableRecord
  2
寸法線
 70
     0
 62
     2
  6
CONTINUOUS
370
    -3
390
8F9
  0
LAYER
  5
27
330
2
100
AcDbSymbolTableRecord
100
AcDbLayerTableRecord
  2
中心線
 70
     0
 62
     4
  6
CENTER2
370
    -3
390
8F9
  0
LAYER
  5
29
330
2
100
AcDbSymbolTableRecord
100
AcDbLayerTableRecord
  2
想像線
 70
     0
 62
     1
  6
PHANTOM2
370
    -3
390
8F9
  0
LAYER
  5
2A
330
2
100
AcDbSymbolTableRecord
100
AcDbLayerTableRecord
  2
ﾊｯﾁﾝｸ
 70
     0
 62
     6
  6
CONTINUOUS
370
    -3
390
8F9
  0
LAYER
  5
2B
330
2
100
AcDbSymbolTableRecord
100
AcDbLayerTableRecord
  2
文字
 70
     0
 62
     6
  6
CONTINUOUS
370
    -3
390
8F9
  0
LAYER
  5
53
330
2
100
AcDbSymbolTableRecord
100
AcDbLayerTableRecord
  2
DEFPOINTS
 70
     0
 62
     7
  6
CONTINUOUS
290
     0
370
    -3
390
8F9
  0
LAYER
  5
A5
330
2
100
AcDbSymbolTableRecord
100
AcDbLayerTableRecord
  2
C
 70
     0
 62
     7
  6
CONTINUOUS
370
    -3
390
8F9
  0
ENDTAB
  0
TABLE
  2
STYLE
  5
3
330
0
100
AcDbSymbolTable
 70
     6
  0
STYLE
  5
F
330
3
100
AcDbSymbolTableRecord
100
AcDbTextStyleTableRecord
  2
STANDARD
 70
     0
 40
0.0
 41
1.0
 50
0.0
 71
     0
 42
2.5
  3
txt
  4

  0
STYLE
  5
3F
330
3
100
AcDbSymbolTableRecord
100
AcDbTextStyleTableRecord
  2
STYLE3
 70
     0
 40
0.0
 41
1.0
 50
0.0
 71
     0
 42
3.0
  3
romans.shx
  4
bigfont.shx
  0
ENDTAB
  0
TABLE
  2
VIEW
  5
6
330
0
100
AcDbSymbolTable
 70
     0
  0
ENDTAB
  0
TABLE
  2
UCS
  5
7
330
0
100
AcDbSymbolTable
 70
     0
  0
ENDTAB
  0
TABLE
  2
APPID
  5
9
330
0
100
AcDbSymbolTable
 70
     1
  0
APPID
  5
10
330
9
100
AcDbSymbolTableRecord
100
AcDbRegAppTableRecord
  2
ACAD
 70
     0
  0
ENDTAB
  0
TABLE
  2
DIMSTYLE
  5
A
330
0
100
AcDbSymbolTable
 70
     4
100
AcDbDimStyleTable
 71
     0
  0
DIMSTYLE
105
1D
330
A
100
AcDbSymbolTableRecord
100
AcDbDimStyleTableRecord
  2
STANDARD
 70
     0
 41
2.5
 42
0.625
 43
3.75
 44
1.25
 73
     0
 74
     0
 77
     1
 78
     8
140
2.5
141
2.5
143
0.0394
147
0.625
171
     4
172
     1
273
     8
274
     4
277
     6
340
F
  0
DIMSTYLE
105
8F
102
{ACAD_REACTORS
330
341
330
866
330
8BE
102
}
330
A
100
AcDbSymbolTableRecord
100
AcDbDimStyleTableRecord
  2
STYLE3
 70
     0
 41
2.5
 42
0.0
 43
3.75
 44
1.25
 73
     0
 74
     0
 77
     1
 78
     8
140
2.5
141
2.5
143
0.0394
147
0.625
171
     4
172
     1
173
     1
176
     2
177
     2
178
     6
271
     1
273
     8
274
     4
340
3F
341
45
343
45
344
45
  0
ENDTAB
  0
TABLE
  2
BLOCK_RECORD
  5
1
330
0
100
AcDbSymbolTable
 70
    10
  0
BLOCK_RECORD
  5
18
330
1
100
AcDbSymbolTableRecord
100
AcDbBlockTableRecord
  2
*MODEL_SPACE
340
8FE
  0
BLOCK_RECORD
  5
15
330
1
100
AcDbSymbolTableRecord
100
AcDbBlockTableRecord
  2
*PAPER_SPACE
340
8FF
  0
BLOCK_RECORD
  5
45
330
1
100
AcDbSymbolTableRecord
100
AcDbBlockTableRecord
  2
_OPEN
340
0
102
{BLKREFS
331
39C
331
39D
331
57E
331
57F
331
5DA
331
5DB
331
78A
331
78B
331
7A1
331
7A2
331
884
331
5AB
331
5AC
331
85F
331
860
331
8C3
331
8C4
102
}
  0
BLOCK_RECORD
  5
335
330
1
100
AcDbSymbolTableRecord
100
AcDbBlockTableRecord
  2
*D3
340
0
  0
BLOCK_RECORD
  5
443
330
1
100
AcDbSymbolTableRecord
100
AcDbBlockTableRecord
  2
六角ﾈｼ3
340
0
102
{BLKREFS
331
44F
102
}
  0
BLOCK_RECORD
  5
85A
330
1
100
AcDbSymbolTableRecord
100
AcDbBlockTableRecord
  2
*D6
340
0
  0
BLOCK_RECORD
  5
8B2
330
1
100
AcDbSymbolTableRecord
100
AcDbBlockTableRecord
  2
*D7
340
0
  0
ENDTAB
  0
ENDSEC
  0
SECTION
  2
BLOCKS
  0
BLOCK
  5
19
330
18
100
AcDbEntity
  8
0
100
AcDbBlockBegin
  2
*MODEL_SPACE
 70
     0
 10
0.0
 20
0.0
 30
0.0
  3
*MODEL_SPACE
  1

  0
ENDBLK
  5
1A
330
18
100
AcDbEntity
  8
0
100
AcDbBlockEnd
  0
BLOCK
  5
16
330
15
100
AcDbEntity
 67
     1
  8
0
100
AcDbBlockBegin
  2
*PAPER_SPACE
 70
     0
 10
0.0
 20
0.0
 30
0.0
  3
*PAPER_SPACE
  1

  0
ENDBLK
  5
17
330
15
100
AcDbEntity
 67
     1
  8
0
100
AcDbBlockEnd
  0
BLOCK
  5
46
330
45
100
AcDbEntity
  8
0
100
AcDbBlockBegin
  2
_OPEN
 70
     0
 10
0.0
 20
0.0
 30
0.0
  3
_OPEN
  1

  0
LINE
  5
47
330
45
100
AcDbEntity
  8
0
  6
ByBlock
 62
     0
100
AcDbLine
 10
-1.0
 20
0.1666666666666666
 30
0.0
 11
0.0
 21
0.0
 31
0.0
  0
LINE
  5
48
330
45
100
AcDbEntity
  8
0
  6
ByBlock
 62
     0
100
AcDbLine
 10
0.0
 20
0.0
 30
0.0
 11
-1.0
 21
-0.1666666666666666
 31
0.0
  0
LINE
  5
49
330
45
100
AcDbEntity
  8
0
  6
ByBlock
 62
     0
100
AcDbLine
 10
0.0
 20
0.0
 30
0.0
 11
-1.0
 21
0.0
 31
0.0
  0
ENDBLK
  5
4A
330
45
100
AcDbEntity
  8
0
100
AcDbBlockEnd
  0
BLOCK
  5
5A7
330
335
100
AcDbEntity
  8
0
100
AcDbBlockBegin
  2
*D3
 70
     1
 10
0.0
 20
0.0
 30
0.0
  3
*D3
  1

  0
LINE
  5
5A8
330
335
100
AcDbEntity
  8
0
  6
ByBlock
 62
     2
100
AcDbLine
 10
281.1874660371451
 20
241.8903194426192
 30
0.0
 11
281.1874660371451
 21
270.6141625426399
 31
0.0
  0
LINE
  5
5A9
330
335
100
AcDbEntity
  8
0
  6
ByBlock
 62
     2
100
AcDbLine
 10
351.1874660371451
 20
242.997120746615
 30
0.0
 11
351.1874660371451
 21
270.6141625426399
 31
0.0
  0
LINE
  5
5AA
330
335
100
AcDbEntity
  8
0
  6
ByBlock
 62
     2
100
AcDbLine
 10
283.6874660371451
 20
269.3641625426399
 30
0.0
 11
348.6874660371451
 21
269.3641625426399
 31
0.0
  0
INSERT
  5
5AB
330
335
100
AcDbEntity
  8
0
  6
ByBlock
 62
     2
100
AcDbBlockReference
  2
_OPEN
 10
281.1874660371451
 20
269.3641625426399
 30
0.0
 41
2.5
 42
2.5
 43
2.5
 50
180.0
  0
INSERT
  5
5AC
330
335
100
AcDbEntity
  8
0
  6
ByBlock
 62
     2
100
AcDbBlockReference
  2
_OPEN
 10
351.1874660371451
 20
269.3641625426399
 30
0.0
 41
2.5
 42
2.5
 43
2.5
  0
MTEXT
  5
5AD
330
335
100
AcDbEntity
  8
0
  6
ByBlock
 62
     6
100
AcDbMText
 10
316.1874660371451
 20
271.2391625426398
 30
0.0
 40
2.5
 41
0.0
 71
     5
 72
     1
  1
\A1;70
  7
STYLE3
 73
     1
 44
1.0
  0
POINT
  5
5AE
330
335
100
AcDbEntity
  8
DEFPOINTS
  6
ByBlock
 62
     0
100
AcDbPoint
 10
281.1874660371451
 20
241.8903194426192
 30
0.0
  0
POINT
  5
5AF
330
335
100
AcDbEntity
  8
DEFPOINTS
  6
ByBlock
 62
     0
100
AcDbPoint
 10
351.1874660371451
 20
242.997120746615
 30
0.0
  0
POINT
  5
5B0
330
335
100
AcDbEntity
  8
DEFPOINTS
  6
ByBlock
 62
     0
100
AcDbPoint
 10
351.1874660371451
 20
269.3641625426399
 30
0.0
  0
ENDBLK
  5
5B1
330
335
100
AcDbEntity
  8
0
100
AcDbBlockEnd
  0
BLOCK
  5
44D
330
443
100
AcDbEntity
  8
0
100
AcDbBlockBegin
  2
六角ﾈｼ3
 70
     0
 10
0.0
 20
0.0
 30
0.0
  3
六角ﾈｼ3
  1

  0
LINE
  5
444
330
443
100
AcDbEntity
  8
外形線
100
AcDbLine
 10
0.0000000000000568
 20
-5.200000000000017
 30
0.0
 11
2.499999999999886
 21
-5.199999999999988
 31
0.0
  0
LINE
  5
445
330
443
100
AcDbEntity
  8
外形線
100
AcDbLine
 10
2.500000000000397
 20
-2.600000000000022
 30
0.0
 11
0.0000000000001137
 21
-2.599999999999965
 31
0.0
  0
LINE
  5
446
330
443
100
AcDbEntity
  8
外形線
100
AcDbLine
 10
2.500000000000056
 20
2.600000000000022
 30
0.0
 11
-0.0000000000000568
 21
2.600000000000022
 31
0.0
  0
LINE
  5
447
330
443
100
AcDbEntity
  8
外形線
100
AcDbLine
 10
-0.0000000000000568
 20
5.199999999999988
 30
0.0
 11
2.499999999999886
 21
5.199999999999988
 31
0.0
  0
LINE
  5
448
330
443
100
AcDbEntity
  8
外形線
100
AcDbLine
 10
-0.0000000000000568
 20
5.199999999999988
 30
0.0
 11
0.0000000000000568
 21
-5.200000000000017
 31
0.0
  0
ARC
  5
449
330
443
100
AcDbEntity
  8
外形線
100
AcDbCircle
 10
1.059999999999774
 20
3.899999999999863
 30
0.0
 40
1.940000000000166
100
AcDbArc
 50
317.9249779491655
 51
42.07502205084422
  0
ARC
  5
44A
330
443
100
AcDbEntity
  8
外形線
100
AcDbCircle
 10
-4.010000000002719
 20
-0.0000000000005116
 30
0.0
 40
7.010000000002722
100
AcDbArc
 50
338.2289458906957
 51
21.77105410931329
  0
ARC
  5
44B
330
443
100
AcDbEntity
  8
外形線
100
AcDbCircle
 10
1.059999999999774
 20
-3.899999999999863
 30
0.0
 40
1.940000000000166
100
AcDbArc
 50
317.9249779491558
 51
42.07502205083457
  0
LINE
  5
44C
330
443
100
AcDbEntity
  8
外形線
100
AcDbLine
 10
2.999999999999943
 20
3.899999999999863
 30
0.0
 11
2.999999999999943
 21
-3.899999999999863
 31
0.0
  0
ENDBLK
  5
44E
330
443
100
AcDbEntity
  8
0
100
AcDbBlockEnd
  0
BLOCK
  5
85B
330
85A
100
AcDbEntity
  8
0
100
AcDbBlockBegin
  2
*D6
 70
     1
 10
0.0
 20
0.0
 30
0.0
  3
*D6
  1

  0
LINE
  5
85C
330
85A
100
AcDbEntity
  8
0
  6
ByBlock
 62
     2
100
AcDbLine
 10
448.3180751770693
 20
354.2334335498723
 30
0.0
 11
448.3180751770693
 21
361.7222831600953
 31
0.0
  0
LINE
  5
85D
330
85A
100
AcDbEntity
  8
0
  6
ByBlock
 62
     2
100
AcDbLine
 10
466.3180751770696
 20
354.2334335498723
 30
0.0
 11
466.3180751770696
 21
361.7222831600953
 31
0.0
  0
LINE
  5
85E
330
85A
100
AcDbEntity
  8
0
  6
ByBlock
 62
     2
100
AcDbLine
 10
450.8180751770693
 20
360.4722831600954
 30
0.0
 11
463.8180751770696
 21
360.4722831600954
 31
0.0
  0
INSERT
  5
85F
330
85A
100
AcDbEntity
  8
0
  6
ByBlock
 62
     2
100
AcDbBlockReference
  2
_OPEN
 10
448.3180751770693
 20
360.4722831600954
 30
0.0
 41
2.5
 42
2.5
 43
2.5
 50
180.0
  0
INSERT
  5
860
330
85A
100
AcDbEntity
  8
0
  6
ByBlock
 62
     2
100
AcDbBlockReference
  2
_OPEN
 10
466.3180751770696
 20
360.4722831600954
 30
0.0
 41
2.5
 42
2.5
 43
2.5
  0
MTEXT
  5
861
330
85A
100
AcDbEntity
  8
0
  6
ByBlock
 62
     6
100
AcDbMText
 10
457.3180751770695
 20
362.3472831600953
 30
0.0
 40
2.5
 41
0.0
 71
     5
 72
     1
  1
\A1;18
  7
STYLE3
 73
     1
 44
1.0
  0
POINT
  5
862
330
85A
100
AcDbEntity
  8
DEFPOINTS
  6
ByBlock
 62
     0
100
AcDbPoint
 10
448.3180751770693
 20
354.2334335498723
 30
0.0
  0
POINT
  5
863
330
85A
100
AcDbEntity
  8
DEFPOINTS
  6
ByBlock
 62
     0
100
AcDbPoint
 10
466.3180751770696
 20
354.2334335498723
 30
0.0
  0
POINT
  5
864
330
85A
100
AcDbEntity
  8
DEFPOINTS
  6
ByBlock
 62
     0
100
AcDbPoint
 10
466.3180751770696
 20
360.4722831600954
 30
0.0
  0
ENDBLK
  5
865
330
85A
100
AcDbEntity
  8
0
100
AcDbBlockEnd
  0
BLOCK
  5
8BF
330
8B2
100
AcDbEntity
  8
0
100
AcDbBlockBegin
  2
*D7
 70
     1
 10
0.0
 20
0.0
 30
0.0
  3
*D7
  1

  0
LINE
  5
8C0
330
8B2
100
AcDbEntity
  8
0
  6
ByBlock
 62
     2
100
AcDbLine
 10
456.8180751770692
 20
314.1950145657606
 30
0.0
 11
483.234113863071
 21
314.1950145657605
 31
0.0
  0
LINE
  5
8C1
330
8B2
100
AcDbEntity
  8
0
  6
ByBlock
 62
     2
100
AcDbLine
 10
456.8180751770691
 20
205.3950145657606
 30
0.0
 11
483.234113863071
 21
205.3950145657606
 31
0.0
  0
LINE
  5
8C2
330
8B2
100
AcDbEntity
  8
0
  6
ByBlock
 62
     2
100
AcDbLine
 10
481.984113863071
 20
311.6950145657605
 30
0.0
 11
481.984113863071
 21
207.8950145657606
 31
0.0
  0
INSERT
  5
8C3
330
8B2
100
AcDbEntity
  8
0
  6
ByBlock
 62
     2
100
AcDbBlockReference
  2
_OPEN
 10
481.984113863071
 20
314.1950145657605
 30
0.0
 41
2.5
 42
2.5
 43
2.5
 50
90.0
  0
INSERT
  5
8C4
330
8B2
100
AcDbEntity
  8
0
  6
ByBlock
 62
     2
100
AcDbBlockReference
  2
_OPEN
 10
481.984113863071
 20
205.3950145657606
 30
0.0
 41
2.5
 42
2.5
 43
2.5
 50
270.0
  0
MTEXT
  5
8C5
330
8B2
100
AcDbEntity
  8
0
  6
ByBlock
 62
     6
100
AcDbMText
 10
480.109113863071
 20
259.7950145657605
 30
0.0
 40
2.5
 41
0.0
 71
     5
 72
     1
  1
\A1;50～150
  7
STYLE3
 11
0.0000000000000001
 21
1.0
 31
0.0
 73
     1
 44
1.0
  0
POINT
  5
8C6
330
8B2
100
AcDbEntity
  8
DEFPOINTS
  6
ByBlock
 62
     0
100
AcDbPoint
 10
456.8180751770692
 20
314.1950145657606
 30
0.0
  0
POINT
  5
8C7
330
8B2
100
AcDbEntity
  8
DEFPOINTS
  6
ByBlock
 62
     0
100
AcDbPoint
 10
456.8180751770691
 20
205.3950145657606
 30
0.0
  0
POINT
  5
8C8
330
8B2
100
AcDbEntity
  8
DEFPOINTS
  6
ByBlock
 62
     0
100
AcDbPoint
 10
481.984113863071
 20
205.3950145657606
 30
0.0
  0
ENDBLK
  5
8C9
330
8B2
100
AcDbEntity
  8
0
100
AcDbBlockEnd
  0
ENDSEC
  0
SECTION
  2
ENTITIES
  0
LWPOLYLINE
  5
10B
330
18
100
AcDbEntity
  8
C
100
AcDbPolyline
 90
        5
 70
     0
 43
0.4
 10
236.6915604445414
 20
366.8501752555372
 10
491.6915604445414
 20
366.8501752555372
 10
491.6915604445414
 20
171.8501752555372
 10
236.6915604445414
 20
171.8501752555372
 10
236.6915604445414
 20
366.8501752555372
  0
LINE
  5
16A
330
18
100
AcDbEntity
  8
中心線
 48
0.5
100
AcDbLine
 10
249.8301201449386
 20
285.4950145657607
 30
0.0
 11
468.8775280271791
 21
285.4950145657605
 31
0.0
  0
LINE
  5
16C
102
{ACAD_REACTORS
330
317
102
}
330
18
100
AcDbEntity
  8
外形線
100
AcDbLine
 10
315.1698217644248
 20
295.4543283894141
 30
0.0
 11
315.1698217644248
 21
289.4950145657606
 31
0.0
  0
LINE
  5
16D
102
{ACAD_REACTORS
330
317
102
}
330
18
100
AcDbEntity
  8
外形線
100
AcDbLine
 10
335.1698217644248
 20
294.4762384799788
 30
0.0
 11
335.1698217644249
 21
287.4950145657606
 31
0.0
  0
LINE
  5
16E
330
18
100
AcDbEntity
  8
外形線
100
AcDbLine
 10
345.1698217644248
 20
292.6018158697565
 30
0.0
 11
345.1698217644248
 21
278.3882132617648
 31
0.0
  0
LINE
  5
171
330
18
100
AcDbEntity
  8
外形線
100
AcDbLine
 10
275.1698217644248
 20
292.6018158697565
 30
0.0
 11
275.1698217644248
 21
291.4950145657607
 31
0.0
  0
ARC
  5
173
102
{ACAD_REACTORS
330
317
102
}
330
18
100
AcDbEntity
  8
外形線
100
AcDbCircle
 10
310.1698217644248
 20
-11.75498543423936
 30
0.0
 40
307.25
100
AcDbArc
 50
83.62585904071393
 51
96.37414095928605
  0
ARC
  5
175
102
{ACAD_REACTORS
330
317
102
}
330
18
100
AcDbEntity
  8
外形線
100
AcDbCircle
 10
310.1698217644248
 20
582.7450145657605
 30
0.0
 40
307.25
100
AcDbArc
 50
263.6258590407139
 51
276.3741409592861
  0
LINE
  5
176
330
18
100
AcDbEntity
  8
外形線
100
AcDbLine
 10
325.1698217644248
 20
288.9950145657607
 30
0.0
 11
325.1698217644248
 21
281.9950145657606
 31
0.0
  0
LINE
  5
177
330
18
100
AcDbEntity
  8
外形線
100
AcDbLine
 10
295.1698217644248
 20
288.9950145657607
 30
0.0
 11
295.1698217644248
 21
281.9950145657606
 31
0.0
  0
LINE
  5
178
330
18
100
AcDbEntity
  8
外形線
100
AcDbLine
 10
295.1698217644248
 20
288.9950145657607
 30
0.0
 11
325.1698217644248
 21
288.9950145657607
 31
0.0
  0
LINE
  5
179
330
18
100
AcDbEntity
  8
外形線
100
AcDbLine
 10
295.1698217644248
 20
281.9950145657606
 30
0.0
 11
325.1698217644248
 21
281.9950145657606
 31
0.0
  0
LINE
  5
17A
102
{ACAD_REACTORS
330
317
102
}
330
18
100
AcDbEntity
  8
外形線
100
AcDbLine
 10
315.1698217644248
 20
289.4950145657606
 30
0.0
 11
325.6698217644248
 21
289.4950145657606
 31
0.0
  0
LINE
  5
17C
102
{ACAD_REACTORS
330
317
102
}
330
18
100
AcDbEntity
  8
外形線
100
AcDbLine
 10
325.6698217644248
 20
287.4950145657606
 30
0.0
 11
335.1698217644249
 21
287.4950145657606
 31
0.0
  0
LINE
  5
17F
102
{ACAD_REACTORS
330
317
102
}
330
18
100
AcDbEntity
  8
外形線
100
AcDbLine
 10
325.6698217644248
 20
289.4950145657606
 30
0.0
 11
325.6698217644248
 21
287.4950145657606
 31
0.0
  0
LINE
  5
181
102
{ACAD_REACTORS
330
317
102
}
330
18
100
AcDbEntity
  8
外形線
100
AcDbLine
 10
325.6698217644248
 20
283.4950145657606
 30
0.0
 11
335.1698217644249
 21
283.4950145657606
 31
0.0
  0
LINE
  5
182
102
{ACAD_REACTORS
330
317
102
}
330
18
100
AcDbEntity
  8
外形線
100
AcDbLine
 10
335.1698217644248
 20
276.5137906515426
 30
0.0
 11
335.1698217644249
 21
283.4950145657606
 31
0.0
  0
LINE
  5
183
102
{ACAD_REACTORS
330
317
102
}
330
18
100
AcDbEntity
  8
外形線
100
AcDbLine
 10
325.6698217644248
 20
281.4950145657606
 30
0.0
 11
325.6698217644248
 21
283.4950145657606
 31
0.0
  0
LINE
  5
184
102
{ACAD_REACTORS
330
317
102
}
330
18
100
AcDbEntity
  8
外形線
100
AcDbLine
 10
315.1698217644248
 20
281.4950145657606
 30
0.0
 11
325.6698217644248
 21
281.4950145657606
 31
0.0
  0
LINE
  5
185
102
{ACAD_REACTORS
330
317
102
}
330
18
100
AcDbEntity
  8
外形線
100
AcDbLine
 10
315.1698217644248
 20
275.5357007421072
 30
0.0
 11
315.1698217644248
 21
281.4950145657606
 31
0.0
  0
LINE
  5
186
102
{ACAD_REACTORS
330
317
102
}
330
18
100
AcDbEntity
  8
外形線
100
AcDbLine
 10
285.1698217644248
 20
276.5137906515426
 30
0.0
 11
285.1698217644247
 21
283.4950145657606
 31
0.0
  0
LINE
  5
188
102
{ACAD_REACTORS
330
317
102
}
330
18
100
AcDbEntity
  8
外形線
100
AcDbLine
 10
305.1698217644248
 20
275.5357007421072
 30
0.0
 11
305.1698217644248
 21
281.4950145657606
 31
0.0
  0
LINE
  5
189
102
{ACAD_REACTORS
330
317
102
}
330
18
100
AcDbEntity
  8
外形線
100
AcDbLine
 10
305.1698217644248
 20
281.4950145657606
 30
0.0
 11
294.6698217644248
 21
281.4950145657606
 31
0.0
  0
LINE
  5
18A
102
{ACAD_REACTORS
330
317
102
}
330
18
100
AcDbEntity
  8
外形線
100
AcDbLine
 10
294.6698217644248
 20
281.4950145657606
 30
0.0
 11
294.6698217644248
 21
283.4950145657606
 31
0.0
  0
LINE
  5
18B
102
{ACAD_REACTORS
330
317
102
}
330
18
100
AcDbEntity
  8
外形線
100
AcDbLine
 10
294.6698217644248
 20
283.4950145657606
 30
0.0
 11
285.1698217644247
 21
283.4950145657606
 31
0.0
  0
LINE
  5
18D
102
{ACAD_REACTORS
330
317
102
}
330
18
100
AcDbEntity
  8
外形線
100
AcDbLine
 10
305.1698217644248
 20
295.4543283894141
 30
0.0
 11
305.1698217644248
 21
289.4950145657606
 31
0.0
  0
LINE
  5
18E
102
{ACAD_REACTORS
330
317
102
}
330
18
100
AcDbEntity
  8
外形線
100
AcDbLine
 10
294.6698217644248
 20
287.4950145657606
 30
0.0
 11
285.1698217644247
 21
287.4950145657606
 31
0.0
  0
LINE
  5
18F
102
{ACAD_REACTORS
330
317
102
}
330
18
100
AcDbEntity
  8
外形線
100
AcDbLine
 10
285.1698217644248
 20
294.4762384799788
 30
0.0
 11
285.1698217644247
 21
287.4950145657606
 31
0.0
  0
LINE
  5
190
102
{ACAD_REACTORS
330
317
102
}
330
18
100
AcDbEntity
  8
外形線
100
AcDbLine
 10
294.6698217644248
 20
289.4950145657606
 30
0.0
 11
294.6698217644248
 21
287.4950145657606
 31
0.0
  0
LINE
  5
191
102
{ACAD_REACTORS
330
317
102
}
330
18
100
AcDbEntity
  8
外形線
100
AcDbLine
 10
305.1698217644248
 20
289.4950145657606
 30
0.0
 11
294.6698217644248
 21
289.4950145657606
 31
0.0
  0
TEXT
  5
1AE
330
18
100
AcDbEntity
  8
文字
100
AcDbText
 10
302.9218823905269
 20
284.267956250435
 30
0.0
 40
2.299999999999999
  1
50-150mm
  7
STYLE3
100
AcDbText
  0
LINE
  5
1B2
330
18
100
AcDbEntity
  8
外形線
100
AcDbLine
 10
345.1698217644248
 20
290.4950145657606
 30
0.0
 11
385.8806122091081
 21
290.4950145657606
 31
0.0
  0
LINE
  5
1B3
330
18
100
AcDbEntity
  8
外形線
100
AcDbLine
 10
345.1698217644248
 20
280.4950145657606
 30
0.0
 11
386.318329339338
 21
280.4950145657606
 31
0.0
  0
LINE
  5
1C3
330
18
100
AcDbEntity
  8
外形線
100
AcDbLine
 10
388.0927737096189
 20
290.4950145657606
 30
0.0
 11
431.8180751770691
 21
290.4950145657606
 31
0.0
  0
LINE
  5
1C4
330
18
100
AcDbEntity
  8
外形線
100
AcDbLine
 10
388.5304908398489
 20
280.4950145657606
 30
0.0
 11
431.8180751770693
 21
280.4950145657606
 31
0.0
  0
ARC
  5
24E
330
18
100
AcDbEntity
  8
外形線
100
AcDbCircle
 10
276.1698217644248
 20
292.6018158697565
 30
0.0
 40
1.0
100
AcDbArc
 50
96.37414095927951
 51
180.0
  0
ARC
  5
24F
330
18
100
AcDbEntity
  8
外形線
100
AcDbCircle
 10
276.1698217644247
 20
278.3882132617648
 30
0.0
 40
1.0
100
AcDbArc
 50
180.0
 51
263.6258590407112
  0
ARC
  5
250
330
18
100
AcDbEntity
  8
外形線
100
AcDbCircle
 10
344.1698217644248
 20
292.6018158697565
 30
0.0
 40
1.0
100
AcDbArc
 50
0.0
 51
83.62585904071403
  0
ARC
  5
251
330
18
100
AcDbEntity
  8
外形線
100
AcDbCircle
 10
344.1698217644248
 20
278.3882132617648
 30
0.0
 40
1.0
100
AcDbArc
 50
276.3741409592856
 51
0.0
  0
LINE
  5
253
330
18
100
AcDbEntity
  8
外形線
100
AcDbLine
 10
252.1698217644248
 20
290.1950145657607
 30
0.0
 11
252.1698217644248
 21
283.3044895850719
 31
0.0
  0
LINE
  5
254
330
18
100
AcDbEntity
  8
外形線
100
AcDbLine
 10
274.1698217644247
 20
290.4950145657608
 30
0.0
 11
274.1698217644248
 21
280.4950145657606
 31
0.0
  0
LINE
  5
255
330
18
100
AcDbEntity
  8
外形線
100
AcDbLine
 10
263.1698217644248
 20
290.4950145657608
 30
0.0
 11
263.1698217644248
 21
283.3044895850719
 31
0.0
  0
LINE
  5
256
330
18
100
AcDbEntity
  8
外形線
100
AcDbLine
 10
263.1698217644248
 20
290.4950145657608
 30
0.0
 11
274.1698217644248
 21
290.4950145657608
 31
0.0
  0
LINE
  5
257
330
18
100
AcDbEntity
  8
外形線
100
AcDbLine
 10
265.0860202515205
 20
280.4950145657608
 30
0.0
 11
274.1698217644247
 21
280.4950145657606
 31
0.0
  0
LINE
  5
25C
330
18
100
AcDbEntity
  8
外形線
100
AcDbLine
 10
275.1698217644247
 20
279.4950145657606
 30
0.0
 11
275.1698217644247
 21
278.3882132617648
 31
0.0
  0
LINE
  5
25E
330
18
100
AcDbEntity
  8
外形線
100
AcDbLine
 10
275.1698217644248
 20
291.4950145657607
 30
0.0
 11
275.1698217644247
 21
279.4950145657606
 31
0.0
  0
ARC
  5
25F
330
18
100
AcDbEntity
  8
外形線
100
AcDbCircle
 10
272.9339732128706
 20
278.3218421479297
 30
0.0
 40
2.5
100
AcDbArc
 50
26.57629387126569
 51
60.37379958472584
  0
ARC
  5
260
330
18
100
AcDbEntity
  8
外形線
100
AcDbCircle
 10
272.9339732128706
 20
292.6681869835917
 30
0.0
 40
2.5
100
AcDbArc
 50
299.6262004152742
 51
333.4237061287343
  0
LINE
  5
261
330
18
100
AcDbEntity
  8
外形線
100
AcDbLine
 10
253.1698217644248
 20
290.6950145657607
 30
0.0
 11
262.1698217644247
 21
290.6950145657607
 31
0.0
  0
LINE
  5
263
330
18
100
AcDbEntity
  8
外形線
100
AcDbLine
 10
253.1698217644248
 20
289.6950145657607
 30
0.0
 11
262.1698217644247
 21
289.6950145657607
 31
0.0
  0
LINE
  5
264
330
18
100
AcDbEntity
  8
外形線
100
AcDbLine
 10
262.1698217644248
 20
290.6950145657607
 30
0.0
 11
262.1698217644248
 21
289.6950145657607
 31
0.0
  0
LINE
  5
265
330
18
100
AcDbEntity
  8
外形線
100
AcDbLine
 10
253.1698217644248
 20
290.6950145657607
 30
0.0
 11
253.1698217644248
 21
289.6950145657607
 31
0.0
  0
LINE
  5
26B
330
18
100
AcDbEntity
  8
外形線
100
AcDbLine
 10
262.1698217644248
 20
289.6950145657607
 30
0.0
 11
263.1698217644248
 21
289.1950145657607
 31
0.0
  0
LINE
  5
26C
330
18
100
AcDbEntity
  8
外形線
100
AcDbLine
 10
262.1698217644248
 20
290.6950145657607
 30
0.0
 11
263.1698217644248
 21
290.1950145657607
 31
0.0
  0
LINE
  5
273
330
18
100
AcDbEntity
  8
外形線
100
AcDbLine
 10
253.1698217644248
 20
290.6950145657607
 30
0.0
 11
252.1698217644248
 21
290.1950145657607
 31
0.0
  0
LINE
  5
274
330
18
100
AcDbEntity
  8
外形線
100
AcDbLine
 10
253.1698217644248
 20
289.6950145657607
 30
0.0
 11
252.1698217644248
 21
289.1950145657607
 31
0.0
  0
LINE
  5
275
330
18
100
AcDbEntity
  8
外形線
100
AcDbLine
 10
253.1698217644248
 20
290.6950145657607
 30
0.0
 11
253.1698217644248
 21
289.6950145657607
 31
0.0
  0
LINE
  5
276
330
18
100
AcDbEntity
  8
中心線
 48
0.4
100
AcDbLine
 10
257.6698217644249
 20
288.0190339081995
 30
0.0
 11
257.6698217644248
 21
265.8468425270503
 31
0.0
  0
LINE
  5
277
330
18
100
AcDbEntity
  8
中心線
 48
0.4
100
AcDbLine
 10
247.1839610788202
 20
277.4950145657607
 30
0.0
 11
268.0516303842685
 21
277.4950145657607
 31
0.0
  0
CIRCLE
  5
278
330
18
100
AcDbEntity
  8
外形線
100
AcDbCircle
 10
257.6698217644248
 20
277.4950145657607
 30
0.0
 40
8.0
  0
TEXT
  5
27E
330
18
100
AcDbEntity
  8
文字
100
AcDbText
 10
297.1190695028336
 20
284.3757633971542
 30
0.0
 40
1.0
  1
CC-3C
  7
STYLE3
100
AcDbText
  0
ARC
  5
2F6
102
{ACAD_REACTORS
330
317
102
}
330
18
100
AcDbEntity
  8
外形線
100
AcDbCircle
 10
295.1698217644248
 20
275.3450181007667
 30
0.0
 40
2.0
100
AcDbArc
 50
12.33039196868931
 51
162.0823891309169
  0
HATCH
  5
317
330
18
100
AcDbEntity
  8
ﾊｯﾁﾝｸ
100
AcDbHatch
 10
0.0
 20
0.0
 30
0.0
210
0.0
220
0.0
230
1.0
  2
DOTS
 70
     0
 71
     1
 91
        4
 92
        7
 72
     1
 73
     1
 93
        6
 10
294.6698217644248
 20
287.4950145657606
 42
0.0
 10
294.6698217644248
 20
289.4950145657606
 42
0.0
 10
305.1698217644248
 20
289.4950145657606
 42
0.0
 10
305.1698217644248
 20
295.4543283894141
 42
0.0162971688498792
 10
285.1698217644248
 20
294.4762384799787
 42
0.0
 10
285.1698217644247
 20
287.4950145657606
 42
0.0
 97
        6
330
173
330
18F
330
18E
330
190
330
191
330
18D
 92
        7
 72
     1
 73
     1
 93
        6
 10
325.6698217644248
 20
289.4950145657606
 42
0.0
 10
325.6698217644248
 20
287.4950145657606
 42
0.0
 10
335.1698217644249
 20
287.4950145657606
 42
0.0
 10
335.1698217644248
 20
294.4762384799787
 42
0.0162971688498792
 10
315.1698217644248
 20
295.454328389414
 42
0.0
 10
315.1698217644248
 20
289.4950145657606
 42
0.0
 97
        6
330
173
330
16C
330
17A
330
17F
330
17C
330
16D
 92
        7
 72
     1
 73
     1
 93
        6
 10
335.1698217644248
 20
276.5137906515426
 42
0.0
 10
335.1698217644249
 20
283.4950145657606
 42
0.0
 10
325.6698217644248
 20
283.4950145657606
 42
0.0
 10
325.6698217644248
 20
281.4950145657606
 42
0.0
 10
315.1698217644248
 20
281.4950145657607
 42
0.0
 10
315.1698217644248
 20
275.5357007421072
 42
0.0162971688498792
 97
        6
330
181
330
183
330
184
330
185
330
175
330
182
 92
        7
 72
     1
 73
     1
 93
        8
 10
293.2668219895272
 20
275.9603162859902
 42
-0.7656091570197175
 10
297.123686638756
 20
275.7721153412806
 42
0.0065500023894979
 10
305.1698217644248
 20
275.5357007421073
 42
0.0
 10
305.1698217644248
 20
281.4950145657607
 42
0.0
 10
294.6698217644248
 20
281.4950145657606
 42
0.0
 10
294.6698217644248
 20
283.4950145657606
 42
0.0
 10
285.1698217644247
 20
283.4950145657606
 42
0.0
 10
285.1698217644248
 20
276.5137906515426
 42
0.0066039451871049
 97
        7
330
189
330
18A
330
18B
330
186
330
175
330
2F6
330
188
 75
     0
 76
     1
 52
0.0
 41
0.4
 77
     0
 78
     1
 53
0.0
 43
-16.19200525610063
 44
19.53038564007769
 45
0.3175
 46
0.635
 79
     2
 49
0.0
 49
-0.635
 47
0.3765170278403226
 98
        4
 10
289.6017913058957
 20
290.3788994153054
 10
328.4150949115804
 20
290.7554161715101
 10
328.7919229771476
 20
278.3303545710096
 10
291.485932436998
 20
279.0833885384582
  0
DIMENSION
  5
341
330
18
100
AcDbEntity
  8
外形線
100
AcDbDimension
  2
*D3
 10
345.1698217644248
 20
318.9688576657814
 30
0.0
 11
310.1698217644248
 21
320.8438576657814
 31
0.0
 12
-6.017644272720303
 22
49.60469512314154
 32
0.0
 70
    32
 71
     5
 42
-1.0
  3
STYLE3
100
AcDbAlignedDimension
 13
275.1698217644248
 23
291.4950145657607
 33
0.0
 14
345.1698217644248
 24
292.6018158697565
 34
0.0
100
AcDbRotatedDimension
1001
ACAD
1000
DSTYLE
1002
{
1070
   271
1070
     2
1002
}
  0
LINE
  5
399
330
18
100
AcDbEntity
  8
0
  6
ByBlock
 62
     2
100
AcDbLine
 10
252.1698217644248
 20
289.1950145657607
 30
0.0
 11
252.1698217644249
 21
325.5818427686701
 31
0.0
  0
LINE
  5
39B
330
18
100
AcDbEntity
  8
0
  6
ByBlock
 62
     2
100
AcDbLine
 10
254.6698217644248
 20
324.3318427686701
 30
0.0
 11
463.3180751770692
 21
324.3318427686701
 31
0.0
  0
INSERT
  5
39C
330
18
100
AcDbEntity
  8
0
  6
ByBlock
 62
     2
100
AcDbBlockReference
  2
_OPEN
 10
252.1698217644249
 20
324.3318427686701
 30
0.0
 41
2.5
 42
2.5
 43
2.5
 50
180.0
  0
INSERT
  5
39D
330
18
100
AcDbEntity
  8
0
  6
ByBlock
 62
     2
100
AcDbBlockReference
  2
_OPEN
 10
465.8180751770692
 20
324.3318427686701
 30
0.0
 41
2.5
 42
2.5
 43
2.5
  0
POINT
  5
39F
330
18
100
AcDbEntity
  8
DEFPOINTS
  6
ByBlock
 62
     0
100
AcDbPoint
 10
252.1698217644248
 20
289.1950145657607
 30
0.0
  0
POINT
  5
3A7
330
18
100
AcDbEntity
  8
DEFPOINTS
  6
ByBlock
 62
     0
100
AcDbPoint
 10
345.1698217644248
 20
292.6018158697565
 30
0.0
  0
TEXT
  5
3F3
330
18
100
AcDbEntity
  8
文字
100
AcDbText
 10
354.947865700138
 20
324.9558630181395
 30
0.0
 40
2.5
  1
253
  7
STYLE3
100
AcDbText
  0
LINE
  5
403
330
18
100
AcDbEntity
  8
外形線
100
AcDbLine
 10
323.6698217644248
 20
287.9950145657608
 30
0.0
 11
323.6698217644248
 21
282.9950145657607
 31
0.0
  0
LINE
  5
404
330
18
100
AcDbEntity
  8
外形線
100
AcDbLine
 10
296.6698217644248
 20
287.9950145657608
 30
0.0
 11
296.6698217644248
 21
282.9950145657607
 31
0.0
  0
LINE
  5
405
330
18
100
AcDbEntity
  8
外形線
100
AcDbLine
 10
296.6698217644248
 20
287.9950145657608
 30
0.0
 11
323.6698217644248
 21
287.9950145657608
 31
0.0
  0
LINE
  5
406
330
18
100
AcDbEntity
  8
外形線
100
AcDbLine
 10
296.6698217644248
 20
282.9950145657607
 30
0.0
 11
323.6698217644248
 21
282.9950145657607
 31
0.0
  0
LINE
  5
427
330
18
100
AcDbEntity
  8
中心線
 48
0.5
100
AcDbLine
 10
456.8180751770692
 20
200.760196832251
 30
0.0
 11
456.8180751770692
 21
321.2876390303538
 31
0.0
  0
LINE
  5
428
330
18
100
AcDbEntity
  8
外形線
100
AcDbLine
 10
434.8180751770692
 20
280.9950145657605
 30
0.0
 11
436.8180751770692
 21
280.9950145657605
 31
0.0
  0
LINE
  5
429
330
18
100
AcDbEntity
  8
外形線
100
AcDbLine
 10
434.8180751770693
 20
289.9950145657606
 30
0.0
 11
436.8180751770694
 21
289.9950145657606
 31
0.0
  0
LINE
  5
42A
330
18
100
AcDbEntity
  8
外形線
100
AcDbLine
 10
436.8180751770695
 20
298.6950145657607
 30
0.0
 11
436.8180751770692
 21
280.9950145657605
 31
0.0
  0
LINE
  5
42C
330
18
100
AcDbEntity
  8
外形線
100
AcDbLine
 10
436.8180751770692
 20
280.9950145657605
 30
0.0
 11
451.2180751770692
 21
280.9950145657605
 31
0.0
  0
LINE
  5
42E
330
18
100
AcDbEntity
  8
外形線
100
AcDbLine
 10
443.6180751770695
 20
305.4950145657605
 30
0.0
 11
449.8180751770692
 21
305.4950145657605
 31
0.0
  0
ARC
  5
432
330
18
100
AcDbEntity
  8
外形線
100
AcDbCircle
 10
443.6180751770695
 20
298.6950145657606
 30
0.0
 40
6.799999999999999
100
AcDbArc
 50
90.0
 51
179.9999999999992
  0
LINE
  5
434
330
18
100
AcDbEntity
  8
外形線
100
AcDbLine
 10
437.6180751770696
 20
298.6950145657607
 30
0.0
 11
437.6180751770693
 21
287.1950145657606
 31
0.0
  0
ARC
  5
435
330
18
100
AcDbEntity
  8
外形線
100
AcDbCircle
 10
443.6180751770695
 20
298.6950145657606
 30
0.0
 40
6.0
100
AcDbArc
 50
90.0
 51
179.9999999999992
  0
LINE
  5
436
330
18
100
AcDbEntity
  8
外形線
100
AcDbLine
 10
443.6180751770695
 20
304.6950145657606
 30
0.0
 11
449.8180751770692
 21
304.6950145657606
 31
0.0
  0
LINE
  5
438
330
18
100
AcDbEntity
  8
外形線
100
AcDbLine
 10
436.8180751770693
 20
287.1950145657606
 30
0.0
 11
437.6180751770693
 21
287.1950145657606
 31
0.0
  0
INSERT
  5
44F
330
18
100
AcDbEntity
  8
外形線
100
AcDbBlockReference
  2
六角ﾈｼ3
 10
431.8180751770691
 20
285.4950145657607
 30
0.0
  0
LINE
  5
465
330
18
100
AcDbEntity
  8
外形線
100
AcDbLine
 10
459.3180751770693
 20
207.8950145657606
 30
0.0
 11
459.3180751770693
 21
217.3950145657606
 31
0.0
  0
LINE
  5
466
330
18
100
AcDbEntity
  8
外形線
100
AcDbLine
 10
454.3180751770692
 20
207.8950145657606
 30
0.0
 11
454.3180751770692
 21
217.3950145657606
 31
0.0
  0
LINE
  5
474
330
18
100
AcDbEntity
  8
外形線
100
AcDbLine
 10
465.0180751770689
 20
286.7450145657605
 30
0.0
 11
465.0180751770693
 21
307.9950145657607
 31
0.0
  0
LINE
  5
479
330
18
100
AcDbEntity
  8
外形線
100
AcDbLine
 10
463.8180751770692
 20
218.3950145657606
 30
0.0
 11
463.8180751770692
 21
225.6950145657606
 31
0.0
  0
LINE
  5
47A
330
18
100
AcDbEntity
  8
外形線
100
AcDbLine
 10
449.8180751770692
 20
218.3950145657606
 30
0.0
 11
449.8180751770691
 21
225.6950145657606
 31
0.0
  0
LINE
  5
47D
330
18
100
AcDbEntity
  8
外形線
100
AcDbLine
 10
449.818075177069
 20
225.6950145657606
 30
0.0
 11
463.8180751770692
 21
225.6950145657606
 31
0.0
  0
LINE
  5
47E
330
18
100
AcDbEntity
  8
外形線
100
AcDbLine
 10
449.8180751770691
 20
218.3950145657606
 30
0.0
 11
463.8180751770692
 21
218.3950145657606
 31
0.0
  0
LINE
  5
47F
330
18
100
AcDbEntity
  8
外形線
100
AcDbLine
 10
450.3180751770691
 20
226.1950145657606
 30
0.0
 11
463.3180751770693
 21
226.1950145657606
 31
0.0
  0
LINE
  5
480
330
18
100
AcDbEntity
  8
外形線
100
AcDbLine
 10
450.3180751770692
 20
217.8950145657606
 30
0.0
 11
463.3180751770693
 21
217.8950145657605
 31
0.0
  0
LINE
  5
481
330
18
100
AcDbEntity
  8
外形線
100
AcDbLine
 10
449.8180751770691
 20
225.6950145657606
 30
0.0
 11
450.3180751770691
 21
226.1950145657606
 31
0.0
  0
LINE
  5
482
330
18
100
AcDbEntity
  8
外形線
100
AcDbLine
 10
463.3180751770693
 20
226.1950145657606
 30
0.0
 11
463.8180751770692
 21
225.6950145657606
 31
0.0
  0
LINE
  5
483
330
18
100
AcDbEntity
  8
外形線
100
AcDbLine
 10
449.8180751770692
 20
218.3950145657606
 30
0.0
 11
450.3180751770692
 21
217.8950145657606
 31
0.0
  0
LINE
  5
484
330
18
100
AcDbEntity
  8
外形線
100
AcDbLine
 10
463.3180751770693
 20
217.8950145657605
 30
0.0
 11
463.8180751770692
 21
218.3950145657606
 31
0.0
  0
LINE
  5
485
330
18
100
AcDbEntity
  8
外形線
100
AcDbLine
 10
450.3180751770692
 20
217.8950145657606
 30
0.0
 11
454.3180751770692
 21
217.3950145657606
 31
0.0
  0
LINE
  5
486
330
18
100
AcDbEntity
  8
外形線
100
AcDbLine
 10
463.3180751770693
 20
217.8950145657605
 30
0.0
 11
459.3180751770693
 21
217.3950145657606
 31
0.0
  0
LINE
  5
487
330
18
100
AcDbEntity
  8
外形線
100
AcDbLine
 10
454.3180751770692
 20
217.3950145657606
 30
0.0
 11
459.3180751770693
 21
217.3950145657606
 31
0.0
  0
LINE
  5
4A8
330
18
100
AcDbEntity
  8
外形線
100
AcDbLine
 10
454.5680751770691
 20
206.8950145657606
 30
0.0
 11
459.0680751770691
 21
206.8950145657606
 31
0.0
  0
LINE
  5
4A9
330
18
100
AcDbEntity
  8
外形線
100
AcDbLine
 10
454.3180751770692
 20
207.8950145657606
 30
0.0
 11
459.3180751770691
 21
207.8950145657606
 31
0.0
  0
LINE
  5
4AE
330
18
100
AcDbEntity
  8
外形線
100
AcDbLine
 10
454.5680751770691
 20
206.8950145657606
 30
0.0
 11
454.3180751770692
 21
207.8950145657606
 31
0.0
  0
LINE
  5
4AF
330
18
100
AcDbEntity
  8
外形線
100
AcDbLine
 10
459.0680751770691
 20
206.8950145657606
 30
0.0
 11
459.3180751770693
 21
207.8950145657606
 31
0.0
  0
ARC
  5
4B0
330
18
100
AcDbEntity
  8
外形線
100
AcDbCircle
 10
456.8180751770691
 20
207.2950145657606
 30
0.0
 40
1.9
100
AcDbArc
 50
192.153197469007
 51
347.8468025309921
  0
LINE
  5
4DF
330
18
100
AcDbEntity
  8
外形線
100
AcDbLine
 10
390.5565180609979
 20
344.2334335498724
 30
0.0
 11
431.8180751770691
 21
344.2334335498724
 31
0.0
  0
LINE
  5
4E3
330
18
100
AcDbEntity
  8
中心線
 48
0.3
100
AcDbLine
 10
457.3180751770695
 20
326.0059995687754
 30
0.0
 11
457.3180751770695
 21
350.4620805904095
 31
0.0
  0
LINE
  5
4E7
330
18
100
AcDbEntity
  8
外形線
100
AcDbLine
 10
434.8180751770693
 20
343.7334335498724
 30
0.0
 11
436.8180751770694
 21
343.7334335498724
 31
0.0
  0
LINE
  5
4E9
330
18
100
AcDbEntity
  8
外形線
100
AcDbLine
 10
436.8180751770693
 20
343.7334335498724
 30
0.0
 11
436.8180751770693
 21
339.2334335498723
 31
0.0
  0
LINE
  5
524
330
18
100
AcDbEntity
  8
外形線
100
AcDbLine
 10
431.8180751770691
 20
344.2334335498724
 30
0.0
 11
431.8180751770692
 21
339.2334335498723
 31
0.0
  0
LINE
  5
525
330
18
100
AcDbEntity
  8
外形線
100
AcDbLine
 10
434.3180751770696
 20
339.2334335498724
 30
0.0
 11
431.8180751770693
 21
339.2334335498724
 31
0.0
  0
LINE
  5
526
330
18
100
AcDbEntity
  8
外形線
100
AcDbLine
 10
434.8180751770693
 20
343.7334335498724
 30
0.0
 11
434.8180751770694
 21
339.2334335498723
 31
0.0
  0
LINE
  5
527
330
18
100
AcDbEntity
  8
中心線
 48
0.3
100
AcDbLine
 10
388.3640476667233
 20
339.2334335498723
 30
0.0
 11
468.6929901052769
 21
339.2334335498723
 31
0.0
  0
LINE
  5
57D
330
18
100
AcDbEntity
  8
0
  6
ByBlock
 62
     2
100
AcDbLine
 10
347.6698217644248
 20
318.9688576657814
 30
0.0
 11
454.3180751770693
 21
318.9688576657814
 31
0.0
  0
INSERT
  5
57E
330
18
100
AcDbEntity
  8
0
  6
ByBlock
 62
     2
100
AcDbBlockReference
  2
_OPEN
 10
345.1698217644248
 20
318.9688576657814
 30
0.0
 41
2.5
 42
2.5
 43
2.5
 50
180.0
  0
INSERT
  5
57F
330
18
100
AcDbEntity
  8
0
  6
ByBlock
 62
     2
100
AcDbBlockReference
  2
_OPEN
 10
456.8180751770693
 20
318.9688576657814
 30
0.0
 41
2.5
 42
2.5
 43
2.5
  0
MTEXT
  5
580
330
18
100
AcDbEntity
  8
0
  6
ByBlock
 62
     6
100
AcDbMText
 10
400.993948470747
 20
320.8438576657814
 30
0.0
 40
2.5
 41
0.0
 71
     5
 72
     1
  1
150
  7
STYLE3
 73
     1
 44
1.0
  0
POINT
  5
581
330
18
100
AcDbEntity
  8
DEFPOINTS
  6
ByBlock
 62
     0
100
AcDbPoint
 10
345.1698217644248
 20
292.6018158697565
 30
0.0
  0
LINE
  5
5D9
330
18
100
AcDbEntity
  8
0
  6
ByBlock
 62
     2
100
AcDbLine
 10
405.2772324485302
 20
287.9950145657606
 30
0.0
 11
405.2772324485302
 21
282.9950145657607
 31
0.0
  0
INSERT
  5
5DA
330
18
100
AcDbEntity
  8
0
  6
ByBlock
 62
     2
100
AcDbBlockReference
  2
_OPEN
 10
405.2772324485302
 20
290.4950145657606
 30
0.0
 41
2.5
 42
2.5
 43
2.5
 50
90.0
  0
INSERT
  5
5DB
330
18
100
AcDbEntity
  8
0
  6
ByBlock
 62
     2
100
AcDbBlockReference
  2
_OPEN
 10
405.2772324485302
 20
280.4950145657606
 30
0.0
 41
2.5
 42
2.5
 43
2.5
 50
270.0
  0
MTEXT
  5
5DC
330
18
100
AcDbEntity
  8
0
  6
ByBlock
 62
     6
100
AcDbMText
 10
403.4022324485302
 20
284.7977251518044
 30
0.0
 40
2.5
 41
0.0
 71
     5
 72
     1
  1
φ10
  7
STYLE3
 11
0.0000000000000001
 21
1.0
 31
0.0
 73
     1
 44
1.0
  0
ARC
  5
5FE
330
18
100
AcDbEntity
  8
外形線
100
AcDbCircle
 10
457.3180751770695
 20
339.2334335498723
 30
0.0
 40
4.049999999999999
100
AcDbArc
 50
0.0
 51
180.0
  0
LINE
  5
5FF
330
18
100
AcDbEntity
  8
外形線
100
AcDbLine
 10
448.3180751770692
 20
343.6334335498723
 30
0.0
 11
451.8180751770692
 21
343.6334335498722
 31
0.0
  0
LINE
  5
602
330
18
100
AcDbEntity
  8
外形線
100
AcDbLine
 10
448.3180751770693
 20
343.6334335498723
 30
0.0
 11
448.3180751770693
 21
354.2334335498723
 31
0.0
  0
ARC
  5
603
330
18
100
AcDbEntity
  8
外形線
 62
     4
100
AcDbCircle
 10
457.3180751770695
 20
339.2334335498723
 30
0.0
 40
1.75
100
AcDbArc
 50
0.0
 51
180.0
  0
ARC
  5
604
330
18
100
AcDbEntity
  8
外形線
 62
     4
100
AcDbCircle
 10
457.3180751770695
 20
339.2334335498723
 30
0.0
 40
1.5
100
AcDbArc
 50
0.0
 51
180.0
  0
LINE
  5
607
330
18
100
AcDbEntity
  8
外形線
100
AcDbLine
 10
436.8180751770692
 20
343.2334335498723
 30
0.0
 11
451.8180751770693
 21
343.2334335498722
 31
0.0
  0
ARC
  5
60D
330
18
100
AcDbEntity
  8
外形線
100
AcDbCircle
 10
449.4180751770695
 20
339.2334335498723
 30
0.0
 40
1.0
100
AcDbArc
 50
0.0
 51
180.0
  0
LINE
  5
60E
330
18
100
AcDbEntity
  8
外形線
 62
     4
100
AcDbLine
 10
449.7765880853982
 20
339.606178114517
 30
0.0
 11
449.4180751770697
 21
339.2334335498723
 31
0.0
  0
LINE
  5
610
330
18
100
AcDbEntity
  8
外形線
 62
     4
100
AcDbLine
 10
449.0180636114368
 20
339.6181723854252
 30
0.0
 11
449.4180751770695
 21
339.2334335498723
 31
0.0
  0
POINT
  5
66B
330
18
100
AcDbEntity
  8
DEFPOINTS
  6
ByBlock
 62
     0
100
AcDbPoint
 10
456.8180751770692
 20
343.2834335498723
 30
0.0
  0
CIRCLE
  5
66F
330
18
100
AcDbEntity
  8
外形線
100
AcDbCircle
 10
442.3180751770692
 20
299.9950145657605
 30
0.0
 40
1.0
  0
LINE
  5
693
330
18
100
AcDbEntity
  8
中心線
 48
0.5
100
AcDbLine
 10
442.3180751770693
 20
297.749620528103
 30
0.0
 11
442.3180751770693
 21
301.7828527689885
 31
0.0
  0
LINE
  5
696
330
18
100
AcDbEntity
  8
中心線
 48
0.5
100
AcDbLine
 10
439.991714127886
 20
299.9950145657606
 30
0.0
 11
444.9802313060353
 21
299.9950145657606
 31
0.0
  0
LINE
  5
69E
330
18
100
AcDbEntity
  8
外形線
 48
0.5
100
AcDbLine
 10
449.8180751770692
 20
286.7450145657605
 30
0.0
 11
449.8180751770693
 21
306.4950145657606
 31
0.0
  0
LINE
  5
69F
330
18
100
AcDbEntity
  8
外形線
 48
0.5
100
AcDbLine
 10
449.8180751770692
 20
286.7450145657605
 30
0.0
 11
465.0180751770689
 21
286.7450145657605
 31
0.0
  0
LINE
  5
6A2
330
18
100
AcDbEntity
  8
外形線
 48
0.5
100
AcDbLine
 10
463.8180751770692
 20
275.1950145657606
 30
0.0
 11
463.8180751770693
 21
286.7450145657605
 31
0.0
  0
LINE
  5
6A3
330
18
100
AcDbEntity
  8
外形線
 48
0.5
100
AcDbLine
 10
451.2180751770693
 20
280.9950145657612
 30
0.0
 11
451.2180751770692
 21
286.7450145657605
 31
0.0
  0
LINE
  5
6A4
330
18
100
AcDbEntity
  8
外形線
 48
0.5
100
AcDbLine
 10
449.8180751770691
 20
275.1950145657606
 30
0.0
 11
463.8180751770692
 21
275.1950145657606
 31
0.0
  0
LINE
  5
6A7
330
18
100
AcDbEntity
  8
外形線
100
AcDbLine
 10
449.8180751770691
 20
275.1950145657606
 30
0.0
 11
449.8180751770691
 21
276.9950145657606
 31
0.0
  0
ARC
  5
6A9
330
18
100
AcDbEntity
  8
外形線
100
AcDbCircle
 10
440.5387932639444
 20
282.4877632353544
 30
0.0
 40
10.78310533986232
100
AcDbArc
 50
329.3771476844252
 51
352.0427598771948
  0
ARC
  5
6B9
330
18
100
AcDbEntity
  8
外形線
100
AcDbCircle
 10
456.8180751770692
 20
312.6950145657606
 30
0.0
 40
1.5
100
AcDbArc
 50
19.47122063449054
 51
160.5287793655095
  0
LINE
  5
6BA
330
18
100
AcDbEntity
  8
外形線
 48
0.5
100
AcDbLine
 10
455.3680751770691
 20
313.1950145657606
 30
0.0
 11
458.2680751770693
 21
313.1950145657606
 31
0.0
  0
LINE
  5
6BC
330
18
100
AcDbEntity
  8
外形線
 48
0.5
100
AcDbLine
 10
458.5680751770693
 20
312.3915291350892
 30
0.0
 11
458.5680751770693
 21
312.8950145657606
 31
0.0
  0
LINE
  5
6BD
330
18
100
AcDbEntity
  8
外形線
 48
0.5
100
AcDbLine
 10
455.0680751770693
 20
312.3915291350892
 30
0.0
 11
455.0680751770691
 21
312.8950145657606
 31
0.0
  0
LINE
  5
6C0
330
18
100
AcDbEntity
  8
外形線
100
AcDbLine
 10
465.5180751770693
 20
308.4950145657608
 30
0.0
 11
465.8180751770692
 21
308.4950145657608
 31
0.0
  0
LINE
  5
6C1
330
18
100
AcDbEntity
  8
外形線
 48
0.5
100
AcDbLine
 10
447.8180751770692
 20
308.4950145657606
 30
0.0
 11
447.8180751770692
 21
310.9950145657606
 31
0.0
  0
LINE
  5
6C2
330
18
100
AcDbEntity
  8
外形線
 48
0.5
100
AcDbLine
 10
465.8180751770692
 20
308.4950145657606
 30
0.0
 11
465.8180751770692
 21
310.9950145657606
 31
0.0
  0
ARC
  5
6C3
330
18
100
AcDbEntity
  8
外形線
 48
0.5
100
AcDbCircle
 10
447.8180751770692
 20
306.4950145657606
 30
0.0
 40
2.0
100
AcDbArc
 50
0.0
 51
90.0
  0
ARC
  5
6C5
330
18
100
AcDbEntity
  8
外形線
100
AcDbCircle
 10
465.5180751770693
 20
307.9950145657607
 30
0.0
 40
0.5
100
AcDbArc
 50
90.00000000000074
 51
179.9999999999989
  0
LINE
  5
6C6
330
18
100
AcDbEntity
  8
外形線
100
AcDbLine
 10
447.8180751770692
 20
308.4950145657606
 30
0.0
 11
465.8180751770692
 21
308.4950145657606
 31
0.0
  0
ARC
  5
6F3
330
18
100
AcDbEntity
  8
外形線
 48
0.5
100
AcDbCircle
 10
455.3680751770691
 20
312.8950145657606
 30
0.0
 40
0.3
100
AcDbArc
 50
90.0
 51
180.0000000000043
  0
ARC
  5
6F4
330
18
100
AcDbEntity
  8
外形線
 48
0.5
100
AcDbCircle
 10
458.2680751770693
 20
312.8950145657606
 30
0.0
 40
0.3
100
AcDbArc
 50
0.0000000000043256
 51
90.0
  0
LINE
  5
70F
330
18
100
AcDbEntity
  8
外形線
100
AcDbLine
 10
465.318075177069
 20
298.3950145657606
 30
0.0
 11
465.3180751770691
 21
300.5950145657605
 31
0.0
  0
ARC
  5
71B
330
18
100
AcDbEntity
  8
外形線
100
AcDbCircle
 10
456.8180751770693
 20
283.788980083003
 30
0.0
 40
28.65603448275771
100
AcDbArc
 50
71.69532190119553
 51
108.3046780988047
  0
LINE
  5
724
330
18
100
AcDbEntity
  8
外形線
100
AcDbLine
 10
451.8180751770693
 20
339.2334335498723
 30
0.0
 11
451.8180751770693
 21
343.6334335498723
 31
0.0
  0
LINE
  5
738
330
18
100
AcDbEntity
  8
外形線
 48
0.5
100
AcDbLine
 10
448.3180751770693
 20
354.2334335498723
 30
0.0
 11
466.3180751770696
 21
354.2334335498723
 31
0.0
  0
LINE
  5
73A
330
18
100
AcDbEntity
  8
外形線
100
AcDbLine
 10
466.3180751770695
 20
339.2334335498723
 30
0.0
 11
466.3180751770696
 21
354.2334335498723
 31
0.0
  0
LINE
  5
73C
330
18
100
AcDbEntity
  8
外形線
 48
0.5
100
AcDbLine
 10
448.3180751770693
 20
352.2334335498723
 30
0.0
 11
466.3180751770696
 21
352.2334335498723
 31
0.0
  0
LINE
  5
75F
330
18
100
AcDbEntity
  8
外形線
 48
0.5
100
AcDbLine
 10
465.0180751770691
 20
300.5950145657605
 30
0.0
 11
465.3180751770691
 21
300.5950145657605
 31
0.0
  0
LINE
  5
760
330
18
100
AcDbEntity
  8
外形線
 48
0.5
100
AcDbLine
 10
465.0180751770689
 20
298.3950145657606
 30
0.0
 11
465.318075177069
 21
298.3950145657606
 31
0.0
  0
LINE
  5
76A
330
18
100
AcDbEntity
  8
寸法線
100
AcDbLine
 10
465.8180751770692
 20
310.9950145657606
 30
0.0
 11
465.8180751770692
 21
326.2236680556946
 31
0.0
  0
LINE
  5
788
330
18
100
AcDbEntity
  8
0
  6
ByBlock
 62
     2
100
AcDbLine
 10
465.8180751770692
 20
315.2574377355717
 30
0.0
 11
465.8180751770692
 21
320.2188576657814
 31
0.0
  0
LINE
  5
789
330
18
100
AcDbEntity
  8
0
  6
ByBlock
 62
     2
100
AcDbLine
 10
459.3180751770692
 20
318.9688576657814
 30
0.0
 11
463.3180751770693
 21
318.9688576657814
 31
0.0
  0
INSERT
  5
78A
330
18
100
AcDbEntity
  8
0
  6
ByBlock
 62
     2
100
AcDbBlockReference
  2
_OPEN
 10
456.8180751770691
 20
318.9688576657814
 30
0.0
 41
2.5
 42
2.5
 43
2.5
 50
180.0
  0
INSERT
  5
78B
330
18
100
AcDbEntity
  8
0
  6
ByBlock
 62
     2
100
AcDbBlockReference
  2
_OPEN
 10
465.8180751770692
 20
318.9688576657814
 30
0.0
 41
2.5
 42
2.5
 43
2.5
  0
MTEXT
  5
78C
330
18
100
AcDbEntity
  8
0
  6
ByBlock
 62
     6
100
AcDbMText
 10
461.3180751770691
 20
320.8438576657814
 30
0.0
 40
2.5
 41
0.0
 71
     5
 72
     1
  1
\A1;9
  7
STYLE3
 73
     1
 44
1.0
  0
POINT
  5
78E
330
18
100
AcDbEntity
  8
DEFPOINTS
  6
ByBlock
 62
     0
100
AcDbPoint
 10
465.8180751770692
 20
315.2574377355717
 30
0.0
  0
POINT
  5
78F
330
18
100
AcDbEntity
  8
DEFPOINTS
  6
ByBlock
 62
     0
100
AcDbPoint
 10
465.8180751770692
 20
318.9688576657814
 30
0.0
  0
LINE
  5
79E
330
18
100
AcDbEntity
  8
0
  6
ByBlock
 62
     2
100
AcDbLine
 10
456.8180751770692
 20
314.1950145657606
 30
0.0
 11
418.7100456568908
 21
314.1950145657606
 31
0.0
  0
LINE
  5
7A0
330
18
100
AcDbEntity
  8
0
  6
ByBlock
 62
     2
100
AcDbLine
 10
419.9600456568909
 20
311.6950145657606
 30
0.0
 11
419.9600456568909
 21
287.9950145657606
 31
0.0
  0
INSERT
  5
7A1
330
18
100
AcDbEntity
  8
0
  6
ByBlock
 62
     2
100
AcDbBlockReference
  2
_OPEN
 10
419.9600456568909
 20
314.1950145657606
 30
0.0
 41
2.5
 42
2.5
 43
2.5
 50
90.0
  0
INSERT
  5
7A2
330
18
100
AcDbEntity
  8
0
  6
ByBlock
 62
     2
100
AcDbBlockReference
  2
_OPEN
 10
419.9600456568909
 20
285.4950145657606
 30
0.0
 41
2.5
 42
2.5
 43
2.5
 50
270.0
  0
MTEXT
  5
7A3
330
18
100
AcDbEntity
  8
0
  6
ByBlock
 62
     6
100
AcDbMText
 10
418.0850456568909
 20
299.8450145657606
 30
0.0
 40
2.5
 41
0.0
 71
     5
 72
     1
  1
\A1;28.7
  7
STYLE3
 11
0.0000000000000001
 21
1.0
 31
0.0
 73
     1
 44
1.0
  0
POINT
  5
7A4
330
18
100
AcDbEntity
  8
DEFPOINTS
  6
ByBlock
 62
     0
100
AcDbPoint
 10
456.8180751770692
 20
314.1950145657606
 30
0.0
  0
LINE
  5
7B8
330
18
100
AcDbEntity
  8
ﾊｯﾁﾝｸ
 62
     4
100
AcDbLine
 10
461.5219075883029
 20
218.3950145657606
 30
0.0
 11
457.3072506232184
 21
225.6950145657606
 31
0.0
  0
LINE
  5
7C6
330
18
100
AcDbEntity
  8
ﾊｯﾁﾝｸ
 62
     4
100
AcDbLine
 10
462.1749209788911
 20
225.6950145657606
 30
0.0
 11
457.9602640138066
 21
218.3950145657605
 31
0.0
  0
LINE
  5
814
330
18
100
AcDbEntity
  8
中心線
100
AcDbLine
 10
449.4180751770696
 20
337.8536076560641
 30
0.0
 11
449.4180751770697
 21
340.704206135091
 31
0.0
  0
LINE
  5
816
330
18
100
AcDbEntity
  8
中心線
100
AcDbLine
 10
466.3579729624571
 20
299.4950145657605
 30
0.0
 11
463.7388383617651
 21
299.4950145657605
 31
0.0
  0
LINE
  5
81A
330
18
100
AcDbEntity
  8
ﾊｯﾁﾝｸ
 62
     4
100
AcDbLine
 10
461.0202204405118
 20
225.6950145657606
 30
0.0
 11
456.8055634754273
 21
218.3950145657605
 31
0.0
  0
LINE
  5
81B
330
18
100
AcDbEntity
  8
ﾊｯﾁﾝｸ
 62
     4
100
AcDbLine
 10
459.8655199021324
 20
225.6950145657606
 30
0.0
 11
456.8180751770692
 21
220.4166854686933
 31
0.0
  0
LINE
  5
81C
330
18
100
AcDbEntity
  8
ﾊｯﾁﾝｸ
 62
     4
100
AcDbLine
 10
458.7108193637534
 20
225.6950145657606
 30
0.0
 11
456.8180751770692
 21
222.4166854686932
 31
0.0
  0
LINE
  5
81D
330
18
100
AcDbEntity
  8
ﾊｯﾁﾝｸ
 62
     4
100
AcDbLine
 10
457.5561188253741
 20
225.6950145657606
 30
0.0
 11
456.8180751770692
 21
224.4166854686931
 31
0.0
  0
LINE
  5
81E
330
18
100
AcDbEntity
  8
ﾊｯﾁﾝｸ
 62
     4
100
AcDbLine
 10
463.3296215172702
 20
225.6950145657606
 30
0.0
 11
459.1149645521858
 21
218.3950145657605
 31
0.0
  0
LINE
  5
81F
330
18
100
AcDbEntity
  8
ﾊｯﾁﾝｸ
 62
     4
100
AcDbLine
 10
463.8180751770692
 20
224.5410411216755
 30
0.0
 11
460.2696650905651
 21
218.3950145657606
 31
0.0
  0
LINE
  5
820
330
18
100
AcDbEntity
  8
ﾊｯﾁﾝｸ
 62
     4
100
AcDbLine
 10
463.8180751770692
 20
222.5410411216756
 30
0.0
 11
461.4243656289444
 21
218.3950145657605
 31
0.0
  0
LINE
  5
821
330
18
100
AcDbEntity
  8
ﾊｯﾁﾝｸ
 62
     4
100
AcDbLine
 10
463.8180751770692
 20
220.5410411216755
 30
0.0
 11
462.5790661673235
 21
218.3950145657605
 31
0.0
  0
LINE
  5
822
330
18
100
AcDbEntity
  8
ﾊｯﾁﾝｸ
 62
     4
100
AcDbLine
 10
462.676608126682
 20
218.3950145657605
 30
0.0
 11
458.4619511615977
 21
225.6950145657606
 31
0.0
  0
LINE
  5
823
330
18
100
AcDbEntity
  8
ﾊｯﾁﾝｸ
 62
     4
100
AcDbLine
 10
463.8313086650613
 20
218.3950145657605
 30
0.0
 11
459.616651699977
 21
225.6950145657606
 31
0.0
  0
LINE
  5
824
330
18
100
AcDbEntity
  8
ﾊｯﾁﾝｸ
 62
     4
100
AcDbLine
 10
463.8180751770692
 20
220.4179356393242
 30
0.0
 11
460.7713522383562
 21
225.6950145657606
 31
0.0
  0
LINE
  5
825
330
18
100
AcDbEntity
  8
ﾊｯﾁﾝｸ
 62
     4
100
AcDbLine
 10
463.8180751770692
 20
222.417935639324
 30
0.0
 11
461.9260527767355
 21
225.6950145657606
 31
0.0
  0
LINE
  5
826
330
18
100
AcDbEntity
  8
ﾊｯﾁﾝｸ
 62
     4
100
AcDbLine
 10
463.8180751770692
 20
224.4179356393241
 30
0.0
 11
463.0807533151148
 21
225.6950145657606
 31
0.0
  0
LINE
  5
827
330
18
100
AcDbEntity
  8
ﾊｯﾁﾝｸ
 62
     4
100
AcDbLine
 10
460.3672070499235
 20
218.3950145657606
 30
0.0
 11
456.8180751770691
 21
224.5422912923061
 31
0.0
  0
LINE
  5
828
330
18
100
AcDbEntity
  8
ﾊｯﾁﾝｸ
 62
     4
100
AcDbLine
 10
459.2125065115443
 20
218.3950145657606
 30
0.0
 11
456.8180751770691
 21
222.5422912923063
 31
0.0
  0
LINE
  5
829
330
18
100
AcDbEntity
  8
ﾊｯﾁﾝｸ
 62
     4
100
AcDbLine
 10
458.057805973165
 20
218.3950145657605
 30
0.0
 11
456.8180751770691
 21
220.5422912923063
 31
0.0
  0
LINE
  5
82A
330
18
100
AcDbEntity
  8
ﾊｯﾁﾝｸ
 62
     4
100
AcDbLine
 10
463.8180751770692
 20
218.5410411216758
 30
0.0
 11
463.7337667057027
 21
218.3950145657605
 31
0.0
  0
LINE
  5
82B
330
18
100
AcDbEntity
  8
ﾊｯﾁﾝｸ
 62
     4
100
AcDbLine
 10
456.9031054347857
 20
218.3950145657605
 30
0.0
 11
456.8180751770691
 21
218.5422912923063
 31
0.0
  0
DIMENSION
  5
866
330
18
100
AcDbEntity
  8
外形線
100
AcDbDimension
  2
*D6
 10
466.3180751770696
 20
360.4722831600954
 30
0.0
 11
457.3180751770695
 21
362.3472831600953
 31
0.0
 70
    32
 71
     5
 42
-1.0
  3
STYLE3
100
AcDbAlignedDimension
 13
448.3180751770693
 23
354.2334335498723
 33
0.0
 14
466.3180751770696
 24
354.2334335498723
 34
0.0
100
AcDbRotatedDimension
1001
ACAD
1000
DSTYLE
1002
{
1070
   271
1070
     2
1002
}
  0
LINE
  5
87D
330
18
100
AcDbEntity
  8
外形線
 48
0.5
100
AcDbLine
 10
450.0680751770692
 20
266.1950145657605
 30
0.0
 11
463.5680751770692
 21
266.1950145657606
 31
0.0
  0
LINE
  5
87E
330
18
100
AcDbEntity
  8
外形線
 48
0.5
100
AcDbLine
 10
449.8180751770692
 20
265.1950145657606
 30
0.0
 11
463.8180751770692
 21
265.1950145657606
 31
0.0
  0
LINE
  5
881
330
18
100
AcDbEntity
  8
0
  6
ByBlock
 62
     2
100
AcDbLine
 10
466.3180751770696
 20
354.2334335498723
 30
0.0
 11
481.095476461991
 21
354.2334335498723
 31
0.0
  0
LINE
  5
883
330
18
100
AcDbEntity
  8
0
  6
ByBlock
 62
     2
100
AcDbLine
 10
479.845476461991
 20
351.7334335498723
 30
0.0
 11
479.845476461991
 21
333.0339348651786
 31
0.0
  0
INSERT
  5
884
330
18
100
AcDbEntity
  8
0
  6
ByBlock
 62
     2
100
AcDbBlockReference
  2
_OPEN
 10
479.845476461991
 20
354.2334335498723
 30
0.0
 41
2.5
 42
2.5
 43
2.5
 50
90.0
  0
MTEXT
  5
886
330
18
100
AcDbEntity
  8
0
  6
ByBlock
 62
     6
100
AcDbMText
 10
477.970476461991
 20
339.0356173783878
 30
0.0
 40
2.5
 41
0.0
 71
     5
 72
     1
  1
\A1;30
  7
STYLE3
 11
0.0000000000000001
 21
1.0
 31
0.0
 73
     1
 44
1.0
  0
POINT
  5
887
330
18
100
AcDbEntity
  8
DEFPOINTS
  6
ByBlock
 62
     0
100
AcDbPoint
 10
466.3180751770696
 20
354.2334335498723
 30
0.0
  0
LINE
  5
88B
330
18
100
AcDbEntity
  8
外形線
 48
0.8
100
AcDbLine
 10
431.8180751770691
 20
343.7334335498724
 30
0.0
 11
434.5556747502508
 21
343.7334335498724
 31
0.0
  0
ARC
  5
88C
330
18
100
AcDbEntity
  8
外形線
100
AcDbCircle
 10
427.8080751770665
 20
341.8334335498719
 30
0.0
 40
7.010000000002722
100
AcDbArc
 50
338.2289458906957
 51
15.72624379279067
  0
LINE
  5
88F
330
18
100
AcDbEntity
  8
外形線
 48
0.5
100
AcDbLine
 10
449.8180751770692
 20
226.1950145657606
 30
0.0
 11
463.8180751770692
 21
226.1950145657606
 31
0.0
  0
LINE
  5
891
330
18
100
AcDbEntity
  8
外形線
 48
0.5
100
AcDbLine
 10
463.5680751770692
 20
266.1950145657606
 30
0.0
 11
463.5680751770693
 21
275.1950145657606
 31
0.0
  0
LINE
  5
892
330
18
100
AcDbEntity
  8
外形線
 48
0.5
100
AcDbLine
 10
450.0680751770692
 20
266.1950145657605
 30
0.0
 11
450.0680751770693
 21
275.1950145657606
 31
0.0
  0
ARC
  5
893
330
18
100
AcDbEntity
  8
外形線
100
AcDbCircle
 10
450.0680751770692
 20
265.6950145657605
 30
0.0
 40
0.5
100
AcDbArc
 50
270.0
 51
90.0
  0
ARC
  5
894
330
18
100
AcDbEntity
  8
外形線
100
AcDbCircle
 10
463.5680751770692
 20
265.6950145657607
 30
0.0
 40
0.5
100
AcDbArc
 50
90.00000000000104
 51
270.000000000001
  0
LINE
  5
895
330
18
100
AcDbEntity
  8
外形線
 48
0.5
100
AcDbLine
 10
463.8180751770692
 20
226.1950145657606
 30
0.0
 11
463.8180751770692
 21
265.1950145657606
 31
0.0
  0
LINE
  5
896
330
18
100
AcDbEntity
  8
外形線
 48
0.5
100
AcDbLine
 10
449.8180751770692
 20
226.1950145657606
 30
0.0
 11
449.8180751770692
 21
265.1950145657606
 31
0.0
  0
LINE
  5
89A
330
18
100
AcDbEntity
  8
ﾊｯﾁﾝｸ
 62
     4
100
AcDbLine
 10
459.9354753373879
 20
275.1950145657606
 30
0.0
 11
456.8180751770692
 21
269.7955191005654
 31
0.0
  0
LINE
  5
89B
330
18
100
AcDbEntity
  8
ﾊｯﾁﾝｸ
 62
     4
100
AcDbLine
 10
458.7807747990088
 20
275.1950145657606
 30
0.0
 11
456.8180751770692
 21
271.7955191005653
 31
0.0
  0
LINE
  5
89C
330
18
100
AcDbEntity
  8
ﾊｯﾁﾝｸ
 62
     4
100
AcDbLine
 10
457.6260742606295
 20
275.1950145657606
 30
0.0
 11
456.8180751770692
 21
273.7955191005652
 31
0.0
  0
LINE
  5
89D
330
18
100
AcDbEntity
  8
ﾊｯﾁﾝｸ
 62
     4
100
AcDbLine
 10
461.0901758757671
 20
275.1950145657606
 30
0.0
 11
456.8180751770692
 21
267.7955191005656
 31
0.0
  0
LINE
  5
89E
330
18
100
AcDbEntity
  8
ﾊｯﾁﾝｸ
 62
     4
100
AcDbLine
 10
461.2787470722905
 20
266.1950145657605
 30
0.0
 11
456.8180751770691
 21
273.9211249241782
 31
0.0
  0
LINE
  5
89F
330
18
100
AcDbEntity
  8
ﾊｯﾁﾝｸ
 62
     4
100
AcDbLine
 10
460.1240465339113
 20
266.1950145657606
 30
0.0
 11
456.8180751770691
 21
271.9211249241784
 31
0.0
  0
LINE
  5
8A0
330
18
100
AcDbEntity
  8
ﾊｯﾁﾝｸ
 62
     4
100
AcDbLine
 10
458.969345995532
 20
266.1950145657606
 30
0.0
 11
456.8180751770691
 21
269.9211249241784
 31
0.0
  0
LINE
  5
8A1
330
18
100
AcDbEntity
  8
ﾊｯﾁﾝｸ
 62
     4
100
AcDbLine
 10
457.8146454571523
 20
266.1950145657605
 30
0.0
 11
456.8180751770691
 21
267.9211249241784
 31
0.0
  0
LINE
  5
8A2
330
18
100
AcDbEntity
  8
ﾊｯﾁﾝｸ
 62
     4
100
AcDbLine
 10
463.5680751770692
 20
270.2297819730885
 30
0.0
 11
460.7013968031008
 21
275.1950145657606
 31
0.0
  0
LINE
  5
8A3
330
18
100
AcDbEntity
  8
ﾊｯﾁﾝｸ
 62
     4
100
AcDbLine
 10
462.4334476106699
 20
266.1950145657606
 30
0.0
 11
457.2372951879629
 21
275.1950145657606
 31
0.0
  0
LINE
  5
8A4
330
18
100
AcDbEntity
  8
ﾊｯﾁﾝｸ
 62
     4
100
AcDbLine
 10
462.2448764141465
 20
275.1950145657606
 30
0.0
 11
457.0487239914395
 21
266.1950145657606
 31
0.0
  0
LINE
  5
8A5
330
18
100
AcDbEntity
  8
ﾊｯﾁﾝｸ
 62
     4
100
AcDbLine
 10
463.3995769525256
 20
275.1950145657606
 30
0.0
 11
458.2034245298188
 21
266.1950145657606
 31
0.0
  0
LINE
  5
8A6
330
18
100
AcDbEntity
  8
ﾊｯﾁﾝｸ
 62
     4
100
AcDbLine
 10
463.5680751770693
 20
273.4868620516555
 30
0.0
 11
459.3581250681981
 21
266.1950145657606
 31
0.0
  0
LINE
  5
8A7
330
18
100
AcDbEntity
  8
ﾊｯﾁﾝｸ
 62
     4
100
AcDbLine
 10
463.5680751770693
 20
271.4868620516554
 30
0.0
 11
460.5128256065774
 21
266.1950145657606
 31
0.0
  0
LINE
  5
8A8
330
18
100
AcDbEntity
  8
ﾊｯﾁﾝｸ
 62
     4
100
AcDbLine
 10
463.588148149049
 20
266.1950145657606
 30
0.0
 11
458.3919957263423
 21
275.1950145657606
 31
0.0
  0
LINE
  5
8A9
330
18
100
AcDbEntity
  8
ﾊｯﾁﾝｸ
 62
     4
100
AcDbLine
 10
463.5680751770692
 20
268.2297819730885
 30
0.0
 11
459.5466962647215
 21
275.1950145657606
 31
0.0
  0
LINE
  5
8AA
330
18
100
AcDbEntity
  8
ﾊｯﾁﾝｸ
 62
     4
100
AcDbLine
 10
463.5680751770691
 20
267.4868620516556
 30
0.0
 11
462.8222266833362
 21
266.1950145657606
 31
0.0
  0
LINE
  5
8AB
330
18
100
AcDbEntity
  8
ﾊｯﾁﾝｸ
 62
     4
100
AcDbLine
 10
463.5680751770693
 20
269.4868620516556
 30
0.0
 11
461.6675261449564
 21
266.1950145657606
 31
0.0
  0
LINE
  5
8AC
330
18
100
AcDbEntity
  8
ﾊｯﾁﾝｸ
 62
     4
100
AcDbLine
 10
463.5680751770693
 20
272.2297819730882
 30
0.0
 11
461.8560973414802
 21
275.1950145657606
 31
0.0
  0
LINE
  5
8AD
330
18
100
AcDbEntity
  8
ﾊｯﾁﾝｸ
 62
     4
100
AcDbLine
 10
463.5680751770693
 20
274.2297819730883
 30
0.0
 11
463.0107978798593
 21
275.1950145657606
 31
0.0
  0
DIMENSION
  5
8BE
330
18
100
AcDbEntity
  8
外形線
100
AcDbDimension
  2
*D7
 10
481.984113863071
 20
205.3950145657606
 30
0.0
 11
480.109113863071
 21
259.7950145657605
 31
0.0
 70
    32
  1
50～150
 71
     5
 42
-1.0
  3
STYLE3
100
AcDbAlignedDimension
 13
456.8180751770692
 23
314.1950145657606
 33
0.0
 14
456.8180751770691
 24
205.3950145657606
 34
0.0
 50
90.0
100
AcDbRotatedDimension
1001
ACAD
1000
DSTYLE
1002
{
1070
   271
1070
     2
1002
}
  0
LINE
  5
8F3
330
18
100
AcDbEntity
  8
想像線
 48
0.4
100
AcDbLine
 10
385.7625843947703
 20
293.1914549421238
 30
0.0
 11
386.4379010501263
 21
277.7633026328607
 31
0.0
  0
LINE
  5
8F4
330
18
100
AcDbEntity
  8
想像線
 48
0.3
100
AcDbLine
 10
390.2968542941697
 20
346.0328754628193
 30
0.0
 11
391.7439617606859
 21
336.0045767148051
 31
0.0
  0
LINE
  5
8F5
330
18
100
AcDbEntity
  8
想像線
 48
0.4
100
AcDbLine
 10
387.9747458952812
 20
293.1914549421238
 30
0.0
 11
388.6500625506372
 21
277.7633026328607
 31
0.0
  0
TEXT
  5
922
330
18
100
AcDbEntity
  8
文字
100
AcDbText
 10
273.1741317881277
 20
356.8546074576129
 30
0.0
 40
4.0
  1
Model No.CC-3C Cylinder Gauge
  7
STYLE3
100
AcDbText
  0
LINE
  5
923
330
18
100
AcDbEntity
  8
外形線
100
AcDbLine
 10
273.0479107881277
 20
354.3947264576129
 30
0.0
 11
369.0479107881277
 21
354.3947264576129
 31
0.0
  0
LINE
  5
924
330
18
100
AcDbEntity
  8
外形線
100
AcDbLine
 10
273.0479107881277
 20
353.3947264576129
 30
0.0
 11
369.0479107881277
 21
353.3947264576129
 31
0.0
  0
TEXT
  5
925
330
18
100
AcDbEntity
  8
0
  6
Continuous
100
AcDbText
 10
352.0082757881277
 20
184.0207514576129
 30
0.0
 40
2.1
  1
Design and specifications are subject to change without notice for future improvement.
  7
STYLE3
100
AcDbText
  0
LINE
  5
926
330
18
100
AcDbEntity
  8
外形線
100
AcDbLine
 10
350.5508087881277
 20
172.507983457613
 30
0.0
 11
350.5508087881277
 21
192.9029664576129
 31
0.0
  0
LINE
  5
927
330
18
100
AcDbEntity
  8
外形線
100
AcDbLine
 10
350.5508087881277
 20
182.1227604576129
 30
0.0
 11
491.3422267881276
 21
182.1227604576129
 31
0.0
  0
TEXT
  5
928
330
18
100
AcDbEntity
  8
0
  6
Continuous
100
AcDbText
 10
395.3210537881277
 20
176.004266457613
 30
0.0
 40
2.399999999999999
  1
mm
  7
STYLE3
100
AcDbText
  0
TEXT
  5
929
330
18
100
AcDbEntity
  8
0
  6
Continuous
100
AcDbText
 10
354.3402267881277
 20
177.7524064576129
 30
0.0
 40
3.0
  1
三　　角　　法
  7
STYLE3
100
AcDbText
  0
TEXT
  5
92A
330
18
100
AcDbEntity
  8
0
  6
Continuous
100
AcDbText
 10
351.7167847881277
 20
174.2561234576129
 30
0.0
 40
2.1
  1
3RD Angle Projection
  7
STYLE3
100
AcDbText
  0
TEXT
  5
92B
330
18
100
AcDbEntity
  8
0
  6
Continuous
100
AcDbText
 10
387.4507267881277
 20
174.2561244576129
 30
0.0
 40
2.1
  1
Unit
  7
STYLE3
100
AcDbText
  0
TEXT
  5
92C
330
18
100
AcDbEntity
  8
0
  6
Continuous
100
AcDbText
 10
387.2790057881277
 20
177.7583604576129
 30
0.0
 40
3.0
  1
単位
  7
STYLE3
100
AcDbText
  0
LINE
  5
92D
330
18
100
AcDbEntity
  8
外形線
100
AcDbLine
 10
385.8215367881277
 20
182.1227604576129
 30
0.0
 11
385.8215367881277
 21
172.507983457613
 31
0.0
  0
TEXT
  5
92E
330
18
100
AcDbEntity
  8
0
  6
Continuous
100
AcDbText
 10
454.7970177881277
 20
174.2561244576129
 30
0.0
 40
2.1
  1
OZAKI MFG. CO., LTD.
  7
STYLE3
100
AcDbText
  0
TEXT
  5
92F
330
18
100
AcDbEntity
  8
0
  6
Continuous
100
AcDbText
 10
453.9225387881277
 20
178.0437634576129
 30
0.0
 40
3.0
  1
株式会社　尾崎製作所
  7
STYLE3
100
AcDbText
  0
TEXT
  5
930
330
18
100
AcDbEntity
  8
0
  6
Continuous
100
AcDbText
 10
433.5179837881277
 20
176.004265457613
 30
0.0
 40
2.1
  1
2010.06.23
  7
STYLE3
100
AcDbText
  0
TEXT
  5
931
330
18
100
AcDbEntity
  8
0
  6
Continuous
100
AcDbText
 10
414.6794057881276
 20
176.295623457613
 30
0.0
 40
2.399999999999999
  1
1/1
  7
STYLE3
100
AcDbText
  0
TEXT
  5
932
330
18
100
AcDbEntity
  8
0
  6
Continuous
100
AcDbText
 10
405.0601167881277
 20
174.5474814576129
 30
0.0
 40
2.1
  1
Scale
  7
STYLE3
100
AcDbText
  0
TEXT
  5
933
330
18
100
AcDbEntity
  8
0
  6
Continuous
100
AcDbText
 10
404.5969017881277
 20
177.4670034576129
 30
0.0
 40
3.0
  1
尺 度
  7
STYLE3
100
AcDbText
  0
LINE
  5
934
330
18
100
AcDbEntity
  8
外形線
100
AcDbLine
 10
403.3111537881277
 20
182.1227604576129
 30
0.0
 11
403.3111537881277
 21
172.507983457613
 31
0.0
  0
TEXT
  5
935
330
18
100
AcDbEntity
  8
0
  6
Continuous
100
AcDbText
 10
424.3898157881276
 20
177.5892084576129
 30
0.0
 40
3.0
  1
日 付
  7
STYLE3
100
AcDbText
  0
TEXT
  5
936
330
18
100
AcDbEntity
  8
0
  6
Continuous
100
AcDbText
 10
424.7731767881276
 20
174.2561254576129
 30
0.0
 40
2.1
  1
Date
  7
STYLE3
100
AcDbText
  0
LINE
  5
937
330
18
100
AcDbEntity
  8
外形線
100
AcDbLine
 10
422.8412257881276
 20
182.1227604576129
 30
0.0
 11
422.8412257881276
 21
172.507983457613
 31
0.0
  0
LINE
  5
938
330
18
100
AcDbEntity
  8
外形線
100
AcDbLine
 10
452.5735757881276
 20
182.1227604576129
 30
0.0
 11
452.5735757881276
 21
172.507983457613
 31
0.0
  0
TEXT
  5
939
330
18
100
AcDbEntity
  8
0
  6
Continuous
100
AcDbText
 10
352.2997697881277
 20
187.9498994576129
 30
0.0
 40
3.5
  1
仕様及び外観は予告なく変更される場合がございますのでご了承下さい。
  7
STYLE3
100
AcDbText
  0
LINE
  5
93A
330
18
100
AcDbEntity
  8
外形線
100
AcDbLine
 10
350.5508087881277
 20
192.9029664576129
 30
0.0
 11
491.3422267881276
 21
192.9029664576129
 31
0.0
  0
ENDSEC
  0
SECTION
  2
OBJECTS
  0
DICTIONARY
  5
C
330
0
100
AcDbDictionary
281
     1
  3
ACAD_COLOR
350
8FB
  3
ACAD_GROUP
350
D
  3
ACAD_LAYOUT
350
8FC
  3
ACAD_MATERIAL
350
8FA
  3
ACAD_MLINESTYLE
350
1B
  3
ACAD_PLOTSETTINGS
350
8FD
  3
ACAD_PLOTSTYLENAME
350
8F8
  3
ACDBVARIABLEDICTIONARY
350
192
  0
DICTIONARY
  5
8FB
102
{ACAD_REACTORS
330
C
102
}
330
C
100
AcDbDictionary
281
     1
  0
DICTIONARY
  5
D
102
{ACAD_REACTORS
330
C
102
}
330
C
100
AcDbDictionary
281
     1
  0
DICTIONARY
  5
8FC
102
{ACAD_REACTORS
330
C
102
}
330
C
100
AcDbDictionary
281
     1
  3
Model
350
8FE
  3
レイアウト1
350
8FF
  0
DICTIONARY
  5
8FA
102
{ACAD_REACTORS
330
C
102
}
330
C
100
AcDbDictionary
281
     1
  0
DICTIONARY
  5
1B
102
{ACAD_REACTORS
330
C
102
}
330
C
100
AcDbDictionary
281
     1
  3
STANDARD
350
1C
  0
DICTIONARY
  5
8FD
102
{ACAD_REACTORS
330
C
102
}
330
C
100
AcDbDictionary
281
     1
  0
ACDBDICTIONARYWDFLT
  5
8F8
102
{ACAD_REACTORS
330
C
102
}
330
C
100
AcDbDictionary
281
     1
  3
Normal
350
8F9
100
AcDbDictionaryWithDefault
340
8F9
  0
DICTIONARY
  5
192
102
{ACAD_REACTORS
330
C
102
}
330
C
100
AcDbDictionary
281
     1
  3
SORTENTS
350
193
  0
LAYOUT
  5
8FE
102
{ACAD_REACTORS
330
8FC
102
}
330
8FC
100
AcDbPlotSettings
  1

  2
EPSON PX-101
  4

  6

 40
0.0
 41
0.0
 42
0.0
 43
0.0
 44
0.0
 45
0.0
 46
0.0
 47
0.0
 48
0.0
 49
0.0
140
0.0
141
0.0
142
1.0
143
1.0
 70
  1712
 72
     0
 73
     0
 74
     0
  7
AutoCad LT 98fukui.ctb
 75
     0
147
1.0
 76
     0
 77
     2
 78
   300
148
0.0
149
0.0
100
AcDbLayout
  1
Model
 70
     1
 71
     0
 10
0.0
 20
0.0
 11
12.0
 21
9.0
 12
0.0
 22
0.0
 32
0.0
 14
0.0
 24
0.0
 34
0.0
 15
0.0
 25
0.0
 35
0.0
146
0.0
 13
0.0
 23
0.0
 33
0.0
 16
1.0
 26
0.0
 36
0.0
 17
0.0
 27
1.0
 37
0.0
 76
     0
330
18
  0
LAYOUT
  5
8FF
102
{ACAD_REACTORS
330
8FC
102
}
330
8FC
100
AcDbPlotSettings
  1

  2
EPSON PX-101
  4

  6

 40
0.0
 41
0.0
 42
0.0
 43
0.0
 44
0.0
 45
0.0
 46
0.0
 47
0.0
 48
0.0
 49
0.0
140
0.0
141
0.0
142
1.0
143
1.0
 70
   688
 72
     0
 73
     0
 74
     5
  7
AutoCad LT 98fukui.ctb
 75
    16
147
1.0
 76
     0
 77
     2
 78
   300
148
0.0
149
0.0
100
AcDbLayout
  1
レイアウト1
 70
     1
 71
     1
 10
0.0
 20
0.0
 11
420.0
 21
297.0
 12
0.0
 22
0.0
 32
0.0
 14
1.000000000000000E+20
 24
1.000000000000000E+20
 34
1.000000000000000E+20
 15
-1.000000000000000E+20
 25
-1.000000000000000E+20
 35
-1.000000000000000E+20
146
0.0
 13
0.0
 23
0.0
 33
0.0
 16
1.0
 26
0.0
 36
0.0
 17
0.0
 27
1.0
 37
0.0
 76
     0
330
15
  0
MLINESTYLE
  5
1C
102
{ACAD_REACTORS
330
1B
102
}
330
1B
100
AcDbMlineStyle
  2
STANDARD
 70
     0
  3

 62
   256
 51
90.0
 52
90.0
 71
     2
 49
0.5
 62
   256
  6
BYLAYER
 49
-0.5
 62
   256
  6
BYLAYER
  0
ACDBPLACEHOLDER
  5
8F9
102
{ACAD_REACTORS
330
8F8
102
}
330
8F8
  0
DICTIONARYVAR
  5
193
102
{ACAD_REACTORS
330
192
102
}
330
192
100
DictionaryVariables
280
     0
  1
96
  0
ENDSEC
  0
EOF
