  0
SECTION
  2
HEADER
  9
$ACADVER
  1
AC1018
  9
$ACADMAINTVER
 70
     0
  9
$DWGCODEPAGE
  3
ANSI_932
  9
$INSBASE
 10
0.0
 20
0.0
 30
0.0
  9
$EXTMIN
 10
236.4583261120649
 20
171.6287515666504
 30
-0.0000000349181948
  9
$EXTMAX
 10
491.9215858715545
 20
367.0725802714662
 30
0.0000000814935746
  9
$LIMMIN
 10
0.0
 20
0.0
  9
$LIMMAX
 10
420.0
 20
297.0
  9
$ORTHOMODE
 70
     1
  9
$REGENMODE
 70
     1
  9
$FILLMODE
 70
     1
  9
$QTEXTMODE
 70
     0
  9
$MIRRTEXT
 70
     1
  9
$LTSCALE
 40
1.0
  9
$ATTMODE
 70
     1
  9
$TEXTSIZE
 40
3.0
  9
$TRACEWID
 40
1.0
  9
$TEXTSTYLE
  7
STYLE3
  9
$CLAYER
  8
中心線
  9
$CELTYPE
  6
BYLAYER
  9
$CECOLOR
 62
   256
  9
$CELTSCALE
 40
1.0
  9
$DISPSILH
 70
     0
  9
$DIMSCALE
 40
1.0
  9
$DIMASZ
 40
2.5
  9
$DIMEXO
 40
0.0
  9
$DIMDLI
 40
3.75
  9
$DIMRND
 40
0.0
  9
$DIMDLE
 40
0.0
  9
$DIMEXE
 40
1.25
  9
$DIMTP
 40
0.0
  9
$DIMTM
 40
0.0
  9
$DIMTXT
 40
2.5
  9
$DIMCEN
 40
2.5
  9
$DIMTSZ
 40
0.0
  9
$DIMTOL
 70
     0
  9
$DIMLIM
 70
     0
  9
$DIMTIH
 70
     0
  9
$DIMTOH
 70
     0
  9
$DIMSE1
 70
     0
  9
$DIMSE2
 70
     0
  9
$DIMTAD
 70
     1
  9
$DIMZIN
 70
     8
  9
$DIMBLK
  1

  9
$DIMASO
 70
     1
  9
$DIMSHO
 70
     1
  9
$DIMPOST
  1

  9
$DIMAPOST
  1

  9
$DIMALT
 70
     0
  9
$DIMALTD
 70
     4
  9
$DIMALTF
 40
0.0394
  9
$DIMLFAC
 40
1.0
  9
$DIMTOFL
 70
     1
  9
$DIMTVP
 40
0.0
  9
$DIMTIX
 70
     0
  9
$DIMSOXD
 70
     0
  9
$DIMSAH
 70
     1
  9
$DIMBLK1
  1
OPEN
  9
$DIMBLK2
  1
OPEN
  9
$DIMSTYLE
  2
STYLE3
  9
$DIMCLRD
 70
     2
  9
$DIMCLRE
 70
     2
  9
$DIMCLRT
 70
     6
  9
$DIMTFAC
 40
1.0
  9
$DIMGAP
 40
0.625
  9
$DIMJUST
 70
     0
  9
$DIMSD1
 70
     0
  9
$DIMSD2
 70
     0
  9
$DIMTOLJ
 70
     1
  9
$DIMTZIN
 70
     0
  9
$DIMALTZ
 70
     0
  9
$DIMALTTZ
 70
     0
  9
$DIMUPT
 70
     0
  9
$DIMDEC
 70
     2
  9
$DIMTDEC
 70
     4
  9
$DIMALTU
 70
     8
  9
$DIMALTTD
 70
     4
  9
$DIMTXSTY
  7
STYLE3
  9
$DIMAUNIT
 70
     0
  9
$DIMADEC
 70
     0
  9
$DIMALTRND
 40
0.0
  9
$DIMAZIN
 70
     0
  9
$DIMDSEP
 70
    46
  9
$DIMATFIT
 70
     3
  9
$DIMFRAC
 70
     0
  9
$DIMLDRBLK
  1

  9
$DIMLUNIT
 70
     2
  9
$DIMLWD
 70
    -2
  9
$DIMLWE
 70
    -2
  9
$DIMTMOVE
 70
     0
  9
$LUNITS
 70
     2
  9
$LUPREC
 70
     4
  9
$SKETCHINC
 40
1.0
  9
$FILLETRAD
 40
0.0
  9
$AUNITS
 70
     0
  9
$AUPREC
 70
     0
  9
$MENU
  1
.
  9
$ELEVATION
 40
0.0
  9
$PELEVATION
 40
0.0
  9
$THICKNESS
 40
0.0
  9
$LIMCHECK
 70
     0
  9
$CHAMFERA
 40
0.5
  9
$CHAMFERB
 40
0.5
  9
$CHAMFERC
 40
20.0
  9
$CHAMFERD
 40
0.0
  9
$SKPOLY
 70
     0
  9
$TDCREATE
 40
2450753.462540625
  9
$TDUCREATE
 40
2450753.087540625
  9
$TDUPDATE
 40
2455371.643945671
  9
$TDUUPDATE
 40
2455371.268945671
  9
$TDINDWG
 40
0.7752532639
  9
$TDUSRTIMER
 40
0.7752532639
  9
$USRTIMER
 70
     1
  9
$ANGBASE
 50
0.0
  9
$ANGDIR
 70
     0
  9
$PDMODE
 70
     0
  9
$PDSIZE
 40
0.0
  9
$PLINEWID
 40
0.0
  9
$SPLFRAME
 70
     0
  9
$SPLINETYPE
 70
     6
  9
$SPLINESEGS
 70
     8
  9
$HANDSEED
  5
904
  9
$SURFTAB1
 70
     6
  9
$SURFTAB2
 70
     6
  9
$SURFTYPE
 70
     6
  9
$SURFU
 70
     6
  9
$SURFV
 70
     6
  9
$UCSBASE
  2

  9
$UCSNAME
  2

  9
$UCSORG
 10
0.0
 20
0.0
 30
0.0
  9
$UCSXDIR
 10
1.0
 20
0.0
 30
0.0
  9
$UCSYDIR
 10
0.0
 20
1.0
 30
0.0
  9
$UCSORTHOREF
  2

  9
$UCSORTHOVIEW
 70
     0
  9
$UCSORGTOP
 10
0.0
 20
0.0
 30
0.0
  9
$UCSORGBOTTOM
 10
0.0
 20
0.0
 30
0.0
  9
$UCSORGLEFT
 10
0.0
 20
0.0
 30
0.0
  9
$UCSORGRIGHT
 10
0.0
 20
0.0
 30
0.0
  9
$UCSORGFRONT
 10
0.0
 20
0.0
 30
0.0
  9
$UCSORGBACK
 10
0.0
 20
0.0
 30
0.0
  9
$PUCSBASE
  2

  9
$PUCSNAME
  2

  9
$PUCSORG
 10
0.0
 20
0.0
 30
0.0
  9
$PUCSXDIR
 10
1.0
 20
0.0
 30
0.0
  9
$PUCSYDIR
 10
0.0
 20
1.0
 30
0.0
  9
$PUCSORTHOREF
  2

  9
$PUCSORTHOVIEW
 70
     0
  9
$PUCSORGTOP
 10
0.0
 20
0.0
 30
0.0
  9
$PUCSORGBOTTOM
 10
0.0
 20
0.0
 30
0.0
  9
$PUCSORGLEFT
 10
0.0
 20
0.0
 30
0.0
  9
$PUCSORGRIGHT
 10
0.0
 20
0.0
 30
0.0
  9
$PUCSORGFRONT
 10
0.0
 20
0.0
 30
0.0
  9
$PUCSORGBACK
 10
0.0
 20
0.0
 30
0.0
  9
$USERI1
 70
     0
  9
$USERI2
 70
     0
  9
$USERI3
 70
     0
  9
$USERI4
 70
     0
  9
$USERI5
 70
     0
  9
$USERR1
 40
0.0
  9
$USERR2
 40
0.0
  9
$USERR3
 40
0.0
  9
$USERR4
 40
0.0
  9
$USERR5
 40
0.0
  9
$WORLDVIEW
 70
     1
  9
$SHADEDGE
 70
     3
  9
$SHADEDIF
 70
    70
  9
$TILEMODE
 70
     1
  9
$MAXACTVP
 70
    48
  9
$PINSBASE
 10
0.0
 20
0.0
 30
0.0
  9
$PLIMCHECK
 70
     0
  9
$PEXTMIN
 10
1.000000000000000E+20
 20
1.000000000000000E+20
 30
1.000000000000000E+20
  9
$PEXTMAX
 10
-1.000000000000000E+20
 20
-1.000000000000000E+20
 30
-1.000000000000000E+20
  9
$PLIMMIN
 10
0.0
 20
0.0
  9
$PLIMMAX
 10
420.0
 20
297.0
  9
$UNITMODE
 70
     0
  9
$VISRETAIN
 70
     1
  9
$PLINEGEN
 70
     0
  9
$PSLTSCALE
 70
     1
  9
$TREEDEPTH
 70
  3020
  9
$CMLSTYLE
  2
STANDARD
  9
$CMLJUST
 70
     0
  9
$CMLSCALE
 40
20.0
  9
$PROXYGRAPHICS
 70
     1
  9
$MEASUREMENT
 70
     1
  9
$CELWEIGHT
370
    -1
  9
$ENDCAPS
280
     0
  9
$JOINSTYLE
280
     0
  9
$LWDISPLAY
290
     0
  9
$INSUNITS
 70
     0
  9
$HYPERLINKBASE
  1

  9
$STYLESHEET
  1

  9
$XEDIT
290
     1
  9
$CEPSNTYPE
380
     0
  9
$PSTYLEMODE
290
     1
  9
$FINGERPRINTGUID
  2
{AD27D661-E933-49F3-9577-8F3A5E29E9D6}
  9
$VERSIONGUID
  2
{48F165BA-EE1A-4860-8F32-F426326C8960}
  9
$EXTNAMES
290
     1
  9
$PSVPSCALE
 40
0.0
  9
$OLESTARTUP
290
     0
  9
$SORTENTS
280
    96
  9
$INDEXCTL
280
     0
  9
$HIDETEXT
280
     0
  9
$XCLIPFRAME
290
     0
  9
$HALOGAP
280
     0
  9
$OBSCOLOR
 70
   257
  9
$OBSLTYPE
280
     0
  9
$INTERSECTIONDISPLAY
280
     0
  9
$INTERSECTIONCOLOR
 70
   257
  9
$DIMASSOC
280
     1
  9
$PROJECTNAME
  1

  0
ENDSEC
  0
SECTION
  2
CLASSES
  0
CLASS
  1
DICTIONARYVAR
  2
AcDbDictionaryVar
  3
ObjectDBX Classes
 90
        0
 91
        1
280
     0
281
     0
  0
CLASS
  1
ACDBDICTIONARYWDFLT
  2
AcDbDictionaryWithDefault
  3
ObjectDBX Classes
 90
        0
 91
        1
280
     0
281
     0
  0
ENDSEC
  0
SECTION
  2
TABLES
  0
TABLE
  2
VPORT
  5
8
330
0
100
AcDbSymbolTable
 70
     2
  0
VPORT
  5
903
330
8
100
AcDbSymbolTableRecord
100
AcDbViewportTableRecord
  2
*Active
 70
     0
 10
0.0
 20
0.0
 11
1.0
 21
1.0
 12
364.1899559918097
 22
269.3506659190583
 13
0.0
 23
0.0
 14
10.0
 24
10.0
 15
10.0
 25
10.0
 16
0.0
 26
0.0
 36
1.0
 17
0.0
 27
0.0
 37
0.0
 40
196.9300935618867
 41
1.530456852791878
 42
50.0
 43
0.0
 44
0.0
 50
0.0
 51
0.0
 71
     0
 72
   100
 73
     1
 74
     1
 75
     0
 76
     0
 77
     0
 78
     0
281
     0
 65
     1
110
0.0
120
0.0
130
0.0
111
1.0
121
0.0
131
0.0
112
0.0
122
1.0
132
0.0
 79
     0
146
0.0
  0
ENDTAB
  0
TABLE
  2
LTYPE
  5
5
330
0
100
AcDbSymbolTable
 70
    12
  0
LTYPE
  5
12
330
5
100
AcDbSymbolTableRecord
100
AcDbLinetypeTableRecord
  2
BYBLOCK
 70
     0
  3

 72
    65
 73
     0
 40
0.0
  0
LTYPE
  5
13
330
5
100
AcDbSymbolTableRecord
100
AcDbLinetypeTableRecord
  2
BYLAYER
 70
     0
  3

 72
    65
 73
     0
 40
0.0
  0
LTYPE
  5
14
330
5
100
AcDbSymbolTableRecord
100
AcDbLinetypeTableRecord
  2
CONTINUOUS
 70
     0
  3
Solid line
 72
    65
 73
     0
 40
0.0
  0
LTYPE
  5
22
330
5
100
AcDbSymbolTableRecord
100
AcDbLinetypeTableRecord
  2
CENTER2
 70
     0
  3
Center (.5x) ___ _ ___ _ ___ _ ___ _ ___ _ ___
 72
    65
 73
     4
 40
28.575
 49
19.05
 74
     0
 49
-3.174999999999999
 74
     0
 49
3.174999999999999
 74
     0
 49
-3.174999999999999
 74
     0
  0
ENDTAB
  0
TABLE
  2
LAYER
  5
2
330
0
100
AcDbSymbolTable
 70
    13
  0
LAYER
  5
E
330
2
100
AcDbSymbolTableRecord
100
AcDbLayerTableRecord
  2
0
 70
     0
 62
     7
  6
CONTINUOUS
370
    -3
390
89D
  0
LAYER
  5
25
330
2
100
AcDbSymbolTableRecord
100
AcDbLayerTableRecord
  2
外形線
 70
     0
 62
     7
  6
CONTINUOUS
370
    -3
390
89D
  0
LAYER
  5
26
330
2
100
AcDbSymbolTableRecord
100
AcDbLayerTableRecord
  2
寸法線
 70
     0
 62
     2
  6
CONTINUOUS
370
    -3
390
89D
  0
LAYER
  5
27
330
2
100
AcDbSymbolTableRecord
100
AcDbLayerTableRecord
  2
中心線
 70
     0
 62
     4
  6
CENTER2
370
    -3
390
89D
  0
LAYER
  5
2A
330
2
100
AcDbSymbolTableRecord
100
AcDbLayerTableRecord
  2
ﾊｯﾁﾝｸ
 70
     0
 62
     6
  6
CONTINUOUS
370
    -3
390
89D
  0
LAYER
  5
2B
330
2
100
AcDbSymbolTableRecord
100
AcDbLayerTableRecord
  2
文字
 70
     0
 62
     6
  6
CONTINUOUS
370
    -3
390
89D
  0
LAYER
  5
53
330
2
100
AcDbSymbolTableRecord
100
AcDbLayerTableRecord
  2
DEFPOINTS
 70
     0
 62
     7
  6
CONTINUOUS
290
     0
370
    -3
390
89D
  0
LAYER
  5
A5
330
2
100
AcDbSymbolTableRecord
100
AcDbLayerTableRecord
  2
C
 70
     0
 62
     7
  6
CONTINUOUS
370
    -3
390
89D
  0
ENDTAB
  0
TABLE
  2
STYLE
  5
3
330
0
100
AcDbSymbolTable
 70
     6
  0
STYLE
  5
F
330
3
100
AcDbSymbolTableRecord
100
AcDbTextStyleTableRecord
  2
STANDARD
 70
     0
 40
0.0
 41
1.0
 50
0.0
 71
     0
 42
2.5
  3
txt
  4

  0
STYLE
  5
3F
330
3
100
AcDbSymbolTableRecord
100
AcDbTextStyleTableRecord
  2
STYLE3
 70
     0
 40
0.0
 41
1.0
 50
0.0
 71
     0
 42
3.0
  3
romans.shx
  4
bigfont.shx
  0
ENDTAB
  0
TABLE
  2
VIEW
  5
6
330
0
100
AcDbSymbolTable
 70
     0
  0
ENDTAB
  0
TABLE
  2
UCS
  5
7
330
0
100
AcDbSymbolTable
 70
     0
  0
ENDTAB
  0
TABLE
  2
APPID
  5
9
330
0
100
AcDbSymbolTable
 70
     1
  0
APPID
  5
10
330
9
100
AcDbSymbolTableRecord
100
AcDbRegAppTableRecord
  2
ACAD
 70
     0
  0
ENDTAB
  0
TABLE
  2
DIMSTYLE
  5
A
330
0
100
AcDbSymbolTable
 70
     4
100
AcDbDimStyleTable
 71
     0
  0
DIMSTYLE
105
1D
330
A
100
AcDbSymbolTableRecord
100
AcDbDimStyleTableRecord
  2
STANDARD
 70
     0
 41
2.5
 42
0.625
 43
3.75
 44
1.25
 73
     0
 74
     0
 77
     1
 78
     8
140
2.5
141
2.5
143
0.0394
147
0.625
171
     4
172
     1
273
     8
274
     4
277
     6
340
F
  0
DIMSTYLE
105
8F
102
{ACAD_REACTORS
330
341
330
74E
330
75B
330
79C
102
}
330
A
100
AcDbSymbolTableRecord
100
AcDbDimStyleTableRecord
  2
STYLE3
 70
     0
 41
2.5
 42
0.0
 43
3.75
 44
1.25
 73
     0
 74
     0
 77
     1
 78
     8
140
2.5
141
2.5
143
0.0394
147
0.625
171
     4
172
     1
173
     1
176
     2
177
     2
178
     6
271
     1
273
     8
274
     4
340
3F
341
45
343
45
344
45
  0
ENDTAB
  0
TABLE
  2
BLOCK_RECORD
  5
1
330
0
100
AcDbSymbolTable
 70
    15
  0
BLOCK_RECORD
  5
18
330
1
100
AcDbSymbolTableRecord
100
AcDbBlockTableRecord
  2
*MODEL_SPACE
340
8A2
  0
BLOCK_RECORD
  5
15
330
1
100
AcDbSymbolTableRecord
100
AcDbBlockTableRecord
  2
*PAPER_SPACE
340
8A3
  0
BLOCK_RECORD
  5
45
330
1
100
AcDbSymbolTableRecord
100
AcDbBlockTableRecord
  2
_OPEN
340
0
102
{BLKREFS
331
39C
331
39D
331
57E
331
57F
331
5DA
331
5DB
331
78A
331
78B
331
7A1
331
7A2
331
845
331
846
331
85E
331
85F
331
875
331
876
331
891
331
892
331
8E2
331
8E3
331
8EB
331
8EC
331
8F4
331
8F5
331
8FD
331
8FE
102
}
  0
BLOCK_RECORD
  5
335
330
1
100
AcDbSymbolTableRecord
100
AcDbBlockTableRecord
  2
*D3
340
0
  0
BLOCK_RECORD
  5
51C
330
1
100
AcDbSymbolTableRecord
100
AcDbBlockTableRecord
  2
六角ﾈｼ
340
0
102
{BLKREFS
331
523
102
}
  0
BLOCK_RECORD
  5
742
330
1
100
AcDbSymbolTableRecord
100
AcDbBlockTableRecord
  2
*D6
340
0
  0
BLOCK_RECORD
  5
74F
330
1
100
AcDbSymbolTableRecord
100
AcDbBlockTableRecord
  2
*D7
340
0
  0
BLOCK_RECORD
  5
790
330
1
100
AcDbSymbolTableRecord
100
AcDbBlockTableRecord
  2
*D8
340
0
  0
ENDTAB
  0
ENDSEC
  0
SECTION
  2
BLOCKS
  0
BLOCK
  5
19
330
18
100
AcDbEntity
  8
0
100
AcDbBlockBegin
  2
*MODEL_SPACE
 70
     0
 10
0.0
 20
0.0
 30
0.0
  3
*MODEL_SPACE
  1

  0
ENDBLK
  5
1A
330
18
100
AcDbEntity
  8
0
100
AcDbBlockEnd
  0
BLOCK
  5
16
330
15
100
AcDbEntity
 67
     1
  8
0
100
AcDbBlockBegin
  2
*PAPER_SPACE
 70
     0
 10
0.0
 20
0.0
 30
0.0
  3
*PAPER_SPACE
  1

  0
ENDBLK
  5
17
330
15
100
AcDbEntity
 67
     1
  8
0
100
AcDbBlockEnd
  0
BLOCK
  5
46
330
45
100
AcDbEntity
  8
0
100
AcDbBlockBegin
  2
_OPEN
 70
     0
 10
0.0
 20
0.0
 30
0.0
  3
_OPEN
  1

  0
LINE
  5
47
330
45
100
AcDbEntity
  8
0
  6
ByBlock
 62
     0
100
AcDbLine
 10
-1.0
 20
0.1666666666666666
 30
0.0
 11
0.0
 21
0.0
 31
0.0
  0
LINE
  5
48
330
45
100
AcDbEntity
  8
0
  6
ByBlock
 62
     0
100
AcDbLine
 10
0.0
 20
0.0
 30
0.0
 11
-1.0
 21
-0.1666666666666666
 31
0.0
  0
LINE
  5
49
330
45
100
AcDbEntity
  8
0
  6
ByBlock
 62
     0
100
AcDbLine
 10
0.0
 20
0.0
 30
0.0
 11
-1.0
 21
0.0
 31
0.0
  0
ENDBLK
  5
4A
330
45
100
AcDbEntity
  8
0
100
AcDbBlockEnd
  0
BLOCK
  5
5A7
330
335
100
AcDbEntity
  8
0
100
AcDbBlockBegin
  2
*D3
 70
     1
 10
0.0
 20
0.0
 30
0.0
  3
*D3
  1

  0
LINE
  5
8DF
330
335
100
AcDbEntity
  8
外形線
 62
     2
370
    -2
100
AcDbLine
 10
301.2021235759856
 20
249.1218244778612
 30
0.0
 11
301.2021235759856
 21
277.8456675778819
 31
0.0
  0
LINE
  5
8E0
330
335
100
AcDbEntity
  8
外形線
 62
     2
370
    -2
100
AcDbLine
 10
371.2021235759856
 20
250.228625781857
 30
0.0
 11
371.2021235759856
 21
277.8456675778819
 31
0.0
  0
LINE
  5
8E1
330
335
100
AcDbEntity
  8
外形線
 62
     2
370
    -2
100
AcDbLine
 10
303.7021235759856
 20
276.5956675778819
 30
0.0
 11
368.7021235759856
 21
276.5956675778819
 31
0.0
  0
INSERT
  5
8E2
330
335
100
AcDbEntity
  8
外形線
 62
     2
370
    -2
100
AcDbBlockReference
  2
_OPEN
 10
301.2021235759856
 20
276.5956675778819
 30
0.0
 41
2.5
 42
2.5
 43
2.5
 50
180.0
  0
INSERT
  5
8E3
330
335
100
AcDbEntity
  8
外形線
 62
     2
370
    -2
100
AcDbBlockReference
  2
_OPEN
 10
371.2021235759856
 20
276.5956675778819
 30
0.0
 41
2.5
 42
2.5
 43
2.5
  0
MTEXT
  5
8E4
330
335
100
AcDbEntity
  8
外形線
 62
     6
100
AcDbMText
 10
336.2021235759856
 20
278.4706675778819
 30
0.0
 40
2.5
 41
0.0
 71
     5
 72
     1
  1
\A1;70
  7
STYLE3
 73
     1
 44
1.0
  0
POINT
  5
8E5
330
335
100
AcDbEntity
  8
DEFPOINTS
 62
     0
100
AcDbPoint
 10
301.2021235759856
 20
249.1218244778612
 30
0.0
  0
POINT
  5
8E6
330
335
100
AcDbEntity
  8
DEFPOINTS
 62
     0
100
AcDbPoint
 10
371.2021235759856
 20
250.228625781857
 30
0.0
  0
POINT
  5
8E7
330
335
100
AcDbEntity
  8
DEFPOINTS
 62
     0
100
AcDbPoint
 10
371.2021235759856
 20
276.5956675778819
 30
0.0
  0
ENDBLK
  5
5B1
330
335
100
AcDbEntity
  8
0
100
AcDbBlockEnd
  0
BLOCK
  5
521
330
51C
100
AcDbEntity
  8
0
100
AcDbBlockBegin
  2
六角ﾈｼ
 70
     0
 10
0.0
 20
0.0
 30
0.0
  3
六角ﾈｼ
  1

  0
LINE
  5
51D
330
51C
100
AcDbEntity
  8
外形線
 48
0.8
100
AcDbLine
 10
-0.0000000000000568
 20
4.499999999999943
 30
0.0
 11
2.737599573181626
 21
4.499999999999943
 31
0.0
  0
ARC
  5
51E
330
51C
100
AcDbEntity
  8
外形線
100
AcDbCircle
 10
-4.010000000002662
 20
2.599999999999511
 30
0.0
 40
7.010000000002722
100
AcDbArc
 50
338.2289458906957
 51
15.72624379279067
  0
ARC
  5
51F
330
51C
100
AcDbEntity
  8
外形線
100
AcDbCircle
 10
-4.010000000002662
 20
-2.599999999999511
 30
0.0
 40
7.010000000002722
100
AcDbArc
 50
344.2737562072088
 51
21.77105410930435
  0
LINE
  5
520
330
51C
100
AcDbEntity
  8
外形線
 48
0.8
100
AcDbLine
 10
0.0000000000001705
 20
-4.5
 30
0.0
 11
2.737599573181569
 21
-4.5
 31
0.0
  0
ENDBLK
  5
522
330
51C
100
AcDbEntity
  8
0
100
AcDbBlockEnd
  0
BLOCK
  5
743
330
742
100
AcDbEntity
  8
0
100
AcDbBlockBegin
  2
*D6
 70
     1
 10
0.0
 20
0.0
 30
0.0
  3
*D6
  1

  0
LINE
  5
8E8
330
742
100
AcDbEntity
  8
外形線
 62
     2
370
    -2
100
AcDbLine
 10
412.2021235759852
 20
308.6055795132038
 30
0.0
 11
412.2021235759852
 21
296.4402480463489
 31
0.0
  0
LINE
  5
8E9
330
742
100
AcDbEntity
  8
外形線
 62
     2
370
    -2
100
AcDbLine
 10
430.2021235759853
 20
308.6055795132038
 30
0.0
 11
430.2021235759853
 21
296.4402480463489
 31
0.0
  0
LINE
  5
8EA
330
742
100
AcDbEntity
  8
外形線
 62
     2
370
    -2
100
AcDbLine
 10
414.7021235759853
 20
297.6902480463489
 30
0.0
 11
427.7021235759852
 21
297.6902480463489
 31
0.0
  0
INSERT
  5
8EB
330
742
100
AcDbEntity
  8
外形線
 62
     2
370
    -2
100
AcDbBlockReference
  2
_OPEN
 10
412.2021235759852
 20
297.6902480463489
 30
0.0
 41
2.5
 42
2.5
 43
2.5
 50
180.0
  0
INSERT
  5
8EC
330
742
100
AcDbEntity
  8
外形線
 62
     2
370
    -2
100
AcDbBlockReference
  2
_OPEN
 10
430.2021235759853
 20
297.6902480463489
 30
0.0
 41
2.5
 42
2.5
 43
2.5
  0
MTEXT
  5
8ED
330
742
100
AcDbEntity
  8
外形線
 62
     6
100
AcDbMText
 10
421.2021235759853
 20
299.5652480463489
 30
0.0
 40
2.5
 41
0.0
 71
     5
 72
     1
  1
\A1;18
  7
STYLE3
 73
     1
 44
1.0
  0
POINT
  5
8EE
330
742
100
AcDbEntity
  8
DEFPOINTS
 62
     0
100
AcDbPoint
 10
412.2021235759852
 20
308.6055795132038
 30
0.0
  0
POINT
  5
8EF
330
742
100
AcDbEntity
  8
DEFPOINTS
 62
     0
100
AcDbPoint
 10
430.2021235759853
 20
308.6055795132038
 30
0.0
  0
POINT
  5
8F0
330
742
100
AcDbEntity
  8
DEFPOINTS
 62
     0
100
AcDbPoint
 10
430.2021235759853
 20
297.6902480463489
 30
0.0
  0
ENDBLK
  5
74D
330
742
100
AcDbEntity
  8
0
100
AcDbBlockEnd
  0
BLOCK
  5
750
330
74F
100
AcDbEntity
  8
0
100
AcDbBlockBegin
  2
*D7
 70
     1
 10
0.0
 20
0.0
 30
0.0
  3
*D7
  1

  0
LINE
  5
8FA
330
74F
100
AcDbEntity
  8
外形線
 62
     2
370
    -2
100
AcDbLine
 10
430.2021235759857
 20
338.6055795132038
 30
0.0
 11
449.8688608260165
 21
338.6055795132038
 31
0.0
  0
LINE
  5
8FB
330
74F
100
AcDbEntity
  8
外形線
 62
     2
370
    -2
100
AcDbLine
 10
430.2021235759853
 20
308.6055795132038
 30
0.0
 11
449.8688608260165
 21
308.6055795132038
 31
0.0
  0
LINE
  5
8FC
330
74F
100
AcDbEntity
  8
外形線
 62
     2
370
    -2
100
AcDbLine
 10
448.6188608260165
 20
336.1055795132038
 30
0.0
 11
448.6188608260165
 21
311.1055795132038
 31
0.0
  0
INSERT
  5
8FD
330
74F
100
AcDbEntity
  8
外形線
 62
     2
370
    -2
100
AcDbBlockReference
  2
_OPEN
 10
448.6188608260165
 20
338.6055795132038
 30
0.0
 41
2.5
 42
2.5
 43
2.5
 50
90.0
  0
INSERT
  5
8FE
330
74F
100
AcDbEntity
  8
外形線
 62
     2
370
    -2
100
AcDbBlockReference
  2
_OPEN
 10
448.6188608260165
 20
308.6055795132038
 30
0.0
 41
2.5
 42
2.5
 43
2.5
 50
270.0
  0
MTEXT
  5
8FF
330
74F
100
AcDbEntity
  8
外形線
 62
     6
100
AcDbMText
 10
446.7438608260164
 20
323.6055795132039
 30
0.0
 40
2.5
 41
0.0
 71
     5
 72
     1
  1
\A1;30
  7
STYLE3
 11
0.0000000000000001
 21
1.0
 31
0.0
 73
     1
 44
1.0
  0
POINT
  5
900
330
74F
100
AcDbEntity
  8
DEFPOINTS
 62
     0
100
AcDbPoint
 10
430.2021235759857
 20
338.6055795132038
 30
0.0
  0
POINT
  5
901
330
74F
100
AcDbEntity
  8
DEFPOINTS
 62
     0
100
AcDbPoint
 10
430.2021235759853
 20
308.6055795132038
 30
0.0
  0
POINT
  5
902
330
74F
100
AcDbEntity
  8
DEFPOINTS
 62
     0
100
AcDbPoint
 10
448.6188608260165
 20
308.6055795132038
 30
0.0
  0
ENDBLK
  5
75A
330
74F
100
AcDbEntity
  8
0
100
AcDbBlockEnd
  0
BLOCK
  5
87D
330
790
100
AcDbEntity
  8
0
100
AcDbBlockBegin
  2
*D8
 70
     1
 10
0.0
 20
0.0
 30
0.0
  3
*D8
  1

  0
LINE
  5
8F1
330
790
100
AcDbEntity
  8
寸法線
 62
     2
370
    -2
100
AcDbLine
 10
421.2021235759856
 20
271.8218244778611
 30
0.0
 11
447.4823079913377
 21
271.8218244778611
 31
0.0
  0
LINE
  5
8F2
330
790
100
AcDbEntity
  8
寸法線
 62
     2
370
    -2
100
AcDbLine
 10
421.2021235759855
 20
211.6218244778612
 30
0.0
 11
447.4823079913377
 21
211.6218244778612
 31
0.0
  0
LINE
  5
8F3
330
790
100
AcDbEntity
  8
寸法線
 62
     2
370
    -2
100
AcDbLine
 10
446.2323079913377
 20
269.3218244778611
 30
0.0
 11
446.2323079913377
 21
214.1218244778613
 31
0.0
  0
INSERT
  5
8F4
330
790
100
AcDbEntity
  8
寸法線
 62
     2
370
    -2
100
AcDbBlockReference
  2
_OPEN
 10
446.2323079913377
 20
271.8218244778611
 30
0.0
 41
2.5
 42
2.5
 43
2.5
 50
90.0
  0
INSERT
  5
8F5
330
790
100
AcDbEntity
  8
寸法線
 62
     2
370
    -2
100
AcDbBlockReference
  2
_OPEN
 10
446.2323079913377
 20
211.6218244778612
 30
0.0
 41
2.5
 42
2.5
 43
2.5
 50
270.0
  0
MTEXT
  5
8F6
330
790
100
AcDbEntity
  8
寸法線
 62
     6
100
AcDbMText
 10
444.3573079913377
 20
241.7218244778613
 30
0.0
 40
2.5
 41
0.0
 71
     5
 72
     1
  1
\A1;50～100
  7
STYLE3
 11
0.0000000000000001
 21
1.0
 31
0.0
 73
     1
 44
1.0
  0
POINT
  5
8F7
330
790
100
AcDbEntity
  8
DEFPOINTS
 62
     0
100
AcDbPoint
 10
421.2021235759856
 20
271.8218244778611
 30
0.0
  0
POINT
  5
8F8
330
790
100
AcDbEntity
  8
DEFPOINTS
 62
     0
100
AcDbPoint
 10
421.2021235759855
 20
211.6218244778612
 30
0.0
  0
POINT
  5
8F9
330
790
100
AcDbEntity
  8
DEFPOINTS
 62
     0
100
AcDbPoint
 10
446.2323079913377
 20
211.6218244778612
 30
0.0
  0
ENDBLK
  5
887
330
790
100
AcDbEntity
  8
0
100
AcDbBlockEnd
  0
ENDSEC
  0
SECTION
  2
ENTITIES
  0
LWPOLYLINE
  5
10B
330
18
100
AcDbEntity
  8
C
100
AcDbPolyline
 90
        5
 70
     0
 43
0.4
 10
236.6915604445414
 20
366.8501752555372
 10
491.6915604445414
 20
366.8501752555372
 10
491.6915604445414
 20
171.8501752555372
 10
236.6915604445414
 20
171.8501752555372
 10
236.6915604445414
 20
366.8501752555372
  0
LINE
  5
16A
330
18
100
AcDbEntity
  8
中心線
 48
0.5
100
AcDbLine
 10
275.8624219564993
 20
243.1218244778612
 30
0.0
 11
433.2615764260954
 21
243.1218244778611
 31
0.0
  0
LINE
  5
16C
102
{ACAD_REACTORS
330
317
102
}
330
18
100
AcDbEntity
  8
外形線
100
AcDbLine
 10
341.2021235759856
 20
253.0811383015147
 30
0.0
 11
341.2021235759856
 21
247.1218244778611
 31
0.0
  0
LINE
  5
16D
102
{ACAD_REACTORS
330
317
102
}
330
18
100
AcDbEntity
  8
外形線
100
AcDbLine
 10
361.2021235759856
 20
252.1030483920793
 30
0.0
 11
361.2021235759857
 21
245.1218244778612
 31
0.0
  0
LINE
  5
16E
330
18
100
AcDbEntity
  8
外形線
100
AcDbLine
 10
371.2021235759856
 20
250.228625781857
 30
0.0
 11
371.2021235759856
 21
236.0150231738653
 31
0.0
  0
LINE
  5
171
330
18
100
AcDbEntity
  8
外形線
100
AcDbLine
 10
301.2021235759856
 20
250.228625781857
 30
0.0
 11
301.2021235759856
 21
249.1218244778612
 31
0.0
  0
ARC
  5
173
102
{ACAD_REACTORS
330
317
102
}
330
18
100
AcDbEntity
  8
外形線
100
AcDbCircle
 10
336.2021235759856
 20
-54.12817552213886
 30
0.0
 40
307.25
100
AcDbArc
 50
83.62585904071393
 51
96.37414095928605
  0
ARC
  5
175
102
{ACAD_REACTORS
330
317
102
}
330
18
100
AcDbEntity
  8
外形線
100
AcDbCircle
 10
336.2021235759856
 20
540.3718244778612
 30
0.0
 40
307.25
100
AcDbArc
 50
263.6258590407139
 51
276.3741409592861
  0
LINE
  5
176
330
18
100
AcDbEntity
  8
外形線
100
AcDbLine
 10
351.2021235759856
 20
246.6218244778612
 30
0.0
 11
351.2021235759856
 21
239.6218244778612
 31
0.0
  0
LINE
  5
177
330
18
100
AcDbEntity
  8
外形線
100
AcDbLine
 10
321.2021235759856
 20
246.6218244778612
 30
0.0
 11
321.2021235759856
 21
239.6218244778612
 31
0.0
  0
LINE
  5
178
330
18
100
AcDbEntity
  8
外形線
100
AcDbLine
 10
321.2021235759856
 20
246.6218244778612
 30
0.0
 11
351.2021235759856
 21
246.6218244778612
 31
0.0
  0
LINE
  5
179
330
18
100
AcDbEntity
  8
外形線
100
AcDbLine
 10
321.2021235759856
 20
239.6218244778612
 30
0.0
 11
351.2021235759856
 21
239.6218244778612
 31
0.0
  0
LINE
  5
17A
102
{ACAD_REACTORS
330
317
102
}
330
18
100
AcDbEntity
  8
外形線
100
AcDbLine
 10
341.2021235759856
 20
247.1218244778611
 30
0.0
 11
351.7021235759856
 21
247.1218244778611
 31
0.0
  0
LINE
  5
17C
102
{ACAD_REACTORS
330
317
102
}
330
18
100
AcDbEntity
  8
外形線
100
AcDbLine
 10
351.7021235759856
 20
245.1218244778612
 30
0.0
 11
361.2021235759857
 21
245.1218244778612
 31
0.0
  0
LINE
  5
17F
102
{ACAD_REACTORS
330
317
102
}
330
18
100
AcDbEntity
  8
外形線
100
AcDbLine
 10
351.7021235759856
 20
247.1218244778611
 30
0.0
 11
351.7021235759856
 21
245.1218244778612
 31
0.0
  0
LINE
  5
181
102
{ACAD_REACTORS
330
317
102
}
330
18
100
AcDbEntity
  8
外形線
100
AcDbLine
 10
351.7021235759856
 20
241.1218244778612
 30
0.0
 11
361.2021235759857
 21
241.1218244778612
 31
0.0
  0
LINE
  5
182
102
{ACAD_REACTORS
330
317
102
}
330
18
100
AcDbEntity
  8
外形線
100
AcDbLine
 10
361.2021235759856
 20
234.140600563643
 30
0.0
 11
361.2021235759857
 21
241.1218244778612
 31
0.0
  0
LINE
  5
183
102
{ACAD_REACTORS
330
317
102
}
330
18
100
AcDbEntity
  8
外形線
100
AcDbLine
 10
351.7021235759856
 20
239.1218244778612
 30
0.0
 11
351.7021235759856
 21
241.1218244778612
 31
0.0
  0
LINE
  5
184
102
{ACAD_REACTORS
330
317
102
}
330
18
100
AcDbEntity
  8
外形線
100
AcDbLine
 10
341.2021235759856
 20
239.1218244778612
 30
0.0
 11
351.7021235759856
 21
239.1218244778612
 31
0.0
  0
LINE
  5
185
102
{ACAD_REACTORS
330
317
102
}
330
18
100
AcDbEntity
  8
外形線
100
AcDbLine
 10
341.2021235759856
 20
233.1625106542077
 30
0.0
 11
341.2021235759856
 21
239.1218244778612
 31
0.0
  0
LINE
  5
186
102
{ACAD_REACTORS
330
317
102
}
330
18
100
AcDbEntity
  8
外形線
100
AcDbLine
 10
311.2021235759856
 20
234.140600563643
 30
0.0
 11
311.2021235759855
 21
241.1218244778612
 31
0.0
  0
LINE
  5
188
102
{ACAD_REACTORS
330
317
102
}
330
18
100
AcDbEntity
  8
外形線
100
AcDbLine
 10
331.2021235759856
 20
233.1625106542077
 30
0.0
 11
331.2021235759856
 21
239.1218244778612
 31
0.0
  0
LINE
  5
189
102
{ACAD_REACTORS
330
317
102
}
330
18
100
AcDbEntity
  8
外形線
100
AcDbLine
 10
331.2021235759856
 20
239.1218244778612
 30
0.0
 11
320.7021235759856
 21
239.1218244778612
 31
0.0
  0
LINE
  5
18A
102
{ACAD_REACTORS
330
317
102
}
330
18
100
AcDbEntity
  8
外形線
100
AcDbLine
 10
320.7021235759856
 20
239.1218244778612
 30
0.0
 11
320.7021235759856
 21
241.1218244778612
 31
0.0
  0
LINE
  5
18B
102
{ACAD_REACTORS
330
317
102
}
330
18
100
AcDbEntity
  8
外形線
100
AcDbLine
 10
320.7021235759856
 20
241.1218244778612
 30
0.0
 11
311.2021235759855
 21
241.1218244778612
 31
0.0
  0
LINE
  5
18D
102
{ACAD_REACTORS
330
317
102
}
330
18
100
AcDbEntity
  8
外形線
100
AcDbLine
 10
331.2021235759856
 20
253.0811383015147
 30
0.0
 11
331.2021235759856
 21
247.1218244778611
 31
0.0
  0
LINE
  5
18E
102
{ACAD_REACTORS
330
317
102
}
330
18
100
AcDbEntity
  8
外形線
100
AcDbLine
 10
320.7021235759856
 20
245.1218244778612
 30
0.0
 11
311.2021235759855
 21
245.1218244778612
 31
0.0
  0
LINE
  5
18F
102
{ACAD_REACTORS
330
317
102
}
330
18
100
AcDbEntity
  8
外形線
100
AcDbLine
 10
311.2021235759856
 20
252.1030483920793
 30
0.0
 11
311.2021235759855
 21
245.1218244778612
 31
0.0
  0
LINE
  5
190
102
{ACAD_REACTORS
330
317
102
}
330
18
100
AcDbEntity
  8
外形線
100
AcDbLine
 10
320.7021235759856
 20
247.1218244778611
 30
0.0
 11
320.7021235759856
 21
245.1218244778612
 31
0.0
  0
LINE
  5
191
102
{ACAD_REACTORS
330
317
102
}
330
18
100
AcDbEntity
  8
外形線
100
AcDbLine
 10
331.2021235759856
 20
247.1218244778611
 30
0.0
 11
320.7021235759856
 21
247.1218244778611
 31
0.0
  0
TEXT
  5
1AE
330
18
100
AcDbEntity
  8
文字
100
AcDbText
 10
327.5027030095983
 20
241.8947661625356
 30
0.0
 40
2.5
  1
50-100mm
  7
STYLE3
100
AcDbText
  0
LINE
  5
1B2
330
18
100
AcDbEntity
  8
外形線
100
AcDbLine
 10
371.2021235759856
 20
248.1218244778612
 30
0.0
 11
396.2021235759855
 21
248.1218244778611
 31
0.0
  0
LINE
  5
1B3
330
18
100
AcDbEntity
  8
外形線
100
AcDbLine
 10
371.2021235759856
 20
238.1218244778612
 30
0.0
 11
396.2021235759855
 21
238.1218244778612
 31
0.0
  0
ARC
  5
24E
330
18
100
AcDbEntity
  8
外形線
100
AcDbCircle
 10
302.2021235759856
 20
250.228625781857
 30
0.0
 40
1.0
100
AcDbArc
 50
96.37414095927951
 51
180.0
  0
ARC
  5
24F
330
18
100
AcDbEntity
  8
外形線
100
AcDbCircle
 10
302.2021235759855
 20
236.0150231738653
 30
0.0
 40
1.0
100
AcDbArc
 50
180.0
 51
263.6258590407112
  0
ARC
  5
250
330
18
100
AcDbEntity
  8
外形線
100
AcDbCircle
 10
370.2021235759856
 20
250.228625781857
 30
0.0
 40
1.0
100
AcDbArc
 50
0.0
 51
83.62585904071403
  0
ARC
  5
251
330
18
100
AcDbEntity
  8
外形線
100
AcDbCircle
 10
370.2021235759856
 20
236.0150231738653
 30
0.0
 40
1.0
100
AcDbArc
 50
276.3741409592856
 51
0.0
  0
LINE
  5
253
330
18
100
AcDbEntity
  8
外形線
100
AcDbLine
 10
278.2021235759856
 20
247.8218244778612
 30
0.0
 11
278.2021235759856
 21
240.9312994971723
 31
0.0
  0
LINE
  5
254
330
18
100
AcDbEntity
  8
外形線
100
AcDbLine
 10
300.2021235759855
 20
248.1218244778612
 30
0.0
 11
300.2021235759856
 21
238.1218244778612
 31
0.0
  0
LINE
  5
255
330
18
100
AcDbEntity
  8
外形線
100
AcDbLine
 10
289.2021235759856
 20
248.1218244778612
 30
0.0
 11
289.2021235759856
 21
240.9312994971723
 31
0.0
  0
LINE
  5
256
330
18
100
AcDbEntity
  8
外形線
100
AcDbLine
 10
289.2021235759856
 20
248.1218244778612
 30
0.0
 11
300.2021235759856
 21
248.1218244778612
 31
0.0
  0
LINE
  5
257
330
18
100
AcDbEntity
  8
外形線
100
AcDbLine
 10
291.1183220630813
 20
238.1218244778612
 30
0.0
 11
300.2021235759855
 21
238.1218244778612
 31
0.0
  0
LINE
  5
25C
330
18
100
AcDbEntity
  8
外形線
100
AcDbLine
 10
301.2021235759855
 20
237.1218244778612
 30
0.0
 11
301.2021235759855
 21
236.0150231738653
 31
0.0
  0
LINE
  5
25E
330
18
100
AcDbEntity
  8
外形線
100
AcDbLine
 10
301.2021235759856
 20
249.1218244778612
 30
0.0
 11
301.2021235759855
 21
237.1218244778612
 31
0.0
  0
ARC
  5
25F
330
18
100
AcDbEntity
  8
外形線
100
AcDbCircle
 10
298.9662750244314
 20
235.9486520600302
 30
0.0
 40
2.5
100
AcDbArc
 50
26.57629387126569
 51
60.37379958472584
  0
ARC
  5
260
330
18
100
AcDbEntity
  8
外形線
100
AcDbCircle
 10
298.9662750244314
 20
250.2949968956921
 30
0.0
 40
2.5
100
AcDbArc
 50
299.6262004152742
 51
333.4237061287343
  0
LINE
  5
261
330
18
100
AcDbEntity
  8
外形線
100
AcDbLine
 10
279.2021235759857
 20
248.3218244778612
 30
0.0
 11
288.2021235759855
 21
248.3218244778611
 31
0.0
  0
LINE
  5
263
330
18
100
AcDbEntity
  8
外形線
100
AcDbLine
 10
279.2021235759856
 20
247.3218244778612
 30
0.0
 11
288.2021235759855
 21
247.3218244778612
 31
0.0
  0
LINE
  5
264
330
18
100
AcDbEntity
  8
外形線
100
AcDbLine
 10
288.2021235759856
 20
248.3218244778611
 30
0.0
 11
288.2021235759856
 21
247.3218244778612
 31
0.0
  0
LINE
  5
265
330
18
100
AcDbEntity
  8
外形線
100
AcDbLine
 10
279.2021235759856
 20
248.3218244778612
 30
0.0
 11
279.2021235759856
 21
247.3218244778612
 31
0.0
  0
LINE
  5
26B
330
18
100
AcDbEntity
  8
外形線
100
AcDbLine
 10
288.2021235759856
 20
247.3218244778612
 30
0.0
 11
289.2021235759856
 21
246.8218244778611
 31
0.0
  0
LINE
  5
26C
330
18
100
AcDbEntity
  8
外形線
100
AcDbLine
 10
288.2021235759856
 20
248.3218244778611
 30
0.0
 11
289.2021235759856
 21
247.8218244778612
 31
0.0
  0
LINE
  5
273
330
18
100
AcDbEntity
  8
外形線
100
AcDbLine
 10
279.2021235759856
 20
248.3218244778611
 30
0.0
 11
278.2021235759856
 21
247.8218244778612
 31
0.0
  0
LINE
  5
274
330
18
100
AcDbEntity
  8
外形線
100
AcDbLine
 10
279.2021235759856
 20
247.3218244778612
 30
0.0
 11
278.2021235759856
 21
246.8218244778611
 31
0.0
  0
LINE
  5
275
330
18
100
AcDbEntity
  8
外形線
100
AcDbLine
 10
279.2021235759856
 20
248.3218244778611
 30
0.0
 11
279.2021235759856
 21
247.3218244778612
 31
0.0
  0
LINE
  5
276
330
18
100
AcDbEntity
  8
中心線
 48
0.4
100
AcDbLine
 10
283.7021235759856
 20
245.6458438203
 30
0.0
 11
283.7021235759856
 21
223.4736524391508
 31
0.0
  0
LINE
  5
277
330
18
100
AcDbEntity
  8
中心線
 48
0.4
100
AcDbLine
 10
273.216262890381
 20
235.1218244778612
 30
0.0
 11
294.0839321958293
 21
235.1218244778612
 31
0.0
  0
CIRCLE
  5
278
330
18
100
AcDbEntity
  8
外形線
100
AcDbCircle
 10
283.7021235759856
 20
235.1218244778612
 30
0.0
 40
8.0
  0
TEXT
  5
27E
330
18
100
AcDbEntity
  8
文字
100
AcDbText
 10
322.9640346837771
 20
242.0025733092547
 30
0.0
 40
1.0
  1
CC-3
  7
STYLE3
100
AcDbText
  0
ARC
  5
2F6
102
{ACAD_REACTORS
330
317
102
}
330
18
100
AcDbEntity
  8
外形線
100
AcDbCircle
 10
321.2021235759856
 20
232.9718280128671
 30
0.0
 40
2.0
100
AcDbArc
 50
12.33039196868931
 51
162.0823891309169
  0
HATCH
  5
317
330
18
100
AcDbEntity
  8
ﾊｯﾁﾝｸ
100
AcDbHatch
 10
0.0
 20
0.0
 30
0.0
210
0.0
220
0.0
230
1.0
  2
DOTS
 70
     0
 71
     1
 91
        4
 92
        7
 72
     1
 73
     1
 93
        6
 10
320.7021235759856
 20
245.1218244778612
 42
0.0
 10
320.7021235759856
 20
247.1218244778611
 42
0.0
 10
331.2021235759855
 20
247.1218244778611
 42
0.0
 10
331.2021235759856
 20
253.0811383015146
 42
0.0162971688498792
 10
311.2021235759856
 20
252.1030483920793
 42
0.0
 10
311.2021235759855
 20
245.1218244778612
 42
0.0
 97
        6
330
173
330
18F
330
18E
330
190
330
191
330
18D
 92
        7
 72
     1
 73
     1
 93
        6
 10
351.7021235759855
 20
247.1218244778612
 42
0.0
 10
351.7021235759856
 20
245.1218244778612
 42
0.0
 10
361.2021235759857
 20
245.1218244778612
 42
0.0
 10
361.2021235759856
 20
252.1030483920792
 42
0.0162971688498792
 10
341.2021235759856
 20
253.0811383015145
 42
0.0
 10
341.2021235759856
 20
247.1218244778611
 42
0.0
 97
        6
330
173
330
16C
330
17A
330
17F
330
17C
330
16D
 92
        7
 72
     1
 73
     1
 93
        6
 10
361.2021235759856
 20
234.1406005636431
 42
0.0
 10
361.2021235759856
 20
241.1218244778612
 42
0.0
 10
351.7021235759856
 20
241.1218244778612
 42
0.0
 10
351.7021235759856
 20
239.1218244778612
 42
0.0
 10
341.2021235759855
 20
239.1218244778612
 42
0.0
 10
341.2021235759856
 20
233.1625106542078
 42
0.0162971688498792
 97
        6
330
181
330
183
330
184
330
185
330
175
330
182
 92
        7
 72
     1
 73
     1
 93
        8
 10
319.2991238010879
 20
233.5871261980907
 42
-0.7656091570197598
 10
323.1559884503168
 20
233.3989252533811
 42
0.0065500023894979
 10
331.2021235759856
 20
233.1625106542077
 42
0.0
 10
331.2021235759855
 20
239.1218244778611
 42
0.0
 10
320.7021235759856
 20
239.1218244778612
 42
0.0
 10
320.7021235759857
 20
241.1218244778612
 42
0.0
 10
311.2021235759855
 20
241.1218244778611
 42
0.0
 10
311.2021235759856
 20
234.1406005636431
 42
0.0066039451871049
 97
        7
330
189
330
18A
330
18B
330
186
330
175
330
2F6
330
188
 75
     0
 76
     1
 52
0.0
 41
0.4
 77
     0
 78
     1
 53
0.0
 43
9.840296555460156
 44
-22.84280444782181
 45
0.3175
 46
0.635
 79
     2
 49
0.0
 49
-0.635
 47
0.3765170278403226
 98
        4
 10
315.6340931174565
 20
248.0057093274059
 10
354.4473967231412
 20
248.3822260836106
 10
354.8242247887084
 20
235.9571644831101
 10
317.5182342485588
 20
236.7101984505587
  0
DIMENSION
  5
341
330
18
100
AcDbEntity
  8
外形線
100
AcDbDimension
  2
*D3
 10
371.2021235759856
 20
276.5956675778819
 30
0.0
 11
336.2021235759856
 21
278.4706675778819
 31
0.0
 70
    32
 71
     5
 42
70.0
  3
STYLE3
100
AcDbAlignedDimension
 13
301.2021235759856
 23
249.1218244778612
 33
0.0
 14
371.2021235759856
 24
250.228625781857
 34
0.0
100
AcDbRotatedDimension
1001
ACAD
1000
DSTYLE
1002
{
1070
   271
1070
     2
1002
}
  0
LINE
  5
399
330
18
100
AcDbEntity
  8
0
  6
ByBlock
 62
     2
100
AcDbLine
 10
278.2021235759856
 20
246.8218244778611
 30
0.0
 11
278.2021235759856
 21
285.8392043818381
 31
0.0
  0
LINE
  5
39B
330
18
100
AcDbEntity
  8
0
  6
ByBlock
 62
     2
100
AcDbLine
 10
280.7021235759856
 20
284.5892043818381
 30
0.0
 11
427.7021235759855
 21
284.5892043818381
 31
0.0
  0
INSERT
  5
39C
330
18
100
AcDbEntity
  8
0
  6
ByBlock
 62
     2
100
AcDbBlockReference
  2
_OPEN
 10
278.2021235759856
 20
284.5892043818381
 30
0.0
 41
2.5
 42
2.5
 43
2.5
 50
180.0
  0
INSERT
  5
39D
330
18
100
AcDbEntity
  8
0
  6
ByBlock
 62
     2
100
AcDbBlockReference
  2
_OPEN
 10
430.2021235759855
 20
284.5892043818381
 30
0.0
 41
2.5
 42
2.5
 43
2.5
  0
POINT
  5
39F
330
18
100
AcDbEntity
  8
DEFPOINTS
  6
ByBlock
 62
     0
100
AcDbPoint
 10
278.2021235759856
 20
246.8218244778611
 30
0.0
  0
POINT
  5
3A7
330
18
100
AcDbEntity
  8
DEFPOINTS
  6
ByBlock
 62
     0
100
AcDbPoint
 10
371.2021235759856
 20
250.228625781857
 30
0.0
  0
TEXT
  5
3F3
330
18
100
AcDbEntity
  8
文字
100
AcDbText
 10
346.8786205526247
 20
285.2132246313076
 30
0.0
 40
2.5
  1
152
  7
STYLE3
100
AcDbText
  0
LINE
  5
403
330
18
100
AcDbEntity
  8
外形線
100
AcDbLine
 10
349.7021235759856
 20
245.6218244778612
 30
0.0
 11
349.7021235759856
 21
240.6218244778612
 31
0.0
  0
LINE
  5
404
330
18
100
AcDbEntity
  8
外形線
100
AcDbLine
 10
322.7021235759856
 20
245.6218244778612
 30
0.0
 11
322.7021235759856
 21
240.6218244778612
 31
0.0
  0
LINE
  5
405
330
18
100
AcDbEntity
  8
外形線
100
AcDbLine
 10
322.7021235759856
 20
245.6218244778612
 30
0.0
 11
349.7021235759856
 21
245.6218244778612
 31
0.0
  0
LINE
  5
406
330
18
100
AcDbEntity
  8
外形線
100
AcDbLine
 10
322.7021235759856
 20
240.6218244778612
 30
0.0
 11
349.7021235759856
 21
240.6218244778612
 31
0.0
  0
LINE
  5
427
330
18
100
AcDbEntity
  8
中心線
 48
0.5
100
AcDbLine
 10
421.2021235759856
 20
209.3478923783846
 30
0.0
 11
421.2021235759856
 21
278.9144489424543
 31
0.0
  0
LINE
  5
428
330
18
100
AcDbEntity
  8
外形線
100
AcDbLine
 10
399.2021235759856
 20
238.6218244778611
 30
0.0
 11
401.2021235759855
 21
238.6218244778611
 31
0.0
  0
LINE
  5
429
330
18
100
AcDbEntity
  8
外形線
100
AcDbLine
 10
399.2021235759857
 20
247.6218244778612
 30
0.0
 11
401.2021235759857
 21
247.6218244778612
 31
0.0
  0
LINE
  5
42A
330
18
100
AcDbEntity
  8
外形線
100
AcDbLine
 10
401.2021235759858
 20
256.3218244778612
 30
0.0
 11
401.2021235759855
 21
238.6218244778611
 31
0.0
  0
LINE
  5
42C
330
18
100
AcDbEntity
  8
外形線
100
AcDbLine
 10
401.2021235759855
 20
238.6218244778611
 30
0.0
 11
415.6021235759856
 21
238.6218244778611
 31
0.0
  0
LINE
  5
42E
330
18
100
AcDbEntity
  8
外形線
100
AcDbLine
 10
408.0021235759859
 20
263.1218244778611
 30
0.0
 11
414.2021235759855
 21
263.1218244778611
 31
0.0
  0
ARC
  5
432
330
18
100
AcDbEntity
  8
外形線
100
AcDbCircle
 10
408.0021235759859
 20
256.3218244778611
 30
0.0
 40
6.799999999999999
100
AcDbArc
 50
90.0
 51
179.9999999999992
  0
LINE
  5
434
330
18
100
AcDbEntity
  8
外形線
100
AcDbLine
 10
402.0021235759858
 20
256.3218244778612
 30
0.0
 11
402.0021235759856
 21
244.8218244778611
 31
0.0
  0
ARC
  5
435
330
18
100
AcDbEntity
  8
外形線
100
AcDbCircle
 10
408.0021235759859
 20
256.3218244778611
 30
0.0
 40
6.0
100
AcDbArc
 50
90.0
 51
179.9999999999992
  0
LINE
  5
436
330
18
100
AcDbEntity
  8
外形線
100
AcDbLine
 10
408.0021235759859
 20
262.3218244778611
 30
0.0
 11
414.2021235759854
 21
262.3218244778611
 31
0.0
  0
LINE
  5
438
330
18
100
AcDbEntity
  8
外形線
100
AcDbLine
 10
401.2021235759856
 20
244.8218244778611
 30
0.0
 11
402.0021235759856
 21
244.8218244778611
 31
0.0
  0
LINE
  5
465
330
18
100
AcDbEntity
  8
外形線
100
AcDbLine
 10
423.7021235759855
 20
214.1218244778613
 30
0.0
 11
423.7021235759855
 21
223.6218244778612
 31
0.0
  0
LINE
  5
466
330
18
100
AcDbEntity
  8
外形線
100
AcDbLine
 10
418.7021235759855
 20
214.1218244778613
 30
0.0
 11
418.7021235759855
 21
223.6218244778612
 31
0.0
  0
LINE
  5
474
330
18
100
AcDbEntity
  8
外形線
100
AcDbLine
 10
429.4021235759851
 20
244.3718244778611
 30
0.0
 11
429.4021235759855
 21
265.6218244778613
 31
0.0
  0
LINE
  5
479
330
18
100
AcDbEntity
  8
外形線
100
AcDbLine
 10
428.2021235759855
 20
224.6218244778612
 30
0.0
 11
428.2021235759855
 21
231.9218244778612
 31
0.0
  0
LINE
  5
47A
330
18
100
AcDbEntity
  8
外形線
100
AcDbLine
 10
414.2021235759854
 20
224.6218244778612
 30
0.0
 11
414.2021235759854
 21
231.9218244778612
 31
0.0
  0
LINE
  5
47D
330
18
100
AcDbEntity
  8
外形線
100
AcDbLine
 10
414.2021235759854
 20
231.9218244778612
 30
0.0
 11
428.2021235759855
 21
231.9218244778612
 31
0.0
  0
LINE
  5
47E
330
18
100
AcDbEntity
  8
外形線
100
AcDbLine
 10
414.2021235759854
 20
224.6218244778612
 30
0.0
 11
428.2021235759856
 21
224.6218244778612
 31
0.0
  0
LINE
  5
47F
330
18
100
AcDbEntity
  8
外形線
100
AcDbLine
 10
414.7021235759854
 20
232.4218244778613
 30
0.0
 11
427.7021235759855
 21
232.4218244778613
 31
0.0
  0
LINE
  5
480
330
18
100
AcDbEntity
  8
外形線
100
AcDbLine
 10
414.7021235759855
 20
224.1218244778612
 30
0.0
 11
427.7021235759855
 21
224.1218244778612
 31
0.0
  0
LINE
  5
481
330
18
100
AcDbEntity
  8
外形線
100
AcDbLine
 10
414.2021235759854
 20
231.9218244778612
 30
0.0
 11
414.7021235759854
 21
232.4218244778613
 31
0.0
  0
LINE
  5
482
330
18
100
AcDbEntity
  8
外形線
100
AcDbLine
 10
427.7021235759855
 20
232.4218244778613
 30
0.0
 11
428.2021235759855
 21
231.9218244778612
 31
0.0
  0
LINE
  5
483
330
18
100
AcDbEntity
  8
外形線
100
AcDbLine
 10
414.2021235759854
 20
224.6218244778612
 30
0.0
 11
414.7021235759855
 21
224.1218244778612
 31
0.0
  0
LINE
  5
484
330
18
100
AcDbEntity
  8
外形線
100
AcDbLine
 10
427.7021235759855
 20
224.1218244778612
 30
0.0
 11
428.2021235759855
 21
224.6218244778612
 31
0.0
  0
LINE
  5
485
330
18
100
AcDbEntity
  8
外形線
100
AcDbLine
 10
414.7021235759855
 20
224.1218244778612
 30
0.0
 11
418.7021235759855
 21
223.6218244778612
 31
0.0
  0
LINE
  5
486
330
18
100
AcDbEntity
  8
外形線
100
AcDbLine
 10
427.7021235759855
 20
224.1218244778612
 30
0.0
 11
423.7021235759855
 21
223.6218244778612
 31
0.0
  0
LINE
  5
487
330
18
100
AcDbEntity
  8
外形線
100
AcDbLine
 10
418.7021235759855
 20
223.6218244778612
 30
0.0
 11
423.7021235759855
 21
223.6218244778612
 31
0.0
  0
LINE
  5
488
330
18
100
AcDbEntity
  8
外形線
100
AcDbLine
 10
425.2021235759854
 20
232.4218244778613
 30
0.0
 11
425.2021235759855
 21
232.8218244778612
 31
0.0
  0
LINE
  5
489
330
18
100
AcDbEntity
  8
外形線
100
AcDbLine
 10
417.2021235759855
 20
232.4218244778613
 30
0.0
 11
417.2021235759856
 21
232.8218244778612
 31
0.0
  0
LINE
  5
4A8
330
18
100
AcDbEntity
  8
外形線
100
AcDbLine
 10
418.9521235759854
 20
213.1218244778612
 30
0.0
 11
423.4521235759855
 21
213.1218244778612
 31
0.0
  0
LINE
  5
4A9
330
18
100
AcDbEntity
  8
外形線
100
AcDbLine
 10
418.7021235759855
 20
214.1218244778613
 30
0.0
 11
423.7021235759854
 21
214.1218244778612
 31
0.0
  0
LINE
  5
4AE
330
18
100
AcDbEntity
  8
外形線
100
AcDbLine
 10
418.9521235759855
 20
213.1218244778612
 30
0.0
 11
418.7021235759855
 21
214.1218244778613
 31
0.0
  0
LINE
  5
4AF
330
18
100
AcDbEntity
  8
外形線
100
AcDbLine
 10
423.4521235759855
 20
213.1218244778612
 30
0.0
 11
423.7021235759855
 21
214.1218244778613
 31
0.0
  0
ARC
  5
4B0
330
18
100
AcDbEntity
  8
外形線
100
AcDbCircle
 10
421.2021235759855
 20
213.5218244778612
 30
0.0
 40
1.9
100
AcDbArc
 50
192.153197469007
 51
347.8468025309921
  0
LINE
  5
4DE
330
18
100
AcDbEntity
  8
外形線
100
AcDbLine
 10
373.2848360895137
 20
318.605579513204
 30
0.0
 11
395.7021235759854
 21
318.6055795132039
 31
0.0
  0
LINE
  5
4DF
330
18
100
AcDbEntity
  8
外形線
100
AcDbLine
 10
373.2848360895137
 20
328.6055795132039
 30
0.0
 11
395.7021235759853
 21
328.6055795132039
 31
0.0
  0
ARC
  5
4E0
330
18
100
AcDbEntity
  8
外形線
100
AcDbCircle
 10
377.614963108436
 20
326.105579513204
 30
0.0
 40
5.0
100
AcDbArc
 50
150.0000000000001
 51
209.9999999999999
  0
ARC
  5
4E1
330
18
100
AcDbEntity
  8
外形線
100
AcDbCircle
 10
368.9547090705915
 20
326.105579513204
 30
0.0
 40
5.0
100
AcDbArc
 50
330.0000000000001
 51
29.99999999999988
  0
ARC
  5
4E2
330
18
100
AcDbEntity
  8
外形線
100
AcDbCircle
 10
377.614963108436
 20
321.105579513204
 30
0.0
 40
5.0
100
AcDbArc
 50
150.0000000000001
 51
209.9999999999999
  0
LINE
  5
4E3
330
18
100
AcDbEntity
  8
中心線
 48
0.5
100
AcDbLine
 10
421.2021235759856
 20
306.4122505434007
 30
0.0
 11
421.2021235759856
 21
340.4711236409657
 31
0.0
  0
LINE
  5
4E6
330
18
100
AcDbEntity
  8
外形線
100
AcDbLine
 10
398.7021235759854
 20
319.1055795132038
 30
0.0
 11
400.7021235759853
 21
319.1055795132038
 31
0.0
  0
LINE
  5
4E7
330
18
100
AcDbEntity
  8
外形線
100
AcDbLine
 10
398.7021235759855
 20
328.1055795132039
 30
0.0
 11
400.7021235759855
 21
328.1055795132039
 31
0.0
  0
LINE
  5
4E9
330
18
100
AcDbEntity
  8
外形線
100
AcDbLine
 10
400.7021235759855
 20
328.1055795132039
 30
0.0
 11
400.7021235759853
 21
319.1055795132038
 31
0.0
  0
INSERT
  5
523
330
18
100
AcDbEntity
  8
外形線
100
AcDbBlockReference
  2
六角ﾈｼ
 10
395.7021235759853
 20
323.6055795132039
 30
0.0
  0
LINE
  5
524
330
18
100
AcDbEntity
  8
外形線
100
AcDbLine
 10
395.7021235759853
 20
328.6055795132039
 30
0.0
 11
395.7021235759854
 21
318.6055795132039
 31
0.0
  0
LINE
  5
525
330
18
100
AcDbEntity
  8
外形線
100
AcDbLine
 10
398.2021235759857
 20
323.6055795132039
 30
0.0
 11
395.7021235759854
 21
323.6055795132039
 31
0.0
  0
LINE
  5
526
330
18
100
AcDbEntity
  8
外形線
100
AcDbLine
 10
398.7021235759855
 20
328.1055795132039
 30
0.0
 11
398.7021235759855
 21
319.1055795132038
 31
0.0
  0
LINE
  5
527
330
18
100
AcDbEntity
  8
中心線
 48
0.5
100
AcDbLine
 10
369.157940652353
 20
323.6055795132038
 30
0.0
 11
432.577038504193
 21
323.6055795132038
 31
0.0
  0
LINE
  5
57D
330
18
100
AcDbEntity
  8
0
  6
ByBlock
 62
     2
100
AcDbLine
 10
373.7021235759856
 20
276.5956675778819
 30
0.0
 11
418.7021235759856
 21
276.595667577882
 31
0.0
  0
INSERT
  5
57E
330
18
100
AcDbEntity
  8
0
  6
ByBlock
 62
     2
100
AcDbBlockReference
  2
_OPEN
 10
371.2021235759856
 20
276.5956675778819
 30
0.0
 41
2.5
 42
2.5
 43
2.5
 50
180.0
  0
INSERT
  5
57F
330
18
100
AcDbEntity
  8
0
  6
ByBlock
 62
     2
100
AcDbBlockReference
  2
_OPEN
 10
421.2021235759856
 20
276.595667577882
 30
0.0
 41
2.5
 42
2.5
 43
2.5
  0
POINT
  5
581
330
18
100
AcDbEntity
  8
DEFPOINTS
  6
ByBlock
 62
     0
100
AcDbPoint
 10
371.2021235759856
 20
250.228625781857
 30
0.0
  0
LINE
  5
5D9
330
18
100
AcDbEntity
  8
0
  6
ByBlock
 62
     2
100
AcDbLine
 10
391.0889816128109
 20
245.6218244778612
 30
0.0
 11
391.0889816128109
 21
240.6218244778612
 31
0.0
  0
INSERT
  5
5DA
330
18
100
AcDbEntity
  8
0
  6
ByBlock
 62
     2
100
AcDbBlockReference
  2
_OPEN
 10
391.0889816128109
 20
248.1218244778612
 30
0.0
 41
2.5
 42
2.5
 43
2.5
 50
90.0
  0
INSERT
  5
5DB
330
18
100
AcDbEntity
  8
0
  6
ByBlock
 62
     2
100
AcDbBlockReference
  2
_OPEN
 10
391.0889816128109
 20
238.1218244778612
 30
0.0
 41
2.5
 42
2.5
 43
2.5
 50
270.0
  0
MTEXT
  5
5DC
330
18
100
AcDbEntity
  8
0
  6
ByBlock
 62
     6
100
AcDbMText
 10
389.2139816128109
 20
242.4245350639049
 30
0.0
 40
2.5
 41
0.0
 71
     5
 72
     1
  1
φ10
  7
STYLE3
 11
0.0000000000000001
 21
1.0
 31
0.0
 73
     1
 44
1.0
  0
LINE
  5
5F6
330
18
100
AcDbEntity
  8
外形線
100
AcDbLine
 10
412.2021235759852
 20
308.6055795132038
 30
0.0
 11
412.2021235759854
 21
319.2055795132038
 31
0.0
  0
CIRCLE
  5
5FE
330
18
100
AcDbEntity
  8
外形線
100
AcDbCircle
 10
421.2021235759856
 20
323.6055795132038
 30
0.0
 40
4.049999999999999
  0
LINE
  5
5FF
330
18
100
AcDbEntity
  8
外形線
100
AcDbLine
 10
412.2021235759853
 20
328.0055795132038
 30
0.0
 11
415.7021235759854
 21
328.0055795132037
 31
0.0
  0
LINE
  5
600
330
18
100
AcDbEntity
  8
外形線
100
AcDbLine
 10
412.2021235759853
 20
319.2055795132038
 30
0.0
 11
415.7021235759854
 21
319.2055795132038
 31
0.0
  0
LINE
  5
602
330
18
100
AcDbEntity
  8
外形線
100
AcDbLine
 10
412.2021235759854
 20
328.0055795132038
 30
0.0
 11
412.2021235759854
 21
338.6055795132038
 31
0.0
  0
CIRCLE
  5
603
330
18
100
AcDbEntity
  8
外形線
 62
     4
100
AcDbCircle
 10
421.2021235759856
 20
323.6055795132038
 30
0.0
 40
1.75
  0
CIRCLE
  5
604
330
18
100
AcDbEntity
  8
外形線
 62
     4
100
AcDbCircle
 10
421.2021235759856
 20
323.6055795132038
 30
0.0
 40
1.5
  0
LINE
  5
607
330
18
100
AcDbEntity
  8
外形線
100
AcDbLine
 10
400.7021235759853
 20
327.6055795132038
 30
0.0
 11
415.7021235759854
 21
327.6055795132037
 31
0.0
  0
LINE
  5
608
330
18
100
AcDbEntity
  8
外形線
100
AcDbLine
 10
400.7021235759853
 20
319.6055795132038
 30
0.0
 11
415.7021235759853
 21
319.6055795132039
 31
0.0
  0
CIRCLE
  5
60D
330
18
100
AcDbEntity
  8
外形線
100
AcDbCircle
 10
413.3021235759856
 20
323.6055795132038
 30
0.0
 40
1.0
  0
LINE
  5
60E
330
18
100
AcDbEntity
  8
外形線
 62
     4
100
AcDbLine
 10
413.6606364843143
 20
323.9783240778485
 30
0.0
 11
412.8984733991979
 21
323.1859058949874
 31
0.0
  0
LINE
  5
610
330
18
100
AcDbEntity
  8
外形線
 62
     4
100
AcDbLine
 10
412.9021120103529
 20
323.9903183487567
 30
0.0
 11
413.7057246853361
 21
323.2173881853012
 31
0.0
  0
POINT
  5
66B
330
18
100
AcDbEntity
  8
DEFPOINTS
  6
ByBlock
 62
     0
100
AcDbPoint
 10
420.7021235759853
 20
327.6555795132038
 30
0.0
  0
POINT
  5
66C
330
18
100
AcDbEntity
  8
DEFPOINTS
  6
ByBlock
 62
     0
100
AcDbPoint
 10
420.7021235759853
 20
319.5555795132038
 30
0.0
  0
CIRCLE
  5
66F
330
18
100
AcDbEntity
  8
外形線
100
AcDbCircle
 10
406.7021235759855
 20
257.6218244778611
 30
0.0
 40
1.0
  0
LINE
  5
693
330
18
100
AcDbEntity
  8
中心線
 48
0.5
100
AcDbLine
 10
406.7021235759855
 20
255.3764304402035
 30
0.0
 11
406.7021235759856
 21
259.4096626810891
 31
0.0
  0
LINE
  5
696
330
18
100
AcDbEntity
  8
中心線
 48
0.5
100
AcDbLine
 10
404.3757625268023
 20
257.6218244778611
 30
0.0
 11
409.3642797049517
 21
257.6218244778611
 31
0.0
  0
LINE
  5
69E
330
18
100
AcDbEntity
  8
外形線
 48
0.5
100
AcDbLine
 10
414.2021235759855
 20
244.3718244778611
 30
0.0
 11
414.2021235759856
 21
264.1218244778611
 31
0.0
  0
LINE
  5
69F
330
18
100
AcDbEntity
  8
外形線
 48
0.5
100
AcDbLine
 10
414.2021235759855
 20
244.3718244778611
 30
0.0
 11
429.4021235759851
 21
244.3718244778611
 31
0.0
  0
LINE
  5
6A2
330
18
100
AcDbEntity
  8
外形線
 48
0.5
100
AcDbLine
 10
428.2021235759855
 20
232.8218244778611
 30
0.0
 11
428.2021235759857
 21
244.3718244778611
 31
0.0
  0
LINE
  5
6A3
330
18
100
AcDbEntity
  8
外形線
 48
0.5
100
AcDbLine
 10
415.6021235759856
 20
238.6218244778617
 30
0.0
 11
415.6021235759856
 21
244.3718244778611
 31
0.0
  0
LINE
  5
6A4
330
18
100
AcDbEntity
  8
外形線
 48
0.5
100
AcDbLine
 10
414.2021235759854
 20
232.8218244778611
 30
0.0
 11
428.2021235759855
 21
232.8218244778611
 31
0.0
  0
LINE
  5
6A7
330
18
100
AcDbEntity
  8
外形線
100
AcDbLine
 10
414.2021235759854
 20
232.8218244778611
 30
0.0
 11
414.2021235759854
 21
234.6218244778611
 31
0.0
  0
ARC
  5
6A9
330
18
100
AcDbEntity
  8
外形線
100
AcDbCircle
 10
404.9228416628608
 20
240.114573147455
 30
0.0
 40
10.78310533986232
100
AcDbArc
 50
329.3771476844252
 51
352.0427598771948
  0
ARC
  5
6B9
330
18
100
AcDbEntity
  8
外形線
100
AcDbCircle
 10
421.2021235759856
 20
270.3218244778611
 30
0.0
 40
1.5
100
AcDbArc
 50
19.47122063449054
 51
160.5287793655095
  0
LINE
  5
6BA
330
18
100
AcDbEntity
  8
外形線
 48
0.5
100
AcDbLine
 10
419.7521235759855
 20
270.8218244778612
 30
0.0
 11
422.6521235759856
 21
270.8218244778612
 31
0.0
  0
LINE
  5
6BC
330
18
100
AcDbEntity
  8
外形線
 48
0.5
100
AcDbLine
 10
422.9521235759856
 20
270.0183390471897
 30
0.0
 11
422.9521235759857
 21
270.5218244778612
 31
0.0
  0
LINE
  5
6BD
330
18
100
AcDbEntity
  8
外形線
 48
0.5
100
AcDbLine
 10
419.4521235759856
 20
270.0183390471897
 30
0.0
 11
419.4521235759855
 21
270.5218244778612
 31
0.0
  0
LINE
  5
6C0
330
18
100
AcDbEntity
  8
外形線
100
AcDbLine
 10
429.9021235759856
 20
266.1218244778613
 30
0.0
 11
430.2021235759855
 21
266.1218244778614
 31
0.0
  0
LINE
  5
6C1
330
18
100
AcDbEntity
  8
外形線
 48
0.5
100
AcDbLine
 10
412.2021235759856
 20
266.1218244778611
 30
0.0
 11
412.2021235759856
 21
268.6218244778612
 31
0.0
  0
LINE
  5
6C2
330
18
100
AcDbEntity
  8
外形線
 48
0.5
100
AcDbLine
 10
430.2021235759855
 20
266.1218244778611
 30
0.0
 11
430.2021235759855
 21
268.6218244778612
 31
0.0
  0
ARC
  5
6C3
330
18
100
AcDbEntity
  8
外形線
 48
0.5
100
AcDbCircle
 10
412.2021235759856
 20
264.1218244778611
 30
0.0
 40
2.0
100
AcDbArc
 50
0.0
 51
90.0
  0
ARC
  5
6C5
330
18
100
AcDbEntity
  8
外形線
100
AcDbCircle
 10
429.9021235759856
 20
265.6218244778613
 30
0.0
 40
0.5
100
AcDbArc
 50
90.00000000000074
 51
179.9999999999989
  0
LINE
  5
6C6
330
18
100
AcDbEntity
  8
外形線
100
AcDbLine
 10
412.2021235759856
 20
266.1218244778611
 30
0.0
 11
430.2021235759855
 21
266.1218244778611
 31
0.0
  0
ARC
  5
6F3
330
18
100
AcDbEntity
  8
外形線
 48
0.5
100
AcDbCircle
 10
419.7521235759855
 20
270.5218244778612
 30
0.0
 40
0.3
100
AcDbArc
 50
90.0
 51
180.0000000000043
  0
ARC
  5
6F4
330
18
100
AcDbEntity
  8
外形線
 48
0.5
100
AcDbCircle
 10
422.6521235759856
 20
270.5218244778612
 30
0.0
 40
0.3
100
AcDbArc
 50
0.0000000000043256
 51
90.0
  0
LINE
  5
70F
330
18
100
AcDbEntity
  8
外形線
100
AcDbLine
 10
429.7021235759854
 20
256.0218244778611
 30
0.0
 11
429.7021235759855
 21
258.2218244778611
 31
0.0
  0
ARC
  5
71B
330
18
100
AcDbEntity
  8
外形線
100
AcDbCircle
 10
421.2021235759856
 20
241.4157899951035
 30
0.0
 40
28.65603448275771
100
AcDbArc
 50
71.69532190119553
 51
108.3046780988047
  0
LINE
  5
724
330
18
100
AcDbEntity
  8
外形線
100
AcDbLine
 10
415.7021235759854
 20
319.2055795132038
 30
0.0
 11
415.7021235759854
 21
328.0055795132038
 31
0.0
  0
LINE
  5
738
330
18
100
AcDbEntity
  8
外形線
 48
0.5
100
AcDbLine
 10
412.2021235759854
 20
338.6055795132038
 30
0.0
 11
430.2021235759857
 21
338.6055795132038
 31
0.0
  0
LINE
  5
739
330
18
100
AcDbEntity
  8
外形線
 48
0.5
100
AcDbLine
 10
412.2021235759852
 20
308.6055795132038
 30
0.0
 11
430.2021235759853
 21
308.6055795132038
 31
0.0
  0
LINE
  5
73A
330
18
100
AcDbEntity
  8
外形線
100
AcDbLine
 10
430.2021235759853
 20
308.6055795132038
 30
0.0
 11
430.2021235759857
 21
338.6055795132038
 31
0.0
  0
LINE
  5
73C
330
18
100
AcDbEntity
  8
外形線
 48
0.5
100
AcDbLine
 10
412.2021235759854
 20
336.6055795132038
 30
0.0
 11
430.2021235759857
 21
336.6055795132038
 31
0.0
  0
LINE
  5
73D
330
18
100
AcDbEntity
  8
外形線
 48
0.5
100
AcDbLine
 10
412.2021235759852
 20
310.6055795132038
 30
0.0
 11
430.2021235759853
 21
310.6055795132038
 31
0.0
  0
DIMENSION
  5
74E
330
18
100
AcDbEntity
  8
外形線
100
AcDbDimension
  2
*D6
 10
430.2021235759853
 20
297.6902480463489
 30
0.0
 11
421.2021235759853
 21
299.5652480463489
 31
0.0
 70
    32
 71
     5
 42
18.0
  3
STYLE3
100
AcDbAlignedDimension
 13
412.2021235759852
 23
308.6055795132038
 33
0.0
 14
430.2021235759853
 24
308.6055795132038
 34
0.0
100
AcDbRotatedDimension
1001
ACAD
1000
DSTYLE
1002
{
1070
   271
1070
     2
1002
}
  0
DIMENSION
  5
75B
330
18
100
AcDbEntity
  8
外形線
100
AcDbDimension
  2
*D7
 10
448.6188608260165
 20
308.6055795132038
 30
0.0
 11
446.7438608260164
 21
323.6055795132039
 31
0.0
 70
    32
 71
     5
 42
30.0
  3
STYLE3
100
AcDbAlignedDimension
 13
430.2021235759857
 23
338.6055795132038
 33
0.0
 14
430.2021235759853
 24
308.6055795132038
 34
0.0
 50
90.0
100
AcDbRotatedDimension
1001
ACAD
1000
DSTYLE
1002
{
1070
   271
1070
     2
1002
}
  0
LINE
  5
75F
330
18
100
AcDbEntity
  8
外形線
 48
0.5
100
AcDbLine
 10
429.4021235759855
 20
258.2218244778611
 30
0.0
 11
429.7021235759855
 21
258.2218244778611
 31
0.0
  0
LINE
  5
760
330
18
100
AcDbEntity
  8
外形線
 48
0.5
100
AcDbLine
 10
429.4021235759853
 20
256.0218244778611
 30
0.0
 11
429.7021235759854
 21
256.0218244778611
 31
0.0
  0
LINE
  5
76A
330
18
100
AcDbEntity
  8
寸法線
100
AcDbLine
 10
430.2021235759855
 20
268.6218244778612
 30
0.0
 11
430.2021235759855
 21
286.4810296688627
 31
0.0
  0
LINE
  5
788
330
18
100
AcDbEntity
  8
0
  6
ByBlock
 62
     2
100
AcDbLine
 10
430.2021235759855
 20
272.8842476476723
 30
0.0
 11
430.2021235759855
 21
277.8456675778819
 31
0.0
  0
LINE
  5
789
330
18
100
AcDbEntity
  8
0
  6
ByBlock
 62
     2
100
AcDbLine
 10
423.7021235759855
 20
276.595667577882
 30
0.0
 11
427.7021235759855
 21
276.595667577882
 31
0.0
  0
INSERT
  5
78A
330
18
100
AcDbEntity
  8
0
  6
ByBlock
 62
     2
100
AcDbBlockReference
  2
_OPEN
 10
421.2021235759855
 20
276.595667577882
 30
0.0
 41
2.5
 42
2.5
 43
2.5
 50
180.0
  0
INSERT
  5
78B
330
18
100
AcDbEntity
  8
0
  6
ByBlock
 62
     2
100
AcDbBlockReference
  2
_OPEN
 10
430.2021235759855
 20
276.595667577882
 30
0.0
 41
2.5
 42
2.5
 43
2.5
  0
MTEXT
  5
78C
330
18
100
AcDbEntity
  8
0
  6
ByBlock
 62
     6
100
AcDbMText
 10
425.7021235759855
 20
278.4706675778819
 30
0.0
 40
2.5
 41
0.0
 71
     5
 72
     1
  1
\A1;9
  7
STYLE3
 73
     1
 44
1.0
  0
POINT
  5
78E
330
18
100
AcDbEntity
  8
DEFPOINTS
  6
ByBlock
 62
     0
100
AcDbPoint
 10
430.2021235759855
 20
272.8842476476723
 30
0.0
  0
POINT
  5
78F
330
18
100
AcDbEntity
  8
DEFPOINTS
  6
ByBlock
 62
     0
100
AcDbPoint
 10
430.2021235759855
 20
276.595667577882
 30
0.0
  0
DIMENSION
  5
79C
330
18
100
AcDbEntity
  8
寸法線
100
AcDbDimension
  2
*D8
 10
446.2323079913377
 20
211.6218244778612
 30
0.0
 11
444.3573079913377
 21
241.7218244778613
 31
0.0
 70
    32
  1
50～100
 71
     5
 42
60.1999999999999
  3
STYLE3
100
AcDbAlignedDimension
 13
421.2021235759856
 23
271.8218244778611
 33
0.0
 14
421.2021235759855
 24
211.6218244778612
 34
0.0
 50
90.0
100
AcDbRotatedDimension
1001
ACAD
1000
DSTYLE
1002
{
1070
   271
1070
     2
1002
}
  0
LINE
  5
79E
330
18
100
AcDbEntity
  8
0
  6
ByBlock
 62
     2
100
AcDbLine
 10
421.2021235759856
 20
271.8218244778611
 30
0.0
 11
383.0940940558072
 21
271.8218244778611
 31
0.0
  0
LINE
  5
7A0
330
18
100
AcDbEntity
  8
0
  6
ByBlock
 62
     2
100
AcDbLine
 10
384.3440940558072
 20
269.3218244778611
 30
0.0
 11
384.3440940558072
 21
245.6218244778611
 31
0.0
  0
INSERT
  5
7A1
330
18
100
AcDbEntity
  8
0
  6
ByBlock
 62
     2
100
AcDbBlockReference
  2
_OPEN
 10
384.3440940558072
 20
271.8218244778611
 30
0.0
 41
2.5
 42
2.5
 43
2.5
 50
90.0
  0
INSERT
  5
7A2
330
18
100
AcDbEntity
  8
0
  6
ByBlock
 62
     2
100
AcDbBlockReference
  2
_OPEN
 10
384.3440940558072
 20
243.1218244778611
 30
0.0
 41
2.5
 42
2.5
 43
2.5
 50
270.0
  0
MTEXT
  5
7A3
330
18
100
AcDbEntity
  8
0
  6
ByBlock
 62
     6
100
AcDbMText
 10
382.4690940558072
 20
257.4718244778611
 30
0.0
 40
2.5
 41
0.0
 71
     5
 72
     1
  1
\A1;28.7
  7
STYLE3
 11
0.0000000000000001
 21
1.0
 31
0.0
 73
     1
 44
1.0
  0
POINT
  5
7A4
330
18
100
AcDbEntity
  8
DEFPOINTS
  6
ByBlock
 62
     0
100
AcDbPoint
 10
421.2021235759856
 20
271.8218244778611
 30
0.0
  0
LINE
  5
7B9
330
18
100
AcDbEntity
  8
ﾊｯﾁﾝｸ
 62
     4
100
AcDbLine
 10
425.3480158796429
 20
231.9218244778613
 30
0.0
 11
428.2021235759855
 21
226.9783649375224
 31
0.0
  0
LINE
  5
7C6
330
18
100
AcDbEntity
  8
ﾊｯﾁﾝｸ
 62
     4
100
AcDbLine
 10
422.7432611228584
 20
224.6218244778612
 30
0.0
 11
426.9579180879428
 21
231.9218244778612
 31
0.0
  0
LINE
  5
7F7
330
18
100
AcDbEntity
  8
中心線
100
AcDbLine
 10
413.3021235759857
 20
322.0757219267184
 30
0.0
 11
413.3021235759857
 21
324.9991927317978
 31
0.0
  0
LINE
  5
7F9
330
18
100
AcDbEntity
  8
中心線
100
AcDbLine
 10
430.8900307666212
 20
257.1218244778611
 30
0.0
 11
427.9813121587342
 21
257.1218244778611
 31
0.0
  0
LINE
  5
7FD
330
18
100
AcDbEntity
  8
ﾊｯﾁﾝｸ
 62
     4
100
AcDbLine
 10
424.1933153412637
 20
231.9218244778612
 30
0.0
 11
428.2021235759855
 21
224.9783649375225
 31
0.0
  0
LINE
  5
7FE
330
18
100
AcDbEntity
  8
ﾊｯﾁﾝｸ
 62
     4
100
AcDbLine
 10
423.0386148028844
 20
231.9218244778612
 30
0.0
 11
427.2532717679688
 21
224.6218244778612
 31
0.0
  0
LINE
  5
7FF
330
18
100
AcDbEntity
  8
ﾊｯﾁﾝｸ
 62
     4
100
AcDbLine
 10
422.5178872032722
 20
230.823751137293
 30
0.0
 11
425.8887116718215
 21
224.9853118943693
 31
0.0
  0
LINE
  5
800
330
18
100
AcDbEntity
  8
ﾊｯﾁﾝｸ
 62
     4
100
AcDbLine
 10
421.2021235759856
 20
231.1027205905045
 30
0.0
 11
424.9438706912103
 21
224.6218244778613
 31
0.0
  0
LINE
  5
801
330
18
100
AcDbEntity
  8
ﾊｯﾁﾝｸ
 62
     4
100
AcDbLine
 10
421.2021235759856
 20
229.1027205905047
 30
0.0
 11
423.789170152831
 21
224.6218244778612
 31
0.0
  0
LINE
  5
802
330
18
100
AcDbEntity
  8
ﾊｯﾁﾝｸ
 62
     4
100
AcDbLine
 10
421.2021235759856
 20
227.1027205905049
 30
0.0
 11
422.6344696144518
 21
224.6218244778612
 31
0.0
  0
LINE
  5
803
330
18
100
AcDbEntity
  8
ﾊｯﾁﾝｸ
 62
     4
100
AcDbLine
 10
426.5027164180222
 20
231.9218244778613
 30
0.0
 11
428.2021235759856
 21
228.9783649375223
 31
0.0
  0
LINE
  5
804
330
18
100
AcDbEntity
  8
ﾊｯﾁﾝｸ
 62
     4
100
AcDbLine
 10
427.6574169564015
 20
231.9218244778613
 30
0.0
 11
428.2021235759856
 21
230.9783649375225
 31
0.0
  0
LINE
  5
805
330
18
100
AcDbEntity
  8
ﾊｯﾁﾝｸ
 62
     4
100
AcDbLine
 10
423.8979616612375
 20
224.6218244778612
 30
0.0
 11
428.0559959567447
 21
231.823751137293
 31
0.0
  0
LINE
  5
806
330
18
100
AcDbEntity
  8
ﾊｯﾁﾝｸ
 62
     4
100
AcDbLine
 10
425.0526621996169
 20
224.6218244778612
 30
0.0
 11
428.2021235759855
 21
230.0768515982075
 31
0.0
  0
LINE
  5
807
330
18
100
AcDbEntity
  8
ﾊｯﾁﾝｸ
 62
     4
100
AcDbLine
 10
426.207362737996
 20
224.6218244778612
 30
0.0
 11
428.2021235759855
 21
228.0768515982076
 31
0.0
  0
LINE
  5
808
330
18
100
AcDbEntity
  8
ﾊｯﾁﾝｸ
 62
     4
100
AcDbLine
 10
421.8839142645051
 20
231.9218244778613
 30
0.0
 11
426.0985712295895
 21
224.6218244778612
 31
0.0
  0
LINE
  5
809
330
18
100
AcDbEntity
  8
ﾊｯﾁﾝｸ
 62
     4
100
AcDbLine
 10
421.5885605844791
 20
224.6218244778612
 30
0.0
 11
425.8032175495635
 21
231.9218244778613
 31
0.0
  0
LINE
  5
80A
330
18
100
AcDbEntity
  8
ﾊｯﾁﾝｸ
 62
     4
100
AcDbLine
 10
421.2021235759856
 20
225.9524959452253
 30
0.0
 11
424.6485170111843
 21
231.9218244778612
 31
0.0
  0
LINE
  5
80B
330
18
100
AcDbEntity
  8
ﾊｯﾁﾝｸ
 62
     4
100
AcDbLine
 10
421.2021235759856
 20
227.9524959452253
 30
0.0
 11
423.493816472805
 21
231.9218244778612
 31
0.0
  0
LINE
  5
80C
330
18
100
AcDbEntity
  8
ﾊｯﾁﾝｸ
 62
     4
100
AcDbLine
 10
421.2021235759856
 20
229.9524959452251
 30
0.0
 11
422.3391159344258
 21
231.9218244778612
 31
0.0
  0
LINE
  5
80D
330
18
100
AcDbEntity
  8
ﾊｯﾁﾝｸ
 62
     4
100
AcDbLine
 10
427.3620632763753
 20
224.6218244778612
 30
0.0
 11
428.2021235759855
 21
226.0768515982076
 31
0.0
  0
LINE
  5
80F
330
18
100
AcDbEntity
  8
ﾊｯﾁﾝｸ
 62
     4
100
AcDbLine
 10
421.2021235759856
 20
225.1027205905047
 30
0.0
 11
421.4797690760724
 21
224.6218244778612
 31
0.0
  0
LINE
  5
850
330
18
100
AcDbEntity
  8
外形線
100
AcDbLine
 10
396.2021235759856
 20
237.9218244778611
 30
0.0
 11
398.7021235759854
 21
237.9218244778612
 31
0.0
  0
LINE
  5
851
330
18
100
AcDbEntity
  8
外形線
100
AcDbLine
 10
398.7021235759859
 20
240.5218244778612
 30
0.0
 11
396.2021235759856
 21
240.5218244778612
 31
0.0
  0
LINE
  5
852
330
18
100
AcDbEntity
  8
外形線
100
AcDbLine
 10
398.7021235759856
 20
245.7218244778612
 30
0.0
 11
396.2021235759855
 21
245.7218244778612
 31
0.0
  0
LINE
  5
853
330
18
100
AcDbEntity
  8
外形線
100
AcDbLine
 10
396.2021235759855
 20
248.3218244778611
 30
0.0
 11
398.7021235759854
 21
248.3218244778611
 31
0.0
  0
LINE
  5
854
330
18
100
AcDbEntity
  8
外形線
100
AcDbLine
 10
396.2021235759855
 20
248.3218244778611
 30
0.0
 11
396.2021235759856
 21
237.9218244778611
 31
0.0
  0
ARC
  5
855
330
18
100
AcDbEntity
  8
外形線
100
AcDbCircle
 10
397.2621235759853
 20
247.021824477861
 30
0.0
 40
1.940000000000166
100
AcDbArc
 50
317.9249779491655
 51
42.07502205084422
  0
ARC
  5
856
330
18
100
AcDbEntity
  8
外形線
100
AcDbCircle
 10
392.1921235759828
 20
243.1218244778607
 30
0.0
 40
7.010000000002722
100
AcDbArc
 50
338.2289458906957
 51
21.77105410931329
  0
ARC
  5
857
330
18
100
AcDbEntity
  8
外形線
100
AcDbCircle
 10
397.2621235759853
 20
239.2218244778613
 30
0.0
 40
1.940000000000166
100
AcDbArc
 50
317.9249779491558
 51
42.07502205083457
  0
LINE
  5
858
330
18
100
AcDbEntity
  8
外形線
100
AcDbLine
 10
399.2021235759855
 20
247.021824477861
 30
0.0
 11
399.2021235759855
 21
239.2218244778613
 31
0.0
  0
POINT
  5
86C
330
18
100
AcDbEntity
  8
DEFPOINTS
  6
ByBlock
 62
     0
100
AcDbPoint
 10
371.2021235759856
 20
277.8456675778819
 30
0.0
  0
POINT
  5
86D
330
18
100
AcDbEntity
  8
DEFPOINTS
  6
ByBlock
 62
     0
100
AcDbPoint
 10
421.2021235759856
 20
278.9144489424543
 30
0.0
  0
TEXT
  5
86F
330
18
100
AcDbEntity
  8
中心線
 62
     6
100
AcDbText
 10
393.8211711950332
 20
277.0914175439286
 30
0.0
 40
2.5
  1
50
  7
STYLE3
100
AcDbText
  0
LINE
  5
8C6
330
18
100
AcDbEntity
  8
外形線
100
AcDbLine
 10
283.2857837854671
 20
353.8801095179151
 30
0.0
 11
396.285783785467
 21
353.8801095179151
 31
0.0
  0
LINE
  5
8C7
330
18
100
AcDbEntity
  8
外形線
100
AcDbLine
 10
283.2857837854671
 20
354.8801095179151
 30
0.0
 11
396.285783785467
 21
354.8801095179151
 31
0.0
  0
TEXT
  5
8C8
330
18
100
AcDbEntity
  8
文字
100
AcDbText
 10
283.6958917854671
 20
356.5587815179151
 30
0.0
 40
3.5
  1
Model No.CC-3S Short size Cylinder Gauge
  7
STYLE3
100
AcDbText
  0
TEXT
  5
8C9
330
18
100
AcDbEntity
  8
0
  6
Continuous
100
AcDbText
 10
351.6253467854671
 20
184.0207515179151
 30
0.0
 40
2.1
  1
Design and specifications are subject to change without notice for future improvement.
  7
STYLE3
100
AcDbText
  0
LINE
  5
8CA
330
18
100
AcDbEntity
  8
外形線
100
AcDbLine
 10
350.167879785467
 20
172.5079835179151
 30
0.0
 11
350.167879785467
 21
192.902967517915
 31
0.0
  0
LINE
  5
8CB
330
18
100
AcDbEntity
  8
外形線
100
AcDbLine
 10
350.167879785467
 20
182.1227615179151
 30
0.0
 11
490.959297785467
 21
182.1227615179151
 31
0.0
  0
TEXT
  5
8CC
330
18
100
AcDbEntity
  8
0
  6
Continuous
100
AcDbText
 10
394.938123785467
 20
176.0042675179151
 30
0.0
 40
2.399999999999999
  1
mm
  7
STYLE3
100
AcDbText
  0
TEXT
  5
8CD
330
18
100
AcDbEntity
  8
0
  6
Continuous
100
AcDbText
 10
351.333855785467
 20
174.2561235179151
 30
0.0
 40
2.1
  1
3RD Angle Projection
  7
STYLE3
100
AcDbText
  0
TEXT
  5
8CE
330
18
100
AcDbEntity
  8
0
  6
Continuous
100
AcDbText
 10
353.9572977854671
 20
177.7524065179151
 30
0.0
 40
3.0
  1
三　　角　　法
  7
STYLE3
100
AcDbText
  0
TEXT
  5
8CF
330
18
100
AcDbEntity
  8
0
  6
Continuous
100
AcDbText
 10
386.896076785467
 20
177.7583615179151
 30
0.0
 40
3.0
  1
単位
  7
STYLE3
100
AcDbText
  0
TEXT
  5
8D0
330
18
100
AcDbEntity
  8
0
  6
Continuous
100
AcDbText
 10
387.067797785467
 20
174.2561245179151
 30
0.0
 40
2.1
  1
Unit
  7
STYLE3
100
AcDbText
  0
LINE
  5
8D1
330
18
100
AcDbEntity
  8
外形線
100
AcDbLine
 10
385.4386077854671
 20
182.1227615179151
 30
0.0
 11
385.4386077854671
 21
172.5079835179151
 31
0.0
  0
TEXT
  5
8D2
330
18
100
AcDbEntity
  8
0
  6
Continuous
100
AcDbText
 10
453.539609785467
 20
178.0437635179151
 30
0.0
 40
3.0
  1
株式会社　尾崎製作所
  7
STYLE3
100
AcDbText
  0
TEXT
  5
8D3
330
18
100
AcDbEntity
  8
0
  6
Continuous
100
AcDbText
 10
454.4140887854671
 20
174.2561245179151
 30
0.0
 40
2.1
  1
OZAKI MFG. CO., LTD.
  7
STYLE3
100
AcDbText
  0
TEXT
  5
8D4
330
18
100
AcDbEntity
  8
0
  6
Continuous
100
AcDbText
 10
433.135054785467
 20
176.0042665179151
 30
0.0
 40
2.1
  1
2010.06.23
  7
STYLE3
100
AcDbText
  0
TEXT
  5
8D5
330
18
100
AcDbEntity
  8
0
  6
Continuous
100
AcDbText
 10
414.296476785467
 20
176.2956245179151
 30
0.0
 40
2.399999999999999
  1
1/1
  7
STYLE3
100
AcDbText
  0
TEXT
  5
8D6
330
18
100
AcDbEntity
  8
0
  6
Continuous
100
AcDbText
 10
404.213972785467
 20
177.4670035179151
 30
0.0
 40
3.0
  1
尺 度
  7
STYLE3
100
AcDbText
  0
TEXT
  5
8D7
330
18
100
AcDbEntity
  8
0
  6
Continuous
100
AcDbText
 10
404.6771877854671
 20
174.5474815179151
 30
0.0
 40
2.1
  1
Scale
  7
STYLE3
100
AcDbText
  0
LINE
  5
8D8
330
18
100
AcDbEntity
  8
外形線
100
AcDbLine
 10
402.928224785467
 20
182.1227615179151
 30
0.0
 11
402.928224785467
 21
172.5079835179151
 31
0.0
  0
TEXT
  5
8D9
330
18
100
AcDbEntity
  8
0
  6
Continuous
100
AcDbText
 10
424.3902477854669
 20
174.2561255179151
 30
0.0
 40
2.1
  1
Date
  7
STYLE3
100
AcDbText
  0
TEXT
  5
8DA
330
18
100
AcDbEntity
  8
0
  6
Continuous
100
AcDbText
 10
424.006886785467
 20
177.5892095179151
 30
0.0
 40
3.0
  1
日 付
  7
STYLE3
100
AcDbText
  0
LINE
  5
8DB
330
18
100
AcDbEntity
  8
外形線
100
AcDbLine
 10
422.458296785467
 20
182.1227615179151
 30
0.0
 11
422.458296785467
 21
172.5079835179151
 31
0.0
  0
LINE
  5
8DC
330
18
100
AcDbEntity
  8
外形線
100
AcDbLine
 10
452.190646785467
 20
182.1227615179151
 30
0.0
 11
452.190646785467
 21
172.5079835179151
 31
0.0
  0
LINE
  5
8DD
330
18
100
AcDbEntity
  8
外形線
100
AcDbLine
 10
350.167879785467
 20
192.902967517915
 30
0.0
 11
490.959297785467
 21
192.902967517915
 31
0.0
  0
TEXT
  5
8DE
330
18
100
AcDbEntity
  8
0
  6
Continuous
100
AcDbText
 10
351.916840785467
 20
187.9498995179151
 30
0.0
 40
3.5
  1
仕様及び外観は予告なく変更される場合がございますのでご了承下さい。
  7
STYLE3
100
AcDbText
  0
ENDSEC
  0
SECTION
  2
OBJECTS
  0
DICTIONARY
  5
C
330
0
100
AcDbDictionary
281
     1
  3
ACAD_COLOR
350
89F
  3
ACAD_GROUP
350
D
  3
ACAD_LAYOUT
350
8A0
  3
ACAD_MATERIAL
350
89E
  3
ACAD_MLINESTYLE
350
1B
  3
ACAD_PLOTSETTINGS
350
8A1
  3
ACAD_PLOTSTYLENAME
350
89C
  3
ACDBVARIABLEDICTIONARY
350
192
  0
DICTIONARY
  5
89F
102
{ACAD_REACTORS
330
C
102
}
330
C
100
AcDbDictionary
281
     1
  0
DICTIONARY
  5
D
102
{ACAD_REACTORS
330
C
102
}
330
C
100
AcDbDictionary
281
     1
  0
DICTIONARY
  5
8A0
102
{ACAD_REACTORS
330
C
102
}
330
C
100
AcDbDictionary
281
     1
  3
Model
350
8A2
  3
レイアウト1
350
8A3
  0
DICTIONARY
  5
89E
102
{ACAD_REACTORS
330
C
102
}
330
C
100
AcDbDictionary
281
     1
  0
DICTIONARY
  5
1B
102
{ACAD_REACTORS
330
C
102
}
330
C
100
AcDbDictionary
281
     1
  3
STANDARD
350
1C
  0
DICTIONARY
  5
8A1
102
{ACAD_REACTORS
330
C
102
}
330
C
100
AcDbDictionary
281
     1
  0
ACDBDICTIONARYWDFLT
  5
89C
102
{ACAD_REACTORS
330
C
102
}
330
C
100
AcDbDictionary
281
     1
  3
Normal
350
89D
100
AcDbDictionaryWithDefault
340
89D
  0
DICTIONARY
  5
192
102
{ACAD_REACTORS
330
C
102
}
330
C
100
AcDbDictionary
281
     1
  3
SORTENTS
350
193
  0
LAYOUT
  5
8A2
102
{ACAD_REACTORS
330
8A0
102
}
330
8A0
100
AcDbPlotSettings
  1

  2
EPSON PX-101
  4

  6

 40
0.0
 41
0.0
 42
0.0
 43
0.0
 44
0.0
 45
0.0
 46
0.0
 47
0.0
 48
0.0
 49
0.0
140
0.0
141
0.0
142
1.0
143
1.0
 70
  1712
 72
     0
 73
     0
 74
     0
  7
AutoCad LT 98fukui.ctb
 75
     0
147
1.0
 76
     0
 77
     2
 78
   300
148
0.0
149
0.0
100
AcDbLayout
  1
Model
 70
     1
 71
     0
 10
0.0
 20
0.0
 11
12.0
 21
9.0
 12
0.0
 22
0.0
 32
0.0
 14
0.0
 24
0.0
 34
0.0
 15
0.0
 25
0.0
 35
0.0
146
0.0
 13
0.0
 23
0.0
 33
0.0
 16
1.0
 26
0.0
 36
0.0
 17
0.0
 27
1.0
 37
0.0
 76
     0
330
18
  0
LAYOUT
  5
8A3
102
{ACAD_REACTORS
330
8A0
102
}
330
8A0
100
AcDbPlotSettings
  1

  2
EPSON PX-101
  4

  6

 40
0.0
 41
0.0
 42
0.0
 43
0.0
 44
0.0
 45
0.0
 46
0.0
 47
0.0
 48
0.0
 49
0.0
140
0.0
141
0.0
142
1.0
143
1.0
 70
   688
 72
     0
 73
     0
 74
     5
  7
AutoCad LT 98fukui.ctb
 75
    16
147
1.0
 76
     0
 77
     2
 78
   300
148
0.0
149
0.0
100
AcDbLayout
  1
レイアウト1
 70
     1
 71
     1
 10
0.0
 20
0.0
 11
420.0
 21
297.0
 12
0.0
 22
0.0
 32
0.0
 14
1.000000000000000E+20
 24
1.000000000000000E+20
 34
1.000000000000000E+20
 15
-1.000000000000000E+20
 25
-1.000000000000000E+20
 35
-1.000000000000000E+20
146
0.0
 13
0.0
 23
0.0
 33
0.0
 16
1.0
 26
0.0
 36
0.0
 17
0.0
 27
1.0
 37
0.0
 76
     0
330
15
  0
MLINESTYLE
  5
1C
102
{ACAD_REACTORS
330
1B
102
}
330
1B
100
AcDbMlineStyle
  2
STANDARD
 70
     0
  3

 62
   256
 51
90.0
 52
90.0
 71
     2
 49
0.5
 62
   256
  6
BYLAYER
 49
-0.5
 62
   256
  6
BYLAYER
  0
ACDBPLACEHOLDER
  5
89D
102
{ACAD_REACTORS
330
89C
102
}
330
89C
  0
DICTIONARYVAR
  5
193
102
{ACAD_REACTORS
330
192
102
}
330
192
100
DictionaryVariables
280
     0
  1
96
  0
ENDSEC
  0
EOF
