  0
SECTION
  2
HEADER
  9
$ACADVER
  1
AC1018
  9
$ACADMAINTVER
 70
     0
  9
$DWGCODEPAGE
  3
ANSI_932
  9
$INSBASE
 10
0.0
 20
0.0
 30
0.0
  9
$EXTMIN
 10
236.4886379941706
 20
171.6235136330668
 30
-0.0015258207003583
  9
$EXTMAX
 10
491.9065729289582
 20
367.0613775925545
 30
0.0000000349246037
  9
$LIMMIN
 10
0.0
 20
0.0
  9
$LIMMAX
 10
420.0
 20
297.0
  9
$ORTHOMODE
 70
     1
  9
$REGENMODE
 70
     1
  9
$FILLMODE
 70
     1
  9
$QTEXTMODE
 70
     0
  9
$MIRRTEXT
 70
     1
  9
$LTSCALE
 40
1.0
  9
$ATTMODE
 70
     1
  9
$TEXTSIZE
 40
3.0
  9
$TRACEWID
 40
1.0
  9
$TEXTSTYLE
  7
STYLE3
  9
$CLAYER
  8
寸法線
  9
$CELTYPE
  6
BYLAYER
  9
$CECOLOR
 62
   256
  9
$CELTSCALE
 40
1.0
  9
$DISPSILH
 70
     0
  9
$DIMSCALE
 40
1.0
  9
$DIMASZ
 40
2.5
  9
$DIMEXO
 40
0.0
  9
$DIMDLI
 40
3.75
  9
$DIMRND
 40
0.0
  9
$DIMDLE
 40
0.0
  9
$DIMEXE
 40
1.25
  9
$DIMTP
 40
0.0
  9
$DIMTM
 40
0.0
  9
$DIMTXT
 40
2.5
  9
$DIMCEN
 40
2.5
  9
$DIMTSZ
 40
0.0
  9
$DIMTOL
 70
     0
  9
$DIMLIM
 70
     0
  9
$DIMTIH
 70
     0
  9
$DIMTOH
 70
     0
  9
$DIMSE1
 70
     0
  9
$DIMSE2
 70
     0
  9
$DIMTAD
 70
     1
  9
$DIMZIN
 70
     8
  9
$DIMBLK
  1

  9
$DIMASO
 70
     1
  9
$DIMSHO
 70
     1
  9
$DIMPOST
  1

  9
$DIMAPOST
  1

  9
$DIMALT
 70
     0
  9
$DIMALTD
 70
     4
  9
$DIMALTF
 40
0.0394
  9
$DIMLFAC
 40
1.0
  9
$DIMTOFL
 70
     1
  9
$DIMTVP
 40
0.0
  9
$DIMTIX
 70
     0
  9
$DIMSOXD
 70
     0
  9
$DIMSAH
 70
     1
  9
$DIMBLK1
  1
OPEN
  9
$DIMBLK2
  1
OPEN
  9
$DIMSTYLE
  2
STYLE3
  9
$DIMCLRD
 70
     2
  9
$DIMCLRE
 70
     2
  9
$DIMCLRT
 70
     6
  9
$DIMTFAC
 40
1.0
  9
$DIMGAP
 40
0.625
  9
$DIMJUST
 70
     0
  9
$DIMSD1
 70
     0
  9
$DIMSD2
 70
     0
  9
$DIMTOLJ
 70
     1
  9
$DIMTZIN
 70
     0
  9
$DIMALTZ
 70
     0
  9
$DIMALTTZ
 70
     0
  9
$DIMUPT
 70
     0
  9
$DIMDEC
 70
     2
  9
$DIMTDEC
 70
     4
  9
$DIMALTU
 70
     8
  9
$DIMALTTD
 70
     4
  9
$DIMTXSTY
  7
STYLE3
  9
$DIMAUNIT
 70
     0
  9
$DIMADEC
 70
     0
  9
$DIMALTRND
 40
0.0
  9
$DIMAZIN
 70
     0
  9
$DIMDSEP
 70
    46
  9
$DIMATFIT
 70
     3
  9
$DIMFRAC
 70
     0
  9
$DIMLDRBLK
  1

  9
$DIMLUNIT
 70
     2
  9
$DIMLWD
 70
    -2
  9
$DIMLWE
 70
    -2
  9
$DIMTMOVE
 70
     0
  9
$LUNITS
 70
     2
  9
$LUPREC
 70
     4
  9
$SKETCHINC
 40
1.0
  9
$FILLETRAD
 40
1.0
  9
$AUNITS
 70
     0
  9
$AUPREC
 70
     0
  9
$MENU
  1
.
  9
$ELEVATION
 40
0.0
  9
$PELEVATION
 40
0.0
  9
$THICKNESS
 40
0.0
  9
$LIMCHECK
 70
     0
  9
$CHAMFERA
 40
1.0
  9
$CHAMFERB
 40
1.0
  9
$CHAMFERC
 40
20.0
  9
$CHAMFERD
 40
0.0
  9
$SKPOLY
 70
     0
  9
$TDCREATE
 40
2450753.462540625
  9
$TDUCREATE
 40
2450753.087540625
  9
$TDUPDATE
 40
2455371.433336760
  9
$TDUUPDATE
 40
2455371.058336759
  9
$TDINDWG
 40
1.7858625810
  9
$TDUSRTIMER
 40
1.7858625810
  9
$USRTIMER
 70
     1
  9
$ANGBASE
 50
0.0
  9
$ANGDIR
 70
     0
  9
$PDMODE
 70
     0
  9
$PDSIZE
 40
0.0
  9
$PLINEWID
 40
0.0
  9
$SPLFRAME
 70
     0
  9
$SPLINETYPE
 70
     6
  9
$SPLINESEGS
 70
     8
  9
$HANDSEED
  5
1344
  9
$SURFTAB1
 70
     6
  9
$SURFTAB2
 70
     6
  9
$SURFTYPE
 70
     6
  9
$SURFU
 70
     6
  9
$SURFV
 70
     6
  9
$UCSBASE
  2

  9
$UCSNAME
  2

  9
$UCSORG
 10
0.0
 20
0.0
 30
0.0
  9
$UCSXDIR
 10
1.0
 20
0.0
 30
0.0
  9
$UCSYDIR
 10
0.0
 20
1.0
 30
0.0
  9
$UCSORTHOREF
  2

  9
$UCSORTHOVIEW
 70
     0
  9
$UCSORGTOP
 10
0.0
 20
0.0
 30
0.0
  9
$UCSORGBOTTOM
 10
0.0
 20
0.0
 30
0.0
  9
$UCSORGLEFT
 10
0.0
 20
0.0
 30
0.0
  9
$UCSORGRIGHT
 10
0.0
 20
0.0
 30
0.0
  9
$UCSORGFRONT
 10
0.0
 20
0.0
 30
0.0
  9
$UCSORGBACK
 10
0.0
 20
0.0
 30
0.0
  9
$PUCSBASE
  2

  9
$PUCSNAME
  2

  9
$PUCSORG
 10
0.0
 20
0.0
 30
0.0
  9
$PUCSXDIR
 10
1.0
 20
0.0
 30
0.0
  9
$PUCSYDIR
 10
0.0
 20
1.0
 30
0.0
  9
$PUCSORTHOREF
  2

  9
$PUCSORTHOVIEW
 70
     0
  9
$PUCSORGTOP
 10
0.0
 20
0.0
 30
0.0
  9
$PUCSORGBOTTOM
 10
0.0
 20
0.0
 30
0.0
  9
$PUCSORGLEFT
 10
0.0
 20
0.0
 30
0.0
  9
$PUCSORGRIGHT
 10
0.0
 20
0.0
 30
0.0
  9
$PUCSORGFRONT
 10
0.0
 20
0.0
 30
0.0
  9
$PUCSORGBACK
 10
0.0
 20
0.0
 30
0.0
  9
$USERI1
 70
     0
  9
$USERI2
 70
     0
  9
$USERI3
 70
     0
  9
$USERI4
 70
     0
  9
$USERI5
 70
     0
  9
$USERR1
 40
0.0
  9
$USERR2
 40
0.0
  9
$USERR3
 40
0.0
  9
$USERR4
 40
0.0
  9
$USERR5
 40
0.0
  9
$WORLDVIEW
 70
     1
  9
$SHADEDGE
 70
     3
  9
$SHADEDIF
 70
    70
  9
$TILEMODE
 70
     1
  9
$MAXACTVP
 70
    48
  9
$PINSBASE
 10
0.0
 20
0.0
 30
0.0
  9
$PLIMCHECK
 70
     0
  9
$PEXTMIN
 10
1.000000000000000E+20
 20
1.000000000000000E+20
 30
1.000000000000000E+20
  9
$PEXTMAX
 10
-1.000000000000000E+20
 20
-1.000000000000000E+20
 30
-1.000000000000000E+20
  9
$PLIMMIN
 10
0.0
 20
0.0
  9
$PLIMMAX
 10
420.0
 20
297.0
  9
$UNITMODE
 70
     0
  9
$VISRETAIN
 70
     1
  9
$PLINEGEN
 70
     0
  9
$PSLTSCALE
 70
     1
  9
$TREEDEPTH
 70
  3020
  9
$CMLSTYLE
  2
STANDARD
  9
$CMLJUST
 70
     0
  9
$CMLSCALE
 40
20.0
  9
$PROXYGRAPHICS
 70
     1
  9
$MEASUREMENT
 70
     1
  9
$CELWEIGHT
370
    -1
  9
$ENDCAPS
280
     0
  9
$JOINSTYLE
280
     0
  9
$LWDISPLAY
290
     0
  9
$INSUNITS
 70
     0
  9
$HYPERLINKBASE
  1

  9
$STYLESHEET
  1

  9
$XEDIT
290
     1
  9
$CEPSNTYPE
380
     0
  9
$PSTYLEMODE
290
     1
  9
$FINGERPRINTGUID
  2
{1992420E-4FA2-459E-ADAA-83C54AB569D7}
  9
$VERSIONGUID
  2
{CB812529-FDDA-4BDF-87AB-71124B1BA6C0}
  9
$EXTNAMES
290
     1
  9
$PSVPSCALE
 40
0.0
  9
$OLESTARTUP
290
     0
  9
$SORTENTS
280
    96
  9
$INDEXCTL
280
     0
  9
$HIDETEXT
280
     0
  9
$XCLIPFRAME
290
     0
  9
$HALOGAP
280
     0
  9
$OBSCOLOR
 70
   257
  9
$OBSLTYPE
280
     0
  9
$INTERSECTIONDISPLAY
280
     0
  9
$INTERSECTIONCOLOR
 70
   257
  9
$DIMASSOC
280
     1
  9
$PROJECTNAME
  1

  0
ENDSEC
  0
SECTION
  2
CLASSES
  0
CLASS
  1
DICTIONARYVAR
  2
AcDbDictionaryVar
  3
ObjectDBX Classes
 90
        0
 91
        1
280
     0
281
     0
  0
CLASS
  1
ACDBDICTIONARYWDFLT
  2
AcDbDictionaryWithDefault
  3
ObjectDBX Classes
 90
        0
 91
        1
280
     0
281
     0
  0
ENDSEC
  0
SECTION
  2
TABLES
  0
TABLE
  2
VPORT
  5
8
330
0
100
AcDbSymbolTable
 70
     2
  0
VPORT
  5
1343
330
8
100
AcDbSymbolTableRecord
100
AcDbViewportTableRecord
  2
*Active
 70
     0
 10
0.0
 20
0.0
 11
1.0
 21
1.0
 12
364.1976054615644
 22
269.3424456128107
 13
0.0
 23
0.0
 14
10.0
 24
10.0
 15
10.0
 25
10.0
 16
0.0
 26
0.0
 36
1.0
 17
0.0
 27
0.0
 37
0.0
 40
196.9240834572785
 41
1.530456852791878
 42
50.0
 43
0.0
 44
0.0
 50
0.0
 51
0.0
 71
     0
 72
   100
 73
     1
 74
     1
 75
     0
 76
     0
 77
     0
 78
     0
281
     0
 65
     1
110
0.0
120
0.0
130
0.0
111
1.0
121
0.0
131
0.0
112
0.0
122
1.0
132
0.0
 79
     0
146
0.0
  0
ENDTAB
  0
TABLE
  2
LTYPE
  5
5
330
0
100
AcDbSymbolTable
 70
     4
  0
LTYPE
  5
12
330
5
100
AcDbSymbolTableRecord
100
AcDbLinetypeTableRecord
  2
BYBLOCK
 70
     0
  3

 72
    65
 73
     0
 40
0.0
  0
LTYPE
  5
13
330
5
100
AcDbSymbolTableRecord
100
AcDbLinetypeTableRecord
  2
BYLAYER
 70
     0
  3

 72
    65
 73
     0
 40
0.0
  0
LTYPE
  5
14
330
5
100
AcDbSymbolTableRecord
100
AcDbLinetypeTableRecord
  2
CONTINUOUS
 70
     0
  3
Solid line
 72
    65
 73
     0
 40
0.0
  0
LTYPE
  5
22
330
5
100
AcDbSymbolTableRecord
100
AcDbLinetypeTableRecord
  2
CENTER2
 70
     0
  3
Center (.5x) ___ _ ___ _ ___ _ ___ _ ___ _ ___
 72
    65
 73
     4
 40
28.575
 49
19.05
 74
     0
 49
-3.174999999999999
 74
     0
 49
3.174999999999999
 74
     0
 49
-3.174999999999999
 74
     0
  0
LTYPE
  5
10A4
330
5
100
AcDbSymbolTableRecord
100
AcDbLinetypeTableRecord
  2
PHANTOM2
 70
     0
  3
Phantom (.5x) ___ _ _ ___ _ _ ___ _ _ ___ _ _
 72
    65
 73
     6
 40
31.75
 49
15.875
 74
     0
 49
-3.174999999999999
 74
     0
 49
3.174999999999999
 74
     0
 49
-3.174999999999999
 74
     0
 49
3.174999999999999
 74
     0
 49
-3.174999999999999
 74
     0
  0
LTYPE
  5
1152
330
5
100
AcDbSymbolTableRecord
100
AcDbLinetypeTableRecord
  2
HIDDEN2
 70
     0
  3
Hidden (.5x) _ _ _ _ _ _ _ _ _ _ _ _ _ _ _ _ _
 72
    65
 73
     2
 40
4.762499999999999
 49
3.174999999999999
 74
     0
 49
-1.587499999999999
 74
     0
  0
ENDTAB
  0
TABLE
  2
LAYER
  5
2
330
0
100
AcDbSymbolTable
 70
    13
  0
LAYER
  5
E
330
2
100
AcDbSymbolTableRecord
100
AcDbLayerTableRecord
  2
0
 70
     0
 62
     7
  6
CONTINUOUS
370
    -3
390
12EF
  0
LAYER
  5
25
330
2
100
AcDbSymbolTableRecord
100
AcDbLayerTableRecord
  2
外形線
 70
     0
 62
     7
  6
CONTINUOUS
370
    -3
390
12EF
  0
LAYER
  5
26
330
2
100
AcDbSymbolTableRecord
100
AcDbLayerTableRecord
  2
寸法線
 70
     0
 62
     2
  6
CONTINUOUS
370
    -3
390
12EF
  0
LAYER
  5
27
330
2
100
AcDbSymbolTableRecord
100
AcDbLayerTableRecord
  2
中心線
 70
     0
 62
     4
  6
CENTER2
370
    -3
390
12EF
  0
LAYER
  5
2A
330
2
100
AcDbSymbolTableRecord
100
AcDbLayerTableRecord
  2
ﾊｯﾁﾝｸ
 70
     0
 62
     6
  6
CONTINUOUS
370
    -3
390
12EF
  0
LAYER
  5
2B
330
2
100
AcDbSymbolTableRecord
100
AcDbLayerTableRecord
  2
文字
 70
     0
 62
     6
  6
CONTINUOUS
370
    -3
390
12EF
  0
LAYER
  5
53
330
2
100
AcDbSymbolTableRecord
100
AcDbLayerTableRecord
  2
DEFPOINTS
 70
     0
 62
     7
  6
CONTINUOUS
290
     0
370
    -3
390
12EF
  0
LAYER
  5
A5
330
2
100
AcDbSymbolTableRecord
100
AcDbLayerTableRecord
  2
C
 70
     0
 62
     7
  6
CONTINUOUS
370
    -3
390
12EF
  0
LAYER
  5
10A5
330
2
100
AcDbSymbolTableRecord
100
AcDbLayerTableRecord
  2
想像線
 70
     0
 62
     1
  6
PHANTOM2
370
    -3
390
12EF
  0
LAYER
  5
10A6
330
2
100
AcDbSymbolTableRecord
100
AcDbLayerTableRecord
  2
隠れ線
 70
     0
 62
     1
  6
HIDDEN2
370
    -3
390
12EF
  0
ENDTAB
  0
TABLE
  2
STYLE
  5
3
330
0
100
AcDbSymbolTable
 70
     4
  0
STYLE
  5
F
330
3
100
AcDbSymbolTableRecord
100
AcDbTextStyleTableRecord
  2
STANDARD
 70
     0
 40
0.0
 41
1.0
 50
0.0
 71
     0
 42
2.5
  3
txt
  4

  0
STYLE
  5
3F
330
3
100
AcDbSymbolTableRecord
100
AcDbTextStyleTableRecord
  2
STYLE3
 70
     0
 40
0.0
 41
1.0
 50
0.0
 71
     0
 42
3.0
  3
romans.shx
  4
bigfont.shx
  0
ENDTAB
  0
TABLE
  2
VIEW
  5
6
330
0
100
AcDbSymbolTable
 70
     0
  0
ENDTAB
  0
TABLE
  2
UCS
  5
7
330
0
100
AcDbSymbolTable
 70
     0
  0
ENDTAB
  0
TABLE
  2
APPID
  5
9
330
0
100
AcDbSymbolTable
 70
     1
  0
APPID
  5
10
330
9
100
AcDbSymbolTableRecord
100
AcDbRegAppTableRecord
  2
ACAD
 70
     0
  0
ENDTAB
  0
TABLE
  2
DIMSTYLE
  5
A
330
0
100
AcDbSymbolTable
 70
     2
100
AcDbDimStyleTable
 71
     0
  0
DIMSTYLE
105
1D
330
A
100
AcDbSymbolTableRecord
100
AcDbDimStyleTableRecord
  2
STANDARD
 70
     0
 41
2.5
 42
0.625
 43
3.75
 44
1.25
 73
     0
 74
     0
 77
     1
 78
     8
140
2.5
141
2.5
143
0.0394
147
0.625
171
     4
172
     1
273
     8
274
     4
277
     6
340
F
  0
DIMSTYLE
105
8F
102
{ACAD_REACTORS
330
940
330
94D
330
122B
102
}
330
A
100
AcDbSymbolTableRecord
100
AcDbDimStyleTableRecord
  2
STYLE3
 70
     0
 41
2.5
 42
0.0
 43
3.75
 44
1.25
 73
     0
 74
     0
 77
     1
 78
     8
140
2.5
141
2.5
143
0.0394
147
0.625
171
     4
172
     1
173
     1
176
     2
177
     2
178
     6
271
     1
273
     8
274
     4
340
3F
341
45
343
45
344
45
  0
ENDTAB
  0
TABLE
  2
BLOCK_RECORD
  5
1
330
0
100
AcDbSymbolTable
 70
    10
  0
BLOCK_RECORD
  5
18
330
1
100
AcDbSymbolTableRecord
100
AcDbBlockTableRecord
  2
*MODEL_SPACE
340
12F4
  0
BLOCK_RECORD
  5
15
330
1
100
AcDbSymbolTableRecord
100
AcDbBlockTableRecord
  2
*PAPER_SPACE
340
12F5
  0
BLOCK_RECORD
  5
45
330
1
100
AcDbSymbolTableRecord
100
AcDbBlockTableRecord
  2
_OPEN
340
0
102
{BLKREFS
331
5DA
331
5DB
331
9FB
331
9FC
331
A02
331
A03
331
A0D
331
A0E
331
1264
331
126B
331
126C
331
1270
331
1285
331
1286
331
128D
331
128E
331
1298
331
1299
331
12B0
331
12B1
331
12C8
331
12C9
331
1230
331
1231
331
976
331
977
331
A18
331
A19
331
117A
331
117B
331
11DE
331
11DF
331
120A
331
120B
331
1217
331
1218
331
123C
331
123D
331
1253
331
1254
331
125D
331
1276
331
12A5
331
12A6
331
12BD
331
12BE
331
1334
331
1335
331
133D
331
133E
102
}
  0
BLOCK_RECORD
  5
51C
330
1
100
AcDbSymbolTableRecord
100
AcDbBlockTableRecord
  2
六角ﾈｼ
340
0
102
{BLKREFS
331
523
331
F8A
102
}
  0
BLOCK_RECORD
  5
934
330
1
100
AcDbSymbolTableRecord
100
AcDbBlockTableRecord
  2
*D5
340
0
  0
BLOCK_RECORD
  5
941
330
1
100
AcDbSymbolTableRecord
100
AcDbBlockTableRecord
  2
*D6
340
0
  0
BLOCK_RECORD
  5
121F
330
1
100
AcDbSymbolTableRecord
100
AcDbBlockTableRecord
  2
*D8
340
0
  0
ENDTAB
  0
ENDSEC
  0
SECTION
  2
BLOCKS
  0
BLOCK
  5
19
330
18
100
AcDbEntity
  8
0
100
AcDbBlockBegin
  2
*MODEL_SPACE
 70
     0
 10
0.0
 20
0.0
 30
0.0
  3
*MODEL_SPACE
  1

  0
ENDBLK
  5
1A
330
18
100
AcDbEntity
  8
0
100
AcDbBlockEnd
  0
BLOCK
  5
16
330
15
100
AcDbEntity
 67
     1
  8
0
100
AcDbBlockBegin
  2
*PAPER_SPACE
 70
     0
 10
0.0
 20
0.0
 30
0.0
  3
*PAPER_SPACE
  1

  0
ENDBLK
  5
17
330
15
100
AcDbEntity
 67
     1
  8
0
100
AcDbBlockEnd
  0
BLOCK
  5
46
330
45
100
AcDbEntity
  8
0
100
AcDbBlockBegin
  2
_OPEN
 70
     0
 10
0.0
 20
0.0
 30
0.0
  3
_OPEN
  1

  0
LINE
  5
47
330
45
100
AcDbEntity
  8
0
  6
ByBlock
 62
     0
100
AcDbLine
 10
-1.0
 20
0.1666666666666666
 30
0.0
 11
0.0
 21
0.0
 31
0.0
  0
LINE
  5
48
330
45
100
AcDbEntity
  8
0
  6
ByBlock
 62
     0
100
AcDbLine
 10
0.0
 20
0.0
 30
0.0
 11
-1.0
 21
-0.1666666666666666
 31
0.0
  0
LINE
  5
49
330
45
100
AcDbEntity
  8
0
  6
ByBlock
 62
     0
100
AcDbLine
 10
0.0
 20
0.0
 30
0.0
 11
-1.0
 21
0.0
 31
0.0
  0
ENDBLK
  5
4A
330
45
100
AcDbEntity
  8
0
100
AcDbBlockEnd
  0
BLOCK
  5
521
330
51C
100
AcDbEntity
  8
0
100
AcDbBlockBegin
  2
六角ﾈｼ
 70
     0
 10
0.0
 20
0.0
 30
0.0
  3
六角ﾈｼ
  1

  0
LINE
  5
51D
330
51C
100
AcDbEntity
  8
外形線
 48
0.8
100
AcDbLine
 10
-0.0000000000000568
 20
4.499999999999943
 30
0.0
 11
2.737599573181626
 21
4.499999999999943
 31
0.0
  0
ARC
  5
51E
330
51C
100
AcDbEntity
  8
外形線
100
AcDbCircle
 10
-4.010000000002662
 20
2.599999999999511
 30
0.0
 40
7.010000000002722
100
AcDbArc
 50
338.2289458906957
 51
15.72624379279067
  0
ARC
  5
51F
330
51C
100
AcDbEntity
  8
外形線
100
AcDbCircle
 10
-4.010000000002662
 20
-2.599999999999511
 30
0.0
 40
7.010000000002722
100
AcDbArc
 50
344.2737562072088
 51
21.77105410930435
  0
LINE
  5
520
330
51C
100
AcDbEntity
  8
外形線
 48
0.8
100
AcDbLine
 10
0.0000000000001705
 20
-4.5
 30
0.0
 11
2.737599573181569
 21
-4.5
 31
0.0
  0
ENDBLK
  5
522
330
51C
100
AcDbEntity
  8
0
100
AcDbBlockEnd
  0
BLOCK
  5
1181
330
934
100
AcDbEntity
  8
0
100
AcDbBlockBegin
  2
*D5
 70
     1
 10
0.0
 20
0.0
 30
0.0
  3
*D5
  1

  0
LINE
  5
1331
330
934
100
AcDbEntity
  8
外形線
 62
     2
370
    -2
100
AcDbLine
 10
245.9673158482241
 20
251.3209052671009
 30
0.0
 11
245.9673158482241
 21
282.3254698204727
 31
0.0
  0
LINE
  5
1332
330
934
100
AcDbEntity
  8
外形線
 62
     2
370
    -2
100
AcDbLine
 10
436.4595492597281
 20
257.6209052671007
 30
0.0
 11
436.4595492597281
 21
282.3254698204727
 31
0.0
  0
LINE
  5
1333
330
934
100
AcDbEntity
  8
外形線
 62
     2
370
    -2
100
AcDbLine
 10
248.4673158482241
 20
281.0754698204728
 30
0.0
 11
433.9595492597282
 21
281.0754698204728
 31
0.0
  0
INSERT
  5
1334
330
934
100
AcDbEntity
  8
外形線
 62
     2
370
    -2
100
AcDbBlockReference
  2
_OPEN
 10
245.9673158482241
 20
281.0754698204728
 30
0.0
 41
2.5
 42
2.5
 43
2.5
 50
180.0
  0
INSERT
  5
1335
330
934
100
AcDbEntity
  8
外形線
 62
     2
370
    -2
100
AcDbBlockReference
  2
_OPEN
 10
436.4595492597281
 20
281.0754698204728
 30
0.0
 41
2.5
 42
2.5
 43
2.5
  0
MTEXT
  5
1336
330
934
100
AcDbEntity
  8
外形線
 62
     6
100
AcDbMText
 10
341.2134325539761
 20
282.9504698204727
 30
0.0
 40
2.5
 41
0.0
 71
     5
 72
     1
  1
\A1;247
  7
STYLE3
 73
     1
 44
1.0
  0
POINT
  5
1337
330
934
100
AcDbEntity
  8
DEFPOINTS
 62
     0
100
AcDbPoint
 10
245.9673158482241
 20
251.3209052671009
 30
0.0
  0
POINT
  5
1338
330
934
100
AcDbEntity
  8
DEFPOINTS
 62
     0
100
AcDbPoint
 10
436.4595492597281
 20
257.6209052671007
 30
0.0
  0
POINT
  5
1339
330
934
100
AcDbEntity
  8
DEFPOINTS
 62
     0
100
AcDbPoint
 10
436.4595492597281
 20
281.0754698204728
 30
0.0
  0
ENDBLK
  5
118B
330
934
100
AcDbEntity
  8
0
100
AcDbBlockEnd
  0
BLOCK
  5
959
330
941
100
AcDbEntity
  8
0
100
AcDbBlockBegin
  2
*D6
 70
     1
 10
0.0
 20
0.0
 30
0.0
  3
*D6
  1

  0
LINE
  5
133A
330
941
100
AcDbEntity
  8
外形線
 62
     2
370
    -2
100
AcDbLine
 10
268.9673158482241
 20
254.7277065710967
 30
0.0
 11
268.9673158482241
 21
274.2602788566426
 31
0.0
  0
LINE
  5
133B
330
941
100
AcDbEntity
  8
外形線
 62
     2
370
    -2
100
AcDbLine
 10
338.9673158482241
 20
254.7277065710967
 30
0.0
 11
338.9673158482241
 21
274.2602788566426
 31
0.0
  0
LINE
  5
133C
330
941
100
AcDbEntity
  8
外形線
 62
     2
370
    -2
100
AcDbLine
 10
271.4673158482241
 20
273.0102788566426
 30
0.0
 11
336.4673158482241
 21
273.0102788566426
 31
0.0
  0
INSERT
  5
133D
330
941
100
AcDbEntity
  8
外形線
 62
     2
370
    -2
100
AcDbBlockReference
  2
_OPEN
 10
268.9673158482241
 20
273.0102788566426
 30
0.0
 41
2.5
 42
2.5
 43
2.5
 50
180.0
  0
INSERT
  5
133E
330
941
100
AcDbEntity
  8
外形線
 62
     2
370
    -2
100
AcDbBlockReference
  2
_OPEN
 10
338.9673158482241
 20
273.0102788566426
 30
0.0
 41
2.5
 42
2.5
 43
2.5
  0
MTEXT
  5
133F
330
941
100
AcDbEntity
  8
外形線
 62
     6
100
AcDbMText
 10
303.9673158482241
 20
274.8852788566426
 30
0.0
 40
2.5
 41
0.0
 71
     5
 72
     1
  1
\A1;70
  7
STYLE3
 73
     1
 44
1.0
  0
POINT
  5
1340
330
941
100
AcDbEntity
  8
DEFPOINTS
 62
     0
100
AcDbPoint
 10
268.9673158482241
 20
254.7277065710967
 30
0.0
  0
POINT
  5
1341
330
941
100
AcDbEntity
  8
DEFPOINTS
 62
     0
100
AcDbPoint
 10
338.9673158482241
 20
254.7277065710967
 30
0.0
  0
POINT
  5
1342
330
941
100
AcDbEntity
  8
DEFPOINTS
 62
     0
100
AcDbPoint
 10
338.9673158482241
 20
273.0102788566426
 30
0.0
  0
ENDBLK
  5
963
330
941
100
AcDbEntity
  8
0
100
AcDbBlockEnd
  0
BLOCK
  5
122C
330
121F
100
AcDbEntity
  8
0
100
AcDbBlockBegin
  2
*D8
 70
     1
 10
0.0
 20
0.0
 30
0.0
  3
*D8
  1

  0
LINE
  5
122D
330
121F
100
AcDbEntity
  8
0
  6
ByBlock
 62
     2
100
AcDbLine
 10
434.4595492597282
 20
319.1238811760245
 30
0.0
 11
449.2031993065597
 21
319.1238811760245
 31
0.0
  0
LINE
  5
122E
330
121F
100
AcDbEntity
  8
0
  6
ByBlock
 62
     2
100
AcDbLine
 10
434.4595492597282
 20
306.1238811760244
 30
0.0
 11
449.2031993065597
 21
306.1238811760244
 31
0.0
  0
LINE
  5
122F
330
121F
100
AcDbEntity
  8
0
  6
ByBlock
 62
     2
100
AcDbLine
 10
447.9531993065598
 20
316.6238811760245
 30
0.0
 11
447.9531993065598
 21
308.6238811760245
 31
0.0
  0
INSERT
  5
1230
330
121F
100
AcDbEntity
  8
0
  6
ByBlock
 62
     2
100
AcDbBlockReference
  2
_OPEN
 10
447.9531993065598
 20
319.1238811760245
 30
0.0
 41
2.5
 42
2.5
 43
2.5
 50
90.0
  0
INSERT
  5
1231
330
121F
100
AcDbEntity
  8
0
  6
ByBlock
 62
     2
100
AcDbBlockReference
  2
_OPEN
 10
447.9531993065598
 20
306.1238811760244
 30
0.0
 41
2.5
 42
2.5
 43
2.5
 50
270.0
  0
MTEXT
  5
1232
330
121F
100
AcDbEntity
  8
0
  6
ByBlock
 62
     6
100
AcDbMText
 10
446.0781993065597
 20
312.6238811760245
 30
0.0
 40
2.5
 41
0.0
 71
     5
 72
     1
  1
\A1;13
  7
STYLE3
 11
0.0000000000000001
 21
1.0
 31
0.0
 73
     1
 44
1.0
  0
POINT
  5
1233
330
121F
100
AcDbEntity
  8
DEFPOINTS
  6
ByBlock
 62
     0
100
AcDbPoint
 10
434.4595492597282
 20
319.1238811760245
 30
0.0
  0
POINT
  5
1234
330
121F
100
AcDbEntity
  8
DEFPOINTS
  6
ByBlock
 62
     0
100
AcDbPoint
 10
434.4595492597282
 20
306.1238811760244
 30
0.0
  0
POINT
  5
1235
330
121F
100
AcDbEntity
  8
DEFPOINTS
  6
ByBlock
 62
     0
100
AcDbPoint
 10
447.9531993065598
 20
306.1238811760244
 30
0.0
  0
ENDBLK
  5
1236
330
121F
100
AcDbEntity
  8
0
100
AcDbBlockEnd
  0
ENDSEC
  0
SECTION
  2
ENTITIES
  0
LWPOLYLINE
  5
10B
330
18
100
AcDbEntity
  8
C
100
AcDbPolyline
 90
        5
 70
     0
 43
0.4
 10
236.6915604445414
 20
366.8501752555372
 10
491.6915604445414
 20
366.8501752555372
 10
491.6915604445414
 20
171.8501752555372
 10
236.6915604445414
 20
171.8501752555372
 10
236.6915604445414
 20
366.8501752555372
  0
LINE
  5
16A
330
18
100
AcDbEntity
  8
中心線
 48
0.5
100
AcDbLine
 10
243.6276142287379
 20
247.6209052671009
 30
0.0
 11
439.4612180464476
 21
247.6209052671008
 31
0.0
  0
LINE
  5
16C
102
{ACAD_REACTORS
330
317
102
}
330
18
100
AcDbEntity
  8
外形線
100
AcDbLine
 10
308.9673158482241
 20
257.5802190907543
 30
0.0
 11
308.9673158482241
 21
251.6209052671009
 31
0.0
  0
LINE
  5
16D
102
{ACAD_REACTORS
330
317
102
}
330
18
100
AcDbEntity
  8
外形線
100
AcDbLine
 10
328.9673158482241
 20
256.602129181319
 30
0.0
 11
328.9673158482242
 21
249.6209052671009
 31
0.0
  0
LINE
  5
16E
330
18
100
AcDbEntity
  8
外形線
100
AcDbLine
 10
338.9673158482241
 20
254.7277065710967
 30
0.0
 11
338.9673158482241
 21
240.514103963105
 31
0.0
  0
LINE
  5
171
330
18
100
AcDbEntity
  8
外形線
100
AcDbLine
 10
268.9673158482241
 20
254.7277065710967
 30
0.0
 11
268.9673158482241
 21
253.6209052671009
 31
0.0
  0
ARC
  5
173
102
{ACAD_REACTORS
330
317
102
}
330
18
100
AcDbEntity
  8
外形線
100
AcDbCircle
 10
303.9673158482241
 20
-49.62909473289915
 30
0.0
 40
307.25
100
AcDbArc
 50
83.62585904071393
 51
96.37414095928605
  0
ARC
  5
175
102
{ACAD_REACTORS
330
317
102
}
330
18
100
AcDbEntity
  8
外形線
100
AcDbCircle
 10
303.9673158482241
 20
544.8709052671008
 30
0.0
 40
307.25
100
AcDbArc
 50
263.6258590407139
 51
276.3741409592861
  0
LINE
  5
176
330
18
100
AcDbEntity
  8
外形線
100
AcDbLine
 10
318.9673158482241
 20
251.1209052671009
 30
0.0
 11
318.9673158482241
 21
244.1209052671009
 31
0.0
  0
LINE
  5
177
330
18
100
AcDbEntity
  8
外形線
100
AcDbLine
 10
288.9673158482241
 20
251.1209052671009
 30
0.0
 11
288.9673158482241
 21
244.1209052671009
 31
0.0
  0
LINE
  5
178
330
18
100
AcDbEntity
  8
外形線
100
AcDbLine
 10
288.9673158482241
 20
251.1209052671009
 30
0.0
 11
318.9673158482241
 21
251.1209052671009
 31
0.0
  0
LINE
  5
179
330
18
100
AcDbEntity
  8
外形線
100
AcDbLine
 10
288.9673158482241
 20
244.1209052671009
 30
0.0
 11
318.9673158482241
 21
244.1209052671009
 31
0.0
  0
LINE
  5
17A
102
{ACAD_REACTORS
330
317
102
}
330
18
100
AcDbEntity
  8
外形線
100
AcDbLine
 10
308.9673158482241
 20
251.6209052671009
 30
0.0
 11
319.4673158482241
 21
251.6209052671009
 31
0.0
  0
LINE
  5
17C
102
{ACAD_REACTORS
330
317
102
}
330
18
100
AcDbEntity
  8
外形線
100
AcDbLine
 10
319.4673158482241
 20
249.6209052671009
 30
0.0
 11
328.9673158482242
 21
249.6209052671009
 31
0.0
  0
LINE
  5
17F
102
{ACAD_REACTORS
330
317
102
}
330
18
100
AcDbEntity
  8
外形線
100
AcDbLine
 10
319.4673158482241
 20
251.6209052671009
 30
0.0
 11
319.4673158482241
 21
249.6209052671009
 31
0.0
  0
LINE
  5
181
102
{ACAD_REACTORS
330
317
102
}
330
18
100
AcDbEntity
  8
外形線
100
AcDbLine
 10
319.4673158482241
 20
245.6209052671009
 30
0.0
 11
328.9673158482242
 21
245.6209052671009
 31
0.0
  0
LINE
  5
182
102
{ACAD_REACTORS
330
317
102
}
330
18
100
AcDbEntity
  8
外形線
100
AcDbLine
 10
328.9673158482241
 20
238.6396813528827
 30
0.0
 11
328.9673158482242
 21
245.6209052671009
 31
0.0
  0
LINE
  5
183
102
{ACAD_REACTORS
330
317
102
}
330
18
100
AcDbEntity
  8
外形線
100
AcDbLine
 10
319.4673158482241
 20
243.6209052671009
 30
0.0
 11
319.4673158482241
 21
245.6209052671009
 31
0.0
  0
LINE
  5
184
102
{ACAD_REACTORS
330
317
102
}
330
18
100
AcDbEntity
  8
外形線
100
AcDbLine
 10
308.9673158482241
 20
243.6209052671009
 30
0.0
 11
319.4673158482241
 21
243.6209052671009
 31
0.0
  0
LINE
  5
185
102
{ACAD_REACTORS
330
317
102
}
330
18
100
AcDbEntity
  8
外形線
100
AcDbLine
 10
308.9673158482241
 20
237.6615914434474
 30
0.0
 11
308.9673158482241
 21
243.6209052671009
 31
0.0
  0
LINE
  5
186
102
{ACAD_REACTORS
330
317
102
}
330
18
100
AcDbEntity
  8
外形線
100
AcDbLine
 10
278.9673158482241
 20
238.6396813528827
 30
0.0
 11
278.967315848224
 21
245.6209052671009
 31
0.0
  0
LINE
  5
188
102
{ACAD_REACTORS
330
317
102
}
330
18
100
AcDbEntity
  8
外形線
100
AcDbLine
 10
298.9673158482241
 20
237.6615914434474
 30
0.0
 11
298.9673158482241
 21
243.6209052671009
 31
0.0
  0
LINE
  5
189
102
{ACAD_REACTORS
330
317
102
}
330
18
100
AcDbEntity
  8
外形線
100
AcDbLine
 10
298.9673158482241
 20
243.6209052671009
 30
0.0
 11
288.4673158482241
 21
243.6209052671009
 31
0.0
  0
LINE
  5
18A
102
{ACAD_REACTORS
330
317
102
}
330
18
100
AcDbEntity
  8
外形線
100
AcDbLine
 10
288.4673158482241
 20
243.6209052671009
 30
0.0
 11
288.4673158482241
 21
245.6209052671009
 31
0.0
  0
LINE
  5
18B
102
{ACAD_REACTORS
330
317
102
}
330
18
100
AcDbEntity
  8
外形線
100
AcDbLine
 10
288.4673158482241
 20
245.6209052671009
 30
0.0
 11
278.967315848224
 21
245.6209052671009
 31
0.0
  0
LINE
  5
18D
102
{ACAD_REACTORS
330
317
102
}
330
18
100
AcDbEntity
  8
外形線
100
AcDbLine
 10
298.9673158482241
 20
257.5802190907543
 30
0.0
 11
298.9673158482241
 21
251.6209052671009
 31
0.0
  0
LINE
  5
18E
102
{ACAD_REACTORS
330
317
102
}
330
18
100
AcDbEntity
  8
外形線
100
AcDbLine
 10
288.4673158482241
 20
249.6209052671009
 30
0.0
 11
278.967315848224
 21
249.6209052671009
 31
0.0
  0
LINE
  5
18F
102
{ACAD_REACTORS
330
317
102
}
330
18
100
AcDbEntity
  8
外形線
100
AcDbLine
 10
278.9673158482241
 20
256.602129181319
 30
0.0
 11
278.967315848224
 21
249.6209052671009
 31
0.0
  0
LINE
  5
190
102
{ACAD_REACTORS
330
317
102
}
330
18
100
AcDbEntity
  8
外形線
100
AcDbLine
 10
288.4673158482241
 20
251.6209052671009
 30
0.0
 11
288.4673158482241
 21
249.6209052671009
 31
0.0
  0
LINE
  5
191
102
{ACAD_REACTORS
330
317
102
}
330
18
100
AcDbEntity
  8
外形線
100
AcDbLine
 10
298.9673158482241
 20
251.6209052671009
 30
0.0
 11
288.4673158482241
 21
251.6209052671009
 31
0.0
  0
TEXT
  5
1AE
330
18
100
AcDbEntity
  8
文字
100
AcDbText
 10
297.3967095603359
 20
246.3938469517753
 30
0.0
 40
2.5
  1
18-35mm
  7
STYLE3
100
AcDbText
  0
LINE
  5
1B2
330
18
100
AcDbEntity
  8
外形線
100
AcDbLine
 10
338.9673158482241
 20
252.6209052671009
 30
0.0
 11
360.5259069087408
 21
252.6209052671009
 31
0.0
  0
LINE
  5
1B3
330
18
100
AcDbEntity
  8
外形線
100
AcDbLine
 10
338.9673158482241
 20
242.6209052671009
 30
0.0
 11
362.2253411848644
 21
242.6209052671008
 31
0.0
  0
LINE
  5
1C3
330
18
100
AcDbEntity
  8
外形線
100
AcDbLine
 10
364.0568686733849
 20
252.6209052671009
 30
0.0
 11
402.4595492597281
 21
252.6209052671008
 31
0.0
  0
LINE
  5
1C4
330
18
100
AcDbEntity
  8
外形線
100
AcDbLine
 10
365.7563029495084
 20
242.6209052671009
 30
0.0
 11
402.4595492597283
 21
242.6209052671008
 31
0.0
  0
ARC
  5
24E
330
18
100
AcDbEntity
  8
外形線
100
AcDbCircle
 10
269.9673158482241
 20
254.7277065710967
 30
0.0
 40
1.0
100
AcDbArc
 50
96.37414095927951
 51
180.0
  0
ARC
  5
24F
330
18
100
AcDbEntity
  8
外形線
100
AcDbCircle
 10
269.967315848224
 20
240.514103963105
 30
0.0
 40
1.0
100
AcDbArc
 50
180.0
 51
263.6258590407112
  0
ARC
  5
250
330
18
100
AcDbEntity
  8
外形線
100
AcDbCircle
 10
337.9673158482241
 20
254.7277065710967
 30
0.0
 40
1.0
100
AcDbArc
 50
0.0
 51
83.62585904071403
  0
ARC
  5
251
330
18
100
AcDbEntity
  8
外形線
100
AcDbCircle
 10
337.9673158482241
 20
240.514103963105
 30
0.0
 40
1.0
100
AcDbArc
 50
276.3741409592856
 51
0.0
  0
LINE
  5
253
330
18
100
AcDbEntity
  8
外形線
100
AcDbLine
 10
245.9673158482241
 20
252.3209052671009
 30
0.0
 11
245.9673158482241
 21
245.430380286412
 31
0.0
  0
LINE
  5
254
330
18
100
AcDbEntity
  8
外形線
100
AcDbLine
 10
267.967315848224
 20
252.6209052671009
 30
0.0
 11
267.9673158482241
 21
242.6209052671009
 31
0.0
  0
LINE
  5
255
330
18
100
AcDbEntity
  8
外形線
100
AcDbLine
 10
256.9673158482241
 20
252.6209052671009
 30
0.0
 11
256.9673158482241
 21
245.430380286412
 31
0.0
  0
LINE
  5
256
330
18
100
AcDbEntity
  8
外形線
100
AcDbLine
 10
256.9673158482241
 20
252.6209052671009
 30
0.0
 11
267.9673158482241
 21
252.6209052671009
 31
0.0
  0
LINE
  5
257
330
18
100
AcDbEntity
  8
外形線
100
AcDbLine
 10
258.8835143353198
 20
242.6209052671009
 30
0.0
 11
267.967315848224
 21
242.6209052671009
 31
0.0
  0
LINE
  5
25C
330
18
100
AcDbEntity
  8
外形線
100
AcDbLine
 10
268.967315848224
 20
241.6209052671009
 30
0.0
 11
268.967315848224
 21
240.514103963105
 31
0.0
  0
LINE
  5
25E
330
18
100
AcDbEntity
  8
外形線
100
AcDbLine
 10
268.9673158482241
 20
253.6209052671009
 30
0.0
 11
268.967315848224
 21
241.6209052671009
 31
0.0
  0
ARC
  5
25F
330
18
100
AcDbEntity
  8
外形線
100
AcDbCircle
 10
266.7314672966698
 20
240.4477328492699
 30
0.0
 40
2.5
100
AcDbArc
 50
26.57629387126569
 51
60.37379958472584
  0
ARC
  5
260
330
18
100
AcDbEntity
  8
外形線
100
AcDbCircle
 10
266.7314672966698
 20
254.7940776849319
 30
0.0
 40
2.5
100
AcDbArc
 50
299.6262004152742
 51
333.4237061287343
  0
LINE
  5
261
330
18
100
AcDbEntity
  8
外形線
100
AcDbLine
 10
246.9673158482241
 20
252.8209052671009
 30
0.0
 11
255.967315848224
 21
252.8209052671009
 31
0.0
  0
LINE
  5
263
330
18
100
AcDbEntity
  8
外形線
100
AcDbLine
 10
246.9673158482241
 20
251.8209052671009
 30
0.0
 11
255.967315848224
 21
251.8209052671009
 31
0.0
  0
LINE
  5
264
330
18
100
AcDbEntity
  8
外形線
100
AcDbLine
 10
255.9673158482241
 20
252.8209052671009
 30
0.0
 11
255.9673158482241
 21
251.8209052671009
 31
0.0
  0
LINE
  5
265
330
18
100
AcDbEntity
  8
外形線
100
AcDbLine
 10
246.9673158482241
 20
252.8209052671009
 30
0.0
 11
246.9673158482241
 21
251.8209052671009
 31
0.0
  0
LINE
  5
26B
330
18
100
AcDbEntity
  8
外形線
100
AcDbLine
 10
255.9673158482241
 20
251.8209052671009
 30
0.0
 11
256.9673158482241
 21
251.3209052671009
 31
0.0
  0
LINE
  5
26C
330
18
100
AcDbEntity
  8
外形線
100
AcDbLine
 10
255.9673158482241
 20
252.8209052671009
 30
0.0
 11
256.9673158482241
 21
252.3209052671009
 31
0.0
  0
LINE
  5
273
330
18
100
AcDbEntity
  8
外形線
100
AcDbLine
 10
246.9673158482241
 20
252.8209052671009
 30
0.0
 11
245.9673158482241
 21
252.3209052671009
 31
0.0
  0
LINE
  5
274
330
18
100
AcDbEntity
  8
外形線
100
AcDbLine
 10
246.9673158482241
 20
251.8209052671009
 30
0.0
 11
245.9673158482241
 21
251.3209052671009
 31
0.0
  0
LINE
  5
275
330
18
100
AcDbEntity
  8
外形線
100
AcDbLine
 10
246.9673158482241
 20
252.8209052671009
 30
0.0
 11
246.9673158482241
 21
251.8209052671009
 31
0.0
  0
LINE
  5
276
330
18
100
AcDbEntity
  8
中心線
 48
0.4
100
AcDbLine
 10
251.4673158482241
 20
250.7070009576755
 30
0.0
 11
251.4673158482241
 21
228.5348095765263
 31
0.0
  0
LINE
  5
277
330
18
100
AcDbEntity
  8
中心線
 48
0.4
100
AcDbLine
 10
240.9814551626194
 20
239.620905267101
 30
0.0
 11
261.8491244680678
 21
239.620905267101
 31
0.0
  0
CIRCLE
  5
278
330
18
100
AcDbEntity
  8
外形線
100
AcDbCircle
 10
251.4673158482241
 20
239.620905267101
 30
0.0
 40
8.0
  0
TEXT
  5
27E
330
18
100
AcDbEntity
  8
文字
100
AcDbText
 10
291.2453035383222
 20
246.2438283028905
 30
0.0
 40
1.0
  1
CG-1
  7
STYLE3
100
AcDbText
  0
ARC
  5
2F6
102
{ACAD_REACTORS
330
317
102
}
330
18
100
AcDbEntity
  8
外形線
100
AcDbCircle
 10
288.9673158482241
 20
237.4709088021068
 30
0.0
 40
2.0
100
AcDbArc
 50
12.33039196868931
 51
162.0823891309169
  0
HATCH
  5
317
330
18
100
AcDbEntity
  8
ﾊｯﾁﾝｸ
100
AcDbHatch
 10
0.0
 20
0.0
 30
0.0
210
0.0
220
0.0
230
1.0
  2
DOTS
 70
     0
 71
     1
 91
        4
 92
        7
 72
     1
 73
     1
 93
        6
 10
288.4673158482241
 20
249.6209052671009
 42
0.0
 10
288.4673158482241
 20
251.6209052671009
 42
0.0
 10
298.967315848224
 20
251.6209052671008
 42
0.0
 10
298.9673158482241
 20
257.5802190907543
 42
0.0162971688498792
 10
278.9673158482241
 20
256.602129181319
 42
0.0
 10
278.9673158482239
 20
249.6209052671009
 42
0.0
 97
        6
330
173
330
18F
330
18E
330
190
330
191
330
18D
 92
        7
 72
     1
 73
     1
 93
        6
 10
319.4673158482241
 20
251.6209052671008
 42
0.0
 10
319.4673158482241
 20
249.6209052671009
 42
0.0
 10
328.9673158482242
 20
249.6209052671009
 42
0.0
 10
328.9673158482241
 20
256.6021291813189
 42
0.0162971688498792
 10
308.9673158482241
 20
257.5802190907542
 42
0.0
 10
308.9673158482241
 20
251.6209052671008
 42
0.0
 97
        6
330
173
330
16C
330
17A
330
17F
330
17C
330
16D
 92
        7
 72
     1
 73
     1
 93
        6
 10
328.9673158482241
 20
238.6396813528829
 42
0.0
 10
328.9673158482241
 20
245.6209052671009
 42
0.0
 10
319.4673158482241
 20
245.6209052671009
 42
0.0
 10
319.4673158482241
 20
243.6209052671009
 42
0.0
 10
308.9673158482241
 20
243.6209052671008
 42
0.0
 10
308.9673158482241
 20
237.6615914434475
 42
0.0162971688498792
 97
        6
330
181
330
183
330
184
330
185
330
175
330
182
 92
        7
 72
     1
 73
     1
 93
        8
 10
287.0643160733265
 20
238.0862069873304
 42
-0.765609157019632
 10
290.9211807225552
 20
237.8980060426209
 42
0.0065500023894979
 10
298.9673158482241
 20
237.6615914434474
 42
0.0
 10
298.967315848224
 20
243.6209052671008
 42
0.0
 10
288.4673158482241
 20
243.6209052671009
 42
0.0
 10
288.4673158482241
 20
245.6209052671009
 42
0.0
 10
278.967315848224
 20
245.6209052671009
 42
0.0
 10
278.9673158482241
 20
238.6396813528829
 42
0.006603945187105
 97
        7
330
189
330
18A
330
18B
330
186
330
175
330
2F6
330
188
 75
     0
 76
     1
 52
0.0
 41
0.4
 77
     0
 78
     1
 53
0.0
 43
-6.202505916200721
 44
11.73058582448175
 45
0.3175
 46
0.635
 79
     2
 49
0.0
 49
-0.635
 47
0.3765170278403226
 98
        4
 10
283.399285389695
 20
252.5047901166456
 10
322.2125889953797
 20
252.8813068728503
 10
322.5894170609469
 20
240.4562452723498
 10
285.2834265207972
 20
241.2092792397984
  0
POINT
  5
39F
330
18
100
AcDbEntity
  8
DEFPOINTS
  6
ByBlock
 62
     0
100
AcDbPoint
 10
245.9673158482241
 20
251.3209052671009
 30
0.0
  0
POINT
  5
3A7
330
18
100
AcDbEntity
  8
DEFPOINTS
  6
ByBlock
 62
     0
100
AcDbPoint
 10
338.9673158482241
 20
254.7277065710967
 30
0.0
  0
LINE
  5
403
330
18
100
AcDbEntity
  8
外形線
100
AcDbLine
 10
317.4673158482241
 20
250.120905267101
 30
0.0
 11
317.4673158482241
 21
245.1209052671009
 31
0.0
  0
LINE
  5
404
330
18
100
AcDbEntity
  8
外形線
100
AcDbLine
 10
290.4673158482241
 20
250.120905267101
 30
0.0
 11
290.4673158482241
 21
245.1209052671009
 31
0.0
  0
LINE
  5
405
330
18
100
AcDbEntity
  8
外形線
100
AcDbLine
 10
290.4673158482241
 20
250.120905267101
 30
0.0
 11
317.4673158482241
 21
250.120905267101
 31
0.0
  0
LINE
  5
406
330
18
100
AcDbEntity
  8
外形線
100
AcDbLine
 10
290.4673158482241
 20
245.1209052671009
 30
0.0
 11
317.4673158482241
 21
245.1209052671009
 31
0.0
  0
LINE
  5
4DE
330
18
100
AcDbEntity
  8
外形線
100
AcDbLine
 10
367.3441331925501
 20
307.6238811760246
 30
0.0
 11
402.4595492597284
 21
307.6238811760246
 31
0.0
  0
LINE
  5
4DF
330
18
100
AcDbEntity
  8
外形線
100
AcDbLine
 10
365.4535562561374
 20
317.6238811760246
 30
0.0
 11
402.4595492597283
 21
317.6238811760246
 31
0.0
  0
LINE
  5
4E3
330
18
100
AcDbEntity
  8
中心線
 48
0.5
100
AcDbLine
 10
433.4595492597282
 20
305.0212096994461
 30
0.0
 11
433.4595492597282
 21
320.6616224623255
 31
0.0
  0
INSERT
  5
523
330
18
100
AcDbEntity
  8
外形線
100
AcDbBlockReference
  2
六角ﾈｼ
 10
402.4595492597283
 20
247.6209052671009
 30
0.0
 41
-1.0
 50
180.0
  0
LINE
  5
524
330
18
100
AcDbEntity
  8
外形線
100
AcDbLine
 10
402.4595492597282
 20
317.8238811760246
 30
0.0
 11
402.4595492597284
 21
307.4238811760246
 31
0.0
  0
LINE
  5
525
330
18
100
AcDbEntity
  8
外形線
100
AcDbLine
 10
404.9595492597287
 20
247.6209052671009
 30
0.0
 11
402.4595492597284
 21
247.6209052671009
 31
0.0
  0
LINE
  5
527
330
18
100
AcDbEntity
  8
中心線
 48
0.5
100
AcDbLine
 10
364.085150253788
 20
312.6238811760245
 30
0.0
 11
438.6121868599333
 21
312.6238811760245
 31
0.0
  0
POINT
  5
581
330
18
100
AcDbEntity
  8
DEFPOINTS
  6
ByBlock
 62
     0
100
AcDbPoint
 10
338.9673158482241
 20
254.7277065710967
 30
0.0
  0
LINE
  5
5D9
330
18
100
AcDbEntity
  8
0
  6
ByBlock
 62
     2
100
AcDbLine
 10
375.9187065311893
 20
250.1209052671009
 30
0.0
 11
375.9187065311893
 21
245.1209052671009
 31
0.0
  0
INSERT
  5
5DA
330
18
100
AcDbEntity
  8
0
  6
ByBlock
 62
     2
100
AcDbBlockReference
  2
_OPEN
 10
375.9187065311893
 20
252.6209052671009
 30
0.0
 41
2.5
 42
2.5
 43
2.5
 50
90.0
  0
INSERT
  5
5DB
330
18
100
AcDbEntity
  8
0
  6
ByBlock
 62
     2
100
AcDbBlockReference
  2
_OPEN
 10
375.9187065311893
 20
242.6209052671009
 30
0.0
 41
2.5
 42
2.5
 43
2.5
 50
270.0
  0
MTEXT
  5
5DC
330
18
100
AcDbEntity
  8
0
  6
ByBlock
 62
     6
100
AcDbMText
 10
374.0437065311894
 20
246.9236158531446
 30
0.0
 40
2.5
 41
0.0
 71
     5
 72
     1
  1
φ10
  7
STYLE3
 11
0.0000000000000001
 21
1.0
 31
0.0
 73
     1
 44
1.0
  0
POINT
  5
66B
330
18
100
AcDbEntity
  8
DEFPOINTS
  6
ByBlock
 62
     0
100
AcDbPoint
 10
433.4595492597282
 20
316.6738811760244
 30
0.0
  0
POINT
  5
66C
330
18
100
AcDbEntity
  8
DEFPOINTS
  6
ByBlock
 62
     0
100
AcDbPoint
 10
433.4595492597282
 20
308.5738811760244
 30
0.0
  0
LINE
  5
766
330
18
100
AcDbEntity
  8
外形線
100
AcDbLine
 10
402.4595492597282
 20
317.8238811760246
 30
0.0
 11
404.9595492597282
 21
317.8238811760246
 31
0.0
  0
LINE
  5
767
330
18
100
AcDbEntity
  8
外形線
100
AcDbLine
 10
404.9595492597287
 20
315.2238811760246
 30
0.0
 11
402.4595492597284
 21
315.2238811760246
 31
0.0
  0
LINE
  5
768
330
18
100
AcDbEntity
  8
外形線
100
AcDbLine
 10
404.9595492597283
 20
310.0238811760245
 30
0.0
 11
402.4595492597282
 21
310.0238811760245
 31
0.0
  0
LINE
  5
769
330
18
100
AcDbEntity
  8
外形線
100
AcDbLine
 10
402.4595492597284
 20
307.4238811760246
 30
0.0
 11
404.9595492597282
 21
307.4238811760246
 31
0.0
  0
LINE
  5
76A
330
18
100
AcDbEntity
  8
外形線
100
AcDbLine
 10
402.4595492597281
 20
252.6209052671008
 30
0.0
 11
402.4595492597283
 21
242.6209052671008
 31
0.0
  0
ARC
  5
76B
330
18
100
AcDbEntity
  8
外形線
100
AcDbCircle
 10
403.5195492597281
 20
308.7238811760247
 30
0.0
 40
1.940000000000166
100
AcDbArc
 50
317.9249779491558
 51
42.07502205083457
  0
ARC
  5
76C
330
18
100
AcDbEntity
  8
外形線
100
AcDbCircle
 10
398.4495492597256
 20
312.6238811760251
 30
0.0
 40
7.010000000002722
100
AcDbArc
 50
338.2289458906867
 51
21.77105410930435
  0
ARC
  5
76D
330
18
100
AcDbEntity
  8
外形線
100
AcDbCircle
 10
403.5195492597281
 20
316.5238811760244
 30
0.0
 40
1.940000000000166
100
AcDbArc
 50
317.9249779491655
 51
42.07502205084424
  0
LINE
  5
76E
330
18
100
AcDbEntity
  8
外形線
100
AcDbLine
 10
405.4595492597282
 20
308.7238811760247
 30
0.0
 11
405.4595492597282
 21
316.5238811760244
 31
0.0
  0
LINE
  5
778
330
18
100
AcDbEntity
  8
外形線
100
AcDbLine
 10
406.4595492597282
 20
255.6209052671008
 30
0.0
 11
406.4595492597282
 21
243.6209052671008
 31
0.0
  0
LINE
  5
77A
330
18
100
AcDbEntity
  8
外形線
100
AcDbLine
 10
426.9595492597282
 20
256.1209052671009
 30
0.0
 11
426.9595492597281
 21
254.9332326243887
 31
0.0
  0
LINE
  5
77B
330
18
100
AcDbEntity
  8
外形線
100
AcDbLine
 10
436.4595492597281
 20
257.6209052671007
 30
0.0
 11
436.4595492597283
 21
243.6209052671008
 31
0.0
  0
LINE
  5
77C
330
18
100
AcDbEntity
  8
外形線
100
AcDbLine
 10
406.4595492597282
 20
243.6209052671008
 30
0.0
 11
436.4595492597283
 21
243.6209052671008
 31
0.0
  0
LINE
  5
77D
330
18
100
AcDbEntity
  8
外形線
100
AcDbLine
 10
429.9595492597283
 20
257.6209052671007
 30
0.0
 11
431.916878868312
 21
257.6209052671007
 31
0.0
  0
LINE
  5
77E
330
18
100
AcDbEntity
  8
外形線
100
AcDbLine
 10
405.4595492597283
 20
251.3709052671007
 30
0.0
 11
406.4595492597282
 21
251.3709052671008
 31
0.0
  0
LINE
  5
77F
330
18
100
AcDbEntity
  8
外形線
100
AcDbLine
 10
405.4595492597282
 20
243.8709052671008
 30
0.0
 11
406.4595492597283
 21
243.8709052671008
 31
0.0
  0
LINE
  5
780
330
18
100
AcDbEntity
  8
外形線
100
AcDbLine
 10
406.4595492597282
 20
255.6209052671008
 30
0.0
 11
412.29118519025
 21
255.6209052671008
 31
0.0
  0
LINE
  5
783
330
18
100
AcDbEntity
  8
外形線
100
AcDbLine
 10
426.9595492597282
 20
256.1209052671009
 30
0.0
 11
429.9595492597283
 21
257.6209052671007
 31
0.0
  0
LINE
  5
78D
330
18
100
AcDbEntity
  8
外形線
100
AcDbLine
 10
423.9595492597282
 20
250.1209052671008
 30
0.0
 11
423.9595492597283
 21
243.6209052671007
 31
0.0
  0
LINE
  5
78E
330
18
100
AcDbEntity
  8
中心線
 48
0.5
100
AcDbLine
 10
408.9595492597282
 20
254.9609814377135
 30
0.0
 11
408.9595492597283
 21
250.2808290964881
 31
0.0
  0
LINE
  5
78F
330
18
100
AcDbEntity
  8
中心線
 48
0.5
100
AcDbLine
 10
406.6194730891155
 20
252.6209052671008
 30
0.0
 11
411.2996254303409
 21
252.6209052671008
 31
0.0
  0
CIRCLE
  5
790
330
18
100
AcDbEntity
  8
外形線
100
AcDbCircle
 10
408.9595492597282
 20
252.6209052671008
 30
0.0
 40
1.5
  0
LINE
  5
792
330
18
100
AcDbEntity
  8
中心線
 48
0.5
100
AcDbLine
 10
428.9595492597282
 20
256.7158418165223
 30
0.0
 11
428.9595492597282
 21
253.5259687176792
 31
0.0
  0
LINE
  5
793
330
18
100
AcDbEntity
  8
中心線
 48
0.5
100
AcDbLine
 10
427.3646127103067
 20
255.1209052671008
 30
0.0
 11
430.5544858091496
 21
255.1209052671008
 31
0.0
  0
CIRCLE
  5
794
330
18
100
AcDbEntity
  8
外形線
100
AcDbCircle
 10
428.9595492597282
 20
255.1209052671008
 30
0.0
 40
0.9849999999999999
  0
LINE
  5
797
330
18
100
AcDbEntity
  8
中心線
 48
0.5
100
AcDbLine
 10
425.4595492597283
 20
247.1007223179346
 30
0.0
 11
425.4595492597283
 21
243.141088216267
 31
0.0
  0
LINE
  5
798
330
18
100
AcDbEntity
  8
中心線
 48
0.5
100
AcDbLine
 10
423.4797322088944
 20
245.1209052671008
 30
0.0
 11
427.4393663105621
 21
245.1209052671008
 31
0.0
  0
LINE
  5
79B
330
18
100
AcDbEntity
  8
中心線
 48
0.5
100
AcDbLine
 10
425.4595492597283
 20
248.1410882162669
 30
0.0
 11
425.4595492597283
 21
252.1007223179346
 31
0.0
  0
LINE
  5
79D
330
18
100
AcDbEntity
  8
中心線
 48
0.5
100
AcDbLine
 10
424.2503762560237
 20
250.1209052671007
 30
0.0
 11
426.6687222634329
 21
250.1209052671007
 31
0.0
  0
LINE
  5
79F
330
18
100
AcDbEntity
  8
中心線
 48
0.5
100
AcDbLine
 10
433.0797322088945
 20
247.8209052671008
 30
0.0
 11
437.0393663105621
 21
247.8209052671008
 31
0.0
  0
LINE
  5
7A1
330
18
100
AcDbEntity
  8
中心線
 48
0.5
100
AcDbLine
 10
435.0595492597283
 20
245.8410882162669
 30
0.0
 11
435.0595492597283
 21
249.8007223179345
 31
0.0
  0
LINE
  5
7AF
330
18
100
AcDbEntity
  8
中心線
 48
0.5
100
AcDbLine
 10
433.4595492597282
 20
261.3014812552497
 30
0.0
 11
433.4595492597283
 21
240.6690753032938
 31
0.0
  0
LINE
  5
7C3
330
18
100
AcDbEntity
  8
外形線
100
AcDbLine
 10
427.9595492597283
 20
244.6209052671008
 30
0.0
 11
436.4595492597283
 21
244.6209052671008
 31
0.0
  0
LINE
  5
7C4
330
18
100
AcDbEntity
  8
外形線
100
AcDbLine
 10
427.9595492597283
 20
244.6209052671008
 30
0.0
 11
427.9595492597283
 21
243.6209052671007
 31
0.0
  0
LINE
  5
7C5
330
18
100
AcDbEntity
  8
外形線
100
AcDbLine
 10
427.9595492597282
 20
256.6209052671007
 30
0.0
 11
431.5898438246913
 21
256.6209052671007
 31
0.0
  0
LINE
  5
7F5
330
18
100
AcDbEntity
  8
外形線
100
AcDbLine
 10
434.4595492597282
 20
258.2209052671008
 30
0.0
 11
435.7095492597281
 21
258.2209052671008
 31
0.0
  0
LINE
  5
7F6
330
18
100
AcDbEntity
  8
外形線
100
AcDbLine
 10
434.4595492597282
 20
258.6209052671007
 30
0.0
 11
434.7595492597281
 21
258.6209052671007
 31
0.0
  0
LINE
  5
7F7
330
18
100
AcDbEntity
  8
外形線
100
AcDbLine
 10
435.7095492597281
 20
258.2209052671008
 30
0.0
 11
435.7095492597281
 21
257.6209052671007
 31
0.0
  0
LINE
  5
7F9
330
18
100
AcDbEntity
  8
外形線
100
AcDbLine
 10
435.7095492597281
 20
258.2209052671008
 30
0.0
 11
434.7595492597281
 21
258.6209052671007
 31
0.0
  0
LINE
  5
7FA
330
18
100
AcDbEntity
  8
外形線
100
AcDbLine
 10
432.1130998944843
 20
258.2209052671008
 30
0.0
 11
431.2095492597282
 21
258.2209052671008
 31
0.0
  0
LINE
  5
7FB
330
18
100
AcDbEntity
  8
外形線
100
AcDbLine
 10
432.2439139119325
 20
258.6209052671007
 30
0.0
 11
432.1595492597283
 21
258.6209052671007
 31
0.0
  0
LINE
  5
7FC
330
18
100
AcDbEntity
  8
外形線
100
AcDbLine
 10
431.2095492597282
 20
258.2209052671008
 30
0.0
 11
432.1595492597283
 21
258.6209052671007
 31
0.0
  0
LINE
  5
7FD
330
18
100
AcDbEntity
  8
外形線
100
AcDbLine
 10
431.2095492597282
 20
258.2209052671008
 30
0.0
 11
431.2095492597282
 21
257.6209052671007
 31
0.0
  0
ARC
  5
7FE
330
18
100
AcDbEntity
  8
外形線
100
AcDbCircle
 10
408.9595492597282
 20
252.6209052671008
 30
0.0
 40
2.5
100
AcDbArc
 50
98.10984409130179
 51
270.0
  0
LINE
  5
7FF
330
18
100
AcDbEntity
  8
外形線
100
AcDbLine
 10
408.9595492597282
 20
250.1209052671008
 30
0.0
 11
428.9595492597282
 21
250.1209052671008
 31
0.0
  0
LINE
  5
800
330
18
100
AcDbEntity
  8
外形線
100
AcDbLine
 10
427.6107885427791
 20
254.5159481348971
 30
0.0
 11
424.0385578332874
 21
256.8048709728637
 31
0.0
  0
LINE
  5
801
330
18
100
AcDbEntity
  8
外形線
100
AcDbLine
 10
408.6068709407062
 20
255.095903853624
 30
0.0
 11
422.6774066045106
 21
257.1009041363193
 31
0.0
  0
CIRCLE
  5
803
330
18
100
AcDbEntity
  8
外形線
100
AcDbCircle
 10
422.9595492597281
 20
255.1209052671008
 30
0.0
 40
1.5
  0
ARC
  5
804
330
18
100
AcDbEntity
  8
外形線
100
AcDbCircle
 10
422.9595492597281
 20
255.1209052671008
 30
0.0
 40
2.0
100
AcDbArc
 50
57.35010012621
 51
98.10984409130233
  0
ARC
  5
805
330
18
100
AcDbEntity
  8
外形線
100
AcDbCircle
 10
428.9595492597282
 20
256.6209052671008
 30
0.0
 40
2.5
100
AcDbArc
 50
237.35010012621
 51
341.8904413827801
  0
ARC
  5
806
330
18
100
AcDbEntity
  8
外形線
100
AcDbCircle
 10
428.9595492597282
 20
255.6209052671008
 30
0.0
 40
5.5
100
AcDbArc
 50
270.0
 51
359.9999999999982
  0
LINE
  5
807
330
18
100
AcDbEntity
  8
外形線
100
AcDbLine
 10
431.3357089808686
 20
255.843817769048
 30
0.0
 11
432.509085371272
 21
259.4317402663219
 31
0.0
  0
ARC
  5
808
330
18
100
AcDbEntity
  8
外形線
100
AcDbCircle
 10
433.4595492597282
 20
259.1209052671008
 30
0.0
 40
1.0
100
AcDbArc
 50
359.9999999999968
 51
161.890441382779
  0
LINE
  5
809
330
18
100
AcDbEntity
  8
外形線
100
AcDbLine
 10
434.4595492597282
 20
259.1209052671008
 30
0.0
 11
434.4595492597281
 21
255.6209052671007
 31
0.0
  0
LINE
  5
80A
330
18
100
AcDbEntity
  8
外形線
100
AcDbLine
 10
434.4595492597281
 20
256.6209052671007
 30
0.0
 11
436.4595492597281
 21
256.6209052671007
 31
0.0
  0
LINE
  5
80B
330
18
100
AcDbEntity
  8
外形線
100
AcDbLine
 10
434.4595492597282
 20
257.6209052671007
 30
0.0
 11
436.4595492597281
 21
257.6209052671007
 31
0.0
  0
LINE
  5
80D
330
18
100
AcDbEntity
  8
外形線
100
AcDbLine
 10
436.4595492597283
 20
243.6209052671008
 30
0.0
 11
436.4595492597283
 21
242.6209052671008
 31
0.0
  0
LINE
  5
80E
330
18
100
AcDbEntity
  8
外形線
100
AcDbLine
 10
430.4595492597282
 20
243.6209052671008
 30
0.0
 11
430.4595492597282
 21
242.6209052671008
 31
0.0
  0
ARC
  5
80F
330
18
100
AcDbEntity
  8
外形線
100
AcDbCircle
 10
433.4595492597283
 20
246.6209052671008
 30
0.0
 40
5.0
100
AcDbArc
 50
233.130102354156
 51
306.869897645844
  0
LINE
  5
810
330
18
100
AcDbEntity
  8
外形線
100
AcDbLine
 10
435.0595492597284
 20
243.6209052671009
 30
0.0
 11
435.0595492597284
 21
242.6209052671008
 31
0.0
  0
LINE
  5
811
330
18
100
AcDbEntity
  8
外形線
100
AcDbLine
 10
431.8595492597282
 20
243.6209052671008
 30
0.0
 11
431.8595492597283
 21
242.6209052671008
 31
0.0
  0
LINE
  5
812
330
18
100
AcDbEntity
  8
外形線
100
AcDbLine
 10
430.4595492597282
 20
242.6209052671008
 30
0.0
 11
431.8595492597283
 21
242.6209052671008
 31
0.0
  0
LINE
  5
813
330
18
100
AcDbEntity
  8
外形線
100
AcDbLine
 10
435.0595492597284
 20
242.6209052671008
 30
0.0
 11
436.4595492597283
 21
242.6209052671008
 31
0.0
  0
ARC
  5
814
330
18
100
AcDbEntity
  8
外形線
100
AcDbCircle
 10
433.4595492597282
 20
247.3579929800316
 30
0.0
 40
5.0
100
AcDbArc
 50
251.3370751150586
 51
288.6629248849454
  0
LINE
  5
819
330
18
100
AcDbEntity
  8
中心線
 48
0.5
100
AcDbLine
 10
422.9595492597281
 20
257.4609814377135
 30
0.0
 11
422.9595492597282
 21
252.7808290964881
 31
0.0
  0
LINE
  5
81A
330
18
100
AcDbEntity
  8
中心線
 48
0.5
100
AcDbLine
 10
420.6194730891154
 20
255.1209052671008
 30
0.0
 11
425.2996254303408
 21
255.1209052671008
 31
0.0
  0
LINE
  5
849
330
18
100
AcDbEntity
  8
外形線
100
AcDbLine
 10
434.5095492597281
 20
259.7209052671008
 30
0.0
 11
434.2595492597282
 21
259.7209052671008
 31
0.0
  0
ARC
  5
84A
330
18
100
AcDbEntity
  8
外形線
100
AcDbCircle
 10
433.4595492597282
 20
259.3209052671008
 30
0.0
 40
1.0
100
AcDbArc
 50
23.57817847819385
 51
156.4218215218031
  0
LINE
  5
84B
330
18
100
AcDbEntity
  8
外形線
100
AcDbLine
 10
432.40954925973
 20
259.1273811051755
 30
0.0
 11
432.409549259728
 21
259.7209052671006
 31
0.0
  0
POINT
  5
84C
330
18
100
AcDbEntity
  8
DEFPOINTS
  6
ByBlock
 62
     0
100
AcDbPoint
 10
433.4595492597282
 20
260.3209052671008
 30
0.0
  0
POINT
  5
84D
330
18
100
AcDbEntity
  8
DEFPOINTS
  6
ByBlock
 62
     0
100
AcDbPoint
 10
433.4595492597282
 20
260.3209052671008
 30
0.0
  0
POINT
  5
84E
330
18
100
AcDbEntity
  8
DEFPOINTS
  6
ByBlock
 62
     0
100
AcDbPoint
 10
433.4595492597282
 20
260.3209052671008
 30
0.0
  0
LINE
  5
84F
330
18
100
AcDbEntity
  8
外形線
100
AcDbLine
 10
434.509549259728
 20
258.6209052671007
 30
0.0
 11
434.5095492597281
 21
259.7209052671006
 31
0.0
  0
LINE
  5
850
330
18
100
AcDbEntity
  8
外形線
100
AcDbLine
 10
432.6595492597282
 20
259.7209052671008
 30
0.0
 11
432.4095492597282
 21
259.7209052671008
 31
0.0
  0
LINE
  5
85E
330
18
100
AcDbEntity
  8
外形線
100
AcDbLine
 10
406.4595492597282
 20
308.6238811760245
 30
0.0
 11
406.4595492597282
 21
316.6238811760245
 31
0.0
  0
LINE
  5
85F
330
18
100
AcDbEntity
  8
外形線
100
AcDbLine
 10
436.4595492597281
 20
308.6238811760245
 30
0.0
 11
436.4595492597281
 21
316.6238811760245
 31
0.0
  0
LINE
  5
860
330
18
100
AcDbEntity
  8
外形線
100
AcDbLine
 10
426.9595492597282
 20
308.6238811760245
 30
0.0
 11
426.9595492597281
 21
316.6238811760245
 31
0.0
  0
LINE
  5
8BD
330
18
100
AcDbEntity
  8
外形線
100
AcDbLine
 10
406.4595492597282
 20
316.6238811760245
 30
0.0
 11
421.4595492597282
 21
316.6238811760245
 31
0.0
  0
LINE
  5
8BE
330
18
100
AcDbEntity
  8
外形線
100
AcDbLine
 10
406.4595492597282
 20
308.6238811760245
 30
0.0
 11
421.4595492597291
 21
308.6238811760245
 31
0.0
  0
LINE
  5
8BF
330
18
100
AcDbEntity
  8
外形線
100
AcDbLine
 10
424.4595492597297
 20
310.1238811760246
 30
0.0
 11
432.3139053359891
 21
310.1238811760245
 31
0.0
  0
LINE
  5
8C1
330
18
100
AcDbEntity
  8
外形線
100
AcDbLine
 10
429.9595492597283
 20
308.6238811760245
 30
0.0
 11
429.9595492597283
 21
316.6238811760245
 31
0.0
  0
LINE
  5
8C2
330
18
100
AcDbEntity
  8
外形線
100
AcDbLine
 10
405.4595492597283
 20
251.3709052671007
 30
0.0
 11
405.4595492597282
 21
243.8709052671008
 31
0.0
  0
DIMENSION
  5
940
330
18
100
AcDbEntity
  8
外形線
100
AcDbDimension
  2
*D5
 10
436.4595492597281
 20
281.0754698204728
 30
0.0
 11
341.2134325539761
 21
282.9504698204727
 31
0.0
 70
    32
  1
247
 71
     5
 42
190.4922334115041
  3
STYLE3
100
AcDbAlignedDimension
 13
245.9673158482241
 23
251.3209052671009
 33
0.0
 14
436.4595492597281
 24
257.6209052671007
 34
0.0
100
AcDbRotatedDimension
1001
ACAD
1000
DSTYLE
1002
{
1070
   271
1070
     2
1002
}
  0
DIMENSION
  5
94D
330
18
100
AcDbEntity
  8
外形線
100
AcDbDimension
  2
*D6
 10
338.9673158482241
 20
273.0102788566426
 30
0.0
 11
303.9673158482241
 21
274.8852788566426
 31
0.0
 70
    32
 71
     5
 42
70.0
  3
STYLE3
100
AcDbAlignedDimension
 13
268.9673158482241
 23
254.7277065710967
 33
0.0
 14
338.9673158482241
 24
254.7277065710967
 34
0.0
100
AcDbRotatedDimension
1001
ACAD
1000
DSTYLE
1002
{
1070
   271
1070
     2
1002
}
  0
LINE
  5
9F3
330
18
100
AcDbEntity
  8
0
  6
ByBlock
 62
     2
100
AcDbLine
 10
433.4595492597282
 20
260.3209052671008
 30
0.0
 11
445.0646509441255
 21
260.3209052671008
 31
0.0
  0
LINE
  5
9F4
330
18
100
AcDbEntity
  8
0
  6
ByBlock
 62
     2
100
AcDbLine
 10
443.8146509441255
 20
256.1209052671007
 30
0.0
 11
443.8146509441255
 21
253.6209052671007
 31
0.0
  0
LINE
  5
9F5
330
18
100
AcDbEntity
  8
0
  6
ByBlock
 62
     2
100
AcDbLine
 10
443.8146509441255
 20
262.8209052671008
 30
0.0
 11
443.8146509441255
 21
268.0795780425904
 31
0.0
  0
MTEXT
  5
9F8
330
18
100
AcDbEntity
  8
0
  6
ByBlock
 62
     6
100
AcDbMText
 10
441.5889324546376
 20
263.0370053351307
 30
0.0
 40
2.5
 41
0.0
 71
     4
 72
     1
  1
\A1;1.7
  7
STYLE3
 11
0.0000000000000001
 21
1.0
 31
0.0
 73
     1
 44
1.0
  0
LINE
  5
9F9
330
18
100
AcDbEntity
  8
0
  6
ByBlock
 62
     2
100
AcDbLine
 10
443.8146509441255
 20
258.6209052671007
 30
0.0
 11
443.8146509441255
 21
260.3209052671008
 31
0.0
  0
LINE
  5
9FA
330
18
100
AcDbEntity
  8
0
  6
ByBlock
 62
     2
100
AcDbLine
 10
443.8146509441255
 20
258.6209052671007
 30
0.0
 11
443.8146509441255
 21
260.3209052671008
 31
0.0
  0
INSERT
  5
9FB
330
18
100
AcDbEntity
  8
0
  6
ByBlock
 62
     2
100
AcDbBlockReference
  2
_OPEN
 10
443.8146509441255
 20
258.6209052671007
 30
0.0
 41
2.5
 42
2.5
 43
2.5
 50
90.0
  0
INSERT
  5
9FC
330
18
100
AcDbEntity
  8
0
  6
ByBlock
 62
     2
100
AcDbBlockReference
  2
_OPEN
 10
443.8146509441255
 20
260.3209052671008
 30
0.0
 41
2.5
 42
2.5
 43
2.5
 50
270.0
  0
POINT
  5
9FD
330
18
100
AcDbEntity
  8
DEFPOINTS
  6
ByBlock
 62
     0
100
AcDbPoint
 10
434.7595492597281
 20
258.6209052671007
 30
0.0
  0
POINT
  5
9FE
330
18
100
AcDbEntity
  8
DEFPOINTS
  6
ByBlock
 62
     0
100
AcDbPoint
 10
433.4595492597282
 20
260.3209052671008
 30
0.0
  0
POINT
  5
9FF
330
18
100
AcDbEntity
  8
DEFPOINTS
  6
ByBlock
 62
     0
100
AcDbPoint
 10
443.8146509441255
 20
260.3209052671008
 30
0.0
  0
LINE
  5
A00
330
18
100
AcDbEntity
  8
0
  6
ByBlock
 62
     2
100
AcDbLine
 10
434.7595492597281
 20
258.6209052671007
 30
0.0
 11
445.0646509441255
 21
258.6209052671007
 31
0.0
  0
LINE
  5
A01
330
18
100
AcDbEntity
  8
0
  6
ByBlock
 62
     2
100
AcDbLine
 10
443.8146509441255
 20
246.1209052671008
 30
0.0
 11
443.8146509441255
 21
256.1209052671007
 31
0.0
  0
INSERT
  5
A02
330
18
100
AcDbEntity
  8
0
  6
ByBlock
 62
     2
100
AcDbBlockReference
  2
_OPEN
 10
443.8146509441255
 20
243.6209052671008
 30
0.0
 41
2.5
 42
2.5
 43
2.5
 50
270.0
  0
INSERT
  5
A03
330
18
100
AcDbEntity
  8
0
  6
ByBlock
 62
     2
100
AcDbBlockReference
  2
_OPEN
 10
443.8146509441255
 20
258.6209052671007
 30
0.0
 41
2.5
 42
2.5
 43
2.5
 50
90.0
  0
MTEXT
  5
A04
330
18
100
AcDbEntity
  8
0
  6
ByBlock
 62
     6
100
AcDbMText
 10
441.9396509441255
 20
251.1209052671008
 30
0.0
 40
2.5
 41
0.0
 71
     5
 72
     1
  1
\A1;15
  7
STYLE3
 11
0.0000000000000001
 21
1.0
 31
0.0
 73
     1
 44
1.0
  0
POINT
  5
A05
330
18
100
AcDbEntity
  8
DEFPOINTS
  6
ByBlock
 62
     0
100
AcDbPoint
 10
436.4595492597283
 20
243.6209052671008
 30
0.0
  0
POINT
  5
A06
330
18
100
AcDbEntity
  8
DEFPOINTS
  6
ByBlock
 62
     0
100
AcDbPoint
 10
434.7595492597281
 20
258.6209052671007
 30
0.0
  0
POINT
  5
A07
330
18
100
AcDbEntity
  8
DEFPOINTS
  6
ByBlock
 62
     0
100
AcDbPoint
 10
443.8146509441255
 20
258.6209052671007
 30
0.0
  0
LINE
  5
A08
330
18
100
AcDbEntity
  8
0
  6
ByBlock
 62
     2
100
AcDbLine
 10
433.4595492597283
 20
241.6209052671008
 30
0.0
 11
445.0646509441255
 21
241.6209052671008
 31
0.0
  0
LINE
  5
A09
330
18
100
AcDbEntity
  8
0
  6
ByBlock
 62
     2
100
AcDbLine
 10
436.4595492597283
 20
243.6209052671008
 30
0.0
 11
445.0646509441255
 21
243.6209052671008
 31
0.0
  0
LINE
  5
A0A
330
18
100
AcDbEntity
  8
0
  6
ByBlock
 62
     2
100
AcDbLine
 10
443.8146509441255
 20
239.1209052671008
 30
0.0
 11
443.8146509441255
 21
236.6209052671008
 31
0.0
  0
LINE
  5
A0B
330
18
100
AcDbEntity
  8
0
  6
ByBlock
 62
     2
100
AcDbLine
 10
443.8146509441255
 20
246.1209052671008
 30
0.0
 11
443.8146509441255
 21
251.5375719337674
 31
0.0
  0
LINE
  5
A0C
330
18
100
AcDbEntity
  8
0
  6
ByBlock
 62
     2
100
AcDbLine
 10
443.8146509441255
 20
241.6209052671008
 30
0.0
 11
443.8146509441255
 21
243.6209052671008
 31
0.0
  0
INSERT
  5
A0D
330
18
100
AcDbEntity
  8
0
  6
ByBlock
 62
     2
100
AcDbBlockReference
  2
_OPEN
 10
443.8146509441255
 20
241.6209052671008
 30
0.0
 41
2.5
 42
2.5
 43
2.5
 50
90.0
  0
INSERT
  5
A0E
330
18
100
AcDbEntity
  8
0
  6
ByBlock
 62
     2
100
AcDbBlockReference
  2
_OPEN
 10
443.8146509441255
 20
243.6209052671008
 30
0.0
 41
2.5
 42
2.5
 43
2.5
 50
270.0
  0
MTEXT
  5
A0F
330
18
100
AcDbEntity
  8
0
  6
ByBlock
 62
     6
100
AcDbMText
 10
441.9396509441255
 20
242.5105719993461
 30
0.0
 40
2.5
 41
0.0
 71
     5
 72
     1
  1
\A1;2
  7
STYLE3
 11
0.0000000000000001
 21
1.0
 31
0.0
 73
     1
 44
1.0
  0
POINT
  5
A10
330
18
100
AcDbEntity
  8
DEFPOINTS
  6
ByBlock
 62
     0
100
AcDbPoint
 10
433.4595492597283
 20
241.6209052671008
 30
0.0
  0
POINT
  5
A11
330
18
100
AcDbEntity
  8
DEFPOINTS
  6
ByBlock
 62
     0
100
AcDbPoint
 10
436.4595492597283
 20
243.6209052671008
 30
0.0
  0
POINT
  5
A12
330
18
100
AcDbEntity
  8
DEFPOINTS
  6
ByBlock
 62
     0
100
AcDbPoint
 10
443.8146509441255
 20
243.6209052671008
 30
0.0
  0
LINE
  5
FA2
330
18
100
AcDbEntity
  8
中心線
100
AcDbLine
 10
431.4595492597282
 20
313.4631475303899
 30
0.0
 11
431.4595492597282
 21
311.6011228479444
 31
0.0
  0
LINE
  5
FA3
330
18
100
AcDbEntity
  8
中心線
100
AcDbLine
 10
435.4595492597282
 20
313.4631475303899
 30
0.0
 11
435.4595492597282
 21
311.6011228479444
 31
0.0
  0
CIRCLE
  5
FA6
330
18
100
AcDbEntity
  8
外形線
100
AcDbCircle
 10
433.4595492597282
 20
312.6238811760245
 30
0.0
 40
2.75
  0
CIRCLE
  5
FA7
330
18
100
AcDbEntity
  8
外形線
100
AcDbCircle
 10
431.4595492597282
 20
312.6238811760245
 30
0.0
 40
0.5
  0
CIRCLE
  5
FA8
330
18
100
AcDbEntity
  8
外形線
100
AcDbCircle
 10
435.4595492597282
 20
312.6238811760245
 30
0.0
 40
0.5
  0
CIRCLE
  5
FA9
330
18
100
AcDbEntity
  8
外形線
100
AcDbCircle
 10
433.4595492597282
 20
312.6238811760245
 30
0.0
 40
1.3
  0
CIRCLE
  5
FAA
330
18
100
AcDbEntity
  8
外形線
100
AcDbCircle
 10
433.4595492597282
 20
312.6238811760245
 30
0.0
 40
1.0
  0
LINE
  5
FC2
330
18
100
AcDbEntity
  8
外形線
100
AcDbLine
 10
434.6051931834673
 20
310.1238811760245
 30
0.0
 11
436.4595492597281
 21
310.1238811760245
 31
0.0
  0
LINE
  5
FC3
330
18
100
AcDbEntity
  8
外形線
100
AcDbLine
 10
405.4595492597283
 20
316.3738811760244
 30
0.0
 11
406.4595492597282
 21
316.3738811760244
 31
0.0
  0
LINE
  5
FC4
330
18
100
AcDbEntity
  8
外形線
100
AcDbLine
 10
405.4595492597282
 20
308.8738811760245
 30
0.0
 11
406.4595492597283
 21
308.8738811760245
 31
0.0
  0
LINE
  5
FC5
330
18
100
AcDbEntity
  8
外形線
100
AcDbLine
 10
405.4595492597283
 20
316.3738811760244
 30
0.0
 11
405.4595492597282
 21
308.8738811760245
 31
0.0
  0
LINE
  5
FC6
330
18
100
AcDbEntity
  8
中心線
 48
0.5
100
AcDbLine
 10
408.9595492597283
 20
302.5252995394214
 30
0.0
 11
408.9595492597282
 21
323.8426707541431
 31
0.0
  0
LINE
  5
FC7
330
18
100
AcDbEntity
  8
中心線
 48
0.5
100
AcDbLine
 10
422.9595492597281
 20
302.5252995394215
 30
0.0
 11
422.9595492597281
 21
323.0211260116319
 31
0.0
  0
LINE
  5
FCB
330
18
100
AcDbEntity
  8
外形線
100
AcDbLine
 10
434.4595492597282
 20
319.1238811760245
 30
0.0
 11
434.4595492597282
 21
317.1238811760245
 31
0.0
  0
LINE
  5
1097
330
18
100
AcDbEntity
  8
外形線
100
AcDbLine
 10
421.4595492597291
 20
308.6238811760245
 30
0.0
 11
421.4595492597282
 21
317.1238811760245
 31
0.0
  0
LINE
  5
1098
330
18
100
AcDbEntity
  8
外形線
100
AcDbLine
 10
410.4595492597281
 20
316.6238811760246
 30
0.0
 11
410.4595492597281
 21
317.1238811760245
 31
0.0
  0
LINE
  5
1099
330
18
100
AcDbEntity
  8
外形線
100
AcDbLine
 10
407.4595492597282
 20
316.6238811760245
 30
0.0
 11
407.4595492597281
 21
317.1238811760245
 31
0.0
  0
LINE
  5
10A8
330
18
100
AcDbEntity
  8
想像線
 48
0.5
100
AcDbLine
 10
359.9274843350193
 20
256.142209869045
 30
0.0
 11
363.2297189615755
 21
236.7108339520617
 31
0.0
  0
LINE
  5
10A9
330
18
100
AcDbEntity
  8
想像線
 48
0.5
100
AcDbLine
 10
364.5591909751821
 20
322.354528544717
 30
0.0
 11
368.2283410822825
 21
302.9469602176519
 31
0.0
  0
LINE
  5
10AA
330
18
100
AcDbEntity
  8
想像線
 48
0.5
100
AcDbLine
 10
363.4584460996633
 20
256.142209869045
 30
0.0
 11
366.7606807262196
 21
236.7108339520617
 31
0.0
  0
LINE
  5
10B3
330
18
100
AcDbEntity
  8
外形線
100
AcDbLine
 10
408.1704646439007
 20
253.4099898829282
 30
0.0
 11
409.7486338755556
 21
251.8318206512734
 31
0.0
  0
LINE
  5
10B5
330
18
100
AcDbEntity
  8
外形線
100
AcDbLine
 10
409.7486338755556
 20
253.4099898829282
 30
0.0
 11
408.1704646439007
 21
251.8318206512734
 31
0.0
  0
LINE
  5
10B6
330
18
100
AcDbEntity
  8
外形線
100
AcDbLine
 10
422.1704646439007
 20
255.9099898829283
 30
0.0
 11
423.7486338755555
 21
254.3318206512734
 31
0.0
  0
LINE
  5
10B7
330
18
100
AcDbEntity
  8
外形線
100
AcDbLine
 10
423.7486338755555
 20
255.9099898829283
 30
0.0
 11
422.1704646439007
 21
254.3318206512734
 31
0.0
  0
CIRCLE
  5
10B8
330
18
100
AcDbEntity
  8
外形線
100
AcDbCircle
 10
425.4595492597283
 20
245.1209052671008
 30
0.0
 40
1.25
  0
LINE
  5
10BC
330
18
100
AcDbEntity
  8
外形線
100
AcDbLine
 10
424.7757291886817
 20
245.8047253381471
 30
0.0
 11
426.1433693307747
 21
244.4370851960544
 31
0.0
  0
LINE
  5
10BD
330
18
100
AcDbEntity
  8
外形線
100
AcDbLine
 10
426.1433693307747
 20
245.8047253381472
 30
0.0
 11
424.7757291886818
 21
244.4370851960544
 31
0.0
  0
LINE
  5
10BF
330
18
100
AcDbEntity
  8
外形線
100
AcDbLine
 10
425.4595492597283
 20
250.1209052671008
 30
0.0
 11
424.7757291886819
 21
249.4370851960543
 31
0.0
  0
LINE
  5
10C0
330
18
100
AcDbEntity
  8
外形線
100
AcDbLine
 10
425.4595492597283
 20
250.1209052671008
 30
0.0
 11
426.1433693307748
 21
249.4370851960543
 31
0.0
  0
ARC
  5
10C1
330
18
100
AcDbEntity
  8
外形線
100
AcDbCircle
 10
425.4595492597284
 20
250.1209052671008
 30
0.0
 40
1.25
100
AcDbArc
 50
180.0
 51
0.0
  0
CIRCLE
  5
10C2
330
18
100
AcDbEntity
  8
外形線
100
AcDbCircle
 10
435.0595492597283
 20
247.8209052671008
 30
0.0
 40
1.25
  0
LINE
  5
10C3
330
18
100
AcDbEntity
  8
外形線
100
AcDbLine
 10
435.7433693307747
 20
248.5047253381472
 30
0.0
 11
434.3757291886818
 21
247.1370851960544
 31
0.0
  0
LINE
  5
10C4
330
18
100
AcDbEntity
  8
外形線
100
AcDbLine
 10
434.3757291886817
 20
248.5047253381471
 30
0.0
 11
435.7433693307747
 21
247.1370851960543
 31
0.0
  0
LINE
  5
10F3
330
18
100
AcDbEntity
  8
外形線
100
AcDbLine
 10
406.4595492597282
 20
319.1238811760245
 30
0.0
 11
434.4595492597282
 21
319.1238811760245
 31
0.0
  0
LINE
  5
10F4
330
18
100
AcDbEntity
  8
外形線
100
AcDbLine
 10
406.4595492597282
 20
317.1238811760245
 30
0.0
 11
427.9745492597282
 21
317.1238811760244
 31
0.0
  0
LINE
  5
10F7
330
18
100
AcDbEntity
  8
外形線
100
AcDbLine
 10
406.4595492597282
 20
317.1238811760245
 30
0.0
 11
406.4595492597282
 21
319.1238811760245
 31
0.0
  0
LINE
  5
10F8
330
18
100
AcDbEntity
  8
外形線
100
AcDbLine
 10
407.9095492597282
 20
320.4238811760244
 30
0.0
 11
410.0095492597282
 21
320.4238811760244
 31
0.0
  0
LINE
  5
10F9
330
18
100
AcDbEntity
  8
外形線
100
AcDbLine
 10
407.2095492597282
 20
319.1238811760245
 30
0.0
 11
407.2095492597282
 21
319.7238811760245
 31
0.0
  0
LINE
  5
10FA
330
18
100
AcDbEntity
  8
外形線
100
AcDbLine
 10
410.7095492597282
 20
319.1238811760245
 30
0.0
 11
410.7095492597282
 21
319.7238811760245
 31
0.0
  0
ARC
  5
10FB
330
18
100
AcDbEntity
  8
外形線
100
AcDbCircle
 10
407.9095492597282
 20
319.7238811760245
 30
0.0
 40
0.7
100
AcDbArc
 50
90.0
 51
180.0000000000001
  0
ARC
  5
10FC
330
18
100
AcDbEntity
  8
外形線
100
AcDbCircle
 10
410.0095492597282
 20
319.7238811760245
 30
0.0
 40
0.7
100
AcDbArc
 50
0.0000000000001527
 51
90.0
  0
LINE
  5
10FD
330
18
100
AcDbEntity
  8
外形線
100
AcDbLine
 10
421.9095492597282
 20
320.4238811760244
 30
0.0
 11
424.0095492597282
 21
320.4238811760244
 31
0.0
  0
LINE
  5
10FE
330
18
100
AcDbEntity
  8
外形線
100
AcDbLine
 10
421.2095492597282
 20
319.1238811760245
 30
0.0
 11
421.2095492597282
 21
319.7238811760245
 31
0.0
  0
ARC
  5
10FF
330
18
100
AcDbEntity
  8
外形線
100
AcDbCircle
 10
421.9095492597282
 20
319.7238811760245
 30
0.0
 40
0.7
100
AcDbArc
 50
90.0
 51
180.0000000000001
  0
LINE
  5
1100
330
18
100
AcDbEntity
  8
外形線
100
AcDbLine
 10
424.7095492597281
 20
319.1238811760245
 30
0.0
 11
424.7095492597281
 21
319.7238811760245
 31
0.0
  0
ARC
  5
1101
330
18
100
AcDbEntity
  8
外形線
100
AcDbCircle
 10
424.0095492597282
 20
319.7238811760245
 30
0.0
 40
0.7
100
AcDbArc
 50
0.0000000000001527
 51
90.0
  0
LINE
  5
1102
330
18
100
AcDbEntity
  8
外形線
100
AcDbLine
 10
407.9095492597282
 20
304.8238811760244
 30
0.0
 11
410.0095492597282
 21
304.8238811760244
 31
0.0
  0
LINE
  5
1103
330
18
100
AcDbEntity
  8
外形線
100
AcDbLine
 10
406.4595492597282
 20
306.1238811760244
 30
0.0
 11
434.4595492597282
 21
306.1238811760244
 31
0.0
  0
LINE
  5
1104
330
18
100
AcDbEntity
  8
外形線
100
AcDbLine
 10
406.4595492597282
 20
308.1238811760244
 30
0.0
 11
427.9745492597282
 21
308.1238811760244
 31
0.0
  0
LINE
  5
1105
330
18
100
AcDbEntity
  8
外形線
100
AcDbLine
 10
407.2095492597282
 20
306.1238811760244
 30
0.0
 11
407.2095492597282
 21
305.5238811760244
 31
0.0
  0
ARC
  5
1106
330
18
100
AcDbEntity
  8
外形線
100
AcDbCircle
 10
407.9095492597282
 20
305.5238811760244
 30
0.0
 40
0.7
100
AcDbArc
 50
179.9999999999998
 51
270.0
  0
LINE
  5
1107
330
18
100
AcDbEntity
  8
外形線
100
AcDbLine
 10
406.4595492597282
 20
308.1238811760244
 30
0.0
 11
406.4595492597282
 21
306.1238811760244
 31
0.0
  0
LINE
  5
1108
330
18
100
AcDbEntity
  8
外形線
100
AcDbLine
 10
407.4595492597282
 20
308.6238811760244
 30
0.0
 11
407.4595492597281
 21
308.1238811760244
 31
0.0
  0
LINE
  5
1109
330
18
100
AcDbEntity
  8
外形線
100
AcDbLine
 10
410.7095492597282
 20
306.1238811760244
 30
0.0
 11
410.7095492597282
 21
305.5238811760244
 31
0.0
  0
ARC
  5
110A
330
18
100
AcDbEntity
  8
外形線
100
AcDbCircle
 10
410.0095492597282
 20
305.5238811760244
 30
0.0
 40
0.7
100
AcDbArc
 50
270.0
 51
359.9999999999998
  0
LINE
  5
110B
330
18
100
AcDbEntity
  8
外形線
100
AcDbLine
 10
410.4595492597281
 20
308.6238811760243
 30
0.0
 11
410.4595492597281
 21
308.1238811760244
 31
0.0
  0
LINE
  5
110C
330
18
100
AcDbEntity
  8
外形線
100
AcDbLine
 10
421.9095492597282
 20
304.8238811760244
 30
0.0
 11
424.0095492597282
 21
304.8238811760244
 31
0.0
  0
ARC
  5
110D
330
18
100
AcDbEntity
  8
外形線
100
AcDbCircle
 10
421.9095492597282
 20
305.5238811760244
 30
0.0
 40
0.7
100
AcDbArc
 50
179.9999999999998
 51
270.0
  0
LINE
  5
110E
330
18
100
AcDbEntity
  8
外形線
100
AcDbLine
 10
421.2095492597282
 20
306.1238811760244
 30
0.0
 11
421.2095492597282
 21
305.5238811760244
 31
0.0
  0
LINE
  5
110F
330
18
100
AcDbEntity
  8
外形線
100
AcDbLine
 10
421.4595492597282
 20
308.6238811760243
 30
0.0
 11
421.4595492597282
 21
308.1238811760244
 31
0.0
  0
ARC
  5
1110
330
18
100
AcDbEntity
  8
外形線
100
AcDbCircle
 10
424.0095492597282
 20
305.5238811760244
 30
0.0
 40
0.7
100
AcDbArc
 50
270.0
 51
359.9999999999998
  0
LINE
  5
1111
330
18
100
AcDbEntity
  8
外形線
100
AcDbLine
 10
424.7095492597281
 20
306.1238811760244
 30
0.0
 11
424.7095492597281
 21
305.5238811760244
 31
0.0
  0
LINE
  5
1112
330
18
100
AcDbEntity
  8
外形線
100
AcDbLine
 10
424.4595492597301
 20
317.1238811760244
 30
0.0
 11
424.4595492597281
 21
308.1238811760244
 31
0.0
  0
LINE
  5
1113
330
18
100
AcDbEntity
  8
外形線
100
AcDbLine
 10
434.4595492597282
 20
306.1238811760244
 30
0.0
 11
434.4595492597282
 21
308.1238811760244
 31
0.0
  0
POINT
  5
1114
330
18
100
AcDbEntity
  8
DEFPOINTS
  6
ByBlock
 62
     0
100
AcDbPoint
 10
433.4595492597282
 20
308.5738811760244
 30
0.0
  0
LINE
  5
1115
330
18
100
AcDbEntity
  8
外形線
100
AcDbLine
 10
412.4595492597282
 20
308.6238811760245
 30
0.0
 11
412.4595492597282
 21
316.6238811760245
 31
0.0
  0
LINE
  5
1117
330
18
100
AcDbEntity
  8
中心線
 48
0.5
100
AcDbLine
 10
410.9595492597282
 20
310.4296589627985
 30
0.0
 11
410.9595492597282
 21
314.9967081885071
 31
0.0
  0
CIRCLE
  5
1118
330
18
100
AcDbEntity
  8
外形線
100
AcDbCircle
 10
410.9595492597282
 20
312.6238811760245
 30
0.0
 40
1.5
  0
LINE
  5
1119
330
18
100
AcDbEntity
  8
外形線
100
AcDbLine
 10
411.7486338755557
 20
313.4129657918519
 30
0.0
 11
410.1704646439007
 21
311.834796560197
 31
0.0
  0
LINE
  5
111A
330
18
100
AcDbEntity
  8
外形線
100
AcDbLine
 10
410.1704646439007
 20
313.4129657918519
 30
0.0
 11
411.7486338755557
 21
311.834796560197
 31
0.0
  0
LINE
  5
111C
330
18
100
AcDbEntity
  8
外形線
100
AcDbLine
 10
424.4595492597282
 20
316.6238811760245
 30
0.0
 11
436.4595492597281
 21
316.6238811760245
 31
0.0
  0
LINE
  5
111D
330
18
100
AcDbEntity
  8
外形線
100
AcDbLine
 10
424.4595492597301
 20
308.6238811760245
 30
0.0
 11
436.4595492597281
 21
308.6238811760245
 31
0.0
  0
LINE
  5
1127
330
18
100
AcDbEntity
  8
中心線
 48
0.5
100
AcDbLine
 10
428.9595492597282
 20
319.5538612006798
 30
0.0
 11
428.9595492597282
 21
305.766028258268
 31
0.0
  0
LINE
  5
1128
330
18
100
AcDbEntity
  8
外形線
100
AcDbLine
 10
427.9745492597282
 20
306.6238811760245
 30
0.0
 11
427.9745492597282
 21
308.6238811760244
 31
0.0
  0
LINE
  5
1129
330
18
100
AcDbEntity
  8
外形線
100
AcDbLine
 10
429.9445492597281
 20
306.6238811760244
 30
0.0
 11
429.9445492597282
 21
318.6238811760244
 31
0.0
  0
LINE
  5
112A
330
18
100
AcDbEntity
  8
外形線
100
AcDbLine
 10
427.9745492597281
 20
318.6238811760243
 30
0.0
 11
429.9445492597281
 21
318.6238811760244
 31
0.0
  0
LINE
  5
112B
330
18
100
AcDbEntity
  8
外形線
100
AcDbLine
 10
427.9745492597282
 20
306.6238811760244
 30
0.0
 11
429.944549259728
 21
306.6238811760244
 31
0.0
  0
LINE
  5
112C
330
18
100
AcDbEntity
  8
外形線
100
AcDbLine
 10
427.9745492597282
 20
316.6238811760245
 30
0.0
 11
427.9745492597282
 21
318.6238811760244
 31
0.0
  0
LINE
  5
112D
330
18
100
AcDbEntity
  8
外形線
100
AcDbLine
 10
429.9445492597282
 20
308.1238811760244
 30
0.0
 11
434.4595492597282
 21
308.1238811760244
 31
0.0
  0
LINE
  5
112E
330
18
100
AcDbEntity
  8
外形線
100
AcDbLine
 10
429.9445492597282
 20
317.1238811760244
 30
0.0
 11
434.4595492597282
 21
317.1238811760245
 31
0.0
  0
LINE
  5
112F
330
18
100
AcDbEntity
  8
中心線
 48
0.5
100
AcDbLine
 10
414.9595492597282
 20
310.4296589627985
 30
0.0
 11
414.9595492597282
 21
314.9967081885071
 31
0.0
  0
LINE
  5
1132
330
18
100
AcDbEntity
  8
外形線
100
AcDbLine
 10
413.2595492597282
 20
313.5238811760244
 30
0.0
 11
416.7456675839927
 21
313.5238811760244
 31
0.0
  0
LINE
  5
1133
330
18
100
AcDbEntity
  8
外形線
100
AcDbLine
 10
413.4103140359121
 20
311.7238811760243
 30
0.0
 11
416.6595492597282
 21
311.7238811760244
 31
0.0
  0
LINE
  5
1134
330
18
100
AcDbEntity
  8
外形線
100
AcDbLine
 10
424.9595492597282
 20
312.3238811760243
 30
0.0
 11
424.9595492597282
 21
312.9238811760244
 31
0.0
  0
LINE
  5
1135
330
18
100
AcDbEntity
  8
外形線
100
AcDbLine
 10
413.2595492597284
 20
312.9238811760245
 30
0.0
 11
416.7456675839925
 21
312.9238811760245
 31
0.0
  0
LINE
  5
1137
330
18
100
AcDbEntity
  8
外形線
100
AcDbLine
 10
424.4595492597291
 20
312.9238811760244
 30
0.0
 11
424.9595492597282
 21
312.9238811760244
 31
0.0
  0
LINE
  5
1138
330
18
100
AcDbEntity
  8
外形線
100
AcDbLine
 10
424.4595492597293
 20
312.3238811760243
 30
0.0
 11
424.9595492597282
 21
312.3238811760244
 31
0.0
  0
ARC
  5
113B
330
18
100
AcDbEntity
  8
外形線
100
AcDbCircle
 10
413.2595492597282
 20
313.2238811760244
 30
0.0
 40
0.2999999999999545
100
AcDbArc
 50
90.0
 51
270.0
  0
ARC
  5
113C
330
18
100
AcDbEntity
  8
外形線
100
AcDbCircle
 10
416.6595492597282
 20
312.0238811760244
 30
0.0
 40
0.3000000000000114
100
AcDbArc
 50
270.0
 51
90.0
  0
LINE
  5
113D
330
18
100
AcDbEntity
  8
外形線
100
AcDbLine
 10
413.358735806841
 20
312.3238811760244
 30
0.0
 11
416.6595492597282
 21
312.3238811760244
 31
0.0
  0
ARC
  5
113E
330
18
100
AcDbEntity
  8
外形線
100
AcDbCircle
 10
416.6595492597282
 20
312.6238811760245
 30
0.0
 40
0.3000000000000114
100
AcDbArc
 50
270.0
 51
90.0
  0
LINE
  5
113F
330
18
100
AcDbEntity
  8
外形線
100
AcDbLine
 10
412.9595492597283
 20
312.6238811760245
 30
0.0
 11
412.9595492597283
 21
312.6238811760245
 31
0.0
  0
LINE
  5
1140
330
18
100
AcDbEntity
  8
外形線
100
AcDbLine
 10
412.9091657194991
 20
312.5265315358241
 30
0.0
 11
412.368669176079
 21
313.1380611652731
 31
0.0
  0
LINE
  5
1141
330
18
100
AcDbEntity
  8
外形線
100
AcDbLine
 10
412.6610305570087
 20
312.0616317756905
 30
0.0
 11
412.4292431053981
 21
312.3238811760244
 31
0.0
  0
ARC
  5
1142
330
18
100
AcDbEntity
  8
外形線
100
AcDbCircle
 10
413.2595492597283
 20
312.6238811760245
 30
0.0
 40
0.3
100
AcDbArc
 50
180.0
 51
270.0000000000008
  0
ARC
  5
1143
330
18
100
AcDbEntity
  8
外形線
100
AcDbCircle
 10
413.2595492597284
 20
312.6238811760245
 30
0.0
 40
0.3
100
AcDbArc
 50
90.0
 51
180.0
  0
ARC
  5
1144
330
18
100
AcDbEntity
  8
外形線
100
AcDbCircle
 10
413.4103140359121
 20
312.7238811760244
 30
0.0
 40
1.0
100
AcDbArc
 50
221.471651310565
 51
270.0
  0
ARC
  5
1145
330
18
100
AcDbEntity
  8
外形線
100
AcDbCircle
 10
413.358735806841
 20
312.9238811760245
 30
0.0
 40
0.6
100
AcDbArc
 50
221.471651310569
 51
270.0
  0
LINE
  5
1146
330
18
100
AcDbEntity
  8
外形線
100
AcDbLine
 10
418.6188519757641
 20
312.3238811760244
 30
0.0
 11
421.4595492597287
 21
312.3238811760244
 31
0.0
  0
LINE
  5
1148
330
18
100
AcDbEntity
  8
外形線
100
AcDbLine
 10
417.1547187385526
 20
313.4363926296255
 30
0.0
 11
418.1028599833363
 21
313.0113697224234
 31
0.0
  0
LINE
  5
1149
330
18
100
AcDbEntity
  8
外形線
100
AcDbLine
 10
417.1547187385526
 20
312.8363926296255
 30
0.0
 11
418.0052752439243
 21
312.4551139956228
 31
0.0
  0
LINE
  5
114A
330
18
100
AcDbEntity
  8
外形線
100
AcDbLine
 10
418.5119111378963
 20
312.9238811760245
 30
0.0
 11
421.4595492597287
 21
312.9238811760245
 31
0.0
  0
ARC
  5
114B
330
18
100
AcDbEntity
  8
外形線
100
AcDbCircle
 10
418.6188519757641
 20
313.8238811760244
 30
0.0
 40
1.5
100
AcDbArc
 50
245.8547562588627
 51
270.0
  0
ARC
  5
114C
330
18
100
AcDbEntity
  8
外形線
100
AcDbCircle
 10
418.5119111378963
 20
313.9238811760244
 30
0.0
 40
1.0
100
AcDbArc
 50
245.8547562588627
 51
270.0
  0
ARC
  5
114D
330
18
100
AcDbEntity
  8
外形線
100
AcDbCircle
 10
416.7456675839927
 20
312.5238811760244
 30
0.0
 40
1.0
100
AcDbArc
 50
65.85475625886113
 51
90.0
  0
ARC
  5
114E
330
18
100
AcDbEntity
  8
外形線
100
AcDbCircle
 10
416.7456675839925
 20
311.9238811760244
 30
0.0
 40
1.0
100
AcDbArc
 50
65.85475625886061
 51
90.0
  0
LINE
  5
1156
330
18
100
AcDbEntity
  8
隠れ線
 48
0.3
100
AcDbLine
 10
421.4595492597286
 20
312.9238811760245
 30
0.0
 11
424.4595492597291
 21
312.9238811760244
 31
0.0
  0
LINE
  5
1158
330
18
100
AcDbEntity
  8
隠れ線
 48
0.3
100
AcDbLine
 10
421.4595492597287
 20
312.3238811760244
 30
0.0
 11
424.4595492597292
 21
312.3238811760244
 31
0.0
  0
LINE
  5
1159
330
18
100
AcDbEntity
  8
中心線
 48
0.5
100
AcDbLine
 10
414.9595492597282
 20
253.236464180805
 30
0.0
 11
414.9595492597282
 21
258.8300204251776
 31
0.0
  0
LINE
  5
115A
330
18
100
AcDbEntity
  8
中心線
 48
0.5
100
AcDbLine
 10
412.7095336149397
 20
255.6209052671008
 30
0.0
 11
418.5411695454615
 21
255.6209052671008
 31
0.0
  0
ARC
  5
115B
330
18
100
AcDbEntity
  8
隠れ線
100
AcDbCircle
 10
414.9595492597282
 20
255.6209052671008
 30
0.0
 40
2.0
100
AcDbArc
 50
177.2612220215502
 51
18.95846616105265
  0
ARC
  5
115C
330
18
100
AcDbEntity
  8
外形線
100
AcDbCircle
 10
414.9595492597282
 20
255.6209052671008
 30
0.0
 40
2.0
100
AcDbArc
 50
18.95846616105265
 51
177.2612220215502
  0
LINE
  5
1160
330
18
100
AcDbEntity
  8
隠れ線
100
AcDbLine
 10
425.5720863166327
 20
254.6141623948381
 30
0.0
 11
425.3547250714041
 21
254.0756424953037
 31
0.0
  0
LINE
  5
1161
330
18
100
AcDbEntity
  8
外形線
100
AcDbLine
 10
415.1691436399699
 20
257.6098924957605
 30
0.0
 11
418.8370038108515
 21
256.5536606716118
 31
0.0
  0
LINE
  5
1162
330
18
100
AcDbEntity
  8
外形線
100
AcDbLine
 10
415.1981765839609
 20
257.0004185871269
 30
0.0
 11
417.4405787763772
 21
256.3546751705775
 31
0.0
  0
ARC
  5
1173
330
18
100
AcDbEntity
  8
隠れ線
100
AcDbCircle
 10
414.9595492597282
 20
255.6209052671008
 30
0.0
 40
1.399999999999999
100
AcDbArc
 50
172.5123122416373
 51
23.70737594096586
  0
ARC
  5
1174
330
18
100
AcDbEntity
  8
外形線
100
AcDbCircle
 10
414.9595492597282
 20
255.6209052671008
 30
0.0
 40
1.399999999999999
100
AcDbArc
 50
23.70737594096586
 51
172.5123122416373
  0
LINE
  5
1175
330
18
100
AcDbEntity
  8
隠れ線
100
AcDbLine
 10
418.8370038108516
 20
256.5536606716119
 30
0.0
 11
425.5720863166326
 21
254.6141623948381
 31
0.0
  0
LINE
  5
1176
330
18
100
AcDbEntity
  8
隠れ線
100
AcDbLine
 10
417.4405787763772
 20
256.3546751705775
 30
0.0
 11
425.3547250714042
 21
254.0756424953037
 31
0.0
  0
LINE
  5
118E
330
18
100
AcDbEntity
  8
中心線
100
AcDbLine
 10
472.5923169984586
 20
262.4606398380355
 30
0.0
 11
472.5923169984586
 21
222.9991782281437
 31
0.0
  0
LINE
  5
118F
330
18
100
AcDbEntity
  8
外形線
100
AcDbLine
 10
468.5923169984586
 20
256.6209052671009
 30
0.0
 11
468.5923169984587
 21
243.6209052671009
 31
0.0
  0
LINE
  5
1190
330
18
100
AcDbEntity
  8
外形線
100
AcDbLine
 10
476.5923169984586
 20
256.6209052671009
 30
0.0
 11
476.5923169984586
 21
243.6209052671009
 31
0.0
  0
LINE
  5
1191
330
18
100
AcDbEntity
  8
外形線
100
AcDbLine
 10
468.5923169984586
 20
243.6209052671009
 30
0.0
 11
476.5923169984586
 21
243.6209052671009
 31
0.0
  0
LINE
  5
1192
330
18
100
AcDbEntity
  8
外形線
100
AcDbLine
 10
469.5923169984586
 20
257.6209052671009
 30
0.0
 11
475.5923169984586
 21
257.6209052671008
 31
0.0
  0
LINE
  5
1193
330
18
100
AcDbEntity
  8
外形線
100
AcDbLine
 10
470.0923169984585
 20
257.6209052671009
 30
0.0
 11
470.0923169984586
 21
243.6209052671009
 31
0.0
  0
LINE
  5
1194
330
18
100
AcDbEntity
  8
外形線
100
AcDbLine
 10
468.5923169984586
 20
256.6209052671009
 30
0.0
 11
469.5923169984586
 21
257.6209052671009
 31
0.0
  0
LINE
  5
1195
330
18
100
AcDbEntity
  8
外形線
100
AcDbLine
 10
475.5923169984586
 20
257.6209052671008
 30
0.0
 11
476.5923169984586
 21
256.6209052671009
 31
0.0
  0
LINE
  5
1196
330
18
100
AcDbEntity
  8
外形線
100
AcDbLine
 10
476.5923169984586
 20
244.6209052671009
 30
0.0
 11
475.5923169984586
 21
243.6209052671009
 31
0.0
  0
LINE
  5
1197
330
18
100
AcDbEntity
  8
外形線
100
AcDbLine
 10
469.5923169984586
 20
243.6209052671009
 30
0.0
 11
468.5923169984586
 21
244.6209052671009
 31
0.0
  0
LINE
  5
1198
330
18
100
AcDbEntity
  8
外形線
100
AcDbLine
 10
468.0923169984587
 20
260.3209052671009
 30
0.0
 11
468.0923169984586
 21
250.1209052671008
 31
0.0
  0
LINE
  5
1199
330
18
100
AcDbEntity
  8
外形線
100
AcDbLine
 10
466.0923169984585
 20
258.3209052671009
 30
0.0
 11
466.0923169984585
 21
250.1209052671008
 31
0.0
  0
LINE
  5
119B
330
18
100
AcDbEntity
  8
外形線
100
AcDbLine
 10
466.0923169984587
 20
250.1209052671008
 30
0.0
 11
468.0923169984585
 21
250.1209052671008
 31
0.0
  0
LINE
  5
11A8
330
18
100
AcDbEntity
  8
中心線
 48
0.5
100
AcDbLine
 10
464.243451882306
 20
247.6209052671008
 30
0.0
 11
479.2767399089253
 21
247.6209052671008
 31
0.0
  0
LINE
  5
11A9
330
18
100
AcDbEntity
  8
中心線
 48
0.5
100
AcDbLine
 10
463.110428065865
 20
252.6209052671008
 30
0.0
 11
482.8548478360433
 21
252.6209052671008
 31
0.0
  0
LINE
  5
11AA
330
18
100
AcDbEntity
  8
外形線
100
AcDbLine
 10
464.7923169984585
 20
253.6709052671008
 30
0.0
 11
464.7923169984585
 21
251.5709052671009
 31
0.0
  0
ARC
  5
11AB
330
18
100
AcDbEntity
  8
外形線
100
AcDbCircle
 10
465.4923169984585
 20
253.6709052671008
 30
0.0
 40
0.7
100
AcDbArc
 50
163.3984504009804
 51
180.0
  0
ARC
  5
11B0
330
18
100
AcDbEntity
  8
外形線
100
AcDbCircle
 10
465.4923169984585
 20
251.5709052671009
 30
0.0
 40
0.7
100
AcDbArc
 50
180.0
 51
269.9999999999998
  0
LINE
  5
11B1
330
18
100
AcDbEntity
  8
外形線
100
AcDbLine
 10
468.5923169984587
 20
251.1209052671009
 30
0.0
 11
468.0923169984585
 21
251.1209052671009
 31
0.0
  0
LINE
  5
11B2
330
18
100
AcDbEntity
  8
外形線
100
AcDbLine
 10
466.0923169984585
 20
250.8709052671009
 30
0.0
 11
465.4923169984585
 21
250.8709052671009
 31
0.0
  0
LINE
  5
11B6
330
18
100
AcDbEntity
  8
中心線
 48
0.5
100
AcDbLine
 10
463.2315900107739
 20
255.1209052671008
 30
0.0
 11
482.5751951262827
 21
255.1209052671008
 31
0.0
  0
LINE
  5
11B7
330
18
100
AcDbEntity
  8
外形線
100
AcDbLine
 10
464.7923169984585
 20
256.1709052671008
 30
0.0
 11
464.7923169984585
 21
254.0709052671008
 31
0.0
  0
LINE
  5
11B8
330
18
100
AcDbEntity
  8
外形線
100
AcDbLine
 10
468.5923169984587
 20
253.6209052671009
 30
0.0
 11
468.0923169984585
 21
253.6209052671009
 31
0.0
  0
LINE
  5
11B9
330
18
100
AcDbEntity
  8
外形線
100
AcDbLine
 10
466.0923169984585
 20
253.3709052671009
 30
0.0
 11
465.4923169984585
 21
253.3709052671008
 31
0.0
  0
ARC
  5
11BA
330
18
100
AcDbEntity
  8
外形線
100
AcDbCircle
 10
465.4923169984585
 20
254.0709052671008
 30
0.0
 40
0.7
100
AcDbArc
 50
180.0
 51
269.9999999999998
  0
LINE
  5
11BC
330
18
100
AcDbEntity
  8
外形線
100
AcDbLine
 10
468.5923169984587
 20
256.6209052671009
 30
0.0
 11
468.0923169984586
 21
256.6209052671011
 31
0.0
  0
LINE
  5
11BD
330
18
100
AcDbEntity
  8
外形線
100
AcDbLine
 10
466.0923169984585
 20
256.8709052671008
 30
0.0
 11
465.4923169984585
 21
256.8709052671008
 31
0.0
  0
ARC
  5
11BE
330
18
100
AcDbEntity
  8
外形線
100
AcDbCircle
 10
465.4923169984585
 20
256.1709052671008
 30
0.0
 40
0.7
100
AcDbArc
 50
89.99999999999984
 51
180.0
  0
LINE
  5
11C0
330
18
100
AcDbEntity
  8
外形線
100
AcDbLine
 10
480.3923169984586
 20
253.6709052671008
 30
0.0
 11
480.3923169984586
 21
251.5709052671009
 31
0.0
  0
LINE
  5
11C1
330
18
100
AcDbEntity
  8
外形線
100
AcDbLine
 10
477.0923169984585
 20
260.3209052671009
 30
0.0
 11
477.0923169984586
 21
250.1209052671008
 31
0.0
  0
LINE
  5
11C2
330
18
100
AcDbEntity
  8
外形線
100
AcDbLine
 10
479.0923169984586
 20
258.3209052671009
 30
0.0
 11
479.0923169984586
 21
250.1209052671008
 31
0.0
  0
LINE
  5
11C3
330
18
100
AcDbEntity
  8
外形線
100
AcDbLine
 10
476.5923169984585
 20
251.1209052671009
 30
0.0
 11
477.0923169984587
 21
251.1209052671009
 31
0.0
  0
LINE
  5
11C4
330
18
100
AcDbEntity
  8
外形線
100
AcDbLine
 10
479.0923169984586
 20
250.8709052671009
 30
0.0
 11
479.6923169984586
 21
250.8709052671009
 31
0.0
  0
ARC
  5
11C5
330
18
100
AcDbEntity
  8
外形線
100
AcDbCircle
 10
479.6923169984586
 20
251.5709052671009
 30
0.0
 40
0.7
100
AcDbArc
 50
270.0000000000002
 51
0.000000000000007
  0
LINE
  5
11C6
330
18
100
AcDbEntity
  8
外形線
100
AcDbLine
 10
479.0923169984584
 20
250.1209052671008
 30
0.0
 11
477.0923169984587
 21
250.1209052671008
 31
0.0
  0
ARC
  5
11C7
330
18
100
AcDbEntity
  8
外形線
100
AcDbCircle
 10
479.6923169984586
 20
253.6709052671008
 30
0.0
 40
0.7
100
AcDbArc
 50
0.000000000000007
 51
16.60154959901959
  0
ARC
  5
11C8
330
18
100
AcDbEntity
  8
外形線
100
AcDbCircle
 10
479.6923169984586
 20
256.1709052671008
 30
0.0
 40
0.7
100
AcDbArc
 50
0.000000000000007
 51
90.00000000000017
  0
LINE
  5
11C9
330
18
100
AcDbEntity
  8
外形線
100
AcDbLine
 10
479.0923169984586
 20
256.8709052671008
 30
0.0
 11
479.6923169984586
 21
256.8709052671008
 31
0.0
  0
LINE
  5
11CA
330
18
100
AcDbEntity
  8
外形線
100
AcDbLine
 10
476.5923169984585
 20
256.6209052671009
 30
0.0
 11
477.0923169984586
 21
256.6209052671011
 31
0.0
  0
ARC
  5
11CC
330
18
100
AcDbEntity
  8
外形線
100
AcDbCircle
 10
479.6923169984586
 20
254.0709052671008
 30
0.0
 40
0.7
100
AcDbArc
 50
270.0000000000002
 51
0.000000000000007
  0
LINE
  5
11CD
330
18
100
AcDbEntity
  8
外形線
100
AcDbLine
 10
479.0923169984586
 20
253.3709052671009
 30
0.0
 11
479.6923169984586
 21
253.3709052671008
 31
0.0
  0
LINE
  5
11CE
330
18
100
AcDbEntity
  8
外形線
100
AcDbLine
 10
476.5923169984585
 20
253.6209052671009
 30
0.0
 11
477.0923169984587
 21
253.6209052671009
 31
0.0
  0
LINE
  5
11CF
330
18
100
AcDbEntity
  8
外形線
100
AcDbLine
 10
480.3923169984586
 20
256.1709052671008
 30
0.0
 11
480.3923169984586
 21
254.0709052671008
 31
0.0
  0
LINE
  5
11EC
330
18
100
AcDbEntity
  8
外形線
100
AcDbLine
 10
470.0923169984585
 20
243.6209052671009
 30
0.0
 11
470.0923169984585
 21
242.2907782481787
 31
0.0
  0
LINE
  5
11ED
330
18
100
AcDbEntity
  8
外形線
100
AcDbLine
 10
475.0923169984586
 20
243.6209052671009
 30
0.0
 11
475.0923169984586
 21
242.2907782481787
 31
0.0
  0
ARC
  5
11EE
330
18
100
AcDbEntity
  8
外形線
100
AcDbCircle
 10
472.5923169984586
 20
246.6209052671009
 30
0.0
 40
5.0
100
AcDbArc
 50
239.9999999999999
 51
300.0
  0
LINE
  5
11EF
330
18
100
AcDbEntity
  8
外形線
100
AcDbLine
 10
470.0923169984585
 20
242.2907782481787
 30
0.0
 11
475.0923169984586
 21
242.2907782481787
 31
0.0
  0
LINE
  5
11F0
330
18
100
AcDbEntity
  8
外形線
100
AcDbLine
 10
471.0923169984585
 20
258.6209052671009
 30
0.0
 11
474.0923169984585
 21
258.6209052671009
 31
0.0
  0
LINE
  5
11F1
330
18
100
AcDbEntity
  8
外形線
100
AcDbLine
 10
469.8423169984587
 20
258.1209052671009
 30
0.0
 11
469.8423169984586
 21
257.620905267101
 31
0.0
  0
LINE
  5
11F2
330
18
100
AcDbEntity
  8
外形線
100
AcDbLine
 10
475.3423169984586
 20
258.1209052671009
 30
0.0
 11
475.3423169984586
 21
257.6209052671008
 31
0.0
  0
LINE
  5
11F3
330
18
100
AcDbEntity
  8
外形線
100
AcDbLine
 10
469.8423169984586
 20
258.1209052671009
 30
0.0
 11
475.3423169984586
 21
258.1209052671009
 31
0.0
  0
LINE
  5
11F6
330
18
100
AcDbEntity
  8
外形線
100
AcDbLine
 10
469.8423169984586
 20
258.1209052671009
 30
0.0
 11
471.0923169984586
 21
258.6209052671009
 31
0.0
  0
LINE
  5
11F7
330
18
100
AcDbEntity
  8
外形線
100
AcDbLine
 10
475.3423169984586
 20
258.1209052671009
 30
0.0
 11
474.0923169984585
 21
258.6209052671009
 31
0.0
  0
LINE
  5
11F9
330
18
100
AcDbEntity
  8
外形線
100
AcDbLine
 10
471.3423169984586
 20
259.2209052671011
 30
0.0
 11
471.3423169984586
 21
258.6209052671009
 31
0.0
  0
LINE
  5
11FA
330
18
100
AcDbEntity
  8
外形線
100
AcDbLine
 10
473.8423169984586
 20
259.220905267101
 30
0.0
 11
473.8423169984586
 21
258.6209052671009
 31
0.0
  0
LINE
  5
11FB
330
18
100
AcDbEntity
  8
外形線
100
AcDbLine
 10
471.4923169984586
 20
259.7209052671009
 30
0.0
 11
473.6923169984585
 21
259.7209052671009
 31
0.0
  0
ARC
  5
11FD
330
18
100
AcDbEntity
  8
外形線
100
AcDbCircle
 10
472.5923169984586
 20
259.3209052671009
 30
0.0
 40
1.0
100
AcDbArc
 50
23.57817847820416
 51
156.4218215217943
  0
LINE
  5
11FE
330
18
100
AcDbEntity
  8
外形線
100
AcDbLine
 10
471.3423169984586
 20
259.2209052671009
 30
0.0
 11
473.8423169984586
 21
259.2209052671009
 31
0.0
  0
LINE
  5
1201
330
18
100
AcDbEntity
  8
外形線
100
AcDbLine
 10
471.3423169984586
 20
259.2209052671009
 30
0.0
 11
471.4923169984586
 21
259.7209052671009
 31
0.0
  0
LINE
  5
1202
330
18
100
AcDbEntity
  8
外形線
100
AcDbLine
 10
473.8423169984586
 20
259.2209052671009
 30
0.0
 11
473.6923169984586
 21
259.7209052671009
 31
0.0
  0
DIMENSION
  5
122B
330
18
100
AcDbEntity
  8
外形線
100
AcDbDimension
  2
*D8
 10
447.9531993065598
 20
306.1238811760244
 30
0.0
 11
446.0781993065597
 21
312.6238811760245
 31
0.0
 70
    32
 71
     5
 42
-1.0
  3
STYLE3
100
AcDbAlignedDimension
 13
434.4595492597282
 23
319.1238811760245
 33
0.0
 14
434.4595492597282
 24
306.1238811760244
 34
0.0
 50
90.0
100
AcDbRotatedDimension
1001
ACAD
1000
DSTYLE
1002
{
1070
   271
1070
     2
1002
}
  0
ARC
  5
1246
330
18
100
AcDbEntity
  8
外形線
100
AcDbCircle
 10
468.0923169984587
 20
258.3209052671009
 30
0.0
 40
2.0
100
AcDbArc
 50
90.00000000000161
 51
180.0
  0
ARC
  5
1247
330
18
100
AcDbEntity
  8
外形線
100
AcDbCircle
 10
477.0923169984585
 20
258.3209052671009
 30
0.0
 40
2.0
100
AcDbArc
 50
0.0
 51
89.99999999999836
  0
CIRCLE
  5
1249
330
18
100
AcDbEntity
  8
想像線
100
AcDbCircle
 10
472.5923169984586
 20
250.6209052671009
 30
0.0
 40
9.0
  0
CIRCLE
  5
124C
330
18
100
AcDbEntity
  8
想像線
100
AcDbCircle
 10
472.5923169984586
 20
242.1209052671009
 30
0.0
 40
17.5
  0
LINE
  5
1262
330
18
100
AcDbEntity
  8
0
  6
ByBlock
 62
     2
100
AcDbLine
 10
485.726289506367
 20
253.6858854297084
 30
0.0
 11
461.3346262773942
 21
232.208065127723
 31
0.0
  0
MTEXT
  5
1263
330
18
100
AcDbEntity
  8
0
  6
ByBlock
 62
     6
100
AcDbMText
 10
464.8085624150207
 20
237.76529485954
 30
0.0
 40
2.5
 41
0.0
 71
     5
 72
     1
  1
\A1;\U+220535
  7
STYLE3
 11
0.7505127147376236
 21
0.6608560092918597
 31
0.0
 73
     1
 44
1.0
  0
INSERT
  5
1264
330
18
100
AcDbEntity
  8
0
  6
ByBlock
 62
     2
100
AcDbBlockReference
  2
_OPEN
 10
459.4583444905501
 20
230.5559251044933
 30
0.0
 41
2.5
 42
2.5
 43
2.5
 50
221.3651896415932
  0
POINT
  5
1265
330
18
100
AcDbEntity
  8
DEFPOINTS
  6
ByBlock
 62
     0
100
AcDbPoint
 10
459.4583444905501
 20
230.5559251044933
 30
0.0
  0
POINT
  5
1266
330
18
100
AcDbEntity
  8
DEFPOINTS
  6
ByBlock
 62
     0
100
AcDbPoint
 10
485.7262895063669
 20
253.6858854297083
 30
0.0
  0
LINE
  5
1267
330
18
100
AcDbEntity
  8
0
  6
ByBlock
 62
     2
100
AcDbLine
 10
457.0954990456601
 20
235.6321861680167
 30
0.0
 11
464.326206483603
 21
242.6258182159052
 31
0.0
  0
LINE
  5
1268
330
18
100
AcDbEntity
  8
0
  6
ByBlock
 62
     2
100
AcDbLine
 10
480.8584275133141
 20
258.6159923182965
 30
0.0
 11
482.6554080600218
 21
260.3540547207303
 31
0.0
  0
MTEXT
  5
1269
330
18
100
AcDbEntity
  8
0
  6
ByBlock
 62
     6
100
AcDbMText
 10
458.5088156894523
 20
239.6077064007749
 30
0.0
 40
2.5
 41
0.0
 71
     5
 72
     1
  1
\A1;\U+220518
  7
STYLE3
 11
0.7187922186830874
 21
0.6952249609735289
 31
0.0
 73
     1
 44
1.0
  0
LINE
  5
126A
330
18
100
AcDbEntity
  8
0
  6
ByBlock
 62
     2
100
AcDbLine
 10
479.0614469666064
 20
256.8779299158626
 30
0.0
 11
466.1231870303108
 21
244.3638806183391
 31
0.0
  0
INSERT
  5
126B
330
18
100
AcDbEntity
  8
0
  6
ByBlock
 62
     2
100
AcDbBlockReference
  2
_OPEN
 10
479.0614469666064
 20
256.8779299158626
 30
0.0
 41
2.5
 42
2.5
 43
2.5
 50
224.0451464025358
  0
INSERT
  5
126C
330
18
100
AcDbEntity
  8
0
  6
ByBlock
 62
     2
100
AcDbBlockReference
  2
_OPEN
 10
466.1231870303108
 20
244.3638806183391
 30
0.0
 41
2.5
 42
2.5
 43
2.5
 50
44.04514640253579
  0
POINT
  5
126D
330
18
100
AcDbEntity
  8
DEFPOINTS
  6
ByBlock
 62
     0
100
AcDbPoint
 10
466.1231870303108
 20
244.3638806183391
 30
0.0
  0
POINT
  5
126E
330
18
100
AcDbEntity
  8
DEFPOINTS
  6
ByBlock
 62
     0
100
AcDbPoint
 10
479.0614469666064
 20
256.8779299158626
 30
0.0
  0
POINT
  5
126F
330
18
100
AcDbEntity
  8
DEFPOINTS
  6
ByBlock
 62
     0
100
AcDbPoint
 10
485.726289506367
 20
253.6858854297085
 30
0.0
  0
INSERT
  5
1270
330
18
100
AcDbEntity
  8
0
  6
ByBlock
 62
     2
100
AcDbBlockReference
  2
_OPEN
 10
485.726289506367
 20
253.6858854297085
 30
0.0
 41
2.5
 42
2.5
 43
2.5
 50
44.04514640253579
  0
POINT
  5
127F
330
18
100
AcDbEntity
  8
DEFPOINTS
  6
ByBlock
 62
     0
100
AcDbPoint
 10
472.0109158229198
 20
260.1345222980695
 30
0.0
  0
POINT
  5
1280
330
18
100
AcDbEntity
  8
DEFPOINTS
  6
ByBlock
 62
     0
100
AcDbPoint
 10
472.5923169984587
 20
259.3209052671009
 30
0.0
  0
LINE
  5
1281
330
18
100
AcDbEntity
  8
0
  6
ByBlock
 62
     2
100
AcDbLine
 10
436.4595492597281
 20
257.6209052671007
 30
0.0
 11
436.4595492597281
 21
274.2602788566426
 31
0.0
  0
LINE
  5
1282
330
18
100
AcDbEntity
  8
0
  6
ByBlock
 62
     2
100
AcDbLine
 10
430.9595492597281
 20
273.0102788566426
 30
0.0
 11
428.4595492597282
 21
273.0102788566426
 31
0.0
  0
LINE
  5
1283
330
18
100
AcDbEntity
  8
0
  6
ByBlock
 62
     2
100
AcDbLine
 10
438.9595492597281
 20
273.0102788566426
 30
0.0
 11
441.4595492597282
 21
273.0102788566426
 31
0.0
  0
LINE
  5
1284
330
18
100
AcDbEntity
  8
0
  6
ByBlock
 62
     2
100
AcDbLine
 10
433.4595492597282
 20
273.0102788566426
 30
0.0
 11
436.4595492597281
 21
273.0102788566426
 31
0.0
  0
INSERT
  5
1285
330
18
100
AcDbEntity
  8
0
  6
ByBlock
 62
     2
100
AcDbBlockReference
  2
_OPEN
 10
433.4595492597282
 20
273.0102788566426
 30
0.0
 41
2.5
 42
2.5
 43
2.5
  0
INSERT
  5
1286
330
18
100
AcDbEntity
  8
0
  6
ByBlock
 62
     2
100
AcDbBlockReference
  2
_OPEN
 10
436.4595492597281
 20
273.0102788566426
 30
0.0
 41
2.5
 42
2.5
 43
2.5
 50
180.0
  0
MTEXT
  5
1287
330
18
100
AcDbEntity
  8
0
  6
ByBlock
 62
     6
100
AcDbMText
 10
434.9595492597281
 20
274.8852788566426
 30
0.0
 40
2.5
 41
0.0
 71
     5
 72
     1
  1
\A1;3
  7
STYLE3
 73
     1
 44
1.0
  0
POINT
  5
1288
330
18
100
AcDbEntity
  8
DEFPOINTS
  6
ByBlock
 62
     0
100
AcDbPoint
 10
433.4595492597282
 20
261.3014812552497
 30
0.0
  0
POINT
  5
1289
330
18
100
AcDbEntity
  8
DEFPOINTS
  6
ByBlock
 62
     0
100
AcDbPoint
 10
436.4595492597281
 20
257.6209052671007
 30
0.0
  0
POINT
  5
128A
330
18
100
AcDbEntity
  8
DEFPOINTS
  6
ByBlock
 62
     0
100
AcDbPoint
 10
436.4595492597281
 20
273.0102788566426
 30
0.0
  0
LINE
  5
128B
330
18
100
AcDbEntity
  8
0
  6
ByBlock
 62
     2
100
AcDbLine
 10
433.4595492597282
 20
261.3014812552497
 30
0.0
 11
433.4595492597282
 21
274.2602788566426
 31
0.0
  0
LINE
  5
128C
330
18
100
AcDbEntity
  8
0
  6
ByBlock
 62
     2
100
AcDbLine
 10
341.4673158482241
 20
273.0102788566426
 30
0.0
 11
430.9595492597281
 21
273.0102788566426
 31
0.0
  0
INSERT
  5
128D
330
18
100
AcDbEntity
  8
0
  6
ByBlock
 62
     2
100
AcDbBlockReference
  2
_OPEN
 10
338.9673158482241
 20
273.0102788566426
 30
0.0
 41
2.5
 42
2.5
 43
2.5
 50
180.0
  0
INSERT
  5
128E
330
18
100
AcDbEntity
  8
0
  6
ByBlock
 62
     2
100
AcDbBlockReference
  2
_OPEN
 10
433.4595492597282
 20
273.0102788566426
 30
0.0
 41
2.5
 42
2.5
 43
2.5
  0
MTEXT
  5
128F
330
18
100
AcDbEntity
  8
0
  6
ByBlock
 62
     6
100
AcDbMText
 10
386.2134325539761
 20
274.8852788566426
 30
0.0
 40
2.5
 41
0.0
 71
     5
 72
     1
  1
\A1;150
  7
STYLE3
 73
     1
 44
1.0
  0
POINT
  5
1290
330
18
100
AcDbEntity
  8
DEFPOINTS
  6
ByBlock
 62
     0
100
AcDbPoint
 10
338.9673158482241
 20
254.7277065710967
 30
0.0
  0
POINT
  5
1291
330
18
100
AcDbEntity
  8
DEFPOINTS
  6
ByBlock
 62
     0
100
AcDbPoint
 10
433.4595492597282
 20
261.3014812552497
 30
0.0
  0
POINT
  5
1292
330
18
100
AcDbEntity
  8
DEFPOINTS
  6
ByBlock
 62
     0
100
AcDbPoint
 10
433.4595492597282
 20
273.0102788566426
 30
0.0
  0
LINE
  5
1295
330
18
100
AcDbEntity
  8
0
  6
ByBlock
 62
     2
100
AcDbLine
 10
445.0646509441255
 20
260.3209052671008
 30
0.0
 11
452.6802538436292
 21
260.3209052671008
 31
0.0
  0
LINE
  5
1296
330
18
100
AcDbEntity
  8
0
  6
ByBlock
 62
     2
100
AcDbLine
 10
445.0646509441255
 20
241.6209052671008
 30
0.0
 11
452.6802538436292
 21
241.6209052671008
 31
0.0
  0
LINE
  5
1297
330
18
100
AcDbEntity
  8
0
  6
ByBlock
 62
     2
100
AcDbLine
 10
451.4302538436293
 20
287.8178904026926
 30
0.0
 11
451.4302538436293
 21
244.1209052671008
 31
0.0
  0
INSERT
  5
1298
330
18
100
AcDbEntity
  8
0
  6
ByBlock
 62
     2
100
AcDbBlockReference
  2
_OPEN
 10
451.4302538436293
 20
260.3209052671008
 30
0.0
 41
2.5
 42
2.5
 43
2.5
 50
90.0
  0
INSERT
  5
1299
330
18
100
AcDbEntity
  8
0
  6
ByBlock
 62
     2
100
AcDbBlockReference
  2
_OPEN
 10
451.4302538436293
 20
241.6209052671008
 30
0.0
 41
2.5
 42
2.5
 43
2.5
 50
270.0
  0
MTEXT
  5
129A
330
18
100
AcDbEntity
  8
0
  6
ByBlock
 62
     6
100
AcDbMText
 10
449.5552538436292
 20
250.9709052671008
 30
0.0
 40
2.5
 41
0.0
 71
     5
 72
     1
  1
\A1;18.7
  7
STYLE3
 11
0.0000000000000001
 21
1.0
 31
0.0
 73
     1
 44
1.0
  0
POINT
  5
129B
330
18
100
AcDbEntity
  8
DEFPOINTS
  6
ByBlock
 62
     0
100
AcDbPoint
 10
445.0646509441255
 20
260.3209052671008
 30
0.0
  0
POINT
  5
129C
330
18
100
AcDbEntity
  8
DEFPOINTS
  6
ByBlock
 62
     0
100
AcDbPoint
 10
445.0646509441255
 20
241.6209052671008
 30
0.0
  0
POINT
  5
129D
330
18
100
AcDbEntity
  8
DEFPOINTS
  6
ByBlock
 62
     0
100
AcDbPoint
 10
451.4302538436293
 20
241.6209052671008
 30
0.0
  0
MTEXT
  5
129F
330
18
100
AcDbEntity
  8
0
  6
ByBlock
 62
     6
100
AcDbMText
 10
449.5552538436292
 20
274.3251728975918
 30
0.0
 40
2.5
 41
0.0
 71
     5
 72
     1
  1
呼び18フリ－寸法
  7
STYLE3
 11
0.0000000000000001
 21
1.0
 31
0.0
 73
     1
 44
1.0
  0
LINE
  5
12AD
330
18
100
AcDbEntity
  8
0
  6
ByBlock
 62
     2
100
AcDbLine
 10
433.4595492597282
 20
260.3209052671008
 30
0.0
 11
399.7660153696236
 21
260.3209052671008
 31
0.0
  0
LINE
  5
12AE
330
18
100
AcDbEntity
  8
0
  6
ByBlock
 62
     2
100
AcDbLine
 10
419.7928025444643
 20
247.6209052671008
 30
0.0
 11
399.7660153696236
 21
247.6209052671008
 31
0.0
  0
LINE
  5
12AF
330
18
100
AcDbEntity
  8
0
  6
ByBlock
 62
     2
100
AcDbLine
 10
401.0160153696236
 20
257.8209052671008
 30
0.0
 11
401.0160153696236
 21
250.1209052671008
 31
0.0
  0
INSERT
  5
12B0
330
18
100
AcDbEntity
  8
0
  6
ByBlock
 62
     2
100
AcDbBlockReference
  2
_OPEN
 10
401.0160153696236
 20
260.3209052671008
 30
0.0
 41
2.5
 42
2.5
 43
2.5
 50
90.0
  0
INSERT
  5
12B1
330
18
100
AcDbEntity
  8
0
  6
ByBlock
 62
     2
100
AcDbBlockReference
  2
_OPEN
 10
401.0160153696236
 20
247.6209052671008
 30
0.0
 41
2.5
 42
2.5
 43
2.5
 50
270.0
  0
MTEXT
  5
12B2
330
18
100
AcDbEntity
  8
0
  6
ByBlock
 62
     6
100
AcDbMText
 10
398.0359570775772
 20
256.5468093875835
 30
0.0
 40
2.5
 41
0.0
 71
     5
 72
     1
  1
\A1;12.7
  7
STYLE3
 11
0.0000000000000001
 21
1.0
 31
0.0
 73
     1
 44
1.0
  0
POINT
  5
12B3
330
18
100
AcDbEntity
  8
DEFPOINTS
  6
ByBlock
 62
     0
100
AcDbPoint
 10
433.4595492597282
 20
260.3209052671008
 30
0.0
  0
POINT
  5
12B4
330
18
100
AcDbEntity
  8
DEFPOINTS
  6
ByBlock
 62
     0
100
AcDbPoint
 10
419.7928025444643
 20
247.6209052671008
 30
0.0
  0
POINT
  5
12B5
330
18
100
AcDbEntity
  8
DEFPOINTS
  6
ByBlock
 62
     0
100
AcDbPoint
 10
401.0160153696236
 20
247.6209052671008
 30
0.0
  0
LINE
  5
12C5
330
18
100
AcDbEntity
  8
0
  6
ByBlock
 62
     2
100
AcDbLine
 10
436.4595492597283
 20
242.6209052671008
 30
0.0
 11
436.4595492597283
 21
224.921125101574
 31
0.0
  0
LINE
  5
12C6
330
18
100
AcDbEntity
  8
0
  6
ByBlock
 62
     2
100
AcDbLine
 10
243.4673158482241
 20
239.620905267101
 30
0.0
 11
243.4673158482241
 21
224.921125101574
 31
0.0
  0
LINE
  5
12C7
330
18
100
AcDbEntity
  8
0
  6
ByBlock
 62
     2
100
AcDbLine
 10
433.9595492597283
 20
226.171125101574
 30
0.0
 11
245.9673158482241
 21
226.171125101574
 31
0.0
  0
INSERT
  5
12C8
330
18
100
AcDbEntity
  8
0
  6
ByBlock
 62
     2
100
AcDbBlockReference
  2
_OPEN
 10
436.4595492597283
 20
226.171125101574
 30
0.0
 41
2.5
 42
2.5
 43
2.5
  0
INSERT
  5
12C9
330
18
100
AcDbEntity
  8
0
  6
ByBlock
 62
     2
100
AcDbBlockReference
  2
_OPEN
 10
243.4673158482241
 20
226.171125101574
 30
0.0
 41
2.5
 42
2.5
 43
2.5
 50
180.0
  0
MTEXT
  5
12CA
330
18
100
AcDbEntity
  8
0
  6
ByBlock
 62
     6
100
AcDbMText
 10
339.9634325539762
 20
228.046125101574
 30
0.0
 40
2.5
 41
0.0
 71
     5
 72
     1
  1
249.5
  7
STYLE3
 73
     1
 44
1.0
  0
POINT
  5
12CB
330
18
100
AcDbEntity
  8
DEFPOINTS
  6
ByBlock
 62
     0
100
AcDbPoint
 10
436.4595492597283
 20
242.6209052671008
 30
0.0
  0
POINT
  5
12CC
330
18
100
AcDbEntity
  8
DEFPOINTS
  6
ByBlock
 62
     0
100
AcDbPoint
 10
243.4673158482241
 20
239.620905267101
 30
0.0
  0
POINT
  5
12CD
330
18
100
AcDbEntity
  8
DEFPOINTS
  6
ByBlock
 62
     0
100
AcDbPoint
 10
243.4673158482241
 20
226.171125101574
 30
0.0
  0
LINE
  5
1318
330
18
100
AcDbEntity
  8
外形線
100
AcDbLine
 10
276.3043964414193
 20
354.8748449362607
 30
0.0
 11
403.3043964414193
 21
354.8748449362607
 31
0.0
  0
LINE
  5
1319
330
18
100
AcDbEntity
  8
外形線
100
AcDbLine
 10
276.3043964414193
 20
353.8748449362607
 30
0.0
 11
403.3043964414193
 21
353.8748449362607
 31
0.0
  0
TEXT
  5
131A
330
18
100
AcDbEntity
  8
文字
100
AcDbText
 10
276.8436894414193
 20
356.5535169362606
 30
0.0
 40
3.5
  1
Model No.CG-1 Cylinder Gauge (Blind Hole Type)
  7
STYLE3
100
AcDbText
  0
LINE
  5
131B
330
18
100
AcDbEntity
  8
外形線
100
AcDbLine
 10
350.2510844414193
 20
172.5027189362606
 30
0.0
 11
350.2510844414193
 21
192.8977029362606
 31
0.0
  0
TEXT
  5
131C
330
18
100
AcDbEntity
  8
0
  6
Continuous
100
AcDbText
 10
351.7085514414193
 20
184.0154869362606
 30
0.0
 40
2.1
  1
Design and specifications are subject to change without notice for future improvement.
  7
STYLE3
100
AcDbText
  0
TEXT
  5
131D
330
18
100
AcDbEntity
  8
0
  6
Continuous
100
AcDbText
 10
395.0213284414193
 20
175.9990029362606
 30
0.0
 40
2.399999999999999
  1
mm
  7
STYLE3
100
AcDbText
  0
LINE
  5
131E
330
18
100
AcDbEntity
  8
外形線
100
AcDbLine
 10
350.2510844414193
 20
182.1174969362606
 30
0.0
 11
491.0425024414193
 21
182.1174969362606
 31
0.0
  0
TEXT
  5
131F
330
18
100
AcDbEntity
  8
0
  6
Continuous
100
AcDbText
 10
354.0405024414193
 20
177.7471419362606
 30
0.0
 40
3.0
  1
三　　角　　法
  7
STYLE3
100
AcDbText
  0
TEXT
  5
1320
330
18
100
AcDbEntity
  8
0
  6
Continuous
100
AcDbText
 10
351.4170604414193
 20
174.2508589362606
 30
0.0
 40
2.1
  1
3RD Angle Projection
  7
STYLE3
100
AcDbText
  0
TEXT
  5
1321
330
18
100
AcDbEntity
  8
0
  6
Continuous
100
AcDbText
 10
387.1510024414193
 20
174.2508599362606
 30
0.0
 40
2.1
  1
Unit
  7
STYLE3
100
AcDbText
  0
TEXT
  5
1322
330
18
100
AcDbEntity
  8
0
  6
Continuous
100
AcDbText
 10
386.9792814414193
 20
177.7530969362606
 30
0.0
 40
3.0
  1
単位
  7
STYLE3
100
AcDbText
  0
LINE
  5
1323
330
18
100
AcDbEntity
  8
外形線
100
AcDbLine
 10
385.5218124414193
 20
182.1174969362606
 30
0.0
 11
385.5218124414193
 21
172.5027189362606
 31
0.0
  0
TEXT
  5
1324
330
18
100
AcDbEntity
  8
0
  6
Continuous
100
AcDbText
 10
454.4972934414192
 20
174.2508599362606
 30
0.0
 40
2.1
  1
OZAKI MFG. CO., LTD.
  7
STYLE3
100
AcDbText
  0
TEXT
  5
1325
330
18
100
AcDbEntity
  8
0
  6
Continuous
100
AcDbText
 10
453.6228144414193
 20
178.0384989362606
 30
0.0
 40
3.0
  1
株式会社　尾崎製作所
  7
STYLE3
100
AcDbText
  0
TEXT
  5
1326
330
18
100
AcDbEntity
  8
0
  6
Continuous
100
AcDbText
 10
433.2182594414192
 20
175.9990019362606
 30
0.0
 40
2.1
  1
2010.06.23
  7
STYLE3
100
AcDbText
  0
TEXT
  5
1327
330
18
100
AcDbEntity
  8
0
  6
Continuous
100
AcDbText
 10
414.3796814414193
 20
176.2903599362606
 30
0.0
 40
2.399999999999999
  1
1/1
  7
STYLE3
100
AcDbText
  0
TEXT
  5
1328
330
18
100
AcDbEntity
  8
0
  6
Continuous
100
AcDbText
 10
404.7603924414192
 20
174.5422169362606
 30
0.0
 40
2.1
  1
Scale
  7
STYLE3
100
AcDbText
  0
TEXT
  5
1329
330
18
100
AcDbEntity
  8
0
  6
Continuous
100
AcDbText
 10
404.2971774414192
 20
177.4617389362606
 30
0.0
 40
3.0
  1
尺 度
  7
STYLE3
100
AcDbText
  0
LINE
  5
132A
330
18
100
AcDbEntity
  8
外形線
100
AcDbLine
 10
403.0114294414192
 20
182.1174969362606
 30
0.0
 11
403.0114294414192
 21
172.5027189362606
 31
0.0
  0
TEXT
  5
132B
330
18
100
AcDbEntity
  8
0
  6
Continuous
100
AcDbText
 10
424.0900914414193
 20
177.5839449362606
 30
0.0
 40
3.0
  1
日 付
  7
STYLE3
100
AcDbText
  0
TEXT
  5
132C
330
18
100
AcDbEntity
  8
0
  6
Continuous
100
AcDbText
 10
424.4734524414193
 20
174.2508609362606
 30
0.0
 40
2.1
  1
Date
  7
STYLE3
100
AcDbText
  0
LINE
  5
132D
330
18
100
AcDbEntity
  8
外形線
100
AcDbLine
 10
422.5415014414192
 20
182.1174969362606
 30
0.0
 11
422.5415014414192
 21
172.5027189362606
 31
0.0
  0
LINE
  5
132E
330
18
100
AcDbEntity
  8
外形線
100
AcDbLine
 10
452.2738514414192
 20
182.1174969362606
 30
0.0
 11
452.2738514414192
 21
172.5027189362606
 31
0.0
  0
TEXT
  5
132F
330
18
100
AcDbEntity
  8
0
  6
Continuous
100
AcDbText
 10
352.0000454414193
 20
187.9446349362606
 30
0.0
 40
3.5
  1
仕様及び外観は予告なく変更される場合がございますのでご了承下さい。
  7
STYLE3
100
AcDbText
  0
LINE
  5
1330
330
18
100
AcDbEntity
  8
外形線
100
AcDbLine
 10
350.2510844414193
 20
192.8977029362606
 30
0.0
 11
491.0425024414193
 21
192.8977029362606
 31
0.0
  0
ENDSEC
  0
SECTION
  2
OBJECTS
  0
DICTIONARY
  5
C
330
0
100
AcDbDictionary
281
     1
  3
ACAD_COLOR
350
12F1
  3
ACAD_GROUP
350
D
  3
ACAD_LAYOUT
350
12F2
  3
ACAD_MATERIAL
350
12F0
  3
ACAD_MLINESTYLE
350
1B
  3
ACAD_PLOTSETTINGS
350
12F3
  3
ACAD_PLOTSTYLENAME
350
12EE
  3
ACDBVARIABLEDICTIONARY
350
192
  0
DICTIONARY
  5
12F1
102
{ACAD_REACTORS
330
C
102
}
330
C
100
AcDbDictionary
281
     1
  0
DICTIONARY
  5
D
102
{ACAD_REACTORS
330
C
102
}
330
C
100
AcDbDictionary
281
     1
  0
DICTIONARY
  5
12F2
102
{ACAD_REACTORS
330
C
102
}
330
C
100
AcDbDictionary
281
     1
  3
Model
350
12F4
  3
レイアウト1
350
12F5
  0
DICTIONARY
  5
12F0
102
{ACAD_REACTORS
330
C
102
}
330
C
100
AcDbDictionary
281
     1
  0
DICTIONARY
  5
1B
102
{ACAD_REACTORS
330
C
102
}
330
C
100
AcDbDictionary
281
     1
  3
STANDARD
350
1C
  0
DICTIONARY
  5
12F3
102
{ACAD_REACTORS
330
C
102
}
330
C
100
AcDbDictionary
281
     1
  0
ACDBDICTIONARYWDFLT
  5
12EE
102
{ACAD_REACTORS
330
C
102
}
330
C
100
AcDbDictionary
281
     1
  3
Normal
350
12EF
100
AcDbDictionaryWithDefault
340
12EF
  0
DICTIONARY
  5
192
102
{ACAD_REACTORS
330
C
102
}
330
C
100
AcDbDictionary
281
     1
  3
SORTENTS
350
193
  0
LAYOUT
  5
12F4
102
{ACAD_REACTORS
330
12F2
102
}
330
12F2
100
AcDbPlotSettings
  1

  2
EPSON PX-101
  4

  6

 40
0.0
 41
0.0
 42
0.0
 43
0.0
 44
0.0
 45
0.0
 46
0.0
 47
0.0
 48
0.0
 49
0.0
140
0.0
141
0.0
142
1.0
143
1.0
 70
  1712
 72
     0
 73
     0
 74
     0
  7
AutoCad LT 98fukui.ctb
 75
     0
147
1.0
 76
     0
 77
     2
 78
   300
148
0.0
149
0.0
100
AcDbLayout
  1
Model
 70
     1
 71
     0
 10
0.0
 20
0.0
 11
12.0
 21
9.0
 12
0.0
 22
0.0
 32
0.0
 14
0.0
 24
0.0
 34
0.0
 15
0.0
 25
0.0
 35
0.0
146
0.0
 13
0.0
 23
0.0
 33
0.0
 16
1.0
 26
0.0
 36
0.0
 17
0.0
 27
1.0
 37
0.0
 76
     0
330
18
  0
LAYOUT
  5
12F5
102
{ACAD_REACTORS
330
12F2
102
}
330
12F2
100
AcDbPlotSettings
  1

  2
EPSON PX-101
  4

  6

 40
0.0
 41
0.0
 42
0.0
 43
0.0
 44
0.0
 45
0.0
 46
0.0
 47
0.0
 48
0.0
 49
0.0
140
0.0
141
0.0
142
1.0
143
1.0
 70
   688
 72
     0
 73
     0
 74
     5
  7
AutoCad LT 98fukui.ctb
 75
    16
147
1.0
 76
     0
 77
     2
 78
   300
148
0.0
149
0.0
100
AcDbLayout
  1
レイアウト1
 70
     1
 71
     1
 10
0.0
 20
0.0
 11
420.0
 21
297.0
 12
0.0
 22
0.0
 32
0.0
 14
1.000000000000000E+20
 24
1.000000000000000E+20
 34
1.000000000000000E+20
 15
-1.000000000000000E+20
 25
-1.000000000000000E+20
 35
-1.000000000000000E+20
146
0.0
 13
0.0
 23
0.0
 33
0.0
 16
1.0
 26
0.0
 36
0.0
 17
0.0
 27
1.0
 37
0.0
 76
     0
330
15
  0
MLINESTYLE
  5
1C
102
{ACAD_REACTORS
330
1B
102
}
330
1B
100
AcDbMlineStyle
  2
STANDARD
 70
     0
  3

 62
   256
 51
90.0
 52
90.0
 71
     2
 49
0.5
 62
   256
  6
BYLAYER
 49
-0.5
 62
   256
  6
BYLAYER
  0
ACDBPLACEHOLDER
  5
12EF
102
{ACAD_REACTORS
330
12EE
102
}
330
12EE
  0
DICTIONARYVAR
  5
193
102
{ACAD_REACTORS
330
192
102
}
330
192
100
DictionaryVariables
280
     0
  1
96
  0
ENDSEC
  0
EOF
