  0
SECTION
  2
HEADER
  9
$ACADVER
  1
AC1018
  9
$ACADMAINTVER
 70
     0
  9
$DWGCODEPAGE
  3
ANSI_932
  9
$INSBASE
 10
0.0
 20
0.0
 30
0.0
  9
$EXTMIN
 10
236.4886379941705
 20
171.6235136330668
 30
-0.0015258207003583
  9
$EXTMAX
 10
491.9065729289581
 20
367.0613775925545
 30
0.0000000349246037
  9
$LIMMIN
 10
0.0
 20
0.0
  9
$LIMMAX
 10
420.0
 20
297.0
  9
$ORTHOMODE
 70
     1
  9
$REGENMODE
 70
     1
  9
$FILLMODE
 70
     1
  9
$QTEXTMODE
 70
     0
  9
$MIRRTEXT
 70
     1
  9
$LTSCALE
 40
1.0
  9
$ATTMODE
 70
     1
  9
$TEXTSIZE
 40
3.0
  9
$TRACEWID
 40
1.0
  9
$TEXTSTYLE
  7
STYLE3
  9
$CLAYER
  8
寸法線
  9
$CELTYPE
  6
BYLAYER
  9
$CECOLOR
 62
   256
  9
$CELTSCALE
 40
1.0
  9
$DISPSILH
 70
     0
  9
$DIMSCALE
 40
1.0
  9
$DIMASZ
 40
2.5
  9
$DIMEXO
 40
0.0
  9
$DIMDLI
 40
3.75
  9
$DIMRND
 40
0.0
  9
$DIMDLE
 40
0.0
  9
$DIMEXE
 40
1.25
  9
$DIMTP
 40
0.0
  9
$DIMTM
 40
0.0
  9
$DIMTXT
 40
2.5
  9
$DIMCEN
 40
2.5
  9
$DIMTSZ
 40
0.0
  9
$DIMTOL
 70
     0
  9
$DIMLIM
 70
     0
  9
$DIMTIH
 70
     0
  9
$DIMTOH
 70
     0
  9
$DIMSE1
 70
     0
  9
$DIMSE2
 70
     0
  9
$DIMTAD
 70
     1
  9
$DIMZIN
 70
     8
  9
$DIMBLK
  1

  9
$DIMASO
 70
     1
  9
$DIMSHO
 70
     1
  9
$DIMPOST
  1

  9
$DIMAPOST
  1

  9
$DIMALT
 70
     0
  9
$DIMALTD
 70
     4
  9
$DIMALTF
 40
0.0394
  9
$DIMLFAC
 40
1.0
  9
$DIMTOFL
 70
     1
  9
$DIMTVP
 40
0.0
  9
$DIMTIX
 70
     0
  9
$DIMSOXD
 70
     0
  9
$DIMSAH
 70
     1
  9
$DIMBLK1
  1
OPEN
  9
$DIMBLK2
  1
OPEN
  9
$DIMSTYLE
  2
STYLE3
  9
$DIMCLRD
 70
     2
  9
$DIMCLRE
 70
     2
  9
$DIMCLRT
 70
     6
  9
$DIMTFAC
 40
1.0
  9
$DIMGAP
 40
0.625
  9
$DIMJUST
 70
     0
  9
$DIMSD1
 70
     0
  9
$DIMSD2
 70
     0
  9
$DIMTOLJ
 70
     1
  9
$DIMTZIN
 70
     0
  9
$DIMALTZ
 70
     0
  9
$DIMALTTZ
 70
     0
  9
$DIMUPT
 70
     0
  9
$DIMDEC
 70
     2
  9
$DIMTDEC
 70
     4
  9
$DIMALTU
 70
     8
  9
$DIMALTTD
 70
     4
  9
$DIMTXSTY
  7
STYLE3
  9
$DIMAUNIT
 70
     0
  9
$DIMADEC
 70
     0
  9
$DIMALTRND
 40
0.0
  9
$DIMAZIN
 70
     0
  9
$DIMDSEP
 70
    46
  9
$DIMATFIT
 70
     3
  9
$DIMFRAC
 70
     0
  9
$DIMLDRBLK
  1

  9
$DIMLUNIT
 70
     2
  9
$DIMLWD
 70
    -2
  9
$DIMLWE
 70
    -2
  9
$DIMTMOVE
 70
     0
  9
$LUNITS
 70
     2
  9
$LUPREC
 70
     4
  9
$SKETCHINC
 40
1.0
  9
$FILLETRAD
 40
3.0
  9
$AUNITS
 70
     0
  9
$AUPREC
 70
     0
  9
$MENU
  1
.
  9
$ELEVATION
 40
0.0
  9
$PELEVATION
 40
0.0
  9
$THICKNESS
 40
0.0
  9
$LIMCHECK
 70
     0
  9
$CHAMFERA
 40
0.5
  9
$CHAMFERB
 40
0.5
  9
$CHAMFERC
 40
20.0
  9
$CHAMFERD
 40
0.0
  9
$SKPOLY
 70
     0
  9
$TDCREATE
 40
2450753.462540625
  9
$TDUCREATE
 40
2450753.087540625
  9
$TDUPDATE
 40
2455371.439104086
  9
$TDUUPDATE
 40
2455371.064104086
  9
$TDINDWG
 40
2.2258757986
  9
$TDUSRTIMER
 40
2.2258757986
  9
$USRTIMER
 70
     1
  9
$ANGBASE
 50
0.0
  9
$ANGDIR
 70
     0
  9
$PDMODE
 70
     0
  9
$PDSIZE
 40
0.0
  9
$PLINEWID
 40
0.0
  9
$SPLFRAME
 70
     0
  9
$SPLINETYPE
 70
     6
  9
$SPLINESEGS
 70
     8
  9
$HANDSEED
  5
15FC
  9
$SURFTAB1
 70
     6
  9
$SURFTAB2
 70
     6
  9
$SURFTYPE
 70
     6
  9
$SURFU
 70
     6
  9
$SURFV
 70
     6
  9
$UCSBASE
  2

  9
$UCSNAME
  2

  9
$UCSORG
 10
0.0
 20
0.0
 30
0.0
  9
$UCSXDIR
 10
1.0
 20
0.0
 30
0.0
  9
$UCSYDIR
 10
0.0
 20
1.0
 30
0.0
  9
$UCSORTHOREF
  2

  9
$UCSORTHOVIEW
 70
     0
  9
$UCSORGTOP
 10
0.0
 20
0.0
 30
0.0
  9
$UCSORGBOTTOM
 10
0.0
 20
0.0
 30
0.0
  9
$UCSORGLEFT
 10
0.0
 20
0.0
 30
0.0
  9
$UCSORGRIGHT
 10
0.0
 20
0.0
 30
0.0
  9
$UCSORGFRONT
 10
0.0
 20
0.0
 30
0.0
  9
$UCSORGBACK
 10
0.0
 20
0.0
 30
0.0
  9
$PUCSBASE
  2

  9
$PUCSNAME
  2

  9
$PUCSORG
 10
0.0
 20
0.0
 30
0.0
  9
$PUCSXDIR
 10
1.0
 20
0.0
 30
0.0
  9
$PUCSYDIR
 10
0.0
 20
1.0
 30
0.0
  9
$PUCSORTHOREF
  2

  9
$PUCSORTHOVIEW
 70
     0
  9
$PUCSORGTOP
 10
0.0
 20
0.0
 30
0.0
  9
$PUCSORGBOTTOM
 10
0.0
 20
0.0
 30
0.0
  9
$PUCSORGLEFT
 10
0.0
 20
0.0
 30
0.0
  9
$PUCSORGRIGHT
 10
0.0
 20
0.0
 30
0.0
  9
$PUCSORGFRONT
 10
0.0
 20
0.0
 30
0.0
  9
$PUCSORGBACK
 10
0.0
 20
0.0
 30
0.0
  9
$USERI1
 70
     0
  9
$USERI2
 70
     0
  9
$USERI3
 70
     0
  9
$USERI4
 70
     0
  9
$USERI5
 70
     0
  9
$USERR1
 40
0.0
  9
$USERR2
 40
0.0
  9
$USERR3
 40
0.0
  9
$USERR4
 40
0.0
  9
$USERR5
 40
0.0
  9
$WORLDVIEW
 70
     1
  9
$SHADEDGE
 70
     3
  9
$SHADEDIF
 70
    70
  9
$TILEMODE
 70
     1
  9
$MAXACTVP
 70
    48
  9
$PINSBASE
 10
0.0
 20
0.0
 30
0.0
  9
$PLIMCHECK
 70
     0
  9
$PEXTMIN
 10
1.000000000000000E+20
 20
1.000000000000000E+20
 30
1.000000000000000E+20
  9
$PEXTMAX
 10
-1.000000000000000E+20
 20
-1.000000000000000E+20
 30
-1.000000000000000E+20
  9
$PLIMMIN
 10
0.0
 20
0.0
  9
$PLIMMAX
 10
420.0
 20
297.0
  9
$UNITMODE
 70
     0
  9
$VISRETAIN
 70
     1
  9
$PLINEGEN
 70
     0
  9
$PSLTSCALE
 70
     1
  9
$TREEDEPTH
 70
  3020
  9
$CMLSTYLE
  2
STANDARD
  9
$CMLJUST
 70
     0
  9
$CMLSCALE
 40
20.0
  9
$PROXYGRAPHICS
 70
     1
  9
$MEASUREMENT
 70
     1
  9
$CELWEIGHT
370
    -1
  9
$ENDCAPS
280
     0
  9
$JOINSTYLE
280
     0
  9
$LWDISPLAY
290
     0
  9
$INSUNITS
 70
     0
  9
$HYPERLINKBASE
  1

  9
$STYLESHEET
  1
AutoCAD LT 98.ctb
  9
$XEDIT
290
     1
  9
$CEPSNTYPE
380
     0
  9
$PSTYLEMODE
290
     1
  9
$FINGERPRINTGUID
  2
{D9D736A8-168F-4770-BBF3-E40B8712A069}
  9
$VERSIONGUID
  2
{96AB19EE-2760-4789-9225-27C6B15966B5}
  9
$EXTNAMES
290
     1
  9
$PSVPSCALE
 40
0.0
  9
$OLESTARTUP
290
     0
  9
$SORTENTS
280
    96
  9
$INDEXCTL
280
     0
  9
$HIDETEXT
280
     0
  9
$XCLIPFRAME
290
     0
  9
$HALOGAP
280
     0
  9
$OBSCOLOR
 70
   257
  9
$OBSLTYPE
280
     0
  9
$INTERSECTIONDISPLAY
280
     0
  9
$INTERSECTIONCOLOR
 70
   257
  9
$DIMASSOC
280
     1
  9
$PROJECTNAME
  1

  0
ENDSEC
  0
SECTION
  2
CLASSES
  0
CLASS
  1
DICTIONARYVAR
  2
AcDbDictionaryVar
  3
ObjectDBX Classes
 90
        0
 91
        2
280
     0
281
     0
  0
CLASS
  1
HATCH
  2
AcDbHatch
  3
ObjectDBX Classes
 90
        0
 91
        1
280
     0
281
     1
  0
CLASS
  1
ACDBDICTIONARYWDFLT
  2
AcDbDictionaryWithDefault
  3
ObjectDBX Classes
 90
        0
 91
        1
280
     0
281
     0
  0
CLASS
  1
TABLESTYLE
  2
AcDbTableStyle
  3
ObjectDBX Classes
 90
     2047
 91
        1
280
     0
281
     0
  0
CLASS
  1
SORTENTSTABLE
  2
AcDbSortentsTable
  3
ObjectDBX Classes
 90
        0
 91
        1
280
     0
281
     0
  0
ENDSEC
  0
SECTION
  2
TABLES
  0
TABLE
  2
VPORT
  5
8
330
0
100
AcDbSymbolTable
 70
     2
  0
VPORT
  5
15FB
330
8
100
AcDbSymbolTableRecord
100
AcDbViewportTableRecord
  2
*Active
 70
     0
 10
0.0
 20
0.0
 11
1.0
 21
1.0
 12
364.1976054615643
 22
269.3424456128107
 13
0.0
 23
0.0
 14
10.0
 24
10.0
 15
10.0
 25
10.0
 16
0.0
 26
0.0
 36
1.0
 17
0.0
 27
0.0
 37
0.0
 40
196.9240834572785
 41
1.530456852791878
 42
50.0
 43
0.0
 44
0.0
 50
0.0
 51
0.0
 71
     0
 72
   100
 73
     1
 74
     1
 75
     0
 76
     0
 77
     0
 78
     0
281
     0
 65
     1
110
0.0
120
0.0
130
0.0
111
1.0
121
0.0
131
0.0
112
0.0
122
1.0
132
0.0
 79
     0
146
0.0
  0
ENDTAB
  0
TABLE
  2
LTYPE
  5
5
330
0
100
AcDbSymbolTable
 70
     4
  0
LTYPE
  5
12
330
5
100
AcDbSymbolTableRecord
100
AcDbLinetypeTableRecord
  2
BYBLOCK
 70
     0
  3

 72
    65
 73
     0
 40
0.0
  0
LTYPE
  5
13
330
5
100
AcDbSymbolTableRecord
100
AcDbLinetypeTableRecord
  2
BYLAYER
 70
     0
  3

 72
    65
 73
     0
 40
0.0
  0
LTYPE
  5
14
330
5
100
AcDbSymbolTableRecord
100
AcDbLinetypeTableRecord
  2
CONTINUOUS
 70
     0
  3
Solid line
 72
    65
 73
     0
 40
0.0
  0
LTYPE
  5
22
330
5
100
AcDbSymbolTableRecord
100
AcDbLinetypeTableRecord
  2
CENTER2
 70
     0
  3
Center (.5x) ___ _ ___ _ ___ _ ___ _ ___ _ ___
 72
    65
 73
     4
 40
28.575
 49
19.05
 74
     0
 49
-3.174999999999999
 74
     0
 49
3.174999999999999
 74
     0
 49
-3.174999999999999
 74
     0
  0
LTYPE
  5
10A4
330
5
100
AcDbSymbolTableRecord
100
AcDbLinetypeTableRecord
  2
PHANTOM2
 70
     0
  3
Phantom (.5x) ___ _ _ ___ _ _ ___ _ _ ___ _ _
 72
    65
 73
     6
 40
31.75
 49
15.875
 74
     0
 49
-3.174999999999999
 74
     0
 49
3.174999999999999
 74
     0
 49
-3.174999999999999
 74
     0
 49
3.174999999999999
 74
     0
 49
-3.174999999999999
 74
     0
  0
LTYPE
  5
1152
330
5
100
AcDbSymbolTableRecord
100
AcDbLinetypeTableRecord
  2
HIDDEN2
 70
     0
  3
Hidden (.5x) _ _ _ _ _ _ _ _ _ _ _ _ _ _ _ _ _
 72
    65
 73
     2
 40
4.762499999999999
 49
3.174999999999999
 74
     0
 49
-1.587499999999999
 74
     0
  0
ENDTAB
  0
TABLE
  2
LAYER
  5
2
330
0
100
AcDbSymbolTable
 70
    13
  0
LAYER
  5
E
330
2
100
AcDbSymbolTableRecord
100
AcDbLayerTableRecord
  2
0
 70
     0
 62
     7
  6
CONTINUOUS
370
    -3
390
154C
  0
LAYER
  5
25
330
2
100
AcDbSymbolTableRecord
100
AcDbLayerTableRecord
  2
外形線
 70
     0
 62
     7
  6
CONTINUOUS
370
    -3
390
154C
  0
LAYER
  5
26
330
2
100
AcDbSymbolTableRecord
100
AcDbLayerTableRecord
  2
寸法線
 70
     0
 62
     2
  6
CONTINUOUS
370
    -3
390
154C
  0
LAYER
  5
27
330
2
100
AcDbSymbolTableRecord
100
AcDbLayerTableRecord
  2
中心線
 70
     0
 62
     4
  6
CENTER2
370
    -3
390
154C
  0
LAYER
  5
2A
330
2
100
AcDbSymbolTableRecord
100
AcDbLayerTableRecord
  2
ﾊｯﾁﾝｸ
 70
     0
 62
     6
  6
CONTINUOUS
370
    -3
390
154C
  0
LAYER
  5
2B
330
2
100
AcDbSymbolTableRecord
100
AcDbLayerTableRecord
  2
文字
 70
     0
 62
     6
  6
CONTINUOUS
370
    -3
390
154C
  0
LAYER
  5
53
330
2
100
AcDbSymbolTableRecord
100
AcDbLayerTableRecord
  2
DEFPOINTS
 70
     0
 62
     7
  6
CONTINUOUS
290
     0
370
    -3
390
154C
  0
LAYER
  5
A5
330
2
100
AcDbSymbolTableRecord
100
AcDbLayerTableRecord
  2
C
 70
     0
 62
     7
  6
CONTINUOUS
370
    -3
390
154C
  0
LAYER
  5
10A5
330
2
100
AcDbSymbolTableRecord
100
AcDbLayerTableRecord
  2
想像線
 70
     0
 62
     1
  6
PHANTOM2
370
    -3
390
154C
  0
LAYER
  5
10A6
330
2
100
AcDbSymbolTableRecord
100
AcDbLayerTableRecord
  2
隠れ線
 70
     0
 62
     1
  6
HIDDEN2
370
    -3
390
154C
  0
ENDTAB
  0
TABLE
  2
STYLE
  5
3
330
0
100
AcDbSymbolTable
 70
     5
  0
STYLE
  5
F
330
3
100
AcDbSymbolTableRecord
100
AcDbTextStyleTableRecord
  2
STANDARD
 70
     0
 40
0.0
 41
1.0
 50
0.0
 71
     0
 42
2.5
  3
txt
  4

  0
STYLE
  5
3F
330
3
100
AcDbSymbolTableRecord
100
AcDbTextStyleTableRecord
  2
STYLE3
 70
     0
 40
0.0
 41
1.0
 50
0.0
 71
     0
 42
3.0
  3
romans.shx
  4
bigfont.shx
  0
ENDTAB
  0
TABLE
  2
VIEW
  5
6
330
0
100
AcDbSymbolTable
 70
     0
  0
ENDTAB
  0
TABLE
  2
UCS
  5
7
330
0
100
AcDbSymbolTable
 70
     0
  0
ENDTAB
  0
TABLE
  2
APPID
  5
9
330
0
100
AcDbSymbolTable
 70
     2
  0
APPID
  5
10
330
9
100
AcDbSymbolTableRecord
100
AcDbRegAppTableRecord
  2
ACAD
 70
     0
  0
APPID
  5
1580
330
9
100
AcDbSymbolTableRecord
100
AcDbRegAppTableRecord
  2
ACAD_PSEXT
 70
     0
  0
ENDTAB
  0
TABLE
  2
DIMSTYLE
  5
A
330
0
100
AcDbSymbolTable
 70
     4
100
AcDbDimStyleTable
 71
     1
340
8F
  0
DIMSTYLE
105
1D
330
A
100
AcDbSymbolTableRecord
100
AcDbDimStyleTableRecord
  2
STANDARD
 70
     0
 41
2.5
 42
0.625
 43
3.75
 44
1.25
 73
     0
 74
     0
 77
     1
 78
     8
140
2.5
141
2.5
143
0.0394
147
0.625
171
     4
172
     1
273
     8
274
     4
277
     6
340
F
  0
DIMSTYLE
105
8F
102
{ACAD_REACTORS
330
940
330
94D
330
122B
330
1465
330
155A
102
}
330
A
100
AcDbSymbolTableRecord
100
AcDbDimStyleTableRecord
  2
STYLE3
 70
     0
 41
2.5
 42
0.0
 43
3.75
 44
1.25
 73
     0
 74
     0
 77
     1
 78
     8
140
2.5
141
2.5
143
0.0394
147
0.625
171
     4
172
     1
173
     1
176
     2
177
     2
178
     6
271
     1
273
     8
274
     4
340
3F
341
45
343
45
344
45
  0
ENDTAB
  0
TABLE
  2
BLOCK_RECORD
  5
1
330
0
100
AcDbSymbolTable
 70
    13
  0
BLOCK_RECORD
  5
18
102
{ACAD_XDICTIONARY
360
157B
102
}
330
1
100
AcDbSymbolTableRecord
100
AcDbBlockTableRecord
  2
*MODEL_SPACE
340
1553
  0
BLOCK_RECORD
  5
15
330
1
100
AcDbSymbolTableRecord
100
AcDbBlockTableRecord
  2
*PAPER_SPACE
340
1554
  0
BLOCK_RECORD
  5
45
330
1
100
AcDbSymbolTableRecord
100
AcDbBlockTableRecord
  2
_OPEN
340
0
102
{BLKREFS
331
5DA
331
5DB
331
9FC
331
1285
331
1286
331
128D
331
128E
331
12B0
331
12B1
331
1469
331
146A
331
147F
331
1480
331
1495
331
1496
331
14C9
331
14DA
331
1320
331
1321
331
15D8
331
15D9
331
15E1
331
15E2
331
15EA
331
15EB
331
15F5
331
15F6
102
}
  0
BLOCK_RECORD
  5
51C
330
1
100
AcDbSymbolTableRecord
100
AcDbBlockTableRecord
  2
六角ﾈｼ
340
0
102
{BLKREFS
331
523
331
F8A
102
}
  0
BLOCK_RECORD
  5
934
330
1
100
AcDbSymbolTableRecord
100
AcDbBlockTableRecord
  2
*D5
340
0
  0
BLOCK_RECORD
  5
941
330
1
100
AcDbSymbolTableRecord
100
AcDbBlockTableRecord
  2
*D6
340
0
  0
BLOCK_RECORD
  5
121F
330
1
100
AcDbSymbolTableRecord
100
AcDbBlockTableRecord
  2
*D8
340
0
  0
BLOCK_RECORD
  5
1457
330
1
100
AcDbSymbolTableRecord
100
AcDbBlockTableRecord
  2
*D9
340
0
  0
BLOCK_RECORD
  5
155B
330
1
100
AcDbSymbolTableRecord
100
AcDbBlockTableRecord
  2
*D11
340
0
  0
ENDTAB
  0
ENDSEC
  0
SECTION
  2
BLOCKS
  0
BLOCK
  5
19
330
18
100
AcDbEntity
  8
0
100
AcDbBlockBegin
  2
*MODEL_SPACE
 70
     0
 10
0.0
 20
0.0
 30
0.0
  3
*MODEL_SPACE
  1

  0
ENDBLK
  5
1A
330
18
100
AcDbEntity
  8
0
100
AcDbBlockEnd
  0
BLOCK
  5
16
330
15
100
AcDbEntity
 67
     1
  8
0
100
AcDbBlockBegin
  2
*PAPER_SPACE
 70
     0
 10
0.0
 20
0.0
 30
0.0
  3
*PAPER_SPACE
  1

  0
ENDBLK
  5
17
330
15
100
AcDbEntity
 67
     1
  8
0
100
AcDbBlockEnd
  0
BLOCK
  5
46
330
45
100
AcDbEntity
  8
0
100
AcDbBlockBegin
  2
_OPEN
 70
     0
 10
0.0
 20
0.0
 30
0.0
  3
_OPEN
  1

  0
LINE
  5
47
330
45
100
AcDbEntity
  8
0
  6
ByBlock
 62
     0
100
AcDbLine
 10
-1.0
 20
0.1666666666666666
 30
0.0
 11
0.0
 21
0.0
 31
0.0
  0
LINE
  5
48
330
45
100
AcDbEntity
  8
0
  6
ByBlock
 62
     0
100
AcDbLine
 10
0.0
 20
0.0
 30
0.0
 11
-1.0
 21
-0.1666666666666666
 31
0.0
  0
LINE
  5
49
330
45
100
AcDbEntity
  8
0
  6
ByBlock
 62
     0
100
AcDbLine
 10
0.0
 20
0.0
 30
0.0
 11
-1.0
 21
0.0
 31
0.0
  0
ENDBLK
  5
4A
330
45
100
AcDbEntity
  8
0
100
AcDbBlockEnd
  0
BLOCK
  5
521
330
51C
100
AcDbEntity
  8
0
100
AcDbBlockBegin
  2
六角ﾈｼ
 70
     0
 10
0.0
 20
0.0
 30
0.0
  3
六角ﾈｼ
  1

  0
LINE
  5
51D
330
51C
100
AcDbEntity
  8
外形線
 48
0.8
100
AcDbLine
 10
-0.0000000000000568
 20
4.499999999999943
 30
0.0
 11
2.737599573181626
 21
4.499999999999943
 31
0.0
  0
ARC
  5
51E
330
51C
100
AcDbEntity
  8
外形線
100
AcDbCircle
 10
-4.010000000002662
 20
2.599999999999511
 30
0.0
 40
7.010000000002722
100
AcDbArc
 50
338.2289458906957
 51
15.72624379279067
  0
ARC
  5
51F
330
51C
100
AcDbEntity
  8
外形線
100
AcDbCircle
 10
-4.010000000002662
 20
-2.599999999999511
 30
0.0
 40
7.010000000002722
100
AcDbArc
 50
344.2737562072088
 51
21.77105410930435
  0
LINE
  5
520
330
51C
100
AcDbEntity
  8
外形線
 48
0.8
100
AcDbLine
 10
0.0000000000001705
 20
-4.5
 30
0.0
 11
2.737599573181569
 21
-4.5
 31
0.0
  0
ENDBLK
  5
522
330
51C
100
AcDbEntity
  8
0
100
AcDbBlockEnd
  0
BLOCK
  5
1181
330
934
100
AcDbEntity
  8
0
100
AcDbBlockBegin
  2
*D5
 70
     1
 10
0.0
 20
0.0
 30
0.0
  3
*D5
  1

  0
LINE
  5
15DE
330
934
100
AcDbEntity
  8
外形線
 62
     2
370
    -2
100
AcDbLine
 10
244.3421258371988
 20
261.8804962812744
 30
0.0
 11
244.3421258371988
 21
292.8850608346463
 31
0.0
  0
LINE
  5
15DF
330
934
100
AcDbEntity
  8
外形線
 62
     2
370
    -2
100
AcDbLine
 10
434.8343592487029
 20
268.1804962812743
 30
0.0
 11
434.8343592487029
 21
292.8850608346463
 31
0.0
  0
LINE
  5
15E0
330
934
100
AcDbEntity
  8
外形線
 62
     2
370
    -2
100
AcDbLine
 10
246.8421258371988
 20
291.6350608346463
 30
0.0
 11
432.3343592487028
 21
291.6350608346463
 31
0.0
  0
INSERT
  5
15E1
330
934
100
AcDbEntity
  8
外形線
 62
     2
370
    -2
100
AcDbBlockReference
  2
_OPEN
 10
244.3421258371988
 20
291.6350608346463
 30
0.0
 41
2.5
 42
2.5
 43
2.5
 50
180.0
  0
INSERT
  5
15E2
330
934
100
AcDbEntity
  8
外形線
 62
     2
370
    -2
100
AcDbBlockReference
  2
_OPEN
 10
434.8343592487029
 20
291.6350608346463
 30
0.0
 41
2.5
 42
2.5
 43
2.5
  0
MTEXT
  5
15E3
330
934
100
AcDbEntity
  8
外形線
 62
     6
100
AcDbMText
 10
339.5882425429508
 20
293.5100608346463
 30
0.0
 40
2.5
 41
0.0
 71
     5
 72
     1
  1
\A1;246
  7
STYLE3
 73
     1
 44
1.0
  0
POINT
  5
15E4
330
934
100
AcDbEntity
  8
DEFPOINTS
 62
     0
100
AcDbPoint
 10
244.3421258371988
 20
261.8804962812744
 30
0.0
  0
POINT
  5
15E5
330
934
100
AcDbEntity
  8
DEFPOINTS
 62
     0
100
AcDbPoint
 10
434.8343592487029
 20
268.1804962812743
 30
0.0
  0
POINT
  5
15E6
330
934
100
AcDbEntity
  8
DEFPOINTS
 62
     0
100
AcDbPoint
 10
434.8343592487029
 20
291.6350608346463
 30
0.0
  0
ENDBLK
  5
118B
330
934
100
AcDbEntity
  8
0
100
AcDbBlockEnd
  0
BLOCK
  5
959
330
941
100
AcDbEntity
  8
0
100
AcDbBlockBegin
  2
*D6
 70
     1
 10
0.0
 20
0.0
 30
0.0
  3
*D6
  1

  0
LINE
  5
15E7
330
941
100
AcDbEntity
  8
外形線
 62
     2
370
    -2
100
AcDbLine
 10
267.3421258371988
 20
265.2872975852703
 30
0.0
 11
267.3421258371988
 21
284.8198698708161
 31
0.0
  0
LINE
  5
15E8
330
941
100
AcDbEntity
  8
外形線
 62
     2
370
    -2
100
AcDbLine
 10
337.3421258371987
 20
265.2872975852703
 30
0.0
 11
337.3421258371987
 21
284.8198698708161
 31
0.0
  0
LINE
  5
15E9
330
941
100
AcDbEntity
  8
外形線
 62
     2
370
    -2
100
AcDbLine
 10
269.8421258371987
 20
283.5698698708161
 30
0.0
 11
334.8421258371987
 21
283.5698698708161
 31
0.0
  0
INSERT
  5
15EA
330
941
100
AcDbEntity
  8
外形線
 62
     2
370
    -2
100
AcDbBlockReference
  2
_OPEN
 10
267.3421258371988
 20
283.5698698708161
 30
0.0
 41
2.5
 42
2.5
 43
2.5
 50
180.0
  0
INSERT
  5
15EB
330
941
100
AcDbEntity
  8
外形線
 62
     2
370
    -2
100
AcDbBlockReference
  2
_OPEN
 10
337.3421258371987
 20
283.5698698708161
 30
0.0
 41
2.5
 42
2.5
 43
2.5
  0
MTEXT
  5
15EC
330
941
100
AcDbEntity
  8
外形線
 62
     6
100
AcDbMText
 10
302.3421258371988
 20
285.4448698708162
 30
0.0
 40
2.5
 41
0.0
 71
     5
 72
     1
  1
\A1;70
  7
STYLE3
 73
     1
 44
1.0
  0
POINT
  5
15ED
330
941
100
AcDbEntity
  8
DEFPOINTS
 62
     0
100
AcDbPoint
 10
267.3421258371988
 20
265.2872975852703
 30
0.0
  0
POINT
  5
15EE
330
941
100
AcDbEntity
  8
DEFPOINTS
 62
     0
100
AcDbPoint
 10
337.3421258371987
 20
265.2872975852703
 30
0.0
  0
POINT
  5
15EF
330
941
100
AcDbEntity
  8
DEFPOINTS
 62
     0
100
AcDbPoint
 10
337.3421258371987
 20
283.5698698708161
 30
0.0
  0
ENDBLK
  5
963
330
941
100
AcDbEntity
  8
0
100
AcDbBlockEnd
  0
BLOCK
  5
131C
330
121F
100
AcDbEntity
  8
0
100
AcDbBlockBegin
  2
*D8
 70
     1
 10
0.0
 20
0.0
 30
0.0
  3
*D8
  1

  0
LINE
  5
131D
330
121F
100
AcDbEntity
  8
0
  6
ByBlock
 62
     2
100
AcDbLine
 10
434.4595492597282
 20
333.2604960410813
 30
0.0
 11
449.2031993065597
 21
333.2604960410813
 31
0.0
  0
LINE
  5
131E
330
121F
100
AcDbEntity
  8
0
  6
ByBlock
 62
     2
100
AcDbLine
 10
434.4595492597282
 20
315.2604960410814
 30
0.0
 11
449.2031993065597
 21
315.2604960410814
 31
0.0
  0
LINE
  5
131F
330
121F
100
AcDbEntity
  8
0
  6
ByBlock
 62
     2
100
AcDbLine
 10
447.9531993065598
 20
330.7604960410813
 30
0.0
 11
447.9531993065598
 21
317.7604960410814
 31
0.0
  0
INSERT
  5
1320
330
121F
100
AcDbEntity
  8
0
  6
ByBlock
 62
     2
100
AcDbBlockReference
  2
_OPEN
 10
447.9531993065598
 20
333.2604960410813
 30
0.0
 41
2.5
 42
2.5
 43
2.5
 50
90.0
  0
INSERT
  5
1321
330
121F
100
AcDbEntity
  8
0
  6
ByBlock
 62
     2
100
AcDbBlockReference
  2
_OPEN
 10
447.9531993065598
 20
315.2604960410814
 30
0.0
 41
2.5
 42
2.5
 43
2.5
 50
270.0
  0
MTEXT
  5
1322
330
121F
100
AcDbEntity
  8
0
  6
ByBlock
 62
     6
100
AcDbMText
 10
446.0781993065597
 20
324.2604960410814
 30
0.0
 40
2.5
 41
0.0
 71
     5
 72
     1
  1
\A1;18
  7
STYLE3
 11
0.0000000000000001
 21
1.0
 31
0.0
 73
     1
 44
1.0
  0
POINT
  5
1323
330
121F
100
AcDbEntity
  8
DEFPOINTS
  6
ByBlock
 62
     0
100
AcDbPoint
 10
434.4595492597282
 20
333.2604960410813
 30
0.0
  0
POINT
  5
1324
330
121F
100
AcDbEntity
  8
DEFPOINTS
  6
ByBlock
 62
     0
100
AcDbPoint
 10
434.4595492597282
 20
315.2604960410814
 30
0.0
  0
POINT
  5
1325
330
121F
100
AcDbEntity
  8
DEFPOINTS
  6
ByBlock
 62
     0
100
AcDbPoint
 10
447.9531993065598
 20
315.2604960410814
 30
0.0
  0
ENDBLK
  5
1326
330
121F
100
AcDbEntity
  8
0
100
AcDbBlockEnd
  0
BLOCK
  5
1458
330
1457
100
AcDbEntity
  8
0
100
AcDbBlockBegin
  2
*D9
 70
     1
 10
0.0
 20
0.0
 30
0.0
  3
*D9
  1

  0
LINE
  5
15F0
330
1457
100
AcDbEntity
  8
寸法線
 62
     2
370
    -2
100
AcDbLine
 10
431.8343592487029
 20
235.1804962812744
 30
0.0
 11
443.4394609331002
 21
235.1804962812744
 31
0.0
  0
LINE
  5
15F1
330
1457
100
AcDbEntity
  8
寸法線
 62
     2
370
    -2
100
AcDbLine
 10
440.1217793886689
 20
240.1804962812744
 30
0.0
 11
443.4394609331002
 21
240.1804962812744
 31
0.0
  0
LINE
  5
15F2
330
1457
100
AcDbEntity
  8
寸法線
 62
     2
370
    -2
100
AcDbLine
 10
442.1894609331002
 20
232.6804962812744
 30
0.0
 11
442.1894609331002
 21
230.1804962812744
 31
0.0
  0
LINE
  5
15F3
330
1457
100
AcDbEntity
  8
寸法線
 62
     2
370
    -2
100
AcDbLine
 10
442.1894609331002
 20
242.6804962812744
 30
0.0
 11
442.1894609331002
 21
245.1804962812744
 31
0.0
  0
LINE
  5
15F4
330
1457
100
AcDbEntity
  8
寸法線
 62
     2
370
    -2
100
AcDbLine
 10
442.1894609331002
 20
235.1804962812744
 30
0.0
 11
442.1894609331002
 21
240.1804962812744
 31
0.0
  0
INSERT
  5
15F5
330
1457
100
AcDbEntity
  8
寸法線
 62
     2
370
    -2
100
AcDbBlockReference
  2
_OPEN
 10
442.1894609331002
 20
235.1804962812744
 30
0.0
 41
2.5
 42
2.5
 43
2.5
 50
90.0
  0
INSERT
  5
15F6
330
1457
100
AcDbEntity
  8
寸法線
 62
     2
370
    -2
100
AcDbBlockReference
  2
_OPEN
 10
442.1894609331002
 20
240.1804962812744
 30
0.0
 41
2.5
 42
2.5
 43
2.5
 50
270.0
  0
MTEXT
  5
15F7
330
1457
100
AcDbEntity
  8
寸法線
 62
     6
100
AcDbMText
 10
440.3144609331001
 20
237.6804962812745
 30
0.0
 40
2.5
 41
0.0
 71
     5
 72
     1
  1
\A1;5
  7
STYLE3
 11
0.0000000000000001
 21
1.0
 31
0.0
 73
     1
 44
1.0
  0
POINT
  5
15F8
330
1457
100
AcDbEntity
  8
DEFPOINTS
 62
     0
100
AcDbPoint
 10
431.8343592487029
 20
235.1804962812744
 30
0.0
  0
POINT
  5
15F9
330
1457
100
AcDbEntity
  8
DEFPOINTS
 62
     0
100
AcDbPoint
 10
440.1217793886689
 20
240.1804962812744
 30
0.0
  0
POINT
  5
15FA
330
1457
100
AcDbEntity
  8
DEFPOINTS
 62
     0
100
AcDbPoint
 10
442.1894609331002
 20
240.1804962812744
 30
0.0
  0
ENDBLK
  5
1464
330
1457
100
AcDbEntity
  8
0
100
AcDbBlockEnd
  0
BLOCK
  5
1565
330
155B
100
AcDbEntity
  8
0
100
AcDbBlockBegin
  2
*D11
 70
     1
 10
0.0
 20
0.0
 30
0.0
  3
*D11
  1

  0
LINE
  5
15D5
330
155B
100
AcDbEntity
  8
寸法線
 62
     2
370
    -2
100
AcDbLine
 10
244.3421258371988
 20
261.8804962812744
 30
0.0
 11
244.3421258371988
 21
284.8198698708161
 31
0.0
  0
LINE
  5
15D6
330
155B
100
AcDbEntity
  8
寸法線
 62
     2
370
    -2
100
AcDbLine
 10
267.3421258371988
 20
265.2872975852703
 30
0.0
 11
267.3421258371988
 21
284.8198698708161
 31
0.0
  0
LINE
  5
15D7
330
155B
100
AcDbEntity
  8
寸法線
 62
     2
370
    -2
100
AcDbLine
 10
246.8421258371988
 20
283.5698698708161
 30
0.0
 11
264.8421258371988
 21
283.5698698708161
 31
0.0
  0
INSERT
  5
15D8
330
155B
100
AcDbEntity
  8
寸法線
 62
     2
370
    -2
100
AcDbBlockReference
  2
_OPEN
 10
244.3421258371988
 20
283.5698698708161
 30
0.0
 41
2.5
 42
2.5
 43
2.5
 50
180.0
  0
INSERT
  5
15D9
330
155B
100
AcDbEntity
  8
寸法線
 62
     2
370
    -2
100
AcDbBlockReference
  2
_OPEN
 10
267.3421258371988
 20
283.5698698708161
 30
0.0
 41
2.5
 42
2.5
 43
2.5
  0
MTEXT
  5
15DA
330
155B
100
AcDbEntity
  8
寸法線
 62
     6
100
AcDbMText
 10
255.8421258371987
 20
285.4448698708162
 30
0.0
 40
2.5
 41
0.0
 71
     5
 72
     1
  1
\A1;23
  7
STYLE3
 73
     1
 44
1.0
  0
POINT
  5
15DB
330
155B
100
AcDbEntity
  8
DEFPOINTS
 62
     0
100
AcDbPoint
 10
244.3421258371988
 20
261.8804962812744
 30
0.0
  0
POINT
  5
15DC
330
155B
100
AcDbEntity
  8
DEFPOINTS
 62
     0
100
AcDbPoint
 10
267.3421258371988
 20
265.2872975852703
 30
0.0
  0
POINT
  5
15DD
330
155B
100
AcDbEntity
  8
DEFPOINTS
 62
     0
100
AcDbPoint
 10
267.3421258371988
 20
283.5698698708161
 30
0.0
  0
ENDBLK
  5
1566
330
155B
100
AcDbEntity
  8
0
100
AcDbBlockEnd
  0
ENDSEC
  0
SECTION
  2
ENTITIES
  0
LWPOLYLINE
  5
10B
330
18
100
AcDbEntity
  8
C
100
AcDbPolyline
 90
        5
 70
     0
 43
0.4
 10
236.6915604445414
 20
366.8501752555372
 10
491.6915604445414
 20
366.8501752555372
 10
491.6915604445414
 20
171.8501752555372
 10
236.6915604445414
 20
171.8501752555372
 10
236.6915604445414
 20
366.8501752555372
  0
LINE
  5
16A
330
18
100
AcDbEntity
  8
中心線
 48
0.5
100
AcDbLine
 10
242.0024242177125
 20
258.1804962812745
 30
0.0
 11
437.8360280354223
 21
258.1804962812744
 31
0.0
  0
LINE
  5
16C
102
{ACAD_REACTORS
330
317
102
}
330
18
100
AcDbEntity
  8
外形線
100
AcDbLine
 10
307.3421258371987
 20
268.1398101049279
 30
0.0
 11
307.3421258371987
 21
262.1804962812745
 31
0.0
  0
LINE
  5
16D
102
{ACAD_REACTORS
330
317
102
}
330
18
100
AcDbEntity
  8
外形線
100
AcDbLine
 10
327.3421258371988
 20
267.1617201954926
 30
0.0
 11
327.3421258371989
 21
260.1804962812745
 31
0.0
  0
LINE
  5
16E
330
18
100
AcDbEntity
  8
外形線
100
AcDbLine
 10
337.3421258371987
 20
265.2872975852703
 30
0.0
 11
337.3421258371987
 21
251.0736949772786
 31
0.0
  0
LINE
  5
171
330
18
100
AcDbEntity
  8
外形線
100
AcDbLine
 10
267.3421258371988
 20
265.2872975852703
 30
0.0
 11
267.3421258371988
 21
264.1804962812746
 31
0.0
  0
ARC
  5
173
102
{ACAD_REACTORS
330
317
102
}
330
18
100
AcDbEntity
  8
外形線
100
AcDbCircle
 10
302.3421258371988
 20
-39.06950371872557
 30
0.0
 40
307.25
100
AcDbArc
 50
83.62585904071393
 51
96.37414095928605
  0
ARC
  5
175
102
{ACAD_REACTORS
330
317
102
}
330
18
100
AcDbEntity
  8
外形線
100
AcDbCircle
 10
302.3421258371988
 20
555.4304962812743
 30
0.0
 40
307.25
100
AcDbArc
 50
263.6258590407139
 51
276.3741409592861
  0
LINE
  5
176
330
18
100
AcDbEntity
  8
外形線
100
AcDbLine
 10
317.3421258371988
 20
261.6804962812745
 30
0.0
 11
317.3421258371988
 21
254.6804962812744
 31
0.0
  0
LINE
  5
177
330
18
100
AcDbEntity
  8
外形線
100
AcDbLine
 10
287.3421258371987
 20
261.6804962812745
 30
0.0
 11
287.3421258371987
 21
254.6804962812744
 31
0.0
  0
LINE
  5
178
330
18
100
AcDbEntity
  8
外形線
100
AcDbLine
 10
287.3421258371987
 20
261.6804962812745
 30
0.0
 11
317.3421258371988
 21
261.6804962812745
 31
0.0
  0
LINE
  5
179
330
18
100
AcDbEntity
  8
外形線
100
AcDbLine
 10
287.3421258371987
 20
254.6804962812744
 30
0.0
 11
317.3421258371988
 21
254.6804962812744
 31
0.0
  0
LINE
  5
17A
102
{ACAD_REACTORS
330
317
102
}
330
18
100
AcDbEntity
  8
外形線
100
AcDbLine
 10
307.3421258371987
 20
262.1804962812745
 30
0.0
 11
317.8421258371987
 21
262.1804962812745
 31
0.0
  0
LINE
  5
17C
102
{ACAD_REACTORS
330
317
102
}
330
18
100
AcDbEntity
  8
外形線
100
AcDbLine
 10
317.8421258371987
 20
260.1804962812745
 30
0.0
 11
327.3421258371989
 21
260.1804962812745
 31
0.0
  0
LINE
  5
17F
102
{ACAD_REACTORS
330
317
102
}
330
18
100
AcDbEntity
  8
外形線
100
AcDbLine
 10
317.8421258371987
 20
262.1804962812745
 30
0.0
 11
317.8421258371987
 21
260.1804962812745
 31
0.0
  0
LINE
  5
181
102
{ACAD_REACTORS
330
317
102
}
330
18
100
AcDbEntity
  8
外形線
100
AcDbLine
 10
317.8421258371987
 20
256.1804962812745
 30
0.0
 11
327.3421258371989
 21
256.1804962812745
 31
0.0
  0
LINE
  5
182
102
{ACAD_REACTORS
330
317
102
}
330
18
100
AcDbEntity
  8
外形線
100
AcDbLine
 10
327.3421258371988
 20
249.1992723670563
 30
0.0
 11
327.3421258371989
 21
256.1804962812745
 31
0.0
  0
LINE
  5
183
102
{ACAD_REACTORS
330
317
102
}
330
18
100
AcDbEntity
  8
外形線
100
AcDbLine
 10
317.8421258371987
 20
254.1804962812745
 30
0.0
 11
317.8421258371987
 21
256.1804962812745
 31
0.0
  0
LINE
  5
184
102
{ACAD_REACTORS
330
317
102
}
330
18
100
AcDbEntity
  8
外形線
100
AcDbLine
 10
307.3421258371987
 20
254.1804962812745
 30
0.0
 11
317.8421258371987
 21
254.1804962812745
 31
0.0
  0
LINE
  5
185
102
{ACAD_REACTORS
330
317
102
}
330
18
100
AcDbEntity
  8
外形線
100
AcDbLine
 10
307.3421258371987
 20
248.221182457621
 30
0.0
 11
307.3421258371987
 21
254.1804962812745
 31
0.0
  0
LINE
  5
186
102
{ACAD_REACTORS
330
317
102
}
330
18
100
AcDbEntity
  8
外形線
100
AcDbLine
 10
277.3421258371988
 20
249.1992723670563
 30
0.0
 11
277.3421258371986
 21
256.1804962812745
 31
0.0
  0
LINE
  5
188
102
{ACAD_REACTORS
330
317
102
}
330
18
100
AcDbEntity
  8
外形線
100
AcDbLine
 10
297.3421258371987
 20
248.221182457621
 30
0.0
 11
297.3421258371987
 21
254.1804962812745
 31
0.0
  0
LINE
  5
189
102
{ACAD_REACTORS
330
317
102
}
330
18
100
AcDbEntity
  8
外形線
100
AcDbLine
 10
297.3421258371987
 20
254.1804962812745
 30
0.0
 11
286.8421258371988
 21
254.1804962812745
 31
0.0
  0
LINE
  5
18A
102
{ACAD_REACTORS
330
317
102
}
330
18
100
AcDbEntity
  8
外形線
100
AcDbLine
 10
286.8421258371988
 20
254.1804962812745
 30
0.0
 11
286.8421258371988
 21
256.1804962812745
 31
0.0
  0
LINE
  5
18B
102
{ACAD_REACTORS
330
317
102
}
330
18
100
AcDbEntity
  8
外形線
100
AcDbLine
 10
286.8421258371988
 20
256.1804962812745
 30
0.0
 11
277.3421258371986
 21
256.1804962812745
 31
0.0
  0
LINE
  5
18D
102
{ACAD_REACTORS
330
317
102
}
330
18
100
AcDbEntity
  8
外形線
100
AcDbLine
 10
297.3421258371987
 20
268.1398101049279
 30
0.0
 11
297.3421258371987
 21
262.1804962812745
 31
0.0
  0
LINE
  5
18E
102
{ACAD_REACTORS
330
317
102
}
330
18
100
AcDbEntity
  8
外形線
100
AcDbLine
 10
286.8421258371988
 20
260.1804962812745
 30
0.0
 11
277.3421258371986
 21
260.1804962812745
 31
0.0
  0
LINE
  5
18F
102
{ACAD_REACTORS
330
317
102
}
330
18
100
AcDbEntity
  8
外形線
100
AcDbLine
 10
277.3421258371988
 20
267.1617201954926
 30
0.0
 11
277.3421258371986
 21
260.1804962812745
 31
0.0
  0
LINE
  5
190
102
{ACAD_REACTORS
330
317
102
}
330
18
100
AcDbEntity
  8
外形線
100
AcDbLine
 10
286.8421258371988
 20
262.1804962812745
 30
0.0
 11
286.8421258371988
 21
260.1804962812745
 31
0.0
  0
LINE
  5
191
102
{ACAD_REACTORS
330
317
102
}
330
18
100
AcDbEntity
  8
外形線
100
AcDbLine
 10
297.3421258371987
 20
262.1804962812745
 30
0.0
 11
286.8421258371988
 21
262.1804962812745
 31
0.0
  0
TEXT
  5
1AE
330
18
100
AcDbEntity
  8
文字
100
AcDbText
 10
295.7715195493106
 20
256.9534379659489
 30
0.0
 40
2.5
  1
35-60mm
  7
STYLE3
100
AcDbText
  0
LINE
  5
1B2
330
18
100
AcDbEntity
  8
外形線
100
AcDbLine
 10
337.3421258371987
 20
263.1804962812744
 30
0.0
 11
363.9568567540261
 21
263.1804962812743
 31
0.0
  0
LINE
  5
1B3
330
18
100
AcDbEntity
  8
外形線
100
AcDbLine
 10
337.3421258371987
 20
253.1804962812745
 30
0.0
 11
360.600151173839
 21
253.1804962812744
 31
0.0
  0
LINE
  5
1C3
330
18
100
AcDbEntity
  8
外形線
100
AcDbLine
 10
367.4878185186703
 20
263.1804962812744
 30
0.0
 11
400.8343592487028
 21
263.1804962812743
 31
0.0
  0
LINE
  5
1C4
330
18
100
AcDbEntity
  8
外形線
100
AcDbLine
 10
364.1311129384831
 20
253.1804962812745
 30
0.0
 11
400.834359248703
 21
253.1804962812744
 31
0.0
  0
ARC
  5
24E
330
18
100
AcDbEntity
  8
外形線
100
AcDbCircle
 10
268.3421258371987
 20
265.2872975852703
 30
0.0
 40
1.0
100
AcDbArc
 50
96.37414095927951
 51
180.0
  0
ARC
  5
24F
330
18
100
AcDbEntity
  8
外形線
100
AcDbCircle
 10
268.3421258371987
 20
251.0736949772786
 30
0.0
 40
1.0
100
AcDbArc
 50
180.0
 51
263.6258590407112
  0
ARC
  5
250
330
18
100
AcDbEntity
  8
外形線
100
AcDbCircle
 10
336.3421258371988
 20
265.2872975852703
 30
0.0
 40
1.0
100
AcDbArc
 50
0.0
 51
83.62585904071403
  0
ARC
  5
251
330
18
100
AcDbEntity
  8
外形線
100
AcDbCircle
 10
336.3421258371988
 20
251.0736949772786
 30
0.0
 40
1.0
100
AcDbArc
 50
276.3741409592856
 51
0.0
  0
LINE
  5
253
330
18
100
AcDbEntity
  8
外形線
100
AcDbLine
 10
244.3421258371988
 20
262.8804962812745
 30
0.0
 11
244.3421258371988
 21
255.9899713005856
 31
0.0
  0
LINE
  5
254
330
18
100
AcDbEntity
  8
外形線
100
AcDbLine
 10
266.3421258371987
 20
263.1804962812745
 30
0.0
 11
266.3421258371987
 21
253.1804962812745
 31
0.0
  0
LINE
  5
255
330
18
100
AcDbEntity
  8
外形線
100
AcDbLine
 10
255.3421258371987
 20
263.1804962812745
 30
0.0
 11
255.3421258371987
 21
255.9899713005856
 31
0.0
  0
LINE
  5
256
330
18
100
AcDbEntity
  8
外形線
100
AcDbLine
 10
255.3421258371987
 20
263.1804962812745
 30
0.0
 11
266.3421258371987
 21
263.1804962812745
 31
0.0
  0
LINE
  5
257
330
18
100
AcDbEntity
  8
外形線
100
AcDbLine
 10
257.2583243242945
 20
253.1804962812745
 30
0.0
 11
266.3421258371987
 21
253.1804962812745
 31
0.0
  0
LINE
  5
25C
330
18
100
AcDbEntity
  8
外形線
100
AcDbLine
 10
267.3421258371987
 20
252.1804962812745
 30
0.0
 11
267.3421258371987
 21
251.0736949772786
 31
0.0
  0
LINE
  5
25E
330
18
100
AcDbEntity
  8
外形線
100
AcDbLine
 10
267.3421258371988
 20
264.1804962812746
 30
0.0
 11
267.3421258371987
 21
252.1804962812745
 31
0.0
  0
ARC
  5
25F
330
18
100
AcDbEntity
  8
外形線
100
AcDbCircle
 10
265.1062772856445
 20
251.0073238634435
 30
0.0
 40
2.5
100
AcDbArc
 50
26.57629387126569
 51
60.37379958472584
  0
ARC
  5
260
330
18
100
AcDbEntity
  8
外形線
100
AcDbCircle
 10
265.1062772856445
 20
265.3536686991054
 30
0.0
 40
2.5
100
AcDbArc
 50
299.6262004152742
 51
333.4237061287343
  0
LINE
  5
261
330
18
100
AcDbEntity
  8
外形線
100
AcDbLine
 10
245.3421258371988
 20
263.3804962812745
 30
0.0
 11
254.3421258371987
 21
263.3804962812745
 31
0.0
  0
LINE
  5
263
330
18
100
AcDbEntity
  8
外形線
100
AcDbLine
 10
245.3421258371987
 20
262.3804962812745
 30
0.0
 11
254.3421258371987
 21
262.3804962812745
 31
0.0
  0
LINE
  5
264
330
18
100
AcDbEntity
  8
外形線
100
AcDbLine
 10
254.3421258371988
 20
263.3804962812745
 30
0.0
 11
254.3421258371988
 21
262.3804962812745
 31
0.0
  0
LINE
  5
265
330
18
100
AcDbEntity
  8
外形線
100
AcDbLine
 10
245.3421258371987
 20
263.3804962812745
 30
0.0
 11
245.3421258371987
 21
262.3804962812745
 31
0.0
  0
LINE
  5
26B
330
18
100
AcDbEntity
  8
外形線
100
AcDbLine
 10
254.3421258371988
 20
262.3804962812745
 30
0.0
 11
255.3421258371987
 21
261.8804962812744
 31
0.0
  0
LINE
  5
26C
330
18
100
AcDbEntity
  8
外形線
100
AcDbLine
 10
254.3421258371988
 20
263.3804962812745
 30
0.0
 11
255.3421258371987
 21
262.8804962812745
 31
0.0
  0
LINE
  5
273
330
18
100
AcDbEntity
  8
外形線
100
AcDbLine
 10
245.3421258371987
 20
263.3804962812745
 30
0.0
 11
244.3421258371988
 21
262.8804962812745
 31
0.0
  0
LINE
  5
274
330
18
100
AcDbEntity
  8
外形線
100
AcDbLine
 10
245.3421258371987
 20
262.3804962812745
 30
0.0
 11
244.3421258371988
 21
261.8804962812744
 31
0.0
  0
LINE
  5
275
330
18
100
AcDbEntity
  8
外形線
100
AcDbLine
 10
245.3421258371987
 20
263.3804962812745
 30
0.0
 11
245.3421258371987
 21
262.3804962812745
 31
0.0
  0
LINE
  5
276
330
18
100
AcDbEntity
  8
中心線
 48
0.4
100
AcDbLine
 10
249.8421258371988
 20
261.2665919718491
 30
0.0
 11
249.8421258371987
 21
239.0944005906999
 31
0.0
  0
LINE
  5
277
330
18
100
AcDbEntity
  8
中心線
 48
0.4
100
AcDbLine
 10
239.3562651515941
 20
250.1804962812745
 30
0.0
 11
260.2239344570425
 21
250.1804962812745
 31
0.0
  0
CIRCLE
  5
278
330
18
100
AcDbEntity
  8
外形線
100
AcDbCircle
 10
249.8421258371987
 20
250.1804962812745
 30
0.0
 40
8.0
  0
TEXT
  5
27E
330
18
100
AcDbEntity
  8
文字
100
AcDbText
 10
289.6201135272969
 20
256.803419317064
 30
0.0
 40
1.0
  1
CG-2
  7
STYLE3
100
AcDbText
  0
ARC
  5
2F6
102
{ACAD_REACTORS
330
317
102
}
330
18
100
AcDbEntity
  8
外形線
100
AcDbCircle
 10
287.3421258371987
 20
248.0304998162804
 30
0.0
 40
2.0
100
AcDbArc
 50
12.33039196868931
 51
162.0823891309169
  0
HATCH
  5
317
330
18
100
AcDbEntity
  8
ﾊｯﾁﾝｸ
100
AcDbHatch
 10
0.0
 20
0.0
 30
0.0
210
0.0
220
0.0
230
1.0
  2
DOTS
 70
     0
 71
     1
 91
        4
 92
        7
 72
     1
 73
     1
 93
        6
 10
286.8421258371988
 20
260.1804962812745
 42
0.0
 10
286.8421258371988
 20
262.1804962812745
 42
0.0
 10
297.3421258371987
 20
262.1804962812745
 42
0.0
 10
297.3421258371987
 20
268.1398101049278
 42
0.0162971688498792
 10
277.3421258371988
 20
267.1617201954926
 42
0.0
 10
277.3421258371986
 20
260.1804962812745
 42
0.0
 97
        6
330
173
330
18F
330
18E
330
190
330
191
330
18D
 92
        7
 72
     1
 73
     1
 93
        6
 10
317.8421258371987
 20
262.1804962812745
 42
0.0
 10
317.8421258371987
 20
260.1804962812745
 42
0.0
 10
327.3421258371988
 20
260.1804962812745
 42
0.0
 10
327.3421258371988
 20
267.1617201954926
 42
0.0162971688498792
 10
307.3421258371987
 20
268.1398101049278
 42
0.0
 10
307.3421258371987
 20
262.1804962812745
 42
0.0
 97
        6
330
173
330
16C
330
17A
330
17F
330
17C
330
16D
 92
        7
 72
     1
 73
     1
 93
        6
 10
327.3421258371988
 20
249.1992723670565
 42
0.0
 10
327.3421258371988
 20
256.1804962812744
 42
0.0
 10
317.8421258371987
 20
256.1804962812745
 42
0.0
 10
317.8421258371987
 20
254.1804962812744
 42
0.0
 10
307.3421258371987
 20
254.1804962812744
 42
0.0
 10
307.3421258371987
 20
248.221182457621
 42
0.0162971688498792
 97
        6
330
181
330
183
330
184
330
185
330
175
330
182
 92
        7
 72
     1
 73
     1
 93
        8
 10
285.4391260623012
 20
248.645798001504
 42
-0.7656091570196754
 10
289.2959907115299
 20
248.4575970567944
 42
0.0065500023894979
 10
297.3421258371987
 20
248.221182457621
 42
0.0
 10
297.3421258371987
 20
254.1804962812744
 42
0.0
 10
286.8421258371988
 20
254.1804962812744
 42
0.0
 10
286.8421258371988
 20
256.1804962812745
 42
0.0
 10
277.3421258371986
 20
256.1804962812744
 42
0.0
 10
277.3421258371988
 20
249.1992723670564
 42
0.006603945187105
 97
        7
330
189
330
18A
330
18B
330
186
330
175
330
2F6
330
188
 75
     0
 76
     1
 52
0.0
 41
0.4
 77
     0
 78
     1
 53
0.0
 43
-7.827695927226045
 44
22.29017683865533
 45
0.3175
 46
0.635
 79
     2
 49
0.0
 49
-0.635
 47
0.3765170278403226
 98
        4
 10
281.7740953786696
 20
263.0643811308192
 10
320.5873989843543
 20
263.4408978870238
 10
320.9642270499216
 20
251.0158362865233
 10
283.6582365097719
 20
251.768870253972
  0
POINT
  5
39F
330
18
100
AcDbEntity
  8
DEFPOINTS
  6
ByBlock
 62
     0
100
AcDbPoint
 10
244.3421258371988
 20
261.8804962812744
 30
0.0
  0
POINT
  5
3A7
330
18
100
AcDbEntity
  8
DEFPOINTS
  6
ByBlock
 62
     0
100
AcDbPoint
 10
337.3421258371987
 20
265.2872975852703
 30
0.0
  0
LINE
  5
403
330
18
100
AcDbEntity
  8
外形線
100
AcDbLine
 10
315.8421258371988
 20
260.6804962812745
 30
0.0
 11
315.8421258371987
 21
255.6804962812745
 31
0.0
  0
LINE
  5
404
330
18
100
AcDbEntity
  8
外形線
100
AcDbLine
 10
288.8421258371987
 20
260.6804962812745
 30
0.0
 11
288.8421258371987
 21
255.6804962812745
 31
0.0
  0
LINE
  5
405
330
18
100
AcDbEntity
  8
外形線
100
AcDbLine
 10
288.8421258371987
 20
260.6804962812745
 30
0.0
 11
315.8421258371988
 21
260.6804962812745
 31
0.0
  0
LINE
  5
406
330
18
100
AcDbEntity
  8
外形線
100
AcDbLine
 10
288.8421258371987
 20
255.6804962812745
 30
0.0
 11
315.8421258371987
 21
255.6804962812745
 31
0.0
  0
LINE
  5
4DE
330
18
100
AcDbEntity
  8
外形線
100
AcDbLine
 10
365.7189431815248
 20
317.6080042522508
 30
0.0
 11
400.834359248703
 21
317.6080042522507
 31
0.0
  0
LINE
  5
4DF
330
18
100
AcDbEntity
  8
外形線
100
AcDbLine
 10
369.0756485756135
 20
327.6080042443091
 30
0.0
 11
400.834359248703
 21
327.6080042522508
 31
0.0
  0
INSERT
  5
523
330
18
100
AcDbEntity
  8
外形線
100
AcDbBlockReference
  2
六角ﾈｼ
 10
400.834359248703
 20
258.1804962812744
 30
0.0
 41
-1.0
 50
180.0
  0
LINE
  5
524
330
18
100
AcDbEntity
  8
外形線
100
AcDbLine
 10
400.8343592487029
 20
327.8080042522508
 30
0.0
 11
400.8343592487031
 21
317.4080042522508
 31
0.0
  0
LINE
  5
525
330
18
100
AcDbEntity
  8
外形線
100
AcDbLine
 10
403.3343592487034
 20
258.1804962812744
 30
0.0
 11
400.834359248703
 21
258.1804962812744
 31
0.0
  0
LINE
  5
527
330
18
100
AcDbEntity
  8
中心線
 48
0.5
100
AcDbLine
 10
364.2251407025581
 20
322.6080042522506
 30
0.0
 11
436.986996848908
 21
322.6080042522506
 31
0.0
  0
POINT
  5
581
330
18
100
AcDbEntity
  8
DEFPOINTS
  6
ByBlock
 62
     0
100
AcDbPoint
 10
337.3421258371987
 20
265.2872975852703
 30
0.0
  0
LINE
  5
5D9
330
18
100
AcDbEntity
  8
0
  6
ByBlock
 62
     2
100
AcDbLine
 10
374.293516520164
 20
260.6804962812744
 30
0.0
 11
374.293516520164
 21
255.6804962812745
 31
0.0
  0
INSERT
  5
5DA
330
18
100
AcDbEntity
  8
0
  6
ByBlock
 62
     2
100
AcDbBlockReference
  2
_OPEN
 10
374.293516520164
 20
263.1804962812744
 30
0.0
 41
2.5
 42
2.5
 43
2.5
 50
90.0
  0
INSERT
  5
5DB
330
18
100
AcDbEntity
  8
0
  6
ByBlock
 62
     2
100
AcDbBlockReference
  2
_OPEN
 10
374.293516520164
 20
253.1804962812745
 30
0.0
 41
2.5
 42
2.5
 43
2.5
 50
270.0
  0
MTEXT
  5
5DC
330
18
100
AcDbEntity
  8
0
  6
ByBlock
 62
     6
100
AcDbMText
 10
372.418516520164
 20
257.4832068673181
 30
0.0
 40
2.5
 41
0.0
 71
     5
 72
     1
  1
φ10
  7
STYLE3
 11
0.0000000000000001
 21
1.0
 31
0.0
 73
     1
 44
1.0
  0
POINT
  5
66B
330
18
100
AcDbEntity
  8
DEFPOINTS
  6
ByBlock
 62
     0
100
AcDbPoint
 10
431.8343592487028
 20
326.6580042522506
 30
0.0
  0
POINT
  5
66C
330
18
100
AcDbEntity
  8
DEFPOINTS
  6
ByBlock
 62
     0
100
AcDbPoint
 10
431.8343592487028
 20
318.5580042522506
 30
0.0
  0
LINE
  5
766
330
18
100
AcDbEntity
  8
外形線
100
AcDbLine
 10
400.8343592487029
 20
327.8080042522508
 30
0.0
 11
403.3343592487028
 21
327.8080042522508
 31
0.0
  0
LINE
  5
767
330
18
100
AcDbEntity
  8
外形線
100
AcDbLine
 10
403.3343592487034
 20
325.2080042522508
 30
0.0
 11
400.834359248703
 21
325.2080042522508
 31
0.0
  0
LINE
  5
768
330
18
100
AcDbEntity
  8
外形線
100
AcDbLine
 10
403.334359248703
 20
320.0080042522507
 30
0.0
 11
400.8343592487029
 21
320.0080042522507
 31
0.0
  0
LINE
  5
769
330
18
100
AcDbEntity
  8
外形線
100
AcDbLine
 10
400.8343592487031
 20
317.4080042522508
 30
0.0
 11
403.3343592487028
 21
317.4080042522508
 31
0.0
  0
LINE
  5
76A
330
18
100
AcDbEntity
  8
外形線
100
AcDbLine
 10
400.8343592487028
 20
263.1804962812743
 30
0.0
 11
400.834359248703
 21
253.1804962812744
 31
0.0
  0
ARC
  5
76B
330
18
100
AcDbEntity
  8
外形線
100
AcDbCircle
 10
401.8943592487027
 20
318.7080042522509
 30
0.0
 40
1.940000000000166
100
AcDbArc
 50
317.9249779491558
 51
42.07502205083457
  0
ARC
  5
76C
330
18
100
AcDbEntity
  8
外形線
100
AcDbCircle
 10
396.8243592487003
 20
322.6080042522513
 30
0.0
 40
7.010000000002722
100
AcDbArc
 50
338.2289458906867
 51
21.77105410930435
  0
ARC
  5
76D
330
18
100
AcDbEntity
  8
外形線
100
AcDbCircle
 10
401.8943592487027
 20
326.5080042522506
 30
0.0
 40
1.940000000000166
100
AcDbArc
 50
317.9249779491655
 51
42.07502205084424
  0
LINE
  5
76E
330
18
100
AcDbEntity
  8
外形線
100
AcDbLine
 10
403.8343592487029
 20
318.7080042522509
 30
0.0
 11
403.8343592487029
 21
326.5080042522506
 31
0.0
  0
LINE
  5
778
330
18
100
AcDbEntity
  8
外形線
100
AcDbLine
 10
404.834359248703
 20
266.1804962812744
 30
0.0
 11
404.834359248703
 21
264.3261402050137
 31
0.0
  0
LINE
  5
77A
330
18
100
AcDbEntity
  8
外形線
100
AcDbLine
 10
425.3343592487029
 20
267.1804962812743
 30
0.0
 11
425.3343592487028
 21
265.4928236385623
 31
0.0
  0
LINE
  5
77B
330
18
100
AcDbEntity
  8
外形線
100
AcDbLine
 10
434.8343592487029
 20
268.1804962812743
 30
0.0
 11
434.8343592487032
 21
238.1135089831667
 31
0.0
  0
LINE
  5
77C
330
18
100
AcDbEntity
  8
外形線
100
AcDbLine
 10
405.834359248703
 20
252.1804962812744
 30
0.0
 11
422.334359248703
 21
252.1804962812744
 31
0.0
  0
LINE
  5
77D
330
18
100
AcDbEntity
  8
外形線
100
AcDbLine
 10
426.3343592487029
 20
268.1804962812743
 30
0.0
 11
430.2916888572866
 21
268.1804962812743
 31
0.0
  0
LINE
  5
77E
330
18
100
AcDbEntity
  8
外形線
100
AcDbLine
 10
403.834359248703
 20
261.9304962812744
 30
0.0
 11
404.834359248703
 21
261.9304962812744
 31
0.0
  0
LINE
  5
77F
330
18
100
AcDbEntity
  8
外形線
100
AcDbLine
 10
403.8343592487029
 20
254.4304962812744
 30
0.0
 11
404.834359248703
 21
254.4304962812744
 31
0.0
  0
LINE
  5
780
330
18
100
AcDbEntity
  8
外形線
100
AcDbLine
 10
404.834359248703
 20
266.1804962812744
 30
0.0
 11
410.6659951792247
 21
266.1804962812744
 31
0.0
  0
LINE
  5
78D
330
18
100
AcDbEntity
  8
外形線
100
AcDbLine
 10
422.3343592487029
 20
260.6804962812744
 30
0.0
 11
422.3343592487029
 21
259.8204893090578
 31
0.0
  0
LINE
  5
78E
330
18
100
AcDbEntity
  8
中心線
 48
0.5
100
AcDbLine
 10
407.3343592487029
 20
266.8902201895051
 30
0.0
 11
407.3343592487029
 21
259.8131833863695
 31
0.0
  0
LINE
  5
78F
330
18
100
AcDbEntity
  8
中心線
 48
0.5
100
AcDbLine
 10
403.9660706431307
 20
263.1804962812744
 30
0.0
 11
410.3027872704904
 21
263.1804962812744
 31
0.0
  0
CIRCLE
  5
790
330
18
100
AcDbEntity
  8
外形線
100
AcDbCircle
 10
407.3343592487028
 20
263.1804962812744
 30
0.0
 40
1.5
  0
LINE
  5
792
330
18
100
AcDbEntity
  8
中心線
 48
0.5
100
AcDbLine
 10
427.3343592487028
 20
267.2754328306959
 30
0.0
 11
427.3343592487029
 21
264.0855597318528
 31
0.0
  0
LINE
  5
793
330
18
100
AcDbEntity
  8
中心線
 48
0.5
100
AcDbLine
 10
425.7394226992813
 20
265.6804962812743
 30
0.0
 11
428.9292957981244
 21
265.6804962812743
 31
0.0
  0
CIRCLE
  5
794
330
18
100
AcDbEntity
  8
外形線
100
AcDbCircle
 10
427.3343592487028
 20
265.6804962812743
 30
0.0
 40
0.9849999999999999
  0
LINE
  5
797
330
18
100
AcDbEntity
  8
中心線
 48
0.5
100
AcDbLine
 10
423.8343592487029
 20
256.6184954367579
 30
0.0
 11
423.8343592487029
 21
252.6588613350903
 31
0.0
  0
LINE
  5
798
330
18
100
AcDbEntity
  8
中心線
 48
0.5
100
AcDbLine
 10
421.8545421978691
 20
254.6804962812744
 30
0.0
 11
425.8141762995368
 21
254.6804962812744
 31
0.0
  0
LINE
  5
79B
330
18
100
AcDbEntity
  8
中心線
 48
0.5
100
AcDbLine
 10
423.8343592487029
 20
258.7006792304405
 30
0.0
 11
423.8343592487029
 21
262.6603133321081
 31
0.0
  0
LINE
  5
79D
330
18
100
AcDbEntity
  8
中心線
 48
0.5
100
AcDbLine
 10
422.6251862449983
 20
260.6804962812743
 30
0.0
 11
425.0435322524076
 21
260.6804962812743
 31
0.0
  0
LINE
  5
7AF
330
18
100
AcDbEntity
  8
中心線
 48
0.5
100
AcDbLine
 10
431.8343592487028
 20
274.3000881758405
 30
0.0
 11
431.8343592487029
 21
231.6406672589533
 31
0.0
  0
LINE
  5
7F5
330
18
100
AcDbEntity
  8
外形線
100
AcDbLine
 10
432.8343592487028
 20
268.7804962812744
 30
0.0
 11
434.0843592487027
 21
268.7804962812744
 31
0.0
  0
LINE
  5
7F6
330
18
100
AcDbEntity
  8
外形線
100
AcDbLine
 10
432.8343592487028
 20
269.1804962812743
 30
0.0
 11
433.1343592487027
 21
269.1804962812743
 31
0.0
  0
LINE
  5
7F7
330
18
100
AcDbEntity
  8
外形線
100
AcDbLine
 10
434.0843592487027
 20
268.7804962812744
 30
0.0
 11
434.0843592487027
 21
268.1804962812743
 31
0.0
  0
LINE
  5
7F9
330
18
100
AcDbEntity
  8
外形線
100
AcDbLine
 10
434.0843592487027
 20
268.7804962812744
 30
0.0
 11
433.1343592487027
 21
269.1804962812743
 31
0.0
  0
LINE
  5
7FA
330
18
100
AcDbEntity
  8
外形線
100
AcDbLine
 10
430.4879098834589
 20
268.7804962812744
 30
0.0
 11
429.5843592487029
 21
268.7804962812744
 31
0.0
  0
LINE
  5
7FB
330
18
100
AcDbEntity
  8
外形線
100
AcDbLine
 10
430.6187239009072
 20
269.1804962812743
 30
0.0
 11
430.5343592487029
 21
269.1804962812743
 31
0.0
  0
LINE
  5
7FC
330
18
100
AcDbEntity
  8
外形線
100
AcDbLine
 10
429.5843592487029
 20
268.7804962812744
 30
0.0
 11
430.5343592487029
 21
269.1804962812743
 31
0.0
  0
LINE
  5
7FD
330
18
100
AcDbEntity
  8
外形線
100
AcDbLine
 10
429.5843592487029
 20
268.7804962812744
 30
0.0
 11
429.5843592487029
 21
268.1804962812743
 31
0.0
  0
ARC
  5
7FE
330
18
100
AcDbEntity
  8
外形線
100
AcDbCircle
 10
407.3343592487028
 20
263.1804962812744
 30
0.0
 40
2.5
100
AcDbArc
 50
98.10984409130179
 51
270.0
  0
LINE
  5
7FF
330
18
100
AcDbEntity
  8
外形線
100
AcDbLine
 10
407.3343592487028
 20
260.6804962812744
 30
0.0
 11
427.3343592487028
 21
260.6804962812744
 31
0.0
  0
LINE
  5
800
330
18
100
AcDbEntity
  8
外形線
100
AcDbLine
 10
425.9855985317537
 20
265.0755391490707
 30
0.0
 11
422.4133678222621
 21
267.3644619870373
 31
0.0
  0
LINE
  5
801
330
18
100
AcDbEntity
  8
外形線
100
AcDbLine
 10
406.9816809296808
 20
265.6554948677976
 30
0.0
 11
421.0522165934852
 21
267.6604951504929
 31
0.0
  0
CIRCLE
  5
803
330
18
100
AcDbEntity
  8
外形線
100
AcDbCircle
 10
421.3343592487028
 20
265.6804962812744
 30
0.0
 40
1.5
  0
ARC
  5
804
330
18
100
AcDbEntity
  8
外形線
100
AcDbCircle
 10
421.3343592487028
 20
265.6804962812744
 30
0.0
 40
2.0
100
AcDbArc
 50
57.35010012621
 51
98.10984409130233
  0
ARC
  5
805
330
18
100
AcDbEntity
  8
外形線
100
AcDbCircle
 10
427.3343592487028
 20
267.1804962812744
 30
0.0
 40
2.5
100
AcDbArc
 50
237.35010012621
 51
341.8904413827801
  0
ARC
  5
806
330
18
100
AcDbEntity
  8
外形線
100
AcDbCircle
 10
427.3343592487028
 20
266.1804962812744
 30
0.0
 40
5.5
100
AcDbArc
 50
270.0
 51
359.9999999999982
  0
LINE
  5
807
330
18
100
AcDbEntity
  8
外形線
100
AcDbLine
 10
429.7105189698433
 20
266.4034087832216
 30
0.0
 11
430.8838953602466
 21
269.9913312804955
 31
0.0
  0
ARC
  5
808
330
18
100
AcDbEntity
  8
外形線
100
AcDbCircle
 10
431.8343592487028
 20
269.6804962812744
 30
0.0
 40
1.0
100
AcDbArc
 50
359.9999999999968
 51
161.890441382779
  0
LINE
  5
809
330
18
100
AcDbEntity
  8
外形線
100
AcDbLine
 10
432.8343592487029
 20
269.6804962812744
 30
0.0
 11
432.8343592487028
 21
266.1804962812743
 31
0.0
  0
LINE
  5
80B
330
18
100
AcDbEntity
  8
外形線
100
AcDbLine
 10
432.8343592487028
 20
268.1804962812743
 30
0.0
 11
434.8343592487029
 21
268.1804962812743
 31
0.0
  0
LINE
  5
819
330
18
100
AcDbEntity
  8
中心線
 48
0.5
100
AcDbLine
 10
421.3343592487028
 20
268.0205724518871
 30
0.0
 11
421.3343592487029
 21
263.3404201106617
 31
0.0
  0
LINE
  5
81A
330
18
100
AcDbEntity
  8
中心線
 48
0.5
100
AcDbLine
 10
418.9942830780901
 20
265.6804962812744
 30
0.0
 11
423.6744354193154
 21
265.6804962812744
 31
0.0
  0
LINE
  5
849
330
18
100
AcDbEntity
  8
外形線
100
AcDbLine
 10
432.8843592487028
 20
270.2804962812743
 30
0.0
 11
432.6343592487028
 21
270.2804962812743
 31
0.0
  0
ARC
  5
84A
330
18
100
AcDbEntity
  8
外形線
100
AcDbCircle
 10
431.8343592487028
 20
269.8804962812744
 30
0.0
 40
1.0
100
AcDbArc
 50
23.57817847819385
 51
156.4218215218031
  0
LINE
  5
84B
330
18
100
AcDbEntity
  8
外形線
100
AcDbLine
 10
430.7843592487047
 20
269.6869721193491
 30
0.0
 11
430.7843592487028
 21
270.2804962812742
 31
0.0
  0
POINT
  5
84C
330
18
100
AcDbEntity
  8
DEFPOINTS
  6
ByBlock
 62
     0
100
AcDbPoint
 10
431.8343592487028
 20
270.8804962812743
 30
0.0
  0
POINT
  5
84D
330
18
100
AcDbEntity
  8
DEFPOINTS
  6
ByBlock
 62
     0
100
AcDbPoint
 10
431.8343592487028
 20
270.8804962812743
 30
0.0
  0
POINT
  5
84E
330
18
100
AcDbEntity
  8
DEFPOINTS
  6
ByBlock
 62
     0
100
AcDbPoint
 10
431.8343592487028
 20
270.8804962812743
 30
0.0
  0
LINE
  5
84F
330
18
100
AcDbEntity
  8
外形線
100
AcDbLine
 10
432.8843592487027
 20
269.1804962812743
 30
0.0
 11
432.8843592487028
 21
270.2804962812742
 31
0.0
  0
LINE
  5
850
330
18
100
AcDbEntity
  8
外形線
100
AcDbLine
 10
431.0343592487028
 20
270.2804962812743
 30
0.0
 11
430.7843592487029
 21
270.2804962812743
 31
0.0
  0
LINE
  5
85E
330
18
100
AcDbEntity
  8
外形線
100
AcDbLine
 10
404.8343592487029
 20
318.6080042522506
 30
0.0
 11
404.8343592487029
 21
326.6080042522507
 31
0.0
  0
LINE
  5
85F
330
18
100
AcDbEntity
  8
外形線
100
AcDbLine
 10
434.8343592487029
 20
318.6080042522506
 30
0.0
 11
434.8343592487029
 21
326.6080042522507
 31
0.0
  0
LINE
  5
860
330
18
100
AcDbEntity
  8
外形線
100
AcDbLine
 10
425.3343592487029
 20
318.6080042522506
 30
0.0
 11
425.3343592487028
 21
326.6080042522506
 31
0.0
  0
LINE
  5
8BD
330
18
100
AcDbEntity
  8
外形線
100
AcDbLine
 10
404.834359248703
 20
326.6080042522507
 30
0.0
 11
419.8343592487029
 21
326.6080042522507
 31
0.0
  0
LINE
  5
8BE
330
18
100
AcDbEntity
  8
外形線
100
AcDbLine
 10
404.834359248703
 20
318.6080042522506
 30
0.0
 11
419.8343592487038
 21
318.6080042522506
 31
0.0
  0
LINE
  5
8BF
330
18
100
AcDbEntity
  8
外形線
100
AcDbLine
 10
422.8343592487044
 20
320.1080042522507
 30
0.0
 11
430.6887153249638
 21
320.1080042522507
 31
0.0
  0
LINE
  5
8C2
330
18
100
AcDbEntity
  8
外形線
100
AcDbLine
 10
403.834359248703
 20
261.9304962812744
 30
0.0
 11
403.8343592487029
 21
254.4304962812744
 31
0.0
  0
DIMENSION
  5
940
330
18
100
AcDbEntity
  8
外形線
100
AcDbDimension
  2
*D5
 10
434.8343592487029
 20
291.6350608346463
 30
0.0
 11
339.5882425429508
 21
293.5100608346463
 31
0.0
 70
    32
  1
246
 71
     5
 42
190.4922334115041
  3
STYLE3
100
AcDbAlignedDimension
 13
244.3421258371988
 23
261.8804962812744
 33
0.0
 14
434.8343592487029
 24
268.1804962812743
 34
0.0
100
AcDbRotatedDimension
1001
ACAD
1000
DSTYLE
1002
{
1070
   271
1070
     2
1002
}
  0
DIMENSION
  5
94D
330
18
100
AcDbEntity
  8
外形線
100
AcDbDimension
  2
*D6
 10
337.3421258371987
 20
283.5698698708161
 30
0.0
 11
302.3421258371988
 21
285.4448698708162
 31
0.0
 70
    32
 71
     5
 42
70.0
  3
STYLE3
100
AcDbAlignedDimension
 13
267.3421258371988
 23
265.2872975852703
 33
0.0
 14
337.3421258371987
 24
265.2872975852703
 34
0.0
100
AcDbRotatedDimension
1001
ACAD
1000
DSTYLE
1002
{
1070
   271
1070
     2
1002
}
  0
LINE
  5
9F3
330
18
100
AcDbEntity
  8
0
  6
ByBlock
 62
     2
100
AcDbLine
 10
431.8343592487028
 20
270.8804962812743
 30
0.0
 11
443.4394609331002
 21
270.8804962812743
 31
0.0
  0
LINE
  5
9F5
330
18
100
AcDbEntity
  8
0
  6
ByBlock
 62
     2
100
AcDbLine
 10
442.1894609331002
 20
273.3804962812744
 30
0.0
 11
442.1894609331002
 21
278.639169056764
 31
0.0
  0
MTEXT
  5
9F8
330
18
100
AcDbEntity
  8
0
  6
ByBlock
 62
     6
100
AcDbMText
 10
439.9637424436122
 20
273.5965963493043
 30
0.0
 40
2.5
 41
0.0
 71
     4
 72
     1
  1
\A1;1.7
  7
STYLE3
 11
0.0000000000000001
 21
1.0
 31
0.0
 73
     1
 44
1.0
  0
LINE
  5
9F9
330
18
100
AcDbEntity
  8
0
  6
ByBlock
 62
     2
100
AcDbLine
 10
442.1894609331002
 20
269.1804962812743
 30
0.0
 11
442.1894609331002
 21
270.8804962812743
 31
0.0
  0
LINE
  5
9FA
330
18
100
AcDbEntity
  8
0
  6
ByBlock
 62
     2
100
AcDbLine
 10
442.1894609331002
 20
269.1804962812743
 30
0.0
 11
442.1894609331002
 21
270.8804962812743
 31
0.0
  0
INSERT
  5
9FC
330
18
100
AcDbEntity
  8
0
  6
ByBlock
 62
     2
100
AcDbBlockReference
  2
_OPEN
 10
442.1894609331002
 20
270.8804962812743
 30
0.0
 41
2.5
 42
2.5
 43
2.5
 50
270.0
  0
POINT
  5
9FD
330
18
100
AcDbEntity
  8
DEFPOINTS
  6
ByBlock
 62
     0
100
AcDbPoint
 10
433.1343592487027
 20
269.1804962812743
 30
0.0
  0
POINT
  5
9FE
330
18
100
AcDbEntity
  8
DEFPOINTS
  6
ByBlock
 62
     0
100
AcDbPoint
 10
431.8343592487028
 20
270.8804962812743
 30
0.0
  0
POINT
  5
9FF
330
18
100
AcDbEntity
  8
DEFPOINTS
  6
ByBlock
 62
     0
100
AcDbPoint
 10
442.1894609331002
 20
270.8804962812743
 30
0.0
  0
LINE
  5
A00
330
18
100
AcDbEntity
  8
0
  6
ByBlock
 62
     2
100
AcDbLine
 10
433.1343592487027
 20
269.1804962812743
 30
0.0
 11
443.4394609331002
 21
269.1804962812743
 31
0.0
  0
POINT
  5
A06
330
18
100
AcDbEntity
  8
DEFPOINTS
  6
ByBlock
 62
     0
100
AcDbPoint
 10
433.1343592487027
 20
269.1804962812743
 30
0.0
  0
POINT
  5
A07
330
18
100
AcDbEntity
  8
DEFPOINTS
  6
ByBlock
 62
     0
100
AcDbPoint
 10
442.1894609331002
 20
269.1804962812743
 30
0.0
  0
LINE
  5
FA2
330
18
100
AcDbEntity
  8
中心線
100
AcDbLine
 10
429.8343592487029
 20
323.447270606616
 30
0.0
 11
429.8343592487029
 21
321.5852459241705
 31
0.0
  0
LINE
  5
FA3
330
18
100
AcDbEntity
  8
中心線
100
AcDbLine
 10
433.8343592487029
 20
323.447270606616
 30
0.0
 11
433.8343592487029
 21
321.5852459241705
 31
0.0
  0
CIRCLE
  5
FA6
330
18
100
AcDbEntity
  8
外形線
100
AcDbCircle
 10
431.8343592487029
 20
322.6080042522506
 30
0.0
 40
2.75
  0
CIRCLE
  5
FA7
330
18
100
AcDbEntity
  8
外形線
100
AcDbCircle
 10
429.8343592487029
 20
322.6080042522506
 30
0.0
 40
0.5
  0
CIRCLE
  5
FA8
330
18
100
AcDbEntity
  8
外形線
100
AcDbCircle
 10
433.8343592487029
 20
322.6080042522506
 30
0.0
 40
0.5
  0
CIRCLE
  5
FA9
330
18
100
AcDbEntity
  8
外形線
100
AcDbCircle
 10
431.8343592487029
 20
322.6080042522506
 30
0.0
 40
1.3
  0
CIRCLE
  5
FAA
330
18
100
AcDbEntity
  8
外形線
100
AcDbCircle
 10
431.8343592487029
 20
322.6080042522506
 30
0.0
 40
1.0
  0
LINE
  5
FC2
330
18
100
AcDbEntity
  8
外形線
100
AcDbLine
 10
432.980003172442
 20
320.1080042522507
 30
0.0
 11
434.8343592487029
 21
320.1080042522507
 31
0.0
  0
LINE
  5
FC3
330
18
100
AcDbEntity
  8
外形線
100
AcDbLine
 10
403.834359248703
 20
326.3580042522506
 30
0.0
 11
404.834359248703
 21
326.3580042522506
 31
0.0
  0
LINE
  5
FC4
330
18
100
AcDbEntity
  8
外形線
100
AcDbLine
 10
403.8343592487029
 20
318.8580042522506
 30
0.0
 11
404.834359248703
 21
318.8580042522506
 31
0.0
  0
LINE
  5
FC5
330
18
100
AcDbEntity
  8
外形線
100
AcDbLine
 10
403.834359248703
 20
326.3580042522506
 30
0.0
 11
403.8343592487029
 21
318.8580042522506
 31
0.0
  0
LINE
  5
FC6
330
18
100
AcDbEntity
  8
中心線
 48
0.5
100
AcDbLine
 10
407.3343592487029
 20
310.0094226156476
 30
0.0
 11
407.3343592487029
 21
333.8267938303693
 31
0.0
  0
LINE
  5
FC7
330
18
100
AcDbEntity
  8
中心線
 48
0.5
100
AcDbLine
 10
421.3343592487028
 20
310.0094226156476
 30
0.0
 11
421.3343592487028
 21
335.5052490878581
 31
0.0
  0
LINE
  5
FCB
330
18
100
AcDbEntity
  8
外形線
100
AcDbLine
 10
432.8343592487028
 20
331.6080042522506
 30
0.0
 11
432.8343592487028
 21
329.6080042522506
 31
0.0
  0
LINE
  5
1097
330
18
100
AcDbEntity
  8
外形線
100
AcDbLine
 10
419.8343592487038
 20
318.6080042522506
 30
0.0
 11
419.8343592487028
 21
329.6080042522506
 31
0.0
  0
LINE
  5
10B3
330
18
100
AcDbEntity
  8
外形線
100
AcDbLine
 10
406.5452746328753
 20
263.9695808971018
 30
0.0
 11
408.1234438645303
 21
262.3914116654469
 31
0.0
  0
LINE
  5
10B5
330
18
100
AcDbEntity
  8
外形線
100
AcDbLine
 10
408.1234438645303
 20
263.9695808971018
 30
0.0
 11
406.5452746328753
 21
262.3914116654469
 31
0.0
  0
LINE
  5
10B6
330
18
100
AcDbEntity
  8
外形線
100
AcDbLine
 10
420.5452746328753
 20
266.4695808971018
 30
0.0
 11
422.1234438645302
 21
264.891411665447
 31
0.0
  0
LINE
  5
10B7
330
18
100
AcDbEntity
  8
外形線
100
AcDbLine
 10
422.1234438645302
 20
266.4695808971018
 30
0.0
 11
420.5452746328753
 21
264.891411665447
 31
0.0
  0
CIRCLE
  5
10B8
330
18
100
AcDbEntity
  8
外形線
100
AcDbCircle
 10
423.8343592487029
 20
254.6804962812744
 30
0.0
 40
1.25
  0
LINE
  5
10BC
330
18
100
AcDbEntity
  8
外形線
100
AcDbLine
 10
423.1505391776564
 20
255.3643163523207
 30
0.0
 11
424.5181793197494
 21
253.9966762102279
 31
0.0
  0
LINE
  5
10BD
330
18
100
AcDbEntity
  8
外形線
100
AcDbLine
 10
424.5181793197494
 20
255.3643163523208
 30
0.0
 11
423.1505391776565
 21
253.996676210228
 31
0.0
  0
LINE
  5
10BF
330
18
100
AcDbEntity
  8
外形線
100
AcDbLine
 10
423.8343592487031
 20
260.6804962812744
 30
0.0
 11
423.1505391776566
 21
259.9966762102279
 31
0.0
  0
LINE
  5
10C0
330
18
100
AcDbEntity
  8
外形線
100
AcDbLine
 10
423.8343592487029
 20
260.6804962812744
 30
0.0
 11
424.5181793197494
 21
259.9966762102279
 31
0.0
  0
ARC
  5
10C1
330
18
100
AcDbEntity
  8
外形線
100
AcDbCircle
 10
423.8343592487031
 20
260.6804962812744
 30
0.0
 40
1.25
100
AcDbArc
 50
180.0
 51
226.837500983052
  0
CIRCLE
  5
10C2
330
18
100
AcDbEntity
  8
外形線
100
AcDbCircle
 10
433.3343592487029
 20
254.6804962812744
 30
0.0
 40
1.25
  0
LINE
  5
10C3
330
18
100
AcDbEntity
  8
外形線
100
AcDbLine
 10
434.0181793197493
 20
255.3643163523208
 30
0.0
 11
432.6505391776565
 21
253.9966762102281
 31
0.0
  0
LINE
  5
10C4
330
18
100
AcDbEntity
  8
外形線
100
AcDbLine
 10
432.6505391776564
 20
255.3643163523208
 30
0.0
 11
434.0181793197493
 21
253.996676210228
 31
0.0
  0
LINE
  5
10F3
330
18
100
AcDbEntity
  8
外形線
100
AcDbLine
 10
404.834359248703
 20
331.6080042522506
 30
0.0
 11
432.8343592487028
 21
331.6080042522506
 31
0.0
  0
LINE
  5
10F4
330
18
100
AcDbEntity
  8
外形線
100
AcDbLine
 10
404.834359248703
 20
329.6080042522506
 30
0.0
 11
426.3493592487028
 21
329.6080042522506
 31
0.0
  0
LINE
  5
10F7
330
18
100
AcDbEntity
  8
外形線
100
AcDbLine
 10
404.8343592487029
 20
329.6080042522506
 30
0.0
 11
404.834359248703
 21
331.6080042522506
 31
0.0
  0
LINE
  5
10F8
330
18
100
AcDbEntity
  8
外形線
100
AcDbLine
 10
406.284359248703
 20
332.9080042522506
 30
0.0
 11
408.3843592487029
 21
332.9080042522506
 31
0.0
  0
LINE
  5
10F9
330
18
100
AcDbEntity
  8
外形線
100
AcDbLine
 10
405.5843592487029
 20
331.6080042522506
 30
0.0
 11
405.5843592487029
 21
332.2080042522506
 31
0.0
  0
LINE
  5
10FA
330
18
100
AcDbEntity
  8
外形線
100
AcDbLine
 10
409.0843592487028
 20
331.6080042522506
 30
0.0
 11
409.0843592487029
 21
332.2080042522506
 31
0.0
  0
ARC
  5
10FB
330
18
100
AcDbEntity
  8
外形線
100
AcDbCircle
 10
406.284359248703
 20
332.2080042522506
 30
0.0
 40
0.7
100
AcDbArc
 50
90.0
 51
180.0000000000001
  0
ARC
  5
10FC
330
18
100
AcDbEntity
  8
外形線
100
AcDbCircle
 10
408.3843592487029
 20
332.2080042522506
 30
0.0
 40
0.7
100
AcDbArc
 50
0.0000000000001527
 51
90.0
  0
LINE
  5
10FD
330
18
100
AcDbEntity
  8
外形線
100
AcDbLine
 10
420.2843592487028
 20
332.9080042522506
 30
0.0
 11
422.3843592487028
 21
332.9080042522506
 31
0.0
  0
LINE
  5
10FE
330
18
100
AcDbEntity
  8
外形線
100
AcDbLine
 10
419.5843592487029
 20
331.6080042522506
 30
0.0
 11
419.5843592487029
 21
332.2080042522506
 31
0.0
  0
ARC
  5
10FF
330
18
100
AcDbEntity
  8
外形線
100
AcDbCircle
 10
420.2843592487028
 20
332.2080042522506
 30
0.0
 40
0.7
100
AcDbArc
 50
90.0
 51
180.0000000000001
  0
LINE
  5
1100
330
18
100
AcDbEntity
  8
外形線
100
AcDbLine
 10
423.0843592487028
 20
331.6080042522506
 30
0.0
 11
423.0843592487028
 21
332.2080042522506
 31
0.0
  0
ARC
  5
1101
330
18
100
AcDbEntity
  8
外形線
100
AcDbCircle
 10
422.3843592487028
 20
332.2080042522506
 30
0.0
 40
0.7
100
AcDbArc
 50
0.0000000000001527
 51
90.0
  0
LINE
  5
1102
330
18
100
AcDbEntity
  8
外形線
100
AcDbLine
 10
406.284359248703
 20
312.3080042522506
 30
0.0
 11
408.3843592487029
 21
312.3080042522506
 31
0.0
  0
LINE
  5
1103
330
18
100
AcDbEntity
  8
外形線
100
AcDbLine
 10
404.834359248703
 20
313.6080042522506
 30
0.0
 11
432.8343592487028
 21
313.6080042522506
 31
0.0
  0
LINE
  5
1104
330
18
100
AcDbEntity
  8
外形線
100
AcDbLine
 10
404.834359248703
 20
315.6080042522506
 30
0.0
 11
426.3493592487028
 21
315.6080042522506
 31
0.0
  0
LINE
  5
1105
330
18
100
AcDbEntity
  8
外形線
100
AcDbLine
 10
405.5843592487029
 20
313.6080042522506
 30
0.0
 11
405.5843592487029
 21
313.0080042522506
 31
0.0
  0
ARC
  5
1106
330
18
100
AcDbEntity
  8
外形線
100
AcDbCircle
 10
406.284359248703
 20
313.0080042522506
 30
0.0
 40
0.7
100
AcDbArc
 50
179.9999999999998
 51
270.0
  0
LINE
  5
1107
330
18
100
AcDbEntity
  8
外形線
100
AcDbLine
 10
404.8343592487029
 20
315.6080042522506
 30
0.0
 11
404.834359248703
 21
313.6080042522506
 31
0.0
  0
LINE
  5
1109
330
18
100
AcDbEntity
  8
外形線
100
AcDbLine
 10
409.0843592487028
 20
313.6080042522506
 30
0.0
 11
409.0843592487029
 21
313.0080042522506
 31
0.0
  0
ARC
  5
110A
330
18
100
AcDbEntity
  8
外形線
100
AcDbCircle
 10
408.3843592487029
 20
313.0080042522506
 30
0.0
 40
0.7
100
AcDbArc
 50
270.0
 51
359.9999999999998
  0
LINE
  5
110C
330
18
100
AcDbEntity
  8
外形線
100
AcDbLine
 10
420.2843592487028
 20
312.3080042522506
 30
0.0
 11
422.3843592487028
 21
312.3080042522506
 31
0.0
  0
ARC
  5
110D
330
18
100
AcDbEntity
  8
外形線
100
AcDbCircle
 10
420.2843592487028
 20
313.0080042522506
 30
0.0
 40
0.7
100
AcDbArc
 50
179.9999999999998
 51
270.0
  0
LINE
  5
110E
330
18
100
AcDbEntity
  8
外形線
100
AcDbLine
 10
419.5843592487029
 20
313.6080042522506
 30
0.0
 11
419.5843592487029
 21
313.0080042522506
 31
0.0
  0
LINE
  5
110F
330
18
100
AcDbEntity
  8
外形線
100
AcDbLine
 10
419.8343592487029
 20
318.6080042522505
 30
0.0
 11
419.8343592487028
 21
315.6080042522506
 31
0.0
  0
ARC
  5
1110
330
18
100
AcDbEntity
  8
外形線
100
AcDbCircle
 10
422.3843592487028
 20
313.0080042522506
 30
0.0
 40
0.7
100
AcDbArc
 50
270.0
 51
359.9999999999998
  0
LINE
  5
1111
330
18
100
AcDbEntity
  8
外形線
100
AcDbLine
 10
423.0843592487028
 20
313.6080042522506
 30
0.0
 11
423.0843592487028
 21
313.0080042522506
 31
0.0
  0
LINE
  5
1112
330
18
100
AcDbEntity
  8
外形線
100
AcDbLine
 10
422.8343592487048
 20
329.6080042522506
 30
0.0
 11
422.8343592487028
 21
315.6080042522506
 31
0.0
  0
LINE
  5
1113
330
18
100
AcDbEntity
  8
外形線
100
AcDbLine
 10
432.8343592487028
 20
313.6080042522506
 30
0.0
 11
432.8343592487028
 21
315.6080042522506
 31
0.0
  0
POINT
  5
1114
330
18
100
AcDbEntity
  8
DEFPOINTS
  6
ByBlock
 62
     0
100
AcDbPoint
 10
431.8343592487028
 20
318.5580042522506
 30
0.0
  0
LINE
  5
1115
330
18
100
AcDbEntity
  8
外形線
100
AcDbLine
 10
410.8343592487029
 20
318.6080042522506
 30
0.0
 11
410.8343592487029
 21
326.6080042522507
 31
0.0
  0
LINE
  5
111C
330
18
100
AcDbEntity
  8
外形線
100
AcDbLine
 10
422.8343592487028
 20
326.6080042522507
 30
0.0
 11
434.8343592487029
 21
326.6080042522507
 31
0.0
  0
LINE
  5
111D
330
18
100
AcDbEntity
  8
外形線
100
AcDbLine
 10
422.8343592487047
 20
318.6080042522506
 30
0.0
 11
434.8343592487029
 21
318.6080042522506
 31
0.0
  0
LINE
  5
1127
330
18
100
AcDbEntity
  8
中心線
 48
0.5
100
AcDbLine
 10
427.3343592487028
 20
334.0379842769059
 30
0.0
 11
427.3343592487029
 21
311.2501513344942
 31
0.0
  0
LINE
  5
1128
330
18
100
AcDbEntity
  8
外形線
100
AcDbLine
 10
426.3493592487028
 20
313.6080042522506
 30
0.0
 11
426.3493592487028
 21
318.6080042522505
 31
0.0
  0
LINE
  5
1129
330
18
100
AcDbEntity
  8
外形線
100
AcDbLine
 10
428.3193592487028
 20
313.6080042522506
 30
0.0
 11
428.3193592487029
 21
318.6080042522505
 31
0.0
  0
LINE
  5
112C
330
18
100
AcDbEntity
  8
外形線
100
AcDbLine
 10
426.3493592487028
 20
326.6080042522506
 30
0.0
 11
426.3493592487027
 21
331.6080042522506
 31
0.0
  0
LINE
  5
112D
330
18
100
AcDbEntity
  8
外形線
100
AcDbLine
 10
428.3193592487029
 20
315.6080042522506
 30
0.0
 11
432.8343592487028
 21
315.6080042522506
 31
0.0
  0
LINE
  5
112E
330
18
100
AcDbEntity
  8
外形線
100
AcDbLine
 10
428.3193592487029
 20
329.6080042522506
 30
0.0
 11
432.8343592487028
 21
329.6080042522506
 31
0.0
  0
LINE
  5
118E
330
18
100
AcDbEntity
  8
中心線
100
AcDbLine
 10
472.2935306182168
 20
273.0202308522091
 30
0.0
 11
472.2935306182168
 21
207.9311268959539
 31
0.0
  0
LINE
  5
118F
330
18
100
AcDbEntity
  8
外形線
100
AcDbLine
 10
468.2935306182167
 20
268.1804962812745
 30
0.0
 11
468.2935306182169
 21
240.1804962812744
 31
0.0
  0
LINE
  5
1190
330
18
100
AcDbEntity
  8
外形線
100
AcDbLine
 10
476.2935306182168
 20
268.1804962812744
 30
0.0
 11
476.2935306182168
 21
240.1804962812744
 31
0.0
  0
LINE
  5
1192
330
18
100
AcDbEntity
  8
外形線
100
AcDbLine
 10
468.2935306182168
 20
268.1804962812745
 30
0.0
 11
476.2935306182167
 21
268.1804962812745
 31
0.0
  0
LINE
  5
1193
330
18
100
AcDbEntity
  8
外形線
100
AcDbLine
 10
469.7935306182167
 20
268.1804962812745
 30
0.0
 11
469.7935306182167
 21
249.1804962812744
 31
0.0
  0
LINE
  5
1198
330
18
100
AcDbEntity
  8
外形線
100
AcDbLine
 10
465.2935306182168
 20
270.8804962812745
 30
0.0
 11
465.2935306182167
 21
260.6804962812744
 31
0.0
  0
LINE
  5
1199
330
18
100
AcDbEntity
  8
外形線
100
AcDbLine
 10
463.2935306182168
 20
268.8804962812745
 30
0.0
 11
463.2935306182168
 21
260.6804962812744
 31
0.0
  0
LINE
  5
119B
330
18
100
AcDbEntity
  8
外形線
100
AcDbLine
 10
463.2935306182169
 20
260.6804962812744
 30
0.0
 11
465.2935306182166
 21
260.6804962812744
 31
0.0
  0
LINE
  5
11A8
330
18
100
AcDbEntity
  8
中心線
 48
0.5
100
AcDbLine
 10
464.1411219979915
 20
258.1804962812744
 30
0.0
 11
480.0584685855411
 21
258.1804962812744
 31
0.0
  0
LINE
  5
11A9
330
18
100
AcDbEntity
  8
中心線
 48
0.5
100
AcDbLine
 10
460.3116416856232
 20
263.1804962812744
 30
0.0
 11
485.0560614558014
 21
263.1804962812744
 31
0.0
  0
LINE
  5
11AA
330
18
100
AcDbEntity
  8
外形線
100
AcDbLine
 10
461.9935306182167
 20
264.2304962812744
 30
0.0
 11
461.9935306182167
 21
262.1304962812744
 31
0.0
  0
ARC
  5
11AB
330
18
100
AcDbEntity
  8
外形線
100
AcDbCircle
 10
462.6935306182167
 20
264.2304962812744
 30
0.0
 40
0.7
100
AcDbArc
 50
163.3984504009804
 51
180.0
  0
ARC
  5
11B0
330
18
100
AcDbEntity
  8
外形線
100
AcDbCircle
 10
462.6935306182167
 20
262.1304962812744
 30
0.0
 40
0.7
100
AcDbArc
 50
180.0
 51
269.9999999999998
  0
LINE
  5
11B2
330
18
100
AcDbEntity
  8
外形線
100
AcDbLine
 10
463.2935306182167
 20
261.4304962812745
 30
0.0
 11
462.6935306182167
 21
261.4304962812745
 31
0.0
  0
LINE
  5
11B6
330
18
100
AcDbEntity
  8
中心線
 48
0.5
100
AcDbLine
 10
460.4328036305321
 20
265.6804962812744
 30
0.0
 11
484.7764087460408
 21
265.6804962812744
 31
0.0
  0
LINE
  5
11B7
330
18
100
AcDbEntity
  8
外形線
100
AcDbLine
 10
461.9935306182167
 20
266.7304962812744
 30
0.0
 11
461.9935306182167
 21
264.6304962812744
 31
0.0
  0
LINE
  5
11B9
330
18
100
AcDbEntity
  8
外形線
100
AcDbLine
 10
463.2935306182167
 20
263.9304962812745
 30
0.0
 11
462.6935306182167
 21
263.9304962812744
 31
0.0
  0
ARC
  5
11BA
330
18
100
AcDbEntity
  8
外形線
100
AcDbCircle
 10
462.6935306182167
 20
264.6304962812744
 30
0.0
 40
0.7
100
AcDbArc
 50
180.0
 51
269.9999999999998
  0
LINE
  5
11BD
330
18
100
AcDbEntity
  8
外形線
100
AcDbLine
 10
463.2935306182168
 20
267.4304962812744
 30
0.0
 11
462.6935306182168
 21
267.4304962812744
 31
0.0
  0
ARC
  5
11BE
330
18
100
AcDbEntity
  8
外形線
100
AcDbCircle
 10
462.6935306182167
 20
266.7304962812744
 30
0.0
 40
0.7
100
AcDbArc
 50
89.99999999999984
 51
180.0
  0
LINE
  5
11C0
330
18
100
AcDbEntity
  8
外形線
100
AcDbLine
 10
482.5935306182167
 20
264.2304962812744
 30
0.0
 11
482.5935306182167
 21
262.1304962812744
 31
0.0
  0
LINE
  5
11C1
330
18
100
AcDbEntity
  8
外形線
100
AcDbLine
 10
479.2935306182167
 20
270.8804962812745
 30
0.0
 11
479.2935306182167
 21
260.6804962812744
 31
0.0
  0
LINE
  5
11C2
330
18
100
AcDbEntity
  8
外形線
100
AcDbLine
 10
481.2935306182168
 20
268.8804962812745
 30
0.0
 11
481.2935306182168
 21
260.6804962812744
 31
0.0
  0
LINE
  5
11C4
330
18
100
AcDbEntity
  8
外形線
100
AcDbLine
 10
481.2935306182168
 20
261.4304962812745
 30
0.0
 11
481.8935306182168
 21
261.4304962812745
 31
0.0
  0
ARC
  5
11C5
330
18
100
AcDbEntity
  8
外形線
100
AcDbCircle
 10
481.8935306182168
 20
262.1304962812744
 30
0.0
 40
0.7
100
AcDbArc
 50
270.0000000000002
 51
0.000000000000007
  0
LINE
  5
11C6
330
18
100
AcDbEntity
  8
外形線
100
AcDbLine
 10
481.2935306182167
 20
260.6804962812744
 30
0.0
 11
479.2935306182168
 21
260.6804962812744
 31
0.0
  0
ARC
  5
11C7
330
18
100
AcDbEntity
  8
外形線
100
AcDbCircle
 10
481.8935306182168
 20
264.2304962812744
 30
0.0
 40
0.7
100
AcDbArc
 50
0.000000000000007
 51
16.60154959901959
  0
ARC
  5
11C8
330
18
100
AcDbEntity
  8
外形線
100
AcDbCircle
 10
481.8935306182168
 20
266.7304962812744
 30
0.0
 40
0.7
100
AcDbArc
 50
0.000000000000007
 51
90.00000000000017
  0
LINE
  5
11C9
330
18
100
AcDbEntity
  8
外形線
100
AcDbLine
 10
481.2935306182168
 20
267.4304962812744
 30
0.0
 11
481.8935306182168
 21
267.4304962812744
 31
0.0
  0
ARC
  5
11CC
330
18
100
AcDbEntity
  8
外形線
100
AcDbCircle
 10
481.8935306182168
 20
264.6304962812744
 30
0.0
 40
0.7
100
AcDbArc
 50
270.0000000000002
 51
0.000000000000007
  0
LINE
  5
11CD
330
18
100
AcDbEntity
  8
外形線
100
AcDbLine
 10
481.2935306182168
 20
263.9304962812745
 30
0.0
 11
481.8935306182168
 21
263.9304962812744
 31
0.0
  0
LINE
  5
11CF
330
18
100
AcDbEntity
  8
外形線
100
AcDbLine
 10
482.5935306182167
 20
266.7304962812744
 30
0.0
 11
482.5935306182167
 21
264.6304962812744
 31
0.0
  0
LINE
  5
11F0
330
18
100
AcDbEntity
  8
外形線
100
AcDbLine
 10
470.7935306182167
 20
269.1804962812745
 30
0.0
 11
473.7935306182167
 21
269.1804962812744
 31
0.0
  0
LINE
  5
11F1
330
18
100
AcDbEntity
  8
外形線
100
AcDbLine
 10
469.5435306182169
 20
268.6804962812745
 30
0.0
 11
469.5435306182168
 21
268.1804962812746
 31
0.0
  0
LINE
  5
11F2
330
18
100
AcDbEntity
  8
外形線
100
AcDbLine
 10
475.0435306182168
 20
268.6804962812744
 30
0.0
 11
475.0435306182168
 21
268.1804962812744
 31
0.0
  0
LINE
  5
11F3
330
18
100
AcDbEntity
  8
外形線
100
AcDbLine
 10
469.5435306182168
 20
268.6804962812745
 30
0.0
 11
475.0435306182168
 21
268.6804962812744
 31
0.0
  0
LINE
  5
11F6
330
18
100
AcDbEntity
  8
外形線
100
AcDbLine
 10
469.5435306182168
 20
268.6804962812745
 30
0.0
 11
470.7935306182167
 21
269.1804962812745
 31
0.0
  0
LINE
  5
11F7
330
18
100
AcDbEntity
  8
外形線
100
AcDbLine
 10
475.0435306182168
 20
268.6804962812744
 30
0.0
 11
473.7935306182167
 21
269.1804962812744
 31
0.0
  0
LINE
  5
11F9
330
18
100
AcDbEntity
  8
外形線
100
AcDbLine
 10
471.0435306182167
 20
269.7804962812747
 30
0.0
 11
471.0435306182167
 21
269.1804962812745
 31
0.0
  0
LINE
  5
11FA
330
18
100
AcDbEntity
  8
外形線
100
AcDbLine
 10
473.5435306182167
 20
269.7804962812746
 30
0.0
 11
473.5435306182167
 21
269.1804962812744
 31
0.0
  0
LINE
  5
11FB
330
18
100
AcDbEntity
  8
外形線
100
AcDbLine
 10
471.1935306182168
 20
270.2804962812745
 30
0.0
 11
473.3935306182167
 21
270.2804962812745
 31
0.0
  0
ARC
  5
11FD
330
18
100
AcDbEntity
  8
外形線
100
AcDbCircle
 10
472.2935306182168
 20
269.8804962812745
 30
0.0
 40
1.0
100
AcDbArc
 50
23.57817847820416
 51
156.4218215217943
  0
LINE
  5
11FE
330
18
100
AcDbEntity
  8
外形線
100
AcDbLine
 10
471.0435306182168
 20
269.7804962812745
 30
0.0
 11
473.5435306182168
 21
269.7804962812745
 31
0.0
  0
LINE
  5
1201
330
18
100
AcDbEntity
  8
外形線
100
AcDbLine
 10
471.0435306182167
 20
269.7804962812745
 30
0.0
 11
471.1935306182168
 21
270.2804962812745
 31
0.0
  0
LINE
  5
1202
330
18
100
AcDbEntity
  8
外形線
100
AcDbLine
 10
473.5435306182168
 20
269.7804962812745
 30
0.0
 11
473.3935306182168
 21
270.2804962812745
 31
0.0
  0
DIMENSION
  5
122B
330
18
100
AcDbEntity
  8
外形線
100
AcDbDimension
  2
*D8
 10
446.3280092955344
 20
313.6080042522506
 30
0.0
 11
444.4530092955345
 21
322.6080042522506
 31
0.0
 12
-1.625190011025324
 22
-1.65249178883073
 32
0.0
 70
    32
 71
     5
 42
-1.0
  3
STYLE3
100
AcDbAlignedDimension
 13
432.8343592487028
 23
331.6080042522506
 33
0.0
 14
432.8343592487028
 24
313.6080042522506
 34
0.0
 50
90.0
100
AcDbRotatedDimension
1001
ACAD
1000
DSTYLE
1002
{
1070
   271
1070
     2
1002
}
  0
ARC
  5
1246
330
18
100
AcDbEntity
  8
外形線
100
AcDbCircle
 10
465.2935306182168
 20
268.8804962812745
 30
0.0
 40
2.0
100
AcDbArc
 50
90.00000000000161
 51
180.0
  0
ARC
  5
1247
330
18
100
AcDbEntity
  8
外形線
100
AcDbCircle
 10
479.2935306182167
 20
268.8804962812745
 30
0.0
 40
2.0
100
AcDbArc
 50
0.0
 51
89.99999999999836
  0
POINT
  5
126E
330
18
100
AcDbEntity
  8
DEFPOINTS
  6
ByBlock
 62
     0
100
AcDbPoint
 10
481.2626605863646
 20
267.4375209300362
 30
0.0
  0
POINT
  5
127F
330
18
100
AcDbEntity
  8
DEFPOINTS
  6
ByBlock
 62
     0
100
AcDbPoint
 10
471.712129442678
 20
270.694113312243
 30
0.0
  0
POINT
  5
1280
330
18
100
AcDbEntity
  8
DEFPOINTS
  6
ByBlock
 62
     0
100
AcDbPoint
 10
472.2935306182168
 20
269.8804962812745
 30
0.0
  0
LINE
  5
1281
330
18
100
AcDbEntity
  8
0
  6
ByBlock
 62
     2
100
AcDbLine
 10
434.8343592487029
 20
268.1804962812743
 30
0.0
 11
434.8343592487029
 21
284.8198698708161
 31
0.0
  0
LINE
  5
1282
330
18
100
AcDbEntity
  8
0
  6
ByBlock
 62
     2
100
AcDbLine
 10
429.3343592487028
 20
283.5698698708161
 30
0.0
 11
426.8343592487028
 21
283.5698698708161
 31
0.0
  0
LINE
  5
1283
330
18
100
AcDbEntity
  8
0
  6
ByBlock
 62
     2
100
AcDbLine
 10
437.3343592487028
 20
283.5698698708161
 30
0.0
 11
439.8343592487028
 21
283.5698698708161
 31
0.0
  0
LINE
  5
1284
330
18
100
AcDbEntity
  8
0
  6
ByBlock
 62
     2
100
AcDbLine
 10
431.8343592487028
 20
283.5698698708161
 30
0.0
 11
434.8343592487029
 21
283.5698698708161
 31
0.0
  0
INSERT
  5
1285
330
18
100
AcDbEntity
  8
0
  6
ByBlock
 62
     2
100
AcDbBlockReference
  2
_OPEN
 10
431.8343592487028
 20
283.5698698708161
 30
0.0
 41
2.5
 42
2.5
 43
2.5
  0
INSERT
  5
1286
330
18
100
AcDbEntity
  8
0
  6
ByBlock
 62
     2
100
AcDbBlockReference
  2
_OPEN
 10
434.8343592487029
 20
283.5698698708161
 30
0.0
 41
2.5
 42
2.5
 43
2.5
 50
180.0
  0
MTEXT
  5
1287
330
18
100
AcDbEntity
  8
0
  6
ByBlock
 62
     6
100
AcDbMText
 10
433.3343592487028
 20
285.4448698708162
 30
0.0
 40
2.5
 41
0.0
 71
     5
 72
     1
  1
\A1;3
  7
STYLE3
 73
     1
 44
1.0
  0
POINT
  5
1288
330
18
100
AcDbEntity
  8
DEFPOINTS
  6
ByBlock
 62
     0
100
AcDbPoint
 10
431.8343592487028
 20
271.8610722694232
 30
0.0
  0
POINT
  5
1289
330
18
100
AcDbEntity
  8
DEFPOINTS
  6
ByBlock
 62
     0
100
AcDbPoint
 10
434.8343592487029
 20
268.1804962812743
 30
0.0
  0
POINT
  5
128A
330
18
100
AcDbEntity
  8
DEFPOINTS
  6
ByBlock
 62
     0
100
AcDbPoint
 10
434.8343592487029
 20
283.5698698708161
 30
0.0
  0
LINE
  5
128B
330
18
100
AcDbEntity
  8
0
  6
ByBlock
 62
     2
100
AcDbLine
 10
431.8343592487028
 20
271.8610722694232
 30
0.0
 11
431.8343592487028
 21
284.8198698708161
 31
0.0
  0
LINE
  5
128C
330
18
100
AcDbEntity
  8
0
  6
ByBlock
 62
     2
100
AcDbLine
 10
339.8421258371988
 20
283.5698698708161
 30
0.0
 11
429.3343592487028
 21
283.5698698708161
 31
0.0
  0
INSERT
  5
128D
330
18
100
AcDbEntity
  8
0
  6
ByBlock
 62
     2
100
AcDbBlockReference
  2
_OPEN
 10
337.3421258371987
 20
283.5698698708161
 30
0.0
 41
2.5
 42
2.5
 43
2.5
 50
180.0
  0
INSERT
  5
128E
330
18
100
AcDbEntity
  8
0
  6
ByBlock
 62
     2
100
AcDbBlockReference
  2
_OPEN
 10
431.8343592487028
 20
283.5698698708161
 30
0.0
 41
2.5
 42
2.5
 43
2.5
  0
MTEXT
  5
128F
330
18
100
AcDbEntity
  8
0
  6
ByBlock
 62
     6
100
AcDbMText
 10
384.5882425429508
 20
285.4448698708162
 30
0.0
 40
2.5
 41
0.0
 71
     5
 72
     1
  1
\A1;150
  7
STYLE3
 73
     1
 44
1.0
  0
POINT
  5
1290
330
18
100
AcDbEntity
  8
DEFPOINTS
  6
ByBlock
 62
     0
100
AcDbPoint
 10
337.3421258371987
 20
265.2872975852703
 30
0.0
  0
POINT
  5
1291
330
18
100
AcDbEntity
  8
DEFPOINTS
  6
ByBlock
 62
     0
100
AcDbPoint
 10
431.8343592487028
 20
271.8610722694232
 30
0.0
  0
POINT
  5
1292
330
18
100
AcDbEntity
  8
DEFPOINTS
  6
ByBlock
 62
     0
100
AcDbPoint
 10
431.8343592487028
 20
283.5698698708161
 30
0.0
  0
LINE
  5
1295
330
18
100
AcDbEntity
  8
0
  6
ByBlock
 62
     2
100
AcDbLine
 10
443.4394609331002
 20
270.8804962812743
 30
0.0
 11
451.055063832604
 21
270.8804962812743
 31
0.0
  0
LINE
  5
1297
330
18
100
AcDbEntity
  8
0
  6
ByBlock
 62
     2
100
AcDbLine
 10
449.805063832604
 20
298.3774814168661
 30
0.0
 11
449.8050638326039
 21
270.8804962812743
 31
0.0
  0
POINT
  5
129B
330
18
100
AcDbEntity
  8
DEFPOINTS
  6
ByBlock
 62
     0
100
AcDbPoint
 10
443.4394609331002
 20
270.8804962812743
 30
0.0
  0
MTEXT
  5
129F
330
18
100
AcDbEntity
  8
0
  6
ByBlock
 62
     6
100
AcDbMText
 10
447.930063832604
 20
284.8847639117654
 30
0.0
 40
2.5
 41
0.0
 71
     5
 72
     1
  1
呼び35フリ－寸法
  7
STYLE3
 11
0.0000000000000001
 21
1.0
 31
0.0
 73
     1
 44
1.0
  0
LINE
  5
12AD
330
18
100
AcDbEntity
  8
0
  6
ByBlock
 62
     2
100
AcDbLine
 10
431.8343592487028
 20
270.8804962812743
 30
0.0
 11
398.1408253585982
 21
270.8804962812743
 31
0.0
  0
LINE
  5
12AE
330
18
100
AcDbEntity
  8
0
  6
ByBlock
 62
     2
100
AcDbLine
 10
418.167612533439
 20
258.1804962812744
 30
0.0
 11
398.1408253585982
 21
258.1804962812744
 31
0.0
  0
LINE
  5
12AF
330
18
100
AcDbEntity
  8
0
  6
ByBlock
 62
     2
100
AcDbLine
 10
399.3908253585983
 20
268.3804962812744
 30
0.0
 11
399.3908253585983
 21
260.6804962812744
 31
0.0
  0
INSERT
  5
12B0
330
18
100
AcDbEntity
  8
0
  6
ByBlock
 62
     2
100
AcDbBlockReference
  2
_OPEN
 10
399.3908253585983
 20
270.8804962812743
 30
0.0
 41
2.5
 42
2.5
 43
2.5
 50
90.0
  0
INSERT
  5
12B1
330
18
100
AcDbEntity
  8
0
  6
ByBlock
 62
     2
100
AcDbBlockReference
  2
_OPEN
 10
399.3908253585983
 20
258.1804962812744
 30
0.0
 41
2.5
 42
2.5
 43
2.5
 50
270.0
  0
MTEXT
  5
12B2
330
18
100
AcDbEntity
  8
0
  6
ByBlock
 62
     6
100
AcDbMText
 10
396.4107670665519
 20
267.1064004017571
 30
0.0
 40
2.5
 41
0.0
 71
     5
 72
     1
  1
\A1;12.7
  7
STYLE3
 11
0.0000000000000001
 21
1.0
 31
0.0
 73
     1
 44
1.0
  0
POINT
  5
12B3
330
18
100
AcDbEntity
  8
DEFPOINTS
  6
ByBlock
 62
     0
100
AcDbPoint
 10
431.8343592487028
 20
270.8804962812743
 30
0.0
  0
POINT
  5
12B4
330
18
100
AcDbEntity
  8
DEFPOINTS
  6
ByBlock
 62
     0
100
AcDbPoint
 10
418.167612533439
 20
258.1804962812744
 30
0.0
  0
POINT
  5
12B5
330
18
100
AcDbEntity
  8
DEFPOINTS
  6
ByBlock
 62
     0
100
AcDbPoint
 10
399.3908253585983
 20
258.1804962812744
 30
0.0
  0
POINT
  5
12CC
330
18
100
AcDbEntity
  8
DEFPOINTS
  6
ByBlock
 62
     0
100
AcDbPoint
 10
241.8421258371988
 20
250.1804962812745
 30
0.0
  0
LINE
  5
12FC
330
18
100
AcDbEntity
  8
外形線
100
AcDbLine
 10
404.8343592487031
 20
253.1804962812744
 30
0.0
 11
405.834359248703
 21
252.1804962812744
 31
0.0
  0
LINE
  5
12FD
330
18
100
AcDbEntity
  8
外形線
100
AcDbLine
 10
425.3343592487029
 20
267.1804962812743
 30
0.0
 11
426.3343592487029
 21
268.1804962812743
 31
0.0
  0
LINE
  5
12FE
330
18
100
AcDbEntity
  8
中心線
 48
0.5
100
AcDbLine
 10
433.3343592487028
 20
256.3320306226047
 30
0.0
 11
433.3343592487029
 21
253.0102462848538
 31
0.0
  0
LINE
  5
1300
330
18
100
AcDbEntity
  8
中心線
 48
0.5
100
AcDbLine
 10
431.5951711543951
 20
254.6804962812744
 30
0.0
 11
435.5548052560628
 21
254.6804962812744
 31
0.0
  0
LINE
  5
1301
330
18
100
AcDbEntity
  8
外形線
100
AcDbLine
 10
425.8343592487031
 20
240.1804962812744
 30
0.0
 11
434.8343592487031
 21
240.1804962812744
 31
0.0
  0
LINE
  5
1302
330
18
100
AcDbEntity
  8
外形線
100
AcDbLine
 10
425.3343592487031
 20
249.1804962812744
 30
0.0
 11
425.3343592487031
 21
240.6804962812744
 31
0.0
  0
ARC
  5
1303
330
18
100
AcDbEntity
  8
外形線
100
AcDbCircle
 10
422.334359248703
 20
249.1804962812743
 30
0.0
 40
3.0
100
AcDbArc
 50
0.0000000000005343
 51
90.0000000000001
  0
LINE
  5
1304
330
18
100
AcDbEntity
  8
外形線
100
AcDbLine
 10
425.8343592487031
 20
240.1804962812744
 30
0.0
 11
425.3343592487031
 21
240.6804962812744
 31
0.0
  0
LINE
  5
1305
330
18
100
AcDbEntity
  8
外形線
100
AcDbLine
 10
425.3343592487031
 20
249.1804962812744
 30
0.0
 11
434.834359248703
 21
249.1804962812744
 31
0.0
  0
LINE
  5
130E
330
18
100
AcDbEntity
  8
中心線
 48
0.5
100
AcDbLine
 10
420.3343592487028
 20
261.3962377712056
 30
0.0
 11
420.3343592487029
 21
255.1980869865895
 31
0.0
  0
LINE
  5
130F
330
18
100
AcDbEntity
  8
外形線
100
AcDbLine
 10
468.2935306182168
 20
249.1804962812744
 30
0.0
 11
469.7935306182167
 21
249.1804962812743
 31
0.0
  0
LINE
  5
1310
330
18
100
AcDbEntity
  8
外形線
100
AcDbLine
 10
468.2935306182169
 20
240.1804962812744
 30
0.0
 11
476.2935306182168
 21
240.1804962812744
 31
0.0
  0
LINE
  5
1328
330
18
100
AcDbEntity
  8
中心線
 48
0.5
100
AcDbLine
 10
431.8343592487029
 20
317.5167300470769
 30
0.0
 11
431.8343592487028
 21
327.1039754747754
 31
0.0
  0
LINE
  5
132C
330
18
100
AcDbEntity
  8
外形線
100
AcDbLine
 10
425.334359248703
 20
326.6080042522507
 30
0.0
 11
425.334359248703
 21
327.2080042522506
 31
0.0
  0
ARC
  5
1332
330
18
100
AcDbEntity
  8
外形線
100
AcDbCircle
 10
404.8843592487029
 20
329.3080042522506
 30
0.0
 40
0.3
100
AcDbArc
 50
89.99999999998914
 51
270.0000000000108
  0
ARC
  5
1333
330
18
100
AcDbEntity
  8
外形線
100
AcDbCircle
 10
409.7843592487029
 20
328.7080042522506
 30
0.0
 40
0.3
100
AcDbArc
 50
270.0000000000108
 51
89.99999999998914
  0
ARC
  5
1334
330
18
100
AcDbEntity
  8
外形線
100
AcDbCircle
 10
404.8843592487029
 20
328.7080042522506
 30
0.0
 40
0.3
100
AcDbArc
 50
89.99999999998914
 51
270.0000000000108
  0
ARC
  5
1335
330
18
100
AcDbEntity
  8
外形線
100
AcDbCircle
 10
404.8843592487029
 20
328.1080042522506
 30
0.0
 40
0.3
100
AcDbArc
 50
89.99999999998914
 51
270.0000000000108
  0
ARC
  5
1336
330
18
100
AcDbEntity
  8
外形線
100
AcDbCircle
 10
404.8843592487029
 20
327.5080042522505
 30
0.0
 40
0.3
100
AcDbArc
 50
89.99999999998914
 51
270.0000000000108
  0
ARC
  5
1337
330
18
100
AcDbEntity
  8
外形線
100
AcDbCircle
 10
404.8843592487029
 20
326.9080042522505
 30
0.0
 40
0.3
100
AcDbArc
 50
89.99999999998914
 51
270.0000000000108
  0
ARC
  5
1338
330
18
100
AcDbEntity
  8
外形線
100
AcDbCircle
 10
409.7843592487029
 20
328.1080042522506
 30
0.0
 40
0.3
100
AcDbArc
 50
270.0000000000108
 51
89.99999999998914
  0
ARC
  5
1339
330
18
100
AcDbEntity
  8
外形線
100
AcDbCircle
 10
409.7843592487029
 20
327.5080042522505
 30
0.0
 40
0.3
100
AcDbArc
 50
270.0000000000108
 51
89.99999999998914
  0
ARC
  5
133A
330
18
100
AcDbEntity
  8
外形線
100
AcDbCircle
 10
409.7843592487029
 20
326.9080042522505
 30
0.0
 40
0.3
100
AcDbArc
 50
270.0000000000108
 51
89.99999999998914
  0
LINE
  5
133B
330
18
100
AcDbEntity
  8
外形線
100
AcDbLine
 10
404.8843592487029
 20
329.0080042522506
 30
0.0
 11
419.8343592487029
 21
329.0080042522506
 31
0.0
  0
LINE
  5
133C
330
18
100
AcDbEntity
  8
外形線
100
AcDbLine
 10
404.8843592487028
 20
328.4080042522506
 30
0.0
 11
409.7843592487028
 21
328.4080042522506
 31
0.0
  0
LINE
  5
133D
330
18
100
AcDbEntity
  8
外形線
100
AcDbLine
 10
404.8843592487028
 20
327.8080042522506
 30
0.0
 11
409.7843592487028
 21
327.8080042522506
 31
0.0
  0
LINE
  5
133E
330
18
100
AcDbEntity
  8
外形線
100
AcDbLine
 10
404.8843592487028
 20
327.2080042522505
 30
0.0
 11
419.834359248703
 21
327.2080042522506
 31
0.0
  0
LINE
  5
133F
330
18
100
AcDbEntity
  8
外形線
100
AcDbLine
 10
425.334359248703
 20
329.0080042522506
 30
0.0
 11
425.3343592487029
 21
329.6080042522506
 31
0.0
  0
LINE
  5
1340
330
18
100
AcDbEntity
  8
外形線
100
AcDbLine
 10
422.8343592487044
 20
327.2080042522506
 30
0.0
 11
425.3343592487029
 21
327.2080042522506
 31
0.0
  0
LINE
  5
1341
330
18
100
AcDbEntity
  8
外形線
100
AcDbLine
 10
422.8343592487047
 20
329.0080042522506
 30
0.0
 11
425.3343592487029
 21
329.0080042522506
 31
0.0
  0
LINE
  5
1342
330
18
100
AcDbEntity
  8
外形線
100
AcDbLine
 10
404.8843592487029
 20
316.2080042522506
 30
0.0
 11
419.8343592487029
 21
316.2080042522506
 31
0.0
  0
LINE
  5
1343
330
18
100
AcDbEntity
  8
外形線
100
AcDbLine
 10
404.8843592487028
 20
318.0080042522507
 30
0.0
 11
419.834359248703
 21
318.0080042522507
 31
0.0
  0
LINE
  5
1344
330
18
100
AcDbEntity
  8
外形線
100
AcDbLine
 10
404.834359248703
 20
318.6080042522505
 30
0.0
 11
419.8343592487029
 21
318.6080042522505
 31
0.0
  0
LINE
  5
1345
330
18
100
AcDbEntity
  8
外形線
100
AcDbLine
 10
404.8843592487028
 20
317.4080042522507
 30
0.0
 11
409.7843592487028
 21
317.4080042522507
 31
0.0
  0
LINE
  5
1346
330
18
100
AcDbEntity
  8
外形線
100
AcDbLine
 10
404.8843592487028
 20
316.8080042522507
 30
0.0
 11
409.7843592487028
 21
316.8080042522507
 31
0.0
  0
ARC
  5
1347
330
18
100
AcDbEntity
  8
外形線
100
AcDbCircle
 10
404.8843592487029
 20
318.3080042522507
 30
0.0
 40
0.3
100
AcDbArc
 50
89.99999999998918
 51
270.0000000000108
  0
ARC
  5
1348
330
18
100
AcDbEntity
  8
外形線
100
AcDbCircle
 10
404.8843592487029
 20
317.7080042522507
 30
0.0
 40
0.3
100
AcDbArc
 50
89.99999999998918
 51
270.0000000000108
  0
ARC
  5
1349
330
18
100
AcDbEntity
  8
外形線
100
AcDbCircle
 10
404.8843592487029
 20
317.1080042522507
 30
0.0
 40
0.3
100
AcDbArc
 50
89.99999999998918
 51
270.0000000000108
  0
ARC
  5
134A
330
18
100
AcDbEntity
  8
外形線
100
AcDbCircle
 10
404.8843592487029
 20
316.5080042522506
 30
0.0
 40
0.3
100
AcDbArc
 50
89.99999999998918
 51
270.0000000000108
  0
ARC
  5
134B
330
18
100
AcDbEntity
  8
外形線
100
AcDbCircle
 10
404.8843592487029
 20
315.9080042522506
 30
0.0
 40
0.3
100
AcDbArc
 50
89.99999999998918
 51
270.0000000000108
  0
ARC
  5
134C
330
18
100
AcDbEntity
  8
外形線
100
AcDbCircle
 10
409.7843592487029
 20
318.3080042522507
 30
0.0
 40
0.3
100
AcDbArc
 50
270.0000000000108
 51
89.99999999998918
  0
ARC
  5
134D
330
18
100
AcDbEntity
  8
外形線
100
AcDbCircle
 10
409.7843592487029
 20
317.7080042522507
 30
0.0
 40
0.3
100
AcDbArc
 50
270.0000000000108
 51
89.99999999998918
  0
ARC
  5
134E
330
18
100
AcDbEntity
  8
外形線
100
AcDbCircle
 10
409.7843592487029
 20
317.1080042522507
 30
0.0
 40
0.3
100
AcDbArc
 50
270.0000000000108
 51
89.99999999998918
  0
ARC
  5
134F
330
18
100
AcDbEntity
  8
外形線
100
AcDbCircle
 10
409.7843592487029
 20
316.5080042522506
 30
0.0
 40
0.3
100
AcDbArc
 50
270.0000000000108
 51
89.99999999998918
  0
LINE
  5
1350
330
18
100
AcDbEntity
  8
外形線
100
AcDbLine
 10
422.8343592487047
 20
316.2080042522507
 30
0.0
 11
425.3343592487029
 21
316.2080042522506
 31
0.0
  0
LINE
  5
1351
330
18
100
AcDbEntity
  8
外形線
100
AcDbLine
 10
422.8343592487044
 20
318.0080042522507
 30
0.0
 11
425.3343592487029
 21
318.0080042522507
 31
0.0
  0
LINE
  5
1352
330
18
100
AcDbEntity
  8
外形線
100
AcDbLine
 10
425.334359248703
 20
318.6080042522505
 30
0.0
 11
425.334359248703
 21
318.0080042522507
 31
0.0
  0
LINE
  5
1353
330
18
100
AcDbEntity
  8
外形線
100
AcDbLine
 10
425.334359248703
 20
316.2080042522506
 30
0.0
 11
425.3343592487029
 21
315.6080042522507
 31
0.0
  0
CIRCLE
  5
135D
330
18
100
AcDbEntity
  8
外形線
100
AcDbCircle
 10
420.3343592487029
 20
258.1804962812744
 30
0.0
 40
1.75
  0
CIRCLE
  5
135E
330
18
100
AcDbEntity
  8
隠れ線
 48
0.3
100
AcDbCircle
 10
420.3343592487029
 20
258.1804962812744
 30
0.0
 40
1.199999999999999
  0
CIRCLE
  5
136A
330
18
100
AcDbEntity
  8
隠れ線
 48
0.5
100
AcDbCircle
 10
407.3343592487028
 20
263.1804962812744
 30
0.0
 40
2.149999999999999
  0
CIRCLE
  5
1377
330
18
100
AcDbEntity
  8
隠れ線
 48
0.5
100
AcDbCircle
 10
421.3343592487028
 20
265.6804962812744
 30
0.0
 40
1.75
  0
ARC
  5
1395
330
18
100
AcDbEntity
  8
隠れ線
 48
0.5
100
AcDbCircle
 10
407.3343592487028
 20
263.1804962812744
 30
0.0
 40
2.75
100
AcDbArc
 50
294.6199773286576
 51
73.48986676264316
  0
ARC
  5
1396
330
18
100
AcDbEntity
  8
外形線
100
AcDbCircle
 10
407.3343592487028
 20
263.1804962812744
 30
0.0
 40
2.75
100
AcDbArc
 50
73.48986676264316
 51
294.6199773286576
  0
LINE
  5
1397
330
18
100
AcDbEntity
  8
外形線
100
AcDbLine
 10
404.834359248703
 20
262.0348523575351
 30
0.0
 11
404.8343592487031
 21
253.1804962812744
 31
0.0
  0
LINE
  5
1398
330
18
100
AcDbEntity
  8
外形線
100
AcDbLine
 10
407.045302591662
 20
260.4457300665824
 30
0.0
 11
419.1553479396119
 21
259.4737218350875
 31
0.0
  0
LINE
  5
1399
330
18
100
AcDbEntity
  8
外形線
100
AcDbLine
 10
407.0933069820892
 20
261.0438066323328
 30
0.0
 11
425.3343592487029
 21
259.5796954382919
 31
0.0
  0
ARC
  5
139A
330
18
100
AcDbEntity
  8
外形線
100
AcDbCircle
 10
423.8343592487031
 20
260.6804962812744
 30
0.0
 40
1.25
100
AcDbArc
 50
303.9845263391272
 51
0.0
  0
LINE
  5
139B
330
18
100
AcDbEntity
  8
外形線
100
AcDbLine
 10
422.3343592487029
 20
259.2185596889793
 30
0.0
 11
422.3343592487029
 21
252.1804962812744
 31
0.0
  0
LINE
  5
139D
330
18
100
AcDbEntity
  8
隠れ線
 48
0.3
100
AcDbLine
 10
419.1553479396119
 20
259.4737218350876
 30
0.0
 11
421.7045480903452
 21
259.2691112445368
 31
0.0
  0
LINE
  5
139E
330
18
100
AcDbEntity
  8
外形線
100
AcDbLine
 10
421.7045480903452
 20
259.2691112445367
 30
0.0
 11
425.2863548582757
 21
258.9816188725415
 31
0.0
  0
LINE
  5
13A0
330
18
100
AcDbEntity
  8
外形線
100
AcDbLine
 10
419.4155740350841
 20
259.4528348854866
 30
0.0
 11
421.7358808153911
 21
257.1325281051794
 31
0.0
  0
LINE
  5
13A1
330
18
100
AcDbEntity
  8
外形線
100
AcDbLine
 10
418.9328376820147
 20
259.2284644573693
 30
0.0
 11
421.382327424798
 21
256.7789747145862
 31
0.0
  0
LINE
  5
13A2
330
18
100
AcDbEntity
  8
外形線
100
AcDbLine
 10
425.3343592487029
 20
259.5796954382919
 30
0.0
 11
425.2863548582758
 21
258.9816188725416
 31
0.0
  0
LINE
  5
13A3
330
18
100
AcDbEntity
  8
隠れ線
 48
0.5
100
AcDbLine
 10
407.6053281745203
 20
265.9171138726161
 30
0.0
 11
425.334359248703
 21
263.3096363326033
 31
0.0
  0
LINE
  5
13A4
330
18
100
AcDbEntity
  8
隠れ線
 48
0.5
100
AcDbLine
 10
407.5180230267382
 20
265.3234996787404
 30
0.0
 11
425.2470541009209
 21
262.7160221387276
 31
0.0
  0
LINE
  5
13A5
330
18
100
AcDbEntity
  8
隠れ線
 48
0.5
100
AcDbLine
 10
425.334359248703
 20
263.3096363326033
 30
0.0
 11
425.2470541009209
 21
262.7160221387276
 31
0.0
  0
LINE
  5
13A6
330
18
100
AcDbEntity
  8
外形線
100
AcDbLine
 10
466.7935306182168
 20
259.9304962812744
 30
0.0
 11
466.7935306182169
 21
256.4304962812744
 31
0.0
  0
LINE
  5
13A7
330
18
100
AcDbEntity
  8
外形線
100
AcDbLine
 10
465.7935306182168
 20
259.9304962812744
 30
0.0
 11
465.7935306182168
 21
258.4304962812744
 31
0.0
  0
LINE
  5
13A8
330
18
100
AcDbEntity
  8
外形線
100
AcDbLine
 10
465.7935306182168
 20
259.9304962812744
 30
0.0
 11
466.7935306182168
 21
259.9304962812744
 31
0.0
  0
LINE
  5
13A9
330
18
100
AcDbEntity
  8
外形線
100
AcDbLine
 10
465.7935306182168
 20
256.4304962812744
 30
0.0
 11
466.793530618217
 21
256.4304962812744
 31
0.0
  0
LINE
  5
13AC
330
18
100
AcDbEntity
  8
外形線
100
AcDbLine
 10
466.7935306182168
 20
259.3804962812744
 30
0.0
 11
467.7106310796027
 21
259.3804962812744
 31
0.0
  0
LINE
  5
13AD
330
18
100
AcDbEntity
  8
外形線
100
AcDbLine
 10
466.793530618217
 20
256.9804962812744
 30
0.0
 11
468.2935306182168
 21
256.9804962812743
 31
0.0
  0
LINE
  5
13AE
330
18
100
AcDbEntity
  8
外形線
100
AcDbLine
 10
466.4935306182168
 20
258.4304962812743
 30
0.0
 11
466.4935306182168
 21
257.9304962812744
 31
0.0
  0
LINE
  5
13AF
330
18
100
AcDbEntity
  8
外形線
100
AcDbLine
 10
465.7935306182169
 20
258.4304962812744
 30
0.0
 11
466.4935306182168
 21
258.4304962812744
 31
0.0
  0
LINE
  5
13B0
330
18
100
AcDbEntity
  8
外形線
100
AcDbLine
 10
465.7935306182169
 20
257.9304962812744
 30
0.0
 11
466.4935306182168
 21
257.9304962812743
 31
0.0
  0
LINE
  5
13B1
330
18
100
AcDbEntity
  8
外形線
100
AcDbLine
 10
465.7935306182168
 20
257.9304962812744
 30
0.0
 11
465.7935306182168
 21
256.4304962812744
 31
0.0
  0
LINE
  5
13B2
330
18
100
AcDbEntity
  8
外形線
100
AcDbLine
 10
478.7935306182166
 20
257.9304962812744
 30
0.0
 11
478.7935306182167
 21
256.4304962812744
 31
0.0
  0
LINE
  5
13B3
330
18
100
AcDbEntity
  8
外形線
100
AcDbLine
 10
478.7935306182167
 20
259.9304962812744
 30
0.0
 11
478.7935306182166
 21
258.4304962812744
 31
0.0
  0
LINE
  5
13B4
330
18
100
AcDbEntity
  8
外形線
100
AcDbLine
 10
478.7935306182165
 20
257.9304962812744
 30
0.0
 11
478.0935306182167
 21
257.9304962812743
 31
0.0
  0
LINE
  5
13B5
330
18
100
AcDbEntity
  8
外形線
100
AcDbLine
 10
478.7935306182165
 20
258.4304962812744
 30
0.0
 11
478.0935306182167
 21
258.4304962812744
 31
0.0
  0
LINE
  5
13B6
330
18
100
AcDbEntity
  8
外形線
100
AcDbLine
 10
478.0935306182167
 20
258.4304962812743
 30
0.0
 11
478.0935306182167
 21
257.9304962812744
 31
0.0
  0
LINE
  5
13B7
330
18
100
AcDbEntity
  8
外形線
100
AcDbLine
 10
478.7935306182166
 20
256.4304962812744
 30
0.0
 11
477.7935306182165
 21
256.4304962812744
 31
0.0
  0
LINE
  5
13B8
330
18
100
AcDbEntity
  8
外形線
100
AcDbLine
 10
478.7935306182166
 20
259.9304962812744
 30
0.0
 11
477.7935306182166
 21
259.9304962812744
 31
0.0
  0
LINE
  5
13B9
330
18
100
AcDbEntity
  8
外形線
100
AcDbLine
 10
477.7935306182165
 20
256.9804962812744
 30
0.0
 11
476.2935306182167
 21
256.9804962812743
 31
0.0
  0
LINE
  5
13BA
330
18
100
AcDbEntity
  8
外形線
100
AcDbLine
 10
477.7935306182166
 20
259.3804962812744
 30
0.0
 11
476.8935306182168
 21
259.3804962812744
 31
0.0
  0
LINE
  5
13BB
330
18
100
AcDbEntity
  8
外形線
100
AcDbLine
 10
477.7935306182166
 20
259.9304962812744
 30
0.0
 11
477.7935306182166
 21
256.4304962812744
 31
0.0
  0
LINE
  5
13BD
330
18
100
AcDbEntity
  8
外形線
100
AcDbLine
 10
465.2935306182167
 20
266.6804962812744
 30
0.0
 11
468.2935306182167
 21
266.6804962812744
 31
0.0
  0
LINE
  5
13BE
330
18
100
AcDbEntity
  8
外形線
100
AcDbLine
 10
465.2935306182167
 20
264.6804962812744
 30
0.0
 11
468.2935306182167
 21
264.6804962812744
 31
0.0
  0
LINE
  5
13BF
330
18
100
AcDbEntity
  8
外形線
100
AcDbLine
 10
476.2935306182168
 20
266.6804962812744
 30
0.0
 11
479.2935306182167
 21
266.6804962812744
 31
0.0
  0
LINE
  5
13C0
330
18
100
AcDbEntity
  8
外形線
100
AcDbLine
 10
476.2935306182168
 20
264.6804962812744
 30
0.0
 11
479.2935306182167
 21
264.6804962812744
 31
0.0
  0
LINE
  5
13C1
330
18
100
AcDbEntity
  8
隠れ線
 48
0.3
100
AcDbLine
 10
465.2935306182167
 20
266.6804962812744
 30
0.0
 11
463.2935306182168
 21
266.6804962812744
 31
0.0
  0
LINE
  5
13C2
330
18
100
AcDbEntity
  8
隠れ線
 48
0.3
100
AcDbLine
 10
465.2935306182167
 20
264.6804962812744
 30
0.0
 11
463.2935306182168
 21
264.6804962812744
 31
0.0
  0
LINE
  5
13C3
330
18
100
AcDbEntity
  8
隠れ線
 48
0.3
100
AcDbLine
 10
479.2935306182167
 20
266.6804962812744
 30
0.0
 11
481.2935306182168
 21
266.6804962812744
 31
0.0
  0
LINE
  5
13C4
330
18
100
AcDbEntity
  8
隠れ線
 48
0.3
100
AcDbLine
 10
479.2935306182167
 20
264.6804962812744
 30
0.0
 11
481.2935306182168
 21
264.6804962812744
 31
0.0
  0
LINE
  5
13C5
330
18
100
AcDbEntity
  8
外形線
100
AcDbLine
 10
465.2935306182167
 20
267.4304962812744
 30
0.0
 11
468.2935306182167
 21
267.4304962812744
 31
0.0
  0
LINE
  5
13C6
330
18
100
AcDbEntity
  8
外形線
100
AcDbLine
 10
465.2935306182167
 20
263.9304962812743
 30
0.0
 11
468.2935306182168
 21
263.9304962812743
 31
0.0
  0
LINE
  5
13C7
330
18
100
AcDbEntity
  8
外形線
100
AcDbLine
 10
476.2935306182168
 20
263.9304962812744
 30
0.0
 11
479.2935306182167
 21
263.9304962812744
 31
0.0
  0
LINE
  5
13C8
330
18
100
AcDbEntity
  8
外形線
100
AcDbLine
 10
476.2935306182168
 20
267.4304962812744
 30
0.0
 11
479.2935306182167
 21
267.4304962812744
 31
0.0
  0
CIRCLE
  5
13CE
330
18
100
AcDbEntity
  8
外形線
100
AcDbCircle
 10
467.9935306182167
 20
259.2806571554167
 30
0.0
 40
0.3
  0
ARC
  5
13D0
330
18
100
AcDbEntity
  8
外形線
100
AcDbCircle
 10
431.8343592487029
 20
236.6804962812744
 30
0.0
 40
1.5
100
AcDbArc
 50
195.4660099534208
 51
344.5339900465792
  0
LINE
  5
13D1
330
18
100
AcDbEntity
  8
外形線
100
AcDbLine
 10
430.0343592487029
 20
236.2804962812744
 30
0.0
 11
433.634359248703
 21
236.2804962812744
 31
0.0
  0
LINE
  5
13D2
330
18
100
AcDbEntity
  8
外形線
100
AcDbLine
 10
429.5843592487028
 20
237.6804962812744
 30
0.0
 11
434.0843592487029
 21
237.6804962812744
 31
0.0
  0
LINE
  5
13D3
330
18
100
AcDbEntity
  8
外形線
100
AcDbLine
 10
428.834359248703
 20
240.1804962812744
 30
0.0
 11
428.834359248703
 21
238.1135089831665
 31
0.0
  0
LINE
  5
13D8
330
18
100
AcDbEntity
  8
外形線
100
AcDbLine
 10
429.5843592487029
 20
237.6804962812744
 30
0.0
 11
430.0343592487029
 21
236.2804962812744
 31
0.0
  0
LINE
  5
13D9
330
18
100
AcDbEntity
  8
外形線
100
AcDbLine
 10
434.0843592487029
 20
237.6804962812744
 30
0.0
 11
433.634359248703
 21
236.2804962812744
 31
0.0
  0
LINE
  5
13E2
330
18
100
AcDbEntity
  8
外形線
100
AcDbLine
 10
434.8343592487031
 20
238.1135089831667
 30
0.0
 11
434.0843592487029
 21
237.6804962812744
 31
0.0
  0
LINE
  5
13E3
330
18
100
AcDbEntity
  8
外形線
100
AcDbLine
 10
428.8343592487027
 20
238.1135089831666
 30
0.0
 11
429.5843592487029
 21
237.6804962812744
 31
0.0
  0
LINE
  5
13E4
330
18
100
AcDbEntity
  8
外形線
100
AcDbLine
 10
428.834359248703
 20
238.1135089831665
 30
0.0
 11
430.1843592487029
 21
238.1135089831666
 31
0.0
  0
LINE
  5
13E5
330
18
100
AcDbEntity
  8
外形線
100
AcDbLine
 10
430.1843592487029
 20
240.1804962812744
 30
0.0
 11
430.1843592487029
 21
238.1135089831666
 31
0.0
  0
LINE
  5
13E6
330
18
100
AcDbEntity
  8
外形線
100
AcDbLine
 10
433.4843592487029
 20
240.1804962812744
 30
0.0
 11
433.4843592487029
 21
238.1135089831667
 31
0.0
  0
LINE
  5
13E7
330
18
100
AcDbEntity
  8
外形線
100
AcDbLine
 10
433.4843592487029
 20
238.1135089831667
 30
0.0
 11
434.8343592487032
 21
238.1135089831667
 31
0.0
  0
ARC
  5
13E8
330
18
100
AcDbEntity
  8
外形線
100
AcDbCircle
 10
431.8343592487027
 20
241.0406748479572
 30
0.0
 40
3.360178566682845
100
AcDbArc
 50
240.5906886028069
 51
299.4093113972002
  0
LINE
  5
13ED
330
18
100
AcDbEntity
  8
外形線
100
AcDbLine
 10
470.0435306182167
 20
237.6804962812744
 30
0.0
 11
474.5435306182168
 21
237.6804962812744
 31
0.0
  0
LINE
  5
13EE
330
18
100
AcDbEntity
  8
外形線
100
AcDbLine
 10
470.4935306182167
 20
236.2804962812744
 30
0.0
 11
474.0935306182168
 21
236.2804962812744
 31
0.0
  0
ARC
  5
13EF
330
18
100
AcDbEntity
  8
外形線
100
AcDbCircle
 10
472.2935306182168
 20
236.6804962812744
 30
0.0
 40
1.5
100
AcDbArc
 50
195.4660099534208
 51
344.5339900465792
  0
LINE
  5
13F0
330
18
100
AcDbEntity
  8
外形線
100
AcDbLine
 10
469.7935306182166
 20
238.1135089831665
 30
0.0
 11
474.7935306182167
 21
238.1135089831666
 31
0.0
  0
LINE
  5
13F1
330
18
100
AcDbEntity
  8
外形線
100
AcDbLine
 10
469.7935306182167
 20
237.8248338485717
 30
0.0
 11
470.0435306182168
 21
237.6804962812744
 31
0.0
  0
LINE
  5
13F2
330
18
100
AcDbEntity
  8
外形線
100
AcDbLine
 10
470.0435306182168
 20
237.6804962812744
 30
0.0
 11
470.4935306182168
 21
236.2804962812744
 31
0.0
  0
LINE
  5
13F4
330
18
100
AcDbEntity
  8
外形線
100
AcDbLine
 10
474.7935306182167
 20
237.8248338485718
 30
0.0
 11
474.5435306182168
 21
237.6804962812744
 31
0.0
  0
LINE
  5
13F5
330
18
100
AcDbEntity
  8
外形線
100
AcDbLine
 10
474.5435306182168
 20
237.6804962812744
 30
0.0
 11
474.0935306182168
 21
236.2804962812744
 31
0.0
  0
LINE
  5
13F6
330
18
100
AcDbEntity
  8
外形線
100
AcDbLine
 10
469.7935306182166
 20
240.1804962812744
 30
0.0
 11
469.7935306182166
 21
237.8248338485718
 31
0.0
  0
LINE
  5
13F7
330
18
100
AcDbEntity
  8
外形線
100
AcDbLine
 10
474.7935306182167
 20
240.1804962812744
 30
0.0
 11
474.7935306182167
 21
237.8248338485718
 31
0.0
  0
LINE
  5
13F9
330
18
100
AcDbEntity
  8
外形線
100
AcDbLine
 10
467.6935306182167
 20
263.9304962812743
 30
0.0
 11
467.6935306182167
 21
259.2806571554167
 31
0.0
  0
LINE
  5
13FA
330
18
100
AcDbEntity
  8
外形線
100
AcDbLine
 10
468.2764301568306
 20
259.3804962812744
 30
0.0
 11
468.2935306182168
 21
259.3804962812744
 31
0.0
  0
LINE
  5
1410
330
18
100
AcDbEntity
  8
外形線
100
AcDbLine
 10
467.0911020697704
 20
260.7090548169097
 30
0.0
 11
467.0911020697704
 21
263.9090548169095
 31
0.0
  0
LINE
  5
1411
330
18
100
AcDbEntity
  8
外形線
100
AcDbLine
 10
466.4911020697704
 20
260.7090548169097
 30
0.0
 11
466.4911020697704
 21
263.9090548169095
 31
0.0
  0
ARC
  5
1412
330
18
100
AcDbEntity
  8
外形線
100
AcDbCircle
 10
467.9911020697704
 20
260.7090548169098
 30
0.0
 40
0.3
100
AcDbArc
 50
179.9999999999891
 51
0.0000000000108713
  0
ARC
  5
1413
330
18
100
AcDbEntity
  8
外形線
100
AcDbCircle
 10
467.3911020697704
 20
260.7090548169098
 30
0.0
 40
0.3
100
AcDbArc
 50
179.9999999999891
 51
0.0000000000108713
  0
ARC
  5
1414
330
18
100
AcDbEntity
  8
外形線
100
AcDbCircle
 10
466.7911020697704
 20
260.7090548169098
 30
0.0
 40
0.3
100
AcDbArc
 50
179.9999999999891
 51
0.0000000000108713
  0
ARC
  5
1415
330
18
100
AcDbEntity
  8
外形線
100
AcDbCircle
 10
466.1911020697703
 20
260.7090548169098
 30
0.0
 40
0.3
100
AcDbArc
 50
179.9999999999891
 51
0.0000000000108713
  0
ARC
  5
1416
330
18
100
AcDbEntity
  8
外形線
100
AcDbCircle
 10
465.5911020697703
 20
260.7090548169098
 30
0.0
 40
0.3
100
AcDbArc
 50
179.9999999999891
 51
0.0000000000108713
  0
LINE
  5
141B
330
18
100
AcDbEntity
  8
外形線
100
AcDbLine
 10
467.6911020697704
 20
260.7090548169097
 30
0.0
 11
467.6911020697704
 21
263.9090548169095
 31
0.0
  0
LINE
  5
141C
330
18
100
AcDbEntity
  8
外形線
100
AcDbLine
 10
465.8911020697703
 20
260.7090548169097
 30
0.0
 11
465.8911020697703
 21
263.9090548169095
 31
0.0
  0
CIRCLE
  5
1424
330
18
100
AcDbEntity
  8
外形線
100
AcDbCircle
 10
465.5935306182167
 20
263.0128292356654
 30
0.0
 40
0.3
  0
LINE
  5
1425
330
18
100
AcDbEntity
  8
外形線
100
AcDbLine
 10
465.8935306182167
 20
263.0128292356654
 30
0.0
 11
465.8935306182167
 21
263.9304962812743
 31
0.0
  0
LINE
  5
1426
330
18
100
AcDbEntity
  8
外形線
100
AcDbLine
 10
465.2911020697703
 20
260.7090548169098
 30
0.0
 11
465.2911020697703
 21
265.6653187760642
 31
0.0
  0
LINE
  5
1427
330
18
100
AcDbEntity
  8
外形線
100
AcDbLine
 10
468.2911020697704
 20
260.7090548169098
 30
0.0
 11
468.2911020697704
 21
265.6090548169097
 31
0.0
  0
LINE
  5
1428
330
18
100
AcDbEntity
  8
外形線
100
AcDbLine
 10
478.6959591666631
 20
260.7090548169097
 30
0.0
 11
478.6959591666632
 21
263.9090548169095
 31
0.0
  0
LINE
  5
1429
330
18
100
AcDbEntity
  8
外形線
100
AcDbLine
 10
478.0959591666631
 20
260.7090548169097
 30
0.0
 11
478.0959591666632
 21
263.9090548169095
 31
0.0
  0
LINE
  5
142A
330
18
100
AcDbEntity
  8
外形線
100
AcDbLine
 10
477.4959591666631
 20
260.7090548169097
 30
0.0
 11
477.4959591666631
 21
263.9090548169095
 31
0.0
  0
LINE
  5
142B
330
18
100
AcDbEntity
  8
外形線
100
AcDbLine
 10
476.895959166663
 20
260.7090548169097
 30
0.0
 11
476.8959591666631
 21
263.9090548169095
 31
0.0
  0
LINE
  5
142C
330
18
100
AcDbEntity
  8
外形線
100
AcDbLine
 10
476.8935306182167
 20
263.9304962812743
 30
0.0
 11
476.8935306182167
 21
259.2806571554167
 31
0.0
  0
ARC
  5
142D
330
18
100
AcDbEntity
  8
外形線
100
AcDbCircle
 10
476.5959591666631
 20
260.7090548169098
 30
0.0
 40
0.3
100
AcDbArc
 50
179.9999999999891
 51
0.0000000000108463
  0
ARC
  5
142E
330
18
100
AcDbEntity
  8
外形線
100
AcDbCircle
 10
477.1959591666631
 20
260.7090548169098
 30
0.0
 40
0.3
100
AcDbArc
 50
179.9999999999891
 51
0.0000000000108463
  0
ARC
  5
142F
330
18
100
AcDbEntity
  8
外形線
100
AcDbCircle
 10
478.3959591666632
 20
260.7090548169098
 30
0.0
 40
0.3
100
AcDbArc
 50
179.9999999999891
 51
0.0000000000108463
  0
ARC
  5
1430
330
18
100
AcDbEntity
  8
外形線
100
AcDbCircle
 10
478.9959591666632
 20
260.7090548169098
 30
0.0
 40
0.3
100
AcDbArc
 50
179.9999999999891
 51
0.0000000000108463
  0
ARC
  5
1431
330
18
100
AcDbEntity
  8
外形線
100
AcDbCircle
 10
477.7959591666632
 20
260.7090548169098
 30
0.0
 40
0.3
100
AcDbArc
 50
179.9999999999891
 51
0.0000000000108463
  0
LINE
  5
1432
330
18
100
AcDbEntity
  8
外形線
100
AcDbLine
 10
476.3106310796029
 20
259.3804962812744
 30
0.0
 11
476.2935306182167
 21
259.3804962812744
 31
0.0
  0
LINE
  5
1433
330
18
100
AcDbEntity
  8
外形線
100
AcDbLine
 10
478.6935306182168
 20
263.0128292356654
 30
0.0
 11
478.6935306182169
 21
263.9304962812743
 31
0.0
  0
CIRCLE
  5
1434
330
18
100
AcDbEntity
  8
外形線
100
AcDbCircle
 10
478.9935306182168
 20
263.0128292356654
 30
0.0
 40
0.3
  0
LINE
  5
1435
330
18
100
AcDbEntity
  8
外形線
100
AcDbLine
 10
479.2935306182167
 20
263.9304962812743
 30
0.0
 11
476.2935306182168
 21
263.9304962812743
 31
0.0
  0
CIRCLE
  5
1436
330
18
100
AcDbEntity
  8
外形線
100
AcDbCircle
 10
476.5935306182168
 20
259.2806571554167
 30
0.0
 40
0.3
  0
LINE
  5
1437
330
18
100
AcDbEntity
  8
外形線
100
AcDbLine
 10
476.3106310796029
 20
259.3804962812744
 30
0.0
 11
476.2935306182167
 21
259.3804962812744
 31
0.0
  0
DIMENSION
  5
1465
330
18
100
AcDbEntity
  8
寸法線
100
AcDbDimension
  2
*D9
 10
442.1894609331002
 20
240.1804962812744
 30
0.0
 11
440.3144609331001
 21
237.6804962812745
 31
0.0
 70
    32
 71
     5
 42
5.0
  3
STYLE3
100
AcDbAlignedDimension
 13
431.8343592487029
 23
235.1804962812744
 33
0.0
 14
440.1217793886689
 24
240.1804962812744
 34
0.0
 50
90.0
100
AcDbRotatedDimension
1001
ACAD
1000
DSTYLE
1002
{
1070
   271
1070
     2
1002
}
  0
LINE
  5
1466
330
18
100
AcDbEntity
  8
0
  6
ByBlock
 62
     2
100
AcDbLine
 10
434.834359248703
 20
240.1804962812744
 30
0.0
 11
443.4394609331002
 21
240.1804962812744
 31
0.0
  0
LINE
  5
1467
330
18
100
AcDbEntity
  8
0
  6
ByBlock
 62
     2
100
AcDbLine
 10
440.4420842003351
 20
269.1804962812743
 30
0.0
 11
443.4394609331002
 21
269.1804962812743
 31
0.0
  0
LINE
  5
1468
330
18
100
AcDbEntity
  8
0
  6
ByBlock
 62
     2
100
AcDbLine
 10
442.1894609331002
 20
242.6804962812744
 30
0.0
 11
442.1894609331002
 21
266.6804962812743
 31
0.0
  0
INSERT
  5
1469
330
18
100
AcDbEntity
  8
0
  6
ByBlock
 62
     2
100
AcDbBlockReference
  2
_OPEN
 10
442.1894609331002
 20
240.1804962812744
 30
0.0
 41
2.5
 42
2.5
 43
2.5
 50
270.0
  0
INSERT
  5
146A
330
18
100
AcDbEntity
  8
0
  6
ByBlock
 62
     2
100
AcDbBlockReference
  2
_OPEN
 10
442.1894609331002
 20
269.1804962812743
 30
0.0
 41
2.5
 42
2.5
 43
2.5
 50
90.0
  0
MTEXT
  5
146B
330
18
100
AcDbEntity
  8
0
  6
ByBlock
 62
     6
100
AcDbMText
 10
440.3144609331002
 20
254.6804962812744
 30
0.0
 40
2.5
 41
0.0
 71
     5
 72
     1
  1
\A1;29
  7
STYLE3
 11
0.0000000000000001
 21
1.0
 31
0.0
 73
     1
 44
1.0
  0
POINT
  5
146C
330
18
100
AcDbEntity
  8
DEFPOINTS
  6
ByBlock
 62
     0
100
AcDbPoint
 10
436.7431882029491
 20
240.1804962812744
 30
0.0
  0
POINT
  5
146D
330
18
100
AcDbEntity
  8
DEFPOINTS
  6
ByBlock
 62
     0
100
AcDbPoint
 10
440.4420842003351
 20
269.1804962812743
 30
0.0
  0
POINT
  5
146E
330
18
100
AcDbEntity
  8
DEFPOINTS
  6
ByBlock
 62
     0
100
AcDbPoint
 10
442.1894609331002
 20
269.1804962812743
 30
0.0
  0
LINE
  5
147C
330
18
100
AcDbEntity
  8
0
  6
ByBlock
 62
     2
100
AcDbLine
 10
443.4394609331002
 20
235.1804962812744
 30
0.0
 11
451.0550638326039
 21
235.1804962812744
 31
0.0
  0
LINE
  5
147D
330
18
100
AcDbEntity
  8
0
  6
ByBlock
 62
     2
100
AcDbLine
 10
448.5342439907582
 20
270.8804962812743
 30
0.0
 11
451.0550638326039
 21
270.8804962812743
 31
0.0
  0
LINE
  5
147E
330
18
100
AcDbEntity
  8
0
  6
ByBlock
 62
     2
100
AcDbLine
 10
449.8050638326039
 20
237.6804962812744
 30
0.0
 11
449.8050638326039
 21
268.3804962812744
 31
0.0
  0
INSERT
  5
147F
330
18
100
AcDbEntity
  8
0
  6
ByBlock
 62
     2
100
AcDbBlockReference
  2
_OPEN
 10
449.8050638326039
 20
235.1804962812744
 30
0.0
 41
2.5
 42
2.5
 43
2.5
 50
270.0
  0
INSERT
  5
1480
330
18
100
AcDbEntity
  8
0
  6
ByBlock
 62
     2
100
AcDbBlockReference
  2
_OPEN
 10
449.8050638326039
 20
270.8804962812743
 30
0.0
 41
2.5
 42
2.5
 43
2.5
 50
90.0
  0
MTEXT
  5
1481
330
18
100
AcDbEntity
  8
0
  6
ByBlock
 62
     6
100
AcDbMText
 10
447.9300638326039
 20
253.0304962812744
 30
0.0
 40
2.5
 41
0.0
 71
     5
 72
     1
  1
\A1;35.7
  7
STYLE3
 11
0.0000000000000001
 21
1.0
 31
0.0
 73
     1
 44
1.0
  0
POINT
  5
1482
330
18
100
AcDbEntity
  8
DEFPOINTS
  6
ByBlock
 62
     0
100
AcDbPoint
 10
443.4394609331002
 20
235.1804962812744
 30
0.0
  0
POINT
  5
1483
330
18
100
AcDbEntity
  8
DEFPOINTS
  6
ByBlock
 62
     0
100
AcDbPoint
 10
448.5342439907582
 20
270.8804962812743
 30
0.0
  0
POINT
  5
1484
330
18
100
AcDbEntity
  8
DEFPOINTS
  6
ByBlock
 62
     0
100
AcDbPoint
 10
449.8050638326039
 20
270.8804962812743
 30
0.0
  0
LINE
  5
1492
330
18
100
AcDbEntity
  8
0
  6
ByBlock
 62
     2
100
AcDbLine
 10
434.8343592487032
 20
238.1135089831667
 30
0.0
 11
434.8343592487032
 21
224.9244861606409
 31
0.0
  0
LINE
  5
1493
330
18
100
AcDbEntity
  8
0
  6
ByBlock
 62
     2
100
AcDbLine
 10
241.8421258371988
 20
250.1804962812745
 30
0.0
 11
241.8421258371988
 21
224.9244861606409
 31
0.0
  0
LINE
  5
1494
330
18
100
AcDbEntity
  8
0
  6
ByBlock
 62
     2
100
AcDbLine
 10
432.3343592487032
 20
226.1744861606409
 30
0.0
 11
244.3421258371988
 21
226.1744861606409
 31
0.0
  0
INSERT
  5
1495
330
18
100
AcDbEntity
  8
0
  6
ByBlock
 62
     2
100
AcDbBlockReference
  2
_OPEN
 10
434.8343592487032
 20
226.1744861606409
 30
0.0
 41
2.5
 42
2.5
 43
2.5
  0
INSERT
  5
1496
330
18
100
AcDbEntity
  8
0
  6
ByBlock
 62
     2
100
AcDbBlockReference
  2
_OPEN
 10
241.8421258371988
 20
226.1744861606409
 30
0.0
 41
2.5
 42
2.5
 43
2.5
 50
180.0
  0
MTEXT
  5
1497
330
18
100
AcDbEntity
  8
0
  6
ByBlock
 62
     6
100
AcDbMText
 10
338.338242542951
 20
228.0494861606409
 30
0.0
 40
2.5
 41
0.0
 71
     5
 72
     1
  1
248.5
  7
STYLE3
 73
     1
 44
1.0
  0
POINT
  5
1498
330
18
100
AcDbEntity
  8
DEFPOINTS
  6
ByBlock
 62
     0
100
AcDbPoint
 10
434.8343592487032
 20
238.1135089831667
 30
0.0
  0
POINT
  5
1499
330
18
100
AcDbEntity
  8
DEFPOINTS
  6
ByBlock
 62
     0
100
AcDbPoint
 10
241.8421258371988
 20
250.1804962812745
 30
0.0
  0
POINT
  5
149A
330
18
100
AcDbEntity
  8
DEFPOINTS
  6
ByBlock
 62
     0
100
AcDbPoint
 10
241.8421258371988
 20
226.1744861606409
 30
0.0
  0
LINE
  5
149C
330
18
100
AcDbEntity
  8
想像線
100
AcDbLine
 10
467.797315935985
 20
252.6804962812744
 30
0.0
 11
475.9870497445079
 21
252.6804962812744
 31
0.0
  0
CIRCLE
  5
149D
330
18
100
AcDbEntity
  8
想像線
100
AcDbCircle
 10
472.2935306182168
 20
252.6804962812744
 30
0.0
 40
17.5
  0
POINT
  5
14AC
330
18
100
AcDbEntity
  8
DEFPOINTS
  6
ByBlock
 62
     0
100
AcDbPoint
 10
431.1492654131277
 20
235.3460876345484
 30
0.0
  0
POINT
  5
14AD
330
18
100
AcDbEntity
  8
DEFPOINTS
  6
ByBlock
 62
     0
100
AcDbPoint
 10
431.8343592487029
 20
236.6804962812744
 30
0.0
  0
ARC
  5
14B1
330
18
100
AcDbEntity
  8
想像線
100
AcDbCircle
 10
472.2935306182168
 20
240.1804962812744
 30
0.0
 40
30.0
100
AcDbArc
 50
219.6338003381669
 51
294.1048734355443
  0
LINE
  5
14C7
330
18
100
AcDbEntity
  8
0
  6
ByBlock
 62
     2
100
AcDbLine
 10
488.7051839924838
 20
258.7556615895526
 30
0.0
 11
458.2263991545592
 21
247.4732117313216
 31
0.0
  0
MTEXT
  5
14C8
330
18
100
AcDbEntity
  8
0
  6
ByBlock
 62
     6
100
AcDbMText
 10
463.4647043374654
 20
251.411636973882
 30
0.0
 40
2.5
 41
0.0
 71
     5
 72
     1
  1
\A1;\U+220535
  7
STYLE3
 11
0.9378087642438355
 21
0.3471523033301812
 31
0.0
 73
     1
 44
1.0
  0
INSERT
  5
14C9
330
18
100
AcDbEntity
  8
0
  6
ByBlock
 62
     2
100
AcDbBlockReference
  2
_OPEN
 10
455.8818772439496
 20
246.6053309729962
 30
0.0
 41
2.5
 42
2.5
 43
2.5
 50
200.3132358548483
  0
POINT
  5
14CA
330
18
100
AcDbEntity
  8
DEFPOINTS
  6
ByBlock
 62
     0
100
AcDbPoint
 10
455.8818772439496
 20
246.6053309729962
 30
0.0
  0
POINT
  5
14CB
330
18
100
AcDbEntity
  8
DEFPOINTS
  6
ByBlock
 62
     0
100
AcDbPoint
 10
488.7051839924838
 20
258.7556615895526
 30
0.0
  0
LINE
  5
14CD
330
18
100
AcDbEntity
  8
寸法線
100
AcDbLine
 10
488.7051839924838
 20
258.7556615895527
 30
0.0
 11
486.4363956279801
 21
258.4401109012772
 31
0.0
  0
LINE
  5
14CE
330
18
100
AcDbEntity
  8
寸法線
100
AcDbLine
 10
488.7051839924838
 20
258.7556615895526
 30
0.0
 11
486.7175633667648
 21
257.5758404639805
 31
0.0
  0
LINE
  5
14D8
330
18
100
AcDbEntity
  8
0
  6
ByBlock
 62
     2
100
AcDbLine
 10
480.5203003561212
 20
250.2744754425185
 30
0.0
 11
454.9199278529296
 21
218.8636501976248
 31
0.0
  0
MTEXT
  5
14D9
330
18
100
AcDbEntity
  8
0
  6
ByBlock
 62
     6
100
AcDbMText
 10
457.4338552124595
 20
224.9160219485591
 30
0.0
 40
2.5
 41
0.0
 71
     5
 72
     1
  1
\A1;\U+220560
  7
STYLE3
 11
0.6317673732831714
 21
0.7751580394054378
 31
0.0
 73
     1
 44
1.0
  0
INSERT
  5
14DA
330
18
100
AcDbEntity
  8
0
  6
ByBlock
 62
     2
100
AcDbBlockReference
  2
_OPEN
 10
453.3405094197217
 20
216.9257550991113
 30
0.0
 41
2.5
 42
2.5
 43
2.5
 50
230.8193631681592
  0
POINT
  5
14DB
330
18
100
AcDbEntity
  8
DEFPOINTS
  6
ByBlock
 62
     0
100
AcDbPoint
 10
453.3405094197217
 20
216.9257550991113
 30
0.0
  0
POINT
  5
14DC
330
18
100
AcDbEntity
  8
DEFPOINTS
  6
ByBlock
 62
     0
100
AcDbPoint
 10
491.2465518167119
 20
257.1955645380907
 30
0.0
  0
ARC
  5
14E1
330
18
100
AcDbEntity
  8
想像線
100
AcDbCircle
 10
472.2935306182168
 20
240.1804962812744
 30
0.0
 40
30.0
100
AcDbArc
 50
58.14381875275365
 51
125.3688023963192
  0
DIMENSION
  5
155A
330
18
100
AcDbEntity
  8
寸法線
100
AcDbDimension
  2
*D11
 10
267.3421258371988
 20
283.5698698708161
 30
0.0
 11
255.8421258371987
 21
285.4448698708162
 31
0.0
 70
    32
 71
     5
 42
23.0
  3
STYLE3
100
AcDbAlignedDimension
 13
244.3421258371988
 23
261.8804962812744
 33
0.0
 14
267.3421258371988
 24
265.2872975852703
 34
0.0
100
AcDbRotatedDimension
1001
ACAD
1000
DSTYLE
1002
{
1070
   271
1070
     2
1070
   341
1005
0
1002
}
  0
SPLINE
  5
1577
330
18
100
AcDbEntity
  8
寸法線
100
AcDbSpline
210
0.0
220
0.0
230
1.0
 70
     8
 71
     3
 72
    11
 73
     7
 74
     0
 42
0.0000000001
 43
0.0000000001
 40
5.323779294015077
 40
5.323779294015077
 40
5.323779294015077
 40
5.323779294015077
 40
7.017882561639436
 40
10.36094023867079
 40
14.42667205030958
 40
15.17621735588277
 40
15.17621735588277
 40
15.17621735588277
 40
15.17621735588277
 10
369.0756485756135
 20
327.6080042443091
 30
0.0
 10
368.2222642603032
 20
326.8008600119625
 30
0.0
 10
370.1170554657706
 20
325.0169816842193
 30
0.0
 10
366.0545849129621
 20
322.5749445640319
 30
0.0
 10
368.0865833196246
 20
319.0372314728766
 30
0.0
 10
366.0003649654802
 20
318.1064327419664
 30
0.0
 10
365.7189429954264
 20
317.6080042443093
 30
0.0
  0
SPLINE
  5
1578
330
18
100
AcDbEntity
  8
寸法線
100
AcDbSpline
210
0.0
220
0.0
230
1.0
 70
     8
 71
     3
 72
    11
 73
     7
 74
     0
 42
0.0000000001
 43
0.0000000001
 40
5.323779294015077
 40
5.323779294015077
 40
5.323779294015077
 40
5.323779294015077
 40
7.017882561639436
 40
10.36094023867079
 40
14.42667205030958
 40
15.17621735588277
 40
15.17621735588277
 40
15.17621735588277
 40
15.17621735588277
 10
367.4878185186702
 20
263.1804962812743
 30
0.0
 10
366.63443420336
 20
262.3733520489277
 30
0.0
 10
368.5292254088273
 20
260.5894737211845
 30
0.0
 10
364.4667548560188
 20
258.1474366009971
 30
0.0
 10
366.4987532626812
 20
254.6097235098419
 30
0.0
 10
364.4125349085369
 20
253.6789247789317
 30
0.0
 10
364.1311129384831
 20
253.1804962812745
 30
0.0
  0
SPLINE
  5
1579
330
18
100
AcDbEntity
  8
寸法線
100
AcDbSpline
210
0.0
220
0.0
230
1.0
 70
     8
 71
     3
 72
    11
 73
     7
 74
     0
 42
0.0000000001
 43
0.0000000001
 40
5.323779294015077
 40
5.323779294015077
 40
5.323779294015077
 40
5.323779294015077
 40
7.017882561639436
 40
10.36094023867079
 40
14.42667205030958
 40
15.17621735588277
 40
15.17621735588277
 40
15.17621735588277
 40
15.17621735588277
 10
363.9568567540261
 20
263.1804962812743
 30
0.0
 10
363.1034724387159
 20
262.3733520489277
 30
0.0
 10
364.9982636441832
 20
260.5894737211845
 30
0.0
 10
360.9357930913747
 20
258.1474366009971
 30
0.0
 10
362.9677914980372
 20
254.6097235098419
 30
0.0
 10
360.8815731438929
 20
253.6789247789317
 30
0.0
 10
360.600151173839
 20
253.1804962812745
 30
0.0
  0
LINE
  5
157A
330
18
100
AcDbEntity
  8
外形線
100
AcDbLine
 10
428.3193592487029
 20
326.6080042522507
 30
0.0
 11
428.3193592487029
 21
331.6080042522506
 31
0.0
  0
TEXT
  5
15BC
330
18
100
AcDbEntity
  8
文字
100
AcDbText
 10
277.0933869326061
 20
356.5535169805778
 30
0.0
 40
3.5
  1
Model No.CG-2 Cylinder Gauge (Blind Hole Type)
  7
STYLE3
100
AcDbText
  0
LINE
  5
15BD
330
18
100
AcDbEntity
  8
外形線
100
AcDbLine
 10
276.5540939326061
 20
354.8748449805779
 30
0.0
 11
403.554093932606
 21
354.8748449805779
 31
0.0
  0
LINE
  5
15BE
330
18
100
AcDbEntity
  8
外形線
100
AcDbLine
 10
276.5540939326061
 20
353.8748449805778
 30
0.0
 11
403.554093932606
 21
353.8748449805778
 31
0.0
  0
TEXT
  5
15BF
330
18
100
AcDbEntity
  8
0
  6
Continuous
100
AcDbText
 10
351.9582489326061
 20
184.0154869805778
 30
0.0
 40
2.1
  1
Design and specifications are subject to change without notice for future improvement.
  7
STYLE3
100
AcDbText
  0
LINE
  5
15C0
330
18
100
AcDbEntity
  8
外形線
100
AcDbLine
 10
350.5007819326061
 20
172.5027189805778
 30
0.0
 11
350.5007819326061
 21
192.8977029805778
 31
0.0
  0
LINE
  5
15C1
330
18
100
AcDbEntity
  8
外形線
100
AcDbLine
 10
350.5007819326061
 20
182.1174969805778
 30
0.0
 11
491.292199932606
 21
182.1174969805778
 31
0.0
  0
TEXT
  5
15C2
330
18
100
AcDbEntity
  8
0
  6
Continuous
100
AcDbText
 10
395.2710259326061
 20
175.9990029805778
 30
0.0
 40
2.399999999999999
  1
mm
  7
STYLE3
100
AcDbText
  0
TEXT
  5
15C3
330
18
100
AcDbEntity
  8
0
  6
Continuous
100
AcDbText
 10
351.6667579326061
 20
174.2508589805778
 30
0.0
 40
2.1
  1
3RD Angle Projection
  7
STYLE3
100
AcDbText
  0
TEXT
  5
15C4
330
18
100
AcDbEntity
  8
0
  6
Continuous
100
AcDbText
 10
354.2901999326061
 20
177.7471419805778
 30
0.0
 40
3.0
  1
三　　角　　法
  7
STYLE3
100
AcDbText
  0
TEXT
  5
15C5
330
18
100
AcDbEntity
  8
0
  6
Continuous
100
AcDbText
 10
387.228978932606
 20
177.7530969805778
 30
0.0
 40
3.0
  1
単位
  7
STYLE3
100
AcDbText
  0
TEXT
  5
15C6
330
18
100
AcDbEntity
  8
0
  6
Continuous
100
AcDbText
 10
387.4006999326061
 20
174.2508599805778
 30
0.0
 40
2.1
  1
Unit
  7
STYLE3
100
AcDbText
  0
LINE
  5
15C7
330
18
100
AcDbEntity
  8
外形線
100
AcDbLine
 10
385.7715099326061
 20
182.1174969805778
 30
0.0
 11
385.7715099326061
 21
172.5027189805778
 31
0.0
  0
TEXT
  5
15C8
330
18
100
AcDbEntity
  8
0
  6
Continuous
100
AcDbText
 10
453.872511932606
 20
178.0384989805778
 30
0.0
 40
3.0
  1
株式会社　尾崎製作所
  7
STYLE3
100
AcDbText
  0
TEXT
  5
15C9
330
18
100
AcDbEntity
  8
0
  6
Continuous
100
AcDbText
 10
454.746990932606
 20
174.2508599805778
 30
0.0
 40
2.1
  1
OZAKI MFG. CO., LTD.
  7
STYLE3
100
AcDbText
  0
TEXT
  5
15CA
330
18
100
AcDbEntity
  8
0
  6
Continuous
100
AcDbText
 10
433.467956932606
 20
175.9990019805778
 30
0.0
 40
2.1
  1
2010.06.23
  7
STYLE3
100
AcDbText
  0
TEXT
  5
15CB
330
18
100
AcDbEntity
  8
0
  6
Continuous
100
AcDbText
 10
414.629378932606
 20
176.2903599805778
 30
0.0
 40
2.399999999999999
  1
1/1
  7
STYLE3
100
AcDbText
  0
TEXT
  5
15CC
330
18
100
AcDbEntity
  8
0
  6
Continuous
100
AcDbText
 10
404.546874932606
 20
177.4617389805778
 30
0.0
 40
3.0
  1
尺 度
  7
STYLE3
100
AcDbText
  0
TEXT
  5
15CD
330
18
100
AcDbEntity
  8
0
  6
Continuous
100
AcDbText
 10
405.010089932606
 20
174.5422169805778
 30
0.0
 40
2.1
  1
Scale
  7
STYLE3
100
AcDbText
  0
LINE
  5
15CE
330
18
100
AcDbEntity
  8
外形線
100
AcDbLine
 10
403.261126932606
 20
182.1174969805778
 30
0.0
 11
403.261126932606
 21
172.5027189805778
 31
0.0
  0
TEXT
  5
15CF
330
18
100
AcDbEntity
  8
0
  6
Continuous
100
AcDbText
 10
424.723149932606
 20
174.2508609805778
 30
0.0
 40
2.1
  1
Date
  7
STYLE3
100
AcDbText
  0
TEXT
  5
15D0
330
18
100
AcDbEntity
  8
0
  6
Continuous
100
AcDbText
 10
424.339788932606
 20
177.5839449805778
 30
0.0
 40
3.0
  1
日 付
  7
STYLE3
100
AcDbText
  0
LINE
  5
15D1
330
18
100
AcDbEntity
  8
外形線
100
AcDbLine
 10
422.7911989326059
 20
182.1174969805778
 30
0.0
 11
422.7911989326059
 21
172.5027189805778
 31
0.0
  0
LINE
  5
15D2
330
18
100
AcDbEntity
  8
外形線
100
AcDbLine
 10
452.523548932606
 20
182.1174969805778
 30
0.0
 11
452.523548932606
 21
172.5027189805778
 31
0.0
  0
LINE
  5
15D3
330
18
100
AcDbEntity
  8
外形線
100
AcDbLine
 10
350.5007819326061
 20
192.8977029805778
 30
0.0
 11
491.292199932606
 21
192.8977029805778
 31
0.0
  0
TEXT
  5
15D4
330
18
100
AcDbEntity
  8
0
  6
Continuous
100
AcDbText
 10
352.2497429326061
 20
187.9446349805778
 30
0.0
 40
3.5
  1
仕様及び外観は予告なく変更される場合がございますのでご了承下さい。
  7
STYLE3
100
AcDbText
  0
ENDSEC
  0
SECTION
  2
OBJECTS
  0
DICTIONARY
  5
C
330
0
100
AcDbDictionary
281
     1
  3
ACAD_COLOR
350
154E
  3
ACAD_GROUP
350
D
  3
ACAD_LAYOUT
350
1551
  3
ACAD_MATERIAL
350
154D
  3
ACAD_MLINESTYLE
350
1B
  3
ACAD_PLOTSETTINGS
350
1552
  3
ACAD_PLOTSTYLENAME
350
154B
  3
ACAD_TABLESTYLE
350
154F
  3
ACDBVARIABLEDICTIONARY
350
192
  0
DICTIONARY
  5
157B
330
18
100
AcDbDictionary
280
     1
281
     1
  3
ACAD_SORTENTS
360
157C
  0
DICTIONARY
  5
154E
102
{ACAD_REACTORS
330
C
102
}
330
C
100
AcDbDictionary
281
     1
  0
DICTIONARY
  5
D
102
{ACAD_REACTORS
330
C
102
}
330
C
100
AcDbDictionary
281
     1
  0
DICTIONARY
  5
1551
102
{ACAD_REACTORS
330
C
102
}
330
C
100
AcDbDictionary
281
     1
  3
Model
350
1553
  3
レイアウト1
350
1554
  0
DICTIONARY
  5
154D
102
{ACAD_REACTORS
330
C
102
}
330
C
100
AcDbDictionary
281
     1
  0
DICTIONARY
  5
1B
102
{ACAD_REACTORS
330
C
102
}
330
C
100
AcDbDictionary
281
     1
  3
STANDARD
350
1C
  0
DICTIONARY
  5
1552
102
{ACAD_REACTORS
330
C
102
}
330
C
100
AcDbDictionary
281
     1
  0
ACDBDICTIONARYWDFLT
  5
154B
102
{ACAD_REACTORS
330
C
102
}
330
C
100
AcDbDictionary
281
     1
  3
Normal
350
154C
100
AcDbDictionaryWithDefault
340
154C
  0
DICTIONARY
  5
154F
102
{ACAD_REACTORS
330
C
102
}
330
C
100
AcDbDictionary
281
     1
  3
Standard
350
1550
  0
DICTIONARY
  5
192
102
{ACAD_REACTORS
330
C
102
}
330
C
100
AcDbDictionary
281
     1
  3
CTABLESTYLE
350
1585
  3
SORTENTS
350
193
  0
SORTENTSTABLE
  5
157C
102
{ACAD_REACTORS
330
157B
102
}
330
157B
100
AcDbSortentsTable
330
18
331
1466
  5
1467
331
1332
  5
1333
331
13C8
  5
13CE
331
1524
  5
1525
331
146E
  5
147C
331
13D0
  5
13D1
331
133A
  5
133B
331
1399
  5
139A
331
14CD
  5
14CE
331
10B
  5
10B
331
152C
  5
152D
331
147E
  5
147F
331
1342
  5
1343
331
13D8
  5
13D9
331
1427
  5
1428
331
113
  5
113
331
1534
  5
1535
331
11B
  5
11B
331
140
  5
140
331
77B
  5
77B
331
849
  5
849
331
405
  5
405
331
150
  5
150
331
524
  5
524
331
276
  5
276
331
1105
  5
1105
331
5DC
  5
5DC
331
27E
  5
27E
331
7FA
  5
7FA
331
940
  5
940
331
110D
  5
110D
331
11F3
  5
11F6
331
1282
  5
1283
331
11FB
  5
11FD
331
1115
  5
1115
331
1301
  5
1302
331
10B6
  5
10B6
331
128A
  5
128B
331
13A1
  5
13A2
331
134A
  5
134B
331
153C
  5
153D
331
142F
  5
1430
331
13A9
  5
13AC
331
1352
  5
1353
331
13E8
  5
13ED
331
1496
  5
1497
331
1437
  5
1465
331
13F0
  5
13F1
331
13B1
  5
13B2
331
14AE
  5
14AF
331
136A
  5
1377
331
13B9
  5
13BA
331
121
  5
121
331
793
  5
793
331
178
  5
178
331
129
  5
129
331
66C
  5
66C
331
79B
  5
79B
331
2F6
  5
2F6
331
131
  5
131
331
24F
  5
24F
331
6EC
  5
6EC
331
257
  5
257
331
139
  5
139
331
188
  5
188
331
81A
  5
81A
331
1292
  5
1293
331
76C
  5
76C
331
25F
  5
25F
331
111D
  5
111D
331
FA7
  5
FA7
331
9F8
  5
9F8
331
112D
  5
112E
331
A00
  5
A00
331
122B
  5
1246
331
10FE
  5
10FE
331
FC7
  5
FC7
331
11C4
  5
11C5
331
12B2
  5
12B3
331
1410
  5
1411
331
13C1
  5
13C2
331
1467
  5
1468
331
1333
  5
1334
331
13D1
  5
13D2
331
139A
  5
139B
331
133B
  5
133C
331
14CE
  5
14D8
331
1525
  5
1526
331
147F
  5
1480
331
1343
  5
1344
331
13D9
  5
13E2
331
152D
  5
152E
331
114
  5
114
331
1535
  5
1536
331
11C
  5
11C
331
141
  5
141
331
190
  5
190
331
77C
  5
77C
331
149
  5
149
331
84A
  5
84A
331
525
  5
525
331
406
  5
406
331
151
  5
151
331
40E
  5
40E
331
277
  5
277
331
7FB
  5
7FB
331
1106
  5
1106
331
11CC
  5
11CD
331
127B
  5
127E
331
1097
  5
1097
331
110E
  5
110E
331
1283
  5
1284
331
1302
  5
1303
331
128B
  5
128C
331
10B7
  5
10B7
331
1428
  5
1429
331
134B
  5
134C
331
13A2
  5
13A3
331
153D
  5
153E
331
1497
  5
1498
331
1353
  5
135D
331
1430
  5
1431
331
1578
  5
1579
331
13F1
  5
13F2
331
13B2
  5
13B3
331
14AF
  5
14B1
331
13BA
  5
13BB
331
13F9
  5
13FA
331
171
  5
171
331
122
  5
122
331
794
  5
794
331
12A
  5
12A
331
179
  5
179
331
803
  5
803
331
250
  5
250
331
181
  5
181
331
132
  5
132
331
80B
  5
80B
331
189
  5
189
331
13A
  5
13A
331
317
  5
317
331
1293
  5
1294
331
4DE
  5
4DE
331
39F
  5
39F
331
76D
  5
76D
331
10BF
  5
10BF
331
129B
  5
129F
331
9F9
  5
9F9
331
FA8
  5
FA8
331
11BD
  5
11BE
331
10F7
  5
10F7
331
8C2
  5
8C2
331
112E
  5
118E
331
11C5
  5
11C6
331
10FF
  5
10FF
331
12B3
  5
12B4
331
1411
  5
1412
331
132C
  5
1332
331
13C2
  5
13C3
331
1468
  5
1469
331
1334
  5
1335
331
14C7
  5
14C8
331
1526
  5
1527
331
13D2
  5
13D3
331
133C
  5
133D
331
139B
  5
139D
331
152E
  5
152F
331
1480
  5
1481
331
1344
  5
1345
331
115
  5
115
331
1536
  5
1537
331
11D
  5
11D
331
191
  5
191
331
142
  5
142
331
260
  5
260
331
3A7
  5
3A7
331
14A
  5
14A
331
77D
  5
77D
331
84B
  5
84B
331
78D
  5
78D
331
278
  5
278
331
16A
  5
16A
331
40F
  5
40F
331
7FC
  5
7FC
331
1107
  5
1107
331
11CD
  5
11CF
331
118E
  5
118F
331
110F
  5
110F
331
1284
  5
1285
331
11FD
  5
11FE
331
1303
  5
1304
331
128C
  5
128D
331
13E2
  5
13E3
331
13A3
  5
13A4
331
134C
  5
134D
331
1429
  5
142A
331
1579
  5
157A
331
1431
  5
1432
331
1498
  5
1499
331
153E
  5
155A
331
14A8
  5
14AB
331
13F2
  5
13F4
331
13B3
  5
13B4
331
13FA
  5
1410
331
13BB
  5
13BD
331
123
  5
123
331
804
  5
804
331
17A
  5
17A
331
12B
  5
12B
331
79D
  5
79D
331
182
  5
182
331
133
  5
133
331
251
  5
251
331
766
  5
766
331
13B
  5
13B
331
18A
  5
18A
331
10B8
  5
10B8
331
76E
  5
76E
331
4DF
  5
4DF
331
10C0
  5
10C0
331
1294
  5
1295
331
11B6
  5
11B7
331
FA9
  5
FA9
331
9FA
  5
9FA
331
1127
  5
1127
331
10F8
  5
10F8
331
11BE
  5
11C0
331
11C6
  5
11C7
331
12B4
  5
12B5
331
1412
  5
1413
331
13C3
  5
13C4
331
14C8
  5
14C9
331
1469
  5
146A
331
1335
  5
1336
331
1527
  5
1528
331
14D8
  5
14D9
331
133D
  5
133E
331
13D3
  5
13D8
331
1481
  5
1482
331
1345
  5
1346
331
152F
  5
1530
331
116
  5
116
331
1537
  5
1538
331
11E
  5
11E
331
261
  5
261
331
143
  5
143
331
14B
  5
14B
331
77E
  5
77E
331
84C
  5
84C
331
527
  5
527
331
1B2
  5
1B2
331
7F5
  5
7F5
331
78E
  5
78E
331
1100
  5
1100
331
7FD
  5
7FD
331
12CC
  5
12FC
331
11F6
  5
11F7
331
118F
  5
1190
331
1110
  5
1110
331
12FC
  5
12FD
331
1285
  5
1286
331
11FE
  5
1201
331
1304
  5
1305
331
128D
  5
128E
331
142A
  5
142B
331
13E3
  5
13E4
331
134D
  5
134E
331
130E
  5
130F
331
13A4
  5
13A5
331
157A
  5
112C
331
1499
  5
149A
331
13AC
  5
13AD
331
1432
  5
1433
331
13B4
  5
13B5
331
135D
  5
135E
331
14B1
  5
14C7
331
173
  5
173
331
124
  5
124
331
281
  5
281
331
410
  5
410
331
12C
  5
12C
331
805
  5
805
331
183
  5
183
331
134
  5
134
331
18B
  5
18B
331
13C
  5
13C
331
767
  5
767
331
1295
  5
1297
331
FA2
  5
FA2
331
9F3
  5
9F3
331
10C1
  5
10C1
331
11B7
  5
11B9
331
FAA
  5
FAA
331
1128
  5
1128
331
10F9
  5
10F9
331
FC2
  5
FC2
331
12AD
  5
12AE
331
12B5
  5
12CC
331
11C7
  5
11C8
331
1246
  5
1247
331
1413
  5
1414
331
13C4
  5
13C5
331
146A
  5
146B
331
1395
  5
1396
331
1336
  5
1337
331
141B
  5
141C
331
14C9
  5
14CA
331
14D9
  5
14DA
331
133E
  5
133F
331
139D
  5
139E
331
1528
  5
1529
331
1530
  5
1531
331
1482
  5
1483
331
1346
  5
1347
331
1577
  5
1578
331
117
  5
117
331
11F
  5
11F
331
144
  5
144
331
14C
  5
14C
331
77F
  5
77F
331
84D
  5
84D
331
1B3
  5
1B3
331
7F6
  5
7F6
331
16C
  5
16C
331
78F
  5
78F
331
1101
  5
1101
331
126E
  5
127B
331
7FE
  5
7FE
331
1109
  5
1109
331
11CF
  5
11F0
331
127E
  5
127F
331
11F7
  5
11F9
331
1111
  5
1111
331
1190
  5
1192
331
12FD
  5
12FE
331
1286
  5
1287
331
1198
  5
1199
331
1305
  5
130E
331
128E
  5
128F
331
14E1
  5
1522
331
1492
  5
1493
331
142B
  5
142C
331
13A5
  5
13A6
331
130F
  5
1310
331
134E
  5
134F
331
13E4
  5
13E5
331
1538
  5
1539
331
13AD
  5
13AE
331
1433
  5
1434
331
149A
  5
149C
331
13F4
  5
13F5
331
135E
  5
136A
331
13B5
  5
13B6
331
13BD
  5
13BE
331
1C3
  5
1C3
331
125
  5
125
331
282
  5
282
331
806
  5
806
331
17C
  5
17C
331
12D
  5
12D
331
797
  5
797
331
184
  5
184
331
135
  5
135
331
253
  5
253
331
7AF
  5
7AF
331
13D
  5
13D
331
768
  5
768
331
11A8
  5
11A9
331
11B0
  5
11B2
331
FA3
  5
FA3
331
10C2
  5
10C2
331
1129
  5
1129
331
8BD
  5
8BD
331
9FC
  5
9FC
331
12AE
  5
12AF
331
FC3
  5
FC3
331
10FA
  5
10FA
331
11C0
  5
11C1
331
1247
  5
126E
331
1414
  5
1415
331
13C5
  5
13C6
331
14CA
  5
14CB
331
146B
  5
146C
331
1396
  5
1397
331
1337
  5
1338
331
141C
  5
1424
331
1529
  5
152A
331
139E
  5
13A0
331
133F
  5
1340
331
1424
  5
1425
331
14DA
  5
14DB
331
1483
  5
1484
331
1347
  5
1348
331
1531
  5
1532
331
118
  5
118
331
778
  5
778
331
263
  5
263
331
145
  5
145
331
780
  5
780
331
14D
  5
14D
331
26B
  5
26B
331
581
  5
581
331
40A
  5
40A
331
273
  5
273
331
84E
  5
84E
331
1102
  5
1102
331
7F7
  5
7F7
331
16D
  5
16D
331
5D9
  5
5D9
331
FCB
  5
FCB
331
11C8
  5
11C9
331
7FF
  5
7FF
331
110A
  5
110A
331
11F0
  5
11F1
331
12FE
  5
1300
331
94D
  5
94D
331
1112
  5
1112
331
127F
  5
1280
331
1199
  5
119B
331
10B3
  5
10B3
331
1287
  5
1288
331
128F
  5
1290
331
1539
  5
153A
331
142C
  5
142D
331
13E5
  5
13E6
331
134F
  5
1350
331
1310
  5
1328
331
13A6
  5
13A7
331
1493
  5
1494
331
13ED
  5
13EE
331
13AE
  5
13AF
331
1434
  5
1435
331
14AB
  5
14AC
331
13B6
  5
13B7
331
13F5
  5
13F6
331
13BE
  5
13BF
331
790
  5
790
331
283
  5
283
331
1C4
  5
1C4
331
126
  5
126
331
175
  5
175
331
807
  5
807
331
12E
  5
12E
331
798
  5
798
331
254
  5
254
331
185
  5
185
331
136
  5
136
331
769
  5
769
331
18D
  5
18D
331
13E
  5
13E
331
25C
  5
25C
331
85E
  5
85E
331
11A9
  5
11AA
331
1297
  5
129B
331
9F5
  5
9F5
331
10C3
  5
10C3
331
9FD
  5
9FD
331
8BE
  5
8BE
331
10F3
  5
10F3
331
11B9
  5
11BA
331
129F
  5
12AD
331
11C1
  5
11C2
331
FC4
  5
FC4
331
10FB
  5
10FB
331
12AF
  5
12B0
331
1328
  5
1329
331
1415
  5
1416
331
1377
  5
1395
331
13C6
  5
13C7
331
1522
  5
1523
331
146C
  5
146D
331
13CE
  5
13D0
331
1338
  5
1339
331
1397
  5
1398
331
14CB
  5
14CD
331
14DB
  5
14DC
331
147C
  5
147D
331
1340
  5
1341
331
1425
  5
1426
331
152A
  5
152B
331
1532
  5
1533
331
1484
  5
1492
331
119
  5
119
331
146
  5
146
331
264
  5
264
331
403
  5
403
331
14E
  5
14E
331
26C
  5
26C
331
84F
  5
84F
331
274
  5
274
331
40B
  5
40B
331
11C9
  5
11CC
331
5DA
  5
5DA
331
16E
  5
16E
331
1103
  5
1103
331
11F1
  5
11F2
331
1280
  5
1281
331
11F9
  5
11FA
331
1113
  5
1113
331
1192
  5
1193
331
1288
  5
1289
331
1348
  5
1349
331
153A
  5
153B
331
1494
  5
1495
331
142D
  5
142E
331
13A7
  5
13A8
331
1350
  5
1351
331
13E6
  5
13E7
331
1435
  5
1436
331
13AF
  5
13B0
331
13EE
  5
13EF
331
149C
  5
149D
331
14AC
  5
14AD
331
13F6
  5
13F7
331
13B7
  5
13B8
331
155A
  5
1577
331
13BF
  5
13C0
331
800
  5
800
331
176
  5
176
331
127
  5
127
331
808
  5
808
331
12F
  5
12F
331
255
  5
255
331
137
  5
137
331
186
  5
186
331
1201
  5
1202
331
10BC
  5
10BC
331
76A
  5
76A
331
13F
  5
13F
331
18E
  5
18E
331
85F
  5
85F
331
11AA
  5
11AB
331
1290
  5
1291
331
11B2
  5
11B6
331
10C4
  5
10C4
331
9FE
  5
9FE
331
8BF
  5
8BF
331
10F4
  5
10F4
331
11BA
  5
11BD
331
12B0
  5
12B1
331
FC5
  5
FC5
331
A06
  5
A06
331
10FC
  5
10FC
331
11C2
  5
11C4
331
1465
  5
1466
331
13C7
  5
13C8
331
1416
  5
141B
331
1398
  5
1399
331
1339
  5
133A
331
146D
  5
146E
331
1523
  5
1524
331
147D
  5
147E
331
1426
  5
1427
331
1341
  5
1342
331
14DC
  5
14E1
331
152B
  5
152C
331
112
  5
112
331
1533
  5
1534
331
11A
  5
11A
331
77A
  5
77A
331
265
  5
265
331
147
  5
147
331
523
  5
523
331
1AE
  5
1AE
331
14F
  5
14F
331
404
  5
404
331
40C
  5
40C
331
275
  5
275
331
850
  5
850
331
7F9
  5
7F9
331
5DB
  5
5DB
331
1104
  5
1104
331
11F2
  5
11F3
331
110C
  5
110C
331
1281
  5
1282
331
1193
  5
1198
331
1114
  5
1114
331
11FA
  5
11FB
331
1300
  5
1301
331
119B
  5
11A8
331
10B5
  5
10B5
331
1289
  5
128A
331
1349
  5
134A
331
13A0
  5
13A1
331
153B
  5
153C
331
142E
  5
142F
331
13E7
  5
13E8
331
1351
  5
1352
331
13A8
  5
13A9
331
1495
  5
1496
331
149D
  5
14A8
331
13EF
  5
13F0
331
13B0
  5
13B1
331
1436
  5
1437
331
14AD
  5
14AE
331
13B8
  5
13B9
331
13F7
  5
13F9
331
120
  5
120
331
792
  5
792
331
66B
  5
66B
331
128
  5
128
331
177
  5
177
331
801
  5
801
331
24E
  5
24E
331
130
  5
130
331
17F
  5
17F
331
809
  5
809
331
256
  5
256
331
138
  5
138
331
819
  5
819
331
1291
  5
1292
331
1202
  5
122B
331
111C
  5
111C
331
10BD
  5
10BD
331
76B
  5
76B
331
18F
  5
18F
331
25E
  5
25E
331
860
  5
860
331
11AB
  5
11B0
331
FA6
  5
FA6
331
9FF
  5
9FF
331
112C
  5
112D
331
12B1
  5
12B2
331
FC6
  5
FC6
331
A07
  5
A07
331
10FD
  5
10FD
331
13C0
  5
13C1
  0
LAYOUT
  5
1553
102
{ACAD_REACTORS
330
1551
102
}
330
1551
100
AcDbPlotSettings
  1

  2
A4 EPSON LP-6100.pc3
  4
A4
  6

 40
5.873749732971191
 41
5.873747825622558
 42
5.873748779296875
 43
5.873748779296875
 44
209.9733276367187
 45
297.0106506347656
 46
0.0
 47
25.0
 48
0.0
 49
0.0
140
0.0
141
0.0
142
1.0
143
1.0
 70
 28336
 72
     1
 73
     1
 74
     1
  7
AutoCAD LT 98.ctb
 75
    16
147
1.0
 76
     1
 77
     2
 78
   300
148
-236.4655427980613
149
-171.6339896600951
100
AcDbLayout
  1
Model
 70
     1
 71
     0
 10
0.0
 20
0.0
 11
12.0
 21
9.0
 12
0.0
 22
0.0
 32
0.0
 14
0.0
 24
0.0
 34
0.0
 15
0.0
 25
0.0
 35
0.0
146
0.0
 13
0.0
 23
0.0
 33
0.0
 16
1.0
 26
0.0
 36
0.0
 17
0.0
 27
1.0
 37
0.0
 76
     0
330
18
1001
ACAD_PSEXT
1000
A4 EPSON LP-6100.pc3
1000
EPSON LP-6100
1000
\\SATO-MATE2
1000

1070
     0
  0
LAYOUT
  5
1554
102
{ACAD_REACTORS
330
1551
102
}
330
1551
100
AcDbPlotSettings
  1

  2
WIDR Printer
  4

  6

 40
0.0
 41
0.0
 42
0.0
 43
0.0
 44
0.0
 45
0.0
 46
0.0
 47
0.0
 48
0.0
 49
0.0
140
0.0
141
0.0
142
1.0
143
1.0
 70
   688
 72
     0
 73
     0
 74
     5
  7
AutoCad LT 98.ctb
 75
    16
147
1.0
 76
     0
 77
     2
 78
   300
148
0.0
149
0.0
100
AcDbLayout
  1
レイアウト1
 70
     1
 71
     1
 10
0.0
 20
0.0
 11
420.0
 21
297.0
 12
0.0
 22
0.0
 32
0.0
 14
1.000000000000000E+20
 24
1.000000000000000E+20
 34
1.000000000000000E+20
 15
-1.000000000000000E+20
 25
-1.000000000000000E+20
 35
-1.000000000000000E+20
146
0.0
 13
0.0
 23
0.0
 33
0.0
 16
1.0
 26
0.0
 36
0.0
 17
0.0
 27
1.0
 37
0.0
 76
     0
330
15
  0
MLINESTYLE
  5
1C
102
{ACAD_REACTORS
330
1B
102
}
330
1B
100
AcDbMlineStyle
  2
STANDARD
 70
     0
  3

 62
   256
 51
90.0
 52
90.0
 71
     2
 49
0.5
 62
   256
  6
BYLAYER
 49
-0.5
 62
   256
  6
BYLAYER
  0
ACDBPLACEHOLDER
  5
154C
102
{ACAD_REACTORS
330
154B
102
}
330
154B
  0
ACAD_PROXY_OBJECT
  5
1550
102
{ACAD_REACTORS
330
154F
102
}
330
154F
100
AcDbProxyObject
 90
      499
 91
      503
 95
  2555929
 70
     0
 93
     1849
310
4214DD185B99185C992420000000000000F83F0000000000003E0FC00000000000004901028000000C1008070000C3001FDFF8000000C1003FBFF000000182007F7FE00000030400FEFFC00000060801FDFF8000000C1003FBFF000000182000000000000000C2020B0000001820100E000186003FBFF000000182007F7FE0
310
0000030400FEFFC00000060801FDFF8000000C1003FBFF000000182007F7FE0000003040000000000000012404160000003040201C00030C007F7FE00000030400FEFFC00000060801FDFF8000000C1003FBFF000000182007F7FE00000030400FEFFC000000608000
340
F
340
F
340
F
 94
        0
  0
DICTIONARYVAR
  5
1585
102
{ACAD_REACTORS
330
192
102
}
330
192
100
DictionaryVariables
280
     0
  1
STANDARD
  0
DICTIONARYVAR
  5
193
102
{ACAD_REACTORS
330
192
102
}
330
192
100
DictionaryVariables
280
     0
  1
96
  0
ENDSEC
  0
EOF
