  0
SECTION
  2
HEADER
  9
$ACADVER
  1
AC1018
  9
$ACADMAINTVER
 70
     0
  9
$DWGCODEPAGE
  3
ANSI_932
  9
$INSBASE
 10
0.0
 20
0.0
 30
0.0
  9
$EXTMIN
 10
236.4547188150987
 20
171.62613327917
 30
-0.0000000000000058
  9
$EXTMAX
 10
491.9140813472958
 20
367.0669803848941
 30
0.0000000000000104
  9
$LIMMIN
 10
0.0
 20
0.0
  9
$LIMMAX
 10
420.0
 20
297.0
  9
$ORTHOMODE
 70
     0
  9
$REGENMODE
 70
     1
  9
$FILLMODE
 70
     1
  9
$QTEXTMODE
 70
     0
  9
$MIRRTEXT
 70
     1
  9
$LTSCALE
 40
1.0
  9
$ATTMODE
 70
     1
  9
$TEXTSIZE
 40
3.0
  9
$TRACEWID
 40
1.0
  9
$TEXTSTYLE
  7
STYLE3
  9
$CLAYER
  8
寸法線
  9
$CELTYPE
  6
BYLAYER
  9
$CECOLOR
 62
   256
  9
$CELTSCALE
 40
1.0
  9
$DISPSILH
 70
     0
  9
$DIMSCALE
 40
1.0
  9
$DIMASZ
 40
2.5
  9
$DIMEXO
 40
0.0
  9
$DIMDLI
 40
3.75
  9
$DIMRND
 40
0.0
  9
$DIMDLE
 40
0.0
  9
$DIMEXE
 40
1.25
  9
$DIMTP
 40
0.0
  9
$DIMTM
 40
0.0
  9
$DIMTXT
 40
2.5
  9
$DIMCEN
 40
2.5
  9
$DIMTSZ
 40
0.0
  9
$DIMTOL
 70
     0
  9
$DIMLIM
 70
     0
  9
$DIMTIH
 70
     0
  9
$DIMTOH
 70
     0
  9
$DIMSE1
 70
     0
  9
$DIMSE2
 70
     0
  9
$DIMTAD
 70
     1
  9
$DIMZIN
 70
     8
  9
$DIMBLK
  1

  9
$DIMASO
 70
     1
  9
$DIMSHO
 70
     1
  9
$DIMPOST
  1

  9
$DIMAPOST
  1

  9
$DIMALT
 70
     0
  9
$DIMALTD
 70
     4
  9
$DIMALTF
 40
0.0394
  9
$DIMLFAC
 40
1.0
  9
$DIMTOFL
 70
     1
  9
$DIMTVP
 40
0.0
  9
$DIMTIX
 70
     0
  9
$DIMSOXD
 70
     0
  9
$DIMSAH
 70
     1
  9
$DIMBLK1
  1
OPEN
  9
$DIMBLK2
  1
OPEN
  9
$DIMSTYLE
  2
STYLE3
  9
$DIMCLRD
 70
     2
  9
$DIMCLRE
 70
     2
  9
$DIMCLRT
 70
     6
  9
$DIMTFAC
 40
1.0
  9
$DIMGAP
 40
0.625
  9
$DIMJUST
 70
     0
  9
$DIMSD1
 70
     0
  9
$DIMSD2
 70
     0
  9
$DIMTOLJ
 70
     1
  9
$DIMTZIN
 70
     0
  9
$DIMALTZ
 70
     0
  9
$DIMALTTZ
 70
     0
  9
$DIMUPT
 70
     0
  9
$DIMDEC
 70
     2
  9
$DIMTDEC
 70
     4
  9
$DIMALTU
 70
     8
  9
$DIMALTTD
 70
     4
  9
$DIMTXSTY
  7
STYLE3
  9
$DIMAUNIT
 70
     0
  9
$DIMADEC
 70
     0
  9
$DIMALTRND
 40
0.0
  9
$DIMAZIN
 70
     0
  9
$DIMDSEP
 70
    46
  9
$DIMATFIT
 70
     3
  9
$DIMFRAC
 70
     0
  9
$DIMLDRBLK
  1

  9
$DIMLUNIT
 70
     2
  9
$DIMLWD
 70
    -2
  9
$DIMLWE
 70
    -2
  9
$DIMTMOVE
 70
     0
  9
$LUNITS
 70
     2
  9
$LUPREC
 70
     4
  9
$SKETCHINC
 40
1.0
  9
$FILLETRAD
 40
0.5
  9
$AUNITS
 70
     0
  9
$AUPREC
 70
     0
  9
$MENU
  1
.
  9
$ELEVATION
 40
0.0
  9
$PELEVATION
 40
0.0
  9
$THICKNESS
 40
0.0
  9
$LIMCHECK
 70
     0
  9
$CHAMFERA
 40
1.0
  9
$CHAMFERB
 40
1.0
  9
$CHAMFERC
 40
20.0
  9
$CHAMFERD
 40
0.0
  9
$SKPOLY
 70
     0
  9
$TDCREATE
 40
2450753.462540625
  9
$TDUCREATE
 40
2450753.087540625
  9
$TDUPDATE
 40
2455371.444005532
  9
$TDUUPDATE
 40
2455371.069005532
  9
$TDINDWG
 40
2.6860346759
  9
$TDUSRTIMER
 40
2.6860346759
  9
$USRTIMER
 70
     1
  9
$ANGBASE
 50
0.0
  9
$ANGDIR
 70
     0
  9
$PDMODE
 70
     0
  9
$PDSIZE
 40
0.0
  9
$PLINEWID
 40
0.0
  9
$SPLFRAME
 70
     0
  9
$SPLINETYPE
 70
     6
  9
$SPLINESEGS
 70
     8
  9
$HANDSEED
  5
1936
  9
$SURFTAB1
 70
     6
  9
$SURFTAB2
 70
     6
  9
$SURFTYPE
 70
     6
  9
$SURFU
 70
     6
  9
$SURFV
 70
     6
  9
$UCSBASE
  2

  9
$UCSNAME
  2

  9
$UCSORG
 10
0.0
 20
0.0
 30
0.0
  9
$UCSXDIR
 10
1.0
 20
0.0
 30
0.0
  9
$UCSYDIR
 10
0.0
 20
1.0
 30
0.0
  9
$UCSORTHOREF
  2

  9
$UCSORTHOVIEW
 70
     0
  9
$UCSORGTOP
 10
0.0
 20
0.0
 30
0.0
  9
$UCSORGBOTTOM
 10
0.0
 20
0.0
 30
0.0
  9
$UCSORGLEFT
 10
0.0
 20
0.0
 30
0.0
  9
$UCSORGRIGHT
 10
0.0
 20
0.0
 30
0.0
  9
$UCSORGFRONT
 10
0.0
 20
0.0
 30
0.0
  9
$UCSORGBACK
 10
0.0
 20
0.0
 30
0.0
  9
$PUCSBASE
  2

  9
$PUCSNAME
  2

  9
$PUCSORG
 10
0.0
 20
0.0
 30
0.0
  9
$PUCSXDIR
 10
1.0
 20
0.0
 30
0.0
  9
$PUCSYDIR
 10
0.0
 20
1.0
 30
0.0
  9
$PUCSORTHOREF
  2

  9
$PUCSORTHOVIEW
 70
     0
  9
$PUCSORGTOP
 10
0.0
 20
0.0
 30
0.0
  9
$PUCSORGBOTTOM
 10
0.0
 20
0.0
 30
0.0
  9
$PUCSORGLEFT
 10
0.0
 20
0.0
 30
0.0
  9
$PUCSORGRIGHT
 10
0.0
 20
0.0
 30
0.0
  9
$PUCSORGFRONT
 10
0.0
 20
0.0
 30
0.0
  9
$PUCSORGBACK
 10
0.0
 20
0.0
 30
0.0
  9
$USERI1
 70
     0
  9
$USERI2
 70
     0
  9
$USERI3
 70
     0
  9
$USERI4
 70
     0
  9
$USERI5
 70
     0
  9
$USERR1
 40
0.0
  9
$USERR2
 40
0.0
  9
$USERR3
 40
0.0
  9
$USERR4
 40
0.0
  9
$USERR5
 40
0.0
  9
$WORLDVIEW
 70
     1
  9
$SHADEDGE
 70
     3
  9
$SHADEDIF
 70
    70
  9
$TILEMODE
 70
     1
  9
$MAXACTVP
 70
    48
  9
$PINSBASE
 10
0.0
 20
0.0
 30
0.0
  9
$PLIMCHECK
 70
     0
  9
$PEXTMIN
 10
1.000000000000000E+20
 20
1.000000000000000E+20
 30
1.000000000000000E+20
  9
$PEXTMAX
 10
-1.000000000000000E+20
 20
-1.000000000000000E+20
 30
-1.000000000000000E+20
  9
$PLIMMIN
 10
0.0
 20
0.0
  9
$PLIMMAX
 10
420.0
 20
297.0
  9
$UNITMODE
 70
     0
  9
$VISRETAIN
 70
     1
  9
$PLINEGEN
 70
     0
  9
$PSLTSCALE
 70
     1
  9
$TREEDEPTH
 70
  3020
  9
$CMLSTYLE
  2
STANDARD
  9
$CMLJUST
 70
     0
  9
$CMLSCALE
 40
20.0
  9
$PROXYGRAPHICS
 70
     1
  9
$MEASUREMENT
 70
     1
  9
$CELWEIGHT
370
    -1
  9
$ENDCAPS
280
     0
  9
$JOINSTYLE
280
     0
  9
$LWDISPLAY
290
     0
  9
$INSUNITS
 70
     0
  9
$HYPERLINKBASE
  1

  9
$STYLESHEET
  1
AutoCAD LT 98.ctb
  9
$XEDIT
290
     1
  9
$CEPSNTYPE
380
     0
  9
$PSTYLEMODE
290
     1
  9
$FINGERPRINTGUID
  2
{E742AF71-E087-49F6-B050-C88EE8C872D2}
  9
$VERSIONGUID
  2
{27B15CD7-C540-49D0-AC4A-6DDB67B8F085}
  9
$EXTNAMES
290
     1
  9
$PSVPSCALE
 40
0.0
  9
$OLESTARTUP
290
     0
  9
$SORTENTS
280
    96
  9
$INDEXCTL
280
     0
  9
$HIDETEXT
280
     0
  9
$XCLIPFRAME
290
     0
  9
$HALOGAP
280
     0
  9
$OBSCOLOR
 70
   257
  9
$OBSLTYPE
280
     0
  9
$INTERSECTIONDISPLAY
280
     0
  9
$INTERSECTIONCOLOR
 70
   257
  9
$DIMASSOC
280
     1
  9
$PROJECTNAME
  1

  0
ENDSEC
  0
SECTION
  2
CLASSES
  0
CLASS
  1
DICTIONARYVAR
  2
AcDbDictionaryVar
  3
ObjectDBX Classes
 90
        0
 91
        2
280
     0
281
     0
  0
CLASS
  1
HATCH
  2
AcDbHatch
  3
ObjectDBX Classes
 90
        0
 91
        1
280
     0
281
     1
  0
CLASS
  1
ACDBDICTIONARYWDFLT
  2
AcDbDictionaryWithDefault
  3
ObjectDBX Classes
 90
        0
 91
        1
280
     0
281
     0
  0
CLASS
  1
TABLESTYLE
  2
AcDbTableStyle
  3
ObjectDBX Classes
 90
     2047
 91
        1
280
     0
281
     0
  0
CLASS
  1
SORTENTSTABLE
  2
AcDbSortentsTable
  3
ObjectDBX Classes
 90
        0
 91
        1
280
     0
281
     0
  0
ENDSEC
  0
SECTION
  2
TABLES
  0
TABLE
  2
VPORT
  5
8
330
0
100
AcDbSymbolTable
 70
     2
  0
VPORT
  5
1935
330
8
100
AcDbSymbolTableRecord
100
AcDbViewportTableRecord
  2
*Active
 70
     0
 10
0.0
 20
0.0
 11
1.0
 21
1.0
 12
364.1844000811973
 22
269.3465568320321
 13
0.0
 23
0.0
 14
10.0
 24
10.0
 15
10.0
 25
10.0
 16
0.0
 26
0.0
 36
1.0
 17
0.0
 27
0.0
 37
0.0
 40
196.9270892890375
 41
1.530456852791878
 42
50.0
 43
0.0
 44
0.0
 50
0.0
 51
0.0
 71
     0
 72
   100
 73
     1
 74
     1
 75
     0
 76
     0
 77
     0
 78
     0
281
     0
 65
     1
110
0.0
120
0.0
130
0.0
111
1.0
121
0.0
131
0.0
112
0.0
122
1.0
132
0.0
 79
     0
146
0.0
  0
ENDTAB
  0
TABLE
  2
LTYPE
  5
5
330
0
100
AcDbSymbolTable
 70
     4
  0
LTYPE
  5
12
330
5
100
AcDbSymbolTableRecord
100
AcDbLinetypeTableRecord
  2
BYBLOCK
 70
     0
  3

 72
    65
 73
     0
 40
0.0
  0
LTYPE
  5
13
330
5
100
AcDbSymbolTableRecord
100
AcDbLinetypeTableRecord
  2
BYLAYER
 70
     0
  3

 72
    65
 73
     0
 40
0.0
  0
LTYPE
  5
14
330
5
100
AcDbSymbolTableRecord
100
AcDbLinetypeTableRecord
  2
CONTINUOUS
 70
     0
  3
Solid line
 72
    65
 73
     0
 40
0.0
  0
LTYPE
  5
22
330
5
100
AcDbSymbolTableRecord
100
AcDbLinetypeTableRecord
  2
CENTER2
 70
     0
  3
Center (.5x) ___ _ ___ _ ___ _ ___ _ ___ _ ___
 72
    65
 73
     4
 40
28.575
 49
19.05
 74
     0
 49
-3.174999999999999
 74
     0
 49
3.174999999999999
 74
     0
 49
-3.174999999999999
 74
     0
  0
LTYPE
  5
10A4
330
5
100
AcDbSymbolTableRecord
100
AcDbLinetypeTableRecord
  2
PHANTOM2
 70
     0
  3
Phantom (.5x) ___ _ _ ___ _ _ ___ _ _ ___ _ _
 72
    65
 73
     6
 40
31.75
 49
15.875
 74
     0
 49
-3.174999999999999
 74
     0
 49
3.174999999999999
 74
     0
 49
-3.174999999999999
 74
     0
 49
3.174999999999999
 74
     0
 49
-3.174999999999999
 74
     0
  0
LTYPE
  5
1152
330
5
100
AcDbSymbolTableRecord
100
AcDbLinetypeTableRecord
  2
HIDDEN2
 70
     0
  3
Hidden (.5x) _ _ _ _ _ _ _ _ _ _ _ _ _ _ _ _ _
 72
    65
 73
     2
 40
4.762499999999999
 49
3.174999999999999
 74
     0
 49
-1.587499999999999
 74
     0
  0
ENDTAB
  0
TABLE
  2
LAYER
  5
2
330
0
100
AcDbSymbolTable
 70
    13
  0
LAYER
  5
E
330
2
100
AcDbSymbolTableRecord
100
AcDbLayerTableRecord
  2
0
 70
     0
 62
     7
  6
CONTINUOUS
370
    -3
390
17F2
  0
LAYER
  5
25
330
2
100
AcDbSymbolTableRecord
100
AcDbLayerTableRecord
  2
外形線
 70
     0
 62
     7
  6
CONTINUOUS
370
    -3
390
17F2
  0
LAYER
  5
26
330
2
100
AcDbSymbolTableRecord
100
AcDbLayerTableRecord
  2
寸法線
 70
     0
 62
     2
  6
CONTINUOUS
370
    -3
390
17F2
  0
LAYER
  5
27
330
2
100
AcDbSymbolTableRecord
100
AcDbLayerTableRecord
  2
中心線
 70
     0
 62
     4
  6
CENTER2
370
    -3
390
17F2
  0
LAYER
  5
2A
330
2
100
AcDbSymbolTableRecord
100
AcDbLayerTableRecord
  2
ﾊｯﾁﾝｸ
 70
     0
 62
     6
  6
CONTINUOUS
370
    -3
390
17F2
  0
LAYER
  5
2B
330
2
100
AcDbSymbolTableRecord
100
AcDbLayerTableRecord
  2
文字
 70
     0
 62
     6
  6
CONTINUOUS
370
    -3
390
17F2
  0
LAYER
  5
53
330
2
100
AcDbSymbolTableRecord
100
AcDbLayerTableRecord
  2
DEFPOINTS
 70
     0
 62
     7
  6
CONTINUOUS
290
     0
370
    -3
390
17F2
  0
LAYER
  5
A5
330
2
100
AcDbSymbolTableRecord
100
AcDbLayerTableRecord
  2
C
 70
     0
 62
     7
  6
CONTINUOUS
370
    -3
390
17F2
  0
LAYER
  5
10A5
330
2
100
AcDbSymbolTableRecord
100
AcDbLayerTableRecord
  2
想像線
 70
     0
 62
     1
  6
PHANTOM2
370
    -3
390
17F2
  0
LAYER
  5
10A6
330
2
100
AcDbSymbolTableRecord
100
AcDbLayerTableRecord
  2
隠れ線
 70
     0
 62
     1
  6
HIDDEN2
370
    -3
390
17F2
  0
ENDTAB
  0
TABLE
  2
STYLE
  5
3
330
0
100
AcDbSymbolTable
 70
     5
  0
STYLE
  5
F
330
3
100
AcDbSymbolTableRecord
100
AcDbTextStyleTableRecord
  2
STANDARD
 70
     0
 40
0.0
 41
1.0
 50
0.0
 71
     0
 42
2.5
  3
txt
  4

  0
STYLE
  5
3F
330
3
100
AcDbSymbolTableRecord
100
AcDbTextStyleTableRecord
  2
STYLE3
 70
     0
 40
0.0
 41
1.0
 50
0.0
 71
     0
 42
3.0
  3
romans.shx
  4
bigfont.shx
  0
ENDTAB
  0
TABLE
  2
VIEW
  5
6
330
0
100
AcDbSymbolTable
 70
     0
  0
ENDTAB
  0
TABLE
  2
UCS
  5
7
330
0
100
AcDbSymbolTable
 70
     0
  0
ENDTAB
  0
TABLE
  2
APPID
  5
9
330
0
100
AcDbSymbolTable
 70
     2
  0
APPID
  5
10
330
9
100
AcDbSymbolTableRecord
100
AcDbRegAppTableRecord
  2
ACAD
 70
     0
  0
APPID
  5
187D
330
9
100
AcDbSymbolTableRecord
100
AcDbRegAppTableRecord
  2
ACAD_PSEXT
 70
     0
  0
ENDTAB
  0
TABLE
  2
DIMSTYLE
  5
A
330
0
100
AcDbSymbolTable
 70
     4
100
AcDbDimStyleTable
 71
     1
340
8F
  0
DIMSTYLE
105
1D
330
A
100
AcDbSymbolTableRecord
100
AcDbDimStyleTableRecord
  2
STANDARD
 70
     0
 41
2.5
 42
0.625
 43
3.75
 44
1.25
 73
     0
 74
     0
 77
     1
 78
     8
140
2.5
141
2.5
143
0.0394
147
0.625
171
     4
172
     1
273
     8
274
     4
277
     6
340
F
  0
DIMSTYLE
105
8F
102
{ACAD_REACTORS
330
16E6
330
1759
330
1771
330
17B4
330
180A
102
}
330
A
100
AcDbSymbolTableRecord
100
AcDbDimStyleTableRecord
  2
STYLE3
 70
     0
 41
2.5
 42
0.0
 43
3.75
 44
1.25
 73
     0
 74
     0
 77
     1
 78
     8
140
2.5
141
2.5
143
0.0394
147
0.625
171
     4
172
     1
173
     1
176
     2
177
     2
178
     6
271
     1
273
     8
274
     4
340
3F
341
45
343
45
344
45
  0
ENDTAB
  0
TABLE
  2
BLOCK_RECORD
  5
1
330
0
100
AcDbSymbolTable
 70
    12
  0
BLOCK_RECORD
  5
18
102
{ACAD_XDICTIONARY
360
188B
102
}
330
1
100
AcDbSymbolTableRecord
100
AcDbBlockTableRecord
  2
*MODEL_SPACE
340
17F9
  0
BLOCK_RECORD
  5
15
330
1
100
AcDbSymbolTableRecord
100
AcDbBlockTableRecord
  2
*PAPER_SPACE
340
17FA
  0
BLOCK_RECORD
  5
45
330
1
100
AcDbSymbolTableRecord
100
AcDbBlockTableRecord
  2
_OPEN
340
0
102
{BLKREFS
331
5DA
331
5DB
331
168D
331
168E
331
16B7
331
16C9
331
173B
331
173C
331
1745
331
1746
331
1774
331
1775
331
1797
331
1798
331
17CA
331
17CB
331
1908
331
1909
331
1911
331
1912
331
1919
331
191A
331
1924
331
1925
331
192F
331
1930
102
}
  0
BLOCK_RECORD
  5
51C
330
1
100
AcDbSymbolTableRecord
100
AcDbBlockTableRecord
  2
六角ﾈｼ
340
0
102
{BLKREFS
331
523
331
F8A
102
}
  0
BLOCK_RECORD
  5
16D8
330
1
100
AcDbSymbolTableRecord
100
AcDbBlockTableRecord
  2
*D6
340
0
  0
BLOCK_RECORD
  5
174B
330
1
100
AcDbSymbolTableRecord
100
AcDbBlockTableRecord
  2
*D7
340
0
  0
BLOCK_RECORD
  5
1766
330
1
100
AcDbSymbolTableRecord
100
AcDbBlockTableRecord
  2
*D8
340
0
  0
BLOCK_RECORD
  5
17A8
330
1
100
AcDbSymbolTableRecord
100
AcDbBlockTableRecord
  2
*D9
340
0
  0
BLOCK_RECORD
  5
180B
330
1
100
AcDbSymbolTableRecord
100
AcDbBlockTableRecord
  2
*D10
340
0
  0
ENDTAB
  0
ENDSEC
  0
SECTION
  2
BLOCKS
  0
BLOCK
  5
19
330
18
100
AcDbEntity
  8
0
100
AcDbBlockBegin
  2
*MODEL_SPACE
 70
     0
 10
0.0
 20
0.0
 30
0.0
  3
*MODEL_SPACE
  1

  0
ENDBLK
  5
1A
330
18
100
AcDbEntity
  8
0
100
AcDbBlockEnd
  0
BLOCK
  5
16
330
15
100
AcDbEntity
 67
     1
  8
0
100
AcDbBlockBegin
  2
*PAPER_SPACE
 70
     0
 10
0.0
 20
0.0
 30
0.0
  3
*PAPER_SPACE
  1

  0
ENDBLK
  5
17
330
15
100
AcDbEntity
 67
     1
  8
0
100
AcDbBlockEnd
  0
BLOCK
  5
46
330
45
100
AcDbEntity
  8
0
100
AcDbBlockBegin
  2
_OPEN
 70
     0
 10
0.0
 20
0.0
 30
0.0
  3
_OPEN
  1

  0
LINE
  5
47
330
45
100
AcDbEntity
  8
0
  6
ByBlock
 62
     0
100
AcDbLine
 10
-1.0
 20
0.1666666666666666
 30
0.0
 11
0.0
 21
0.0
 31
0.0
  0
LINE
  5
48
330
45
100
AcDbEntity
  8
0
  6
ByBlock
 62
     0
100
AcDbLine
 10
0.0
 20
0.0
 30
0.0
 11
-1.0
 21
-0.1666666666666666
 31
0.0
  0
LINE
  5
49
330
45
100
AcDbEntity
  8
0
  6
ByBlock
 62
     0
100
AcDbLine
 10
0.0
 20
0.0
 30
0.0
 11
-1.0
 21
0.0
 31
0.0
  0
ENDBLK
  5
4A
330
45
100
AcDbEntity
  8
0
100
AcDbBlockEnd
  0
BLOCK
  5
521
330
51C
100
AcDbEntity
  8
0
100
AcDbBlockBegin
  2
六角ﾈｼ
 70
     0
 10
0.0
 20
0.0
 30
0.0
  3
六角ﾈｼ
  1

  0
LINE
  5
51D
330
51C
100
AcDbEntity
  8
外形線
 48
0.8
100
AcDbLine
 10
-0.0000000000000568
 20
4.499999999999943
 30
0.0
 11
2.737599573181626
 21
4.499999999999943
 31
0.0
  0
ARC
  5
51E
330
51C
100
AcDbEntity
  8
外形線
100
AcDbCircle
 10
-4.010000000002662
 20
2.599999999999511
 30
0.0
 40
7.010000000002722
100
AcDbArc
 50
338.2289458906957
 51
15.72624379279067
  0
ARC
  5
51F
330
51C
100
AcDbEntity
  8
外形線
100
AcDbCircle
 10
-4.010000000002662
 20
-2.599999999999511
 30
0.0
 40
7.010000000002722
100
AcDbArc
 50
344.2737562072088
 51
21.77105410930435
  0
LINE
  5
520
330
51C
100
AcDbEntity
  8
外形線
 48
0.8
100
AcDbLine
 10
0.0000000000001705
 20
-4.5
 30
0.0
 11
2.737599573181569
 21
-4.5
 31
0.0
  0
ENDBLK
  5
522
330
51C
100
AcDbEntity
  8
0
100
AcDbBlockEnd
  0
BLOCK
  5
16D9
330
16D8
100
AcDbEntity
  8
0
100
AcDbBlockBegin
  2
*D6
 70
     1
 10
0.0
 20
0.0
 30
0.0
  3
*D6
  1

  0
LINE
  5
191F
330
16D8
100
AcDbEntity
  8
寸法線
 62
     2
370
    -2
100
AcDbLine
 10
417.4533281046997
 20
225.3453275095931
 30
0.0
 11
431.77180465357
 21
225.3453275095931
 31
0.0
  0
LINE
  5
1920
330
16D8
100
AcDbEntity
  8
寸法線
 62
     2
370
    -2
100
AcDbLine
 10
420.4533281046999
 20
230.3453275095931
 30
0.0
 11
431.77180465357
 21
230.3453275095931
 31
0.0
  0
LINE
  5
1921
330
16D8
100
AcDbEntity
  8
寸法線
 62
     2
370
    -2
100
AcDbLine
 10
430.52180465357
 20
222.845327509593
 30
0.0
 11
430.52180465357
 21
220.3453275095931
 31
0.0
  0
LINE
  5
1922
330
16D8
100
AcDbEntity
  8
寸法線
 62
     2
370
    -2
100
AcDbLine
 10
430.52180465357
 20
232.8453275095931
 30
0.0
 11
430.52180465357
 21
235.345327509593
 31
0.0
  0
LINE
  5
1923
330
16D8
100
AcDbEntity
  8
寸法線
 62
     2
370
    -2
100
AcDbLine
 10
430.52180465357
 20
225.3453275095931
 30
0.0
 11
430.52180465357
 21
230.3453275095931
 31
0.0
  0
INSERT
  5
1924
330
16D8
100
AcDbEntity
  8
寸法線
 62
     2
370
    -2
100
AcDbBlockReference
  2
_OPEN
 10
430.52180465357
 20
225.3453275095931
 30
0.0
 41
2.5
 42
2.5
 43
2.5
 50
90.0
  0
INSERT
  5
1925
330
16D8
100
AcDbEntity
  8
寸法線
 62
     2
370
    -2
100
AcDbBlockReference
  2
_OPEN
 10
430.52180465357
 20
230.3453275095931
 30
0.0
 41
2.5
 42
2.5
 43
2.5
 50
270.0
  0
MTEXT
  5
1926
330
16D8
100
AcDbEntity
  8
寸法線
 62
     6
100
AcDbMText
 10
428.6468046535699
 20
227.8453275095931
 30
0.0
 40
2.5
 41
0.0
 71
     5
 72
     1
  1
\A1;5
  7
STYLE3
 11
0.0000000000000001
 21
1.0
 31
0.0
 73
     1
 44
1.0
  0
POINT
  5
1927
330
16D8
100
AcDbEntity
  8
DEFPOINTS
 62
     0
100
AcDbPoint
 10
417.4533281046997
 20
225.3453275095931
 30
0.0
  0
POINT
  5
1928
330
16D8
100
AcDbEntity
  8
DEFPOINTS
 62
     0
100
AcDbPoint
 10
420.4533281046999
 20
230.3453275095931
 30
0.0
  0
POINT
  5
1929
330
16D8
100
AcDbEntity
  8
DEFPOINTS
 62
     0
100
AcDbPoint
 10
430.52180465357
 20
230.3453275095931
 30
0.0
  0
ENDBLK
  5
16E5
330
16D8
100
AcDbEntity
  8
0
100
AcDbBlockEnd
  0
BLOCK
  5
174C
330
174B
100
AcDbEntity
  8
0
100
AcDbBlockBegin
  2
*D7
 70
     1
 10
0.0
 20
0.0
 30
0.0
  3
*D7
  1

  0
LINE
  5
192A
330
174B
100
AcDbEntity
  8
寸法線
 62
     2
370
    -2
100
AcDbLine
 10
420.4533281046995
 20
267.345327509593
 30
0.0
 11
420.4533281046995
 21
286.5396931352046
 31
0.0
  0
LINE
  5
192B
330
174B
100
AcDbEntity
  8
寸法線
 62
     2
370
    -2
100
AcDbLine
 10
417.4533281046995
 20
280.6573455982558
 30
0.0
 11
417.4533281046995
 21
286.5396931352046
 31
0.0
  0
LINE
  5
192C
330
174B
100
AcDbEntity
  8
寸法線
 62
     2
370
    -2
100
AcDbLine
 10
422.9533281046996
 20
285.2896931352047
 30
0.0
 11
425.4533281046995
 21
285.2896931352047
 31
0.0
  0
LINE
  5
192D
330
174B
100
AcDbEntity
  8
寸法線
 62
     2
370
    -2
100
AcDbLine
 10
414.9533281046996
 20
285.2896931352047
 30
0.0
 11
412.4533281046995
 21
285.2896931352047
 31
0.0
  0
LINE
  5
192E
330
174B
100
AcDbEntity
  8
寸法線
 62
     2
370
    -2
100
AcDbLine
 10
420.4533281046995
 20
285.2896931352047
 30
0.0
 11
417.4533281046995
 21
285.2896931352047
 31
0.0
  0
INSERT
  5
192F
330
174B
100
AcDbEntity
  8
寸法線
 62
     2
370
    -2
100
AcDbBlockReference
  2
_OPEN
 10
420.4533281046995
 20
285.2896931352047
 30
0.0
 41
2.5
 42
2.5
 43
2.5
 50
180.0
  0
INSERT
  5
1930
330
174B
100
AcDbEntity
  8
寸法線
 62
     2
370
    -2
100
AcDbBlockReference
  2
_OPEN
 10
417.4533281046995
 20
285.2896931352047
 30
0.0
 41
2.5
 42
2.5
 43
2.5
  0
MTEXT
  5
1931
330
174B
100
AcDbEntity
  8
寸法線
 62
     6
100
AcDbMText
 10
418.9533281046996
 20
287.1646931352046
 30
0.0
 40
2.5
 41
0.0
 71
     5
 72
     1
  1
\A1;3
  7
STYLE3
 73
     1
 44
1.0
  0
POINT
  5
1932
330
174B
100
AcDbEntity
  8
DEFPOINTS
 62
     0
100
AcDbPoint
 10
420.4533281046995
 20
267.345327509593
 30
0.0
  0
POINT
  5
1933
330
174B
100
AcDbEntity
  8
DEFPOINTS
 62
     0
100
AcDbPoint
 10
417.4533281046995
 20
280.6573455982558
 30
0.0
  0
POINT
  5
1934
330
174B
100
AcDbEntity
  8
DEFPOINTS
 62
     0
100
AcDbPoint
 10
417.4533281046995
 20
285.2896931352047
 30
0.0
  0
ENDBLK
  5
1758
330
174B
100
AcDbEntity
  8
0
100
AcDbBlockEnd
  0
BLOCK
  5
1767
330
1766
100
AcDbEntity
  8
0
100
AcDbBlockBegin
  2
*D8
 70
     1
 10
0.0
 20
0.0
 30
0.0
  3
*D8
  1

  0
LINE
  5
1917
330
1766
100
AcDbEntity
  8
寸法線
 62
     2
370
    -2
100
AcDbLine
 10
267.0924251820823
 20
262.452128813589
 30
0.0
 11
267.0924251820823
 21
286.5396931352046
 31
0.0
  0
LINE
  5
1918
330
1766
100
AcDbEntity
  8
寸法線
 62
     2
370
    -2
100
AcDbLine
 10
334.5924251820822
 20
285.2896931352047
 30
0.0
 11
269.5924251820823
 21
285.2896931352047
 31
0.0
  0
INSERT
  5
1919
330
1766
100
AcDbEntity
  8
寸法線
 62
     2
370
    -2
100
AcDbBlockReference
  2
_OPEN
 10
337.0924251820822
 20
285.2896931352047
 30
0.0
 41
2.5
 42
2.5
 43
2.5
  0
INSERT
  5
191A
330
1766
100
AcDbEntity
  8
寸法線
 62
     2
370
    -2
100
AcDbBlockReference
  2
_OPEN
 10
267.0924251820823
 20
285.2896931352047
 30
0.0
 41
2.5
 42
2.5
 43
2.5
 50
180.0
  0
MTEXT
  5
191B
330
1766
100
AcDbEntity
  8
寸法線
 62
     6
100
AcDbMText
 10
302.0924251820823
 20
287.1646931352046
 30
0.0
 40
2.5
 41
0.0
 71
     5
 72
     1
  1
\A1;70
  7
STYLE3
 73
     1
 44
1.0
  0
POINT
  5
191C
330
1766
100
AcDbEntity
  8
DEFPOINTS
 62
     0
100
AcDbPoint
 10
337.0924251820822
 20
262.452128813589
 30
0.0
  0
POINT
  5
191D
330
1766
100
AcDbEntity
  8
DEFPOINTS
 62
     0
100
AcDbPoint
 10
267.0924251820823
 20
262.452128813589
 30
0.0
  0
POINT
  5
191E
330
1766
100
AcDbEntity
  8
DEFPOINTS
 62
     0
100
AcDbPoint
 10
267.0924251820823
 20
285.2896931352047
 30
0.0
  0
ENDBLK
  5
1770
330
1766
100
AcDbEntity
  8
0
100
AcDbBlockEnd
  0
BLOCK
  5
17A9
330
17A8
100
AcDbEntity
  8
0
100
AcDbBlockBegin
  2
*D9
 70
     1
 10
0.0
 20
0.0
 30
0.0
  3
*D9
  1

  0
LINE
  5
190E
330
17A8
100
AcDbEntity
  8
寸法線
 62
     2
370
    -2
100
AcDbLine
 10
417.4533281046995
 20
276.045327509593
 30
0.0
 11
380.6412516481243
 21
276.0453275095931
 31
0.0
  0
LINE
  5
190F
330
17A8
100
AcDbEntity
  8
寸法線
 62
     2
370
    -2
100
AcDbLine
 10
381.423785507355
 20
255.3453275095931
 30
0.0
 11
383.1412516481244
 21
255.3453275095931
 31
0.0
  0
LINE
  5
1910
330
17A8
100
AcDbEntity
  8
寸法線
 62
     2
370
    -2
100
AcDbLine
 10
381.8912516481244
 20
273.5453275095931
 30
0.0
 11
381.8912516481244
 21
257.8453275095931
 31
0.0
  0
INSERT
  5
1911
330
17A8
100
AcDbEntity
  8
寸法線
 62
     2
370
    -2
100
AcDbBlockReference
  2
_OPEN
 10
381.8912516481244
 20
276.0453275095931
 30
0.0
 41
2.5
 42
2.5
 43
2.5
 50
90.0
  0
INSERT
  5
1912
330
17A8
100
AcDbEntity
  8
寸法線
 62
     2
370
    -2
100
AcDbBlockReference
  2
_OPEN
 10
381.8912516481244
 20
255.3453275095931
 30
0.0
 41
2.5
 42
2.5
 43
2.5
 50
270.0
  0
MTEXT
  5
1913
330
17A8
100
AcDbEntity
  8
寸法線
 62
     6
100
AcDbMText
 10
380.0162516481243
 20
265.6953275095932
 30
0.0
 40
2.5
 41
0.0
 71
     5
 72
     1
  1
\A1;20.7
  7
STYLE3
 11
0.0000000000000001
 21
1.0
 31
0.0
 73
     1
 44
1.0
  0
POINT
  5
1914
330
17A8
100
AcDbEntity
  8
DEFPOINTS
 62
     0
100
AcDbPoint
 10
417.4533281046995
 20
276.045327509593
 30
0.0
  0
POINT
  5
1915
330
17A8
100
AcDbEntity
  8
DEFPOINTS
 62
     0
100
AcDbPoint
 10
381.423785507355
 20
255.3453275095931
 30
0.0
  0
POINT
  5
1916
330
17A8
100
AcDbEntity
  8
DEFPOINTS
 62
     0
100
AcDbPoint
 10
381.8912516481244
 20
255.3453275095931
 30
0.0
  0
ENDBLK
  5
17B3
330
17A8
100
AcDbEntity
  8
0
100
AcDbBlockEnd
  0
BLOCK
  5
1815
330
180B
100
AcDbEntity
  8
0
100
AcDbBlockBegin
  2
*D10
 70
     1
 10
0.0
 20
0.0
 30
0.0
  3
*D10
  1

  0
LINE
  5
1905
330
180B
100
AcDbEntity
  8
寸法線
 62
     2
370
    -2
100
AcDbLine
 10
244.0924251820823
 20
260.0453275095932
 30
0.0
 11
244.0924251820823
 21
286.5396931352046
 31
0.0
  0
LINE
  5
1906
330
180B
100
AcDbEntity
  8
寸法線
 62
     2
370
    -2
100
AcDbLine
 10
267.0924251820823
 20
261.8987281615911
 30
0.0
 11
267.0924251820823
 21
286.5396931352046
 31
0.0
  0
LINE
  5
1907
330
180B
100
AcDbEntity
  8
寸法線
 62
     2
370
    -2
100
AcDbLine
 10
246.5924251820823
 20
285.2896931352047
 30
0.0
 11
264.5924251820822
 21
285.2896931352047
 31
0.0
  0
INSERT
  5
1908
330
180B
100
AcDbEntity
  8
寸法線
 62
     2
370
    -2
100
AcDbBlockReference
  2
_OPEN
 10
244.0924251820823
 20
285.2896931352047
 30
0.0
 41
2.5
 42
2.5
 43
2.5
 50
180.0
  0
INSERT
  5
1909
330
180B
100
AcDbEntity
  8
寸法線
 62
     2
370
    -2
100
AcDbBlockReference
  2
_OPEN
 10
267.0924251820823
 20
285.2896931352047
 30
0.0
 41
2.5
 42
2.5
 43
2.5
  0
MTEXT
  5
190A
330
180B
100
AcDbEntity
  8
寸法線
 62
     6
100
AcDbMText
 10
255.5924251820822
 20
287.1646931352046
 30
0.0
 40
2.5
 41
0.0
 71
     5
 72
     1
  1
\A1;23
  7
STYLE3
 73
     1
 44
1.0
  0
POINT
  5
190B
330
180B
100
AcDbEntity
  8
DEFPOINTS
 62
     0
100
AcDbPoint
 10
244.0924251820823
 20
260.0453275095932
 30
0.0
  0
POINT
  5
190C
330
180B
100
AcDbEntity
  8
DEFPOINTS
 62
     0
100
AcDbPoint
 10
267.0924251820823
 20
261.8987281615911
 30
0.0
  0
POINT
  5
190D
330
180B
100
AcDbEntity
  8
DEFPOINTS
 62
     0
100
AcDbPoint
 10
267.0924251820823
 20
285.2896931352047
 30
0.0
  0
ENDBLK
  5
1816
330
180B
100
AcDbEntity
  8
0
100
AcDbBlockEnd
  0
ENDSEC
  0
SECTION
  2
ENTITIES
  0
LWPOLYLINE
  5
10B
330
18
100
AcDbEntity
  8
C
100
AcDbPolyline
 90
        5
 70
     0
 43
0.4
 10
236.6915604445414
 20
366.8501752555372
 10
491.6915604445414
 20
366.8501752555372
 10
491.6915604445414
 20
171.8501752555372
 10
236.6915604445414
 20
171.8501752555372
 10
236.6915604445414
 20
366.8501752555372
  0
LINE
  5
16A
330
18
100
AcDbEntity
  8
中心線
 48
0.5
100
AcDbLine
 10
241.752723562596
 20
255.3453275095932
 30
0.0
 11
422.6109746396328
 21
255.3453275095931
 31
0.0
  0
LINE
  5
16C
102
{ACAD_REACTORS
330
317
102
}
330
18
100
AcDbEntity
  8
外形線
100
AcDbLine
 10
307.0924251820823
 20
265.3046413332466
 30
0.0
 11
307.0924251820823
 21
259.3453275095932
 31
0.0
  0
LINE
  5
16D
102
{ACAD_REACTORS
330
317
102
}
330
18
100
AcDbEntity
  8
外形線
100
AcDbLine
 10
327.0924251820823
 20
264.3265514238113
 30
0.0
 11
327.0924251820824
 21
257.3453275095932
 31
0.0
  0
LINE
  5
16E
330
18
100
AcDbEntity
  8
外形線
100
AcDbLine
 10
337.0924251820822
 20
262.452128813589
 30
0.0
 11
337.0924251820822
 21
248.2385262055973
 31
0.0
  0
LINE
  5
171
330
18
100
AcDbEntity
  8
外形線
100
AcDbLine
 10
267.0924251820823
 20
262.452128813589
 30
0.0
 11
267.0924251820823
 21
261.3453275095932
 31
0.0
  0
ARC
  5
173
102
{ACAD_REACTORS
330
317
102
}
330
18
100
AcDbEntity
  8
外形線
100
AcDbCircle
 10
302.0924251820823
 20
-41.90467249040688
 30
0.0
 40
307.25
100
AcDbArc
 50
83.62585904071393
 51
96.37414095928605
  0
ARC
  5
175
102
{ACAD_REACTORS
330
317
102
}
330
18
100
AcDbEntity
  8
外形線
100
AcDbCircle
 10
302.0924251820823
 20
552.595327509593
 30
0.0
 40
307.25
100
AcDbArc
 50
263.6258590407139
 51
276.3741409592861
  0
LINE
  5
176
330
18
100
AcDbEntity
  8
外形線
100
AcDbLine
 10
317.0924251820823
 20
258.8453275095932
 30
0.0
 11
317.0924251820823
 21
251.8453275095931
 31
0.0
  0
LINE
  5
177
330
18
100
AcDbEntity
  8
外形線
100
AcDbLine
 10
287.0924251820822
 20
258.8453275095932
 30
0.0
 11
287.0924251820822
 21
251.8453275095931
 31
0.0
  0
LINE
  5
178
330
18
100
AcDbEntity
  8
外形線
100
AcDbLine
 10
287.0924251820822
 20
258.8453275095932
 30
0.0
 11
317.0924251820823
 21
258.8453275095932
 31
0.0
  0
LINE
  5
179
330
18
100
AcDbEntity
  8
外形線
100
AcDbLine
 10
287.0924251820822
 20
251.8453275095931
 30
0.0
 11
317.0924251820823
 21
251.8453275095931
 31
0.0
  0
LINE
  5
17A
102
{ACAD_REACTORS
330
317
102
}
330
18
100
AcDbEntity
  8
外形線
100
AcDbLine
 10
307.0924251820823
 20
259.3453275095932
 30
0.0
 11
317.5924251820823
 21
259.3453275095932
 31
0.0
  0
LINE
  5
17C
102
{ACAD_REACTORS
330
317
102
}
330
18
100
AcDbEntity
  8
外形線
100
AcDbLine
 10
317.5924251820823
 20
257.3453275095932
 30
0.0
 11
327.0924251820824
 21
257.3453275095932
 31
0.0
  0
LINE
  5
17F
102
{ACAD_REACTORS
330
317
102
}
330
18
100
AcDbEntity
  8
外形線
100
AcDbLine
 10
317.5924251820823
 20
259.3453275095932
 30
0.0
 11
317.5924251820823
 21
257.3453275095932
 31
0.0
  0
LINE
  5
181
102
{ACAD_REACTORS
330
317
102
}
330
18
100
AcDbEntity
  8
外形線
100
AcDbLine
 10
317.5924251820823
 20
253.3453275095931
 30
0.0
 11
327.0924251820824
 21
253.3453275095931
 31
0.0
  0
LINE
  5
182
102
{ACAD_REACTORS
330
317
102
}
330
18
100
AcDbEntity
  8
外形線
100
AcDbLine
 10
327.0924251820823
 20
246.364103595375
 30
0.0
 11
327.0924251820824
 21
253.3453275095931
 31
0.0
  0
LINE
  5
183
102
{ACAD_REACTORS
330
317
102
}
330
18
100
AcDbEntity
  8
外形線
100
AcDbLine
 10
317.5924251820823
 20
251.3453275095931
 30
0.0
 11
317.5924251820823
 21
253.3453275095931
 31
0.0
  0
LINE
  5
184
102
{ACAD_REACTORS
330
317
102
}
330
18
100
AcDbEntity
  8
外形線
100
AcDbLine
 10
307.0924251820823
 20
251.3453275095931
 30
0.0
 11
317.5924251820823
 21
251.3453275095931
 31
0.0
  0
LINE
  5
185
102
{ACAD_REACTORS
330
317
102
}
330
18
100
AcDbEntity
  8
外形線
100
AcDbLine
 10
307.0924251820823
 20
245.3860136859397
 30
0.0
 11
307.0924251820823
 21
251.3453275095931
 31
0.0
  0
LINE
  5
186
102
{ACAD_REACTORS
330
317
102
}
330
18
100
AcDbEntity
  8
外形線
100
AcDbLine
 10
277.0924251820822
 20
246.364103595375
 30
0.0
 11
277.0924251820821
 21
253.3453275095931
 31
0.0
  0
LINE
  5
188
102
{ACAD_REACTORS
330
317
102
}
330
18
100
AcDbEntity
  8
外形線
100
AcDbLine
 10
297.0924251820822
 20
245.3860136859397
 30
0.0
 11
297.0924251820822
 21
251.3453275095931
 31
0.0
  0
LINE
  5
189
102
{ACAD_REACTORS
330
317
102
}
330
18
100
AcDbEntity
  8
外形線
100
AcDbLine
 10
297.0924251820822
 20
251.3453275095931
 30
0.0
 11
286.5924251820823
 21
251.3453275095931
 31
0.0
  0
LINE
  5
18A
102
{ACAD_REACTORS
330
317
102
}
330
18
100
AcDbEntity
  8
外形線
100
AcDbLine
 10
286.5924251820823
 20
251.3453275095931
 30
0.0
 11
286.5924251820823
 21
253.3453275095931
 31
0.0
  0
LINE
  5
18B
102
{ACAD_REACTORS
330
317
102
}
330
18
100
AcDbEntity
  8
外形線
100
AcDbLine
 10
286.5924251820823
 20
253.3453275095931
 30
0.0
 11
277.0924251820821
 21
253.3453275095931
 31
0.0
  0
LINE
  5
18D
102
{ACAD_REACTORS
330
317
102
}
330
18
100
AcDbEntity
  8
外形線
100
AcDbLine
 10
297.0924251820822
 20
265.3046413332466
 30
0.0
 11
297.0924251820822
 21
259.3453275095932
 31
0.0
  0
LINE
  5
18E
102
{ACAD_REACTORS
330
317
102
}
330
18
100
AcDbEntity
  8
外形線
100
AcDbLine
 10
286.5924251820823
 20
257.3453275095932
 30
0.0
 11
277.0924251820821
 21
257.3453275095932
 31
0.0
  0
LINE
  5
18F
102
{ACAD_REACTORS
330
317
102
}
330
18
100
AcDbEntity
  8
外形線
100
AcDbLine
 10
277.0924251820822
 20
264.3265514238113
 30
0.0
 11
277.0924251820821
 21
257.3453275095932
 31
0.0
  0
LINE
  5
190
102
{ACAD_REACTORS
330
317
102
}
330
18
100
AcDbEntity
  8
外形線
100
AcDbLine
 10
286.5924251820823
 20
259.3453275095932
 30
0.0
 11
286.5924251820823
 21
257.3453275095932
 31
0.0
  0
LINE
  5
191
102
{ACAD_REACTORS
330
317
102
}
330
18
100
AcDbEntity
  8
外形線
100
AcDbLine
 10
297.0924251820822
 20
259.3453275095932
 30
0.0
 11
286.5924251820823
 21
259.3453275095932
 31
0.0
  0
TEXT
  5
1AE
330
18
100
AcDbEntity
  8
文字
100
AcDbText
 10
294.6394047929646
 20
254.1182691942675
 30
0.0
 40
2.5
  1
50-100mm
 41
0.85
  7
STYLE3
100
AcDbText
  0
LINE
  5
1B2
330
18
100
AcDbEntity
  8
外形線
100
AcDbLine
 10
337.0924251820822
 20
260.3453275095931
 30
0.0
 11
366.0480460577206
 21
260.345327509593
 31
0.0
  0
LINE
  5
1B3
330
18
100
AcDbEntity
  8
外形線
100
AcDbLine
 10
337.0924251820822
 20
250.3453275095932
 30
0.0
 11
362.6463708624812
 21
250.3453275095931
 31
0.0
  0
LINE
  5
1C3
330
18
100
AcDbEntity
  8
外形線
100
AcDbLine
 10
366.0480460577206
 20
260.345327509593
 30
0.0
 11
366.1323536024009
 21
260.345327509593
 31
0.0
  0
LINE
  5
1C4
330
18
100
AcDbEntity
  8
外形線
100
AcDbLine
 10
365.4515599900855
 20
250.3453275095931
 30
0.0
 11
386.4533281046997
 21
250.3453275095931
 31
0.0
  0
ARC
  5
24E
330
18
100
AcDbEntity
  8
外形線
100
AcDbCircle
 10
268.0924251820822
 20
262.452128813589
 30
0.0
 40
1.0
100
AcDbArc
 50
96.37414095927951
 51
180.0
  0
ARC
  5
24F
330
18
100
AcDbEntity
  8
外形線
100
AcDbCircle
 10
268.0924251820822
 20
248.2385262055973
 30
0.0
 40
1.0
100
AcDbArc
 50
180.0
 51
263.6258590407112
  0
ARC
  5
250
330
18
100
AcDbEntity
  8
外形線
100
AcDbCircle
 10
336.0924251820823
 20
262.452128813589
 30
0.0
 40
1.0
100
AcDbArc
 50
0.0
 51
83.62585904071403
  0
ARC
  5
251
330
18
100
AcDbEntity
  8
外形線
100
AcDbCircle
 10
336.0924251820823
 20
248.2385262055973
 30
0.0
 40
1.0
100
AcDbArc
 50
276.3741409592856
 51
0.0
  0
LINE
  5
253
330
18
100
AcDbEntity
  8
外形線
100
AcDbLine
 10
244.0924251820823
 20
260.0453275095932
 30
0.0
 11
244.0924251820823
 21
253.1548025289043
 31
0.0
  0
LINE
  5
254
330
18
100
AcDbEntity
  8
外形線
100
AcDbLine
 10
266.0924251820822
 20
260.3453275095932
 30
0.0
 11
266.0924251820822
 21
250.3453275095932
 31
0.0
  0
LINE
  5
255
330
18
100
AcDbEntity
  8
外形線
100
AcDbLine
 10
255.0924251820823
 20
260.3453275095932
 30
0.0
 11
255.0924251820823
 21
253.1548025289043
 31
0.0
  0
LINE
  5
256
330
18
100
AcDbEntity
  8
外形線
100
AcDbLine
 10
255.0924251820823
 20
260.3453275095932
 30
0.0
 11
266.0924251820822
 21
260.3453275095932
 31
0.0
  0
LINE
  5
257
330
18
100
AcDbEntity
  8
外形線
100
AcDbLine
 10
257.0086236691779
 20
250.3453275095932
 30
0.0
 11
266.0924251820822
 21
250.3453275095932
 31
0.0
  0
LINE
  5
25C
330
18
100
AcDbEntity
  8
外形線
100
AcDbLine
 10
267.0924251820822
 20
249.3453275095931
 30
0.0
 11
267.0924251820822
 21
248.2385262055973
 31
0.0
  0
LINE
  5
25E
330
18
100
AcDbEntity
  8
外形線
100
AcDbLine
 10
267.0924251820823
 20
261.3453275095932
 30
0.0
 11
267.0924251820822
 21
249.3453275095931
 31
0.0
  0
ARC
  5
25F
330
18
100
AcDbEntity
  8
外形線
100
AcDbCircle
 10
264.856576630528
 20
248.1721550917622
 30
0.0
 40
2.5
100
AcDbArc
 50
26.57629387126569
 51
60.37379958472584
  0
ARC
  5
260
330
18
100
AcDbEntity
  8
外形線
100
AcDbCircle
 10
264.856576630528
 20
262.5184999274241
 30
0.0
 40
2.5
100
AcDbArc
 50
299.6262004152742
 51
333.4237061287343
  0
LINE
  5
261
330
18
100
AcDbEntity
  8
外形線
100
AcDbLine
 10
245.0924251820823
 20
260.5453275095932
 30
0.0
 11
254.0924251820822
 21
260.5453275095932
 31
0.0
  0
LINE
  5
263
330
18
100
AcDbEntity
  8
外形線
100
AcDbLine
 10
245.0924251820822
 20
259.5453275095932
 30
0.0
 11
254.0924251820822
 21
259.5453275095932
 31
0.0
  0
LINE
  5
264
330
18
100
AcDbEntity
  8
外形線
100
AcDbLine
 10
254.0924251820822
 20
260.5453275095932
 30
0.0
 11
254.0924251820822
 21
259.5453275095932
 31
0.0
  0
LINE
  5
265
330
18
100
AcDbEntity
  8
外形線
100
AcDbLine
 10
245.0924251820822
 20
260.5453275095932
 30
0.0
 11
245.0924251820822
 21
259.5453275095932
 31
0.0
  0
LINE
  5
26B
330
18
100
AcDbEntity
  8
外形線
100
AcDbLine
 10
254.0924251820822
 20
259.5453275095932
 30
0.0
 11
255.0924251820823
 21
259.0453275095931
 31
0.0
  0
LINE
  5
26C
330
18
100
AcDbEntity
  8
外形線
100
AcDbLine
 10
254.0924251820822
 20
260.5453275095932
 30
0.0
 11
255.0924251820823
 21
260.0453275095932
 31
0.0
  0
LINE
  5
273
330
18
100
AcDbEntity
  8
外形線
100
AcDbLine
 10
245.0924251820822
 20
260.5453275095932
 30
0.0
 11
244.0924251820823
 21
260.0453275095932
 31
0.0
  0
LINE
  5
274
330
18
100
AcDbEntity
  8
外形線
100
AcDbLine
 10
245.0924251820822
 20
259.5453275095932
 30
0.0
 11
244.0924251820823
 21
259.0453275095931
 31
0.0
  0
LINE
  5
275
330
18
100
AcDbEntity
  8
外形線
100
AcDbLine
 10
245.0924251820822
 20
260.5453275095932
 30
0.0
 11
245.0924251820822
 21
259.5453275095932
 31
0.0
  0
LINE
  5
276
330
18
100
AcDbEntity
  8
中心線
 48
0.4
100
AcDbLine
 10
249.5924251820823
 20
258.4314232001678
 30
0.0
 11
249.5924251820822
 21
236.2592318190186
 31
0.0
  0
LINE
  5
277
330
18
100
AcDbEntity
  8
中心線
 48
0.4
100
AcDbLine
 10
239.1065644964776
 20
247.3453275095932
 30
0.0
 11
259.974233801926
 21
247.3453275095932
 31
0.0
  0
CIRCLE
  5
278
330
18
100
AcDbEntity
  8
外形線
100
AcDbCircle
 10
249.5924251820822
 20
247.3453275095932
 30
0.0
 40
8.0
  0
TEXT
  5
27E
330
18
100
AcDbEntity
  8
文字
100
AcDbText
 10
289.3704128721804
 20
253.9682505453828
 30
0.0
 40
1.0
  1
CG-3
  7
STYLE3
100
AcDbText
  0
ARC
  5
2F6
102
{ACAD_REACTORS
330
317
102
}
330
18
100
AcDbEntity
  8
外形線
100
AcDbCircle
 10
287.0924251820822
 20
245.1953310445991
 30
0.0
 40
2.0
100
AcDbArc
 50
12.33039196868931
 51
162.0823891309169
  0
HATCH
  5
317
330
18
100
AcDbEntity
  8
ﾊｯﾁﾝｸ
100
AcDbHatch
 10
0.0
 20
0.0
 30
0.0
210
0.0
220
0.0
230
1.0
  2
DOTS
 70
     0
 71
     1
 91
        4
 92
        7
 72
     1
 73
     1
 93
        6
 10
286.5924251820823
 20
257.3453275095932
 42
0.0
 10
286.5924251820823
 20
259.3453275095932
 42
0.0
 10
297.0924251820822
 20
259.3453275095931
 42
0.0
 10
297.0924251820822
 20
265.3046413332465
 42
0.0162971688498792
 10
277.0924251820822
 20
264.3265514238112
 42
0.0
 10
277.0924251820821
 20
257.3453275095932
 42
0.0
 97
        6
330
173
330
18F
330
18E
330
190
330
191
330
18D
 92
        7
 72
     1
 73
     1
 93
        6
 10
317.5924251820822
 20
259.3453275095932
 42
0.0
 10
317.5924251820823
 20
257.3453275095932
 42
0.0
 10
327.0924251820824
 20
257.3453275095932
 42
0.0
 10
327.0924251820823
 20
264.3265514238112
 42
0.0162971688498792
 10
307.0924251820823
 20
265.3046413332465
 42
0.0
 10
307.0924251820823
 20
259.3453275095932
 42
0.0
 97
        6
330
173
330
16C
330
17A
330
17F
330
17C
330
16D
 92
        7
 72
     1
 73
     1
 93
        6
 10
327.0924251820823
 20
246.3641035953751
 42
0.0
 10
327.0924251820823
 20
253.3453275095931
 42
0.0
 10
317.5924251820823
 20
253.3453275095931
 42
0.0
 10
317.5924251820822
 20
251.3453275095931
 42
0.0
 10
307.0924251820823
 20
251.3453275095932
 42
0.0
 10
307.0924251820823
 20
245.3860136859397
 42
0.0162971688498792
 97
        6
330
181
330
183
330
184
330
185
330
175
330
182
 92
        7
 72
     1
 73
     1
 93
        8
 10
285.1894254071847
 20
245.8106292298227
 42
-0.7656091570196754
 10
289.0462900564135
 20
245.6224282851131
 42
0.0065500023894979
 10
297.0924251820822
 20
245.3860136859397
 42
0.0
 10
297.0924251820822
 20
251.3453275095931
 42
0.0
 10
286.5924251820823
 20
251.3453275095931
 42
0.0
 10
286.5924251820823
 20
253.3453275095931
 42
0.0
 10
277.0924251820821
 20
253.3453275095931
 42
0.0
 10
277.0924251820822
 20
246.3641035953751
 42
0.006603945187105
 97
        7
330
189
330
18A
330
18B
330
186
330
175
330
2F6
330
188
 75
     0
 76
     1
 52
0.0
 41
0.4
 77
     0
 78
     1
 53
0.0
 43
-8.077396582342544
 44
19.45500806697402
 45
0.3175
 46
0.635
 79
     2
 49
0.0
 49
-0.635
 47
0.3765170278403226
 98
        4
 10
281.5243947235531
 20
260.2292123591379
 10
320.3376983292379
 20
260.6057291153425
 10
320.7145263948051
 20
248.180667514842
 10
283.4085358546555
 20
248.9337014822907
  0
POINT
  5
39F
330
18
100
AcDbEntity
  8
DEFPOINTS
  6
ByBlock
 62
     0
100
AcDbPoint
 10
244.0924251820823
 20
259.0453275095931
 30
0.0
  0
POINT
  5
3A7
330
18
100
AcDbEntity
  8
DEFPOINTS
  6
ByBlock
 62
     0
100
AcDbPoint
 10
337.0924251820822
 20
262.452128813589
 30
0.0
  0
LINE
  5
403
330
18
100
AcDbEntity
  8
外形線
100
AcDbLine
 10
315.5924251820823
 20
257.8453275095932
 30
0.0
 11
315.5924251820823
 21
252.8453275095932
 31
0.0
  0
LINE
  5
404
330
18
100
AcDbEntity
  8
外形線
100
AcDbLine
 10
288.5924251820823
 20
257.8453275095932
 30
0.0
 11
288.5924251820823
 21
252.8453275095932
 31
0.0
  0
LINE
  5
405
330
18
100
AcDbEntity
  8
外形線
100
AcDbLine
 10
288.5924251820823
 20
257.8453275095932
 30
0.0
 11
315.5924251820823
 21
257.8453275095932
 31
0.0
  0
LINE
  5
406
330
18
100
AcDbEntity
  8
外形線
100
AcDbLine
 10
288.5924251820823
 20
252.8453275095932
 30
0.0
 11
315.5924251820823
 21
252.8453275095932
 31
0.0
  0
LINE
  5
4DE
330
18
100
AcDbEntity
  8
外形線
100
AcDbLine
 10
367.0393902331271
 20
320.5234181581876
 30
0.0
 11
386.4533281046998
 21
320.5234181581876
 31
0.0
  0
LINE
  5
4DF
330
18
100
AcDbEntity
  8
外形線
100
AcDbLine
 10
370.525372792416
 20
330.5234181581876
 30
0.0
 11
386.4533281046997
 21
330.5234181581876
 31
0.0
  0
INSERT
  5
523
330
18
100
AcDbEntity
  8
外形線
100
AcDbBlockReference
  2
六角ﾈｼ
 10
386.4533281046997
 20
255.3453275095931
 30
0.0
 41
-1.0
 50
180.0
  0
LINE
  5
524
330
18
100
AcDbEntity
  8
外形線
100
AcDbLine
 10
386.4533281046997
 20
330.7234181581876
 30
0.0
 11
386.4533281046999
 21
320.3234181581877
 31
0.0
  0
LINE
  5
525
330
18
100
AcDbEntity
  8
外形線
100
AcDbLine
 10
388.9533281047002
 20
255.3453275095931
 30
0.0
 11
386.4533281046998
 21
255.3453275095931
 31
0.0
  0
LINE
  5
527
330
18
100
AcDbEntity
  8
中心線
 48
0.5
100
AcDbLine
 10
365.18416228361
 20
325.5234181581875
 30
0.0
 11
422.6059657049048
 21
325.5234181581875
 31
0.0
  0
POINT
  5
581
330
18
100
AcDbEntity
  8
DEFPOINTS
  6
ByBlock
 62
     0
100
AcDbPoint
 10
337.0924251820822
 20
262.452128813589
 30
0.0
  0
LINE
  5
5D9
330
18
100
AcDbEntity
  8
0
  6
ByBlock
 62
     2
100
AcDbLine
 10
373.764476859019
 20
257.8453275095931
 30
0.0
 11
373.764476859019
 21
252.8453275095932
 31
0.0
  0
INSERT
  5
5DA
330
18
100
AcDbEntity
  8
0
  6
ByBlock
 62
     2
100
AcDbBlockReference
  2
_OPEN
 10
373.764476859019
 20
260.3453275095931
 30
0.0
 41
2.5
 42
2.5
 43
2.5
 50
90.0
  0
INSERT
  5
5DB
330
18
100
AcDbEntity
  8
0
  6
ByBlock
 62
     2
100
AcDbBlockReference
  2
_OPEN
 10
373.764476859019
 20
250.3453275095932
 30
0.0
 41
2.5
 42
2.5
 43
2.5
 50
270.0
  0
POINT
  5
66B
330
18
100
AcDbEntity
  8
DEFPOINTS
  6
ByBlock
 62
     0
100
AcDbPoint
 10
417.4533281046995
 20
329.5734181581875
 30
0.0
  0
POINT
  5
66C
330
18
100
AcDbEntity
  8
DEFPOINTS
  6
ByBlock
 62
     0
100
AcDbPoint
 10
417.4533281046995
 20
321.4734181581875
 30
0.0
  0
LINE
  5
766
330
18
100
AcDbEntity
  8
外形線
100
AcDbLine
 10
386.4533281046997
 20
330.7234181581876
 30
0.0
 11
388.9533281046996
 21
330.7234181581876
 31
0.0
  0
LINE
  5
767
330
18
100
AcDbEntity
  8
外形線
100
AcDbLine
 10
388.9533281047001
 20
328.1234181581876
 30
0.0
 11
386.4533281046998
 21
328.1234181581876
 31
0.0
  0
LINE
  5
768
330
18
100
AcDbEntity
  8
外形線
100
AcDbLine
 10
388.9533281046998
 20
322.9234181581876
 30
0.0
 11
386.4533281046997
 21
322.9234181581876
 31
0.0
  0
LINE
  5
769
330
18
100
AcDbEntity
  8
外形線
100
AcDbLine
 10
386.4533281046999
 20
320.3234181581877
 30
0.0
 11
388.9533281046996
 21
320.3234181581877
 31
0.0
  0
LINE
  5
76A
330
18
100
AcDbEntity
  8
外形線
100
AcDbLine
 10
386.4533281046996
 20
260.345327509593
 30
0.0
 11
386.4533281046997
 21
250.3453275095931
 31
0.0
  0
ARC
  5
76B
330
18
100
AcDbEntity
  8
外形線
100
AcDbCircle
 10
387.5133281046995
 20
321.6234181581878
 30
0.0
 40
1.940000000000166
100
AcDbArc
 50
317.9249779491558
 51
42.07502205083457
  0
ARC
  5
76C
330
18
100
AcDbEntity
  8
外形線
100
AcDbCircle
 10
382.443328104697
 20
325.5234181581882
 30
0.0
 40
7.010000000002722
100
AcDbArc
 50
338.2289458906867
 51
21.77105410930435
  0
ARC
  5
76D
330
18
100
AcDbEntity
  8
外形線
100
AcDbCircle
 10
387.5133281046995
 20
329.4234181581875
 30
0.0
 40
1.940000000000166
100
AcDbArc
 50
317.9249779491655
 51
42.07502205084424
  0
LINE
  5
76E
330
18
100
AcDbEntity
  8
外形線
100
AcDbLine
 10
389.4533281046997
 20
321.6234181581878
 30
0.0
 11
389.4533281046997
 21
329.4234181581875
 31
0.0
  0
LINE
  5
778
330
18
100
AcDbEntity
  8
外形線
100
AcDbLine
 10
390.4533281046997
 20
266.3453275095931
 30
0.0
 11
390.4533281046997
 21
265.9909714333321
 31
0.0
  0
LINE
  5
77A
330
18
100
AcDbEntity
  8
外形線
100
AcDbLine
 10
410.9533281046997
 20
266.345327509593
 30
0.0
 11
410.9533281046997
 21
266.118744335875
 31
0.0
  0
LINE
  5
77B
330
18
100
AcDbEntity
  8
外形線
100
AcDbLine
 10
420.4533281046995
 20
267.345327509593
 30
0.0
 11
420.4533281046999
 21
228.2783402114854
 31
0.0
  0
LINE
  5
77C
330
18
100
AcDbEntity
  8
外形線
100
AcDbLine
 10
391.4533281046999
 20
249.3453275095931
 30
0.0
 11
407.9533281046998
 21
249.345327509593
 31
0.0
  0
LINE
  5
77D
330
18
100
AcDbEntity
  8
外形線
100
AcDbLine
 10
411.9533281046996
 20
267.345327509593
 30
0.0
 11
414.8226904505203
 21
267.345327509593
 31
0.0
  0
LINE
  5
77E
330
18
100
AcDbEntity
  8
外形線
100
AcDbLine
 10
389.4533281046998
 20
259.0953275095931
 30
0.0
 11
390.4533281046997
 21
259.0953275095931
 31
0.0
  0
LINE
  5
77F
330
18
100
AcDbEntity
  8
外形線
100
AcDbLine
 10
389.4533281046997
 20
251.5953275095931
 30
0.0
 11
390.4533281046998
 21
251.5953275095931
 31
0.0
  0
LINE
  5
780
330
18
100
AcDbEntity
  8
外形線
100
AcDbLine
 10
391.4533281046997
 20
267.3453275095931
 30
0.0
 11
391.8076841809607
 21
267.3453275095931
 31
0.0
  0
LINE
  5
78E
330
18
100
AcDbEntity
  8
中心線
 48
0.5
100
AcDbLine
 10
392.9533281046997
 20
268.5550514178237
 30
0.0
 11
392.9533281046997
 21
258.7136691578708
 31
0.0
  0
LINE
  5
78F
330
18
100
AcDbEntity
  8
中心線
 48
0.5
100
AcDbLine
 10
389.5850394991275
 20
264.8453275095931
 30
0.0
 11
395.9217561264872
 21
264.8453275095931
 31
0.0
  0
CIRCLE
  5
790
330
18
100
AcDbEntity
  8
外形線
100
AcDbCircle
 10
392.9533281046996
 20
264.8453275095931
 30
0.0
 40
1.5
  0
LINE
  5
792
330
18
100
AcDbEntity
  8
中心線
 48
0.5
100
AcDbLine
 10
412.4533281046995
 20
266.4402640590146
 30
0.0
 11
412.4533281046996
 21
262.9218558019482
 31
0.0
  0
LINE
  5
793
330
18
100
AcDbEntity
  8
中心線
 48
0.5
100
AcDbLine
 10
410.8583915552781
 20
264.845327509593
 30
0.0
 11
414.0482646541211
 21
264.845327509593
 31
0.0
  0
CIRCLE
  5
794
330
18
100
AcDbEntity
  8
外形線
100
AcDbCircle
 10
412.4533281046995
 20
264.845327509593
 30
0.0
 40
0.9849999999999999
  0
LINE
  5
797
330
18
100
AcDbEntity
  8
中心線
 48
0.5
100
AcDbLine
 10
409.4533281046997
 20
253.2833266650766
 30
0.0
 11
409.4533281046997
 21
249.323692563409
 31
0.0
  0
LINE
  5
798
330
18
100
AcDbEntity
  8
中心線
 48
0.5
100
AcDbLine
 10
407.4735110538658
 20
251.3453275095931
 30
0.0
 11
411.4331451555335
 21
251.3453275095931
 31
0.0
  0
LINE
  5
7AF
330
18
100
AcDbEntity
  8
中心線
 48
0.5
100
AcDbLine
 10
417.4533281046995
 20
280.6573455982558
 30
0.0
 11
417.4533281046997
 21
221.8342341936088
 31
0.0
  0
CIRCLE
  5
803
330
18
100
AcDbEntity
  8
外形線
100
AcDbCircle
 10
406.9533281046997
 20
270.8453275095931
 30
0.0
 40
1.5
  0
LINE
  5
80B
330
18
100
AcDbEntity
  8
外形線
100
AcDbLine
 10
418.4533281046996
 20
267.345327509593
 30
0.0
 11
420.4533281046995
 21
267.345327509593
 31
0.0
  0
LINE
  5
819
330
18
100
AcDbEntity
  8
中心線
 48
0.5
100
AcDbLine
 10
406.9533281046997
 20
273.1854036802058
 30
0.0
 11
406.9533281046997
 21
268.5052513389804
 31
0.0
  0
LINE
  5
81A
330
18
100
AcDbEntity
  8
中心線
 48
0.5
100
AcDbLine
 10
404.6132519340869
 20
270.8453275095931
 30
0.0
 11
409.2934042753123
 21
270.8453275095931
 31
0.0
  0
LINE
  5
849
330
18
100
AcDbEntity
  8
外形線
100
AcDbLine
 10
418.5033281046996
 20
275.445327509593
 30
0.0
 11
418.2533281046996
 21
275.445327509593
 31
0.0
  0
ARC
  5
84A
330
18
100
AcDbEntity
  8
外形線
100
AcDbCircle
 10
417.4533281046995
 20
275.0453275095931
 30
0.0
 40
1.0
100
AcDbArc
 50
23.57817847819385
 51
156.4218215218031
  0
LINE
  5
84B
330
18
100
AcDbEntity
  8
外形線
100
AcDbLine
 10
416.4033281047021
 20
274.6591395242642
 30
0.0
 11
416.4033281046995
 21
275.4453275095929
 31
0.0
  0
POINT
  5
84C
330
18
100
AcDbEntity
  8
DEFPOINTS
  6
ByBlock
 62
     0
100
AcDbPoint
 10
417.4533281046995
 20
276.045327509593
 30
0.0
  0
POINT
  5
84D
330
18
100
AcDbEntity
  8
DEFPOINTS
  6
ByBlock
 62
     0
100
AcDbPoint
 10
417.4533281046995
 20
276.045327509593
 30
0.0
  0
POINT
  5
84E
330
18
100
AcDbEntity
  8
DEFPOINTS
  6
ByBlock
 62
     0
100
AcDbPoint
 10
417.4533281046995
 20
276.045327509593
 30
0.0
  0
LINE
  5
84F
330
18
100
AcDbEntity
  8
外形線
100
AcDbLine
 10
418.5033281046995
 20
274.345327509593
 30
0.0
 11
418.5033281046996
 21
275.4453275095929
 31
0.0
  0
LINE
  5
850
330
18
100
AcDbEntity
  8
外形線
100
AcDbLine
 10
418.5033281046994
 20
275.445327509593
 30
0.0
 11
418.2533281046996
 21
275.4453275095931
 31
0.0
  0
LINE
  5
85E
330
18
100
AcDbEntity
  8
外形線
100
AcDbLine
 10
390.4533281046997
 20
321.5234181581875
 30
0.0
 11
390.4533281046997
 21
329.5234181581875
 31
0.0
  0
LINE
  5
85F
330
18
100
AcDbEntity
  8
外形線
100
AcDbLine
 10
420.4533281046995
 20
321.5234181581875
 30
0.0
 11
420.4533281046995
 21
329.5234181581875
 31
0.0
  0
LINE
  5
860
330
18
100
AcDbEntity
  8
外形線
100
AcDbLine
 10
410.9533281046997
 20
321.5234181581875
 30
0.0
 11
410.9533281046996
 21
329.5234181581875
 31
0.0
  0
LINE
  5
8BD
330
18
100
AcDbEntity
  8
外形線
100
AcDbLine
 10
390.4533281046997
 20
329.5234181581875
 30
0.0
 11
405.4533281046996
 21
329.5234181581875
 31
0.0
  0
LINE
  5
8BE
330
18
100
AcDbEntity
  8
外形線
100
AcDbLine
 10
390.4533281046997
 20
321.5234181581875
 30
0.0
 11
405.4533281047005
 21
321.5234181581875
 31
0.0
  0
LINE
  5
8BF
330
18
100
AcDbEntity
  8
外形線
100
AcDbLine
 10
408.4533281047011
 20
323.0234181581876
 30
0.0
 11
416.3076841809605
 21
323.0234181581876
 31
0.0
  0
LINE
  5
8C2
330
18
100
AcDbEntity
  8
外形線
100
AcDbLine
 10
389.4533281046998
 20
259.0953275095931
 30
0.0
 11
389.4533281046997
 21
251.5953275095931
 31
0.0
  0
POINT
  5
9FE
330
18
100
AcDbEntity
  8
DEFPOINTS
  6
ByBlock
 62
     0
100
AcDbPoint
 10
417.4533281046995
 20
276.045327509593
 30
0.0
  0
CIRCLE
  5
FA6
330
18
100
AcDbEntity
  8
外形線
100
AcDbCircle
 10
417.4533281046996
 20
325.5234181581875
 30
0.0
 40
2.75
  0
CIRCLE
  5
FA9
330
18
100
AcDbEntity
  8
外形線
100
AcDbCircle
 10
417.4533281046996
 20
325.5234181581875
 30
0.0
 40
1.3
  0
CIRCLE
  5
FAA
330
18
100
AcDbEntity
  8
外形線
100
AcDbCircle
 10
417.4533281046996
 20
325.5234181581875
 30
0.0
 40
1.0
  0
LINE
  5
FC2
330
18
100
AcDbEntity
  8
外形線
100
AcDbLine
 10
418.5989720284387
 20
323.0234181581876
 30
0.0
 11
420.4533281046995
 21
323.0234181581876
 31
0.0
  0
LINE
  5
FC3
330
18
100
AcDbEntity
  8
外形線
100
AcDbLine
 10
389.4533281046998
 20
329.2734181581875
 30
0.0
 11
390.4533281046997
 21
329.2734181581875
 31
0.0
  0
LINE
  5
FC4
330
18
100
AcDbEntity
  8
外形線
100
AcDbLine
 10
389.4533281046997
 20
321.7734181581875
 30
0.0
 11
390.4533281046998
 21
321.7734181581875
 31
0.0
  0
LINE
  5
FC5
330
18
100
AcDbEntity
  8
外形線
100
AcDbLine
 10
389.4533281046998
 20
329.2734181581875
 30
0.0
 11
389.4533281046997
 21
321.7734181581875
 31
0.0
  0
LINE
  5
FC6
330
18
100
AcDbEntity
  8
中心線
 48
0.5
100
AcDbLine
 10
392.9533281046997
 20
312.597105344226
 30
0.0
 11
392.9533281046997
 21
338.5756675728734
 31
0.0
  0
LINE
  5
FC7
330
18
100
AcDbEntity
  8
中心線
 48
0.5
100
AcDbLine
 10
406.9533281046995
 20
311.9248365215845
 30
0.0
 11
406.9533281046996
 21
338.420662993795
 31
0.0
  0
LINE
  5
FCB
330
18
100
AcDbEntity
  8
外形線
100
AcDbLine
 10
418.4533281046996
 20
335.5234181581875
 30
0.0
 11
418.4533281046996
 21
333.5234181581875
 31
0.0
  0
LINE
  5
1097
330
18
100
AcDbEntity
  8
外形線
100
AcDbLine
 10
405.4533281047005
 20
321.5234181581875
 30
0.0
 11
405.4533281046995
 21
333.5234181581875
 31
0.0
  0
LINE
  5
10B3
330
18
100
AcDbEntity
  8
外形線
100
AcDbLine
 10
392.1642434888722
 20
265.6344121254205
 30
0.0
 11
393.7424127205271
 21
264.0562428937656
 31
0.0
  0
LINE
  5
10B5
330
18
100
AcDbEntity
  8
外形線
100
AcDbLine
 10
393.7424127205271
 20
265.6344121254205
 30
0.0
 11
392.1642434888722
 21
264.0562428937656
 31
0.0
  0
LINE
  5
10B6
330
18
100
AcDbEntity
  8
外形線
100
AcDbLine
 10
406.1642434888721
 20
271.6344121254206
 30
0.0
 11
407.742412720527
 21
270.0562428937658
 31
0.0
  0
LINE
  5
10B7
330
18
100
AcDbEntity
  8
外形線
100
AcDbLine
 10
407.742412720527
 20
271.6344121254206
 30
0.0
 11
406.1642434888721
 21
270.0562428937658
 31
0.0
  0
CIRCLE
  5
10B8
330
18
100
AcDbEntity
  8
外形線
100
AcDbCircle
 10
409.4533281046997
 20
251.3453275095931
 30
0.0
 40
1.25
  0
LINE
  5
10BC
330
18
100
AcDbEntity
  8
外形線
100
AcDbLine
 10
408.7695080336532
 20
252.0291475806394
 30
0.0
 11
410.137148175746
 21
250.6615074385466
 31
0.0
  0
LINE
  5
10BD
330
18
100
AcDbEntity
  8
外形線
100
AcDbLine
 10
410.1371481757461
 20
252.0291475806395
 30
0.0
 11
408.7695080336533
 21
250.6615074385467
 31
0.0
  0
CIRCLE
  5
10C2
330
18
100
AcDbEntity
  8
外形線
100
AcDbCircle
 10
418.9533281046996
 20
251.3453275095931
 30
0.0
 40
1.25
  0
LINE
  5
10C3
330
18
100
AcDbEntity
  8
外形線
100
AcDbLine
 10
419.6371481757461
 20
252.0291475806395
 30
0.0
 11
418.2695080336531
 21
250.6615074385467
 31
0.0
  0
LINE
  5
10C4
330
18
100
AcDbEntity
  8
外形線
100
AcDbLine
 10
418.2695080336531
 20
252.0291475806395
 30
0.0
 11
419.637148175746
 21
250.6615074385467
 31
0.0
  0
LINE
  5
10F3
330
18
100
AcDbEntity
  8
外形線
100
AcDbLine
 10
390.4533281046997
 20
335.5234181581875
 30
0.0
 11
418.4533281046996
 21
335.5234181581875
 31
0.0
  0
LINE
  5
10F4
330
18
100
AcDbEntity
  8
外形線
100
AcDbLine
 10
390.4533281046997
 20
333.5234181581875
 30
0.0
 11
411.4683281046995
 21
333.5234181581875
 31
0.0
  0
LINE
  5
10F7
330
18
100
AcDbEntity
  8
外形線
100
AcDbLine
 10
390.4533281046997
 20
333.5234181581875
 30
0.0
 11
390.4533281046997
 21
335.5234181581875
 31
0.0
  0
LINE
  5
10F8
330
18
100
AcDbEntity
  8
外形線
100
AcDbLine
 10
391.9033281046997
 20
336.8234181581875
 30
0.0
 11
394.0033281046997
 21
336.8234181581875
 31
0.0
  0
LINE
  5
10F9
330
18
100
AcDbEntity
  8
外形線
100
AcDbLine
 10
391.2033281046997
 20
335.5234181581875
 30
0.0
 11
391.2033281046997
 21
336.1234181581875
 31
0.0
  0
LINE
  5
10FA
330
18
100
AcDbEntity
  8
外形線
100
AcDbLine
 10
394.7033281046996
 20
335.5234181581875
 30
0.0
 11
394.7033281046996
 21
336.1234181581875
 31
0.0
  0
ARC
  5
10FB
330
18
100
AcDbEntity
  8
外形線
100
AcDbCircle
 10
391.9033281046997
 20
336.1234181581875
 30
0.0
 40
0.7
100
AcDbArc
 50
90.0
 51
180.0000000000001
  0
ARC
  5
10FC
330
18
100
AcDbEntity
  8
外形線
100
AcDbCircle
 10
394.0033281046997
 20
336.1234181581875
 30
0.0
 40
0.7
100
AcDbArc
 50
0.0000000000001527
 51
90.0
  0
LINE
  5
10FD
330
18
100
AcDbEntity
  8
外形線
100
AcDbLine
 10
405.9033281046996
 20
336.8234181581875
 30
0.0
 11
408.0033281046996
 21
336.8234181581875
 31
0.0
  0
LINE
  5
10FE
330
18
100
AcDbEntity
  8
外形線
100
AcDbLine
 10
405.2033281046997
 20
335.5234181581875
 30
0.0
 11
405.2033281046997
 21
336.1234181581875
 31
0.0
  0
ARC
  5
10FF
330
18
100
AcDbEntity
  8
外形線
100
AcDbCircle
 10
405.9033281046996
 20
336.1234181581875
 30
0.0
 40
0.7
100
AcDbArc
 50
90.0
 51
180.0000000000001
  0
LINE
  5
1100
330
18
100
AcDbEntity
  8
外形線
100
AcDbLine
 10
408.7033281046995
 20
335.5234181581875
 30
0.0
 11
408.7033281046996
 21
336.1234181581875
 31
0.0
  0
ARC
  5
1101
330
18
100
AcDbEntity
  8
外形線
100
AcDbCircle
 10
408.0033281046996
 20
336.1234181581875
 30
0.0
 40
0.7
100
AcDbArc
 50
0.0000000000001527
 51
90.0
  0
LINE
  5
1102
330
18
100
AcDbEntity
  8
外形線
100
AcDbLine
 10
391.9033281046997
 20
314.2234181581875
 30
0.0
 11
394.0033281046997
 21
314.2234181581875
 31
0.0
  0
LINE
  5
1103
330
18
100
AcDbEntity
  8
外形線
100
AcDbLine
 10
390.4533281046997
 20
315.5234181581875
 30
0.0
 11
418.4533281046996
 21
315.5234181581875
 31
0.0
  0
LINE
  5
1104
330
18
100
AcDbEntity
  8
外形線
100
AcDbLine
 10
390.4533281046997
 20
317.5234181581875
 30
0.0
 11
411.4683281046995
 21
317.5234181581875
 31
0.0
  0
LINE
  5
1105
330
18
100
AcDbEntity
  8
外形線
100
AcDbLine
 10
391.2033281046997
 20
315.5234181581875
 30
0.0
 11
391.2033281046997
 21
314.9234181581875
 31
0.0
  0
ARC
  5
1106
330
18
100
AcDbEntity
  8
外形線
100
AcDbCircle
 10
391.9033281046997
 20
314.9234181581875
 30
0.0
 40
0.7
100
AcDbArc
 50
179.9999999999998
 51
270.0
  0
LINE
  5
1107
330
18
100
AcDbEntity
  8
外形線
100
AcDbLine
 10
390.4533281046997
 20
317.5234181581875
 30
0.0
 11
390.4533281046997
 21
315.5234181581875
 31
0.0
  0
LINE
  5
1109
330
18
100
AcDbEntity
  8
外形線
100
AcDbLine
 10
394.7033281046996
 20
315.5234181581875
 30
0.0
 11
394.7033281046996
 21
314.9234181581875
 31
0.0
  0
ARC
  5
110A
330
18
100
AcDbEntity
  8
外形線
100
AcDbCircle
 10
394.0033281046997
 20
314.9234181581875
 30
0.0
 40
0.7
100
AcDbArc
 50
270.0
 51
359.9999999999998
  0
LINE
  5
110C
330
18
100
AcDbEntity
  8
外形線
100
AcDbLine
 10
405.9033281046996
 20
314.2234181581875
 30
0.0
 11
408.0033281046996
 21
314.2234181581875
 31
0.0
  0
ARC
  5
110D
330
18
100
AcDbEntity
  8
外形線
100
AcDbCircle
 10
405.9033281046996
 20
314.9234181581875
 30
0.0
 40
0.7
100
AcDbArc
 50
179.9999999999998
 51
270.0
  0
LINE
  5
110E
330
18
100
AcDbEntity
  8
外形線
100
AcDbLine
 10
405.2033281046997
 20
315.5234181581875
 30
0.0
 11
405.2033281046997
 21
314.9234181581875
 31
0.0
  0
LINE
  5
110F
330
18
100
AcDbEntity
  8
外形線
100
AcDbLine
 10
405.4533281046996
 20
321.5234181581874
 30
0.0
 11
405.4533281046995
 21
317.5234181581875
 31
0.0
  0
ARC
  5
1110
330
18
100
AcDbEntity
  8
外形線
100
AcDbCircle
 10
408.0033281046996
 20
314.9234181581875
 30
0.0
 40
0.7
100
AcDbArc
 50
270.0
 51
359.9999999999998
  0
LINE
  5
1111
330
18
100
AcDbEntity
  8
外形線
100
AcDbLine
 10
408.7033281046995
 20
315.5234181581875
 30
0.0
 11
408.7033281046996
 21
314.9234181581875
 31
0.0
  0
LINE
  5
1112
330
18
100
AcDbEntity
  8
外形線
100
AcDbLine
 10
408.4533281047017
 20
333.5234181581875
 30
0.0
 11
408.4533281046994
 21
317.5234181581875
 31
0.0
  0
LINE
  5
1113
330
18
100
AcDbEntity
  8
外形線
100
AcDbLine
 10
418.4533281046996
 20
315.5234181581875
 30
0.0
 11
418.4533281046996
 21
317.5234181581875
 31
0.0
  0
POINT
  5
1114
330
18
100
AcDbEntity
  8
DEFPOINTS
  6
ByBlock
 62
     0
100
AcDbPoint
 10
417.4533281046995
 20
321.4734181581875
 30
0.0
  0
LINE
  5
1115
330
18
100
AcDbEntity
  8
外形線
100
AcDbLine
 10
396.4533281046997
 20
321.5234181581875
 30
0.0
 11
396.4533281046997
 21
329.5234181581875
 31
0.0
  0
LINE
  5
111C
330
18
100
AcDbEntity
  8
外形線
100
AcDbLine
 10
408.4533281046996
 20
329.5234181581875
 30
0.0
 11
420.4533281046995
 21
329.5234181581875
 31
0.0
  0
LINE
  5
111D
330
18
100
AcDbEntity
  8
外形線
100
AcDbLine
 10
408.4533281047014
 20
321.5234181581875
 30
0.0
 11
420.4533281046995
 21
321.5234181581875
 31
0.0
  0
LINE
  5
1127
330
18
100
AcDbEntity
  8
中心線
 48
0.5
100
AcDbLine
 10
412.4533281046995
 20
337.0313197627532
 30
0.0
 11
412.4533281046996
 21
314.3099510818336
 31
0.0
  0
LINE
  5
1128
330
18
100
AcDbEntity
  8
外形線
100
AcDbLine
 10
411.4683281046995
 20
315.5234181581875
 30
0.0
 11
411.4683281046995
 21
318.5234181581875
 31
0.0
  0
LINE
  5
1129
330
18
100
AcDbEntity
  8
外形線
100
AcDbLine
 10
413.4383281046995
 20
315.5234181581875
 30
0.0
 11
413.4383281046996
 21
318.5234181581875
 31
0.0
  0
LINE
  5
112C
330
18
100
AcDbEntity
  8
外形線
100
AcDbLine
 10
411.4683281046996
 20
329.5234181581875
 30
0.0
 11
411.4683281046995
 21
331.9234181581875
 31
0.0
  0
LINE
  5
112E
330
18
100
AcDbEntity
  8
外形線
100
AcDbLine
 10
413.4383281046996
 20
333.5234181581875
 30
0.0
 11
418.4533281046996
 21
333.5234181581875
 31
0.0
  0
LINE
  5
118E
330
18
100
AcDbEntity
  8
中心線
100
AcDbLine
 10
461.7771957770462
 20
278.7735236121279
 30
0.0
 11
461.7771957770462
 21
221.8719462558768
 31
0.0
  0
LINE
  5
118F
330
18
100
AcDbEntity
  8
外形線
100
AcDbLine
 10
457.7771957770462
 20
267.3453275095932
 30
0.0
 11
457.7771957770464
 21
230.3453275095931
 31
0.0
  0
LINE
  5
1190
330
18
100
AcDbEntity
  8
外形線
100
AcDbLine
 10
465.7771957770462
 20
267.3453275095931
 30
0.0
 11
465.7771957770463
 21
230.3453275095931
 31
0.0
  0
LINE
  5
1192
330
18
100
AcDbEntity
  8
外形線
100
AcDbLine
 10
457.7771957770463
 20
267.3453275095932
 30
0.0
 11
465.7771957770462
 21
267.3453275095932
 31
0.0
  0
LINE
  5
1193
330
18
100
AcDbEntity
  8
外形線
100
AcDbLine
 10
459.2771957770462
 20
267.3453275095932
 30
0.0
 11
459.2771957770462
 21
246.3453275095931
 31
0.0
  0
LINE
  5
1198
330
18
100
AcDbEntity
  8
外形線
100
AcDbLine
 10
453.7771957770462
 20
275.8453275095931
 30
0.0
 11
453.7771957770461
 21
259.8453275095931
 31
0.0
  0
LINE
  5
1199
330
18
100
AcDbEntity
  8
外形線
100
AcDbLine
 10
451.7771957770461
 20
273.8453275095931
 30
0.0
 11
451.7771957770461
 21
259.845327509593
 31
0.0
  0
LINE
  5
11A8
330
18
100
AcDbEntity
  8
中心線
 48
0.5
100
AcDbLine
 10
453.6247871568209
 20
255.345327509593
 30
0.0
 11
469.5421337443705
 21
255.345327509593
 31
0.0
  0
LINE
  5
11B6
330
18
100
AcDbEntity
  8
中心線
 48
0.5
100
AcDbLine
 10
449.9164687893617
 20
270.8453275095931
 30
0.0
 11
474.2600739048703
 21
270.8453275095931
 31
0.0
  0
LINE
  5
11B7
330
18
100
AcDbEntity
  8
外形線
100
AcDbLine
 10
450.4771957770462
 20
271.8953275095931
 30
0.0
 11
450.4771957770462
 21
269.7953275095932
 31
0.0
  0
LINE
  5
11B9
330
18
100
AcDbEntity
  8
外形線
100
AcDbLine
 10
451.7771957770462
 20
269.0953275095932
 30
0.0
 11
451.1771957770462
 21
269.0953275095932
 31
0.0
  0
ARC
  5
11BA
330
18
100
AcDbEntity
  8
外形線
100
AcDbCircle
 10
451.1771957770462
 20
269.7953275095932
 30
0.0
 40
0.7
100
AcDbArc
 50
180.0
 51
269.9999999999998
  0
LINE
  5
11BD
330
18
100
AcDbEntity
  8
外形線
100
AcDbLine
 10
451.7771957770462
 20
272.5953275095931
 30
0.0
 11
451.1771957770462
 21
272.5953275095931
 31
0.0
  0
ARC
  5
11BE
330
18
100
AcDbEntity
  8
外形線
100
AcDbCircle
 10
451.1771957770462
 20
271.8953275095931
 30
0.0
 40
0.7
100
AcDbArc
 50
89.99999999999984
 51
180.0
  0
ARC
  5
1246
330
18
100
AcDbEntity
  8
外形線
100
AcDbCircle
 10
453.7771957770462
 20
273.8453275095931
 30
0.0
 40
2.0
100
AcDbArc
 50
90.00000000000161
 51
180.0
  0
POINT
  5
1289
330
18
100
AcDbEntity
  8
DEFPOINTS
  6
ByBlock
 62
     0
100
AcDbPoint
 10
420.4533281046995
 20
267.345327509593
 30
0.0
  0
POINT
  5
1290
330
18
100
AcDbEntity
  8
DEFPOINTS
  6
ByBlock
 62
     0
100
AcDbPoint
 10
337.0924251820822
 20
262.452128813589
 30
0.0
  0
MTEXT
  5
129F
330
18
100
AcDbEntity
  8
0
  6
ByBlock
 62
     6
100
AcDbMText
 10
435.4273415820101
 20
291.1856956168078
 30
0.0
 40
2.5
 41
0.0
 71
     5
 72
     1
  1
呼び50フリ－寸法
  7
STYLE3
 11
0.0000000000000001
 21
1.0
 31
0.0
 73
     1
 44
1.0
  0
POINT
  5
12B3
330
18
100
AcDbEntity
  8
DEFPOINTS
  6
ByBlock
 62
     0
100
AcDbPoint
 10
417.4533281046995
 20
276.045327509593
 30
0.0
  0
POINT
  5
12B5
330
18
100
AcDbEntity
  8
DEFPOINTS
  6
ByBlock
 62
     0
100
AcDbPoint
 10
385.009794214595
 20
255.345327509593
 30
0.0
  0
POINT
  5
12CC
330
18
100
AcDbEntity
  8
DEFPOINTS
  6
ByBlock
 62
     0
100
AcDbPoint
 10
241.5924251820822
 20
247.3453275095932
 30
0.0
  0
LINE
  5
12FC
330
18
100
AcDbEntity
  8
外形線
100
AcDbLine
 10
390.4533281046998
 20
250.3453275095931
 30
0.0
 11
391.4533281046999
 21
249.3453275095931
 31
0.0
  0
LINE
  5
12FD
330
18
100
AcDbEntity
  8
外形線
100
AcDbLine
 10
410.9533281046997
 20
266.345327509593
 30
0.0
 11
411.9533281046996
 21
267.345327509593
 31
0.0
  0
LINE
  5
12FE
330
18
100
AcDbEntity
  8
中心線
 48
0.5
100
AcDbLine
 10
418.9533281046996
 20
252.9968618509234
 30
0.0
 11
418.9533281046996
 21
249.6750775131724
 31
0.0
  0
LINE
  5
1300
330
18
100
AcDbEntity
  8
中心線
 48
0.5
100
AcDbLine
 10
417.2141400103919
 20
251.3453275095931
 30
0.0
 11
421.1737741120596
 21
251.3453275095931
 31
0.0
  0
LINE
  5
1301
330
18
100
AcDbEntity
  8
外形線
100
AcDbLine
 10
411.4533281046999
 20
230.3453275095931
 30
0.0
 11
420.4533281046998
 21
230.3453275095931
 31
0.0
  0
LINE
  5
1302
330
18
100
AcDbEntity
  8
外形線
100
AcDbLine
 10
410.9533281046997
 20
246.3453275095931
 30
0.0
 11
410.9533281046999
 21
230.8453275095931
 31
0.0
  0
ARC
  5
1303
330
18
100
AcDbEntity
  8
外形線
100
AcDbCircle
 10
407.9533281046998
 20
246.345327509593
 30
0.0
 40
3.0
100
AcDbArc
 50
0.0000000000005343
 51
90.0000000000001
  0
LINE
  5
1304
330
18
100
AcDbEntity
  8
外形線
100
AcDbLine
 10
411.4533281046999
 20
230.3453275095931
 30
0.0
 11
410.9533281046999
 21
230.8453275095931
 31
0.0
  0
LINE
  5
1305
330
18
100
AcDbEntity
  8
外形線
100
AcDbLine
 10
410.9533281046997
 20
246.3453275095931
 30
0.0
 11
420.4533281046998
 21
246.3453275095931
 31
0.0
  0
LINE
  5
130F
330
18
100
AcDbEntity
  8
外形線
100
AcDbLine
 10
457.7771957770463
 20
246.3453275095931
 30
0.0
 11
459.2771957770462
 21
246.345327509593
 31
0.0
  0
LINE
  5
1310
330
18
100
AcDbEntity
  8
外形線
100
AcDbLine
 10
457.7771957770464
 20
230.3453275095931
 30
0.0
 11
465.7771957770463
 21
230.3453275095931
 31
0.0
  0
LINE
  5
1328
330
18
100
AcDbEntity
  8
中心線
 48
0.5
100
AcDbLine
 10
417.4533281046996
 20
320.4321439530137
 30
0.0
 11
417.4533281046995
 21
330.0193893807123
 31
0.0
  0
LINE
  5
132C
330
18
100
AcDbEntity
  8
外形線
100
AcDbLine
 10
410.9533281046997
 20
329.5234181581875
 30
0.0
 11
410.9533281046997
 21
330.1234181581875
 31
0.0
  0
ARC
  5
1332
330
18
100
AcDbEntity
  8
外形線
100
AcDbCircle
 10
390.5033281046997
 20
332.2234181581875
 30
0.0
 40
0.3
100
AcDbArc
 50
89.99999999998914
 51
270.0000000000108
  0
ARC
  5
1333
330
18
100
AcDbEntity
  8
外形線
100
AcDbCircle
 10
395.4033281046997
 20
331.6234181581874
 30
0.0
 40
0.3
100
AcDbArc
 50
270.0000000000108
 51
89.99999999998914
  0
ARC
  5
1334
330
18
100
AcDbEntity
  8
外形線
100
AcDbCircle
 10
390.5033281046997
 20
331.6234181581874
 30
0.0
 40
0.3
100
AcDbArc
 50
89.99999999998914
 51
270.0000000000108
  0
ARC
  5
1335
330
18
100
AcDbEntity
  8
外形線
100
AcDbCircle
 10
390.5033281046997
 20
331.0234181581874
 30
0.0
 40
0.3
100
AcDbArc
 50
89.99999999998914
 51
270.0000000000108
  0
ARC
  5
1336
330
18
100
AcDbEntity
  8
外形線
100
AcDbCircle
 10
390.5033281046997
 20
330.4234181581874
 30
0.0
 40
0.3
100
AcDbArc
 50
89.99999999998914
 51
270.0000000000108
  0
ARC
  5
1337
330
18
100
AcDbEntity
  8
外形線
100
AcDbCircle
 10
390.5033281046997
 20
329.8234181581874
 30
0.0
 40
0.3
100
AcDbArc
 50
89.99999999998914
 51
270.0000000000108
  0
ARC
  5
1338
330
18
100
AcDbEntity
  8
外形線
100
AcDbCircle
 10
395.4033281046997
 20
331.0234181581874
 30
0.0
 40
0.3
100
AcDbArc
 50
270.0000000000108
 51
89.99999999998914
  0
ARC
  5
1339
330
18
100
AcDbEntity
  8
外形線
100
AcDbCircle
 10
395.4033281046997
 20
330.4234181581874
 30
0.0
 40
0.3
100
AcDbArc
 50
270.0000000000108
 51
89.99999999998914
  0
ARC
  5
133A
330
18
100
AcDbEntity
  8
外形線
100
AcDbCircle
 10
395.4033281046997
 20
329.8234181581874
 30
0.0
 40
0.3
100
AcDbArc
 50
270.0000000000108
 51
89.99999999998914
  0
LINE
  5
133B
330
18
100
AcDbEntity
  8
外形線
100
AcDbLine
 10
390.5033281046997
 20
331.9234181581875
 30
0.0
 11
405.4533281046996
 21
331.9234181581875
 31
0.0
  0
LINE
  5
133C
330
18
100
AcDbEntity
  8
外形線
100
AcDbLine
 10
390.5033281046996
 20
331.3234181581874
 30
0.0
 11
395.4033281046996
 21
331.3234181581874
 31
0.0
  0
LINE
  5
133D
330
18
100
AcDbEntity
  8
外形線
100
AcDbLine
 10
390.5033281046996
 20
330.7234181581874
 30
0.0
 11
395.4033281046996
 21
330.7234181581874
 31
0.0
  0
LINE
  5
133E
330
18
100
AcDbEntity
  8
外形線
100
AcDbLine
 10
390.5033281046996
 20
330.1234181581874
 30
0.0
 11
405.4533281046998
 21
330.1234181581875
 31
0.0
  0
LINE
  5
1340
330
18
100
AcDbEntity
  8
外形線
100
AcDbLine
 10
408.4533281047012
 20
330.1234181581875
 30
0.0
 11
410.9533281046997
 21
330.1234181581875
 31
0.0
  0
LINE
  5
1341
330
18
100
AcDbEntity
  8
外形線
100
AcDbLine
 10
408.4533281047014
 20
331.9234181581874
 30
0.0
 11
416.1078543776959
 21
331.9234181581876
 31
0.0
  0
LINE
  5
1342
330
18
100
AcDbEntity
  8
外形線
100
AcDbLine
 10
390.5033281046997
 20
319.1234181581875
 30
0.0
 11
405.4533281046996
 21
319.1234181581875
 31
0.0
  0
LINE
  5
1343
330
18
100
AcDbEntity
  8
外形線
100
AcDbLine
 10
390.5033281046996
 20
320.9234181581876
 30
0.0
 11
405.4533281046998
 21
320.9234181581875
 31
0.0
  0
LINE
  5
1344
330
18
100
AcDbEntity
  8
外形線
100
AcDbLine
 10
390.4533281046997
 20
321.5234181581875
 30
0.0
 11
405.4533281046996
 21
321.5234181581875
 31
0.0
  0
LINE
  5
1345
330
18
100
AcDbEntity
  8
外形線
100
AcDbLine
 10
390.5033281046996
 20
320.3234181581876
 30
0.0
 11
395.4033281046996
 21
320.3234181581876
 31
0.0
  0
LINE
  5
1346
330
18
100
AcDbEntity
  8
外形線
100
AcDbLine
 10
390.5033281046996
 20
319.7234181581876
 30
0.0
 11
395.4033281046996
 21
319.7234181581876
 31
0.0
  0
ARC
  5
1347
330
18
100
AcDbEntity
  8
外形線
100
AcDbCircle
 10
390.5033281046997
 20
321.2234181581876
 30
0.0
 40
0.3
100
AcDbArc
 50
89.99999999998918
 51
270.0000000000108
  0
ARC
  5
1348
330
18
100
AcDbEntity
  8
外形線
100
AcDbCircle
 10
390.5033281046997
 20
320.6234181581876
 30
0.0
 40
0.3
100
AcDbArc
 50
89.99999999998918
 51
270.0000000000108
  0
ARC
  5
1349
330
18
100
AcDbEntity
  8
外形線
100
AcDbCircle
 10
390.5033281046997
 20
320.0234181581876
 30
0.0
 40
0.3
100
AcDbArc
 50
89.99999999998918
 51
270.0000000000108
  0
ARC
  5
134A
330
18
100
AcDbEntity
  8
外形線
100
AcDbCircle
 10
390.5033281046997
 20
319.4234181581875
 30
0.0
 40
0.3
100
AcDbArc
 50
89.99999999998918
 51
270.0000000000108
  0
ARC
  5
134B
330
18
100
AcDbEntity
  8
外形線
100
AcDbCircle
 10
390.5033281046997
 20
318.8234181581875
 30
0.0
 40
0.3
100
AcDbArc
 50
89.99999999998918
 51
270.0000000000108
  0
ARC
  5
134C
330
18
100
AcDbEntity
  8
外形線
100
AcDbCircle
 10
395.4033281046997
 20
321.2234181581876
 30
0.0
 40
0.3
100
AcDbArc
 50
270.0000000000108
 51
89.99999999998918
  0
ARC
  5
134D
330
18
100
AcDbEntity
  8
外形線
100
AcDbCircle
 10
395.4033281046997
 20
320.6234181581876
 30
0.0
 40
0.3
100
AcDbArc
 50
270.0000000000108
 51
89.99999999998918
  0
ARC
  5
134E
330
18
100
AcDbEntity
  8
外形線
100
AcDbCircle
 10
395.4033281046997
 20
320.0234181581876
 30
0.0
 40
0.3
100
AcDbArc
 50
270.0000000000108
 51
89.99999999998918
  0
ARC
  5
134F
330
18
100
AcDbEntity
  8
外形線
100
AcDbCircle
 10
395.4033281046997
 20
319.4234181581875
 30
0.0
 40
0.3
100
AcDbArc
 50
270.0000000000108
 51
89.99999999998918
  0
LINE
  5
1350
330
18
100
AcDbEntity
  8
外形線
100
AcDbLine
 10
408.4533281047014
 20
319.1234181581876
 30
0.0
 11
416.1078543776959
 21
319.1234181581874
 31
0.0
  0
LINE
  5
1351
330
18
100
AcDbEntity
  8
外形線
100
AcDbLine
 10
408.4533281047012
 20
320.9234181581875
 30
0.0
 11
410.9533281046997
 21
320.9234181581875
 31
0.0
  0
LINE
  5
1352
330
18
100
AcDbEntity
  8
外形線
100
AcDbLine
 10
410.9533281046997
 20
321.5234181581875
 30
0.0
 11
410.9533281046997
 21
320.9234181581875
 31
0.0
  0
LINE
  5
1397
330
18
100
AcDbEntity
  8
外形線
100
AcDbLine
 10
390.4533281046998
 20
259.1996835858538
 30
0.0
 11
390.4533281046998
 21
250.3453275095931
 31
0.0
  0
LINE
  5
139B
330
18
100
AcDbEntity
  8
外形線
100
AcDbLine
 10
407.9533281046996
 20
259.3453275095931
 30
0.0
 11
407.9533281046996
 21
249.3453275095931
 31
0.0
  0
LINE
  5
13C1
330
18
100
AcDbEntity
  8
隠れ線
 48
0.3
100
AcDbLine
 10
453.7771957770463
 20
272.3453275095931
 30
0.0
 11
451.7771957770462
 21
272.3453275095931
 31
0.0
  0
LINE
  5
13C2
330
18
100
AcDbEntity
  8
隠れ線
 48
0.3
100
AcDbLine
 10
453.7771957770463
 20
269.3453275095931
 30
0.0
 11
451.7771957770462
 21
269.3453275095931
 31
0.0
  0
ARC
  5
13D0
330
18
100
AcDbEntity
  8
外形線
100
AcDbCircle
 10
417.4533281046997
 20
226.845327509593
 30
0.0
 40
1.5
100
AcDbArc
 50
195.4660099534208
 51
344.5339900465792
  0
LINE
  5
13D1
330
18
100
AcDbEntity
  8
外形線
100
AcDbLine
 10
415.6533281046996
 20
226.445327509593
 30
0.0
 11
419.2533281046997
 21
226.445327509593
 31
0.0
  0
LINE
  5
13D2
330
18
100
AcDbEntity
  8
外形線
100
AcDbLine
 10
415.2033281046995
 20
227.845327509593
 30
0.0
 11
419.7033281046996
 21
227.8453275095931
 31
0.0
  0
LINE
  5
13D3
330
18
100
AcDbEntity
  8
外形線
100
AcDbLine
 10
414.4533281046997
 20
230.3453275095931
 30
0.0
 11
414.4533281046997
 21
228.2783402114852
 31
0.0
  0
LINE
  5
13D8
330
18
100
AcDbEntity
  8
外形線
100
AcDbLine
 10
415.2033281046996
 20
227.8453275095931
 30
0.0
 11
415.6533281046996
 21
226.445327509593
 31
0.0
  0
LINE
  5
13D9
330
18
100
AcDbEntity
  8
外形線
100
AcDbLine
 10
419.7033281046996
 20
227.8453275095931
 30
0.0
 11
419.2533281046997
 21
226.445327509593
 31
0.0
  0
LINE
  5
13E2
330
18
100
AcDbEntity
  8
外形線
100
AcDbLine
 10
420.4533281046998
 20
228.2783402114854
 30
0.0
 11
419.7033281046996
 21
227.8453275095931
 31
0.0
  0
LINE
  5
13E3
330
18
100
AcDbEntity
  8
外形線
100
AcDbLine
 10
414.4533281046994
 20
228.2783402114853
 30
0.0
 11
415.2033281046997
 21
227.845327509593
 31
0.0
  0
LINE
  5
13E4
330
18
100
AcDbEntity
  8
外形線
100
AcDbLine
 10
414.4533281046997
 20
228.2783402114852
 30
0.0
 11
415.8033281046996
 21
228.2783402114852
 31
0.0
  0
LINE
  5
13E5
330
18
100
AcDbEntity
  8
外形線
100
AcDbLine
 10
415.8033281046997
 20
230.3453275095931
 30
0.0
 11
415.8033281046997
 21
228.2783402114853
 31
0.0
  0
LINE
  5
13E6
330
18
100
AcDbEntity
  8
外形線
100
AcDbLine
 10
419.1033281046996
 20
230.3453275095931
 30
0.0
 11
419.1033281046996
 21
228.2783402114854
 31
0.0
  0
LINE
  5
13E7
330
18
100
AcDbEntity
  8
外形線
100
AcDbLine
 10
419.1033281046996
 20
228.2783402114854
 30
0.0
 11
420.4533281046999
 21
228.2783402114854
 31
0.0
  0
ARC
  5
13E8
330
18
100
AcDbEntity
  8
外形線
100
AcDbCircle
 10
417.4533281046994
 20
231.2055060762759
 30
0.0
 40
3.360178566682845
100
AcDbArc
 50
240.5906886028069
 51
299.4093113972002
  0
LINE
  5
13ED
330
18
100
AcDbEntity
  8
外形線
100
AcDbLine
 10
459.5271957770462
 20
227.845327509593
 30
0.0
 11
464.0271957770462
 21
227.8453275095931
 31
0.0
  0
LINE
  5
13EE
330
18
100
AcDbEntity
  8
外形線
100
AcDbLine
 10
459.9771957770462
 20
226.445327509593
 30
0.0
 11
463.5771957770463
 21
226.445327509593
 31
0.0
  0
ARC
  5
13EF
330
18
100
AcDbEntity
  8
外形線
100
AcDbCircle
 10
461.7771957770463
 20
226.845327509593
 30
0.0
 40
1.5
100
AcDbArc
 50
195.4660099534208
 51
344.5339900465792
  0
LINE
  5
13F0
330
18
100
AcDbEntity
  8
外形線
100
AcDbLine
 10
459.2771957770461
 20
228.2783402114852
 30
0.0
 11
464.2771957770461
 21
228.2783402114854
 31
0.0
  0
LINE
  5
13F1
330
18
100
AcDbEntity
  8
外形線
100
AcDbLine
 10
459.2771957770462
 20
227.9896650768904
 30
0.0
 11
459.5271957770463
 21
227.845327509593
 31
0.0
  0
LINE
  5
13F2
330
18
100
AcDbEntity
  8
外形線
100
AcDbLine
 10
459.5271957770462
 20
227.8453275095931
 30
0.0
 11
459.9771957770463
 21
226.445327509593
 31
0.0
  0
LINE
  5
13F4
330
18
100
AcDbEntity
  8
外形線
100
AcDbLine
 10
464.2771957770461
 20
227.9896650768905
 30
0.0
 11
464.0271957770462
 21
227.8453275095931
 31
0.0
  0
LINE
  5
13F5
330
18
100
AcDbEntity
  8
外形線
100
AcDbLine
 10
464.0271957770462
 20
227.8453275095931
 30
0.0
 11
463.5771957770463
 21
226.445327509593
 31
0.0
  0
LINE
  5
13F6
330
18
100
AcDbEntity
  8
外形線
100
AcDbLine
 10
459.2771957770461
 20
230.345327509593
 30
0.0
 11
459.2771957770461
 21
227.9896650768905
 31
0.0
  0
LINE
  5
13F7
330
18
100
AcDbEntity
  8
外形線
100
AcDbLine
 10
464.2771957770462
 20
230.345327509593
 30
0.0
 11
464.2771957770462
 21
227.9896650768905
 31
0.0
  0
LINE
  5
13F9
330
18
100
AcDbEntity
  8
外形線
100
AcDbLine
 10
457.1796243254925
 20
263.8453275095931
 30
0.0
 11
457.1796243254925
 21
262.3357910164151
 31
0.0
  0
LINE
  5
13FA
330
18
100
AcDbEntity
  8
外形線
100
AcDbLine
 10
457.7600953156601
 20
256.5453275095931
 30
0.0
 11
457.7771957770463
 21
256.5453275095931
 31
0.0
  0
LINE
  5
1410
330
18
100
AcDbEntity
  8
外形線
100
AcDbLine
 10
456.5771957770461
 20
262.3738860452283
 30
0.0
 11
456.5771957770461
 21
263.8453275095931
 31
0.0
  0
LINE
  5
1411
330
18
100
AcDbEntity
  8
外形線
100
AcDbLine
 10
455.9771957770461
 20
262.3738860452283
 30
0.0
 11
455.9771957770461
 21
263.8453275095931
 31
0.0
  0
ARC
  5
1412
330
18
100
AcDbEntity
  8
外形線
100
AcDbCircle
 10
457.4771957770462
 20
262.3738860452284
 30
0.0
 40
0.3
100
AcDbArc
 50
179.9999999999891
 51
0.0000000000108713
  0
ARC
  5
1413
330
18
100
AcDbEntity
  8
外形線
100
AcDbCircle
 10
456.8771957770461
 20
262.3738860452284
 30
0.0
 40
0.3
100
AcDbArc
 50
179.9999999999891
 51
0.0000000000108713
  0
ARC
  5
1414
330
18
100
AcDbEntity
  8
外形線
100
AcDbCircle
 10
456.2771957770461
 20
262.3738860452284
 30
0.0
 40
0.3
100
AcDbArc
 50
179.9999999999891
 51
0.0000000000108713
  0
ARC
  5
1415
330
18
100
AcDbEntity
  8
外形線
100
AcDbCircle
 10
455.6771957770461
 20
262.3738860452284
 30
0.0
 40
0.3
100
AcDbArc
 50
179.9999999999891
 51
0.0000000000108713
  0
ARC
  5
1416
330
18
100
AcDbEntity
  8
外形線
100
AcDbCircle
 10
455.0771957770461
 20
262.3738860452284
 30
0.0
 40
0.3
100
AcDbArc
 50
179.9999999999891
 51
0.0000000000108713
  0
LINE
  5
141B
330
18
100
AcDbEntity
  8
外形線
100
AcDbLine
 10
457.1771957770462
 20
262.3738860452283
 30
0.0
 11
457.1771957770462
 21
263.8453275095931
 31
0.0
  0
LINE
  5
141C
330
18
100
AcDbEntity
  8
外形線
100
AcDbLine
 10
455.3771957770461
 20
262.3738860452284
 30
0.0
 11
455.3771957770461
 21
263.8453275095931
 31
0.0
  0
CIRCLE
  5
1424
330
18
100
AcDbEntity
  8
外形線
100
AcDbCircle
 10
454.4718624255302
 20
266.8030243017282
 30
0.0
 40
0.3
  0
LINE
  5
1426
330
18
100
AcDbEntity
  8
外形線
100
AcDbLine
 10
454.7771957770461
 20
262.3738860452284
 30
0.0
 11
454.7771957770461
 21
263.8453275095931
 31
0.0
  0
LINE
  5
1427
330
18
100
AcDbEntity
  8
外形線
100
AcDbLine
 10
457.7747672285998
 20
257.8738860452284
 30
0.0
 11
457.7747672285998
 21
262.7738860452284
 31
0.0
  0
POINT
  5
1498
330
18
100
AcDbEntity
  8
DEFPOINTS
  6
ByBlock
 62
     0
100
AcDbPoint
 10
420.4533281046999
 20
228.2783402114854
 30
0.0
  0
POINT
  5
1499
330
18
100
AcDbEntity
  8
DEFPOINTS
  6
ByBlock
 62
     0
100
AcDbPoint
 10
241.5924251820822
 20
247.3453275095932
 30
0.0
  0
POINT
  5
14AC
330
18
100
AcDbEntity
  8
DEFPOINTS
  6
ByBlock
 62
     0
100
AcDbPoint
 10
416.7682342691245
 20
225.5109188628671
 30
0.0
  0
POINT
  5
14DC
330
18
100
AcDbEntity
  8
DEFPOINTS
  6
ByBlock
 62
     0
100
AcDbPoint
 10
491.2465518167119
 20
257.1955645380907
 30
0.0
  0
LINE
  5
14FE
330
18
100
AcDbEntity
  8
外形線
100
AcDbLine
 10
390.4533281046997
 20
266.3453275095931
 30
0.0
 11
391.4533281046997
 21
267.3453275095931
 31
0.0
  0
ARC
  5
1504
330
18
100
AcDbEntity
  8
外形線
100
AcDbCircle
 10
392.9533281046997
 20
262.345327509593
 30
0.0
 40
2.5
100
AcDbArc
 50
179.9999999999987
 51
270.0000000000013
  0
ARC
  5
1505
330
18
100
AcDbEntity
  8
外形線
100
AcDbCircle
 10
392.9533281046996
 20
264.8453275095931
 30
0.0
 40
2.5
100
AcDbArc
 50
111.1223163476137
 51
179.9999999999987
  0
LINE
  5
1506
330
18
100
AcDbEntity
  8
外形線
100
AcDbLine
 10
390.4533281046996
 20
264.8453275095931
 30
0.0
 11
390.4533281046998
 21
259.0953275095931
 31
0.0
  0
LINE
  5
1508
330
18
100
AcDbEntity
  8
中心線
 48
0.5
100
AcDbLine
 10
403.6115195472443
 20
270.8453275095931
 30
0.0
 11
409.948236174604
 21
270.8453275095931
 31
0.0
  0
LINE
  5
150A
330
18
100
AcDbEntity
  8
外形線
100
AcDbLine
 10
392.9533281046997
 20
259.8453275095931
 30
0.0
 11
412.8773269254532
 21
259.8453275095931
 31
0.0
  0
LINE
  5
150B
330
18
100
AcDbEntity
  8
中心線
 48
0.5
100
AcDbLine
 10
412.4533281046996
 20
268.5550514178238
 30
0.0
 11
412.4533281046997
 21
261.9489091332791
 31
0.0
  0
ARC
  5
150D
330
18
100
AcDbEntity
  8
外形線
100
AcDbCircle
 10
406.9533281046997
 20
270.8453275095931
 30
0.0
 40
2.0
100
AcDbArc
 50
14.86906669865028
 51
111.1223163476184
  0
LINE
  5
1513
330
18
100
AcDbEntity
  8
外形線
100
AcDbLine
 10
415.2033281046996
 20
274.345327509593
 30
0.0
 11
416.3355080560422
 21
274.345327509593
 31
0.0
  0
LINE
  5
1515
330
18
100
AcDbEntity
  8
外形線
100
AcDbLine
 10
414.7033281046996
 20
273.845327509593
 30
0.0
 11
414.7033281046996
 21
267.345327509593
 31
0.0
  0
LINE
  5
1516
330
18
100
AcDbEntity
  8
外形線
100
AcDbLine
 10
420.2033281046996
 20
273.8453275095929
 30
0.0
 11
420.2033281046996
 21
267.345327509593
 31
0.0
  0
ARC
  5
1517
330
18
100
AcDbEntity
  8
外形線
100
AcDbCircle
 10
415.2033281046996
 20
273.845327509593
 30
0.0
 40
0.5
100
AcDbArc
 50
90.0
 51
180.0000000000001
  0
ARC
  5
1518
330
18
100
AcDbEntity
  8
外形線
100
AcDbCircle
 10
419.7033281046996
 20
273.8453275095929
 30
0.0
 40
0.5
100
AcDbArc
 50
0.0000000000001018
 51
90.0
  0
ARC
  5
1519
330
18
100
AcDbEntity
  8
外形線
100
AcDbCircle
 10
412.4533281046996
 20
265.830327509593
 30
0.0
 40
6.0
100
AcDbArc
 50
270.0000000000005
 51
0.1432395979912975
  0
ARC
  5
151A
330
18
100
AcDbEntity
  8
外形線
100
AcDbCircle
 10
417.4596110834387
 20
274.8516104883322
 30
0.0
 40
0.9937368837702461
100
AcDbArc
 50
359.6377405640608
 51
171.3924509831424
  0
LINE
  5
1528
330
18
100
AcDbEntity
  8
外形線
100
AcDbLine
 10
418.4533281046996
 20
274.845327509593
 30
0.0
 11
418.4533281046996
 21
265.830327509593
 31
0.0
  0
LINE
  5
1529
330
18
100
AcDbEntity
  8
外形線
100
AcDbLine
 10
416.5033369980561
 20
275.1218934285839
 30
0.0
 11
414.3770117051197
 21
265.2831151143799
 31
0.0
  0
LINE
  5
152A
330
18
100
AcDbEntity
  8
外形線
100
AcDbLine
 10
408.8863576274478
 20
271.3585495513878
 30
0.0
 11
410.5375837135698
 21
265.2543855758662
 31
0.0
  0
ARC
  5
152C
330
18
100
AcDbEntity
  8
外形線
100
AcDbCircle
 10
412.4533281046996
 20
265.830327509593
 30
0.0
 40
2.0
100
AcDbArc
 50
194.0964219832418
 51
351.4889159983086
  0
LINE
  5
152E
330
18
100
AcDbEntity
  8
外形線
100
AcDbLine
 10
418.4533281046996
 20
274.345327509593
 30
0.0
 11
419.7033281046996
 21
274.345327509593
 31
0.0
  0
LINE
  5
152F
330
18
100
AcDbEntity
  8
外形線
100
AcDbLine
 10
392.0524379161656
 20
267.1771477139131
 30
0.0
 11
406.2326075770729
 21
272.7109545402549
 31
0.0
  0
LINE
  5
1533
330
18
100
AcDbEntity
  8
隠れ線
 48
0.5
100
AcDbLine
 10
396.4533281046997
 20
267.3453275095933
 30
0.0
 11
396.4533281046997
 21
262.345327509593
 31
0.0
  0
LINE
  5
1534
330
18
100
AcDbEntity
  8
隠れ線
100
AcDbLine
 10
392.4833922503372
 20
267.3453275095932
 30
0.0
 11
396.4533281046996
 21
267.3453275095933
 31
0.0
  0
LINE
  5
1535
330
18
100
AcDbEntity
  8
外形線
100
AcDbLine
 10
399.4533281046997
 20
259.3453275095931
 30
0.0
 11
407.9533281046995
 21
259.3453275095931
 31
0.0
  0
LINE
  5
1536
330
18
100
AcDbEntity
  8
隠れ線
 48
0.3
100
AcDbLine
 10
410.9533281046996
 20
264.5074518540608
 30
0.0
 11
410.9533281046996
 21
262.345327509593
 31
0.0
  0
ARC
  5
1537
330
18
100
AcDbEntity
  8
隠れ線
 48
0.5
100
AcDbCircle
 10
399.4533281046997
 20
262.345327509593
 30
0.0
 40
3.0
100
AcDbArc
 50
180.0000000000008
 51
236.4426902380795
  0
ARC
  5
1538
330
18
100
AcDbEntity
  8
外形線
100
AcDbCircle
 10
407.9533281046995
 20
262.345327509593
 30
0.0
 40
3.0
100
AcDbArc
 50
270.0
 51
303.5573097619205
  0
ARC
  5
1539
330
18
100
AcDbEntity
  8
外形線
100
AcDbCircle
 10
399.4533281046997
 20
262.345327509593
 30
0.0
 40
3.0
100
AcDbArc
 50
236.4426902380795
 51
270.0
  0
ARC
  5
153A
330
18
100
AcDbEntity
  8
隠れ線
 48
0.5
100
AcDbCircle
 10
407.9533281046995
 20
262.345327509593
 30
0.0
 40
3.0
100
AcDbArc
 50
303.5573097619205
 51
0.0
  0
LINE
  5
153C
330
18
100
AcDbEntity
  8
外形線
100
AcDbLine
 10
459.5271957770463
 20
274.3453275095931
 30
0.0
 11
464.0271957770462
 21
274.3453275095931
 31
0.0
  0
LINE
  5
153D
330
18
100
AcDbEntity
  8
外形線
100
AcDbLine
 10
459.0271957770463
 20
273.8453275095931
 30
0.0
 11
459.0271957770463
 21
267.3453275095932
 31
0.0
  0
LINE
  5
153E
330
18
100
AcDbEntity
  8
外形線
100
AcDbLine
 10
464.5271957770462
 20
273.8453275095931
 30
0.0
 11
464.5271957770462
 21
267.3453275095933
 31
0.0
  0
ARC
  5
153F
330
18
100
AcDbEntity
  8
外形線
100
AcDbCircle
 10
459.5271957770463
 20
273.8453275095931
 30
0.0
 40
0.5
100
AcDbArc
 50
90.0
 51
180.0000000000002
  0
ARC
  5
1540
330
18
100
AcDbEntity
  8
外形線
100
AcDbCircle
 10
464.0271957770462
 20
273.8453275095931
 30
0.0
 40
0.5
100
AcDbArc
 50
359.9999999999997
 51
90.0
  0
POINT
  5
1579
330
18
100
AcDbEntity
  8
DEFPOINTS
  6
ByBlock
 62
     0
100
AcDbPoint
 10
461.7771957770462
 20
276.045327509593
 30
0.0
  0
POINT
  5
157A
330
18
100
AcDbEntity
  8
DEFPOINTS
  6
ByBlock
 62
     0
100
AcDbPoint
 10
461.7771957770462
 20
276.045327509593
 30
0.0
  0
LINE
  5
157B
330
18
100
AcDbEntity
  8
外形線
100
AcDbLine
 10
462.827195777046
 20
275.445327509593
 30
0.0
 11
460.7271957770462
 21
275.445327509593
 31
0.0
  0
LINE
  5
157C
330
18
100
AcDbEntity
  8
外形線
100
AcDbLine
 10
462.8271957770461
 20
274.345327509593
 30
0.0
 11
462.8271957770461
 21
275.4453275095929
 31
0.0
  0
POINT
  5
157D
330
18
100
AcDbEntity
  8
DEFPOINTS
  6
ByBlock
 62
     0
100
AcDbPoint
 10
461.7771957770462
 20
276.045327509593
 30
0.0
  0
POINT
  5
157E
330
18
100
AcDbEntity
  8
DEFPOINTS
  6
ByBlock
 62
     0
100
AcDbPoint
 10
461.7771957770462
 20
276.045327509593
 30
0.0
  0
POINT
  5
157F
330
18
100
AcDbEntity
  8
DEFPOINTS
  6
ByBlock
 62
     0
100
AcDbPoint
 10
461.7771957770462
 20
276.045327509593
 30
0.0
  0
LINE
  5
1580
330
18
100
AcDbEntity
  8
外形線
100
AcDbLine
 10
460.7271957770497
 20
274.345327509593
 30
0.0
 11
460.7271957770461
 21
275.4453275095929
 31
0.0
  0
ARC
  5
1581
330
18
100
AcDbEntity
  8
外形線
100
AcDbCircle
 10
461.7771957770462
 20
275.0453275095931
 30
0.0
 40
1.0
100
AcDbArc
 50
23.57817847819385
 51
156.4218215218031
  0
LINE
  5
1582
330
18
100
AcDbEntity
  8
外形線
100
AcDbLine
 10
462.8271957770461
 20
275.445327509593
 30
0.0
 11
462.5771957770462
 21
275.445327509593
 31
0.0
  0
LINE
  5
158E
330
18
100
AcDbEntity
  8
外形線
100
AcDbLine
 10
451.777195777046
 20
259.8453275095931
 30
0.0
 11
453.7771957770461
 21
259.8453275095931
 31
0.0
  0
LINE
  5
1590
330
18
100
AcDbEntity
  8
中心線
 48
0.5
100
AcDbLine
 10
449.3038648826265
 20
264.8453275095931
 30
0.0
 11
464.6534343122134
 21
264.8453275095931
 31
0.0
  0
LINE
  5
1592
330
18
100
AcDbEntity
  8
外形線
100
AcDbLine
 10
450.4771957770462
 20
265.8953275095931
 30
0.0
 11
450.4771957770462
 21
263.7953275095932
 31
0.0
  0
LINE
  5
1593
330
18
100
AcDbEntity
  8
外形線
100
AcDbLine
 10
451.7771957770461
 20
263.0953275095933
 30
0.0
 11
451.1771957770461
 21
263.0953275095932
 31
0.0
  0
ARC
  5
1594
330
18
100
AcDbEntity
  8
外形線
100
AcDbCircle
 10
451.1771957770461
 20
263.7953275095932
 30
0.0
 40
0.7
100
AcDbArc
 50
180.0
 51
269.9999999999998
  0
LINE
  5
1595
330
18
100
AcDbEntity
  8
外形線
100
AcDbLine
 10
451.7771957770461
 20
266.5953275095931
 30
0.0
 11
451.1771957770461
 21
266.5953275095931
 31
0.0
  0
ARC
  5
1596
330
18
100
AcDbEntity
  8
外形線
100
AcDbCircle
 10
451.1771957770461
 20
265.8953275095931
 30
0.0
 40
0.7
100
AcDbArc
 50
89.99999999999984
 51
180.0
  0
LINE
  5
15BD
330
18
100
AcDbEntity
  8
外形線
100
AcDbLine
 10
453.7771957770462
 20
272.8453275095931
 30
0.0
 11
459.0271957770463
 21
272.8453275095931
 31
0.0
  0
LINE
  5
15BE
330
18
100
AcDbEntity
  8
外形線
100
AcDbLine
 10
453.7771957770462
 20
268.8453275095931
 30
0.0
 11
457.1796243254925
 21
268.8453275095931
 31
0.0
  0
LINE
  5
15BF
330
18
100
AcDbEntity
  8
外形線
100
AcDbLine
 10
453.7771957770462
 20
265.8453275095931
 30
0.0
 11
457.7771957770461
 21
265.8453275095931
 31
0.0
  0
LINE
  5
15C0
330
18
100
AcDbEntity
  8
外形線
100
AcDbLine
 10
453.7771957770461
 20
263.8453275095931
 30
0.0
 11
457.7771957770461
 21
263.8453275095931
 31
0.0
  0
LINE
  5
15C2
330
18
100
AcDbEntity
  8
中心線
 48
0.5
100
AcDbLine
 10
414.4533281046996
 20
265.2393974554396
 30
0.0
 11
414.4533281046996
 21
260.7296870357639
 31
0.0
  0
LINE
  5
15C3
330
18
100
AcDbEntity
  8
中心線
 48
0.5
100
AcDbLine
 10
412.3374973223691
 20
262.8453275095931
 30
0.0
 11
416.4419982015115
 21
262.8453275095931
 31
0.0
  0
LINE
  5
15C8
330
18
100
AcDbEntity
  8
外形線
100
AcDbLine
 10
457.1771957770462
 20
267.3167689739579
 30
0.0
 11
457.1771957770462
 21
265.8453275095931
 31
0.0
  0
LINE
  5
15C9
330
18
100
AcDbEntity
  8
外形線
100
AcDbLine
 10
457.1796243254925
 20
265.8453275095931
 30
0.0
 11
457.1796243254925
 21
269.0130696986195
 31
0.0
  0
LINE
  5
15CA
330
18
100
AcDbEntity
  8
外形線
100
AcDbLine
 10
456.5771957770461
 20
267.3167689739579
 30
0.0
 11
456.5771957770461
 21
265.8453275095931
 31
0.0
  0
LINE
  5
15CB
330
18
100
AcDbEntity
  8
外形線
100
AcDbLine
 10
455.9771957770461
 20
267.3167689739579
 30
0.0
 11
455.9771957770461
 21
265.8453275095931
 31
0.0
  0
LINE
  5
15CC
330
18
100
AcDbEntity
  8
外形線
100
AcDbLine
 10
455.3771957770461
 20
267.3167689739578
 30
0.0
 11
455.3771957770461
 21
265.8453275095931
 31
0.0
  0
LINE
  5
15CD
330
18
100
AcDbEntity
  8
外形線
100
AcDbLine
 10
454.7771957770461
 20
267.3167689739578
 30
0.0
 11
454.7771957770461
 21
265.8453275095931
 31
0.0
  0
LINE
  5
15CE
330
18
100
AcDbEntity
  8
外形線
100
AcDbLine
 10
457.7747672285998
 20
269.0668346197609
 30
0.0
 11
457.7747672285998
 21
266.9167689739579
 31
0.0
  0
CIRCLE
  5
15CF
330
18
100
AcDbEntity
  8
外形線
100
AcDbCircle
 10
457.4796243254924
 20
269.0130696986195
 30
0.0
 40
0.3
  0
ARC
  5
15D0
330
18
100
AcDbEntity
  8
外形線
100
AcDbCircle
 10
457.4771957770462
 20
267.3167689739578
 30
0.0
 40
0.3
100
AcDbArc
 50
359.9999999999891
 51
180.0000000000108
  0
ARC
  5
15D1
330
18
100
AcDbEntity
  8
外形線
100
AcDbCircle
 10
456.8771957770461
 20
267.3167689739578
 30
0.0
 40
0.3
100
AcDbArc
 50
359.9999999999891
 51
180.0000000000108
  0
ARC
  5
15D2
330
18
100
AcDbEntity
  8
外形線
100
AcDbCircle
 10
456.2771957770461
 20
267.3167689739578
 30
0.0
 40
0.3
100
AcDbArc
 50
359.9999999999891
 51
180.0000000000108
  0
ARC
  5
15D3
330
18
100
AcDbEntity
  8
外形線
100
AcDbCircle
 10
455.6771957770461
 20
267.3167689739578
 30
0.0
 40
0.3
100
AcDbArc
 50
359.9999999999891
 51
180.0000000000108
  0
ARC
  5
15D4
330
18
100
AcDbEntity
  8
外形線
100
AcDbCircle
 10
455.0771957770461
 20
267.3167689739578
 30
0.0
 40
0.3
100
AcDbArc
 50
359.9999999999891
 51
180.0000000000108
  0
ARC
  5
15D7
330
18
100
AcDbEntity
  8
外形線
100
AcDbCircle
 10
454.4771957770461
 20
267.3167689739578
 30
0.0
 40
0.3
100
AcDbArc
 50
359.9999999999891
 51
180.0000000000108
  0
ARC
  5
15D8
330
18
100
AcDbEntity
  8
外形線
100
AcDbCircle
 10
454.4771957770461
 20
262.3738860452284
 30
0.0
 40
0.3
100
AcDbArc
 50
179.9999999999891
 51
0.0000000000108713
  0
LINE
  5
15D9
330
18
100
AcDbEntity
  8
外形線
100
AcDbLine
 10
454.177195777046
 20
262.3738860452284
 30
0.0
 11
454.177195777046
 21
263.8453275095931
 31
0.0
  0
LINE
  5
15DA
330
18
100
AcDbEntity
  8
外形線
100
AcDbLine
 10
454.177195777046
 20
267.3167689739578
 30
0.0
 11
454.177195777046
 21
265.8453275095931
 31
0.0
  0
LINE
  5
15DB
330
18
100
AcDbEntity
  8
外形線
100
AcDbLine
 10
453.7771957770462
 20
266.8453275095931
 30
0.0
 11
454.177195777046
 21
266.8453275095931
 31
0.0
  0
LINE
  5
15DC
330
18
100
AcDbEntity
  8
外形線
100
AcDbLine
 10
453.7771957770461
 20
262.8453275095931
 30
0.0
 11
454.1771957770461
 21
262.8453275095931
 31
0.0
  0
CIRCLE
  5
15E5
330
18
100
AcDbEntity
  8
隠れ線
 48
0.5
100
AcDbCircle
 10
392.9533281046996
 20
264.8453275095931
 30
0.0
 40
2.149999999999999
  0
ARC
  5
15E6
330
18
100
AcDbEntity
  8
外形線
100
AcDbCircle
 10
392.9533281046996
 20
264.8453275095931
 30
0.0
 40
2.75
100
AcDbArc
 50
86.68738897591252
 51
204.6199773286592
  0
ARC
  5
15EB
330
18
100
AcDbEntity
  8
隠れ線
 48
0.5
100
AcDbCircle
 10
392.9533281046996
 20
264.8453275095931
 30
0.0
 40
2.75
100
AcDbArc
 50
204.6199773286592
 51
86.68738897591252
  0
ARC
  5
15EC
330
18
100
AcDbEntity
  8
隠れ線
 48
0.3
100
AcDbCircle
 10
406.9533281046997
 20
270.8453275095931
 30
0.0
 40
2.0
100
AcDbArc
 50
111.1271877213537
 51
14.86906669865028
  0
LINE
  5
15F4
330
18
100
AcDbEntity
  8
隠れ線
 48
0.3
100
AcDbLine
 10
393.6214846593071
 20
262.1777318096162
 30
0.0
 11
410.4929678416144
 21
265.4193191368217
 31
0.0
  0
LINE
  5
15F7
330
18
100
AcDbEntity
  8
隠れ線
100
AcDbLine
 10
415.9946445767939
 20
267.0873531660406
 30
0.0
 11
416.107854377696
 21
266.4981303380885
 31
0.0
  0
LINE
  5
15F8
330
18
100
AcDbEntity
  8
隠れ線
 48
0.3
100
AcDbLine
 10
393.3581947031923
 20
262.7381191212152
 30
0.0
 11
410.3358598251133
 21
266.000107620393
 31
0.0
  0
LINE
  5
1610
330
18
100
AcDbEntity
  8
隠れ線
 48
0.3
100
AcDbLine
 10
392.4409914357111
 20
267.5471807879207
 30
0.0
 11
409.5064292350445
 21
269.0663021110481
 31
0.0
  0
LINE
  5
1612
330
18
100
AcDbEntity
  8
隠れ線
 48
0.3
100
AcDbLine
 10
392.707896400298
 20
266.9812730328859
 30
0.0
 11
409.6974889868319
 21
268.360002674626
 31
0.0
  0
LINE
  5
1613
330
18
100
AcDbEntity
  8
外形線
100
AcDbLine
 10
411.893622028807
 20
269.2788038656508
 30
0.0
 11
411.9533281046996
 21
268.5430672327052
 31
0.0
  0
LINE
  5
1615
330
18
100
AcDbEntity
  8
外形線
100
AcDbLine
 10
409.6974889868319
 20
268.360002674626
 30
0.0
 11
411.9533281046996
 21
268.5430672327052
 31
0.0
  0
LINE
  5
1616
330
18
100
AcDbEntity
  8
外形線
100
AcDbLine
 10
409.5064292350445
 20
269.0663021110481
 30
0.0
 11
411.8936220288071
 21
269.2788038656508
 31
0.0
  0
LINE
  5
1619
330
18
100
AcDbEntity
  8
隠れ線
 48
0.3
100
AcDbLine
 10
414.713750784964
 20
266.8412497832955
 30
0.0
 11
415.9946445767939
 21
267.0873531660405
 31
0.0
  0
LINE
  5
161A
330
18
100
AcDbEntity
  8
隠れ線
 48
0.3
100
AcDbLine
 10
414.5759886211028
 20
266.2038066814251
 30
0.0
 11
416.1078543776959
 21
266.4981303380885
 31
0.0
  0
LINE
  5
161B
330
18
100
AcDbEntity
  8
外形線
100
AcDbLine
 10
410.3358598251133
 20
266.000107620393
 30
0.0
 11
414.7137507849639
 21
266.8412497832955
 31
0.0
  0
LINE
  5
161C
330
18
100
AcDbEntity
  8
外形線
100
AcDbLine
 10
410.4929678416143
 20
265.4193191368217
 30
0.0
 11
414.5759886211028
 21
266.2038066814251
 31
0.0
  0
LINE
  5
161D
330
18
100
AcDbEntity
  8
外形線
100
AcDbLine
 10
410.9533281046997
 20
265.5077700441095
 30
0.0
 11
410.9533281046996
 21
264.5074518540608
 31
0.0
  0
LINE
  5
1620
330
18
100
AcDbEntity
  8
外形線
100
AcDbLine
 10
457.7747672285999
 20
268.8453275095931
 30
0.0
 11
459.0271957770463
 21
268.8453275095931
 31
0.0
  0
LINE
  5
1621
330
18
100
AcDbEntity
  8
外形線
100
AcDbLine
 10
473.0771957770461
 20
271.8953275095931
 30
0.0
 11
473.0771957770461
 21
269.7953275095932
 31
0.0
  0
LINE
  5
1622
330
18
100
AcDbEntity
  8
外形線
100
AcDbLine
 10
471.7771957770462
 20
273.8453275095931
 30
0.0
 11
471.7771957770463
 21
259.845327509593
 31
0.0
  0
LINE
  5
1623
330
18
100
AcDbEntity
  8
外形線
100
AcDbLine
 10
469.7771957770462
 20
275.8453275095931
 30
0.0
 11
469.7771957770463
 21
259.8453275095931
 31
0.0
  0
LINE
  5
1624
330
18
100
AcDbEntity
  8
中心線
 48
0.5
100
AcDbLine
 10
474.2505266714659
 20
264.8453275095931
 30
0.0
 11
458.900957241879
 21
264.8453275095931
 31
0.0
  0
LINE
  5
1625
330
18
100
AcDbEntity
  8
外形線
100
AcDbLine
 10
471.7771957770464
 20
259.8453275095931
 30
0.0
 11
469.7771957770463
 21
259.8453275095931
 31
0.0
  0
LINE
  5
1626
330
18
100
AcDbEntity
  8
隠れ線
 48
0.3
100
AcDbLine
 10
469.7771957770462
 20
269.3453275095931
 30
0.0
 11
471.7771957770461
 21
269.3453275095931
 31
0.0
  0
ARC
  5
1627
330
18
100
AcDbEntity
  8
外形線
100
AcDbCircle
 10
472.3771957770463
 20
265.8953275095931
 30
0.0
 40
0.7
100
AcDbArc
 50
0.000000000000007
 51
90.00000000000017
  0
LINE
  5
1628
330
18
100
AcDbEntity
  8
外形線
100
AcDbLine
 10
471.7771957770462
 20
266.5953275095931
 30
0.0
 11
472.3771957770463
 21
266.5953275095931
 31
0.0
  0
ARC
  5
1629
330
18
100
AcDbEntity
  8
外形線
100
AcDbCircle
 10
472.3771957770463
 20
263.7953275095932
 30
0.0
 40
0.7
100
AcDbArc
 50
270.0000000000002
 51
0.000000000000007
  0
LINE
  5
162A
330
18
100
AcDbEntity
  8
外形線
100
AcDbLine
 10
471.7771957770462
 20
263.0953275095933
 30
0.0
 11
472.3771957770463
 21
263.0953275095932
 31
0.0
  0
LINE
  5
162B
330
18
100
AcDbEntity
  8
外形線
100
AcDbLine
 10
473.0771957770462
 20
265.8953275095931
 30
0.0
 11
473.0771957770462
 21
263.7953275095932
 31
0.0
  0
ARC
  5
162C
330
18
100
AcDbEntity
  8
外形線
100
AcDbCircle
 10
472.3771957770463
 20
269.7953275095932
 30
0.0
 40
0.7
100
AcDbArc
 50
270.0000000000002
 51
0.000000000000007
  0
LINE
  5
162D
330
18
100
AcDbEntity
  8
外形線
100
AcDbLine
 10
471.7771957770462
 20
269.0953275095932
 30
0.0
 11
472.3771957770463
 21
269.0953275095932
 31
0.0
  0
LINE
  5
162E
330
18
100
AcDbEntity
  8
外形線
100
AcDbLine
 10
469.3771957770463
 20
262.3738860452284
 30
0.0
 11
469.3771957770463
 21
263.8453275095931
 31
0.0
  0
LINE
  5
162F
330
18
100
AcDbEntity
  8
外形線
100
AcDbLine
 10
465.7796243254925
 20
257.8738860452284
 30
0.0
 11
465.7796243254925
 21
262.7738860452284
 31
0.0
  0
LINE
  5
1630
330
18
100
AcDbEntity
  8
外形線
100
AcDbLine
 10
468.7771957770464
 20
262.3738860452284
 30
0.0
 11
468.7771957770464
 21
263.8453275095931
 31
0.0
  0
LINE
  5
1631
330
18
100
AcDbEntity
  8
外形線
100
AcDbLine
 10
468.1771957770463
 20
262.3738860452284
 30
0.0
 11
468.1771957770463
 21
263.8453275095931
 31
0.0
  0
LINE
  5
1632
330
18
100
AcDbEntity
  8
外形線
100
AcDbLine
 10
466.3771957770462
 20
262.3738860452283
 30
0.0
 11
466.3771957770462
 21
263.8453275095931
 31
0.0
  0
LINE
  5
1633
330
18
100
AcDbEntity
  8
外形線
100
AcDbLine
 10
467.5771957770463
 20
262.3738860452283
 30
0.0
 11
467.5771957770463
 21
263.8453275095931
 31
0.0
  0
LINE
  5
1634
330
18
100
AcDbEntity
  8
外形線
100
AcDbLine
 10
466.9771957770462
 20
262.3738860452283
 30
0.0
 11
466.9771957770462
 21
263.8453275095931
 31
0.0
  0
LINE
  5
1635
330
18
100
AcDbEntity
  8
外形線
100
AcDbLine
 10
466.3747672285999
 20
263.8453275095931
 30
0.0
 11
466.3747672285999
 21
262.3357910164151
 31
0.0
  0
ARC
  5
1636
330
18
100
AcDbEntity
  8
外形線
100
AcDbCircle
 10
466.0771957770463
 20
262.3738860452284
 30
0.0
 40
0.3
100
AcDbArc
 50
179.9999999999891
 51
0.0000000000108463
  0
ARC
  5
1637
330
18
100
AcDbEntity
  8
外形線
100
AcDbCircle
 10
469.0771957770464
 20
262.3738860452284
 30
0.0
 40
0.3
100
AcDbArc
 50
179.9999999999891
 51
0.0000000000108463
  0
ARC
  5
1638
330
18
100
AcDbEntity
  8
外形線
100
AcDbCircle
 10
468.4771957770464
 20
262.3738860452284
 30
0.0
 40
0.3
100
AcDbArc
 50
179.9999999999891
 51
0.0000000000108463
  0
ARC
  5
1639
330
18
100
AcDbEntity
  8
外形線
100
AcDbCircle
 10
467.8771957770464
 20
262.3738860452284
 30
0.0
 40
0.3
100
AcDbArc
 50
179.9999999999891
 51
0.0000000000108463
  0
ARC
  5
163A
330
18
100
AcDbEntity
  8
外形線
100
AcDbCircle
 10
467.2771957770463
 20
262.3738860452284
 30
0.0
 40
0.3
100
AcDbArc
 50
179.9999999999891
 51
0.0000000000108463
  0
ARC
  5
163B
330
18
100
AcDbEntity
  8
外形線
100
AcDbCircle
 10
466.6771957770463
 20
262.3738860452284
 30
0.0
 40
0.3
100
AcDbArc
 50
179.9999999999891
 51
0.0000000000108463
  0
CIRCLE
  5
163C
330
18
100
AcDbEntity
  8
外形線
100
AcDbCircle
 10
466.0747672285999
 20
269.0130696986195
 30
0.0
 40
0.3
  0
ARC
  5
163D
330
18
100
AcDbEntity
  8
外形線
100
AcDbCircle
 10
466.0771957770463
 20
267.3167689739578
 30
0.0
 40
0.3
100
AcDbArc
 50
359.9999999999891
 51
180.0000000000109
  0
LINE
  5
163E
330
18
100
AcDbEntity
  8
外形線
100
AcDbLine
 10
469.7771957770463
 20
263.8453275095931
 30
0.0
 11
465.7771957770463
 21
263.8453275095931
 31
0.0
  0
LINE
  5
163F
330
18
100
AcDbEntity
  8
外形線
100
AcDbLine
 10
469.7771957770463
 20
265.8453275095931
 30
0.0
 11
465.7771957770463
 21
265.8453275095931
 31
0.0
  0
CIRCLE
  5
1640
330
18
100
AcDbEntity
  8
外形線
100
AcDbCircle
 10
469.0825291285622
 20
266.8030243017282
 30
0.0
 40
0.3
  0
LINE
  5
1641
330
18
100
AcDbEntity
  8
外形線
100
AcDbLine
 10
469.7771957770463
 20
268.8453275095931
 30
0.0
 11
466.3747672285999
 21
268.8453275095931
 31
0.0
  0
LINE
  5
1642
330
18
100
AcDbEntity
  8
外形線
100
AcDbLine
 10
466.3747672285999
 20
265.8453275095931
 30
0.0
 11
466.3747672285999
 21
269.0130696986195
 31
0.0
  0
LINE
  5
1643
330
18
100
AcDbEntity
  8
外形線
100
AcDbLine
 10
469.7771957770463
 20
262.8453275095931
 30
0.0
 11
469.3771957770463
 21
262.8453275095931
 31
0.0
  0
LINE
  5
1644
330
18
100
AcDbEntity
  8
外形線
100
AcDbLine
 10
469.7771957770463
 20
266.8453275095931
 30
0.0
 11
469.3771957770464
 21
266.8453275095931
 31
0.0
  0
LINE
  5
1645
330
18
100
AcDbEntity
  8
外形線
100
AcDbLine
 10
469.3771957770464
 20
267.3167689739578
 30
0.0
 11
469.3771957770464
 21
265.8453275095931
 31
0.0
  0
ARC
  5
1646
330
18
100
AcDbEntity
  8
外形線
100
AcDbCircle
 10
469.0771957770464
 20
267.3167689739578
 30
0.0
 40
0.3
100
AcDbArc
 50
359.9999999999891
 51
180.0000000000109
  0
ARC
  5
1647
330
18
100
AcDbEntity
  8
外形線
100
AcDbCircle
 10
468.4771957770464
 20
267.3167689739578
 30
0.0
 40
0.3
100
AcDbArc
 50
359.9999999999891
 51
180.0000000000109
  0
ARC
  5
1648
330
18
100
AcDbEntity
  8
外形線
100
AcDbCircle
 10
467.8771957770464
 20
267.3167689739578
 30
0.0
 40
0.3
100
AcDbArc
 50
359.9999999999891
 51
180.0000000000109
  0
ARC
  5
1649
330
18
100
AcDbEntity
  8
外形線
100
AcDbCircle
 10
467.2771957770463
 20
267.3167689739578
 30
0.0
 40
0.3
100
AcDbArc
 50
359.9999999999891
 51
180.0000000000109
  0
ARC
  5
164A
330
18
100
AcDbEntity
  8
外形線
100
AcDbCircle
 10
466.6771957770463
 20
267.3167689739578
 30
0.0
 40
0.3
100
AcDbArc
 50
359.9999999999891
 51
180.0000000000109
  0
LINE
  5
164B
330
18
100
AcDbEntity
  8
外形線
100
AcDbLine
 10
468.7771957770464
 20
267.3167689739578
 30
0.0
 11
468.7771957770464
 21
265.8453275095931
 31
0.0
  0
LINE
  5
164C
330
18
100
AcDbEntity
  8
外形線
100
AcDbLine
 10
468.1771957770463
 20
267.3167689739578
 30
0.0
 11
468.1771957770463
 21
265.8453275095931
 31
0.0
  0
LINE
  5
164D
330
18
100
AcDbEntity
  8
外形線
100
AcDbLine
 10
467.5771957770463
 20
267.3167689739579
 30
0.0
 11
467.5771957770463
 21
265.8453275095931
 31
0.0
  0
LINE
  5
164E
330
18
100
AcDbEntity
  8
外形線
100
AcDbLine
 10
466.9771957770462
 20
267.3167689739579
 30
0.0
 11
466.9771957770462
 21
265.8453275095931
 31
0.0
  0
LINE
  5
164F
330
18
100
AcDbEntity
  8
外形線
100
AcDbLine
 10
466.3771957770462
 20
267.3167689739579
 30
0.0
 11
466.3771957770462
 21
265.8453275095931
 31
0.0
  0
LINE
  5
1650
330
18
100
AcDbEntity
  8
外形線
100
AcDbLine
 10
465.7796243254925
 20
268.8453275095931
 30
0.0
 11
464.5271957770461
 21
268.8453275095931
 31
0.0
  0
LINE
  5
1651
330
18
100
AcDbEntity
  8
外形線
100
AcDbLine
 10
465.7796243254926
 20
269.0668346197609
 30
0.0
 11
465.7796243254925
 21
266.9167689739579
 31
0.0
  0
LINE
  5
1652
330
18
100
AcDbEntity
  8
隠れ線
 48
0.3
100
AcDbLine
 10
469.7771957770462
 20
272.3453275095931
 30
0.0
 11
471.7771957770461
 21
272.3453275095931
 31
0.0
  0
ARC
  5
1653
330
18
100
AcDbEntity
  8
外形線
100
AcDbCircle
 10
469.7771957770462
 20
273.8453275095931
 30
0.0
 40
2.0
100
AcDbArc
 50
0.000000000000007
 51
89.9999999999984
  0
ARC
  5
1654
330
18
100
AcDbEntity
  8
外形線
100
AcDbCircle
 10
472.3771957770463
 20
271.8953275095931
 30
0.0
 40
0.7
100
AcDbArc
 50
0.000000000000007
 51
90.00000000000017
  0
LINE
  5
1655
330
18
100
AcDbEntity
  8
外形線
100
AcDbLine
 10
471.7771957770462
 20
272.5953275095931
 30
0.0
 11
472.3771957770463
 21
272.5953275095931
 31
0.0
  0
LINE
  5
1656
330
18
100
AcDbEntity
  8
外形線
100
AcDbLine
 10
469.7771957770463
 20
272.8453275095931
 30
0.0
 11
464.5271957770461
 21
272.8453275095931
 31
0.0
  0
LINE
  5
1658
330
18
100
AcDbEntity
  8
中心線
100
AcDbLine
 10
448.5408088020647
 20
250.3453275095931
 30
0.0
 11
472.7311896161662
 21
250.3453275095931
 31
0.0
  0
ARC
  5
1659
330
18
100
AcDbEntity
  8
想像線
 48
0.5
100
AcDbCircle
 10
461.7771957770462
 20
250.3453275095931
 30
0.0
 40
25.0
100
AcDbArc
 50
231.3635753834423
 51
130.4098025756174
  0
ARC
  5
165A
330
18
100
AcDbEntity
  8
想像線
 48
0.5
100
AcDbCircle
 10
461.7771957770463
 20
225.3453275095931
 30
0.0
 40
50.0
100
AcDbArc
 50
60.87797699541878
 51
108.9734753374225
  0
LINE
  5
166C
330
18
100
AcDbEntity
  8
隠れ線
 48
0.3
100
AcDbLine
 10
451.7771957770461
 20
266.0953275095931
 30
0.0
 11
453.7771957770461
 21
266.0953275095931
 31
0.0
  0
LINE
  5
166D
330
18
100
AcDbEntity
  8
隠れ線
 48
0.3
100
AcDbLine
 10
451.7771957770461
 20
263.5953275095931
 30
0.0
 11
453.7771957770461
 21
263.5953275095931
 31
0.0
  0
LINE
  5
166E
330
18
100
AcDbEntity
  8
隠れ線
 48
0.3
100
AcDbLine
 10
471.7771957770462
 20
266.0953275095931
 30
0.0
 11
469.7771957770463
 21
266.0953275095931
 31
0.0
  0
LINE
  5
166F
330
18
100
AcDbEntity
  8
隠れ線
 48
0.3
100
AcDbLine
 10
471.7771957770462
 20
263.5953275095931
 30
0.0
 11
469.7771957770463
 21
263.5953275095931
 31
0.0
  0
LINE
  5
1688
330
18
100
AcDbEntity
  8
外形線
100
AcDbLine
 10
413.4383281046996
 20
329.5234181581875
 30
0.0
 11
413.4383281046996
 21
331.9234181581876
 31
0.0
  0
LINE
  5
1689
330
18
100
AcDbEntity
  8
外形線
100
AcDbLine
 10
416.1078543776959
 20
318.5234181581875
 30
0.0
 11
416.1078543776958
 21
319.1234181581874
 31
0.0
  0
LINE
  5
168A
330
18
100
AcDbEntity
  8
0
  6
ByBlock
 62
     2
100
AcDbLine
 10
418.4533281046996
 20
335.5234181581875
 30
0.0
 11
433.1969781515311
 21
335.5234181581875
 31
0.0
  0
LINE
  5
168B
330
18
100
AcDbEntity
  8
0
  6
ByBlock
 62
     2
100
AcDbLine
 10
418.4533281046996
 20
315.5234181581875
 30
0.0
 11
433.1969781515311
 21
315.5234181581875
 31
0.0
  0
LINE
  5
168C
330
18
100
AcDbEntity
  8
0
  6
ByBlock
 62
     2
100
AcDbLine
 10
431.9469781515311
 20
333.0234181581875
 30
0.0
 11
431.9469781515311
 21
315.5234181581874
 31
0.0
  0
INSERT
  5
168D
330
18
100
AcDbEntity
  8
0
  6
ByBlock
 62
     2
100
AcDbBlockReference
  2
_OPEN
 10
431.9469781515311
 20
335.5234181581875
 30
0.0
 41
2.5
 42
2.5
 43
2.5
 50
90.0
  0
INSERT
  5
168E
330
18
100
AcDbEntity
  8
0
  6
ByBlock
 62
     2
100
AcDbBlockReference
  2
_OPEN
 10
431.9469781515311
 20
315.5234181581875
 30
0.0
 41
2.5
 42
2.5
 43
2.5
 50
270.0
  0
MTEXT
  5
168F
330
18
100
AcDbEntity
  8
0
  6
ByBlock
 62
     6
100
AcDbMText
 10
430.0719781515311
 20
325.5234181581875
 30
0.0
 40
2.5
 41
0.0
 71
     5
 72
     1
  1
20
  7
STYLE3
 11
0.0000000000000001
 21
1.0
 31
0.0
 73
     1
 44
1.0
  0
POINT
  5
1690
330
18
100
AcDbEntity
  8
DEFPOINTS
  6
ByBlock
 62
     0
100
AcDbPoint
 10
418.4533281046996
 20
335.5234181581875
 30
0.0
  0
POINT
  5
1691
330
18
100
AcDbEntity
  8
DEFPOINTS
  6
ByBlock
 62
     0
100
AcDbPoint
 10
418.4533281046996
 20
315.5234181581875
 30
0.0
  0
POINT
  5
1692
330
18
100
AcDbEntity
  8
DEFPOINTS
  6
ByBlock
 62
     0
100
AcDbPoint
 10
431.9469781515311
 20
315.5234181581875
 30
0.0
  0
LINE
  5
1693
330
18
100
AcDbEntity
  8
外形線
100
AcDbLine
 10
416.1078543776958
 20
331.9234181581876
 30
0.0
 11
416.1078543776959
 21
332.5234181581875
 31
0.0
  0
LINE
  5
1694
330
18
100
AcDbEntity
  8
外形線
100
AcDbLine
 10
411.4683281046995
 20
332.5234181581875
 30
0.0
 11
411.4683281046995
 21
335.5234181581875
 31
0.0
  0
LINE
  5
1695
330
18
100
AcDbEntity
  8
外形線
100
AcDbLine
 10
413.4383281046997
 20
332.5234181581875
 30
0.0
 11
413.4383281046996
 21
335.5234181581875
 31
0.0
  0
LINE
  5
1696
330
18
100
AcDbEntity
  8
外形線
100
AcDbLine
 10
413.4383281046996
 20
319.1234181581874
 30
0.0
 11
413.4383281046996
 21
321.5234181581875
 31
0.0
  0
LINE
  5
1697
330
18
100
AcDbEntity
  8
外形線
100
AcDbLine
 10
411.4683281046995
 20
319.1234181581874
 30
0.0
 11
411.4683281046996
 21
321.5234181581875
 31
0.0
  0
LINE
  5
16A0
330
18
100
AcDbEntity
  8
外形線
100
AcDbLine
 10
390.5033281046997
 20
318.5234181581875
 30
0.0
 11
405.4533281046996
 21
318.5234181581875
 31
0.0
  0
LINE
  5
16A1
330
18
100
AcDbEntity
  8
外形線
100
AcDbLine
 10
408.4533281046995
 20
318.5234181581875
 30
0.0
 11
416.1078543776959
 21
318.5234181581875
 31
0.0
  0
LINE
  5
16A2
330
18
100
AcDbEntity
  8
外形線
100
AcDbLine
 10
390.9533281046998
 20
317.5234181581875
 30
0.0
 11
390.9533281046997
 21
318.5234181581874
 31
0.0
  0
LINE
  5
16A3
330
18
100
AcDbEntity
  8
外形線
100
AcDbLine
 10
394.9533281046997
 20
317.5234181581875
 30
0.0
 11
394.9533281046996
 21
318.5234181581874
 31
0.0
  0
LINE
  5
16A4
330
18
100
AcDbEntity
  8
外形線
100
AcDbLine
 10
390.5033281046997
 20
332.5234181581875
 30
0.0
 11
405.4533281046996
 21
332.5234181581875
 31
0.0
  0
LINE
  5
16A5
330
18
100
AcDbEntity
  8
外形線
100
AcDbLine
 10
408.4533281047016
 20
332.5234181581875
 30
0.0
 11
416.1078543776959
 21
332.5234181581875
 31
0.0
  0
LINE
  5
16A6
330
18
100
AcDbEntity
  8
外形線
100
AcDbLine
 10
390.9533281046996
 20
332.5234181581875
 30
0.0
 11
390.9533281046997
 21
333.5234181581875
 31
0.0
  0
LINE
  5
16A7
330
18
100
AcDbEntity
  8
外形線
100
AcDbLine
 10
394.9533281046996
 20
332.5234181581875
 30
0.0
 11
394.9533281046996
 21
333.5234181581875
 31
0.0
  0
LINE
  5
16A8
330
18
100
AcDbEntity
  8
外形線
100
AcDbLine
 10
413.4383281046996
 20
317.5234181581875
 30
0.0
 11
418.4533281046996
 21
317.5234181581875
 31
0.0
  0
LINE
  5
16B2
330
18
100
AcDbEntity
  8
0
  6
ByBlock
 62
     2
100
AcDbLine
 10
479.3161821296478
 20
268.1606006684098
 30
0.0
 11
451.1502976877704
 21
239.5510268307927
 31
0.0
  0
MTEXT
  5
16B3
330
18
100
AcDbEntity
  8
0
  6
ByBlock
 62
     6
100
AcDbMText
 10
453.740815399135
 20
244.8549696459894
 30
0.0
 40
2.5
 41
0.0
 71
     5
 72
     1
  1
\A1;\U+220550
  7
STYLE3
 11
0.7015594541040628
 21
0.7126109263526694
 31
0.0
 73
     1
 44
1.0
  0
POINT
  5
16B6
330
18
100
AcDbEntity
  8
DEFPOINTS
  6
ByBlock
 62
     0
100
AcDbPoint
 10
479.3161821296478
 20
268.1606006684098
 30
0.0
  0
INSERT
  5
16B7
330
18
100
AcDbEntity
  8
0
  6
ByBlock
 62
     2
100
AcDbBlockReference
  2
_OPEN
 10
479.3161821296478
 20
268.1606006684098
 30
0.0
 41
2.5
 42
2.5
 43
2.5
 50
45.44774649244079
  0
LINE
  5
16C4
330
18
100
AcDbEntity
  8
0
  6
ByBlock
 62
     2
100
AcDbLine
 10
480.2467980021473
 20
288.9815055931825
 30
0.0
 11
476.4107725140509
 21
275.7646534856728
 31
0.0
  0
MTEXT
  5
16C6
330
18
100
AcDbEntity
  8
0
  6
ByBlock
 62
     6
100
AcDbMText
 10
483.8785321663379
 20
291.0382155342302
 30
0.0
 40
2.5
 41
0.0
 71
     5
 72
     1
  1
\A1;\U+2205100
  7
STYLE3
 11
0.9999927734412842
 21
0.0038017187176623
 31
0.0
 73
     1
 44
1.0
  0
INSERT
  5
16C9
330
18
100
AcDbEntity
  8
0
  6
ByBlock
 62
     2
100
AcDbBlockReference
  2
_OPEN
 10
475.7139355265744
 20
273.3637332010976
 30
0.0
 41
2.5
 42
2.5
 43
2.5
 50
253.8152921677806
  0
POINT
  5
16CA
330
18
100
AcDbEntity
  8
DEFPOINTS
  6
ByBlock
 62
     0
100
AcDbPoint
 10
475.7139355265744
 20
273.3637332010976
 30
0.0
  0
LINE
  5
16CF
330
18
100
AcDbEntity
  8
寸法線
100
AcDbLine
 10
480.2467980021473
 20
288.9815055931825
 30
0.0
 11
489.1592389681326
 21
288.9815055931825
 31
0.0
  0
DIMENSION
  5
16E6
330
18
100
AcDbEntity
  8
寸法線
100
AcDbDimension
  2
*D6
 10
430.52180465357
 20
230.3453275095931
 30
0.0
 11
428.6468046535699
 21
227.8453275095931
 31
0.0
 70
    32
 71
     5
 42
5.0
  3
STYLE3
100
AcDbAlignedDimension
 13
417.4533281046997
 23
225.3453275095931
 33
0.0
 14
420.4533281046999
 24
230.3453275095931
 34
0.0
 50
90.0
100
AcDbRotatedDimension
1001
ACAD
1000
DSTYLE
1002
{
1070
   271
1070
     2
1002
}
  0
POINT
  5
171B
330
18
100
AcDbEntity
  8
DEFPOINTS
  6
ByBlock
 62
     0
100
AcDbPoint
 10
417.4533281046995
 20
276.045327509593
 30
0.0
  0
LINE
  5
1738
330
18
100
AcDbEntity
  8
0
  6
ByBlock
 62
     2
100
AcDbLine
 10
420.4533281046999
 20
228.2783402114854
 30
0.0
 11
420.4533281046999
 21
212.3100443206955
 31
0.0
  0
LINE
  5
1739
330
18
100
AcDbEntity
  8
0
  6
ByBlock
 62
     2
100
AcDbLine
 10
241.5924251820822
 20
247.3453275095932
 30
0.0
 11
241.5924251820822
 21
212.3100443206955
 31
0.0
  0
LINE
  5
173A
330
18
100
AcDbEntity
  8
0
  6
ByBlock
 62
     2
100
AcDbLine
 10
417.9533281046999
 20
213.5600443206955
 30
0.0
 11
244.0924251820823
 21
213.5600443206955
 31
0.0
  0
INSERT
  5
173B
330
18
100
AcDbEntity
  8
0
  6
ByBlock
 62
     2
100
AcDbBlockReference
  2
_OPEN
 10
420.4533281046999
 20
213.5600443206955
 30
0.0
 41
2.5
 42
2.5
 43
2.5
  0
INSERT
  5
173C
330
18
100
AcDbEntity
  8
0
  6
ByBlock
 62
     2
100
AcDbBlockReference
  2
_OPEN
 10
241.5924251820822
 20
213.5600443206955
 30
0.0
 41
2.5
 42
2.5
 43
2.5
 50
180.0
  0
MTEXT
  5
173D
330
18
100
AcDbEntity
  8
0
  6
ByBlock
 62
     6
100
AcDbMText
 10
331.0228766433911
 20
215.4350443206955
 30
0.0
 40
2.5
 41
0.0
 71
     5
 72
     1
  1
248.5
  7
STYLE3
 73
     1
 44
1.0
  0
POINT
  5
173E
330
18
100
AcDbEntity
  8
DEFPOINTS
  6
ByBlock
 62
     0
100
AcDbPoint
 10
420.4533281046999
 20
228.2783402114854
 30
0.0
  0
POINT
  5
173F
330
18
100
AcDbEntity
  8
DEFPOINTS
  6
ByBlock
 62
     0
100
AcDbPoint
 10
241.5924251820822
 20
247.3453275095932
 30
0.0
  0
POINT
  5
1740
330
18
100
AcDbEntity
  8
DEFPOINTS
  6
ByBlock
 62
     0
100
AcDbPoint
 10
241.5924251820822
 20
213.5600443206955
 30
0.0
  0
LINE
  5
1742
330
18
100
AcDbEntity
  8
0
  6
ByBlock
 62
     2
100
AcDbLine
 10
431.77180465357
 20
225.3453275095931
 30
0.0
 11
438.4570501476891
 21
225.3453275095931
 31
0.0
  0
LINE
  5
1744
330
18
100
AcDbEntity
  8
0
  6
ByBlock
 62
     2
100
AcDbLine
 10
437.2070501476891
 20
227.8453275095931
 30
0.0
 11
437.2070501476891
 21
304.8887536408323
 31
0.0
  0
INSERT
  5
1745
330
18
100
AcDbEntity
  8
0
  6
ByBlock
 62
     2
100
AcDbBlockReference
  2
_OPEN
 10
437.2070501476891
 20
225.3453275095931
 30
0.0
 41
2.5
 42
2.5
 43
2.5
 50
270.0
  0
INSERT
  5
1746
330
18
100
AcDbEntity
  8
0
  6
ByBlock
 62
     2
100
AcDbBlockReference
  2
_OPEN
 10
437.2070501476891
 20
276.045327509593
 30
0.0
 41
2.5
 42
2.5
 43
2.5
 50
90.0
  0
MTEXT
  5
1747
330
18
100
AcDbEntity
  8
0
  6
ByBlock
 62
     6
100
AcDbMText
 10
435.3320501476891
 20
251.1953275095931
 30
0.0
 40
2.5
 41
0.0
 71
     5
 72
     1
  1
50.7
  7
STYLE3
 11
0.0000000000000001
 21
1.0
 31
0.0
 73
     1
 44
1.0
  0
POINT
  5
1748
330
18
100
AcDbEntity
  8
DEFPOINTS
  6
ByBlock
 62
     0
100
AcDbPoint
 10
431.77180465357
 20
225.3453275095931
 30
0.0
  0
POINT
  5
174A
330
18
100
AcDbEntity
  8
DEFPOINTS
  6
ByBlock
 62
     0
100
AcDbPoint
 10
437.2070501476891
 20
276.045327509593
 30
0.0
  0
DIMENSION
  5
1759
330
18
100
AcDbEntity
  8
寸法線
100
AcDbDimension
  2
*D7
 10
417.4533281046995
 20
285.2896931352047
 30
0.0
 11
418.9533281046996
 21
287.1646931352046
 31
0.0
 70
    32
 71
     5
 42
3.0
  3
STYLE3
100
AcDbAlignedDimension
 13
420.4533281046995
 23
267.345327509593
 33
0.0
 14
417.4533281046995
 24
280.6573455982558
 34
0.0
100
AcDbRotatedDimension
1001
ACAD
1000
DSTYLE
1002
{
1070
   271
1070
     2
1002
}
  0
DIMENSION
  5
1771
330
18
100
AcDbEntity
  8
寸法線
100
AcDbDimension
  2
*D8
 10
267.0924251820823
 20
285.2896931352047
 30
0.0
 11
302.0924251820823
 21
287.1646931352046
 31
0.0
 70
    32
 71
     5
 42
70.0
  3
STYLE3
100
AcDbAlignedDimension
 13
337.0924251820822
 23
262.452128813589
 33
0.0
 14
267.0924251820823
 24
262.452128813589
 34
0.0
100
AcDbRotatedDimension
1001
ACAD
1000
DSTYLE
1002
{
1070
    75
1070
     1
1070
   271
1070
     2
1070
   279
1070
     1
1002
}
  0
LINE
  5
1772
330
18
100
AcDbEntity
  8
0
  6
ByBlock
 62
     2
100
AcDbLine
 10
337.0924251820822
 20
262.452128813589
 30
0.0
 11
337.0924251820822
 21
286.5396931352046
 31
0.0
  0
LINE
  5
1773
330
18
100
AcDbEntity
  8
0
  6
ByBlock
 62
     2
100
AcDbLine
 10
414.9533281046996
 20
285.2896931352047
 30
0.0
 11
339.5924251820823
 21
285.2896931352047
 31
0.0
  0
INSERT
  5
1774
330
18
100
AcDbEntity
  8
0
  6
ByBlock
 62
     2
100
AcDbBlockReference
  2
_OPEN
 10
417.4533281046995
 20
285.2896931352047
 30
0.0
 41
2.5
 42
2.5
 43
2.5
  0
INSERT
  5
1775
330
18
100
AcDbEntity
  8
0
  6
ByBlock
 62
     2
100
AcDbBlockReference
  2
_OPEN
 10
337.0924251820822
 20
285.2896931352047
 30
0.0
 41
2.5
 42
2.5
 43
2.5
 50
180.0
  0
MTEXT
  5
1776
330
18
100
AcDbEntity
  8
0
  6
ByBlock
 62
     6
100
AcDbMText
 10
377.2728766433909
 20
287.1646931352046
 30
0.0
 40
2.5
 41
0.0
 71
     5
 72
     1
  1
150
  7
STYLE3
 73
     1
 44
1.0
  0
POINT
  5
1777
330
18
100
AcDbEntity
  8
DEFPOINTS
  6
ByBlock
 62
     0
100
AcDbPoint
 10
417.4533281046995
 20
280.6573455982558
 30
0.0
  0
POINT
  5
1778
330
18
100
AcDbEntity
  8
DEFPOINTS
  6
ByBlock
 62
     0
100
AcDbPoint
 10
337.0924251820822
 20
262.452128813589
 30
0.0
  0
POINT
  5
1779
330
18
100
AcDbEntity
  8
DEFPOINTS
  6
ByBlock
 62
     0
100
AcDbPoint
 10
337.0924251820822
 20
285.2896931352047
 30
0.0
  0
LINE
  5
1794
330
18
100
AcDbEntity
  8
0
  6
ByBlock
 62
     2
100
AcDbLine
 10
420.4533281046995
 20
286.5396931352046
 30
0.0
 11
420.4533281046995
 21
293.7937089972381
 31
0.0
  0
LINE
  5
1795
330
18
100
AcDbEntity
  8
0
  6
ByBlock
 62
     2
100
AcDbLine
 10
244.0924251820823
 20
260.0453275095932
 30
0.0
 11
244.0924251820823
 21
293.7937089972381
 31
0.0
  0
LINE
  5
1796
330
18
100
AcDbEntity
  8
0
  6
ByBlock
 62
     2
100
AcDbLine
 10
417.9533281046996
 20
292.5437089972381
 30
0.0
 11
246.5924251820823
 21
292.5437089972381
 31
0.0
  0
INSERT
  5
1797
330
18
100
AcDbEntity
  8
0
  6
ByBlock
 62
     2
100
AcDbBlockReference
  2
_OPEN
 10
420.4533281046995
 20
292.5437089972381
 30
0.0
 41
2.5
 42
2.5
 43
2.5
  0
INSERT
  5
1798
330
18
100
AcDbEntity
  8
0
  6
ByBlock
 62
     2
100
AcDbBlockReference
  2
_OPEN
 10
244.0924251820823
 20
292.5437089972381
 30
0.0
 41
2.5
 42
2.5
 43
2.5
 50
180.0
  0
MTEXT
  5
1799
330
18
100
AcDbEntity
  8
0
  6
ByBlock
 62
     6
100
AcDbMText
 10
332.2728766433909
 20
294.4187089972381
 30
0.0
 40
2.5
 41
0.0
 71
     5
 72
     1
  1
246
  7
STYLE3
 73
     1
 44
1.0
  0
POINT
  5
179A
330
18
100
AcDbEntity
  8
DEFPOINTS
  6
ByBlock
 62
     0
100
AcDbPoint
 10
420.4533281046995
 20
286.5396931352046
 30
0.0
  0
POINT
  5
179B
330
18
100
AcDbEntity
  8
DEFPOINTS
  6
ByBlock
 62
     0
100
AcDbPoint
 10
244.0924251820823
 20
260.0453275095932
 30
0.0
  0
POINT
  5
179C
330
18
100
AcDbEntity
  8
DEFPOINTS
  6
ByBlock
 62
     0
100
AcDbPoint
 10
244.0924251820823
 20
292.5437089972381
 30
0.0
  0
TEXT
  5
179D
330
18
100
AcDbEntity
  8
寸法線
 62
     6
100
AcDbText
 10
372.9621948640134
 20
251.5089080582572
 30
0.0
 40
2.5
  1
φ10
 50
90.0
  7
STYLE3
100
AcDbText
  0
LINE
  5
17A6
330
18
100
AcDbEntity
  8
外形線
100
AcDbLine
 10
416.6533281046995
 20
275.4453275095931
 30
0.0
 11
416.4033281046996
 21
275.445327509593
 31
0.0
  0
LINE
  5
17A7
330
18
100
AcDbEntity
  8
寸法線
100
AcDbLine
 10
417.4533281046995
 20
276.045327509593
 30
0.0
 11
438.4546354320535
 21
276.045327509593
 31
0.0
  0
DIMENSION
  5
17B4
330
18
100
AcDbEntity
  8
寸法線
100
AcDbDimension
  2
*D9
 10
381.8912516481244
 20
255.3453275095931
 30
0.0
 11
380.0162516481243
 21
265.6953275095932
 31
0.0
 70
    32
 71
     5
 42
20.69999999999996
  3
STYLE3
100
AcDbAlignedDimension
 13
417.4533281046995
 23
276.045327509593
 33
0.0
 14
381.423785507355
 24
255.3453275095931
 34
0.0
 50
90.0
100
AcDbRotatedDimension
1001
ACAD
1000
DSTYLE
1002
{
1070
   271
1070
     2
1002
}
  0
LINE
  5
17C5
330
18
100
AcDbEntity
  8
0
  6
ByBlock
 62
     2
100
AcDbLine
 10
429.8299549256411
 20
276.045327509593
 30
0.0
 11
431.77180465357
 21
276.045327509593
 31
0.0
  0
LINE
  5
17C6
330
18
100
AcDbEntity
  8
0
  6
ByBlock
 62
     2
100
AcDbLine
 10
419.7033281046996
 20
274.345327509593
 30
0.0
 11
431.77180465357
 21
274.345327509593
 31
0.0
  0
LINE
  5
17C7
330
18
100
AcDbEntity
  8
0
  6
ByBlock
 62
     2
100
AcDbLine
 10
430.52180465357
 20
278.545327509593
 30
0.0
 11
430.52180465357
 21
281.045327509593
 31
0.0
  0
LINE
  5
17C8
330
18
100
AcDbEntity
  8
0
  6
ByBlock
 62
     2
100
AcDbLine
 10
430.52180465357
 20
271.8453275095929
 30
0.0
 11
430.52180465357
 21
263.2143751286406
 31
0.0
  0
LINE
  5
17C9
330
18
100
AcDbEntity
  8
0
  6
ByBlock
 62
     2
100
AcDbLine
 10
430.52180465357
 20
276.045327509593
 30
0.0
 11
430.52180465357
 21
274.345327509593
 31
0.0
  0
INSERT
  5
17CA
330
18
100
AcDbEntity
  8
0
  6
ByBlock
 62
     2
100
AcDbBlockReference
  2
_OPEN
 10
430.52180465357
 20
276.045327509593
 30
0.0
 41
2.5
 42
2.5
 43
2.5
 50
270.0
  0
INSERT
  5
17CB
330
18
100
AcDbEntity
  8
0
  6
ByBlock
 62
     2
100
AcDbBlockReference
  2
_OPEN
 10
430.52180465357
 20
274.345327509593
 30
0.0
 41
2.5
 42
2.5
 43
2.5
 50
90.0
  0
MTEXT
  5
17CC
330
18
100
AcDbEntity
  8
0
  6
ByBlock
 62
     6
100
AcDbMText
 10
428.64680465357
 20
279.1491647515417
 30
0.0
 40
2.5
 41
0.0
 71
     5
 72
     1
  1
\A1;1.7
  7
STYLE3
 11
0.0000000000000001
 21
1.0
 31
0.0
 73
     1
 44
1.0
  0
POINT
  5
17CD
330
18
100
AcDbEntity
  8
DEFPOINTS
  6
ByBlock
 62
     0
100
AcDbPoint
 10
429.8299549256411
 20
276.045327509593
 30
0.0
  0
POINT
  5
17CE
330
18
100
AcDbEntity
  8
DEFPOINTS
  6
ByBlock
 62
     0
100
AcDbPoint
 10
419.7033281046996
 20
274.345327509593
 30
0.0
  0
POINT
  5
17CF
330
18
100
AcDbEntity
  8
DEFPOINTS
  6
ByBlock
 62
     0
100
AcDbPoint
 10
430.52180465357
 20
274.345327509593
 30
0.0
  0
LINE
  5
17D0
330
18
100
AcDbEntity
  8
寸法線
100
AcDbLine
 10
430.52180465357
 20
263.2143751286406
 30
0.0
 11
430.52180465357
 21
235.345327509593
 31
0.0
  0
MTEXT
  5
17D1
330
18
100
AcDbEntity
  8
0
  6
ByBlock
 62
     6
100
AcDbMText
 10
428.3338091633583
 20
251.1953275095931
 30
0.0
 40
2.5
 41
0.0
 71
     5
 72
     1
  1
44
  7
STYLE3
 11
0.0000000000000001
 21
1.0
 31
0.0
 73
     1
 44
1.0
  0
SPLINE
  5
1807
330
18
100
AcDbEntity
  8
寸法線
100
AcDbSpline
210
0.0
220
0.0
230
1.0
 70
     8
 71
     3
 72
    11
 73
     7
 74
     0
 42
0.0000000001
 43
0.0000000001
 40
5.6866962666497
 40
5.6866962666497
 40
5.6866962666497
 40
5.6866962666497
 40
7.017882561639436
 40
10.36094023867079
 40
14.42667205030958
 40
15.17621735588277
 40
15.17621735588277
 40
15.17621735588277
 40
15.17621735588277
 10
370.5253727924161
 20
330.5234181581876
 30
0.0
 10
369.7942380097569
 20
329.4614698299438
 30
0.0
 10
371.2755386720422
 20
327.8350356912265
 30
0.0
 10
367.3750319645644
 20
325.4903584699687
 30
0.0
 10
369.4070303712269
 20
321.9526453788134
 30
0.0
 10
367.3208120170826
 20
321.0218466479032
 30
0.0
 10
367.0393900470287
 20
320.5234181502461
 30
0.0
  0
SPLINE
  5
1808
330
18
100
AcDbEntity
  8
寸法線
100
AcDbSpline
210
0.0
220
0.0
230
1.0
 70
     8
 71
     3
 72
    11
 73
     7
 74
     0
 42
0.0000000001
 43
0.0000000001
 40
5.6866962666497
 40
5.6866962666497
 40
5.6866962666497
 40
5.6866962666497
 40
7.017882561639436
 40
10.36094023867079
 40
14.42667205030958
 40
15.17621735588277
 40
15.17621735588277
 40
15.17621735588277
 40
15.17621735588277
 10
368.9375427354728
 20
260.3453275175346
 30
0.0
 10
368.2064079528136
 20
259.283379189291
 30
0.0
 10
369.6877086150989
 20
257.6569450505736
 30
0.0
 10
365.7872019076211
 20
255.3122678293158
 30
0.0
 10
367.8192003142836
 20
251.7745547381605
 30
0.0
 10
365.7329819601393
 20
250.8437560072504
 30
0.0
 10
365.4515599900855
 20
250.3453275095932
 30
0.0
  0
SPLINE
  5
1809
330
18
100
AcDbEntity
  8
寸法線
100
AcDbSpline
210
0.0
220
0.0
230
1.0
 70
     8
 71
     3
 72
    11
 73
     7
 74
     0
 42
0.0000000001
 43
0.0000000001
 40
5.6866962666497
 40
5.6866962666497
 40
5.6866962666497
 40
5.6866962666497
 40
7.017882561639436
 40
10.36094023867079
 40
14.42667205030958
 40
15.17621735588277
 40
15.17621735588277
 40
15.17621735588277
 40
15.17621735588277
 10
366.1323536078685
 20
260.3453275175346
 30
0.0
 10
365.4012188252094
 20
259.283379189291
 30
0.0
 10
366.8825194874947
 20
257.6569450505736
 30
0.0
 10
362.9820127800169
 20
255.3122678293158
 30
0.0
 10
365.0140111866793
 20
251.7745547381605
 30
0.0
 10
362.927792832535
 20
250.8437560072504
 30
0.0
 10
362.6463708624812
 20
250.3453275095932
 30
0.0
  0
DIMENSION
  5
180A
330
18
100
AcDbEntity
  8
寸法線
100
AcDbDimension
  2
*D10
 10
267.0924251820823
 20
285.2896931352047
 30
0.0
 11
255.5924251820822
 21
287.1646931352046
 31
0.0
 70
    32
 71
     5
 42
23.0
  3
STYLE3
100
AcDbAlignedDimension
 13
244.0924251820823
 23
260.0453275095932
 33
0.0
 14
267.0924251820823
 24
261.8987281615911
 34
0.0
100
AcDbRotatedDimension
1001
ACAD
1000
DSTYLE
1002
{
1070
   271
1070
     2
1070
   341
1005
0
1002
}
  0
LINE
  5
188A
330
18
100
AcDbEntity
  8
外形線
100
AcDbLine
 10
368.9375427300051
 20
260.345327509593
 30
0.0
 11
386.4533281046996
 21
260.345327509593
 31
0.0
  0
LINE
  5
18BC
330
18
100
AcDbEntity
  8
外形線
100
AcDbLine
 10
276.5395509761312
 20
353.8774776025316
 30
0.0
 11
403.5395509761311
 21
353.8774776025316
 31
0.0
  0
LINE
  5
18BD
330
18
100
AcDbEntity
  8
外形線
100
AcDbLine
 10
276.5395509761312
 20
354.8774776025315
 30
0.0
 11
403.5395509761311
 21
354.8774776025315
 31
0.0
  0
TEXT
  5
18BE
330
18
100
AcDbEntity
  8
文字
100
AcDbText
 10
277.0788439761312
 20
356.5561496025316
 30
0.0
 40
3.5
  1
Model No.CG-3 Cylinder Gauge (Blind Hole Type)
  7
STYLE3
100
AcDbText
  0
LINE
  5
18BF
330
18
100
AcDbEntity
  8
外形線
100
AcDbLine
 10
350.4862389761312
 20
172.5053516025315
 30
0.0
 11
350.4862389761312
 21
192.9003356025315
 31
0.0
  0
TEXT
  5
18C0
330
18
100
AcDbEntity
  8
0
  6
Continuous
100
AcDbText
 10
351.9437059761312
 20
184.0181196025315
 30
0.0
 40
2.1
  1
Design and specifications are subject to change without notice for future improvement.
  7
STYLE3
100
AcDbText
  0
TEXT
  5
18C1
330
18
100
AcDbEntity
  8
0
  6
Continuous
100
AcDbText
 10
395.2564829761312
 20
176.0016356025315
 30
0.0
 40
2.399999999999999
  1
mm
  7
STYLE3
100
AcDbText
  0
LINE
  5
18C2
330
18
100
AcDbEntity
  8
外形線
100
AcDbLine
 10
350.4862389761312
 20
182.1201296025315
 30
0.0
 11
491.2776569761312
 21
182.1201296025315
 31
0.0
  0
TEXT
  5
18C3
330
18
100
AcDbEntity
  8
0
  6
Continuous
100
AcDbText
 10
354.2756569761312
 20
177.7497746025315
 30
0.0
 40
3.0
  1
三　　角　　法
  7
STYLE3
100
AcDbText
  0
TEXT
  5
18C4
330
18
100
AcDbEntity
  8
0
  6
Continuous
100
AcDbText
 10
351.6522149761312
 20
174.2534916025315
 30
0.0
 40
2.1
  1
3RD Angle Projection
  7
STYLE3
100
AcDbText
  0
TEXT
  5
18C5
330
18
100
AcDbEntity
  8
0
  6
Continuous
100
AcDbText
 10
387.3861569761312
 20
174.2534926025315
 30
0.0
 40
2.1
  1
Unit
  7
STYLE3
100
AcDbText
  0
TEXT
  5
18C6
330
18
100
AcDbEntity
  8
0
  6
Continuous
100
AcDbText
 10
387.2144359761312
 20
177.7557296025315
 30
0.0
 40
3.0
  1
単位
  7
STYLE3
100
AcDbText
  0
LINE
  5
18C7
330
18
100
AcDbEntity
  8
外形線
100
AcDbLine
 10
385.7569669761312
 20
182.1201296025315
 30
0.0
 11
385.7569669761312
 21
172.5053516025315
 31
0.0
  0
TEXT
  5
18C8
330
18
100
AcDbEntity
  8
0
  6
Continuous
100
AcDbText
 10
454.7324479761313
 20
174.2534926025315
 30
0.0
 40
2.1
  1
OZAKI MFG. CO., LTD.
  7
STYLE3
100
AcDbText
  0
TEXT
  5
18C9
330
18
100
AcDbEntity
  8
0
  6
Continuous
100
AcDbText
 10
453.8579689761312
 20
178.0411316025315
 30
0.0
 40
3.0
  1
株式会社　尾崎製作所
  7
STYLE3
100
AcDbText
  0
TEXT
  5
18CA
330
18
100
AcDbEntity
  8
0
  6
Continuous
100
AcDbText
 10
433.4534139761311
 20
176.0016346025315
 30
0.0
 40
2.1
  1
2010.06.23
  7
STYLE3
100
AcDbText
  0
TEXT
  5
18CB
330
18
100
AcDbEntity
  8
0
  6
Continuous
100
AcDbText
 10
414.6148359761311
 20
176.2929926025315
 30
0.0
 40
2.399999999999999
  1
1/1
  7
STYLE3
100
AcDbText
  0
TEXT
  5
18CC
330
18
100
AcDbEntity
  8
0
  6
Continuous
100
AcDbText
 10
404.9955469761312
 20
174.5448496025315
 30
0.0
 40
2.1
  1
Scale
  7
STYLE3
100
AcDbText
  0
TEXT
  5
18CD
330
18
100
AcDbEntity
  8
0
  6
Continuous
100
AcDbText
 10
404.5323319761312
 20
177.4643716025315
 30
0.0
 40
3.0
  1
尺 度
  7
STYLE3
100
AcDbText
  0
LINE
  5
18CE
330
18
100
AcDbEntity
  8
外形線
100
AcDbLine
 10
403.2465839761312
 20
182.1201296025315
 30
0.0
 11
403.2465839761312
 21
172.5053516025315
 31
0.0
  0
TEXT
  5
18CF
330
18
100
AcDbEntity
  8
0
  6
Continuous
100
AcDbText
 10
424.3252459761312
 20
177.5865776025315
 30
0.0
 40
3.0
  1
日 付
  7
STYLE3
100
AcDbText
  0
TEXT
  5
18D0
330
18
100
AcDbEntity
  8
0
  6
Continuous
100
AcDbText
 10
424.7086069761312
 20
174.2534936025315
 30
0.0
 40
2.1
  1
Date
  7
STYLE3
100
AcDbText
  0
LINE
  5
18D1
330
18
100
AcDbEntity
  8
外形線
100
AcDbLine
 10
422.7766559761311
 20
182.1201296025315
 30
0.0
 11
422.7766559761311
 21
172.5053516025315
 31
0.0
  0
LINE
  5
18D2
330
18
100
AcDbEntity
  8
外形線
100
AcDbLine
 10
452.5090059761311
 20
182.1201296025315
 30
0.0
 11
452.5090059761311
 21
172.5053516025315
 31
0.0
  0
TEXT
  5
18D3
330
18
100
AcDbEntity
  8
0
  6
Continuous
100
AcDbText
 10
352.2351999761312
 20
187.9472676025315
 30
0.0
 40
3.5
  1
仕様及び外観は予告なく変更される場合がございますのでご了承下さい。
  7
STYLE3
100
AcDbText
  0
LINE
  5
18D4
330
18
100
AcDbEntity
  8
外形線
100
AcDbLine
 10
350.4862389761312
 20
192.9003356025315
 30
0.0
 11
491.2776569761312
 21
192.9003356025315
 31
0.0
  0
ENDSEC
  0
SECTION
  2
OBJECTS
  0
DICTIONARY
  5
C
330
0
100
AcDbDictionary
281
     1
  3
ACAD_COLOR
350
17F4
  3
ACAD_GROUP
350
D
  3
ACAD_LAYOUT
350
17F7
  3
ACAD_MATERIAL
350
17F3
  3
ACAD_MLINESTYLE
350
1B
  3
ACAD_PLOTSETTINGS
350
17F8
  3
ACAD_PLOTSTYLENAME
350
17F1
  3
ACAD_TABLESTYLE
350
17F5
  3
ACDBVARIABLEDICTIONARY
350
192
  0
DICTIONARY
  5
188B
330
18
100
AcDbDictionary
280
     1
281
     1
  3
ACAD_SORTENTS
360
188C
  0
DICTIONARY
  5
17F4
102
{ACAD_REACTORS
330
C
102
}
330
C
100
AcDbDictionary
281
     1
  0
DICTIONARY
  5
D
102
{ACAD_REACTORS
330
C
102
}
330
C
100
AcDbDictionary
281
     1
  0
DICTIONARY
  5
17F7
102
{ACAD_REACTORS
330
C
102
}
330
C
100
AcDbDictionary
281
     1
  3
Model
350
17F9
  3
レイアウト1
350
17FA
  0
DICTIONARY
  5
17F3
102
{ACAD_REACTORS
330
C
102
}
330
C
100
AcDbDictionary
281
     1
  0
DICTIONARY
  5
1B
102
{ACAD_REACTORS
330
C
102
}
330
C
100
AcDbDictionary
281
     1
  3
STANDARD
350
1C
  0
DICTIONARY
  5
17F8
102
{ACAD_REACTORS
330
C
102
}
330
C
100
AcDbDictionary
281
     1
  0
ACDBDICTIONARYWDFLT
  5
17F1
102
{ACAD_REACTORS
330
C
102
}
330
C
100
AcDbDictionary
281
     1
  3
Normal
350
17F2
100
AcDbDictionaryWithDefault
340
17F2
  0
DICTIONARY
  5
17F5
102
{ACAD_REACTORS
330
C
102
}
330
C
100
AcDbDictionary
281
     1
  3
Standard
350
17F6
  0
DICTIONARY
  5
192
102
{ACAD_REACTORS
330
C
102
}
330
C
100
AcDbDictionary
281
     1
  3
CTABLESTYLE
350
1818
  3
SORTENTS
350
193
  0
SORTENTSTABLE
  5
188C
102
{ACAD_REACTORS
330
188B
102
}
330
188B
100
AcDbSortentsTable
330
18
331
115
  5
115
331
16A5
  5
16A6
331
15F7
  5
15F8
331
163E
  5
163F
331
1646
  5
1647
331
11D
  5
11D
331
10DC
  5
10DD
331
9FE
  5
FA6
331
1338
  5
1339
331
11BA
  5
11BD
331
10E4
  5
10E5
331
10F4
  5
10F7
331
1340
  5
1341
331
13E7
  5
13E8
331
10FC
  5
10FD
331
1348
  5
1349
331
17C8
  5
17C9
331
187E
  5
187F
331
264
  5
265
331
17D0
  5
17D1
331
146
  5
146
331
26C
  5
273
331
769
  5
76A
331
14E
  5
14E
331
84F
  5
850
331
274
  5
275
331
16E
  5
16E
331
15C0
  5
15C2
331
173C
  5
173D
331
164E
  5
164F
331
1539
  5
153A
331
15C8
  5
15C9
331
1656
  5
1658
331
1744
  5
1745
331
15D0
  5
15D1
331
15D8
  5
15D9
331
1413
  5
1414
331
150A
  5
150B
331
1579
  5
157A
331
166E
  5
166F
331
1627
  5
1628
331
1350
  5
1351
331
10B5
  5
10B6
331
1104
  5
1105
331
85F
  5
860
331
1301
  5
1302
331
1193
  5
1198
331
10BD
  5
10C2
331
110C
  5
110D
331
FA6
  5
FA9
331
8BF
  5
8C2
331
10C5
  5
10D7
331
1114
  5
1115
331
111C
  5
111D
331
FC6
  5
FC7
331
1799
  5
179A
331
1808
  5
1809
331
127
  5
127
331
176
  5
176
331
403
  5
404
331
5DA
  5
5DB
331
12F
  5
12F
331
2E4
  5
2E6
331
40B
  5
40C
331
186
  5
186
331
255
  5
256
331
137
  5
137
331
2EC
  5
2ED
331
18E
  5
18E
331
13F
  5
13F
331
1581
  5
1582
331
141B
  5
141C
331
162F
  5
1630
331
151A
  5
1528
331
168E
  5
168F
331
1774
  5
1775
331
1637
  5
1638
331
152A
  5
152C
331
1696
  5
1697
331
16A6
  5
16A7
331
14AB
  5
14AC
331
163F
  5
1640
331
116
  5
116
331
11E
  5
11E
331
1647
  5
1648
331
10DD
  5
10DE
331
13D0
  5
13D1
331
13D8
  5
13D9
331
10E5
  5
10E6
331
112C
  5
112E
331
1339
  5
133A
331
1341
  5
1342
331
1349
  5
134A
331
127B
  5
127E
331
10FD
  5
10FE
331
17C9
  5
17CA
331
187F
  5
188A
331
147
  5
147
331
17D1
  5
1807
331
265
  5
26B
331
76A
  5
76B
331
14F
  5
14F
331
1AE
  5
1AE
331
850
  5
85E
331
275
  5
276
331
77A
  5
77B
331
523
  5
524
331
15F8
  5
1610
331
173D
  5
173E
331
15C9
  5
15CA
331
1610
  5
1612
331
13F4
  5
13F5
331
153A
  5
153C
331
164F
  5
1650
331
1745
  5
1746
331
15D1
  5
15D2
331
16B6
  5
16B7
331
1620
  5
1621
331
16C6
  5
16C9
331
150B
  5
150D
331
157A
  5
157B
331
1414
  5
1415
331
15D9
  5
15DA
331
166F
  5
1688
331
1105
  5
1106
331
1302
  5
1303
331
860
  5
8BD
331
10B6
  5
10B7
331
1351
  5
1352
331
1293
  5
1294
331
110D
  5
110E
331
1115
  5
111C
331
13C1
  5
13C2
331
111D
  5
1127
331
FC7
  5
FCB
331
12B3
  5
12B5
331
179A
  5
179B
331
120
  5
120
331
177
  5
177
331
404
  5
405
331
1809
  5
180A
331
128
  5
128
331
40C
  5
40E
331
130
  5
130
331
17F
  5
17F
331
24E
  5
24F
331
5DB
  5
66B
331
66B
  5
66C
331
2ED
  5
2EE
331
792
  5
793
331
819
  5
81A
331
138
  5
138
331
256
  5
257
331
25E
  5
25F
331
18F
  5
18F
331
1628
  5
1629
331
1513
  5
1515
331
1582
  5
158E
331
141C
  5
1424
331
168F
  5
1690
331
1424
  5
1426
331
1630
  5
1631
331
1697
  5
16A0
331
16E6
  5
171B
331
1775
  5
1776
331
1592
  5
1593
331
1638
  5
1639
331
117
  5
117
331
1640
  5
1641
331
14AC
  5
14AE
331
16A7
  5
16A8
331
11F
  5
11F
331
1332
  5
1333
331
10DE
  5
10E1
331
13D1
  5
13D2
331
12EB
  5
12EC
331
133A
  5
133B
331
1097
  5
10B3
331
10E6
  5
10F3
331
13D9
  5
13E2
331
1342
  5
1343
331
10FE
  5
10FF
331
134A
  5
134B
331
140
  5
140
331
17CA
  5
17CB
331
849
  5
84A
331
76B
  5
76C
331
150
  5
150
331
276
  5
277
331
77B
  5
77C
331
27E
  5
281
331
524
  5
525
331
1648
  5
1649
331
1533
  5
1534
331
15C2
  5
15C3
331
13ED
  5
13EE
331
14DC
  5
14FE
331
173E
  5
173F
331
1650
  5
1651
331
13F5
  5
13F6
331
15CA
  5
15CB
331
16B7
  5
16C4
331
15D2
  5
15D3
331
1504
  5
1505
331
1619
  5
161A
331
1658
  5
1659
331
1746
  5
1747
331
15DA
  5
15DB
331
1621
  5
1622
331
1415
  5
1416
331
157B
  5
157C
331
16CF
  5
16E6
331
1352
  5
1397
331
10B7
  5
10B8
331
1106
  5
1107
331
1303
  5
1304
331
1294
  5
129F
331
110E
  5
110F
331
10D7
  5
10DB
331
13C2
  5
13D0
331
179B
  5
179C
331
121
  5
121
331
180A
  5
1879
331
129
  5
129
331
178
  5
178
331
405
  5
406
331
24F
  5
250
331
131
  5
131
331
2E6
  5
2E7
331
81A
  5
849
331
66C
  5
6EC
331
188
  5
188
331
257
  5
25C
331
139
  5
139
331
2EE
  5
2EF
331
793
  5
794
331
2F6
  5
317
331
25F
  5
260
331
6EC
  5
766
331
1688
  5
1689
331
1629
  5
162A
331
1631
  5
1632
331
1690
  5
1691
331
1776
  5
1777
331
1639
  5
163A
331
152C
  5
152E
331
1593
  5
1594
331
16A0
  5
16A1
331
1641
  5
1642
331
118
  5
118
331
13D2
  5
13D3
331
12CC
  5
12EB
331
1333
  5
1334
331
133B
  5
133C
331
11BD
  5
11BE
331
12EC
  5
12ED
331
112E
  5
118E
331
12FC
  5
12FD
331
1343
  5
1344
331
10F7
  5
10F8
331
13E2
  5
13E3
331
134B
  5
134C
331
10FF
  5
1100
331
1879
  5
187E
331
141
  5
141
331
17CB
  5
17CC
331
190
  5
190
331
149
  5
149
331
76C
  5
76D
331
151
  5
151
331
84A
  5
84B
331
277
  5
278
331
77C
  5
77D
331
525
  5
527
331
16A8
  5
16B2
331
15C3
  5
15C8
331
13EE
  5
13EF
331
1534
  5
1535
331
1649
  5
164A
331
173F
  5
1740
331
1651
  5
1652
331
15CB
  5
15CC
331
1612
  5
1613
331
13F6
  5
13F7
331
153C
  5
153D
331
1659
  5
165A
331
1747
  5
1748
331
15D3
  5
15D4
331
1505
  5
1506
331
161A
  5
161B
331
15DB
  5
15DC
331
1622
  5
1623
331
150D
  5
1513
331
157C
  5
157D
331
1416
  5
141B
331
1304
  5
1305
331
1107
  5
1109
331
118E
  5
118F
331
10B8
  5
10BC
331
110F
  5
1110
331
FA9
  5
FAA
331
139B
  5
13C1
331
8C2
  5
9FE
331
132C
  5
1332
331
12B5
  5
12CC
331
1794
  5
1795
331
179C
  5
179D
331
122
  5
122
331
171
  5
171
331
179
  5
179
331
406
  5
40A
331
803
  5
80B
331
12A
  5
12A
331
2E7
  5
2E8
331
40E
  5
40F
331
80B
  5
819
331
132
  5
132
331
181
  5
181
331
250
  5
251
331
2EF
  5
2F0
331
794
  5
797
331
13A
  5
13A
331
189
  5
189
331
162A
  5
162B
331
1515
  5
1516
331
1689
  5
168A
331
1691
  5
1692
331
1426
  5
1427
331
15EB
  5
15EC
331
1632
  5
1633
331
16A1
  5
16A2
331
1777
  5
1778
331
1594
  5
1595
331
163A
  5
163B
331
1642
  5
1643
331
119
  5
119
331
14AE
  5
14AF
331
1334
  5
1335
331
1127
  5
1128
331
11B6
  5
11B7
331
13D3
  5
13D8
331
12ED
  5
12EE
331
133C
  5
133D
331
11BE
  5
1246
331
13E3
  5
13E4
331
1246
  5
127B
331
10F8
  5
10F9
331
12FD
  5
12FE
331
1344
  5
1345
331
134C
  5
134D
331
127E
  5
127F
331
17B4
  5
17C5
331
260
  5
261
331
188A
  5
1C4
331
142
  5
142
331
17CC
  5
17CD
331
191
  5
191
331
14A
  5
14A
331
317
  5
39F
331
84B
  5
84C
331
39F
  5
3A7
331
4DE
  5
4DF
331
76D
  5
76E
331
77D
  5
77E
331
3A7
  5
403
331
16A
  5
16A
331
278
  5
27E
331
1738
  5
1739
331
1535
  5
1536
331
164A
  5
164B
331
13EF
  5
13F0
331
1613
  5
1615
331
1652
  5
1653
331
1740
  5
1742
331
14FE
  5
1504
331
153D
  5
153E
331
13F7
  5
13F9
331
15CC
  5
15CD
331
15D4
  5
15D7
331
1506
  5
1508
331
161B
  5
161C
331
165A
  5
166C
331
1748
  5
174A
331
16C9
  5
16CA
331
15DC
  5
15E5
331
1623
  5
1624
331
157D
  5
157E
331
1100
  5
1101
331
118F
  5
1190
331
1305
  5
130F
331
1110
  5
1111
331
FAA
  5
FC2
331
FC2
  5
FC3
331
1795
  5
1796
331
179D
  5
17A6
331
123
  5
123
331
2E0
  5
2E2
331
12B
  5
12B
331
17A
  5
17A
331
40F
  5
410
331
251
  5
253
331
2E8
  5
2E9
331
133
  5
133
331
182
  5
182
331
18A
  5
18A
331
13B
  5
13B
331
2F0
  5
2F1
331
168A
  5
168B
331
1516
  5
1517
331
162B
  5
162C
331
15EC
  5
15F4
331
1633
  5
1634
331
1692
  5
1693
331
1427
  5
1498
331
1778
  5
1779
331
112
  5
112
331
15F4
  5
15F7
331
163B
  5
163C
331
152E
  5
152F
331
1595
  5
1596
331
16A2
  5
16A3
331
11A
  5
11A
331
1643
  5
1644
331
14AF
  5
14DC
331
15BD
  5
15BE
331
11B7
  5
11B9
331
10E1
  5
10E4
331
1128
  5
1129
331
1335
  5
1336
331
133D
  5
133E
331
12EE
  5
12FC
331
12FE
  5
1300
331
1345
  5
1346
331
10F9
  5
10FA
331
13E4
  5
13E5
331
134D
  5
134E
331
127F
  5
1289
331
17C5
  5
17C6
331
143
  5
143
331
17CD
  5
17CE
331
261
  5
263
331
766
  5
767
331
14B
  5
14B
331
84C
  5
84D
331
76E
  5
778
331
1B2
  5
1B2
331
4DF
  5
523
331
77E
  5
77F
331
527
  5
581
331
13E8
  5
13ED
331
1739
  5
173A
331
13F0
  5
13F1
331
1536
  5
1537
331
164B
  5
164C
331
1653
  5
1654
331
153E
  5
153F
331
15CD
  5
15CE
331
16B2
  5
16B3
331
1410
  5
1411
331
161C
  5
161D
331
1759
  5
1771
331
1624
  5
1625
331
157E
  5
157F
331
16CA
  5
16CF
331
1101
  5
1102
331
1109
  5
110A
331
1190
  5
1192
331
10C2
  5
10C3
331
1111
  5
1112
331
1198
  5
1199
331
11A8
  5
11B6
331
129F
  5
12B3
331
FC3
  5
FC4
331
1796
  5
1797
331
173
  5
173
331
124
  5
124
331
281
  5
282
331
17A6
  5
17A7
331
12C
  5
12C
331
78E
  5
78F
331
2E9
  5
2EA
331
134
  5
134
331
183
  5
183
331
410
  5
4DE
331
2F1
  5
2F6
331
13C
  5
13C
331
18B
  5
18B
331
168B
  5
168C
331
15E5
  5
15E6
331
162C
  5
162D
331
1517
  5
1518
331
10B
  5
10B
331
1693
  5
1694
331
1771
  5
1772
331
1634
  5
1635
331
1498
  5
1499
331
158E
  5
1590
331
113
  5
113
331
16A3
  5
16A4
331
1779
  5
1794
331
152F
  5
1533
331
1596
  5
15BD
331
163C
  5
163D
331
11B
  5
11B
331
1644
  5
1645
331
15BE
  5
15BF
331
172A
  5
1738
331
FCB
  5
1097
331
1129
  5
112C
331
1336
  5
1337
331
133E
  5
1340
331
13E5
  5
13E6
331
10FA
  5
10FB
331
1346
  5
1347
331
134E
  5
134F
331
17C6
  5
17C7
331
144
  5
144
331
17CE
  5
17CF
331
767
  5
768
331
14C
  5
14C
331
1B3
  5
1B3
331
84D
  5
84E
331
77F
  5
780
331
16C
  5
16C
331
173A
  5
173B
331
1537
  5
1538
331
164C
  5
164D
331
13F1
  5
13F2
331
1742
  5
1744
331
1615
  5
1616
331
1654
  5
1655
331
153F
  5
1540
331
13F9
  5
13FA
331
15CE
  5
15CF
331
16B3
  5
16B6
331
161D
  5
1620
331
1411
  5
1412
331
1508
  5
150A
331
174A
  5
1759
331
166C
  5
166D
331
157F
  5
1580
331
1625
  5
1626
331
10B3
  5
10B5
331
1102
  5
1103
331
1290
  5
1293
331
110A
  5
110C
331
130F
  5
1310
331
1199
  5
11A8
331
8BD
  5
8BE
331
10C3
  5
10C4
331
1112
  5
1113
331
FC4
  5
FC5
331
1797
  5
1798
331
282
  5
283
331
125
  5
125
331
17A7
  5
17B4
331
1C3
  5
1C3
331
2E2
  5
2E3
331
12D
  5
12D
331
17C
  5
17C
331
184
  5
184
331
253
  5
254
331
135
  5
135
331
2EA
  5
2EC
331
78F
  5
790
331
797
  5
798
331
13D
  5
13D
331
168C
  5
168D
331
1518
  5
1519
331
15E6
  5
15EB
331
162D
  5
162E
331
1772
  5
1773
331
1635
  5
1636
331
1528
  5
1529
331
1694
  5
1695
331
1499
  5
14AB
331
16A4
  5
16A5
331
171B
  5
172A
331
163D
  5
163E
331
114
  5
114
331
11C
  5
11C
331
1645
  5
1646
331
15BF
  5
15C0
331
10DB
  5
10DC
331
11B9
  5
11BA
331
1337
  5
1338
331
10F3
  5
10F4
331
1347
  5
1348
331
10FB
  5
10FC
331
13E6
  5
13E7
331
134F
  5
1350
331
17C7
  5
17C8
331
145
  5
145
331
17CF
  5
17D0
331
263
  5
264
331
26B
  5
26C
331
768
  5
769
331
14D
  5
14D
331
7AF
  5
803
331
84E
  5
84F
331
273
  5
274
331
778
  5
77A
331
16D
  5
16D
331
173B
  5
173C
331
13F2
  5
13F4
331
1538
  5
1539
331
164D
  5
164E
331
1655
  5
1656
331
1540
  5
1579
331
13FA
  5
1410
331
15CF
  5
15D0
331
1616
  5
1619
331
1412
  5
1413
331
15D7
  5
15D8
331
16C4
  5
16C6
331
1626
  5
1627
331
166D
  5
166E
331
1300
  5
1301
331
1289
  5
1290
331
85E
  5
85F
331
1103
  5
1104
331
1192
  5
1193
331
10BC
  5
10BD
331
1397
  5
139B
331
10C4
  5
10C5
331
1113
  5
1114
331
8BE
  5
8BF
331
1310
  5
1328
331
FC5
  5
FC6
331
1328
  5
132C
331
1798
  5
1799
331
581
  5
5D9
331
175
  5
175
331
1C4
  5
24E
331
1807
  5
1808
331
126
  5
126
331
283
  5
2E0
331
780
  5
78E
331
2E3
  5
2E4
331
40A
  5
40B
331
5D9
  5
5DA
331
12E
  5
12E
331
790
  5
792
331
136
  5
136
331
185
  5
185
331
254
  5
255
331
25C
  5
25E
331
798
  5
7AF
331
13E
  5
13E
331
18D
  5
18D
331
1580
  5
1581
331
168D
  5
168E
331
162E
  5
162F
331
1519
  5
151A
331
1695
  5
1696
331
1773
  5
1774
331
1590
  5
1592
331
1636
  5
1637
331
1529
  5
152A
  0
LAYOUT
  5
17F9
102
{ACAD_REACTORS
330
17F7
102
}
330
17F7
100
AcDbPlotSettings
  1

  2
A4 EPSON LP-6100.pc3
  4
A4
  6

 40
5.873749732971191
 41
5.873747825622558
 42
5.873748779296875
 43
5.873748779296875
 44
209.9733276367187
 45
297.0106506347656
 46
0.0
 47
25.0
 48
0.0
 49
0.0
140
0.0
141
0.0
142
1.0
143
1.0
 70
 28336
 72
     1
 73
     1
 74
     1
  7
AutoCAD LT 98.ctb
 75
    16
147
1.0
 76
     1
 77
     2
 78
   300
148
-236.4655427980613
149
-171.6339896600951
100
AcDbLayout
  1
Model
 70
     1
 71
     0
 10
0.0
 20
0.0
 11
12.0
 21
9.0
 12
0.0
 22
0.0
 32
0.0
 14
0.0
 24
0.0
 34
0.0
 15
0.0
 25
0.0
 35
0.0
146
0.0
 13
0.0
 23
0.0
 33
0.0
 16
1.0
 26
0.0
 36
0.0
 17
0.0
 27
1.0
 37
0.0
 76
     0
330
18
1001
ACAD_PSEXT
1000
A4 EPSON LP-6100.pc3
1000
EPSON LP-6100
1000
\\SATO-MATE2
1000

1070
     0
  0
LAYOUT
  5
17FA
102
{ACAD_REACTORS
330
17F7
102
}
330
17F7
100
AcDbPlotSettings
  1

  2
WIDR Printer
  4

  6

 40
0.0
 41
0.0
 42
0.0
 43
0.0
 44
0.0
 45
0.0
 46
0.0
 47
0.0
 48
0.0
 49
0.0
140
0.0
141
0.0
142
1.0
143
1.0
 70
   688
 72
     0
 73
     0
 74
     5
  7
AutoCad LT 98.ctb
 75
    16
147
1.0
 76
     0
 77
     2
 78
   300
148
0.0
149
0.0
100
AcDbLayout
  1
レイアウト1
 70
     1
 71
     1
 10
0.0
 20
0.0
 11
420.0
 21
297.0
 12
0.0
 22
0.0
 32
0.0
 14
1.000000000000000E+20
 24
1.000000000000000E+20
 34
1.000000000000000E+20
 15
-1.000000000000000E+20
 25
-1.000000000000000E+20
 35
-1.000000000000000E+20
146
0.0
 13
0.0
 23
0.0
 33
0.0
 16
1.0
 26
0.0
 36
0.0
 17
0.0
 27
1.0
 37
0.0
 76
     0
330
15
  0
MLINESTYLE
  5
1C
102
{ACAD_REACTORS
330
1B
102
}
330
1B
100
AcDbMlineStyle
  2
STANDARD
 70
     0
  3

 62
   256
 51
90.0
 52
90.0
 71
     2
 49
0.5
 62
   256
  6
BYLAYER
 49
-0.5
 62
   256
  6
BYLAYER
  0
ACDBPLACEHOLDER
  5
17F2
102
{ACAD_REACTORS
330
17F1
102
}
330
17F1
  0
ACAD_PROXY_OBJECT
  5
17F6
102
{ACAD_REACTORS
330
17F5
102
}
330
17F5
100
AcDbProxyObject
 90
      499
 91
      503
 95
  2555929
 70
     0
 93
     1849
310
4214DD185B99185C992420000000000000F83F0000000000003E0FC00000000000004901028000000C1008070000C3001FDFF8000000C1003FBFF000000182007F7FE00000030400FEFFC00000060801FDFF8000000C1003FBFF000000182000000000000000C2020B0000001820100E000186003FBFF000000182007F7FE0
310
0000030400FEFFC00000060801FDFF8000000C1003FBFF000000182007F7FE0000003040000000000000012404160000003040201C00030C007F7FE00000030400FEFFC00000060801FDFF8000000C1003FBFF000000182007F7FE00000030400FEFFC000000608000
340
F
340
F
340
F
 94
        0
  0
DICTIONARYVAR
  5
1818
102
{ACAD_REACTORS
330
192
102
}
330
192
100
DictionaryVariables
280
     0
  1
STANDARD
  0
DICTIONARYVAR
  5
193
102
{ACAD_REACTORS
330
192
102
}
330
192
100
DictionaryVariables
280
     0
  1
96
  0
ENDSEC
  0
EOF
