  0
SECTION
  2
HEADER
  9
$ACADVER
  1
AC1009
  9
$INSBASE
 10
0.0
 20
0.0
 30
0.0
  9
$EXTMIN
 10
236.46554279806131
 20
171.6339896600951
 30
-0.0000000000112498
  9
$EXTMAX
 10
491.89906863372988
 20
367.05577787688497
 30
0.0000000000002956
  9
$LIMMIN
 10
0.0
 20
0.0
  9
$LIMMAX
 10
420.0
 20
297.0
  9
$ORTHOMODE
 70
     0
  9
$REGENMODE
 70
     1
  9
$FILLMODE
 70
     1
  9
$QTEXTMODE
 70
     0
  9
$MIRRTEXT
 70
     1
  9
$DRAGMODE
 70
     2
  9
$LTSCALE
 40
1.0
  9
$OSMODE
 70
    37
  9
$ATTMODE
 70
     1
  9
$TEXTSIZE
 40
3.0
  9
$TRACEWID
 40
1.0
  9
$TEXTSTYLE
  7
STYLE3
  9
$CLAYER
  8
寸法線
  9
$CELTYPE
  6
BYLAYER
  9
$CECOLOR
 62
   256
  9
$DIMSCALE
 40
1.0
  9
$DIMASZ
 40
2.5
  9
$DIMEXO
 40
0.0
  9
$DIMDLI
 40
3.75
  9
$DIMRND
 40
0.0
  9
$DIMDLE
 40
0.0
  9
$DIMEXE
 40
1.25
  9
$DIMTP
 40
0.0
  9
$DIMTM
 40
0.0
  9
$DIMTXT
 40
2.5
  9
$DIMCEN
 40
2.5
  9
$DIMTSZ
 40
0.0
  9
$DIMTOL
 70
     0
  9
$DIMLIM
 70
     0
  9
$DIMTIH
 70
     0
  9
$DIMTOH
 70
     0
  9
$DIMSE1
 70
     0
  9
$DIMSE2
 70
     0
  9
$DIMTAD
 70
     1
  9
$DIMZIN
 70
     8
  9
$DIMBLK
  1

  9
$DIMASO
 70
     1
  9
$DIMSHO
 70
     1
  9
$DIMPOST
  1

  9
$DIMAPOST
  1

  9
$DIMALT
 70
     0
  9
$DIMALTD
 70
     4
  9
$DIMALTF
 40
0.0394
  9
$DIMLFAC
 40
1.0
  9
$DIMTOFL
 70
     1
  9
$DIMTVP
 40
0.0
  9
$DIMTIX
 70
     0
  9
$DIMSOXD
 70
     0
  9
$DIMSAH
 70
     1
  9
$DIMBLK1
  1
OPEN
  9
$DIMBLK2
  1
OPEN
  9
$DIMSTYLE
  2
STYLE3
  9
$DIMCLRD
 70
     2
  9
$DIMCLRE
 70
     2
  9
$DIMCLRT
 70
     6
  9
$DIMTFAC
 40
1.0
  9
$DIMGAP
 40
0.625
  9
$LUNITS
 70
     2
  9
$LUPREC
 70
     4
  9
$SKETCHINC
 40
1.0
  9
$FILLETRAD
 40
0.5
  9
$AUNITS
 70
     0
  9
$AUPREC
 70
     0
  9
$MENU
  1
.
  9
$ELEVATION
 40
0.0
  9
$PELEVATION
 40
0.0
  9
$THICKNESS
 40
0.0
  9
$LIMCHECK
 70
     0
  9
$BLIPMODE
 70
     0
  9
$CHAMFERA
 40
1.0
  9
$CHAMFERB
 40
1.0
  9
$SKPOLY
 70
     0
  9
$TDCREATE
 40
2450753.4625406251
  9
$TDUPDATE
 40
2455371.4943104289
  9
$TDINDWG
 40
2.8984962037000002
  9
$TDUSRTIMER
 40
2.8984962037000002
  9
$USRTIMER
 70
     1
  9
$ANGBASE
 50
0.0
  9
$ANGDIR
 70
     0
  9
$PDMODE
 70
     0
  9
$PDSIZE
 40
0.0
  9
$PLINEWID
 40
0.0
  9
$COORDS
 70
     1
  9
$SPLFRAME
 70
     0
  9
$SPLINETYPE
 70
     6
  9
$SPLINESEGS
 70
     8
  9
$ATTDIA
 70
     0
  9
$ATTREQ
 70
     1
  9
$HANDLING
 70
     1
  9
$HANDSEED
  5
24BD
  9
$SURFTAB1
 70
     6
  9
$SURFTAB2
 70
     6
  9
$SURFTYPE
 70
     6
  9
$SURFU
 70
     6
  9
$SURFV
 70
     6
  9
$UCSNAME
  2

  9
$UCSORG
 10
0.0
 20
0.0
 30
0.0
  9
$UCSXDIR
 10
1.0
 20
0.0
 30
0.0
  9
$UCSYDIR
 10
0.0
 20
1.0
 30
0.0
  9
$PUCSNAME
  2

  9
$PUCSORG
 10
0.0
 20
0.0
 30
0.0
  9
$PUCSXDIR
 10
1.0
 20
0.0
 30
0.0
  9
$PUCSYDIR
 10
0.0
 20
1.0
 30
0.0
  9
$USERI1
 70
     0
  9
$USERI2
 70
     0
  9
$USERI3
 70
     0
  9
$USERI4
 70
     0
  9
$USERI5
 70
     0
  9
$USERR1
 40
0.0
  9
$USERR2
 40
0.0
  9
$USERR3
 40
0.0
  9
$USERR4
 40
0.0
  9
$USERR5
 40
0.0
  9
$WORLDVIEW
 70
     1
  9
$SHADEDGE
 70
     3
  9
$SHADEDIF
 70
    70
  9
$TILEMODE
 70
     1
  9
$MAXACTVP
 70
    48
  9
$PLIMCHECK
 70
     0
  9
$PEXTMIN
 10
1.0000000000000000E+020
 20
1.0000000000000000E+020
 30
1.0000000000000000E+020
  9
$PEXTMAX
 10
-1.0000000000000000E+020
 20
-1.0000000000000000E+020
 30
-1.0000000000000000E+020
  9
$PLIMMIN
 10
0.0
 20
0.0
  9
$PLIMMAX
 10
420.0
 20
297.0
  9
$UNITMODE
 70
     0
  9
$VISRETAIN
 70
     1
  9
$PLINEGEN
 70
     0
  9
$PSLTSCALE
 70
     1
  0
ENDSEC
  0
SECTION
  2
TABLES
  0
TABLE
  2
VPORT
 70
     3
  0
VPORT
  2
*ACTIVE
 70
     0
 10
0.0
 20
0.0
 11
1.0
 21
1.0
 12
364.18230571589561
 22
269.34488376849009
 13
0.0
 23
0.0
 14
10.0
 24
10.0
 15
10.0
 25
10.0
 16
0.0
 26
0.0
 36
1.0
 17
0.0
 27
0.0
 37
0.0
 40
196.90788546558679
 41
1.530456852791878
 42
50.0
 43
0.0
 44
0.0
 50
0.0
 51
0.0
 71
     0
 72
   100
 73
     1
 74
     1
 75
     0
 76
     0
 77
     0
 78
     0
  0
ENDTAB
  0
TABLE
  2
LTYPE
 70
     4
  0
LTYPE
  2
CONTINUOUS
 70
     0
  3
Solid line
 72
    65
 73
     0
 40
0.0
  0
LTYPE
  2
CENTER2
 70
     0
  3
Center (.5x) ___ _ ___ _ ___ _ ___ _ ___ _ ___
 72
    65
 73
     4
 40
28.574999999999999
 49
19.050000000000001
 49
-3.1749999999999989
 49
3.1749999999999989
 49
-3.1749999999999989
  0
LTYPE
  2
PHANTOM2
 70
     0
  3
Phantom (.5x) ___ _ _ ___ _ _ ___ _ _ ___ _ _
 72
    65
 73
     6
 40
31.75
 49
15.875
 49
-3.1749999999999989
 49
3.1749999999999989
 49
-3.1749999999999989
 49
3.1749999999999989
 49
-3.1749999999999989
  0
LTYPE
  2
HIDDEN2
 70
     0
  3
Hidden (.5x) _ _ _ _ _ _ _ _ _ _ _ _ _ _ _ _ _
 72
    65
 73
     2
 40
4.7624999999999993
 49
3.1749999999999989
 49
-1.587499999999999
  0
ENDTAB
  0
TABLE
  2
LAYER
 70
    13
  0
LAYER
  2
0
 70
     0
 62
     7
  6
CONTINUOUS
  0
LAYER
  2
外形線
 70
     0
 62
     7
  6
CONTINUOUS
  0
LAYER
  2
寸法線
 70
     0
 62
     2
  6
CONTINUOUS
  0
LAYER
  2
中心線
 70
     0
 62
     4
  6
CENTER2
  0
LAYER
  2
ﾊｯﾁﾝｸ
 70
     0
 62
     6
  6
CONTINUOUS
  0
LAYER
  2
文字
 70
     0
 62
     6
  6
CONTINUOUS
  0
LAYER
  2
DEFPOINTS
 70
     0
 62
     7
  6
CONTINUOUS
  0
LAYER
  2
C
 70
     0
 62
     7
  6
CONTINUOUS
  0
LAYER
  2
想像線
 70
     0
 62
     1
  6
PHANTOM2
  0
LAYER
  2
隠れ線
 70
     0
 62
     1
  6
HIDDEN2
  0
ENDTAB
  0
TABLE
  2
STYLE
 70
     5
  0
STYLE
  2
STANDARD
 70
     0
 40
0.0
 41
1.0
 50
0.0
 71
     0
 42
2.5
  3
txt
  4

  0
STYLE
  2
STYLE3
 70
     0
 40
0.0
 41
1.0
 50
0.0
 71
     0
 42
3.0
  3
romans.shx
  4
bigfont.shx
  0
ENDTAB
  0
TABLE
  2
VIEW
 70
     0
  0
ENDTAB
  0
TABLE
  2
UCS
 70
     0
  0
ENDTAB
  0
TABLE
  2
APPID
 70
     2
  0
APPID
  2
ACAD
 70
     0
  0
APPID
  2
ACAD_PSEXT
 70
     0
  0
ENDTAB
  0
TABLE
  2
DIMSTYLE
 70
     4
  0
DIMSTYLE
  2
STANDARD
 70
     0
  3

  4

  5

  6

  7

 40
1.0
 41
2.5
 42
0.625
 43
3.75
 44
1.25
 45
0.0
 46
0.0
 47
0.0
 48
0.0
140
2.5
141
2.5
142
0.0
143
0.0394
144
1.0
145
0.0
146
1.0
147
0.625
 71
     0
 72
     0
 73
     0
 74
     0
 75
     0
 76
     0
 77
     1
 78
     8
170
     0
171
     4
172
     1
173
     0
174
     0
175
     0
176
     0
177
     0
178
     0
  0
DIMSTYLE
  2
STYLE3
 70
     0
  3

  4

  5

  6
OPEN
  7
OPEN
 40
1.0
 41
2.5
 42
0.0
 43
3.75
 44
1.25
 45
0.0
 46
0.0
 47
0.0
 48
0.0
140
2.5
141
2.5
142
0.0
143
0.0394
144
1.0
145
0.0
146
1.0
147
0.625
 71
     0
 72
     0
 73
     0
 74
     0
 75
     0
 76
     0
 77
     1
 78
     8
170
     0
171
     4
172
     1
173
     1
174
     0
175
     0
176
     2
177
     2
178
     6
  0
ENDTAB
  0
ENDSEC
  0
SECTION
  2
BLOCKS
  0
BLOCK
  8
0
  2
$MODEL_SPACE
 70
     0
 10
0.0
 20
0.0
 30
0.0
  3
$MODEL_SPACE
  1

  0
ENDBLK
  5
1A
  8
0
  0
BLOCK
 67
     1
  8
0
  2
$PAPER_SPACE
 70
     0
 10
0.0
 20
0.0
 30
0.0
  3
$PAPER_SPACE
  1

  0
ENDBLK
  5
17
 67
     1
  8
0
  0
BLOCK
  8
0
  2
_OPEN
 70
     0
 10
0.0
 20
0.0
 30
0.0
  3
_OPEN
  1

  0
LINE
  5
47
  8
0
  6
BYBLOCK
 62
     0
 10
-1.0
 20
0.1666666666666666
 30
0.0
 11
0.0
 21
0.0
 31
0.0
  0
LINE
  5
48
  8
0
  6
BYBLOCK
 62
     0
 10
0.0
 20
0.0
 30
0.0
 11
-1.0
 21
-0.1666666666666666
 31
0.0
  0
LINE
  5
49
  8
0
  6
BYBLOCK
 62
     0
 10
0.0
 20
0.0
 30
0.0
 11
-1.0
 21
0.0
 31
0.0
  0
ENDBLK
  5
4A
  8
0
  0
BLOCK
  8
0
  2
六角ﾈｼ
 70
     0
 10
0.0
 20
0.0
 30
0.0
  3
六角ﾈｼ
  1

  0
LINE
  5
51D
  8
外形線
 10
-0.0000000000000568
 20
4.4999999999999432
 30
0.0
 11
2.7375995731816261
 21
4.4999999999999432
 31
0.0
  0
ARC
  5
51E
  8
外形線
 10
-4.0100000000026617
 20
2.5999999999995111
 30
0.0
 40
7.0100000000027221
 50
338.22894589069568
 51
15.726243792790671
  0
ARC
  5
51F
  8
外形線
 10
-4.0100000000026617
 20
-2.5999999999995111
 30
0.0
 40
7.0100000000027221
 50
344.27375620720881
 51
21.771054109304352
  0
LINE
  5
520
  8
外形線
 10
0.0000000000001705
 20
-4.5
 30
0.0
 11
2.7375995731815692
 21
-4.5
 31
0.0
  0
ENDBLK
  5
522
  8
0
  0
BLOCK
  8
0
  2
*D6
 70
     1
 10
0.0
 20
0.0
 30
0.0
  3
*D6
  1

  0
LINE
  5
174D
  8
0
  6
BYBLOCK
 62
     2
 10
420.70302875981599
 20
263.94082335592748
 30
0.0
 11
420.70302875981599
 21
283.1351889815391
 31
0.0
  0
LINE
  5
174E
  8
0
  6
BYBLOCK
 62
     2
 10
417.70302875981611
 20
277.25284144459027
 30
0.0
 11
417.70302875981611
 21
283.1351889815391
 31
0.0
  0
LINE
  5
174F
  8
0
  6
BYBLOCK
 62
     2
 10
423.20302875981611
 20
281.8851889815391
 30
0.0
 11
425.70302875981599
 21
281.8851889815391
 31
0.0
  0
LINE
  5
1750
  8
0
  6
BYBLOCK
 62
     2
 10
415.20302875981611
 20
281.8851889815391
 30
0.0
 11
412.70302875981599
 21
281.8851889815391
 31
0.0
  0
LINE
  5
1751
  8
0
  6
BYBLOCK
 62
     2
 10
420.70302875981599
 20
281.8851889815391
 30
0.0
 11
417.70302875981611
 21
281.8851889815391
 31
0.0
  0
INSERT
  5
1752
  8
0
  6
BYBLOCK
 62
     2
  2
_OPEN
 10
420.70302875981599
 20
281.8851889815391
 30
0.0
 41
2.5
 42
2.5
 43
2.5
 50
180.0
  0
INSERT
  5
1753
  8
0
  6
BYBLOCK
 62
     2
  2
_OPEN
 10
417.70302875981611
 20
281.8851889815391
 30
0.0
 41
2.5
 42
2.5
 43
2.5
  0
INSERT
  5
1754
  8
寸法線
  2
*U21
 10
0.0
 20
0.0
 30
0.0
  0
POINT
  5
1755
  8
DEFPOINTS
  6
BYBLOCK
 62
     0
 10
420.70302875981599
 20
263.94082335592748
 30
0.0
  0
POINT
  5
1756
  8
DEFPOINTS
  6
BYBLOCK
 62
     0
 10
417.70302875981611
 20
277.25284144459027
 30
0.0
  0
POINT
  5
1757
  8
DEFPOINTS
  6
BYBLOCK
 62
     0
 10
417.70302875981611
 20
281.8851889815391
 30
0.0
  0
ENDBLK
  5
1758
  8
0
  0
BLOCK
  8
0
  2
*D7
 70
     1
 10
0.0
 20
0.0
 30
0.0
  3
*D7
  1

  0
LINE
  5
21E2
  8
寸法線
 62
     2
 10
267.34212583719881
 20
303.8490496336488
 30
0.0
 11
267.34212583719881
 21
327.93661395526442
 31
0.0
  0
LINE
  5
21E3
  8
寸法線
 62
     2
 10
334.84212583719869
 20
326.68661395526442
 30
0.0
 11
269.84212583719869
 21
326.68661395526442
 31
0.0
  0
INSERT
  5
21E4
  8
寸法線
 62
     2
  2
_OPEN
 10
337.34212583719869
 20
326.68661395526442
 30
0.0
 41
2.5
 42
2.5
 43
2.5
  0
INSERT
  5
21E5
  8
寸法線
 62
     2
  2
_OPEN
 10
267.34212583719881
 20
326.68661395526442
 30
0.0
 41
2.5
 42
2.5
 43
2.5
 50
180.0
  0
TEXT
  8
寸法線
  40
2.5
  5
2216
  62
6
  72
0
  71
0
 10
297.342
 20
324.137
 30
0.000000
  1
70
  7
STYLE3
  0
POINT
  5
21E7
  8
DEFPOINTS
 62
     0
 10
337.34212583719869
 20
303.8490496336488
 30
0.0
  0
POINT
  5
21E8
  8
DEFPOINTS
 62
     0
 10
267.34212583719881
 20
303.8490496336488
 30
0.0
  0
POINT
  5
21E9
  8
DEFPOINTS
 62
     0
 10
267.34212583719881
 20
326.68661395526442
 30
0.0
  0
ENDBLK
  5
1770
  8
0
  0
BLOCK
  8
0
  2
*D9
 70
     1
 10
0.0
 20
0.0
 30
0.0
  3
*D9
  1

  0
LINE
  5
1B87
  8
寸法線
 62
     2
 10
417.70302875981611
 20
317.44224832965278
 30
0.0
 11
386.6967594018422
 21
317.44224832965278
 31
0.0
  0
LINE
  5
1B88
  8
寸法線
 62
     2
 10
387.46570645760522
 20
296.74224832965302
 30
0.0
 11
389.1967594018422
 21
296.74224832965302
 31
0.0
  0
LINE
  5
1B89
  8
寸法線
 62
     2
 10
387.9467594018422
 20
314.94224832965278
 30
0.0
 11
387.9467594018422
 21
299.24224832965302
 31
0.0
  0
INSERT
  5
1B8A
  8
寸法線
 62
     2
  2
_OPEN
 10
387.9467594018422
 20
317.44224832965278
 30
0.0
 41
2.5
 42
2.5
 43
2.5
 50
90.0
  0
INSERT
  5
1B8B
  8
寸法線
 62
     2
  2
_OPEN
 10
387.9467594018422
 20
296.74224832965302
 30
0.0
 41
2.5
 42
2.5
 43
2.5
 50
270.0
  0
INSERT
  5
1B8C
  8
寸法線
  2
*U25
 10
0.0
 20
0.0
 30
0.0
  0
POINT
  5
1B8D
  8
DEFPOINTS
 62
     0
 10
417.70302875981611
 20
317.44224832965278
 30
0.0
  0
POINT
  5
1B8E
  8
DEFPOINTS
 62
     0
 10
387.46570645760522
 20
296.74224832965302
 30
0.0
  0
POINT
  5
1B8F
  8
DEFPOINTS
 62
     0
 10
387.9467594018422
 20
296.74224832965302
 30
0.0
  0
ENDBLK
  5
1B91
  8
0
  0
BLOCK
  8
0
  2
*D10
 70
     1
 10
0.0
 20
0.0
 30
0.0
  3
*D10
  1

  0
LINE
  5
1B94
  8
寸法線
 62
     2
 10
419.95302875981611
 20
315.7422483296528
 30
0.0
 11
432.67993833592539
 21
315.7422483296528
 31
0.0
  0
LINE
  5
1B95
  8
寸法線
 62
     2
 10
417.70302875981611
 20
317.44224832965278
 30
0.0
 11
432.67993833592539
 21
317.44224832965278
 31
0.0
  0
LINE
  5
1B96
  8
寸法線
 62
     2
 10
431.42993833592539
 20
313.24224832965268
 30
0.0
 11
431.42993833592539
 21
310.74224832965268
 31
0.0
  0
LINE
  5
1B97
  8
寸法線
 62
     2
 10
431.42993833592539
 20
319.94224832965278
 30
0.0
 11
431.42993833592539
 21
328.57320071060519
 31
0.0
  0
LINE
  5
1B98
  8
寸法線
 62
     2
 10
431.42993833592539
 20
315.7422483296528
 30
0.0
 11
431.42993833592539
 21
317.44224832965278
 31
0.0
  0
INSERT
  5
1B99
  8
寸法線
 62
     2
  2
_OPEN
 10
431.42993833592539
 20
315.7422483296528
 30
0.0
 41
2.5
 42
2.5
 43
2.5
 50
90.0
  0
INSERT
  5
1B9A
  8
寸法線
 62
     2
  2
_OPEN
 10
431.42993833592539
 20
317.44224832965278
 30
0.0
 41
2.5
 42
2.5
 43
2.5
 50
270.0
  0
INSERT
  5
1B9B
  8
寸法線
  2
*U26
 10
0.0
 20
0.0
 30
0.0
  0
POINT
  5
1B9C
  8
DEFPOINTS
 62
     0
 10
419.95302875981611
 20
315.7422483296528
 30
0.0
  0
POINT
  5
1B9D
  8
DEFPOINTS
 62
     0
 10
417.70302875981611
 20
317.44224832965278
 30
0.0
  0
POINT
  5
1B9E
  8
DEFPOINTS
 62
     0
 10
431.42993833592539
 20
317.44224832965278
 30
0.0
  0
ENDBLK
  5
1BA0
  8
0
  0
BLOCK
  8
0
  2
*D11
 70
     1
 10
0.0
 20
0.0
 30
0.0
  3
*D11
  1

  0
LINE
  5
1BA3
  8
寸法線
 62
     2
 10
422.86067529474929
 20
296.74224832965291
 30
0.0
 11
432.67993833592539
 21
296.74224832965291
 31
0.0
  0
LINE
  5
1BA4
  8
寸法線
 62
     2
 10
427.93592346525088
 20
315.7422483296528
 30
0.0
 11
432.67993833592539
 21
315.7422483296528
 31
0.0
  0
LINE
  5
1BA5
  8
寸法線
 62
     2
 10
431.42993833592539
 20
299.24224832965291
 30
0.0
 11
431.42993833592539
 21
313.24224832965268
 31
0.0
  0
INSERT
  5
1BA6
  8
寸法線
 62
     2
  2
_OPEN
 10
431.42993833592539
 20
296.74224832965291
 30
0.0
 41
2.5
 42
2.5
 43
2.5
 50
270.0
  0
INSERT
  5
1BA7
  8
寸法線
 62
     2
  2
_OPEN
 10
431.42993833592539
 20
315.7422483296528
 30
0.0
 41
2.5
 42
2.5
 43
2.5
 50
90.0
  0
INSERT
  5
1BA8
  8
寸法線
  2
*U27
 10
0.0
 20
0.0
 30
0.0
  0
POINT
  5
1BA9
  8
DEFPOINTS
 62
     0
 10
422.86067529474929
 20
296.74224832965291
 30
0.0
  0
POINT
  5
1BAA
  8
DEFPOINTS
 62
     0
 10
427.93592346525088
 20
315.7422483296528
 30
0.0
  0
POINT
  5
1BAB
  8
DEFPOINTS
 62
     0
 10
431.42993833592539
 20
315.7422483296528
 30
0.0
  0
ENDBLK
  5
1BAD
  8
0
  0
BLOCK
  8
0
  2
*D12
 70
     1
 10
0.0
 20
0.0
 30
0.0
  3
*D12
  1

  0
LINE
  5
1BB0
  8
寸法線
 62
     2
 10
420.70302875981639
 20
271.74224832965291
 30
0.0
 11
432.67993833592539
 21
271.74224832965291
 31
0.0
  0
LINE
  5
1BB1
  8
寸法線
 62
     2
 10
427.77369667128761
 20
296.74224832965291
 30
0.0
 11
432.67993833592539
 21
296.74224832965291
 31
0.0
  0
LINE
  5
1BB2
  8
寸法線
 62
     2
 10
431.42993833592539
 20
274.2422483296528
 30
0.0
 11
431.42993833592539
 21
294.24224832965291
 31
0.0
  0
INSERT
  5
1BB3
  8
寸法線
 62
     2
  2
_OPEN
 10
431.42993833592539
 20
271.74224832965291
 30
0.0
 41
2.5
 42
2.5
 43
2.5
 50
270.0
  0
INSERT
  5
1BB4
  8
寸法線
 62
     2
  2
_OPEN
 10
431.42993833592539
 20
296.74224832965291
 30
0.0
 41
2.5
 42
2.5
 43
2.5
 50
90.0
  0
INSERT
  5
1BB5
  8
寸法線
  2
*U28
 10
0.0
 20
0.0
 30
0.0
  0
POINT
  5
1BB6
  8
DEFPOINTS
 62
     0
 10
420.70302875981639
 20
271.74224832965291
 30
0.0
  0
POINT
  5
1BB7
  8
DEFPOINTS
 62
     0
 10
427.77369667128761
 20
296.74224832965291
 30
0.0
  0
POINT
  5
1BB8
  8
DEFPOINTS
 62
     0
 10
431.42993833592539
 20
296.74224832965291
 30
0.0
  0
ENDBLK
  5
1BBA
  8
0
  0
BLOCK
  8
0
  2
*D13
 70
     1
 10
0.0
 20
0.0
 30
0.0
  3
*D13
  1

  0
LINE
  5
1BBD
  8
寸法線
 62
     2
 10
420.70302875981628
 20
221.74224832965291
 30
0.0
 11
432.67993833592539
 21
221.74224832965291
 31
0.0
  0
LINE
  5
1BBE
  8
寸法線
 62
     2
 10
427.27906447532371
 20
271.74224832965291
 30
0.0
 11
432.67993833592539
 21
271.74224832965291
 31
0.0
  0
LINE
  5
1BBF
  8
寸法線
 62
     2
 10
431.42993833592539
 20
224.2422483296528
 30
0.0
 11
431.42993833592539
 21
269.24224832965291
 31
0.0
  0
INSERT
  5
1BC0
  8
寸法線
 62
     2
  2
_OPEN
 10
431.42993833592539
 20
221.74224832965291
 30
0.0
 41
2.5
 42
2.5
 43
2.5
 50
270.0
  0
INSERT
  5
1BC1
  8
寸法線
 62
     2
  2
_OPEN
 10
431.42993833592539
 20
271.74224832965291
 30
0.0
 41
2.5
 42
2.5
 43
2.5
 50
90.0
  0
INSERT
  5
1BC2
  8
寸法線
  2
*U29
 10
0.0
 20
0.0
 30
0.0
  0
POINT
  5
1BC3
  8
DEFPOINTS
 62
     0
 10
420.70302875981628
 20
221.74224832965291
 30
0.0
  0
POINT
  5
1BC4
  8
DEFPOINTS
 62
     0
 10
427.27906447532371
 20
271.74224832965291
 30
0.0
  0
POINT
  5
1BC5
  8
DEFPOINTS
 62
     0
 10
431.42993833592539
 20
271.74224832965291
 30
0.0
  0
ENDBLK
  5
1BC7
  8
0
  0
BLOCK
  8
0
  2
*D14
 70
     1
 10
0.0
 20
0.0
 30
0.0
  3
*D14
  1

  0
LINE
  5
1BD6
  8
寸法線
 62
     2
 10
417.70302875981622
 20
216.74224832965291
 30
0.0
 11
440.61597539939532
 21
216.74224832965291
 31
0.0
  0
LINE
  5
1BD7
  8
寸法線
 62
     2
 10
432.67993833592539
 20
317.44224832965278
 30
0.0
 11
440.61597539939532
 21
317.44224832965278
 31
0.0
  0
LINE
  5
1BD8
  8
寸法線
 62
     2
 10
439.36597539939532
 20
219.24224832965291
 30
0.0
 11
439.36597539939532
 21
314.94224832965278
 31
0.0
  0
INSERT
  5
1BD9
  8
寸法線
 62
     2
  2
_OPEN
 10
439.36597539939532
 20
216.74224832965291
 30
0.0
 41
2.5
 42
2.5
 43
2.5
 50
270.0
  0
INSERT
  5
1BDA
  8
寸法線
 62
     2
  2
_OPEN
 10
439.36597539939532
 20
317.44224832965278
 30
0.0
 41
2.5
 42
2.5
 43
2.5
 50
90.0
  0
INSERT
  5
1BDB
  8
寸法線
  2
*U30
 10
0.0
 20
0.0
 30
0.0
  0
POINT
  5
1BDC
  8
DEFPOINTS
 62
     0
 10
417.70302875981622
 20
216.74224832965291
 30
0.0
  0
POINT
  5
1BDD
  8
DEFPOINTS
 62
     0
 10
432.67993833592539
 20
317.44224832965278
 30
0.0
  0
POINT
  5
1BDE
  8
DEFPOINTS
 62
     0
 10
439.36597539939532
 20
317.44224832965278
 30
0.0
  0
ENDBLK
  5
1BD4
  8
0
  0
BLOCK
  8
0
  2
*D15
 70
     1
 10
0.0
 20
0.0
 30
0.0
  3
*D15
  1

  0
LINE
  5
1C28
  8
寸法線
 62
     2
 10
244.34212583719881
 20
301.44224832965301
 30
0.0
 11
244.34212583719881
 21
327.93661395526442
 31
0.0
  0
LINE
  5
1C29
  8
寸法線
 62
     2
 10
267.34212583719881
 20
303.8490496336488
 30
0.0
 11
267.34212583719881
 21
327.93661395526442
 31
0.0
  0
LINE
  5
1C2A
  8
寸法線
 62
     2
 10
246.84212583719881
 20
326.68661395526442
 30
0.0
 11
264.84212583719881
 21
326.68661395526442
 31
0.0
  0
INSERT
  5
1C2B
  8
寸法線
 62
     2
  2
_OPEN
 10
244.34212583719881
 20
326.68661395526442
 30
0.0
 41
2.5
 42
2.5
 43
2.5
 50
180.0
  0
INSERT
  5
1C2C
  8
寸法線
 62
     2
  2
_OPEN
 10
267.34212583719881
 20
326.68661395526442
 30
0.0
 41
2.5
 42
2.5
 43
2.5
  0
INSERT
  5
1C2D
  8
寸法線
  2
*U32
 10
0.0
 20
0.0
 30
0.0
  0
POINT
  5
1C2E
  8
DEFPOINTS
 62
     0
 10
244.34212583719881
 20
301.44224832965301
 30
0.0
  0
POINT
  5
1C2F
  8
DEFPOINTS
 62
     0
 10
267.34212583719881
 20
303.8490496336488
 30
0.0
  0
POINT
  5
1C30
  8
DEFPOINTS
 62
     0
 10
267.34212583719881
 20
326.68661395526442
 30
0.0
  0
ENDBLK
  5
1C32
  8
0
  0
BLOCK
  8
0
  2
*X17
 70
     1
 10
0.0
 20
0.0
 30
0.0
  3
*X17
  1

  0
LINE
  5
1CA8
  8
0
 62
     0
 10
312.21230407277392
 20
286.91192888703381
 30
0.0
 11
312.21230407277392
 21
286.91192888703381
 31
0.0
  0
LINE
  5
1CA9
  8
0
 62
     0
 10
311.57730407277393
 20
286.91192888703381
 30
0.0
 11
311.57730407277393
 21
286.91192888703381
 31
0.0
  0
LINE
  5
1CAA
  8
0
 62
     0
 10
310.94230407277388
 20
286.91192888703381
 30
0.0
 11
310.94230407277388
 21
286.91192888703381
 31
0.0
  0
LINE
  5
1CAB
  8
0
 62
     0
 10
310.307304072774
 20
286.91192888703381
 30
0.0
 11
310.307304072774
 21
286.91192888703381
 31
0.0
  0
LINE
  5
1CAC
  8
0
 62
     0
 10
309.67230407277401
 20
286.91192888703381
 30
0.0
 11
309.67230407277401
 21
286.91192888703381
 31
0.0
  0
LINE
  5
1CAD
  8
0
 62
     0
 10
309.03730407277402
 20
286.91192888703381
 30
0.0
 11
309.03730407277402
 21
286.91192888703381
 31
0.0
  0
LINE
  5
1CAE
  8
0
 62
     0
 10
308.40230407277397
 20
286.91192888703381
 30
0.0
 11
308.40230407277397
 21
286.91192888703381
 31
0.0
  0
LINE
  5
1CAF
  8
0
 62
     0
 10
307.76730407277398
 20
286.91192888703381
 30
0.0
 11
307.76730407277398
 21
286.91192888703381
 31
0.0
  0
LINE
  5
1CB0
  8
0
 62
     0
 10
296.97230407277391
 20
286.91192888703381
 30
0.0
 11
296.97230407277391
 21
286.91192888703381
 31
0.0
  0
LINE
  5
1CB1
  8
0
 62
     0
 10
296.33730407277392
 20
286.91192888703381
 30
0.0
 11
296.33730407277392
 21
286.91192888703381
 31
0.0
  0
LINE
  5
1CB2
  8
0
 62
     0
 10
295.70230407277393
 20
286.91192888703381
 30
0.0
 11
295.70230407277393
 21
286.91192888703381
 31
0.0
  0
LINE
  5
1CB3
  8
0
 62
     0
 10
295.06730407277388
 20
286.91192888703381
 30
0.0
 11
295.06730407277388
 21
286.91192888703381
 31
0.0
  0
LINE
  5
1CB4
  8
0
 62
     0
 10
294.432304072774
 20
286.91192888703381
 30
0.0
 11
294.432304072774
 21
286.91192888703381
 31
0.0
  0
LINE
  5
1CB5
  8
0
 62
     0
 10
293.79730407277401
 20
286.91192888703381
 30
0.0
 11
293.79730407277401
 21
286.91192888703381
 31
0.0
  0
LINE
  5
1CB6
  8
0
 62
     0
 10
293.16230407277391
 20
286.91192888703381
 30
0.0
 11
293.16230407277391
 21
286.91192888703381
 31
0.0
  0
LINE
  5
1CB7
  8
0
 62
     0
 10
292.52730407277397
 20
286.91192888703381
 30
0.0
 11
292.52730407277397
 21
286.91192888703381
 31
0.0
  0
LINE
  5
1CB8
  8
0
 62
     0
 10
297.28980407277379
 20
287.5469288870338
 30
0.0
 11
297.28980407277379
 21
287.5469288870338
 31
0.0
  0
LINE
  5
1CB9
  8
0
 62
     0
 10
296.6548040727738
 20
287.5469288870338
 30
0.0
 11
296.6548040727738
 21
287.5469288870338
 31
0.0
  0
LINE
  5
1CBA
  8
0
 62
     0
 10
296.01980407277392
 20
287.5469288870338
 30
0.0
 11
296.01980407277392
 21
287.5469288870338
 31
0.0
  0
LINE
  5
1CBB
  8
0
 62
     0
 10
295.38480407277387
 20
287.5469288870338
 30
0.0
 11
295.38480407277387
 21
287.5469288870338
 31
0.0
  0
LINE
  5
1CBC
  8
0
 62
     0
 10
294.74980407277388
 20
287.5469288870338
 30
0.0
 11
294.74980407277388
 21
287.5469288870338
 31
0.0
  0
LINE
  5
1CBD
  8
0
 62
     0
 10
294.11480407277389
 20
287.5469288870338
 30
0.0
 11
294.11480407277389
 21
287.5469288870338
 31
0.0
  0
LINE
  5
1CBE
  8
0
 62
     0
 10
293.4798040727739
 20
287.5469288870338
 30
0.0
 11
293.4798040727739
 21
287.5469288870338
 31
0.0
  0
LINE
  5
1CBF
  8
0
 62
     0
 10
292.84480407277391
 20
287.5469288870338
 30
0.0
 11
292.84480407277391
 21
287.5469288870338
 31
0.0
  0
LINE
  5
1CC0
  8
0
 62
     0
 10
292.20980407277392
 20
287.5469288870338
 30
0.0
 11
292.20980407277392
 21
287.5469288870338
 31
0.0
  0
LINE
  5
1CC1
  8
0
 62
     0
 10
291.57480407277387
 20
287.5469288870338
 30
0.0
 11
291.57480407277387
 21
287.5469288870338
 31
0.0
  0
LINE
  5
1CC2
  8
0
 62
     0
 10
290.93980407277388
 20
287.5469288870338
 30
0.0
 11
290.93980407277388
 21
287.5469288870338
 31
0.0
  0
LINE
  5
1CC3
  8
0
 62
     0
 10
290.30480407277389
 20
287.5469288870338
 30
0.0
 11
290.30480407277389
 21
287.5469288870338
 31
0.0
  0
LINE
  5
1CC4
  8
0
 62
     0
 10
289.66980407277401
 20
287.5469288870338
 30
0.0
 11
289.66980407277401
 21
287.5469288870338
 31
0.0
  0
LINE
  5
1CC5
  8
0
 62
     0
 10
323.95980407277381
 20
287.5469288870338
 30
0.0
 11
323.95980407277381
 21
287.5469288870338
 31
0.0
  0
LINE
  5
1CC6
  8
0
 62
     0
 10
323.32480407277382
 20
287.5469288870338
 30
0.0
 11
323.32480407277382
 21
287.5469288870338
 31
0.0
  0
LINE
  5
1CC7
  8
0
 62
     0
 10
322.68980407277382
 20
287.5469288870338
 30
0.0
 11
322.68980407277382
 21
287.5469288870338
 31
0.0
  0
LINE
  5
1CC8
  8
0
 62
     0
 10
322.05480407277378
 20
287.5469288870338
 30
0.0
 11
322.05480407277378
 21
287.5469288870338
 31
0.0
  0
LINE
  5
1CC9
  8
0
 62
     0
 10
321.41980407277379
 20
287.5469288870338
 30
0.0
 11
321.41980407277379
 21
287.5469288870338
 31
0.0
  0
LINE
  5
1CCA
  8
0
 62
     0
 10
320.7848040727738
 20
287.5469288870338
 30
0.0
 11
320.7848040727738
 21
287.5469288870338
 31
0.0
  0
LINE
  5
1CCB
  8
0
 62
     0
 10
320.1498040727738
 20
287.5469288870338
 30
0.0
 11
320.1498040727738
 21
287.5469288870338
 31
0.0
  0
LINE
  5
1CCC
  8
0
 62
     0
 10
319.51480407277381
 20
287.5469288870338
 30
0.0
 11
319.51480407277381
 21
287.5469288870338
 31
0.0
  0
LINE
  5
1CCD
  8
0
 62
     0
 10
318.87980407277382
 20
287.5469288870338
 30
0.0
 11
318.87980407277382
 21
287.5469288870338
 31
0.0
  0
LINE
  5
1CCE
  8
0
 62
     0
 10
318.24480407277377
 20
287.5469288870338
 30
0.0
 11
318.24480407277377
 21
287.5469288870338
 31
0.0
  0
LINE
  5
1CCF
  8
0
 62
     0
 10
317.6098040727739
 20
287.5469288870338
 30
0.0
 11
317.6098040727739
 21
287.5469288870338
 31
0.0
  0
LINE
  5
1CD0
  8
0
 62
     0
 10
316.97480407277391
 20
287.5469288870338
 30
0.0
 11
316.97480407277391
 21
287.5469288870338
 31
0.0
  0
LINE
  5
1CD1
  8
0
 62
     0
 10
316.3398040727738
 20
287.5469288870338
 30
0.0
 11
316.3398040727738
 21
287.5469288870338
 31
0.0
  0
LINE
  5
1CD2
  8
0
 62
     0
 10
315.70480407277392
 20
287.5469288870338
 30
0.0
 11
315.70480407277392
 21
287.5469288870338
 31
0.0
  0
LINE
  5
1CD3
  8
0
 62
     0
 10
315.06980407277388
 20
287.5469288870338
 30
0.0
 11
315.06980407277388
 21
287.5469288870338
 31
0.0
  0
LINE
  5
1CD4
  8
0
 62
     0
 10
314.43480407277389
 20
287.5469288870338
 30
0.0
 11
314.43480407277389
 21
287.5469288870338
 31
0.0
  0
LINE
  5
1CD5
  8
0
 62
     0
 10
313.7998040727739
 20
287.5469288870338
 30
0.0
 11
313.7998040727739
 21
287.5469288870338
 31
0.0
  0
LINE
  5
1CD6
  8
0
 62
     0
 10
313.1648040727739
 20
287.5469288870338
 30
0.0
 11
313.1648040727739
 21
287.5469288870338
 31
0.0
  0
LINE
  5
1CD7
  8
0
 62
     0
 10
312.52980407277391
 20
287.5469288870338
 30
0.0
 11
312.52980407277391
 21
287.5469288870338
 31
0.0
  0
LINE
  5
1CD8
  8
0
 62
     0
 10
311.89480407277392
 20
287.5469288870338
 30
0.0
 11
311.89480407277392
 21
287.5469288870338
 31
0.0
  0
LINE
  5
1CD9
  8
0
 62
     0
 10
311.25980407277399
 20
287.5469288870338
 30
0.0
 11
311.25980407277399
 21
287.5469288870338
 31
0.0
  0
LINE
  5
1CDA
  8
0
 62
     0
 10
310.62480407277388
 20
287.5469288870338
 30
0.0
 11
310.62480407277388
 21
287.5469288870338
 31
0.0
  0
LINE
  5
1CDB
  8
0
 62
     0
 10
309.98980407277389
 20
287.5469288870338
 30
0.0
 11
309.98980407277389
 21
287.5469288870338
 31
0.0
  0
LINE
  5
1CDC
  8
0
 62
     0
 10
309.35480407277402
 20
287.5469288870338
 30
0.0
 11
309.35480407277402
 21
287.5469288870338
 31
0.0
  0
LINE
  5
1CDD
  8
0
 62
     0
 10
308.71980407277402
 20
287.5469288870338
 30
0.0
 11
308.71980407277402
 21
287.5469288870338
 31
0.0
  0
LINE
  5
1CDE
  8
0
 62
     0
 10
308.08480407277398
 20
287.5469288870338
 30
0.0
 11
308.08480407277398
 21
287.5469288870338
 31
0.0
  0
LINE
  5
1CDF
  8
0
 62
     0
 10
307.44980407277399
 20
287.5469288870338
 30
0.0
 11
307.44980407277399
 21
287.5469288870338
 31
0.0
  0
LINE
  5
1CE0
  8
0
 62
     0
 10
285.22480407277391
 20
287.5469288870338
 30
0.0
 11
285.22480407277391
 21
287.5469288870338
 31
0.0
  0
LINE
  5
1CE1
  8
0
 62
     0
 10
284.58980407277392
 20
287.5469288870338
 30
0.0
 11
284.58980407277392
 21
287.5469288870338
 31
0.0
  0
LINE
  5
1CE2
  8
0
 62
     0
 10
283.95480407277392
 20
287.5469288870338
 30
0.0
 11
283.95480407277392
 21
287.5469288870338
 31
0.0
  0
LINE
  5
1CE3
  8
0
 62
     0
 10
283.31980407277388
 20
287.5469288870338
 30
0.0
 11
283.31980407277388
 21
287.5469288870338
 31
0.0
  0
LINE
  5
1CE4
  8
0
 62
     0
 10
282.68480407277389
 20
287.5469288870338
 30
0.0
 11
282.68480407277389
 21
287.5469288870338
 31
0.0
  0
LINE
  5
1CE5
  8
0
 62
     0
 10
282.04980407277401
 20
287.5469288870338
 30
0.0
 11
282.04980407277401
 21
287.5469288870338
 31
0.0
  0
LINE
  5
1CE6
  8
0
 62
     0
 10
281.41480407277402
 20
287.5469288870338
 30
0.0
 11
281.41480407277402
 21
287.5469288870338
 31
0.0
  0
LINE
  5
1CE7
  8
0
 62
     0
 10
280.77980407277403
 20
287.5469288870338
 30
0.0
 11
280.77980407277403
 21
287.5469288870338
 31
0.0
  0
LINE
  5
1CE8
  8
0
 62
     0
 10
280.14480407277398
 20
287.5469288870338
 30
0.0
 11
280.14480407277398
 21
287.5469288870338
 31
0.0
  0
LINE
  5
1CE9
  8
0
 62
     0
 10
296.97230407277391
 20
288.18192888703379
 30
0.0
 11
296.97230407277391
 21
288.18192888703379
 31
0.0
  0
LINE
  5
1CEA
  8
0
 62
     0
 10
296.33730407277392
 20
288.18192888703379
 30
0.0
 11
296.33730407277392
 21
288.18192888703379
 31
0.0
  0
LINE
  5
1CEB
  8
0
 62
     0
 10
295.70230407277393
 20
288.18192888703379
 30
0.0
 11
295.70230407277393
 21
288.18192888703379
 31
0.0
  0
LINE
  5
1CEC
  8
0
 62
     0
 10
295.06730407277388
 20
288.18192888703379
 30
0.0
 11
295.06730407277388
 21
288.18192888703379
 31
0.0
  0
LINE
  5
1CED
  8
0
 62
     0
 10
294.43230407277389
 20
288.18192888703379
 30
0.0
 11
294.43230407277389
 21
288.18192888703379
 31
0.0
  0
LINE
  5
1CEE
  8
0
 62
     0
 10
293.7973040727739
 20
288.18192888703379
 30
0.0
 11
293.7973040727739
 21
288.18192888703379
 31
0.0
  0
LINE
  5
1CEF
  8
0
 62
     0
 10
293.16230407277391
 20
288.18192888703379
 30
0.0
 11
293.16230407277391
 21
288.18192888703379
 31
0.0
  0
LINE
  5
1CF0
  8
0
 62
     0
 10
292.52730407277392
 20
288.18192888703379
 30
0.0
 11
292.52730407277392
 21
288.18192888703379
 31
0.0
  0
LINE
  5
1CF1
  8
0
 62
     0
 10
291.89230407277392
 20
288.18192888703379
 30
0.0
 11
291.89230407277392
 21
288.18192888703379
 31
0.0
  0
LINE
  5
1CF2
  8
0
 62
     0
 10
291.25730407277388
 20
288.18192888703379
 30
0.0
 11
291.25730407277388
 21
288.18192888703379
 31
0.0
  0
LINE
  5
1CF3
  8
0
 62
     0
 10
290.622304072774
 20
288.18192888703379
 30
0.0
 11
290.622304072774
 21
288.18192888703379
 31
0.0
  0
LINE
  5
1CF4
  8
0
 62
     0
 10
289.98730407277401
 20
288.18192888703379
 30
0.0
 11
289.98730407277401
 21
288.18192888703379
 31
0.0
  0
LINE
  5
1CF5
  8
0
 62
     0
 10
289.3523040727739
 20
288.18192888703379
 30
0.0
 11
289.3523040727739
 21
288.18192888703379
 31
0.0
  0
LINE
  5
1CF6
  8
0
 62
     0
 10
288.71730407277403
 20
288.18192888703379
 30
0.0
 11
288.71730407277403
 21
288.18192888703379
 31
0.0
  0
LINE
  5
1CF7
  8
0
 62
     0
 10
326.81730407277371
 20
288.18192888703379
 30
0.0
 11
326.81730407277371
 21
288.18192888703379
 31
0.0
  0
LINE
  5
1CF8
  8
0
 62
     0
 10
326.18230407277372
 20
288.18192888703379
 30
0.0
 11
326.18230407277372
 21
288.18192888703379
 31
0.0
  0
LINE
  5
1CF9
  8
0
 62
     0
 10
325.54730407277373
 20
288.18192888703379
 30
0.0
 11
325.54730407277373
 21
288.18192888703379
 31
0.0
  0
LINE
  5
1CFA
  8
0
 62
     0
 10
324.91230407277379
 20
288.18192888703379
 30
0.0
 11
324.91230407277379
 21
288.18192888703379
 31
0.0
  0
LINE
  5
1CFB
  8
0
 62
     0
 10
324.27730407277369
 20
288.18192888703379
 30
0.0
 11
324.27730407277369
 21
288.18192888703379
 31
0.0
  0
LINE
  5
1CFC
  8
0
 62
     0
 10
323.6423040727737
 20
288.18192888703379
 30
0.0
 11
323.6423040727737
 21
288.18192888703379
 31
0.0
  0
LINE
  5
1CFD
  8
0
 62
     0
 10
323.00730407277382
 20
288.18192888703379
 30
0.0
 11
323.00730407277382
 21
288.18192888703379
 31
0.0
  0
LINE
  5
1CFE
  8
0
 62
     0
 10
322.37230407277377
 20
288.18192888703379
 30
0.0
 11
322.37230407277377
 21
288.18192888703379
 31
0.0
  0
LINE
  5
1CFF
  8
0
 62
     0
 10
321.73730407277378
 20
288.18192888703379
 30
0.0
 11
321.73730407277378
 21
288.18192888703379
 31
0.0
  0
LINE
  5
1D00
  8
0
 62
     0
 10
321.10230407277379
 20
288.18192888703379
 30
0.0
 11
321.10230407277379
 21
288.18192888703379
 31
0.0
  0
LINE
  5
1D01
  8
0
 62
     0
 10
320.4673040727738
 20
288.18192888703379
 30
0.0
 11
320.4673040727738
 21
288.18192888703379
 31
0.0
  0
LINE
  5
1D02
  8
0
 62
     0
 10
319.83230407277381
 20
288.18192888703379
 30
0.0
 11
319.83230407277381
 21
288.18192888703379
 31
0.0
  0
LINE
  5
1D03
  8
0
 62
     0
 10
319.19730407277382
 20
288.18192888703379
 30
0.0
 11
319.19730407277382
 21
288.18192888703379
 31
0.0
  0
LINE
  5
1D04
  8
0
 62
     0
 10
318.56230407277383
 20
288.18192888703379
 30
0.0
 11
318.56230407277383
 21
288.18192888703379
 31
0.0
  0
LINE
  5
1D05
  8
0
 62
     0
 10
317.92730407277378
 20
288.18192888703379
 30
0.0
 11
317.92730407277378
 21
288.18192888703379
 31
0.0
  0
LINE
  5
1D06
  8
0
 62
     0
 10
317.29230407277379
 20
288.18192888703379
 30
0.0
 11
317.29230407277379
 21
288.18192888703379
 31
0.0
  0
LINE
  5
1D07
  8
0
 62
     0
 10
316.65730407277391
 20
288.18192888703379
 30
0.0
 11
316.65730407277391
 21
288.18192888703379
 31
0.0
  0
LINE
  5
1D08
  8
0
 62
     0
 10
316.02230407277392
 20
288.18192888703379
 30
0.0
 11
316.02230407277392
 21
288.18192888703379
 31
0.0
  0
LINE
  5
1D09
  8
0
 62
     0
 10
315.38730407277387
 20
288.18192888703379
 30
0.0
 11
315.38730407277387
 21
288.18192888703379
 31
0.0
  0
LINE
  5
1D0A
  8
0
 62
     0
 10
314.75230407277388
 20
288.18192888703379
 30
0.0
 11
314.75230407277388
 21
288.18192888703379
 31
0.0
  0
LINE
  5
1D0B
  8
0
 62
     0
 10
314.11730407277389
 20
288.18192888703379
 30
0.0
 11
314.11730407277389
 21
288.18192888703379
 31
0.0
  0
LINE
  5
1D0C
  8
0
 62
     0
 10
313.4823040727739
 20
288.18192888703379
 30
0.0
 11
313.4823040727739
 21
288.18192888703379
 31
0.0
  0
LINE
  5
1D0D
  8
0
 62
     0
 10
312.84730407277391
 20
288.18192888703379
 30
0.0
 11
312.84730407277391
 21
288.18192888703379
 31
0.0
  0
LINE
  5
1D0E
  8
0
 62
     0
 10
312.21230407277392
 20
288.18192888703379
 30
0.0
 11
312.21230407277392
 21
288.18192888703379
 31
0.0
  0
LINE
  5
1D0F
  8
0
 62
     0
 10
311.57730407277393
 20
288.18192888703379
 30
0.0
 11
311.57730407277393
 21
288.18192888703379
 31
0.0
  0
LINE
  5
1D10
  8
0
 62
     0
 10
310.94230407277388
 20
288.18192888703379
 30
0.0
 11
310.94230407277388
 21
288.18192888703379
 31
0.0
  0
LINE
  5
1D11
  8
0
 62
     0
 10
310.307304072774
 20
288.18192888703379
 30
0.0
 11
310.307304072774
 21
288.18192888703379
 31
0.0
  0
LINE
  5
1D12
  8
0
 62
     0
 10
309.67230407277401
 20
288.18192888703379
 30
0.0
 11
309.67230407277401
 21
288.18192888703379
 31
0.0
  0
LINE
  5
1D13
  8
0
 62
     0
 10
309.03730407277402
 20
288.18192888703379
 30
0.0
 11
309.03730407277402
 21
288.18192888703379
 31
0.0
  0
LINE
  5
1D14
  8
0
 62
     0
 10
308.40230407277397
 20
288.18192888703379
 30
0.0
 11
308.40230407277397
 21
288.18192888703379
 31
0.0
  0
LINE
  5
1D15
  8
0
 62
     0
 10
307.76730407277398
 20
288.18192888703379
 30
0.0
 11
307.76730407277398
 21
288.18192888703379
 31
0.0
  0
LINE
  5
1D16
  8
0
 62
     0
 10
285.5423040727739
 20
288.18192888703379
 30
0.0
 11
285.5423040727739
 21
288.18192888703379
 31
0.0
  0
LINE
  5
1D17
  8
0
 62
     0
 10
284.90730407277391
 20
288.18192888703379
 30
0.0
 11
284.90730407277391
 21
288.18192888703379
 31
0.0
  0
LINE
  5
1D18
  8
0
 62
     0
 10
284.27230407277392
 20
288.18192888703379
 30
0.0
 11
284.27230407277392
 21
288.18192888703379
 31
0.0
  0
LINE
  5
1D19
  8
0
 62
     0
 10
283.63730407277387
 20
288.18192888703379
 30
0.0
 11
283.63730407277387
 21
288.18192888703379
 31
0.0
  0
LINE
  5
1D1A
  8
0
 62
     0
 10
283.00230407277388
 20
288.18192888703379
 30
0.0
 11
283.00230407277388
 21
288.18192888703379
 31
0.0
  0
LINE
  5
1D1B
  8
0
 62
     0
 10
282.36730407277389
 20
288.18192888703379
 30
0.0
 11
282.36730407277389
 21
288.18192888703379
 31
0.0
  0
LINE
  5
1D1C
  8
0
 62
     0
 10
281.7323040727739
 20
288.18192888703379
 30
0.0
 11
281.7323040727739
 21
288.18192888703379
 31
0.0
  0
LINE
  5
1D1D
  8
0
 62
     0
 10
281.09730407277391
 20
288.18192888703379
 30
0.0
 11
281.09730407277391
 21
288.18192888703379
 31
0.0
  0
LINE
  5
1D1E
  8
0
 62
     0
 10
280.46230407277392
 20
288.18192888703379
 30
0.0
 11
280.46230407277392
 21
288.18192888703379
 31
0.0
  0
LINE
  5
1D1F
  8
0
 62
     0
 10
279.82730407277393
 20
288.18192888703379
 30
0.0
 11
279.82730407277393
 21
288.18192888703379
 31
0.0
  0
LINE
  5
1D20
  8
0
 62
     0
 10
279.19230407277399
 20
288.18192888703379
 30
0.0
 11
279.19230407277399
 21
288.18192888703379
 31
0.0
  0
LINE
  5
1D21
  8
0
 62
     0
 10
278.557304072774
 20
288.18192888703379
 30
0.0
 11
278.557304072774
 21
288.18192888703379
 31
0.0
  0
LINE
  5
1D22
  8
0
 62
     0
 10
277.9223040727739
 20
288.18192888703379
 30
0.0
 11
277.9223040727739
 21
288.18192888703379
 31
0.0
  0
LINE
  5
1D23
  8
0
 62
     0
 10
327.1348040727737
 20
288.81692888703378
 30
0.0
 11
327.1348040727737
 21
288.81692888703378
 31
0.0
  0
LINE
  5
1D24
  8
0
 62
     0
 10
326.49980407277371
 20
288.81692888703378
 30
0.0
 11
326.49980407277371
 21
288.81692888703378
 31
0.0
  0
LINE
  5
1D25
  8
0
 62
     0
 10
325.86480407277372
 20
288.81692888703378
 30
0.0
 11
325.86480407277372
 21
288.81692888703378
 31
0.0
  0
LINE
  5
1D26
  8
0
 62
     0
 10
325.22980407277367
 20
288.81692888703378
 30
0.0
 11
325.22980407277367
 21
288.81692888703378
 31
0.0
  0
LINE
  5
1D27
  8
0
 62
     0
 10
324.59480407277368
 20
288.81692888703378
 30
0.0
 11
324.59480407277368
 21
288.81692888703378
 31
0.0
  0
LINE
  5
1D28
  8
0
 62
     0
 10
323.95980407277381
 20
288.81692888703378
 30
0.0
 11
323.95980407277381
 21
288.81692888703378
 31
0.0
  0
LINE
  5
1D29
  8
0
 62
     0
 10
323.32480407277382
 20
288.81692888703378
 30
0.0
 11
323.32480407277382
 21
288.81692888703378
 31
0.0
  0
LINE
  5
1D2A
  8
0
 62
     0
 10
322.68980407277382
 20
288.81692888703378
 30
0.0
 11
322.68980407277382
 21
288.81692888703378
 31
0.0
  0
LINE
  5
1D2B
  8
0
 62
     0
 10
322.05480407277378
 20
288.81692888703378
 30
0.0
 11
322.05480407277378
 21
288.81692888703378
 31
0.0
  0
LINE
  5
1D2C
  8
0
 62
     0
 10
321.41980407277379
 20
288.81692888703378
 30
0.0
 11
321.41980407277379
 21
288.81692888703378
 31
0.0
  0
LINE
  5
1D2D
  8
0
 62
     0
 10
320.7848040727738
 20
288.81692888703378
 30
0.0
 11
320.7848040727738
 21
288.81692888703378
 31
0.0
  0
LINE
  5
1D2E
  8
0
 62
     0
 10
320.1498040727738
 20
288.81692888703378
 30
0.0
 11
320.1498040727738
 21
288.81692888703378
 31
0.0
  0
LINE
  5
1D2F
  8
0
 62
     0
 10
319.51480407277381
 20
288.81692888703378
 30
0.0
 11
319.51480407277381
 21
288.81692888703378
 31
0.0
  0
LINE
  5
1D30
  8
0
 62
     0
 10
318.87980407277382
 20
288.81692888703378
 30
0.0
 11
318.87980407277382
 21
288.81692888703378
 31
0.0
  0
LINE
  5
1D31
  8
0
 62
     0
 10
318.24480407277377
 20
288.81692888703378
 30
0.0
 11
318.24480407277377
 21
288.81692888703378
 31
0.0
  0
LINE
  5
1D32
  8
0
 62
     0
 10
317.6098040727739
 20
288.81692888703378
 30
0.0
 11
317.6098040727739
 21
288.81692888703378
 31
0.0
  0
LINE
  5
1D33
  8
0
 62
     0
 10
316.97480407277391
 20
288.81692888703378
 30
0.0
 11
316.97480407277391
 21
288.81692888703378
 31
0.0
  0
LINE
  5
1D34
  8
0
 62
     0
 10
316.3398040727738
 20
288.81692888703378
 30
0.0
 11
316.3398040727738
 21
288.81692888703378
 31
0.0
  0
LINE
  5
1D35
  8
0
 62
     0
 10
315.70480407277392
 20
288.81692888703378
 30
0.0
 11
315.70480407277392
 21
288.81692888703378
 31
0.0
  0
LINE
  5
1D36
  8
0
 62
     0
 10
315.06980407277388
 20
288.81692888703378
 30
0.0
 11
315.06980407277388
 21
288.81692888703378
 31
0.0
  0
LINE
  5
1D37
  8
0
 62
     0
 10
314.43480407277389
 20
288.81692888703378
 30
0.0
 11
314.43480407277389
 21
288.81692888703378
 31
0.0
  0
LINE
  5
1D38
  8
0
 62
     0
 10
313.7998040727739
 20
288.81692888703378
 30
0.0
 11
313.7998040727739
 21
288.81692888703378
 31
0.0
  0
LINE
  5
1D39
  8
0
 62
     0
 10
313.1648040727739
 20
288.81692888703378
 30
0.0
 11
313.1648040727739
 21
288.81692888703378
 31
0.0
  0
LINE
  5
1D3A
  8
0
 62
     0
 10
312.52980407277391
 20
288.81692888703378
 30
0.0
 11
312.52980407277391
 21
288.81692888703378
 31
0.0
  0
LINE
  5
1D3B
  8
0
 62
     0
 10
311.89480407277392
 20
288.81692888703378
 30
0.0
 11
311.89480407277392
 21
288.81692888703378
 31
0.0
  0
LINE
  5
1D3C
  8
0
 62
     0
 10
311.25980407277399
 20
288.81692888703378
 30
0.0
 11
311.25980407277399
 21
288.81692888703378
 31
0.0
  0
LINE
  5
1D3D
  8
0
 62
     0
 10
310.62480407277388
 20
288.81692888703378
 30
0.0
 11
310.62480407277388
 21
288.81692888703378
 31
0.0
  0
LINE
  5
1D3E
  8
0
 62
     0
 10
309.98980407277389
 20
288.81692888703378
 30
0.0
 11
309.98980407277389
 21
288.81692888703378
 31
0.0
  0
LINE
  5
1D3F
  8
0
 62
     0
 10
309.35480407277402
 20
288.81692888703378
 30
0.0
 11
309.35480407277402
 21
288.81692888703378
 31
0.0
  0
LINE
  5
1D40
  8
0
 62
     0
 10
308.71980407277402
 20
288.81692888703378
 30
0.0
 11
308.71980407277402
 21
288.81692888703378
 31
0.0
  0
LINE
  5
1D41
  8
0
 62
     0
 10
308.08480407277398
 20
288.81692888703378
 30
0.0
 11
308.08480407277398
 21
288.81692888703378
 31
0.0
  0
LINE
  5
1D42
  8
0
 62
     0
 10
307.44980407277399
 20
288.81692888703378
 30
0.0
 11
307.44980407277399
 21
288.81692888703378
 31
0.0
  0
LINE
  5
1D43
  8
0
 62
     0
 10
297.28980407277368
 20
288.81692888703378
 30
0.0
 11
297.28980407277368
 21
288.81692888703378
 31
0.0
  0
LINE
  5
1D44
  8
0
 62
     0
 10
296.65480407277369
 20
288.81692888703378
 30
0.0
 11
296.65480407277369
 21
288.81692888703378
 31
0.0
  0
LINE
  5
1D45
  8
0
 62
     0
 10
296.0198040727737
 20
288.81692888703378
 30
0.0
 11
296.0198040727737
 21
288.81692888703378
 31
0.0
  0
LINE
  5
1D46
  8
0
 62
     0
 10
295.3848040727737
 20
288.81692888703378
 30
0.0
 11
295.3848040727737
 21
288.81692888703378
 31
0.0
  0
LINE
  5
1D47
  8
0
 62
     0
 10
294.74980407277371
 20
288.81692888703378
 30
0.0
 11
294.74980407277371
 21
288.81692888703378
 31
0.0
  0
LINE
  5
1D48
  8
0
 62
     0
 10
294.11480407277372
 20
288.81692888703378
 30
0.0
 11
294.11480407277372
 21
288.81692888703378
 31
0.0
  0
LINE
  5
1D49
  8
0
 62
     0
 10
293.47980407277367
 20
288.81692888703378
 30
0.0
 11
293.47980407277367
 21
288.81692888703378
 31
0.0
  0
LINE
  5
1D4A
  8
0
 62
     0
 10
292.8448040727738
 20
288.81692888703378
 30
0.0
 11
292.8448040727738
 21
288.81692888703378
 31
0.0
  0
LINE
  5
1D4B
  8
0
 62
     0
 10
292.20980407277381
 20
288.81692888703378
 30
0.0
 11
292.20980407277381
 21
288.81692888703378
 31
0.0
  0
LINE
  5
1D4C
  8
0
 62
     0
 10
291.57480407277382
 20
288.81692888703378
 30
0.0
 11
291.57480407277382
 21
288.81692888703378
 31
0.0
  0
LINE
  5
1D4D
  8
0
 62
     0
 10
290.93980407277371
 20
288.81692888703378
 30
0.0
 11
290.93980407277371
 21
288.81692888703378
 31
0.0
  0
LINE
  5
1D4E
  8
0
 62
     0
 10
290.30480407277378
 20
288.81692888703378
 30
0.0
 11
290.30480407277378
 21
288.81692888703378
 31
0.0
  0
LINE
  5
1D4F
  8
0
 62
     0
 10
289.66980407277379
 20
288.81692888703378
 30
0.0
 11
289.66980407277379
 21
288.81692888703378
 31
0.0
  0
LINE
  5
1D50
  8
0
 62
     0
 10
289.0348040727738
 20
288.81692888703378
 30
0.0
 11
289.0348040727738
 21
288.81692888703378
 31
0.0
  0
LINE
  5
1D51
  8
0
 62
     0
 10
288.3998040727738
 20
288.81692888703378
 30
0.0
 11
288.3998040727738
 21
288.81692888703378
 31
0.0
  0
LINE
  5
1D52
  8
0
 62
     0
 10
287.76480407277381
 20
288.81692888703378
 30
0.0
 11
287.76480407277381
 21
288.81692888703378
 31
0.0
  0
LINE
  5
1D53
  8
0
 62
     0
 10
287.12980407277382
 20
288.81692888703378
 30
0.0
 11
287.12980407277382
 21
288.81692888703378
 31
0.0
  0
LINE
  5
1D54
  8
0
 62
     0
 10
286.49480407277389
 20
288.81692888703378
 30
0.0
 11
286.49480407277389
 21
288.81692888703378
 31
0.0
  0
LINE
  5
1D55
  8
0
 62
     0
 10
285.85980407277378
 20
288.81692888703378
 30
0.0
 11
285.85980407277378
 21
288.81692888703378
 31
0.0
  0
LINE
  5
1D56
  8
0
 62
     0
 10
285.22480407277379
 20
288.81692888703378
 30
0.0
 11
285.22480407277379
 21
288.81692888703378
 31
0.0
  0
LINE
  5
1D57
  8
0
 62
     0
 10
284.58980407277392
 20
288.81692888703378
 30
0.0
 11
284.58980407277392
 21
288.81692888703378
 31
0.0
  0
LINE
  5
1D58
  8
0
 62
     0
 10
283.95480407277392
 20
288.81692888703378
 30
0.0
 11
283.95480407277392
 21
288.81692888703378
 31
0.0
  0
LINE
  5
1D59
  8
0
 62
     0
 10
283.31980407277388
 20
288.81692888703378
 30
0.0
 11
283.31980407277388
 21
288.81692888703378
 31
0.0
  0
LINE
  5
1D5A
  8
0
 62
     0
 10
282.68480407277389
 20
288.81692888703378
 30
0.0
 11
282.68480407277389
 21
288.81692888703378
 31
0.0
  0
LINE
  5
1D5B
  8
0
 62
     0
 10
282.0498040727739
 20
288.81692888703378
 30
0.0
 11
282.0498040727739
 21
288.81692888703378
 31
0.0
  0
LINE
  5
1D5C
  8
0
 62
     0
 10
281.4148040727739
 20
288.81692888703378
 30
0.0
 11
281.4148040727739
 21
288.81692888703378
 31
0.0
  0
LINE
  5
1D5D
  8
0
 62
     0
 10
280.77980407277391
 20
288.81692888703378
 30
0.0
 11
280.77980407277391
 21
288.81692888703378
 31
0.0
  0
LINE
  5
1D5E
  8
0
 62
     0
 10
280.14480407277392
 20
288.81692888703378
 30
0.0
 11
280.14480407277392
 21
288.81692888703378
 31
0.0
  0
LINE
  5
1D5F
  8
0
 62
     0
 10
279.50980407277387
 20
288.81692888703378
 30
0.0
 11
279.50980407277387
 21
288.81692888703378
 31
0.0
  0
LINE
  5
1D60
  8
0
 62
     0
 10
278.87480407277388
 20
288.81692888703378
 30
0.0
 11
278.87480407277388
 21
288.81692888703378
 31
0.0
  0
LINE
  5
1D61
  8
0
 62
     0
 10
278.23980407277389
 20
288.81692888703378
 30
0.0
 11
278.23980407277389
 21
288.81692888703378
 31
0.0
  0
LINE
  5
1D62
  8
0
 62
     0
 10
277.60480407277402
 20
288.81692888703378
 30
0.0
 11
277.60480407277402
 21
288.81692888703378
 31
0.0
  0
LINE
  5
1D63
  8
0
 62
     0
 10
326.81730407277371
 20
289.45192888703377
 30
0.0
 11
326.81730407277371
 21
289.45192888703377
 31
0.0
  0
LINE
  5
1D64
  8
0
 62
     0
 10
326.18230407277372
 20
289.45192888703377
 30
0.0
 11
326.18230407277372
 21
289.45192888703377
 31
0.0
  0
LINE
  5
1D65
  8
0
 62
     0
 10
325.54730407277373
 20
289.45192888703377
 30
0.0
 11
325.54730407277373
 21
289.45192888703377
 31
0.0
  0
LINE
  5
1D66
  8
0
 62
     0
 10
324.91230407277379
 20
289.45192888703377
 30
0.0
 11
324.91230407277379
 21
289.45192888703377
 31
0.0
  0
LINE
  5
1D67
  8
0
 62
     0
 10
324.27730407277369
 20
289.45192888703377
 30
0.0
 11
324.27730407277369
 21
289.45192888703377
 31
0.0
  0
LINE
  5
1D68
  8
0
 62
     0
 10
323.6423040727737
 20
289.45192888703377
 30
0.0
 11
323.6423040727737
 21
289.45192888703377
 31
0.0
  0
LINE
  5
1D69
  8
0
 62
     0
 10
323.00730407277382
 20
289.45192888703377
 30
0.0
 11
323.00730407277382
 21
289.45192888703377
 31
0.0
  0
LINE
  5
1D6A
  8
0
 62
     0
 10
322.37230407277377
 20
289.45192888703377
 30
0.0
 11
322.37230407277377
 21
289.45192888703377
 31
0.0
  0
LINE
  5
1D6B
  8
0
 62
     0
 10
321.73730407277378
 20
289.45192888703377
 30
0.0
 11
321.73730407277378
 21
289.45192888703377
 31
0.0
  0
LINE
  5
1D6C
  8
0
 62
     0
 10
321.10230407277379
 20
289.45192888703377
 30
0.0
 11
321.10230407277379
 21
289.45192888703377
 31
0.0
  0
LINE
  5
1D6D
  8
0
 62
     0
 10
320.4673040727738
 20
289.45192888703377
 30
0.0
 11
320.4673040727738
 21
289.45192888703377
 31
0.0
  0
LINE
  5
1D6E
  8
0
 62
     0
 10
319.83230407277381
 20
289.45192888703377
 30
0.0
 11
319.83230407277381
 21
289.45192888703377
 31
0.0
  0
LINE
  5
1D6F
  8
0
 62
     0
 10
319.19730407277382
 20
289.45192888703377
 30
0.0
 11
319.19730407277382
 21
289.45192888703377
 31
0.0
  0
LINE
  5
1D70
  8
0
 62
     0
 10
318.56230407277383
 20
289.45192888703377
 30
0.0
 11
318.56230407277383
 21
289.45192888703377
 31
0.0
  0
LINE
  5
1D71
  8
0
 62
     0
 10
317.92730407277378
 20
289.45192888703377
 30
0.0
 11
317.92730407277378
 21
289.45192888703377
 31
0.0
  0
LINE
  5
1D72
  8
0
 62
     0
 10
317.29230407277379
 20
289.45192888703377
 30
0.0
 11
317.29230407277379
 21
289.45192888703377
 31
0.0
  0
LINE
  5
1D73
  8
0
 62
     0
 10
316.65730407277391
 20
289.45192888703377
 30
0.0
 11
316.65730407277391
 21
289.45192888703377
 31
0.0
  0
LINE
  5
1D74
  8
0
 62
     0
 10
316.02230407277392
 20
289.45192888703377
 30
0.0
 11
316.02230407277392
 21
289.45192888703377
 31
0.0
  0
LINE
  5
1D75
  8
0
 62
     0
 10
315.38730407277387
 20
289.45192888703377
 30
0.0
 11
315.38730407277387
 21
289.45192888703377
 31
0.0
  0
LINE
  5
1D76
  8
0
 62
     0
 10
314.75230407277388
 20
289.45192888703377
 30
0.0
 11
314.75230407277388
 21
289.45192888703377
 31
0.0
  0
LINE
  5
1D77
  8
0
 62
     0
 10
314.11730407277389
 20
289.45192888703377
 30
0.0
 11
314.11730407277389
 21
289.45192888703377
 31
0.0
  0
LINE
  5
1D78
  8
0
 62
     0
 10
313.4823040727739
 20
289.45192888703377
 30
0.0
 11
313.4823040727739
 21
289.45192888703377
 31
0.0
  0
LINE
  5
1D79
  8
0
 62
     0
 10
312.84730407277391
 20
289.45192888703377
 30
0.0
 11
312.84730407277391
 21
289.45192888703377
 31
0.0
  0
LINE
  5
1D7A
  8
0
 62
     0
 10
312.21230407277392
 20
289.45192888703377
 30
0.0
 11
312.21230407277392
 21
289.45192888703377
 31
0.0
  0
LINE
  5
1D7B
  8
0
 62
     0
 10
311.57730407277393
 20
289.45192888703377
 30
0.0
 11
311.57730407277393
 21
289.45192888703377
 31
0.0
  0
LINE
  5
1D7C
  8
0
 62
     0
 10
310.94230407277388
 20
289.45192888703377
 30
0.0
 11
310.94230407277388
 21
289.45192888703377
 31
0.0
  0
LINE
  5
1D7D
  8
0
 62
     0
 10
310.307304072774
 20
289.45192888703377
 30
0.0
 11
310.307304072774
 21
289.45192888703377
 31
0.0
  0
LINE
  5
1D7E
  8
0
 62
     0
 10
309.67230407277401
 20
289.45192888703377
 30
0.0
 11
309.67230407277401
 21
289.45192888703377
 31
0.0
  0
LINE
  5
1D7F
  8
0
 62
     0
 10
309.03730407277402
 20
289.45192888703377
 30
0.0
 11
309.03730407277402
 21
289.45192888703377
 31
0.0
  0
LINE
  5
1D80
  8
0
 62
     0
 10
308.40230407277397
 20
289.45192888703377
 30
0.0
 11
308.40230407277397
 21
289.45192888703377
 31
0.0
  0
LINE
  5
1D81
  8
0
 62
     0
 10
307.76730407277398
 20
289.45192888703377
 30
0.0
 11
307.76730407277398
 21
289.45192888703377
 31
0.0
  0
LINE
  5
1D82
  8
0
 62
     0
 10
296.97230407277368
 20
289.45192888703377
 30
0.0
 11
296.97230407277368
 21
289.45192888703377
 31
0.0
  0
LINE
  5
1D83
  8
0
 62
     0
 10
296.33730407277369
 20
289.45192888703377
 30
0.0
 11
296.33730407277369
 21
289.45192888703377
 31
0.0
  0
LINE
  5
1D84
  8
0
 62
     0
 10
295.7023040727737
 20
289.45192888703377
 30
0.0
 11
295.7023040727737
 21
289.45192888703377
 31
0.0
  0
LINE
  5
1D85
  8
0
 62
     0
 10
295.06730407277371
 20
289.45192888703377
 30
0.0
 11
295.06730407277371
 21
289.45192888703377
 31
0.0
  0
LINE
  5
1D86
  8
0
 62
     0
 10
294.43230407277372
 20
289.45192888703377
 30
0.0
 11
294.43230407277372
 21
289.45192888703377
 31
0.0
  0
LINE
  5
1D87
  8
0
 62
     0
 10
293.79730407277373
 20
289.45192888703377
 30
0.0
 11
293.79730407277373
 21
289.45192888703377
 31
0.0
  0
LINE
  5
1D88
  8
0
 62
     0
 10
293.16230407277368
 20
289.45192888703377
 30
0.0
 11
293.16230407277368
 21
289.45192888703377
 31
0.0
  0
LINE
  5
1D89
  8
0
 62
     0
 10
292.52730407277369
 20
289.45192888703377
 30
0.0
 11
292.52730407277369
 21
289.45192888703377
 31
0.0
  0
LINE
  5
1D8A
  8
0
 62
     0
 10
291.89230407277381
 20
289.45192888703377
 30
0.0
 11
291.89230407277381
 21
289.45192888703377
 31
0.0
  0
LINE
  5
1D8B
  8
0
 62
     0
 10
291.25730407277382
 20
289.45192888703377
 30
0.0
 11
291.25730407277382
 21
289.45192888703377
 31
0.0
  0
LINE
  5
1D8C
  8
0
 62
     0
 10
290.62230407277377
 20
289.45192888703377
 30
0.0
 11
290.62230407277377
 21
289.45192888703377
 31
0.0
  0
LINE
  5
1D8D
  8
0
 62
     0
 10
289.98730407277378
 20
289.45192888703377
 30
0.0
 11
289.98730407277378
 21
289.45192888703377
 31
0.0
  0
LINE
  5
1D8E
  8
0
 62
     0
 10
289.35230407277379
 20
289.45192888703377
 30
0.0
 11
289.35230407277379
 21
289.45192888703377
 31
0.0
  0
LINE
  5
1D8F
  8
0
 62
     0
 10
288.7173040727738
 20
289.45192888703377
 30
0.0
 11
288.7173040727738
 21
289.45192888703377
 31
0.0
  0
LINE
  5
1D90
  8
0
 62
     0
 10
288.08230407277381
 20
289.45192888703377
 30
0.0
 11
288.08230407277381
 21
289.45192888703377
 31
0.0
  0
LINE
  5
1D91
  8
0
 62
     0
 10
287.44730407277382
 20
289.45192888703377
 30
0.0
 11
287.44730407277382
 21
289.45192888703377
 31
0.0
  0
LINE
  5
1D92
  8
0
 62
     0
 10
286.81230407277383
 20
289.45192888703377
 30
0.0
 11
286.81230407277383
 21
289.45192888703377
 31
0.0
  0
LINE
  5
1D93
  8
0
 62
     0
 10
286.17730407277378
 20
289.45192888703377
 30
0.0
 11
286.17730407277378
 21
289.45192888703377
 31
0.0
  0
LINE
  5
1D94
  8
0
 62
     0
 10
285.5423040727739
 20
289.45192888703377
 30
0.0
 11
285.5423040727739
 21
289.45192888703377
 31
0.0
  0
LINE
  5
1D95
  8
0
 62
     0
 10
284.90730407277391
 20
289.45192888703377
 30
0.0
 11
284.90730407277391
 21
289.45192888703377
 31
0.0
  0
LINE
  5
1D96
  8
0
 62
     0
 10
284.27230407277392
 20
289.45192888703377
 30
0.0
 11
284.27230407277392
 21
289.45192888703377
 31
0.0
  0
LINE
  5
1D97
  8
0
 62
     0
 10
283.63730407277387
 20
289.45192888703377
 30
0.0
 11
283.63730407277387
 21
289.45192888703377
 31
0.0
  0
LINE
  5
1D98
  8
0
 62
     0
 10
283.00230407277388
 20
289.45192888703377
 30
0.0
 11
283.00230407277388
 21
289.45192888703377
 31
0.0
  0
LINE
  5
1D99
  8
0
 62
     0
 10
282.36730407277389
 20
289.45192888703377
 30
0.0
 11
282.36730407277389
 21
289.45192888703377
 31
0.0
  0
LINE
  5
1D9A
  8
0
 62
     0
 10
281.7323040727739
 20
289.45192888703377
 30
0.0
 11
281.7323040727739
 21
289.45192888703377
 31
0.0
  0
LINE
  5
1D9B
  8
0
 62
     0
 10
281.09730407277391
 20
289.45192888703377
 30
0.0
 11
281.09730407277391
 21
289.45192888703377
 31
0.0
  0
LINE
  5
1D9C
  8
0
 62
     0
 10
280.46230407277392
 20
289.45192888703377
 30
0.0
 11
280.46230407277392
 21
289.45192888703377
 31
0.0
  0
LINE
  5
1D9D
  8
0
 62
     0
 10
279.82730407277393
 20
289.45192888703377
 30
0.0
 11
279.82730407277393
 21
289.45192888703377
 31
0.0
  0
LINE
  5
1D9E
  8
0
 62
     0
 10
279.19230407277399
 20
289.45192888703377
 30
0.0
 11
279.19230407277399
 21
289.45192888703377
 31
0.0
  0
LINE
  5
1D9F
  8
0
 62
     0
 10
278.557304072774
 20
289.45192888703377
 30
0.0
 11
278.557304072774
 21
289.45192888703377
 31
0.0
  0
LINE
  5
1DA0
  8
0
 62
     0
 10
277.9223040727739
 20
289.45192888703377
 30
0.0
 11
277.9223040727739
 21
289.45192888703377
 31
0.0
  0
LINE
  5
1DA1
  8
0
 62
     0
 10
327.1348040727737
 20
290.08692888703382
 30
0.0
 11
327.1348040727737
 21
290.08692888703382
 31
0.0
  0
LINE
  5
1DA2
  8
0
 62
     0
 10
326.49980407277371
 20
290.08692888703382
 30
0.0
 11
326.49980407277371
 21
290.08692888703382
 31
0.0
  0
LINE
  5
1DA3
  8
0
 62
     0
 10
325.86480407277372
 20
290.08692888703382
 30
0.0
 11
325.86480407277372
 21
290.08692888703382
 31
0.0
  0
LINE
  5
1DA4
  8
0
 62
     0
 10
325.22980407277367
 20
290.08692888703382
 30
0.0
 11
325.22980407277367
 21
290.08692888703382
 31
0.0
  0
LINE
  5
1DA5
  8
0
 62
     0
 10
324.59480407277368
 20
290.08692888703382
 30
0.0
 11
324.59480407277368
 21
290.08692888703382
 31
0.0
  0
LINE
  5
1DA6
  8
0
 62
     0
 10
323.95980407277381
 20
290.08692888703382
 30
0.0
 11
323.95980407277381
 21
290.08692888703382
 31
0.0
  0
LINE
  5
1DA7
  8
0
 62
     0
 10
323.32480407277382
 20
290.08692888703382
 30
0.0
 11
323.32480407277382
 21
290.08692888703382
 31
0.0
  0
LINE
  5
1DA8
  8
0
 62
     0
 10
322.68980407277382
 20
290.08692888703382
 30
0.0
 11
322.68980407277382
 21
290.08692888703382
 31
0.0
  0
LINE
  5
1DA9
  8
0
 62
     0
 10
322.05480407277378
 20
290.08692888703382
 30
0.0
 11
322.05480407277378
 21
290.08692888703382
 31
0.0
  0
LINE
  5
1DAA
  8
0
 62
     0
 10
321.41980407277379
 20
290.08692888703382
 30
0.0
 11
321.41980407277379
 21
290.08692888703382
 31
0.0
  0
LINE
  5
1DAB
  8
0
 62
     0
 10
320.7848040727738
 20
290.08692888703382
 30
0.0
 11
320.7848040727738
 21
290.08692888703382
 31
0.0
  0
LINE
  5
1DAC
  8
0
 62
     0
 10
320.1498040727738
 20
290.08692888703382
 30
0.0
 11
320.1498040727738
 21
290.08692888703382
 31
0.0
  0
LINE
  5
1DAD
  8
0
 62
     0
 10
319.51480407277381
 20
290.08692888703382
 30
0.0
 11
319.51480407277381
 21
290.08692888703382
 31
0.0
  0
LINE
  5
1DAE
  8
0
 62
     0
 10
318.87980407277382
 20
290.08692888703382
 30
0.0
 11
318.87980407277382
 21
290.08692888703382
 31
0.0
  0
LINE
  5
1DAF
  8
0
 62
     0
 10
318.24480407277377
 20
290.08692888703382
 30
0.0
 11
318.24480407277377
 21
290.08692888703382
 31
0.0
  0
LINE
  5
1DB0
  8
0
 62
     0
 10
317.6098040727739
 20
290.08692888703382
 30
0.0
 11
317.6098040727739
 21
290.08692888703382
 31
0.0
  0
LINE
  5
1DB1
  8
0
 62
     0
 10
316.97480407277391
 20
290.08692888703382
 30
0.0
 11
316.97480407277391
 21
290.08692888703382
 31
0.0
  0
LINE
  5
1DB2
  8
0
 62
     0
 10
316.3398040727738
 20
290.08692888703382
 30
0.0
 11
316.3398040727738
 21
290.08692888703382
 31
0.0
  0
LINE
  5
1DB3
  8
0
 62
     0
 10
315.70480407277392
 20
290.08692888703382
 30
0.0
 11
315.70480407277392
 21
290.08692888703382
 31
0.0
  0
LINE
  5
1DB4
  8
0
 62
     0
 10
315.06980407277388
 20
290.08692888703382
 30
0.0
 11
315.06980407277388
 21
290.08692888703382
 31
0.0
  0
LINE
  5
1DB5
  8
0
 62
     0
 10
314.43480407277389
 20
290.08692888703382
 30
0.0
 11
314.43480407277389
 21
290.08692888703382
 31
0.0
  0
LINE
  5
1DB6
  8
0
 62
     0
 10
313.7998040727739
 20
290.08692888703382
 30
0.0
 11
313.7998040727739
 21
290.08692888703382
 31
0.0
  0
LINE
  5
1DB7
  8
0
 62
     0
 10
313.1648040727739
 20
290.08692888703382
 30
0.0
 11
313.1648040727739
 21
290.08692888703382
 31
0.0
  0
LINE
  5
1DB8
  8
0
 62
     0
 10
312.52980407277391
 20
290.08692888703382
 30
0.0
 11
312.52980407277391
 21
290.08692888703382
 31
0.0
  0
LINE
  5
1DB9
  8
0
 62
     0
 10
311.89480407277392
 20
290.08692888703382
 30
0.0
 11
311.89480407277392
 21
290.08692888703382
 31
0.0
  0
LINE
  5
1DBA
  8
0
 62
     0
 10
311.25980407277399
 20
290.08692888703382
 30
0.0
 11
311.25980407277399
 21
290.08692888703382
 31
0.0
  0
LINE
  5
1DBB
  8
0
 62
     0
 10
310.62480407277388
 20
290.08692888703382
 30
0.0
 11
310.62480407277388
 21
290.08692888703382
 31
0.0
  0
LINE
  5
1DBC
  8
0
 62
     0
 10
309.98980407277389
 20
290.08692888703382
 30
0.0
 11
309.98980407277389
 21
290.08692888703382
 31
0.0
  0
LINE
  5
1DBD
  8
0
 62
     0
 10
309.35480407277402
 20
290.08692888703382
 30
0.0
 11
309.35480407277402
 21
290.08692888703382
 31
0.0
  0
LINE
  5
1DBE
  8
0
 62
     0
 10
308.71980407277402
 20
290.08692888703382
 30
0.0
 11
308.71980407277402
 21
290.08692888703382
 31
0.0
  0
LINE
  5
1DBF
  8
0
 62
     0
 10
308.08480407277398
 20
290.08692888703382
 30
0.0
 11
308.08480407277398
 21
290.08692888703382
 31
0.0
  0
LINE
  5
1DC0
  8
0
 62
     0
 10
307.44980407277399
 20
290.08692888703382
 30
0.0
 11
307.44980407277399
 21
290.08692888703382
 31
0.0
  0
LINE
  5
1DC1
  8
0
 62
     0
 10
297.28980407277368
 20
290.08692888703382
 30
0.0
 11
297.28980407277368
 21
290.08692888703382
 31
0.0
  0
LINE
  5
1DC2
  8
0
 62
     0
 10
296.65480407277369
 20
290.08692888703382
 30
0.0
 11
296.65480407277369
 21
290.08692888703382
 31
0.0
  0
LINE
  5
1DC3
  8
0
 62
     0
 10
296.0198040727737
 20
290.08692888703382
 30
0.0
 11
296.0198040727737
 21
290.08692888703382
 31
0.0
  0
LINE
  5
1DC4
  8
0
 62
     0
 10
295.3848040727737
 20
290.08692888703382
 30
0.0
 11
295.3848040727737
 21
290.08692888703382
 31
0.0
  0
LINE
  5
1DC5
  8
0
 62
     0
 10
294.74980407277371
 20
290.08692888703382
 30
0.0
 11
294.74980407277371
 21
290.08692888703382
 31
0.0
  0
LINE
  5
1DC6
  8
0
 62
     0
 10
294.11480407277372
 20
290.08692888703382
 30
0.0
 11
294.11480407277372
 21
290.08692888703382
 31
0.0
  0
LINE
  5
1DC7
  8
0
 62
     0
 10
293.47980407277367
 20
290.08692888703382
 30
0.0
 11
293.47980407277367
 21
290.08692888703382
 31
0.0
  0
LINE
  5
1DC8
  8
0
 62
     0
 10
292.8448040727738
 20
290.08692888703382
 30
0.0
 11
292.8448040727738
 21
290.08692888703382
 31
0.0
  0
LINE
  5
1DC9
  8
0
 62
     0
 10
292.20980407277381
 20
290.08692888703382
 30
0.0
 11
292.20980407277381
 21
290.08692888703382
 31
0.0
  0
LINE
  5
1DCA
  8
0
 62
     0
 10
291.57480407277382
 20
290.08692888703382
 30
0.0
 11
291.57480407277382
 21
290.08692888703382
 31
0.0
  0
LINE
  5
1DCB
  8
0
 62
     0
 10
290.93980407277371
 20
290.08692888703382
 30
0.0
 11
290.93980407277371
 21
290.08692888703382
 31
0.0
  0
LINE
  5
1DCC
  8
0
 62
     0
 10
290.30480407277378
 20
290.08692888703382
 30
0.0
 11
290.30480407277378
 21
290.08692888703382
 31
0.0
  0
LINE
  5
1DCD
  8
0
 62
     0
 10
289.66980407277379
 20
290.08692888703382
 30
0.0
 11
289.66980407277379
 21
290.08692888703382
 31
0.0
  0
LINE
  5
1DCE
  8
0
 62
     0
 10
289.0348040727738
 20
290.08692888703382
 30
0.0
 11
289.0348040727738
 21
290.08692888703382
 31
0.0
  0
LINE
  5
1DCF
  8
0
 62
     0
 10
288.3998040727738
 20
290.08692888703382
 30
0.0
 11
288.3998040727738
 21
290.08692888703382
 31
0.0
  0
LINE
  5
1DD0
  8
0
 62
     0
 10
287.76480407277381
 20
290.08692888703382
 30
0.0
 11
287.76480407277381
 21
290.08692888703382
 31
0.0
  0
LINE
  5
1DD1
  8
0
 62
     0
 10
287.12980407277382
 20
290.08692888703382
 30
0.0
 11
287.12980407277382
 21
290.08692888703382
 31
0.0
  0
LINE
  5
1DD2
  8
0
 62
     0
 10
286.49480407277389
 20
290.08692888703382
 30
0.0
 11
286.49480407277389
 21
290.08692888703382
 31
0.0
  0
LINE
  5
1DD3
  8
0
 62
     0
 10
285.85980407277378
 20
290.08692888703382
 30
0.0
 11
285.85980407277378
 21
290.08692888703382
 31
0.0
  0
LINE
  5
1DD4
  8
0
 62
     0
 10
285.22480407277379
 20
290.08692888703382
 30
0.0
 11
285.22480407277379
 21
290.08692888703382
 31
0.0
  0
LINE
  5
1DD5
  8
0
 62
     0
 10
284.58980407277392
 20
290.08692888703382
 30
0.0
 11
284.58980407277392
 21
290.08692888703382
 31
0.0
  0
LINE
  5
1DD6
  8
0
 62
     0
 10
283.95480407277392
 20
290.08692888703382
 30
0.0
 11
283.95480407277392
 21
290.08692888703382
 31
0.0
  0
LINE
  5
1DD7
  8
0
 62
     0
 10
283.31980407277388
 20
290.08692888703382
 30
0.0
 11
283.31980407277388
 21
290.08692888703382
 31
0.0
  0
LINE
  5
1DD8
  8
0
 62
     0
 10
282.68480407277389
 20
290.08692888703382
 30
0.0
 11
282.68480407277389
 21
290.08692888703382
 31
0.0
  0
LINE
  5
1DD9
  8
0
 62
     0
 10
282.0498040727739
 20
290.08692888703382
 30
0.0
 11
282.0498040727739
 21
290.08692888703382
 31
0.0
  0
LINE
  5
1DDA
  8
0
 62
     0
 10
281.4148040727739
 20
290.08692888703382
 30
0.0
 11
281.4148040727739
 21
290.08692888703382
 31
0.0
  0
LINE
  5
1DDB
  8
0
 62
     0
 10
280.77980407277391
 20
290.08692888703382
 30
0.0
 11
280.77980407277391
 21
290.08692888703382
 31
0.0
  0
LINE
  5
1DDC
  8
0
 62
     0
 10
280.14480407277392
 20
290.08692888703382
 30
0.0
 11
280.14480407277392
 21
290.08692888703382
 31
0.0
  0
LINE
  5
1DDD
  8
0
 62
     0
 10
279.50980407277387
 20
290.08692888703382
 30
0.0
 11
279.50980407277387
 21
290.08692888703382
 31
0.0
  0
LINE
  5
1DDE
  8
0
 62
     0
 10
278.87480407277388
 20
290.08692888703382
 30
0.0
 11
278.87480407277388
 21
290.08692888703382
 31
0.0
  0
LINE
  5
1DDF
  8
0
 62
     0
 10
278.23980407277389
 20
290.08692888703382
 30
0.0
 11
278.23980407277389
 21
290.08692888703382
 31
0.0
  0
LINE
  5
1DE0
  8
0
 62
     0
 10
277.60480407277402
 20
290.08692888703382
 30
0.0
 11
277.60480407277402
 21
290.08692888703382
 31
0.0
  0
LINE
  5
1DE1
  8
0
 62
     0
 10
326.81730407277371
 20
290.72192888703381
 30
0.0
 11
326.81730407277371
 21
290.72192888703381
 31
0.0
  0
LINE
  5
1DE2
  8
0
 62
     0
 10
326.18230407277372
 20
290.72192888703381
 30
0.0
 11
326.18230407277372
 21
290.72192888703381
 31
0.0
  0
LINE
  5
1DE3
  8
0
 62
     0
 10
325.54730407277373
 20
290.72192888703381
 30
0.0
 11
325.54730407277373
 21
290.72192888703381
 31
0.0
  0
LINE
  5
1DE4
  8
0
 62
     0
 10
324.91230407277379
 20
290.72192888703381
 30
0.0
 11
324.91230407277379
 21
290.72192888703381
 31
0.0
  0
LINE
  5
1DE5
  8
0
 62
     0
 10
324.27730407277369
 20
290.72192888703381
 30
0.0
 11
324.27730407277369
 21
290.72192888703381
 31
0.0
  0
LINE
  5
1DE6
  8
0
 62
     0
 10
323.6423040727737
 20
290.72192888703381
 30
0.0
 11
323.6423040727737
 21
290.72192888703381
 31
0.0
  0
LINE
  5
1DE7
  8
0
 62
     0
 10
323.00730407277382
 20
290.72192888703381
 30
0.0
 11
323.00730407277382
 21
290.72192888703381
 31
0.0
  0
LINE
  5
1DE8
  8
0
 62
     0
 10
322.37230407277377
 20
290.72192888703381
 30
0.0
 11
322.37230407277377
 21
290.72192888703381
 31
0.0
  0
LINE
  5
1DE9
  8
0
 62
     0
 10
321.73730407277378
 20
290.72192888703381
 30
0.0
 11
321.73730407277378
 21
290.72192888703381
 31
0.0
  0
LINE
  5
1DEA
  8
0
 62
     0
 10
321.10230407277379
 20
290.72192888703381
 30
0.0
 11
321.10230407277379
 21
290.72192888703381
 31
0.0
  0
LINE
  5
1DEB
  8
0
 62
     0
 10
320.4673040727738
 20
290.72192888703381
 30
0.0
 11
320.4673040727738
 21
290.72192888703381
 31
0.0
  0
LINE
  5
1DEC
  8
0
 62
     0
 10
319.83230407277381
 20
290.72192888703381
 30
0.0
 11
319.83230407277381
 21
290.72192888703381
 31
0.0
  0
LINE
  5
1DED
  8
0
 62
     0
 10
319.19730407277382
 20
290.72192888703381
 30
0.0
 11
319.19730407277382
 21
290.72192888703381
 31
0.0
  0
LINE
  5
1DEE
  8
0
 62
     0
 10
318.56230407277383
 20
290.72192888703381
 30
0.0
 11
318.56230407277383
 21
290.72192888703381
 31
0.0
  0
LINE
  5
1DEF
  8
0
 62
     0
 10
317.92730407277378
 20
290.72192888703381
 30
0.0
 11
317.92730407277378
 21
290.72192888703381
 31
0.0
  0
LINE
  5
1DF0
  8
0
 62
     0
 10
317.29230407277379
 20
290.72192888703381
 30
0.0
 11
317.29230407277379
 21
290.72192888703381
 31
0.0
  0
LINE
  5
1DF1
  8
0
 62
     0
 10
316.65730407277391
 20
290.72192888703381
 30
0.0
 11
316.65730407277391
 21
290.72192888703381
 31
0.0
  0
LINE
  5
1DF2
  8
0
 62
     0
 10
316.02230407277392
 20
290.72192888703381
 30
0.0
 11
316.02230407277392
 21
290.72192888703381
 31
0.0
  0
LINE
  5
1DF3
  8
0
 62
     0
 10
315.38730407277387
 20
290.72192888703381
 30
0.0
 11
315.38730407277387
 21
290.72192888703381
 31
0.0
  0
LINE
  5
1DF4
  8
0
 62
     0
 10
314.75230407277388
 20
290.72192888703381
 30
0.0
 11
314.75230407277388
 21
290.72192888703381
 31
0.0
  0
LINE
  5
1DF5
  8
0
 62
     0
 10
314.11730407277389
 20
290.72192888703381
 30
0.0
 11
314.11730407277389
 21
290.72192888703381
 31
0.0
  0
LINE
  5
1DF6
  8
0
 62
     0
 10
313.4823040727739
 20
290.72192888703381
 30
0.0
 11
313.4823040727739
 21
290.72192888703381
 31
0.0
  0
LINE
  5
1DF7
  8
0
 62
     0
 10
312.84730407277391
 20
290.72192888703381
 30
0.0
 11
312.84730407277391
 21
290.72192888703381
 31
0.0
  0
LINE
  5
1DF8
  8
0
 62
     0
 10
312.21230407277392
 20
290.72192888703381
 30
0.0
 11
312.21230407277392
 21
290.72192888703381
 31
0.0
  0
LINE
  5
1DF9
  8
0
 62
     0
 10
311.57730407277393
 20
290.72192888703381
 30
0.0
 11
311.57730407277393
 21
290.72192888703381
 31
0.0
  0
LINE
  5
1DFA
  8
0
 62
     0
 10
310.94230407277388
 20
290.72192888703381
 30
0.0
 11
310.94230407277388
 21
290.72192888703381
 31
0.0
  0
LINE
  5
1DFB
  8
0
 62
     0
 10
310.307304072774
 20
290.72192888703381
 30
0.0
 11
310.307304072774
 21
290.72192888703381
 31
0.0
  0
LINE
  5
1DFC
  8
0
 62
     0
 10
309.67230407277401
 20
290.72192888703381
 30
0.0
 11
309.67230407277401
 21
290.72192888703381
 31
0.0
  0
LINE
  5
1DFD
  8
0
 62
     0
 10
309.03730407277402
 20
290.72192888703381
 30
0.0
 11
309.03730407277402
 21
290.72192888703381
 31
0.0
  0
LINE
  5
1DFE
  8
0
 62
     0
 10
308.40230407277397
 20
290.72192888703381
 30
0.0
 11
308.40230407277397
 21
290.72192888703381
 31
0.0
  0
LINE
  5
1DFF
  8
0
 62
     0
 10
307.76730407277398
 20
290.72192888703381
 30
0.0
 11
307.76730407277398
 21
290.72192888703381
 31
0.0
  0
LINE
  5
1E00
  8
0
 62
     0
 10
296.97230407277368
 20
290.72192888703381
 30
0.0
 11
296.97230407277368
 21
290.72192888703381
 31
0.0
  0
LINE
  5
1E01
  8
0
 62
     0
 10
296.33730407277369
 20
290.72192888703381
 30
0.0
 11
296.33730407277369
 21
290.72192888703381
 31
0.0
  0
LINE
  5
1E02
  8
0
 62
     0
 10
295.7023040727737
 20
290.72192888703381
 30
0.0
 11
295.7023040727737
 21
290.72192888703381
 31
0.0
  0
LINE
  5
1E03
  8
0
 62
     0
 10
295.06730407277371
 20
290.72192888703381
 30
0.0
 11
295.06730407277371
 21
290.72192888703381
 31
0.0
  0
LINE
  5
1E04
  8
0
 62
     0
 10
294.43230407277372
 20
290.72192888703381
 30
0.0
 11
294.43230407277372
 21
290.72192888703381
 31
0.0
  0
LINE
  5
1E05
  8
0
 62
     0
 10
293.79730407277373
 20
290.72192888703381
 30
0.0
 11
293.79730407277373
 21
290.72192888703381
 31
0.0
  0
LINE
  5
1E06
  8
0
 62
     0
 10
293.16230407277368
 20
290.72192888703381
 30
0.0
 11
293.16230407277368
 21
290.72192888703381
 31
0.0
  0
LINE
  5
1E07
  8
0
 62
     0
 10
292.52730407277369
 20
290.72192888703381
 30
0.0
 11
292.52730407277369
 21
290.72192888703381
 31
0.0
  0
LINE
  5
1E08
  8
0
 62
     0
 10
291.89230407277381
 20
290.72192888703381
 30
0.0
 11
291.89230407277381
 21
290.72192888703381
 31
0.0
  0
LINE
  5
1E09
  8
0
 62
     0
 10
291.25730407277382
 20
290.72192888703381
 30
0.0
 11
291.25730407277382
 21
290.72192888703381
 31
0.0
  0
LINE
  5
1E0A
  8
0
 62
     0
 10
290.62230407277377
 20
290.72192888703381
 30
0.0
 11
290.62230407277377
 21
290.72192888703381
 31
0.0
  0
LINE
  5
1E0B
  8
0
 62
     0
 10
289.98730407277378
 20
290.72192888703381
 30
0.0
 11
289.98730407277378
 21
290.72192888703381
 31
0.0
  0
LINE
  5
1E0C
  8
0
 62
     0
 10
289.35230407277379
 20
290.72192888703381
 30
0.0
 11
289.35230407277379
 21
290.72192888703381
 31
0.0
  0
LINE
  5
1E0D
  8
0
 62
     0
 10
288.7173040727738
 20
290.72192888703381
 30
0.0
 11
288.7173040727738
 21
290.72192888703381
 31
0.0
  0
LINE
  5
1E0E
  8
0
 62
     0
 10
288.08230407277381
 20
290.72192888703381
 30
0.0
 11
288.08230407277381
 21
290.72192888703381
 31
0.0
  0
LINE
  5
1E0F
  8
0
 62
     0
 10
287.44730407277382
 20
290.72192888703381
 30
0.0
 11
287.44730407277382
 21
290.72192888703381
 31
0.0
  0
LINE
  5
1E10
  8
0
 62
     0
 10
286.81230407277383
 20
290.72192888703381
 30
0.0
 11
286.81230407277383
 21
290.72192888703381
 31
0.0
  0
LINE
  5
1E11
  8
0
 62
     0
 10
286.17730407277378
 20
290.72192888703381
 30
0.0
 11
286.17730407277378
 21
290.72192888703381
 31
0.0
  0
LINE
  5
1E12
  8
0
 62
     0
 10
285.5423040727739
 20
290.72192888703381
 30
0.0
 11
285.5423040727739
 21
290.72192888703381
 31
0.0
  0
LINE
  5
1E13
  8
0
 62
     0
 10
284.90730407277391
 20
290.72192888703381
 30
0.0
 11
284.90730407277391
 21
290.72192888703381
 31
0.0
  0
LINE
  5
1E14
  8
0
 62
     0
 10
284.27230407277392
 20
290.72192888703381
 30
0.0
 11
284.27230407277392
 21
290.72192888703381
 31
0.0
  0
LINE
  5
1E15
  8
0
 62
     0
 10
283.63730407277387
 20
290.72192888703381
 30
0.0
 11
283.63730407277387
 21
290.72192888703381
 31
0.0
  0
LINE
  5
1E16
  8
0
 62
     0
 10
283.00230407277388
 20
290.72192888703381
 30
0.0
 11
283.00230407277388
 21
290.72192888703381
 31
0.0
  0
LINE
  5
1E17
  8
0
 62
     0
 10
282.36730407277389
 20
290.72192888703381
 30
0.0
 11
282.36730407277389
 21
290.72192888703381
 31
0.0
  0
LINE
  5
1E18
  8
0
 62
     0
 10
281.7323040727739
 20
290.72192888703381
 30
0.0
 11
281.7323040727739
 21
290.72192888703381
 31
0.0
  0
LINE
  5
1E19
  8
0
 62
     0
 10
281.09730407277391
 20
290.72192888703381
 30
0.0
 11
281.09730407277391
 21
290.72192888703381
 31
0.0
  0
LINE
  5
1E1A
  8
0
 62
     0
 10
280.46230407277392
 20
290.72192888703381
 30
0.0
 11
280.46230407277392
 21
290.72192888703381
 31
0.0
  0
LINE
  5
1E1B
  8
0
 62
     0
 10
279.82730407277393
 20
290.72192888703381
 30
0.0
 11
279.82730407277393
 21
290.72192888703381
 31
0.0
  0
LINE
  5
1E1C
  8
0
 62
     0
 10
279.19230407277399
 20
290.72192888703381
 30
0.0
 11
279.19230407277399
 21
290.72192888703381
 31
0.0
  0
LINE
  5
1E1D
  8
0
 62
     0
 10
278.557304072774
 20
290.72192888703381
 30
0.0
 11
278.557304072774
 21
290.72192888703381
 31
0.0
  0
LINE
  5
1E1E
  8
0
 62
     0
 10
277.9223040727739
 20
290.72192888703381
 30
0.0
 11
277.9223040727739
 21
290.72192888703381
 31
0.0
  0
LINE
  5
1E1F
  8
0
 62
     0
 10
327.1348040727737
 20
291.3569288870338
 30
0.0
 11
327.1348040727737
 21
291.3569288870338
 31
0.0
  0
LINE
  5
1E20
  8
0
 62
     0
 10
326.49980407277371
 20
291.3569288870338
 30
0.0
 11
326.49980407277371
 21
291.3569288870338
 31
0.0
  0
LINE
  5
1E21
  8
0
 62
     0
 10
325.86480407277372
 20
291.3569288870338
 30
0.0
 11
325.86480407277372
 21
291.3569288870338
 31
0.0
  0
LINE
  5
1E22
  8
0
 62
     0
 10
325.22980407277367
 20
291.3569288870338
 30
0.0
 11
325.22980407277367
 21
291.3569288870338
 31
0.0
  0
LINE
  5
1E23
  8
0
 62
     0
 10
324.59480407277368
 20
291.3569288870338
 30
0.0
 11
324.59480407277368
 21
291.3569288870338
 31
0.0
  0
LINE
  5
1E24
  8
0
 62
     0
 10
323.95980407277381
 20
291.3569288870338
 30
0.0
 11
323.95980407277381
 21
291.3569288870338
 31
0.0
  0
LINE
  5
1E25
  8
0
 62
     0
 10
323.32480407277382
 20
291.3569288870338
 30
0.0
 11
323.32480407277382
 21
291.3569288870338
 31
0.0
  0
LINE
  5
1E26
  8
0
 62
     0
 10
322.68980407277382
 20
291.3569288870338
 30
0.0
 11
322.68980407277382
 21
291.3569288870338
 31
0.0
  0
LINE
  5
1E27
  8
0
 62
     0
 10
322.05480407277378
 20
291.3569288870338
 30
0.0
 11
322.05480407277378
 21
291.3569288870338
 31
0.0
  0
LINE
  5
1E28
  8
0
 62
     0
 10
321.41980407277379
 20
291.3569288870338
 30
0.0
 11
321.41980407277379
 21
291.3569288870338
 31
0.0
  0
LINE
  5
1E29
  8
0
 62
     0
 10
320.7848040727738
 20
291.3569288870338
 30
0.0
 11
320.7848040727738
 21
291.3569288870338
 31
0.0
  0
LINE
  5
1E2A
  8
0
 62
     0
 10
320.1498040727738
 20
291.3569288870338
 30
0.0
 11
320.1498040727738
 21
291.3569288870338
 31
0.0
  0
LINE
  5
1E2B
  8
0
 62
     0
 10
319.51480407277381
 20
291.3569288870338
 30
0.0
 11
319.51480407277381
 21
291.3569288870338
 31
0.0
  0
LINE
  5
1E2C
  8
0
 62
     0
 10
318.87980407277382
 20
291.3569288870338
 30
0.0
 11
318.87980407277382
 21
291.3569288870338
 31
0.0
  0
LINE
  5
1E2D
  8
0
 62
     0
 10
318.24480407277377
 20
291.3569288870338
 30
0.0
 11
318.24480407277377
 21
291.3569288870338
 31
0.0
  0
LINE
  5
1E2E
  8
0
 62
     0
 10
317.6098040727739
 20
291.3569288870338
 30
0.0
 11
317.6098040727739
 21
291.3569288870338
 31
0.0
  0
LINE
  5
1E2F
  8
0
 62
     0
 10
316.97480407277391
 20
291.3569288870338
 30
0.0
 11
316.97480407277391
 21
291.3569288870338
 31
0.0
  0
LINE
  5
1E30
  8
0
 62
     0
 10
316.3398040727738
 20
291.3569288870338
 30
0.0
 11
316.3398040727738
 21
291.3569288870338
 31
0.0
  0
LINE
  5
1E31
  8
0
 62
     0
 10
315.70480407277392
 20
291.3569288870338
 30
0.0
 11
315.70480407277392
 21
291.3569288870338
 31
0.0
  0
LINE
  5
1E32
  8
0
 62
     0
 10
315.06980407277388
 20
291.3569288870338
 30
0.0
 11
315.06980407277388
 21
291.3569288870338
 31
0.0
  0
LINE
  5
1E33
  8
0
 62
     0
 10
314.43480407277389
 20
291.3569288870338
 30
0.0
 11
314.43480407277389
 21
291.3569288870338
 31
0.0
  0
LINE
  5
1E34
  8
0
 62
     0
 10
313.7998040727739
 20
291.3569288870338
 30
0.0
 11
313.7998040727739
 21
291.3569288870338
 31
0.0
  0
LINE
  5
1E35
  8
0
 62
     0
 10
313.1648040727739
 20
291.3569288870338
 30
0.0
 11
313.1648040727739
 21
291.3569288870338
 31
0.0
  0
LINE
  5
1E36
  8
0
 62
     0
 10
312.52980407277391
 20
291.3569288870338
 30
0.0
 11
312.52980407277391
 21
291.3569288870338
 31
0.0
  0
LINE
  5
1E37
  8
0
 62
     0
 10
311.89480407277392
 20
291.3569288870338
 30
0.0
 11
311.89480407277392
 21
291.3569288870338
 31
0.0
  0
LINE
  5
1E38
  8
0
 62
     0
 10
311.25980407277399
 20
291.3569288870338
 30
0.0
 11
311.25980407277399
 21
291.3569288870338
 31
0.0
  0
LINE
  5
1E39
  8
0
 62
     0
 10
310.62480407277388
 20
291.3569288870338
 30
0.0
 11
310.62480407277388
 21
291.3569288870338
 31
0.0
  0
LINE
  5
1E3A
  8
0
 62
     0
 10
309.98980407277389
 20
291.3569288870338
 30
0.0
 11
309.98980407277389
 21
291.3569288870338
 31
0.0
  0
LINE
  5
1E3B
  8
0
 62
     0
 10
309.35480407277402
 20
291.3569288870338
 30
0.0
 11
309.35480407277402
 21
291.3569288870338
 31
0.0
  0
LINE
  5
1E3C
  8
0
 62
     0
 10
308.71980407277402
 20
291.3569288870338
 30
0.0
 11
308.71980407277402
 21
291.3569288870338
 31
0.0
  0
LINE
  5
1E3D
  8
0
 62
     0
 10
308.08480407277398
 20
291.3569288870338
 30
0.0
 11
308.08480407277398
 21
291.3569288870338
 31
0.0
  0
LINE
  5
1E3E
  8
0
 62
     0
 10
307.44980407277399
 20
291.3569288870338
 30
0.0
 11
307.44980407277399
 21
291.3569288870338
 31
0.0
  0
LINE
  5
1E3F
  8
0
 62
     0
 10
297.28980407277368
 20
291.3569288870338
 30
0.0
 11
297.28980407277368
 21
291.3569288870338
 31
0.0
  0
LINE
  5
1E40
  8
0
 62
     0
 10
296.65480407277369
 20
291.3569288870338
 30
0.0
 11
296.65480407277369
 21
291.3569288870338
 31
0.0
  0
LINE
  5
1E41
  8
0
 62
     0
 10
296.0198040727737
 20
291.3569288870338
 30
0.0
 11
296.0198040727737
 21
291.3569288870338
 31
0.0
  0
LINE
  5
1E42
  8
0
 62
     0
 10
295.3848040727737
 20
291.3569288870338
 30
0.0
 11
295.3848040727737
 21
291.3569288870338
 31
0.0
  0
LINE
  5
1E43
  8
0
 62
     0
 10
294.74980407277371
 20
291.3569288870338
 30
0.0
 11
294.74980407277371
 21
291.3569288870338
 31
0.0
  0
LINE
  5
1E44
  8
0
 62
     0
 10
294.11480407277372
 20
291.3569288870338
 30
0.0
 11
294.11480407277372
 21
291.3569288870338
 31
0.0
  0
LINE
  5
1E45
  8
0
 62
     0
 10
293.47980407277367
 20
291.3569288870338
 30
0.0
 11
293.47980407277367
 21
291.3569288870338
 31
0.0
  0
LINE
  5
1E46
  8
0
 62
     0
 10
292.8448040727738
 20
291.3569288870338
 30
0.0
 11
292.8448040727738
 21
291.3569288870338
 31
0.0
  0
LINE
  5
1E47
  8
0
 62
     0
 10
292.20980407277381
 20
291.3569288870338
 30
0.0
 11
292.20980407277381
 21
291.3569288870338
 31
0.0
  0
LINE
  5
1E48
  8
0
 62
     0
 10
291.57480407277382
 20
291.3569288870338
 30
0.0
 11
291.57480407277382
 21
291.3569288870338
 31
0.0
  0
LINE
  5
1E49
  8
0
 62
     0
 10
290.93980407277371
 20
291.3569288870338
 30
0.0
 11
290.93980407277371
 21
291.3569288870338
 31
0.0
  0
LINE
  5
1E4A
  8
0
 62
     0
 10
290.30480407277378
 20
291.3569288870338
 30
0.0
 11
290.30480407277378
 21
291.3569288870338
 31
0.0
  0
LINE
  5
1E4B
  8
0
 62
     0
 10
289.66980407277379
 20
291.3569288870338
 30
0.0
 11
289.66980407277379
 21
291.3569288870338
 31
0.0
  0
LINE
  5
1E4C
  8
0
 62
     0
 10
289.0348040727738
 20
291.3569288870338
 30
0.0
 11
289.0348040727738
 21
291.3569288870338
 31
0.0
  0
LINE
  5
1E4D
  8
0
 62
     0
 10
288.3998040727738
 20
291.3569288870338
 30
0.0
 11
288.3998040727738
 21
291.3569288870338
 31
0.0
  0
LINE
  5
1E4E
  8
0
 62
     0
 10
287.76480407277381
 20
291.3569288870338
 30
0.0
 11
287.76480407277381
 21
291.3569288870338
 31
0.0
  0
LINE
  5
1E4F
  8
0
 62
     0
 10
287.12980407277382
 20
291.3569288870338
 30
0.0
 11
287.12980407277382
 21
291.3569288870338
 31
0.0
  0
LINE
  5
1E50
  8
0
 62
     0
 10
286.49480407277389
 20
291.3569288870338
 30
0.0
 11
286.49480407277389
 21
291.3569288870338
 31
0.0
  0
LINE
  5
1E51
  8
0
 62
     0
 10
285.85980407277378
 20
291.3569288870338
 30
0.0
 11
285.85980407277378
 21
291.3569288870338
 31
0.0
  0
LINE
  5
1E52
  8
0
 62
     0
 10
285.22480407277379
 20
291.3569288870338
 30
0.0
 11
285.22480407277379
 21
291.3569288870338
 31
0.0
  0
LINE
  5
1E53
  8
0
 62
     0
 10
284.58980407277392
 20
291.3569288870338
 30
0.0
 11
284.58980407277392
 21
291.3569288870338
 31
0.0
  0
LINE
  5
1E54
  8
0
 62
     0
 10
283.95480407277392
 20
291.3569288870338
 30
0.0
 11
283.95480407277392
 21
291.3569288870338
 31
0.0
  0
LINE
  5
1E55
  8
0
 62
     0
 10
283.31980407277388
 20
291.3569288870338
 30
0.0
 11
283.31980407277388
 21
291.3569288870338
 31
0.0
  0
LINE
  5
1E56
  8
0
 62
     0
 10
282.68480407277389
 20
291.3569288870338
 30
0.0
 11
282.68480407277389
 21
291.3569288870338
 31
0.0
  0
LINE
  5
1E57
  8
0
 62
     0
 10
282.0498040727739
 20
291.3569288870338
 30
0.0
 11
282.0498040727739
 21
291.3569288870338
 31
0.0
  0
LINE
  5
1E58
  8
0
 62
     0
 10
281.4148040727739
 20
291.3569288870338
 30
0.0
 11
281.4148040727739
 21
291.3569288870338
 31
0.0
  0
LINE
  5
1E59
  8
0
 62
     0
 10
280.77980407277391
 20
291.3569288870338
 30
0.0
 11
280.77980407277391
 21
291.3569288870338
 31
0.0
  0
LINE
  5
1E5A
  8
0
 62
     0
 10
280.14480407277392
 20
291.3569288870338
 30
0.0
 11
280.14480407277392
 21
291.3569288870338
 31
0.0
  0
LINE
  5
1E5B
  8
0
 62
     0
 10
279.50980407277387
 20
291.3569288870338
 30
0.0
 11
279.50980407277387
 21
291.3569288870338
 31
0.0
  0
LINE
  5
1E5C
  8
0
 62
     0
 10
278.87480407277388
 20
291.3569288870338
 30
0.0
 11
278.87480407277388
 21
291.3569288870338
 31
0.0
  0
LINE
  5
1E5D
  8
0
 62
     0
 10
278.23980407277389
 20
291.3569288870338
 30
0.0
 11
278.23980407277389
 21
291.3569288870338
 31
0.0
  0
LINE
  5
1E5E
  8
0
 62
     0
 10
277.60480407277402
 20
291.3569288870338
 30
0.0
 11
277.60480407277402
 21
291.3569288870338
 31
0.0
  0
LINE
  5
1E5F
  8
0
 62
     0
 10
326.81730407277371
 20
291.99192888703391
 30
0.0
 11
326.81730407277371
 21
291.99192888703391
 31
0.0
  0
LINE
  5
1E60
  8
0
 62
     0
 10
326.18230407277372
 20
291.99192888703391
 30
0.0
 11
326.18230407277372
 21
291.99192888703391
 31
0.0
  0
LINE
  5
1E61
  8
0
 62
     0
 10
325.54730407277373
 20
291.99192888703391
 30
0.0
 11
325.54730407277373
 21
291.99192888703391
 31
0.0
  0
LINE
  5
1E62
  8
0
 62
     0
 10
324.91230407277379
 20
291.99192888703391
 30
0.0
 11
324.91230407277379
 21
291.99192888703391
 31
0.0
  0
LINE
  5
1E63
  8
0
 62
     0
 10
324.27730407277369
 20
291.99192888703391
 30
0.0
 11
324.27730407277369
 21
291.99192888703391
 31
0.0
  0
LINE
  5
1E64
  8
0
 62
     0
 10
323.6423040727737
 20
291.99192888703391
 30
0.0
 11
323.6423040727737
 21
291.99192888703391
 31
0.0
  0
LINE
  5
1E65
  8
0
 62
     0
 10
323.00730407277382
 20
291.99192888703391
 30
0.0
 11
323.00730407277382
 21
291.99192888703391
 31
0.0
  0
LINE
  5
1E66
  8
0
 62
     0
 10
322.37230407277377
 20
291.99192888703391
 30
0.0
 11
322.37230407277377
 21
291.99192888703391
 31
0.0
  0
LINE
  5
1E67
  8
0
 62
     0
 10
321.73730407277378
 20
291.99192888703391
 30
0.0
 11
321.73730407277378
 21
291.99192888703391
 31
0.0
  0
LINE
  5
1E68
  8
0
 62
     0
 10
321.10230407277379
 20
291.99192888703391
 30
0.0
 11
321.10230407277379
 21
291.99192888703391
 31
0.0
  0
LINE
  5
1E69
  8
0
 62
     0
 10
320.4673040727738
 20
291.99192888703391
 30
0.0
 11
320.4673040727738
 21
291.99192888703391
 31
0.0
  0
LINE
  5
1E6A
  8
0
 62
     0
 10
319.83230407277381
 20
291.99192888703391
 30
0.0
 11
319.83230407277381
 21
291.99192888703391
 31
0.0
  0
LINE
  5
1E6B
  8
0
 62
     0
 10
319.19730407277382
 20
291.99192888703391
 30
0.0
 11
319.19730407277382
 21
291.99192888703391
 31
0.0
  0
LINE
  5
1E6C
  8
0
 62
     0
 10
318.56230407277383
 20
291.99192888703391
 30
0.0
 11
318.56230407277383
 21
291.99192888703391
 31
0.0
  0
LINE
  5
1E6D
  8
0
 62
     0
 10
317.92730407277378
 20
291.99192888703391
 30
0.0
 11
317.92730407277378
 21
291.99192888703391
 31
0.0
  0
LINE
  5
1E6E
  8
0
 62
     0
 10
317.29230407277379
 20
291.99192888703391
 30
0.0
 11
317.29230407277379
 21
291.99192888703391
 31
0.0
  0
LINE
  5
1E6F
  8
0
 62
     0
 10
316.65730407277391
 20
291.99192888703391
 30
0.0
 11
316.65730407277391
 21
291.99192888703391
 31
0.0
  0
LINE
  5
1E70
  8
0
 62
     0
 10
316.02230407277392
 20
291.99192888703391
 30
0.0
 11
316.02230407277392
 21
291.99192888703391
 31
0.0
  0
LINE
  5
1E71
  8
0
 62
     0
 10
315.38730407277387
 20
291.99192888703391
 30
0.0
 11
315.38730407277387
 21
291.99192888703391
 31
0.0
  0
LINE
  5
1E72
  8
0
 62
     0
 10
314.75230407277388
 20
291.99192888703391
 30
0.0
 11
314.75230407277388
 21
291.99192888703391
 31
0.0
  0
LINE
  5
1E73
  8
0
 62
     0
 10
314.11730407277389
 20
291.99192888703391
 30
0.0
 11
314.11730407277389
 21
291.99192888703391
 31
0.0
  0
LINE
  5
1E74
  8
0
 62
     0
 10
313.4823040727739
 20
291.99192888703391
 30
0.0
 11
313.4823040727739
 21
291.99192888703391
 31
0.0
  0
LINE
  5
1E75
  8
0
 62
     0
 10
312.84730407277391
 20
291.99192888703391
 30
0.0
 11
312.84730407277391
 21
291.99192888703391
 31
0.0
  0
LINE
  5
1E76
  8
0
 62
     0
 10
312.21230407277392
 20
291.99192888703391
 30
0.0
 11
312.21230407277392
 21
291.99192888703391
 31
0.0
  0
LINE
  5
1E77
  8
0
 62
     0
 10
311.57730407277393
 20
291.99192888703391
 30
0.0
 11
311.57730407277393
 21
291.99192888703391
 31
0.0
  0
LINE
  5
1E78
  8
0
 62
     0
 10
310.94230407277388
 20
291.99192888703391
 30
0.0
 11
310.94230407277388
 21
291.99192888703391
 31
0.0
  0
LINE
  5
1E79
  8
0
 62
     0
 10
310.307304072774
 20
291.99192888703391
 30
0.0
 11
310.307304072774
 21
291.99192888703391
 31
0.0
  0
LINE
  5
1E7A
  8
0
 62
     0
 10
309.67230407277401
 20
291.99192888703391
 30
0.0
 11
309.67230407277401
 21
291.99192888703391
 31
0.0
  0
LINE
  5
1E7B
  8
0
 62
     0
 10
309.03730407277402
 20
291.99192888703391
 30
0.0
 11
309.03730407277402
 21
291.99192888703391
 31
0.0
  0
LINE
  5
1E7C
  8
0
 62
     0
 10
308.40230407277397
 20
291.99192888703391
 30
0.0
 11
308.40230407277397
 21
291.99192888703391
 31
0.0
  0
LINE
  5
1E7D
  8
0
 62
     0
 10
307.76730407277398
 20
291.99192888703391
 30
0.0
 11
307.76730407277398
 21
291.99192888703391
 31
0.0
  0
LINE
  5
1E7E
  8
0
 62
     0
 10
296.97230407277368
 20
291.99192888703391
 30
0.0
 11
296.97230407277368
 21
291.99192888703391
 31
0.0
  0
LINE
  5
1E7F
  8
0
 62
     0
 10
296.33730407277369
 20
291.99192888703391
 30
0.0
 11
296.33730407277369
 21
291.99192888703391
 31
0.0
  0
LINE
  5
1E80
  8
0
 62
     0
 10
295.7023040727737
 20
291.99192888703391
 30
0.0
 11
295.7023040727737
 21
291.99192888703391
 31
0.0
  0
LINE
  5
1E81
  8
0
 62
     0
 10
295.06730407277371
 20
291.99192888703391
 30
0.0
 11
295.06730407277371
 21
291.99192888703391
 31
0.0
  0
LINE
  5
1E82
  8
0
 62
     0
 10
294.43230407277372
 20
291.99192888703391
 30
0.0
 11
294.43230407277372
 21
291.99192888703391
 31
0.0
  0
LINE
  5
1E83
  8
0
 62
     0
 10
293.79730407277373
 20
291.99192888703391
 30
0.0
 11
293.79730407277373
 21
291.99192888703391
 31
0.0
  0
LINE
  5
1E84
  8
0
 62
     0
 10
293.16230407277368
 20
291.99192888703391
 30
0.0
 11
293.16230407277368
 21
291.99192888703391
 31
0.0
  0
LINE
  5
1E85
  8
0
 62
     0
 10
292.52730407277369
 20
291.99192888703391
 30
0.0
 11
292.52730407277369
 21
291.99192888703391
 31
0.0
  0
LINE
  5
1E86
  8
0
 62
     0
 10
291.89230407277381
 20
291.99192888703391
 30
0.0
 11
291.89230407277381
 21
291.99192888703391
 31
0.0
  0
LINE
  5
1E87
  8
0
 62
     0
 10
291.25730407277382
 20
291.99192888703391
 30
0.0
 11
291.25730407277382
 21
291.99192888703391
 31
0.0
  0
LINE
  5
1E88
  8
0
 62
     0
 10
290.62230407277377
 20
291.99192888703391
 30
0.0
 11
290.62230407277377
 21
291.99192888703391
 31
0.0
  0
LINE
  5
1E89
  8
0
 62
     0
 10
289.98730407277378
 20
291.99192888703391
 30
0.0
 11
289.98730407277378
 21
291.99192888703391
 31
0.0
  0
LINE
  5
1E8A
  8
0
 62
     0
 10
289.35230407277379
 20
291.99192888703391
 30
0.0
 11
289.35230407277379
 21
291.99192888703391
 31
0.0
  0
LINE
  5
1E8B
  8
0
 62
     0
 10
288.7173040727738
 20
291.99192888703391
 30
0.0
 11
288.7173040727738
 21
291.99192888703391
 31
0.0
  0
LINE
  5
1E8C
  8
0
 62
     0
 10
288.08230407277381
 20
291.99192888703391
 30
0.0
 11
288.08230407277381
 21
291.99192888703391
 31
0.0
  0
LINE
  5
1E8D
  8
0
 62
     0
 10
287.44730407277382
 20
291.99192888703391
 30
0.0
 11
287.44730407277382
 21
291.99192888703391
 31
0.0
  0
LINE
  5
1E8E
  8
0
 62
     0
 10
286.81230407277383
 20
291.99192888703391
 30
0.0
 11
286.81230407277383
 21
291.99192888703391
 31
0.0
  0
LINE
  5
1E8F
  8
0
 62
     0
 10
286.17730407277378
 20
291.99192888703391
 30
0.0
 11
286.17730407277378
 21
291.99192888703391
 31
0.0
  0
LINE
  5
1E90
  8
0
 62
     0
 10
285.5423040727739
 20
291.99192888703391
 30
0.0
 11
285.5423040727739
 21
291.99192888703391
 31
0.0
  0
LINE
  5
1E91
  8
0
 62
     0
 10
284.90730407277391
 20
291.99192888703391
 30
0.0
 11
284.90730407277391
 21
291.99192888703391
 31
0.0
  0
LINE
  5
1E92
  8
0
 62
     0
 10
284.27230407277392
 20
291.99192888703391
 30
0.0
 11
284.27230407277392
 21
291.99192888703391
 31
0.0
  0
LINE
  5
1E93
  8
0
 62
     0
 10
283.63730407277387
 20
291.99192888703391
 30
0.0
 11
283.63730407277387
 21
291.99192888703391
 31
0.0
  0
LINE
  5
1E94
  8
0
 62
     0
 10
283.00230407277388
 20
291.99192888703391
 30
0.0
 11
283.00230407277388
 21
291.99192888703391
 31
0.0
  0
LINE
  5
1E95
  8
0
 62
     0
 10
282.36730407277389
 20
291.99192888703391
 30
0.0
 11
282.36730407277389
 21
291.99192888703391
 31
0.0
  0
LINE
  5
1E96
  8
0
 62
     0
 10
281.7323040727739
 20
291.99192888703391
 30
0.0
 11
281.7323040727739
 21
291.99192888703391
 31
0.0
  0
LINE
  5
1E97
  8
0
 62
     0
 10
281.09730407277391
 20
291.99192888703391
 30
0.0
 11
281.09730407277391
 21
291.99192888703391
 31
0.0
  0
LINE
  5
1E98
  8
0
 62
     0
 10
280.46230407277392
 20
291.99192888703391
 30
0.0
 11
280.46230407277392
 21
291.99192888703391
 31
0.0
  0
LINE
  5
1E99
  8
0
 62
     0
 10
279.82730407277393
 20
291.99192888703391
 30
0.0
 11
279.82730407277393
 21
291.99192888703391
 31
0.0
  0
LINE
  5
1E9A
  8
0
 62
     0
 10
279.19230407277399
 20
291.99192888703391
 30
0.0
 11
279.19230407277399
 21
291.99192888703391
 31
0.0
  0
LINE
  5
1E9B
  8
0
 62
     0
 10
278.557304072774
 20
291.99192888703391
 30
0.0
 11
278.557304072774
 21
291.99192888703391
 31
0.0
  0
LINE
  5
1E9C
  8
0
 62
     0
 10
277.9223040727739
 20
291.99192888703391
 30
0.0
 11
277.9223040727739
 21
291.99192888703391
 31
0.0
  0
LINE
  5
1E9D
  8
0
 62
     0
 10
327.13480407277359
 20
292.62692888703378
 30
0.0
 11
327.13480407277359
 21
292.62692888703378
 31
0.0
  0
LINE
  5
1E9E
  8
0
 62
     0
 10
326.49980407277371
 20
292.62692888703378
 30
0.0
 11
326.49980407277371
 21
292.62692888703378
 31
0.0
  0
LINE
  5
1E9F
  8
0
 62
     0
 10
325.86480407277372
 20
292.62692888703378
 30
0.0
 11
325.86480407277372
 21
292.62692888703378
 31
0.0
  0
LINE
  5
1EA0
  8
0
 62
     0
 10
325.22980407277367
 20
292.62692888703378
 30
0.0
 11
325.22980407277367
 21
292.62692888703378
 31
0.0
  0
LINE
  5
1EA1
  8
0
 62
     0
 10
324.59480407277368
 20
292.62692888703378
 30
0.0
 11
324.59480407277368
 21
292.62692888703378
 31
0.0
  0
LINE
  5
1EA2
  8
0
 62
     0
 10
323.95980407277369
 20
292.62692888703378
 30
0.0
 11
323.95980407277369
 21
292.62692888703378
 31
0.0
  0
LINE
  5
1EA3
  8
0
 62
     0
 10
323.3248040727737
 20
292.62692888703378
 30
0.0
 11
323.3248040727737
 21
292.62692888703378
 31
0.0
  0
LINE
  5
1EA4
  8
0
 62
     0
 10
322.68980407277371
 20
292.62692888703378
 30
0.0
 11
322.68980407277371
 21
292.62692888703378
 31
0.0
  0
LINE
  5
1EA5
  8
0
 62
     0
 10
322.05480407277372
 20
292.62692888703378
 30
0.0
 11
322.05480407277372
 21
292.62692888703378
 31
0.0
  0
LINE
  5
1EA6
  8
0
 62
     0
 10
321.41980407277367
 20
292.62692888703378
 30
0.0
 11
321.41980407277367
 21
292.62692888703378
 31
0.0
  0
LINE
  5
1EA7
  8
0
 62
     0
 10
320.78480407277368
 20
292.62692888703378
 30
0.0
 11
320.78480407277368
 21
292.62692888703378
 31
0.0
  0
LINE
  5
1EA8
  8
0
 62
     0
 10
320.1498040727738
 20
292.62692888703378
 30
0.0
 11
320.1498040727738
 21
292.62692888703378
 31
0.0
  0
LINE
  5
1EA9
  8
0
 62
     0
 10
319.51480407277381
 20
292.62692888703378
 30
0.0
 11
319.51480407277381
 21
292.62692888703378
 31
0.0
  0
LINE
  5
1EAA
  8
0
 62
     0
 10
318.87980407277382
 20
292.62692888703378
 30
0.0
 11
318.87980407277382
 21
292.62692888703378
 31
0.0
  0
LINE
  5
1EAB
  8
0
 62
     0
 10
318.24480407277377
 20
292.62692888703378
 30
0.0
 11
318.24480407277377
 21
292.62692888703378
 31
0.0
  0
LINE
  5
1EAC
  8
0
 62
     0
 10
317.60980407277378
 20
292.62692888703378
 30
0.0
 11
317.60980407277378
 21
292.62692888703378
 31
0.0
  0
LINE
  5
1EAD
  8
0
 62
     0
 10
316.97480407277379
 20
292.62692888703378
 30
0.0
 11
316.97480407277379
 21
292.62692888703378
 31
0.0
  0
LINE
  5
1EAE
  8
0
 62
     0
 10
316.3398040727738
 20
292.62692888703378
 30
0.0
 11
316.3398040727738
 21
292.62692888703378
 31
0.0
  0
LINE
  5
1EAF
  8
0
 62
     0
 10
315.70480407277381
 20
292.62692888703378
 30
0.0
 11
315.70480407277381
 21
292.62692888703378
 31
0.0
  0
LINE
  5
1EB0
  8
0
 62
     0
 10
315.06980407277382
 20
292.62692888703378
 30
0.0
 11
315.06980407277382
 21
292.62692888703378
 31
0.0
  0
LINE
  5
1EB1
  8
0
 62
     0
 10
314.43480407277377
 20
292.62692888703378
 30
0.0
 11
314.43480407277377
 21
292.62692888703378
 31
0.0
  0
LINE
  5
1EB2
  8
0
 62
     0
 10
313.7998040727739
 20
292.62692888703378
 30
0.0
 11
313.7998040727739
 21
292.62692888703378
 31
0.0
  0
LINE
  5
1EB3
  8
0
 62
     0
 10
313.1648040727739
 20
292.62692888703378
 30
0.0
 11
313.1648040727739
 21
292.62692888703378
 31
0.0
  0
LINE
  5
1EB4
  8
0
 62
     0
 10
312.5298040727738
 20
292.62692888703378
 30
0.0
 11
312.5298040727738
 21
292.62692888703378
 31
0.0
  0
LINE
  5
1EB5
  8
0
 62
     0
 10
311.89480407277392
 20
292.62692888703378
 30
0.0
 11
311.89480407277392
 21
292.62692888703378
 31
0.0
  0
LINE
  5
1EB6
  8
0
 62
     0
 10
311.25980407277387
 20
292.62692888703378
 30
0.0
 11
311.25980407277387
 21
292.62692888703378
 31
0.0
  0
LINE
  5
1EB7
  8
0
 62
     0
 10
310.62480407277388
 20
292.62692888703378
 30
0.0
 11
310.62480407277388
 21
292.62692888703378
 31
0.0
  0
LINE
  5
1EB8
  8
0
 62
     0
 10
309.98980407277389
 20
292.62692888703378
 30
0.0
 11
309.98980407277389
 21
292.62692888703378
 31
0.0
  0
LINE
  5
1EB9
  8
0
 62
     0
 10
309.3548040727739
 20
292.62692888703378
 30
0.0
 11
309.3548040727739
 21
292.62692888703378
 31
0.0
  0
LINE
  5
1EBA
  8
0
 62
     0
 10
308.71980407277391
 20
292.62692888703378
 30
0.0
 11
308.71980407277391
 21
292.62692888703378
 31
0.0
  0
LINE
  5
1EBB
  8
0
 62
     0
 10
308.08480407277392
 20
292.62692888703378
 30
0.0
 11
308.08480407277392
 21
292.62692888703378
 31
0.0
  0
LINE
  5
1EBC
  8
0
 62
     0
 10
307.44980407277399
 20
292.62692888703378
 30
0.0
 11
307.44980407277399
 21
292.62692888703378
 31
0.0
  0
LINE
  5
1EBD
  8
0
 62
     0
 10
297.28980407277368
 20
292.62692888703378
 30
0.0
 11
297.28980407277368
 21
292.62692888703378
 31
0.0
  0
LINE
  5
1EBE
  8
0
 62
     0
 10
296.65480407277369
 20
292.62692888703378
 30
0.0
 11
296.65480407277369
 21
292.62692888703378
 31
0.0
  0
LINE
  5
1EBF
  8
0
 62
     0
 10
296.0198040727737
 20
292.62692888703378
 30
0.0
 11
296.0198040727737
 21
292.62692888703378
 31
0.0
  0
LINE
  5
1EC0
  8
0
 62
     0
 10
295.3848040727737
 20
292.62692888703378
 30
0.0
 11
295.3848040727737
 21
292.62692888703378
 31
0.0
  0
LINE
  5
1EC1
  8
0
 62
     0
 10
294.74980407277371
 20
292.62692888703378
 30
0.0
 11
294.74980407277371
 21
292.62692888703378
 31
0.0
  0
LINE
  5
1EC2
  8
0
 62
     0
 10
294.11480407277372
 20
292.62692888703378
 30
0.0
 11
294.11480407277372
 21
292.62692888703378
 31
0.0
  0
LINE
  5
1EC3
  8
0
 62
     0
 10
293.47980407277367
 20
292.62692888703378
 30
0.0
 11
293.47980407277367
 21
292.62692888703378
 31
0.0
  0
LINE
  5
1EC4
  8
0
 62
     0
 10
292.8448040727738
 20
292.62692888703378
 30
0.0
 11
292.8448040727738
 21
292.62692888703378
 31
0.0
  0
LINE
  5
1EC5
  8
0
 62
     0
 10
292.20980407277381
 20
292.62692888703378
 30
0.0
 11
292.20980407277381
 21
292.62692888703378
 31
0.0
  0
LINE
  5
1EC6
  8
0
 62
     0
 10
291.57480407277382
 20
292.62692888703378
 30
0.0
 11
291.57480407277382
 21
292.62692888703378
 31
0.0
  0
LINE
  5
1EC7
  8
0
 62
     0
 10
290.93980407277371
 20
292.62692888703378
 30
0.0
 11
290.93980407277371
 21
292.62692888703378
 31
0.0
  0
LINE
  5
1EC8
  8
0
 62
     0
 10
290.30480407277378
 20
292.62692888703378
 30
0.0
 11
290.30480407277378
 21
292.62692888703378
 31
0.0
  0
LINE
  5
1EC9
  8
0
 62
     0
 10
289.66980407277379
 20
292.62692888703378
 30
0.0
 11
289.66980407277379
 21
292.62692888703378
 31
0.0
  0
LINE
  5
1ECA
  8
0
 62
     0
 10
289.0348040727738
 20
292.62692888703378
 30
0.0
 11
289.0348040727738
 21
292.62692888703378
 31
0.0
  0
LINE
  5
1ECB
  8
0
 62
     0
 10
288.3998040727738
 20
292.62692888703378
 30
0.0
 11
288.3998040727738
 21
292.62692888703378
 31
0.0
  0
LINE
  5
1ECC
  8
0
 62
     0
 10
287.76480407277381
 20
292.62692888703378
 30
0.0
 11
287.76480407277381
 21
292.62692888703378
 31
0.0
  0
LINE
  5
1ECD
  8
0
 62
     0
 10
287.12980407277382
 20
292.62692888703378
 30
0.0
 11
287.12980407277382
 21
292.62692888703378
 31
0.0
  0
LINE
  5
1ECE
  8
0
 62
     0
 10
286.49480407277389
 20
292.62692888703378
 30
0.0
 11
286.49480407277389
 21
292.62692888703378
 31
0.0
  0
LINE
  5
1ECF
  8
0
 62
     0
 10
285.85980407277378
 20
292.62692888703378
 30
0.0
 11
285.85980407277378
 21
292.62692888703378
 31
0.0
  0
LINE
  5
1ED0
  8
0
 62
     0
 10
285.22480407277379
 20
292.62692888703378
 30
0.0
 11
285.22480407277379
 21
292.62692888703378
 31
0.0
  0
LINE
  5
1ED1
  8
0
 62
     0
 10
284.58980407277392
 20
292.62692888703378
 30
0.0
 11
284.58980407277392
 21
292.62692888703378
 31
0.0
  0
LINE
  5
1ED2
  8
0
 62
     0
 10
283.95480407277392
 20
292.62692888703378
 30
0.0
 11
283.95480407277392
 21
292.62692888703378
 31
0.0
  0
LINE
  5
1ED3
  8
0
 62
     0
 10
283.31980407277388
 20
292.62692888703378
 30
0.0
 11
283.31980407277388
 21
292.62692888703378
 31
0.0
  0
LINE
  5
1ED4
  8
0
 62
     0
 10
282.68480407277389
 20
292.62692888703378
 30
0.0
 11
282.68480407277389
 21
292.62692888703378
 31
0.0
  0
LINE
  5
1ED5
  8
0
 62
     0
 10
282.0498040727739
 20
292.62692888703378
 30
0.0
 11
282.0498040727739
 21
292.62692888703378
 31
0.0
  0
LINE
  5
1ED6
  8
0
 62
     0
 10
281.4148040727739
 20
292.62692888703378
 30
0.0
 11
281.4148040727739
 21
292.62692888703378
 31
0.0
  0
LINE
  5
1ED7
  8
0
 62
     0
 10
280.77980407277391
 20
292.62692888703378
 30
0.0
 11
280.77980407277391
 21
292.62692888703378
 31
0.0
  0
LINE
  5
1ED8
  8
0
 62
     0
 10
280.14480407277392
 20
292.62692888703378
 30
0.0
 11
280.14480407277392
 21
292.62692888703378
 31
0.0
  0
LINE
  5
1ED9
  8
0
 62
     0
 10
279.50980407277387
 20
292.62692888703378
 30
0.0
 11
279.50980407277387
 21
292.62692888703378
 31
0.0
  0
LINE
  5
1EDA
  8
0
 62
     0
 10
278.87480407277388
 20
292.62692888703378
 30
0.0
 11
278.87480407277388
 21
292.62692888703378
 31
0.0
  0
LINE
  5
1EDB
  8
0
 62
     0
 10
278.23980407277389
 20
292.62692888703378
 30
0.0
 11
278.23980407277389
 21
292.62692888703378
 31
0.0
  0
LINE
  5
1EDC
  8
0
 62
     0
 10
277.60480407277402
 20
292.62692888703378
 30
0.0
 11
277.60480407277402
 21
292.62692888703378
 31
0.0
  0
LINE
  5
1EDD
  8
0
 62
     0
 10
326.81730407277382
 20
293.26192888703378
 30
0.0
 11
326.81730407277382
 21
293.26192888703378
 31
0.0
  0
LINE
  5
1EDE
  8
0
 62
     0
 10
326.18230407277377
 20
293.26192888703378
 30
0.0
 11
326.18230407277377
 21
293.26192888703378
 31
0.0
  0
LINE
  5
1EDF
  8
0
 62
     0
 10
325.54730407277378
 20
293.26192888703378
 30
0.0
 11
325.54730407277378
 21
293.26192888703378
 31
0.0
  0
LINE
  5
1EE0
  8
0
 62
     0
 10
324.91230407277379
 20
293.26192888703378
 30
0.0
 11
324.91230407277379
 21
293.26192888703378
 31
0.0
  0
LINE
  5
1EE1
  8
0
 62
     0
 10
324.27730407277392
 20
293.26192888703378
 30
0.0
 11
324.27730407277392
 21
293.26192888703378
 31
0.0
  0
LINE
  5
1EE2
  8
0
 62
     0
 10
323.64230407277392
 20
293.26192888703378
 30
0.0
 11
323.64230407277392
 21
293.26192888703378
 31
0.0
  0
LINE
  5
1EE3
  8
0
 62
     0
 10
323.00730407277388
 20
293.26192888703378
 30
0.0
 11
323.00730407277388
 21
293.26192888703378
 31
0.0
  0
LINE
  5
1EE4
  8
0
 62
     0
 10
322.37230407277389
 20
293.26192888703378
 30
0.0
 11
322.37230407277389
 21
293.26192888703378
 31
0.0
  0
LINE
  5
1EE5
  8
0
 62
     0
 10
321.7373040727739
 20
293.26192888703378
 30
0.0
 11
321.7373040727739
 21
293.26192888703378
 31
0.0
  0
LINE
  5
1EE6
  8
0
 62
     0
 10
321.1023040727739
 20
293.26192888703378
 30
0.0
 11
321.1023040727739
 21
293.26192888703378
 31
0.0
  0
LINE
  5
1EE7
  8
0
 62
     0
 10
320.46730407277391
 20
293.26192888703378
 30
0.0
 11
320.46730407277391
 21
293.26192888703378
 31
0.0
  0
LINE
  5
1EE8
  8
0
 62
     0
 10
319.83230407277392
 20
293.26192888703378
 30
0.0
 11
319.83230407277392
 21
293.26192888703378
 31
0.0
  0
LINE
  5
1EE9
  8
0
 62
     0
 10
319.19730407277387
 20
293.26192888703378
 30
0.0
 11
319.19730407277387
 21
293.26192888703378
 31
0.0
  0
LINE
  5
1EEA
  8
0
 62
     0
 10
318.56230407277388
 20
293.26192888703378
 30
0.0
 11
318.56230407277388
 21
293.26192888703378
 31
0.0
  0
LINE
  5
1EEB
  8
0
 62
     0
 10
317.92730407277401
 20
293.26192888703378
 30
0.0
 11
317.92730407277401
 21
293.26192888703378
 31
0.0
  0
LINE
  5
1EEC
  8
0
 62
     0
 10
286.81230407277383
 20
293.26192888703378
 30
0.0
 11
286.81230407277383
 21
293.26192888703378
 31
0.0
  0
LINE
  5
1EED
  8
0
 62
     0
 10
286.17730407277378
 20
293.26192888703378
 30
0.0
 11
286.17730407277378
 21
293.26192888703378
 31
0.0
  0
LINE
  5
1EEE
  8
0
 62
     0
 10
285.5423040727739
 20
293.26192888703378
 30
0.0
 11
285.5423040727739
 21
293.26192888703378
 31
0.0
  0
LINE
  5
1EEF
  8
0
 62
     0
 10
284.90730407277391
 20
293.26192888703378
 30
0.0
 11
284.90730407277391
 21
293.26192888703378
 31
0.0
  0
LINE
  5
1EF0
  8
0
 62
     0
 10
284.27230407277392
 20
293.26192888703378
 30
0.0
 11
284.27230407277392
 21
293.26192888703378
 31
0.0
  0
LINE
  5
1EF1
  8
0
 62
     0
 10
283.63730407277387
 20
293.26192888703378
 30
0.0
 11
283.63730407277387
 21
293.26192888703378
 31
0.0
  0
LINE
  5
1EF2
  8
0
 62
     0
 10
283.00230407277388
 20
293.26192888703378
 30
0.0
 11
283.00230407277388
 21
293.26192888703378
 31
0.0
  0
LINE
  5
1EF3
  8
0
 62
     0
 10
282.36730407277389
 20
293.26192888703378
 30
0.0
 11
282.36730407277389
 21
293.26192888703378
 31
0.0
  0
LINE
  5
1EF4
  8
0
 62
     0
 10
281.7323040727739
 20
293.26192888703378
 30
0.0
 11
281.7323040727739
 21
293.26192888703378
 31
0.0
  0
LINE
  5
1EF5
  8
0
 62
     0
 10
281.09730407277391
 20
293.26192888703378
 30
0.0
 11
281.09730407277391
 21
293.26192888703378
 31
0.0
  0
LINE
  5
1EF6
  8
0
 62
     0
 10
280.46230407277392
 20
293.26192888703378
 30
0.0
 11
280.46230407277392
 21
293.26192888703378
 31
0.0
  0
LINE
  5
1EF7
  8
0
 62
     0
 10
279.82730407277393
 20
293.26192888703378
 30
0.0
 11
279.82730407277393
 21
293.26192888703378
 31
0.0
  0
LINE
  5
1EF8
  8
0
 62
     0
 10
279.19230407277399
 20
293.26192888703378
 30
0.0
 11
279.19230407277399
 21
293.26192888703378
 31
0.0
  0
LINE
  5
1EF9
  8
0
 62
     0
 10
278.557304072774
 20
293.26192888703378
 30
0.0
 11
278.557304072774
 21
293.26192888703378
 31
0.0
  0
LINE
  5
1EFA
  8
0
 62
     0
 10
277.9223040727739
 20
293.26192888703378
 30
0.0
 11
277.9223040727739
 21
293.26192888703378
 31
0.0
  0
LINE
  5
1EFB
  8
0
 62
     0
 10
327.13480407277382
 20
293.89692888703388
 30
0.0
 11
327.13480407277382
 21
293.89692888703388
 31
0.0
  0
LINE
  5
1EFC
  8
0
 62
     0
 10
326.49980407277383
 20
293.89692888703388
 30
0.0
 11
326.49980407277383
 21
293.89692888703388
 31
0.0
  0
LINE
  5
1EFD
  8
0
 62
     0
 10
325.86480407277378
 20
293.89692888703388
 30
0.0
 11
325.86480407277378
 21
293.89692888703388
 31
0.0
  0
LINE
  5
1EFE
  8
0
 62
     0
 10
325.2298040727739
 20
293.89692888703388
 30
0.0
 11
325.2298040727739
 21
293.89692888703388
 31
0.0
  0
LINE
  5
1EFF
  8
0
 62
     0
 10
324.59480407277391
 20
293.89692888703388
 30
0.0
 11
324.59480407277391
 21
293.89692888703388
 31
0.0
  0
LINE
  5
1F00
  8
0
 62
     0
 10
323.95980407277381
 20
293.89692888703388
 30
0.0
 11
323.95980407277381
 21
293.89692888703388
 31
0.0
  0
LINE
  5
1F01
  8
0
 62
     0
 10
323.32480407277387
 20
293.89692888703388
 30
0.0
 11
323.32480407277387
 21
293.89692888703388
 31
0.0
  0
LINE
  5
1F02
  8
0
 62
     0
 10
322.68980407277388
 20
293.89692888703388
 30
0.0
 11
322.68980407277388
 21
293.89692888703388
 31
0.0
  0
LINE
  5
1F03
  8
0
 62
     0
 10
322.05480407277389
 20
293.89692888703388
 30
0.0
 11
322.05480407277389
 21
293.89692888703388
 31
0.0
  0
LINE
  5
1F04
  8
0
 62
     0
 10
321.4198040727739
 20
293.89692888703388
 30
0.0
 11
321.4198040727739
 21
293.89692888703388
 31
0.0
  0
LINE
  5
1F05
  8
0
 62
     0
 10
320.78480407277391
 20
293.89692888703388
 30
0.0
 11
320.78480407277391
 21
293.89692888703388
 31
0.0
  0
LINE
  5
1F06
  8
0
 62
     0
 10
320.14980407277392
 20
293.89692888703388
 30
0.0
 11
320.14980407277392
 21
293.89692888703388
 31
0.0
  0
LINE
  5
1F07
  8
0
 62
     0
 10
319.51480407277393
 20
293.89692888703388
 30
0.0
 11
319.51480407277393
 21
293.89692888703388
 31
0.0
  0
LINE
  5
1F08
  8
0
 62
     0
 10
318.87980407277399
 20
293.89692888703388
 30
0.0
 11
318.87980407277399
 21
293.89692888703388
 31
0.0
  0
LINE
  5
1F09
  8
0
 62
     0
 10
318.24480407277389
 20
293.89692888703388
 30
0.0
 11
318.24480407277389
 21
293.89692888703388
 31
0.0
  0
LINE
  5
1F0A
  8
0
 62
     0
 10
286.49480407277389
 20
293.89692888703388
 30
0.0
 11
286.49480407277389
 21
293.89692888703388
 31
0.0
  0
LINE
  5
1F0B
  8
0
 62
     0
 10
285.85980407277378
 20
293.89692888703388
 30
0.0
 11
285.85980407277378
 21
293.89692888703388
 31
0.0
  0
LINE
  5
1F0C
  8
0
 62
     0
 10
285.22480407277379
 20
293.89692888703388
 30
0.0
 11
285.22480407277379
 21
293.89692888703388
 31
0.0
  0
LINE
  5
1F0D
  8
0
 62
     0
 10
284.58980407277392
 20
293.89692888703388
 30
0.0
 11
284.58980407277392
 21
293.89692888703388
 31
0.0
  0
LINE
  5
1F0E
  8
0
 62
     0
 10
283.95480407277392
 20
293.89692888703388
 30
0.0
 11
283.95480407277392
 21
293.89692888703388
 31
0.0
  0
LINE
  5
1F0F
  8
0
 62
     0
 10
283.31980407277388
 20
293.89692888703388
 30
0.0
 11
283.31980407277388
 21
293.89692888703388
 31
0.0
  0
LINE
  5
1F10
  8
0
 62
     0
 10
282.68480407277389
 20
293.89692888703388
 30
0.0
 11
282.68480407277389
 21
293.89692888703388
 31
0.0
  0
LINE
  5
1F11
  8
0
 62
     0
 10
282.0498040727739
 20
293.89692888703388
 30
0.0
 11
282.0498040727739
 21
293.89692888703388
 31
0.0
  0
LINE
  5
1F12
  8
0
 62
     0
 10
281.4148040727739
 20
293.89692888703388
 30
0.0
 11
281.4148040727739
 21
293.89692888703388
 31
0.0
  0
LINE
  5
1F13
  8
0
 62
     0
 10
280.77980407277391
 20
293.89692888703388
 30
0.0
 11
280.77980407277391
 21
293.89692888703388
 31
0.0
  0
LINE
  5
1F14
  8
0
 62
     0
 10
280.14480407277392
 20
293.89692888703388
 30
0.0
 11
280.14480407277392
 21
293.89692888703388
 31
0.0
  0
LINE
  5
1F15
  8
0
 62
     0
 10
279.50980407277387
 20
293.89692888703388
 30
0.0
 11
279.50980407277387
 21
293.89692888703388
 31
0.0
  0
LINE
  5
1F16
  8
0
 62
     0
 10
278.87480407277388
 20
293.89692888703388
 30
0.0
 11
278.87480407277388
 21
293.89692888703388
 31
0.0
  0
LINE
  5
1F17
  8
0
 62
     0
 10
278.23980407277389
 20
293.89692888703388
 30
0.0
 11
278.23980407277389
 21
293.89692888703388
 31
0.0
  0
LINE
  5
1F18
  8
0
 62
     0
 10
277.60480407277402
 20
293.89692888703388
 30
0.0
 11
277.60480407277402
 21
293.89692888703388
 31
0.0
  0
LINE
  5
1F19
  8
0
 62
     0
 10
326.81730407277382
 20
294.53192888703381
 30
0.0
 11
326.81730407277382
 21
294.53192888703381
 31
0.0
  0
LINE
  5
1F1A
  8
0
 62
     0
 10
326.18230407277377
 20
294.53192888703381
 30
0.0
 11
326.18230407277377
 21
294.53192888703381
 31
0.0
  0
LINE
  5
1F1B
  8
0
 62
     0
 10
325.54730407277378
 20
294.53192888703381
 30
0.0
 11
325.54730407277378
 21
294.53192888703381
 31
0.0
  0
LINE
  5
1F1C
  8
0
 62
     0
 10
324.91230407277379
 20
294.53192888703381
 30
0.0
 11
324.91230407277379
 21
294.53192888703381
 31
0.0
  0
LINE
  5
1F1D
  8
0
 62
     0
 10
324.27730407277392
 20
294.53192888703381
 30
0.0
 11
324.27730407277392
 21
294.53192888703381
 31
0.0
  0
LINE
  5
1F1E
  8
0
 62
     0
 10
323.64230407277392
 20
294.53192888703381
 30
0.0
 11
323.64230407277392
 21
294.53192888703381
 31
0.0
  0
LINE
  5
1F1F
  8
0
 62
     0
 10
323.00730407277388
 20
294.53192888703381
 30
0.0
 11
323.00730407277388
 21
294.53192888703381
 31
0.0
  0
LINE
  5
1F20
  8
0
 62
     0
 10
322.37230407277389
 20
294.53192888703381
 30
0.0
 11
322.37230407277389
 21
294.53192888703381
 31
0.0
  0
LINE
  5
1F21
  8
0
 62
     0
 10
321.7373040727739
 20
294.53192888703381
 30
0.0
 11
321.7373040727739
 21
294.53192888703381
 31
0.0
  0
LINE
  5
1F22
  8
0
 62
     0
 10
321.1023040727739
 20
294.53192888703381
 30
0.0
 11
321.1023040727739
 21
294.53192888703381
 31
0.0
  0
LINE
  5
1F23
  8
0
 62
     0
 10
320.46730407277391
 20
294.53192888703381
 30
0.0
 11
320.46730407277391
 21
294.53192888703381
 31
0.0
  0
LINE
  5
1F24
  8
0
 62
     0
 10
319.83230407277392
 20
294.53192888703381
 30
0.0
 11
319.83230407277392
 21
294.53192888703381
 31
0.0
  0
LINE
  5
1F25
  8
0
 62
     0
 10
319.19730407277387
 20
294.53192888703381
 30
0.0
 11
319.19730407277387
 21
294.53192888703381
 31
0.0
  0
LINE
  5
1F26
  8
0
 62
     0
 10
318.56230407277388
 20
294.53192888703381
 30
0.0
 11
318.56230407277388
 21
294.53192888703381
 31
0.0
  0
LINE
  5
1F27
  8
0
 62
     0
 10
317.92730407277401
 20
294.53192888703381
 30
0.0
 11
317.92730407277401
 21
294.53192888703381
 31
0.0
  0
LINE
  5
1F28
  8
0
 62
     0
 10
286.81230407277383
 20
294.53192888703381
 30
0.0
 11
286.81230407277383
 21
294.53192888703381
 31
0.0
  0
LINE
  5
1F29
  8
0
 62
     0
 10
286.17730407277378
 20
294.53192888703381
 30
0.0
 11
286.17730407277378
 21
294.53192888703381
 31
0.0
  0
LINE
  5
1F2A
  8
0
 62
     0
 10
285.5423040727739
 20
294.53192888703381
 30
0.0
 11
285.5423040727739
 21
294.53192888703381
 31
0.0
  0
LINE
  5
1F2B
  8
0
 62
     0
 10
284.90730407277391
 20
294.53192888703381
 30
0.0
 11
284.90730407277391
 21
294.53192888703381
 31
0.0
  0
LINE
  5
1F2C
  8
0
 62
     0
 10
284.27230407277392
 20
294.53192888703381
 30
0.0
 11
284.27230407277392
 21
294.53192888703381
 31
0.0
  0
LINE
  5
1F2D
  8
0
 62
     0
 10
283.63730407277387
 20
294.53192888703381
 30
0.0
 11
283.63730407277387
 21
294.53192888703381
 31
0.0
  0
LINE
  5
1F2E
  8
0
 62
     0
 10
283.00230407277388
 20
294.53192888703381
 30
0.0
 11
283.00230407277388
 21
294.53192888703381
 31
0.0
  0
LINE
  5
1F2F
  8
0
 62
     0
 10
282.36730407277389
 20
294.53192888703381
 30
0.0
 11
282.36730407277389
 21
294.53192888703381
 31
0.0
  0
LINE
  5
1F30
  8
0
 62
     0
 10
281.7323040727739
 20
294.53192888703381
 30
0.0
 11
281.7323040727739
 21
294.53192888703381
 31
0.0
  0
LINE
  5
1F31
  8
0
 62
     0
 10
281.09730407277391
 20
294.53192888703381
 30
0.0
 11
281.09730407277391
 21
294.53192888703381
 31
0.0
  0
LINE
  5
1F32
  8
0
 62
     0
 10
280.46230407277392
 20
294.53192888703381
 30
0.0
 11
280.46230407277392
 21
294.53192888703381
 31
0.0
  0
LINE
  5
1F33
  8
0
 62
     0
 10
279.82730407277393
 20
294.53192888703381
 30
0.0
 11
279.82730407277393
 21
294.53192888703381
 31
0.0
  0
LINE
  5
1F34
  8
0
 62
     0
 10
279.19230407277399
 20
294.53192888703381
 30
0.0
 11
279.19230407277399
 21
294.53192888703381
 31
0.0
  0
LINE
  5
1F35
  8
0
 62
     0
 10
278.557304072774
 20
294.53192888703381
 30
0.0
 11
278.557304072774
 21
294.53192888703381
 31
0.0
  0
LINE
  5
1F36
  8
0
 62
     0
 10
277.9223040727739
 20
294.53192888703381
 30
0.0
 11
277.9223040727739
 21
294.53192888703381
 31
0.0
  0
LINE
  5
1F37
  8
0
 62
     0
 10
327.13480407277382
 20
298.97692888703381
 30
0.0
 11
327.13480407277382
 21
298.97692888703381
 31
0.0
  0
LINE
  5
1F38
  8
0
 62
     0
 10
326.49980407277383
 20
298.97692888703381
 30
0.0
 11
326.49980407277383
 21
298.97692888703381
 31
0.0
  0
LINE
  5
1F39
  8
0
 62
     0
 10
325.86480407277378
 20
298.97692888703381
 30
0.0
 11
325.86480407277378
 21
298.97692888703381
 31
0.0
  0
LINE
  5
1F3A
  8
0
 62
     0
 10
325.2298040727739
 20
298.97692888703381
 30
0.0
 11
325.2298040727739
 21
298.97692888703381
 31
0.0
  0
LINE
  5
1F3B
  8
0
 62
     0
 10
324.59480407277391
 20
298.97692888703381
 30
0.0
 11
324.59480407277391
 21
298.97692888703381
 31
0.0
  0
LINE
  5
1F3C
  8
0
 62
     0
 10
323.95980407277381
 20
298.97692888703381
 30
0.0
 11
323.95980407277381
 21
298.97692888703381
 31
0.0
  0
LINE
  5
1F3D
  8
0
 62
     0
 10
323.32480407277387
 20
298.97692888703381
 30
0.0
 11
323.32480407277387
 21
298.97692888703381
 31
0.0
  0
LINE
  5
1F3E
  8
0
 62
     0
 10
322.68980407277388
 20
298.97692888703381
 30
0.0
 11
322.68980407277388
 21
298.97692888703381
 31
0.0
  0
LINE
  5
1F3F
  8
0
 62
     0
 10
322.05480407277389
 20
298.97692888703381
 30
0.0
 11
322.05480407277389
 21
298.97692888703381
 31
0.0
  0
LINE
  5
1F40
  8
0
 62
     0
 10
321.4198040727739
 20
298.97692888703381
 30
0.0
 11
321.4198040727739
 21
298.97692888703381
 31
0.0
  0
LINE
  5
1F41
  8
0
 62
     0
 10
320.78480407277391
 20
298.97692888703381
 30
0.0
 11
320.78480407277391
 21
298.97692888703381
 31
0.0
  0
LINE
  5
1F42
  8
0
 62
     0
 10
320.14980407277392
 20
298.97692888703381
 30
0.0
 11
320.14980407277392
 21
298.97692888703381
 31
0.0
  0
LINE
  5
1F43
  8
0
 62
     0
 10
319.51480407277393
 20
298.97692888703381
 30
0.0
 11
319.51480407277393
 21
298.97692888703381
 31
0.0
  0
LINE
  5
1F44
  8
0
 62
     0
 10
318.87980407277399
 20
298.97692888703381
 30
0.0
 11
318.87980407277399
 21
298.97692888703381
 31
0.0
  0
LINE
  5
1F45
  8
0
 62
     0
 10
318.24480407277389
 20
298.97692888703381
 30
0.0
 11
318.24480407277389
 21
298.97692888703381
 31
0.0
  0
LINE
  5
1F46
  8
0
 62
     0
 10
286.49480407277389
 20
298.97692888703381
 30
0.0
 11
286.49480407277389
 21
298.97692888703381
 31
0.0
  0
LINE
  5
1F47
  8
0
 62
     0
 10
285.85980407277378
 20
298.97692888703381
 30
0.0
 11
285.85980407277378
 21
298.97692888703381
 31
0.0
  0
LINE
  5
1F48
  8
0
 62
     0
 10
285.22480407277379
 20
298.97692888703381
 30
0.0
 11
285.22480407277379
 21
298.97692888703381
 31
0.0
  0
LINE
  5
1F49
  8
0
 62
     0
 10
284.58980407277392
 20
298.97692888703381
 30
0.0
 11
284.58980407277392
 21
298.97692888703381
 31
0.0
  0
LINE
  5
1F4A
  8
0
 62
     0
 10
283.95480407277392
 20
298.97692888703381
 30
0.0
 11
283.95480407277392
 21
298.97692888703381
 31
0.0
  0
LINE
  5
1F4B
  8
0
 62
     0
 10
283.31980407277388
 20
298.97692888703381
 30
0.0
 11
283.31980407277388
 21
298.97692888703381
 31
0.0
  0
LINE
  5
1F4C
  8
0
 62
     0
 10
282.68480407277389
 20
298.97692888703381
 30
0.0
 11
282.68480407277389
 21
298.97692888703381
 31
0.0
  0
LINE
  5
1F4D
  8
0
 62
     0
 10
282.0498040727739
 20
298.97692888703381
 30
0.0
 11
282.0498040727739
 21
298.97692888703381
 31
0.0
  0
LINE
  5
1F4E
  8
0
 62
     0
 10
281.4148040727739
 20
298.97692888703381
 30
0.0
 11
281.4148040727739
 21
298.97692888703381
 31
0.0
  0
LINE
  5
1F4F
  8
0
 62
     0
 10
280.77980407277391
 20
298.97692888703381
 30
0.0
 11
280.77980407277391
 21
298.97692888703381
 31
0.0
  0
LINE
  5
1F50
  8
0
 62
     0
 10
280.14480407277392
 20
298.97692888703381
 30
0.0
 11
280.14480407277392
 21
298.97692888703381
 31
0.0
  0
LINE
  5
1F51
  8
0
 62
     0
 10
279.50980407277387
 20
298.97692888703381
 30
0.0
 11
279.50980407277387
 21
298.97692888703381
 31
0.0
  0
LINE
  5
1F52
  8
0
 62
     0
 10
278.87480407277388
 20
298.97692888703381
 30
0.0
 11
278.87480407277388
 21
298.97692888703381
 31
0.0
  0
LINE
  5
1F53
  8
0
 62
     0
 10
278.23980407277389
 20
298.97692888703381
 30
0.0
 11
278.23980407277389
 21
298.97692888703381
 31
0.0
  0
LINE
  5
1F54
  8
0
 62
     0
 10
277.60480407277402
 20
298.97692888703381
 30
0.0
 11
277.60480407277402
 21
298.97692888703381
 31
0.0
  0
LINE
  5
1F55
  8
0
 62
     0
 10
326.81730407277382
 20
299.6119288870338
 30
0.0
 11
326.81730407277382
 21
299.6119288870338
 31
0.0
  0
LINE
  5
1F56
  8
0
 62
     0
 10
326.18230407277377
 20
299.6119288870338
 30
0.0
 11
326.18230407277377
 21
299.6119288870338
 31
0.0
  0
LINE
  5
1F57
  8
0
 62
     0
 10
325.54730407277378
 20
299.6119288870338
 30
0.0
 11
325.54730407277378
 21
299.6119288870338
 31
0.0
  0
LINE
  5
1F58
  8
0
 62
     0
 10
324.91230407277379
 20
299.6119288870338
 30
0.0
 11
324.91230407277379
 21
299.6119288870338
 31
0.0
  0
LINE
  5
1F59
  8
0
 62
     0
 10
324.27730407277392
 20
299.6119288870338
 30
0.0
 11
324.27730407277392
 21
299.6119288870338
 31
0.0
  0
LINE
  5
1F5A
  8
0
 62
     0
 10
323.64230407277392
 20
299.6119288870338
 30
0.0
 11
323.64230407277392
 21
299.6119288870338
 31
0.0
  0
LINE
  5
1F5B
  8
0
 62
     0
 10
323.00730407277388
 20
299.6119288870338
 30
0.0
 11
323.00730407277388
 21
299.6119288870338
 31
0.0
  0
LINE
  5
1F5C
  8
0
 62
     0
 10
322.37230407277389
 20
299.6119288870338
 30
0.0
 11
322.37230407277389
 21
299.6119288870338
 31
0.0
  0
LINE
  5
1F5D
  8
0
 62
     0
 10
321.7373040727739
 20
299.6119288870338
 30
0.0
 11
321.7373040727739
 21
299.6119288870338
 31
0.0
  0
LINE
  5
1F5E
  8
0
 62
     0
 10
321.1023040727739
 20
299.6119288870338
 30
0.0
 11
321.1023040727739
 21
299.6119288870338
 31
0.0
  0
LINE
  5
1F5F
  8
0
 62
     0
 10
320.46730407277391
 20
299.6119288870338
 30
0.0
 11
320.46730407277391
 21
299.6119288870338
 31
0.0
  0
LINE
  5
1F60
  8
0
 62
     0
 10
319.83230407277392
 20
299.6119288870338
 30
0.0
 11
319.83230407277392
 21
299.6119288870338
 31
0.0
  0
LINE
  5
1F61
  8
0
 62
     0
 10
319.19730407277387
 20
299.6119288870338
 30
0.0
 11
319.19730407277387
 21
299.6119288870338
 31
0.0
  0
LINE
  5
1F62
  8
0
 62
     0
 10
318.56230407277388
 20
299.6119288870338
 30
0.0
 11
318.56230407277388
 21
299.6119288870338
 31
0.0
  0
LINE
  5
1F63
  8
0
 62
     0
 10
317.92730407277401
 20
299.6119288870338
 30
0.0
 11
317.92730407277401
 21
299.6119288870338
 31
0.0
  0
LINE
  5
1F64
  8
0
 62
     0
 10
286.81230407277383
 20
299.6119288870338
 30
0.0
 11
286.81230407277383
 21
299.6119288870338
 31
0.0
  0
LINE
  5
1F65
  8
0
 62
     0
 10
286.17730407277378
 20
299.6119288870338
 30
0.0
 11
286.17730407277378
 21
299.6119288870338
 31
0.0
  0
LINE
  5
1F66
  8
0
 62
     0
 10
285.5423040727739
 20
299.6119288870338
 30
0.0
 11
285.5423040727739
 21
299.6119288870338
 31
0.0
  0
LINE
  5
1F67
  8
0
 62
     0
 10
284.90730407277391
 20
299.6119288870338
 30
0.0
 11
284.90730407277391
 21
299.6119288870338
 31
0.0
  0
LINE
  5
1F68
  8
0
 62
     0
 10
284.27230407277392
 20
299.6119288870338
 30
0.0
 11
284.27230407277392
 21
299.6119288870338
 31
0.0
  0
LINE
  5
1F69
  8
0
 62
     0
 10
283.63730407277387
 20
299.6119288870338
 30
0.0
 11
283.63730407277387
 21
299.6119288870338
 31
0.0
  0
LINE
  5
1F6A
  8
0
 62
     0
 10
283.00230407277388
 20
299.6119288870338
 30
0.0
 11
283.00230407277388
 21
299.6119288870338
 31
0.0
  0
LINE
  5
1F6B
  8
0
 62
     0
 10
282.36730407277389
 20
299.6119288870338
 30
0.0
 11
282.36730407277389
 21
299.6119288870338
 31
0.0
  0
LINE
  5
1F6C
  8
0
 62
     0
 10
281.7323040727739
 20
299.6119288870338
 30
0.0
 11
281.7323040727739
 21
299.6119288870338
 31
0.0
  0
LINE
  5
1F6D
  8
0
 62
     0
 10
281.09730407277391
 20
299.6119288870338
 30
0.0
 11
281.09730407277391
 21
299.6119288870338
 31
0.0
  0
LINE
  5
1F6E
  8
0
 62
     0
 10
280.46230407277392
 20
299.6119288870338
 30
0.0
 11
280.46230407277392
 21
299.6119288870338
 31
0.0
  0
LINE
  5
1F6F
  8
0
 62
     0
 10
279.82730407277393
 20
299.6119288870338
 30
0.0
 11
279.82730407277393
 21
299.6119288870338
 31
0.0
  0
LINE
  5
1F70
  8
0
 62
     0
 10
279.19230407277399
 20
299.6119288870338
 30
0.0
 11
279.19230407277399
 21
299.6119288870338
 31
0.0
  0
LINE
  5
1F71
  8
0
 62
     0
 10
278.557304072774
 20
299.6119288870338
 30
0.0
 11
278.557304072774
 21
299.6119288870338
 31
0.0
  0
LINE
  5
1F72
  8
0
 62
     0
 10
277.9223040727739
 20
299.6119288870338
 30
0.0
 11
277.9223040727739
 21
299.6119288870338
 31
0.0
  0
LINE
  5
1F73
  8
0
 62
     0
 10
327.13480407277382
 20
300.24692888703379
 30
0.0
 11
327.13480407277382
 21
300.24692888703379
 31
0.0
  0
LINE
  5
1F74
  8
0
 62
     0
 10
326.49980407277383
 20
300.24692888703379
 30
0.0
 11
326.49980407277383
 21
300.24692888703379
 31
0.0
  0
LINE
  5
1F75
  8
0
 62
     0
 10
325.86480407277378
 20
300.24692888703379
 30
0.0
 11
325.86480407277378
 21
300.24692888703379
 31
0.0
  0
LINE
  5
1F76
  8
0
 62
     0
 10
325.2298040727739
 20
300.24692888703379
 30
0.0
 11
325.2298040727739
 21
300.24692888703379
 31
0.0
  0
LINE
  5
1F77
  8
0
 62
     0
 10
324.59480407277391
 20
300.24692888703379
 30
0.0
 11
324.59480407277391
 21
300.24692888703379
 31
0.0
  0
LINE
  5
1F78
  8
0
 62
     0
 10
323.95980407277381
 20
300.24692888703379
 30
0.0
 11
323.95980407277381
 21
300.24692888703379
 31
0.0
  0
LINE
  5
1F79
  8
0
 62
     0
 10
323.32480407277387
 20
300.24692888703379
 30
0.0
 11
323.32480407277387
 21
300.24692888703379
 31
0.0
  0
LINE
  5
1F7A
  8
0
 62
     0
 10
322.68980407277388
 20
300.24692888703379
 30
0.0
 11
322.68980407277388
 21
300.24692888703379
 31
0.0
  0
LINE
  5
1F7B
  8
0
 62
     0
 10
322.05480407277389
 20
300.24692888703379
 30
0.0
 11
322.05480407277389
 21
300.24692888703379
 31
0.0
  0
LINE
  5
1F7C
  8
0
 62
     0
 10
321.4198040727739
 20
300.24692888703379
 30
0.0
 11
321.4198040727739
 21
300.24692888703379
 31
0.0
  0
LINE
  5
1F7D
  8
0
 62
     0
 10
320.78480407277391
 20
300.24692888703379
 30
0.0
 11
320.78480407277391
 21
300.24692888703379
 31
0.0
  0
LINE
  5
1F7E
  8
0
 62
     0
 10
320.14980407277392
 20
300.24692888703379
 30
0.0
 11
320.14980407277392
 21
300.24692888703379
 31
0.0
  0
LINE
  5
1F7F
  8
0
 62
     0
 10
319.51480407277393
 20
300.24692888703379
 30
0.0
 11
319.51480407277393
 21
300.24692888703379
 31
0.0
  0
LINE
  5
1F80
  8
0
 62
     0
 10
318.87980407277399
 20
300.24692888703379
 30
0.0
 11
318.87980407277399
 21
300.24692888703379
 31
0.0
  0
LINE
  5
1F81
  8
0
 62
     0
 10
318.24480407277389
 20
300.24692888703379
 30
0.0
 11
318.24480407277389
 21
300.24692888703379
 31
0.0
  0
LINE
  5
1F82
  8
0
 62
     0
 10
286.49480407277389
 20
300.24692888703379
 30
0.0
 11
286.49480407277389
 21
300.24692888703379
 31
0.0
  0
LINE
  5
1F83
  8
0
 62
     0
 10
285.85980407277378
 20
300.24692888703379
 30
0.0
 11
285.85980407277378
 21
300.24692888703379
 31
0.0
  0
LINE
  5
1F84
  8
0
 62
     0
 10
285.22480407277379
 20
300.24692888703379
 30
0.0
 11
285.22480407277379
 21
300.24692888703379
 31
0.0
  0
LINE
  5
1F85
  8
0
 62
     0
 10
284.58980407277392
 20
300.24692888703379
 30
0.0
 11
284.58980407277392
 21
300.24692888703379
 31
0.0
  0
LINE
  5
1F86
  8
0
 62
     0
 10
283.95480407277392
 20
300.24692888703379
 30
0.0
 11
283.95480407277392
 21
300.24692888703379
 31
0.0
  0
LINE
  5
1F87
  8
0
 62
     0
 10
283.31980407277388
 20
300.24692888703379
 30
0.0
 11
283.31980407277388
 21
300.24692888703379
 31
0.0
  0
LINE
  5
1F88
  8
0
 62
     0
 10
282.68480407277389
 20
300.24692888703379
 30
0.0
 11
282.68480407277389
 21
300.24692888703379
 31
0.0
  0
LINE
  5
1F89
  8
0
 62
     0
 10
282.0498040727739
 20
300.24692888703379
 30
0.0
 11
282.0498040727739
 21
300.24692888703379
 31
0.0
  0
LINE
  5
1F8A
  8
0
 62
     0
 10
281.4148040727739
 20
300.24692888703379
 30
0.0
 11
281.4148040727739
 21
300.24692888703379
 31
0.0
  0
LINE
  5
1F8B
  8
0
 62
     0
 10
280.77980407277391
 20
300.24692888703379
 30
0.0
 11
280.77980407277391
 21
300.24692888703379
 31
0.0
  0
LINE
  5
1F8C
  8
0
 62
     0
 10
280.14480407277392
 20
300.24692888703379
 30
0.0
 11
280.14480407277392
 21
300.24692888703379
 31
0.0
  0
LINE
  5
1F8D
  8
0
 62
     0
 10
279.50980407277387
 20
300.24692888703379
 30
0.0
 11
279.50980407277387
 21
300.24692888703379
 31
0.0
  0
LINE
  5
1F8E
  8
0
 62
     0
 10
278.87480407277388
 20
300.24692888703379
 30
0.0
 11
278.87480407277388
 21
300.24692888703379
 31
0.0
  0
LINE
  5
1F8F
  8
0
 62
     0
 10
278.23980407277389
 20
300.24692888703379
 30
0.0
 11
278.23980407277389
 21
300.24692888703379
 31
0.0
  0
LINE
  5
1F90
  8
0
 62
     0
 10
277.60480407277402
 20
300.24692888703379
 30
0.0
 11
277.60480407277402
 21
300.24692888703379
 31
0.0
  0
LINE
  5
1F91
  8
0
 62
     0
 10
326.81730407277371
 20
300.88192888703378
 30
0.0
 11
326.81730407277371
 21
300.88192888703378
 31
0.0
  0
LINE
  5
1F92
  8
0
 62
     0
 10
326.18230407277372
 20
300.88192888703378
 30
0.0
 11
326.18230407277372
 21
300.88192888703378
 31
0.0
  0
LINE
  5
1F93
  8
0
 62
     0
 10
325.54730407277373
 20
300.88192888703378
 30
0.0
 11
325.54730407277373
 21
300.88192888703378
 31
0.0
  0
LINE
  5
1F94
  8
0
 62
     0
 10
324.91230407277368
 20
300.88192888703378
 30
0.0
 11
324.91230407277368
 21
300.88192888703378
 31
0.0
  0
LINE
  5
1F95
  8
0
 62
     0
 10
324.27730407277369
 20
300.88192888703378
 30
0.0
 11
324.27730407277369
 21
300.88192888703378
 31
0.0
  0
LINE
  5
1F96
  8
0
 62
     0
 10
323.6423040727737
 20
300.88192888703378
 30
0.0
 11
323.6423040727737
 21
300.88192888703378
 31
0.0
  0
LINE
  5
1F97
  8
0
 62
     0
 10
323.00730407277371
 20
300.88192888703378
 30
0.0
 11
323.00730407277371
 21
300.88192888703378
 31
0.0
  0
LINE
  5
1F98
  8
0
 62
     0
 10
322.37230407277372
 20
300.88192888703378
 30
0.0
 11
322.37230407277372
 21
300.88192888703378
 31
0.0
  0
LINE
  5
1F99
  8
0
 62
     0
 10
321.73730407277372
 20
300.88192888703378
 30
0.0
 11
321.73730407277372
 21
300.88192888703378
 31
0.0
  0
LINE
  5
1F9A
  8
0
 62
     0
 10
321.10230407277379
 20
300.88192888703378
 30
0.0
 11
321.10230407277379
 21
300.88192888703378
 31
0.0
  0
LINE
  5
1F9B
  8
0
 62
     0
 10
320.46730407277369
 20
300.88192888703378
 30
0.0
 11
320.46730407277369
 21
300.88192888703378
 31
0.0
  0
LINE
  5
1F9C
  8
0
 62
     0
 10
319.8323040727737
 20
300.88192888703378
 30
0.0
 11
319.8323040727737
 21
300.88192888703378
 31
0.0
  0
LINE
  5
1F9D
  8
0
 62
     0
 10
319.19730407277382
 20
300.88192888703378
 30
0.0
 11
319.19730407277382
 21
300.88192888703378
 31
0.0
  0
LINE
  5
1F9E
  8
0
 62
     0
 10
318.56230407277383
 20
300.88192888703378
 30
0.0
 11
318.56230407277383
 21
300.88192888703378
 31
0.0
  0
LINE
  5
1F9F
  8
0
 62
     0
 10
317.92730407277378
 20
300.88192888703378
 30
0.0
 11
317.92730407277378
 21
300.88192888703378
 31
0.0
  0
LINE
  5
1FA0
  8
0
 62
     0
 10
317.29230407277379
 20
300.88192888703378
 30
0.0
 11
317.29230407277379
 21
300.88192888703378
 31
0.0
  0
LINE
  5
1FA1
  8
0
 62
     0
 10
316.6573040727738
 20
300.88192888703378
 30
0.0
 11
316.6573040727738
 21
300.88192888703378
 31
0.0
  0
LINE
  5
1FA2
  8
0
 62
     0
 10
316.02230407277381
 20
300.88192888703378
 30
0.0
 11
316.02230407277381
 21
300.88192888703378
 31
0.0
  0
LINE
  5
1FA3
  8
0
 62
     0
 10
315.38730407277382
 20
300.88192888703378
 30
0.0
 11
315.38730407277382
 21
300.88192888703378
 31
0.0
  0
LINE
  5
1FA4
  8
0
 62
     0
 10
314.75230407277382
 20
300.88192888703378
 30
0.0
 11
314.75230407277382
 21
300.88192888703378
 31
0.0
  0
LINE
  5
1FA5
  8
0
 62
     0
 10
314.11730407277378
 20
300.88192888703378
 30
0.0
 11
314.11730407277378
 21
300.88192888703378
 31
0.0
  0
LINE
  5
1FA6
  8
0
 62
     0
 10
313.48230407277379
 20
300.88192888703378
 30
0.0
 11
313.48230407277379
 21
300.88192888703378
 31
0.0
  0
LINE
  5
1FA7
  8
0
 62
     0
 10
312.84730407277391
 20
300.88192888703378
 30
0.0
 11
312.84730407277391
 21
300.88192888703378
 31
0.0
  0
LINE
  5
1FA8
  8
0
 62
     0
 10
312.21230407277392
 20
300.88192888703378
 30
0.0
 11
312.21230407277392
 21
300.88192888703378
 31
0.0
  0
LINE
  5
1FA9
  8
0
 62
     0
 10
311.57730407277393
 20
300.88192888703378
 30
0.0
 11
311.57730407277393
 21
300.88192888703378
 31
0.0
  0
LINE
  5
1FAA
  8
0
 62
     0
 10
310.94230407277388
 20
300.88192888703378
 30
0.0
 11
310.94230407277388
 21
300.88192888703378
 31
0.0
  0
LINE
  5
1FAB
  8
0
 62
     0
 10
310.30730407277389
 20
300.88192888703378
 30
0.0
 11
310.30730407277389
 21
300.88192888703378
 31
0.0
  0
LINE
  5
1FAC
  8
0
 62
     0
 10
309.6723040727739
 20
300.88192888703378
 30
0.0
 11
309.6723040727739
 21
300.88192888703378
 31
0.0
  0
LINE
  5
1FAD
  8
0
 62
     0
 10
309.03730407277391
 20
300.88192888703378
 30
0.0
 11
309.03730407277391
 21
300.88192888703378
 31
0.0
  0
LINE
  5
1FAE
  8
0
 62
     0
 10
308.40230407277392
 20
300.88192888703378
 30
0.0
 11
308.40230407277392
 21
300.88192888703378
 31
0.0
  0
LINE
  5
1FAF
  8
0
 62
     0
 10
307.76730407277392
 20
300.88192888703378
 30
0.0
 11
307.76730407277392
 21
300.88192888703378
 31
0.0
  0
LINE
  5
1FB0
  8
0
 62
     0
 10
296.97230407277368
 20
300.88192888703378
 30
0.0
 11
296.97230407277368
 21
300.88192888703378
 31
0.0
  0
LINE
  5
1FB1
  8
0
 62
     0
 10
296.33730407277369
 20
300.88192888703378
 30
0.0
 11
296.33730407277369
 21
300.88192888703378
 31
0.0
  0
LINE
  5
1FB2
  8
0
 62
     0
 10
295.7023040727737
 20
300.88192888703378
 30
0.0
 11
295.7023040727737
 21
300.88192888703378
 31
0.0
  0
LINE
  5
1FB3
  8
0
 62
     0
 10
295.06730407277371
 20
300.88192888703378
 30
0.0
 11
295.06730407277371
 21
300.88192888703378
 31
0.0
  0
LINE
  5
1FB4
  8
0
 62
     0
 10
294.43230407277372
 20
300.88192888703378
 30
0.0
 11
294.43230407277372
 21
300.88192888703378
 31
0.0
  0
LINE
  5
1FB5
  8
0
 62
     0
 10
293.79730407277373
 20
300.88192888703378
 30
0.0
 11
293.79730407277373
 21
300.88192888703378
 31
0.0
  0
LINE
  5
1FB6
  8
0
 62
     0
 10
293.16230407277368
 20
300.88192888703378
 30
0.0
 11
293.16230407277368
 21
300.88192888703378
 31
0.0
  0
LINE
  5
1FB7
  8
0
 62
     0
 10
292.52730407277369
 20
300.88192888703378
 30
0.0
 11
292.52730407277369
 21
300.88192888703378
 31
0.0
  0
LINE
  5
1FB8
  8
0
 62
     0
 10
291.89230407277381
 20
300.88192888703378
 30
0.0
 11
291.89230407277381
 21
300.88192888703378
 31
0.0
  0
LINE
  5
1FB9
  8
0
 62
     0
 10
291.25730407277382
 20
300.88192888703378
 30
0.0
 11
291.25730407277382
 21
300.88192888703378
 31
0.0
  0
LINE
  5
1FBA
  8
0
 62
     0
 10
290.62230407277377
 20
300.88192888703378
 30
0.0
 11
290.62230407277377
 21
300.88192888703378
 31
0.0
  0
LINE
  5
1FBB
  8
0
 62
     0
 10
289.98730407277378
 20
300.88192888703378
 30
0.0
 11
289.98730407277378
 21
300.88192888703378
 31
0.0
  0
LINE
  5
1FBC
  8
0
 62
     0
 10
289.35230407277379
 20
300.88192888703378
 30
0.0
 11
289.35230407277379
 21
300.88192888703378
 31
0.0
  0
LINE
  5
1FBD
  8
0
 62
     0
 10
288.7173040727738
 20
300.88192888703378
 30
0.0
 11
288.7173040727738
 21
300.88192888703378
 31
0.0
  0
LINE
  5
1FBE
  8
0
 62
     0
 10
288.08230407277381
 20
300.88192888703378
 30
0.0
 11
288.08230407277381
 21
300.88192888703378
 31
0.0
  0
LINE
  5
1FBF
  8
0
 62
     0
 10
287.44730407277382
 20
300.88192888703378
 30
0.0
 11
287.44730407277382
 21
300.88192888703378
 31
0.0
  0
LINE
  5
1FC0
  8
0
 62
     0
 10
286.81230407277383
 20
300.88192888703378
 30
0.0
 11
286.81230407277383
 21
300.88192888703378
 31
0.0
  0
LINE
  5
1FC1
  8
0
 62
     0
 10
286.17730407277378
 20
300.88192888703378
 30
0.0
 11
286.17730407277378
 21
300.88192888703378
 31
0.0
  0
LINE
  5
1FC2
  8
0
 62
     0
 10
285.5423040727739
 20
300.88192888703378
 30
0.0
 11
285.5423040727739
 21
300.88192888703378
 31
0.0
  0
LINE
  5
1FC3
  8
0
 62
     0
 10
284.90730407277391
 20
300.88192888703378
 30
0.0
 11
284.90730407277391
 21
300.88192888703378
 31
0.0
  0
LINE
  5
1FC4
  8
0
 62
     0
 10
284.27230407277392
 20
300.88192888703378
 30
0.0
 11
284.27230407277392
 21
300.88192888703378
 31
0.0
  0
LINE
  5
1FC5
  8
0
 62
     0
 10
283.63730407277387
 20
300.88192888703378
 30
0.0
 11
283.63730407277387
 21
300.88192888703378
 31
0.0
  0
LINE
  5
1FC6
  8
0
 62
     0
 10
283.00230407277388
 20
300.88192888703378
 30
0.0
 11
283.00230407277388
 21
300.88192888703378
 31
0.0
  0
LINE
  5
1FC7
  8
0
 62
     0
 10
282.36730407277389
 20
300.88192888703378
 30
0.0
 11
282.36730407277389
 21
300.88192888703378
 31
0.0
  0
LINE
  5
1FC8
  8
0
 62
     0
 10
281.7323040727739
 20
300.88192888703378
 30
0.0
 11
281.7323040727739
 21
300.88192888703378
 31
0.0
  0
LINE
  5
1FC9
  8
0
 62
     0
 10
281.09730407277391
 20
300.88192888703378
 30
0.0
 11
281.09730407277391
 21
300.88192888703378
 31
0.0
  0
LINE
  5
1FCA
  8
0
 62
     0
 10
280.46230407277392
 20
300.88192888703378
 30
0.0
 11
280.46230407277392
 21
300.88192888703378
 31
0.0
  0
LINE
  5
1FCB
  8
0
 62
     0
 10
279.82730407277393
 20
300.88192888703378
 30
0.0
 11
279.82730407277393
 21
300.88192888703378
 31
0.0
  0
LINE
  5
1FCC
  8
0
 62
     0
 10
279.19230407277399
 20
300.88192888703378
 30
0.0
 11
279.19230407277399
 21
300.88192888703378
 31
0.0
  0
LINE
  5
1FCD
  8
0
 62
     0
 10
278.557304072774
 20
300.88192888703378
 30
0.0
 11
278.557304072774
 21
300.88192888703378
 31
0.0
  0
LINE
  5
1FCE
  8
0
 62
     0
 10
277.9223040727739
 20
300.88192888703378
 30
0.0
 11
277.9223040727739
 21
300.88192888703378
 31
0.0
  0
LINE
  5
1FCF
  8
0
 62
     0
 10
327.13480407277359
 20
301.51692888703383
 30
0.0
 11
327.13480407277359
 21
301.51692888703383
 31
0.0
  0
LINE
  5
1FD0
  8
0
 62
     0
 10
326.49980407277371
 20
301.51692888703383
 30
0.0
 11
326.49980407277371
 21
301.51692888703383
 31
0.0
  0
LINE
  5
1FD1
  8
0
 62
     0
 10
325.86480407277372
 20
301.51692888703383
 30
0.0
 11
325.86480407277372
 21
301.51692888703383
 31
0.0
  0
LINE
  5
1FD2
  8
0
 62
     0
 10
325.22980407277367
 20
301.51692888703383
 30
0.0
 11
325.22980407277367
 21
301.51692888703383
 31
0.0
  0
LINE
  5
1FD3
  8
0
 62
     0
 10
324.59480407277368
 20
301.51692888703383
 30
0.0
 11
324.59480407277368
 21
301.51692888703383
 31
0.0
  0
LINE
  5
1FD4
  8
0
 62
     0
 10
323.95980407277369
 20
301.51692888703383
 30
0.0
 11
323.95980407277369
 21
301.51692888703383
 31
0.0
  0
LINE
  5
1FD5
  8
0
 62
     0
 10
323.3248040727737
 20
301.51692888703383
 30
0.0
 11
323.3248040727737
 21
301.51692888703383
 31
0.0
  0
LINE
  5
1FD6
  8
0
 62
     0
 10
322.68980407277371
 20
301.51692888703383
 30
0.0
 11
322.68980407277371
 21
301.51692888703383
 31
0.0
  0
LINE
  5
1FD7
  8
0
 62
     0
 10
322.05480407277372
 20
301.51692888703383
 30
0.0
 11
322.05480407277372
 21
301.51692888703383
 31
0.0
  0
LINE
  5
1FD8
  8
0
 62
     0
 10
321.41980407277367
 20
301.51692888703383
 30
0.0
 11
321.41980407277367
 21
301.51692888703383
 31
0.0
  0
LINE
  5
1FD9
  8
0
 62
     0
 10
320.78480407277368
 20
301.51692888703383
 30
0.0
 11
320.78480407277368
 21
301.51692888703383
 31
0.0
  0
LINE
  5
1FDA
  8
0
 62
     0
 10
320.1498040727738
 20
301.51692888703383
 30
0.0
 11
320.1498040727738
 21
301.51692888703383
 31
0.0
  0
LINE
  5
1FDB
  8
0
 62
     0
 10
319.51480407277381
 20
301.51692888703383
 30
0.0
 11
319.51480407277381
 21
301.51692888703383
 31
0.0
  0
LINE
  5
1FDC
  8
0
 62
     0
 10
318.87980407277382
 20
301.51692888703383
 30
0.0
 11
318.87980407277382
 21
301.51692888703383
 31
0.0
  0
LINE
  5
1FDD
  8
0
 62
     0
 10
318.24480407277377
 20
301.51692888703383
 30
0.0
 11
318.24480407277377
 21
301.51692888703383
 31
0.0
  0
LINE
  5
1FDE
  8
0
 62
     0
 10
317.60980407277378
 20
301.51692888703383
 30
0.0
 11
317.60980407277378
 21
301.51692888703383
 31
0.0
  0
LINE
  5
1FDF
  8
0
 62
     0
 10
316.97480407277379
 20
301.51692888703383
 30
0.0
 11
316.97480407277379
 21
301.51692888703383
 31
0.0
  0
LINE
  5
1FE0
  8
0
 62
     0
 10
316.3398040727738
 20
301.51692888703383
 30
0.0
 11
316.3398040727738
 21
301.51692888703383
 31
0.0
  0
LINE
  5
1FE1
  8
0
 62
     0
 10
315.70480407277381
 20
301.51692888703383
 30
0.0
 11
315.70480407277381
 21
301.51692888703383
 31
0.0
  0
LINE
  5
1FE2
  8
0
 62
     0
 10
315.06980407277382
 20
301.51692888703383
 30
0.0
 11
315.06980407277382
 21
301.51692888703383
 31
0.0
  0
LINE
  5
1FE3
  8
0
 62
     0
 10
314.43480407277377
 20
301.51692888703383
 30
0.0
 11
314.43480407277377
 21
301.51692888703383
 31
0.0
  0
LINE
  5
1FE4
  8
0
 62
     0
 10
313.7998040727739
 20
301.51692888703383
 30
0.0
 11
313.7998040727739
 21
301.51692888703383
 31
0.0
  0
LINE
  5
1FE5
  8
0
 62
     0
 10
313.1648040727739
 20
301.51692888703383
 30
0.0
 11
313.1648040727739
 21
301.51692888703383
 31
0.0
  0
LINE
  5
1FE6
  8
0
 62
     0
 10
312.5298040727738
 20
301.51692888703383
 30
0.0
 11
312.5298040727738
 21
301.51692888703383
 31
0.0
  0
LINE
  5
1FE7
  8
0
 62
     0
 10
311.89480407277392
 20
301.51692888703383
 30
0.0
 11
311.89480407277392
 21
301.51692888703383
 31
0.0
  0
LINE
  5
1FE8
  8
0
 62
     0
 10
311.25980407277387
 20
301.51692888703383
 30
0.0
 11
311.25980407277387
 21
301.51692888703383
 31
0.0
  0
LINE
  5
1FE9
  8
0
 62
     0
 10
310.62480407277388
 20
301.51692888703383
 30
0.0
 11
310.62480407277388
 21
301.51692888703383
 31
0.0
  0
LINE
  5
1FEA
  8
0
 62
     0
 10
309.98980407277389
 20
301.51692888703383
 30
0.0
 11
309.98980407277389
 21
301.51692888703383
 31
0.0
  0
LINE
  5
1FEB
  8
0
 62
     0
 10
309.3548040727739
 20
301.51692888703383
 30
0.0
 11
309.3548040727739
 21
301.51692888703383
 31
0.0
  0
LINE
  5
1FEC
  8
0
 62
     0
 10
308.71980407277391
 20
301.51692888703383
 30
0.0
 11
308.71980407277391
 21
301.51692888703383
 31
0.0
  0
LINE
  5
1FED
  8
0
 62
     0
 10
308.08480407277392
 20
301.51692888703383
 30
0.0
 11
308.08480407277392
 21
301.51692888703383
 31
0.0
  0
LINE
  5
1FEE
  8
0
 62
     0
 10
307.44980407277399
 20
301.51692888703383
 30
0.0
 11
307.44980407277399
 21
301.51692888703383
 31
0.0
  0
LINE
  5
1FEF
  8
0
 62
     0
 10
297.28980407277368
 20
301.51692888703383
 30
0.0
 11
297.28980407277368
 21
301.51692888703383
 31
0.0
  0
LINE
  5
1FF0
  8
0
 62
     0
 10
296.65480407277369
 20
301.51692888703383
 30
0.0
 11
296.65480407277369
 21
301.51692888703383
 31
0.0
  0
LINE
  5
1FF1
  8
0
 62
     0
 10
296.0198040727737
 20
301.51692888703383
 30
0.0
 11
296.0198040727737
 21
301.51692888703383
 31
0.0
  0
LINE
  5
1FF2
  8
0
 62
     0
 10
295.3848040727737
 20
301.51692888703383
 30
0.0
 11
295.3848040727737
 21
301.51692888703383
 31
0.0
  0
LINE
  5
1FF3
  8
0
 62
     0
 10
294.74980407277371
 20
301.51692888703383
 30
0.0
 11
294.74980407277371
 21
301.51692888703383
 31
0.0
  0
LINE
  5
1FF4
  8
0
 62
     0
 10
294.11480407277372
 20
301.51692888703383
 30
0.0
 11
294.11480407277372
 21
301.51692888703383
 31
0.0
  0
LINE
  5
1FF5
  8
0
 62
     0
 10
293.47980407277367
 20
301.51692888703383
 30
0.0
 11
293.47980407277367
 21
301.51692888703383
 31
0.0
  0
LINE
  5
1FF6
  8
0
 62
     0
 10
292.8448040727738
 20
301.51692888703383
 30
0.0
 11
292.8448040727738
 21
301.51692888703383
 31
0.0
  0
LINE
  5
1FF7
  8
0
 62
     0
 10
292.20980407277381
 20
301.51692888703383
 30
0.0
 11
292.20980407277381
 21
301.51692888703383
 31
0.0
  0
LINE
  5
1FF8
  8
0
 62
     0
 10
291.57480407277382
 20
301.51692888703383
 30
0.0
 11
291.57480407277382
 21
301.51692888703383
 31
0.0
  0
LINE
  5
1FF9
  8
0
 62
     0
 10
290.93980407277371
 20
301.51692888703383
 30
0.0
 11
290.93980407277371
 21
301.51692888703383
 31
0.0
  0
LINE
  5
1FFA
  8
0
 62
     0
 10
290.30480407277378
 20
301.51692888703383
 30
0.0
 11
290.30480407277378
 21
301.51692888703383
 31
0.0
  0
LINE
  5
1FFB
  8
0
 62
     0
 10
289.66980407277379
 20
301.51692888703383
 30
0.0
 11
289.66980407277379
 21
301.51692888703383
 31
0.0
  0
LINE
  5
1FFC
  8
0
 62
     0
 10
289.0348040727738
 20
301.51692888703383
 30
0.0
 11
289.0348040727738
 21
301.51692888703383
 31
0.0
  0
LINE
  5
1FFD
  8
0
 62
     0
 10
288.3998040727738
 20
301.51692888703383
 30
0.0
 11
288.3998040727738
 21
301.51692888703383
 31
0.0
  0
LINE
  5
1FFE
  8
0
 62
     0
 10
287.76480407277381
 20
301.51692888703383
 30
0.0
 11
287.76480407277381
 21
301.51692888703383
 31
0.0
  0
LINE
  5
1FFF
  8
0
 62
     0
 10
287.12980407277382
 20
301.51692888703383
 30
0.0
 11
287.12980407277382
 21
301.51692888703383
 31
0.0
  0
LINE
  5
2000
  8
0
 62
     0
 10
286.49480407277389
 20
301.51692888703383
 30
0.0
 11
286.49480407277389
 21
301.51692888703383
 31
0.0
  0
LINE
  5
2001
  8
0
 62
     0
 10
285.85980407277378
 20
301.51692888703383
 30
0.0
 11
285.85980407277378
 21
301.51692888703383
 31
0.0
  0
LINE
  5
2002
  8
0
 62
     0
 10
285.22480407277379
 20
301.51692888703383
 30
0.0
 11
285.22480407277379
 21
301.51692888703383
 31
0.0
  0
LINE
  5
2003
  8
0
 62
     0
 10
284.58980407277392
 20
301.51692888703383
 30
0.0
 11
284.58980407277392
 21
301.51692888703383
 31
0.0
  0
LINE
  5
2004
  8
0
 62
     0
 10
283.95480407277392
 20
301.51692888703383
 30
0.0
 11
283.95480407277392
 21
301.51692888703383
 31
0.0
  0
LINE
  5
2005
  8
0
 62
     0
 10
283.31980407277388
 20
301.51692888703383
 30
0.0
 11
283.31980407277388
 21
301.51692888703383
 31
0.0
  0
LINE
  5
2006
  8
0
 62
     0
 10
282.68480407277389
 20
301.51692888703383
 30
0.0
 11
282.68480407277389
 21
301.51692888703383
 31
0.0
  0
LINE
  5
2007
  8
0
 62
     0
 10
282.0498040727739
 20
301.51692888703383
 30
0.0
 11
282.0498040727739
 21
301.51692888703383
 31
0.0
  0
LINE
  5
2008
  8
0
 62
     0
 10
281.4148040727739
 20
301.51692888703383
 30
0.0
 11
281.4148040727739
 21
301.51692888703383
 31
0.0
  0
LINE
  5
2009
  8
0
 62
     0
 10
280.77980407277391
 20
301.51692888703383
 30
0.0
 11
280.77980407277391
 21
301.51692888703383
 31
0.0
  0
LINE
  5
200A
  8
0
 62
     0
 10
280.14480407277392
 20
301.51692888703383
 30
0.0
 11
280.14480407277392
 21
301.51692888703383
 31
0.0
  0
LINE
  5
200B
  8
0
 62
     0
 10
279.50980407277387
 20
301.51692888703383
 30
0.0
 11
279.50980407277387
 21
301.51692888703383
 31
0.0
  0
LINE
  5
200C
  8
0
 62
     0
 10
278.87480407277388
 20
301.51692888703383
 30
0.0
 11
278.87480407277388
 21
301.51692888703383
 31
0.0
  0
LINE
  5
200D
  8
0
 62
     0
 10
278.23980407277389
 20
301.51692888703383
 30
0.0
 11
278.23980407277389
 21
301.51692888703383
 31
0.0
  0
LINE
  5
200E
  8
0
 62
     0
 10
277.60480407277402
 20
301.51692888703383
 30
0.0
 11
277.60480407277402
 21
301.51692888703383
 31
0.0
  0
LINE
  5
200F
  8
0
 62
     0
 10
326.81730407277371
 20
302.15192888703382
 30
0.0
 11
326.81730407277371
 21
302.15192888703382
 31
0.0
  0
LINE
  5
2010
  8
0
 62
     0
 10
326.18230407277372
 20
302.15192888703382
 30
0.0
 11
326.18230407277372
 21
302.15192888703382
 31
0.0
  0
LINE
  5
2011
  8
0
 62
     0
 10
325.54730407277373
 20
302.15192888703382
 30
0.0
 11
325.54730407277373
 21
302.15192888703382
 31
0.0
  0
LINE
  5
2012
  8
0
 62
     0
 10
324.91230407277379
 20
302.15192888703382
 30
0.0
 11
324.91230407277379
 21
302.15192888703382
 31
0.0
  0
LINE
  5
2013
  8
0
 62
     0
 10
324.27730407277369
 20
302.15192888703382
 30
0.0
 11
324.27730407277369
 21
302.15192888703382
 31
0.0
  0
LINE
  5
2014
  8
0
 62
     0
 10
323.6423040727737
 20
302.15192888703382
 30
0.0
 11
323.6423040727737
 21
302.15192888703382
 31
0.0
  0
LINE
  5
2015
  8
0
 62
     0
 10
323.00730407277382
 20
302.15192888703382
 30
0.0
 11
323.00730407277382
 21
302.15192888703382
 31
0.0
  0
LINE
  5
2016
  8
0
 62
     0
 10
322.37230407277377
 20
302.15192888703382
 30
0.0
 11
322.37230407277377
 21
302.15192888703382
 31
0.0
  0
LINE
  5
2017
  8
0
 62
     0
 10
321.73730407277378
 20
302.15192888703382
 30
0.0
 11
321.73730407277378
 21
302.15192888703382
 31
0.0
  0
LINE
  5
2018
  8
0
 62
     0
 10
321.10230407277379
 20
302.15192888703382
 30
0.0
 11
321.10230407277379
 21
302.15192888703382
 31
0.0
  0
LINE
  5
2019
  8
0
 62
     0
 10
320.4673040727738
 20
302.15192888703382
 30
0.0
 11
320.4673040727738
 21
302.15192888703382
 31
0.0
  0
LINE
  5
201A
  8
0
 62
     0
 10
319.83230407277381
 20
302.15192888703382
 30
0.0
 11
319.83230407277381
 21
302.15192888703382
 31
0.0
  0
LINE
  5
201B
  8
0
 62
     0
 10
319.19730407277382
 20
302.15192888703382
 30
0.0
 11
319.19730407277382
 21
302.15192888703382
 31
0.0
  0
LINE
  5
201C
  8
0
 62
     0
 10
318.56230407277383
 20
302.15192888703382
 30
0.0
 11
318.56230407277383
 21
302.15192888703382
 31
0.0
  0
LINE
  5
201D
  8
0
 62
     0
 10
317.92730407277378
 20
302.15192888703382
 30
0.0
 11
317.92730407277378
 21
302.15192888703382
 31
0.0
  0
LINE
  5
201E
  8
0
 62
     0
 10
317.29230407277379
 20
302.15192888703382
 30
0.0
 11
317.29230407277379
 21
302.15192888703382
 31
0.0
  0
LINE
  5
201F
  8
0
 62
     0
 10
316.65730407277391
 20
302.15192888703382
 30
0.0
 11
316.65730407277391
 21
302.15192888703382
 31
0.0
  0
LINE
  5
2020
  8
0
 62
     0
 10
316.02230407277392
 20
302.15192888703382
 30
0.0
 11
316.02230407277392
 21
302.15192888703382
 31
0.0
  0
LINE
  5
2021
  8
0
 62
     0
 10
315.38730407277387
 20
302.15192888703382
 30
0.0
 11
315.38730407277387
 21
302.15192888703382
 31
0.0
  0
LINE
  5
2022
  8
0
 62
     0
 10
314.75230407277388
 20
302.15192888703382
 30
0.0
 11
314.75230407277388
 21
302.15192888703382
 31
0.0
  0
LINE
  5
2023
  8
0
 62
     0
 10
314.11730407277389
 20
302.15192888703382
 30
0.0
 11
314.11730407277389
 21
302.15192888703382
 31
0.0
  0
LINE
  5
2024
  8
0
 62
     0
 10
313.4823040727739
 20
302.15192888703382
 30
0.0
 11
313.4823040727739
 21
302.15192888703382
 31
0.0
  0
LINE
  5
2025
  8
0
 62
     0
 10
312.84730407277391
 20
302.15192888703382
 30
0.0
 11
312.84730407277391
 21
302.15192888703382
 31
0.0
  0
LINE
  5
2026
  8
0
 62
     0
 10
312.21230407277392
 20
302.15192888703382
 30
0.0
 11
312.21230407277392
 21
302.15192888703382
 31
0.0
  0
LINE
  5
2027
  8
0
 62
     0
 10
311.57730407277393
 20
302.15192888703382
 30
0.0
 11
311.57730407277393
 21
302.15192888703382
 31
0.0
  0
LINE
  5
2028
  8
0
 62
     0
 10
310.94230407277388
 20
302.15192888703382
 30
0.0
 11
310.94230407277388
 21
302.15192888703382
 31
0.0
  0
LINE
  5
2029
  8
0
 62
     0
 10
310.307304072774
 20
302.15192888703382
 30
0.0
 11
310.307304072774
 21
302.15192888703382
 31
0.0
  0
LINE
  5
202A
  8
0
 62
     0
 10
309.67230407277401
 20
302.15192888703382
 30
0.0
 11
309.67230407277401
 21
302.15192888703382
 31
0.0
  0
LINE
  5
202B
  8
0
 62
     0
 10
309.03730407277402
 20
302.15192888703382
 30
0.0
 11
309.03730407277402
 21
302.15192888703382
 31
0.0
  0
LINE
  5
202C
  8
0
 62
     0
 10
308.40230407277397
 20
302.15192888703382
 30
0.0
 11
308.40230407277397
 21
302.15192888703382
 31
0.0
  0
LINE
  5
202D
  8
0
 62
     0
 10
307.76730407277398
 20
302.15192888703382
 30
0.0
 11
307.76730407277398
 21
302.15192888703382
 31
0.0
  0
LINE
  5
202E
  8
0
 62
     0
 10
296.97230407277368
 20
302.15192888703382
 30
0.0
 11
296.97230407277368
 21
302.15192888703382
 31
0.0
  0
LINE
  5
202F
  8
0
 62
     0
 10
296.33730407277369
 20
302.15192888703382
 30
0.0
 11
296.33730407277369
 21
302.15192888703382
 31
0.0
  0
LINE
  5
2030
  8
0
 62
     0
 10
295.7023040727737
 20
302.15192888703382
 30
0.0
 11
295.7023040727737
 21
302.15192888703382
 31
0.0
  0
LINE
  5
2031
  8
0
 62
     0
 10
295.06730407277371
 20
302.15192888703382
 30
0.0
 11
295.06730407277371
 21
302.15192888703382
 31
0.0
  0
LINE
  5
2032
  8
0
 62
     0
 10
294.43230407277372
 20
302.15192888703382
 30
0.0
 11
294.43230407277372
 21
302.15192888703382
 31
0.0
  0
LINE
  5
2033
  8
0
 62
     0
 10
293.79730407277373
 20
302.15192888703382
 30
0.0
 11
293.79730407277373
 21
302.15192888703382
 31
0.0
  0
LINE
  5
2034
  8
0
 62
     0
 10
293.16230407277368
 20
302.15192888703382
 30
0.0
 11
293.16230407277368
 21
302.15192888703382
 31
0.0
  0
LINE
  5
2035
  8
0
 62
     0
 10
292.52730407277369
 20
302.15192888703382
 30
0.0
 11
292.52730407277369
 21
302.15192888703382
 31
0.0
  0
LINE
  5
2036
  8
0
 62
     0
 10
291.89230407277381
 20
302.15192888703382
 30
0.0
 11
291.89230407277381
 21
302.15192888703382
 31
0.0
  0
LINE
  5
2037
  8
0
 62
     0
 10
291.25730407277382
 20
302.15192888703382
 30
0.0
 11
291.25730407277382
 21
302.15192888703382
 31
0.0
  0
LINE
  5
2038
  8
0
 62
     0
 10
290.62230407277377
 20
302.15192888703382
 30
0.0
 11
290.62230407277377
 21
302.15192888703382
 31
0.0
  0
LINE
  5
2039
  8
0
 62
     0
 10
289.98730407277378
 20
302.15192888703382
 30
0.0
 11
289.98730407277378
 21
302.15192888703382
 31
0.0
  0
LINE
  5
203A
  8
0
 62
     0
 10
289.35230407277379
 20
302.15192888703382
 30
0.0
 11
289.35230407277379
 21
302.15192888703382
 31
0.0
  0
LINE
  5
203B
  8
0
 62
     0
 10
288.7173040727738
 20
302.15192888703382
 30
0.0
 11
288.7173040727738
 21
302.15192888703382
 31
0.0
  0
LINE
  5
203C
  8
0
 62
     0
 10
288.08230407277381
 20
302.15192888703382
 30
0.0
 11
288.08230407277381
 21
302.15192888703382
 31
0.0
  0
LINE
  5
203D
  8
0
 62
     0
 10
287.44730407277382
 20
302.15192888703382
 30
0.0
 11
287.44730407277382
 21
302.15192888703382
 31
0.0
  0
LINE
  5
203E
  8
0
 62
     0
 10
286.81230407277383
 20
302.15192888703382
 30
0.0
 11
286.81230407277383
 21
302.15192888703382
 31
0.0
  0
LINE
  5
203F
  8
0
 62
     0
 10
286.17730407277378
 20
302.15192888703382
 30
0.0
 11
286.17730407277378
 21
302.15192888703382
 31
0.0
  0
LINE
  5
2040
  8
0
 62
     0
 10
285.5423040727739
 20
302.15192888703382
 30
0.0
 11
285.5423040727739
 21
302.15192888703382
 31
0.0
  0
LINE
  5
2041
  8
0
 62
     0
 10
284.90730407277391
 20
302.15192888703382
 30
0.0
 11
284.90730407277391
 21
302.15192888703382
 31
0.0
  0
LINE
  5
2042
  8
0
 62
     0
 10
284.27230407277392
 20
302.15192888703382
 30
0.0
 11
284.27230407277392
 21
302.15192888703382
 31
0.0
  0
LINE
  5
2043
  8
0
 62
     0
 10
283.63730407277387
 20
302.15192888703382
 30
0.0
 11
283.63730407277387
 21
302.15192888703382
 31
0.0
  0
LINE
  5
2044
  8
0
 62
     0
 10
283.00230407277388
 20
302.15192888703382
 30
0.0
 11
283.00230407277388
 21
302.15192888703382
 31
0.0
  0
LINE
  5
2045
  8
0
 62
     0
 10
282.36730407277389
 20
302.15192888703382
 30
0.0
 11
282.36730407277389
 21
302.15192888703382
 31
0.0
  0
LINE
  5
2046
  8
0
 62
     0
 10
281.7323040727739
 20
302.15192888703382
 30
0.0
 11
281.7323040727739
 21
302.15192888703382
 31
0.0
  0
LINE
  5
2047
  8
0
 62
     0
 10
281.09730407277391
 20
302.15192888703382
 30
0.0
 11
281.09730407277391
 21
302.15192888703382
 31
0.0
  0
LINE
  5
2048
  8
0
 62
     0
 10
280.46230407277392
 20
302.15192888703382
 30
0.0
 11
280.46230407277392
 21
302.15192888703382
 31
0.0
  0
LINE
  5
2049
  8
0
 62
     0
 10
279.82730407277393
 20
302.15192888703382
 30
0.0
 11
279.82730407277393
 21
302.15192888703382
 31
0.0
  0
LINE
  5
204A
  8
0
 62
     0
 10
279.19230407277399
 20
302.15192888703382
 30
0.0
 11
279.19230407277399
 21
302.15192888703382
 31
0.0
  0
LINE
  5
204B
  8
0
 62
     0
 10
278.557304072774
 20
302.15192888703382
 30
0.0
 11
278.557304072774
 21
302.15192888703382
 31
0.0
  0
LINE
  5
204C
  8
0
 62
     0
 10
277.9223040727739
 20
302.15192888703382
 30
0.0
 11
277.9223040727739
 21
302.15192888703382
 31
0.0
  0
LINE
  5
204D
  8
0
 62
     0
 10
327.1348040727737
 20
302.78692888703381
 30
0.0
 11
327.1348040727737
 21
302.78692888703381
 31
0.0
  0
LINE
  5
204E
  8
0
 62
     0
 10
326.49980407277371
 20
302.78692888703381
 30
0.0
 11
326.49980407277371
 21
302.78692888703381
 31
0.0
  0
LINE
  5
204F
  8
0
 62
     0
 10
325.86480407277372
 20
302.78692888703381
 30
0.0
 11
325.86480407277372
 21
302.78692888703381
 31
0.0
  0
LINE
  5
2050
  8
0
 62
     0
 10
325.22980407277367
 20
302.78692888703381
 30
0.0
 11
325.22980407277367
 21
302.78692888703381
 31
0.0
  0
LINE
  5
2051
  8
0
 62
     0
 10
324.59480407277368
 20
302.78692888703381
 30
0.0
 11
324.59480407277368
 21
302.78692888703381
 31
0.0
  0
LINE
  5
2052
  8
0
 62
     0
 10
323.95980407277381
 20
302.78692888703381
 30
0.0
 11
323.95980407277381
 21
302.78692888703381
 31
0.0
  0
LINE
  5
2053
  8
0
 62
     0
 10
323.32480407277382
 20
302.78692888703381
 30
0.0
 11
323.32480407277382
 21
302.78692888703381
 31
0.0
  0
LINE
  5
2054
  8
0
 62
     0
 10
322.68980407277382
 20
302.78692888703381
 30
0.0
 11
322.68980407277382
 21
302.78692888703381
 31
0.0
  0
LINE
  5
2055
  8
0
 62
     0
 10
322.05480407277378
 20
302.78692888703381
 30
0.0
 11
322.05480407277378
 21
302.78692888703381
 31
0.0
  0
LINE
  5
2056
  8
0
 62
     0
 10
321.41980407277379
 20
302.78692888703381
 30
0.0
 11
321.41980407277379
 21
302.78692888703381
 31
0.0
  0
LINE
  5
2057
  8
0
 62
     0
 10
320.7848040727738
 20
302.78692888703381
 30
0.0
 11
320.7848040727738
 21
302.78692888703381
 31
0.0
  0
LINE
  5
2058
  8
0
 62
     0
 10
320.1498040727738
 20
302.78692888703381
 30
0.0
 11
320.1498040727738
 21
302.78692888703381
 31
0.0
  0
LINE
  5
2059
  8
0
 62
     0
 10
319.51480407277381
 20
302.78692888703381
 30
0.0
 11
319.51480407277381
 21
302.78692888703381
 31
0.0
  0
LINE
  5
205A
  8
0
 62
     0
 10
318.87980407277382
 20
302.78692888703381
 30
0.0
 11
318.87980407277382
 21
302.78692888703381
 31
0.0
  0
LINE
  5
205B
  8
0
 62
     0
 10
318.24480407277377
 20
302.78692888703381
 30
0.0
 11
318.24480407277377
 21
302.78692888703381
 31
0.0
  0
LINE
  5
205C
  8
0
 62
     0
 10
317.6098040727739
 20
302.78692888703381
 30
0.0
 11
317.6098040727739
 21
302.78692888703381
 31
0.0
  0
LINE
  5
205D
  8
0
 62
     0
 10
316.97480407277391
 20
302.78692888703381
 30
0.0
 11
316.97480407277391
 21
302.78692888703381
 31
0.0
  0
LINE
  5
205E
  8
0
 62
     0
 10
316.3398040727738
 20
302.78692888703381
 30
0.0
 11
316.3398040727738
 21
302.78692888703381
 31
0.0
  0
LINE
  5
205F
  8
0
 62
     0
 10
315.70480407277392
 20
302.78692888703381
 30
0.0
 11
315.70480407277392
 21
302.78692888703381
 31
0.0
  0
LINE
  5
2060
  8
0
 62
     0
 10
315.06980407277388
 20
302.78692888703381
 30
0.0
 11
315.06980407277388
 21
302.78692888703381
 31
0.0
  0
LINE
  5
2061
  8
0
 62
     0
 10
314.43480407277389
 20
302.78692888703381
 30
0.0
 11
314.43480407277389
 21
302.78692888703381
 31
0.0
  0
LINE
  5
2062
  8
0
 62
     0
 10
313.7998040727739
 20
302.78692888703381
 30
0.0
 11
313.7998040727739
 21
302.78692888703381
 31
0.0
  0
LINE
  5
2063
  8
0
 62
     0
 10
313.1648040727739
 20
302.78692888703381
 30
0.0
 11
313.1648040727739
 21
302.78692888703381
 31
0.0
  0
LINE
  5
2064
  8
0
 62
     0
 10
312.52980407277391
 20
302.78692888703381
 30
0.0
 11
312.52980407277391
 21
302.78692888703381
 31
0.0
  0
LINE
  5
2065
  8
0
 62
     0
 10
311.89480407277392
 20
302.78692888703381
 30
0.0
 11
311.89480407277392
 21
302.78692888703381
 31
0.0
  0
LINE
  5
2066
  8
0
 62
     0
 10
311.25980407277399
 20
302.78692888703381
 30
0.0
 11
311.25980407277399
 21
302.78692888703381
 31
0.0
  0
LINE
  5
2067
  8
0
 62
     0
 10
310.62480407277388
 20
302.78692888703381
 30
0.0
 11
310.62480407277388
 21
302.78692888703381
 31
0.0
  0
LINE
  5
2068
  8
0
 62
     0
 10
309.98980407277389
 20
302.78692888703381
 30
0.0
 11
309.98980407277389
 21
302.78692888703381
 31
0.0
  0
LINE
  5
2069
  8
0
 62
     0
 10
309.35480407277402
 20
302.78692888703381
 30
0.0
 11
309.35480407277402
 21
302.78692888703381
 31
0.0
  0
LINE
  5
206A
  8
0
 62
     0
 10
308.71980407277402
 20
302.78692888703381
 30
0.0
 11
308.71980407277402
 21
302.78692888703381
 31
0.0
  0
LINE
  5
206B
  8
0
 62
     0
 10
308.08480407277398
 20
302.78692888703381
 30
0.0
 11
308.08480407277398
 21
302.78692888703381
 31
0.0
  0
LINE
  5
206C
  8
0
 62
     0
 10
307.44980407277399
 20
302.78692888703381
 30
0.0
 11
307.44980407277399
 21
302.78692888703381
 31
0.0
  0
LINE
  5
206D
  8
0
 62
     0
 10
297.28980407277368
 20
302.78692888703381
 30
0.0
 11
297.28980407277368
 21
302.78692888703381
 31
0.0
  0
LINE
  5
206E
  8
0
 62
     0
 10
296.65480407277369
 20
302.78692888703381
 30
0.0
 11
296.65480407277369
 21
302.78692888703381
 31
0.0
  0
LINE
  5
206F
  8
0
 62
     0
 10
296.0198040727737
 20
302.78692888703381
 30
0.0
 11
296.0198040727737
 21
302.78692888703381
 31
0.0
  0
LINE
  5
2070
  8
0
 62
     0
 10
295.3848040727737
 20
302.78692888703381
 30
0.0
 11
295.3848040727737
 21
302.78692888703381
 31
0.0
  0
LINE
  5
2071
  8
0
 62
     0
 10
294.74980407277371
 20
302.78692888703381
 30
0.0
 11
294.74980407277371
 21
302.78692888703381
 31
0.0
  0
LINE
  5
2072
  8
0
 62
     0
 10
294.11480407277372
 20
302.78692888703381
 30
0.0
 11
294.11480407277372
 21
302.78692888703381
 31
0.0
  0
LINE
  5
2073
  8
0
 62
     0
 10
293.47980407277367
 20
302.78692888703381
 30
0.0
 11
293.47980407277367
 21
302.78692888703381
 31
0.0
  0
LINE
  5
2074
  8
0
 62
     0
 10
292.8448040727738
 20
302.78692888703381
 30
0.0
 11
292.8448040727738
 21
302.78692888703381
 31
0.0
  0
LINE
  5
2075
  8
0
 62
     0
 10
292.20980407277381
 20
302.78692888703381
 30
0.0
 11
292.20980407277381
 21
302.78692888703381
 31
0.0
  0
LINE
  5
2076
  8
0
 62
     0
 10
291.57480407277382
 20
302.78692888703381
 30
0.0
 11
291.57480407277382
 21
302.78692888703381
 31
0.0
  0
LINE
  5
2077
  8
0
 62
     0
 10
290.93980407277371
 20
302.78692888703381
 30
0.0
 11
290.93980407277371
 21
302.78692888703381
 31
0.0
  0
LINE
  5
2078
  8
0
 62
     0
 10
290.30480407277378
 20
302.78692888703381
 30
0.0
 11
290.30480407277378
 21
302.78692888703381
 31
0.0
  0
LINE
  5
2079
  8
0
 62
     0
 10
289.66980407277379
 20
302.78692888703381
 30
0.0
 11
289.66980407277379
 21
302.78692888703381
 31
0.0
  0
LINE
  5
207A
  8
0
 62
     0
 10
289.0348040727738
 20
302.78692888703381
 30
0.0
 11
289.0348040727738
 21
302.78692888703381
 31
0.0
  0
LINE
  5
207B
  8
0
 62
     0
 10
288.3998040727738
 20
302.78692888703381
 30
0.0
 11
288.3998040727738
 21
302.78692888703381
 31
0.0
  0
LINE
  5
207C
  8
0
 62
     0
 10
287.76480407277381
 20
302.78692888703381
 30
0.0
 11
287.76480407277381
 21
302.78692888703381
 31
0.0
  0
LINE
  5
207D
  8
0
 62
     0
 10
287.12980407277382
 20
302.78692888703381
 30
0.0
 11
287.12980407277382
 21
302.78692888703381
 31
0.0
  0
LINE
  5
207E
  8
0
 62
     0
 10
286.49480407277389
 20
302.78692888703381
 30
0.0
 11
286.49480407277389
 21
302.78692888703381
 31
0.0
  0
LINE
  5
207F
  8
0
 62
     0
 10
285.85980407277378
 20
302.78692888703381
 30
0.0
 11
285.85980407277378
 21
302.78692888703381
 31
0.0
  0
LINE
  5
2080
  8
0
 62
     0
 10
285.22480407277379
 20
302.78692888703381
 30
0.0
 11
285.22480407277379
 21
302.78692888703381
 31
0.0
  0
LINE
  5
2081
  8
0
 62
     0
 10
284.58980407277392
 20
302.78692888703381
 30
0.0
 11
284.58980407277392
 21
302.78692888703381
 31
0.0
  0
LINE
  5
2082
  8
0
 62
     0
 10
283.95480407277392
 20
302.78692888703381
 30
0.0
 11
283.95480407277392
 21
302.78692888703381
 31
0.0
  0
LINE
  5
2083
  8
0
 62
     0
 10
283.31980407277388
 20
302.78692888703381
 30
0.0
 11
283.31980407277388
 21
302.78692888703381
 31
0.0
  0
LINE
  5
2084
  8
0
 62
     0
 10
282.68480407277389
 20
302.78692888703381
 30
0.0
 11
282.68480407277389
 21
302.78692888703381
 31
0.0
  0
LINE
  5
2085
  8
0
 62
     0
 10
282.0498040727739
 20
302.78692888703381
 30
0.0
 11
282.0498040727739
 21
302.78692888703381
 31
0.0
  0
LINE
  5
2086
  8
0
 62
     0
 10
281.4148040727739
 20
302.78692888703381
 30
0.0
 11
281.4148040727739
 21
302.78692888703381
 31
0.0
  0
LINE
  5
2087
  8
0
 62
     0
 10
280.77980407277391
 20
302.78692888703381
 30
0.0
 11
280.77980407277391
 21
302.78692888703381
 31
0.0
  0
LINE
  5
2088
  8
0
 62
     0
 10
280.14480407277392
 20
302.78692888703381
 30
0.0
 11
280.14480407277392
 21
302.78692888703381
 31
0.0
  0
LINE
  5
2089
  8
0
 62
     0
 10
279.50980407277387
 20
302.78692888703381
 30
0.0
 11
279.50980407277387
 21
302.78692888703381
 31
0.0
  0
LINE
  5
208A
  8
0
 62
     0
 10
278.87480407277388
 20
302.78692888703381
 30
0.0
 11
278.87480407277388
 21
302.78692888703381
 31
0.0
  0
LINE
  5
208B
  8
0
 62
     0
 10
278.23980407277389
 20
302.78692888703381
 30
0.0
 11
278.23980407277389
 21
302.78692888703381
 31
0.0
  0
LINE
  5
208C
  8
0
 62
     0
 10
277.60480407277402
 20
302.78692888703381
 30
0.0
 11
277.60480407277402
 21
302.78692888703381
 31
0.0
  0
LINE
  5
208D
  8
0
 62
     0
 10
326.81730407277371
 20
303.4219288870338
 30
0.0
 11
326.81730407277371
 21
303.4219288870338
 31
0.0
  0
LINE
  5
208E
  8
0
 62
     0
 10
326.18230407277372
 20
303.4219288870338
 30
0.0
 11
326.18230407277372
 21
303.4219288870338
 31
0.0
  0
LINE
  5
208F
  8
0
 62
     0
 10
325.54730407277373
 20
303.4219288870338
 30
0.0
 11
325.54730407277373
 21
303.4219288870338
 31
0.0
  0
LINE
  5
2090
  8
0
 62
     0
 10
324.91230407277379
 20
303.4219288870338
 30
0.0
 11
324.91230407277379
 21
303.4219288870338
 31
0.0
  0
LINE
  5
2091
  8
0
 62
     0
 10
324.27730407277369
 20
303.4219288870338
 30
0.0
 11
324.27730407277369
 21
303.4219288870338
 31
0.0
  0
LINE
  5
2092
  8
0
 62
     0
 10
323.6423040727737
 20
303.4219288870338
 30
0.0
 11
323.6423040727737
 21
303.4219288870338
 31
0.0
  0
LINE
  5
2093
  8
0
 62
     0
 10
323.00730407277382
 20
303.4219288870338
 30
0.0
 11
323.00730407277382
 21
303.4219288870338
 31
0.0
  0
LINE
  5
2094
  8
0
 62
     0
 10
322.37230407277377
 20
303.4219288870338
 30
0.0
 11
322.37230407277377
 21
303.4219288870338
 31
0.0
  0
LINE
  5
2095
  8
0
 62
     0
 10
321.73730407277378
 20
303.4219288870338
 30
0.0
 11
321.73730407277378
 21
303.4219288870338
 31
0.0
  0
LINE
  5
2096
  8
0
 62
     0
 10
321.10230407277379
 20
303.4219288870338
 30
0.0
 11
321.10230407277379
 21
303.4219288870338
 31
0.0
  0
LINE
  5
2097
  8
0
 62
     0
 10
320.4673040727738
 20
303.4219288870338
 30
0.0
 11
320.4673040727738
 21
303.4219288870338
 31
0.0
  0
LINE
  5
2098
  8
0
 62
     0
 10
319.83230407277381
 20
303.4219288870338
 30
0.0
 11
319.83230407277381
 21
303.4219288870338
 31
0.0
  0
LINE
  5
2099
  8
0
 62
     0
 10
319.19730407277382
 20
303.4219288870338
 30
0.0
 11
319.19730407277382
 21
303.4219288870338
 31
0.0
  0
LINE
  5
209A
  8
0
 62
     0
 10
318.56230407277383
 20
303.4219288870338
 30
0.0
 11
318.56230407277383
 21
303.4219288870338
 31
0.0
  0
LINE
  5
209B
  8
0
 62
     0
 10
317.92730407277378
 20
303.4219288870338
 30
0.0
 11
317.92730407277378
 21
303.4219288870338
 31
0.0
  0
LINE
  5
209C
  8
0
 62
     0
 10
317.29230407277379
 20
303.4219288870338
 30
0.0
 11
317.29230407277379
 21
303.4219288870338
 31
0.0
  0
LINE
  5
209D
  8
0
 62
     0
 10
316.65730407277391
 20
303.4219288870338
 30
0.0
 11
316.65730407277391
 21
303.4219288870338
 31
0.0
  0
LINE
  5
209E
  8
0
 62
     0
 10
316.02230407277392
 20
303.4219288870338
 30
0.0
 11
316.02230407277392
 21
303.4219288870338
 31
0.0
  0
LINE
  5
209F
  8
0
 62
     0
 10
315.38730407277387
 20
303.4219288870338
 30
0.0
 11
315.38730407277387
 21
303.4219288870338
 31
0.0
  0
LINE
  5
20A0
  8
0
 62
     0
 10
314.75230407277388
 20
303.4219288870338
 30
0.0
 11
314.75230407277388
 21
303.4219288870338
 31
0.0
  0
LINE
  5
20A1
  8
0
 62
     0
 10
314.11730407277389
 20
303.4219288870338
 30
0.0
 11
314.11730407277389
 21
303.4219288870338
 31
0.0
  0
LINE
  5
20A2
  8
0
 62
     0
 10
313.4823040727739
 20
303.4219288870338
 30
0.0
 11
313.4823040727739
 21
303.4219288870338
 31
0.0
  0
LINE
  5
20A3
  8
0
 62
     0
 10
312.84730407277391
 20
303.4219288870338
 30
0.0
 11
312.84730407277391
 21
303.4219288870338
 31
0.0
  0
LINE
  5
20A4
  8
0
 62
     0
 10
312.21230407277392
 20
303.4219288870338
 30
0.0
 11
312.21230407277392
 21
303.4219288870338
 31
0.0
  0
LINE
  5
20A5
  8
0
 62
     0
 10
311.57730407277393
 20
303.4219288870338
 30
0.0
 11
311.57730407277393
 21
303.4219288870338
 31
0.0
  0
LINE
  5
20A6
  8
0
 62
     0
 10
310.94230407277388
 20
303.4219288870338
 30
0.0
 11
310.94230407277388
 21
303.4219288870338
 31
0.0
  0
LINE
  5
20A7
  8
0
 62
     0
 10
310.307304072774
 20
303.4219288870338
 30
0.0
 11
310.307304072774
 21
303.4219288870338
 31
0.0
  0
LINE
  5
20A8
  8
0
 62
     0
 10
309.67230407277401
 20
303.4219288870338
 30
0.0
 11
309.67230407277401
 21
303.4219288870338
 31
0.0
  0
LINE
  5
20A9
  8
0
 62
     0
 10
309.03730407277402
 20
303.4219288870338
 30
0.0
 11
309.03730407277402
 21
303.4219288870338
 31
0.0
  0
LINE
  5
20AA
  8
0
 62
     0
 10
308.40230407277397
 20
303.4219288870338
 30
0.0
 11
308.40230407277397
 21
303.4219288870338
 31
0.0
  0
LINE
  5
20AB
  8
0
 62
     0
 10
307.76730407277398
 20
303.4219288870338
 30
0.0
 11
307.76730407277398
 21
303.4219288870338
 31
0.0
  0
LINE
  5
20AC
  8
0
 62
     0
 10
296.97230407277368
 20
303.4219288870338
 30
0.0
 11
296.97230407277368
 21
303.4219288870338
 31
0.0
  0
LINE
  5
20AD
  8
0
 62
     0
 10
296.33730407277369
 20
303.4219288870338
 30
0.0
 11
296.33730407277369
 21
303.4219288870338
 31
0.0
  0
LINE
  5
20AE
  8
0
 62
     0
 10
295.7023040727737
 20
303.4219288870338
 30
0.0
 11
295.7023040727737
 21
303.4219288870338
 31
0.0
  0
LINE
  5
20AF
  8
0
 62
     0
 10
295.06730407277371
 20
303.4219288870338
 30
0.0
 11
295.06730407277371
 21
303.4219288870338
 31
0.0
  0
LINE
  5
20B0
  8
0
 62
     0
 10
294.43230407277372
 20
303.4219288870338
 30
0.0
 11
294.43230407277372
 21
303.4219288870338
 31
0.0
  0
LINE
  5
20B1
  8
0
 62
     0
 10
293.79730407277373
 20
303.4219288870338
 30
0.0
 11
293.79730407277373
 21
303.4219288870338
 31
0.0
  0
LINE
  5
20B2
  8
0
 62
     0
 10
293.16230407277368
 20
303.4219288870338
 30
0.0
 11
293.16230407277368
 21
303.4219288870338
 31
0.0
  0
LINE
  5
20B3
  8
0
 62
     0
 10
292.52730407277369
 20
303.4219288870338
 30
0.0
 11
292.52730407277369
 21
303.4219288870338
 31
0.0
  0
LINE
  5
20B4
  8
0
 62
     0
 10
291.89230407277381
 20
303.4219288870338
 30
0.0
 11
291.89230407277381
 21
303.4219288870338
 31
0.0
  0
LINE
  5
20B5
  8
0
 62
     0
 10
291.25730407277382
 20
303.4219288870338
 30
0.0
 11
291.25730407277382
 21
303.4219288870338
 31
0.0
  0
LINE
  5
20B6
  8
0
 62
     0
 10
290.62230407277377
 20
303.4219288870338
 30
0.0
 11
290.62230407277377
 21
303.4219288870338
 31
0.0
  0
LINE
  5
20B7
  8
0
 62
     0
 10
289.98730407277378
 20
303.4219288870338
 30
0.0
 11
289.98730407277378
 21
303.4219288870338
 31
0.0
  0
LINE
  5
20B8
  8
0
 62
     0
 10
289.35230407277379
 20
303.4219288870338
 30
0.0
 11
289.35230407277379
 21
303.4219288870338
 31
0.0
  0
LINE
  5
20B9
  8
0
 62
     0
 10
288.7173040727738
 20
303.4219288870338
 30
0.0
 11
288.7173040727738
 21
303.4219288870338
 31
0.0
  0
LINE
  5
20BA
  8
0
 62
     0
 10
288.08230407277381
 20
303.4219288870338
 30
0.0
 11
288.08230407277381
 21
303.4219288870338
 31
0.0
  0
LINE
  5
20BB
  8
0
 62
     0
 10
287.44730407277382
 20
303.4219288870338
 30
0.0
 11
287.44730407277382
 21
303.4219288870338
 31
0.0
  0
LINE
  5
20BC
  8
0
 62
     0
 10
286.81230407277383
 20
303.4219288870338
 30
0.0
 11
286.81230407277383
 21
303.4219288870338
 31
0.0
  0
LINE
  5
20BD
  8
0
 62
     0
 10
286.17730407277378
 20
303.4219288870338
 30
0.0
 11
286.17730407277378
 21
303.4219288870338
 31
0.0
  0
LINE
  5
20BE
  8
0
 62
     0
 10
285.5423040727739
 20
303.4219288870338
 30
0.0
 11
285.5423040727739
 21
303.4219288870338
 31
0.0
  0
LINE
  5
20BF
  8
0
 62
     0
 10
284.90730407277391
 20
303.4219288870338
 30
0.0
 11
284.90730407277391
 21
303.4219288870338
 31
0.0
  0
LINE
  5
20C0
  8
0
 62
     0
 10
284.27230407277392
 20
303.4219288870338
 30
0.0
 11
284.27230407277392
 21
303.4219288870338
 31
0.0
  0
LINE
  5
20C1
  8
0
 62
     0
 10
283.63730407277387
 20
303.4219288870338
 30
0.0
 11
283.63730407277387
 21
303.4219288870338
 31
0.0
  0
LINE
  5
20C2
  8
0
 62
     0
 10
283.00230407277388
 20
303.4219288870338
 30
0.0
 11
283.00230407277388
 21
303.4219288870338
 31
0.0
  0
LINE
  5
20C3
  8
0
 62
     0
 10
282.36730407277389
 20
303.4219288870338
 30
0.0
 11
282.36730407277389
 21
303.4219288870338
 31
0.0
  0
LINE
  5
20C4
  8
0
 62
     0
 10
281.7323040727739
 20
303.4219288870338
 30
0.0
 11
281.7323040727739
 21
303.4219288870338
 31
0.0
  0
LINE
  5
20C5
  8
0
 62
     0
 10
281.09730407277391
 20
303.4219288870338
 30
0.0
 11
281.09730407277391
 21
303.4219288870338
 31
0.0
  0
LINE
  5
20C6
  8
0
 62
     0
 10
280.46230407277392
 20
303.4219288870338
 30
0.0
 11
280.46230407277392
 21
303.4219288870338
 31
0.0
  0
LINE
  5
20C7
  8
0
 62
     0
 10
279.82730407277393
 20
303.4219288870338
 30
0.0
 11
279.82730407277393
 21
303.4219288870338
 31
0.0
  0
LINE
  5
20C8
  8
0
 62
     0
 10
279.19230407277399
 20
303.4219288870338
 30
0.0
 11
279.19230407277399
 21
303.4219288870338
 31
0.0
  0
LINE
  5
20C9
  8
0
 62
     0
 10
278.557304072774
 20
303.4219288870338
 30
0.0
 11
278.557304072774
 21
303.4219288870338
 31
0.0
  0
LINE
  5
20CA
  8
0
 62
     0
 10
277.9223040727739
 20
303.4219288870338
 30
0.0
 11
277.9223040727739
 21
303.4219288870338
 31
0.0
  0
LINE
  5
20CB
  8
0
 62
     0
 10
327.1348040727737
 20
304.05692888703379
 30
0.0
 11
327.1348040727737
 21
304.05692888703379
 31
0.0
  0
LINE
  5
20CC
  8
0
 62
     0
 10
326.49980407277371
 20
304.05692888703379
 30
0.0
 11
326.49980407277371
 21
304.05692888703379
 31
0.0
  0
LINE
  5
20CD
  8
0
 62
     0
 10
325.86480407277372
 20
304.05692888703379
 30
0.0
 11
325.86480407277372
 21
304.05692888703379
 31
0.0
  0
LINE
  5
20CE
  8
0
 62
     0
 10
325.22980407277367
 20
304.05692888703379
 30
0.0
 11
325.22980407277367
 21
304.05692888703379
 31
0.0
  0
LINE
  5
20CF
  8
0
 62
     0
 10
324.59480407277368
 20
304.05692888703379
 30
0.0
 11
324.59480407277368
 21
304.05692888703379
 31
0.0
  0
LINE
  5
20D0
  8
0
 62
     0
 10
323.95980407277381
 20
304.05692888703379
 30
0.0
 11
323.95980407277381
 21
304.05692888703379
 31
0.0
  0
LINE
  5
20D1
  8
0
 62
     0
 10
323.32480407277382
 20
304.05692888703379
 30
0.0
 11
323.32480407277382
 21
304.05692888703379
 31
0.0
  0
LINE
  5
20D2
  8
0
 62
     0
 10
322.68980407277382
 20
304.05692888703379
 30
0.0
 11
322.68980407277382
 21
304.05692888703379
 31
0.0
  0
LINE
  5
20D3
  8
0
 62
     0
 10
322.05480407277378
 20
304.05692888703379
 30
0.0
 11
322.05480407277378
 21
304.05692888703379
 31
0.0
  0
LINE
  5
20D4
  8
0
 62
     0
 10
321.41980407277379
 20
304.05692888703379
 30
0.0
 11
321.41980407277379
 21
304.05692888703379
 31
0.0
  0
LINE
  5
20D5
  8
0
 62
     0
 10
320.7848040727738
 20
304.05692888703379
 30
0.0
 11
320.7848040727738
 21
304.05692888703379
 31
0.0
  0
LINE
  5
20D6
  8
0
 62
     0
 10
320.1498040727738
 20
304.05692888703379
 30
0.0
 11
320.1498040727738
 21
304.05692888703379
 31
0.0
  0
LINE
  5
20D7
  8
0
 62
     0
 10
319.51480407277381
 20
304.05692888703379
 30
0.0
 11
319.51480407277381
 21
304.05692888703379
 31
0.0
  0
LINE
  5
20D8
  8
0
 62
     0
 10
318.87980407277382
 20
304.05692888703379
 30
0.0
 11
318.87980407277382
 21
304.05692888703379
 31
0.0
  0
LINE
  5
20D9
  8
0
 62
     0
 10
318.24480407277377
 20
304.05692888703379
 30
0.0
 11
318.24480407277377
 21
304.05692888703379
 31
0.0
  0
LINE
  5
20DA
  8
0
 62
     0
 10
317.6098040727739
 20
304.05692888703379
 30
0.0
 11
317.6098040727739
 21
304.05692888703379
 31
0.0
  0
LINE
  5
20DB
  8
0
 62
     0
 10
316.97480407277391
 20
304.05692888703379
 30
0.0
 11
316.97480407277391
 21
304.05692888703379
 31
0.0
  0
LINE
  5
20DC
  8
0
 62
     0
 10
316.3398040727738
 20
304.05692888703379
 30
0.0
 11
316.3398040727738
 21
304.05692888703379
 31
0.0
  0
LINE
  5
20DD
  8
0
 62
     0
 10
315.70480407277392
 20
304.05692888703379
 30
0.0
 11
315.70480407277392
 21
304.05692888703379
 31
0.0
  0
LINE
  5
20DE
  8
0
 62
     0
 10
315.06980407277388
 20
304.05692888703379
 30
0.0
 11
315.06980407277388
 21
304.05692888703379
 31
0.0
  0
LINE
  5
20DF
  8
0
 62
     0
 10
314.43480407277389
 20
304.05692888703379
 30
0.0
 11
314.43480407277389
 21
304.05692888703379
 31
0.0
  0
LINE
  5
20E0
  8
0
 62
     0
 10
313.7998040727739
 20
304.05692888703379
 30
0.0
 11
313.7998040727739
 21
304.05692888703379
 31
0.0
  0
LINE
  5
20E1
  8
0
 62
     0
 10
313.1648040727739
 20
304.05692888703379
 30
0.0
 11
313.1648040727739
 21
304.05692888703379
 31
0.0
  0
LINE
  5
20E2
  8
0
 62
     0
 10
312.52980407277391
 20
304.05692888703379
 30
0.0
 11
312.52980407277391
 21
304.05692888703379
 31
0.0
  0
LINE
  5
20E3
  8
0
 62
     0
 10
311.89480407277392
 20
304.05692888703379
 30
0.0
 11
311.89480407277392
 21
304.05692888703379
 31
0.0
  0
LINE
  5
20E4
  8
0
 62
     0
 10
311.25980407277399
 20
304.05692888703379
 30
0.0
 11
311.25980407277399
 21
304.05692888703379
 31
0.0
  0
LINE
  5
20E5
  8
0
 62
     0
 10
310.62480407277388
 20
304.05692888703379
 30
0.0
 11
310.62480407277388
 21
304.05692888703379
 31
0.0
  0
LINE
  5
20E6
  8
0
 62
     0
 10
309.98980407277389
 20
304.05692888703379
 30
0.0
 11
309.98980407277389
 21
304.05692888703379
 31
0.0
  0
LINE
  5
20E7
  8
0
 62
     0
 10
309.35480407277402
 20
304.05692888703379
 30
0.0
 11
309.35480407277402
 21
304.05692888703379
 31
0.0
  0
LINE
  5
20E8
  8
0
 62
     0
 10
308.71980407277402
 20
304.05692888703379
 30
0.0
 11
308.71980407277402
 21
304.05692888703379
 31
0.0
  0
LINE
  5
20E9
  8
0
 62
     0
 10
308.08480407277398
 20
304.05692888703379
 30
0.0
 11
308.08480407277398
 21
304.05692888703379
 31
0.0
  0
LINE
  5
20EA
  8
0
 62
     0
 10
307.44980407277399
 20
304.05692888703379
 30
0.0
 11
307.44980407277399
 21
304.05692888703379
 31
0.0
  0
LINE
  5
20EB
  8
0
 62
     0
 10
297.28980407277368
 20
304.05692888703379
 30
0.0
 11
297.28980407277368
 21
304.05692888703379
 31
0.0
  0
LINE
  5
20EC
  8
0
 62
     0
 10
296.65480407277369
 20
304.05692888703379
 30
0.0
 11
296.65480407277369
 21
304.05692888703379
 31
0.0
  0
LINE
  5
20ED
  8
0
 62
     0
 10
296.0198040727737
 20
304.05692888703379
 30
0.0
 11
296.0198040727737
 21
304.05692888703379
 31
0.0
  0
LINE
  5
20EE
  8
0
 62
     0
 10
295.3848040727737
 20
304.05692888703379
 30
0.0
 11
295.3848040727737
 21
304.05692888703379
 31
0.0
  0
LINE
  5
20EF
  8
0
 62
     0
 10
294.74980407277371
 20
304.05692888703379
 30
0.0
 11
294.74980407277371
 21
304.05692888703379
 31
0.0
  0
LINE
  5
20F0
  8
0
 62
     0
 10
294.11480407277372
 20
304.05692888703379
 30
0.0
 11
294.11480407277372
 21
304.05692888703379
 31
0.0
  0
LINE
  5
20F1
  8
0
 62
     0
 10
293.47980407277367
 20
304.05692888703379
 30
0.0
 11
293.47980407277367
 21
304.05692888703379
 31
0.0
  0
LINE
  5
20F2
  8
0
 62
     0
 10
292.8448040727738
 20
304.05692888703379
 30
0.0
 11
292.8448040727738
 21
304.05692888703379
 31
0.0
  0
LINE
  5
20F3
  8
0
 62
     0
 10
292.20980407277381
 20
304.05692888703379
 30
0.0
 11
292.20980407277381
 21
304.05692888703379
 31
0.0
  0
LINE
  5
20F4
  8
0
 62
     0
 10
291.57480407277382
 20
304.05692888703379
 30
0.0
 11
291.57480407277382
 21
304.05692888703379
 31
0.0
  0
LINE
  5
20F5
  8
0
 62
     0
 10
290.93980407277371
 20
304.05692888703379
 30
0.0
 11
290.93980407277371
 21
304.05692888703379
 31
0.0
  0
LINE
  5
20F6
  8
0
 62
     0
 10
290.30480407277378
 20
304.05692888703379
 30
0.0
 11
290.30480407277378
 21
304.05692888703379
 31
0.0
  0
LINE
  5
20F7
  8
0
 62
     0
 10
289.66980407277379
 20
304.05692888703379
 30
0.0
 11
289.66980407277379
 21
304.05692888703379
 31
0.0
  0
LINE
  5
20F8
  8
0
 62
     0
 10
289.0348040727738
 20
304.05692888703379
 30
0.0
 11
289.0348040727738
 21
304.05692888703379
 31
0.0
  0
LINE
  5
20F9
  8
0
 62
     0
 10
288.3998040727738
 20
304.05692888703379
 30
0.0
 11
288.3998040727738
 21
304.05692888703379
 31
0.0
  0
LINE
  5
20FA
  8
0
 62
     0
 10
287.76480407277381
 20
304.05692888703379
 30
0.0
 11
287.76480407277381
 21
304.05692888703379
 31
0.0
  0
LINE
  5
20FB
  8
0
 62
     0
 10
287.12980407277382
 20
304.05692888703379
 30
0.0
 11
287.12980407277382
 21
304.05692888703379
 31
0.0
  0
LINE
  5
20FC
  8
0
 62
     0
 10
286.49480407277389
 20
304.05692888703379
 30
0.0
 11
286.49480407277389
 21
304.05692888703379
 31
0.0
  0
LINE
  5
20FD
  8
0
 62
     0
 10
285.85980407277378
 20
304.05692888703379
 30
0.0
 11
285.85980407277378
 21
304.05692888703379
 31
0.0
  0
LINE
  5
20FE
  8
0
 62
     0
 10
285.22480407277379
 20
304.05692888703379
 30
0.0
 11
285.22480407277379
 21
304.05692888703379
 31
0.0
  0
LINE
  5
20FF
  8
0
 62
     0
 10
284.58980407277392
 20
304.05692888703379
 30
0.0
 11
284.58980407277392
 21
304.05692888703379
 31
0.0
  0
LINE
  5
2100
  8
0
 62
     0
 10
283.95480407277392
 20
304.05692888703379
 30
0.0
 11
283.95480407277392
 21
304.05692888703379
 31
0.0
  0
LINE
  5
2101
  8
0
 62
     0
 10
283.31980407277388
 20
304.05692888703379
 30
0.0
 11
283.31980407277388
 21
304.05692888703379
 31
0.0
  0
LINE
  5
2102
  8
0
 62
     0
 10
282.68480407277389
 20
304.05692888703379
 30
0.0
 11
282.68480407277389
 21
304.05692888703379
 31
0.0
  0
LINE
  5
2103
  8
0
 62
     0
 10
282.0498040727739
 20
304.05692888703379
 30
0.0
 11
282.0498040727739
 21
304.05692888703379
 31
0.0
  0
LINE
  5
2104
  8
0
 62
     0
 10
281.4148040727739
 20
304.05692888703379
 30
0.0
 11
281.4148040727739
 21
304.05692888703379
 31
0.0
  0
LINE
  5
2105
  8
0
 62
     0
 10
280.77980407277391
 20
304.05692888703379
 30
0.0
 11
280.77980407277391
 21
304.05692888703379
 31
0.0
  0
LINE
  5
2106
  8
0
 62
     0
 10
280.14480407277392
 20
304.05692888703379
 30
0.0
 11
280.14480407277392
 21
304.05692888703379
 31
0.0
  0
LINE
  5
2107
  8
0
 62
     0
 10
279.50980407277387
 20
304.05692888703379
 30
0.0
 11
279.50980407277387
 21
304.05692888703379
 31
0.0
  0
LINE
  5
2108
  8
0
 62
     0
 10
278.87480407277388
 20
304.05692888703379
 30
0.0
 11
278.87480407277388
 21
304.05692888703379
 31
0.0
  0
LINE
  5
2109
  8
0
 62
     0
 10
278.23980407277389
 20
304.05692888703379
 30
0.0
 11
278.23980407277389
 21
304.05692888703379
 31
0.0
  0
LINE
  5
210A
  8
0
 62
     0
 10
277.60480407277402
 20
304.05692888703379
 30
0.0
 11
277.60480407277402
 21
304.05692888703379
 31
0.0
  0
LINE
  5
210B
  8
0
 62
     0
 10
326.81730407277371
 20
304.69192888703378
 30
0.0
 11
326.81730407277371
 21
304.69192888703378
 31
0.0
  0
LINE
  5
210C
  8
0
 62
     0
 10
326.18230407277372
 20
304.69192888703378
 30
0.0
 11
326.18230407277372
 21
304.69192888703378
 31
0.0
  0
LINE
  5
210D
  8
0
 62
     0
 10
325.54730407277373
 20
304.69192888703378
 30
0.0
 11
325.54730407277373
 21
304.69192888703378
 31
0.0
  0
LINE
  5
210E
  8
0
 62
     0
 10
324.91230407277379
 20
304.69192888703378
 30
0.0
 11
324.91230407277379
 21
304.69192888703378
 31
0.0
  0
LINE
  5
210F
  8
0
 62
     0
 10
324.27730407277369
 20
304.69192888703378
 30
0.0
 11
324.27730407277369
 21
304.69192888703378
 31
0.0
  0
LINE
  5
2110
  8
0
 62
     0
 10
323.6423040727737
 20
304.69192888703378
 30
0.0
 11
323.6423040727737
 21
304.69192888703378
 31
0.0
  0
LINE
  5
2111
  8
0
 62
     0
 10
323.00730407277382
 20
304.69192888703378
 30
0.0
 11
323.00730407277382
 21
304.69192888703378
 31
0.0
  0
LINE
  5
2112
  8
0
 62
     0
 10
322.37230407277377
 20
304.69192888703378
 30
0.0
 11
322.37230407277377
 21
304.69192888703378
 31
0.0
  0
LINE
  5
2113
  8
0
 62
     0
 10
321.73730407277378
 20
304.69192888703378
 30
0.0
 11
321.73730407277378
 21
304.69192888703378
 31
0.0
  0
LINE
  5
2114
  8
0
 62
     0
 10
321.10230407277379
 20
304.69192888703378
 30
0.0
 11
321.10230407277379
 21
304.69192888703378
 31
0.0
  0
LINE
  5
2115
  8
0
 62
     0
 10
320.4673040727738
 20
304.69192888703378
 30
0.0
 11
320.4673040727738
 21
304.69192888703378
 31
0.0
  0
LINE
  5
2116
  8
0
 62
     0
 10
319.83230407277381
 20
304.69192888703378
 30
0.0
 11
319.83230407277381
 21
304.69192888703378
 31
0.0
  0
LINE
  5
2117
  8
0
 62
     0
 10
319.19730407277382
 20
304.69192888703378
 30
0.0
 11
319.19730407277382
 21
304.69192888703378
 31
0.0
  0
LINE
  5
2118
  8
0
 62
     0
 10
318.56230407277383
 20
304.69192888703378
 30
0.0
 11
318.56230407277383
 21
304.69192888703378
 31
0.0
  0
LINE
  5
2119
  8
0
 62
     0
 10
317.92730407277378
 20
304.69192888703378
 30
0.0
 11
317.92730407277378
 21
304.69192888703378
 31
0.0
  0
LINE
  5
211A
  8
0
 62
     0
 10
317.29230407277379
 20
304.69192888703378
 30
0.0
 11
317.29230407277379
 21
304.69192888703378
 31
0.0
  0
LINE
  5
211B
  8
0
 62
     0
 10
316.65730407277391
 20
304.69192888703378
 30
0.0
 11
316.65730407277391
 21
304.69192888703378
 31
0.0
  0
LINE
  5
211C
  8
0
 62
     0
 10
316.02230407277392
 20
304.69192888703378
 30
0.0
 11
316.02230407277392
 21
304.69192888703378
 31
0.0
  0
LINE
  5
211D
  8
0
 62
     0
 10
315.38730407277387
 20
304.69192888703378
 30
0.0
 11
315.38730407277387
 21
304.69192888703378
 31
0.0
  0
LINE
  5
211E
  8
0
 62
     0
 10
314.75230407277388
 20
304.69192888703378
 30
0.0
 11
314.75230407277388
 21
304.69192888703378
 31
0.0
  0
LINE
  5
211F
  8
0
 62
     0
 10
314.11730407277389
 20
304.69192888703378
 30
0.0
 11
314.11730407277389
 21
304.69192888703378
 31
0.0
  0
LINE
  5
2120
  8
0
 62
     0
 10
313.4823040727739
 20
304.69192888703378
 30
0.0
 11
313.4823040727739
 21
304.69192888703378
 31
0.0
  0
LINE
  5
2121
  8
0
 62
     0
 10
312.84730407277391
 20
304.69192888703378
 30
0.0
 11
312.84730407277391
 21
304.69192888703378
 31
0.0
  0
LINE
  5
2122
  8
0
 62
     0
 10
312.21230407277392
 20
304.69192888703378
 30
0.0
 11
312.21230407277392
 21
304.69192888703378
 31
0.0
  0
LINE
  5
2123
  8
0
 62
     0
 10
311.57730407277393
 20
304.69192888703378
 30
0.0
 11
311.57730407277393
 21
304.69192888703378
 31
0.0
  0
LINE
  5
2124
  8
0
 62
     0
 10
310.94230407277388
 20
304.69192888703378
 30
0.0
 11
310.94230407277388
 21
304.69192888703378
 31
0.0
  0
LINE
  5
2125
  8
0
 62
     0
 10
310.307304072774
 20
304.69192888703378
 30
0.0
 11
310.307304072774
 21
304.69192888703378
 31
0.0
  0
LINE
  5
2126
  8
0
 62
     0
 10
309.67230407277401
 20
304.69192888703378
 30
0.0
 11
309.67230407277401
 21
304.69192888703378
 31
0.0
  0
LINE
  5
2127
  8
0
 62
     0
 10
309.03730407277402
 20
304.69192888703378
 30
0.0
 11
309.03730407277402
 21
304.69192888703378
 31
0.0
  0
LINE
  5
2128
  8
0
 62
     0
 10
308.40230407277397
 20
304.69192888703378
 30
0.0
 11
308.40230407277397
 21
304.69192888703378
 31
0.0
  0
LINE
  5
2129
  8
0
 62
     0
 10
307.76730407277398
 20
304.69192888703378
 30
0.0
 11
307.76730407277398
 21
304.69192888703378
 31
0.0
  0
LINE
  5
212A
  8
0
 62
     0
 10
296.97230407277368
 20
304.69192888703378
 30
0.0
 11
296.97230407277368
 21
304.69192888703378
 31
0.0
  0
LINE
  5
212B
  8
0
 62
     0
 10
296.33730407277369
 20
304.69192888703378
 30
0.0
 11
296.33730407277369
 21
304.69192888703378
 31
0.0
  0
LINE
  5
212C
  8
0
 62
     0
 10
295.7023040727737
 20
304.69192888703378
 30
0.0
 11
295.7023040727737
 21
304.69192888703378
 31
0.0
  0
LINE
  5
212D
  8
0
 62
     0
 10
295.06730407277371
 20
304.69192888703378
 30
0.0
 11
295.06730407277371
 21
304.69192888703378
 31
0.0
  0
LINE
  5
212E
  8
0
 62
     0
 10
294.43230407277372
 20
304.69192888703378
 30
0.0
 11
294.43230407277372
 21
304.69192888703378
 31
0.0
  0
LINE
  5
212F
  8
0
 62
     0
 10
293.79730407277373
 20
304.69192888703378
 30
0.0
 11
293.79730407277373
 21
304.69192888703378
 31
0.0
  0
LINE
  5
2130
  8
0
 62
     0
 10
293.16230407277368
 20
304.69192888703378
 30
0.0
 11
293.16230407277368
 21
304.69192888703378
 31
0.0
  0
LINE
  5
2131
  8
0
 62
     0
 10
292.52730407277369
 20
304.69192888703378
 30
0.0
 11
292.52730407277369
 21
304.69192888703378
 31
0.0
  0
LINE
  5
2132
  8
0
 62
     0
 10
291.89230407277381
 20
304.69192888703378
 30
0.0
 11
291.89230407277381
 21
304.69192888703378
 31
0.0
  0
LINE
  5
2133
  8
0
 62
     0
 10
291.25730407277382
 20
304.69192888703378
 30
0.0
 11
291.25730407277382
 21
304.69192888703378
 31
0.0
  0
LINE
  5
2134
  8
0
 62
     0
 10
290.62230407277377
 20
304.69192888703378
 30
0.0
 11
290.62230407277377
 21
304.69192888703378
 31
0.0
  0
LINE
  5
2135
  8
0
 62
     0
 10
289.98730407277378
 20
304.69192888703378
 30
0.0
 11
289.98730407277378
 21
304.69192888703378
 31
0.0
  0
LINE
  5
2136
  8
0
 62
     0
 10
289.35230407277379
 20
304.69192888703378
 30
0.0
 11
289.35230407277379
 21
304.69192888703378
 31
0.0
  0
LINE
  5
2137
  8
0
 62
     0
 10
288.7173040727738
 20
304.69192888703378
 30
0.0
 11
288.7173040727738
 21
304.69192888703378
 31
0.0
  0
LINE
  5
2138
  8
0
 62
     0
 10
288.08230407277381
 20
304.69192888703378
 30
0.0
 11
288.08230407277381
 21
304.69192888703378
 31
0.0
  0
LINE
  5
2139
  8
0
 62
     0
 10
287.44730407277382
 20
304.69192888703378
 30
0.0
 11
287.44730407277382
 21
304.69192888703378
 31
0.0
  0
LINE
  5
213A
  8
0
 62
     0
 10
286.81230407277383
 20
304.69192888703378
 30
0.0
 11
286.81230407277383
 21
304.69192888703378
 31
0.0
  0
LINE
  5
213B
  8
0
 62
     0
 10
286.17730407277378
 20
304.69192888703378
 30
0.0
 11
286.17730407277378
 21
304.69192888703378
 31
0.0
  0
LINE
  5
213C
  8
0
 62
     0
 10
285.5423040727739
 20
304.69192888703378
 30
0.0
 11
285.5423040727739
 21
304.69192888703378
 31
0.0
  0
LINE
  5
213D
  8
0
 62
     0
 10
284.90730407277391
 20
304.69192888703378
 30
0.0
 11
284.90730407277391
 21
304.69192888703378
 31
0.0
  0
LINE
  5
213E
  8
0
 62
     0
 10
284.27230407277392
 20
304.69192888703378
 30
0.0
 11
284.27230407277392
 21
304.69192888703378
 31
0.0
  0
LINE
  5
213F
  8
0
 62
     0
 10
283.63730407277387
 20
304.69192888703378
 30
0.0
 11
283.63730407277387
 21
304.69192888703378
 31
0.0
  0
LINE
  5
2140
  8
0
 62
     0
 10
283.00230407277388
 20
304.69192888703378
 30
0.0
 11
283.00230407277388
 21
304.69192888703378
 31
0.0
  0
LINE
  5
2141
  8
0
 62
     0
 10
282.36730407277389
 20
304.69192888703378
 30
0.0
 11
282.36730407277389
 21
304.69192888703378
 31
0.0
  0
LINE
  5
2142
  8
0
 62
     0
 10
281.7323040727739
 20
304.69192888703378
 30
0.0
 11
281.7323040727739
 21
304.69192888703378
 31
0.0
  0
LINE
  5
2143
  8
0
 62
     0
 10
281.09730407277391
 20
304.69192888703378
 30
0.0
 11
281.09730407277391
 21
304.69192888703378
 31
0.0
  0
LINE
  5
2144
  8
0
 62
     0
 10
280.46230407277392
 20
304.69192888703378
 30
0.0
 11
280.46230407277392
 21
304.69192888703378
 31
0.0
  0
LINE
  5
2145
  8
0
 62
     0
 10
279.82730407277393
 20
304.69192888703378
 30
0.0
 11
279.82730407277393
 21
304.69192888703378
 31
0.0
  0
LINE
  5
2146
  8
0
 62
     0
 10
279.19230407277399
 20
304.69192888703378
 30
0.0
 11
279.19230407277399
 21
304.69192888703378
 31
0.0
  0
LINE
  5
2147
  8
0
 62
     0
 10
278.557304072774
 20
304.69192888703378
 30
0.0
 11
278.557304072774
 21
304.69192888703378
 31
0.0
  0
LINE
  5
2148
  8
0
 62
     0
 10
277.9223040727739
 20
304.69192888703378
 30
0.0
 11
277.9223040727739
 21
304.69192888703378
 31
0.0
  0
LINE
  5
2149
  8
0
 62
     0
 10
327.1348040727737
 20
305.32692888703377
 30
0.0
 11
327.1348040727737
 21
305.32692888703377
 31
0.0
  0
LINE
  5
214A
  8
0
 62
     0
 10
326.49980407277371
 20
305.32692888703377
 30
0.0
 11
326.49980407277371
 21
305.32692888703377
 31
0.0
  0
LINE
  5
214B
  8
0
 62
     0
 10
325.86480407277372
 20
305.32692888703377
 30
0.0
 11
325.86480407277372
 21
305.32692888703377
 31
0.0
  0
LINE
  5
214C
  8
0
 62
     0
 10
325.22980407277367
 20
305.32692888703377
 30
0.0
 11
325.22980407277367
 21
305.32692888703377
 31
0.0
  0
LINE
  5
214D
  8
0
 62
     0
 10
324.59480407277368
 20
305.32692888703377
 30
0.0
 11
324.59480407277368
 21
305.32692888703377
 31
0.0
  0
LINE
  5
214E
  8
0
 62
     0
 10
323.95980407277381
 20
305.32692888703377
 30
0.0
 11
323.95980407277381
 21
305.32692888703377
 31
0.0
  0
LINE
  5
214F
  8
0
 62
     0
 10
323.32480407277382
 20
305.32692888703377
 30
0.0
 11
323.32480407277382
 21
305.32692888703377
 31
0.0
  0
LINE
  5
2150
  8
0
 62
     0
 10
322.68980407277382
 20
305.32692888703377
 30
0.0
 11
322.68980407277382
 21
305.32692888703377
 31
0.0
  0
LINE
  5
2151
  8
0
 62
     0
 10
322.05480407277378
 20
305.32692888703377
 30
0.0
 11
322.05480407277378
 21
305.32692888703377
 31
0.0
  0
LINE
  5
2152
  8
0
 62
     0
 10
321.41980407277379
 20
305.32692888703377
 30
0.0
 11
321.41980407277379
 21
305.32692888703377
 31
0.0
  0
LINE
  5
2153
  8
0
 62
     0
 10
320.7848040727738
 20
305.32692888703377
 30
0.0
 11
320.7848040727738
 21
305.32692888703377
 31
0.0
  0
LINE
  5
2154
  8
0
 62
     0
 10
320.1498040727738
 20
305.32692888703377
 30
0.0
 11
320.1498040727738
 21
305.32692888703377
 31
0.0
  0
LINE
  5
2155
  8
0
 62
     0
 10
319.51480407277381
 20
305.32692888703377
 30
0.0
 11
319.51480407277381
 21
305.32692888703377
 31
0.0
  0
LINE
  5
2156
  8
0
 62
     0
 10
318.87980407277382
 20
305.32692888703377
 30
0.0
 11
318.87980407277382
 21
305.32692888703377
 31
0.0
  0
LINE
  5
2157
  8
0
 62
     0
 10
318.24480407277377
 20
305.32692888703377
 30
0.0
 11
318.24480407277377
 21
305.32692888703377
 31
0.0
  0
LINE
  5
2158
  8
0
 62
     0
 10
317.6098040727739
 20
305.32692888703377
 30
0.0
 11
317.6098040727739
 21
305.32692888703377
 31
0.0
  0
LINE
  5
2159
  8
0
 62
     0
 10
316.97480407277391
 20
305.32692888703377
 30
0.0
 11
316.97480407277391
 21
305.32692888703377
 31
0.0
  0
LINE
  5
215A
  8
0
 62
     0
 10
316.3398040727738
 20
305.32692888703377
 30
0.0
 11
316.3398040727738
 21
305.32692888703377
 31
0.0
  0
LINE
  5
215B
  8
0
 62
     0
 10
315.70480407277392
 20
305.32692888703377
 30
0.0
 11
315.70480407277392
 21
305.32692888703377
 31
0.0
  0
LINE
  5
215C
  8
0
 62
     0
 10
315.06980407277388
 20
305.32692888703377
 30
0.0
 11
315.06980407277388
 21
305.32692888703377
 31
0.0
  0
LINE
  5
215D
  8
0
 62
     0
 10
314.43480407277389
 20
305.32692888703377
 30
0.0
 11
314.43480407277389
 21
305.32692888703377
 31
0.0
  0
LINE
  5
215E
  8
0
 62
     0
 10
313.7998040727739
 20
305.32692888703377
 30
0.0
 11
313.7998040727739
 21
305.32692888703377
 31
0.0
  0
LINE
  5
215F
  8
0
 62
     0
 10
313.1648040727739
 20
305.32692888703377
 30
0.0
 11
313.1648040727739
 21
305.32692888703377
 31
0.0
  0
LINE
  5
2160
  8
0
 62
     0
 10
312.52980407277391
 20
305.32692888703377
 30
0.0
 11
312.52980407277391
 21
305.32692888703377
 31
0.0
  0
LINE
  5
2161
  8
0
 62
     0
 10
311.89480407277392
 20
305.32692888703377
 30
0.0
 11
311.89480407277392
 21
305.32692888703377
 31
0.0
  0
LINE
  5
2162
  8
0
 62
     0
 10
311.25980407277399
 20
305.32692888703377
 30
0.0
 11
311.25980407277399
 21
305.32692888703377
 31
0.0
  0
LINE
  5
2163
  8
0
 62
     0
 10
310.62480407277388
 20
305.32692888703377
 30
0.0
 11
310.62480407277388
 21
305.32692888703377
 31
0.0
  0
LINE
  5
2164
  8
0
 62
     0
 10
309.98980407277389
 20
305.32692888703377
 30
0.0
 11
309.98980407277389
 21
305.32692888703377
 31
0.0
  0
LINE
  5
2165
  8
0
 62
     0
 10
309.35480407277402
 20
305.32692888703377
 30
0.0
 11
309.35480407277402
 21
305.32692888703377
 31
0.0
  0
LINE
  5
2166
  8
0
 62
     0
 10
308.71980407277402
 20
305.32692888703377
 30
0.0
 11
308.71980407277402
 21
305.32692888703377
 31
0.0
  0
LINE
  5
2167
  8
0
 62
     0
 10
308.08480407277398
 20
305.32692888703377
 30
0.0
 11
308.08480407277398
 21
305.32692888703377
 31
0.0
  0
LINE
  5
2168
  8
0
 62
     0
 10
307.44980407277399
 20
305.32692888703377
 30
0.0
 11
307.44980407277399
 21
305.32692888703377
 31
0.0
  0
LINE
  5
2169
  8
0
 62
     0
 10
297.28980407277368
 20
305.32692888703377
 30
0.0
 11
297.28980407277368
 21
305.32692888703377
 31
0.0
  0
LINE
  5
216A
  8
0
 62
     0
 10
296.65480407277369
 20
305.32692888703377
 30
0.0
 11
296.65480407277369
 21
305.32692888703377
 31
0.0
  0
LINE
  5
216B
  8
0
 62
     0
 10
296.0198040727737
 20
305.32692888703377
 30
0.0
 11
296.0198040727737
 21
305.32692888703377
 31
0.0
  0
LINE
  5
216C
  8
0
 62
     0
 10
295.3848040727737
 20
305.32692888703377
 30
0.0
 11
295.3848040727737
 21
305.32692888703377
 31
0.0
  0
LINE
  5
216D
  8
0
 62
     0
 10
294.74980407277371
 20
305.32692888703377
 30
0.0
 11
294.74980407277371
 21
305.32692888703377
 31
0.0
  0
LINE
  5
216E
  8
0
 62
     0
 10
294.11480407277372
 20
305.32692888703377
 30
0.0
 11
294.11480407277372
 21
305.32692888703377
 31
0.0
  0
LINE
  5
216F
  8
0
 62
     0
 10
293.47980407277367
 20
305.32692888703377
 30
0.0
 11
293.47980407277367
 21
305.32692888703377
 31
0.0
  0
LINE
  5
2170
  8
0
 62
     0
 10
292.8448040727738
 20
305.32692888703377
 30
0.0
 11
292.8448040727738
 21
305.32692888703377
 31
0.0
  0
LINE
  5
2171
  8
0
 62
     0
 10
292.20980407277381
 20
305.32692888703377
 30
0.0
 11
292.20980407277381
 21
305.32692888703377
 31
0.0
  0
LINE
  5
2172
  8
0
 62
     0
 10
291.57480407277382
 20
305.32692888703377
 30
0.0
 11
291.57480407277382
 21
305.32692888703377
 31
0.0
  0
LINE
  5
2173
  8
0
 62
     0
 10
290.93980407277371
 20
305.32692888703377
 30
0.0
 11
290.93980407277371
 21
305.32692888703377
 31
0.0
  0
LINE
  5
2174
  8
0
 62
     0
 10
290.30480407277378
 20
305.32692888703377
 30
0.0
 11
290.30480407277378
 21
305.32692888703377
 31
0.0
  0
LINE
  5
2175
  8
0
 62
     0
 10
289.66980407277379
 20
305.32692888703377
 30
0.0
 11
289.66980407277379
 21
305.32692888703377
 31
0.0
  0
LINE
  5
2176
  8
0
 62
     0
 10
289.0348040727738
 20
305.32692888703377
 30
0.0
 11
289.0348040727738
 21
305.32692888703377
 31
0.0
  0
LINE
  5
2177
  8
0
 62
     0
 10
288.3998040727738
 20
305.32692888703377
 30
0.0
 11
288.3998040727738
 21
305.32692888703377
 31
0.0
  0
LINE
  5
2178
  8
0
 62
     0
 10
287.76480407277381
 20
305.32692888703377
 30
0.0
 11
287.76480407277381
 21
305.32692888703377
 31
0.0
  0
LINE
  5
2179
  8
0
 62
     0
 10
287.12980407277382
 20
305.32692888703377
 30
0.0
 11
287.12980407277382
 21
305.32692888703377
 31
0.0
  0
LINE
  5
217A
  8
0
 62
     0
 10
286.49480407277389
 20
305.32692888703377
 30
0.0
 11
286.49480407277389
 21
305.32692888703377
 31
0.0
  0
LINE
  5
217B
  8
0
 62
     0
 10
285.85980407277378
 20
305.32692888703377
 30
0.0
 11
285.85980407277378
 21
305.32692888703377
 31
0.0
  0
LINE
  5
217C
  8
0
 62
     0
 10
285.22480407277379
 20
305.32692888703377
 30
0.0
 11
285.22480407277379
 21
305.32692888703377
 31
0.0
  0
LINE
  5
217D
  8
0
 62
     0
 10
284.58980407277392
 20
305.32692888703377
 30
0.0
 11
284.58980407277392
 21
305.32692888703377
 31
0.0
  0
LINE
  5
217E
  8
0
 62
     0
 10
283.95480407277392
 20
305.32692888703377
 30
0.0
 11
283.95480407277392
 21
305.32692888703377
 31
0.0
  0
LINE
  5
217F
  8
0
 62
     0
 10
283.31980407277388
 20
305.32692888703377
 30
0.0
 11
283.31980407277388
 21
305.32692888703377
 31
0.0
  0
LINE
  5
2180
  8
0
 62
     0
 10
282.68480407277389
 20
305.32692888703377
 30
0.0
 11
282.68480407277389
 21
305.32692888703377
 31
0.0
  0
LINE
  5
2181
  8
0
 62
     0
 10
282.0498040727739
 20
305.32692888703377
 30
0.0
 11
282.0498040727739
 21
305.32692888703377
 31
0.0
  0
LINE
  5
2182
  8
0
 62
     0
 10
281.4148040727739
 20
305.32692888703377
 30
0.0
 11
281.4148040727739
 21
305.32692888703377
 31
0.0
  0
LINE
  5
2183
  8
0
 62
     0
 10
280.77980407277391
 20
305.32692888703377
 30
0.0
 11
280.77980407277391
 21
305.32692888703377
 31
0.0
  0
LINE
  5
2184
  8
0
 62
     0
 10
280.14480407277392
 20
305.32692888703377
 30
0.0
 11
280.14480407277392
 21
305.32692888703377
 31
0.0
  0
LINE
  5
2185
  8
0
 62
     0
 10
279.50980407277387
 20
305.32692888703377
 30
0.0
 11
279.50980407277387
 21
305.32692888703377
 31
0.0
  0
LINE
  5
2186
  8
0
 62
     0
 10
278.87480407277388
 20
305.32692888703377
 30
0.0
 11
278.87480407277388
 21
305.32692888703377
 31
0.0
  0
LINE
  5
2187
  8
0
 62
     0
 10
278.23980407277389
 20
305.32692888703377
 30
0.0
 11
278.23980407277389
 21
305.32692888703377
 31
0.0
  0
LINE
  5
2188
  8
0
 62
     0
 10
277.60480407277402
 20
305.32692888703377
 30
0.0
 11
277.60480407277402
 21
305.32692888703377
 31
0.0
  0
LINE
  5
2189
  8
0
 62
     0
 10
323.6423040727737
 20
305.96192888703382
 30
0.0
 11
323.6423040727737
 21
305.96192888703382
 31
0.0
  0
LINE
  5
218A
  8
0
 62
     0
 10
323.00730407277382
 20
305.96192888703382
 30
0.0
 11
323.00730407277382
 21
305.96192888703382
 31
0.0
  0
LINE
  5
218B
  8
0
 62
     0
 10
322.37230407277377
 20
305.96192888703382
 30
0.0
 11
322.37230407277377
 21
305.96192888703382
 31
0.0
  0
LINE
  5
218C
  8
0
 62
     0
 10
321.73730407277378
 20
305.96192888703382
 30
0.0
 11
321.73730407277378
 21
305.96192888703382
 31
0.0
  0
LINE
  5
218D
  8
0
 62
     0
 10
321.10230407277379
 20
305.96192888703382
 30
0.0
 11
321.10230407277379
 21
305.96192888703382
 31
0.0
  0
LINE
  5
218E
  8
0
 62
     0
 10
320.4673040727738
 20
305.96192888703382
 30
0.0
 11
320.4673040727738
 21
305.96192888703382
 31
0.0
  0
LINE
  5
218F
  8
0
 62
     0
 10
319.83230407277381
 20
305.96192888703382
 30
0.0
 11
319.83230407277381
 21
305.96192888703382
 31
0.0
  0
LINE
  5
2190
  8
0
 62
     0
 10
319.19730407277382
 20
305.96192888703382
 30
0.0
 11
319.19730407277382
 21
305.96192888703382
 31
0.0
  0
LINE
  5
2191
  8
0
 62
     0
 10
318.56230407277383
 20
305.96192888703382
 30
0.0
 11
318.56230407277383
 21
305.96192888703382
 31
0.0
  0
LINE
  5
2192
  8
0
 62
     0
 10
317.92730407277378
 20
305.96192888703382
 30
0.0
 11
317.92730407277378
 21
305.96192888703382
 31
0.0
  0
LINE
  5
2193
  8
0
 62
     0
 10
317.29230407277379
 20
305.96192888703382
 30
0.0
 11
317.29230407277379
 21
305.96192888703382
 31
0.0
  0
LINE
  5
2194
  8
0
 62
     0
 10
316.65730407277391
 20
305.96192888703382
 30
0.0
 11
316.65730407277391
 21
305.96192888703382
 31
0.0
  0
LINE
  5
2195
  8
0
 62
     0
 10
316.02230407277392
 20
305.96192888703382
 30
0.0
 11
316.02230407277392
 21
305.96192888703382
 31
0.0
  0
LINE
  5
2196
  8
0
 62
     0
 10
315.38730407277387
 20
305.96192888703382
 30
0.0
 11
315.38730407277387
 21
305.96192888703382
 31
0.0
  0
LINE
  5
2197
  8
0
 62
     0
 10
314.75230407277388
 20
305.96192888703382
 30
0.0
 11
314.75230407277388
 21
305.96192888703382
 31
0.0
  0
LINE
  5
2198
  8
0
 62
     0
 10
314.11730407277389
 20
305.96192888703382
 30
0.0
 11
314.11730407277389
 21
305.96192888703382
 31
0.0
  0
LINE
  5
2199
  8
0
 62
     0
 10
313.4823040727739
 20
305.96192888703382
 30
0.0
 11
313.4823040727739
 21
305.96192888703382
 31
0.0
  0
LINE
  5
219A
  8
0
 62
     0
 10
312.84730407277391
 20
305.96192888703382
 30
0.0
 11
312.84730407277391
 21
305.96192888703382
 31
0.0
  0
LINE
  5
219B
  8
0
 62
     0
 10
312.21230407277392
 20
305.96192888703382
 30
0.0
 11
312.21230407277392
 21
305.96192888703382
 31
0.0
  0
LINE
  5
219C
  8
0
 62
     0
 10
311.57730407277393
 20
305.96192888703382
 30
0.0
 11
311.57730407277393
 21
305.96192888703382
 31
0.0
  0
LINE
  5
219D
  8
0
 62
     0
 10
310.94230407277388
 20
305.96192888703382
 30
0.0
 11
310.94230407277388
 21
305.96192888703382
 31
0.0
  0
LINE
  5
219E
  8
0
 62
     0
 10
310.307304072774
 20
305.96192888703382
 30
0.0
 11
310.307304072774
 21
305.96192888703382
 31
0.0
  0
LINE
  5
219F
  8
0
 62
     0
 10
309.67230407277401
 20
305.96192888703382
 30
0.0
 11
309.67230407277401
 21
305.96192888703382
 31
0.0
  0
LINE
  5
21A0
  8
0
 62
     0
 10
309.03730407277402
 20
305.96192888703382
 30
0.0
 11
309.03730407277402
 21
305.96192888703382
 31
0.0
  0
LINE
  5
21A1
  8
0
 62
     0
 10
308.40230407277397
 20
305.96192888703382
 30
0.0
 11
308.40230407277397
 21
305.96192888703382
 31
0.0
  0
LINE
  5
21A2
  8
0
 62
     0
 10
307.76730407277398
 20
305.96192888703382
 30
0.0
 11
307.76730407277398
 21
305.96192888703382
 31
0.0
  0
LINE
  5
21A3
  8
0
 62
     0
 10
296.97230407277368
 20
305.96192888703382
 30
0.0
 11
296.97230407277368
 21
305.96192888703382
 31
0.0
  0
LINE
  5
21A4
  8
0
 62
     0
 10
296.33730407277369
 20
305.96192888703382
 30
0.0
 11
296.33730407277369
 21
305.96192888703382
 31
0.0
  0
LINE
  5
21A5
  8
0
 62
     0
 10
295.70230407277381
 20
305.96192888703382
 30
0.0
 11
295.70230407277381
 21
305.96192888703382
 31
0.0
  0
LINE
  5
21A6
  8
0
 62
     0
 10
295.06730407277382
 20
305.96192888703382
 30
0.0
 11
295.06730407277382
 21
305.96192888703382
 31
0.0
  0
LINE
  5
21A7
  8
0
 62
     0
 10
294.43230407277377
 20
305.96192888703382
 30
0.0
 11
294.43230407277377
 21
305.96192888703382
 31
0.0
  0
LINE
  5
21A8
  8
0
 62
     0
 10
293.79730407277378
 20
305.96192888703382
 30
0.0
 11
293.79730407277378
 21
305.96192888703382
 31
0.0
  0
LINE
  5
21A9
  8
0
 62
     0
 10
293.16230407277379
 20
305.96192888703382
 30
0.0
 11
293.16230407277379
 21
305.96192888703382
 31
0.0
  0
LINE
  5
21AA
  8
0
 62
     0
 10
292.5273040727738
 20
305.96192888703382
 30
0.0
 11
292.5273040727738
 21
305.96192888703382
 31
0.0
  0
LINE
  5
21AB
  8
0
 62
     0
 10
291.89230407277381
 20
305.96192888703382
 30
0.0
 11
291.89230407277381
 21
305.96192888703382
 31
0.0
  0
LINE
  5
21AC
  8
0
 62
     0
 10
291.25730407277382
 20
305.96192888703382
 30
0.0
 11
291.25730407277382
 21
305.96192888703382
 31
0.0
  0
LINE
  5
21AD
  8
0
 62
     0
 10
290.62230407277377
 20
305.96192888703382
 30
0.0
 11
290.62230407277377
 21
305.96192888703382
 31
0.0
  0
LINE
  5
21AE
  8
0
 62
     0
 10
289.98730407277378
 20
305.96192888703382
 30
0.0
 11
289.98730407277378
 21
305.96192888703382
 31
0.0
  0
LINE
  5
21AF
  8
0
 62
     0
 10
289.3523040727739
 20
305.96192888703382
 30
0.0
 11
289.3523040727739
 21
305.96192888703382
 31
0.0
  0
LINE
  5
21B0
  8
0
 62
     0
 10
288.71730407277391
 20
305.96192888703382
 30
0.0
 11
288.71730407277391
 21
305.96192888703382
 31
0.0
  0
LINE
  5
21B1
  8
0
 62
     0
 10
288.08230407277392
 20
305.96192888703382
 30
0.0
 11
288.08230407277392
 21
305.96192888703382
 31
0.0
  0
LINE
  5
21B2
  8
0
 62
     0
 10
287.44730407277387
 20
305.96192888703382
 30
0.0
 11
287.44730407277387
 21
305.96192888703382
 31
0.0
  0
LINE
  5
21B3
  8
0
 62
     0
 10
286.81230407277388
 20
305.96192888703382
 30
0.0
 11
286.81230407277388
 21
305.96192888703382
 31
0.0
  0
LINE
  5
21B4
  8
0
 62
     0
 10
286.17730407277389
 20
305.96192888703382
 30
0.0
 11
286.17730407277389
 21
305.96192888703382
 31
0.0
  0
LINE
  5
21B5
  8
0
 62
     0
 10
285.5423040727739
 20
305.96192888703382
 30
0.0
 11
285.5423040727739
 21
305.96192888703382
 31
0.0
  0
LINE
  5
21B6
  8
0
 62
     0
 10
284.90730407277391
 20
305.96192888703382
 30
0.0
 11
284.90730407277391
 21
305.96192888703382
 31
0.0
  0
LINE
  5
21B7
  8
0
 62
     0
 10
284.27230407277392
 20
305.96192888703382
 30
0.0
 11
284.27230407277392
 21
305.96192888703382
 31
0.0
  0
LINE
  5
21B8
  8
0
 62
     0
 10
283.63730407277387
 20
305.96192888703382
 30
0.0
 11
283.63730407277387
 21
305.96192888703382
 31
0.0
  0
LINE
  5
21B9
  8
0
 62
     0
 10
283.002304072774
 20
305.96192888703382
 30
0.0
 11
283.002304072774
 21
305.96192888703382
 31
0.0
  0
LINE
  5
21BA
  8
0
 62
     0
 10
282.367304072774
 20
305.96192888703382
 30
0.0
 11
282.367304072774
 21
305.96192888703382
 31
0.0
  0
LINE
  5
21BB
  8
0
 62
     0
 10
281.7323040727739
 20
305.96192888703382
 30
0.0
 11
281.7323040727739
 21
305.96192888703382
 31
0.0
  0
LINE
  5
21BC
  8
0
 62
     0
 10
281.09730407277402
 20
305.96192888703382
 30
0.0
 11
281.09730407277402
 21
305.96192888703382
 31
0.0
  0
LINE
  5
21BD
  8
0
 62
     0
 10
280.46230407277397
 20
305.96192888703382
 30
0.0
 11
280.46230407277397
 21
305.96192888703382
 31
0.0
  0
LINE
  5
21BE
  8
0
 62
     0
 10
311.25980407277399
 20
306.59692888703381
 30
0.0
 11
311.25980407277399
 21
306.59692888703381
 31
0.0
  0
LINE
  5
21BF
  8
0
 62
     0
 10
310.62480407277388
 20
306.59692888703381
 30
0.0
 11
310.62480407277388
 21
306.59692888703381
 31
0.0
  0
LINE
  5
21C0
  8
0
 62
     0
 10
309.98980407277389
 20
306.59692888703381
 30
0.0
 11
309.98980407277389
 21
306.59692888703381
 31
0.0
  0
LINE
  5
21C1
  8
0
 62
     0
 10
309.35480407277402
 20
306.59692888703381
 30
0.0
 11
309.35480407277402
 21
306.59692888703381
 31
0.0
  0
LINE
  5
21C2
  8
0
 62
     0
 10
308.71980407277402
 20
306.59692888703381
 30
0.0
 11
308.71980407277402
 21
306.59692888703381
 31
0.0
  0
LINE
  5
21C3
  8
0
 62
     0
 10
308.08480407277398
 20
306.59692888703381
 30
0.0
 11
308.08480407277398
 21
306.59692888703381
 31
0.0
  0
LINE
  5
21C4
  8
0
 62
     0
 10
307.44980407277399
 20
306.59692888703381
 30
0.0
 11
307.44980407277399
 21
306.59692888703381
 31
0.0
  0
LINE
  5
21C5
  8
0
 62
     0
 10
297.2898040727739
 20
306.59692888703381
 30
0.0
 11
297.2898040727739
 21
306.59692888703381
 31
0.0
  0
LINE
  5
21C6
  8
0
 62
     0
 10
296.65480407277391
 20
306.59692888703381
 30
0.0
 11
296.65480407277391
 21
306.59692888703381
 31
0.0
  0
LINE
  5
21C7
  8
0
 62
     0
 10
296.01980407277392
 20
306.59692888703381
 30
0.0
 11
296.01980407277392
 21
306.59692888703381
 31
0.0
  0
LINE
  5
21C8
  8
0
 62
     0
 10
295.38480407277387
 20
306.59692888703381
 30
0.0
 11
295.38480407277387
 21
306.59692888703381
 31
0.0
  0
LINE
  5
21C9
  8
0
 62
     0
 10
294.74980407277388
 20
306.59692888703381
 30
0.0
 11
294.74980407277388
 21
306.59692888703381
 31
0.0
  0
LINE
  5
21CA
  8
0
 62
     0
 10
294.11480407277389
 20
306.59692888703381
 30
0.0
 11
294.11480407277389
 21
306.59692888703381
 31
0.0
  0
LINE
  5
21CB
  8
0
 62
     0
 10
293.47980407277402
 20
306.59692888703381
 30
0.0
 11
293.47980407277402
 21
306.59692888703381
 31
0.0
  0
ENDBLK
  5
21CD
  8
0
  0
BLOCK
  8
0
  2
*U18
 70
     1
 10
0.0
 20
0.0
 30
0.0
  3
*U18
  1

  0
TEXT
  5
21CF
  8
0
 62
     6
 10
431.5716788066477
 20
349.2086040689212
 30
0.0
 40
2.5
  1
20
 50
90.0
  7
STYLE3
  0
ENDBLK
  5
21D1
  8
0
  0
BLOCK
  8
0
  2
*U19
 70
     1
 10
0.0
 20
0.0
 30
0.0
  3
*U19
  1

  0
TEXT
  5
21D3
  8
0
 62
     6
 10
452.50098870719648
 20
283.95715407686538
 30
0.0
 40
2.5
  1
\U+220550
 50
45.4477464924408
  7
STYLE3
  0
ENDBLK
  5
21D5
  8
0
  0
BLOCK
  8
0
  2
*U20
 70
     1
 10
0.0
 20
0.0
 30
0.0
  3
*U20
  1

  0
TEXT
  5
21D7
  8
0
 62
     6
 10
325.91543444136482
 20
203.3956898258071
 30
0.0
 40
2.5
  1
248.5
  7
STYLE3
  0
ENDBLK
  5
21D9
  8
0
  0
BLOCK
  8
0
  2
*U21
 70
     1
 10
0.0
 20
0.0
 30
0.0
  3
*U21
  1

  0
TEXT
  5
21DB
  8
0
 62
     6
 10
418.0125525693399
 20
282.5101889815391
 30
0.0
 40
2.5
  1
3
  7
STYLE3
  0
ENDBLK
  5
21DD
  8
0
  0
BLOCK
  8
0
  2
*U22
 70
     1
 10
0.0
 20
0.0
 30
0.0
  3
*U22
  1

  0
TEXT
  5
21DF
  8
0
 62
     6
 10
299.9611734562464
 20
282.5101889815391
 30
0.0
 40
2.5
  1
70
  7
STYLE3
  0
ENDBLK
  5
21E1
  8
0
  0
BLOCK
  8
0
  2
*U23
 70
     1
 10
0.0
 20
0.0
 30
0.0
  3
*U23
  1

  0
TEXT
  5
21EB
  8
0
 62
     6
 10
373.77257729850737
 20
327.31161395526442
 30
0.0
 40
2.5
  1
150
  7
STYLE3
  0
ENDBLK
  5
21ED
  8
0
  0
BLOCK
  8
0
  2
*U24
 70
     1
 10
0.0
 20
0.0
 30
0.0
  3
*U24
  1

  0
TEXT
  5
21EF
  8
0
 62
     6
 10
328.95114872707887
 20
334.56562981729792
 30
0.0
 40
2.5
  1
246
  7
STYLE3
  0
ENDBLK
  5
21F1
  8
0
  0
BLOCK
  8
0
  2
*U25
 70
     1
 10
0.0
 20
0.0
 30
0.0
  3
*U25
  1

  0
TEXT
  5
21F7
  8
寸法線
 62
     6
 10
387.3217594018422
 20
302.92558166298642
 30
0.0
 40
2.5
  1
20.7
 50
90.0
  7
STYLE3
  0
ENDBLK
  5
21F9
  8
0
  0
BLOCK
  8
0
  2
*U26
 70
     1
 10
0.0
 20
0.0
 30
0.0
  3
*U26
  1

  0
TEXT
  5
21FB
  8
寸法線
 62
     6
 10
430.80493833592539
 20
322.35296261536729
 30
0.0
 40
2.5
  1
1.7
 50
90.0
  7
STYLE3
  0
ENDBLK
  5
21FD
  8
0
  0
BLOCK
  8
0
  2
*U27
 70
     1
 10
0.0
 20
0.0
 30
0.0
  3
*U27
  1

  0
TEXT
  5
21FF
  8
寸法線
 62
     6
 10
430.80493833592539
 20
303.74224832965291
 30
0.0
 40
2.5
  1
19
 50
90.0
  7
STYLE3
  0
ENDBLK
  5
2201
  8
0
  0
BLOCK
  8
0
  2
*U28
 70
     1
 10
0.0
 20
0.0
 30
0.0
  3
*U28
  1

  0
TEXT
  5
2203
  8
寸法線
 62
     6
 10
430.80493833592539
 20
281.86129594870062
 30
0.0
 40
2.5
  1
25
 50
90.0
  7
STYLE3
  0
ENDBLK
  5
2205
  8
0
  0
BLOCK
  8
0
  2
*U29
 70
     1
 10
0.0
 20
0.0
 30
0.0
  3
*U29
  1

  0
TEXT
  5
2207
  8
寸法線
 62
     6
 10
430.80493833592539
 20
244.36129594870059
 30
0.0
 40
2.5
  1
50
 50
90.0
  7
STYLE3
  0
ENDBLK
  5
2209
  8
0
  0
BLOCK
  8
0
  2
*U30
 70
     1
 10
0.0
 20
0.0
 30
0.0
  3
*U30
  1

  0
TEXT
  5
220B
  8
寸法線
 62
     6
 10
438.74097539939521
 20
249.889867377272
 30
0.0
 40
2.5
  1
50.7～150.7フリー時
 50
90.0
  7
STYLE3
  0
ENDBLK
  5
220D
  8
0
  0
BLOCK
  8
0
  2
*U31
 70
     1
 10
0.0
 20
0.0
 30
0.0
  3
*U31
  1

  0
TEXT
  5
220F
  8
寸法線
 62
     6
 10
485.20338674439512
 20
318.71818859027292
 30
0.0
 40
2.5
  1
\U+2205150
 50
72.798150762492199
  7
STYLE3
  0
ENDBLK
  5
2211
  8
0
  0
BLOCK
  8
0
  2
*U32
 70
     1
 10
0.0
 20
0.0
 30
0.0
  3
*U32
  1

  0
TEXT
  5
2213
  8
寸法線
 62
     6
 10
253.4611734562464
 20
327.31161395526442
 30
0.0
 40
2.5
  1
23
  7
STYLE3
  0
ENDBLK
  5
2215
  8
0
  0
ENDSEC
  0
SECTION
  2
ENTITIES
  0
POLYLINE
  5
10B
  8
C
 66
     1
 10
0.0
 20
0.0
 30
0.0
 40
0.4
 41
0.4
  0
VERTEX
  5
1CA1
  8
C
 10
236.69156044454141
 20
366.85017525553718
 30
0.0
  0
VERTEX
  5
1CA2
  8
C
 10
491.69156044454138
 20
366.85017525553718
 30
0.0
  0
VERTEX
  5
1CA3
  8
C
 10
491.69156044454138
 20
171.85017525553721
 30
0.0
  0
VERTEX
  5
1CA4
  8
C
 10
236.69156044454141
 20
171.85017525553721
 30
0.0
  0
VERTEX
  5
1CA5
  8
C
 10
236.69156044454141
 20
366.85017525553718
 30
0.0
  0
SEQEND
  5
1CA6
  8
C
  0
LINE
  5
16A
  8
中心線
 10
242.0024242177125
 20
296.74224832965302
 30
0.0
 11
422.86067529474929
 21
296.74224832965291
 31
0.0
  0
LINE
  5
16C
  8
外形線
 10
307.34212583719869
 20
306.70156215330638
 30
0.0
 11
307.34212583719869
 21
300.74224832965302
 31
0.0
1001
ACAD
1000
ASC_BOUNDS
1002
{
1070
    19
1005
317
1002
}
  0
LINE
  5
16D
  8
外形線
 10
327.34212583719881
 20
305.72347224387107
 30
0.0
 11
327.34212583719892
 21
298.74224832965302
 31
0.0
1001
ACAD
1000
ASC_BOUNDS
1002
{
1070
    19
1005
317
1002
}
  0
LINE
  5
16E
  8
外形線
 10
337.34212583719869
 20
303.8490496336488
 30
0.0
 11
337.34212583719869
 21
289.63544702565707
 31
0.0
  0
LINE
  5
171
  8
外形線
 10
267.34212583719881
 20
303.8490496336488
 30
0.0
 11
267.34212583719881
 21
302.74224832965302
 31
0.0
  0
ARC
  5
173
  8
外形線
 10
302.34212583719881
 20
-0.5077516703470906
 30
0.0
 40
307.25
 50
83.625859040713934
 51
96.374140959286052
1001
ACAD
1000
ASC_BOUNDS
1002
{
1070
    19
1005
317
1005
317
1002
}
  0
ARC
  5
175
  8
外形線
 10
302.34212583719881
 20
593.99224832965297
 30
0.0
 40
307.25
 50
263.62585904071392
 51
276.37414095928608
1001
ACAD
1000
ASC_BOUNDS
1002
{
1070
    19
1005
317
1005
317
1002
}
  0
LINE
  5
176
  8
外形線
 10
317.34212583719881
 20
300.24224832965302
 30
0.0
 11
317.34212583719881
 21
293.24224832965302
 31
0.0
  0
LINE
  5
177
  8
外形線
 10
287.34212583719869
 20
300.24224832965302
 30
0.0
 11
287.34212583719869
 21
293.24224832965302
 31
0.0
  0
LINE
  5
178
  8
外形線
 10
287.34212583719869
 20
300.24224832965302
 30
0.0
 11
317.34212583719881
 21
300.24224832965302
 31
0.0
  0
LINE
  5
179
  8
外形線
 10
287.34212583719869
 20
293.24224832965302
 30
0.0
 11
317.34212583719881
 21
293.24224832965302
 31
0.0
  0
LINE
  5
17A
  8
外形線
 10
307.34212583719869
 20
300.74224832965302
 30
0.0
 11
317.84212583719869
 21
300.74224832965302
 31
0.0
1001
ACAD
1000
ASC_BOUNDS
1002
{
1070
    19
1005
317
1002
}
  0
LINE
  5
17C
  8
外形線
 10
317.84212583719869
 20
298.74224832965302
 30
0.0
 11
327.34212583719892
 21
298.74224832965302
 31
0.0
1001
ACAD
1000
ASC_BOUNDS
1002
{
1070
    19
1005
317
1002
}
  0
LINE
  5
17F
  8
外形線
 10
317.84212583719869
 20
300.74224832965302
 30
0.0
 11
317.84212583719869
 21
298.74224832965302
 31
0.0
1001
ACAD
1000
ASC_BOUNDS
1002
{
1070
    19
1005
317
1002
}
  0
LINE
  5
181
  8
外形線
 10
317.84212583719869
 20
294.74224832965302
 30
0.0
 11
327.34212583719892
 21
294.74224832965302
 31
0.0
1001
ACAD
1000
ASC_BOUNDS
1002
{
1070
    19
1005
317
1002
}
  0
LINE
  5
182
  8
外形線
 10
327.34212583719881
 20
287.7610244154348
 30
0.0
 11
327.34212583719892
 21
294.74224832965302
 31
0.0
1001
ACAD
1000
ASC_BOUNDS
1002
{
1070
    19
1005
317
1002
}
  0
LINE
  5
183
  8
外形線
 10
317.84212583719869
 20
292.74224832965302
 30
0.0
 11
317.84212583719869
 21
294.74224832965302
 31
0.0
1001
ACAD
1000
ASC_BOUNDS
1002
{
1070
    19
1005
317
1002
}
  0
LINE
  5
184
  8
外形線
 10
307.34212583719869
 20
292.74224832965302
 30
0.0
 11
317.84212583719869
 21
292.74224832965302
 31
0.0
1001
ACAD
1000
ASC_BOUNDS
1002
{
1070
    19
1005
317
1002
}
  0
LINE
  5
185
  8
外形線
 10
307.34212583719869
 20
286.78293450599949
 30
0.0
 11
307.34212583719869
 21
292.74224832965302
 31
0.0
1001
ACAD
1000
ASC_BOUNDS
1002
{
1070
    19
1005
317
1002
}
  0
LINE
  5
186
  8
外形線
 10
277.34212583719881
 20
287.7610244154348
 30
0.0
 11
277.34212583719858
 21
294.74224832965302
 31
0.0
1001
ACAD
1000
ASC_BOUNDS
1002
{
1070
    19
1005
317
1002
}
  0
LINE
  5
188
  8
外形線
 10
297.34212583719869
 20
286.78293450599949
 30
0.0
 11
297.34212583719869
 21
292.74224832965302
 31
0.0
1001
ACAD
1000
ASC_BOUNDS
1002
{
1070
    19
1005
317
1002
}
  0
LINE
  5
189
  8
外形線
 10
297.34212583719869
 20
292.74224832965302
 30
0.0
 11
286.84212583719881
 21
292.74224832965302
 31
0.0
1001
ACAD
1000
ASC_BOUNDS
1002
{
1070
    19
1005
317
1002
}
  0
LINE
  5
18A
  8
外形線
 10
286.84212583719881
 20
292.74224832965302
 30
0.0
 11
286.84212583719881
 21
294.74224832965302
 31
0.0
1001
ACAD
1000
ASC_BOUNDS
1002
{
1070
    19
1005
317
1002
}
  0
LINE
  5
18B
  8
外形線
 10
286.84212583719881
 20
294.74224832965302
 30
0.0
 11
277.34212583719858
 21
294.74224832965302
 31
0.0
1001
ACAD
1000
ASC_BOUNDS
1002
{
1070
    19
1005
317
1002
}
  0
LINE
  5
18D
  8
外形線
 10
297.34212583719869
 20
306.70156215330638
 30
0.0
 11
297.34212583719869
 21
300.74224832965302
 31
0.0
1001
ACAD
1000
ASC_BOUNDS
1002
{
1070
    19
1005
317
1002
}
  0
LINE
  5
18E
  8
外形線
 10
286.84212583719881
 20
298.74224832965302
 30
0.0
 11
277.34212583719858
 21
298.74224832965302
 31
0.0
1001
ACAD
1000
ASC_BOUNDS
1002
{
1070
    19
1005
317
1002
}
  0
LINE
  5
18F
  8
外形線
 10
277.34212583719881
 20
305.72347224387107
 30
0.0
 11
277.34212583719858
 21
298.74224832965302
 31
0.0
1001
ACAD
1000
ASC_BOUNDS
1002
{
1070
    19
1005
317
1002
}
  0
LINE
  5
190
  8
外形線
 10
286.84212583719881
 20
300.74224832965302
 30
0.0
 11
286.84212583719881
 21
298.74224832965302
 31
0.0
1001
ACAD
1000
ASC_BOUNDS
1002
{
1070
    19
1005
317
1002
}
  0
LINE
  5
191
  8
外形線
 10
297.34212583719869
 20
300.74224832965302
 30
0.0
 11
286.84212583719881
 21
300.74224832965302
 31
0.0
1001
ACAD
1000
ASC_BOUNDS
1002
{
1070
    19
1005
317
1002
}
  0
TEXT
  5
1AE
  8
文字
 10
294.88910544808112
 20
295.5151900143274
 30
0.0
 40
2.5
  1
50-150mm
 41
0.85
  7
STYLE3
  0
LINE
  5
1B2
  8
外形線
 10
337.34212583719869
 20
301.74224832965291
 30
0.0
 11
361.14255535104297
 21
301.74224832965291
 31
0.0
  0
LINE
  5
1B3
  8
外形線
 10
337.34212583719869
 20
291.74224832965302
 30
0.0
 11
357.85105266281482
 21
291.74224832171137
 31
0.0
  0
LINE
  5
1C3
  8
外形線
 10
364.0018263690784
 20
301.7422483296528
 30
0.0
 11
386.70302875981611
 21
301.7422483296528
 31
0.0
  0
LINE
  5
1C4
  8
外形線
 10
360.71032368533412
 20
291.74224832965291
 30
0.0
 11
386.70302875981622
 21
291.74224832965291
 31
0.0
  0
ARC
  5
24E
  8
外形線
 10
268.34212583719869
 20
303.8490496336488
 30
0.0
 40
1.0
 50
96.374140959279515
 51
180.0
  0
ARC
  5
24F
  8
外形線
 10
268.34212583719869
 20
289.63544702565707
 30
0.0
 40
1.0
 50
180.0
 51
263.62585904071119
  0
ARC
  5
250
  8
外形線
 10
336.34212583719881
 20
303.8490496336488
 30
0.0
 40
1.0
 50
0.0
 51
83.625859040714033
  0
ARC
  5
251
  8
外形線
 10
336.34212583719881
 20
289.63544702565707
 30
0.0
 40
1.0
 50
276.37414095928563
 51
0.0
  0
LINE
  5
253
  8
外形線
 10
244.34212583719881
 20
301.44224832965301
 30
0.0
 11
244.34212583719881
 21
294.55172334896412
 31
0.0
  0
LINE
  5
254
  8
外形線
 10
266.34212583719869
 20
301.74224832965302
 30
0.0
 11
266.34212583719869
 21
291.74224832965302
 31
0.0
  0
LINE
  5
255
  8
外形線
 10
255.34212583719869
 20
301.74224832965302
 30
0.0
 11
255.34212583719869
 21
294.55172334896412
 31
0.0
  0
LINE
  5
256
  8
外形線
 10
255.34212583719869
 20
301.74224832965302
 30
0.0
 11
266.34212583719869
 21
301.74224832965302
 31
0.0
  0
LINE
  5
257
  8
外形線
 10
257.25832432429451
 20
291.74224832965302
 30
0.0
 11
266.34212583719869
 21
291.74224832965302
 31
0.0
  0
LINE
  5
25C
  8
外形線
 10
267.34212583719869
 20
290.74224832965302
 30
0.0
 11
267.34212583719869
 21
289.63544702565707
 31
0.0
  0
LINE
  5
25E
  8
外形線
 10
267.34212583719881
 20
302.74224832965302
 30
0.0
 11
267.34212583719869
 21
290.74224832965302
 31
0.0
  0
ARC
  5
25F
  8
外形線
 10
265.10627728564452
 20
289.56907591182198
 30
0.0
 40
2.5
 50
26.57629387126569
 51
60.373799584725838
  0
ARC
  5
260
  8
外形線
 10
265.10627728564452
 20
303.91542074748389
 30
0.0
 40
2.5
 50
299.62620041527418
 51
333.4237061287343
  0
LINE
  5
261
  8
外形線
 10
245.34212583719881
 20
301.9422483296529
 30
0.0
 11
254.34212583719869
 21
301.9422483296529
 31
0.0
  0
LINE
  5
263
  8
外形線
 10
245.34212583719869
 20
300.94224832965301
 30
0.0
 11
254.34212583719869
 21
300.94224832965301
 31
0.0
  0
LINE
  5
264
  8
外形線
 10
254.34212583719881
 20
301.9422483296529
 30
0.0
 11
254.34212583719881
 21
300.94224832965301
 31
0.0
  0
LINE
  5
265
  8
外形線
 10
245.34212583719869
 20
301.9422483296529
 30
0.0
 11
245.34212583719869
 21
300.94224832965301
 31
0.0
  0
LINE
  5
26B
  8
外形線
 10
254.34212583719881
 20
300.94224832965301
 30
0.0
 11
255.34212583719869
 21
300.4422483296529
 31
0.0
  0
LINE
  5
26C
  8
外形線
 10
254.34212583719881
 20
301.9422483296529
 30
0.0
 11
255.34212583719869
 21
301.44224832965301
 31
0.0
  0
LINE
  5
273
  8
外形線
 10
245.34212583719869
 20
301.9422483296529
 30
0.0
 11
244.34212583719881
 21
301.44224832965301
 31
0.0
  0
LINE
  5
274
  8
外形線
 10
245.34212583719869
 20
300.94224832965301
 30
0.0
 11
244.34212583719881
 21
300.4422483296529
 31
0.0
  0
LINE
  5
275
  8
外形線
 10
245.34212583719869
 20
301.9422483296529
 30
0.0
 11
245.34212583719869
 21
300.94224832965301
 31
0.0
  0
LINE
  5
276
  8
中心線
 10
249.84212583719881
 20
299.82834402022758
 30
0.0
 11
249.84212583719869
 21
277.65615263907841
 31
0.0
  0
LINE
  5
277
  8
中心線
 10
239.3562651515941
 20
288.74224832965302
 30
0.0
 11
260.2239344570425
 21
288.74224832965302
 31
0.0
  0
CIRCLE
  5
278
  8
外形線
 10
249.84212583719869
 20
288.74224832965302
 30
0.0
 40
8.0
  0
TEXT
  5
27E
  8
文字
 10
289.62011352729689
 20
295.36517136544251
 30
0.0
 40
1.0
  1
CG-3
  7
STYLE3
  0
ARC
  5
2F6
  8
外形線
 10
287.34212583719869
 20
286.59225186465892
 30
0.0
 40
2.0
 50
12.330391968689311
 51
162.08238913091691
1001
ACAD
1000
ASC_BOUNDS
1002
{
1070
    19
1005
317
1002
}
  0
INSERT
  5
317
  8
ﾊｯﾁﾝｸ
  6
CONTINUOUS
  2
*X17
 10
0.0
 20
0.0
 30
0.0
1001
ACAD
1000
HATCH
1002
{
1070
    19
1000
DOTS
1040
0.4
1040
0.0
1000
ASC_BOUNDS
1070
     4
1070
     1
1070
     7
1005
188
1005
2F6
1005
175
1005
186
1005
18B
1005
18A
1005
189
1070
     1
1070
     6
1005
182
1005
175
1005
185
1005
184
1005
183
1005
181
1070
     1
1070
     6
1005
16D
1005
17C
1005
17F
1005
17A
1005
16C
1005
173
1070
     1
1070
     6
1005
18D
1005
191
1005
190
1005
18E
1005
18F
1005
173
1000
ASC_SEEDPOINT
1011
281.77409537866959
1021
0.0
1031
0.0
1021
301.62613317919772
1031
0.0
1000
R14_HATCH_DATA
1000
317
1011
1.0
1021
0.0
1031
0.0
1021
0.0
1031
0.0
1011
0.0
1021
0.0
1031
0.0
1021
1.0
1031
0.0
1011
0.0
1021
0.0
1031
0.0
1021
0.0
1031
1.0
1040
0.0
1010
0.0
1020
0.0
1030
1.0
1000
DOTS
1070
     0
1070
     1
1071
        4
1071
        7
1070
     1
1070
     1
1071
        6
1040
286.84212583719881
1040
298.74224832965302
1040
0.0
1040
286.84212583719881
1040
300.74224832965302
1040
0.0
1040
297.34212583719869
1040
300.74224832965302
1040
0.0
1040
297.34212583719869
1040
306.70156215330633
1040
0.0162971688498792
1040
277.34212583719881
1040
305.72347224387102
1040
0.0
1040
277.34212583719858
1040
298.74224832965302
1040
0.0
1071
        6
1005
173
1005
18F
1005
18E
1005
190
1005
191
1005
18D
1071
        7
1070
     1
1070
     1
1071
        6
1040
317.84212583719869
1040
300.74224832965302
1040
0.0
1040
317.84212583719869
1040
298.74224832965302
1040
0.0
1040
327.34212583719881
1040
298.74224832965302
1040
0.0
1040
327.34212583719881
1040
305.72347224387102
1040
0.0162971688498792
1040
307.34212583719869
1040
306.70156215330633
1040
0.0
1040
307.34212583719869
1040
300.74224832965302
1040
0.0
1071
        6
1005
173
1005
16C
1005
17A
1005
17F
1005
17C
1005
16D
1071
        7
1070
     1
1070
     1
1071
        6
1040
327.34212583719881
1040
287.76102441543497
1040
0.0
1040
327.34212583719892
1040
294.74224832965302
1040
0.0
1040
317.84212583719869
1040
294.74224832965302
1040
0.0
1040
317.84212583719869
1040
292.74224832965302
1040
0.0
1040
307.34212583719869
1040
292.74224832965302
1040
0.0
1040
307.34212583719869
1040
286.78293450599961
1040
0.0162971688498792
1071
        6
1005
181
1005
183
1005
184
1005
185
1005
175
1005
182
1071
        7
1070
     1
1070
     1
1071
        8
1040
285.43912606230111
1040
287.20755004988263
1040
-0.7656091570196743
1040
289.2959907115299
1040
287.01934910517298
1040
0.0065500023894979
1040
297.34212583719869
1040
286.78293450599961
1040
0.0
1040
297.34212583719869
1040
292.74224832965302
1040
0.0
1040
286.84212583719881
1040
292.74224832965302
1040
0.0
1040
286.84212583719881
1040
294.74224832965302
1040
0.0
1040
277.34212583719858
1040
294.74224832965302
1040
0.0
1040
277.34212583719881
1040
287.76102441543497
1040
0.0066039451871049
1071
        7
1005
189
1005
18A
1005
18B
1005
186
1005
175
1005
2F6
1005
188
1070
     0
1070
     1
1040
0.0
1040
0.4
1070
     0
1070
     1
1040
0.0
1040
-7.8276959272260447
1040
60.851928887033807
1040
0.3175
1040
0.635
1070
     2
1040
0.0
1040
-0.635
1040
0.3765170278403226
1071
        4
1040
281.77409537866959
1040
301.62613317919772
1040
0.0
1040
320.58739898435431
1040
302.0026499354023
1040
0.0
1040
320.96422704992159
1040
289.57758833490192
1040
0.0
1040
283.65823650977188
1040
290.33062230235038
1040
0.0
1002
}
  0
POINT
  5
39F
  8
DEFPOINTS
  6
BYBLOCK
 62
     0
 10
244.34212583719881
 20
300.4422483296529
 30
0.0
  0
POINT
  5
3A7
  8
DEFPOINTS
  6
BYBLOCK
 62
     0
 10
337.34212583719869
 20
303.8490496336488
 30
0.0
  0
LINE
  5
403
  8
外形線
 10
315.84212583719881
 20
299.24224832965302
 30
0.0
 11
315.84212583719869
 21
294.24224832965302
 31
0.0
  0
LINE
  5
404
  8
外形線
 10
288.84212583719869
 20
299.24224832965302
 30
0.0
 11
288.84212583719869
 21
294.24224832965302
 31
0.0
  0
LINE
  5
405
  8
外形線
 10
288.84212583719869
 20
299.24224832965302
 30
0.0
 11
315.84212583719881
 21
299.24224832965302
 31
0.0
  0
LINE
  5
406
  8
外形線
 10
288.84212583719869
 20
294.24224832965302
 30
0.0
 11
315.84212583719869
 21
294.24224832965302
 31
0.0
  0
LINE
  5
4DE
  8
外形線
 10
367.28909088824361
 20
346.58955644987373
 30
0.0
 11
386.70302875981628
 21
346.58955644987373
 31
0.0
  0
LINE
  5
4DF
  8
外形線
 10
370.6457962823323
 20
356.5895564419319
 30
0.0
 11
386.70302875981622
 21
356.58955644987373
 31
0.0
  0
INSERT
  5
523
  8
外形線
  2
六角ﾈｼ
 10
386.70302875981622
 20
296.74224832965291
 30
0.0
 41
-1.0
 50
180.0
  0
LINE
  5
524
  8
外形線
 10
386.70302875981622
 20
356.78955644987371
 30
0.0
 11
386.70302875981639
 21
346.38955644987368
 31
0.0
  0
LINE
  5
525
  8
外形線
 10
389.20302875981668
 20
296.74224832965291
 30
0.0
 11
386.70302875981628
 21
296.74224832965291
 31
0.0
  0
LINE
  5
527
  8
中心線
 10
366.09157438788827
 20
351.58955644987361
 30
0.0
 11
422.8556663600213
 21
351.58955644987361
 31
0.0
  0
POINT
  5
581
  8
DEFPOINTS
  6
BYBLOCK
 62
     0
 10
337.34212583719869
 20
303.8490496336488
 30
0.0
  0
LINE
  5
5D9
  8
0
  6
BYBLOCK
 62
     2
 10
374.0141775141355
 20
299.24224832965291
 30
0.0
 11
374.0141775141355
 21
294.24224832965302
 31
0.0
  0
INSERT
  5
5DA
  8
0
  6
BYBLOCK
 62
     2
  2
_OPEN
 10
374.0141775141355
 20
301.74224832965291
 30
0.0
 41
2.5
 42
2.5
 43
2.5
 50
90.0
  0
INSERT
  5
5DB
  8
0
  6
BYBLOCK
 62
     2
  2
_OPEN
 10
374.0141775141355
 20
291.74224832965302
 30
0.0
 41
2.5
 42
2.5
 43
2.5
 50
270.0
  0
POINT
  5
66B
  8
DEFPOINTS
  6
BYBLOCK
 62
     0
 10
417.70302875981611
 20
355.63955644987362
 30
0.0
  0
POINT
  5
66C
  8
DEFPOINTS
  6
BYBLOCK
 62
     0
 10
417.70302875981611
 20
347.53955644987349
 30
0.0
  0
LINE
  5
766
  8
外形線
 10
386.70302875981622
 20
356.78955644987371
 30
0.0
 11
389.20302875981611
 21
356.78955644987371
 31
0.0
  0
LINE
  5
767
  8
外形線
 10
389.20302875981662
 20
354.18955644987369
 30
0.0
 11
386.70302875981628
 21
354.18955644987369
 31
0.0
  0
LINE
  5
768
  8
外形線
 10
389.20302875981628
 20
348.98955644987359
 30
0.0
 11
386.70302875981622
 21
348.98955644987359
 31
0.0
  0
LINE
  5
769
  8
外形線
 10
386.70302875981639
 20
346.38955644987368
 30
0.0
 11
389.20302875981611
 21
346.38955644987368
 31
0.0
  0
LINE
  5
76A
  8
外形線
 10
386.70302875981611
 20
301.7422483296528
 30
0.0
 11
386.70302875981622
 21
291.74224832965291
 31
0.0
  0
ARC
  5
76B
  8
外形線
 10
387.763028759816
 20
347.68955644987381
 30
0.0
 40
1.940000000000166
 50
317.92497794915579
 51
42.075022050834569
  0
ARC
  5
76C
  8
外形線
 10
382.6930287598135
 20
351.58955644987418
 30
0.0
 40
7.0100000000027221
 50
338.2289458906867
 51
21.771054109304352
  0
ARC
  5
76D
  8
外形線
 10
387.763028759816
 20
355.48955644987348
 30
0.0
 40
1.940000000000166
 50
317.92497794916551
 51
42.07502205084424
  0
LINE
  5
76E
  8
外形線
 10
389.70302875981622
 20
347.68955644987381
 30
0.0
 11
389.70302875981622
 21
355.48955644987348
 31
0.0
  0
LINE
  5
778
  8
外形線
 10
390.70302875981622
 20
307.74224832965291
 30
0.0
 11
390.70302875981611
 21
307.3878922533919
 31
0.0
  0
LINE
  5
77A
  8
外形線
 10
411.20302875981622
 20
307.7422483296528
 30
0.0
 11
411.20302875981622
 21
307.51566515593481
 31
0.0
  0
LINE
  5
77B
  8
外形線
 10
420.70302875981599
 20
308.7422483296528
 30
0.0
 11
420.70302875981639
 21
269.67526103154518
 31
0.0
  0
LINE
  5
77C
  8
外形線
 10
391.70302875981639
 20
290.7422483296528
 30
0.0
 11
408.20302875981628
 21
290.7422483296528
 31
0.0
  0
LINE
  5
77D
  8
外形線
 10
412.20302875981622
 20
308.7422483296528
 30
0.0
 11
415.07239110563683
 21
308.7422483296528
 31
0.0
  0
LINE
  5
77E
  8
外形線
 10
389.70302875981628
 20
300.49224832965291
 30
0.0
 11
390.70302875981622
 21
300.49224832965291
 31
0.0
  0
LINE
  5
77F
  8
外形線
 10
389.70302875981622
 20
292.99224832965291
 30
0.0
 11
390.70302875981628
 21
292.99224832965291
 31
0.0
  0
LINE
  5
780
  8
外形線
 10
391.70302875981622
 20
308.74224832965291
 30
0.0
 11
392.05738483607718
 21
308.74224832965291
 31
0.0
  0
LINE
  5
78E
  8
中心線
 10
393.20302875981622
 20
309.95197223788352
 30
0.0
 11
393.20302875981622
 21
300.1105899779306
 31
0.0
  0
LINE
  5
78F
  8
中心線
 10
389.834740154244
 20
306.24224832965291
 30
0.0
 11
396.17145678160369
 21
306.24224832965291
 31
0.0
  0
CIRCLE
  5
790
  8
外形線
 10
393.20302875981611
 20
306.24224832965291
 30
0.0
 40
1.5
  0
LINE
  5
792
  8
中心線
 10
412.70302875981599
 20
307.83718487907441
 30
0.0
 11
412.70302875981611
 21
304.31877662200799
 31
0.0
  0
LINE
  5
793
  8
中心線
 10
411.1080922103946
 20
306.2422483296528
 30
0.0
 11
414.29796530923761
 21
306.2422483296528
 31
0.0
  0
CIRCLE
  5
794
  8
外形線
 10
412.70302875981599
 20
306.2422483296528
 30
0.0
 40
0.9849999999999999
  0
LINE
  5
797
  8
中心線
 10
409.70302875981622
 20
294.68024748513642
 30
0.0
 11
409.70302875981622
 21
290.7206133834689
 31
0.0
  0
LINE
  5
798
  8
中心線
 10
407.72321170898232
 20
292.7422483296528
 30
0.0
 11
411.68284581065012
 21
292.7422483296528
 31
0.0
  0
LINE
  5
7AF
  8
中心線
 10
417.70302875981611
 20
322.05426641831559
 30
0.0
 11
417.70302875981622
 21
215.04873927045651
 31
0.0
  0
CIRCLE
  5
803
  8
外形線
 10
407.20302875981611
 20
312.24224832965291
 30
0.0
 40
1.5
  0
LINE
  5
80B
  8
外形線
 10
418.70302875981611
 20
308.7422483296528
 30
0.0
 11
420.70302875981599
 21
308.7422483296528
 31
0.0
  0
LINE
  5
819
  8
中心線
 10
407.20302875981611
 20
314.5823245002656
 30
0.0
 11
407.20302875981611
 21
309.90217215904022
 31
0.0
  0
LINE
  5
81A
  8
中心線
 10
404.8629525892033
 20
312.24224832965291
 30
0.0
 11
409.5431049304288
 21
312.24224832965291
 31
0.0
  0
ARC
  5
84A
  8
外形線
 10
417.70302875981611
 20
316.4422483296529
 30
0.0
 40
1.0
 50
23.578178478193848
 51
156.42182152180311
  0
LINE
  5
84B
  8
外形線
 10
416.65302875981831
 20
316.1155582730778
 30
0.0
 11
416.65302875981598
 21
316.8422483296527
 31
0.0
  0
POINT
  5
84C
  8
DEFPOINTS
  6
BYBLOCK
 62
     0
 10
417.70302875981611
 20
318.4422483296529
 30
0.0
  0
POINT
  5
84D
  8
DEFPOINTS
  6
BYBLOCK
 62
     0
 10
417.70302875981611
 20
318.4422483296529
 30
0.0
  0
POINT
  5
84E
  8
DEFPOINTS
  6
BYBLOCK
 62
     0
 10
417.70302875981611
 20
318.4422483296529
 30
0.0
  0
LINE
  5
84F
  8
外形線
 10
418.753028759816
 20
315.7422483296528
 30
0.0
 11
418.75302875981612
 21
316.8422483296527
 31
0.0
  0
LINE
  5
850
  8
外形線
 10
418.75302875981589
 20
316.84224832965282
 30
0.0
 11
418.50302875981612
 21
316.84224832965282
 31
0.0
  0
LINE
  5
85E
  8
外形線
 10
390.70302875981611
 20
347.58955644987361
 30
0.0
 11
390.70302875981611
 21
355.58955644987361
 31
0.0
  0
LINE
  5
85F
  8
外形線
 10
420.70302875981599
 20
347.58955644987361
 30
0.0
 11
420.70302875981599
 21
355.58955644987361
 31
0.0
  0
LINE
  5
860
  8
外形線
 10
411.20302875981622
 20
347.58955644987361
 30
0.0
 11
411.20302875981611
 21
355.58955644987361
 31
0.0
  0
LINE
  5
8BD
  8
外形線
 10
390.70302875981622
 20
355.58955644987361
 30
0.0
 11
405.70302875981611
 21
355.58955644987361
 31
0.0
  0
LINE
  5
8BE
  8
外形線
 10
390.70302875981622
 20
347.58955644987361
 30
0.0
 11
405.70302875981707
 21
347.58955644987361
 31
0.0
  0
LINE
  5
8BF
  8
外形線
 10
408.70302875981758
 20
349.08955644987373
 30
0.0
 11
416.55738483607701
 21
349.08955644987361
 31
0.0
  0
LINE
  5
8C2
  8
外形線
 10
389.70302875981628
 20
300.49224832965291
 30
0.0
 11
389.70302875981622
 21
292.99224832965291
 31
0.0
  0
POINT
  5
9FE
  8
DEFPOINTS
  6
BYBLOCK
 62
     0
 10
417.70302875981611
 20
318.4422483296529
 30
0.0
  0
CIRCLE
  5
FA6
  8
外形線
 10
417.70302875981611
 20
351.58955644987361
 30
0.0
 40
2.75
  0
CIRCLE
  5
FA9
  8
外形線
 10
417.70302875981611
 20
351.58955644987361
 30
0.0
 40
1.3
  0
CIRCLE
  5
FAA
  8
外形線
 10
417.70302875981611
 20
351.58955644987361
 30
0.0
 40
1.0
  0
LINE
  5
FC2
  8
外形線
 10
418.84867268355521
 20
349.08955644987361
 30
0.0
 11
420.70302875981599
 21
349.08955644987361
 31
0.0
  0
LINE
  5
FC3
  8
外形線
 10
389.70302875981628
 20
355.33955644987361
 30
0.0
 11
390.70302875981622
 21
355.33955644987361
 31
0.0
  0
LINE
  5
FC4
  8
外形線
 10
389.70302875981622
 20
347.83955644987361
 30
0.0
 11
390.70302875981628
 21
347.83955644987361
 31
0.0
  0
LINE
  5
FC5
  8
外形線
 10
389.70302875981628
 20
355.33955644987361
 30
0.0
 11
389.70302875981622
 21
347.83955644987361
 31
0.0
  0
LINE
  5
FC6
  8
中心線
 10
393.20302875981622
 20
338.66324363591201
 30
0.0
 11
393.20302875981622
 21
364.64180586455939
 31
0.0
  0
LINE
  5
FC7
  8
中心線
 10
407.20302875981599
 20
337.99097481327061
 30
0.0
 11
407.20302875981611
 21
364.48680128548102
 31
0.0
  0
LINE
  5
FCB
  8
外形線
 10
418.70302875981611
 20
361.58955644987361
 30
0.0
 11
418.70302875981611
 21
359.58955644987361
 31
0.0
  0
LINE
  5
1097
  8
外形線
 10
405.70302875981707
 20
347.58955644987361
 30
0.0
 11
405.70302875981599
 21
359.58955644987361
 31
0.0
  0
LINE
  5
10B3
  8
外形線
 10
392.41394414398872
 20
307.0313329454803
 30
0.0
 11
393.99211337564361
 21
305.4531637138254
 31
0.0
  0
LINE
  5
10B5
  8
外形線
 10
393.99211337564361
 20
307.0313329454803
 30
0.0
 11
392.41394414398872
 21
305.4531637138254
 31
0.0
  0
LINE
  5
10B6
  8
外形線
 10
406.4139441439886
 20
313.03133294548041
 30
0.0
 11
407.9921133756435
 21
311.45316371382557
 31
0.0
  0
LINE
  5
10B7
  8
外形線
 10
407.9921133756435
 20
313.03133294548041
 30
0.0
 11
406.4139441439886
 21
311.45316371382557
 31
0.0
  0
CIRCLE
  5
10B8
  8
外形線
 10
409.70302875981622
 20
292.7422483296528
 30
0.0
 40
1.25
  0
LINE
  5
10BC
  8
外形線
 10
409.01920868876971
 20
293.42606840069919
 30
0.0
 11
410.3868488308625
 21
292.0584282586064
 31
0.0
  0
LINE
  5
10BD
  8
外形線
 10
410.38684883086262
 20
293.42606840069931
 30
0.0
 11
409.01920868876971
 21
292.0584282586064
 31
0.0
  0
CIRCLE
  5
10C2
  8
外形線
 10
419.20302875981622
 20
292.74224832965291
 30
0.0
 40
1.25
  0
LINE
  5
10C3
  8
外形線
 10
419.88684883086262
 20
293.42606840069942
 30
0.0
 11
418.5192086887696
 21
292.05842825860651
 31
0.0
  0
LINE
  5
10C4
  8
外形線
 10
418.5192086887696
 20
293.42606840069931
 30
0.0
 11
419.8868488308625
 21
292.0584282586064
 31
0.0
  0
LINE
  5
10F3
  8
外形線
 10
390.70302875981622
 20
361.58955644987361
 30
0.0
 11
418.70302875981611
 21
361.58955644987361
 31
0.0
  0
LINE
  5
10F4
  8
外形線
 10
390.70302875981622
 20
359.58955644987361
 30
0.0
 11
411.71802875981598
 21
359.5895564498735
 31
0.0
  0
LINE
  5
10F7
  8
外形線
 10
390.70302875981611
 20
359.58955644987361
 30
0.0
 11
390.70302875981622
 21
361.58955644987361
 31
0.0
  0
LINE
  5
10F8
  8
外形線
 10
392.15302875981621
 20
362.88955644987362
 30
0.0
 11
394.25302875981617
 21
362.88955644987362
 31
0.0
  0
LINE
  5
10F9
  8
外形線
 10
391.45302875981622
 20
361.58955644987361
 30
0.0
 11
391.45302875981622
 21
362.18955644987358
 31
0.0
  0
LINE
  5
10FA
  8
外形線
 10
394.95302875981611
 20
361.58955644987361
 30
0.0
 11
394.95302875981622
 21
362.18955644987358
 31
0.0
  0
ARC
  5
10FB
  8
外形線
 10
392.15302875981621
 20
362.18955644987358
 30
0.0
 40
0.7
 50
90.0
 51
180.00000000000011
  0
ARC
  5
10FC
  8
外形線
 10
394.25302875981617
 20
362.18955644987358
 30
0.0
 40
0.7
 50
0.0000000000001527
 51
90.0
  0
LINE
  5
10FD
  8
外形線
 10
406.1530287598161
 20
362.88955644987362
 30
0.0
 11
408.25302875981612
 21
362.88955644987362
 31
0.0
  0
LINE
  5
10FE
  8
外形線
 10
405.45302875981611
 20
361.58955644987361
 30
0.0
 11
405.45302875981611
 21
362.18955644987358
 31
0.0
  0
ARC
  5
10FF
  8
外形線
 10
406.1530287598161
 20
362.18955644987358
 30
0.0
 40
0.7
 50
90.0
 51
180.00000000000011
  0
LINE
  5
1100
  8
外形線
 10
408.95302875981599
 20
361.58955644987361
 30
0.0
 11
408.95302875981611
 21
362.18955644987358
 31
0.0
  0
ARC
  5
1101
  8
外形線
 10
408.25302875981612
 20
362.18955644987358
 30
0.0
 40
0.7
 50
0.0000000000001527
 51
90.0
  0
LINE
  5
1102
  8
外形線
 10
392.15302875981621
 20
340.28955644987349
 30
0.0
 11
394.25302875981617
 21
340.28955644987349
 31
0.0
  0
LINE
  5
1103
  8
外形線
 10
390.70302875981622
 20
341.58955644987361
 30
0.0
 11
418.70302875981611
 21
341.58955644987361
 31
0.0
  0
LINE
  5
1104
  8
外形線
 10
390.70302875981622
 20
343.58955644987361
 30
0.0
 11
411.71802875981598
 21
343.58955644987361
 31
0.0
  0
LINE
  5
1105
  8
外形線
 10
391.45302875981622
 20
341.58955644987361
 30
0.0
 11
391.45302875981622
 21
340.98955644987348
 31
0.0
  0
ARC
  5
1106
  8
外形線
 10
392.15302875981621
 20
340.98955644987348
 30
0.0
 40
0.7
 50
179.9999999999998
 51
270.0
  0
LINE
  5
1107
  8
外形線
 10
390.70302875981622
 20
343.58955644987361
 30
0.0
 11
390.70302875981622
 21
341.58955644987361
 31
0.0
  0
LINE
  5
1109
  8
外形線
 10
394.95302875981611
 20
341.58955644987361
 30
0.0
 11
394.95302875981622
 21
340.98955644987348
 31
0.0
  0
ARC
  5
110A
  8
外形線
 10
394.25302875981617
 20
340.98955644987348
 30
0.0
 40
0.7
 50
270.0
 51
359.99999999999977
  0
LINE
  5
110C
  8
外形線
 10
406.1530287598161
 20
340.28955644987349
 30
0.0
 11
408.25302875981612
 21
340.28955644987349
 31
0.0
  0
ARC
  5
110D
  8
外形線
 10
406.1530287598161
 20
340.98955644987348
 30
0.0
 40
0.7
 50
179.9999999999998
 51
270.0
  0
LINE
  5
110E
  8
外形線
 10
405.45302875981611
 20
341.58955644987361
 30
0.0
 11
405.45302875981611
 21
340.98955644987348
 31
0.0
  0
LINE
  5
110F
  8
外形線
 10
405.70302875981611
 20
347.58955644987338
 30
0.0
 11
405.70302875981599
 21
343.58955644987361
 31
0.0
  0
ARC
  5
1110
  8
外形線
 10
408.25302875981612
 20
340.98955644987348
 30
0.0
 40
0.7
 50
270.0
 51
359.99999999999977
  0
LINE
  5
1111
  8
外形線
 10
408.95302875981599
 20
341.58955644987361
 30
0.0
 11
408.95302875981611
 21
340.98955644987348
 31
0.0
  0
LINE
  5
1112
  8
外形線
 10
408.70302875981821
 20
359.5895564498735
 30
0.0
 11
408.70302875981588
 21
343.58955644987361
 31
0.0
  0
LINE
  5
1113
  8
外形線
 10
418.70302875981611
 20
341.58955644987361
 30
0.0
 11
418.70302875981611
 21
343.58955644987361
 31
0.0
  0
POINT
  5
1114
  8
DEFPOINTS
  6
BYBLOCK
 62
     0
 10
417.70302875981611
 20
347.53955644987349
 30
0.0
  0
LINE
  5
1115
  8
外形線
 10
396.70302875981611
 20
347.58955644987361
 30
0.0
 11
396.70302875981611
 21
355.58955644987361
 31
0.0
  0
LINE
  5
111C
  8
外形線
 10
408.70302875981611
 20
355.58955644987361
 30
0.0
 11
420.70302875981599
 21
355.58955644987361
 31
0.0
  0
LINE
  5
111D
  8
外形線
 10
408.70302875981798
 20
347.58955644987361
 30
0.0
 11
420.70302875981599
 21
347.58955644987361
 31
0.0
  0
LINE
  5
1127
  8
中心線
 10
412.70302875981599
 20
363.0974580544393
 30
0.0
 11
412.70302875981611
 21
340.37608937351968
 31
0.0
  0
LINE
  5
1128
  8
外形線
 10
411.71802875981598
 20
341.58955644987361
 30
0.0
 11
411.71802875981598
 21
344.5895564498735
 31
0.0
  0
LINE
  5
1129
  8
外形線
 10
413.68802875981601
 20
341.58955644987361
 30
0.0
 11
413.68802875981601
 21
344.5895564498735
 31
0.0
  0
LINE
  5
112C
  8
外形線
 10
411.71802875981609
 20
355.58955644987361
 30
0.0
 11
411.71802875981598
 21
357.98955644987359
 31
0.0
  0
LINE
  5
112E
  8
外形線
 10
413.68802875981601
 20
359.5895564498735
 30
0.0
 11
418.70302875981611
 21
359.58955644987361
 31
0.0
  0
LINE
  5
118E
  8
中心線
 10
462.02689643216269
 20
320.17044443218771
 30
0.0
 11
462.02689643216269
 21
263.26886707593661
 31
0.0
  0
LINE
  5
118F
  8
外形線
 10
458.02689643216269
 20
308.74224832965302
 30
0.0
 11
458.0268964321628
 21
271.74224832965291
 31
0.0
  0
LINE
  5
1190
  8
外形線
 10
466.02689643216269
 20
308.74224832965291
 30
0.0
 11
466.0268964321628
 21
271.74224832965291
 31
0.0
  0
LINE
  5
1192
  8
外形線
 10
458.0268964321628
 20
308.74224832965302
 30
0.0
 11
466.02689643216269
 21
308.74224832965302
 31
0.0
  0
LINE
  5
1193
  8
外形線
 10
459.52689643216269
 20
308.74224832965302
 30
0.0
 11
459.52689643216269
 21
287.74224832965291
 31
0.0
  0
LINE
  5
1198
  8
外形線
 10
454.02689643216269
 20
317.24224832965291
 30
0.0
 11
454.02689643216257
 21
301.2422483296528
 31
0.0
  0
LINE
  5
1199
  8
外形線
 10
452.02689643216257
 20
315.24224832965291
 30
0.0
 11
452.02689643216257
 21
301.2422483296528
 31
0.0
  0
LINE
  5
11A8
  8
中心線
 10
453.8744878119374
 20
296.74224832965291
 30
0.0
 11
469.79183439948702
 21
296.74224832965291
 31
0.0
  0
LINE
  5
11B6
  8
中心線
 10
450.16616944447821
 20
312.24224832965291
 30
0.0
 11
474.50977455998679
 21
312.24224832965291
 31
0.0
  0
LINE
  5
11B7
  8
外形線
 10
450.72689643216268
 20
313.29224832965292
 30
0.0
 11
450.72689643216268
 21
311.19224832965301
 31
0.0
  0
LINE
  5
11B9
  8
外形線
 10
452.02689643216269
 20
310.49224832965302
 30
0.0
 11
451.42689643216272
 21
310.49224832965302
 31
0.0
  0
ARC
  5
11BA
  8
外形線
 10
451.42689643216272
 20
311.19224832965301
 30
0.0
 40
0.7
 50
180.0
 51
269.99999999999977
  0
LINE
  5
11BD
  8
外形線
 10
452.02689643216269
 20
313.99224832965291
 30
0.0
 11
451.42689643216272
 21
313.99224832965291
 31
0.0
  0
ARC
  5
11BE
  8
外形線
 10
451.42689643216272
 20
313.29224832965292
 30
0.0
 40
0.7
 50
89.999999999999844
 51
180.0
  0
ARC
  5
1246
  8
外形線
 10
454.02689643216269
 20
315.24224832965291
 30
0.0
 40
2.0
 50
90.000000000001606
 51
180.0
  0
POINT
  5
1289
  8
DEFPOINTS
  6
BYBLOCK
 62
     0
 10
420.70302875981599
 20
308.7422483296528
 30
0.0
  0
POINT
  5
1290
  8
DEFPOINTS
  6
BYBLOCK
 62
     0
 10
337.34212583719869
 20
303.8490496336488
 30
0.0
  0
POINT
  5
12B3
  8
DEFPOINTS
  6
BYBLOCK
 62
     0
 10
417.70302875981611
 20
318.4422483296529
 30
0.0
  0
POINT
  5
12B5
  8
DEFPOINTS
  6
BYBLOCK
 62
     0
 10
385.25949486971149
 20
296.74224832965291
 30
0.0
  0
POINT
  5
12CC
  8
DEFPOINTS
  6
BYBLOCK
 62
     0
 10
241.84212583719881
 20
288.74224832965302
 30
0.0
  0
LINE
  5
12FC
  8
外形線
 10
390.70302875981628
 20
291.74224832965291
 30
0.0
 11
391.70302875981639
 21
290.7422483296528
 31
0.0
  0
LINE
  5
12FD
  8
外形線
 10
411.20302875981622
 20
307.7422483296528
 30
0.0
 11
412.20302875981622
 21
308.7422483296528
 31
0.0
  0
LINE
  5
12FE
  8
中心線
 10
419.20302875981611
 20
294.39378267098323
 30
0.0
 11
419.20302875981622
 21
291.07199833323222
 31
0.0
  0
LINE
  5
1300
  8
中心線
 10
417.46384066550843
 20
292.7422483296528
 30
0.0
 11
421.42347476717612
 21
292.7422483296528
 31
0.0
  0
LINE
  5
1301
  8
外形線
 10
411.70302875981639
 20
271.74224832965291
 30
0.0
 11
420.70302875981628
 21
271.74224832965291
 31
0.0
  0
LINE
  5
1302
  8
外形線
 10
411.20302875981628
 20
287.74224832965291
 30
0.0
 11
411.20302875981639
 21
272.2422483296528
 31
0.0
  0
ARC
  5
1303
  8
外形線
 10
408.20302875981628
 20
287.74224832965291
 30
0.0
 40
3.0
 50
0.0000000000005343
 51
90.000000000000099
  0
LINE
  5
1304
  8
外形線
 10
411.70302875981639
 20
271.74224832965291
 30
0.0
 11
411.20302875981639
 21
272.2422483296528
 31
0.0
  0
LINE
  5
1305
  8
外形線
 10
411.20302875981628
 20
287.74224832965291
 30
0.0
 11
420.70302875981628
 21
287.74224832965291
 31
0.0
  0
LINE
  5
130F
  8
外形線
 10
458.0268964321628
 20
287.74224832965291
 30
0.0
 11
459.52689643216269
 21
287.7422483296528
 31
0.0
  0
LINE
  5
1310
  8
外形線
 10
458.0268964321628
 20
271.74224832965291
 30
0.0
 11
466.0268964321628
 21
271.74224832965291
 31
0.0
  0
LINE
  5
1328
  8
中心線
 10
417.70302875981611
 20
346.49828224469979
 30
0.0
 11
417.70302875981611
 21
356.08552767239843
 31
0.0
  0
LINE
  5
132C
  8
外形線
 10
411.20302875981622
 20
355.58955644987361
 30
0.0
 11
411.20302875981622
 21
356.18955644987352
 31
0.0
  0
ARC
  5
1332
  8
外形線
 10
390.75302875981617
 20
358.28955644987349
 30
0.0
 40
0.3
 50
89.999999999989143
 51
270.0000000000108
  0
ARC
  5
1333
  8
外形線
 10
395.65302875981621
 20
357.68955644987352
 30
0.0
 40
0.3
 50
270.0000000000108
 51
89.999999999989143
  0
ARC
  5
1334
  8
外形線
 10
390.75302875981617
 20
357.68955644987352
 30
0.0
 40
0.3
 50
89.999999999989143
 51
270.0000000000108
  0
ARC
  5
1335
  8
外形線
 10
390.75302875981617
 20
357.0895564498735
 30
0.0
 40
0.3
 50
89.999999999989143
 51
270.0000000000108
  0
ARC
  5
1336
  8
外形線
 10
390.75302875981617
 20
356.48955644987348
 30
0.0
 40
0.3
 50
89.999999999989143
 51
270.0000000000108
  0
ARC
  5
1337
  8
外形線
 10
390.75302875981617
 20
355.88955644987351
 30
0.0
 40
0.3
 50
89.999999999989143
 51
270.0000000000108
  0
ARC
  5
1338
  8
外形線
 10
395.65302875981621
 20
357.0895564498735
 30
0.0
 40
0.3
 50
270.0000000000108
 51
89.999999999989143
  0
ARC
  5
1339
  8
外形線
 10
395.65302875981621
 20
356.48955644987348
 30
0.0
 40
0.3
 50
270.0000000000108
 51
89.999999999989143
  0
ARC
  5
133A
  8
外形線
 10
395.65302875981621
 20
355.88955644987351
 30
0.0
 40
0.3
 50
270.0000000000108
 51
89.999999999989143
  0
LINE
  5
133B
  8
外形線
 10
390.75302875981617
 20
357.98955644987348
 30
0.0
 11
405.70302875981611
 21
357.98955644987348
 31
0.0
  0
LINE
  5
133C
  8
外形線
 10
390.75302875981612
 20
357.38955644987351
 30
0.0
 11
395.6530287598161
 21
357.38955644987351
 31
0.0
  0
LINE
  5
133D
  8
外形線
 10
390.75302875981612
 20
356.78955644987349
 30
0.0
 11
395.6530287598161
 21
356.78955644987349
 31
0.0
  0
LINE
  5
133E
  8
外形線
 10
390.75302875981612
 20
356.18955644987352
 30
0.0
 11
405.70302875981628
 21
356.18955644987352
 31
0.0
  0
LINE
  5
1340
  8
外形線
 10
408.7030287598177
 20
356.18955644987352
 30
0.0
 11
411.20302875981622
 21
356.18955644987352
 31
0.0
  0
LINE
  5
1341
  8
外形線
 10
408.70302875981798
 20
357.98955644987348
 30
0.0
 11
416.3575550328124
 21
357.9895564498737
 31
0.0
  0
LINE
  5
1342
  8
外形線
 10
390.75302875981617
 20
345.18955644987358
 30
0.0
 11
405.70302875981611
 21
345.18955644987358
 31
0.0
  0
LINE
  5
1343
  8
外形線
 10
390.75302875981612
 20
346.98955644987359
 30
0.0
 11
405.70302875981628
 21
346.98955644987359
 31
0.0
  0
LINE
  5
1344
  8
外形線
 10
390.70302875981622
 20
347.5895564498735
 30
0.0
 11
405.70302875981611
 21
347.5895564498735
 31
0.0
  0
LINE
  5
1345
  8
外形線
 10
390.75302875981612
 20
346.38955644987362
 30
0.0
 11
395.6530287598161
 21
346.38955644987362
 31
0.0
  0
LINE
  5
1346
  8
外形線
 10
390.75302875981612
 20
345.7895564498736
 30
0.0
 11
395.6530287598161
 21
345.7895564498736
 31
0.0
  0
ARC
  5
1347
  8
外形線
 10
390.75302875981617
 20
347.2895564498736
 30
0.0
 40
0.3
 50
89.999999999989186
 51
270.0000000000108
  0
ARC
  5
1348
  8
外形線
 10
390.75302875981617
 20
346.68955644987358
 30
0.0
 40
0.3
 50
89.999999999989186
 51
270.0000000000108
  0
ARC
  5
1349
  8
外形線
 10
390.75302875981617
 20
346.08955644987361
 30
0.0
 40
0.3
 50
89.999999999989186
 51
270.0000000000108
  0
ARC
  5
134A
  8
外形線
 10
390.75302875981617
 20
345.48955644987359
 30
0.0
 40
0.3
 50
89.999999999989186
 51
270.0000000000108
  0
ARC
  5
134B
  8
外形線
 10
390.75302875981617
 20
344.88955644987362
 30
0.0
 40
0.3
 50
89.999999999989186
 51
270.0000000000108
  0
ARC
  5
134C
  8
外形線
 10
395.65302875981621
 20
347.2895564498736
 30
0.0
 40
0.3
 50
270.0000000000108
 51
89.999999999989186
  0
ARC
  5
134D
  8
外形線
 10
395.65302875981621
 20
346.68955644987358
 30
0.0
 40
0.3
 50
270.0000000000108
 51
89.999999999989186
  0
ARC
  5
134E
  8
外形線
 10
395.65302875981621
 20
346.08955644987361
 30
0.0
 40
0.3
 50
270.0000000000108
 51
89.999999999989186
  0
ARC
  5
134F
  8
外形線
 10
395.65302875981621
 20
345.48955644987359
 30
0.0
 40
0.3
 50
270.0000000000108
 51
89.999999999989186
  0
LINE
  5
1350
  8
外形線
 10
408.70302875981798
 20
345.18955644987369
 30
0.0
 11
416.3575550328124
 21
345.18955644987352
 31
0.0
  0
LINE
  5
1351
  8
外形線
 10
408.7030287598177
 20
346.98955644987359
 30
0.0
 11
411.20302875981622
 21
346.98955644987359
 31
0.0
  0
LINE
  5
1352
  8
外形線
 10
411.20302875981622
 20
347.5895564498735
 30
0.0
 11
411.20302875981622
 21
346.98955644987359
 31
0.0
  0
LINE
  5
1397
  8
外形線
 10
390.70302875981628
 20
300.59660440591358
 30
0.0
 11
390.70302875981628
 21
291.74224832965291
 31
0.0
  0
LINE
  5
139B
  8
外形線
 10
408.20302875981611
 20
300.74224832965291
 30
0.0
 11
408.20302875981622
 21
290.7422483296528
 31
0.0
  0
LINE
  5
13C1
  8
隠れ線
 10
454.0268964321628
 20
313.74224832965291
 30
0.0
 11
452.0268964321628
 21
313.74224832965291
 31
0.0
  0
LINE
  5
13C2
  8
隠れ線
 10
454.0268964321628
 20
310.74224832965291
 30
0.0
 11
452.0268964321628
 21
310.74224832965291
 31
0.0
  0
ARC
  5
13D0
  8
外形線
 10
417.70302875981622
 20
218.2422483296528
 30
0.0
 40
1.5
 50
195.46600995342081
 51
344.53399004657922
  0
LINE
  5
13D1
  8
外形線
 10
415.9030287598161
 20
217.8422483296529
 30
0.0
 11
419.50302875981629
 21
217.8422483296529
 31
0.0
  0
LINE
  5
13D2
  8
外形線
 10
415.45302875981611
 20
219.24224832965291
 30
0.0
 11
419.95302875981622
 21
219.24224832965291
 31
0.0
  0
LINE
  5
13D3
  8
外形線
 10
414.70302875981628
 20
221.74224832965291
 30
0.0
 11
414.70302875981628
 21
219.67526103154501
 31
0.0
  0
LINE
  5
13D8
  8
外形線
 10
415.45302875981622
 20
219.24224832965291
 30
0.0
 11
415.90302875981621
 21
217.8422483296529
 31
0.0
  0
LINE
  5
13D9
  8
外形線
 10
419.95302875981622
 20
219.24224832965291
 30
0.0
 11
419.50302875981629
 21
217.8422483296529
 31
0.0
  0
LINE
  5
13E2
  8
外形線
 10
420.70302875981639
 20
219.6752610315452
 30
0.0
 11
419.95302875981622
 21
219.24224832965291
 31
0.0
  0
LINE
  5
13E3
  8
外形線
 10
414.70302875981599
 20
219.67526103154509
 30
0.0
 11
415.45302875981622
 21
219.24224832965291
 31
0.0
  0
LINE
  5
13E4
  8
外形線
 10
414.70302875981628
 20
219.67526103154501
 30
0.0
 11
416.05302875981619
 21
219.67526103154501
 31
0.0
  0
LINE
  5
13E5
  8
外形線
 10
416.05302875981619
 20
221.74224832965291
 30
0.0
 11
416.05302875981619
 21
219.67526103154509
 31
0.0
  0
LINE
  5
13E6
  8
外形線
 10
419.3530287598162
 20
221.74224832965291
 30
0.0
 11
419.3530287598162
 21
219.6752610315452
 31
0.0
  0
LINE
  5
13E7
  8
外形線
 10
419.3530287598162
 20
219.6752610315452
 30
0.0
 11
420.7030287598165
 21
219.6752610315452
 31
0.0
  0
ARC
  5
13E8
  8
外形線
 10
417.70302875981599
 20
222.60242689633569
 30
0.0
 40
3.360178566682845
 50
240.59068860280689
 51
299.40931139720021
  0
LINE
  5
13ED
  8
外形線
 10
459.77689643216269
 20
269.24224832965291
 30
0.0
 11
464.27689643216269
 21
269.24224832965291
 31
0.0
  0
LINE
  5
13EE
  8
外形線
 10
460.22689643216268
 20
267.84224832965288
 30
0.0
 11
463.8268964321627
 21
267.84224832965288
 31
0.0
  0
ARC
  5
13EF
  8
外形線
 10
462.0268964321628
 20
268.2422483296528
 30
0.0
 40
1.5
 50
195.46600995342081
 51
344.53399004657922
  0
LINE
  5
13F0
  8
外形線
 10
459.52689643216257
 20
269.67526103154501
 30
0.0
 11
464.52689643216257
 21
269.67526103154512
 31
0.0
  0
LINE
  5
13F1
  8
外形線
 10
459.52689643216269
 20
269.38658589695018
 30
0.0
 11
459.7768964321628
 21
269.24224832965291
 31
0.0
  0
LINE
  5
13F2
  8
外形線
 10
459.77689643216269
 20
269.24224832965291
 30
0.0
 11
460.22689643216279
 21
267.84224832965288
 31
0.0
  0
LINE
  5
13F4
  8
外形線
 10
464.52689643216257
 20
269.38658589695018
 30
0.0
 11
464.27689643216269
 21
269.24224832965291
 31
0.0
  0
LINE
  5
13F5
  8
外形線
 10
464.27689643216269
 20
269.24224832965291
 30
0.0
 11
463.8268964321627
 21
267.84224832965288
 31
0.0
  0
LINE
  5
13F6
  8
外形線
 10
459.52689643216257
 20
271.74224832965291
 30
0.0
 11
459.52689643216257
 21
269.38658589695018
 31
0.0
  0
LINE
  5
13F7
  8
外形線
 10
464.52689643216269
 20
271.74224832965291
 30
0.0
 11
464.52689643216269
 21
269.38658589695029
 31
0.0
  0
LINE
  5
13F9
  8
外形線
 10
457.42932498060901
 20
305.24224832965291
 30
0.0
 11
457.42932498060901
 21
303.73271183647489
 31
0.0
  0
LINE
  5
13FA
  8
外形線
 10
458.00979597077662
 20
297.9422483296529
 30
0.0
 11
458.0268964321628
 21
297.9422483296529
 31
0.0
  0
LINE
  5
1410
  8
外形線
 10
456.82689643216258
 20
303.77080686528808
 30
0.0
 11
456.82689643216258
 21
305.24224832965291
 31
0.0
  0
LINE
  5
1411
  8
外形線
 10
456.22689643216262
 20
303.77080686528808
 30
0.0
 11
456.22689643216262
 21
305.24224832965291
 31
0.0
  0
ARC
  5
1412
  8
外形線
 10
457.72689643216268
 20
303.77080686528819
 30
0.0
 40
0.3
 50
179.99999999998909
 51
0.0000000000108713
  0
ARC
  5
1413
  8
外形線
 10
457.1268964321626
 20
303.77080686528819
 30
0.0
 40
0.3
 50
179.99999999998909
 51
0.0000000000108713
  0
ARC
  5
1414
  8
外形線
 10
456.52689643216257
 20
303.77080686528819
 30
0.0
 40
0.3
 50
179.99999999998909
 51
0.0000000000108713
  0
ARC
  5
1415
  8
外形線
 10
455.92689643216261
 20
303.77080686528819
 30
0.0
 40
0.3
 50
179.99999999998909
 51
0.0000000000108713
  0
ARC
  5
1416
  8
外形線
 10
455.32689643216258
 20
303.77080686528819
 30
0.0
 40
0.3
 50
179.99999999998909
 51
0.0000000000108713
  0
LINE
  5
141B
  8
外形線
 10
457.42689643216261
 20
303.77080686528808
 30
0.0
 11
457.42689643216261
 21
305.24224832965291
 31
0.0
  0
LINE
  5
141C
  8
外形線
 10
455.6268964321626
 20
303.77080686528819
 30
0.0
 11
455.6268964321626
 21
305.24224832965291
 31
0.0
  0
CIRCLE
  5
1424
  8
外形線
 10
454.72156308064672
 20
308.19994512178801
 30
0.0
 40
0.3
  0
LINE
  5
1426
  8
外形線
 10
455.02689643216257
 20
303.77080686528819
 30
0.0
 11
455.02689643216257
 21
305.24224832965291
 31
0.0
  0
LINE
  5
1427
  8
外形線
 10
458.02446788371628
 20
299.27080686528819
 30
0.0
 11
458.02446788371628
 21
304.17080686528823
 31
0.0
  0
POINT
  5
1498
  8
DEFPOINTS
  6
BYBLOCK
 62
     0
 10
420.7030287598165
 20
219.6752610315452
 30
0.0
  0
POINT
  5
1499
  8
DEFPOINTS
  6
BYBLOCK
 62
     0
 10
241.84212583719881
 20
288.74224832965302
 30
0.0
  0
POINT
  5
14AC
  8
DEFPOINTS
  6
BYBLOCK
 62
     0
 10
417.01793492424099
 20
216.90783968292689
 30
0.0
  0
POINT
  5
14DC
  8
DEFPOINTS
  6
BYBLOCK
 62
     0
 10
491.24655181671187
 20
301.99698951181603
 30
0.0
  0
LINE
  5
14FE
  8
外形線
 10
390.70302875981622
 20
307.74224832965291
 30
0.0
 11
391.70302875981622
 21
308.74224832965291
 31
0.0
  0
ARC
  5
1504
  8
外形線
 10
393.20302875981622
 20
303.7422483296528
 30
0.0
 40
2.5
 50
179.99999999999869
 51
270.00000000000131
  0
ARC
  5
1505
  8
外形線
 10
393.20302875981611
 20
306.24224832965291
 30
0.0
 40
2.5
 50
111.1223163476137
 51
179.99999999999869
  0
LINE
  5
1506
  8
外形線
 10
390.70302875981611
 20
306.24224832965291
 30
0.0
 11
390.70302875981628
 21
300.49224832965291
 31
0.0
  0
LINE
  5
1508
  8
中心線
 10
403.86122020236081
 20
312.24224832965291
 30
0.0
 11
410.1979368297205
 21
312.24224832965291
 31
0.0
  0
LINE
  5
150A
  8
外形線
 10
393.20302875981622
 20
301.2422483296528
 30
0.0
 11
413.12702758056969
 21
301.2422483296528
 31
0.0
  0
LINE
  5
150B
  8
中心線
 10
412.70302875981611
 20
309.95197223788369
 30
0.0
 11
412.70302875981622
 21
303.34582995333892
 31
0.0
  0
ARC
  5
150D
  8
外形線
 10
407.20302875981611
 20
312.24224832965291
 30
0.0
 40
2.0
 50
14.869066698650281
 51
111.12231634761839
  0
LINE
  5
1513
  8
外形線
 10
415.45302875981611
 20
315.7422483296528
 30
0.0
 11
416.58520871115871
 21
315.7422483296528
 31
0.0
  0
LINE
  5
1515
  8
外形線
 10
414.95302875981611
 20
315.2422483296528
 30
0.0
 11
414.95302875981611
 21
308.7422483296528
 31
0.0
  0
LINE
  5
1516
  8
外形線
 10
420.45302875981611
 20
315.24224832965268
 30
0.0
 11
420.45302875981611
 21
308.7422483296528
 31
0.0
  0
ARC
  5
1517
  8
外形線
 10
415.45302875981611
 20
315.2422483296528
 30
0.0
 40
0.5
 50
90.0
 51
180.00000000000011
  0
ARC
  5
1518
  8
外形線
 10
419.95302875981611
 20
315.24224832965268
 30
0.0
 40
0.5
 50
0.0000000000001018
 51
90.0
  0
ARC
  5
1519
  8
外形線
 10
412.70302875981611
 20
307.22724832965281
 30
0.0
 40
6.0
 50
270.00000000000051
 51
0.1432395979912975
  0
ARC
  5
151A
  8
外形線
 10
417.70302875981611
 20
316.2422483296528
 30
0.0
 40
1.0
 50
0.0
 51
168.0905267851592
  0
LINE
  5
1528
  8
外形線
 10
418.70302875981611
 20
316.2422483296528
 30
0.0
 11
418.70302875981611
 21
307.22724832965281
 31
0.0
  0
LINE
  5
1529
  8
外形線
 10
416.72455388163928
 20
316.44861429772158
 30
0.0
 11
414.62671236023618
 21
306.68003593443967
 31
0.0
  0
LINE
  5
152A
  8
外形線
 10
409.13605828256431
 20
312.75547037144759
 30
0.0
 11
410.7872843686863
 21
306.65130639592599
 31
0.0
  0
ARC
  5
152C
  8
外形線
 10
412.70302875981611
 20
307.22724832965281
 30
0.0
 40
2.0
 50
194.09642198324181
 51
351.48891599830858
  0
LINE
  5
152E
  8
外形線
 10
418.70302875981611
 20
315.7422483296528
 30
0.0
 11
419.95302875981611
 21
315.7422483296528
 31
0.0
  0
LINE
  5
152F
  8
外形線
 10
392.30213857128211
 20
308.57406853397288
 30
0.0
 11
406.48230823218938
 21
314.10787536031472
 31
0.0
  0
LINE
  5
1533
  8
隠れ線
 10
396.70302875981611
 20
308.74224832965308
 30
0.0
 11
396.70302875981611
 21
303.7422483296528
 31
0.0
  0
LINE
  5
1534
  8
隠れ線
 10
392.7330929054537
 20
308.74224832965302
 30
0.0
 11
396.70302875981611
 21
308.74224832965302
 31
0.0
  0
LINE
  5
1535
  8
外形線
 10
399.70302875981622
 20
300.74224832965291
 30
0.0
 11
408.20302875981599
 21
300.74224832965291
 31
0.0
  0
LINE
  5
1536
  8
隠れ線
 10
411.20302875981611
 20
305.90437267412062
 30
0.0
 11
411.20302875981611
 21
303.7422483296528
 31
0.0
  0
ARC
  5
1537
  8
隠れ線
 10
399.70302875981622
 20
303.7422483296528
 30
0.0
 40
3.0
 50
180.0000000000008
 51
236.44269023807951
  0
ARC
  5
1538
  8
外形線
 10
408.20302875981599
 20
303.7422483296528
 30
0.0
 40
3.0
 50
270.0
 51
303.55730976192052
  0
ARC
  5
1539
  8
外形線
 10
399.70302875981622
 20
303.7422483296528
 30
0.0
 40
3.0
 50
236.44269023807951
 51
270.0
  0
ARC
  5
153A
  8
隠れ線
 10
408.20302875981599
 20
303.7422483296528
 30
0.0
 40
3.0
 50
303.55730976192052
 51
0.0
  0
LINE
  5
153C
  8
外形線
 10
459.7768964321628
 20
315.74224832965291
 30
0.0
 11
464.27689643216269
 21
315.74224832965291
 31
0.0
  0
LINE
  5
153D
  8
外形線
 10
459.2768964321628
 20
315.24224832965291
 30
0.0
 11
459.2768964321628
 21
308.74224832965302
 31
0.0
  0
LINE
  5
153E
  8
外形線
 10
464.77689643216269
 20
315.24224832965291
 30
0.0
 11
464.77689643216269
 21
308.74224832965302
 31
0.0
  0
ARC
  5
153F
  8
外形線
 10
459.7768964321628
 20
315.24224832965291
 30
0.0
 40
0.5
 50
90.0
 51
180.0000000000002
  0
ARC
  5
1540
  8
外形線
 10
464.27689643216269
 20
315.24224832965291
 30
0.0
 40
0.5
 50
359.99999999999972
 51
90.0
  0
POINT
  5
1579
  8
DEFPOINTS
  6
BYBLOCK
 62
     0
 10
462.02689643216269
 20
317.44224832965278
 30
0.0
  0
POINT
  5
157A
  8
DEFPOINTS
  6
BYBLOCK
 62
     0
 10
462.02689643216269
 20
317.44224832965278
 30
0.0
  0
LINE
  5
157B
  8
外形線
 10
463.07689643216253
 20
316.84224832965282
 30
0.0
 11
460.97689643216268
 21
316.84224832965282
 31
0.0
  0
LINE
  5
157C
  8
外形線
 10
463.07689643216258
 20
315.7422483296528
 30
0.0
 11
463.07689643216258
 21
316.8422483296527
 31
0.0
  0
POINT
  5
157D
  8
DEFPOINTS
  6
BYBLOCK
 62
     0
 10
462.02689643216269
 20
317.44224832965278
 30
0.0
  0
POINT
  5
157E
  8
DEFPOINTS
  6
BYBLOCK
 62
     0
 10
462.02689643216269
 20
317.44224832965278
 30
0.0
  0
POINT
  5
157F
  8
DEFPOINTS
  6
BYBLOCK
 62
     0
 10
462.02689643216269
 20
317.44224832965278
 30
0.0
  0
LINE
  5
1580
  8
外形線
 10
460.9768964321662
 20
315.7422483296528
 30
0.0
 11
460.97689643216262
 21
316.8422483296527
 31
0.0
  0
ARC
  5
1581
  8
外形線
 10
462.02689643216269
 20
316.4422483296529
 30
0.0
 40
1.0
 50
23.578178478193848
 51
156.42182152180311
  0
LINE
  5
1582
  8
外形線
 10
463.07689643216258
 20
316.84224832965282
 30
0.0
 11
462.8268964321627
 21
316.84224832965282
 31
0.0
  0
LINE
  5
158E
  8
外形線
 10
452.02689643216252
 20
301.2422483296528
 30
0.0
 11
454.02689643216257
 21
301.2422483296528
 31
0.0
  0
LINE
  5
1590
  8
中心線
 10
449.553565537743
 20
306.24224832965291
 30
0.0
 11
464.90313496733
 21
306.24224832965291
 31
0.0
  0
LINE
  5
1592
  8
外形線
 10
450.72689643216268
 20
307.29224832965292
 30
0.0
 11
450.72689643216268
 21
305.19224832965301
 31
0.0
  0
LINE
  5
1593
  8
外形線
 10
452.02689643216257
 20
304.49224832965302
 30
0.0
 11
451.42689643216261
 21
304.49224832965302
 31
0.0
  0
ARC
  5
1594
  8
外形線
 10
451.42689643216261
 20
305.19224832965301
 30
0.0
 40
0.7
 50
180.0
 51
269.99999999999977
  0
LINE
  5
1595
  8
外形線
 10
452.02689643216257
 20
307.99224832965291
 30
0.0
 11
451.42689643216261
 21
307.99224832965291
 31
0.0
  0
ARC
  5
1596
  8
外形線
 10
451.42689643216261
 20
307.29224832965292
 30
0.0
 40
0.7
 50
89.999999999999844
 51
180.0
  0
LINE
  5
15BD
  8
外形線
 10
454.02689643216269
 20
314.24224832965291
 30
0.0
 11
459.2768964321628
 21
314.24224832965291
 31
0.0
  0
LINE
  5
15BE
  8
外形線
 10
454.02689643216269
 20
310.24224832965291
 30
0.0
 11
457.42932498060901
 21
310.24224832965291
 31
0.0
  0
LINE
  5
15BF
  8
外形線
 10
454.02689643216269
 20
307.24224832965291
 30
0.0
 11
458.02689643216257
 21
307.24224832965291
 31
0.0
  0
LINE
  5
15C0
  8
外形線
 10
454.02689643216257
 20
305.24224832965291
 30
0.0
 11
458.02689643216257
 21
305.24224832965291
 31
0.0
  0
LINE
  5
15C2
  8
中心線
 10
414.70302875981611
 20
306.63631827549938
 30
0.0
 11
414.70302875981611
 21
302.12660785582369
 31
0.0
  0
LINE
  5
15C3
  8
中心線
 10
412.58719797748552
 20
304.24224832965291
 30
0.0
 11
416.69169885662802
 21
304.24224832965291
 31
0.0
  0
LINE
  5
15C8
  8
外形線
 10
457.42689643216261
 20
308.71368979401768
 30
0.0
 11
457.42689643216261
 21
307.24224832965291
 31
0.0
  0
LINE
  5
15C9
  8
外形線
 10
457.42932498060901
 20
307.24224832965291
 30
0.0
 11
457.42932498060901
 21
310.40999051867931
 31
0.0
  0
LINE
  5
15CA
  8
外形線
 10
456.82689643216258
 20
308.71368979401768
 30
0.0
 11
456.82689643216258
 21
307.24224832965291
 31
0.0
  0
LINE
  5
15CB
  8
外形線
 10
456.22689643216262
 20
308.71368979401768
 30
0.0
 11
456.22689643216262
 21
307.24224832965291
 31
0.0
  0
LINE
  5
15CC
  8
外形線
 10
455.6268964321626
 20
308.71368979401763
 30
0.0
 11
455.6268964321626
 21
307.24224832965291
 31
0.0
  0
LINE
  5
15CD
  8
外形線
 10
455.02689643216257
 20
308.71368979401763
 30
0.0
 11
455.02689643216257
 21
307.24224832965291
 31
0.0
  0
LINE
  5
15CE
  8
外形線
 10
458.02446788371628
 20
310.46375543982072
 30
0.0
 11
458.02446788371628
 21
308.31368979401759
 31
0.0
  0
CIRCLE
  5
15CF
  8
外形線
 10
457.72932498060891
 20
310.40999051867931
 30
0.0
 40
0.3
  0
ARC
  5
15D0
  8
外形線
 10
457.72689643216268
 20
308.71368979401763
 30
0.0
 40
0.3
 50
359.99999999998909
 51
180.0000000000108
  0
ARC
  5
15D1
  8
外形線
 10
457.1268964321626
 20
308.71368979401763
 30
0.0
 40
0.3
 50
359.99999999998909
 51
180.0000000000108
  0
ARC
  5
15D2
  8
外形線
 10
456.52689643216257
 20
308.71368979401763
 30
0.0
 40
0.3
 50
359.99999999998909
 51
180.0000000000108
  0
ARC
  5
15D3
  8
外形線
 10
455.92689643216261
 20
308.71368979401763
 30
0.0
 40
0.3
 50
359.99999999998909
 51
180.0000000000108
  0
ARC
  5
15D4
  8
外形線
 10
455.32689643216258
 20
308.71368979401763
 30
0.0
 40
0.3
 50
359.99999999998909
 51
180.0000000000108
  0
ARC
  5
15D7
  8
外形線
 10
454.7268964321625
 20
308.71368979401763
 30
0.0
 40
0.3
 50
359.99999999998909
 51
180.0000000000108
  0
ARC
  5
15D8
  8
外形線
 10
454.7268964321625
 20
303.77080686528819
 30
0.0
 40
0.3
 50
179.99999999998909
 51
0.0000000000108713
  0
LINE
  5
15D9
  8
外形線
 10
454.42689643216249
 20
303.77080686528819
 30
0.0
 11
454.42689643216249
 21
305.24224832965291
 31
0.0
  0
LINE
  5
15DA
  8
外形線
 10
454.42689643216249
 20
308.71368979401763
 30
0.0
 11
454.42689643216249
 21
307.24224832965291
 31
0.0
  0
LINE
  5
15DB
  8
外形線
 10
454.02689643216269
 20
308.24224832965291
 30
0.0
 11
454.42689643216249
 21
308.24224832965291
 31
0.0
  0
LINE
  5
15DC
  8
外形線
 10
454.02689643216257
 20
304.24224832965291
 30
0.0
 11
454.42689643216261
 21
304.24224832965291
 31
0.0
  0
CIRCLE
  5
15E5
  8
隠れ線
 10
393.20302875981611
 20
306.24224832965291
 30
0.0
 40
2.149999999999999
  0
ARC
  5
15E6
  8
外形線
 10
393.20302875981611
 20
306.24224832965291
 30
0.0
 40
2.75
 50
86.687388975912526
 51
204.61997732865919
  0
ARC
  5
15EB
  8
隠れ線
 10
393.20302875981611
 20
306.24224832965291
 30
0.0
 40
2.75
 50
204.61997732865919
 51
86.687388975912526
  0
ARC
  5
15EC
  8
隠れ線
 10
407.20302875981611
 20
312.24224832965291
 30
0.0
 40
2.0
 50
111.12718772135371
 51
14.869066698650281
  0
LINE
  5
15F4
  8
隠れ線
 10
393.8711853144236
 20
303.574652629676
 30
0.0
 11
410.74266849673091
 21
306.81623995688147
 31
0.0
  0
LINE
  5
15F7
  8
隠れ線
 10
416.24434523191042
 20
308.48427398610039
 30
0.0
 11
416.35755503281251
 21
307.89505115814831
 31
0.0
  0
LINE
  5
15F8
  8
隠れ線
 10
393.60789535830889
 20
304.13503994127501
 30
0.0
 11
410.58556048022979
 21
307.3970284404528
 31
0.0
  0
LINE
  5
1610
  8
隠れ線
 10
392.69069209082772
 20
308.94410160798049
 30
0.0
 11
409.75612989016088
 21
310.46322293110791
 31
0.0
  0
LINE
  5
1612
  8
隠れ線
 10
392.95759705541451
 20
308.37819385294563
 30
0.0
 11
409.94718964194851
 21
309.75692349468579
 31
0.0
  0
LINE
  5
1613
  8
外形線
 10
412.14332268392349
 20
310.67572468571058
 30
0.0
 11
412.20302875981611
 21
309.93998805276499
 31
0.0
  0
LINE
  5
1615
  8
外形線
 10
409.94718964194851
 20
309.75692349468579
 30
0.0
 11
412.20302875981611
 21
309.93998805276499
 31
0.0
  0
LINE
  5
1616
  8
外形線
 10
409.75612989016088
 20
310.46322293110791
 30
0.0
 11
412.1433226839236
 21
310.67572468571058
 31
0.0
  0
LINE
  5
1619
  8
隠れ線
 10
414.96345144008052
 20
308.23817060335529
 30
0.0
 11
416.24434523191042
 21
308.48427398610028
 31
0.0
  0
LINE
  5
161A
  8
隠れ線
 10
414.82568927621929
 20
307.60072750148493
 30
0.0
 11
416.3575550328124
 21
307.89505115814831
 31
0.0
  0
LINE
  5
161B
  8
外形線
 10
410.58556048022979
 20
307.3970284404528
 30
0.0
 11
414.96345144008041
 21
308.23817060335529
 31
0.0
  0
LINE
  5
161C
  8
外形線
 10
410.7426684967308
 20
306.81623995688147
 30
0.0
 11
414.82568927621929
 21
307.60072750148493
 31
0.0
  0
LINE
  5
161D
  8
外形線
 10
411.20302875981622
 20
306.90469086416931
 30
0.0
 11
411.20302875981611
 21
305.90437267412062
 31
0.0
  0
LINE
  5
1620
  8
外形線
 10
458.0244678837164
 20
310.24224832965291
 30
0.0
 11
459.2768964321628
 21
310.24224832965291
 31
0.0
  0
LINE
  5
1621
  8
外形線
 10
473.32689643216258
 20
313.29224832965292
 30
0.0
 11
473.32689643216258
 21
311.19224832965301
 31
0.0
  0
LINE
  5
1622
  8
外形線
 10
472.02689643216269
 20
315.24224832965291
 30
0.0
 11
472.0268964321628
 21
301.2422483296528
 31
0.0
  0
LINE
  5
1623
  8
外形線
 10
470.02689643216269
 20
317.24224832965291
 30
0.0
 11
470.02689643216291
 21
301.2422483296528
 31
0.0
  0
LINE
  5
1624
  8
中心線
 10
474.50022732658238
 20
306.24224832965291
 30
0.0
 11
459.15065789699548
 21
306.24224832965291
 31
0.0
  0
LINE
  5
1625
  8
外形線
 10
472.02689643216291
 20
301.2422483296528
 30
0.0
 11
470.02689643216291
 21
301.2422483296528
 31
0.0
  0
LINE
  5
1626
  8
隠れ線
 10
470.02689643216269
 20
310.74224832965291
 30
0.0
 11
472.02689643216257
 21
310.74224832965291
 31
0.0
  0
ARC
  5
1627
  8
外形線
 10
472.62689643216282
 20
307.29224832965292
 30
0.0
 40
0.7
 50
0.000000000000007
 51
90.000000000000171
  0
LINE
  5
1628
  8
外形線
 10
472.02689643216269
 20
307.99224832965291
 30
0.0
 11
472.62689643216282
 21
307.99224832965291
 31
0.0
  0
ARC
  5
1629
  8
外形線
 10
472.62689643216282
 20
305.19224832965301
 30
0.0
 40
0.7
 50
270.00000000000023
 51
0.000000000000007
  0
LINE
  5
162A
  8
外形線
 10
472.02689643216269
 20
304.49224832965302
 30
0.0
 11
472.62689643216282
 21
304.49224832965302
 31
0.0
  0
LINE
  5
162B
  8
外形線
 10
473.3268964321627
 20
307.29224832965292
 30
0.0
 11
473.3268964321627
 21
305.19224832965301
 31
0.0
  0
ARC
  5
162C
  8
外形線
 10
472.62689643216282
 20
311.19224832965301
 30
0.0
 40
0.7
 50
270.00000000000023
 51
0.000000000000007
  0
LINE
  5
162D
  8
外形線
 10
472.02689643216269
 20
310.49224832965302
 30
0.0
 11
472.62689643216282
 21
310.49224832965302
 31
0.0
  0
LINE
  5
162E
  8
外形線
 10
469.62689643216282
 20
303.77080686528819
 30
0.0
 11
469.62689643216282
 21
305.24224832965291
 31
0.0
  0
LINE
  5
162F
  8
外形線
 10
466.02932498060898
 20
299.27080686528819
 30
0.0
 11
466.02932498060898
 21
304.17080686528823
 31
0.0
  0
LINE
  5
1630
  8
外形線
 10
469.02689643216291
 20
303.77080686528819
 30
0.0
 11
469.02689643216291
 21
305.24224832965291
 31
0.0
  0
LINE
  5
1631
  8
外形線
 10
468.42689643216278
 20
303.77080686528819
 30
0.0
 11
468.42689643216278
 21
305.24224832965291
 31
0.0
  0
LINE
  5
1632
  8
外形線
 10
466.62689643216271
 20
303.77080686528808
 30
0.0
 11
466.62689643216271
 21
305.24224832965291
 31
0.0
  0
LINE
  5
1633
  8
外形線
 10
467.8268964321627
 20
303.77080686528808
 30
0.0
 11
467.8268964321627
 21
305.24224832965291
 31
0.0
  0
LINE
  5
1634
  8
外形線
 10
467.22689643216268
 20
303.77080686528808
 30
0.0
 11
467.22689643216268
 21
305.24224832965291
 31
0.0
  0
LINE
  5
1635
  8
外形線
 10
466.62446788371642
 20
305.24224832965291
 30
0.0
 11
466.62446788371642
 21
303.73271183647489
 31
0.0
  0
ARC
  5
1636
  8
外形線
 10
466.32689643216281
 20
303.77080686528819
 30
0.0
 40
0.3
 50
179.99999999998909
 51
0.0000000000108463
  0
ARC
  5
1637
  8
外形線
 10
469.32689643216293
 20
303.77080686528819
 30
0.0
 40
0.3
 50
179.99999999998909
 51
0.0000000000108463
  0
ARC
  5
1638
  8
外形線
 10
468.7268964321629
 20
303.77080686528819
 30
0.0
 40
0.3
 50
179.99999999998909
 51
0.0000000000108463
  0
ARC
  5
1639
  8
外形線
 10
468.12689643216282
 20
303.77080686528819
 30
0.0
 40
0.3
 50
179.99999999998909
 51
0.0000000000108463
  0
ARC
  5
163A
  8
外形線
 10
467.5268964321628
 20
303.77080686528819
 30
0.0
 40
0.3
 50
179.99999999998909
 51
0.0000000000108463
  0
ARC
  5
163B
  8
外形線
 10
466.92689643216278
 20
303.77080686528819
 30
0.0
 40
0.3
 50
179.99999999998909
 51
0.0000000000108463
  0
CIRCLE
  5
163C
  8
外形線
 10
466.32446788371652
 20
310.40999051867931
 30
0.0
 40
0.3
  0
ARC
  5
163D
  8
外形線
 10
466.32689643216281
 20
308.71368979401763
 30
0.0
 40
0.3
 50
359.99999999998909
 51
180.00000000001091
  0
LINE
  5
163E
  8
外形線
 10
470.02689643216291
 20
305.24224832965291
 30
0.0
 11
466.02689643216291
 21
305.24224832965291
 31
0.0
  0
LINE
  5
163F
  8
外形線
 10
470.0268964321628
 20
307.24224832965291
 30
0.0
 11
466.02689643216291
 21
307.24224832965291
 31
0.0
  0
CIRCLE
  5
1640
  8
外形線
 10
469.33222978367871
 20
308.19994512178801
 30
0.0
 40
0.3
  0
LINE
  5
1641
  8
外形線
 10
470.0268964321628
 20
310.24224832965291
 30
0.0
 11
466.62446788371642
 21
310.24224832965291
 31
0.0
  0
LINE
  5
1642
  8
外形線
 10
466.62446788371642
 20
307.24224832965291
 30
0.0
 11
466.62446788371642
 21
310.40999051867931
 31
0.0
  0
LINE
  5
1643
  8
外形線
 10
470.02689643216291
 20
304.24224832965291
 30
0.0
 11
469.62689643216282
 21
304.24224832965291
 31
0.0
  0
LINE
  5
1644
  8
外形線
 10
470.0268964321628
 20
308.24224832965291
 30
0.0
 11
469.62689643216288
 21
308.24224832965291
 31
0.0
  0
LINE
  5
1645
  8
外形線
 10
469.62689643216288
 20
308.71368979401763
 30
0.0
 11
469.62689643216288
 21
307.24224832965291
 31
0.0
  0
ARC
  5
1646
  8
外形線
 10
469.32689643216293
 20
308.71368979401763
 30
0.0
 40
0.3
 50
359.99999999998909
 51
180.00000000001091
  0
ARC
  5
1647
  8
外形線
 10
468.7268964321629
 20
308.71368979401763
 30
0.0
 40
0.3
 50
359.99999999998909
 51
180.00000000001091
  0
ARC
  5
1648
  8
外形線
 10
468.12689643216282
 20
308.71368979401763
 30
0.0
 40
0.3
 50
359.99999999998909
 51
180.00000000001091
  0
ARC
  5
1649
  8
外形線
 10
467.5268964321628
 20
308.71368979401763
 30
0.0
 40
0.3
 50
359.99999999998909
 51
180.00000000001091
  0
ARC
  5
164A
  8
外形線
 10
466.92689643216278
 20
308.71368979401763
 30
0.0
 40
0.3
 50
359.99999999998909
 51
180.00000000001091
  0
LINE
  5
164B
  8
外形線
 10
469.02689643216291
 20
308.71368979401763
 30
0.0
 11
469.02689643216291
 21
307.24224832965291
 31
0.0
  0
LINE
  5
164C
  8
外形線
 10
468.42689643216278
 20
308.71368979401763
 30
0.0
 11
468.42689643216278
 21
307.24224832965291
 31
0.0
  0
LINE
  5
164D
  8
外形線
 10
467.8268964321627
 20
308.71368979401768
 30
0.0
 11
467.8268964321627
 21
307.24224832965291
 31
0.0
  0
LINE
  5
164E
  8
外形線
 10
467.22689643216268
 20
308.71368979401768
 30
0.0
 11
467.22689643216268
 21
307.24224832965291
 31
0.0
  0
LINE
  5
164F
  8
外形線
 10
466.62689643216271
 20
308.71368979401768
 30
0.0
 11
466.62689643216271
 21
307.24224832965291
 31
0.0
  0
LINE
  5
1650
  8
外形線
 10
466.02932498060898
 20
310.24224832965291
 30
0.0
 11
464.77689643216257
 21
310.24224832965291
 31
0.0
  0
LINE
  5
1651
  8
外形線
 10
466.02932498060909
 20
310.46375543982072
 30
0.0
 11
466.02932498060898
 21
308.31368979401759
 31
0.0
  0
LINE
  5
1652
  8
隠れ線
 10
470.02689643216269
 20
313.74224832965291
 30
0.0
 11
472.02689643216257
 21
313.74224832965291
 31
0.0
  0
ARC
  5
1653
  8
外形線
 10
470.02689643216269
 20
315.24224832965291
 30
0.0
 40
2.0
 50
0.000000000000007
 51
89.999999999998394
  0
ARC
  5
1654
  8
外形線
 10
472.62689643216282
 20
313.29224832965292
 30
0.0
 40
0.7
 50
0.000000000000007
 51
90.000000000000171
  0
LINE
  5
1655
  8
外形線
 10
472.02689643216269
 20
313.99224832965291
 30
0.0
 11
472.62689643216282
 21
313.99224832965291
 31
0.0
  0
LINE
  5
1656
  8
外形線
 10
470.0268964321628
 20
314.24224832965291
 30
0.0
 11
464.77689643216257
 21
314.24224832965291
 31
0.0
  0
LINE
  5
1658
  8
中心線
 10
448.79050945718132
 20
291.74224832965291
 30
0.0
 11
472.9808902712827
 21
291.74224832965291
 31
0.0
  0
ARC
  5
1659
  8
想像線
 10
462.02689643216269
 20
291.74224832965291
 30
0.0
 40
25.0
 50
231.36357538344231
 51
130.40980257561739
  0
LINE
  5
166C
  8
隠れ線
 10
452.02689643216257
 20
307.4922483296528
 30
0.0
 11
454.02689643216257
 21
307.4922483296528
 31
0.0
  0
LINE
  5
166D
  8
隠れ線
 10
452.02689643216257
 20
304.99224832965291
 30
0.0
 11
454.02689643216257
 21
304.99224832965291
 31
0.0
  0
LINE
  5
166E
  8
隠れ線
 10
472.02689643216269
 20
307.4922483296528
 30
0.0
 11
470.02689643216291
 21
307.4922483296528
 31
0.0
  0
LINE
  5
166F
  8
隠れ線
 10
472.02689643216269
 20
304.99224832965291
 30
0.0
 11
470.02689643216291
 21
304.99224832965291
 31
0.0
  0
LINE
  5
1688
  8
外形線
 10
413.68802875981601
 20
355.58955644987361
 30
0.0
 11
413.68802875981612
 21
357.9895564498737
 31
0.0
  0
LINE
  5
1689
  8
外形線
 10
416.3575550328124
 20
344.5895564498735
 30
0.0
 11
416.35755503281229
 21
345.18955644987341
 31
0.0
  0
LINE
  5
168A
  8
0
  6
BYBLOCK
 62
     2
 10
418.70302875981611
 20
361.58955644987361
 30
0.0
 11
433.44667880664758
 21
361.58955644987361
 31
0.0
  0
LINE
  5
168B
  8
0
  6
BYBLOCK
 62
     2
 10
418.70302875981611
 20
341.58955644987361
 30
0.0
 11
433.44667880664758
 21
341.58955644987361
 31
0.0
  0
LINE
  5
168C
  8
0
  6
BYBLOCK
 62
     2
 10
432.19667880664758
 20
359.0895564498735
 30
0.0
 11
432.19667880664758
 21
341.5895564498735
 31
0.0
  0
INSERT
  5
168D
  8
0
  6
BYBLOCK
 62
     2
  2
_OPEN
 10
432.19667880664758
 20
361.58955644987361
 30
0.0
 41
2.5
 42
2.5
 43
2.5
 50
90.0
  0
INSERT
  5
168E
  8
0
  6
BYBLOCK
 62
     2
  2
_OPEN
 10
432.19667880664758
 20
341.58955644987361
 30
0.0
 41
2.5
 42
2.5
 43
2.5
 50
270.0
  0
INSERT
  5
168F
  8
寸法線
  2
*U18
 10
0.0
 20
0.0
 30
0.0
  0
POINT
  5
1690
  8
DEFPOINTS
  6
BYBLOCK
 62
     0
 10
418.70302875981611
 20
361.58955644987361
 30
0.0
  0
POINT
  5
1691
  8
DEFPOINTS
  6
BYBLOCK
 62
     0
 10
418.70302875981611
 20
341.58955644987361
 30
0.0
  0
POINT
  5
1692
  8
DEFPOINTS
  6
BYBLOCK
 62
     0
 10
432.19667880664758
 20
341.58955644987361
 30
0.0
  0
LINE
  5
1693
  8
外形線
 10
416.35755503281229
 20
357.9895564498737
 30
0.0
 11
416.3575550328124
 21
358.58955644987361
 31
0.0
  0
LINE
  5
1694
  8
外形線
 10
411.71802875981598
 20
358.58955644987361
 30
0.0
 11
411.71802875981598
 21
361.58955644987361
 31
0.0
  0
LINE
  5
1695
  8
外形線
 10
413.68802875981618
 20
358.58955644987361
 30
0.0
 11
413.68802875981601
 21
361.58955644987361
 31
0.0
  0
LINE
  5
1696
  8
外形線
 10
413.68802875981601
 20
345.18955644987352
 30
0.0
 11
413.68802875981601
 21
347.58955644987361
 31
0.0
  0
LINE
  5
1697
  8
外形線
 10
411.71802875981598
 20
345.18955644987352
 30
0.0
 11
411.71802875981609
 21
347.5895564498735
 31
0.0
  0
LINE
  5
16A0
  8
外形線
 10
390.75302875981617
 20
344.5895564498735
 30
0.0
 11
405.70302875981611
 21
344.5895564498735
 31
0.0
  0
LINE
  5
16A1
  8
外形線
 10
408.70302875981599
 20
344.5895564498735
 30
0.0
 11
416.3575550328124
 21
344.5895564498735
 31
0.0
  0
LINE
  5
16A2
  8
外形線
 10
391.20302875981628
 20
343.58955644987361
 30
0.0
 11
391.20302875981622
 21
344.5895564498735
 31
0.0
  0
LINE
  5
16A3
  8
外形線
 10
395.20302875981622
 20
343.58955644987361
 30
0.0
 11
395.20302875981622
 21
344.5895564498735
 31
0.0
  0
LINE
  5
16A4
  8
外形線
 10
390.75302875981617
 20
358.58955644987361
 30
0.0
 11
405.70302875981611
 21
358.58955644987361
 31
0.0
  0
LINE
  5
16A5
  8
外形線
 10
408.7030287598181
 20
358.58955644987361
 30
0.0
 11
416.3575550328124
 21
358.58955644987361
 31
0.0
  0
LINE
  5
16A6
  8
外形線
 10
391.20302875981611
 20
358.58955644987361
 30
0.0
 11
391.20302875981622
 21
359.5895564498735
 31
0.0
  0
LINE
  5
16A7
  8
外形線
 10
395.20302875981622
 20
358.58955644987361
 30
0.0
 11
395.20302875981611
 21
359.5895564498735
 31
0.0
  0
LINE
  5
16A8
  8
外形線
 10
413.68802875981601
 20
343.58955644987361
 30
0.0
 11
418.70302875981611
 21
343.58955644987361
 31
0.0
  0
LINE
  5
16B2
  8
0
  6
BYBLOCK
 62
     2
 10
479.56588278476431
 20
310.55752148846949
 30
0.0
 11
451.39999834288687
 21
281.94794765085248
 31
0.0
  0
INSERT
  5
16B3
  8
寸法線
  2
*U19
 10
0.0
 20
0.0
 30
0.0
  0
POINT
  5
16B6
  8
DEFPOINTS
  6
BYBLOCK
 62
     0
 10
479.56588278476431
 20
310.5575214884696
 30
0.0
  0
INSERT
  5
16B7
  8
0
  6
BYBLOCK
 62
     2
  2
_OPEN
 10
479.56588278476431
 20
310.55752148846949
 30
0.0
 41
2.5
 42
2.5
 43
2.5
 50
45.447746492440793
  0
POINT
  5
171B
  8
DEFPOINTS
  6
BYBLOCK
 62
     0
 10
417.70302875981611
 20
318.4422483296529
 30
0.0
  0
LINE
  5
1738
  8
0
  6
BYBLOCK
 62
     2
 10
420.70302875981639
 20
219.67526103154529
 30
0.0
 11
420.70302875981639
 21
201.5206898258071
 31
0.0
  0
LINE
  5
1739
  8
0
  6
BYBLOCK
 62
     2
 10
241.84212583719881
 20
288.74224832965302
 30
0.0
 11
241.84212583719881
 21
201.5206898258071
 31
0.0
  0
LINE
  5
173A
  8
0
  6
BYBLOCK
 62
     2
 10
418.20302875981639
 20
202.77068982580721
 30
0.0
 11
244.34212583719881
 21
202.77068982580721
 31
0.0
  0
INSERT
  5
173B
  8
0
  6
BYBLOCK
 62
     2
  2
_OPEN
 10
420.70302875981639
 20
202.77068982580721
 30
0.0
 41
2.5
 42
2.5
 43
2.5
  0
INSERT
  5
173C
  8
0
  6
BYBLOCK
 62
     2
  2
_OPEN
 10
241.84212583719881
 20
202.77068982580721
 30
0.0
 41
2.5
 42
2.5
 43
2.5
 50
180.0
  0
INSERT
  5
173D
  8
寸法線
  2
*U20
 10
0.0
 20
0.0
 30
0.0
  0
POINT
  5
173E
  8
DEFPOINTS
  6
BYBLOCK
 62
     0
 10
420.7030287598165
 20
219.6752610315452
 30
0.0
  0
POINT
  5
173F
  8
DEFPOINTS
  6
BYBLOCK
 62
     0
 10
241.84212583719881
 20
288.74224832965302
 30
0.0
  0
POINT
  5
1740
  8
DEFPOINTS
  6
BYBLOCK
 62
     0
 10
241.84212583719881
 20
202.77068982580721
 30
0.0
  0
DIMENSION
  5
1759
  8
寸法線
  2
*D6
 10
417.70302875981611
 20
326.68661395526442
 30
0.0
 11
419.20302875981611
 21
328.56161395526442
 31
0.0
 12
0.0
 22
44.801424973725318
 32
0.0
 70
     0
 13
420.70302875981599
 23
308.7422483296528
 33
0.0
 14
417.70302875981611
 24
322.05426641831559
 34
0.0
1001
ACAD
1000
DSTYLE
1002
{
1070
   271
1070
     2
1002
}
  0
DIMENSION
  5
1771
  8
寸法線
  2
*D7
 10
267.34212583719881
 20
326.68661395526442
 30
0.0
 11
302.34212583719881
 21
328.56161395526442
 31
0.0
 70
     0
 13
337.34212583719869
 23
303.8490496336488
 33
0.0
 14
267.34212583719881
 24
303.8490496336488
 34
0.0
1001
ACAD
1000
DSTYLE
1002
{
1070
   287
1070
     4
1070
    75
1070
     1
1070
   271
1070
     2
1070
   279
1070
     1
1002
}
  0
LINE
  5
1772
  8
0
  6
BYBLOCK
 62
     2
 10
337.34212583719869
 20
303.8490496336488
 30
0.0
 11
337.34212583719869
 21
327.93661395526442
 31
0.0
  0
LINE
  5
1773
  8
0
  6
BYBLOCK
 62
     2
 10
415.20302875981611
 20
326.68661395526442
 30
0.0
 11
339.84212583719881
 21
326.68661395526442
 31
0.0
  0
INSERT
  5
1774
  8
0
  6
BYBLOCK
 62
     2
  2
_OPEN
 10
417.70302875981611
 20
326.68661395526442
 30
0.0
 41
2.5
 42
2.5
 43
2.5
  0
INSERT
  5
1775
  8
0
  6
BYBLOCK
 62
     2
  2
_OPEN
 10
337.34212583719869
 20
326.68661395526442
 30
0.0
 41
2.5
 42
2.5
 43
2.5
 50
180.0
  0
INSERT
  5
1776
  8
寸法線
  2
*U23
 10
0.0
 20
0.0
 30
0.0
  0
POINT
  5
1777
  8
DEFPOINTS
  6
BYBLOCK
 62
     0
 10
417.70302875981611
 20
322.05426641831559
 30
0.0
  0
POINT
  5
1778
  8
DEFPOINTS
  6
BYBLOCK
 62
     0
 10
337.34212583719869
 20
303.8490496336488
 30
0.0
  0
POINT
  5
1779
  8
DEFPOINTS
  6
BYBLOCK
 62
     0
 10
337.34212583719869
 20
326.68661395526442
 30
0.0
  0
LINE
  5
1794
  8
0
  6
BYBLOCK
 62
     2
 10
420.70302875981599
 20
327.93661395526442
 30
0.0
 11
420.70302875981599
 21
335.19062981729792
 31
0.0
  0
LINE
  5
1795
  8
0
  6
BYBLOCK
 62
     2
 10
244.34212583719881
 20
301.44224832965301
 30
0.0
 11
244.34212583719881
 21
335.19062981729792
 31
0.0
  0
LINE
  5
1796
  8
0
  6
BYBLOCK
 62
     2
 10
418.20302875981611
 20
333.94062981729792
 30
0.0
 11
246.84212583719881
 21
333.94062981729792
 31
0.0
  0
INSERT
  5
1797
  8
0
  6
BYBLOCK
 62
     2
  2
_OPEN
 10
420.70302875981599
 20
333.94062981729792
 30
0.0
 41
2.5
 42
2.5
 43
2.5
  0
INSERT
  5
1798
  8
0
  6
BYBLOCK
 62
     2
  2
_OPEN
 10
244.34212583719881
 20
333.94062981729792
 30
0.0
 41
2.5
 42
2.5
 43
2.5
 50
180.0
  0
INSERT
  5
1799
  8
寸法線
  2
*U24
 10
0.0
 20
0.0
 30
0.0
  0
POINT
  5
179A
  8
DEFPOINTS
  6
BYBLOCK
 62
     0
 10
420.70302875981599
 20
327.93661395526442
 30
0.0
  0
POINT
  5
179B
  8
DEFPOINTS
  6
BYBLOCK
 62
     0
 10
244.34212583719881
 20
301.44224832965301
 30
0.0
  0
POINT
  5
179C
  8
DEFPOINTS
  6
BYBLOCK
 62
     0
 10
244.34212583719881
 20
333.94062981729792
 30
0.0
  0
TEXT
  5
179D
  8
寸法線
 62
     6
 10
373.21189551912988
 20
293.33937377569822
 30
0.0
 40
2.5
  1
φ10
 50
90.0
  7
STYLE3
  0
LINE
  5
17A8
  8
外形線
 10
414.70302875981611
 20
221.74224832965291
 30
0.0
 11
420.70302875981628
 21
221.74224832965291
 31
0.0
  0
LINE
  5
17AA
  8
外形線
 10
420.70302875981628
 20
221.74224832965291
 30
0.0
 11
420.7030287598165
 21
219.6752610315452
 31
0.0
  0
LINE
  5
17AB
  8
外形線
 10
414.70302875981611
 20
271.74224832965291
 30
0.0
 11
414.70302875981622
 21
221.74224832965291
 31
0.0
  0
LINE
  5
17AC
  8
外形線
 10
420.70302875981622
 20
271.74224832965291
 30
0.0
 11
420.70302875981622
 21
221.74224832965291
 31
0.0
  0
LINE
  5
17AD
  8
外形線
 10
416.04302875981608
 20
268.74224832965291
 30
0.0
 11
419.36302875981619
 21
268.74224832965291
 31
0.0
  0
LINE
  5
17AE
  8
外形線
 10
416.04302875981608
 20
266.74224832965291
 30
0.0
 11
419.36302875981619
 21
266.74224832965291
 31
0.0
  0
LINE
  5
17AF
  8
外形線
 10
416.04302875981608
 20
268.74224832965291
 30
0.0
 11
416.04302875981608
 21
266.74224832965291
 31
0.0
  0
LINE
  5
17B0
  8
外形線
 10
419.36302875981607
 20
268.74224832965291
 30
0.0
 11
419.36302875981607
 21
266.74224832965291
 31
0.0
  0
LINE
  5
17B1
  8
外形線
 10
414.70302875981611
 20
261.7422483296528
 30
0.0
 11
420.70302875981628
 21
261.7422483296528
 31
0.0
  0
LINE
  5
17B2
  8
外形線
 10
414.70302875981611
 20
251.7422483296528
 30
0.0
 11
420.70302875981628
 21
251.7422483296528
 31
0.0
  0
LINE
  5
17B3
  8
寸法線
 10
417.22768204273802
 20
251.7422483296528
 30
0.0
 11
417.22768204273802
 21
261.7422483296528
 31
0.0
  0
LINE
  5
17B5
  8
寸法線
 10
416.23314389821178
 20
251.7422483296528
 30
0.0
 11
416.23314389821178
 21
261.7422483296528
 31
0.0
  0
LINE
  5
17B7
  8
寸法線
 10
415.2662323256759
 20
251.7422483296528
 30
0.0
 11
415.2662323256759
 21
261.7422483296528
 31
0.0
  0
LINE
  5
17B9
  8
寸法線
 10
418.24984595720571
 20
251.7422483296528
 30
0.0
 11
418.24984595720571
 21
261.7422483296528
 31
0.0
  0
LINE
  5
17BB
  8
寸法線
 10
419.2167575297417
 20
251.7422483296528
 30
0.0
 11
419.2167575297417
 21
261.7422483296528
 31
0.0
  0
LINE
  5
17BD
  8
寸法線
 10
420.10079099040462
 20
251.7422483296528
 30
0.0
 11
420.10079099040462
 21
261.7422483296528
 31
0.0
  0
LINE
  5
1B82
  8
外形線
 10
416.90302875981598
 20
316.84224832965282
 30
0.0
 11
416.65302875981621
 21
316.84224832965282
 31
0.0
  0
DIMENSION
  5
1B85
  8
寸法線
  2
*D9
 10
387.9467594018422
 20
296.74224832965302
 30
0.0
 11
386.0717594018422
 21
307.09224832965299
 31
0.0
 70
     0
 13
417.70302875981611
 23
317.44224832965278
 33
0.0
 14
387.46570645760522
 24
296.74224832965302
 34
0.0
 50
90.0
1001
ACAD
1000
DSTYLE
1002
{
1070
   271
1070
     2
1070
   341
1005
0
1002
}
  0
DIMENSION
  5
1B92
  8
寸法線
  2
*D10
 10
431.42993833592539
 20
317.44224832965278
 30
0.0
 11
429.55493833592539
 21
325.50772452012922
 31
0.0
 70
     0
 13
419.95302875981611
 23
315.7422483296528
 33
0.0
 14
417.70302875981611
 24
317.44224832965278
 34
0.0
 50
90.0
1001
ACAD
1000
DSTYLE
1002
{
1070
   271
1070
     2
1070
   341
1005
0
1002
}
  0
DIMENSION
  5
1BA1
  8
寸法線
  2
*D11
 10
431.42993833592539
 20
315.7422483296528
 30
0.0
 11
429.55493833592539
 21
306.24224832965291
 31
0.0
 70
     0
 13
422.86067529474929
 23
296.74224832965291
 33
0.0
 14
427.93592346525088
 24
315.7422483296528
 34
0.0
 50
90.0
1001
ACAD
1000
DSTYLE
1002
{
1070
   271
1070
     2
1070
   341
1005
0
1002
}
  0
DIMENSION
  5
1BAE
  8
寸法線
  2
*D12
 10
431.42993833592539
 20
296.74224832965291
 30
0.0
 11
429.55493833592539
 21
284.24224832965302
 31
0.0
 70
     0
 13
420.70302875981639
 23
271.74224832965291
 33
0.0
 14
427.77369667128761
 24
296.74224832965291
 34
0.0
 50
90.0
1001
ACAD
1000
DSTYLE
1002
{
1070
   271
1070
     2
1070
   341
1005
0
1002
}
  0
DIMENSION
  5
1BBB
  8
寸法線
  2
*D13
 10
431.42993833592539
 20
271.74224832965291
 30
0.0
 11
429.55493833592539
 21
246.74224832965291
 31
0.0
 70
     0
 13
420.70302875981628
 23
221.74224832965291
 33
0.0
 14
427.27906447532371
 24
271.74224832965291
 34
0.0
 50
90.0
1001
ACAD
1000
DSTYLE
1002
{
1070
   271
1070
     2
1070
   341
1005
0
1002
}
  0
DIMENSION
  5
1BC8
  8
寸法線
  2
*D14
 10
439.36597539939532
 20
317.44224832965278
 30
0.0
 11
437.49097539939532
 21
267.09224832965288
 31
0.0
 70
     0
  1
50.7～150.7フリー時
 13
417.70302875981622
 23
216.74224832965291
 33
0.0
 14
432.67993833592539
 24
317.44224832965278
 34
0.0
 50
90.0
1001
ACAD
1000
DSTYLE
1002
{
1070
   271
1070
     2
1070
   341
1005
0
1002
}
  0
ARC
  5
1BE2
  8
想像線
 10
462.02689643216269
 20
241.74224832965291
 30
0.0
 40
75.0
 50
69.950507132442183
 51
103.01694866217041
  0
LINE
  5
1BF1
  8
寸法線
 62
     2
 10
488.62579228656472
 20
327.65958067124888
 30
0.0
 11
484.94665976931128
 21
315.77558169084278
 31
0.0
  0
INSERT
  5
1BF3
  8
寸法線
  2
*U31
 10
0.0
 20
0.0
 30
0.0
  0
INSERT
  5
1BF6
  8
寸法線
 62
     2
  2
_OPEN
 10
484.20731256488699
 20
313.38740964693352
 30
0.0
 41
2.5
 42
2.5
 43
2.5
 50
252.79815076249221
  0
POLYLINE
  8
寸法線
  5
2217
  66
     1
 10
0.000000
 20
0.000000
 30
0.000000
  70
     8
  0
VERTEX
  8
寸法線
  5
2218
 10
370.646
 20
356.590
 30
0.000000
  70
    32
  0
VERTEX
  8
寸法線
  5
2219
 10
370.582
 20
356.527
 30
0.000000
  70
    32
  0
VERTEX
  8
寸法線
  5
221A
 10
370.524
 20
356.465
 30
0.000000
  70
    32
  0
VERTEX
  8
寸法線
  5
221B
 10
370.472
 20
356.404
 30
0.000000
  70
    32
  0
VERTEX
  8
寸法線
  5
221C
 10
370.425
 20
356.344
 30
0.000000
  70
    32
  0
VERTEX
  8
寸法線
  5
221D
 10
370.384
 20
356.284
 30
0.000000
  70
    32
  0
VERTEX
  8
寸法線
  5
221E
 10
370.347
 20
356.225
 30
0.000000
  70
    32
  0
VERTEX
  8
寸法線
  5
221F
 10
370.316
 20
356.167
 30
0.000000
  70
    32
  0
VERTEX
  8
寸法線
  5
2220
 10
370.289
 20
356.110
 30
0.000000
  70
    32
  0
VERTEX
  8
寸法線
  5
2221
 10
370.266
 20
356.053
 30
0.000000
  70
    32
  0
VERTEX
  8
寸法線
  5
2222
 10
370.248
 20
355.998
 30
0.000000
  70
    32
  0
VERTEX
  8
寸法線
  5
2223
 10
370.233
 20
355.942
 30
0.000000
  70
    32
  0
VERTEX
  8
寸法線
  5
2224
 10
370.223
 20
355.888
 30
0.000000
  70
    32
  0
VERTEX
  8
寸法線
  5
2225
 10
370.215
 20
355.834
 30
0.000000
  70
    32
  0
VERTEX
  8
寸法線
  5
2226
 10
370.212
 20
355.781
 30
0.000000
  70
    32
  0
VERTEX
  8
寸法線
  5
2227
 10
370.211
 20
355.728
 30
0.000000
  70
    32
  0
VERTEX
  8
寸法線
  5
2228
 10
370.214
 20
355.676
 30
0.000000
  70
    32
  0
VERTEX
  8
寸法線
  5
2229
 10
370.219
 20
355.624
 30
0.000000
  70
    32
  0
VERTEX
  8
寸法線
  5
222A
 10
370.227
 20
355.573
 30
0.000000
  70
    32
  0
VERTEX
  8
寸法線
  5
222B
 10
370.237
 20
355.523
 30
0.000000
  70
    32
  0
VERTEX
  8
寸法線
  5
222C
 10
370.249
 20
355.473
 30
0.000000
  70
    32
  0
VERTEX
  8
寸法線
  5
222D
 10
370.263
 20
355.424
 30
0.000000
  70
    32
  0
VERTEX
  8
寸法線
  5
222E
 10
370.279
 20
355.375
 30
0.000000
  70
    32
  0
VERTEX
  8
寸法線
  5
222F
 10
370.296
 20
355.327
 30
0.000000
  70
    32
  0
VERTEX
  8
寸法線
  5
2230
 10
370.315
 20
355.279
 30
0.000000
  70
    32
  0
VERTEX
  8
寸法線
  5
2231
 10
370.335
 20
355.231
 30
0.000000
  70
    32
  0
VERTEX
  8
寸法線
  5
2232
 10
370.355
 20
355.184
 30
0.000000
  70
    32
  0
VERTEX
  8
寸法線
  5
2233
 10
370.376
 20
355.137
 30
0.000000
  70
    32
  0
VERTEX
  8
寸法線
  5
2234
 10
370.398
 20
355.091
 30
0.000000
  70
    32
  0
VERTEX
  8
寸法線
  5
2235
 10
370.420
 20
355.045
 30
0.000000
  70
    32
  0
VERTEX
  8
寸法線
  5
2236
 10
370.442
 20
355.000
 30
0.000000
  70
    32
  0
VERTEX
  8
寸法線
  5
2237
 10
370.464
 20
354.955
 30
0.000000
  70
    32
  0
VERTEX
  8
寸法線
  5
2238
 10
370.485
 20
354.910
 30
0.000000
  70
    32
  0
VERTEX
  8
寸法線
  5
2239
 10
370.506
 20
354.865
 30
0.000000
  70
    32
  0
VERTEX
  8
寸法線
  5
223A
 10
370.526
 20
354.821
 30
0.000000
  70
    32
  0
VERTEX
  8
寸法線
  5
223B
 10
370.545
 20
354.777
 30
0.000000
  70
    32
  0
VERTEX
  8
寸法線
  5
223C
 10
370.563
 20
354.733
 30
0.000000
  70
    32
  0
VERTEX
  8
寸法線
  5
223D
 10
370.579
 20
354.690
 30
0.000000
  70
    32
  0
VERTEX
  8
寸法線
  5
223E
 10
370.594
 20
354.646
 30
0.000000
  70
    32
  0
VERTEX
  8
寸法線
  5
223F
 10
370.607
 20
354.603
 30
0.000000
  70
    32
  0
VERTEX
  8
寸法線
  5
2240
 10
370.618
 20
354.560
 30
0.000000
  70
    32
  0
VERTEX
  8
寸法線
  5
2241
 10
370.627
 20
354.518
 30
0.000000
  70
    32
  0
VERTEX
  8
寸法線
  5
2242
 10
370.634
 20
354.475
 30
0.000000
  70
    32
  0
VERTEX
  8
寸法線
  5
2243
 10
370.640
 20
354.433
 30
0.000000
  70
    32
  0
VERTEX
  8
寸法線
  5
2244
 10
370.644
 20
354.391
 30
0.000000
  70
    32
  0
VERTEX
  8
寸法線
  5
2245
 10
370.646
 20
354.349
 30
0.000000
  70
    32
  0
VERTEX
  8
寸法線
  5
2246
 10
370.646
 20
354.307
 30
0.000000
  70
    32
  0
VERTEX
  8
寸法線
  5
2247
 10
370.645
 20
354.265
 30
0.000000
  70
    32
  0
VERTEX
  8
寸法線
  5
2248
 10
370.643
 20
354.224
 30
0.000000
  70
    32
  0
VERTEX
  8
寸法線
  5
2249
 10
370.638
 20
354.182
 30
0.000000
  70
    32
  0
VERTEX
  8
寸法線
  5
224A
 10
370.633
 20
354.141
 30
0.000000
  70
    32
  0
VERTEX
  8
寸法線
  5
224B
 10
370.626
 20
354.100
 30
0.000000
  70
    32
  0
VERTEX
  8
寸法線
  5
224C
 10
370.617
 20
354.059
 30
0.000000
  70
    32
  0
VERTEX
  8
寸法線
  5
224D
 10
370.607
 20
354.018
 30
0.000000
  70
    32
  0
VERTEX
  8
寸法線
  5
224E
 10
370.596
 20
353.977
 30
0.000000
  70
    32
  0
VERTEX
  8
寸法線
  5
224F
 10
370.584
 20
353.936
 30
0.000000
  70
    32
  0
VERTEX
  8
寸法線
  5
2250
 10
370.570
 20
353.896
 30
0.000000
  70
    32
  0
VERTEX
  8
寸法線
  5
2251
 10
370.555
 20
353.855
 30
0.000000
  70
    32
  0
VERTEX
  8
寸法線
  5
2252
 10
370.539
 20
353.815
 30
0.000000
  70
    32
  0
VERTEX
  8
寸法線
  5
2253
 10
370.521
 20
353.775
 30
0.000000
  70
    32
  0
VERTEX
  8
寸法線
  5
2254
 10
370.503
 20
353.734
 30
0.000000
  70
    32
  0
VERTEX
  8
寸法線
  5
2255
 10
370.484
 20
353.694
 30
0.000000
  70
    32
  0
VERTEX
  8
寸法線
  5
2256
 10
370.463
 20
353.654
 30
0.000000
  70
    32
  0
VERTEX
  8
寸法線
  5
2257
 10
370.442
 20
353.614
 30
0.000000
  70
    32
  0
VERTEX
  8
寸法線
  5
2258
 10
370.420
 20
353.574
 30
0.000000
  70
    32
  0
VERTEX
  8
寸法線
  5
2259
 10
370.396
 20
353.534
 30
0.000000
  70
    32
  0
VERTEX
  8
寸法線
  5
225A
 10
370.372
 20
353.494
 30
0.000000
  70
    32
  0
VERTEX
  8
寸法線
  5
225B
 10
370.347
 20
353.454
 30
0.000000
  70
    32
  0
VERTEX
  8
寸法線
  5
225C
 10
370.322
 20
353.414
 30
0.000000
  70
    32
  0
VERTEX
  8
寸法線
  5
225D
 10
370.295
 20
353.374
 30
0.000000
  70
    32
  0
VERTEX
  8
寸法線
  5
225E
 10
370.268
 20
353.335
 30
0.000000
  70
    32
  0
VERTEX
  8
寸法線
  5
225F
 10
370.241
 20
353.295
 30
0.000000
  70
    32
  0
VERTEX
  8
寸法線
  5
2260
 10
370.212
 20
353.255
 30
0.000000
  70
    32
  0
VERTEX
  8
寸法線
  5
2261
 10
370.183
 20
353.215
 30
0.000000
  70
    32
  0
VERTEX
  8
寸法線
  5
2262
 10
370.154
 20
353.175
 30
0.000000
  70
    32
  0
VERTEX
  8
寸法線
  5
2263
 10
370.124
 20
353.135
 30
0.000000
  70
    32
  0
VERTEX
  8
寸法線
  5
2264
 10
370.094
 20
353.095
 30
0.000000
  70
    32
  0
VERTEX
  8
寸法線
  5
2265
 10
370.063
 20
353.055
 30
0.000000
  70
    32
  0
VERTEX
  8
寸法線
  5
2266
 10
370.032
 20
353.015
 30
0.000000
  70
    32
  0
VERTEX
  8
寸法線
  5
2267
 10
370.000
 20
352.975
 30
0.000000
  70
    32
  0
VERTEX
  8
寸法線
  5
2268
 10
369.968
 20
352.935
 30
0.000000
  70
    32
  0
VERTEX
  8
寸法線
  5
2269
 10
369.936
 20
352.895
 30
0.000000
  70
    32
  0
VERTEX
  8
寸法線
  5
226A
 10
369.904
 20
352.855
 30
0.000000
  70
    32
  0
VERTEX
  8
寸法線
  5
226B
 10
369.872
 20
352.815
 30
0.000000
  70
    32
  0
VERTEX
  8
寸法線
  5
226C
 10
369.839
 20
352.775
 30
0.000000
  70
    32
  0
VERTEX
  8
寸法線
  5
226D
 10
369.806
 20
352.734
 30
0.000000
  70
    32
  0
VERTEX
  8
寸法線
  5
226E
 10
369.774
 20
352.694
 30
0.000000
  70
    32
  0
VERTEX
  8
寸法線
  5
226F
 10
369.741
 20
352.653
 30
0.000000
  70
    32
  0
VERTEX
  8
寸法線
  5
2270
 10
369.708
 20
352.613
 30
0.000000
  70
    32
  0
VERTEX
  8
寸法線
  5
2271
 10
369.676
 20
352.572
 30
0.000000
  70
    32
  0
VERTEX
  8
寸法線
  5
2272
 10
369.643
 20
352.531
 30
0.000000
  70
    32
  0
VERTEX
  8
寸法線
  5
2273
 10
369.611
 20
352.490
 30
0.000000
  70
    32
  0
VERTEX
  8
寸法線
  5
2274
 10
369.578
 20
352.449
 30
0.000000
  70
    32
  0
VERTEX
  8
寸法線
  5
2275
 10
369.546
 20
352.408
 30
0.000000
  70
    32
  0
VERTEX
  8
寸法線
  5
2276
 10
369.515
 20
352.366
 30
0.000000
  70
    32
  0
VERTEX
  8
寸法線
  5
2277
 10
369.483
 20
352.325
 30
0.000000
  70
    32
  0
VERTEX
  8
寸法線
  5
2278
 10
369.452
 20
352.283
 30
0.000000
  70
    32
  0
VERTEX
  8
寸法線
  5
2279
 10
369.421
 20
352.241
 30
0.000000
  70
    32
  0
VERTEX
  8
寸法線
  5
227A
 10
369.391
 20
352.199
 30
0.000000
  70
    32
  0
VERTEX
  8
寸法線
  5
227B
 10
369.361
 20
352.157
 30
0.000000
  70
    32
  0
VERTEX
  8
寸法線
  5
227C
 10
369.332
 20
352.115
 30
0.000000
  70
    32
  0
VERTEX
  8
寸法線
  5
227D
 10
369.303
 20
352.072
 30
0.000000
  70
    32
  0
VERTEX
  8
寸法線
  5
227E
 10
369.275
 20
352.030
 30
0.000000
  70
    32
  0
VERTEX
  8
寸法線
  5
227F
 10
369.247
 20
351.987
 30
0.000000
  70
    32
  0
VERTEX
  8
寸法線
  5
2280
 10
369.220
 20
351.944
 30
0.000000
  70
    32
  0
VERTEX
  8
寸法線
  5
2281
 10
369.194
 20
351.901
 30
0.000000
  70
    32
  0
VERTEX
  8
寸法線
  5
2282
 10
369.169
 20
351.857
 30
0.000000
  70
    32
  0
VERTEX
  8
寸法線
  5
2283
 10
369.144
 20
351.813
 30
0.000000
  70
    32
  0
VERTEX
  8
寸法線
  5
2284
 10
369.120
 20
351.770
 30
0.000000
  70
    32
  0
VERTEX
  8
寸法線
  5
2285
 10
369.097
 20
351.726
 30
0.000000
  70
    32
  0
VERTEX
  8
寸法線
  5
2286
 10
369.075
 20
351.681
 30
0.000000
  70
    32
  0
VERTEX
  8
寸法線
  5
2287
 10
369.054
 20
351.637
 30
0.000000
  70
    32
  0
VERTEX
  8
寸法線
  5
2288
 10
369.034
 20
351.592
 30
0.000000
  70
    32
  0
VERTEX
  8
寸法線
  5
2289
 10
369.014
 20
351.547
 30
0.000000
  70
    32
  0
VERTEX
  8
寸法線
  5
228A
 10
368.996
 20
351.501
 30
0.000000
  70
    32
  0
VERTEX
  8
寸法線
  5
228B
 10
368.979
 20
351.456
 30
0.000000
  70
    32
  0
VERTEX
  8
寸法線
  5
228C
 10
368.963
 20
351.410
 30
0.000000
  70
    32
  0
VERTEX
  8
寸法線
  5
228D
 10
368.948
 20
351.364
 30
0.000000
  70
    32
  0
VERTEX
  8
寸法線
  5
228E
 10
368.935
 20
351.318
 30
0.000000
  70
    32
  0
VERTEX
  8
寸法線
  5
228F
 10
368.922
 20
351.271
 30
0.000000
  70
    32
  0
VERTEX
  8
寸法線
  5
2290
 10
368.910
 20
351.224
 30
0.000000
  70
    32
  0
VERTEX
  8
寸法線
  5
2291
 10
368.899
 20
351.177
 30
0.000000
  70
    32
  0
VERTEX
  8
寸法線
  5
2292
 10
368.888
 20
351.130
 30
0.000000
  70
    32
  0
VERTEX
  8
寸法線
  5
2293
 10
368.879
 20
351.083
 30
0.000000
  70
    32
  0
VERTEX
  8
寸法線
  5
2294
 10
368.871
 20
351.035
 30
0.000000
  70
    32
  0
VERTEX
  8
寸法線
  5
2295
 10
368.863
 20
350.988
 30
0.000000
  70
    32
  0
VERTEX
  8
寸法線
  5
2296
 10
368.856
 20
350.940
 30
0.000000
  70
    32
  0
VERTEX
  8
寸法線
  5
2297
 10
368.850
 20
350.892
 30
0.000000
  70
    32
  0
VERTEX
  8
寸法線
  5
2298
 10
368.844
 20
350.844
 30
0.000000
  70
    32
  0
VERTEX
  8
寸法線
  5
2299
 10
368.840
 20
350.796
 30
0.000000
  70
    32
  0
VERTEX
  8
寸法線
  5
229A
 10
368.835
 20
350.747
 30
0.000000
  70
    32
  0
VERTEX
  8
寸法線
  5
229B
 10
368.832
 20
350.699
 30
0.000000
  70
    32
  0
VERTEX
  8
寸法線
  5
229C
 10
368.829
 20
350.650
 30
0.000000
  70
    32
  0
VERTEX
  8
寸法線
  5
229D
 10
368.827
 20
350.601
 30
0.000000
  70
    32
  0
VERTEX
  8
寸法線
  5
229E
 10
368.825
 20
350.552
 30
0.000000
  70
    32
  0
VERTEX
  8
寸法線
  5
229F
 10
368.823
 20
350.504
 30
0.000000
  70
    32
  0
VERTEX
  8
寸法線
  5
22A0
 10
368.823
 20
350.455
 30
0.000000
  70
    32
  0
VERTEX
  8
寸法線
  5
22A1
 10
368.822
 20
350.406
 30
0.000000
  70
    32
  0
VERTEX
  8
寸法線
  5
22A2
 10
368.822
 20
350.357
 30
0.000000
  70
    32
  0
VERTEX
  8
寸法線
  5
22A3
 10
368.822
 20
350.308
 30
0.000000
  70
    32
  0
VERTEX
  8
寸法線
  5
22A4
 10
368.823
 20
350.258
 30
0.000000
  70
    32
  0
VERTEX
  8
寸法線
  5
22A5
 10
368.824
 20
350.209
 30
0.000000
  70
    32
  0
VERTEX
  8
寸法線
  5
22A6
 10
368.826
 20
350.160
 30
0.000000
  70
    32
  0
VERTEX
  8
寸法線
  5
22A7
 10
368.827
 20
350.111
 30
0.000000
  70
    32
  0
VERTEX
  8
寸法線
  5
22A8
 10
368.829
 20
350.062
 30
0.000000
  70
    32
  0
VERTEX
  8
寸法線
  5
22A9
 10
368.831
 20
350.013
 30
0.000000
  70
    32
  0
VERTEX
  8
寸法線
  5
22AA
 10
368.833
 20
349.964
 30
0.000000
  70
    32
  0
VERTEX
  8
寸法線
  5
22AB
 10
368.835
 20
349.914
 30
0.000000
  70
    32
  0
VERTEX
  8
寸法線
  5
22AC
 10
368.838
 20
349.865
 30
0.000000
  70
    32
  0
VERTEX
  8
寸法線
  5
22AD
 10
368.840
 20
349.816
 30
0.000000
  70
    32
  0
VERTEX
  8
寸法線
  5
22AE
 10
368.843
 20
349.767
 30
0.000000
  70
    32
  0
VERTEX
  8
寸法線
  5
22AF
 10
368.846
 20
349.719
 30
0.000000
  70
    32
  0
VERTEX
  8
寸法線
  5
22B0
 10
368.848
 20
349.670
 30
0.000000
  70
    32
  0
VERTEX
  8
寸法線
  5
22B1
 10
368.851
 20
349.621
 30
0.000000
  70
    32
  0
VERTEX
  8
寸法線
  5
22B2
 10
368.853
 20
349.572
 30
0.000000
  70
    32
  0
VERTEX
  8
寸法線
  5
22B3
 10
368.856
 20
349.524
 30
0.000000
  70
    32
  0
VERTEX
  8
寸法線
  5
22B4
 10
368.858
 20
349.476
 30
0.000000
  70
    32
  0
VERTEX
  8
寸法線
  5
22B5
 10
368.860
 20
349.427
 30
0.000000
  70
    32
  0
VERTEX
  8
寸法線
  5
22B6
 10
368.862
 20
349.379
 30
0.000000
  70
    32
  0
VERTEX
  8
寸法線
  5
22B7
 10
368.863
 20
349.331
 30
0.000000
  70
    32
  0
VERTEX
  8
寸法線
  5
22B8
 10
368.865
 20
349.283
 30
0.000000
  70
    32
  0
VERTEX
  8
寸法線
  5
22B9
 10
368.866
 20
349.236
 30
0.000000
  70
    32
  0
VERTEX
  8
寸法線
  5
22BA
 10
368.867
 20
349.188
 30
0.000000
  70
    32
  0
VERTEX
  8
寸法線
  5
22BB
 10
368.867
 20
349.141
 30
0.000000
  70
    32
  0
VERTEX
  8
寸法線
  5
22BC
 10
368.867
 20
349.094
 30
0.000000
  70
    32
  0
VERTEX
  8
寸法線
  5
22BD
 10
368.867
 20
349.047
 30
0.000000
  70
    32
  0
VERTEX
  8
寸法線
  5
22BE
 10
368.866
 20
349.000
 30
0.000000
  70
    32
  0
VERTEX
  8
寸法線
  5
22BF
 10
368.865
 20
348.954
 30
0.000000
  70
    32
  0
VERTEX
  8
寸法線
  5
22C0
 10
368.864
 20
348.907
 30
0.000000
  70
    32
  0
VERTEX
  8
寸法線
  5
22C1
 10
368.861
 20
348.861
 30
0.000000
  70
    32
  0
VERTEX
  8
寸法線
  5
22C2
 10
368.859
 20
348.816
 30
0.000000
  70
    32
  0
VERTEX
  8
寸法線
  5
22C3
 10
368.855
 20
348.770
 30
0.000000
  70
    32
  0
VERTEX
  8
寸法線
  5
22C4
 10
368.851
 20
348.725
 30
0.000000
  70
    32
  0
VERTEX
  8
寸法線
  5
22C5
 10
368.847
 20
348.680
 30
0.000000
  70
    32
  0
VERTEX
  8
寸法線
  5
22C6
 10
368.842
 20
348.635
 30
0.000000
  70
    32
  0
VERTEX
  8
寸法線
  5
22C7
 10
368.836
 20
348.591
 30
0.000000
  70
    32
  0
VERTEX
  8
寸法線
  5
22C8
 10
368.829
 20
348.546
 30
0.000000
  70
    32
  0
VERTEX
  8
寸法線
  5
22C9
 10
368.822
 20
348.503
 30
0.000000
  70
    32
  0
VERTEX
  8
寸法線
  5
22CA
 10
368.814
 20
348.459
 30
0.000000
  70
    32
  0
VERTEX
  8
寸法線
  5
22CB
 10
368.805
 20
348.416
 30
0.000000
  70
    32
  0
VERTEX
  8
寸法線
  5
22CC
 10
368.795
 20
348.373
 30
0.000000
  70
    32
  0
VERTEX
  8
寸法線
  5
22CD
 10
368.784
 20
348.330
 30
0.000000
  70
    32
  0
VERTEX
  8
寸法線
  5
22CE
 10
368.772
 20
348.288
 30
0.000000
  70
    32
  0
VERTEX
  8
寸法線
  5
22CF
 10
368.760
 20
348.247
 30
0.000000
  70
    32
  0
VERTEX
  8
寸法線
  5
22D0
 10
368.746
 20
348.205
 30
0.000000
  70
    32
  0
VERTEX
  8
寸法線
  5
22D1
 10
368.732
 20
348.164
 30
0.000000
  70
    32
  0
VERTEX
  8
寸法線
  5
22D2
 10
368.716
 20
348.123
 30
0.000000
  70
    32
  0
VERTEX
  8
寸法線
  5
22D3
 10
368.699
 20
348.083
 30
0.000000
  70
    32
  0
VERTEX
  8
寸法線
  5
22D4
 10
368.682
 20
348.043
 30
0.000000
  70
    32
  0
VERTEX
  8
寸法線
  5
22D5
 10
368.663
 20
348.004
 30
0.000000
  70
    32
  0
VERTEX
  8
寸法線
  5
22D6
 10
368.643
 20
347.965
 30
0.000000
  70
    32
  0
VERTEX
  8
寸法線
  5
22D7
 10
368.622
 20
347.926
 30
0.000000
  70
    32
  0
VERTEX
  8
寸法線
  5
22D8
 10
368.599
 20
347.888
 30
0.000000
  70
    32
  0
VERTEX
  8
寸法線
  5
22D9
 10
368.575
 20
347.851
 30
0.000000
  70
    32
  0
VERTEX
  8
寸法線
  5
22DA
 10
368.551
 20
347.813
 30
0.000000
  70
    32
  0
VERTEX
  8
寸法線
  5
22DB
 10
368.524
 20
347.777
 30
0.000000
  70
    32
  0
VERTEX
  8
寸法線
  5
22DC
 10
368.497
 20
347.741
 30
0.000000
  70
    32
  0
VERTEX
  8
寸法線
  5
22DD
 10
368.468
 20
347.705
 30
0.000000
  70
    32
  0
VERTEX
  8
寸法線
  5
22DE
 10
368.438
 20
347.670
 30
0.000000
  70
    32
  0
VERTEX
  8
寸法線
  5
22DF
 10
368.406
 20
347.635
 30
0.000000
  70
    32
  0
VERTEX
  8
寸法線
  5
22E0
 10
368.373
 20
347.601
 30
0.000000
  70
    32
  0
VERTEX
  8
寸法線
  5
22E1
 10
368.338
 20
347.567
 30
0.000000
  70
    32
  0
VERTEX
  8
寸法線
  5
22E2
 10
368.302
 20
347.534
 30
0.000000
  70
    32
  0
VERTEX
  8
寸法線
  5
22E3
 10
368.264
 20
347.501
 30
0.000000
  70
    32
  0
VERTEX
  8
寸法線
  5
22E4
 10
368.225
 20
347.469
 30
0.000000
  70
    32
  0
VERTEX
  8
寸法線
  5
22E5
 10
368.184
 20
347.438
 30
0.000000
  70
    32
  0
VERTEX
  8
寸法線
  5
22E6
 10
368.142
 20
347.407
 30
0.000000
  70
    32
  0
VERTEX
  8
寸法線
  5
22E7
 10
368.098
 20
347.376
 30
0.000000
  70
    32
  0
VERTEX
  8
寸法線
  5
22E8
 10
368.052
 20
347.346
 30
0.000000
  70
    32
  0
VERTEX
  8
寸法線
  5
22E9
 10
368.005
 20
347.316
 30
0.000000
  70
    32
  0
VERTEX
  8
寸法線
  5
22EA
 10
367.957
 20
347.284
 30
0.000000
  70
    32
  0
VERTEX
  8
寸法線
  5
22EB
 10
367.908
 20
347.252
 30
0.000000
  70
    32
  0
VERTEX
  8
寸法線
  5
22EC
 10
367.858
 20
347.217
 30
0.000000
  70
    32
  0
VERTEX
  8
寸法線
  5
22ED
 10
367.807
 20
347.181
 30
0.000000
  70
    32
  0
VERTEX
  8
寸法線
  5
22EE
 10
367.755
 20
347.141
 30
0.000000
  70
    32
  0
VERTEX
  8
寸法線
  5
22EF
 10
367.703
 20
347.099
 30
0.000000
  70
    32
  0
VERTEX
  8
寸法線
  5
22F0
 10
367.651
 20
347.053
 30
0.000000
  70
    32
  0
VERTEX
  8
寸法線
  5
22F1
 10
367.598
 20
347.003
 30
0.000000
  70
    32
  0
VERTEX
  8
寸法線
  5
22F2
 10
367.546
 20
346.948
 30
0.000000
  70
    32
  0
VERTEX
  8
寸法線
  5
22F3
 10
367.494
 20
346.888
 30
0.000000
  70
    32
  0
VERTEX
  8
寸法線
  5
22F4
 10
367.442
 20
346.823
 30
0.000000
  70
    32
  0
VERTEX
  8
寸法線
  5
22F5
 10
367.390
 20
346.752
 30
0.000000
  70
    32
  0
VERTEX
  8
寸法線
  5
22F6
 10
367.339
 20
346.674
 30
0.000000
  70
    32
  0
VERTEX
  8
寸法線
  5
22F7
 10
367.289
 20
346.590
 30
0.000000
  70
    32
  0
SEQEND
  8
寸法線
  5
22F8
  0
POLYLINE
  8
寸法線
  5
22F9
  66
     1
 10
0.000000
 20
0.000000
 30
0.000000
  70
     8
  0
VERTEX
  8
寸法線
  5
22FA
 10
364.067
 20
301.742
 30
0.000000
  70
    32
  0
VERTEX
  8
寸法線
  5
22FB
 10
364.003
 20
301.680
 30
0.000000
  70
    32
  0
VERTEX
  8
寸法線
  5
22FC
 10
363.945
 20
301.618
 30
0.000000
  70
    32
  0
VERTEX
  8
寸法線
  5
22FD
 10
363.893
 20
301.557
 30
0.000000
  70
    32
  0
VERTEX
  8
寸法線
  5
22FE
 10
363.846
 20
301.496
 30
0.000000
  70
    32
  0
VERTEX
  8
寸法線
  5
22FF
 10
363.805
 20
301.437
 30
0.000000
  70
    32
  0
VERTEX
  8
寸法線
  5
2300
 10
363.768
 20
301.378
 30
0.000000
  70
    32
  0
VERTEX
  8
寸法線
  5
2301
 10
363.737
 20
301.320
 30
0.000000
  70
    32
  0
VERTEX
  8
寸法線
  5
2302
 10
363.710
 20
301.263
 30
0.000000
  70
    32
  0
VERTEX
  8
寸法線
  5
2303
 10
363.687
 20
301.206
 30
0.000000
  70
    32
  0
VERTEX
  8
寸法線
  5
2304
 10
363.669
 20
301.150
 30
0.000000
  70
    32
  0
VERTEX
  8
寸法線
  5
2305
 10
363.654
 20
301.095
 30
0.000000
  70
    32
  0
VERTEX
  8
寸法線
  5
2306
 10
363.644
 20
301.040
 30
0.000000
  70
    32
  0
VERTEX
  8
寸法線
  5
2307
 10
363.637
 20
300.987
 30
0.000000
  70
    32
  0
VERTEX
  8
寸法線
  5
2308
 10
363.633
 20
300.933
 30
0.000000
  70
    32
  0
VERTEX
  8
寸法線
  5
2309
 10
363.633
 20
300.881
 30
0.000000
  70
    32
  0
VERTEX
  8
寸法線
  5
230A
 10
363.635
 20
300.829
 30
0.000000
  70
    32
  0
VERTEX
  8
寸法線
  5
230B
 10
363.640
 20
300.777
 30
0.000000
  70
    32
  0
VERTEX
  8
寸法線
  5
230C
 10
363.648
 20
300.726
 30
0.000000
  70
    32
  0
VERTEX
  8
寸法線
  5
230D
 10
363.658
 20
300.676
 30
0.000000
  70
    32
  0
VERTEX
  8
寸法線
  5
230E
 10
363.670
 20
300.626
 30
0.000000
  70
    32
  0
VERTEX
  8
寸法線
  5
230F
 10
363.684
 20
300.577
 30
0.000000
  70
    32
  0
VERTEX
  8
寸法線
  5
2310
 10
363.700
 20
300.528
 30
0.000000
  70
    32
  0
VERTEX
  8
寸法線
  5
2311
 10
363.718
 20
300.479
 30
0.000000
  70
    32
  0
VERTEX
  8
寸法線
  5
2312
 10
363.736
 20
300.431
 30
0.000000
  70
    32
  0
VERTEX
  8
寸法線
  5
2313
 10
363.756
 20
300.384
 30
0.000000
  70
    32
  0
VERTEX
  8
寸法線
  5
2314
 10
363.776
 20
300.337
 30
0.000000
  70
    32
  0
VERTEX
  8
寸法線
  5
2315
 10
363.798
 20
300.290
 30
0.000000
  70
    32
  0
VERTEX
  8
寸法線
  5
2316
 10
363.819
 20
300.244
 30
0.000000
  70
    32
  0
VERTEX
  8
寸法線
  5
2317
 10
363.841
 20
300.198
 30
0.000000
  70
    32
  0
VERTEX
  8
寸法線
  5
2318
 10
363.863
 20
300.152
 30
0.000000
  70
    32
  0
VERTEX
  8
寸法線
  5
2319
 10
363.885
 20
300.107
 30
0.000000
  70
    32
  0
VERTEX
  8
寸法線
  5
231A
 10
363.906
 20
300.062
 30
0.000000
  70
    32
  0
VERTEX
  8
寸法線
  5
231B
 10
363.927
 20
300.018
 30
0.000000
  70
    32
  0
VERTEX
  8
寸法線
  5
231C
 10
363.947
 20
299.974
 30
0.000000
  70
    32
  0
VERTEX
  8
寸法線
  5
231D
 10
363.966
 20
299.930
 30
0.000000
  70
    32
  0
VERTEX
  8
寸法線
  5
231E
 10
363.984
 20
299.886
 30
0.000000
  70
    32
  0
VERTEX
  8
寸法線
  5
231F
 10
364.000
 20
299.842
 30
0.000000
  70
    32
  0
VERTEX
  8
寸法線
  5
2320
 10
364.015
 20
299.799
 30
0.000000
  70
    32
  0
VERTEX
  8
寸法線
  5
2321
 10
364.028
 20
299.756
 30
0.000000
  70
    32
  0
VERTEX
  8
寸法線
  5
2322
 10
364.039
 20
299.713
 30
0.000000
  70
    32
  0
VERTEX
  8
寸法線
  5
2323
 10
364.048
 20
299.670
 30
0.000000
  70
    32
  0
VERTEX
  8
寸法線
  5
2324
 10
364.055
 20
299.628
 30
0.000000
  70
    32
  0
VERTEX
  8
寸法線
  5
2325
 10
364.061
 20
299.585
 30
0.000000
  70
    32
  0
VERTEX
  8
寸法線
  5
2326
 10
364.065
 20
299.543
 30
0.000000
  70
    32
  0
VERTEX
  8
寸法線
  5
2327
 10
364.067
 20
299.501
 30
0.000000
  70
    32
  0
VERTEX
  8
寸法線
  5
2328
 10
364.068
 20
299.459
 30
0.000000
  70
    32
  0
VERTEX
  8
寸法線
  5
2329
 10
364.066
 20
299.418
 30
0.000000
  70
    32
  0
VERTEX
  8
寸法線
  5
232A
 10
364.064
 20
299.376
 30
0.000000
  70
    32
  0
VERTEX
  8
寸法線
  5
232B
 10
364.060
 20
299.335
 30
0.000000
  70
    32
  0
VERTEX
  8
寸法線
  5
232C
 10
364.054
 20
299.294
 30
0.000000
  70
    32
  0
VERTEX
  8
寸法線
  5
232D
 10
364.047
 20
299.252
 30
0.000000
  70
    32
  0
VERTEX
  8
寸法線
  5
232E
 10
364.038
 20
299.211
 30
0.000000
  70
    32
  0
VERTEX
  8
寸法線
  5
232F
 10
364.028
 20
299.171
 30
0.000000
  70
    32
  0
VERTEX
  8
寸法線
  5
2330
 10
364.017
 20
299.130
 30
0.000000
  70
    32
  0
VERTEX
  8
寸法線
  5
2331
 10
364.005
 20
299.089
 30
0.000000
  70
    32
  0
VERTEX
  8
寸法線
  5
2332
 10
363.991
 20
299.048
 30
0.000000
  70
    32
  0
VERTEX
  8
寸法線
  5
2333
 10
363.976
 20
299.008
 30
0.000000
  70
    32
  0
VERTEX
  8
寸法線
  5
2334
 10
363.960
 20
298.968
 30
0.000000
  70
    32
  0
VERTEX
  8
寸法線
  5
2335
 10
363.943
 20
298.927
 30
0.000000
  70
    32
  0
VERTEX
  8
寸法線
  5
2336
 10
363.924
 20
298.887
 30
0.000000
  70
    32
  0
VERTEX
  8
寸法線
  5
2337
 10
363.905
 20
298.847
 30
0.000000
  70
    32
  0
VERTEX
  8
寸法線
  5
2338
 10
363.884
 20
298.807
 30
0.000000
  70
    32
  0
VERTEX
  8
寸法線
  5
2339
 10
363.863
 20
298.767
 30
0.000000
  70
    32
  0
VERTEX
  8
寸法線
  5
233A
 10
363.841
 20
298.727
 30
0.000000
  70
    32
  0
VERTEX
  8
寸法線
  5
233B
 10
363.818
 20
298.687
 30
0.000000
  70
    32
  0
VERTEX
  8
寸法線
  5
233C
 10
363.794
 20
298.647
 30
0.000000
  70
    32
  0
VERTEX
  8
寸法線
  5
233D
 10
363.769
 20
298.607
 30
0.000000
  70
    32
  0
VERTEX
  8
寸法線
  5
233E
 10
363.743
 20
298.567
 30
0.000000
  70
    32
  0
VERTEX
  8
寸法線
  5
233F
 10
363.717
 20
298.527
 30
0.000000
  70
    32
  0
VERTEX
  8
寸法線
  5
2340
 10
363.690
 20
298.487
 30
0.000000
  70
    32
  0
VERTEX
  8
寸法線
  5
2341
 10
363.662
 20
298.447
 30
0.000000
  70
    32
  0
VERTEX
  8
寸法線
  5
2342
 10
363.634
 20
298.408
 30
0.000000
  70
    32
  0
VERTEX
  8
寸法線
  5
2343
 10
363.605
 20
298.368
 30
0.000000
  70
    32
  0
VERTEX
  8
寸法線
  5
2344
 10
363.575
 20
298.328
 30
0.000000
  70
    32
  0
VERTEX
  8
寸法線
  5
2345
 10
363.545
 20
298.288
 30
0.000000
  70
    32
  0
VERTEX
  8
寸法線
  5
2346
 10
363.515
 20
298.248
 30
0.000000
  70
    32
  0
VERTEX
  8
寸法線
  5
2347
 10
363.484
 20
298.208
 30
0.000000
  70
    32
  0
VERTEX
  8
寸法線
  5
2348
 10
363.453
 20
298.168
 30
0.000000
  70
    32
  0
VERTEX
  8
寸法線
  5
2349
 10
363.421
 20
298.128
 30
0.000000
  70
    32
  0
VERTEX
  8
寸法線
  5
234A
 10
363.390
 20
298.088
 30
0.000000
  70
    32
  0
VERTEX
  8
寸法線
  5
234B
 10
363.358
 20
298.048
 30
0.000000
  70
    32
  0
VERTEX
  8
寸法線
  5
234C
 10
363.325
 20
298.008
 30
0.000000
  70
    32
  0
VERTEX
  8
寸法線
  5
234D
 10
363.293
 20
297.968
 30
0.000000
  70
    32
  0
VERTEX
  8
寸法線
  5
234E
 10
363.260
 20
297.927
 30
0.000000
  70
    32
  0
VERTEX
  8
寸法線
  5
234F
 10
363.228
 20
297.887
 30
0.000000
  70
    32
  0
VERTEX
  8
寸法線
  5
2350
 10
363.195
 20
297.846
 30
0.000000
  70
    32
  0
VERTEX
  8
寸法線
  5
2351
 10
363.162
 20
297.806
 30
0.000000
  70
    32
  0
VERTEX
  8
寸法線
  5
2352
 10
363.129
 20
297.765
 30
0.000000
  70
    32
  0
VERTEX
  8
寸法線
  5
2353
 10
363.097
 20
297.724
 30
0.000000
  70
    32
  0
VERTEX
  8
寸法線
  5
2354
 10
363.064
 20
297.684
 30
0.000000
  70
    32
  0
VERTEX
  8
寸法線
  5
2355
 10
363.032
 20
297.643
 30
0.000000
  70
    32
  0
VERTEX
  8
寸法線
  5
2356
 10
363.000
 20
297.601
 30
0.000000
  70
    32
  0
VERTEX
  8
寸法線
  5
2357
 10
362.968
 20
297.560
 30
0.000000
  70
    32
  0
VERTEX
  8
寸法線
  5
2358
 10
362.936
 20
297.519
 30
0.000000
  70
    32
  0
VERTEX
  8
寸法線
  5
2359
 10
362.904
 20
297.477
 30
0.000000
  70
    32
  0
VERTEX
  8
寸法線
  5
235A
 10
362.873
 20
297.436
 30
0.000000
  70
    32
  0
VERTEX
  8
寸法線
  5
235B
 10
362.843
 20
297.394
 30
0.000000
  70
    32
  0
VERTEX
  8
寸法線
  5
235C
 10
362.812
 20
297.352
 30
0.000000
  70
    32
  0
VERTEX
  8
寸法線
  5
235D
 10
362.782
 20
297.310
 30
0.000000
  70
    32
  0
VERTEX
  8
寸法線
  5
235E
 10
362.753
 20
297.268
 30
0.000000
  70
    32
  0
VERTEX
  8
寸法線
  5
235F
 10
362.724
 20
297.225
 30
0.000000
  70
    32
  0
VERTEX
  8
寸法線
  5
2360
 10
362.696
 20
297.182
 30
0.000000
  70
    32
  0
VERTEX
  8
寸法線
  5
2361
 10
362.669
 20
297.140
 30
0.000000
  70
    32
  0
VERTEX
  8
寸法線
  5
2362
 10
362.642
 20
297.097
 30
0.000000
  70
    32
  0
VERTEX
  8
寸法線
  5
2363
 10
362.615
 20
297.053
 30
0.000000
  70
    32
  0
VERTEX
  8
寸法線
  5
2364
 10
362.590
 20
297.010
 30
0.000000
  70
    32
  0
VERTEX
  8
寸法線
  5
2365
 10
362.565
 20
296.966
 30
0.000000
  70
    32
  0
VERTEX
  8
寸法線
  5
2366
 10
362.541
 20
296.922
 30
0.000000
  70
    32
  0
VERTEX
  8
寸法線
  5
2367
 10
362.518
 20
296.878
 30
0.000000
  70
    32
  0
VERTEX
  8
寸法線
  5
2368
 10
362.496
 20
296.834
 30
0.000000
  70
    32
  0
VERTEX
  8
寸法線
  5
2369
 10
362.475
 20
296.789
 30
0.000000
  70
    32
  0
VERTEX
  8
寸法線
  5
236A
 10
362.455
 20
296.744
 30
0.000000
  70
    32
  0
VERTEX
  8
寸法線
  5
236B
 10
362.436
 20
296.699
 30
0.000000
  70
    32
  0
VERTEX
  8
寸法線
  5
236C
 10
362.418
 20
296.654
 30
0.000000
  70
    32
  0
VERTEX
  8
寸法線
  5
236D
 10
362.401
 20
296.609
 30
0.000000
  70
    32
  0
VERTEX
  8
寸法線
  5
236E
 10
362.385
 20
296.563
 30
0.000000
  70
    32
  0
VERTEX
  8
寸法線
  5
236F
 10
362.370
 20
296.517
 30
0.000000
  70
    32
  0
VERTEX
  8
寸法線
  5
2370
 10
362.356
 20
296.470
 30
0.000000
  70
    32
  0
VERTEX
  8
寸法線
  5
2371
 10
362.343
 20
296.424
 30
0.000000
  70
    32
  0
VERTEX
  8
寸法線
  5
2372
 10
362.331
 20
296.377
 30
0.000000
  70
    32
  0
VERTEX
  8
寸法線
  5
2373
 10
362.320
 20
296.330
 30
0.000000
  70
    32
  0
VERTEX
  8
寸法線
  5
2374
 10
362.310
 20
296.283
 30
0.000000
  70
    32
  0
VERTEX
  8
寸法線
  5
2375
 10
362.300
 20
296.236
 30
0.000000
  70
    32
  0
VERTEX
  8
寸法線
  5
2376
 10
362.292
 20
296.188
 30
0.000000
  70
    32
  0
VERTEX
  8
寸法線
  5
2377
 10
362.284
 20
296.140
 30
0.000000
  70
    32
  0
VERTEX
  8
寸法線
  5
2378
 10
362.277
 20
296.093
 30
0.000000
  70
    32
  0
VERTEX
  8
寸法線
  5
2379
 10
362.271
 20
296.045
 30
0.000000
  70
    32
  0
VERTEX
  8
寸法線
  5
237A
 10
362.266
 20
295.996
 30
0.000000
  70
    32
  0
VERTEX
  8
寸法線
  5
237B
 10
362.261
 20
295.948
 30
0.000000
  70
    32
  0
VERTEX
  8
寸法線
  5
237C
 10
362.257
 20
295.900
 30
0.000000
  70
    32
  0
VERTEX
  8
寸法線
  5
237D
 10
362.253
 20
295.851
 30
0.000000
  70
    32
  0
VERTEX
  8
寸法線
  5
237E
 10
362.250
 20
295.803
 30
0.000000
  70
    32
  0
VERTEX
  8
寸法線
  5
237F
 10
362.248
 20
295.754
 30
0.000000
  70
    32
  0
VERTEX
  8
寸法線
  5
2380
 10
362.246
 20
295.705
 30
0.000000
  70
    32
  0
VERTEX
  8
寸法線
  5
2381
 10
362.245
 20
295.656
 30
0.000000
  70
    32
  0
VERTEX
  8
寸法線
  5
2382
 10
362.244
 20
295.607
 30
0.000000
  70
    32
  0
VERTEX
  8
寸法線
  5
2383
 10
362.243
 20
295.558
 30
0.000000
  70
    32
  0
VERTEX
  8
寸法線
  5
2384
 10
362.243
 20
295.509
 30
0.000000
  70
    32
  0
VERTEX
  8
寸法線
  5
2385
 10
362.244
 20
295.460
 30
0.000000
  70
    32
  0
VERTEX
  8
寸法線
  5
2386
 10
362.244
 20
295.411
 30
0.000000
  70
    32
  0
VERTEX
  8
寸法線
  5
2387
 10
362.245
 20
295.362
 30
0.000000
  70
    32
  0
VERTEX
  8
寸法線
  5
2388
 10
362.247
 20
295.313
 30
0.000000
  70
    32
  0
VERTEX
  8
寸法線
  5
2389
 10
362.248
 20
295.264
 30
0.000000
  70
    32
  0
VERTEX
  8
寸法線
  5
238A
 10
362.250
 20
295.214
 30
0.000000
  70
    32
  0
VERTEX
  8
寸法線
  5
238B
 10
362.252
 20
295.165
 30
0.000000
  70
    32
  0
VERTEX
  8
寸法線
  5
238C
 10
362.254
 20
295.116
 30
0.000000
  70
    32
  0
VERTEX
  8
寸法線
  5
238D
 10
362.257
 20
295.067
 30
0.000000
  70
    32
  0
VERTEX
  8
寸法線
  5
238E
 10
362.259
 20
295.018
 30
0.000000
  70
    32
  0
VERTEX
  8
寸法線
  5
238F
 10
362.262
 20
294.969
 30
0.000000
  70
    32
  0
VERTEX
  8
寸法線
  5
2390
 10
362.264
 20
294.920
 30
0.000000
  70
    32
  0
VERTEX
  8
寸法線
  5
2391
 10
362.267
 20
294.871
 30
0.000000
  70
    32
  0
VERTEX
  8
寸法線
  5
2392
 10
362.269
 20
294.822
 30
0.000000
  70
    32
  0
VERTEX
  8
寸法線
  5
2393
 10
362.272
 20
294.774
 30
0.000000
  70
    32
  0
VERTEX
  8
寸法線
  5
2394
 10
362.274
 20
294.725
 30
0.000000
  70
    32
  0
VERTEX
  8
寸法線
  5
2395
 10
362.277
 20
294.677
 30
0.000000
  70
    32
  0
VERTEX
  8
寸法線
  5
2396
 10
362.279
 20
294.628
 30
0.000000
  70
    32
  0
VERTEX
  8
寸法線
  5
2397
 10
362.281
 20
294.580
 30
0.000000
  70
    32
  0
VERTEX
  8
寸法線
  5
2398
 10
362.283
 20
294.532
 30
0.000000
  70
    32
  0
VERTEX
  8
寸法線
  5
2399
 10
362.285
 20
294.484
 30
0.000000
  70
    32
  0
VERTEX
  8
寸法線
  5
239A
 10
362.286
 20
294.436
 30
0.000000
  70
    32
  0
VERTEX
  8
寸法線
  5
239B
 10
362.287
 20
294.388
 30
0.000000
  70
    32
  0
VERTEX
  8
寸法線
  5
239C
 10
362.288
 20
294.341
 30
0.000000
  70
    32
  0
VERTEX
  8
寸法線
  5
239D
 10
362.289
 20
294.294
 30
0.000000
  70
    32
  0
VERTEX
  8
寸法線
  5
239E
 10
362.289
 20
294.247
 30
0.000000
  70
    32
  0
VERTEX
  8
寸法線
  5
239F
 10
362.288
 20
294.200
 30
0.000000
  70
    32
  0
VERTEX
  8
寸法線
  5
23A0
 10
362.288
 20
294.153
 30
0.000000
  70
    32
  0
VERTEX
  8
寸法線
  5
23A1
 10
362.286
 20
294.106
 30
0.000000
  70
    32
  0
VERTEX
  8
寸法線
  5
23A2
 10
362.285
 20
294.060
 30
0.000000
  70
    32
  0
VERTEX
  8
寸法線
  5
23A3
 10
362.283
 20
294.014
 30
0.000000
  70
    32
  0
VERTEX
  8
寸法線
  5
23A4
 10
362.280
 20
293.968
 30
0.000000
  70
    32
  0
VERTEX
  8
寸法線
  5
23A5
 10
362.277
 20
293.923
 30
0.000000
  70
    32
  0
VERTEX
  8
寸法線
  5
23A6
 10
362.273
 20
293.877
 30
0.000000
  70
    32
  0
VERTEX
  8
寸法線
  5
23A7
 10
362.268
 20
293.832
 30
0.000000
  70
    32
  0
VERTEX
  8
寸法線
  5
23A8
 10
362.263
 20
293.788
 30
0.000000
  70
    32
  0
VERTEX
  8
寸法線
  5
23A9
 10
362.257
 20
293.743
 30
0.000000
  70
    32
  0
VERTEX
  8
寸法線
  5
23AA
 10
362.250
 20
293.699
 30
0.000000
  70
    32
  0
VERTEX
  8
寸法線
  5
23AB
 10
362.243
 20
293.655
 30
0.000000
  70
    32
  0
VERTEX
  8
寸法線
  5
23AC
 10
362.235
 20
293.612
 30
0.000000
  70
    32
  0
VERTEX
  8
寸法線
  5
23AD
 10
362.226
 20
293.569
 30
0.000000
  70
    32
  0
VERTEX
  8
寸法線
  5
23AE
 10
362.216
 20
293.526
 30
0.000000
  70
    32
  0
VERTEX
  8
寸法線
  5
23AF
 10
362.205
 20
293.483
 30
0.000000
  70
    32
  0
VERTEX
  8
寸法線
  5
23B0
 10
362.193
 20
293.441
 30
0.000000
  70
    32
  0
VERTEX
  8
寸法線
  5
23B1
 10
362.181
 20
293.399
 30
0.000000
  70
    32
  0
VERTEX
  8
寸法線
  5
23B2
 10
362.167
 20
293.358
 30
0.000000
  70
    32
  0
VERTEX
  8
寸法線
  5
23B3
 10
362.153
 20
293.317
 30
0.000000
  70
    32
  0
VERTEX
  8
寸法線
  5
23B4
 10
362.137
 20
293.276
 30
0.000000
  70
    32
  0
VERTEX
  8
寸法線
  5
23B5
 10
362.121
 20
293.236
 30
0.000000
  70
    32
  0
VERTEX
  8
寸法線
  5
23B6
 10
362.103
 20
293.196
 30
0.000000
  70
    32
  0
VERTEX
  8
寸法線
  5
23B7
 10
362.084
 20
293.157
 30
0.000000
  70
    32
  0
VERTEX
  8
寸法線
  5
23B8
 10
362.064
 20
293.118
 30
0.000000
  70
    32
  0
VERTEX
  8
寸法線
  5
23B9
 10
362.043
 20
293.079
 30
0.000000
  70
    32
  0
VERTEX
  8
寸法線
  5
23BA
 10
362.020
 20
293.041
 30
0.000000
  70
    32
  0
VERTEX
  8
寸法線
  5
23BB
 10
361.997
 20
293.003
 30
0.000000
  70
    32
  0
VERTEX
  8
寸法線
  5
23BC
 10
361.972
 20
292.966
 30
0.000000
  70
    32
  0
VERTEX
  8
寸法線
  5
23BD
 10
361.946
 20
292.929
 30
0.000000
  70
    32
  0
VERTEX
  8
寸法線
  5
23BE
 10
361.918
 20
292.893
 30
0.000000
  70
    32
  0
VERTEX
  8
寸法線
  5
23BF
 10
361.889
 20
292.857
 30
0.000000
  70
    32
  0
VERTEX
  8
寸法線
  5
23C0
 10
361.859
 20
292.822
 30
0.000000
  70
    32
  0
VERTEX
  8
寸法線
  5
23C1
 10
361.827
 20
292.788
 30
0.000000
  70
    32
  0
VERTEX
  8
寸法線
  5
23C2
 10
361.794
 20
292.753
 30
0.000000
  70
    32
  0
VERTEX
  8
寸法線
  5
23C3
 10
361.759
 20
292.720
 30
0.000000
  70
    32
  0
VERTEX
  8
寸法線
  5
23C4
 10
361.723
 20
292.687
 30
0.000000
  70
    32
  0
VERTEX
  8
寸法線
  5
23C5
 10
361.686
 20
292.654
 30
0.000000
  70
    32
  0
VERTEX
  8
寸法線
  5
23C6
 10
361.646
 20
292.622
 30
0.000000
  70
    32
  0
VERTEX
  8
寸法線
  5
23C7
 10
361.606
 20
292.590
 30
0.000000
  70
    32
  0
VERTEX
  8
寸法線
  5
23C8
 10
361.563
 20
292.560
 30
0.000000
  70
    32
  0
VERTEX
  8
寸法線
  5
23C9
 10
361.519
 20
292.529
 30
0.000000
  70
    32
  0
VERTEX
  8
寸法線
  5
23CA
 10
361.473
 20
292.499
 30
0.000000
  70
    32
  0
VERTEX
  8
寸法線
  5
23CB
 10
361.426
 20
292.468
 30
0.000000
  70
    32
  0
VERTEX
  8
寸法線
  5
23CC
 10
361.378
 20
292.437
 30
0.000000
  70
    32
  0
VERTEX
  8
寸法線
  5
23CD
 10
361.329
 20
292.404
 30
0.000000
  70
    32
  0
VERTEX
  8
寸法線
  5
23CE
 10
361.279
 20
292.370
 30
0.000000
  70
    32
  0
VERTEX
  8
寸法線
  5
23CF
 10
361.228
 20
292.333
 30
0.000000
  70
    32
  0
VERTEX
  8
寸法線
  5
23D0
 10
361.176
 20
292.294
 30
0.000000
  70
    32
  0
VERTEX
  8
寸法線
  5
23D1
 10
361.124
 20
292.252
 30
0.000000
  70
    32
  0
VERTEX
  8
寸法線
  5
23D2
 10
361.072
 20
292.205
 30
0.000000
  70
    32
  0
VERTEX
  8
寸法線
  5
23D3
 10
361.020
 20
292.155
 30
0.000000
  70
    32
  0
VERTEX
  8
寸法線
  5
23D4
 10
360.967
 20
292.101
 30
0.000000
  70
    32
  0
VERTEX
  8
寸法線
  5
23D5
 10
360.915
 20
292.041
 30
0.000000
  70
    32
  0
VERTEX
  8
寸法線
  5
23D6
 10
360.863
 20
291.976
 30
0.000000
  70
    32
  0
VERTEX
  8
寸法線
  5
23D7
 10
360.811
 20
291.904
 30
0.000000
  70
    32
  0
VERTEX
  8
寸法線
  5
23D8
 10
360.761
 20
291.827
 30
0.000000
  70
    32
  0
VERTEX
  8
寸法線
  5
23D9
 10
360.710
 20
291.742
 30
0.000000
  70
    32
  0
SEQEND
  8
寸法線
  5
23DA
  0
POLYLINE
  8
寸法線
  5
23DB
  66
     1
 10
0.000000
 20
0.000000
 30
0.000000
  70
     8
  0
VERTEX
  8
寸法線
  5
23DC
 10
361.208
 20
301.742
 30
0.000000
  70
    32
  0
VERTEX
  8
寸法線
  5
23DD
 10
361.144
 20
301.680
 30
0.000000
  70
    32
  0
VERTEX
  8
寸法線
  5
23DE
 10
361.084
 20
301.618
 30
0.000000
  70
    32
  0
VERTEX
  8
寸法線
  5
23DF
 10
361.030
 20
301.558
 30
0.000000
  70
    32
  0
VERTEX
  8
寸法線
  5
23E0
 10
360.981
 20
301.499
 30
0.000000
  70
    32
  0
VERTEX
  8
寸法線
  5
23E1
 10
360.935
 20
301.441
 30
0.000000
  70
    32
  0
VERTEX
  8
寸法線
  5
23E2
 10
360.895
 20
301.384
 30
0.000000
  70
    32
  0
VERTEX
  8
寸法線
  5
23E3
 10
360.858
 20
301.328
 30
0.000000
  70
    32
  0
VERTEX
  8
寸法線
  5
23E4
 10
360.826
 20
301.273
 30
0.000000
  70
    32
  0
VERTEX
  8
寸法線
  5
23E5
 10
360.797
 20
301.219
 30
0.000000
  70
    32
  0
VERTEX
  8
寸法線
  5
23E6
 10
360.772
 20
301.166
 30
0.000000
  70
    32
  0
VERTEX
  8
寸法線
  5
23E7
 10
360.750
 20
301.113
 30
0.000000
  70
    32
  0
VERTEX
  8
寸法線
  5
23E8
 10
360.732
 20
301.062
 30
0.000000
  70
    32
  0
VERTEX
  8
寸法線
  5
23E9
 10
360.716
 20
301.011
 30
0.000000
  70
    32
  0
VERTEX
  8
寸法線
  5
23EA
 10
360.704
 20
300.962
 30
0.000000
  70
    32
  0
VERTEX
  8
寸法線
  5
23EB
 10
360.695
 20
300.913
 30
0.000000
  70
    32
  0
VERTEX
  8
寸法線
  5
23EC
 10
360.688
 20
300.864
 30
0.000000
  70
    32
  0
VERTEX
  8
寸法線
  5
23ED
 10
360.683
 20
300.817
 30
0.000000
  70
    32
  0
VERTEX
  8
寸法線
  5
23EE
 10
360.681
 20
300.770
 30
0.000000
  70
    32
  0
VERTEX
  8
寸法線
  5
23EF
 10
360.681
 20
300.724
 30
0.000000
  70
    32
  0
VERTEX
  8
寸法線
  5
23F0
 10
360.683
 20
300.678
 30
0.000000
  70
    32
  0
VERTEX
  8
寸法線
  5
23F1
 10
360.686
 20
300.633
 30
0.000000
  70
    32
  0
VERTEX
  8
寸法線
  5
23F2
 10
360.691
 20
300.589
 30
0.000000
  70
    32
  0
VERTEX
  8
寸法線
  5
23F3
 10
360.698
 20
300.545
 30
0.000000
  70
    32
  0
VERTEX
  8
寸法線
  5
23F4
 10
360.706
 20
300.501
 30
0.000000
  70
    32
  0
VERTEX
  8
寸法線
  5
23F5
 10
360.714
 20
300.458
 30
0.000000
  70
    32
  0
VERTEX
  8
寸法線
  5
23F6
 10
360.724
 20
300.416
 30
0.000000
  70
    32
  0
VERTEX
  8
寸法線
  5
23F7
 10
360.734
 20
300.374
 30
0.000000
  70
    32
  0
VERTEX
  8
寸法線
  5
23F8
 10
360.745
 20
300.332
 30
0.000000
  70
    32
  0
VERTEX
  8
寸法線
  5
23F9
 10
360.756
 20
300.290
 30
0.000000
  70
    32
  0
VERTEX
  8
寸法線
  5
23FA
 10
360.767
 20
300.249
 30
0.000000
  70
    32
  0
VERTEX
  8
寸法線
  5
23FB
 10
360.779
 20
300.208
 30
0.000000
  70
    32
  0
VERTEX
  8
寸法線
  5
23FC
 10
360.790
 20
300.167
 30
0.000000
  70
    32
  0
VERTEX
  8
寸法線
  5
23FD
 10
360.801
 20
300.127
 30
0.000000
  70
    32
  0
VERTEX
  8
寸法線
  5
23FE
 10
360.811
 20
300.087
 30
0.000000
  70
    32
  0
VERTEX
  8
寸法線
  5
23FF
 10
360.820
 20
300.047
 30
0.000000
  70
    32
  0
VERTEX
  8
寸法線
  5
2400
 10
360.829
 20
300.007
 30
0.000000
  70
    32
  0
VERTEX
  8
寸法線
  5
2401
 10
360.837
 20
299.967
 30
0.000000
  70
    32
  0
VERTEX
  8
寸法線
  5
2402
 10
360.843
 20
299.927
 30
0.000000
  70
    32
  0
VERTEX
  8
寸法線
  5
2403
 10
360.848
 20
299.887
 30
0.000000
  70
    32
  0
VERTEX
  8
寸法線
  5
2404
 10
360.852
 20
299.847
 30
0.000000
  70
    32
  0
VERTEX
  8
寸法線
  5
2405
 10
360.854
 20
299.807
 30
0.000000
  70
    32
  0
VERTEX
  8
寸法線
  5
2406
 10
360.854
 20
299.767
 30
0.000000
  70
    32
  0
VERTEX
  8
寸法線
  5
2407
 10
360.854
 20
299.728
 30
0.000000
  70
    32
  0
VERTEX
  8
寸法線
  5
2408
 10
360.852
 20
299.688
 30
0.000000
  70
    32
  0
VERTEX
  8
寸法線
  5
2409
 10
360.849
 20
299.648
 30
0.000000
  70
    32
  0
VERTEX
  8
寸法線
  5
240A
 10
360.845
 20
299.608
 30
0.000000
  70
    32
  0
VERTEX
  8
寸法線
  5
240B
 10
360.839
 20
299.568
 30
0.000000
  70
    32
  0
VERTEX
  8
寸法線
  5
240C
 10
360.832
 20
299.528
 30
0.000000
  70
    32
  0
VERTEX
  8
寸法線
  5
240D
 10
360.824
 20
299.488
 30
0.000000
  70
    32
  0
VERTEX
  8
寸法線
  5
240E
 10
360.815
 20
299.449
 30
0.000000
  70
    32
  0
VERTEX
  8
寸法線
  5
240F
 10
360.805
 20
299.409
 30
0.000000
  70
    32
  0
VERTEX
  8
寸法線
  5
2410
 10
360.794
 20
299.369
 30
0.000000
  70
    32
  0
VERTEX
  8
寸法線
  5
2411
 10
360.782
 20
299.329
 30
0.000000
  70
    32
  0
VERTEX
  8
寸法線
  5
2412
 10
360.769
 20
299.289
 30
0.000000
  70
    32
  0
VERTEX
  8
寸法線
  5
2413
 10
360.755
 20
299.249
 30
0.000000
  70
    32
  0
VERTEX
  8
寸法線
  5
2414
 10
360.740
 20
299.209
 30
0.000000
  70
    32
  0
VERTEX
  8
寸法線
  5
2415
 10
360.724
 20
299.169
 30
0.000000
  70
    32
  0
VERTEX
  8
寸法線
  5
2416
 10
360.707
 20
299.128
 30
0.000000
  70
    32
  0
VERTEX
  8
寸法線
  5
2417
 10
360.689
 20
299.088
 30
0.000000
  70
    32
  0
VERTEX
  8
寸法線
  5
2418
 10
360.671
 20
299.048
 30
0.000000
  70
    32
  0
VERTEX
  8
寸法線
  5
2419
 10
360.652
 20
299.008
 30
0.000000
  70
    32
  0
VERTEX
  8
寸法線
  5
241A
 10
360.632
 20
298.967
 30
0.000000
  70
    32
  0
VERTEX
  8
寸法線
  5
241B
 10
360.611
 20
298.927
 30
0.000000
  70
    32
  0
VERTEX
  8
寸法線
  5
241C
 10
360.590
 20
298.886
 30
0.000000
  70
    32
  0
VERTEX
  8
寸法線
  5
241D
 10
360.568
 20
298.846
 30
0.000000
  70
    32
  0
VERTEX
  8
寸法線
  5
241E
 10
360.546
 20
298.805
 30
0.000000
  70
    32
  0
VERTEX
  8
寸法線
  5
241F
 10
360.523
 20
298.765
 30
0.000000
  70
    32
  0
VERTEX
  8
寸法線
  5
2420
 10
360.499
 20
298.724
 30
0.000000
  70
    32
  0
VERTEX
  8
寸法線
  5
2421
 10
360.475
 20
298.683
 30
0.000000
  70
    32
  0
VERTEX
  8
寸法線
  5
2422
 10
360.451
 20
298.642
 30
0.000000
  70
    32
  0
VERTEX
  8
寸法線
  5
2423
 10
360.426
 20
298.601
 30
0.000000
  70
    32
  0
VERTEX
  8
寸法線
  5
2424
 10
360.401
 20
298.560
 30
0.000000
  70
    32
  0
VERTEX
  8
寸法線
  5
2425
 10
360.375
 20
298.519
 30
0.000000
  70
    32
  0
VERTEX
  8
寸法線
  5
2426
 10
360.349
 20
298.478
 30
0.000000
  70
    32
  0
VERTEX
  8
寸法線
  5
2427
 10
360.323
 20
298.436
 30
0.000000
  70
    32
  0
VERTEX
  8
寸法線
  5
2428
 10
360.296
 20
298.395
 30
0.000000
  70
    32
  0
VERTEX
  8
寸法線
  5
2429
 10
360.269
 20
298.353
 30
0.000000
  70
    32
  0
VERTEX
  8
寸法線
  5
242A
 10
360.242
 20
298.312
 30
0.000000
  70
    32
  0
VERTEX
  8
寸法線
  5
242B
 10
360.215
 20
298.270
 30
0.000000
  70
    32
  0
VERTEX
  8
寸法線
  5
242C
 10
360.187
 20
298.228
 30
0.000000
  70
    32
  0
VERTEX
  8
寸法線
  5
242D
 10
360.160
 20
298.186
 30
0.000000
  70
    32
  0
VERTEX
  8
寸法線
  5
242E
 10
360.132
 20
298.144
 30
0.000000
  70
    32
  0
VERTEX
  8
寸法線
  5
242F
 10
360.105
 20
298.102
 30
0.000000
  70
    32
  0
VERTEX
  8
寸法線
  5
2430
 10
360.077
 20
298.060
 30
0.000000
  70
    32
  0
VERTEX
  8
寸法線
  5
2431
 10
360.050
 20
298.017
 30
0.000000
  70
    32
  0
VERTEX
  8
寸法線
  5
2432
 10
360.022
 20
297.975
 30
0.000000
  70
    32
  0
VERTEX
  8
寸法線
  5
2433
 10
359.995
 20
297.932
 30
0.000000
  70
    32
  0
VERTEX
  8
寸法線
  5
2434
 10
359.967
 20
297.889
 30
0.000000
  70
    32
  0
VERTEX
  8
寸法線
  5
2435
 10
359.940
 20
297.846
 30
0.000000
  70
    32
  0
VERTEX
  8
寸法線
  5
2436
 10
359.913
 20
297.803
 30
0.000000
  70
    32
  0
VERTEX
  8
寸法線
  5
2437
 10
359.886
 20
297.760
 30
0.000000
  70
    32
  0
VERTEX
  8
寸法線
  5
2438
 10
359.860
 20
297.716
 30
0.000000
  70
    32
  0
VERTEX
  8
寸法線
  5
2439
 10
359.833
 20
297.673
 30
0.000000
  70
    32
  0
VERTEX
  8
寸法線
  5
243A
 10
359.807
 20
297.629
 30
0.000000
  70
    32
  0
VERTEX
  8
寸法線
  5
243B
 10
359.782
 20
297.585
 30
0.000000
  70
    32
  0
VERTEX
  8
寸法線
  5
243C
 10
359.756
 20
297.541
 30
0.000000
  70
    32
  0
VERTEX
  8
寸法線
  5
243D
 10
359.732
 20
297.497
 30
0.000000
  70
    32
  0
VERTEX
  8
寸法線
  5
243E
 10
359.707
 20
297.452
 30
0.000000
  70
    32
  0
VERTEX
  8
寸法線
  5
243F
 10
359.683
 20
297.408
 30
0.000000
  70
    32
  0
VERTEX
  8
寸法線
  5
2440
 10
359.660
 20
297.363
 30
0.000000
  70
    32
  0
VERTEX
  8
寸法線
  5
2441
 10
359.637
 20
297.318
 30
0.000000
  70
    32
  0
VERTEX
  8
寸法線
  5
2442
 10
359.615
 20
297.273
 30
0.000000
  70
    32
  0
VERTEX
  8
寸法線
  5
2443
 10
359.593
 20
297.228
 30
0.000000
  70
    32
  0
VERTEX
  8
寸法線
  5
2444
 10
359.572
 20
297.183
 30
0.000000
  70
    32
  0
VERTEX
  8
寸法線
  5
2445
 10
359.551
 20
297.137
 30
0.000000
  70
    32
  0
VERTEX
  8
寸法線
  5
2446
 10
359.532
 20
297.091
 30
0.000000
  70
    32
  0
VERTEX
  8
寸法線
  5
2447
 10
359.513
 20
297.045
 30
0.000000
  70
    32
  0
VERTEX
  8
寸法線
  5
2448
 10
359.494
 20
296.999
 30
0.000000
  70
    32
  0
VERTEX
  8
寸法線
  5
2449
 10
359.477
 20
296.953
 30
0.000000
  70
    32
  0
VERTEX
  8
寸法線
  5
244A
 10
359.460
 20
296.906
 30
0.000000
  70
    32
  0
VERTEX
  8
寸法線
  5
244B
 10
359.445
 20
296.859
 30
0.000000
  70
    32
  0
VERTEX
  8
寸法線
  5
244C
 10
359.430
 20
296.812
 30
0.000000
  70
    32
  0
VERTEX
  8
寸法線
  5
244D
 10
359.416
 20
296.765
 30
0.000000
  70
    32
  0
VERTEX
  8
寸法線
  5
244E
 10
359.403
 20
296.718
 30
0.000000
  70
    32
  0
VERTEX
  8
寸法線
  5
244F
 10
359.391
 20
296.670
 30
0.000000
  70
    32
  0
VERTEX
  8
寸法線
  5
2450
 10
359.380
 20
296.622
 30
0.000000
  70
    32
  0
VERTEX
  8
寸法線
  5
2451
 10
359.369
 20
296.574
 30
0.000000
  70
    32
  0
VERTEX
  8
寸法線
  5
2452
 10
359.360
 20
296.526
 30
0.000000
  70
    32
  0
VERTEX
  8
寸法線
  5
2453
 10
359.352
 20
296.478
 30
0.000000
  70
    32
  0
VERTEX
  8
寸法線
  5
2454
 10
359.344
 20
296.429
 30
0.000000
  70
    32
  0
VERTEX
  8
寸法線
  5
2455
 10
359.338
 20
296.380
 30
0.000000
  70
    32
  0
VERTEX
  8
寸法線
  5
2456
 10
359.332
 20
296.331
 30
0.000000
  70
    32
  0
VERTEX
  8
寸法線
  5
2457
 10
359.327
 20
296.282
 30
0.000000
  70
    32
  0
VERTEX
  8
寸法線
  5
2458
 10
359.322
 20
296.233
 30
0.000000
  70
    32
  0
VERTEX
  8
寸法線
  5
2459
 10
359.319
 20
296.184
 30
0.000000
  70
    32
  0
VERTEX
  8
寸法線
  5
245A
 10
359.316
 20
296.134
 30
0.000000
  70
    32
  0
VERTEX
  8
寸法線
  5
245B
 10
359.313
 20
296.085
 30
0.000000
  70
    32
  0
VERTEX
  8
寸法線
  5
245C
 10
359.311
 20
296.035
 30
0.000000
  70
    32
  0
VERTEX
  8
寸法線
  5
245D
 10
359.310
 20
295.985
 30
0.000000
  70
    32
  0
VERTEX
  8
寸法線
  5
245E
 10
359.310
 20
295.936
 30
0.000000
  70
    32
  0
VERTEX
  8
寸法線
  5
245F
 10
359.310
 20
295.886
 30
0.000000
  70
    32
  0
VERTEX
  8
寸法線
  5
2460
 10
359.310
 20
295.836
 30
0.000000
  70
    32
  0
VERTEX
  8
寸法線
  5
2461
 10
359.311
 20
295.786
 30
0.000000
  70
    32
  0
VERTEX
  8
寸法線
  5
2462
 10
359.312
 20
295.736
 30
0.000000
  70
    32
  0
VERTEX
  8
寸法線
  5
2463
 10
359.314
 20
295.686
 30
0.000000
  70
    32
  0
VERTEX
  8
寸法線
  5
2464
 10
359.316
 20
295.635
 30
0.000000
  70
    32
  0
VERTEX
  8
寸法線
  5
2465
 10
359.318
 20
295.585
 30
0.000000
  70
    32
  0
VERTEX
  8
寸法線
  5
2466
 10
359.321
 20
295.535
 30
0.000000
  70
    32
  0
VERTEX
  8
寸法線
  5
2467
 10
359.324
 20
295.485
 30
0.000000
  70
    32
  0
VERTEX
  8
寸法線
  5
2468
 10
359.328
 20
295.435
 30
0.000000
  70
    32
  0
VERTEX
  8
寸法線
  5
2469
 10
359.331
 20
295.384
 30
0.000000
  70
    32
  0
VERTEX
  8
寸法線
  5
246A
 10
359.335
 20
295.334
 30
0.000000
  70
    32
  0
VERTEX
  8
寸法線
  5
246B
 10
359.339
 20
295.284
 30
0.000000
  70
    32
  0
VERTEX
  8
寸法線
  5
246C
 10
359.343
 20
295.234
 30
0.000000
  70
    32
  0
VERTEX
  8
寸法線
  5
246D
 10
359.348
 20
295.184
 30
0.000000
  70
    32
  0
VERTEX
  8
寸法線
  5
246E
 10
359.352
 20
295.134
 30
0.000000
  70
    32
  0
VERTEX
  8
寸法線
  5
246F
 10
359.356
 20
295.084
 30
0.000000
  70
    32
  0
VERTEX
  8
寸法線
  5
2470
 10
359.361
 20
295.034
 30
0.000000
  70
    32
  0
VERTEX
  8
寸法線
  5
2471
 10
359.365
 20
294.984
 30
0.000000
  70
    32
  0
VERTEX
  8
寸法線
  5
2472
 10
359.370
 20
294.934
 30
0.000000
  70
    32
  0
VERTEX
  8
寸法線
  5
2473
 10
359.374
 20
294.885
 30
0.000000
  70
    32
  0
VERTEX
  8
寸法線
  5
2474
 10
359.379
 20
294.835
 30
0.000000
  70
    32
  0
VERTEX
  8
寸法線
  5
2475
 10
359.383
 20
294.786
 30
0.000000
  70
    32
  0
VERTEX
  8
寸法線
  5
2476
 10
359.387
 20
294.737
 30
0.000000
  70
    32
  0
VERTEX
  8
寸法線
  5
2477
 10
359.391
 20
294.688
 30
0.000000
  70
    32
  0
VERTEX
  8
寸法線
  5
2478
 10
359.395
 20
294.639
 30
0.000000
  70
    32
  0
VERTEX
  8
寸法線
  5
2479
 10
359.398
 20
294.590
 30
0.000000
  70
    32
  0
VERTEX
  8
寸法線
  5
247A
 10
359.402
 20
294.541
 30
0.000000
  70
    32
  0
VERTEX
  8
寸法線
  5
247B
 10
359.405
 20
294.492
 30
0.000000
  70
    32
  0
VERTEX
  8
寸法線
  5
247C
 10
359.407
 20
294.444
 30
0.000000
  70
    32
  0
VERTEX
  8
寸法線
  5
247D
 10
359.410
 20
294.396
 30
0.000000
  70
    32
  0
VERTEX
  8
寸法線
  5
247E
 10
359.412
 20
294.348
 30
0.000000
  70
    32
  0
VERTEX
  8
寸法線
  5
247F
 10
359.413
 20
294.300
 30
0.000000
  70
    32
  0
VERTEX
  8
寸法線
  5
2480
 10
359.415
 20
294.253
 30
0.000000
  70
    32
  0
VERTEX
  8
寸法線
  5
2481
 10
359.415
 20
294.205
 30
0.000000
  70
    32
  0
VERTEX
  8
寸法線
  5
2482
 10
359.416
 20
294.158
 30
0.000000
  70
    32
  0
VERTEX
  8
寸法線
  5
2483
 10
359.415
 20
294.111
 30
0.000000
  70
    32
  0
VERTEX
  8
寸法線
  5
2484
 10
359.415
 20
294.065
 30
0.000000
  70
    32
  0
VERTEX
  8
寸法線
  5
2485
 10
359.413
 20
294.018
 30
0.000000
  70
    32
  0
VERTEX
  8
寸法線
  5
2486
 10
359.411
 20
293.972
 30
0.000000
  70
    32
  0
VERTEX
  8
寸法線
  5
2487
 10
359.409
 20
293.926
 30
0.000000
  70
    32
  0
VERTEX
  8
寸法線
  5
2488
 10
359.406
 20
293.881
 30
0.000000
  70
    32
  0
VERTEX
  8
寸法線
  5
2489
 10
359.402
 20
293.835
 30
0.000000
  70
    32
  0
VERTEX
  8
寸法線
  5
248A
 10
359.397
 20
293.790
 30
0.000000
  70
    32
  0
VERTEX
  8
寸法線
  5
248B
 10
359.392
 20
293.746
 30
0.000000
  70
    32
  0
VERTEX
  8
寸法線
  5
248C
 10
359.386
 20
293.701
 30
0.000000
  70
    32
  0
VERTEX
  8
寸法線
  5
248D
 10
359.379
 20
293.657
 30
0.000000
  70
    32
  0
VERTEX
  8
寸法線
  5
248E
 10
359.371
 20
293.614
 30
0.000000
  70
    32
  0
VERTEX
  8
寸法線
  5
248F
 10
359.363
 20
293.570
 30
0.000000
  70
    32
  0
VERTEX
  8
寸法線
  5
2490
 10
359.353
 20
293.527
 30
0.000000
  70
    32
  0
VERTEX
  8
寸法線
  5
2491
 10
359.343
 20
293.484
 30
0.000000
  70
    32
  0
VERTEX
  8
寸法線
  5
2492
 10
359.331
 20
293.442
 30
0.000000
  70
    32
  0
VERTEX
  8
寸法線
  5
2493
 10
359.319
 20
293.400
 30
0.000000
  70
    32
  0
VERTEX
  8
寸法線
  5
2494
 10
359.306
 20
293.359
 30
0.000000
  70
    32
  0
VERTEX
  8
寸法線
  5
2495
 10
359.292
 20
293.318
 30
0.000000
  70
    32
  0
VERTEX
  8
寸法線
  5
2496
 10
359.276
 20
293.277
 30
0.000000
  70
    32
  0
VERTEX
  8
寸法線
  5
2497
 10
359.260
 20
293.236
 30
0.000000
  70
    32
  0
VERTEX
  8
寸法線
  5
2498
 10
359.242
 20
293.197
 30
0.000000
  70
    32
  0
VERTEX
  8
寸法線
  5
2499
 10
359.224
 20
293.157
 30
0.000000
  70
    32
  0
VERTEX
  8
寸法線
  5
249A
 10
359.204
 20
293.118
 30
0.000000
  70
    32
  0
VERTEX
  8
寸法線
  5
249B
 10
359.183
 20
293.079
 30
0.000000
  70
    32
  0
VERTEX
  8
寸法線
  5
249C
 10
359.161
 20
293.041
 30
0.000000
  70
    32
  0
VERTEX
  8
寸法線
  5
249D
 10
359.137
 20
293.004
 30
0.000000
  70
    32
  0
VERTEX
  8
寸法線
  5
249E
 10
359.112
 20
292.966
 30
0.000000
  70
    32
  0
VERTEX
  8
寸法線
  5
249F
 10
359.086
 20
292.930
 30
0.000000
  70
    32
  0
VERTEX
  8
寸法線
  5
24A0
 10
359.059
 20
292.893
 30
0.000000
  70
    32
  0
VERTEX
  8
寸法線
  5
24A1
 10
359.030
 20
292.858
 30
0.000000
  70
    32
  0
VERTEX
  8
寸法線
  5
24A2
 10
359.000
 20
292.822
 30
0.000000
  70
    32
  0
VERTEX
  8
寸法線
  5
24A3
 10
358.968
 20
292.788
 30
0.000000
  70
    32
  0
VERTEX
  8
寸法線
  5
24A4
 10
358.935
 20
292.753
 30
0.000000
  70
    32
  0
VERTEX
  8
寸法線
  5
24A5
 10
358.900
 20
292.720
 30
0.000000
  70
    32
  0
VERTEX
  8
寸法線
  5
24A6
 10
358.864
 20
292.687
 30
0.000000
  70
    32
  0
VERTEX
  8
寸法線
  5
24A7
 10
358.826
 20
292.654
 30
0.000000
  70
    32
  0
VERTEX
  8
寸法線
  5
24A8
 10
358.787
 20
292.622
 30
0.000000
  70
    32
  0
VERTEX
  8
寸法線
  5
24A9
 10
358.746
 20
292.590
 30
0.000000
  70
    32
  0
VERTEX
  8
寸法線
  5
24AA
 10
358.704
 20
292.560
 30
0.000000
  70
    32
  0
VERTEX
  8
寸法線
  5
24AB
 10
358.660
 20
292.529
 30
0.000000
  70
    32
  0
VERTEX
  8
寸法線
  5
24AC
 10
358.614
 20
292.499
 30
0.000000
  70
    32
  0
VERTEX
  8
寸法線
  5
24AD
 10
358.567
 20
292.468
 30
0.000000
  70
    32
  0
VERTEX
  8
寸法線
  5
24AE
 10
358.519
 20
292.437
 30
0.000000
  70
    32
  0
VERTEX
  8
寸法線
  5
24AF
 10
358.470
 20
292.404
 30
0.000000
  70
    32
  0
VERTEX
  8
寸法線
  5
24B0
 10
358.420
 20
292.370
 30
0.000000
  70
    32
  0
VERTEX
  8
寸法線
  5
24B1
 10
358.369
 20
292.333
 30
0.000000
  70
    32
  0
VERTEX
  8
寸法線
  5
24B2
 10
358.317
 20
292.294
 30
0.000000
  70
    32
  0
VERTEX
  8
寸法線
  5
24B3
 10
358.265
 20
292.252
 30
0.000000
  70
    32
  0
VERTEX
  8
寸法線
  5
24B4
 10
358.213
 20
292.205
 30
0.000000
  70
    32
  0
VERTEX
  8
寸法線
  5
24B5
 10
358.160
 20
292.155
 30
0.000000
  70
    32
  0
VERTEX
  8
寸法線
  5
24B6
 10
358.108
 20
292.101
 30
0.000000
  70
    32
  0
VERTEX
  8
寸法線
  5
24B7
 10
358.056
 20
292.041
 30
0.000000
  70
    32
  0
VERTEX
  8
寸法線
  5
24B8
 10
358.004
 20
291.976
 30
0.000000
  70
    32
  0
VERTEX
  8
寸法線
  5
24B9
 10
357.952
 20
291.904
 30
0.000000
  70
    32
  0
VERTEX
  8
寸法線
  5
24BA
 10
357.901
 20
291.827
 30
0.000000
  70
    32
  0
VERTEX
  8
寸法線
  5
24BB
 10
357.851
 20
291.742
 30
0.000000
  70
    32
  0
SEQEND
  8
寸法線
  5
24BC
  0
DIMENSION
  5
1C26
  8
寸法線
  2
*D15
 10
267.34212583719881
 20
326.68661395526442
 30
0.0
 11
255.84212583719869
 21
328.56161395526442
 31
0.0
 70
     0
 13
244.34212583719881
 23
301.44224832965301
 33
0.0
 14
267.34212583719881
 24
303.8490496336488
 34
0.0
1001
ACAD
1000
DSTYLE
1002
{
1070
   271
1070
     2
1070
   341
1005
0
1002
}
  0
LINE
  5
1C81
  8
外形線
 10
240.84232402754361
 20
356.00841422029811
 30
0.0
 11
355.84232402754361
 21
356.00841422029811
 31
0.0
  0
LINE
  5
1C82
  8
外形線
 10
240.84232402754361
 20
357.00841422029799
 30
0.0
 11
355.84232402754361
 21
357.00841422029799
 31
0.0
  0
TEXT
  5
1C83
  8
文字
 10
241.0645120275436
 20
358.68708622029811
 30
0.0
 40
3.1000000000000001
  1
Model No.CG-3C Cylinder Gauge (Blind Hole Type)
  7
STYLE3
  0
LINE
  5
1C84
  8
外形線
 10
350.31715402754361
 20
172.51312222029799
 30
0.0
 11
350.31715402754361
 21
192.90810622029801
 31
0.0
  0
TEXT
  5
1C85
  8
0
  6
CONTINUOUS
 10
351.77462102754362
 20
184.02589022029801
 30
0.0
 40
2.1000000000000001
  1
Design and specifications are subject to change without notice for future improvement.
  7
STYLE3
  0
TEXT
  5
1C86
  8
0
  6
CONTINUOUS
 10
395.0873980275436
 20
176.00940622029799
 30
0.0
 40
2.399999999999999
  1
mm
  7
STYLE3
  0
LINE
  5
1C87
  8
外形線
 10
350.31715402754361
 20
182.12790022029799
 30
0.0
 11
491.10857202754357
 21
182.12790022029799
 31
0.0
  0
TEXT
  5
1C88
  8
0
  6
CONTINUOUS
 10
354.10657202754362
 20
177.757545220298
 30
0.0
 40
3.0
  1
三　　角　　法
  7
STYLE3
  0
TEXT
  5
1C89
  8
0
  6
CONTINUOUS
 10
351.48313002754361
 20
174.26126222029799
 30
0.0
 40
2.1000000000000001
  1
3RD Angle Projection
  7
STYLE3
  0
TEXT
  5
1C8A
  8
0
  6
CONTINUOUS
 10
387.21707202754362
 20
174.26126322029799
 30
0.0
 40
2.1000000000000001
  1
Unit
  7
STYLE3
  0
TEXT
  5
1C8B
  8
0
  6
CONTINUOUS
 10
387.04535102754369
 20
177.763500220298
 30
0.0
 40
3.0
  1
単位
  7
STYLE3
  0
LINE
  5
1C8C
  8
外形線
 10
385.58788202754363
 20
182.12790022029799
 30
0.0
 11
385.58788202754363
 21
172.51312222029799
 31
0.0
  0
TEXT
  5
1C8D
  8
0
  6
CONTINUOUS
 10
454.56336302754352
 20
174.26126322029799
 30
0.0
 40
2.1000000000000001
  1
OZAKI MFG. CO., LTD.
  7
STYLE3
  0
TEXT
  5
1C8E
  8
0
  6
CONTINUOUS
 10
453.68888402754368
 20
178.048902220298
 30
0.0
 40
3.0
  1
株式会社　尾崎製作所
  7
STYLE3
  0
TEXT
  5
1C8F
  8
0
  6
CONTINUOUS
 10
433.28432902754361
 20
176.00940522029799
 30
0.0
 40
2.1000000000000001
  1
2010.06.23
  7
STYLE3
  0
TEXT
  5
1C90
  8
0
  6
CONTINUOUS
 10
414.44575102754362
 20
176.30076322029799
 30
0.0
 40
2.399999999999999
  1
1/1
  7
STYLE3
  0
TEXT
  5
1C91
  8
0
  6
CONTINUOUS
 10
404.82646202754353
 20
174.552620220298
 30
0.0
 40
2.1000000000000001
  1
Scale
  7
STYLE3
  0
TEXT
  5
1C92
  8
0
  6
CONTINUOUS
 10
404.36324702754359
 20
177.472142220298
 30
0.0
 40
3.0
  1
尺 度
  7
STYLE3
  0
LINE
  5
1C93
  8
外形線
 10
403.07749902754352
 20
182.12790022029799
 30
0.0
 11
403.07749902754352
 21
172.51312222029799
 31
0.0
  0
TEXT
  5
1C94
  8
0
  6
CONTINUOUS
 10
424.15616102754359
 20
177.594348220298
 30
0.0
 40
3.0
  1
日 付
  7
STYLE3
  0
TEXT
  5
1C95
  8
0
  6
CONTINUOUS
 10
424.53952202754363
 20
174.26126422029799
 30
0.0
 40
2.1000000000000001
  1
Date
  7
STYLE3
  0
LINE
  5
1C96
  8
外形線
 10
422.6075710275436
 20
182.12790022029799
 30
0.0
 11
422.6075710275436
 21
172.51312222029799
 31
0.0
  0
LINE
  5
1C97
  8
外形線
 10
452.33992102754348
 20
182.12790022029799
 30
0.0
 11
452.33992102754348
 21
172.51312222029799
 31
0.0
  0
TEXT
  5
1C98
  8
0
  6
CONTINUOUS
 10
352.06611502754362
 20
187.95503822029801
 30
0.0
 40
3.5
  1
仕様及び外観は予告なく変更される場合がございますのでご了承下さい。
  7
STYLE3
  0
LINE
  5
1C99
  8
外形線
 10
350.31715402754361
 20
192.90810622029801
 30
0.0
 11
491.10857202754357
 21
192.90810622029801
 31
0.0
  0
ENDSEC
  0
EOF
