  0
SECTION
  2
HEADER
  9
$ACADVER
  1
AC1018
  9
$ACADMAINTVER
 70
     0
  9
$DWGCODEPAGE
  3
ANSI_932
  9
$INSBASE
 10
0.0
 20
0.0
 30
0.0
  9
$EXTMIN
 10
-0.2256454072593215
 20
-0.2181385412601458
 30
-0.0000152557620687
  9
$EXTMAX
 10
255.2259969900184
 20
195.2198623512278
 30
0.0000610416757212
  9
$LIMMIN
 10
0.0
 20
0.0
  9
$LIMMAX
 10
420.0
 20
297.0
  9
$ORTHOMODE
 70
     0
  9
$REGENMODE
 70
     1
  9
$FILLMODE
 70
     1
  9
$QTEXTMODE
 70
     0
  9
$MIRRTEXT
 70
     1
  9
$LTSCALE
 40
1.0
  9
$ATTMODE
 70
     1
  9
$TEXTSIZE
 40
3.0
  9
$TRACEWID
 40
1.0
  9
$TEXTSTYLE
  7
STYLE3
  9
$CLAYER
  8
文字
  9
$CELTYPE
  6
BYLAYER
  9
$CECOLOR
 62
   256
  9
$CELTSCALE
 40
1.0
  9
$DISPSILH
 70
     0
  9
$DIMSCALE
 40
1.0
  9
$DIMASZ
 40
2.5
  9
$DIMEXO
 40
0.0
  9
$DIMDLI
 40
3.75
  9
$DIMRND
 40
0.0
  9
$DIMDLE
 40
0.0
  9
$DIMEXE
 40
1.25
  9
$DIMTP
 40
0.0
  9
$DIMTM
 40
0.0
  9
$DIMTXT
 40
2.5
  9
$DIMCEN
 40
2.5
  9
$DIMTSZ
 40
0.0
  9
$DIMTOL
 70
     0
  9
$DIMLIM
 70
     0
  9
$DIMTIH
 70
     0
  9
$DIMTOH
 70
     0
  9
$DIMSE1
 70
     0
  9
$DIMSE2
 70
     0
  9
$DIMTAD
 70
     1
  9
$DIMZIN
 70
     8
  9
$DIMBLK
  1

  9
$DIMASO
 70
     1
  9
$DIMSHO
 70
     1
  9
$DIMPOST
  1

  9
$DIMAPOST
  1

  9
$DIMALT
 70
     0
  9
$DIMALTD
 70
     4
  9
$DIMALTF
 40
0.0394
  9
$DIMLFAC
 40
1.0
  9
$DIMTOFL
 70
     1
  9
$DIMTVP
 40
0.0
  9
$DIMTIX
 70
     0
  9
$DIMSOXD
 70
     0
  9
$DIMSAH
 70
     1
  9
$DIMBLK1
  1
OPEN
  9
$DIMBLK2
  1
OPEN
  9
$DIMSTYLE
  2
STYLE3
  9
$DIMCLRD
 70
     2
  9
$DIMCLRE
 70
     2
  9
$DIMCLRT
 70
     6
  9
$DIMTFAC
 40
1.0
  9
$DIMGAP
 40
0.625
  9
$DIMJUST
 70
     0
  9
$DIMSD1
 70
     0
  9
$DIMSD2
 70
     0
  9
$DIMTOLJ
 70
     1
  9
$DIMTZIN
 70
     0
  9
$DIMALTZ
 70
     0
  9
$DIMALTTZ
 70
     0
  9
$DIMUPT
 70
     0
  9
$DIMDEC
 70
     2
  9
$DIMTDEC
 70
     4
  9
$DIMALTU
 70
     8
  9
$DIMALTTD
 70
     4
  9
$DIMTXSTY
  7
STYLE3
  9
$DIMAUNIT
 70
     0
  9
$DIMADEC
 70
     0
  9
$DIMALTRND
 40
0.0
  9
$DIMAZIN
 70
     0
  9
$DIMDSEP
 70
    46
  9
$DIMATFIT
 70
     3
  9
$DIMFRAC
 70
     0
  9
$DIMLDRBLK
  1

  9
$DIMLUNIT
 70
     2
  9
$DIMLWD
 70
    -2
  9
$DIMLWE
 70
    -2
  9
$DIMTMOVE
 70
     0
  9
$LUNITS
 70
     2
  9
$LUPREC
 70
     4
  9
$SKETCHINC
 40
1.0
  9
$FILLETRAD
 40
0.0
  9
$AUNITS
 70
     0
  9
$AUPREC
 70
     0
  9
$MENU
  1
.
  9
$ELEVATION
 40
0.0
  9
$PELEVATION
 40
0.0
  9
$THICKNESS
 40
0.0
  9
$LIMCHECK
 70
     0
  9
$CHAMFERA
 40
0.3
  9
$CHAMFERB
 40
0.3
  9
$CHAMFERC
 40
20.0
  9
$CHAMFERD
 40
0.0
  9
$SKPOLY
 70
     0
  9
$TDCREATE
 40
2451576.389683565
  9
$TDUCREATE
 40
2451576.014683565
  9
$TDUPDATE
 40
2455377.692256216
  9
$TDUUPDATE
 40
2455377.317256216
  9
$TDINDWG
 40
0.4429485069
  9
$TDUSRTIMER
 40
0.4429485069
  9
$USRTIMER
 70
     1
  9
$ANGBASE
 50
0.0
  9
$ANGDIR
 70
     0
  9
$PDMODE
 70
     0
  9
$PDSIZE
 40
0.0
  9
$PLINEWID
 40
0.0
  9
$SPLFRAME
 70
     0
  9
$SPLINETYPE
 70
     6
  9
$SPLINESEGS
 70
     8
  9
$HANDSEED
  5
A06
  9
$SURFTAB1
 70
     6
  9
$SURFTAB2
 70
     6
  9
$SURFTYPE
 70
     6
  9
$SURFU
 70
     6
  9
$SURFV
 70
     6
  9
$UCSBASE
  2

  9
$UCSNAME
  2

  9
$UCSORG
 10
0.0
 20
0.0
 30
0.0
  9
$UCSXDIR
 10
1.0
 20
0.0
 30
0.0
  9
$UCSYDIR
 10
0.0
 20
1.0
 30
0.0
  9
$UCSORTHOREF
  2

  9
$UCSORTHOVIEW
 70
     0
  9
$UCSORGTOP
 10
0.0
 20
0.0
 30
0.0
  9
$UCSORGBOTTOM
 10
0.0
 20
0.0
 30
0.0
  9
$UCSORGLEFT
 10
0.0
 20
0.0
 30
0.0
  9
$UCSORGRIGHT
 10
0.0
 20
0.0
 30
0.0
  9
$UCSORGFRONT
 10
0.0
 20
0.0
 30
0.0
  9
$UCSORGBACK
 10
0.0
 20
0.0
 30
0.0
  9
$PUCSBASE
  2

  9
$PUCSNAME
  2

  9
$PUCSORG
 10
0.0
 20
0.0
 30
0.0
  9
$PUCSXDIR
 10
1.0
 20
0.0
 30
0.0
  9
$PUCSYDIR
 10
0.0
 20
1.0
 30
0.0
  9
$PUCSORTHOREF
  2

  9
$PUCSORTHOVIEW
 70
     0
  9
$PUCSORGTOP
 10
0.0
 20
0.0
 30
0.0
  9
$PUCSORGBOTTOM
 10
0.0
 20
0.0
 30
0.0
  9
$PUCSORGLEFT
 10
0.0
 20
0.0
 30
0.0
  9
$PUCSORGRIGHT
 10
0.0
 20
0.0
 30
0.0
  9
$PUCSORGFRONT
 10
0.0
 20
0.0
 30
0.0
  9
$PUCSORGBACK
 10
0.0
 20
0.0
 30
0.0
  9
$USERI1
 70
     0
  9
$USERI2
 70
     0
  9
$USERI3
 70
     0
  9
$USERI4
 70
     0
  9
$USERI5
 70
     0
  9
$USERR1
 40
0.0
  9
$USERR2
 40
0.0
  9
$USERR3
 40
0.0
  9
$USERR4
 40
0.0
  9
$USERR5
 40
0.0
  9
$WORLDVIEW
 70
     1
  9
$SHADEDGE
 70
     3
  9
$SHADEDIF
 70
    70
  9
$TILEMODE
 70
     1
  9
$MAXACTVP
 70
    48
  9
$PINSBASE
 10
0.0
 20
0.0
 30
0.0
  9
$PLIMCHECK
 70
     0
  9
$PEXTMIN
 10
-0.2
 20
-0.2
 30
0.0
  9
$PEXTMAX
 10
255.2
 20
195.2
 30
0.0
  9
$PLIMMIN
 10
0.0
 20
0.0
  9
$PLIMMAX
 10
420.0
 20
297.0
  9
$UNITMODE
 70
     0
  9
$VISRETAIN
 70
     1
  9
$PLINEGEN
 70
     0
  9
$PSLTSCALE
 70
     1
  9
$TREEDEPTH
 70
  3020
  9
$CMLSTYLE
  2
STANDARD
  9
$CMLJUST
 70
     0
  9
$CMLSCALE
 40
20.0
  9
$PROXYGRAPHICS
 70
     1
  9
$MEASUREMENT
 70
     1
  9
$CELWEIGHT
370
    -1
  9
$ENDCAPS
280
     0
  9
$JOINSTYLE
280
     0
  9
$LWDISPLAY
290
     0
  9
$INSUNITS
 70
     0
  9
$HYPERLINKBASE
  1

  9
$STYLESHEET
  1

  9
$XEDIT
290
     1
  9
$CEPSNTYPE
380
     0
  9
$PSTYLEMODE
290
     1
  9
$FINGERPRINTGUID
  2
{8AFFA38D-4B03-468D-8D84-DA9CFA445B60}
  9
$VERSIONGUID
  2
{49DDFBAA-18DC-4427-8F64-9866CD105527}
  9
$EXTNAMES
290
     1
  9
$PSVPSCALE
 40
0.0
  9
$OLESTARTUP
290
     0
  9
$SORTENTS
280
   127
  9
$INDEXCTL
280
     0
  9
$HIDETEXT
280
     0
  9
$XCLIPFRAME
290
     0
  9
$HALOGAP
280
     0
  9
$OBSCOLOR
 70
   257
  9
$OBSLTYPE
280
     0
  9
$INTERSECTIONDISPLAY
280
     0
  9
$INTERSECTIONCOLOR
 70
   257
  9
$DIMASSOC
280
     1
  9
$PROJECTNAME
  1

  0
ENDSEC
  0
SECTION
  2
CLASSES
  0
CLASS
  1
ACDBDICTIONARYWDFLT
  2
AcDbDictionaryWithDefault
  3
ObjectDBX Classes
 90
        0
 91
        1
280
     0
281
     0
  0
ENDSEC
  0
SECTION
  2
TABLES
  0
TABLE
  2
VPORT
  5
8
330
0
100
AcDbSymbolTable
 70
     2
  0
VPORT
  5
A05
330
8
100
AcDbSymbolTableRecord
100
AcDbViewportTableRecord
  2
*Active
 70
     0
 10
0.0
 20
0.0
 11
1.0
 21
1.0
 12
127.5001757913795
 22
97.50086190498384
 13
0.0
 23
0.0
 14
10.0
 24
10.0
 15
10.0
 25
10.0
 16
0.0
 26
0.0
 36
1.0
 17
0.0
 27
0.0
 37
0.0
 40
196.9242214315943
 41
1.530456852791878
 42
50.0
 43
0.0
 44
0.0
 50
0.0
 51
0.0
 71
     0
 72
   100
 73
     1
 74
     1
 75
     0
 76
     0
 77
     0
 78
     0
281
     0
 65
     1
110
0.0
120
0.0
130
0.0
111
1.0
121
0.0
131
0.0
112
0.0
122
1.0
132
0.0
 79
     0
146
0.0
  0
ENDTAB
  0
TABLE
  2
LTYPE
  5
5
330
0
100
AcDbSymbolTable
 70
    12
  0
LTYPE
  5
12
330
5
100
AcDbSymbolTableRecord
100
AcDbLinetypeTableRecord
  2
BYBLOCK
 70
     0
  3

 72
    65
 73
     0
 40
0.0
  0
LTYPE
  5
13
330
5
100
AcDbSymbolTableRecord
100
AcDbLinetypeTableRecord
  2
BYLAYER
 70
     0
  3

 72
    65
 73
     0
 40
0.0
  0
LTYPE
  5
14
330
5
100
AcDbSymbolTableRecord
100
AcDbLinetypeTableRecord
  2
CONTINUOUS
 70
     0
  3
Solid line
 72
    65
 73
     0
 40
0.0
  0
LTYPE
  5
22
330
5
100
AcDbSymbolTableRecord
100
AcDbLinetypeTableRecord
  2
CENTER2
 70
     0
  3
Center (.5x) ___ _ ___ _ ___ _ ___ _ ___ _ ___
 72
    65
 73
     4
 40
28.575
 49
19.05
 74
     0
 49
-3.174999999999999
 74
     0
 49
3.174999999999999
 74
     0
 49
-3.174999999999999
 74
     0
  0
LTYPE
  5
24
330
5
100
AcDbSymbolTableRecord
100
AcDbLinetypeTableRecord
  2
PHANTOM2
 70
     0
  3
Phantom (.5x) ___ _ _ ___ _ _ ___ _ _ ___ _ _
 72
    65
 73
     6
 40
31.75
 49
15.875
 74
     0
 49
-3.174999999999999
 74
     0
 49
3.174999999999999
 74
     0
 49
-3.174999999999999
 74
     0
 49
3.174999999999999
 74
     0
 49
-3.174999999999999
 74
     0
  0
ENDTAB
  0
TABLE
  2
LAYER
  5
2
330
0
100
AcDbSymbolTable
 70
    16
  0
LAYER
  5
E
330
2
100
AcDbSymbolTableRecord
100
AcDbLayerTableRecord
  2
0
 70
     0
 62
     7
  6
CONTINUOUS
370
    -3
390
91F
  0
LAYER
  5
25
330
2
100
AcDbSymbolTableRecord
100
AcDbLayerTableRecord
  2
外形線
 70
     0
 62
     7
  6
CONTINUOUS
370
    -3
390
91F
  0
LAYER
  5
27
330
2
100
AcDbSymbolTableRecord
100
AcDbLayerTableRecord
  2
中心線
 70
     0
 62
     4
  6
CENTER2
370
    -3
390
91F
  0
LAYER
  5
29
330
2
100
AcDbSymbolTableRecord
100
AcDbLayerTableRecord
  2
想像線
 70
     0
 62
     1
  6
PHANTOM2
370
    -3
390
91F
  0
LAYER
  5
2A
330
2
100
AcDbSymbolTableRecord
100
AcDbLayerTableRecord
  2
ﾊｯﾁﾝｸ
 70
     0
 62
     6
  6
CONTINUOUS
370
    -3
390
91F
  0
LAYER
  5
2B
330
2
100
AcDbSymbolTableRecord
100
AcDbLayerTableRecord
  2
文字
 70
     0
 62
     6
  6
CONTINUOUS
370
    -3
390
91F
  0
LAYER
  5
2D
330
2
100
AcDbSymbolTableRecord
100
AcDbLayerTableRecord
  2
針
 70
     0
 62
     5
  6
CONTINUOUS
370
    -3
390
91F
  0
LAYER
  5
53
330
2
100
AcDbSymbolTableRecord
100
AcDbLayerTableRecord
  2
DEFPOINTS
 70
     0
 62
     7
  6
CONTINUOUS
290
     0
370
    -3
390
91F
  0
LAYER
  5
A5
330
2
100
AcDbSymbolTableRecord
100
AcDbLayerTableRecord
  2
C
 70
     0
 62
     7
  6
CONTINUOUS
370
    -3
390
91F
  0
LAYER
  5
85A
330
2
100
AcDbSymbolTableRecord
100
AcDbLayerTableRecord
  2
ROGO
 70
     0
 62
     6
  6
CONTINUOUS
370
    -3
390
91F
  0
ENDTAB
  0
TABLE
  2
STYLE
  5
3
330
0
100
AcDbSymbolTable
 70
     7
  0
STYLE
  5
F
330
3
100
AcDbSymbolTableRecord
100
AcDbTextStyleTableRecord
  2
STANDARD
 70
     0
 40
0.0
 41
1.0
 50
0.0
 71
     0
 42
2.5
  3
txt
  4

  0
STYLE
  5
3F
330
3
100
AcDbSymbolTableRecord
100
AcDbTextStyleTableRecord
  2
STYLE3
 70
     0
 40
0.0
 41
1.0
 50
0.0
 71
     0
 42
3.0
  3
romans.shx
  4
bigfont.shx
  0
STYLE
  5
858
330
3
100
AcDbSymbolTableRecord
100
AcDbTextStyleTableRecord
  2
4
 70
     0
 40
0.0
 41
1.0
 50
0.0
 71
     0
 42
3.0
  3
MS PGothic.ttf
  4

1001
ACAD
1000
MS PGothic
1071
    32818
  0
ENDTAB
  0
TABLE
  2
VIEW
  5
6
330
0
100
AcDbSymbolTable
 70
     0
  0
ENDTAB
  0
TABLE
  2
UCS
  5
7
330
0
100
AcDbSymbolTable
 70
     0
  0
ENDTAB
  0
TABLE
  2
APPID
  5
9
330
0
100
AcDbSymbolTable
 70
     1
  0
APPID
  5
10
330
9
100
AcDbSymbolTableRecord
100
AcDbRegAppTableRecord
  2
ACAD
 70
     0
  0
ENDTAB
  0
TABLE
  2
DIMSTYLE
  5
A
330
0
100
AcDbSymbolTable
 70
     4
100
AcDbDimStyleTable
 71
     0
  0
DIMSTYLE
105
1D
330
A
100
AcDbSymbolTableRecord
100
AcDbDimStyleTableRecord
  2
STANDARD
 70
     0
 41
2.5
 42
0.625
 43
3.75
 44
1.25
 73
     0
 74
     0
 77
     1
 78
     8
140
2.5
141
2.5
143
0.0394
147
0.625
171
     4
172
     1
273
     8
274
     4
277
     6
340
F
  0
DIMSTYLE
105
8F
102
{ACAD_REACTORS
330
7E6
330
7F2
330
7FF
330
80C
330
818
330
825
330
83C
330
849
330
919
102
}
330
A
100
AcDbSymbolTableRecord
100
AcDbDimStyleTableRecord
  2
STYLE3
 70
     0
 41
2.5
 42
0.0
 43
3.75
 44
1.25
 73
     0
 74
     0
 77
     1
 78
     8
140
2.5
141
2.5
143
0.0394
147
0.625
171
     4
172
     1
173
     1
176
     2
177
     2
178
     6
271
     1
273
     8
274
     4
340
3F
341
45
343
45
344
45
  0
ENDTAB
  0
TABLE
  2
BLOCK_RECORD
  5
1
330
0
100
AcDbSymbolTable
 70
    14
  0
BLOCK_RECORD
  5
18
330
1
100
AcDbSymbolTableRecord
100
AcDbBlockTableRecord
  2
*MODEL_SPACE
340
924
  0
BLOCK_RECORD
  5
15
330
1
100
AcDbSymbolTableRecord
100
AcDbBlockTableRecord
  2
*PAPER_SPACE
340
925
  0
BLOCK_RECORD
  5
45
330
1
100
AcDbSymbolTableRecord
100
AcDbBlockTableRecord
  2
_OPEN
340
0
102
{BLKREFS
331
72C
331
745
331
747
331
753
331
9B9
331
9BA
331
9C3
331
9C4
331
9CB
331
9CC
331
9D4
331
9D5
331
9DC
331
9DD
331
9E5
331
9E6
331
9EE
331
9EF
331
9F6
331
9F7
331
9FF
331
A00
102
}
  0
BLOCK_RECORD
  5
7DA
330
1
100
AcDbSymbolTableRecord
100
AcDbBlockTableRecord
  2
*D1
340
0
  0
BLOCK_RECORD
  5
7E7
330
1
100
AcDbSymbolTableRecord
100
AcDbBlockTableRecord
  2
*D2
340
0
  0
BLOCK_RECORD
  5
7F3
330
1
100
AcDbSymbolTableRecord
100
AcDbBlockTableRecord
  2
*D3
340
0
  0
BLOCK_RECORD
  5
800
330
1
100
AcDbSymbolTableRecord
100
AcDbBlockTableRecord
  2
*D4
340
0
  0
BLOCK_RECORD
  5
80D
330
1
100
AcDbSymbolTableRecord
100
AcDbBlockTableRecord
  2
*D5
340
0
  0
BLOCK_RECORD
  5
819
330
1
100
AcDbSymbolTableRecord
100
AcDbBlockTableRecord
  2
*D6
340
0
  0
BLOCK_RECORD
  5
831
330
1
100
AcDbSymbolTableRecord
100
AcDbBlockTableRecord
  2
*D7
340
0
  0
BLOCK_RECORD
  5
83D
330
1
100
AcDbSymbolTableRecord
100
AcDbBlockTableRecord
  2
*D8
340
0
  0
BLOCK_RECORD
  5
85B
330
1
100
AcDbSymbolTableRecord
100
AcDbBlockTableRecord
  2
ROGO
340
0
102
{BLKREFS
331
8B0
102
}
  0
BLOCK_RECORD
  5
90D
330
1
100
AcDbSymbolTableRecord
100
AcDbBlockTableRecord
  2
*D11
340
0
  0
ENDTAB
  0
ENDSEC
  0
SECTION
  2
BLOCKS
  0
BLOCK
  5
19
330
18
100
AcDbEntity
  8
0
100
AcDbBlockBegin
  2
*MODEL_SPACE
 70
     0
 10
0.0
 20
0.0
 30
0.0
  3
*MODEL_SPACE
  1

  0
ENDBLK
  5
1A
330
18
100
AcDbEntity
  8
0
100
AcDbBlockEnd
  0
BLOCK
  5
16
330
15
100
AcDbEntity
 67
     1
  8
0
100
AcDbBlockBegin
  2
*PAPER_SPACE
 70
     0
 10
0.0
 20
0.0
 30
0.0
  3
*PAPER_SPACE
  1

  0
ENDBLK
  5
17
330
15
100
AcDbEntity
 67
     1
  8
0
100
AcDbBlockEnd
  0
BLOCK
  5
46
330
45
100
AcDbEntity
  8
0
100
AcDbBlockBegin
  2
_OPEN
 70
     0
 10
0.0
 20
0.0
 30
0.0
  3
_OPEN
  1

  0
LINE
  5
47
330
45
100
AcDbEntity
  8
0
  6
ByBlock
 62
     0
100
AcDbLine
 10
-1.0
 20
0.1666666666666666
 30
0.0
 11
0.0
 21
0.0
 31
0.0
  0
LINE
  5
48
330
45
100
AcDbEntity
  8
0
  6
ByBlock
 62
     0
100
AcDbLine
 10
0.0
 20
0.0
 30
0.0
 11
-1.0
 21
-0.1666666666666666
 31
0.0
  0
LINE
  5
49
330
45
100
AcDbEntity
  8
0
  6
ByBlock
 62
     0
100
AcDbLine
 10
0.0
 20
0.0
 30
0.0
 11
-1.0
 21
0.0
 31
0.0
  0
ENDBLK
  5
4A
330
45
100
AcDbEntity
  8
0
100
AcDbBlockEnd
  0
BLOCK
  5
7DB
330
7DA
100
AcDbEntity
  8
0
100
AcDbBlockBegin
  2
*D1
 70
     1
 10
0.0
 20
0.0
 30
0.0
  3
*D1
  1

  0
LINE
  5
9FC
330
7DA
100
AcDbEntity
  8
外形線
 62
     2
370
    -2
100
AcDbLine
 10
90.31858378625253
 20
154.5079778733072
 30
0.0
 11
52.67367841996419
 21
154.5079778733072
 31
0.0
  0
LINE
  5
9FD
330
7DA
100
AcDbEntity
  8
外形線
 62
     2
370
    -2
100
AcDbLine
 10
61.64891651876655
 20
110.5079778733072
 30
0.0
 11
52.67367841996417
 21
110.5079778733072
 31
0.0
  0
LINE
  5
9FE
330
7DA
100
AcDbEntity
  8
外形線
 62
     2
370
    -2
100
AcDbLine
 10
53.92367841996419
 20
152.0079778733072
 30
0.0
 11
53.92367841996418
 21
113.0079778733072
 31
0.0
  0
INSERT
  5
9FF
330
7DA
100
AcDbEntity
  8
外形線
 62
     2
370
    -2
100
AcDbBlockReference
  2
_OPEN
 10
53.92367841996419
 20
154.5079778733072
 30
0.0
 41
2.5
 42
2.5
 43
2.5
 50
90.0
  0
INSERT
  5
A00
330
7DA
100
AcDbEntity
  8
外形線
 62
     2
370
    -2
100
AcDbBlockReference
  2
_OPEN
 10
53.92367841996417
 20
110.5079778733072
 30
0.0
 41
2.5
 42
2.5
 43
2.5
 50
270.0
  0
MTEXT
  5
A01
330
7DA
100
AcDbEntity
  8
外形線
 62
     6
100
AcDbMText
 10
52.04867841996416
 20
132.5079778733072
 30
0.0
 40
2.5
 41
0.0
 71
     5
 72
     1
  1
\A1;44
  7
STYLE3
 11
0.0000000000000001
 21
1.0
 31
0.0
 73
     1
 44
1.0
  0
POINT
  5
A02
330
7DA
100
AcDbEntity
  8
DEFPOINTS
 62
     0
100
AcDbPoint
 10
90.31858378625253
 20
154.5079778733072
 30
0.0
  0
POINT
  5
A03
330
7DA
100
AcDbEntity
  8
DEFPOINTS
 62
     0
100
AcDbPoint
 10
61.64891651876655
 20
110.5079778733072
 30
0.0
  0
POINT
  5
A04
330
7DA
100
AcDbEntity
  8
DEFPOINTS
 62
     0
100
AcDbPoint
 10
53.92367841996417
 20
110.5079778733072
 30
0.0
  0
ENDBLK
  5
7E5
330
7DA
100
AcDbEntity
  8
0
100
AcDbBlockEnd
  0
BLOCK
  5
7E8
330
7E7
100
AcDbEntity
  8
0
100
AcDbBlockBegin
  2
*D2
 70
     1
 10
0.0
 20
0.0
 30
0.0
  3
*D2
  1

  0
LINE
  5
9F4
330
7E7
100
AcDbEntity
  8
外形線
 62
     2
370
    -2
100
AcDbLine
 10
93.56858378625259
 20
45.50797787330719
 30
0.0
 11
52.67367841996417
 21
45.5079778733072
 31
0.0
  0
LINE
  5
9F5
330
7E7
100
AcDbEntity
  8
外形線
 62
     2
370
    -2
100
AcDbLine
 10
53.92367841996419
 20
108.0079778733072
 30
0.0
 11
53.92367841996418
 21
48.0079778733072
 31
0.0
  0
INSERT
  5
9F6
330
7E7
100
AcDbEntity
  8
外形線
 62
     2
370
    -2
100
AcDbBlockReference
  2
_OPEN
 10
53.92367841996419
 20
110.5079778733072
 30
0.0
 41
2.5
 42
2.5
 43
2.5
 50
90.0
  0
INSERT
  5
9F7
330
7E7
100
AcDbEntity
  8
外形線
 62
     2
370
    -2
100
AcDbBlockReference
  2
_OPEN
 10
53.92367841996417
 20
45.5079778733072
 30
0.0
 41
2.5
 42
2.5
 43
2.5
 50
270.0
  0
MTEXT
  5
9F8
330
7E7
100
AcDbEntity
  8
外形線
 62
     6
100
AcDbMText
 10
52.04867841996417
 20
78.00797787330721
 30
0.0
 40
2.5
 41
0.0
 71
     5
 72
     1
  1
\A1;65
  7
STYLE3
 11
0.0000000000000001
 21
1.0
 31
0.0
 73
     1
 44
1.0
  0
POINT
  5
9F9
330
7E7
100
AcDbEntity
  8
DEFPOINTS
 62
     0
100
AcDbPoint
 10
61.64891651876655
 20
110.5079778733072
 30
0.0
  0
POINT
  5
9FA
330
7E7
100
AcDbEntity
  8
DEFPOINTS
 62
     0
100
AcDbPoint
 10
93.56858378625259
 20
45.50797787330719
 30
0.0
  0
POINT
  5
9FB
330
7E7
100
AcDbEntity
  8
DEFPOINTS
 62
     0
100
AcDbPoint
 10
53.92367841996417
 20
45.5079778733072
 30
0.0
  0
ENDBLK
  5
7F1
330
7E7
100
AcDbEntity
  8
0
100
AcDbBlockEnd
  0
BLOCK
  5
7F4
330
7F3
100
AcDbEntity
  8
0
100
AcDbBlockBegin
  2
*D3
 70
     1
 10
0.0
 20
0.0
 30
0.0
  3
*D3
  1

  0
LINE
  5
9EB
330
7F3
100
AcDbEntity
  8
外形線
 62
     2
370
    -2
100
AcDbLine
 10
52.67367841996417
 20
154.5079778733072
 30
0.0
 11
43.63659465119226
 21
154.5079778733072
 31
0.0
  0
LINE
  5
9EC
330
7F3
100
AcDbEntity
  8
外形線
 62
     2
370
    -2
100
AcDbLine
 10
52.67367841996417
 20
45.50797787330719
 30
0.0
 11
43.63659465119224
 21
45.5079778733072
 31
0.0
  0
LINE
  5
9ED
330
7F3
100
AcDbEntity
  8
外形線
 62
     2
370
    -2
100
AcDbLine
 10
44.88659465119226
 20
152.0079778733072
 30
0.0
 11
44.88659465119225
 21
48.0079778733072
 31
0.0
  0
INSERT
  5
9EE
330
7F3
100
AcDbEntity
  8
外形線
 62
     2
370
    -2
100
AcDbBlockReference
  2
_OPEN
 10
44.88659465119226
 20
154.5079778733072
 30
0.0
 41
2.5
 42
2.5
 43
2.5
 50
90.0
  0
INSERT
  5
9EF
330
7F3
100
AcDbEntity
  8
外形線
 62
     2
370
    -2
100
AcDbBlockReference
  2
_OPEN
 10
44.88659465119224
 20
45.5079778733072
 30
0.0
 41
2.5
 42
2.5
 43
2.5
 50
270.0
  0
MTEXT
  5
9F0
330
7F3
100
AcDbEntity
  8
外形線
 62
     6
100
AcDbMText
 10
43.01159465119224
 20
100.0079778733072
 30
0.0
 40
2.5
 41
0.0
 71
     5
 72
     1
  1
\A1;109
  7
STYLE3
 11
0.0000000000000001
 21
1.0
 31
0.0
 73
     1
 44
1.0
  0
POINT
  5
9F1
330
7F3
100
AcDbEntity
  8
DEFPOINTS
 62
     0
100
AcDbPoint
 10
52.67367841996417
 20
154.5079778733072
 30
0.0
  0
POINT
  5
9F2
330
7F3
100
AcDbEntity
  8
DEFPOINTS
 62
     0
100
AcDbPoint
 10
52.67367841996417
 20
45.50797787330719
 30
0.0
  0
POINT
  5
9F3
330
7F3
100
AcDbEntity
  8
DEFPOINTS
 62
     0
100
AcDbPoint
 10
44.88659465119224
 20
45.5079778733072
 30
0.0
  0
ENDBLK
  5
7FE
330
7F3
100
AcDbEntity
  8
0
100
AcDbBlockEnd
  0
BLOCK
  5
801
330
800
100
AcDbEntity
  8
0
100
AcDbBlockBegin
  2
*D4
 70
     1
 10
0.0
 20
0.0
 30
0.0
  3
*D4
  1

  0
LINE
  5
9E2
330
800
100
AcDbEntity
  8
外形線
 62
     2
370
    -2
100
AcDbLine
 10
158.5702804955145
 20
137.2579778733072
 30
0.0
 11
144.3735040635818
 21
137.2579778733072
 31
0.0
  0
LINE
  5
9E3
330
800
100
AcDbEntity
  8
外形線
 62
     2
370
    -2
100
AcDbLine
 10
158.5702804955145
 20
83.75797787330721
 30
0.0
 11
144.3735040635818
 21
83.75797787330721
 31
0.0
  0
LINE
  5
9E4
330
800
100
AcDbEntity
  8
外形線
 62
     2
370
    -2
100
AcDbLine
 10
145.6235040635817
 20
134.7579778733072
 30
0.0
 11
145.6235040635817
 21
86.25797787330721
 31
0.0
  0
INSERT
  5
9E5
330
800
100
AcDbEntity
  8
外形線
 62
     2
370
    -2
100
AcDbBlockReference
  2
_OPEN
 10
145.6235040635817
 20
137.2579778733072
 30
0.0
 41
2.5
 42
2.5
 43
2.5
 50
90.0
  0
INSERT
  5
9E6
330
800
100
AcDbEntity
  8
外形線
 62
     2
370
    -2
100
AcDbBlockReference
  2
_OPEN
 10
145.6235040635817
 20
83.75797787330721
 30
0.0
 41
2.5
 42
2.5
 43
2.5
 50
270.0
  0
MTEXT
  5
9E7
330
800
100
AcDbEntity
  8
外形線
 62
     6
100
AcDbMText
 10
143.7485040635817
 20
110.5079778733072
 30
0.0
 40
2.5
 41
0.0
 71
     5
 72
     1
  1
\A1;53.5
  7
STYLE3
 11
0.0000000000000001
 21
1.0
 31
0.0
 73
     1
 44
1.0
  0
POINT
  5
9E8
330
800
100
AcDbEntity
  8
DEFPOINTS
 62
     0
100
AcDbPoint
 10
158.5702804955145
 20
137.2579778733072
 30
0.0
  0
POINT
  5
9E9
330
800
100
AcDbEntity
  8
DEFPOINTS
 62
     0
100
AcDbPoint
 10
158.5702804955145
 20
83.75797787330721
 30
0.0
  0
POINT
  5
9EA
330
800
100
AcDbEntity
  8
DEFPOINTS
 62
     0
100
AcDbPoint
 10
145.6235040635817
 20
83.75797787330721
 30
0.0
  0
ENDBLK
  5
80B
330
800
100
AcDbEntity
  8
0
100
AcDbBlockEnd
  0
BLOCK
  5
80E
330
80D
100
AcDbEntity
  8
0
100
AcDbBlockBegin
  2
*D5
 70
     1
 10
0.0
 20
0.0
 30
0.0
  3
*D5
  1

  0
LINE
  5
9DA
330
80D
100
AcDbEntity
  8
外形線
 62
     2
370
    -2
100
AcDbLine
 10
174.0702804955145
 20
45.50797787330719
 30
0.0
 11
144.3735040635818
 21
45.50797787330719
 31
0.0
  0
LINE
  5
9DB
330
80D
100
AcDbEntity
  8
外形線
 62
     2
370
    -2
100
AcDbLine
 10
145.6235040635818
 20
81.25797787330721
 30
0.0
 11
145.6235040635817
 21
48.00797787330719
 31
0.0
  0
INSERT
  5
9DC
330
80D
100
AcDbEntity
  8
外形線
 62
     2
370
    -2
100
AcDbBlockReference
  2
_OPEN
 10
145.6235040635818
 20
83.75797787330721
 30
0.0
 41
2.5
 42
2.5
 43
2.5
 50
90.0
  0
INSERT
  5
9DD
330
80D
100
AcDbEntity
  8
外形線
 62
     2
370
    -2
100
AcDbBlockReference
  2
_OPEN
 10
145.6235040635817
 20
45.50797787330719
 30
0.0
 41
2.5
 42
2.5
 43
2.5
 50
270.0
  0
MTEXT
  5
9DE
330
80D
100
AcDbEntity
  8
外形線
 62
     6
100
AcDbMText
 10
143.7485040635817
 20
64.63297787330723
 30
0.0
 40
2.5
 41
0.0
 71
     5
 72
     1
  1
\A1;38.25
  7
STYLE3
 11
0.0000000000000001
 21
1.0
 31
0.0
 73
     1
 44
1.0
  0
POINT
  5
9DF
330
80D
100
AcDbEntity
  8
DEFPOINTS
 62
     0
100
AcDbPoint
 10
158.5702804955145
 20
83.75797787330721
 30
0.0
  0
POINT
  5
9E0
330
80D
100
AcDbEntity
  8
DEFPOINTS
 62
     0
100
AcDbPoint
 10
174.0702804955145
 20
45.50797787330719
 30
0.0
  0
POINT
  5
9E1
330
80D
100
AcDbEntity
  8
DEFPOINTS
 62
     0
100
AcDbPoint
 10
145.6235040635817
 20
45.50797787330719
 30
0.0
  0
ENDBLK
  5
817
330
80D
100
AcDbEntity
  8
0
100
AcDbBlockEnd
  0
BLOCK
  5
826
330
819
100
AcDbEntity
  8
0
100
AcDbBlockBegin
  2
*D6
 70
     1
 10
0.0
 20
0.0
 30
0.0
  3
*D6
  1

  0
LINE
  5
9D1
330
819
100
AcDbEntity
  8
外形線
 62
     2
370
    -2
100
AcDbLine
 10
154.9150222216749
 20
83.75797787330721
 30
0.0
 11
152.184861166638
 21
83.75797787330721
 31
0.0
  0
LINE
  5
9D2
330
819
100
AcDbEntity
  8
外形線
 62
     2
370
    -2
100
AcDbLine
 10
171.0202804955147
 20
65.50797787330719
 30
0.0
 11
152.184861166638
 21
65.50797787330721
 31
0.0
  0
LINE
  5
9D3
330
819
100
AcDbEntity
  8
外形線
 62
     2
370
    -2
100
AcDbLine
 10
153.434861166638
 20
81.25797787330721
 30
0.0
 11
153.434861166638
 21
68.00797787330721
 31
0.0
  0
INSERT
  5
9D4
330
819
100
AcDbEntity
  8
外形線
 62
     2
370
    -2
100
AcDbBlockReference
  2
_OPEN
 10
153.434861166638
 20
83.75797787330721
 30
0.0
 41
2.5
 42
2.5
 43
2.5
 50
90.0
  0
INSERT
  5
9D5
330
819
100
AcDbEntity
  8
外形線
 62
     2
370
    -2
100
AcDbBlockReference
  2
_OPEN
 10
153.434861166638
 20
65.50797787330721
 30
0.0
 41
2.5
 42
2.5
 43
2.5
 50
270.0
  0
MTEXT
  5
9D6
330
819
100
AcDbEntity
  8
外形線
 62
     6
100
AcDbMText
 10
151.559861166638
 20
74.63297787330721
 30
0.0
 40
2.5
 41
0.0
 71
     5
 72
     1
  1
\A1;18.25
  7
STYLE3
 11
0.0000000000000001
 21
1.0
 31
0.0
 73
     1
 44
1.0
  0
POINT
  5
9D7
330
819
100
AcDbEntity
  8
DEFPOINTS
 62
     0
100
AcDbPoint
 10
154.9150222216749
 20
83.75797787330721
 30
0.0
  0
POINT
  5
9D8
330
819
100
AcDbEntity
  8
DEFPOINTS
 62
     0
100
AcDbPoint
 10
171.0202804955147
 20
65.50797787330719
 30
0.0
  0
POINT
  5
9D9
330
819
100
AcDbEntity
  8
DEFPOINTS
 62
     0
100
AcDbPoint
 10
153.434861166638
 20
65.50797787330721
 30
0.0
  0
ENDBLK
  5
830
330
819
100
AcDbEntity
  8
0
100
AcDbBlockEnd
  0
BLOCK
  5
832
330
831
100
AcDbEntity
  8
0
100
AcDbBlockBegin
  2
*D7
 70
     1
 10
0.0
 20
0.0
 30
0.0
  3
*D7
  1

  0
LINE
  5
9C9
330
831
100
AcDbEntity
  8
外形線
 62
     2
370
    -2
100
AcDbLine
 10
161.4700209557467
 20
45.50797787330719
 30
0.0
 11
152.184861166638
 21
45.50797787330719
 31
0.0
  0
LINE
  5
9CA
330
831
100
AcDbEntity
  8
外形線
 62
     2
370
    -2
100
AcDbLine
 10
153.434861166638
 20
63.0079778733072
 30
0.0
 11
153.434861166638
 21
48.00797787330719
 31
0.0
  0
INSERT
  5
9CB
330
831
100
AcDbEntity
  8
外形線
 62
     2
370
    -2
100
AcDbBlockReference
  2
_OPEN
 10
153.434861166638
 20
65.50797787330721
 30
0.0
 41
2.5
 42
2.5
 43
2.5
 50
90.0
  0
INSERT
  5
9CC
330
831
100
AcDbEntity
  8
外形線
 62
     2
370
    -2
100
AcDbBlockReference
  2
_OPEN
 10
153.434861166638
 20
45.50797787330719
 30
0.0
 41
2.5
 42
2.5
 43
2.5
 50
270.0
  0
MTEXT
  5
9CD
330
831
100
AcDbEntity
  8
外形線
 62
     6
100
AcDbMText
 10
151.559861166638
 20
55.50797787330723
 30
0.0
 40
2.5
 41
0.0
 71
     5
 72
     1
  1
\A1;20
  7
STYLE3
 11
0.0000000000000001
 21
1.0
 31
0.0
 73
     1
 44
1.0
  0
POINT
  5
9CE
330
831
100
AcDbEntity
  8
DEFPOINTS
 62
     0
100
AcDbPoint
 10
171.0202804955147
 20
65.50797787330719
 30
0.0
  0
POINT
  5
9CF
330
831
100
AcDbEntity
  8
DEFPOINTS
 62
     0
100
AcDbPoint
 10
161.4700209557467
 20
45.50797787330719
 30
0.0
  0
POINT
  5
9D0
330
831
100
AcDbEntity
  8
DEFPOINTS
 62
     0
100
AcDbPoint
 10
153.434861166638
 20
45.50797787330719
 30
0.0
  0
ENDBLK
  5
83B
330
831
100
AcDbEntity
  8
0
100
AcDbBlockEnd
  0
BLOCK
  5
84A
330
83D
100
AcDbEntity
  8
0
100
AcDbBlockBegin
  2
*D8
 70
     1
 10
0.0
 20
0.0
 30
0.0
  3
*D8
  1

  0
LINE
  5
9BF
330
83D
100
AcDbEntity
  8
外形線
 62
     2
370
    -2
100
AcDbLine
 10
89.56858378625282
 20
75.4802136112703
 30
0.0
 11
89.56858378625282
 21
73.99125141229245
 31
0.0
  0
LINE
  5
9C0
330
83D
100
AcDbEntity
  8
外形線
 62
     2
370
    -2
100
AcDbLine
 10
97.56858378625281
 20
75.36073251178141
 30
0.0
 11
97.56858378625281
 21
73.99125141229245
 31
0.0
  0
LINE
  5
9C1
330
83D
100
AcDbEntity
  8
外形線
 62
     2
370
    -2
100
AcDbLine
 10
92.06858378625282
 20
75.24125141229245
 30
0.0
 11
95.06858378625281
 21
75.24125141229245
 31
0.0
  0
LINE
  5
9C2
330
83D
100
AcDbEntity
  8
外形線
 62
     2
370
    -2
100
AcDbLine
 10
97.56858378625281
 20
75.24125141229245
 30
0.0
 11
109.4138218814909
 21
75.24125141229245
 31
0.0
  0
INSERT
  5
9C3
330
83D
100
AcDbEntity
  8
外形線
 62
     2
370
    -2
100
AcDbBlockReference
  2
_OPEN
 10
89.56858378625282
 20
75.24125141229245
 30
0.0
 41
2.5
 42
2.5
 43
2.5
 50
180.0
  0
INSERT
  5
9C4
330
83D
100
AcDbEntity
  8
外形線
 62
     2
370
    -2
100
AcDbBlockReference
  2
_OPEN
 10
97.56858378625281
 20
75.24125141229245
 30
0.0
 41
2.5
 42
2.5
 43
2.5
  0
MTEXT
  5
9C5
330
83D
100
AcDbEntity
  8
外形線
 62
     6
100
AcDbMText
 10
104.7412028338718
 20
77.11625141229245
 30
0.0
 40
2.5
 41
0.0
 71
     5
 72
     1
  1
\A1;φ8.0
  7
STYLE3
 73
     1
 44
1.0
  0
POINT
  5
9C6
330
83D
100
AcDbEntity
  8
DEFPOINTS
 62
     0
100
AcDbPoint
 10
89.56858378625282
 20
75.4802136112703
 30
0.0
  0
POINT
  5
9C7
330
83D
100
AcDbEntity
  8
DEFPOINTS
 62
     0
100
AcDbPoint
 10
97.56858378625281
 20
75.36073251178141
 30
0.0
  0
POINT
  5
9C8
330
83D
100
AcDbEntity
  8
DEFPOINTS
 62
     0
100
AcDbPoint
 10
97.56858378625281
 20
75.24125141229245
 30
0.0
  0
ENDBLK
  5
855
330
83D
100
AcDbEntity
  8
0
100
AcDbBlockEnd
  0
BLOCK
  5
8AE
330
85B
100
AcDbEntity
  8
0
100
AcDbBlockBegin
  2
ROGO
 70
     0
 10
0.0
 20
0.0
 30
0.0
  3
ROGO
  1

  0
HATCH
  5
85C
330
85B
100
AcDbEntity
  8
ROGO
 62
     4
100
AcDbHatch
 10
0.0
 20
0.0
 30
0.0
210
0.0
220
0.0
230
1.0
  2
SOLID
 70
     1
 71
     1
 91
        1
 92
        7
 72
     0
 73
     1
 93
       11
 10
38.38165352405156
 20
4.949786840425588
 10
36.55777800832078
 20
4.949786840425588
 10
35.70378540756275
 20
4.409370842614521
 10
35.97325427788326
 20
4.949786840425588
 10
34.14933885635003
 20
4.949786840425645
 10
31.68121527448045
 20
0.0
 10
33.50513069601385
 20
0.0
 10
34.14933885635003
 20
1.291950329371957
 10
34.79354701668632
 20
0.0
 10
36.61742253241704
 20
0.0
 10
35.38336074148237
 20
2.474893420212765
 97
       11
330
8AA
330
8AD
330
8AC
330
8AB
330
861
330
85E
330
8A7
330
8A6
330
8A8
330
8A5
330
8A9
 75
     0
 76
     1
 47
0.0514683685270805
 98
        1
 10
33.99236623130548
 20
2.826231829978155
450
        0
451
        0
460
0.0
461
0.0
452
        0
462
0.0
453
        0
470

  0
HATCH
  5
85D
330
85B
100
AcDbEntity
  8
ROGO
 62
     4
100
AcDbHatch
 10
0.0
 20
0.0
 30
0.0
210
0.0
220
0.0
230
1.0
  2
SOLID
 70
     1
 71
     1
 91
        1
 92
        5
 93
        8
 72
     1
 10
33.48588559853425
 20
4.949786840425645
 11
30.31359802057352
 21
4.949786840425645
 72
     4
 94
        3
 73
     0
 74
     0
 95
       26
 96
       22
 40
0.0
 40
0.0
 40
0.0
 40
0.0
 40
0.7089867102952115
 40
1.183598414482279
 40
1.525832104103439
 40
1.781366926528389
 40
2.112809002752968
 40
2.354729406992515
 40
2.791581270399936
 40
3.147172406765291
 40
3.389031356825354
 40
3.626186440486682
 40
4.050410779375985
 40
4.350388020238963
 40
4.511948940797758
 40
4.741441456013356
 40
4.907163150576407
 40
5.147239172635527
 40
5.28310143501293
 40
5.578752957634333
 40
5.713750011164293
 40
5.713750011164293
 40
5.713750011164293
 40
5.713750011164293
 10
30.31359802057318
 20
4.949786840425645
 10
30.11854899911117
 20
4.938149881331241
 10
29.7929297608427
 20
4.91872287919773
 10
29.43540181805798
 20
4.70152849352172
 10
29.17345591634097
 20
4.575261222274434
 10
28.98663641691252
 20
4.403611624277345
 10
28.84969696652098
 20
4.226310128312206
 10
28.67705908163674
 20
4.015056695877603
 10
28.53627781964582
 20
3.769060622409767
 10
28.46458648155834
 20
3.497930064177694
 10
28.40108297470425
 20
3.28183743611737
 10
28.35398771091377
 20
3.041030402807223
 10
28.36597007927202
 20
2.780874095348053
 10
28.38312937914947
 20
2.539254235598093
 10
28.45974148051295
 20
2.366773831190926
 10
28.5469890936244
 20
2.243979668736869
 10
28.65382260102928
 20
2.108735512341411
 10
28.77072182070049
 20
2.019163745498303
 10
28.86740701734601
 20
1.85689847078413
 10
29.03665119246222
 20
1.836192251465718
 10
29.14422952328943
 20
1.794980695042454
 10
29.17795251342483
 20
1.782061951090668
 72
     1
 10
29.1779525134246
 20
1.782061951090668
 11
31.90635566072177
 21
1.782061951090724
 72
     1
 10
31.90635566072177
 20
1.782061951090668
 11
32.49403698331935
 21
2.960648509043437
 72
     1
 10
32.49403698331941
 20
2.960648509043437
 11
30.46845823186379
 21
2.960648509043437
 72
     4
 94
        3
 73
     0
 74
     0
 95
       16
 96
       12
 40
0.0
 40
0.0
 40
0.0
 40
0.0
 40
0.2141121027475241
 40
0.4304326162973471
 40
0.5594580803306056
 40
0.6831669452691567
 40
0.8190286678446897
 40
0.9139043619204622
 40
1.003933161420314
 40
1.186498641432482
 40
1.560280494298353
 40
1.560280494298353
 40
1.560280494298353
 40
1.560280494298353
 10
30.46845823186391
 20
2.960648509043437
 10
30.40735963846879
 20
2.978624611086559
 10
30.2845322640714
 20
3.014762225606943
 10
30.27425260468789
 20
3.189944104912854
 10
30.28825715338957
 20
3.314775529002304
 10
30.34690823463126
 20
3.405660095425673
 10
30.41806216907168
 20
3.471790575521367
 10
30.44455593462857
 20
3.557915185941965
 10
30.52243194464864
 20
3.622950041937542
 10
30.66052697686496
 20
3.732264550099898
 10
30.81323617682881
 20
3.755546097864453
 10
30.9158338246271
 20
3.771187801431096
 72
     1
 10
30.91583382462705
 20
3.77118780143121
 11
32.89819805248612
 21
3.77118780143121
 72
     1
 10
32.89819805248612
 20
3.77118780143121
 11
33.48588559853425
 21
4.949786840425701
 97
        8
330
85F
330
883
330
88F
330
888
330
8A3
330
8A2
330
8A4
330
860
 75
     0
 76
     1
 47
0.0514683685270805
 98
        1
 10
30.86099532083267
 20
4.369765638819899
450
        0
451
        0
460
0.0
461
0.0
452
        0
462
0.0
453
        0
470

  0
LINE
  5
85E
102
{ACAD_REACTORS
330
862
330
85C
330
867
102
}
330
85B
100
AcDbEntity
  8
ROGO
 62
     4
100
AcDbLine
 10
0.0000000000000568
 20
0.0
 30
0.0
 11
33.50513069601385
 21
0.0
 31
0.0
  0
LINE
  5
85F
102
{ACAD_REACTORS
330
85D
102
}
330
85B
100
AcDbEntity
  8
ROGO
 62
     4
100
AcDbLine
 10
30.31359802057415
 20
4.949786840425645
 30
0.0
 11
33.48588559853425
 21
4.949786840425645
 31
0.0
  0
LINE
  5
860
102
{ACAD_REACTORS
330
85D
102
}
330
85B
100
AcDbEntity
  8
ROGO
 62
     4
100
AcDbLine
 10
33.48588559853425
 20
4.949786840425645
 30
0.0
 11
32.89819805248607
 21
3.77118780143121
 31
0.0
  0
LINE
  5
861
102
{ACAD_REACTORS
330
862
330
85C
102
}
330
85B
100
AcDbEntity
  8
ROGO
 62
     4
100
AcDbLine
 10
34.14933885635003
 20
4.949786840425645
 30
0.0
 11
31.6812152744804
 21
0.0
 31
0.0
  0
HATCH
  5
862
330
85B
100
AcDbEntity
  8
ROGO
 62
     4
100
AcDbHatch
 10
0.0
 20
0.0
 30
0.0
210
0.0
220
0.0
230
1.0
  2
SOLID
 70
     1
 71
     1
 91
        1
 92
        7
 72
     0
 73
     1
 93
        4
 10
31.9286078056424
 20
0.4961422127159381
 10
2.525341286638024
 20
0.4961422127159381
 10
2.30087247590319
 20
-0.0000000000000568
 10
31.68121527448045
 20
-0.0000000000000568
 97
        4
330
866
330
870
330
85E
330
861
 75
     0
 76
     1
 47
0.0514683685270805
 98
        1
 10
21.09111831761885
 20
0.3649205710345882
450
        0
451
        0
460
0.0
461
0.0
452
        0
462
0.0
453
        0
470

  0
HATCH
  5
863
330
85B
100
AcDbEntity
  8
ROGO
 62
     4
100
AcDbHatch
 10
0.0
 20
0.0
 30
0.0
210
0.0
220
0.0
230
1.0
  2
SOLID
 70
     1
 71
     1
 91
        2
 92
        7
 72
     0
 73
     1
 93
        8
 10
15.99342784516449
 20
4.949786840425645
 10
14.16260675403379
 20
4.949786840425645
 10
11.87829877231911
 20
1.782061951090668
 10
13.63265136986962
 20
1.782061951090668
 10
14.06756947612285
 20
2.38517717067981
 10
16.08846512307536
 20
2.385177170679696
 10
16.52338322932866
 20
1.782061951090668
 10
18.27773582687916
 20
1.782061951090668
 97
        8
330
865
330
86D
330
872
330
86E
330
864
330
886
330
88C
330
885
 92
       22
 72
     0
 73
     1
 93
        3
 10
15.62974388152605
 20
3.021300979620718
 10
14.52629071767222
 20
3.021300979620718
 10
15.07801729959914
 20
3.786398348131172
 97
        3
330
891
330
890
330
892
 75
     0
 76
     1
 47
0.0514683685270805
 98
        2
 10
16.20617981601185
 20
3.326837253266262
 10
16.20617981601185
 20
3.326837253266262
450
        0
451
        0
460
0.0
461
0.0
452
        0
462
0.0
453
        0
470

  0
LINE
  5
864
102
{ACAD_REACTORS
330
863
102
}
330
85B
100
AcDbEntity
  8
ROGO
 62
     4
100
AcDbLine
 10
14.06756947612285
 20
2.385177170679753
 30
0.0
 11
16.08846512307542
 21
2.385177170679753
 31
0.0
  0
LINE
  5
865
102
{ACAD_REACTORS
330
863
102
}
330
85B
100
AcDbEntity
  8
ROGO
 62
     4
100
AcDbLine
 10
14.16260675403379
 20
4.949786840425645
 30
0.0
 11
15.99342784516443
 21
4.949786840425645
 31
0.0
  0
LINE
  5
866
102
{ACAD_REACTORS
330
862
102
}
330
85B
100
AcDbEntity
  8
ROGO
 62
     4
100
AcDbLine
 10
2.490933298034235
 20
0.4961422127159381
 30
0.0
 11
31.92860780564246
 21
0.4961422127159381
 31
0.0
  0
HATCH
  5
867
330
85B
100
AcDbEntity
  8
ROGO
 62
     4
100
AcDbHatch
 10
0.0
 20
0.0
 30
0.0
210
0.0
220
0.0
230
1.0
  2
SOLID
 70
     1
 71
     1
 91
        2
 92
        5
 93
        6
 72
     4
 94
        3
 73
     0
 74
     0
 95
       18
 96
       14
 40
0.108740278791501
 40
0.108740278791501
 40
0.108740278791501
 40
0.108740278791501
 40
0.6623149649549278
 40
1.384304701649787
 40
2.097394834876493
 40
2.774073369849618
 40
3.428974823686337
 40
4.005208313035923
 40
4.455173659284313
 40
4.720999734343524
 40
5.086034088486724
 40
5.569973738255373
 40
6.060470601257719
 40
6.060470601257719
 40
6.060470601257719
 40
6.060470601257719
 10
5.257971706506339
 20
1.782061951090668
 10
5.409344543521854
 20
1.783189178773909
 10
5.758142655701249
 20
1.785786572703102
 10
6.246108485316483
 20
2.046468641233957
 10
6.708839512865949
 20
2.378558603499755
 10
7.081537876611037
 20
2.793470364329778
 10
7.313740186156906
 20
3.267850878540173
 10
7.349707589953482
 20
3.722501028309523
 10
7.327750373593119
 20
4.082123644518105
 10
7.170855034099304
 20
4.33278953599904
 10
7.007743182975218
 20
4.587189781908875
 10
6.708651203549891
 20
4.807560723981168
 10
6.463588634008544
 20
4.904115955004613
 10
6.338969333173452
 20
4.949786840425758
 72
     1
 10
6.338969333173679
 20
4.949786840425645
 11
2.449108495127859
 21
4.949786840425645
 72
     1
 10
2.449108495127859
 20
4.949786840425645
 11
0.0
 21
-0.0000000000000568
 72
     1
 10
-0.0000000000000568
 20
0.0
 11
2.300872475903247
 21
0.0
 72
     1
 10
2.300872475903304
 20
0.0
 11
3.107127853020472
 21
1.782061951090724
 72
     1
 10
3.107127853020472
 20
1.782061951090668
 11
5.257971706506168
 21
1.782061951090668
 97
        6
330
869
330
873
330
86A
330
85E
330
870
330
86F
 92
       20
 93
        4
 72
     1
 10
3.604944905315051
 20
2.882384321244217
 11
3.98608604239348
 21
3.724818539558043
 72
     1
 10
3.98608604239348
 20
3.724818539557986
 11
4.965456325034381
 21
3.724818539557986
 72
     4
 94
        3
 73
     0
 74
     0
 95
       15
 96
       11
 40
0.0
 40
0.0
 40
0.0
 40
0.0
 40
0.458245544397197
 40
0.6671803073175111
 40
0.9043351724393449
 40
1.065896092998139
 40
1.321406364485703
 40
1.474450037341961
 40
1.737022829061231
 40
1.824547148828933
 40
1.824547148828933
 40
1.824547148828933
 40
1.824547148828933
 10
4.965456325033528
 20
3.724818539557986
 10
5.104956735089615
 20
3.72545752589923
 10
5.308061659054601
 20
3.726387854865265
 10
5.419126665259284
 20
3.475146476562713
 10
5.369342033880457
 20
3.313386222112512
 10
5.306758694724408
 20
3.147308857819552
 10
5.196159760245848
 20
3.034456783979635
 10
5.047719790425048
 20
2.925761212639713
 10
4.907436925306626
 20
2.912603127013085
 10
4.816198668830168
 20
2.888428084712359
 10
4.793389093792598
 20
2.88238432124416
 72
     1
 10
4.793389093792541
 20
2.882384321244217
 11
3.604944905315051
 21
2.882384321244217
 97
        4
330
876
330
874
330
878
330
875
 75
     0
 76
     1
 47
0.0514683685270805
 98
        2
 10
2.469899197802817
 20
3.410271770727717
 10
2.469899197802817
 20
3.410271770727717
450
        0
451
        0
460
0.0
461
0.0
452
        0
462
0.0
453
        0
470

  0
HATCH
  5
868
330
85B
100
AcDbEntity
  8
ROGO
 62
     4
100
AcDbHatch
 10
0.0
 20
0.0
 30
0.0
210
0.0
220
0.0
230
1.0
  2
SOLID
 70
     1
 71
     1
 91
        1
 92
        1
 93
       12
 72
     1
 10
8.637002599138838
 20
4.949786840425645
 11
12.92148229673961
 21
4.949786840425701
 72
     1
 10
12.92148229673961
 20
4.949786840425645
 11
12.56244669050807
 21
4.224155565819216
 72
     1
 10
12.56244669050812
 20
4.224155565819273
 11
10.31063242784853
 21
4.224155565819273
 72
     1
 10
10.31063242784847
 20
4.224155565819273
 11
10.02991119959222
 21
3.656802080167153
 72
     1
 10
10.02991119959228
 20
3.656802080167153
 11
12.28172546225187
 21
3.656802080167153
 72
     1
 10
12.28172546225181
 20
3.656802080167153
 11
11.99387214064069
 21
3.075034230307551
 72
     1
 10
11.99387214064069
 20
3.075034230307551
 11
9.742057877981153
 21
3.075034230307494
 72
     1
 10
9.742057877981153
 20
3.075034230307551
 11
9.461324765337508
 21
2.507656725636252
 72
     1
 10
9.461324765337565
 20
2.507656725636138
 11
11.71313902799716
 21
2.507656725636138
 72
     1
 10
11.71313902799716
 20
2.507656725636138
 11
11.3541214816563
 21
1.782061951090668
 72
     1
 10
11.35412148165636
 20
1.782061951090668
 11
7.06964178405559
 21
1.782061951090668
 72
     1
 10
7.06964178405559
 20
1.782061951090668
 11
8.637002599138838
 21
4.949786840425645
 97
       12
330
877
330
879
330
87B
330
87A
330
87C
330
87F
330
87E
330
880
330
87D
330
86C
330
871
330
86B
 75
     0
 76
     1
 98
        1
 10
-166.6183073243049
 20
-214.0842147101267
450
        0
451
        0
460
0.0
461
0.0
452
        0
462
0.0
453
        0
470

  0
SPLINE
  5
869
102
{ACAD_REACTORS
330
867
102
}
330
85B
100
AcDbEntity
  8
ROGO
 62
     4
100
AcDbSpline
210
0.0
220
0.0
230
1.0
 70
     8
 71
     3
 72
    18
 73
    14
 74
     0
 42
0.0000000001
 43
0.0000000001
 40
0.1087402787915014
 40
0.1087402787915014
 40
0.1087402787915014
 40
0.1087402787915014
 40
0.5992371417938475
 40
1.083176791562496
 40
1.448211145705696
 40
1.714037220764907
 40
2.164002567013297
 40
2.740236056362883
 40
3.395137510199602
 40
4.071816045172726
 40
4.784906178399433
 40
5.506895915094292
 40
6.060470601257719
 40
6.060470601257719
 40
6.060470601257719
 40
6.060470601257719
 10
6.338969333173452
 20
4.949786840425758
 30
0.0
 10
6.463588634008544
 20
4.904115955004613
 30
0.0
 10
6.708651203549891
 20
4.807560723981168
 30
0.0
 10
7.007743182975218
 20
4.587189781908875
 30
0.0
 10
7.170855034099304
 20
4.33278953599904
 30
0.0
 10
7.327750373593119
 20
4.082123644518105
 30
0.0
 10
7.349707589953482
 20
3.722501028309523
 30
0.0
 10
7.313740186156906
 20
3.267850878540173
 30
0.0
 10
7.081537876611037
 20
2.793470364329778
 30
0.0
 10
6.708839512865949
 20
2.378558603499755
 30
0.0
 10
6.246108485316483
 20
2.046468641233957
 30
0.0
 10
5.758142655701249
 20
1.785786572703102
 30
0.0
 10
5.409344543521854
 20
1.783189178773909
 30
0.0
 10
5.257971706506339
 20
1.782061951090668
 30
0.0
  0
LINE
  5
86A
102
{ACAD_REACTORS
330
867
102
}
330
85B
100
AcDbEntity
  8
ROGO
 62
     4
100
AcDbLine
 10
2.449108495127859
 20
4.949786840425645
 30
0.0
 11
0.0
 21
0.0
 31
0.0
  0
LINE
  5
86B
102
{ACAD_REACTORS
330
868
102
}
330
85B
100
AcDbEntity
  8
ROGO
 62
     4
100
AcDbLine
 10
8.637002599138952
 20
4.949786840425645
 30
0.0
 11
7.06964178405559
 21
1.782061951090668
 31
0.0
  0
LINE
  5
86C
102
{ACAD_REACTORS
330
868
102
}
330
85B
100
AcDbEntity
  8
ROGO
 62
     4
100
AcDbLine
 10
11.71313902799716
 20
2.507656725636195
 30
0.0
 11
11.35412148165636
 21
1.782061951090668
 31
0.0
  0
LINE
  5
86D
102
{ACAD_REACTORS
330
863
102
}
330
85B
100
AcDbEntity
  8
ROGO
 62
     4
100
AcDbLine
 10
14.16260675403384
 20
4.949786840425645
 30
0.0
 11
11.87829877231911
 21
1.782061951090668
 31
0.0
  0
LINE
  5
86E
102
{ACAD_REACTORS
330
863
102
}
330
85B
100
AcDbEntity
  8
ROGO
 62
     4
100
AcDbLine
 10
14.06756947612285
 20
2.385177170679753
 30
0.0
 11
13.63265136986962
 21
1.782061951090781
 31
0.0
  0
LINE
  5
86F
102
{ACAD_REACTORS
330
867
102
}
330
85B
100
AcDbEntity
  8
ROGO
 62
     4
100
AcDbLine
 10
5.257971707251897
 20
1.782061951090668
 30
0.0
 11
3.107127853020358
 21
1.782061951090668
 31
0.0
  0
LINE
  5
870
102
{ACAD_REACTORS
330
862
330
867
102
}
330
85B
100
AcDbEntity
  8
ROGO
 62
     4
100
AcDbLine
 10
3.107127853020472
 20
1.782061951090668
 30
0.0
 11
2.300872475903304
 21
0.0
 31
0.0
  0
LINE
  5
871
102
{ACAD_REACTORS
330
868
102
}
330
85B
100
AcDbEntity
  8
ROGO
 62
     4
100
AcDbLine
 10
7.06964178405559
 20
1.782061951090668
 30
0.0
 11
11.35412148165636
 21
1.782061951090668
 31
0.0
  0
LINE
  5
872
102
{ACAD_REACTORS
330
863
102
}
330
85B
100
AcDbEntity
  8
ROGO
 62
     4
100
AcDbLine
 10
11.87829877231917
 20
1.782061951090668
 30
0.0
 11
13.63265136986962
 21
1.782061951090668
 31
0.0
  0
LINE
  5
873
102
{ACAD_REACTORS
330
867
102
}
330
85B
100
AcDbEntity
  8
ROGO
 62
     4
100
AcDbLine
 10
2.449108495127859
 20
4.949786840425645
 30
0.0
 11
6.338969333173452
 21
4.949786840425645
 31
0.0
  0
LINE
  5
874
102
{ACAD_REACTORS
330
867
102
}
330
85B
100
AcDbEntity
  8
ROGO
 62
     4
100
AcDbLine
 10
4.965456325033528
 20
3.724818539557986
 30
0.0
 11
3.986086042393537
 21
3.724818539557986
 31
0.0
  0
LINE
  5
875
102
{ACAD_REACTORS
330
867
102
}
330
85B
100
AcDbEntity
  8
ROGO
 62
     4
100
AcDbLine
 10
4.793389093792598
 20
2.88238432124416
 30
0.0
 11
3.604944905315107
 21
2.882384321244217
 31
0.0
  0
LINE
  5
876
102
{ACAD_REACTORS
330
867
102
}
330
85B
100
AcDbEntity
  8
ROGO
 62
     4
100
AcDbLine
 10
3.986086042393537
 20
3.724818539557986
 30
0.0
 11
3.604944905315051
 21
2.882384321244217
 31
0.0
  0
LINE
  5
877
102
{ACAD_REACTORS
330
868
102
}
330
85B
100
AcDbEntity
  8
ROGO
 62
     4
100
AcDbLine
 10
8.637002599138838
 20
4.949786840425645
 30
0.0
 11
12.92148229673961
 21
4.949786840425758
 31
0.0
  0
SPLINE
  5
878
102
{ACAD_REACTORS
330
867
102
}
330
85B
100
AcDbEntity
  8
ROGO
 62
     4
100
AcDbSpline
210
0.0
220
0.0
230
1.0
 70
     8
 71
     3
 72
    15
 73
    11
 74
     9
 42
0.0000000001
 43
0.0000000001
 44
0.0000000001
 40
0.0
 40
0.0
 40
0.0
 40
0.0
 40
0.3714260192954959
 40
0.5407758541881006
 40
0.7329991907503102
 40
0.8639506649775173
 40
1.071051779626874
 40
1.195099689928134
 40
1.407925254728536
 40
1.478867154939799
 40
1.478867154939799
 40
1.478867154939799
 40
1.478867154939799
 10
4.965456325033528
 20
3.724818539557986
 30
0.0
 10
5.104956735089532
 20
3.725457525899206
 30
0.0
 10
5.308061659054509
 20
3.726387854865235
 30
0.0
 10
5.419126665259303
 20
3.475146476562761
 30
0.0
 10
5.369342033880415
 20
3.31338622211255
 30
0.0
 10
5.306758694724477
 20
3.147308857819524
 30
0.0
 10
5.19615976024584
 20
3.034456783979611
 30
0.0
 10
5.047719790425087
 20
2.925761212639771
 30
0.0
 10
4.907436925306584
 20
2.912603127013052
 30
0.0
 10
4.816198668830153
 20
2.888428084712352
 30
0.0
 10
4.793389093792598
 20
2.88238432124416
 30
0.0
 11
4.965456325033528
 21
3.724818539557986
 31
0.0
 11
5.326797807465993
 21
3.63885563544693
 31
0.0
 11
5.395624897846573
 21
3.484122968540759
 31
0.0
 11
5.361211847366689
 21
3.295005139989939
 31
0.0
 11
5.309591776936599
 21
3.174657074234517
 31
0.0
 11
5.171937596175325
 21
3.019924407328176
 31
0.0
 11
5.068697455314975
 21
2.951154084039387
 31
0.0
 11
4.862216184173178
 21
2.899576902066371
 31
0.0
 11
4.793389093792598
 21
2.88238432124416
 31
0.0
  0
LINE
  5
879
102
{ACAD_REACTORS
330
868
102
}
330
85B
100
AcDbEntity
  8
ROGO
 62
     4
100
AcDbLine
 10
12.92148229673961
 20
4.949786840425645
 30
0.0
 11
12.56244669050807
 21
4.224155565819273
 31
0.0
  0
LINE
  5
87A
102
{ACAD_REACTORS
330
868
102
}
330
85B
100
AcDbEntity
  8
ROGO
 62
     4
100
AcDbLine
 10
10.31063242784847
 20
4.224155565819273
 30
0.0
 11
10.02991119959222
 21
3.656802080167153
 31
0.0
  0
LINE
  5
87B
102
{ACAD_REACTORS
330
868
102
}
330
85B
100
AcDbEntity
  8
ROGO
 62
     4
100
AcDbLine
 10
10.31063242784847
 20
4.224155565819273
 30
0.0
 11
12.56244669050807
 21
4.224155565819273
 31
0.0
  0
LINE
  5
87C
102
{ACAD_REACTORS
330
868
102
}
330
85B
100
AcDbEntity
  8
ROGO
 62
     4
100
AcDbLine
 10
10.02991119959222
 20
3.656802080167153
 30
0.0
 11
12.28172546225187
 21
3.656802080167153
 31
0.0
  0
LINE
  5
87D
102
{ACAD_REACTORS
330
868
102
}
330
85B
100
AcDbEntity
  8
ROGO
 62
     4
100
AcDbLine
 10
9.461324765337565
 20
2.507656725636195
 30
0.0
 11
11.71313902799716
 21
2.507656725636195
 31
0.0
  0
LINE
  5
87E
102
{ACAD_REACTORS
330
868
102
}
330
85B
100
AcDbEntity
  8
ROGO
 62
     4
100
AcDbLine
 10
9.742057877981153
 20
3.075034230307551
 30
0.0
 11
11.99387214064069
 21
3.075034230307608
 31
0.0
  0
LINE
  5
87F
102
{ACAD_REACTORS
330
868
102
}
330
85B
100
AcDbEntity
  8
ROGO
 62
     4
100
AcDbLine
 10
12.28172546225187
 20
3.656802080167153
 30
0.0
 11
11.99387214064069
 21
3.075034230307551
 31
0.0
  0
LINE
  5
880
102
{ACAD_REACTORS
330
868
102
}
330
85B
100
AcDbEntity
  8
ROGO
 62
     4
100
AcDbLine
 10
9.742057877981153
 20
3.075034230307551
 30
0.0
 11
9.461324765337508
 21
2.507656725636195
 31
0.0
  0
HATCH
  5
881
330
85B
100
AcDbEntity
  8
ROGO
 62
     4
100
AcDbHatch
 10
0.0
 20
0.0
 30
0.0
210
0.0
220
0.0
230
1.0
  2
SOLID
 70
     1
 71
     1
 91
        2
 92
        7
 72
     1
 73
     1
 93
        4
 10
26.16568830176476
 20
4.949786840425645
 42
0.0
 10
24.88477496917216
 20
4.949786840425645
 42
0.9597396185052668
 10
24.88477496917204
 20
1.782061951090668
 42
0.0
 10
26.25774038752116
 20
1.782061951090668
 42
0.9713627655772736
 97
        4
330
8A1
330
889
330
88E
330
88A
 92
       22
 72
     1
 73
     1
 93
        8
 10
25.9709322672415
 20
3.347576112203057
 42
0.0
 10
25.92877650574593
 20
3.045974519724552
 42
-0.3696060376523694
 10
25.58588379175427
 20
2.870057733155022
 42
0.0
 10
25.47108749766136
 20
2.886103156372541
 42
-0.3541938351274232
 10
25.17427477727125
 20
3.157453445413239
 42
0.0
 10
25.21643053876682
 20
3.459055037891914
 42
-0.3439742752229287
 10
25.58698051573322
 20
3.668449396631842
 42
0.0
 10
25.69536003945933
 20
3.653300864703851
 42
-0.3460733018205655
 97
        8
330
899
330
89F
330
89B
330
89E
330
89A
330
89D
330
898
330
89C
 75
     0
 76
     1
 47
0.0514683685270805
 98
        2
 10
26.4770758482868
 20
3.660574202124962
 10
26.4770758482868
 20
3.660574202124962
450
        0
451
        0
460
0.0
461
0.0
452
        0
462
0.0
453
        0
470

  0
HATCH
  5
882
330
85B
100
AcDbEntity
  8
ROGO
 62
     4
100
AcDbHatch
 10
0.0
 20
0.0
 30
0.0
210
0.0
220
0.0
230
1.0
  2
SOLID
 70
     1
 71
     1
 91
        1
 92
        5
 93
        8
 72
     1
 10
23.27919423493069
 20
4.949786840425645
 11
20.10690665697018
 21
4.949786840425701
 72
     4
 94
        3
 73
     0
 74
     0
 95
       26
 96
       22
 40
0.0
 40
0.0
 40
0.0
 40
0.0
 40
0.7089867102952115
 40
1.183598414482279
 40
1.525832104103439
 40
1.781366926528389
 40
2.112809002752968
 40
2.354729406992515
 40
2.791581270399936
 40
3.147172406765291
 40
3.389031356825354
 40
3.626186440486682
 40
4.050410779375985
 40
4.350388020238963
 40
4.511948940797758
 40
4.741441456013356
 40
4.907163150576407
 40
5.147239172635527
 40
5.28310143501293
 40
5.578752957634333
 40
5.713750011164293
 40
5.713750011164293
 40
5.713750011164293
 40
5.713750011164293
 10
20.10690665696961
 20
4.949786840425645
 10
19.9118576355076
 20
4.938149881331241
 10
19.58623839723913
 20
4.91872287919773
 10
19.22871045445441
 20
4.701528493521777
 10
18.9667645527374
 20
4.575261222274434
 10
18.77994505330895
 20
4.403611624277402
 10
18.64300560291741
 20
4.226310128312206
 10
18.47036771803317
 20
4.01505669587766
 10
18.32958645604225
 20
3.769060622409824
 10
18.25789511795477
 20
3.497930064177751
 10
18.19439161110068
 20
3.281837436117484
 10
18.14729634731026
 20
3.041030402807223
 10
18.15927871566845
 20
2.780874095348053
 10
18.1764380155459
 20
2.53925423559815
 10
18.25305011690938
 20
2.366773831190926
 10
18.34029773002083
 20
2.243979668736869
 10
18.44713123742571
 20
2.108735512341468
 10
18.56403045709697
 20
2.019163745498303
 10
18.66071565374244
 20
1.85689847078413
 10
18.82995982885865
 20
1.836192251465718
 10
18.93753815968586
 20
1.794980695042511
 10
18.97126114982126
 20
1.782061951090668
 72
     1
 10
18.97126114982103
 20
1.782061951090668
 11
21.6996642971182
 21
1.782061951090724
 72
     1
 10
21.6996642971182
 20
1.782061951090781
 11
22.28734561971584
 21
2.960648509043551
 72
     1
 10
22.28734561971584
 20
2.960648509043494
 11
20.26176686826005
 21
2.960648509043494
 72
     4
 94
        3
 73
     0
 74
     0
 95
       16
 96
       12
 40
0.0
 40
0.0
 40
0.0
 40
0.0
 40
0.2141121027475241
 40
0.4304326162973471
 40
0.5594580803306056
 40
0.6831669452691567
 40
0.8190286678446897
 40
0.9139043619204622
 40
1.003933161420314
 40
1.186498641432482
 40
1.560280494298353
 40
1.560280494298353
 40
1.560280494298353
 40
1.560280494298353
 10
20.26176686826034
 20
2.960648509043494
 10
20.20066827486522
 20
2.978624611086615
 10
20.07784090046783
 20
3.014762225607
 10
20.06756124108432
 20
3.18994410491291
 10
20.081565789786
 20
3.314775529002361
 10
20.14021687102769
 20
3.40566009542573
 10
20.21137080546811
 20
3.471790575521481
 10
20.237864571025
 20
3.557915185942079
 10
20.31574058104508
 20
3.622950041937542
 10
20.45383561326139
 20
3.732264550099955
 10
20.60654481322524
 20
3.755546097864453
 10
20.70914246102353
 20
3.77118780143121
 72
     1
 10
20.70914246102353
 20
3.77118780143121
 11
22.69150668888256
 21
3.771187801431267
 72
     1
 10
22.69150668888256
 20
3.77118780143121
 11
23.27919423493069
 21
4.949786840425645
 97
        8
330
897
330
884
330
88B
330
887
330
896
330
893
330
895
330
894
 75
     0
 76
     1
 47
0.0514683685270805
 98
        1
 10
21.21637307488407
 20
4.244614142874524
450
        0
451
        0
460
0.0
461
0.0
452
        0
462
0.0
453
        0
470

  0
SPLINE
  5
883
102
{ACAD_REACTORS
330
85D
102
}
330
85B
100
AcDbEntity
  8
ROGO
 62
     4
100
AcDbSpline
210
0.0
220
0.0
230
1.0
 70
     8
 71
     3
 72
    26
 73
    22
 74
    20
 42
0.0000000001
 43
0.0000000001
 44
0.0000000001
 40
0.0
 40
0.0
 40
0.0
 40
0.0
 40
0.5746615864749196
 40
0.9593530213456462
 40
1.236746873962384
 40
1.443867888111121
 40
1.712514714041724
 40
1.90860070730817
 40
2.262686307552686
 40
2.55090689560158
 40
2.746943077840944
 40
2.939166591537864
 40
3.283017086994854
 40
3.526160427536374
 40
3.657111901763582
 40
3.843124602654698
 40
3.97744854769916
 40
4.172039596738211
 40
4.282161298747791
 40
4.521798474686698
 40
4.631218890929293
 40
4.631218890929293
 40
4.631218890929293
 40
4.631218890929293
 10
30.31359802057318
 20
4.949786840425645
 30
0.0
 10
30.11854899911117
 20
4.938149881331216
 30
0.0
 10
29.79292976084273
 20
4.918722879197668
 30
0.0
 10
29.43540181805795
 20
4.701528493521752
 30
0.0
 10
29.17345591634098
 20
4.575261222274342
 30
0.0
 10
28.98663641691248
 20
4.403611624277403
 30
0.0
 10
28.84969696652104
 20
4.226310128312151
 30
0.0
 10
28.67705908163667
 20
4.015056695877607
 30
0.0
 10
28.53627781964588
 20
3.769060622409776
 30
0.0
 10
28.46458648155826
 20
3.49793006417775
 30
0.0
 10
28.40108297470428
 20
3.28183743611741
 30
0.0
 10
28.35398771091379
 20
3.041030402807234
 30
0.0
 10
28.36597007927193
 20
2.780874095348088
 30
0.0
 10
28.38312937914937
 20
2.539254235598058
 30
0.0
 10
28.45974148051292
 20
2.366773831190866
 30
0.0
 10
28.54698909362438
 20
2.243979668736892
 30
0.0
 10
28.65382260102934
 20
2.108735512341419
 30
0.0
 10
28.77072182070049
 20
2.019163745498228
 30
0.0
 10
28.86740701734603
 20
1.85689847078413
 30
0.0
 10
29.03665119246222
 20
1.836192251465618
 30
0.0
 10
29.14422952328949
 20
1.794980695042471
 30
0.0
 10
29.17795251342483
 20
1.782061951090668
 30
0.0
 11
30.31359802057318
 21
4.949786840425645
 31
0.0
 11
29.74577526699892
 21
4.861394196539322
 31
0.0
 11
29.40163981509602
 21
4.689468948810883
 31
0.0
 11
29.1607454934744
 21
4.551928862726811
 31
0.0
 11
29.00588528218367
 21
4.414388216149177
 31
0.0
 11
28.83381805094274
 21
4.208077806776145
 31
0.0
 11
28.7133708901319
 21
4.053345139869975
 31
0.0
 11
28.54130266946999
 21
3.743879245563732
 31
0.0
 11
28.45526954855979
 21
3.468798512902026
 31
0.0
 11
28.4036494781297
 21
3.279680684351205
 31
0.0
 11
28.36923543822883
 21
3.090562855800612
 31
0.0
 11
28.36923543822883
 21
2.746712360343622
 31
0.0
 11
28.4036494781297
 21
2.506016789326224
 31
0.0
 11
28.45526954855979
 21
2.385668723570802
 31
0.0
 11
28.55850968942019
 21
2.230936056664518
 31
0.0
 11
28.64454379975138
 21
2.127780571731193
 31
0.0
 11
28.78219699109144
 21
1.99024048564712
 31
0.0
 11
28.85102408147219
 21
1.904277581536064
 31
0.0
 11
29.07471237256442
 21
1.818315237918568
 31
0.0
 11
29.17795251342483
 21
1.782061951090668
 31
0.0
  0
SPLINE
  5
884
102
{ACAD_REACTORS
330
882
102
}
330
85B
100
AcDbEntity
  8
ROGO
 62
     4
100
AcDbSpline
210
0.0
220
0.0
230
1.0
 70
     8
 71
     3
 72
    26
 73
    22
 74
    20
 42
0.0000000001
 43
0.0000000001
 44
0.0000000001
 40
0.0
 40
0.0
 40
0.0
 40
0.0
 40
0.5746615864749109
 40
0.9593530213456375
 40
1.236746873962375
 40
1.44386788811115
 40
1.71251471404171
 40
1.9086007073082
 40
2.262686307552666
 40
2.550906895601598
 40
2.746943077840867
 40
2.939166591537899
 40
3.28301708699489
 40
3.526160427536353
 40
3.657111901763635
 40
3.843124602654719
 40
3.977448547699138
 40
4.172039596738189
 40
4.282161298747769
 40
4.521798474686655
 40
4.631218890929288
 40
4.631218890929288
 40
4.631218890929288
 40
4.631218890929288
 10
20.10690665696961
 20
4.949786840425645
 30
0.0
 10
19.91185763550759
 20
4.938149881331241
 30
0.0
 10
19.58623839723914
 20
4.918722879197736
 30
0.0
 10
19.22871045445439
 20
4.701528493521801
 30
0.0
 10
18.96676455273739
 20
4.575261222274411
 30
0.0
 10
18.77994505330897
 20
4.4036116242774
 30
0.0
 10
18.64300560291743
 20
4.226310128312206
 30
0.0
 10
18.47036771803315
 20
4.015056695877609
 30
0.0
 10
18.32958645604223
 20
3.769060622409829
 30
0.0
 10
18.25789511795483
 20
3.497930064177774
 30
0.0
 10
18.19439161110065
 20
3.281837436117467
 30
0.0
 10
18.14729634731024
 20
3.041030402807263
 30
0.0
 10
18.15927871566836
 20
2.780874095348114
 30
0.0
 10
18.17643801554578
 20
2.539254235598062
 30
0.0
 10
18.25305011690943
 20
2.366773831190911
 30
0.0
 10
18.3402977300208
 20
2.243979668736876
 30
0.0
 10
18.44713123742579
 20
2.10873551234148
 30
0.0
 10
18.56403045709692
 20
2.019163745498289
 30
0.0
 10
18.66071565374245
 20
1.856898470784175
 30
0.0
 10
18.82995982885869
 20
1.836192251465799
 30
0.0
 10
18.93753815968592
 20
1.794980695042517
 30
0.0
 10
18.97126114982126
 20
1.782061951090668
 30
0.0
 11
20.10690665696961
 21
4.949786840425645
 31
0.0
 11
19.53908390339535
 21
4.861394196539379
 31
0.0
 11
19.19494845149245
 21
4.68946894881094
 31
0.0
 11
18.95405412987082
 21
4.551928862726867
 31
0.0
 11
18.7991939185801
 21
4.414388216149177
 31
0.0
 11
18.62712668733917
 21
4.208077806776202
 31
0.0
 11
18.50667952652833
 21
4.053345139869975
 31
0.0
 11
18.33461130586641
 21
3.743879245563789
 31
0.0
 11
18.24857818495627
 21
3.468798512902026
 31
0.0
 11
18.19695811452612
 21
3.279680684351319
 31
0.0
 11
18.16254407462526
 21
3.090562855800612
 31
0.0
 11
18.16254407462526
 21
2.746712360343622
 31
0.0
 11
18.19695811452612
 21
2.506016789326281
 31
0.0
 11
18.24857818495627
 21
2.385668723570802
 31
0.0
 11
18.35181832581662
 21
2.230936056664518
 31
0.0
 11
18.43785243614781
 21
2.12778057173125
 31
0.0
 11
18.57550562748787
 21
1.990240485647177
 31
0.0
 11
18.64433271786862
 21
1.904277581536121
 31
0.0
 11
18.86802100896085
 21
1.818315237918682
 31
0.0
 11
18.97126114982126
 21
1.782061951090668
 31
0.0
  0
LINE
  5
885
102
{ACAD_REACTORS
330
863
102
}
330
85B
100
AcDbEntity
  8
ROGO
 62
     4
100
AcDbLine
 10
15.99342784516443
 20
4.949786840425645
 30
0.0
 11
18.27773582687916
 21
1.782061951090668
 31
0.0
  0
LINE
  5
886
102
{ACAD_REACTORS
330
863
102
}
330
85B
100
AcDbEntity
  8
ROGO
 62
     4
100
AcDbLine
 10
16.08846512307542
 20
2.385177170679753
 30
0.0
 11
16.52338322932866
 21
1.782061951090781
 31
0.0
  0
LINE
  5
887
102
{ACAD_REACTORS
330
882
102
}
330
85B
100
AcDbEntity
  8
ROGO
 62
     4
100
AcDbLine
 10
22.28734561971584
 20
2.960648509043494
 30
0.0
 11
21.69966429711815
 21
1.782061951090668
 31
0.0
  0
LINE
  5
888
102
{ACAD_REACTORS
330
85D
102
}
330
85B
100
AcDbEntity
  8
ROGO
 62
     4
100
AcDbLine
 10
32.49403698331935
 20
2.960648509043494
 30
0.0
 11
31.90635566072177
 21
1.782061951090611
 31
0.0
  0
ARC
  5
889
102
{ACAD_REACTORS
330
881
102
}
330
85B
100
AcDbEntity
  8
ROGO
 62
     4
100
AcDbCircle
 10
24.94987936318324
 20
3.365924395758156
 30
0.0
 40
1.585199932421021
100
AcDbArc
 50
92.3538081120337
 51
270.0
  0
ARC
  5
88A
102
{ACAD_REACTORS
330
881
102
}
330
85B
100
AcDbEntity
  8
ROGO
 62
     4
100
AcDbCircle
 10
26.16568830176476
 20
3.364586908004639
 30
0.0
 40
1.585199932421021
100
AcDbArc
 50
273.3290215232082
 51
90.0000000000006
  0
LINE
  5
88B
102
{ACAD_REACTORS
330
882
102
}
330
85B
100
AcDbEntity
  8
ROGO
 62
     4
100
AcDbLine
 10
18.97126114982109
 20
1.782061951090668
 30
0.0
 11
21.6996642971182
 21
1.782061951090668
 31
0.0
  0
LINE
  5
88C
102
{ACAD_REACTORS
330
863
102
}
330
85B
100
AcDbEntity
  8
ROGO
 62
     4
100
AcDbLine
 10
18.27773582687911
 20
1.782061951090668
 30
0.0
 11
16.52338322932866
 21
1.782061951090668
 31
0.0
  0
LINE
  5
88D
330
85B
100
AcDbEntity
  8
ROGO
 62
     4
100
AcDbLine
 10
24.8847749691733
 20
1.782061951090668
 30
0.0
 11
26.25774038752019
 21
1.782061951090668
 31
0.0
  0
LINE
  5
88E
102
{ACAD_REACTORS
330
881
102
}
330
85B
100
AcDbEntity
  8
ROGO
 62
     4
100
AcDbLine
 10
24.8847749691721
 20
1.782061951090668
 30
0.0
 11
26.25774038752121
 21
1.782061951090668
 31
0.0
  0
LINE
  5
88F
102
{ACAD_REACTORS
330
85D
102
}
330
85B
100
AcDbEntity
  8
ROGO
 62
     4
100
AcDbLine
 10
29.1779525134246
 20
1.782061951090668
 30
0.0
 11
31.90635566072177
 21
1.782061951090668
 31
0.0
  0
LINE
  5
890
102
{ACAD_REACTORS
330
863
102
}
330
85B
100
AcDbEntity
  8
ROGO
 62
     4
100
AcDbLine
 10
15.07801729959914
 20
3.786398348131228
 30
0.0
 11
14.52629071767222
 21
3.021300979620718
 31
0.0
  0
LINE
  5
891
102
{ACAD_REACTORS
330
863
102
}
330
85B
100
AcDbEntity
  8
ROGO
 62
     4
100
AcDbLine
 10
14.52629071767222
 20
3.021300979620775
 30
0.0
 11
15.62974388152599
 21
3.021300979620775
 31
0.0
  0
LINE
  5
892
102
{ACAD_REACTORS
330
863
102
}
330
85B
100
AcDbEntity
  8
ROGO
 62
     4
100
AcDbLine
 10
15.07801729959914
 20
3.786398348131228
 30
0.0
 11
15.62974388152599
 21
3.021300979620718
 31
0.0
  0
SPLINE
  5
893
102
{ACAD_REACTORS
330
882
102
}
330
85B
100
AcDbEntity
  8
ROGO
 62
     4
100
AcDbSpline
210
0.0
220
0.0
230
1.0
 70
     8
 71
     3
 72
    16
 73
    12
 74
    10
 42
0.0000000001
 43
0.0000000001
 44
0.0000000001
 40
0.0
 40
0.0
 40
0.0
 40
0.0
 40
0.3029648785292891
 40
0.4509413735127203
 40
0.5239132529538693
 40
0.6008137308948465
 40
0.7109349953737907
 40
0.8112058912231434
 40
0.9157860995406091
 40
1.091122375522293
 40
1.264668647774888
 40
1.264668647774888
 40
1.264668647774888
 40
1.264668647774888
 10
20.70914246102353
 20
3.77118780143121
 30
0.0
 10
20.60654481322523
 20
3.75554609786451
 30
0.0
 10
20.45383561326141
 20
3.732264550100005
 30
0.0
 10
20.31574058104511
 20
3.622950041937553
 30
0.0
 10
20.237864571025
 20
3.557915185941986
 30
0.0
 10
20.21137080546809
 20
3.471790575521536
 30
0.0
 10
20.14021687102763
 20
3.405660095425645
 30
0.0
 10
20.08156578978607
 20
3.314775529002434
 30
0.0
 10
20.06756124108431
 20
3.189944104912836
 30
0.0
 10
20.07784090046788
 20
3.014762225607029
 30
0.0
 10
20.2006682748652
 20
2.978624611086606
 30
0.0
 10
20.26176686826034
 20
2.960648509043494
 30
0.0
 11
20.70914246102353
 21
3.77118780143121
 31
0.0
 11
20.41662806897176
 21
3.692301503097155
 31
0.0
 11
20.29618090816098
 21
3.606339159479716
 31
0.0
 11
20.24456083773083
 21
3.554761417013025
 31
0.0
 11
20.21014679782997
 21
3.48599109372418
 31
0.0
 11
20.14131970744944
 21
3.400028750106798
 31
0.0
 11
20.08969963701918
 21
3.314065845995742
 31
0.0
 11
20.07249261706875
 21
3.210910921556092
 31
0.0
 11
20.10690665696961
 21
3.038985113333978
 31
0.0
 11
20.26176686826034
 21
2.960648509043494
 31
0.0
  0
LINE
  5
894
102
{ACAD_REACTORS
330
882
102
}
330
85B
100
AcDbEntity
  8
ROGO
 62
     4
100
AcDbLine
 10
23.27919423493069
 20
4.949786840425645
 30
0.0
 11
22.69150668888256
 21
3.77118780143121
 31
0.0
  0
LINE
  5
895
102
{ACAD_REACTORS
330
882
102
}
330
85B
100
AcDbEntity
  8
ROGO
 62
     4
100
AcDbLine
 10
20.70914246102342
 20
3.77118780143121
 30
0.0
 11
22.69150668888256
 21
3.771187801431267
 31
0.0
  0
LINE
  5
896
102
{ACAD_REACTORS
330
882
102
}
330
85B
100
AcDbEntity
  8
ROGO
 62
     4
100
AcDbLine
 10
20.26176686826017
 20
2.960648509043494
 30
0.0
 11
22.28734561971584
 21
2.960648509043494
 31
0.0
  0
LINE
  5
897
102
{ACAD_REACTORS
330
882
102
}
330
85B
100
AcDbEntity
  8
ROGO
 62
     4
100
AcDbLine
 10
20.10690665697052
 20
4.949786840425758
 30
0.0
 11
23.27919423493069
 21
4.949786840425758
 31
0.0
  0
LINE
  5
898
102
{ACAD_REACTORS
330
881
102
}
330
85B
100
AcDbEntity
  8
ROGO
 62
     4
100
AcDbLine
 10
25.58056374536529
 20
3.669346287921371
 30
0.0
 11
25.69536003945927
 21
3.653300864703908
 31
0.0
  0
LINE
  5
899
102
{ACAD_REACTORS
330
881
102
}
330
85B
100
AcDbEntity
  8
ROGO
 62
     4
100
AcDbLine
 10
25.97093226724161
 20
3.347576112203455
 30
0.0
 11
25.92877650574604
 21
3.04597451972495
 31
0.0
  0
LINE
  5
89A
102
{ACAD_REACTORS
330
881
102
}
330
85B
100
AcDbEntity
  8
ROGO
 62
     4
100
AcDbLine
 10
25.17427477727125
 20
3.157453445413295
 30
0.0
 11
25.21643053876682
 21
3.45905503789163
 31
0.0
  0
LINE
  5
89B
102
{ACAD_REACTORS
330
881
102
}
330
85B
100
AcDbEntity
  8
ROGO
 62
     4
100
AcDbLine
 10
25.4710874976596
 20
2.886103156372769
 30
0.0
 11
25.58588379175365
 21
2.870057733155078
 31
0.0
  0
ARC
  5
89C
102
{ACAD_REACTORS
330
881
102
}
330
85B
100
AcDbEntity
  8
ROGO
 62
     4
100
AcDbCircle
 10
25.6387443480632
 20
3.325209828916854
 30
0.0
 40
0.3329400310507254
100
AcDbArc
 50
3.851923331663601
 51
80.20940670206341
  0
ARC
  5
89D
102
{ACAD_REACTORS
330
881
102
}
330
85B
100
AcDbEntity
  8
ROGO
 62
     4
100
AcDbCircle
 10
25.53588647264388
 20
3.326301951055086
 30
0.0
 40
0.3459414339941871
100
AcDbArc
 50
82.57970078354313
 51
157.4341870372611
  0
ARC
  5
89E
102
{ACAD_REACTORS
330
881
102
}
330
85B
100
AcDbEntity
  8
ROGO
 62
     4
100
AcDbCircle
 10
25.49018017588719
 20
3.204994782556525
 30
0.0
 40
0.3194626732688521
100
AcDbArc
 50
188.5583509056651
 51
266.5736774635929
  0
ARC
  5
89F
102
{ACAD_REACTORS
330
881
102
}
330
85B
100
AcDbEntity
  8
ROGO
 62
     4
100
AcDbCircle
 10
25.6545957362211
 20
3.158263540113921
 30
0.0
 40
0.2962835103026008
100
AcDbArc
 50
256.5902863289752
 51
337.7287536965499
  0
LINE
  5
8A0
330
85B
100
AcDbEntity
  8
ROGO
 62
     4
100
AcDbLine
 10
24.88477496917261
 20
4.949786840425645
 30
0.0
 11
25.78248633299404
 21
4.949786840425645
 31
0.0
  0
LINE
  5
8A1
102
{ACAD_REACTORS
330
881
102
}
330
85B
100
AcDbEntity
  8
ROGO
 62
     4
100
AcDbLine
 10
24.88477496917216
 20
4.949786840425645
 30
0.0
 11
26.16568830176476
 21
4.949786840425645
 31
0.0
  0
SPLINE
  5
8A2
102
{ACAD_REACTORS
330
85D
102
}
330
85B
100
AcDbEntity
  8
ROGO
 62
     4
100
AcDbSpline
210
0.0
220
0.0
230
1.0
 70
     8
 71
     3
 72
    16
 73
    12
 74
    10
 42
0.0000000001
 43
0.0000000001
 44
0.0000000001
 40
0.0
 40
0.0
 40
0.0
 40
0.0
 40
0.3029648785292594
 40
0.4509413735127369
 40
0.5239132529538859
 40
0.6008137308948632
 40
0.710934995373763
 40
0.811205891223145
 40
0.9157860995407135
 40
1.091122375522274
 40
1.264668647774946
 40
1.264668647774946
 40
1.264668647774946
 40
1.264668647774946
 10
30.9158338246271
 20
3.771187801431096
 30
0.0
 10
30.81323617682881
 20
3.755546097864422
 30
0.0
 10
30.660526976865
 20
3.732264550099954
 30
0.0
 10
30.5224319446486
 20
3.62295004193761
 30
0.0
 10
30.44455593462858
 20
3.557915185941908
 30
0.0
 10
30.41806216907167
 20
3.4717905755215
 30
0.0
 10
30.34690823463119
 20
3.405660095425618
 30
0.0
 10
30.28825715338954
 20
3.314775529002425
 30
0.0
 10
30.27425260468793
 20
3.189944104912787
 30
0.0
 10
30.28453226407141
 20
3.014762225606994
 30
0.0
 10
30.40735963846873
 20
2.978624611086564
 30
0.0
 10
30.46845823186391
 20
2.960648509043437
 30
0.0
 11
30.9158338246271
 21
3.771187801431096
 31
0.0
 11
30.62331943257533
 21
3.692301503097155
 31
0.0
 11
30.50287227176449
 21
3.606339159479716
 31
0.0
 11
30.4512522013344
 21
3.554761417012969
 31
0.0
 11
30.41683816143353
 21
3.485991093724123
 31
0.0
 11
30.34801107105301
 21
3.400028750106798
 31
0.0
 11
30.29639100062269
 21
3.314065845995742
 31
0.0
 11
30.27918398067232
 21
3.210910921555978
 31
0.0
 11
30.31359802057313
 21
3.038985113333978
 31
0.0
 11
30.46845823186391
 21
2.960648509043437
 31
0.0
  0
LINE
  5
8A3
102
{ACAD_REACTORS
330
85D
102
}
330
85B
100
AcDbEntity
  8
ROGO
 62
     4
100
AcDbLine
 10
30.46845823186379
 20
2.960648509043494
 30
0.0
 11
32.49403698331941
 21
2.960648509043494
 31
0.0
  0
LINE
  5
8A4
102
{ACAD_REACTORS
330
85D
102
}
330
85B
100
AcDbEntity
  8
ROGO
 62
     4
100
AcDbLine
 10
30.91583382462699
 20
3.77118780143121
 30
0.0
 11
32.89819805248607
 21
3.77118780143121
 31
0.0
  0
LINE
  5
8A5
102
{ACAD_REACTORS
330
85C
102
}
330
85B
100
AcDbEntity
  8
ROGO
 62
     4
100
AcDbLine
 10
35.38336074148231
 20
2.474893420212765
 30
0.0
 11
36.6174225324171
 21
0.0
 31
0.0
  0
LINE
  5
8A6
102
{ACAD_REACTORS
330
85C
102
}
330
85B
100
AcDbEntity
  8
ROGO
 62
     4
100
AcDbLine
 10
34.14933885635003
 20
1.291950329372127
 30
0.0
 11
34.79354701668626
 21
0.0
 31
0.0
  0
LINE
  5
8A7
102
{ACAD_REACTORS
330
85C
102
}
330
85B
100
AcDbEntity
  8
ROGO
 62
     4
100
AcDbLine
 10
34.14933885635008
 20
1.29195032937207
 30
0.0
 11
33.50513069601385
 21
0.0
 31
0.0
  0
LINE
  5
8A8
102
{ACAD_REACTORS
330
85C
102
}
330
85B
100
AcDbEntity
  8
ROGO
 62
     4
100
AcDbLine
 10
34.79354701668626
 20
0.0
 30
0.0
 11
36.6174225324171
 21
0.0
 31
0.0
  0
LINE
  5
8A9
102
{ACAD_REACTORS
330
85C
102
}
330
85B
100
AcDbEntity
  8
ROGO
 62
     4
100
AcDbLine
 10
35.38336074148231
 20
2.474893420212765
 30
0.0
 11
38.38165352405161
 21
4.949786840425645
 31
0.0
  0
LINE
  5
8AA
102
{ACAD_REACTORS
330
85C
102
}
330
85B
100
AcDbEntity
  8
ROGO
 62
     4
100
AcDbLine
 10
36.55777800832078
 20
4.949786840425645
 30
0.0
 11
38.38165352405156
 21
4.949786840425645
 31
0.0
  0
LINE
  5
8AB
102
{ACAD_REACTORS
330
85C
102
}
330
85B
100
AcDbEntity
  8
ROGO
 62
     4
100
AcDbLine
 10
34.14933885635003
 20
4.949786840425645
 30
0.0
 11
35.97325427788326
 21
4.949786840425588
 31
0.0
  0
LINE
  5
8AC
102
{ACAD_REACTORS
330
85C
102
}
330
85B
100
AcDbEntity
  8
ROGO
 62
     4
100
AcDbLine
 10
35.97325427788326
 20
4.949786840425588
 30
0.0
 11
35.70378540756269
 21
4.409370842614521
 31
0.0
  0
LINE
  5
8AD
102
{ACAD_REACTORS
330
85C
102
}
330
85B
100
AcDbEntity
  8
ROGO
 62
     4
100
AcDbLine
 10
35.70378540756269
 20
4.409370842614521
 30
0.0
 11
36.55777800832078
 21
4.949786840425645
 31
0.0
  0
ENDBLK
  5
8AF
330
85B
100
AcDbEntity
  8
0
100
AcDbBlockEnd
  0
BLOCK
  5
90E
330
90D
100
AcDbEntity
  8
0
100
AcDbBlockBegin
  2
*D11
 70
     1
 10
0.0
 20
0.0
 30
0.0
  3
*D11
  1

  0
LINE
  5
9B6
330
90D
100
AcDbEntity
  8
文字
 62
     2
370
    -2
100
AcDbLine
 10
174.0702804955145
 20
80.62934715296126
 30
0.0
 11
174.0702804955145
 21
74.53253949070631
 31
0.0
  0
LINE
  5
9B7
330
90D
100
AcDbEntity
  8
文字
 62
     2
370
    -2
100
AcDbLine
 10
194.0702804955146
 20
98.97051897568452
 30
0.0
 11
194.0702804955146
 21
74.53253949070631
 31
0.0
  0
LINE
  5
9B8
330
90D
100
AcDbEntity
  8
文字
 62
     2
370
    -2
100
AcDbLine
 10
176.5702804955146
 20
75.78253949070631
 30
0.0
 11
191.5702804955145
 21
75.78253949070631
 31
0.0
  0
INSERT
  5
9B9
330
90D
100
AcDbEntity
  8
文字
 62
     2
370
    -2
100
AcDbBlockReference
  2
_OPEN
 10
174.0702804955145
 20
75.78253949070631
 30
0.0
 41
2.5
 42
2.5
 43
2.5
 50
180.0
  0
INSERT
  5
9BA
330
90D
100
AcDbEntity
  8
文字
 62
     2
370
    -2
100
AcDbBlockReference
  2
_OPEN
 10
194.0702804955146
 20
75.78253949070631
 30
0.0
 41
2.5
 42
2.5
 43
2.5
  0
MTEXT
  5
9BB
330
90D
100
AcDbEntity
  8
文字
 62
     6
100
AcDbMText
 10
184.0702804955146
 20
77.65753949070631
 30
0.0
 40
2.5
 41
0.0
 71
     5
 72
     1
  1
\A1;20
  7
STYLE3
 73
     1
 44
1.0
  0
POINT
  5
9BC
330
90D
100
AcDbEntity
  8
DEFPOINTS
 62
     0
100
AcDbPoint
 10
174.0702804955145
 20
80.62934715296126
 30
0.0
  0
POINT
  5
9BD
330
90D
100
AcDbEntity
  8
DEFPOINTS
 62
     0
100
AcDbPoint
 10
194.0702804955146
 20
98.97051897568452
 30
0.0
  0
POINT
  5
9BE
330
90D
100
AcDbEntity
  8
DEFPOINTS
 62
     0
100
AcDbPoint
 10
194.0702804955146
 20
75.78253949070631
 30
0.0
  0
ENDBLK
  5
918
330
90D
100
AcDbEntity
  8
0
100
AcDbBlockEnd
  0
ENDSEC
  0
SECTION
  2
ENTITIES
  0
LWPOLYLINE
  5
26C
330
18
100
AcDbEntity
  8
C
100
AcDbPolyline
 90
        5
 70
     0
 43
0.4
 10
0.0
 20
195.0
 10
255.0
 20
195.0
 10
255.0
 20
0.0
 10
0.0
 20
0.0
 10
0.0
 20
195.0
  0
LINE
  5
2CD
330
18
100
AcDbEntity
  8
中心線
100
AcDbLine
 10
61.64891651876655
 20
110.5079778733072
 30
0.0
 11
125.4882510537386
 21
110.5079778733072
 31
0.0
  0
LINE
  5
2CE
330
18
100
AcDbEntity
  8
中心線
100
AcDbLine
 10
93.56858378625259
 20
158.2524472342882
 30
0.0
 11
93.56858378625259
 21
41.71688596117116
 31
0.0
  0
CIRCLE
  5
2CF
330
18
100
AcDbEntity
  8
外形線
100
AcDbCircle
 10
93.56858378625259
 20
110.5079778733072
 30
0.0
 40
26.75
  0
LINE
  5
2F3
330
18
100
AcDbEntity
  8
外形線
 62
     4
100
AcDbLine
 10
93.56858378625259
 20
147.5079778733072
 30
0.0
 11
93.56858378625259
 21
141.5079778733072
 31
0.0
  0
LINE
  5
2F4
330
18
100
AcDbEntity
  8
外形線
 62
     4
100
AcDbLine
 10
92.31858378625259
 20
147.5079778733072
 30
0.0
 11
92.31858378625252
 21
141.5079778733072
 31
0.0
  0
LINE
  5
2F5
330
18
100
AcDbEntity
  8
外形線
 62
     4
100
AcDbLine
 10
91.31858378625258
 20
147.5079778733072
 30
0.0
 11
91.31858378625253
 21
141.5079778733072
 31
0.0
  0
LINE
  5
2F6
330
18
100
AcDbEntity
  8
外形線
 62
     4
100
AcDbLine
 10
90.31858378625258
 20
147.5079778733072
 30
0.0
 11
90.31858378625253
 21
141.5079778733072
 31
0.0
  0
LINE
  5
2F7
330
18
100
AcDbEntity
  8
外形線
100
AcDbLine
 10
89.06858378625258
 20
147.5079778733072
 30
0.0
 11
89.06858378625253
 21
141.5079778733072
 31
0.0
  0
LINE
  5
2F8
330
18
100
AcDbEntity
  8
外形線
100
AcDbLine
 10
98.06858378625259
 20
147.5079778733072
 30
0.0
 11
98.06858378625264
 21
141.5079778733072
 31
0.0
  0
LINE
  5
2F9
330
18
100
AcDbEntity
  8
外形線
100
AcDbLine
 10
89.06858378625253
 20
141.5079778733072
 30
0.0
 11
98.06858378625264
 21
141.5079778733072
 31
0.0
  0
LINE
  5
2FA
330
18
100
AcDbEntity
  8
外形線
100
AcDbLine
 10
89.31858378625259
 20
141.5079778733071
 30
0.0
 11
89.31858378625259
 21
136.9182031657957
 31
0.0
  0
LINE
  5
2FB
330
18
100
AcDbEntity
  8
外形線
100
AcDbLine
 10
97.81858378625265
 20
141.5079778733072
 30
0.0
 11
97.81858378625258
 21
136.9182031657957
 31
0.0
  0
LINE
  5
2FC
330
18
100
AcDbEntity
  8
外形線
100
AcDbLine
 10
89.31858378625259
 20
153.5079778733073
 30
0.0
 11
89.31858378625259
 21
147.5079778733072
 31
0.0
  0
LINE
  5
2FD
330
18
100
AcDbEntity
  8
外形線
100
AcDbLine
 10
97.81858378625265
 20
153.5079778733072
 30
0.0
 11
97.81858378625265
 21
147.5079778733072
 31
0.0
  0
LINE
  5
2FE
330
18
100
AcDbEntity
  8
外形線
100
AcDbLine
 10
89.06858378625258
 20
147.5079778733072
 30
0.0
 11
98.06858378625259
 21
147.5079778733072
 31
0.0
  0
LINE
  5
2FF
330
18
100
AcDbEntity
  8
外形線
100
AcDbLine
 10
89.31858378625259
 20
153.5079778733073
 30
0.0
 11
97.81858378625265
 21
153.5079778733072
 31
0.0
  0
LINE
  5
300
330
18
100
AcDbEntity
  8
外形線
100
AcDbLine
 10
90.31858378625253
 20
154.5079778733072
 30
0.0
 11
96.81858378625264
 21
154.5079778733072
 31
0.0
  0
LINE
  5
301
330
18
100
AcDbEntity
  8
外形線
100
AcDbLine
 10
90.31858378625253
 20
154.5079778733072
 30
0.0
 11
89.31858378625253
 21
153.5079778733072
 31
0.0
  0
POINT
  5
302
330
18
100
AcDbEntity
  8
DEFPOINTS
  6
ByBlock
 62
     0
100
AcDbPoint
 10
93.31858378625259
 20
154.5079778733072
 30
0.0
  0
LINE
  5
303
330
18
100
AcDbEntity
  8
外形線
100
AcDbLine
 10
96.81858378625264
 20
154.5079778733072
 30
0.0
 11
97.81858378625265
 21
153.5079778733072
 31
0.0
  0
CIRCLE
  5
34A
330
18
100
AcDbEntity
  8
外形線
100
AcDbCircle
 10
93.56858378625259
 20
110.5079778733072
 30
0.0
 40
19.5
  0
LINE
  5
3A6
330
18
100
AcDbEntity
  8
外形線
100
AcDbLine
 10
90.66858378625301
 20
56.04897787330711
 30
0.0
 11
89.56858378625287
 21
56.99447787330711
 31
0.0
  0
LINE
  5
3A7
330
18
100
AcDbEntity
  8
外形線
100
AcDbLine
 10
96.46858378625251
 20
56.04897787330711
 30
0.0
 11
97.56858378625265
 21
56.99447787330711
 31
0.0
  0
LINE
  5
3A8
330
18
100
AcDbEntity
  8
外形線
100
AcDbLine
 10
95.56858378625241
 20
65.50797787330708
 30
0.0
 11
95.56858378625253
 21
54.5079778733072
 31
0.0
  0
LINE
  5
3A9
330
18
100
AcDbEntity
  8
外形線
100
AcDbLine
 10
91.56858378625248
 20
65.50797787330717
 30
0.0
 11
91.56858378625264
 21
54.5079778733072
 31
0.0
  0
LINE
  5
3AA
330
18
100
AcDbEntity
  8
外形線
100
AcDbLine
 10
91.06858378625275
 20
54.5079778733072
 30
0.0
 11
96.0685837862527
 21
54.50797787330714
 31
0.0
  0
LINE
  5
3AB
330
18
100
AcDbEntity
  8
外形線
100
AcDbLine
 10
90.6685837862526
 20
54.15797787330712
 30
0.0
 11
96.46858378625251
 21
54.15797787330712
 31
0.0
  0
LINE
  5
3AC
330
18
100
AcDbEntity
  8
ﾊｯﾁﾝｸ
100
AcDbLine
 10
95.56571248555991
 20
51.00797787330719
 30
0.0
 11
94.41571248556
 21
52.15797787330718
 31
0.0
  0
LINE
  5
3AD
330
18
100
AcDbEntity
  8
外形線
100
AcDbLine
 10
96.06858378625265
 20
51.00797787330719
 30
0.0
 11
94.86858378625255
 21
46.50797787330719
 31
0.0
  0
LINE
  5
3AE
330
18
100
AcDbEntity
  8
ﾊｯﾁﾝｸ
100
AcDbLine
 10
94.88328954031869
 20
51.00797787330719
 30
0.0
 11
96.03328954031889
 21
52.15797787330723
 31
0.0
  0
LINE
  5
3AF
330
18
100
AcDbEntity
  8
外形線
100
AcDbLine
 10
91.06858378625275
 20
53.35797787330722
 30
0.0
 11
96.0685837862527
 21
53.35797787330722
 31
0.0
  0
LINE
  5
3B0
330
18
100
AcDbEntity
  8
外形線
100
AcDbLine
 10
90.6685837862526
 20
52.15797787330714
 30
0.0
 11
96.46858378625257
 21
52.15797787330714
 31
0.0
  0
LINE
  5
3B1
330
18
100
AcDbEntity
  8
外形線
100
AcDbLine
 10
91.0685837862527
 20
51.00797787330719
 30
0.0
 11
96.06858378625265
 21
51.00797787330719
 31
0.0
  0
LINE
  5
3B2
330
18
100
AcDbEntity
  8
ﾊｯﾁﾝｸ
100
AcDbLine
 10
95.97696446609342
 20
53.35797787330716
 30
0.0
 11
94.82696446609351
 21
54.5079778733072
 31
0.0
  0
LINE
  5
3B3
330
18
100
AcDbEntity
  8
ﾊｯﾁﾝｸ
100
AcDbLine
 10
94.40486241557255
 20
53.35797787330722
 30
0.0
 11
95.55486241557259
 21
54.5079778733072
 31
0.0
  0
LINE
  5
3B4
330
18
100
AcDbEntity
  8
外形線
100
AcDbLine
 10
91.0685837862527
 20
51.00797787330719
 30
0.0
 11
92.26858378625252
 21
46.50797787330719
 31
0.0
  0
LINE
  5
3B5
330
18
100
AcDbEntity
  8
外形線
100
AcDbLine
 10
92.26858378625252
 20
46.50797787330719
 30
0.0
 11
94.86858378625255
 21
46.50797787330719
 31
0.0
  0
POINT
  5
3B6
330
18
100
AcDbEntity
  8
DEFPOINTS
  6
ByBlock
 62
     0
100
AcDbPoint
 10
93.56858378625259
 20
45.50797787330719
 30
0.0
  0
ARC
  5
3B7
330
18
100
AcDbEntity
  8
外形線
100
AcDbCircle
 10
93.56858378625259
 20
46.6579778733072
 30
0.0
 40
1.150000000000005
100
AcDbArc
 50
187.494717453927
 51
352.505282546073
  0
LINE
  5
3B8
330
18
100
AcDbEntity
  8
外形線
100
AcDbLine
 10
90.66858378625301
 20
54.15797787330712
 30
0.0
 11
89.56858378625287
 21
55.10347787330712
 31
0.0
  0
LINE
  5
3B9
330
18
100
AcDbEntity
  8
外形線
100
AcDbLine
 10
89.56858378625287
 20
55.10347787330712
 30
0.0
 11
90.66858378625301
 21
56.04897787330711
 31
0.0
  0
LINE
  5
3BA
330
18
100
AcDbEntity
  8
ﾊｯﾁﾝｸ
100
AcDbLine
 10
91.06858378625265
 20
54.06281449846841
 30
0.0
 11
91.51374716109149
 21
54.50797787330725
 31
0.0
  0
LINE
  5
3BB
330
18
100
AcDbEntity
  8
ﾊｯﾁﾝｸ
100
AcDbLine
 10
93.46907597794563
 20
51.00797787330719
 30
0.0
 11
94.61907597794567
 21
52.15797787330718
 31
0.0
  0
LINE
  5
3BC
330
18
100
AcDbEntity
  8
ﾊｯﾁﾝｸ
100
AcDbLine
 10
94.21867406739949
 20
51.00797787330719
 30
0.0
 11
93.06867406739957
 21
52.15797787330723
 31
0.0
  0
ARC
  5
3BD
330
18
100
AcDbEntity
  8
外形線
100
AcDbCircle
 10
90.70802865870621
 20
52.75797787330716
 30
0.0
 40
0.7
100
AcDbArc
 50
301.0027191338726
 51
58.99728086611813
  0
LINE
  5
3BE
330
18
100
AcDbEntity
  8
外形線
 48
0.5
100
AcDbLine
 10
91.06858378625275
 20
52.15797787330718
 30
0.0
 11
91.0685837862527
 21
51.00797787330719
 31
0.0
  0
LINE
  5
3BF
330
18
100
AcDbEntity
  8
ﾊｯﾁﾝｸ
100
AcDbLine
 10
91.52459723107899
 20
51.00797787330719
 30
0.0
 11
91.06858378625259
 21
51.46399131813348
 31
0.0
  0
LINE
  5
3C0
330
18
100
AcDbEntity
  8
ﾊｯﾁﾝｸ
100
AcDbLine
 10
91.06978951805297
 20
51.369943393948
 30
0.0
 11
91.85782399741226
 21
52.15797787330718
 31
0.0
  0
LINE
  5
3C1
330
18
100
AcDbEntity
  8
ﾊｯﾁﾝｸ
100
AcDbLine
 10
92.05486241557252
 20
51.00797787330719
 30
0.0
 11
93.20486241557267
 21
52.15797787330723
 31
0.0
  0
LINE
  5
3C2
330
18
100
AcDbEntity
  8
ﾊｯﾁﾝｸ
100
AcDbLine
 10
92.87163564923918
 20
51.00797787330719
 30
0.0
 11
91.7216356492392
 21
52.15797787330728
 31
0.0
  0
LINE
  5
3C3
330
18
100
AcDbEntity
  8
外形線
 48
0.5
100
AcDbLine
 10
91.06858378625275
 20
54.5079778733072
 30
0.0
 11
91.06858378625275
 21
53.35797787330722
 31
0.0
  0
LINE
  5
3C4
330
18
100
AcDbEntity
  8
ﾊｯﾁﾝｸ
100
AcDbLine
 10
93.05782399741223
 20
53.35797787330716
 30
0.0
 11
94.20782399741222
 21
54.5079778733072
 31
0.0
  0
LINE
  5
3C5
330
18
100
AcDbEntity
  8
ﾊｯﾁﾝｸ
100
AcDbLine
 10
91.86867406739958
 20
53.35797787330722
 30
0.0
 11
91.06858378625265
 21
54.15806815445415
 31
0.0
  0
LINE
  5
3C6
330
18
100
AcDbEntity
  8
ﾊｯﾁﾝｸ
100
AcDbLine
 10
91.71078557925183
 20
53.35797787330716
 30
0.0
 11
92.82275109989269
 21
54.46994339394803
 31
0.0
  0
LINE
  5
3C7
330
18
100
AcDbEntity
  8
ﾊｯﾁﾝｸ
100
AcDbLine
 10
93.21571248556001
 20
53.35797787330716
 30
0.0
 11
92.06571248555997
 21
54.5079778733072
 31
0.0
  0
LINE
  5
3C8
330
18
100
AcDbEntity
  8
ﾊｯﾁﾝｸ
100
AcDbLine
 10
94.56275090372036
 20
53.35797787330722
 30
0.0
 11
93.41275090372034
 21
54.5079778733072
 31
0.0
  0
LINE
  5
3C9
330
18
100
AcDbEntity
  8
外形線
 48
0.5
100
AcDbLine
 10
90.6685837862526
 20
54.15797787330712
 30
0.0
 11
90.6685837862526
 21
52.15797787330714
 31
0.0
  0
LINE
  5
3CA
330
18
100
AcDbEntity
  8
外形線
100
AcDbLine
 10
97.56858378625265
 20
55.10347787330712
 30
0.0
 11
96.46858378625251
 21
56.04897787330711
 31
0.0
  0
LINE
  5
3CB
330
18
100
AcDbEntity
  8
外形線
100
AcDbLine
 10
96.46858378625251
 20
54.15797787330712
 30
0.0
 11
97.56858378625265
 21
55.10347787330712
 31
0.0
  0
LINE
  5
3CC
330
18
100
AcDbEntity
  8
ﾊｯﾁﾝｸ
100
AcDbLine
 10
96.06858378625265
 20
51.85214499077478
 30
0.0
 11
95.76275090372025
 21
52.15797787330723
 31
0.0
  0
ARC
  5
3CD
330
18
100
AcDbEntity
  8
外形線
100
AcDbCircle
 10
96.42913891379908
 20
52.75797787330716
 30
0.0
 40
0.7
100
AcDbArc
 50
121.0027191338818
 51
238.9972808661273
  0
LINE
  5
3CE
330
18
100
AcDbEntity
  8
外形線
 48
0.5
100
AcDbLine
 10
96.0685837862527
 20
52.15797787330718
 30
0.0
 11
96.06858378625265
 21
51.00797787330719
 31
0.0
  0
LINE
  5
3CF
330
18
100
AcDbEntity
  8
外形線
 48
0.5
100
AcDbLine
 10
96.0685837862527
 20
54.50797787330714
 30
0.0
 11
96.0685837862527
 21
53.35797787330722
 31
0.0
  0
LINE
  5
3D0
330
18
100
AcDbEntity
  8
ﾊｯﾁﾝｸ
100
AcDbLine
 10
95.81907597794566
 20
53.35797787330716
 30
0.0
 11
96.0685837862527
 21
53.60748568161415
 31
0.0
  0
LINE
  5
3D1
330
18
100
AcDbEntity
  8
外形線
 48
0.5
100
AcDbLine
 10
96.46858378625251
 20
54.15797787330712
 30
0.0
 11
96.46858378625257
 21
52.15797787330714
 31
0.0
  0
LINE
  5
3D3
330
18
100
AcDbEntity
  8
外形線
100
AcDbLine
 10
89.71858378625279
 20
67.50797787330731
 30
0.0
 11
97.41858378625261
 21
67.50797787330717
 31
0.0
  0
LINE
  5
3D4
330
18
100
AcDbEntity
  8
外形線
100
AcDbLine
 10
90.31858378625281
 20
66.3079778733072
 30
0.0
 11
96.81858378625282
 21
66.3079778733072
 31
0.0
  0
LINE
  5
3D5
330
18
100
AcDbEntity
  8
外形線
100
AcDbLine
 10
90.06858378625281
 20
65.50797787330722
 30
0.0
 11
97.0685837862527
 21
65.50797787330708
 31
0.0
  0
LINE
  5
3D6
330
18
100
AcDbEntity
  8
外形線
100
AcDbLine
 10
89.56858378625282
 20
84.05873402778295
 30
0.0
 11
89.56858378625282
 21
70.50797787330721
 31
0.0
  0
LINE
  5
3D7
330
18
100
AcDbEntity
  8
外形線
100
AcDbLine
 10
90.66858378625301
 20
63.61297787330713
 30
0.0
 11
89.56858378625287
 21
64.55847787330714
 31
0.0
  0
LINE
  5
3D8
330
18
100
AcDbEntity
  8
外形線
100
AcDbLine
 10
89.56858378625287
 20
56.99447787330711
 30
0.0
 11
90.66858378625301
 21
57.9399778733071
 31
0.0
  0
LINE
  5
3D9
330
18
100
AcDbEntity
  8
外形線
100
AcDbLine
 10
90.66858378625301
 20
57.93997787330713
 30
0.0
 11
89.56858378625287
 21
58.88547787330714
 31
0.0
  0
LINE
  5
3DA
330
18
100
AcDbEntity
  8
外形線
100
AcDbLine
 10
89.56858378625287
 20
58.88547787330714
 30
0.0
 11
90.66858378625301
 21
59.83097787330712
 31
0.0
  0
LINE
  5
3DB
330
18
100
AcDbEntity
  8
外形線
100
AcDbLine
 10
90.66858378625301
 20
59.83097787330712
 30
0.0
 11
89.56858378625287
 21
60.77647787330713
 31
0.0
  0
LINE
  5
3DC
330
18
100
AcDbEntity
  8
外形線
100
AcDbLine
 10
89.56858378625287
 20
60.77647787330713
 30
0.0
 11
90.66858378625301
 21
61.72197787330711
 31
0.0
  0
LINE
  5
3DD
330
18
100
AcDbEntity
  8
外形線
100
AcDbLine
 10
90.66858378625301
 20
61.72197787330711
 30
0.0
 11
89.56858378625287
 21
62.66747787330712
 31
0.0
  0
LINE
  5
3DE
330
18
100
AcDbEntity
  8
外形線
100
AcDbLine
 10
89.56858378625287
 20
62.66747787330712
 30
0.0
 11
90.66858378625301
 21
63.6129778733071
 31
0.0
  0
ARC
  5
3DF
330
18
100
AcDbEntity
  8
外形線
100
AcDbCircle
 10
89.8685837862526
 20
66.84416813804538
 30
0.0
 40
0.7
100
AcDbArc
 50
310.0052008848602
 51
71.49566077348707
  0
LINE
  5
3E0
330
18
100
AcDbEntity
  8
外形線
100
AcDbLine
 10
89.56858378625287
 20
64.55847787330714
 30
0.0
 11
90.06858378625281
 21
65.50797787330708
 31
0.0
  0
LINE
  5
3E1
330
18
100
AcDbEntity
  8
外形線
100
AcDbLine
 10
89.71858378625265
 20
70.50797787330721
 30
0.0
 11
89.71858378625279
 21
67.50797787330731
 31
0.0
  0
LINE
  5
3E2
330
18
100
AcDbEntity
  8
外形線
 48
0.5
100
AcDbLine
 10
90.51858378625274
 20
65.50797787330719
 30
0.0
 11
90.31858378625276
 21
65.70797787330718
 31
0.0
  0
LINE
  5
3E3
330
18
100
AcDbEntity
  8
外形線
 48
0.5
100
AcDbLine
 10
90.31858378625281
 20
66.3079778733072
 30
0.0
 11
90.31858378625276
 21
65.70797787330718
 31
0.0
  0
LINE
  5
3E4
330
18
100
AcDbEntity
  8
外形線
 48
0.5
100
AcDbLine
 10
90.06858378625276
 20
67.50797787330725
 30
0.0
 11
90.06858378625281
 21
65.50797787330722
 31
0.0
  0
LINE
  5
3E5
330
18
100
AcDbEntity
  8
外形線
100
AcDbLine
 10
97.56858378625281
 20
84.05873402778302
 30
0.0
 11
97.56858378625281
 21
70.5079778733071
 31
0.0
  0
LINE
  5
3E6
330
18
100
AcDbEntity
  8
外形線
100
AcDbLine
 10
96.46858378625251
 20
63.61297787330713
 30
0.0
 11
97.56858378625265
 21
64.55847787330714
 31
0.0
  0
LINE
  5
3E7
330
18
100
AcDbEntity
  8
外形線
100
AcDbLine
 10
97.56858378625265
 20
62.66747787330712
 30
0.0
 11
96.46858378625251
 21
63.6129778733071
 31
0.0
  0
LINE
  5
3E8
330
18
100
AcDbEntity
  8
外形線
100
AcDbLine
 10
96.46858378625251
 20
61.72197787330711
 30
0.0
 11
97.56858378625265
 21
62.66747787330712
 31
0.0
  0
LINE
  5
3E9
330
18
100
AcDbEntity
  8
外形線
100
AcDbLine
 10
97.56858378625265
 20
60.77647787330713
 30
0.0
 11
96.46858378625251
 21
61.72197787330711
 31
0.0
  0
LINE
  5
3EA
330
18
100
AcDbEntity
  8
外形線
100
AcDbLine
 10
96.46858378625251
 20
59.83097787330712
 30
0.0
 11
97.56858378625265
 21
60.77647787330713
 31
0.0
  0
LINE
  5
3EB
330
18
100
AcDbEntity
  8
外形線
100
AcDbLine
 10
97.56858378625265
 20
58.88547787330714
 30
0.0
 11
96.46858378625251
 21
59.83097787330712
 31
0.0
  0
LINE
  5
3EC
330
18
100
AcDbEntity
  8
外形線
100
AcDbLine
 10
96.46858378625251
 20
57.93997787330713
 30
0.0
 11
97.56858378625265
 21
58.88547787330714
 31
0.0
  0
LINE
  5
3ED
330
18
100
AcDbEntity
  8
外形線
100
AcDbLine
 10
97.56858378625265
 20
56.99447787330711
 30
0.0
 11
96.46858378625251
 21
57.9399778733071
 31
0.0
  0
LINE
  5
3EE
330
18
100
AcDbEntity
  8
外形線
100
AcDbLine
 10
97.56858378625265
 20
64.55847787330714
 30
0.0
 11
97.0685837862527
 21
65.50797787330708
 31
0.0
  0
ARC
  5
3EF
330
18
100
AcDbEntity
  8
外形線
100
AcDbCircle
 10
97.2685837862528
 20
66.84416813804538
 30
0.0
 40
0.7
100
AcDbArc
 50
108.5043392265129
 51
229.9947991151399
  0
LINE
  5
3F0
330
18
100
AcDbEntity
  8
外形線
100
AcDbLine
 10
97.41858378625275
 20
70.50797787330711
 30
0.0
 11
97.41858378625261
 21
67.50797787330717
 31
0.0
  0
LINE
  5
3F1
330
18
100
AcDbEntity
  8
外形線
 48
0.5
100
AcDbLine
 10
96.61858378625277
 20
65.50797787330714
 30
0.0
 11
96.81858378625276
 21
65.70797787330713
 31
0.0
  0
LINE
  5
3F2
330
18
100
AcDbEntity
  8
外形線
 48
0.5
100
AcDbLine
 10
96.81858378625282
 20
66.3079778733072
 30
0.0
 11
96.81858378625276
 21
65.70797787330713
 31
0.0
  0
LINE
  5
3F3
330
18
100
AcDbEntity
  8
外形線
 48
0.5
100
AcDbLine
 10
97.0685837862527
 20
67.50797787330714
 30
0.0
 11
97.0685837862527
 21
65.50797787330708
 31
0.0
  0
LINE
  5
42B
330
18
100
AcDbEntity
  8
外形線
100
AcDbLine
 10
89.56858378625282
 20
70.50797787330721
 30
0.0
 11
97.56858378625281
 21
70.5079778733071
 31
0.0
  0
LINE
  5
44B
330
18
100
AcDbEntity
  8
外形線
 62
     4
100
AcDbLine
 10
89.58678927030621
 20
147.5079778733072
 30
0.0
 11
89.58678927030616
 21
141.5079778733072
 31
0.0
  0
LINE
  5
44C
330
18
100
AcDbEntity
  8
外形線
100
AcDbLine
 10
169.0702804955146
 20
137.2579778733072
 30
0.0
 11
169.0702804955146
 21
83.7579778733072
 31
0.0
  0
LINE
  5
44D
330
18
100
AcDbEntity
  8
外形線
100
AcDbLine
 10
155.5702804955146
 20
134.2579778733072
 30
0.0
 11
155.5702804955145
 21
86.7579778733072
 31
0.0
  0
LINE
  5
44E
330
18
100
AcDbEntity
  8
外形線
100
AcDbLine
 10
158.5702804955145
 20
83.75797787330721
 30
0.0
 11
169.0702804955146
 21
83.7579778733072
 31
0.0
  0
LINE
  5
44F
330
18
100
AcDbEntity
  8
外形線
100
AcDbLine
 10
158.5702804955145
 20
137.2579778733072
 30
0.0
 11
169.0702804955146
 21
137.2579778733072
 31
0.0
  0
ARC
  5
450
330
18
100
AcDbEntity
  8
外形線
100
AcDbCircle
 10
158.5702804955145
 20
134.2579778733072
 30
0.0
 40
3.0
100
AcDbArc
 50
90.0
 51
180.0
  0
ARC
  5
451
330
18
100
AcDbEntity
  8
外形線
100
AcDbCircle
 10
158.5702804955145
 20
86.7579778733072
 30
0.0
 40
3.0
100
AcDbArc
 50
180.0
 51
270.0
  0
LINE
  5
4F0
330
18
100
AcDbEntity
  8
外形線
  6
Continuous
100
AcDbLine
 10
169.0702804955146
 20
136.5079778733072
 30
0.0
 11
171.2052536906786
 21
136.5079778733071
 31
0.0
  0
LINE
  5
4F1
330
18
100
AcDbEntity
  8
外形線
100
AcDbLine
 10
181.0702804955145
 20
85.00797787330716
 30
0.0
 11
169.0702804955146
 21
85.00797787330716
 31
0.0
  0
LINE
  5
4F2
330
18
100
AcDbEntity
  8
外形線
100
AcDbLine
 10
169.0702804955146
 20
84.0079778733072
 30
0.0
 11
180.8702804955146
 21
84.00797787330715
 31
0.0
  0
LINE
  5
4F3
330
18
100
AcDbEntity
  8
外形線
  6
Continuous
100
AcDbLine
 10
169.0702804955146
 20
137.0079778733071
 30
0.0
 11
171.214953175201
 21
137.0079778733071
 31
0.0
  0
LINE
  5
541
330
18
100
AcDbEntity
  8
外形線
 48
0.5
100
AcDbLine
 10
181.0702804955145
 20
136.8079778733072
 30
0.0
 11
181.0702804955145
 21
84.20797787330714
 31
0.0
  0
ARC
  5
54E
330
18
100
AcDbEntity
  8
外形線
100
AcDbCircle
 10
180.8702804955146
 20
84.20797787330714
 30
0.0
 40
0.2
100
AcDbArc
 50
269.9999999999999
 51
0.0000000000000636
  0
POINT
  5
573
330
18
100
AcDbEntity
  8
DEFPOINTS
  6
ByBlock
 62
     0
100
AcDbPoint
 10
180.8702804955146
 20
137.0079778733072
 30
0.0
  0
POINT
  5
574
330
18
100
AcDbEntity
  8
DEFPOINTS
  6
ByBlock
 62
     0
100
AcDbPoint
 10
181.0702804955145
 20
136.8079778733072
 30
0.0
  0
ARC
  5
576
330
18
100
AcDbEntity
  8
外形線
 48
0.5
100
AcDbCircle
 10
180.8702804955146
 20
136.8079778733072
 30
0.0
 40
0.2
100
AcDbArc
 50
0.0000000000001018
 51
89.99999999999991
  0
LINE
  5
5BA
330
18
100
AcDbEntity
  8
中心線
100
AcDbLine
 10
151.6840831939803
 20
110.5079778733072
 30
0.0
 11
205.4042620826794
 21
110.5079778733072
 31
0.0
  0
LINE
  5
5BB
330
18
100
AcDbEntity
  8
外形線
100
AcDbLine
 10
170.0702804955148
 20
70.50797787330721
 30
0.0
 11
178.0702804955148
 21
70.5079778733071
 31
0.0
  0
LINE
  5
5BD
330
18
100
AcDbEntity
  8
外形線
100
AcDbLine
 10
170.8202804955148
 20
66.3079778733072
 30
0.0
 11
177.3202804955148
 21
66.3079778733072
 31
0.0
  0
LINE
  5
5BE
330
18
100
AcDbEntity
  8
外形線
100
AcDbLine
 10
170.2202804955147
 20
67.50797787330731
 30
0.0
 11
177.9202804955146
 21
67.50797787330717
 31
0.0
  0
LINE
  5
5BF
330
18
100
AcDbEntity
  8
外形線
100
AcDbLine
 10
172.7702804955145
 20
46.50797787330719
 30
0.0
 11
175.3702804955145
 21
46.50797787330719
 31
0.0
  0
LINE
  5
5C0
330
18
100
AcDbEntity
  8
ﾊｯﾁﾝｸ
100
AcDbLine
 10
174.9065591248345
 20
53.35797787330722
 30
0.0
 11
176.0565591248345
 21
54.5079778733072
 31
0.0
  0
LINE
  5
5C1
330
18
100
AcDbEntity
  8
外形線
100
AcDbLine
 10
171.5702804955147
 20
51.00797787330719
 30
0.0
 11
176.5702804955146
 21
51.00797787330719
 31
0.0
  0
LINE
  5
5C3
330
18
100
AcDbEntity
  8
外形線
100
AcDbLine
 10
171.5702804955147
 20
53.35797787330722
 30
0.0
 11
176.5702804955147
 21
53.35797787330722
 31
0.0
  0
LINE
  5
5C4
330
18
100
AcDbEntity
  8
ﾊｯﾁﾝｸ
100
AcDbLine
 10
176.0674091948219
 20
51.00797787330719
 30
0.0
 11
174.9174091948219
 21
52.15797787330718
 31
0.0
  0
LINE
  5
5C6
330
18
100
AcDbEntity
  8
外形線
100
AcDbLine
 10
171.5702804955147
 20
54.5079778733072
 30
0.0
 11
176.5702804955147
 21
54.50797787330714
 31
0.0
  0
LINE
  5
5C8
330
18
100
AcDbEntity
  8
外形線
100
AcDbLine
 10
172.0702804955144
 20
65.50797787330717
 30
0.0
 11
172.0702804955146
 21
54.5079778733072
 31
0.0
  0
ARC
  5
5CA
330
18
100
AcDbEntity
  8
外形線
100
AcDbCircle
 10
171.2097253679682
 20
52.75797787330716
 30
0.0
 40
0.7
100
AcDbArc
 50
301.0027191338726
 51
58.99728086611813
  0
LINE
  5
5CB
330
18
100
AcDbEntity
  8
外形線
100
AcDbLine
 10
171.5702804955147
 20
51.00797787330719
 30
0.0
 11
172.7702804955145
 21
46.50797787330719
 31
0.0
  0
ARC
  5
5CC
330
18
100
AcDbEntity
  8
外形線
100
AcDbCircle
 10
174.0702804955145
 20
46.6579778733072
 30
0.0
 40
1.150000000000005
100
AcDbArc
 50
187.494717453927
 51
352.505282546073
  0
POINT
  5
5CD
330
18
100
AcDbEntity
  8
DEFPOINTS
  6
ByBlock
 62
     0
100
AcDbPoint
 10
174.0702804955145
 20
45.50797787330719
 30
0.0
  0
LINE
  5
5CE
330
18
100
AcDbEntity
  8
ﾊｯﾁﾝｸ
100
AcDbLine
 10
173.3733323585011
 20
51.00797787330719
 30
0.0
 11
172.2233323585012
 21
52.15797787330728
 31
0.0
  0
LINE
  5
5CF
330
18
100
AcDbEntity
  8
ﾊｯﾁﾝｸ
100
AcDbLine
 10
172.5565591248345
 20
51.00797787330719
 30
0.0
 11
173.7065591248346
 21
52.15797787330723
 31
0.0
  0
LINE
  5
5D0
330
18
100
AcDbEntity
  8
ﾊｯﾁﾝｸ
100
AcDbLine
 10
171.5714862273149
 20
51.369943393948
 30
0.0
 11
172.3595207066742
 21
52.15797787330718
 31
0.0
  0
LINE
  5
5D1
330
18
100
AcDbEntity
  8
ﾊｯﾁﾝｸ
100
AcDbLine
 10
172.0262939403409
 20
51.00797787330719
 30
0.0
 11
171.5702804955145
 21
51.46399131813348
 31
0.0
  0
LINE
  5
5D2
330
18
100
AcDbEntity
  8
外形線
 48
0.5
100
AcDbLine
 10
171.5702804955147
 20
52.15797787330718
 30
0.0
 11
171.5702804955147
 21
51.00797787330719
 31
0.0
  0
LINE
  5
5D3
330
18
100
AcDbEntity
  8
ﾊｯﾁﾝｸ
100
AcDbLine
 10
174.7203707766614
 20
51.00797787330719
 30
0.0
 11
173.5703707766615
 21
52.15797787330723
 31
0.0
  0
LINE
  5
5D4
330
18
100
AcDbEntity
  8
ﾊｯﾁﾝｸ
100
AcDbLine
 10
173.9707726872076
 20
51.00797787330719
 30
0.0
 11
175.1207726872076
 21
52.15797787330718
 31
0.0
  0
LINE
  5
5DB
330
18
100
AcDbEntity
  8
ﾊｯﾁﾝｸ
100
AcDbLine
 10
175.0644476129823
 20
53.35797787330722
 30
0.0
 11
173.9144476129823
 21
54.5079778733072
 31
0.0
  0
LINE
  5
5DC
330
18
100
AcDbEntity
  8
ﾊｯﾁﾝｸ
100
AcDbLine
 10
173.717409194822
 20
53.35797787330716
 30
0.0
 11
172.5674091948219
 21
54.5079778733072
 31
0.0
  0
LINE
  5
5DD
330
18
100
AcDbEntity
  8
ﾊｯﾁﾝｸ
100
AcDbLine
 10
172.2124822885138
 20
53.35797787330716
 30
0.0
 11
173.3244478091546
 21
54.46994339394803
 31
0.0
  0
LINE
  5
5DE
330
18
100
AcDbEntity
  8
ﾊｯﾁﾝｸ
100
AcDbLine
 10
172.3703707766615
 20
53.35797787330722
 30
0.0
 11
171.5702804955146
 21
54.15806815445415
 31
0.0
  0
LINE
  5
5DF
330
18
100
AcDbEntity
  8
ﾊｯﾁﾝｸ
100
AcDbLine
 10
173.5595207066742
 20
53.35797787330716
 30
0.0
 11
174.7095207066742
 21
54.5079778733072
 31
0.0
  0
LINE
  5
5E0
330
18
100
AcDbEntity
  8
外形線
 48
0.5
100
AcDbLine
 10
171.5702804955147
 20
54.5079778733072
 30
0.0
 11
171.5702804955147
 21
53.35797787330722
 31
0.0
  0
LINE
  5
5E1
330
18
100
AcDbEntity
  8
ﾊｯﾁﾝｸ
100
AcDbLine
 10
171.5702804955146
 20
54.06281449846841
 30
0.0
 11
172.0154438703534
 21
54.50797787330725
 31
0.0
  0
LINE
  5
5E7
330
18
100
AcDbEntity
  8
外形線
100
AcDbLine
 10
170.0702804955148
 20
84.05873402778295
 30
0.0
 11
170.0702804955148
 21
70.50797787330721
 31
0.0
  0
LINE
  5
5E9
330
18
100
AcDbEntity
  8
外形線
 48
0.5
100
AcDbLine
 10
170.8202804955148
 20
66.3079778733072
 30
0.0
 11
170.8202804955147
 21
65.70797787330718
 31
0.0
  0
LINE
  5
5EA
330
18
100
AcDbEntity
  8
外形線
 48
0.5
100
AcDbLine
 10
171.0202804955147
 20
65.50797787330719
 30
0.0
 11
170.8202804955147
 21
65.70797787330718
 31
0.0
  0
LINE
  5
5EB
330
18
100
AcDbEntity
  8
外形線
100
AcDbLine
 10
170.2202804955146
 20
70.50797787330721
 30
0.0
 11
170.2202804955147
 21
67.50797787330731
 31
0.0
  0
ARC
  5
5EC
330
18
100
AcDbEntity
  8
外形線
100
AcDbCircle
 10
170.3702804955146
 20
66.84416813804538
 30
0.0
 40
0.7
100
AcDbArc
 50
310.0052008848602
 51
71.49566077348707
  0
LINE
  5
5EE
330
18
100
AcDbEntity
  8
外形線
100
AcDbLine
 10
176.0702804955144
 20
65.50797787330708
 30
0.0
 11
176.0702804955145
 21
54.5079778733072
 31
0.0
  0
ARC
  5
5F0
330
18
100
AcDbEntity
  8
外形線
100
AcDbCircle
 10
176.930835623061
 20
52.75797787330716
 30
0.0
 40
0.7
100
AcDbArc
 50
121.0027191338818
 51
238.9972808661273
  0
LINE
  5
5F1
330
18
100
AcDbEntity
  8
外形線
100
AcDbLine
 10
176.5702804955146
 20
51.00797787330719
 30
0.0
 11
175.3702804955145
 21
46.50797787330719
 31
0.0
  0
LINE
  5
5F2
330
18
100
AcDbEntity
  8
外形線
 48
0.5
100
AcDbLine
 10
176.5702804955147
 20
52.15797787330718
 30
0.0
 11
176.5702804955146
 21
51.00797787330719
 31
0.0
  0
LINE
  5
5F3
330
18
100
AcDbEntity
  8
ﾊｯﾁﾝｸ
100
AcDbLine
 10
176.5702804955146
 20
51.85214499077478
 30
0.0
 11
176.2644476129822
 21
52.15797787330723
 31
0.0
  0
LINE
  5
5F4
330
18
100
AcDbEntity
  8
ﾊｯﾁﾝｸ
100
AcDbLine
 10
175.3849862495806
 20
51.00797787330719
 30
0.0
 11
176.5349862495808
 21
52.15797787330723
 31
0.0
  0
LINE
  5
5F8
330
18
100
AcDbEntity
  8
ﾊｯﾁﾝｸ
100
AcDbLine
 10
176.3207726872076
 20
53.35797787330716
 30
0.0
 11
176.5702804955147
 21
53.60748568161415
 31
0.0
  0
LINE
  5
5F9
330
18
100
AcDbEntity
  8
外形線
 48
0.5
100
AcDbLine
 10
176.5702804955147
 20
54.50797787330714
 30
0.0
 11
176.5702804955147
 21
53.35797787330722
 31
0.0
  0
LINE
  5
5FC
330
18
100
AcDbEntity
  8
ﾊｯﾁﾝｸ
100
AcDbLine
 10
176.4786611753554
 20
53.35797787330716
 30
0.0
 11
175.3286611753555
 21
54.5079778733072
 31
0.0
  0
LINE
  5
603
330
18
100
AcDbEntity
  8
外形線
100
AcDbLine
 10
178.0702804955148
 20
84.05873402778302
 30
0.0
 11
178.0702804955148
 21
70.5079778733071
 31
0.0
  0
LINE
  5
605
330
18
100
AcDbEntity
  8
外形線
 48
0.5
100
AcDbLine
 10
177.3202804955148
 20
66.3079778733072
 30
0.0
 11
177.3202804955147
 21
65.70797787330713
 31
0.0
  0
LINE
  5
606
330
18
100
AcDbEntity
  8
外形線
 48
0.5
100
AcDbLine
 10
177.1202804955147
 20
65.50797787330714
 30
0.0
 11
177.3202804955147
 21
65.70797787330713
 31
0.0
  0
LINE
  5
607
330
18
100
AcDbEntity
  8
外形線
100
AcDbLine
 10
177.9202804955147
 20
70.50797787330711
 30
0.0
 11
177.9202804955146
 21
67.50797787330717
 31
0.0
  0
ARC
  5
608
330
18
100
AcDbEntity
  8
外形線
100
AcDbCircle
 10
177.7702804955147
 20
66.84416813804538
 30
0.0
 40
0.7
100
AcDbArc
 50
108.5043392265129
 51
229.9947991151399
  0
LINE
  5
609
330
18
100
AcDbEntity
  8
外形線
100
AcDbLine
 10
171.5702804955145
 20
52.15797787330716
 30
0.0
 11
176.5702804955147
 21
52.15797787330716
 31
0.0
  0
LINE
  5
60A
330
18
100
AcDbEntity
  8
外形線
100
AcDbLine
 10
171.0202804955147
 20
65.50797787330719
 30
0.0
 11
177.1202804955147
 21
65.50797787330714
 31
0.0
  0
LINE
  5
60B
330
18
100
AcDbEntity
  8
外形線
100
AcDbLine
 10
170.8202804955145
 20
154.5079778733072
 30
0.0
 11
171.5544351334845
 21
154.5079778733072
 31
0.0
  0
LINE
  5
60C
330
18
100
AcDbEntity
  8
外形線
100
AcDbLine
 10
169.8202804955145
 20
153.5079778733073
 30
0.0
 11
171.5350361644398
 21
153.5079778733073
 31
0.0
  0
LINE
  5
60D
330
18
100
AcDbEntity
  8
外形線
100
AcDbLine
 10
169.5702804955145
 20
147.5079778733072
 30
0.0
 11
171.4186423501711
 21
147.5079778733072
 31
0.0
  0
LINE
  5
60E
330
18
100
AcDbEntity
  8
外形線
100
AcDbLine
 10
169.5702804955145
 20
141.5079778733072
 30
0.0
 11
171.3022485359025
 21
141.5079778733072
 31
0.0
  0
LINE
  5
60F
330
18
100
AcDbEntity
  8
外形線
 62
     4
100
AcDbLine
 10
170.0884859795682
 20
147.5079778733072
 30
0.0
 11
170.0884859795681
 21
141.5079778733072
 31
0.0
  0
LINE
  5
610
330
18
100
AcDbEntity
  8
外形線
100
AcDbLine
 10
169.5702804955145
 20
147.5079778733072
 30
0.0
 11
169.5702804955145
 21
141.5079778733072
 31
0.0
  0
LINE
  5
611
330
18
100
AcDbEntity
  8
外形線
 62
     4
100
AcDbLine
 10
170.8202804955145
 20
147.5079778733072
 30
0.0
 11
170.8202804955145
 21
141.5079778733072
 31
0.0
  0
LINE
  5
615
330
18
100
AcDbEntity
  8
外形線
100
AcDbLine
 10
169.8202804955145
 20
141.5079778733071
 30
0.0
 11
169.8202804955145
 21
137.0079778733071
 31
0.0
  0
LINE
  5
616
330
18
100
AcDbEntity
  8
外形線
100
AcDbLine
 10
169.8202804955145
 20
153.5079778733073
 30
0.0
 11
169.8202804955145
 21
147.5079778733072
 31
0.0
  0
LINE
  5
617
330
18
100
AcDbEntity
  8
外形線
100
AcDbLine
 10
170.8202804955145
 20
154.5079778733072
 30
0.0
 11
169.8202804955145
 21
153.5079778733072
 31
0.0
  0
LINE
  5
619
330
18
100
AcDbEntity
  8
外形線
100
AcDbLine
 10
178.5702804955145
 20
147.5079778733072
 30
0.0
 11
178.5702804955146
 21
141.5079778733072
 31
0.0
  0
LINE
  5
61A
330
18
100
AcDbEntity
  8
外形線
100
AcDbLine
 10
178.3202804955146
 20
141.5079778733072
 30
0.0
 11
178.3202804955145
 21
137.0079778733072
 31
0.0
  0
LINE
  5
61B
330
18
100
AcDbEntity
  8
外形線
100
AcDbLine
 10
178.3202804955146
 20
153.5079778733072
 30
0.0
 11
178.3202804955146
 21
147.5079778733072
 31
0.0
  0
LINE
  5
61C
330
18
100
AcDbEntity
  8
外形線
100
AcDbLine
 10
177.3202804955146
 20
154.5079778733072
 30
0.0
 11
178.3202804955146
 21
153.5079778733072
 31
0.0
  0
LINE
  5
61D
330
18
100
AcDbEntity
  8
中心線
100
AcDbLine
 10
124.6798689612229
 20
164.3943044851203
 30
0.0
 11
101.5341009649406
 21
124.3046583353575
 31
0.0
  0
LINE
  5
61F
330
18
100
AcDbEntity
  8
中心線
 48
0.3
100
AcDbLine
 10
113.7987260061495
 20
100.1501774540723
 30
0.0
 11
121.6899553410775
 21
90.7457765441871
 31
0.0
  0
LINE
  5
642
330
18
100
AcDbEntity
  8
外形線
100
AcDbLine
 10
118.4950527409024
 20
97.66476084965516
 30
0.0
 11
120.5519730918993
 21
95.21341863167441
 31
0.0
  0
LINE
  5
643
330
18
100
AcDbEntity
  8
外形線
100
AcDbLine
 10
115.4308749684265
 20
95.09361041090897
 30
0.0
 11
117.4877953194234
 21
92.64226819292828
 31
0.0
  0
LINE
  5
644
330
18
100
AcDbEntity
  8
外形線
100
AcDbLine
 10
115.4308749684265
 20
95.09361041090897
 30
0.0
 11
118.4950527409024
 21
97.66476084965516
 31
0.0
  0
LINE
  5
645
330
18
100
AcDbEntity
  8
外形線
100
AcDbLine
 10
117.9104449352651
 20
92.60529114289854
 30
0.0
 11
120.5149960418696
 21
94.79076901583276
 31
0.0
  0
LINE
  5
646
330
18
100
AcDbEntity
  8
外形線
100
AcDbLine
 10
117.4877953194234
 20
92.64226819292828
 30
0.0
 11
117.9104449352651
 21
92.60529114289854
 31
0.0
  0
LINE
  5
647
330
18
100
AcDbEntity
  8
外形線
100
AcDbLine
 10
120.5149960418696
 20
94.79076901583276
 30
0.0
 11
120.5519730918993
 21
95.21341863167441
 31
0.0
  0
LINE
  5
648
330
18
100
AcDbEntity
  8
外形線
100
AcDbLine
 10
117.4877953194234
 20
92.64226819292828
 30
0.0
 11
120.5519730918993
 21
95.21341863167441
 31
0.0
  0
LINE
  5
649
330
18
100
AcDbEntity
  8
外形線
100
AcDbLine
 10
117.1128728066305
 20
97.81038146591924
 30
0.0
 11
117.8522651312158
 21
98.43080529277413
 31
0.0
  0
LINE
  5
64B
330
18
100
AcDbEntity
  8
外形線
100
AcDbLine
 10
117.4692429096563
 20
98.10941148793085
 30
0.0
 11
118.1120305193429
 21
97.34336704481187
 31
0.0
  0
LINE
  5
64C
330
18
100
AcDbEntity
  8
外形線
100
AcDbLine
 10
115.7255578621311
 20
95.52028292709058
 30
0.0
 11
115.813897189986
 21
95.41500421575225
 31
0.0
  0
LINE
  5
656
330
18
100
AcDbEntity
  8
外形線
100
AcDbLine
 10
117.536770437655
 20
98.62990864285002
 30
0.0
 11
117.8522651312158
 21
98.43080529277415
 31
0.0
  0
LINE
  5
65F
330
18
100
AcDbEntity
  8
外形線
100
AcDbLine
 10
117.2785202767915
 20
156.5747925191519
 30
0.0
 11
121.6086472957137
 21
154.0747925191519
 31
0.0
  0
LINE
  5
664
330
18
100
AcDbEntity
  8
外形線
100
AcDbLine
 10
109.3919094030611
 20
132.0761225877802
 30
0.0
 11
121.6086472957137
 21
154.0747925191519
 31
0.0
  0
LINE
  5
665
330
18
100
AcDbEntity
  8
外形線
100
AcDbLine
 10
104.3354822130811
 20
134.9954521870529
 30
0.0
 11
117.2785202767915
 21
156.5747925191519
 31
0.0
  0
CIRCLE
  5
676
330
18
100
AcDbEntity
  8
外形線
100
AcDbCircle
 10
93.56858378625259
 20
110.5079778733072
 30
0.0
 40
20.2
  0
LINE
  5
677
330
18
100
AcDbEntity
  8
外形線
100
AcDbLine
 10
77.98614174400518
 20
120.0079778733072
 30
0.0
 11
109.1510258285
 21
120.0079778733072
 31
0.0
  0
LINE
  5
678
330
18
100
AcDbEntity
  8
外形線
100
AcDbLine
 10
77.98614174400518
 20
101.0079778733072
 30
0.0
 11
109.1510258285
 21
101.0079778733072
 31
0.0
  0
ARC
  5
679
330
18
100
AcDbEntity
  8
外形線
100
AcDbCircle
 10
93.56858378625259
 20
110.5079778733072
 30
0.0
 40
18.25
100
AcDbArc
 50
148.6309862418887
 51
211.3690137581112
  0
ARC
  5
67A
330
18
100
AcDbEntity
  8
外形線
100
AcDbCircle
 10
93.56858378625259
 20
110.5079778733072
 30
0.0
 40
18.25
100
AcDbArc
 50
328.6309862418888
 51
31.36901375811124
  0
TEXT
  5
67F
330
18
100
AcDbEntity
  8
文字
100
AcDbText
 10
83.79720162200658
 20
97.5079778733072
 30
0.0
 40
1.5
  1
OZAKI MFG.CD;LTD
  7
STYLE3
100
AcDbText
  0
TEXT
  5
680
330
18
100
AcDbEntity
  8
文字
100
AcDbText
 10
83.59413679362512
 20
104.9980427712206
 30
0.0
 40
2.0
  1
MODEL
  7
4
100
AcDbText
  0
TEXT
  5
681
330
18
100
AcDbEntity
  8
文字
100
AcDbText
 10
94.0919362772105
 20
104.7990068219144
 30
0.0
 40
2.5
  1
D-10
  7
4
100
AcDbText
  0
LINE
  5
684
330
18
100
AcDbEntity
  8
外形線
100
AcDbLine
 10
84.7065249016232
 20
115.0079778733072
 30
0.0
 11
102.4306426708819
 21
115.0079778733072
 31
0.0
  0
TEXT
  5
688
330
18
100
AcDbEntity
  8
文字
100
AcDbText
 10
86.8244882652225
 20
112.0171179432843
 30
0.0
 40
2.5
  1
GAUGE
 41
1.199999999999999
  7
4
100
AcDbText
  0
TEXT
  5
689
330
18
100
AcDbEntity
  8
文字
100
AcDbText
 10
85.91504575446288
 20
115.5089011827406
 30
0.0
 40
2.5
  1
DIGITAL
 41
1.199999999999999
  7
4
100
AcDbText
  0
LINE
  5
68F
330
18
100
AcDbEntity
  8
外形線
100
AcDbLine
 10
124.8867639431352
 20
160.7526571056233
 30
0.0
 11
121.1756345938215
 21
154.3247925191519
 31
0.0
  0
LINE
  5
690
330
18
100
AcDbEntity
  8
外形線
100
AcDbLine
 10
121.4226623279974
 20
162.7526571056233
 30
0.0
 11
117.7115329786837
 21
156.3247925191519
 31
0.0
  0
ARC
  5
696
330
18
100
AcDbEntity
  8
外形線
100
AcDbCircle
 10
121.4226623279975
 20
160.7526571056234
 30
0.0
 40
1.999999999999977
100
AcDbArc
 50
29.99999999999671
 51
90.00000000000406
  0
ARC
  5
697
330
18
100
AcDbEntity
  8
外形線
100
AcDbCircle
 10
123.1547131355662
 20
163.7526571056233
 30
0.0
 40
1.999999999999977
100
AcDbArc
 50
209.9999999999975
 51
270.0000000000049
  0
ARC
  5
698
330
18
100
AcDbEntity
  8
外形線
100
AcDbCircle
 10
123.1547131355662
 20
159.7526571056233
 30
0.0
 40
1.999999999999977
100
AcDbArc
 50
29.99999999999671
 51
90.00000000000406
  0
ELLIPSE
  5
6CA
330
18
100
AcDbEntity
  8
外形線
100
AcDbEllipse
 10
174.0702804955145
 20
155.3247925191519
 30
0.0
 11
-2.499999999999971
 21
0.0
 31
0.0
210
0.0
220
0.0
230
1.0
 40
0.4999999999999716
 41
5.639684198386314
 42
10.06827906956265
  0
ELLIPSE
  5
6CD
330
18
100
AcDbEntity
  8
外形線
100
AcDbEllipse
 10
174.0702804955145
 20
155.3247925191519
 30
0.0
 11
-2.0
 21
0.0
 31
0.0
210
0.0
220
0.0
230
1.0
 40
0.4999999999999858
 41
0.0
 42
3.141592653589793
  0
LINE
  5
6CE
330
18
100
AcDbEntity
  8
外形線
100
AcDbLine
 10
171.5702804955146
 20
155.3247925191519
 30
0.0
 11
171.1502804955145
 21
133.6741574245409
 31
0.0
  0
LINE
  5
6CF
330
18
100
AcDbEntity
  8
外形線
100
AcDbLine
 10
176.5702804955145
 20
155.3247925191519
 30
0.0
 11
176.9902804955145
 21
133.6741574245409
 31
0.0
  0
LINE
  5
6D0
330
18
100
AcDbEntity
  8
中心線
100
AcDbLine
 10
174.0702804955145
 20
165.0434597651531
 30
0.0
 11
174.0702804955145
 21
43.09795557663977
 31
0.0
  0
ELLIPSE
  5
6D1
330
18
100
AcDbEntity
  8
外形線
100
AcDbEllipse
 10
174.0702804955145
 20
133.6741574245409
 30
0.0
 11
-2.919999999999987
 21
0.0
 31
0.0
210
0.0
220
0.0
230
1.0
 40
0.5472722043701016
 41
6.261953071750643
 42
9.446010196198747
  0
LINE
  5
6D4
330
18
100
AcDbEntity
  8
外形線
100
AcDbLine
 10
172.0702804955145
 20
155.3247925191519
 30
0.0
 11
172.0702804955145
 21
160.1980822441953
 31
0.0
  0
LINE
  5
6D5
330
18
100
AcDbEntity
  8
外形線
100
AcDbLine
 10
176.0702804955145
 20
155.3247925191519
 30
0.0
 11
176.0702804955146
 21
161.2698790139198
 31
0.0
  0
LINE
  5
6D6
330
18
100
AcDbEntity
  8
外形線
100
AcDbLine
 10
176.721918640858
 20
147.5079778733072
 30
0.0
 11
178.5702804955145
 21
147.5079778733072
 31
0.0
  0
LINE
  5
6D7
330
18
100
AcDbEntity
  8
外形線
100
AcDbLine
 10
176.8383124551266
 20
141.5079778733072
 30
0.0
 11
178.5702804955146
 21
141.5079778733072
 31
0.0
  0
LINE
  5
6D8
330
18
100
AcDbEntity
  8
外形線
  6
Continuous
100
AcDbLine
 10
176.9256078158281
 20
137.0079778733072
 30
0.0
 11
180.8702804955146
 21
137.0079778733072
 31
0.0
  0
LINE
  5
6D9
330
18
100
AcDbEntity
  8
外形線
  6
Continuous
100
AcDbLine
 10
176.9353073003505
 20
136.5079778733072
 30
0.0
 11
181.0702804955145
 21
136.5079778733072
 31
0.0
  0
LINE
  5
6DA
330
18
100
AcDbEntity
  8
外形線
100
AcDbLine
 10
176.6055248265893
 20
153.5079778733072
 30
0.0
 11
178.3202804955146
 21
153.5079778733072
 31
0.0
  0
LINE
  5
6DB
330
18
100
AcDbEntity
  8
外形線
100
AcDbLine
 10
176.5861258575446
 20
154.5079778733072
 30
0.0
 11
177.3202804955146
 21
154.5079778733072
 31
0.0
  0
LINE
  5
6EB
330
18
100
AcDbEntity
  8
想像線
 48
0.2
100
AcDbLine
 10
170.760032381422
 20
159.8470023201397
 30
0.0
 11
177.9570646480904
 21
161.7754413038943
 31
0.0
  0
LINE
  5
72B
330
18
100
AcDbEntity
  8
外形線
 62
     2
100
AcDbLine
 10
195.7899245510711
 20
115.9945227409286
 30
0.0
 11
199.6211645549108
 21
125.6487932349903
 31
0.0
  0
INSERT
  5
72C
330
18
100
AcDbEntity
  8
0
  6
ByBlock
 62
     2
100
AcDbBlockReference
  2
_OPEN
 10
211.2162535312614
 20
118.507977873307
 30
0.0
 41
2.5
 42
2.5
 43
2.5
 50
90.0
  0
LINE
  5
72D
330
18
100
AcDbEntity
  8
外形線
100
AcDbLine
 10
183.5702804955144
 20
118.007977873307
 30
0.0
 11
183.5702804955146
 21
103.0079778733069
 31
0.0
  0
ARC
  5
72F
330
18
100
AcDbEntity
  8
外形線
100
AcDbCircle
 10
-148.357984569049
 20
110.5079778733067
 30
0.0
 40
331.1128153357761
100
AcDbArc
 50
0.0000000000000787
 51
4.273479370893094
  0
LINE
  5
730
330
18
100
AcDbEntity
  8
想像線
 48
0.5
100
AcDbLine
 10
185.5702804955145
 20
102.5063921298541
 30
0.0
 11
185.5702804955145
 21
118.5095636167599
 31
0.0
  0
LINE
  5
731
330
18
100
AcDbEntity
  8
想像線
 48
0.5
100
AcDbLine
 10
190.5702804955145
 20
102.507977873307
 30
0.0
 11
190.5702804955145
 21
118.507977873307
 31
0.0
  0
ARC
  5
732
330
18
100
AcDbEntity
  8
外形線
100
AcDbCircle
 10
194.0702804955146
 20
110.5079778733072
 30
0.0
 40
8.0
100
AcDbArc
 50
270.0
 51
90.0
  0
ARC
  5
733
330
18
100
AcDbEntity
  8
外形線
100
AcDbCircle
 10
194.0702804955146
 20
110.5079778733072
 30
0.0
 40
7.5
100
AcDbArc
 50
270.0
 51
90.0
  0
ARC
  5
734
330
18
100
AcDbEntity
  8
外形線
100
AcDbCircle
 10
194.0702804955146
 20
110.5079778733072
 30
0.0
 40
8.0
100
AcDbArc
 50
270.0
 51
90.0
  0
ARC
  5
735
330
18
100
AcDbEntity
  8
外形線
100
AcDbCircle
 10
-148.357984569049
 20
110.5079778733076
 30
0.0
 40
331.1128153357761
100
AcDbArc
 50
355.7265206291069
 51
359.9999999999999
  0
POINT
  5
736
330
18
100
AcDbEntity
  8
DEFPOINTS
  6
ByBlock
 62
     0
100
AcDbPoint
 10
181.0702804955145
 20
84.31183060453724
 30
0.0
  0
ARC
  5
737
330
18
100
AcDbEntity
  8
外形線
100
AcDbCircle
 10
181.3396926101348
 20
85.90797787330712
 30
0.0
 40
0.5
100
AcDbArc
 50
297.4630038980566
 51
351.5372560443927
  0
CIRCLE
  5
739
330
18
100
AcDbEntity
  8
外形線
100
AcDbCircle
 10
194.0702804955146
 20
110.5079778733072
 30
0.0
 40
3.25
  0
ARC
  5
73A
330
18
100
AcDbEntity
  8
外形線
100
AcDbCircle
 10
184.6046976356191
 20
100.507977873307
 30
0.0
 40
2.0
100
AcDbArc
 50
90.0
 51
178.2797302860686
  0
LINE
  5
73B
330
18
100
AcDbEntity
  8
外形線
100
AcDbLine
 10
194.0702804955146
 20
103.007977873307
 30
0.0
 11
183.5702804955146
 21
103.0079778733069
 31
0.0
  0
LINE
  5
73C
330
18
100
AcDbEntity
  8
外形線
100
AcDbLine
 10
194.0702804955146
 20
102.507977873307
 30
0.0
 11
184.6046976356191
 21
102.507977873307
 31
0.0
  0
LINE
  5
73D
330
18
100
AcDbEntity
  8
0
  6
ByBlock
 62
     2
100
AcDbLine
 10
195.0702804955145
 20
102.507977873307
 30
0.0
 11
212.4662535312614
 21
102.507977873307
 31
0.0
  0
POINT
  5
73E
330
18
100
AcDbEntity
  8
DEFPOINTS
  6
ByBlock
 62
     0
100
AcDbPoint
 10
195.0702804955145
 20
102.507977873307
 30
0.0
  0
LINE
  5
73F
330
18
100
AcDbEntity
  8
外形線
 62
     2
100
AcDbLine
 10
195.0688119474967
 20
113.6007816076884
 30
0.0
 11
195.7899245510711
 21
115.9945227409286
 31
0.0
  0
LINE
  5
740
330
18
100
AcDbEntity
  8
外形線
 62
     2
100
AcDbLine
 10
195.0688119474967
 20
113.6007816076884
 30
0.0
 11
195.390967695531
 21
116.1147081748577
 31
0.0
  0
LINE
  5
741
330
18
100
AcDbEntity
  8
外形線
 62
     2
100
AcDbLine
 10
196.1888814066112
 20
115.8743373069996
 30
0.0
 11
195.0688119474967
 21
113.6007816076884
 31
0.0
  0
MTEXT
  5
742
330
18
100
AcDbEntity
  8
0
  6
ByBlock
 62
     6
100
AcDbMText
 10
209.3412535312614
 20
110.507977873307
 30
0.0
 40
2.5
 41
0.0
 71
     5
 72
     1
  1
φ16
  7
STYLE3
 11
0.0000000000000001
 21
1.0
 31
0.0
 73
     1
 44
1.0
  0
LINE
  5
743
330
18
100
AcDbEntity
  8
0
  6
ByBlock
 62
     2
100
AcDbLine
 10
211.2162535312614
 20
116.007977873307
 30
0.0
 11
211.2162535312614
 21
105.007977873307
 31
0.0
  0
POINT
  5
744
330
18
100
AcDbEntity
  8
DEFPOINTS
  6
ByBlock
 62
     0
100
AcDbPoint
 10
211.2162535312614
 20
102.507977873307
 30
0.0
  0
INSERT
  5
745
330
18
100
AcDbEntity
  8
0
  6
ByBlock
 62
     2
100
AcDbBlockReference
  2
_OPEN
 10
211.2162535312614
 20
102.507977873307
 30
0.0
 41
2.5
 42
2.5
 43
2.5
 50
270.0
  0
LINE
  5
746
330
18
100
AcDbEntity
  8
0
  6
ByBlock
 62
     2
100
AcDbLine
 10
193.0702804955145
 20
125.6487932349903
 30
0.0
 11
195.5702804955145
 21
125.6487932349903
 31
0.0
  0
INSERT
  5
747
330
18
100
AcDbEntity
  8
0
  6
ByBlock
 62
     2
100
AcDbBlockReference
  2
_OPEN
 10
185.5702804955145
 20
125.6487932349903
 30
0.0
 41
2.5
 42
2.5
 43
2.5
  0
ARC
  5
748
330
18
100
AcDbEntity
  8
外形線
100
AcDbCircle
 10
184.6046976356191
 20
120.507977873307
 30
0.0
 40
2.0
100
AcDbArc
 50
181.7202697139297
 51
270.0
  0
LINE
  5
749
330
18
100
AcDbEntity
  8
外形線
100
AcDbLine
 10
194.0702804955146
 20
118.007977873307
 30
0.0
 11
183.5702804955144
 21
118.007977873307
 31
0.0
  0
LINE
  5
74A
330
18
100
AcDbEntity
  8
0
  6
ByBlock
 62
     2
100
AcDbLine
 10
183.0702804955145
 20
125.6487932349903
 30
0.0
 11
180.5702804955145
 21
125.6487932349903
 31
0.0
  0
LINE
  5
74B
330
18
100
AcDbEntity
  8
0
  6
ByBlock
 62
     2
100
AcDbLine
 10
190.5702804955145
 20
118.507977873307
 30
0.0
 11
190.5702804955145
 21
126.8987932349903
 31
0.0
  0
LINE
  5
74C
330
18
100
AcDbEntity
  8
0
  6
ByBlock
 62
     2
100
AcDbLine
 10
185.5702804955145
 20
118.5095636167599
 30
0.0
 11
185.5702804955145
 21
126.8987932349903
 31
0.0
  0
LINE
  5
74D
330
18
100
AcDbEntity
  8
外形線
100
AcDbLine
 10
194.0702804955146
 20
118.5079778733071
 30
0.0
 11
184.6046976356191
 21
118.507977873307
 31
0.0
  0
POINT
  5
74E
330
18
100
AcDbEntity
  8
DEFPOINTS
  6
ByBlock
 62
     0
100
AcDbPoint
 10
185.5702804955145
 20
118.5095636167599
 30
0.0
  0
POINT
  5
74F
330
18
100
AcDbEntity
  8
DEFPOINTS
  6
ByBlock
 62
     0
100
AcDbPoint
 10
190.5702804955145
 20
118.507977873307
 30
0.0
  0
LINE
  5
750
330
18
100
AcDbEntity
  8
0
  6
ByBlock
 62
     2
100
AcDbLine
 10
185.5702804955145
 20
125.6487932349903
 30
0.0
 11
190.5702804955145
 21
125.6487932349903
 31
0.0
  0
MTEXT
  5
751
330
18
100
AcDbEntity
  8
0
  6
ByBlock
 62
     6
100
AcDbMText
 10
188.0702804955145
 20
127.5237932349903
 30
0.0
 40
2.5
 41
0.0
 71
     5
 72
     1
  1
\A1;5
  7
STYLE3
 73
     1
 44
1.0
  0
POINT
  5
752
330
18
100
AcDbEntity
  8
DEFPOINTS
  6
ByBlock
 62
     0
100
AcDbPoint
 10
190.5702804955145
 20
125.6487932349903
 30
0.0
  0
INSERT
  5
753
330
18
100
AcDbEntity
  8
0
  6
ByBlock
 62
     2
100
AcDbBlockReference
  2
_OPEN
 10
190.5702804955145
 20
125.6487932349903
 30
0.0
 41
2.5
 42
2.5
 43
2.5
 50
180.0
  0
ARC
  5
756
330
18
100
AcDbEntity
  8
外形線
100
AcDbCircle
 10
181.3396926101348
 20
135.1079778733073
 30
0.0
 40
0.5
100
AcDbArc
 50
8.462743955607335
 51
62.53699610194337
  0
TEXT
  5
758
330
18
100
AcDbEntity
  8
針
 62
     6
100
AcDbText
 10
199.2527347522688
 20
126.0485968204958
 30
0.0
 40
2.5
  1
φ6.5
  7
STYLE3
100
AcDbText
  0
LINE
  5
759
330
18
100
AcDbEntity
  8
外形線
 62
     2
100
AcDbLine
 10
199.6211645549108
 20
125.6487932349903
 30
0.0
 11
209.1574675319624
 21
125.6487932349903
 31
0.0
  0
LINE
  5
75A
330
18
100
AcDbEntity
  8
0
  6
ByBlock
 62
     2
100
AcDbLine
 10
195.0702804955145
 20
118.507977873307
 30
0.0
 11
212.4662535312614
 21
118.507977873307
 31
0.0
  0
POINT
  5
75B
330
18
100
AcDbEntity
  8
DEFPOINTS
  6
ByBlock
 62
     0
100
AcDbPoint
 10
195.0702804955145
 20
118.507977873307
 30
0.0
  0
LINE
  5
769
330
18
100
AcDbEntity
  8
中心線
100
AcDbLine
 10
194.0702804955146
 20
121.7675933941744
 30
0.0
 11
194.0702804955146
 21
98.97051897568452
 31
0.0
  0
LINE
  5
7A7
330
18
100
AcDbEntity
  8
外形線
100
AcDbLine
 10
176.0702804955145
 20
96.37918563028236
 30
0.0
 11
176.0702804955145
 21
93.69803007936589
 31
0.0
  0
LINE
  5
7A8
330
18
100
AcDbEntity
  8
外形線
100
AcDbLine
 10
172.0702804955145
 20
96.37918563028156
 30
0.0
 11
172.0702804955145
 21
93.69803007936521
 31
0.0
  0
ELLIPSE
  5
7A9
330
18
100
AcDbEntity
  8
外形線
100
AcDbEllipse
 10
174.0702804955145
 20
93.69803007936566
 30
0.0
 11
-2.0
 21
0.0
 31
0.0
210
0.0
220
0.0
230
1.0
 40
0.5463694682335501
 41
0.0
 42
6.283185307179586
  0
ELLIPSE
  5
7AD
330
18
100
AcDbEntity
  8
外形線
100
AcDbEllipse
 10
174.0702804955145
 20
96.37918563028208
 30
0.0
 11
-2.0
 21
0.0
 31
0.0
210
0.0
220
0.0
230
1.0
 40
0.6427876096865291
 41
3.141592653589793
 42
6.283185307179586
  0
LINE
  5
7C5
330
18
100
AcDbEntity
  8
外形線
100
AcDbLine
 10
175.5702804955145
 20
98.43929788446303
 30
0.0
 11
175.5702804955145
 21
97.22951371081439
 31
0.0
  0
LINE
  5
7C6
330
18
100
AcDbEntity
  8
外形線
100
AcDbLine
 10
172.5702804955145
 20
98.4392978844626
 30
0.0
 11
172.5702804955145
 21
97.22951371081396
 31
0.0
  0
ELLIPSE
  5
7D9
330
18
100
AcDbEntity
  8
外形線
100
AcDbEllipse
 10
174.0702804955145
 20
97.58896980393073
 30
0.0
 11
-2.0
 21
0.0
 31
0.0
210
0.0
220
0.0
230
1.0
 40
0.6427876096865291
 41
3.864326901403281
 42
5.560451059366265
  0
DIMENSION
  5
7E6
330
18
100
AcDbEntity
  8
外形線
100
AcDbDimension
  2
*D1
 10
53.92367841996417
 20
110.5079778733072
 30
0.0
 11
52.04867841996416
 21
132.5079778733072
 31
0.0
 70
    32
 71
     5
 42
44.00000000000001
  3
STYLE3
100
AcDbAlignedDimension
 13
90.31858378625253
 23
154.5079778733072
 33
0.0
 14
61.64891651876655
 24
110.5079778733072
 34
0.0
 50
90.0
100
AcDbRotatedDimension
1001
ACAD
1000
DSTYLE
1002
{
1070
   271
1070
     2
1002
}
  0
DIMENSION
  5
7F2
330
18
100
AcDbEntity
  8
外形線
100
AcDbDimension
  2
*D2
 10
53.92367841996417
 20
45.5079778733072
 30
0.0
 11
52.04867841996417
 21
78.00797787330721
 31
0.0
 70
    32
 71
     5
 42
65.0
  3
STYLE3
100
AcDbAlignedDimension
 13
61.64891651876655
 23
110.5079778733072
 33
0.0
 14
93.56858378625259
 24
45.50797787330719
 34
0.0
 50
90.0
100
AcDbRotatedDimension
1001
ACAD
1000
DSTYLE
1002
{
1070
    75
1070
     1
1070
   271
1070
     2
1070
   279
1070
     1
1002
}
  0
DIMENSION
  5
7FF
330
18
100
AcDbEntity
  8
外形線
100
AcDbDimension
  2
*D3
 10
44.88659465119224
 20
45.5079778733072
 30
0.0
 11
43.01159465119224
 21
100.0079778733072
 31
0.0
 70
    32
 71
     5
 42
109.0
  3
STYLE3
100
AcDbAlignedDimension
 13
52.67367841996417
 23
154.5079778733072
 33
0.0
 14
52.67367841996417
 24
45.50797787330719
 34
0.0
 50
90.0
100
AcDbRotatedDimension
1001
ACAD
1000
DSTYLE
1002
{
1070
   271
1070
     2
1002
}
  0
DIMENSION
  5
80C
330
18
100
AcDbEntity
  8
外形線
100
AcDbDimension
  2
*D4
 10
145.6235040635817
 20
83.75797787330721
 30
0.0
 11
143.7485040635817
 21
110.5079778733072
 31
0.0
 70
    32
 71
     5
 42
53.49999999999998
  3
STYLE3
100
AcDbAlignedDimension
 13
158.5702804955145
 23
137.2579778733072
 33
0.0
 14
158.5702804955145
 24
83.75797787330721
 34
0.0
 50
90.0
100
AcDbRotatedDimension
1001
ACAD
1000
DSTYLE
1002
{
1070
   271
1070
     2
1002
}
  0
DIMENSION
  5
818
330
18
100
AcDbEntity
  8
外形線
100
AcDbDimension
  2
*D5
 10
145.6235040635817
 20
45.50797787330719
 30
0.0
 11
143.7485040635817
 21
64.63297787330723
 31
0.0
 70
    32
 71
     5
 42
38.25000000000001
  3
STYLE3
100
AcDbAlignedDimension
 13
158.5702804955145
 23
83.75797787330721
 33
0.0
 14
174.0702804955145
 24
45.50797787330719
 34
0.0
 50
90.0
100
AcDbRotatedDimension
1001
ACAD
1000
DSTYLE
1002
{
1070
    75
1070
     1
1070
   271
1070
     2
1070
   279
1070
     1
1002
}
  0
DIMENSION
  5
825
330
18
100
AcDbEntity
  8
外形線
100
AcDbDimension
  2
*D6
 10
153.434861166638
 20
65.50797787330721
 30
0.0
 11
153.434861166638
 21
74.63297787330721
 31
0.0
 70
   160
 71
     5
 42
18.25
  3
STYLE3
100
AcDbAlignedDimension
 13
154.9150222216749
 23
83.75797787330721
 33
0.0
 14
171.0202804955147
 24
65.50797787330719
 34
0.0
 50
90.0
100
AcDbRotatedDimension
1001
ACAD
1000
DSTYLE
1002
{
1070
   271
1070
     2
1002
}
  0
DIMENSION
  5
83C
330
18
100
AcDbEntity
  8
外形線
100
AcDbDimension
  2
*D7
 10
153.434861166638
 20
45.50797787330719
 30
0.0
 11
151.559861166638
 21
55.50797787330723
 31
0.0
 70
    32
 71
     5
 42
20.00000000000001
  3
STYLE3
100
AcDbAlignedDimension
 13
171.0202804955147
 23
65.50797787330719
 33
0.0
 14
161.4700209557467
 24
45.50797787330719
 34
0.0
 50
90.0
100
AcDbRotatedDimension
1001
ACAD
1000
DSTYLE
1002
{
1070
    75
1070
     1
1070
   271
1070
     2
1070
   279
1070
     1
1002
}
  0
DIMENSION
  5
849
330
18
100
AcDbEntity
  8
外形線
100
AcDbDimension
  2
*D8
 10
97.56858378625281
 20
75.24125141229245
 30
0.0
 11
104.7412028338718
 21
77.11625141229245
 31
0.0
 70
    32
  1
φ8.0
 71
     5
 42
8.0
  3
STYLE3
100
AcDbAlignedDimension
 13
89.56858378625282
 23
75.4802136112703
 33
0.0
 14
97.56858378625281
 24
75.36073251178141
 34
0.0
100
AcDbRotatedDimension
1001
ACAD
1000
DSTYLE
1002
{
1070
   271
1070
     2
1002
}
  0
TEXT
  5
856
330
18
100
AcDbEntity
  8
文字
100
AcDbText
 10
111.0674124490816
 20
80.27011689226185
 30
0.0
 40
1.5
  1
0
  7
STYLE3
100
AcDbText
  0
TEXT
  5
857
330
18
100
AcDbEntity
  8
文字
100
AcDbText
 10
109.2182334281101
 20
78.40816649912898
 30
0.0
 40
1.5
  1
-0.03
  7
STYLE3
100
AcDbText
  0
INSERT
  5
8B0
330
18
100
AcDbEntity
  8
文字
100
AcDbBlockReference
  2
ROGO
 10
84.04239628508731
 20
121.2295180963411
 30
0.0
 41
0.5
 42
0.5
 43
0.5
  0
DIMENSION
  5
919
330
18
100
AcDbEntity
  8
文字
100
AcDbDimension
  2
*D11
 10
194.0702804955146
 20
75.78253949070631
 30
0.0
 11
184.0702804955146
 21
77.65753949070631
 31
0.0
 70
    32
 71
     5
 42
20.0
  3
STYLE3
100
AcDbAlignedDimension
 13
174.0702804955145
 23
80.62934715296126
 33
0.0
 14
194.0702804955146
 24
98.97051897568452
 34
0.0
100
AcDbRotatedDimension
1001
ACAD
1000
DSTYLE
1002
{
1070
   271
1070
     2
1002
}
  0
TEXT
  5
94D
330
18
100
AcDbEntity
  8
文字
100
AcDbText
 10
81.34620589539307
 20
184.4068171894923
 30
0.0
 40
4.0
  1
Model No.D-10 Linear Gauge
  7
STYLE3
100
AcDbText
  0
LINE
  5
94E
330
18
100
AcDbEntity
  8
外形線
100
AcDbLine
 10
80.98198689539307
 20
182.2947111894923
 30
0.0
 11
167.9819868953931
 21
182.2947111894923
 31
0.0
  0
LINE
  5
94F
330
18
100
AcDbEntity
  8
外形線
100
AcDbLine
 10
80.98198689539307
 20
181.2947111894923
 30
0.0
 11
167.9819868953931
 21
181.2947111894923
 31
0.0
  0
LINE
  5
951
330
18
100
AcDbEntity
  8
外形線
100
AcDbLine
 10
113.365928895393
 20
20.92835218949235
 30
0.0
 11
254.1573468953931
 21
20.92835218949235
 31
0.0
  0
LINE
  5
952
330
18
100
AcDbEntity
  8
外形線
100
AcDbLine
 10
113.365928895393
 20
10.14814618949235
 30
0.0
 11
254.1573468953931
 21
10.14814618949235
 31
0.0
  0
TEXT
  5
953
330
18
100
AcDbEntity
  8
0
  6
Continuous
100
AcDbText
 10
114.823395895393
 20
12.04613618949235
 30
0.0
 40
2.1
  1
Design and specifications are subject to change without notice for future improvement.
  7
STYLE3
100
AcDbText
  0
TEXT
  5
954
330
18
100
AcDbEntity
  8
0
  6
Continuous
100
AcDbText
 10
115.114889895393
 20
15.97528418949235
 30
0.0
 40
3.5
  1
仕様及び外観は予告なく変更される場合がございますのでご了承下さい。
  7
STYLE3
100
AcDbText
  0
TEXT
  5
955
330
18
100
AcDbEntity
  8
0
  6
Continuous
100
AcDbText
 10
114.5319048953931
 20
2.281508189492349
 30
0.0
 40
2.1
  1
3RD Angle Projection
  7
STYLE3
100
AcDbText
  0
TEXT
  5
956
330
18
100
AcDbEntity
  8
0
  6
Continuous
100
AcDbText
 10
117.1553478953931
 20
5.777791189492349
 30
0.0
 40
3.0
  1
三　　角　　法
  7
STYLE3
100
AcDbText
  0
LINE
  5
957
330
18
100
AcDbEntity
  8
外形線
100
AcDbLine
 10
113.365928895393
 20
0.5333681894923492
 30
0.0
 11
113.365928895393
 21
20.92835218949235
 31
0.0
  0
LINE
  5
958
330
18
100
AcDbEntity
  8
外形線
100
AcDbLine
 10
215.3886958953931
 20
10.14814618949235
 30
0.0
 11
215.3886958953931
 21
0.5333681894923492
 31
0.0
  0
LINE
  5
959
330
18
100
AcDbEntity
  8
外形線
100
AcDbLine
 10
185.6563458953931
 20
10.14814618949235
 30
0.0
 11
185.6563458953931
 21
0.5333681894923492
 31
0.0
  0
LINE
  5
95A
330
18
100
AcDbEntity
  8
外形線
100
AcDbLine
 10
166.126273895393
 20
10.14814618949235
 30
0.0
 11
166.126273895393
 21
0.5333681894923492
 31
0.0
  0
LINE
  5
95B
330
18
100
AcDbEntity
  8
外形線
100
AcDbLine
 10
148.6366568953931
 20
10.14814618949235
 30
0.0
 11
148.6366568953931
 21
0.5333681894923492
 31
0.0
  0
TEXT
  5
95C
330
18
100
AcDbEntity
  8
0
  6
Continuous
100
AcDbText
 10
150.094125895393
 20
5.783746189492348
 30
0.0
 40
3.0
  1
単位
  7
STYLE3
100
AcDbText
  0
TEXT
  5
95D
330
18
100
AcDbEntity
  8
0
  6
Continuous
100
AcDbText
 10
150.2658468953931
 20
2.281509189492349
 30
0.0
 40
2.1
  1
Unit
  7
STYLE3
100
AcDbText
  0
TEXT
  5
95E
330
18
100
AcDbEntity
  8
0
  6
Continuous
100
AcDbText
 10
167.412021895393
 20
5.492388189492348
 30
0.0
 40
3.0
  1
尺 度
  7
STYLE3
100
AcDbText
  0
TEXT
  5
95F
330
18
100
AcDbEntity
  8
0
  6
Continuous
100
AcDbText
 10
158.1361738953931
 20
4.029652189492349
 30
0.0
 40
2.399999999999999
  1
mm
  7
STYLE3
100
AcDbText
  0
TEXT
  5
960
330
18
100
AcDbEntity
  8
0
  6
Continuous
100
AcDbText
 10
167.875236895393
 20
2.572866189492349
 30
0.0
 40
2.1
  1
Scale
  7
STYLE3
100
AcDbText
  0
TEXT
  5
961
330
18
100
AcDbEntity
  8
0
  6
Continuous
100
AcDbText
 10
177.4945258953931
 20
4.321009189492349
 30
0.0
 40
2.399999999999999
  1
1/1
  7
STYLE3
100
AcDbText
  0
TEXT
  5
962
330
18
100
AcDbEntity
  8
0
  6
Continuous
100
AcDbText
 10
187.5882968953931
 20
2.281510189492348
 30
0.0
 40
2.1
  1
Date
  7
STYLE3
100
AcDbText
  0
TEXT
  5
963
330
18
100
AcDbEntity
  8
0
  6
Continuous
100
AcDbText
 10
187.2049358953931
 20
5.614593189492349
 30
0.0
 40
3.0
  1
日 付
  7
STYLE3
100
AcDbText
  0
TEXT
  5
964
330
18
100
AcDbEntity
  8
0
  6
Continuous
100
AcDbText
 10
196.3331048953931
 20
4.029651189492349
 30
0.0
 40
2.1
  1
2010.06.29
  7
STYLE3
100
AcDbText
  0
TEXT
  5
965
330
18
100
AcDbEntity
  8
0
  6
Continuous
100
AcDbText
 10
216.7376588953931
 20
6.069148189492349
 30
0.0
 40
3.0
  1
株式会社　尾崎製作所
  7
STYLE3
100
AcDbText
  0
TEXT
  5
966
330
18
100
AcDbEntity
  8
0
  6
Continuous
100
AcDbText
 10
217.6121378953931
 20
2.281509189492349
 30
0.0
 40
2.1
  1
OZAKI MFG. CO., LTD.
  7
STYLE3
100
AcDbText
  0
VIEWPORT
  5
177
330
15
100
AcDbEntity
 67
     1
  8
0
100
AcDbViewport
 10
127.5041203589828
 20
97.49391214526822
 30
0.0
 40
418.3086347473814
 41
243.0346063651093
 68
     1
 69
     1
 12
127.5041203589828
 22
97.49391214526822
 13
0.0
 23
0.0
 14
10.0
 24
10.0
 15
10.0
 25
10.0
 16
0.0
 26
0.0
 36
1.0
 17
0.0
 27
0.0
 37
0.0
 42
50.0
 43
0.0
 44
0.0
 45
243.0346063651093
 50
0.0
 51
0.0
 72
   100
 90
    32800
  1

281
     0
 71
     1
 74
     0
110
0.0
120
0.0
130
0.0
111
1.0
121
0.0
131
0.0
112
0.0
122
1.0
132
0.0
 79
     0
146
0.0
170
     0
  0
ENDSEC
  0
SECTION
  2
OBJECTS
  0
DICTIONARY
  5
C
330
0
100
AcDbDictionary
281
     1
  3
ACAD_COLOR
350
921
  3
ACAD_GROUP
350
D
  3
ACAD_LAYOUT
350
922
  3
ACAD_MATERIAL
350
920
  3
ACAD_MLINESTYLE
350
1B
  3
ACAD_PLOTSETTINGS
350
923
  3
ACAD_PLOTSTYLENAME
350
91E
  0
DICTIONARY
  5
921
102
{ACAD_REACTORS
330
C
102
}
330
C
100
AcDbDictionary
281
     1
  0
DICTIONARY
  5
D
102
{ACAD_REACTORS
330
C
102
}
330
C
100
AcDbDictionary
281
     1
  0
DICTIONARY
  5
922
102
{ACAD_REACTORS
330
C
102
}
330
C
100
AcDbDictionary
281
     1
  3
Model
350
924
  3
レイアウト1
350
925
  0
DICTIONARY
  5
920
102
{ACAD_REACTORS
330
C
102
}
330
C
100
AcDbDictionary
281
     1
  0
DICTIONARY
  5
1B
102
{ACAD_REACTORS
330
C
102
}
330
C
100
AcDbDictionary
281
     1
  3
STANDARD
350
1C
  0
DICTIONARY
  5
923
102
{ACAD_REACTORS
330
C
102
}
330
C
100
AcDbDictionary
281
     1
  0
ACDBDICTIONARYWDFLT
  5
91E
102
{ACAD_REACTORS
330
C
102
}
330
C
100
AcDbDictionary
281
     1
  3
Normal
350
91F
100
AcDbDictionaryWithDefault
340
91F
  0
LAYOUT
  5
924
102
{ACAD_REACTORS
330
922
102
}
330
922
100
AcDbPlotSettings
  1

  2
EPSON PX-101
  4

  6

 40
0.0
 41
0.0
 42
0.0
 43
0.0
 44
0.0
 45
0.0
 46
0.0
 47
0.0
 48
0.0
 49
0.0
140
0.0
141
0.0
142
1.0
143
1.0
 70
  1712
 72
     0
 73
     0
 74
     0
  7
AutoCad LT 98fukui.ctb
 75
     0
147
1.0
 76
     0
 77
     2
 78
   300
148
0.0
149
0.0
100
AcDbLayout
  1
Model
 70
     1
 71
     0
 10
0.0
 20
0.0
 11
12.0
 21
9.0
 12
0.0
 22
0.0
 32
0.0
 14
0.0
 24
0.0
 34
0.0
 15
0.0
 25
0.0
 35
0.0
146
0.0
 13
0.0
 23
0.0
 33
0.0
 16
1.0
 26
0.0
 36
0.0
 17
0.0
 27
1.0
 37
0.0
 76
     0
330
18
  0
LAYOUT
  5
925
102
{ACAD_REACTORS
330
922
102
}
330
922
100
AcDbPlotSettings
  1

  2
EPSON PX-101
  4

  6

 40
0.0
 41
0.0
 42
0.0
 43
0.0
 44
0.0
 45
0.0
 46
0.0
 47
0.0
 48
0.0
 49
0.0
140
0.0
141
0.0
142
1.0
143
1.0
 70
   688
 72
     0
 73
     0
 74
     5
  7
AutoCad LT 98fukui.ctb
 75
    16
147
1.0
 76
     0
 77
     2
 78
   300
148
0.0
149
0.0
100
AcDbLayout
  1
レイアウト1
 70
     1
 71
     1
 10
0.0
 20
0.0
 11
420.0
 21
297.0
 12
0.0
 22
0.0
 32
0.0
 14
-0.2
 24
-0.2
 34
0.0
 15
255.2
 25
195.2
 35
0.0
146
0.0
 13
0.0
 23
0.0
 33
0.0
 16
1.0
 26
0.0
 36
0.0
 17
0.0
 27
1.0
 37
0.0
 76
     0
330
15
331
177
  0
MLINESTYLE
  5
1C
102
{ACAD_REACTORS
330
1B
102
}
330
1B
100
AcDbMlineStyle
  2
STANDARD
 70
     0
  3

 62
   256
 51
90.0
 52
90.0
 71
     2
 49
0.5
 62
   256
  6
BYLAYER
 49
-0.5
 62
   256
  6
BYLAYER
  0
ACDBPLACEHOLDER
  5
91F
102
{ACAD_REACTORS
330
91E
102
}
330
91E
  0
ENDSEC
  0
EOF
