  0
SECTION
  2
HEADER
  9
$ACADVER
  1
AC1018
  9
$ACADMAINTVER
 70
     0
  9
$DWGCODEPAGE
  3
ANSI_932
  9
$INSBASE
 10
0.0
 20
0.0
 30
0.0
  9
$EXTMIN
 10
-0.4320690801881711
 20
-0.4226863569169837
 30
-0.0000762951084532
  9
$EXTMAX
 10
377.9298505522884
 20
282.9180543561672
 30
0.0000000046571813
  9
$LIMMIN
 10
0.0
 20
0.0
  9
$LIMMAX
 10
420.0
 20
297.0
  9
$ORTHOMODE
 70
     0
  9
$REGENMODE
 70
     1
  9
$FILLMODE
 70
     1
  9
$QTEXTMODE
 70
     0
  9
$MIRRTEXT
 70
     1
  9
$LTSCALE
 40
1.0
  9
$ATTMODE
 70
     1
  9
$TEXTSIZE
 40
2.5
  9
$TRACEWID
 40
1.0
  9
$TEXTSTYLE
  7
STYLE3
  9
$CLAYER
  8
寸法線
  9
$CELTYPE
  6
BYLAYER
  9
$CECOLOR
 62
   256
  9
$CELTSCALE
 40
1.0
  9
$DISPSILH
 70
     0
  9
$DIMSCALE
 40
1.0
  9
$DIMASZ
 40
2.5
  9
$DIMEXO
 40
0.0
  9
$DIMDLI
 40
3.75
  9
$DIMRND
 40
0.0
  9
$DIMDLE
 40
0.0
  9
$DIMEXE
 40
1.25
  9
$DIMTP
 40
0.0
  9
$DIMTM
 40
0.0
  9
$DIMTXT
 40
2.5
  9
$DIMCEN
 40
2.5
  9
$DIMTSZ
 40
0.0
  9
$DIMTOL
 70
     0
  9
$DIMLIM
 70
     0
  9
$DIMTIH
 70
     0
  9
$DIMTOH
 70
     0
  9
$DIMSE1
 70
     0
  9
$DIMSE2
 70
     0
  9
$DIMTAD
 70
     1
  9
$DIMZIN
 70
     8
  9
$DIMBLK
  1

  9
$DIMASO
 70
     1
  9
$DIMSHO
 70
     1
  9
$DIMPOST
  1

  9
$DIMAPOST
  1

  9
$DIMALT
 70
     0
  9
$DIMALTD
 70
     4
  9
$DIMALTF
 40
0.0394
  9
$DIMLFAC
 40
1.0
  9
$DIMTOFL
 70
     1
  9
$DIMTVP
 40
0.0
  9
$DIMTIX
 70
     0
  9
$DIMSOXD
 70
     0
  9
$DIMSAH
 70
     1
  9
$DIMBLK1
  1
OPEN
  9
$DIMBLK2
  1
OPEN
  9
$DIMSTYLE
  2
STYLE3
  9
$DIMCLRD
 70
     2
  9
$DIMCLRE
 70
     2
  9
$DIMCLRT
 70
     6
  9
$DIMTFAC
 40
1.0
  9
$DIMGAP
 40
0.625
  9
$DIMJUST
 70
     0
  9
$DIMSD1
 70
     0
  9
$DIMSD2
 70
     0
  9
$DIMTOLJ
 70
     1
  9
$DIMTZIN
 70
     0
  9
$DIMALTZ
 70
     0
  9
$DIMALTTZ
 70
     0
  9
$DIMUPT
 70
     0
  9
$DIMDEC
 70
     7
  9
$DIMTDEC
 70
     4
  9
$DIMALTU
 70
     8
  9
$DIMALTTD
 70
     4
  9
$DIMTXSTY
  7
STYLE3
  9
$DIMAUNIT
 70
     0
  9
$DIMADEC
 70
     0
  9
$DIMALTRND
 40
0.0
  9
$DIMAZIN
 70
     0
  9
$DIMDSEP
 70
    46
  9
$DIMATFIT
 70
     3
  9
$DIMFRAC
 70
     0
  9
$DIMLDRBLK
  1

  9
$DIMLUNIT
 70
     2
  9
$DIMLWD
 70
    -2
  9
$DIMLWE
 70
    -2
  9
$DIMTMOVE
 70
     0
  9
$LUNITS
 70
     2
  9
$LUPREC
 70
     4
  9
$SKETCHINC
 40
1.0
  9
$FILLETRAD
 40
0.5
  9
$AUNITS
 70
     0
  9
$AUPREC
 70
     0
  9
$MENU
  1
.
  9
$ELEVATION
 40
0.0
  9
$PELEVATION
 40
0.0
  9
$THICKNESS
 40
0.0
  9
$LIMCHECK
 70
     0
  9
$CHAMFERA
 40
2.0
  9
$CHAMFERB
 40
2.0
  9
$CHAMFERC
 40
20.0
  9
$CHAMFERD
 40
0.0
  9
$SKPOLY
 70
     0
  9
$TDCREATE
 40
2452027.403950926
  9
$TDUCREATE
 40
2452027.028950926
  9
$TDUPDATE
 40
2455378.428315058
  9
$TDUUPDATE
 40
2455378.053315058
  9
$TDINDWG
 40
0.5968916782
  9
$TDUSRTIMER
 40
0.5968916782
  9
$USRTIMER
 70
     1
  9
$ANGBASE
 50
0.0
  9
$ANGDIR
 70
     0
  9
$PDMODE
 70
     0
  9
$PDSIZE
 40
0.0
  9
$PLINEWID
 40
0.0
  9
$SPLFRAME
 70
     0
  9
$SPLINETYPE
 70
     6
  9
$SPLINESEGS
 70
     8
  9
$HANDSEED
  5
1154
  9
$SURFTAB1
 70
     6
  9
$SURFTAB2
 70
     6
  9
$SURFTYPE
 70
     6
  9
$SURFU
 70
     6
  9
$SURFV
 70
     6
  9
$UCSBASE
  2

  9
$UCSNAME
  2

  9
$UCSORG
 10
0.0
 20
0.0
 30
0.0
  9
$UCSXDIR
 10
1.0
 20
0.0
 30
0.0
  9
$UCSYDIR
 10
0.0
 20
1.0
 30
0.0
  9
$UCSORTHOREF
  2

  9
$UCSORTHOVIEW
 70
     0
  9
$UCSORGTOP
 10
0.0
 20
0.0
 30
0.0
  9
$UCSORGBOTTOM
 10
0.0
 20
0.0
 30
0.0
  9
$UCSORGLEFT
 10
0.0
 20
0.0
 30
0.0
  9
$UCSORGRIGHT
 10
0.0
 20
0.0
 30
0.0
  9
$UCSORGFRONT
 10
0.0
 20
0.0
 30
0.0
  9
$UCSORGBACK
 10
0.0
 20
0.0
 30
0.0
  9
$PUCSBASE
  2

  9
$PUCSNAME
  2

  9
$PUCSORG
 10
0.0
 20
0.0
 30
0.0
  9
$PUCSXDIR
 10
1.0
 20
0.0
 30
0.0
  9
$PUCSYDIR
 10
0.0
 20
1.0
 30
0.0
  9
$PUCSORTHOREF
  2

  9
$PUCSORTHOVIEW
 70
     0
  9
$PUCSORGTOP
 10
0.0
 20
0.0
 30
0.0
  9
$PUCSORGBOTTOM
 10
0.0
 20
0.0
 30
0.0
  9
$PUCSORGLEFT
 10
0.0
 20
0.0
 30
0.0
  9
$PUCSORGRIGHT
 10
0.0
 20
0.0
 30
0.0
  9
$PUCSORGFRONT
 10
0.0
 20
0.0
 30
0.0
  9
$PUCSORGBACK
 10
0.0
 20
0.0
 30
0.0
  9
$USERI1
 70
     0
  9
$USERI2
 70
     0
  9
$USERI3
 70
     0
  9
$USERI4
 70
     0
  9
$USERI5
 70
     0
  9
$USERR1
 40
0.0
  9
$USERR2
 40
0.0
  9
$USERR3
 40
0.0
  9
$USERR4
 40
0.0
  9
$USERR5
 40
0.0
  9
$WORLDVIEW
 70
     1
  9
$SHADEDGE
 70
     3
  9
$SHADEDIF
 70
    70
  9
$TILEMODE
 70
     1
  9
$MAXACTVP
 70
    48
  9
$PINSBASE
 10
0.0
 20
0.0
 30
0.0
  9
$PLIMCHECK
 70
     0
  9
$PEXTMIN
 10
1.000000000000000E+20
 20
1.000000000000000E+20
 30
1.000000000000000E+20
  9
$PEXTMAX
 10
-1.000000000000000E+20
 20
-1.000000000000000E+20
 30
-1.000000000000000E+20
  9
$PLIMMIN
 10
0.0
 20
0.0
  9
$PLIMMAX
 10
420.0
 20
297.0
  9
$UNITMODE
 70
     0
  9
$VISRETAIN
 70
     1
  9
$PLINEGEN
 70
     0
  9
$PSLTSCALE
 70
     1
  9
$TREEDEPTH
 70
  3020
  9
$CMLSTYLE
  2
STANDARD
  9
$CMLJUST
 70
     0
  9
$CMLSCALE
 40
20.0
  9
$PROXYGRAPHICS
 70
     1
  9
$MEASUREMENT
 70
     1
  9
$CELWEIGHT
370
    -1
  9
$ENDCAPS
280
     0
  9
$JOINSTYLE
280
     0
  9
$LWDISPLAY
290
     0
  9
$INSUNITS
 70
     0
  9
$HYPERLINKBASE
  1

  9
$STYLESHEET
  1
AutoCAD LT 98.ctb
  9
$XEDIT
290
     1
  9
$CEPSNTYPE
380
     0
  9
$PSTYLEMODE
290
     1
  9
$FINGERPRINTGUID
  2
{64AE1293-BC2E-41AE-BC45-841FD5539835}
  9
$VERSIONGUID
  2
{18705640-1B32-4F37-BC01-B1056394022F}
  9
$EXTNAMES
290
     1
  9
$PSVPSCALE
 40
0.0
  9
$OLESTARTUP
290
     0
  9
$SORTENTS
280
    96
  9
$INDEXCTL
280
     0
  9
$HIDETEXT
280
     0
  9
$XCLIPFRAME
290
     0
  9
$HALOGAP
280
     0
  9
$OBSCOLOR
 70
   257
  9
$OBSLTYPE
280
     0
  9
$INTERSECTIONDISPLAY
280
     0
  9
$INTERSECTIONCOLOR
 70
   257
  9
$DIMASSOC
280
     1
  9
$PROJECTNAME
  1

  0
ENDSEC
  0
SECTION
  2
CLASSES
  0
CLASS
  1
HATCH
  2
AcDbHatch
  3
ObjectDBX Classes
 90
        0
 91
       23
280
     0
281
     1
  0
CLASS
  1
DICTIONARYVAR
  2
AcDbDictionaryVar
  3
ObjectDBX Classes
 90
        0
 91
        2
280
     0
281
     0
  0
CLASS
  1
LWPOLYLINE
  2
AcDbPolyline
  3
ObjectDBX Classes
 90
        0
 91
        5
280
     0
281
     1
  0
CLASS
  1
OLE2FRAME
  2
AcDbOle2Frame
  3
ObjectDBX Classes
 90
        0
 91
        0
280
     0
281
     1
  0
CLASS
  1
ACDBDICTIONARYWDFLT
  2
AcDbDictionaryWithDefault
  3
ObjectDBX Classes
 90
        0
 91
        1
280
     0
281
     0
  0
CLASS
  1
TABLESTYLE
  2
AcDbTableStyle
  3
ObjectDBX Classes
 90
     2047
 91
        1
280
     0
281
     0
  0
ENDSEC
  0
SECTION
  2
TABLES
  0
TABLE
  2
VPORT
  5
8
330
0
100
AcDbSymbolTable
 70
     2
  0
VPORT
  5
1153
330
8
100
AcDbSymbolTableRecord
100
AcDbViewportTableRecord
  2
*Active
 70
     0
 10
0.0
 20
0.0
 11
1.0
 21
1.0
 12
188.7488907360501
 22
141.2476839996251
 13
0.0
 23
0.0
 14
10.0
 24
10.0
 15
10.0
 25
10.0
 16
0.0
 26
0.0
 36
1.0
 17
0.0
 27
0.0
 37
0.0
 40
285.495423151967
 41
1.530456852791878
 42
50.0
 43
0.0
 44
0.0
 50
0.0
 51
0.0
 71
     0
 72
   100
 73
     1
 74
     1
 75
     0
 76
     0
 77
     0
 78
     0
281
     0
 65
     1
110
0.0
120
0.0
130
0.0
111
1.0
121
0.0
131
0.0
112
0.0
122
1.0
132
0.0
 79
     0
146
0.0
  0
ENDTAB
  0
TABLE
  2
LTYPE
  5
5
330
0
100
AcDbSymbolTable
 70
    12
  0
LTYPE
  5
12
330
5
100
AcDbSymbolTableRecord
100
AcDbLinetypeTableRecord
  2
BYBLOCK
 70
     0
  3

 72
    65
 73
     0
 40
0.0
  0
LTYPE
  5
13
330
5
100
AcDbSymbolTableRecord
100
AcDbLinetypeTableRecord
  2
BYLAYER
 70
     0
  3

 72
    65
 73
     0
 40
0.0
  0
LTYPE
  5
14
330
5
100
AcDbSymbolTableRecord
100
AcDbLinetypeTableRecord
  2
CONTINUOUS
 70
     0
  3
Solid line
 72
    65
 73
     0
 40
0.0
  0
LTYPE
  5
22
330
5
100
AcDbSymbolTableRecord
100
AcDbLinetypeTableRecord
  2
CENTER2
 70
     0
  3
Center (.5x) ___ _ ___ _ ___ _ ___ _ ___ _ ___
 72
    65
 73
     4
 40
28.575
 49
19.05
 74
     0
 49
-3.174999999999999
 74
     0
 49
3.174999999999999
 74
     0
 49
-3.174999999999999
 74
     0
  0
LTYPE
  5
24
330
5
100
AcDbSymbolTableRecord
100
AcDbLinetypeTableRecord
  2
PHANTOM2
 70
     0
  3
Phantom (.5x) ___ _ _ ___ _ _ ___ _ _ ___ _ _
 72
    65
 73
     6
 40
31.75
 49
15.875
 74
     0
 49
-3.174999999999999
 74
     0
 49
3.174999999999999
 74
     0
 49
-3.174999999999999
 74
     0
 49
3.174999999999999
 74
     0
 49
-3.174999999999999
 74
     0
  0
ENDTAB
  0
TABLE
  2
LAYER
  5
2
330
0
100
AcDbSymbolTable
 70
    16
  0
LAYER
  5
E
330
2
100
AcDbSymbolTableRecord
100
AcDbLayerTableRecord
  2
0
 70
     0
 62
     7
  6
CONTINUOUS
370
    -3
390
1046
  0
LAYER
  5
25
330
2
100
AcDbSymbolTableRecord
100
AcDbLayerTableRecord
  2
外形線
 70
     0
 62
     7
  6
CONTINUOUS
370
    -3
390
1046
  0
LAYER
  5
26
330
2
100
AcDbSymbolTableRecord
100
AcDbLayerTableRecord
  2
寸法線
 70
     0
 62
     2
  6
CONTINUOUS
370
    -3
390
1046
  0
LAYER
  5
27
330
2
100
AcDbSymbolTableRecord
100
AcDbLayerTableRecord
  2
中心線
 70
     0
 62
     4
  6
CENTER2
370
    -3
390
1046
  0
LAYER
  5
29
330
2
100
AcDbSymbolTableRecord
100
AcDbLayerTableRecord
  2
想像線
 70
     0
 62
     1
  6
PHANTOM2
370
    -3
390
1046
  0
LAYER
  5
2B
330
2
100
AcDbSymbolTableRecord
100
AcDbLayerTableRecord
  2
文字
 70
     0
 62
     6
  6
CONTINUOUS
370
    -3
390
1046
  0
LAYER
  5
53
330
2
100
AcDbSymbolTableRecord
100
AcDbLayerTableRecord
  2
DEFPOINTS
 70
     0
 62
     7
  6
CONTINUOUS
290
     0
370
    -3
390
1046
  0
LAYER
  5
A5
330
2
100
AcDbSymbolTableRecord
100
AcDbLayerTableRecord
  2
C
 70
     0
 62
     7
  6
CONTINUOUS
370
    -3
390
1046
  0
LAYER
  5
23D
330
2
100
AcDbSymbolTableRecord
100
AcDbLayerTableRecord
  2
ROGO
 70
     0
 62
     6
  6
CONTINUOUS
370
    -3
390
1046
  0
ENDTAB
  0
TABLE
  2
STYLE
  5
3
330
0
100
AcDbSymbolTable
 70
     7
  0
STYLE
  5
F
330
3
100
AcDbSymbolTableRecord
100
AcDbTextStyleTableRecord
  2
STANDARD
 70
     0
 40
0.0
 41
1.0
 50
0.0
 71
     0
 42
2.5
  3
txt
  4

  0
STYLE
  5
3F
330
3
100
AcDbSymbolTableRecord
100
AcDbTextStyleTableRecord
  2
STYLE3
 70
     0
 40
0.0
 41
1.0
 50
0.0
 71
     0
 42
2.5
  3
romans.shx
  4
bigfont.shx
  0
STYLE
  5
C39
330
3
100
AcDbSymbolTableRecord
100
AcDbTextStyleTableRecord
  2
4
 70
     0
 40
0.0
 41
1.0
 50
0.0
 71
     0
 42
3.0
  3
MS PGothic.ttf
  4

1001
ACAD
1000
MS PGothic
1071
    32818
  0
ENDTAB
  0
TABLE
  2
VIEW
  5
6
330
0
100
AcDbSymbolTable
 70
     0
  0
ENDTAB
  0
TABLE
  2
UCS
  5
7
330
0
100
AcDbSymbolTable
 70
     0
  0
ENDTAB
  0
TABLE
  2
APPID
  5
9
330
0
100
AcDbSymbolTable
 70
     2
  0
APPID
  5
10
330
9
100
AcDbSymbolTableRecord
100
AcDbRegAppTableRecord
  2
ACAD
 70
     0
  0
APPID
  5
106F
330
9
100
AcDbSymbolTableRecord
100
AcDbRegAppTableRecord
  2
ACAD_PSEXT
 70
     0
  0
ENDTAB
  0
TABLE
  2
DIMSTYLE
  5
A
330
0
100
AcDbSymbolTable
 70
     4
100
AcDbDimStyleTable
 71
     1
340
8F
  0
DIMSTYLE
105
1D
330
A
100
AcDbSymbolTableRecord
100
AcDbDimStyleTableRecord
  2
STANDARD
 70
     0
 41
2.5
 42
0.625
 43
3.75
 44
1.25
 73
     0
 74
     0
 77
     1
 78
     8
140
2.5
141
2.5
143
0.0394
147
0.625
171
     4
172
     1
273
     8
274
     4
277
     6
340
F
  0
DIMSTYLE
105
8F
102
{ACAD_REACTORS
330
61C
330
82F
330
9AC
330
9B8
330
9C5
330
9D2
330
9DF
330
9EC
330
9F9
330
A07
330
A13
330
A1F
330
A2B
330
A37
330
A77
330
AD6
330
1055
102
}
330
A
100
AcDbSymbolTableRecord
100
AcDbDimStyleTableRecord
  2
STYLE3
 70
     0
 41
2.5
 42
0.0
 43
3.75
 44
1.25
 73
     0
 74
     0
 77
     1
 78
     8
140
2.5
141
2.5
143
0.0394
147
0.625
171
     4
172
     1
173
     1
176
     2
177
     2
178
     6
271
     1
273
     8
274
     4
340
3F
341
45
343
45
344
45
  0
ENDTAB
  0
TABLE
  2
BLOCK_RECORD
  5
1
330
0
100
AcDbSymbolTable
 70
    28
  0
BLOCK_RECORD
  5
18
330
1
100
AcDbSymbolTableRecord
100
AcDbBlockTableRecord
  2
*MODEL_SPACE
340
104D
  0
BLOCK_RECORD
  5
15
330
1
100
AcDbSymbolTableRecord
100
AcDbBlockTableRecord
  2
*PAPER_SPACE
340
104E
  0
BLOCK_RECORD
  5
45
330
1
100
AcDbSymbolTableRecord
100
AcDbBlockTableRecord
  2
_OPEN
340
0
102
{BLKREFS
331
A95
331
A96
331
AB1
331
AB2
331
251
331
252
331
262
331
370
331
372
331
38A
331
392
331
398
331
3A8
331
3C6
331
10C0
331
10C1
331
10C9
331
10CA
331
10D2
331
10D3
331
10DA
331
10DB
331
10E2
331
10E3
331
10EB
331
10EC
331
10F4
331
10F5
331
10FD
331
10FE
331
1105
331
1106
331
110D
331
110E
331
1116
331
1117
331
111F
331
1120
331
1128
331
1129
331
1131
331
1132
331
1139
331
113A
331
1142
331
1143
331
114D
331
114E
102
}
  0
BLOCK_RECORD
  5
610
330
1
100
AcDbSymbolTableRecord
100
AcDbBlockTableRecord
  2
*D3
340
0
  0
BLOCK_RECORD
  5
821
330
1
100
AcDbSymbolTableRecord
100
AcDbBlockTableRecord
  2
*D7
340
0
  0
BLOCK_RECORD
  5
9A0
330
1
100
AcDbSymbolTableRecord
100
AcDbBlockTableRecord
  2
*D8
340
0
  0
BLOCK_RECORD
  5
9AD
330
1
100
AcDbSymbolTableRecord
100
AcDbBlockTableRecord
  2
*D9
340
0
  0
BLOCK_RECORD
  5
9B9
330
1
100
AcDbSymbolTableRecord
100
AcDbBlockTableRecord
  2
*D10
340
0
  0
BLOCK_RECORD
  5
9C6
330
1
100
AcDbSymbolTableRecord
100
AcDbBlockTableRecord
  2
*D11
340
0
  0
BLOCK_RECORD
  5
9D3
330
1
100
AcDbSymbolTableRecord
100
AcDbBlockTableRecord
  2
*D12
340
0
  0
BLOCK_RECORD
  5
9E0
330
1
100
AcDbSymbolTableRecord
100
AcDbBlockTableRecord
  2
*D13
340
0
  0
BLOCK_RECORD
  5
9ED
330
1
100
AcDbSymbolTableRecord
100
AcDbBlockTableRecord
  2
*D14
340
0
  0
BLOCK_RECORD
  5
9FB
330
1
100
AcDbSymbolTableRecord
100
AcDbBlockTableRecord
  2
*D15
340
0
  0
BLOCK_RECORD
  5
A08
330
1
100
AcDbSymbolTableRecord
100
AcDbBlockTableRecord
  2
*D16
340
0
  0
BLOCK_RECORD
  5
A14
330
1
100
AcDbSymbolTableRecord
100
AcDbBlockTableRecord
  2
*D17
340
0
  0
BLOCK_RECORD
  5
A20
330
1
100
AcDbSymbolTableRecord
100
AcDbBlockTableRecord
  2
*D18
340
0
  0
BLOCK_RECORD
  5
A2C
330
1
100
AcDbSymbolTableRecord
100
AcDbBlockTableRecord
  2
*D19
340
0
  0
BLOCK_RECORD
  5
A6B
330
1
100
AcDbSymbolTableRecord
100
AcDbBlockTableRecord
  2
*D20
340
0
  0
BLOCK_RECORD
  5
ACA
330
1
100
AcDbSymbolTableRecord
100
AcDbBlockTableRecord
  2
*D21
340
0
  0
BLOCK_RECORD
  5
BE4
330
1
100
AcDbSymbolTableRecord
100
AcDbBlockTableRecord
  2
A$C46B047FA
340
0
102
{BLKREFS
331
C46
331
C3D
102
}
  0
BLOCK_RECORD
  5
1056
330
1
100
AcDbSymbolTableRecord
100
AcDbBlockTableRecord
  2
*D25
340
0
  0
ENDTAB
  0
ENDSEC
  0
SECTION
  2
BLOCKS
  0
BLOCK
  5
19
330
18
100
AcDbEntity
  8
0
100
AcDbBlockBegin
  2
*MODEL_SPACE
 70
     0
 10
0.0
 20
0.0
 30
0.0
  3
*MODEL_SPACE
  1

  0
ENDBLK
  5
1A
330
18
100
AcDbEntity
  8
0
100
AcDbBlockEnd
  0
BLOCK
  5
16
330
15
100
AcDbEntity
 67
     1
  8
0
100
AcDbBlockBegin
  2
*PAPER_SPACE
 70
     0
 10
0.0
 20
0.0
 30
0.0
  3
*PAPER_SPACE
  1

  0
ENDBLK
  5
17
330
15
100
AcDbEntity
 67
     1
  8
0
100
AcDbBlockEnd
  0
BLOCK
  5
46
330
45
100
AcDbEntity
  8
0
100
AcDbBlockBegin
  2
_OPEN
 70
     0
 10
0.0
 20
0.0
 30
0.0
  3
_OPEN
  1

  0
LINE
  5
47
330
45
100
AcDbEntity
  8
0
  6
ByBlock
 62
     0
100
AcDbLine
 10
-1.0
 20
0.1666666666666666
 30
0.0
 11
0.0
 21
0.0
 31
0.0
  0
LINE
  5
48
330
45
100
AcDbEntity
  8
0
  6
ByBlock
 62
     0
100
AcDbLine
 10
0.0
 20
0.0
 30
0.0
 11
-1.0
 21
-0.1666666666666666
 31
0.0
  0
LINE
  5
49
330
45
100
AcDbEntity
  8
0
  6
ByBlock
 62
     0
100
AcDbLine
 10
0.0
 20
0.0
 30
0.0
 11
-1.0
 21
0.0
 31
0.0
  0
ENDBLK
  5
4A
330
45
100
AcDbEntity
  8
0
100
AcDbBlockEnd
  0
BLOCK
  5
F67
330
610
100
AcDbEntity
  8
0
100
AcDbBlockBegin
  2
*D3
 70
     1
 10
0.0
 20
0.0
 30
0.0
  3
*D3
  1

  0
LINE
  5
10F1
330
610
100
AcDbEntity
  8
外形線
 62
     2
370
    -2
100
AcDbLine
 10
84.88401120431968
 20
176.7978181321602
 30
0.0
 11
86.95798928562158
 21
176.7978181321602
 31
0.0
  0
LINE
  5
10F2
330
610
100
AcDbEntity
  8
外形線
 62
     2
370
    -2
100
AcDbLine
 10
85.70798928562158
 20
196.7978181321602
 30
0.0
 11
84.45798928562158
 21
196.7978181321602
 31
0.0
  0
LINE
  5
10F3
330
610
100
AcDbEntity
  8
外形線
 62
     2
370
    -2
100
AcDbLine
 10
85.70798928562158
 20
179.2978181321602
 30
0.0
 11
85.70798928562158
 21
194.2978181321602
 31
0.0
  0
INSERT
  5
10F4
330
610
100
AcDbEntity
  8
外形線
 62
     2
370
    -2
100
AcDbBlockReference
  2
_OPEN
 10
85.70798928562158
 20
176.7978181321602
 30
0.0
 41
2.5
 42
2.5
 43
2.5
 50
270.0
  0
INSERT
  5
10F5
330
610
100
AcDbEntity
  8
外形線
 62
     2
370
    -2
100
AcDbBlockReference
  2
_OPEN
 10
85.70798928562158
 20
196.7978181321602
 30
0.0
 41
2.5
 42
2.5
 43
2.5
 50
90.0
  0
MTEXT
  5
10F6
330
610
100
AcDbEntity
  8
外形線
 62
     6
100
AcDbMText
 10
83.83298928562155
 20
186.7978181321602
 30
0.0
 40
2.5
 41
0.0
 71
     5
 72
     1
  1
\A1;φ20
  7
STYLE3
 11
0.0000000000000001
 21
1.0
 31
0.0
 73
     1
 44
1.0
  0
POINT
  5
10F7
330
610
100
AcDbEntity
  8
DEFPOINTS
 62
     0
100
AcDbPoint
 10
84.88401120431968
 20
176.7978181321602
 30
0.0
  0
POINT
  5
10F8
330
610
100
AcDbEntity
  8
DEFPOINTS
 62
     0
100
AcDbPoint
 10
85.70798928562158
 20
196.7978181321602
 30
0.0
  0
POINT
  5
10F9
330
610
100
AcDbEntity
  8
DEFPOINTS
 62
     0
100
AcDbPoint
 10
85.70798928562158
 20
196.7978181321602
 30
0.0
  0
ENDBLK
  5
F71
330
610
100
AcDbEntity
  8
0
100
AcDbBlockEnd
  0
BLOCK
  5
F0F
330
821
100
AcDbEntity
  8
0
100
AcDbBlockBegin
  2
*D7
 70
     1
 10
0.0
 20
0.0
 30
0.0
  3
*D7
  1

  0
LINE
  5
1148
330
821
100
AcDbEntity
  8
外形線
 62
     2
370
    -2
100
AcDbLine
 10
292.7694094580547
 20
183.7978181321601
 30
0.0
 11
287.8718502281076
 21
183.7978181321601
 31
0.0
  0
LINE
  5
1149
330
821
100
AcDbEntity
  8
外形線
 62
     2
370
    -2
100
AcDbLine
 10
290.0337397517382
 20
189.7978181321601
 30
0.0
 11
287.8718502281076
 21
189.7978181321601
 31
0.0
  0
LINE
  5
114A
330
821
100
AcDbEntity
  8
外形線
 62
     2
370
    -2
100
AcDbLine
 10
289.1218502281077
 20
181.2978181321601
 30
0.0
 11
289.1218502281077
 21
178.7978181321601
 31
0.0
  0
LINE
  5
114B
330
821
100
AcDbEntity
  8
外形線
 62
     2
370
    -2
100
AcDbLine
 10
289.1218502281077
 20
192.2978181321601
 30
0.0
 11
289.1218502281077
 21
194.7978181321601
 31
0.0
  0
LINE
  5
114C
330
821
100
AcDbEntity
  8
外形線
 62
     2
370
    -2
100
AcDbLine
 10
289.1218502281077
 20
183.7978181321601
 30
0.0
 11
289.1218502281077
 21
189.7978181321601
 31
0.0
  0
INSERT
  5
114D
330
821
100
AcDbEntity
  8
外形線
 62
     2
370
    -2
100
AcDbBlockReference
  2
_OPEN
 10
289.1218502281077
 20
183.7978181321601
 30
0.0
 41
2.5
 42
2.5
 43
2.5
 50
90.0
  0
INSERT
  5
114E
330
821
100
AcDbEntity
  8
外形線
 62
     2
370
    -2
100
AcDbBlockReference
  2
_OPEN
 10
289.1218502281077
 20
189.7978181321601
 30
0.0
 41
2.5
 42
2.5
 43
2.5
 50
270.0
  0
MTEXT
  5
114F
330
821
100
AcDbEntity
  8
外形線
 62
     6
100
AcDbMText
 10
287.2468502281076
 20
186.7978181321601
 30
0.0
 40
2.5
 41
0.0
 71
     5
 72
     1
  1
\A1;φ6
  7
STYLE3
 11
0.0000000000000001
 21
1.0
 31
0.0
 73
     1
 44
1.0
  0
POINT
  5
1150
330
821
100
AcDbEntity
  8
DEFPOINTS
 62
     0
100
AcDbPoint
 10
292.7694094580547
 20
183.7978181321601
 30
0.0
  0
POINT
  5
1151
330
821
100
AcDbEntity
  8
DEFPOINTS
 62
     0
100
AcDbPoint
 10
290.0337397517382
 20
189.7978181321601
 30
0.0
  0
POINT
  5
1152
330
821
100
AcDbEntity
  8
DEFPOINTS
 62
     0
100
AcDbPoint
 10
289.1218502281077
 20
189.7978181321601
 30
0.0
  0
ENDBLK
  5
F1B
330
821
100
AcDbEntity
  8
0
100
AcDbBlockEnd
  0
BLOCK
  5
F32
330
9A0
100
AcDbEntity
  8
0
100
AcDbBlockBegin
  2
*D8
 70
     1
 10
0.0
 20
0.0
 30
0.0
  3
*D8
  1

  0
LINE
  5
113F
330
9A0
100
AcDbEntity
  8
寸法線
 62
     2
370
    -2
100
AcDbLine
 10
228.1469781753565
 20
201.7978181321602
 30
0.0
 11
239.9079706600485
 21
201.7978181321602
 31
0.0
  0
LINE
  5
1140
330
9A0
100
AcDbEntity
  8
寸法線
 62
     2
370
    -2
100
AcDbLine
 10
238.3656065224366
 20
186.7978181321601
 30
0.0
 11
239.9079706600485
 21
186.7978181321601
 31
0.0
  0
LINE
  5
1141
330
9A0
100
AcDbEntity
  8
寸法線
 62
     2
370
    -2
100
AcDbLine
 10
238.6579706600485
 20
199.2978181321601
 30
0.0
 11
238.6579706600485
 21
189.2978181321601
 31
0.0
  0
INSERT
  5
1142
330
9A0
100
AcDbEntity
  8
寸法線
 62
     2
370
    -2
100
AcDbBlockReference
  2
_OPEN
 10
238.6579706600485
 20
201.7978181321602
 30
0.0
 41
2.5
 42
2.5
 43
2.5
 50
90.0
  0
INSERT
  5
1143
330
9A0
100
AcDbEntity
  8
寸法線
 62
     2
370
    -2
100
AcDbBlockReference
  2
_OPEN
 10
238.6579706600485
 20
186.7978181321601
 30
0.0
 41
2.5
 42
2.5
 43
2.5
 50
270.0
  0
MTEXT
  5
1144
330
9A0
100
AcDbEntity
  8
寸法線
 62
     6
100
AcDbMText
 10
236.7829706600485
 20
194.2978181321602
 30
0.0
 40
2.5
 41
0.0
 71
     5
 72
     1
  1
\A1;15
  7
STYLE3
 11
0.0000000000000001
 21
1.0
 31
0.0
 73
     1
 44
1.0
  0
POINT
  5
1145
330
9A0
100
AcDbEntity
  8
DEFPOINTS
 62
     0
100
AcDbPoint
 10
228.1469781753565
 20
201.7978181321602
 30
0.0
  0
POINT
  5
1146
330
9A0
100
AcDbEntity
  8
DEFPOINTS
 62
     0
100
AcDbPoint
 10
238.3656065224366
 20
186.7978181321601
 30
0.0
  0
POINT
  5
1147
330
9A0
100
AcDbEntity
  8
DEFPOINTS
 62
     0
100
AcDbPoint
 10
238.6579706600485
 20
186.7978181321601
 30
0.0
  0
ENDBLK
  5
F3C
330
9A0
100
AcDbEntity
  8
0
100
AcDbBlockEnd
  0
BLOCK
  5
F3D
330
9AD
100
AcDbEntity
  8
0
100
AcDbBlockBegin
  2
*D9
 70
     1
 10
0.0
 20
0.0
 30
0.0
  3
*D9
  1

  0
LINE
  5
1137
330
9AD
100
AcDbEntity
  8
寸法線
 62
     2
370
    -2
100
AcDbLine
 10
228.1469781753564
 20
171.7978181321601
 30
0.0
 11
239.9079706600485
 21
171.7978181321601
 31
0.0
  0
LINE
  5
1138
330
9AD
100
AcDbEntity
  8
寸法線
 62
     2
370
    -2
100
AcDbLine
 10
238.6579706600485
 20
184.2978181321601
 30
0.0
 11
238.6579706600485
 21
174.2978181321601
 31
0.0
  0
INSERT
  5
1139
330
9AD
100
AcDbEntity
  8
寸法線
 62
     2
370
    -2
100
AcDbBlockReference
  2
_OPEN
 10
238.6579706600485
 20
186.7978181321601
 30
0.0
 41
2.5
 42
2.5
 43
2.5
 50
90.0
  0
INSERT
  5
113A
330
9AD
100
AcDbEntity
  8
寸法線
 62
     2
370
    -2
100
AcDbBlockReference
  2
_OPEN
 10
238.6579706600485
 20
171.7978181321601
 30
0.0
 41
2.5
 42
2.5
 43
2.5
 50
270.0
  0
MTEXT
  5
113B
330
9AD
100
AcDbEntity
  8
寸法線
 62
     6
100
AcDbMText
 10
236.7829706600485
 20
179.2978181321601
 30
0.0
 40
2.5
 41
0.0
 71
     5
 72
     1
  1
\A1;15
  7
STYLE3
 11
0.0000000000000001
 21
1.0
 31
0.0
 73
     1
 44
1.0
  0
POINT
  5
113C
330
9AD
100
AcDbEntity
  8
DEFPOINTS
 62
     0
100
AcDbPoint
 10
238.3656065224366
 20
186.7978181321601
 30
0.0
  0
POINT
  5
113D
330
9AD
100
AcDbEntity
  8
DEFPOINTS
 62
     0
100
AcDbPoint
 10
228.1469781753564
 20
171.7978181321601
 30
0.0
  0
POINT
  5
113E
330
9AD
100
AcDbEntity
  8
DEFPOINTS
 62
     0
100
AcDbPoint
 10
238.6579706600485
 20
171.7978181321601
 30
0.0
  0
ENDBLK
  5
F46
330
9AD
100
AcDbEntity
  8
0
100
AcDbBlockEnd
  0
BLOCK
  5
F27
330
9B9
100
AcDbEntity
  8
0
100
AcDbBlockBegin
  2
*D10
 70
     1
 10
0.0
 20
0.0
 30
0.0
  3
*D10
  1

  0
LINE
  5
112E
330
9B9
100
AcDbEntity
  8
寸法線
 62
     2
370
    -2
100
AcDbLine
 10
239.9079706600485
 20
201.7978181321601
 30
0.0
 11
246.1937949675935
 21
201.7978181321601
 31
0.0
  0
LINE
  5
112F
330
9B9
100
AcDbEntity
  8
寸法線
 62
     2
370
    -2
100
AcDbLine
 10
239.9079706600485
 20
171.7978181321601
 30
0.0
 11
246.1937949675935
 21
171.7978181321601
 31
0.0
  0
LINE
  5
1130
330
9B9
100
AcDbEntity
  8
寸法線
 62
     2
370
    -2
100
AcDbLine
 10
244.9437949675935
 20
199.2978181321601
 30
0.0
 11
244.9437949675935
 21
174.2978181321601
 31
0.0
  0
INSERT
  5
1131
330
9B9
100
AcDbEntity
  8
寸法線
 62
     2
370
    -2
100
AcDbBlockReference
  2
_OPEN
 10
244.9437949675935
 20
201.7978181321601
 30
0.0
 41
2.5
 42
2.5
 43
2.5
 50
90.0
  0
INSERT
  5
1132
330
9B9
100
AcDbEntity
  8
寸法線
 62
     2
370
    -2
100
AcDbBlockReference
  2
_OPEN
 10
244.9437949675935
 20
171.7978181321601
 30
0.0
 41
2.5
 42
2.5
 43
2.5
 50
270.0
  0
MTEXT
  5
1133
330
9B9
100
AcDbEntity
  8
寸法線
 62
     6
100
AcDbMText
 10
243.0687949675935
 20
186.7978181321601
 30
0.0
 40
2.5
 41
0.0
 71
     5
 72
     1
  1
\A1;30
  7
STYLE3
 11
0.0000000000000001
 21
1.0
 31
0.0
 73
     1
 44
1.0
  0
POINT
  5
1134
330
9B9
100
AcDbEntity
  8
DEFPOINTS
 62
     0
100
AcDbPoint
 10
239.9079706600485
 20
201.7978181321601
 30
0.0
  0
POINT
  5
1135
330
9B9
100
AcDbEntity
  8
DEFPOINTS
 62
     0
100
AcDbPoint
 10
239.9079706600485
 20
171.7978181321601
 30
0.0
  0
POINT
  5
1136
330
9B9
100
AcDbEntity
  8
DEFPOINTS
 62
     0
100
AcDbPoint
 10
244.9437949675935
 20
171.7978181321601
 30
0.0
  0
ENDBLK
  5
F31
330
9B9
100
AcDbEntity
  8
0
100
AcDbBlockEnd
  0
BLOCK
  5
F52
330
9C6
100
AcDbEntity
  8
0
100
AcDbBlockBegin
  2
*D11
 70
     1
 10
0.0
 20
0.0
 30
0.0
  3
*D11
  1

  0
LINE
  5
111C
330
9C6
100
AcDbEntity
  8
寸法線
 62
     2
370
    -2
100
AcDbLine
 10
229.981056105125
 20
111.4640181981624
 30
0.0
 11
240.7323043668282
 21
111.4640181981624
 31
0.0
  0
LINE
  5
111D
330
9C6
100
AcDbEntity
  8
寸法線
 62
     2
370
    -2
100
AcDbLine
 10
239.2231642723286
 20
96.46401819816242
 30
0.0
 11
240.7323043668282
 21
96.46401819816242
 31
0.0
  0
LINE
  5
111E
330
9C6
100
AcDbEntity
  8
寸法線
 62
     2
370
    -2
100
AcDbLine
 10
239.4823043668282
 20
108.9640181981624
 30
0.0
 11
239.4823043668282
 21
98.96401819816242
 31
0.0
  0
INSERT
  5
111F
330
9C6
100
AcDbEntity
  8
寸法線
 62
     2
370
    -2
100
AcDbBlockReference
  2
_OPEN
 10
239.4823043668282
 20
111.4640181981624
 30
0.0
 41
2.5
 42
2.5
 43
2.5
 50
90.0
  0
INSERT
  5
1120
330
9C6
100
AcDbEntity
  8
寸法線
 62
     2
370
    -2
100
AcDbBlockReference
  2
_OPEN
 10
239.4823043668282
 20
96.46401819816242
 30
0.0
 41
2.5
 42
2.5
 43
2.5
 50
270.0
  0
MTEXT
  5
1121
330
9C6
100
AcDbEntity
  8
寸法線
 62
     6
100
AcDbMText
 10
237.6073043668282
 20
103.9640181981624
 30
0.0
 40
2.5
 41
0.0
 71
     5
 72
     1
  1
\A1;15
  7
STYLE3
 11
0.0000000000000001
 21
1.0
 31
0.0
 73
     1
 44
1.0
  0
POINT
  5
1122
330
9C6
100
AcDbEntity
  8
DEFPOINTS
 62
     0
100
AcDbPoint
 10
229.981056105125
 20
111.4640181981624
 30
0.0
  0
POINT
  5
1123
330
9C6
100
AcDbEntity
  8
DEFPOINTS
 62
     0
100
AcDbPoint
 10
239.2231642723286
 20
96.46401819816242
 30
0.0
  0
POINT
  5
1124
330
9C6
100
AcDbEntity
  8
DEFPOINTS
 62
     0
100
AcDbPoint
 10
239.4823043668282
 20
96.46401819816242
 30
0.0
  0
ENDBLK
  5
F5C
330
9C6
100
AcDbEntity
  8
0
100
AcDbBlockEnd
  0
BLOCK
  5
F47
330
9D3
100
AcDbEntity
  8
0
100
AcDbBlockBegin
  2
*D12
 70
     1
 10
0.0
 20
0.0
 30
0.0
  3
*D12
  1

  0
LINE
  5
1113
330
9D3
100
AcDbEntity
  8
寸法線
 62
     2
370
    -2
100
AcDbLine
 10
240.7323043668282
 20
111.4640181981624
 30
0.0
 11
246.6925428192041
 21
111.4640181981624
 31
0.0
  0
LINE
  5
1114
330
9D3
100
AcDbEntity
  8
寸法線
 62
     2
370
    -2
100
AcDbLine
 10
229.9810561051248
 20
71.46401819816242
 30
0.0
 11
246.6925428192041
 21
71.46401819816242
 31
0.0
  0
LINE
  5
1115
330
9D3
100
AcDbEntity
  8
寸法線
 62
     2
370
    -2
100
AcDbLine
 10
245.4425428192041
 20
108.9640181981624
 30
0.0
 11
245.4425428192041
 21
73.96401819816242
 31
0.0
  0
INSERT
  5
1116
330
9D3
100
AcDbEntity
  8
寸法線
 62
     2
370
    -2
100
AcDbBlockReference
  2
_OPEN
 10
245.4425428192041
 20
111.4640181981624
 30
0.0
 41
2.5
 42
2.5
 43
2.5
 50
90.0
  0
INSERT
  5
1117
330
9D3
100
AcDbEntity
  8
寸法線
 62
     2
370
    -2
100
AcDbBlockReference
  2
_OPEN
 10
245.4425428192041
 20
71.46401819816242
 30
0.0
 41
2.5
 42
2.5
 43
2.5
 50
270.0
  0
MTEXT
  5
1118
330
9D3
100
AcDbEntity
  8
寸法線
 62
     6
100
AcDbMText
 10
243.5675428192041
 20
91.46401819816246
 30
0.0
 40
2.5
 41
0.0
 71
     5
 72
     1
  1
\A1;40
  7
STYLE3
 11
0.0000000000000001
 21
1.0
 31
0.0
 73
     1
 44
1.0
  0
POINT
  5
1119
330
9D3
100
AcDbEntity
  8
DEFPOINTS
 62
     0
100
AcDbPoint
 10
240.7323043668282
 20
111.4640181981624
 30
0.0
  0
POINT
  5
111A
330
9D3
100
AcDbEntity
  8
DEFPOINTS
 62
     0
100
AcDbPoint
 10
229.9810561051248
 20
71.46401819816242
 30
0.0
  0
POINT
  5
111B
330
9D3
100
AcDbEntity
  8
DEFPOINTS
 62
     0
100
AcDbPoint
 10
245.4425428192041
 20
71.46401819816242
 30
0.0
  0
ENDBLK
  5
F51
330
9D3
100
AcDbEntity
  8
0
100
AcDbBlockEnd
  0
BLOCK
  5
F04
330
9E0
100
AcDbEntity
  8
0
100
AcDbBlockBegin
  2
*D13
 70
     1
 10
0.0
 20
0.0
 30
0.0
  3
*D13
  1

  0
LINE
  5
10FA
330
9E0
100
AcDbEntity
  8
寸法線
 62
     2
370
    -2
100
AcDbLine
 10
227.1469781753565
 20
117.4640181981624
 30
0.0
 11
253.9484840696334
 21
117.4640181981624
 31
0.0
  0
LINE
  5
10FB
330
9E0
100
AcDbEntity
  8
寸法線
 62
     2
370
    -2
100
AcDbLine
 10
227.1469781753563
 20
64.46401819816242
 30
0.0
 11
253.9484840696334
 21
64.46401819816242
 31
0.0
  0
LINE
  5
10FC
330
9E0
100
AcDbEntity
  8
寸法線
 62
     2
370
    -2
100
AcDbLine
 10
252.6984840696334
 20
114.9640181981624
 30
0.0
 11
252.6984840696334
 21
66.96401819816242
 31
0.0
  0
INSERT
  5
10FD
330
9E0
100
AcDbEntity
  8
寸法線
 62
     2
370
    -2
100
AcDbBlockReference
  2
_OPEN
 10
252.6984840696334
 20
117.4640181981624
 30
0.0
 41
2.5
 42
2.5
 43
2.5
 50
90.0
  0
INSERT
  5
10FE
330
9E0
100
AcDbEntity
  8
寸法線
 62
     2
370
    -2
100
AcDbBlockReference
  2
_OPEN
 10
252.6984840696334
 20
64.46401819816242
 30
0.0
 41
2.5
 42
2.5
 43
2.5
 50
270.0
  0
MTEXT
  5
10FF
330
9E0
100
AcDbEntity
  8
寸法線
 62
     6
100
AcDbMText
 10
250.8234840696334
 20
90.96401819816247
 30
0.0
 40
2.5
 41
0.0
 71
     5
 72
     1
  1
\A1;53
  7
STYLE3
 11
0.0000000000000001
 21
1.0
 31
0.0
 73
     1
 44
1.0
  0
POINT
  5
1100
330
9E0
100
AcDbEntity
  8
DEFPOINTS
 62
     0
100
AcDbPoint
 10
227.1469781753565
 20
117.4640181981624
 30
0.0
  0
POINT
  5
1101
330
9E0
100
AcDbEntity
  8
DEFPOINTS
 62
     0
100
AcDbPoint
 10
227.1469781753563
 20
64.46401819816242
 30
0.0
  0
POINT
  5
1102
330
9E0
100
AcDbEntity
  8
DEFPOINTS
 62
     0
100
AcDbPoint
 10
252.6984840696334
 20
64.46401819816242
 30
0.0
  0
ENDBLK
  5
F0E
330
9E0
100
AcDbEntity
  8
0
100
AcDbBlockEnd
  0
BLOCK
  5
EF9
330
9ED
100
AcDbEntity
  8
0
100
AcDbBlockBegin
  2
*D14
 70
     1
 10
0.0
 20
0.0
 30
0.0
  3
*D14
  1

  0
LINE
  5
10E8
330
9ED
100
AcDbEntity
  8
寸法線
 62
     2
370
    -2
100
AcDbLine
 10
202.4251731800741
 20
117.4640181981624
 30
0.0
 11
205.4891584926813
 21
117.4640181981624
 31
0.0
  0
LINE
  5
10E9
330
9ED
100
AcDbEntity
  8
寸法線
 62
     2
370
    -2
100
AcDbLine
 10
204.2391584926813
 20
96.46401819816242
 30
0.0
 11
205.4891584926813
 21
96.46401819816242
 31
0.0
  0
LINE
  5
10EA
330
9ED
100
AcDbEntity
  8
寸法線
 62
     2
370
    -2
100
AcDbLine
 10
204.2391584926813
 20
114.9640181981624
 30
0.0
 11
204.2391584926813
 21
98.96401819816242
 31
0.0
  0
INSERT
  5
10EB
330
9ED
100
AcDbEntity
  8
寸法線
 62
     2
370
    -2
100
AcDbBlockReference
  2
_OPEN
 10
204.2391584926813
 20
117.4640181981624
 30
0.0
 41
2.5
 42
2.5
 43
2.5
 50
90.0
  0
INSERT
  5
10EC
330
9ED
100
AcDbEntity
  8
寸法線
 62
     2
370
    -2
100
AcDbBlockReference
  2
_OPEN
 10
204.2391584926813
 20
96.46401819816242
 30
0.0
 41
2.5
 42
2.5
 43
2.5
 50
270.0
  0
MTEXT
  5
10ED
330
9ED
100
AcDbEntity
  8
寸法線
 62
     6
100
AcDbMText
 10
202.3641584926813
 20
106.9640181981624
 30
0.0
 40
2.5
 41
0.0
 71
     5
 72
     1
  1
\A1;21
  7
STYLE3
 11
0.0000000000000001
 21
1.0
 31
0.0
 73
     1
 44
1.0
  0
POINT
  5
10EE
330
9ED
100
AcDbEntity
  8
DEFPOINTS
 62
     0
100
AcDbPoint
 10
202.4251731800741
 20
117.4640181981624
 30
0.0
  0
POINT
  5
10EF
330
9ED
100
AcDbEntity
  8
DEFPOINTS
 62
     0
100
AcDbPoint
 10
204.2391584926813
 20
96.46401819816242
 30
0.0
  0
POINT
  5
10F0
330
9ED
100
AcDbEntity
  8
DEFPOINTS
 62
     0
100
AcDbPoint
 10
204.2391584926813
 20
96.46401819816242
 30
0.0
  0
ENDBLK
  5
F03
330
9ED
100
AcDbEntity
  8
0
100
AcDbBlockEnd
  0
BLOCK
  5
EEE
330
9FB
100
AcDbEntity
  8
0
100
AcDbBlockBegin
  2
*D15
 70
     1
 10
0.0
 20
0.0
 30
0.0
  3
*D15
  1

  0
LINE
  5
1125
330
9FB
100
AcDbEntity
  8
寸法線
 62
     2
370
    -2
100
AcDbLine
 10
330.1469781753565
 20
96.46401819816237
 30
0.0
 11
330.1469781753565
 21
130.5062734446182
 31
0.0
  0
LINE
  5
1126
330
9FB
100
AcDbEntity
  8
寸法線
 62
     2
370
    -2
100
AcDbLine
 10
316.1469781753564
 20
111.2226634772835
 30
0.0
 11
316.1469781753564
 21
130.5062734446182
 31
0.0
  0
LINE
  5
1127
330
9FB
100
AcDbEntity
  8
寸法線
 62
     2
370
    -2
100
AcDbLine
 10
327.6469781753565
 20
129.2562734446182
 30
0.0
 11
318.6469781753564
 21
129.2562734446182
 31
0.0
  0
INSERT
  5
1128
330
9FB
100
AcDbEntity
  8
寸法線
 62
     2
370
    -2
100
AcDbBlockReference
  2
_OPEN
 10
330.1469781753565
 20
129.2562734446182
 30
0.0
 41
2.5
 42
2.5
 43
2.5
  0
INSERT
  5
1129
330
9FB
100
AcDbEntity
  8
寸法線
 62
     2
370
    -2
100
AcDbBlockReference
  2
_OPEN
 10
316.1469781753564
 20
129.2562734446182
 30
0.0
 41
2.5
 42
2.5
 43
2.5
 50
180.0
  0
MTEXT
  5
112A
330
9FB
100
AcDbEntity
  8
寸法線
 62
     6
100
AcDbMText
 10
323.1469781753565
 20
131.1312734446182
 30
0.0
 40
2.5
 41
0.0
 71
     5
 72
     1
  1
\A1;14
  7
STYLE3
 73
     1
 44
1.0
  0
POINT
  5
112B
330
9FB
100
AcDbEntity
  8
DEFPOINTS
 62
     0
100
AcDbPoint
 10
330.1469781753565
 20
96.46401819816237
 30
0.0
  0
POINT
  5
112C
330
9FB
100
AcDbEntity
  8
DEFPOINTS
 62
     0
100
AcDbPoint
 10
316.1469781753564
 20
111.2226634772835
 30
0.0
  0
POINT
  5
112D
330
9FB
100
AcDbEntity
  8
DEFPOINTS
 62
     0
100
AcDbPoint
 10
316.1469781753564
 20
129.2562734446182
 30
0.0
  0
ENDBLK
  5
EF8
330
9FB
100
AcDbEntity
  8
0
100
AcDbBlockEnd
  0
BLOCK
  5
EE4
330
A08
100
AcDbEntity
  8
0
100
AcDbBlockBegin
  2
*D16
 70
     1
 10
0.0
 20
0.0
 30
0.0
  3
*D16
  1

  0
LINE
  5
1103
330
A08
100
AcDbEntity
  8
寸法線
 62
     2
370
    -2
100
AcDbLine
 10
261.1469781753565
 20
104.4640181981625
 30
0.0
 11
261.1469781753565
 21
130.5062734446182
 31
0.0
  0
LINE
  5
1104
330
A08
100
AcDbEntity
  8
寸法線
 62
     2
370
    -2
100
AcDbLine
 10
313.6469781753564
 20
129.2562734446182
 30
0.0
 11
263.6469781753565
 21
129.2562734446182
 31
0.0
  0
INSERT
  5
1105
330
A08
100
AcDbEntity
  8
寸法線
 62
     2
370
    -2
100
AcDbBlockReference
  2
_OPEN
 10
316.1469781753564
 20
129.2562734446182
 30
0.0
 41
2.5
 42
2.5
 43
2.5
  0
INSERT
  5
1106
330
A08
100
AcDbEntity
  8
寸法線
 62
     2
370
    -2
100
AcDbBlockReference
  2
_OPEN
 10
261.1469781753565
 20
129.2562734446182
 30
0.0
 41
2.5
 42
2.5
 43
2.5
 50
180.0
  0
MTEXT
  5
1107
330
A08
100
AcDbEntity
  8
寸法線
 62
     6
100
AcDbMText
 10
288.6469781753565
 20
131.1312734446182
 30
0.0
 40
2.5
 41
0.0
 71
     5
 72
     1
  1
\A1;55
  7
STYLE3
 73
     1
 44
1.0
  0
POINT
  5
1108
330
A08
100
AcDbEntity
  8
DEFPOINTS
 62
     0
100
AcDbPoint
 10
316.1469781753564
 20
111.2226634772835
 30
0.0
  0
POINT
  5
1109
330
A08
100
AcDbEntity
  8
DEFPOINTS
 62
     0
100
AcDbPoint
 10
261.1469781753565
 20
104.4640181981625
 30
0.0
  0
POINT
  5
110A
330
A08
100
AcDbEntity
  8
DEFPOINTS
 62
     0
100
AcDbPoint
 10
261.1469781753565
 20
129.2562734446182
 30
0.0
  0
ENDBLK
  5
EED
330
A08
100
AcDbEntity
  8
0
100
AcDbBlockEnd
  0
BLOCK
  5
EDA
330
A14
100
AcDbEntity
  8
0
100
AcDbBlockBegin
  2
*D17
 70
     1
 10
0.0
 20
0.0
 30
0.0
  3
*D17
  1

  0
LINE
  5
110B
330
A14
100
AcDbEntity
  8
寸法線
 62
     2
370
    -2
100
AcDbLine
 10
231.1469781753564
 20
107.4640181981624
 30
0.0
 11
231.1469781753564
 21
130.5062734446182
 31
0.0
  0
LINE
  5
110C
330
A14
100
AcDbEntity
  8
寸法線
 62
     2
370
    -2
100
AcDbLine
 10
258.6469781753565
 20
129.2562734446182
 30
0.0
 11
233.6469781753564
 21
129.2562734446182
 31
0.0
  0
INSERT
  5
110D
330
A14
100
AcDbEntity
  8
寸法線
 62
     2
370
    -2
100
AcDbBlockReference
  2
_OPEN
 10
261.1469781753565
 20
129.2562734446182
 30
0.0
 41
2.5
 42
2.5
 43
2.5
  0
INSERT
  5
110E
330
A14
100
AcDbEntity
  8
寸法線
 62
     2
370
    -2
100
AcDbBlockReference
  2
_OPEN
 10
231.1469781753564
 20
129.2562734446182
 30
0.0
 41
2.5
 42
2.5
 43
2.5
 50
180.0
  0
MTEXT
  5
110F
330
A14
100
AcDbEntity
  8
寸法線
 62
     6
100
AcDbMText
 10
246.1469781753564
 20
131.1312734446183
 30
0.0
 40
2.5
 41
0.0
 71
     5
 72
     1
  1
\A1;30
  7
STYLE3
 73
     1
 44
1.0
  0
POINT
  5
1110
330
A14
100
AcDbEntity
  8
DEFPOINTS
 62
     0
100
AcDbPoint
 10
261.1469781753565
 20
104.4640181981625
 30
0.0
  0
POINT
  5
1111
330
A14
100
AcDbEntity
  8
DEFPOINTS
 62
     0
100
AcDbPoint
 10
231.1469781753564
 20
107.4640181981624
 30
0.0
  0
POINT
  5
1112
330
A14
100
AcDbEntity
  8
DEFPOINTS
 62
     0
100
AcDbPoint
 10
231.1469781753564
 20
129.2562734446182
 30
0.0
  0
ENDBLK
  5
EE3
330
A14
100
AcDbEntity
  8
0
100
AcDbBlockEnd
  0
BLOCK
  5
ED0
330
A20
100
AcDbEntity
  8
0
100
AcDbBlockBegin
  2
*D18
 70
     1
 10
0.0
 20
0.0
 30
0.0
  3
*D18
  1

  0
LINE
  5
10D8
330
A20
100
AcDbEntity
  8
寸法線
 62
     2
370
    -2
100
AcDbLine
 10
132.1469781753565
 20
116.4640181981624
 30
0.0
 11
132.1469781753565
 21
130.5062734446182
 31
0.0
  0
LINE
  5
10D9
330
A20
100
AcDbEntity
  8
寸法線
 62
     2
370
    -2
100
AcDbLine
 10
228.6469781753564
 20
129.2562734446182
 30
0.0
 11
134.6469781753565
 21
129.2562734446182
 31
0.0
  0
INSERT
  5
10DA
330
A20
100
AcDbEntity
  8
寸法線
 62
     2
370
    -2
100
AcDbBlockReference
  2
_OPEN
 10
231.1469781753564
 20
129.2562734446182
 30
0.0
 41
2.5
 42
2.5
 43
2.5
  0
INSERT
  5
10DB
330
A20
100
AcDbEntity
  8
寸法線
 62
     2
370
    -2
100
AcDbBlockReference
  2
_OPEN
 10
132.1469781753565
 20
129.2562734446182
 30
0.0
 41
2.5
 42
2.5
 43
2.5
 50
180.0
  0
MTEXT
  5
10DC
330
A20
100
AcDbEntity
  8
寸法線
 62
     6
100
AcDbMText
 10
181.6469781753564
 20
131.1312734446183
 30
0.0
 40
2.5
 41
0.0
 71
     5
 72
     1
  1
\A1;99
  7
STYLE3
 73
     1
 44
1.0
  0
POINT
  5
10DD
330
A20
100
AcDbEntity
  8
DEFPOINTS
 62
     0
100
AcDbPoint
 10
231.1469781753564
 20
107.4640181981624
 30
0.0
  0
POINT
  5
10DE
330
A20
100
AcDbEntity
  8
DEFPOINTS
 62
     0
100
AcDbPoint
 10
132.1469781753565
 20
116.4640181981624
 30
0.0
  0
POINT
  5
10DF
330
A20
100
AcDbEntity
  8
DEFPOINTS
 62
     0
100
AcDbPoint
 10
132.1469781753565
 20
129.2562734446182
 30
0.0
  0
ENDBLK
  5
ED9
330
A20
100
AcDbEntity
  8
0
100
AcDbBlockEnd
  0
BLOCK
  5
F5D
330
A2C
100
AcDbEntity
  8
0
100
AcDbBlockBegin
  2
*D19
 70
     1
 10
0.0
 20
0.0
 30
0.0
  3
*D19
  1

  0
LINE
  5
10E0
330
A2C
100
AcDbEntity
  8
寸法線
 62
     2
370
    -2
100
AcDbLine
 10
49.64697817535648
 20
104.9640181981624
 30
0.0
 11
49.64697817535648
 21
130.5062734446183
 31
0.0
  0
LINE
  5
10E1
330
A2C
100
AcDbEntity
  8
寸法線
 62
     2
370
    -2
100
AcDbLine
 10
129.6469781753565
 20
129.2562734446183
 30
0.0
 11
52.14697817535648
 21
129.2562734446183
 31
0.0
  0
INSERT
  5
10E2
330
A2C
100
AcDbEntity
  8
寸法線
 62
     2
370
    -2
100
AcDbBlockReference
  2
_OPEN
 10
132.1469781753565
 20
129.2562734446183
 30
0.0
 41
2.5
 42
2.5
 43
2.5
  0
INSERT
  5
10E3
330
A2C
100
AcDbEntity
  8
寸法線
 62
     2
370
    -2
100
AcDbBlockReference
  2
_OPEN
 10
49.64697817535648
 20
129.2562734446183
 30
0.0
 41
2.5
 42
2.5
 43
2.5
 50
180.0
  0
MTEXT
  5
10E4
330
A2C
100
AcDbEntity
  8
寸法線
 62
     6
100
AcDbMText
 10
90.89697817535649
 20
131.1312734446183
 30
0.0
 40
2.5
 41
0.0
 71
     5
 72
     1
  1
\A1;82.5
  7
STYLE3
 73
     1
 44
1.0
  0
POINT
  5
10E5
330
A2C
100
AcDbEntity
  8
DEFPOINTS
 62
     0
100
AcDbPoint
 10
132.1469781753565
 20
116.4640181981624
 30
0.0
  0
POINT
  5
10E6
330
A2C
100
AcDbEntity
  8
DEFPOINTS
 62
     0
100
AcDbPoint
 10
49.64697817535648
 20
104.9640181981624
 30
0.0
  0
POINT
  5
10E7
330
A2C
100
AcDbEntity
  8
DEFPOINTS
 62
     0
100
AcDbPoint
 10
49.64697817535648
 20
129.2562734446183
 30
0.0
  0
ENDBLK
  5
F66
330
A2C
100
AcDbEntity
  8
0
100
AcDbBlockEnd
  0
BLOCK
  5
EC5
330
A6B
100
AcDbEntity
  8
0
100
AcDbBlockBegin
  2
*D20
 70
     1
 10
0.0
 20
0.0
 30
0.0
  3
*D20
  1

  0
LINE
  5
10CF
330
A6B
100
AcDbEntity
  8
寸法線
 62
     2
370
    -2
100
AcDbLine
 10
49.64697817535648
 20
130.5062734446183
 30
0.0
 11
49.64697817535648
 21
137.1495481729699
 31
0.0
  0
LINE
  5
10D0
330
A6B
100
AcDbEntity
  8
寸法線
 62
     2
370
    -2
100
AcDbLine
 10
330.1469781753565
 20
130.5062734446182
 30
0.0
 11
330.1469781753565
 21
137.1495481729699
 31
0.0
  0
LINE
  5
10D1
330
A6B
100
AcDbEntity
  8
寸法線
 62
     2
370
    -2
100
AcDbLine
 10
52.14697817535648
 20
135.8995481729699
 30
0.0
 11
327.6469781753565
 21
135.8995481729699
 31
0.0
  0
INSERT
  5
10D2
330
A6B
100
AcDbEntity
  8
寸法線
 62
     2
370
    -2
100
AcDbBlockReference
  2
_OPEN
 10
49.64697817535648
 20
135.8995481729699
 30
0.0
 41
2.5
 42
2.5
 43
2.5
 50
180.0
  0
INSERT
  5
10D3
330
A6B
100
AcDbEntity
  8
寸法線
 62
     2
370
    -2
100
AcDbBlockReference
  2
_OPEN
 10
330.1469781753565
 20
135.8995481729699
 30
0.0
 41
2.5
 42
2.5
 43
2.5
  0
MTEXT
  5
10D4
330
A6B
100
AcDbEntity
  8
寸法線
 62
     6
100
AcDbMText
 10
189.8969781753565
 20
137.7745481729699
 30
0.0
 40
2.5
 41
0.0
 71
     5
 72
     1
  1
\A1;280.5
  7
STYLE3
 73
     1
 44
1.0
  0
POINT
  5
10D5
330
A6B
100
AcDbEntity
  8
DEFPOINTS
 62
     0
100
AcDbPoint
 10
49.64697817535648
 20
130.5062734446183
 30
0.0
  0
POINT
  5
10D6
330
A6B
100
AcDbEntity
  8
DEFPOINTS
 62
     0
100
AcDbPoint
 10
330.1469781753565
 20
130.5062734446182
 30
0.0
  0
POINT
  5
10D7
330
A6B
100
AcDbEntity
  8
DEFPOINTS
 62
     0
100
AcDbPoint
 10
330.1469781753565
 20
135.8995481729699
 30
0.0
  0
ENDBLK
  5
ECF
330
A6B
100
AcDbEntity
  8
0
100
AcDbBlockEnd
  0
BLOCK
  5
F1C
330
ACA
100
AcDbEntity
  8
0
100
AcDbBlockBegin
  2
*D21
 70
     1
 10
0.0
 20
0.0
 30
0.0
  3
*D21
  1

  0
LINE
  5
10C6
330
ACA
100
AcDbEntity
  8
寸法線
 62
     2
370
    -2
100
AcDbLine
 10
231.1469781753565
 20
197.7978181321601
 30
0.0
 11
231.1469781753565
 21
212.2224714454272
 31
0.0
  0
LINE
  5
10C7
330
ACA
100
AcDbEntity
  8
寸法線
 62
     2
370
    -2
100
AcDbLine
 10
214.1469781753565
 20
201.7978181321602
 30
0.0
 11
214.1469781753565
 21
212.2224714454272
 31
0.0
  0
LINE
  5
10C8
330
ACA
100
AcDbEntity
  8
寸法線
 62
     2
370
    -2
100
AcDbLine
 10
228.6469781753565
 20
210.9724714454273
 30
0.0
 11
216.6469781753565
 21
210.9724714454273
 31
0.0
  0
INSERT
  5
10C9
330
ACA
100
AcDbEntity
  8
寸法線
 62
     2
370
    -2
100
AcDbBlockReference
  2
_OPEN
 10
231.1469781753565
 20
210.9724714454273
 30
0.0
 41
2.5
 42
2.5
 43
2.5
  0
INSERT
  5
10CA
330
ACA
100
AcDbEntity
  8
寸法線
 62
     2
370
    -2
100
AcDbBlockReference
  2
_OPEN
 10
214.1469781753565
 20
210.9724714454273
 30
0.0
 41
2.5
 42
2.5
 43
2.5
 50
180.0
  0
MTEXT
  5
10CB
330
ACA
100
AcDbEntity
  8
寸法線
 62
     6
100
AcDbMText
 10
222.6469781753565
 20
212.8474714454272
 30
0.0
 40
2.5
 41
0.0
 71
     5
 72
     1
  1
\A1;17
  7
STYLE3
 73
     1
 44
1.0
  0
POINT
  5
10CC
330
ACA
100
AcDbEntity
  8
DEFPOINTS
 62
     0
100
AcDbPoint
 10
231.1469781753565
 20
197.7978181321601
 30
0.0
  0
POINT
  5
10CD
330
ACA
100
AcDbEntity
  8
DEFPOINTS
 62
     0
100
AcDbPoint
 10
214.1469781753565
 20
201.7978181321602
 30
0.0
  0
POINT
  5
10CE
330
ACA
100
AcDbEntity
  8
DEFPOINTS
 62
     0
100
AcDbPoint
 10
214.1469781753565
 20
210.9724714454273
 30
0.0
  0
ENDBLK
  5
F26
330
ACA
100
AcDbEntity
  8
0
100
AcDbBlockEnd
  0
BLOCK
  5
C37
330
BE4
100
AcDbEntity
  8
0
100
AcDbBlockBegin
  2
A$C46B047FA
 70
     0
 10
0.0
 20
0.0
 30
0.0
  3
A$C46B047FA
  1

  0
LINE
  5
BE5
102
{ACAD_REACTORS
330
BE8
102
}
330
BE4
100
AcDbEntity
  8
ROGO
 62
     4
100
AcDbLine
 10
5.483320721481106
 20
0.5346185261392407
 30
0.0
 11
4.957014942215948
 21
0.5346185261392407
 31
0.0
  0
LINE
  5
BE6
102
{ACAD_REACTORS
330
BE8
102
}
330
BE4
100
AcDbEntity
  8
ROGO
 62
     4
100
AcDbLine
 10
4.798028326966687
 20
1.484935992939711
 30
0.0
 11
5.483320721481106
 21
0.5346185261392407
 31
0.0
  0
LINE
  5
BE7
102
{ACAD_REACTORS
330
BE9
102
}
330
BE4
100
AcDbEntity
  8
ROGO
 62
     4
100
AcDbLine
 10
0.7472799628276335
 20
0.1488426046267932
 30
0.0
 11
9.578582315110054
 21
0.1488426046267932
 31
0.0
  0
HATCH
  5
BE8
330
BE4
100
AcDbEntity
  8
ROGO
 62
     4
100
AcDbHatch
 10
0.0
 20
0.0
 30
0.0
210
0.0
220
0.0
230
1.0
  2
SOLID
 70
     1
 71
     1
 91
        2
 92
        7
 72
     0
 73
     1
 93
        8
 10
4.798028326966687
 20
1.484935992939597
 10
4.24878199962751
 20
1.484935992939597
 10
3.56348960511309
 20
0.534618526139127
 10
4.089795384378248
 20
0.534618526139127
 10
4.220270816254185
 20
0.7155530920158526
 10
4.826539510339955
 20
0.7155530920157958
 10
4.957014942215948
 20
0.534618526139127
 10
5.483320721481106
 20
0.534618526139127
 97
        8
330
C09
330
C04
330
BFF
330
C03
330
C0A
330
BF0
330
BE5
330
BE6
 92
       22
 72
     0
 73
     1
 93
        3
 10
4.688923137875178
 20
0.906390234698108
 10
4.357887188719018
 20
0.906390234698108
 10
4.52340516329707
 20
1.135919445251261
 97
        3
330
BEE
330
BEF
330
BED
 75
     0
 76
     1
 47
0.0514683685270805
 98
        2
 10
4.861853918220901
 20
0.9980511167917711
 10
4.861853918220901
 20
0.9980511167917711
450
        0
451
        0
460
0.0
461
0.0
452
        0
462
0.0
453
        0
470

  0
HATCH
  5
BE9
330
BE4
100
AcDbEntity
  8
ROGO
 62
     4
100
AcDbHatch
 10
0.0
 20
0.0
 30
0.0
210
0.0
220
0.0
230
1.0
  2
SOLID
 70
     1
 71
     1
 91
        1
 92
        7
 72
     0
 73
     1
 93
        4
 10
9.578582315110054
 20
0.1488426046266795
 10
0.757602359408736
 20
0.1488426046266795
 10
0.6902617161883314
 20
-0.0000000591880962
 10
9.504364555761469
 20
-0.0000000591880962
 97
        4
330
BE7
330
C01
330
BEA
330
C0C
 75
     0
 76
     1
 47
0.0514683685270805
 98
        1
 10
6.327335468702983
 20
0.1094761121222518
450
        0
451
        0
460
0.0
461
0.0
452
        0
462
0.0
453
        0
470

  0
LINE
  5
BEA
102
{ACAD_REACTORS
330
BE9
330
C0D
330
BEC
102
}
330
BE4
100
AcDbEntity
  8
ROGO
 62
     4
100
AcDbLine
 10
-0.0000000265826543
 20
-0.0000000591879825
 30
0.0
 11
10.05153918222152
 21
-0.0000000591879825
 31
0.0
  0
LINE
  5
BEB
102
{ACAD_REACTORS
330
BEC
102
}
330
BE4
100
AcDbEntity
  8
ROGO
 62
     4
100
AcDbLine
 10
0.7347325219557206
 20
1.484935992939711
 30
0.0
 11
-0.0000000265826543
 21
-0.0000000591879825
 31
0.0
  0
HATCH
  5
BEC
330
BE4
100
AcDbEntity
  8
ROGO
 62
     4
100
AcDbHatch
 10
0.0
 20
0.0
 30
0.0
210
0.0
220
0.0
230
1.0
  2
SOLID
 70
     1
 71
     1
 91
        2
 92
        5
 93
        6
 72
     4
 94
        3
 73
     0
 74
     0
 95
       18
 96
       14
 40
0.108740278791501
 40
0.108740278791501
 40
0.108740278791501
 40
0.108740278791501
 40
0.6623149649549278
 40
1.384304701649787
 40
2.097394834876493
 40
2.774073369849618
 40
3.428974823686337
 40
4.005208313035923
 40
4.455173659284313
 40
4.720999734343524
 40
5.086034088486724
 40
5.569973738255373
 40
6.060470601257719
 40
6.060470601257719
 40
6.060470601257719
 40
6.060470601257719
 10
1.577391485369219
 20
0.534618526139127
 10
1.622803336473907
 20
0.5349566944440767
 10
1.727442770127709
 20
0.5357359126228403
 10
1.873832519012296
 20
0.613940533182074
 10
2.012651827277124
 20
0.713567521861819
 10
2.124461336400656
 20
0.8380410501108599
 10
2.194122029264406
 20
0.98035520437395
 10
2.204912250403367
 20
1.116750249304743
 10
2.198325085495298
 20
1.224637034167358
 10
2.151256483647159
 20
1.299836801611604
 10
2.102322928309888
 20
1.376156875384538
 10
2.012595334482341
 20
1.442268158006243
 10
1.939076563619892
 20
1.471234727313287
 10
1.901690773369352
 20
1.484935992939654
 72
     1
 10
1.901690773369466
 20
1.484935992939597
 11
0.7347325219557206
 21
1.484935992939597
 72
     1
 10
0.7347325219557206
 20
1.484935992939597
 11
-0.0000000265826543
 21
-0.000000059188096
 72
     1
 10
-0.0000000265826543
 20
-0.0000000591880962
 11
0.6902617161883314
 21
-0.0000000591880962
 72
     1
 10
0.6902617161883314
 20
-0.0000000591880962
 11
0.932138329323493
 21
0.5346185261391269
 72
     1
 10
0.932138329323493
 20
0.534618526139127
 11
1.577391485369219
 21
0.534618526139127
 97
        6
330
C07
330
BFE
330
BEB
330
BEA
330
C01
330
C02
 92
       20
 93
        4
 72
     1
 10
1.081483445011883
 20
0.8647152371851802
 11
1.195825786135401
 21
1.117445502679345
 72
     1
 10
1.195825786135401
 20
1.117445502679288
 11
1.489636870927654
 21
1.117445502679288
 72
     4
 94
        3
 73
     0
 74
     0
 95
       15
 96
       11
 40
0.0
 40
0.0
 40
0.0
 40
0.0
 40
0.458245544397197
 40
0.6671803073175111
 40
0.9043351724393449
 40
1.065896092998139
 40
1.321406364485703
 40
1.474450037341961
 40
1.737022829061231
 40
1.824547148828933
 40
1.824547148828933
 40
1.824547148828933
 40
1.824547148828933
 10
1.489636870927427
 20
1.117445502679288
 10
1.531486993944213
 20
1.117637198581689
 10
1.592418471133726
 20
1.117916297271506
 10
1.625737972995125
 20
1.042543883780695
 10
1.61080258358146
 20
0.9940158074456348
 10
1.592027581834656
 20
0.9441925981577696
 10
1.558847901491105
 20
0.9103369760057944
 10
1.514315910544837
 20
0.8777283046038064
 10
1.472231051009316
 20
0.873780878915852
 10
1.444859574066413
 20
0.8665283662256229
 10
1.438016701555113
 20
0.8647152371851234
 72
     1
 10
1.438016701555113
 20
0.8647152371851802
 11
1.081483445011883
 21
0.8647152371851802
 97
        4
330
BFB
330
BFD
330
BF9
330
BFC
 75
     0
 76
     1
 47
0.0514683685270805
 98
        2
 10
0.7409697327581739
 20
1.023081472030241
 10
0.7409697327581739
 20
1.023081472030241
450
        0
451
        0
460
0.0
461
0.0
452
        0
462
0.0
453
        0
470

  0
LINE
  5
BED
102
{ACAD_REACTORS
330
BE8
102
}
330
BE4
100
AcDbEntity
  8
ROGO
 62
     4
100
AcDbLine
 10
4.52340516329707
 20
1.135919445251374
 30
0.0
 11
4.688923137875121
 21
0.9063902346982217
 31
0.0
  0
LINE
  5
BEE
102
{ACAD_REACTORS
330
BE8
102
}
330
BE4
100
AcDbEntity
  8
ROGO
 62
     4
100
AcDbLine
 10
4.357887188719018
 20
0.9063902346982786
 30
0.0
 11
4.688923137875121
 21
0.9063902346982786
 31
0.0
  0
LINE
  5
BEF
102
{ACAD_REACTORS
330
BE8
102
}
330
BE4
100
AcDbEntity
  8
ROGO
 62
     4
100
AcDbLine
 10
4.52340516329707
 20
1.135919445251374
 30
0.0
 11
4.357887188719018
 21
0.9063902346982217
 31
0.0
  0
LINE
  5
BF0
102
{ACAD_REACTORS
330
BE8
102
}
330
BE4
100
AcDbEntity
  8
ROGO
 62
     4
100
AcDbLine
 10
4.826539510339955
 20
0.7155530920159663
 30
0.0
 11
4.957014942215948
 21
0.5346185261392407
 31
0.0
  0
LINE
  5
BF1
102
{ACAD_REACTORS
330
C08
102
}
330
BE4
100
AcDbEntity
  8
ROGO
 62
     4
100
AcDbLine
 10
2.922617336811697
 20
0.9225102099042601
 30
0.0
 11
2.838397403018575
 21
0.7522969585028818
 31
0.0
  0
LINE
  5
BF2
102
{ACAD_REACTORS
330
C08
102
}
330
BE4
100
AcDbEntity
  8
ROGO
 62
     4
100
AcDbLine
 10
3.684517612092918
 20
1.09704056486214
 30
0.0
 11
3.598161615609569
 21
0.9225102099042601
 31
0.0
  0
LINE
  5
BF3
102
{ACAD_REACTORS
330
C08
102
}
330
BE4
100
AcDbEntity
  8
ROGO
 62
     4
100
AcDbLine
 10
2.922617336811697
 20
0.9225102099042601
 30
0.0
 11
3.598161615609569
 21
0.9225102099043169
 31
0.0
  0
LINE
  5
BF4
102
{ACAD_REACTORS
330
C08
102
}
330
BE4
100
AcDbEntity
  8
ROGO
 62
     4
100
AcDbLine
 10
2.838397403018632
 20
0.7522969585028818
 30
0.0
 11
3.513941681816504
 21
0.7522969585028818
 31
0.0
  0
LINE
  5
BF5
102
{ACAD_REACTORS
330
C08
102
}
330
BE4
100
AcDbEntity
  8
ROGO
 62
     4
100
AcDbLine
 10
3.008973333294989
 20
1.09704056486214
 30
0.0
 11
3.684517612092918
 21
1.09704056486214
 31
0.0
  0
LINE
  5
BF6
102
{ACAD_REACTORS
330
C08
102
}
330
BE4
100
AcDbEntity
  8
ROGO
 62
     4
100
AcDbLine
 10
3.093189701771905
 20
1.267246610557776
 30
0.0
 11
3.768733980569777
 21
1.267246610557776
 31
0.0
  0
LINE
  5
BF7
102
{ACAD_REACTORS
330
C08
102
}
330
BE4
100
AcDbEntity
  8
ROGO
 62
     4
100
AcDbLine
 10
3.093189701771905
 20
1.267246610557776
 30
0.0
 11
3.008973333294989
 21
1.09704056486214
 31
0.0
  0
LINE
  5
BF8
102
{ACAD_REACTORS
330
C08
102
}
330
BE4
100
AcDbEntity
  8
ROGO
 62
     4
100
AcDbLine
 10
3.876444662439212
 20
1.484935992939711
 30
0.0
 11
3.768733980569777
 21
1.267246610557776
 31
0.0
  0
SPLINE
  5
BF9
102
{ACAD_REACTORS
330
BEC
102
}
330
BE4
100
AcDbEntity
  8
ROGO
 62
     4
100
AcDbSpline
210
0.0
220
0.0
230
1.0
 70
     8
 71
     3
 72
    15
 73
    11
 74
     9
 42
0.0000000001
 43
0.0000000001
 44
0.0000000001
 40
0.0
 40
0.0
 40
0.0
 40
0.0
 40
0.1114278057886432
 40
0.1622327562563865
 40
0.2198997572250677
 40
0.259185199493265
 40
0.3213155338880433
 40
0.3585299069784071
 40
0.4223775764185194
 40
0.4436601464819452
 40
0.4436601464819452
 40
0.4436601464819452
 40
0.4436601464819452
 10
1.489636870927427
 20
1.117445502679402
 30
0.0
 10
1.53148699394423
 20
1.117637198581768
 30
0.0
 10
1.592418471133713
 20
1.117916297271578
 30
0.0
 10
1.625737972995128
 20
1.042543883780852
 30
0.0
 10
1.6108025835815
 20
0.9940158074457743
 30
0.0
 10
1.592027581834693
 20
0.9441925981578666
 30
0.0
 10
1.558847901491109
 20
0.9103369760058937
 30
0.0
 10
1.514315910544882
 20
0.8777283046039702
 30
0.0
 10
1.472231051009326
 20
0.873780878915954
 30
0.0
 10
1.444859574066393
 20
0.8665283662257074
 30
0.0
 10
1.438016701555113
 20
0.8647152371852371
 30
0.0
 11
1.489636870927427
 21
1.117445502679402
 31
0.0
 11
1.59803931565716
 21
1.091656631446085
 31
0.0
 11
1.618687442771317
 21
1.045236831374268
 31
0.0
 11
1.608363527627375
 21
0.9885014828089992
 31
0.0
 11
1.592877506498325
 21
0.9523970630823441
 31
0.0
 11
1.551581252269954
 21
0.9059772630104703
 31
0.0
 11
1.520609210011855
 21
0.8853461660238508
 31
0.0
 11
1.458664828669327
 21
0.8698730114319346
 31
0.0
 11
1.438016701555113
 21
0.8647152371852371
 31
0.0
  0
LINE
  5
BFA
102
{ACAD_REACTORS
330
C08
102
}
330
BE4
100
AcDbEntity
  8
ROGO
 62
     4
100
AcDbLine
 10
2.591100753158968
 20
1.484935992939711
 30
0.0
 11
3.876444662439212
 21
1.484935992939767
 31
0.0
  0
LINE
  5
BFB
102
{ACAD_REACTORS
330
BEC
102
}
330
BE4
100
AcDbEntity
  8
ROGO
 62
     4
100
AcDbLine
 10
1.195825786135401
 20
1.117445502679402
 30
0.0
 11
1.081483445011883
 21
0.8647152371852939
 31
0.0
  0
LINE
  5
BFC
102
{ACAD_REACTORS
330
BEC
102
}
330
BE4
100
AcDbEntity
  8
ROGO
 62
     4
100
AcDbLine
 10
1.438016701555113
 20
0.8647152371852371
 30
0.0
 11
1.081483445011883
 21
0.8647152371852939
 31
0.0
  0
LINE
  5
BFD
102
{ACAD_REACTORS
330
BEC
102
}
330
BE4
100
AcDbEntity
  8
ROGO
 62
     4
100
AcDbLine
 10
1.489636870927427
 20
1.117445502679402
 30
0.0
 11
1.195825786135401
 21
1.117445502679402
 31
0.0
  0
LINE
  5
BFE
102
{ACAD_REACTORS
330
BEC
102
}
330
BE4
100
AcDbEntity
  8
ROGO
 62
     4
100
AcDbLine
 10
0.7347325219557206
 20
1.484935992939711
 30
0.0
 11
1.901690773369352
 21
1.484935992939711
 31
0.0
  0
LINE
  5
BFF
102
{ACAD_REACTORS
330
BE8
102
}
330
BE4
100
AcDbEntity
  8
ROGO
 62
     4
100
AcDbLine
 10
3.56348960511309
 20
0.5346185261392407
 30
0.0
 11
4.089795384378248
 21
0.5346185261392407
 31
0.0
  0
LINE
  5
C00
102
{ACAD_REACTORS
330
C08
102
}
330
BE4
100
AcDbEntity
  8
ROGO
 62
     4
100
AcDbLine
 10
2.120892508634028
 20
0.5346185261392407
 30
0.0
 11
3.406236417914271
 21
0.5346185261392407
 31
0.0
  0
LINE
  5
C01
102
{ACAD_REACTORS
330
BE9
330
BEC
102
}
330
BE4
100
AcDbEntity
  8
ROGO
 62
     4
100
AcDbLine
 10
0.932138329323493
 20
0.5346185261392407
 30
0.0
 11
0.6902617161883314
 21
-0.0000000591879825
 31
0.0
  0
LINE
  5
C02
102
{ACAD_REACTORS
330
BEC
102
}
330
BE4
100
AcDbEntity
  8
ROGO
 62
     4
100
AcDbLine
 10
1.577391485592897
 20
0.5346185261392407
 30
0.0
 11
0.9321383293234362
 21
0.5346185261392407
 31
0.0
  0
LINE
  5
C03
102
{ACAD_REACTORS
330
BE8
102
}
330
BE4
100
AcDbEntity
  8
ROGO
 62
     4
100
AcDbLine
 10
4.220270816254185
 20
0.7155530920159663
 30
0.0
 11
4.089795384378248
 21
0.5346185261392407
 31
0.0
  0
LINE
  5
C04
102
{ACAD_REACTORS
330
BE8
102
}
330
BE4
100
AcDbEntity
  8
ROGO
 62
     4
100
AcDbLine
 10
4.24878199962751
 20
1.484935992939711
 30
0.0
 11
3.56348960511309
 21
0.5346185261392407
 31
0.0
  0
LINE
  5
C05
102
{ACAD_REACTORS
330
C08
102
}
330
BE4
100
AcDbEntity
  8
ROGO
 62
     4
100
AcDbLine
 10
3.513941681816504
 20
0.7522969585028818
 30
0.0
 11
3.406236417914271
 21
0.5346185261392407
 31
0.0
  0
LINE
  5
C06
102
{ACAD_REACTORS
330
C08
102
}
330
BE4
100
AcDbEntity
  8
ROGO
 62
     4
100
AcDbLine
 10
2.591100753159025
 20
1.484935992939711
 30
0.0
 11
2.120892508634028
 21
0.5346185261392407
 31
0.0
  0
SPLINE
  5
C07
102
{ACAD_REACTORS
330
BEC
102
}
330
BE4
100
AcDbEntity
  8
ROGO
 62
     4
100
AcDbSpline
210
0.0
220
0.0
230
1.0
 70
     8
 71
     3
 72
    18
 73
    14
 74
     0
 42
0.0000000001
 43
0.0000000001
 40
0.1087402787915014
 40
0.1087402787915014
 40
0.1087402787915014
 40
0.1087402787915014
 40
0.5992371417938475
 40
1.083176791562496
 40
1.448211145705696
 40
1.714037220764907
 40
2.164002567013297
 40
2.740236056362883
 40
3.395137510199602
 40
4.071816045172726
 40
4.784906178399433
 40
5.506895915094292
 40
6.060470601257719
 40
6.060470601257719
 40
6.060470601257719
 40
6.060470601257719
 10
1.901690773369352
 20
1.484935992939767
 30
0.0
 10
1.939076563619892
 20
1.471234727313401
 30
0.0
 10
2.012595334482341
 20
1.442268158006356
 30
0.0
 10
2.102322928309888
 20
1.376156875384708
 30
0.0
 10
2.151256483647159
 20
1.299836801611718
 30
0.0
 10
2.198325085495298
 20
1.224637034167471
 30
0.0
 10
2.204912250403367
 20
1.116750249304857
 30
0.0
 10
2.194122029264406
 20
0.9803552043740637
 30
0.0
 10
2.124461336400656
 20
0.8380410501109736
 30
0.0
 10
2.012651827277124
 20
0.7135675218619327
 30
0.0
 10
1.873832519012296
 20
0.6139405331821877
 30
0.0
 10
1.727442770127709
 20
0.535735912622954
 30
0.0
 10
1.622803336473907
 20
0.5349566944441904
 30
0.0
 10
1.577391485369219
 20
0.5346185261392407
 30
0.0
  0
HATCH
  5
C08
330
BE4
100
AcDbEntity
  8
ROGO
 62
     4
100
AcDbHatch
 10
0.0
 20
0.0
 30
0.0
210
0.0
220
0.0
230
1.0
  2
SOLID
 70
     1
 71
     1
 91
        1
 92
        1
 93
       12
 72
     1
 10
2.591100753158968
 20
1.484935992939597
 11
3.876444662439212
 21
1.484935992939597
 72
     1
 10
3.876444662439212
 20
1.484935992939597
 11
3.76873398056972
 21
1.267246610557663
 72
     1
 10
3.768733980569777
 20
1.267246610557663
 11
3.093189701771905
 21
1.267246610557663
 72
     1
 10
3.093189701771905
 20
1.267246610557663
 11
3.008973333295045
 21
1.097040564862027
 72
     1
 10
3.008973333295045
 20
1.097040564862027
 11
3.684517612092918
 21
1.097040564862027
 72
     1
 10
3.684517612092861
 20
1.097040564862027
 11
3.598161615609512
 21
0.9225102099041464
 72
     1
 10
3.598161615609569
 20
0.9225102099041464
 11
2.922617336811697
 21
0.9225102099041464
 72
     1
 10
2.922617336811697
 20
0.9225102099041464
 11
2.838397403018632
 21
0.7522969585027682
 72
     1
 10
2.838397403018632
 20
0.7522969585027682
 11
3.513941681816504
 21
0.7522969585027682
 72
     1
 10
3.513941681816504
 20
0.7522969585027682
 11
3.406236417914271
 21
0.534618526139127
 72
     1
 10
3.406236417914271
 20
0.534618526139127
 11
2.120892508634028
 21
0.534618526139127
 72
     1
 10
2.120892508634028
 20
0.534618526139127
 11
2.591100753159025
 21
1.484935992939597
 97
       12
330
BFA
330
BF8
330
BF6
330
BF7
330
BF5
330
BF2
330
BF3
330
BF1
330
BF4
330
C05
330
C00
330
C06
 75
     0
 76
     1
 98
        1
 10
-49.98549222387413
 20
-64.22526447222606
450
        0
451
        0
460
0.0
461
0.0
452
        0
462
0.0
453
        0
470

  0
LINE
  5
C09
102
{ACAD_REACTORS
330
BE8
102
}
330
BE4
100
AcDbEntity
  8
ROGO
 62
     4
100
AcDbLine
 10
4.24878199962751
 20
1.484935992939711
 30
0.0
 11
4.798028326966687
 21
1.484935992939711
 31
0.0
  0
LINE
  5
C0A
102
{ACAD_REACTORS
330
BE8
102
}
330
BE4
100
AcDbEntity
  8
ROGO
 62
     4
100
AcDbLine
 10
4.220270816254185
 20
0.7155530920159663
 30
0.0
 11
4.826539510339955
 21
0.7155530920159663
 31
0.0
  0
LINE
  5
C0B
102
{ACAD_REACTORS
330
C0D
102
}
330
BE4
100
AcDbEntity
  8
ROGO
 62
     4
100
AcDbLine
 10
10.24480163032234
 20
0.387585039623616
 30
0.0
 11
10.05153918222152
 21
-0.0000000591879825
 31
0.0
  0
LINE
  5
C0C
102
{ACAD_REACTORS
330
BE9
330
C0D
102
}
330
BE4
100
AcDbEntity
  8
ROGO
 62
     4
100
AcDbLine
 10
10.24480163032234
 20
1.484935992939711
 30
0.0
 11
9.504364555761469
 21
-0.0000000591879825
 31
0.0
  0
HATCH
  5
C0D
330
BE4
100
AcDbEntity
  8
ROGO
 62
     4
100
AcDbHatch
 10
0.0
 20
0.0
 30
0.0
210
0.0
220
0.0
230
1.0
  2
SOLID
 70
     1
 71
     1
 91
        1
 92
        7
 72
     0
 73
     1
 93
       11
 10
11.51449603063281
 20
1.484935992939597
 10
10.96733337591359
 20
1.484935992939597
 10
10.71113559568618
 20
1.322811193596237
 10
10.79197625678233
 20
1.484935992939597
 10
10.24480163032234
 20
1.484935992939597
 10
9.504364555761469
 20
-0.0000000591880962
 10
10.05153918222152
 20
-0.0000000591880962
 10
10.24480163032234
 20
0.3875850396235023
 10
10.43806407842322
 20
-0.0000000591880962
 10
10.98522673314244
 20
-0.0000000591880962
 10
10.61500819586206
 20
0.7424679668757222
 97
       11
330
C32
330
C2F
330
C30
330
C31
330
C0C
330
BEA
330
C0B
330
C35
330
C34
330
C36
330
C33
 75
     0
 76
     1
 47
0.0514683685270805
 98
        1
 10
10.19770984280899
 20
0.8478694898053618
450
        0
451
        0
460
0.0
461
0.0
452
        0
462
0.0
453
        0
470

  0
LINE
  5
C0E
102
{ACAD_REACTORS
330
C2E
102
}
330
BE4
100
AcDbEntity
  8
ROGO
 62
     4
100
AcDbLine
 10
9.274750120805435
 20
1.13135628124138
 30
0.0
 11
9.869459389163182
 21
1.13135628124138
 31
0.0
  0
LINE
  5
C0F
102
{ACAD_REACTORS
330
C2E
102
}
330
BE4
100
AcDbEntity
  8
ROGO
 62
     4
100
AcDbLine
 10
9.140537442976494
 20
0.8881944935250771
 30
0.0
 11
9.748211068413183
 21
0.8881944935250771
 31
0.0
  0
SPLINE
  5
C10
102
{ACAD_REACTORS
330
C2E
102
}
330
BE4
100
AcDbEntity
  8
ROGO
 62
     4
100
AcDbSpline
210
0.0
220
0.0
230
1.0
 70
     8
 71
     3
 72
    16
 73
    12
 74
    10
 42
0.0000000001
 43
0.0000000001
 44
0.0000000001
 40
0.0
 40
0.0
 40
0.0
 40
0.0
 40
0.090889463558755
 40
0.1352824120538207
 40
0.1571739758861895
 40
0.1802441192684573
 40
0.2132804986121272
 40
0.2433617673669184
 40
0.2747358298622198
 40
0.3273367126566715
 40
0.3794005943324707
 40
0.3794005943324707
 40
0.3794005943324707
 40
0.3794005943324707
 10
9.274750120805492
 20
1.131356281241323
 30
0.0
 10
9.243970826466007
 20
1.126663770171344
 30
0.0
 10
9.198158066476853
 20
1.119679305842035
 30
0.0
 10
9.156729556811942
 20
1.086884953393294
 30
0.0
 10
9.133366753805926
 20
1.067374496594591
 30
0.0
 10
9.125418624138809
 20
1.041537113468487
 30
0.0
 10
9.104072443806678
 20
1.021697969439739
 30
0.0
 10
9.086477119434254
 20
0.9944325995127421
 30
0.0
 10
9.08227575482366
 20
0.9569831722858753
 30
0.0
 10
9.085359652638807
 20
0.9044286084941507
 30
0.0
 10
9.122207864957958
 20
0.8935873241379798
 30
0.0
 10
9.140537442976494
 20
0.8881944935250203
 30
0.0
 11
9.274750120805492
 21
1.131356281241323
 31
0.0
 11
9.186995803189972
 21
1.107690391741186
 31
0.0
 11
9.150861654946709
 21
1.081901688655932
 31
0.0
 11
9.135375633817659
 21
1.066428365915896
 31
0.0
 11
9.125051421847388
 21
1.045797268929277
 31
0.0
 11
9.104403294733231
 21
1.020008565844079
 31
0.0
 11
9.088917273604181
 21
0.9942196946107628
 31
0.0
 11
9.083755167619017
 21
0.9632732172788109
 31
0.0
 11
9.094079379589288
 21
0.9116954748122338
 31
0.0
 11
9.140537442976494
 21
0.8881944935250203
 31
0.0
  0
LINE
  5
C11
102
{ACAD_REACTORS
330
C2B
102
}
330
BE4
100
AcDbEntity
  8
ROGO
 62
     4
100
AcDbLine
 10
7.465432464168998
 20
1.484935992939711
 30
0.0
 11
7.849706463946802
 21
1.484935992939711
 31
0.0
  0
LINE
  5
C12
330
BE4
100
AcDbEntity
  8
ROGO
 62
     4
100
AcDbLine
 10
7.465432464169111
 20
1.484935992939711
 30
0.0
 11
7.734745873315546
 21
1.484935992939711
 31
0.0
  0
ARC
  5
C13
102
{ACAD_REACTORS
330
C2B
102
}
330
BE4
100
AcDbEntity
  8
ROGO
 62
     4
100
AcDbCircle
 10
7.69637869428368
 20
0.9474790028461939
 30
0.0
 40
0.0888850530907803
100
AcDbArc
 50
256.5902863289752
 51
337.7287536965499
  0
ARC
  5
C14
102
{ACAD_REACTORS
330
C2B
102
}
330
BE4
100
AcDbEntity
  8
ROGO
 62
     4
100
AcDbCircle
 10
7.647054026183525
 20
0.9614983755789694
 30
0.0
 40
0.0958388019806556
100
AcDbArc
 50
188.5583509056651
 51
266.5736774635929
  0
ARC
  5
C15
102
{ACAD_REACTORS
330
C2B
102
}
330
BE4
100
AcDbEntity
  8
ROGO
 62
     4
100
AcDbCircle
 10
7.660765915210504
 20
0.9978905261285717
 30
0.0
 40
0.1037824301982561
100
AcDbArc
 50
82.57970078354313
 51
157.4341870372611
  0
ARC
  5
C16
102
{ACAD_REACTORS
330
C2B
102
}
330
BE4
100
AcDbEntity
  8
ROGO
 62
     4
100
AcDbCircle
 10
7.691623277836299
 20
0.9975628894870851
 30
0.0
 40
0.0998820093152177
100
AcDbArc
 50
3.851923331663601
 51
80.20940670206341
  0
LINE
  5
C17
102
{ACAD_REACTORS
330
C2B
102
}
330
BE4
100
AcDbEntity
  8
ROGO
 62
     4
100
AcDbLine
 10
7.641326222715235
 20
0.8658308877238596
 30
0.0
 11
7.675765110943416
 21
0.8610172607585582
 31
0.0
  0
LINE
  5
C18
102
{ACAD_REACTORS
330
C2B
102
}
330
BE4
100
AcDbEntity
  8
ROGO
 62
     4
100
AcDbLine
 10
7.552282406598749
 20
0.9472359744360119
 30
0.0
 11
7.564929135047407
 21
1.037716452179495
 31
0.0
  0
LINE
  5
C19
102
{ACAD_REACTORS
330
C2B
102
}
330
BE4
100
AcDbEntity
  8
ROGO
 62
     4
100
AcDbLine
 10
7.791279653589811
 20
1.004272774473065
 30
0.0
 11
7.778632925141153
 21
0.9137922967295253
 31
0.0
  0
LINE
  5
C1A
102
{ACAD_REACTORS
330
C2B
102
}
330
BE4
100
AcDbEntity
  8
ROGO
 62
     4
100
AcDbLine
 10
7.674169097026947
 20
1.100803827188428
 30
0.0
 11
7.708607985255127
 21
1.095990200223184
 31
0.0
  0
LINE
  5
C1B
102
{ACAD_REACTORS
330
C2A
102
}
330
BE4
100
AcDbEntity
  8
ROGO
 62
     4
100
AcDbLine
 10
6.032071970508525
 20
1.484935992939767
 30
0.0
 11
6.983758243896545
 21
1.484935992939767
 31
0.0
  0
LINE
  5
C1C
102
{ACAD_REACTORS
330
C2A
102
}
330
BE4
100
AcDbEntity
  8
ROGO
 62
     4
100
AcDbLine
 10
6.07853003389539
 20
0.8881944935250771
 30
0.0
 11
6.686203659332079
 21
0.8881944935250771
 31
0.0
  0
LINE
  5
C1D
102
{ACAD_REACTORS
330
C2A
102
}
330
BE4
100
AcDbEntity
  8
ROGO
 62
     4
100
AcDbLine
 10
6.212742711724388
 20
1.13135628124138
 30
0.0
 11
6.807451980082134
 21
1.13135628124138
 31
0.0
  0
LINE
  5
C1E
102
{ACAD_REACTORS
330
C2A
102
}
330
BE4
100
AcDbEntity
  8
ROGO
 62
     4
100
AcDbLine
 10
6.983758243896545
 20
1.484935992939711
 30
0.0
 11
6.807451980082134
 21
1.13135628124138
 31
0.0
  0
SPLINE
  5
C1F
102
{ACAD_REACTORS
330
C2A
102
}
330
BE4
100
AcDbEntity
  8
ROGO
 62
     4
100
AcDbSpline
210
0.0
220
0.0
230
1.0
 70
     8
 71
     3
 72
    16
 73
    12
 74
    10
 42
0.0000000001
 43
0.0000000001
 44
0.0000000001
 40
0.0
 40
0.0
 40
0.0
 40
0.0
 40
0.0908894635587698
 40
0.1352824120537892
 40
0.1571739758861179
 40
0.1802441192684364
 40
0.2132804986121064
 40
0.2433617673669269
 40
0.2747358298621628
 40
0.3273367126566702
 40
0.3794005943324437
 40
0.3794005943324437
 40
0.3794005943324437
 40
0.3794005943324437
 10
6.212742711724388
 20
1.13135628124138
 30
0.0
 10
6.181963417384888
 20
1.126663770171392
 30
0.0
 10
6.136150657395735
 20
1.119679305842073
 30
0.0
 10
6.094722147730919
 20
1.086884953393267
 30
0.0
 10
6.071359344724846
 20
1.067374496594637
 30
0.0
 10
6.063411215057785
 20
1.041537113468491
 30
0.0
 10
6.042065034725641
 20
1.021697969439723
 30
0.0
 10
6.024469710353133
 20
0.9944325995127819
 30
0.0
 10
6.02026834574265
 20
0.9569831722858836
 30
0.0
 10
6.023352243557721
 20
0.9044286084941568
 30
0.0
 10
6.060200455876909
 20
0.8935873241380171
 30
0.0
 10
6.078530033895447
 20
0.8881944935250771
 30
0.0
 11
6.212742711724388
 21
1.13135628124138
 31
0.0
 11
6.124988394108868
 21
1.107690391741186
 31
0.0
 11
6.088854245865661
 21
1.081901688655932
 31
0.0
 11
6.073368224736611
 21
1.066428365915953
 31
0.0
 11
6.06304401276634
 21
1.045797268929277
 31
0.0
 11
6.042395885652183
 21
1.020008565844079
 31
0.0
 11
6.026909864523076
 21
0.9942196946107628
 31
0.0
 11
6.021747758537969
 21
0.9632732172788678
 31
0.0
 11
6.032071970508241
 21
0.9116954748122338
 31
0.0
 11
6.078530033895447
 21
0.8881944935250771
 31
0.0
  0
LINE
  5
C20
102
{ACAD_REACTORS
330
C2E
102
}
330
BE4
100
AcDbEntity
  8
ROGO
 62
     4
100
AcDbLine
 10
8.753385727444708
 20
0.5346185261392407
 30
0.0
 11
9.571906671633882
 21
0.5346185261392407
 31
0.0
  0
LINE
  5
C21
102
{ACAD_REACTORS
330
C2B
102
}
330
BE4
100
AcDbEntity
  8
ROGO
 62
     4
100
AcDbLine
 10
7.465432464168998
 20
0.5346185261392407
 30
0.0
 11
7.877322089673725
 21
0.5346185261392407
 31
0.0
  0
LINE
  5
C22
330
BE4
100
AcDbEntity
  8
ROGO
 62
     4
100
AcDbLine
 10
7.465432464169339
 20
0.5346185261392407
 30
0.0
 11
7.877322089673384
 21
0.5346185261392407
 31
0.0
  0
LINE
  5
C23
102
{ACAD_REACTORS
330
C2A
102
}
330
BE4
100
AcDbEntity
  8
ROGO
 62
     4
100
AcDbLine
 10
5.691378318363661
 20
0.5346185261392407
 30
0.0
 11
6.509899262552778
 21
0.5346185261392407
 31
0.0
  0
ARC
  5
C24
102
{ACAD_REACTORS
330
C2B
102
}
330
BE4
100
AcDbEntity
  8
ROGO
 62
     4
100
AcDbCircle
 10
7.849706463946802
 20
1.009376013213397
 30
0.0
 40
0.4755599797263065
100
AcDbArc
 50
273.3290215232082
 51
90.0000000000006
  0
ARC
  5
C25
102
{ACAD_REACTORS
330
C2B
102
}
330
BE4
100
AcDbEntity
  8
ROGO
 62
     4
100
AcDbCircle
 10
7.48496378237229
 20
1.009777259539475
 30
0.0
 40
0.4755599797263065
100
AcDbArc
 50
92.3538081120337
 51
270.0
  0
LINE
  5
C26
102
{ACAD_REACTORS
330
C2E
102
}
330
BE4
100
AcDbEntity
  8
ROGO
 62
     4
100
AcDbLine
 10
9.748211068413127
 20
0.8881944935250771
 30
0.0
 11
9.571906671633882
 21
0.5346185261391839
 31
0.0
  0
LINE
  5
C27
102
{ACAD_REACTORS
330
C2A
102
}
330
BE4
100
AcDbEntity
  8
ROGO
 62
     4
100
AcDbLine
 10
6.686203659332079
 20
0.8881944935250771
 30
0.0
 11
6.509899262552778
 21
0.5346185261392407
 31
0.0
  0
SPLINE
  5
C28
102
{ACAD_REACTORS
330
C2A
102
}
330
BE4
100
AcDbEntity
  8
ROGO
 62
     4
100
AcDbSpline
210
0.0
220
0.0
230
1.0
 70
     8
 71
     3
 72
    26
 73
    22
 74
    20
 42
0.0000000001
 43
0.0000000001
 44
0.0000000001
 40
0.0
 40
0.0
 40
0.0
 40
0.0
 40
0.172398475942452
 40
0.2878059064037132
 40
0.3710240621887256
 40
0.4331603664333846
 40
0.5137544142125073
 40
0.5725802121924657
 40
0.6788058922658211
 40
0.7652720686804854
 40
0.8240829233522674
 40
0.8817499774613789
 40
0.9849051260984648
 40
1.05784812826095
 40
1.097133570529095
 40
1.152937380796455
 40
1.193234564309741
 40
1.251611879021481
 40
1.284648389624348
 40
1.356539542406023
 40
1.389365667278791
 40
1.389365667278791
 40
1.389365667278791
 40
1.389365667278791
 10
6.032071970508241
 20
1.484935992939711
 30
0.0
 10
5.973557264069641
 20
1.481444905211402
 30
0.0
 10
5.875871492589096
 20
1.47561680457137
 30
0.0
 10
5.768613109753668
 20
1.410458488868562
 30
0.0
 10
5.690029339238584
 20
1.372578307494294
 30
0.0
 10
5.633983489410011
 20
1.321083428095256
 30
0.0
 10
5.592901654292559
 20
1.26789297930569
 30
0.0
 10
5.541110288827273
 20
1.204516949575323
 30
0.0
 10
5.49887591022997
 20
1.130718127534994
 30
0.0
 10
5.477368508803827
 20
1.049378960065351
 30
0.0
 10
5.458317456747558
 20
0.9845511716472696
 30
0.0
 10
5.444188877610419
 20
0.9123090616542125
 30
0.0
 10
5.447783588117866
 20
0.8342621694164586
 30
0.0
 10
5.452931378081073
 20
0.7617762114914332
 30
0.0
 10
5.475915008490222
 20
0.7100320901693001
 30
0.0
 10
5.502089292423582
 20
0.6731938414330762
 30
0.0
 10
5.534139344645077
 20
0.6326205945144422
 30
0.0
 10
5.569209110546427
 20
0.6057490644615085
 30
0.0
 10
5.598214669540071
 20
0.5570694820472437
 30
0.0
 10
5.648987922074967
 20
0.5508576162517939
 30
0.0
 10
5.681261421323124
 20
0.5384941493247972
 30
0.0
 10
5.691378318363717
 20
0.5346185261392407
 30
0.0
 11
6.032071970508241
 21
1.484935992939711
 31
0.0
 11
5.861725144435979
 21
1.458418199773859
 31
0.0
 11
5.75848450886508
 21
1.406840625455288
 31
0.0
 11
5.68621621237861
 21
1.365578599630055
 31
0.0
 11
5.639758148991347
 21
1.324316405656759
 31
0.0
 11
5.588137979619091
 21
1.262423282844906
 31
0.0
 11
5.552003831375827
 21
1.216003482773032
 31
0.0
 11
5.500383365177242
 21
1.123163714481165
 31
0.0
 11
5.47457342890425
 21
1.040639494682636
 31
0.0
 11
5.4590874077752
 21
0.9839041461174247
 31
0.0
 11
5.448763195804929
 21
0.9271687975522127
 31
0.0
 11
5.448763195804929
 21
0.8240136489151268
 31
0.0
 11
5.4590874077752
 21
0.7518049776098792
 31
0.0
 11
5.47457342890425
 21
0.7157005578832809
 31
0.0
 11
5.505545471162349
 21
0.6692807578113503
 31
0.0
 11
5.53135570426167
 21
0.6383341123313926
 31
0.0
 11
5.572651661663712
 21
0.5970720865061594
 31
0.0
 11
5.593299788777926
 21
0.5712832152728425
 31
0.0
 11
5.660406276105618
 21
0.5454945121876449
 31
0.0
 11
5.691378318363717
 21
0.5346185261392407
 31
0.0
  0
SPLINE
  5
C29
102
{ACAD_REACTORS
330
C2E
102
}
330
BE4
100
AcDbEntity
  8
ROGO
 62
     4
100
AcDbSpline
210
0.0
220
0.0
230
1.0
 70
     8
 71
     3
 72
    26
 73
    22
 74
    20
 42
0.0000000001
 43
0.0000000001
 44
0.0000000001
 40
0.0
 40
0.0
 40
0.0
 40
0.0
 40
0.1723984759424608
 40
0.2878059064036966
 40
0.3710240621887089
 40
0.4331603664333254
 40
0.5137544142124919
 40
0.5725802121924054
 40
0.6788058922657609
 40
0.7652720686804421
 40
0.824082923352279
 40
0.8817499774613345
 40
0.9849051260984204
 40
1.057848128260906
 40
1.097133570529051
 40
1.152937380796411
 40
1.193234564309733
 40
1.251611879021433
 40
1.284648389624335
 40
1.356539542405977
 40
1.389365667278781
 40
1.389365667278781
 40
1.389365667278781
 40
1.389365667278781
 10
9.094079379589288
 20
1.484935992939711
 30
0.0
 10
9.035564673150693
 20
1.481444905211369
 30
0.0
 10
8.937878901670169
 20
1.475616804571283
 30
0.0
 10
8.830620518834708
 20
1.410458488868567
 30
0.0
 10
8.752036748319635
 20
1.372578307494311
 30
0.0
 10
8.695990898491096
 20
1.321083428095232
 30
0.0
 10
8.654909063373702
 20
1.267892979305642
 30
0.0
 10
8.603117697908345
 20
1.204516949575328
 30
0.0
 10
8.560883319311107
 20
1.130718127534976
 30
0.0
 10
8.539375917884848
 20
1.049378960065346
 30
0.0
 10
8.520324865828625
 20
0.9845511716472456
 30
0.0
 10
8.506196286691453
 20
0.9123090616541963
 30
0.0
 10
8.509790997198916
 20
0.8342621694164582
 30
0.0
 10
8.514938787162119
 20
0.7617762114914318
 30
0.0
 10
8.537922417571271
 20
0.7100320901693033
 30
0.0
 10
8.56409670150462
 20
0.6731938414330492
 30
0.0
 10
8.596146753726191
 20
0.6326205945144875
 30
0.0
 10
8.631216519627461
 20
0.6057490644614584
 30
0.0
 10
8.660222078621195
 20
0.5570694820473007
 30
0.0
 10
8.710995331156015
 20
0.5508576162516721
 30
0.0
 10
8.743268830404206
 20
0.5384941493247713
 30
0.0
 10
8.753385727444822
 20
0.5346185261392407
 30
0.0
 11
9.094079379589288
 21
1.484935992939711
 31
0.0
 11
8.923732553517027
 21
1.458418199773802
 31
0.0
 11
8.820491917946128
 21
1.406840625455288
 31
0.0
 11
8.748223621459658
 21
1.365578599630055
 31
0.0
 11
8.701765558072452
 21
1.324316405656759
 31
0.0
 11
8.650145388700195
 21
1.262423282844849
 31
0.0
 11
8.614011240456932
 21
1.216003482773032
 31
0.0
 11
8.562390774258346
 21
1.123163714481165
 31
0.0
 11
8.536580837985297
 21
1.040639494682636
 31
0.0
 11
8.521094816856248
 21
0.9839041461173678
 31
0.0
 11
8.510770604885976
 21
0.9271687975522127
 31
0.0
 11
8.510770604885976
 21
0.8240136489151268
 31
0.0
 11
8.521094816856248
 21
0.7518049776098792
 31
0.0
 11
8.536580837985297
 21
0.7157005578832809
 31
0.0
 11
8.567552880243397
 21
0.6692807578113503
 31
0.0
 11
8.593363113342775
 21
0.6383341123313926
 31
0.0
 11
8.63465907074476
 21
0.5970720865061594
 31
0.0
 11
8.655307197859031
 21
0.5712832152728425
 31
0.0
 11
8.722413685186666
 21
0.5454945121875881
 31
0.0
 11
8.753385727444822
 21
0.5346185261392407
 31
0.0
  0
HATCH
  5
C2A
330
BE4
100
AcDbEntity
  8
ROGO
 62
     4
100
AcDbHatch
 10
0.0
 20
0.0
 30
0.0
210
0.0
220
0.0
230
1.0
  2
SOLID
 70
     1
 71
     1
 91
        1
 92
        5
 93
        8
 72
     1
 10
6.983758243896545
 20
1.484935992939597
 11
6.032071970508411
 21
1.484935992939597
 72
     4
 94
        3
 73
     0
 74
     0
 95
       26
 96
       22
 40
0.0
 40
0.0
 40
0.0
 40
0.0
 40
0.7089867102952115
 40
1.183598414482279
 40
1.525832104103439
 40
1.781366926528389
 40
2.112809002752968
 40
2.354729406992515
 40
2.791581270399936
 40
3.147172406765291
 40
3.389031356825354
 40
3.626186440486682
 40
4.050410779375985
 40
4.350388020238963
 40
4.511948940797758
 40
4.741441456013356
 40
4.907163150576407
 40
5.147239172635527
 40
5.28310143501293
 40
5.578752957634333
 40
5.713750011164293
 40
5.713750011164293
 40
5.713750011164293
 40
5.713750011164293
 10
6.032071970508241
 20
1.484935992939597
 10
5.973557264069597
 20
1.481444905211276
 10
5.875871492589055
 20
1.475616804571245
 10
5.768613109753687
 20
1.410458488868414
 10
5.690029339238549
 20
1.372578307494222
 10
5.633983489410013
 20
1.321083428095107
 10
5.592901654292575
 20
1.267892979305543
 10
5.541110288827269
 20
1.204516949575179
 10
5.498875910230026
 20
1.130718127534862
 10
5.477368508803749
 20
1.049378960065212
 10
5.458317456747579
 20
0.9845511716471264
 10
5.444188877610429
 20
0.9123090616540707
 10
5.447783588117886
 20
0.8342621694163199
 10
5.452931378081132
 20
0.7617762114913376
 10
5.475915008490176
 20
0.710032090169193
 10
5.50208929242359
 20
0.6731938414329762
 10
5.534139344645041
 20
0.6326205945143215
 10
5.56920911054641
 20
0.6057490644614063
 10
5.598214669540084
 20
0.5570694820471545
 10
5.648987922074923
 20
0.5508576162516193
 10
5.681261421323085
 20
0.5384941493246629
 10
5.691378318363717
 20
0.534618526139127
 72
     1
 10
5.691378318363661
 20
0.534618526139127
 11
6.509899262552835
 21
0.534618526139127
 72
     1
 10
6.509899262552778
 20
0.534618526139127
 11
6.686203659332079
 21
0.8881944935249634
 72
     1
 10
6.686203659332079
 20
0.8881944935249634
 11
6.078530033895333
 21
0.8881944935249634
 72
     4
 94
        3
 73
     0
 74
     0
 95
       16
 96
       12
 40
0.0
 40
0.0
 40
0.0
 40
0.0
 40
0.2141121027475241
 40
0.4304326162973471
 40
0.5594580803306056
 40
0.6831669452691567
 40
0.8190286678446897
 40
0.9139043619204622
 40
1.003933161420314
 40
1.186498641432482
 40
1.560280494298353
 40
1.560280494298353
 40
1.560280494298353
 40
1.560280494298353
 10
6.078530033895447
 20
0.8881944935249634
 10
6.060200455876895
 20
0.8935873241379113
 10
6.023352243557667
 20
0.9044286084940154
 10
6.020268345742636
 20
0.9569831722857884
 10
6.024469710353116
 20
0.9944325995126064
 10
6.042065034725681
 20
1.021697969439628
 10
6.063411215057783
 20
1.041537113468336
 10
6.071359344724839
 20
1.067374496594538
 10
6.094722147730863
 20
1.086884953393166
 10
6.136150657395774
 20
1.119679305841884
 10
6.181963417384906
 20
1.126663770171262
 10
6.212742711724388
 20
1.131356281241266
 72
     1
 10
6.212742711724388
 20
1.131356281241266
 11
6.807451980082078
 21
1.131356281241266
 72
     1
 10
6.807451980082134
 20
1.131356281241266
 11
6.983758243896602
 21
1.484935992939597
 97
        8
330
C1B
330
C28
330
C23
330
C27
330
C1C
330
C1F
330
C1D
330
C1E
 75
     0
 76
     1
 47
0.0514683685270805
 98
        1
 10
6.364911895882585
 20
1.273384183674238
450
        0
451
        0
460
0.0
461
0.0
452
        0
462
0.0
453
        0
470

  0
HATCH
  5
C2B
330
BE4
100
AcDbEntity
  8
ROGO
 62
     4
100
AcDbHatch
 10
0.0
 20
0.0
 30
0.0
210
0.0
220
0.0
230
1.0
  2
SOLID
 70
     1
 71
     1
 91
        2
 92
        7
 72
     1
 73
     1
 93
        4
 10
7.849706463946802
 20
1.484935992939597
 42
0.0
 10
7.465432464168998
 20
1.484935992939597
 42
0.9597396185052668
 10
7.465432464168941
 20
0.534618526139127
 42
0.0
 10
7.877322089673668
 20
0.534618526139127
 42
0.9713627655772736
 97
        4
330
C11
330
C25
330
C21
330
C24
 92
       22
 72
     1
 73
     1
 93
        8
 10
7.791279653589811
 20
1.004272774472838
 42
0.0
 10
7.778632925141153
 20
0.9137922967292411
 42
-0.3696060376523694
 10
7.675765110943643
 20
0.8610172607583876
 42
0.0
 10
7.641326222715747
 20
0.8658308877236891
 42
-0.3541938351274232
 10
7.552282406598749
 20
0.9472359744358982
 42
0.0
 10
7.564929135047407
 20
1.037716452179495
 42
-0.3439742752229287
 10
7.676094128137322
 20
1.100534759801462
 42
0.0
 10
7.708607985255127
 20
1.09599020022307
 42
-0.3460733018205655
 97
        8
330
C19
330
C13
330
C17
330
C14
330
C18
330
C15
330
C1A
330
C16
 75
     0
 76
     1
 47
0.0514683685270805
 98
        2
 10
7.943122727903357
 20
1.098172201449415
 10
7.943122727903357
 20
1.098172201449415
450
        0
451
        0
460
0.0
461
0.0
452
        0
462
0.0
453
        0
470

  0
LINE
  5
C2C
102
{ACAD_REACTORS
330
C2E
102
}
330
BE4
100
AcDbEntity
  8
ROGO
 62
     4
100
AcDbLine
 10
10.04576565297765
 20
1.484935992939711
 30
0.0
 11
9.869459389163182
 21
1.13135628124138
 31
0.0
  0
LINE
  5
C2D
102
{ACAD_REACTORS
330
C2E
102
}
330
BE4
100
AcDbEntity
  8
ROGO
 62
     4
100
AcDbLine
 10
9.094079379589572
 20
1.484935992939711
 30
0.0
 11
10.04576565297765
 21
1.484935992939711
 31
0.0
  0
HATCH
  5
C2E
330
BE4
100
AcDbEntity
  8
ROGO
 62
     4
100
AcDbHatch
 10
0.0
 20
0.0
 30
0.0
210
0.0
220
0.0
230
1.0
  2
SOLID
 70
     1
 71
     1
 91
        1
 92
        5
 93
        8
 72
     1
 10
10.04576565297765
 20
1.484935992939597
 11
9.094079379589459
 21
1.484935992939597
 72
     4
 94
        3
 73
     0
 74
     0
 95
       26
 96
       22
 40
0.0
 40
0.0
 40
0.0
 40
0.0
 40
0.7089867102952115
 40
1.183598414482279
 40
1.525832104103439
 40
1.781366926528389
 40
2.112809002752968
 40
2.354729406992515
 40
2.791581270399936
 40
3.147172406765291
 40
3.389031356825354
 40
3.626186440486682
 40
4.050410779375985
 40
4.350388020238963
 40
4.511948940797758
 40
4.741441456013356
 40
4.907163150576407
 40
5.147239172635527
 40
5.28310143501293
 40
5.578752957634333
 40
5.713750011164293
 40
5.713750011164293
 40
5.713750011164293
 40
5.713750011164293
 10
9.094079379589288
 20
1.484935992939597
 10
9.035564673150702
 20
1.481444905211276
 10
8.93787890167016
 20
1.475616804571245
 10
8.830620518834734
 20
1.410458488868414
 10
8.752036748319653
 20
1.372578307494222
 10
8.695990898491118
 20
1.321083428095107
 10
8.654909063373622
 20
1.267892979305543
 10
8.603117697908373
 20
1.204516949575179
 10
8.560883319311074
 20
1.130718127534805
 10
8.539375917884854
 20
1.049378960065212
 10
8.520324865828627
 20
0.9845511716471264
 10
8.506196286691476
 20
0.9123090616540707
 10
8.509790997198933
 20
0.8342621694163199
 10
8.514938787162179
 20
0.7617762114913376
 10
8.537922417571223
 20
0.710032090169193
 10
8.564096701504638
 20
0.6731938414329762
 10
8.596146753726145
 20
0.6326205945143215
 10
8.631216519627514
 20
0.6057490644614063
 10
8.660222078621131
 20
0.5570694820471545
 10
8.710995331156027
 20
0.5508576162516193
 10
8.74326883040419
 20
0.5384941493246629
 10
8.753385727444822
 20
0.534618526139127
 72
     1
 10
8.753385727444708
 20
0.534618526139127
 11
9.571906671633882
 21
0.534618526139127
 72
     1
 10
9.571906671633882
 20
0.534618526139127
 11
9.748211068413127
 21
0.8881944935249634
 72
     1
 10
9.748211068413183
 20
0.8881944935249066
 11
9.140537442976494
 21
0.8881944935249066
 72
     4
 94
        3
 73
     0
 74
     0
 95
       16
 96
       12
 40
0.0
 40
0.0
 40
0.0
 40
0.0
 40
0.2141121027475241
 40
0.4304326162973471
 40
0.5594580803306056
 40
0.6831669452691567
 40
0.8190286678446897
 40
0.9139043619204622
 40
1.003933161420314
 40
1.186498641432482
 40
1.560280494298353
 40
1.560280494298353
 40
1.560280494298353
 40
1.560280494298353
 10
9.140537442976494
 20
0.8881944935249066
 10
9.122207864957999
 20
0.8935873241378544
 10
9.085359652638771
 20
0.9044286084939585
 10
9.082275754823683
 20
0.9569831722857315
 10
9.086477119434221
 20
0.9944325995126064
 10
9.104072443806728
 20
1.021697969439628
 10
9.125418624138831
 20
1.041537113468336
 10
9.133366753805887
 20
1.067374496594482
 10
9.156729556811967
 20
1.086884953393166
 10
9.198158066476821
 20
1.119679305841884
 10
9.243970826466011
 20
1.126663770171262
 10
9.274750120805492
 20
1.13135628124121
 72
     1
 10
9.274750120805435
 20
1.131356281241266
 11
9.869459389163182
 21
1.131356281241266
 72
     1
 10
9.869459389163182
 20
1.131356281241266
 11
10.04576565297765
 21
1.484935992939597
 97
        8
330
C2D
330
C29
330
C20
330
C26
330
C0F
330
C10
330
C0E
330
C2C
 75
     0
 76
     1
 47
0.0514683685270805
 98
        1
 10
9.258298569667147
 20
1.310929632457884
450
        0
451
        0
460
0.0
461
0.0
452
        0
462
0.0
453
        0
470

  0
LINE
  5
C2F
102
{ACAD_REACTORS
330
C0D
102
}
330
BE4
100
AcDbEntity
  8
ROGO
 62
     4
100
AcDbLine
 10
10.71113559568613
 20
1.322811193596351
 30
0.0
 11
10.96733337591359
 21
1.484935992939711
 31
0.0
  0
LINE
  5
C30
102
{ACAD_REACTORS
330
C0D
102
}
330
BE4
100
AcDbEntity
  8
ROGO
 62
     4
100
AcDbLine
 10
10.79197625678233
 20
1.484935992939711
 30
0.0
 11
10.71113559568613
 21
1.322811193596351
 31
0.0
  0
LINE
  5
C31
102
{ACAD_REACTORS
330
C0D
102
}
330
BE4
100
AcDbEntity
  8
ROGO
 62
     4
100
AcDbLine
 10
10.24480163032234
 20
1.484935992939711
 30
0.0
 11
10.79197625678233
 21
1.484935992939711
 31
0.0
  0
LINE
  5
C32
102
{ACAD_REACTORS
330
C0D
102
}
330
BE4
100
AcDbEntity
  8
ROGO
 62
     4
100
AcDbLine
 10
10.96733337591359
 20
1.484935992939711
 30
0.0
 11
11.51449603063281
 21
1.484935992939711
 31
0.0
  0
LINE
  5
C33
102
{ACAD_REACTORS
330
C0D
102
}
330
BE4
100
AcDbEntity
  8
ROGO
 62
     4
100
AcDbLine
 10
10.61500819586206
 20
0.7424679668758359
 30
0.0
 11
11.51449603063281
 21
1.484935992939711
 31
0.0
  0
LINE
  5
C34
102
{ACAD_REACTORS
330
C0D
102
}
330
BE4
100
AcDbEntity
  8
ROGO
 62
     4
100
AcDbLine
 10
10.43806407842322
 20
-0.0000000591879825
 30
0.0
 11
10.98522673314249
 21
-0.0000000591879825
 31
0.0
  0
LINE
  5
C35
102
{ACAD_REACTORS
330
C0D
102
}
330
BE4
100
AcDbEntity
  8
ROGO
 62
     4
100
AcDbLine
 10
10.24480163032234
 20
0.3875850396236728
 30
0.0
 11
10.43806407842322
 21
-0.0000000591879825
 31
0.0
  0
LINE
  5
C36
102
{ACAD_REACTORS
330
C0D
102
}
330
BE4
100
AcDbEntity
  8
ROGO
 62
     4
100
AcDbLine
 10
10.61500819586206
 20
0.7424679668758359
 30
0.0
 11
10.98522673314249
 21
-0.0000000591879825
 31
0.0
  0
ENDBLK
  5
C38
330
BE4
100
AcDbEntity
  8
0
100
AcDbBlockEnd
  0
BLOCK
  5
1060
330
1056
100
AcDbEntity
  8
0
100
AcDbBlockBegin
  2
*D25
 70
     1
 10
0.0
 20
0.0
 30
0.0
  3
*D25
  1

  0
LINE
  5
10BD
330
1056
100
AcDbEntity
  8
寸法線
 62
     2
370
    -2
100
AcDbLine
 10
135.1469781753565
 20
186.7978181321602
 30
0.0
 11
135.1469781753565
 21
231.6786147864158
 31
0.0
  0
LINE
  5
10BE
330
1056
100
AcDbEntity
  8
寸法線
 62
     2
370
    -2
100
AcDbLine
 10
219.1469781753565
 20
186.7978181321601
 30
0.0
 11
219.1469781753565
 21
231.6786147864158
 31
0.0
  0
LINE
  5
10BF
330
1056
100
AcDbEntity
  8
寸法線
 62
     2
370
    -2
100
AcDbLine
 10
137.6469781753565
 20
230.4286147864158
 30
0.0
 11
216.6469781753566
 21
230.4286147864158
 31
0.0
  0
INSERT
  5
10C0
330
1056
100
AcDbEntity
  8
寸法線
 62
     2
370
    -2
100
AcDbBlockReference
  2
_OPEN
 10
135.1469781753565
 20
230.4286147864158
 30
0.0
 41
2.5
 42
2.5
 43
2.5
 50
180.0
  0
INSERT
  5
10C1
330
1056
100
AcDbEntity
  8
寸法線
 62
     2
370
    -2
100
AcDbBlockReference
  2
_OPEN
 10
219.1469781753565
 20
230.4286147864158
 30
0.0
 41
2.5
 42
2.5
 43
2.5
  0
MTEXT
  5
10C2
330
1056
100
AcDbEntity
  8
寸法線
 62
     6
100
AcDbMText
 10
177.1469781753565
 20
232.3036147864158
 30
0.0
 40
2.5
 41
0.0
 71
     5
 72
     1
  1
\A1;84
  7
STYLE3
 73
     1
 44
1.0
  0
POINT
  5
10C3
330
1056
100
AcDbEntity
  8
DEFPOINTS
 62
     0
100
AcDbPoint
 10
135.1469781753565
 20
186.7978181321602
 30
0.0
  0
POINT
  5
10C4
330
1056
100
AcDbEntity
  8
DEFPOINTS
 62
     0
100
AcDbPoint
 10
219.1469781753565
 20
186.7978181321601
 30
0.0
  0
POINT
  5
10C5
330
1056
100
AcDbEntity
  8
DEFPOINTS
 62
     0
100
AcDbPoint
 10
219.1469781753565
 20
230.4286147864158
 30
0.0
  0
ENDBLK
  5
1061
330
1056
100
AcDbEntity
  8
0
100
AcDbBlockEnd
  0
ENDSEC
  0
SECTION
  2
ENTITIES
  0
LWPOLYLINE
  5
1A0
330
18
100
AcDbEntity
  8
C
100
AcDbPolyline
 90
        5
 70
     0
 43
0.8
 10
0.0
 20
282.5
 10
377.4999999999999
 20
282.5
 10
377.4999999999999
 20
0.0
 10
0.0
 20
0.0
 10
0.0
 20
282.5
  0
LINE
  5
223
102
{ACAD_REACTORS
330
7ED
330
7F2
102
}
330
18
100
AcDbEntity
  8
中心線
100
AcDbLine
 10
45.73637376072179
 20
186.7978181321602
 30
0.0
 11
333.0480051926913
 21
186.7978181321601
 31
0.0
  0
LINE
  5
227
330
18
100
AcDbEntity
  8
外形線
100
AcDbLine
 10
261.1469781753565
 20
194.7978181321602
 30
0.0
 11
261.1469781753564
 21
178.7978181321601
 31
0.0
  0
LINE
  5
229
330
18
100
AcDbEntity
  8
外形線
100
AcDbLine
 10
316.1469781753565
 20
190.0478181321601
 30
0.0
 11
316.1469781753565
 21
183.5478181321601
 31
0.0
  0
LINE
  5
22D
330
18
100
AcDbEntity
  8
外形線
100
AcDbLine
 10
51.14697817535648
 20
196.7978181321601
 30
0.0
 11
132.1469781753565
 21
196.7978181321601
 31
0.0
  0
LINE
  5
22E
330
18
100
AcDbEntity
  8
外形線
100
AcDbLine
 10
51.14697817535648
 20
176.7978181321602
 30
0.0
 11
132.1469781753564
 21
176.7978181321602
 31
0.0
  0
LINE
  5
22F
330
18
100
AcDbEntity
  8
外形線
100
AcDbLine
 10
231.1469781753565
 20
196.7978181321601
 30
0.0
 11
258.93987139417
 21
196.7978181321602
 31
0.0
  0
LINE
  5
230
330
18
100
AcDbEntity
  8
外形線
100
AcDbLine
 10
231.1469781753565
 20
176.7978181321601
 30
0.0
 11
258.9398713941698
 21
176.7978181321602
 31
0.0
  0
LINE
  5
233
330
18
100
AcDbEntity
  8
外形線
100
AcDbLine
 10
261.1469781753565
 20
189.7978181321601
 30
0.0
 11
313.6469781753565
 21
189.7978181321601
 31
0.0
  0
LINE
  5
234
330
18
100
AcDbEntity
  8
外形線
100
AcDbLine
 10
261.1469781753565
 20
183.7978181321601
 30
0.0
 11
313.6469781753565
 21
183.7978181321601
 31
0.0
  0
LINE
  5
582
330
18
100
AcDbEntity
  8
外形線
100
AcDbLine
 10
259.1469781753565
 20
196.7529079927225
 30
0.0
 11
259.1469781753565
 21
176.842728271598
 31
0.0
  0
LINE
  5
5E6
330
18
100
AcDbEntity
  8
中心線
100
AcDbLine
 10
46.86370760057729
 20
96.46401819816246
 30
0.0
 11
333.0480051926913
 21
96.46401819816237
 31
0.0
  0
LINE
  5
5E7
330
18
100
AcDbEntity
  8
外形線
100
AcDbLine
 10
51.14697817535637
 20
86.46401819816251
 30
0.0
 11
132.1469781753563
 21
86.46401819816246
 31
0.0
  0
LINE
  5
5E8
330
18
100
AcDbEntity
  8
外形線
100
AcDbLine
 10
51.14697817535648
 20
106.4640181981624
 30
0.0
 11
132.1469781753564
 21
106.4640181981624
 31
0.0
  0
DIMENSION
  5
61C
330
18
100
AcDbEntity
  8
外形線
100
AcDbDimension
  2
*D3
 10
85.70798928562158
 20
196.7978181321602
 30
0.0
 11
83.83298928562155
 21
186.7978181321602
 31
0.0
 70
    32
  1
φ20
 71
     5
 42
19.99999999999997
  3
STYLE3
100
AcDbAlignedDimension
 13
84.88401120431968
 23
176.7978181321602
 33
0.0
 14
85.70798928562158
 24
196.7978181321602
 34
0.0
 50
90.0
100
AcDbRotatedDimension
1001
ACAD
1000
DSTYLE
1002
{
1070
   271
1070
     2
1002
}
  0
LINE
  5
6D5
330
18
100
AcDbEntity
  8
外形線
100
AcDbLine
 10
261.1469781753564
 20
99.46401819816239
 30
0.0
 11
316.1469781753564
 21
99.46401819816237
 31
0.0
  0
LINE
  5
6D6
330
18
100
AcDbEntity
  8
外形線
100
AcDbLine
 10
261.1469781753564
 20
93.46401819816236
 30
0.0
 11
316.1469781753564
 21
93.46401819816236
 31
0.0
  0
LINE
  5
76E
102
{ACAD_REACTORS
330
7ED
330
7F2
102
}
330
18
100
AcDbEntity
  8
外形線
100
AcDbLine
 10
317.1469781753565
 20
192.7978181321601
 30
0.0
 11
319.1469781753565
 21
192.7978181321601
 31
0.0
  0
LINE
  5
76F
330
18
100
AcDbEntity
  8
外形線
100
AcDbLine
 10
317.1469781753565
 20
180.7978181321601
 30
0.0
 11
319.1469781753565
 21
180.7978181321601
 31
0.0
  0
LINE
  5
770
330
18
100
AcDbEntity
  8
外形線
100
AcDbLine
 10
316.6469781753565
 20
192.2978181321601
 30
0.0
 11
316.6469781753565
 21
181.2978181321601
 31
0.0
  0
LINE
  5
771
330
18
100
AcDbEntity
  8
外形線
100
AcDbLine
 10
319.6469781753564
 20
183.7978181321601
 30
0.0
 11
319.6469781753565
 21
181.2978181321601
 31
0.0
  0
LINE
  5
772
330
18
100
AcDbEntity
  8
外形線
100
AcDbLine
 10
316.1469781753565
 20
190.0478181321601
 30
0.0
 11
316.6469781753565
 21
190.0478181321601
 31
0.0
  0
LINE
  5
773
330
18
100
AcDbEntity
  8
外形線
100
AcDbLine
 10
316.1469781753565
 20
183.5478181321601
 30
0.0
 11
316.6469781753565
 21
183.5478181321601
 31
0.0
  0
LINE
  5
774
330
18
100
AcDbEntity
  8
外形線
100
AcDbLine
 10
316.6469781753565
 20
192.2978181321601
 30
0.0
 11
317.1469781753565
 21
192.7978181321601
 31
0.0
  0
LINE
  5
775
330
18
100
AcDbEntity
  8
外形線
100
AcDbLine
 10
316.6469781753565
 20
181.2978181321601
 30
0.0
 11
317.1469781753565
 21
180.7978181321601
 31
0.0
  0
LINE
  5
776
330
18
100
AcDbEntity
  8
外形線
100
AcDbLine
 10
319.1469781753565
 20
180.7978181321601
 30
0.0
 11
319.6469781753565
 21
181.2978181321601
 31
0.0
  0
LINE
  5
777
330
18
100
AcDbEntity
  8
外形線
100
AcDbLine
 10
319.6469781753565
 20
192.2978181321601
 30
0.0
 11
319.1469781753565
 21
192.7978181321601
 31
0.0
  0
LINE
  5
779
102
{ACAD_REACTORS
330
7ED
330
7F2
102
}
330
18
100
AcDbEntity
  8
外形線
100
AcDbLine
 10
317.1469781753565
 20
192.7978181321601
 30
0.0
 11
317.1469781753565
 21
180.7978181321601
 31
0.0
  0
LINE
  5
77A
102
{ACAD_REACTORS
330
7ED
330
7F2
102
}
330
18
100
AcDbEntity
  8
外形線
100
AcDbLine
 10
319.1469781753565
 20
192.7978181321601
 30
0.0
 11
319.1469781753565
 21
180.7978181321601
 31
0.0
  0
LINE
  5
7A9
330
18
100
AcDbEntity
  8
外形線
100
AcDbLine
 10
325.6469781753565
 20
189.2978181321601
 30
0.0
 11
329.1469781753565
 21
188.0978181321601
 31
0.0
  0
LINE
  5
7AE
330
18
100
AcDbEntity
  8
外形線
100
AcDbLine
 10
325.6469781753565
 20
184.2978181321601
 30
0.0
 11
329.1469781753565
 21
185.49781813216
 31
0.0
  0
LINE
  5
7B1
330
18
100
AcDbEntity
  8
外形線
100
AcDbLine
 10
329.1469781753565
 20
185.49781813216
 30
0.0
 11
329.1469781753565
 21
188.0978181321601
 31
0.0
  0
POINT
  5
7B2
330
18
100
AcDbEntity
  8
DEFPOINTS
  6
ByBlock
 62
     0
100
AcDbPoint
 10
330.1469781753565
 20
186.7978181321601
 30
0.0
  0
ARC
  5
7B3
330
18
100
AcDbEntity
  8
外形線
100
AcDbCircle
 10
328.9969781753565
 20
186.7978181321601
 30
0.0
 40
1.150000000000005
100
AcDbArc
 50
277.494717453927
 51
82.50528254607301
  0
LINE
  5
7D8
330
18
100
AcDbEntity
  8
外形線
100
AcDbLine
 10
325.6469781753565
 20
189.2978181321601
 30
0.0
 11
325.6469781753565
 21
184.2978181321601
 31
0.0
  0
LINE
  5
7DA
330
18
100
AcDbEntity
  8
外形線
100
AcDbLine
 10
320.1469781753564
 20
184.2978181321601
 30
0.0
 11
325.6469781753565
 21
184.2978181321601
 31
0.0
  0
ARC
  5
7DB
330
18
100
AcDbEntity
  8
外形線
100
AcDbCircle
 10
320.1469781753564
 20
183.7978181321601
 30
0.0
 40
0.5
100
AcDbArc
 50
90.0
 51
180.0
  0
LINE
  5
7DC
330
18
100
AcDbEntity
  8
外形線
100
AcDbLine
 10
320.1469781753564
 20
189.2978181321601
 30
0.0
 11
325.6469781753565
 21
189.2978181321601
 31
0.0
  0
ARC
  5
7DD
330
18
100
AcDbEntity
  8
外形線
100
AcDbCircle
 10
320.1469781753564
 20
189.7978181321601
 30
0.0
 40
0.5
100
AcDbArc
 50
180.0
 51
270.0
  0
LINE
  5
7DE
330
18
100
AcDbEntity
  8
外形線
100
AcDbLine
 10
319.6469781753563
 20
183.7978181321601
 30
0.0
 11
319.6469781753565
 21
192.2978181321601
 31
0.0
  0
LINE
  5
7DF
330
18
100
AcDbEntity
  8
外形線
100
AcDbLine
 10
320.1469781753564
 20
189.2978181321601
 30
0.0
 11
320.1469781753564
 21
184.2978181321601
 31
0.0
  0
LINE
  5
7E0
330
18
100
AcDbEntity
  8
外形線
 62
     4
100
AcDbLine
 10
320.1469781753564
 20
184.7978181321601
 30
0.0
 11
325.6469781753565
 21
184.7978181321601
 31
0.0
  0
LINE
  5
7E1
330
18
100
AcDbEntity
  8
外形線
 62
     4
100
AcDbLine
 10
320.1469781753564
 20
185.2978181321601
 30
0.0
 11
325.6469781753565
 21
185.2978181321601
 31
0.0
  0
LINE
  5
7E2
330
18
100
AcDbEntity
  8
外形線
 62
     4
100
AcDbLine
 10
320.1469781753564
 20
185.7978181321601
 30
0.0
 11
325.6469781753565
 21
185.7978181321601
 31
0.0
  0
LINE
  5
7E3
330
18
100
AcDbEntity
  8
外形線
 62
     4
100
AcDbLine
 10
320.1469781753564
 20
186.2978181321601
 30
0.0
 11
325.6469781753565
 21
186.2978181321601
 31
0.0
  0
LINE
  5
7E4
330
18
100
AcDbEntity
  8
外形線
 62
     4
100
AcDbLine
 10
320.1469781753564
 20
186.7978181321601
 30
0.0
 11
325.6469781753565
 21
186.7978181321601
 31
0.0
  0
HATCH
  5
7ED
330
18
100
AcDbEntity
  8
外形線
 62
     4
100
AcDbHatch
 10
0.0
 20
0.0
 30
0.0
210
0.0
220
0.0
230
1.0
  2
ANSI31
 70
     0
 71
     1
 91
        1
 92
        7
 72
     0
 73
     1
 93
        4
 10
317.1469781753564
 20
186.7978181321601
 10
319.1469781753565
 20
186.7978181321601
 10
319.1469781753565
 20
192.7978181321601
 10
317.1469781753565
 20
192.7978181321601
 97
        4
330
76E
330
779
330
223
330
77A
 75
     0
 76
     1
 52
705.0
 41
0.3
 77
     0
 78
     1
 53
30.00000000000003
 43
24.83456737110981
 44
-4.560993925525792
 45
-0.4762499999999998
 46
0.8248891971046779
 79
     0
 47
0.0394247914087948
 98
        1
 10
318.0580217375884
 20
189.3348010428022
  0
HATCH
  5
7F2
330
18
100
AcDbEntity
  8
外形線
 62
     4
100
AcDbHatch
 10
0.0
 20
0.0
 30
0.0
210
0.0
220
0.0
230
1.0
  2
ANSI31
 70
     0
 71
     1
 91
        1
 92
        7
 72
     0
 73
     1
 93
        4
 10
317.1469781753565
 20
186.7978181321601
 10
319.1469781753565
 20
186.7978181321601
 10
319.1469781753565
 20
192.7978181321601
 10
317.1469781753565
 20
192.7978181321601
 97
        4
330
76E
330
779
330
223
330
77A
 75
     0
 76
     1
 52
465.0
 41
0.3
 77
     0
 78
     1
 53
149.9999999999999
 43
24.83456737110981
 44
-4.560993925525792
 45
-0.4762500000000002
 46
-0.8248891971046774
 79
     0
 47
0.0394247914087948
 98
        1
 10
317.9791109177518
 20
189.5319254514597
  0
HATCH
  5
7F3
330
18
100
AcDbEntity
  8
外形線
 62
     4
100
AcDbHatch
 10
0.0
 20
0.0
 30
0.0
210
0.0
220
0.0
230
1.0
  2
ANSI31
 70
     0
 71
     0
 91
        1
 92
        7
 72
     0
 73
     1
 93
        4
 10
319.1469781753564
 20
102.4640181981623
 10
317.1469781753564
 20
102.4640181981623
 10
317.1469781753564
 20
96.46401819816242
 10
319.1469781753564
 20
96.46401819816237
 97
        0
 75
     0
 76
     1
 52
465.0
 41
0.3
 77
     0
 78
     1
 53
149.9999999999999
 43
24.83456737110976
 44
-94.89479385952353
 45
-0.4762500000000002
 46
-0.8248891971046774
 79
     0
 47
0.0394247914087948
 98
        1
 10
317.9791109177517
 20
99.19812551746197
  0
HATCH
  5
7F4
330
18
100
AcDbEntity
  8
外形線
 62
     4
100
AcDbHatch
 10
0.0
 20
0.0
 30
0.0
210
0.0
220
0.0
230
1.0
  2
ANSI31
 70
     0
 71
     0
 91
        1
 92
        7
 72
     0
 73
     1
 93
        4
 10
319.1469781753564
 20
102.4640181981623
 10
317.1469781753564
 20
102.4640181981623
 10
317.1469781753564
 20
96.46401819816242
 10
319.1469781753564
 20
96.46401819816237
 97
        0
 75
     0
 76
     1
 52
705.0
 41
0.3
 77
     0
 78
     1
 53
30.00000000000003
 43
24.83456737110976
 44
-94.89479385952353
 45
-0.4762499999999998
 46
0.8248891971046779
 79
     0
 47
0.0394247914087948
 98
        1
 10
318.0580217375884
 20
99.00100110880448
  0
LINE
  5
7F5
330
18
100
AcDbEntity
  8
外形線
100
AcDbLine
 10
317.1469781753564
 20
102.4640181981623
 30
0.0
 11
317.1469781753564
 21
90.46401819816237
 31
0.0
  0
LINE
  5
7F6
330
18
100
AcDbEntity
  8
外形線
100
AcDbLine
 10
319.1469781753564
 20
102.4640181981623
 30
0.0
 11
319.1469781753564
 21
90.46401819816237
 31
0.0
  0
LINE
  5
7F7
330
18
100
AcDbEntity
  8
外形線
100
AcDbLine
 10
319.6469781753562
 20
93.46401819816236
 30
0.0
 11
319.6469781753564
 21
101.9640181981624
 31
0.0
  0
LINE
  5
7F8
330
18
100
AcDbEntity
  8
外形線
100
AcDbLine
 10
316.6469781753564
 20
101.9640181981623
 30
0.0
 11
316.6469781753564
 21
90.96401819816236
 31
0.0
  0
LINE
  5
7F9
330
18
100
AcDbEntity
  8
外形線
100
AcDbLine
 10
316.6469781753564
 20
90.96401819816236
 30
0.0
 11
317.1469781753564
 21
90.46401819816237
 31
0.0
  0
LINE
  5
7FA
330
18
100
AcDbEntity
  8
外形線
100
AcDbLine
 10
316.1469781753564
 20
99.71401819816236
 30
0.0
 11
316.1469781753564
 21
93.21401819816236
 31
0.0
  0
LINE
  5
7FB
330
18
100
AcDbEntity
  8
外形線
100
AcDbLine
 10
316.1469781753564
 20
93.21401819816236
 30
0.0
 11
316.6469781753564
 21
93.21401819816236
 31
0.0
  0
LINE
  5
7FC
330
18
100
AcDbEntity
  8
外形線
100
AcDbLine
 10
316.1469781753564
 20
99.71401819816236
 30
0.0
 11
316.6469781753564
 21
99.71401819816236
 31
0.0
  0
LINE
  5
7FD
330
18
100
AcDbEntity
  8
外形線
 62
     4
100
AcDbLine
 10
320.1469781753564
 20
94.46401819816236
 30
0.0
 11
325.6469781753565
 21
94.46401819816236
 31
0.0
  0
LINE
  5
7FE
330
18
100
AcDbEntity
  8
外形線
 62
     4
100
AcDbLine
 10
320.1469781753564
 20
94.96401819816236
 30
0.0
 11
325.6469781753565
 21
94.96401819816236
 31
0.0
  0
LINE
  5
7FF
330
18
100
AcDbEntity
  8
外形線
 62
     4
100
AcDbLine
 10
320.1469781753564
 20
95.46401819816237
 30
0.0
 11
325.6469781753565
 21
95.46401819816237
 31
0.0
  0
LINE
  5
800
330
18
100
AcDbEntity
  8
外形線
 62
     4
100
AcDbLine
 10
320.1469781753564
 20
95.96401819816236
 30
0.0
 11
325.6469781753565
 21
95.96401819816236
 31
0.0
  0
LINE
  5
801
330
18
100
AcDbEntity
  8
外形線
 62
     4
100
AcDbLine
 10
320.1469781753564
 20
96.46401819816237
 30
0.0
 11
325.6469781753565
 21
96.46401819816237
 31
0.0
  0
LINE
  5
802
330
18
100
AcDbEntity
  8
外形線
100
AcDbLine
 10
320.1469781753564
 20
93.96401819816237
 30
0.0
 11
325.6469781753565
 21
93.96401819816237
 31
0.0
  0
LINE
  5
803
330
18
100
AcDbEntity
  8
外形線
100
AcDbLine
 10
320.1469781753564
 20
98.96401819816237
 30
0.0
 11
325.6469781753565
 21
98.96401819816237
 31
0.0
  0
LINE
  5
804
330
18
100
AcDbEntity
  8
外形線
100
AcDbLine
 10
320.1469781753564
 20
98.96401819816237
 30
0.0
 11
320.1469781753564
 21
93.96401819816237
 31
0.0
  0
ARC
  5
805
330
18
100
AcDbEntity
  8
外形線
100
AcDbCircle
 10
320.1469781753564
 20
93.46401819816234
 30
0.0
 40
0.5
100
AcDbArc
 50
90.0
 51
180.0
  0
LINE
  5
806
330
18
100
AcDbEntity
  8
外形線
100
AcDbLine
 10
319.6469781753564
 20
93.46401819816236
 30
0.0
 11
319.6469781753564
 21
90.96401819816236
 31
0.0
  0
LINE
  5
807
330
18
100
AcDbEntity
  8
外形線
100
AcDbLine
 10
319.1469781753564
 20
90.46401819816237
 30
0.0
 11
319.6469781753564
 21
90.96401819816236
 31
0.0
  0
LINE
  5
808
330
18
100
AcDbEntity
  8
外形線
100
AcDbLine
 10
317.1469781753564
 20
90.46401819816237
 30
0.0
 11
319.1469781753564
 21
90.46401819816237
 31
0.0
  0
ARC
  5
809
330
18
100
AcDbEntity
  8
外形線
100
AcDbCircle
 10
320.1469781753564
 20
99.46401819816236
 30
0.0
 40
0.5
100
AcDbArc
 50
180.0
 51
270.0
  0
LINE
  5
80A
330
18
100
AcDbEntity
  8
外形線
100
AcDbLine
 10
325.6469781753564
 20
98.96401819816242
 30
0.0
 11
325.6469781753564
 21
93.96401819816237
 31
0.0
  0
LINE
  5
80B
330
18
100
AcDbEntity
  8
外形線
100
AcDbLine
 10
325.6469781753565
 20
93.96401819816237
 30
0.0
 11
329.1469781753564
 21
95.16401819816229
 31
0.0
  0
LINE
  5
80C
330
18
100
AcDbEntity
  8
外形線
100
AcDbLine
 10
325.6469781753564
 20
98.96401819816242
 30
0.0
 11
329.1469781753564
 21
97.76401819816232
 31
0.0
  0
LINE
  5
80D
330
18
100
AcDbEntity
  8
外形線
100
AcDbLine
 10
329.1469781753564
 20
95.16401819816229
 30
0.0
 11
329.1469781753564
 21
97.76401819816232
 31
0.0
  0
ARC
  5
80E
330
18
100
AcDbEntity
  8
外形線
100
AcDbCircle
 10
328.9969781753564
 20
96.46401819816235
 30
0.0
 40
1.150000000000005
100
AcDbArc
 50
277.494717453927
 51
82.50528254607301
  0
POINT
  5
80F
330
18
100
AcDbEntity
  8
DEFPOINTS
  6
ByBlock
 62
     0
100
AcDbPoint
 10
330.1469781753564
 20
96.46401819816237
 30
0.0
  0
LINE
  5
810
330
18
100
AcDbEntity
  8
外形線
100
AcDbLine
 10
316.6469781753564
 20
101.9640181981623
 30
0.0
 11
317.1469781753564
 21
102.4640181981623
 31
0.0
  0
LINE
  5
811
330
18
100
AcDbEntity
  8
外形線
100
AcDbLine
 10
317.1469781753564
 20
102.4640181981623
 30
0.0
 11
319.1469781753564
 21
102.4640181981623
 31
0.0
  0
LINE
  5
812
330
18
100
AcDbEntity
  8
外形線
100
AcDbLine
 10
319.6469781753564
 20
101.9640181981623
 30
0.0
 11
319.1469781753564
 21
102.4640181981623
 31
0.0
  0
DIMENSION
  5
82F
330
18
100
AcDbEntity
  8
外形線
100
AcDbDimension
  2
*D7
 10
289.1218502281077
 20
189.7978181321601
 30
0.0
 11
287.2468502281076
 21
186.7978181321601
 31
0.0
 70
    32
  1
φ6
 71
     5
 42
6.000000000000056
  3
STYLE3
100
AcDbAlignedDimension
 13
292.7694094580547
 23
183.7978181321601
 33
0.0
 14
290.0337397517382
 24
189.7978181321601
 34
0.0
 50
90.0
100
AcDbRotatedDimension
1001
ACAD
1000
DSTYLE
1002
{
1070
   271
1070
     2
1002
}
  0
LINE
  5
908
330
18
100
AcDbEntity
  8
外形線
100
AcDbLine
 10
313.6469781753565
 20
189.7978181321601
 30
0.0
 11
313.6469781753565
 21
189.2978181321601
 31
0.0
  0
LINE
  5
909
330
18
100
AcDbEntity
  8
外形線
100
AcDbLine
 10
313.6469781753565
 20
189.2978181321601
 30
0.0
 11
316.1469781753565
 21
189.2978181321601
 31
0.0
  0
LINE
  5
90A
330
18
100
AcDbEntity
  8
外形線
100
AcDbLine
 10
313.6469781753565
 20
184.2978181321601
 30
0.0
 11
316.1469781753565
 21
184.2978181321601
 31
0.0
  0
LINE
  5
90B
330
18
100
AcDbEntity
  8
外形線
100
AcDbLine
 10
313.6469781753565
 20
184.2978181321601
 30
0.0
 11
313.6469781753565
 21
183.79781813216
 31
0.0
  0
LINE
  5
90D
330
18
100
AcDbEntity
  8
外形線
100
AcDbLine
 10
259.2934247847631
 20
176.9442647415669
 30
0.0
 11
261.1469781753564
 21
178.7978181321601
 31
0.0
  0
LINE
  5
90E
330
18
100
AcDbEntity
  8
外形線
100
AcDbLine
 10
261.1469781753565
 20
194.7978181321602
 30
0.0
 11
259.2934247847633
 21
196.6513715227535
 31
0.0
  0
LINE
  5
912
330
18
100
AcDbEntity
  8
外形線
100
AcDbLine
 10
231.1469781753564
 20
106.4640181981624
 30
0.0
 11
258.9398713941699
 21
106.4640181981624
 31
0.0
  0
LINE
  5
913
330
18
100
AcDbEntity
  8
外形線
100
AcDbLine
 10
231.1469781753563
 20
86.46401819816237
 30
0.0
 11
258.9398713941697
 21
86.46401819816242
 31
0.0
  0
LINE
  5
914
330
18
100
AcDbEntity
  8
外形線
100
AcDbLine
 10
231.1469781753564
 20
107.4640181981624
 30
0.0
 11
231.1469781753564
 21
85.46401819816242
 31
0.0
  0
LINE
  5
915
330
18
100
AcDbEntity
  8
外形線
100
AcDbLine
 10
261.1469781753565
 20
104.4640181981625
 30
0.0
 11
261.1469781753562
 21
88.46401819816241
 31
0.0
  0
LINE
  5
916
330
18
100
AcDbEntity
  8
外形線
100
AcDbLine
 10
259.1469781753565
 20
106.4191080587247
 30
0.0
 11
259.1469781753564
 21
86.50892833760025
 31
0.0
  0
LINE
  5
918
330
18
100
AcDbEntity
  8
外形線
100
AcDbLine
 10
259.293424784763
 20
86.61046480756914
 30
0.0
 11
261.1469781753562
 21
88.46401819816241
 31
0.0
  0
LINE
  5
919
330
18
100
AcDbEntity
  8
外形線
100
AcDbLine
 10
261.1469781753565
 20
104.4640181981625
 30
0.0
 11
259.2934247847632
 21
106.3175715887557
 31
0.0
  0
LINE
  5
926
330
18
100
AcDbEntity
  8
外形線
100
AcDbLine
 10
313.6469781753564
 20
98.12233059334012
 30
0.0
 11
313.6469781753564
 21
94.80570580298467
 31
0.0
  0
LINE
  5
92B
330
18
100
AcDbEntity
  8
外形線
100
AcDbLine
 10
313.6469781753564
 20
98.12233059334012
 30
0.0
 11
316.1469781753564
 21
98.12233059334012
 31
0.0
  0
LINE
  5
92C
330
18
100
AcDbEntity
  8
外形線
100
AcDbLine
 10
313.6469781753564
 20
94.80570580298467
 30
0.0
 11
316.1469781753564
 21
94.80570580298465
 31
0.0
  0
LINE
  5
92D
330
18
100
AcDbEntity
  8
外形線
100
AcDbLine
 10
132.1469781753564
 20
200.2978181321601
 30
0.0
 11
132.1469781753564
 21
172.7978181321601
 31
0.0
  0
LINE
  5
92E
330
18
100
AcDbEntity
  8
外形線
100
AcDbLine
 10
132.1469781753565
 20
116.4640181981624
 30
0.0
 11
132.1469781753562
 21
65.46401819816245
 31
0.0
  0
LINE
  5
92F
330
18
100
AcDbEntity
  8
外形線
100
AcDbLine
 10
49.64697817535648
 20
195.2978181321601
 30
0.0
 11
49.64697817535648
 21
178.2978181321603
 31
0.0
  0
LINE
  5
930
330
18
100
AcDbEntity
  8
外形線
100
AcDbLine
 10
49.64697817535648
 20
104.9640181981624
 30
0.0
 11
49.64697817535636
 21
87.96401819816251
 31
0.0
  0
LINE
  5
931
330
18
100
AcDbEntity
  8
外形線
100
AcDbLine
 10
51.64697817535653
 20
196.7978181321601
 30
0.0
 11
51.64697817535643
 21
176.7978181321602
 31
0.0
  0
LINE
  5
932
330
18
100
AcDbEntity
  8
外形線
100
AcDbLine
 10
51.64697817535648
 20
106.4640181981624
 30
0.0
 11
51.64697817535636
 21
86.46401819816247
 31
0.0
  0
LINE
  5
933
330
18
100
AcDbEntity
  8
外形線
100
AcDbLine
 10
131.6469781753565
 20
196.7978181321598
 30
0.0
 11
131.6469781753565
 21
189.7835324178744
 31
0.0
  0
ARC
  5
934
330
18
100
AcDbEntity
  8
外形線
100
AcDbCircle
 10
51.14697817535648
 20
195.2978181321601
 30
0.0
 40
1.5
100
AcDbArc
 50
90.0
 51
179.9999999999998
  0
ARC
  5
935
330
18
100
AcDbEntity
  8
外形線
100
AcDbCircle
 10
51.14697817535648
 20
178.2978181321602
 30
0.0
 40
1.5
100
AcDbArc
 50
179.9999999999998
 51
270.0
  0
LINE
  5
936
330
18
100
AcDbEntity
  8
外形線
100
AcDbLine
 10
131.6469781753564
 20
106.464018198162
 30
0.0
 11
131.6469781753563
 21
86.4640181981621
 31
0.0
  0
ARC
  5
937
330
18
100
AcDbEntity
  8
外形線
100
AcDbCircle
 10
51.14697817535637
 20
87.96401819816248
 30
0.0
 40
1.5
100
AcDbArc
 50
179.9999999999998
 51
270.0
  0
ARC
  5
938
330
18
100
AcDbEntity
  8
外形線
100
AcDbCircle
 10
51.14697817535648
 20
104.9640181981624
 30
0.0
 40
1.5
100
AcDbArc
 50
90.0
 51
179.9999999999998
  0
LINE
  5
939
330
18
100
AcDbEntity
  8
外形線
100
AcDbLine
 10
133.1469781753565
 20
117.4640181981624
 30
0.0
 11
227.1469781753565
 21
117.4640181981624
 31
0.0
  0
LINE
  5
93A
330
18
100
AcDbEntity
  8
外形線
100
AcDbLine
 10
133.1469781753562
 20
64.46401819816244
 30
0.0
 11
227.1469781753563
 21
64.46401819816242
 31
0.0
  0
LINE
  5
93B
330
18
100
AcDbEntity
  8
外形線
100
AcDbLine
 10
229.1469781753565
 20
115.4640181981624
 30
0.0
 11
229.1469781753563
 21
66.46401819816242
 31
0.0
  0
LINE
  5
93C
330
18
100
AcDbEntity
  8
外形線
100
AcDbLine
 10
230.1469781753564
 20
108.4640181981624
 30
0.0
 11
230.1469781753564
 21
108.4640181981624
 31
0.0
  0
LINE
  5
93D
330
18
100
AcDbEntity
  8
外形線
100
AcDbLine
 10
230.1469781753564
 20
84.46401819816243
 30
0.0
 11
230.1469781753564
 21
84.46401819816243
 31
0.0
  0
ARC
  5
93E
330
18
100
AcDbEntity
  8
外形線
100
AcDbCircle
 10
230.1469781753564
 20
107.4640181981624
 30
0.0
 40
1.0
100
AcDbArc
 50
359.9999999999998
 51
90.0
  0
ARC
  5
93F
330
18
100
AcDbEntity
  8
外形線
100
AcDbCircle
 10
230.1469781753564
 20
85.46401819816239
 30
0.0
 40
1.0
100
AcDbArc
 50
270.0
 51
359.9999999999999
  0
ARC
  5
941
330
18
100
AcDbEntity
  8
外形線
100
AcDbCircle
 10
230.1469781753564
 20
83.46401819816239
 30
0.0
 40
1.0
100
AcDbArc
 50
90.0
 51
179.9999999999998
  0
ARC
  5
942
330
18
100
AcDbEntity
  8
外形線
100
AcDbCircle
 10
230.1469781753565
 20
109.4640181981624
 30
0.0
 40
1.0
100
AcDbArc
 50
179.9999999999998
 51
269.9999999999992
  0
LINE
  5
943
330
18
100
AcDbEntity
  8
外形線
100
AcDbLine
 10
227.1469781753565
 20
117.4640181981624
 30
0.0
 11
229.1469781753565
 21
115.4640181981624
 31
0.0
  0
LINE
  5
944
330
18
100
AcDbEntity
  8
外形線
100
AcDbLine
 10
227.1469781753563
 20
64.46401819816242
 30
0.0
 11
229.1469781753563
 21
66.46401819816242
 31
0.0
  0
LINE
  5
945
330
18
100
AcDbEntity
  8
外形線
100
AcDbLine
 10
135.1469781753565
 20
117.4640181981624
 30
0.0
 11
135.1469781753562
 21
64.46401819816242
 31
0.0
  0
LINE
  5
946
330
18
100
AcDbEntity
  8
外形線
100
AcDbLine
 10
219.1469781753565
 20
117.4640181981624
 30
0.0
 11
219.1469781753563
 21
64.46401819816242
 31
0.0
  0
ARC
  5
947
330
18
100
AcDbEntity
  8
外形線
100
AcDbCircle
 10
133.1469781753562
 20
65.46401819816241
 30
0.0
 40
1.0
100
AcDbArc
 50
179.9999999999998
 51
270.0
  0
ARC
  5
948
330
18
100
AcDbEntity
  8
外形線
100
AcDbCircle
 10
133.1469781753565
 20
116.4640181981624
 30
0.0
 40
1.0
100
AcDbArc
 50
90.0
 51
179.9999999999998
  0
LINE
  5
949
330
18
100
AcDbEntity
  8
中心線
 48
0.3
100
AcDbLine
 10
224.1469781753566
 20
117.4640181981624
 30
0.0
 11
224.1469781753565
 21
105.6299402683939
 31
0.0
  0
LINE
  5
94A
330
18
100
AcDbEntity
  8
中心線
 48
0.3
100
AcDbLine
 10
219.554616698679
 20
71.46401819816242
 30
0.0
 11
229.9810561051248
 21
71.46401819816242
 31
0.0
  0
LINE
  5
94B
330
18
100
AcDbEntity
  8
中心線
 48
0.3
100
AcDbLine
 10
218.312900245588
 20
111.4640181981624
 30
0.0
 11
229.981056105125
 21
111.4640181981624
 31
0.0
  0
CIRCLE
  5
94C
330
18
100
AcDbEntity
  8
外形線
100
AcDbCircle
 10
224.1469781753563
 20
71.4640181981624
 30
0.0
 40
2.25
  0
CIRCLE
  5
94D
330
18
100
AcDbEntity
  8
外形線
100
AcDbCircle
 10
224.1469781753563
 20
71.4640181981624
 30
0.0
 40
3.75
  0
CIRCLE
  5
950
330
18
100
AcDbEntity
  8
外形線
100
AcDbCircle
 10
224.1469781753565
 20
111.4640181981624
 30
0.0
 40
3.75
  0
CIRCLE
  5
951
330
18
100
AcDbEntity
  8
外形線
100
AcDbCircle
 10
224.1469781753565
 20
111.4640181981624
 30
0.0
 40
2.25
  0
LINE
  5
952
330
18
100
AcDbEntity
  8
中心線
 48
0.3
100
AcDbLine
 10
224.1469781753564
 20
77.29809612793087
 30
0.0
 11
224.1469781753563
 21
65.62994026839397
 31
0.0
  0
LINE
  5
955
330
18
100
AcDbEntity
  8
中心線
100
AcDbLine
 10
97.14697817535636
 20
110.4640181981624
 30
0.0
 11
137.0136435381425
 21
110.4640181981624
 31
0.0
  0
LINE
  5
957
330
18
100
AcDbEntity
  8
外形線
100
AcDbLine
 10
111.1469781753565
 20
112.8640181981624
 30
0.0
 11
111.1469781753564
 21
108.0640181981624
 31
0.0
  0
LINE
  5
95C
330
18
100
AcDbEntity
  8
外形線
100
AcDbLine
 10
111.1469781753565
 20
112.8640181981624
 30
0.0
 11
132.1469781753565
 21
113.4640181981624
 31
0.0
  0
LINE
  5
95D
330
18
100
AcDbEntity
  8
外形線
100
AcDbLine
 10
132.1469781753564
 20
107.4640181981624
 30
0.0
 11
111.1469781753564
 21
108.0640181981624
 31
0.0
  0
LINE
  5
95F
330
18
100
AcDbEntity
  8
外形線
100
AcDbLine
 10
97.14697817535631
 20
112.4640181981624
 30
0.0
 11
111.1469781753565
 21
112.4640181981624
 31
0.0
  0
LINE
  5
960
330
18
100
AcDbEntity
  8
外形線
100
AcDbLine
 10
97.14697817535626
 20
108.4640181981624
 30
0.0
 11
111.1469781753565
 21
108.4640181981624
 31
0.0
  0
ARC
  5
962
330
18
100
AcDbEntity
  8
外形線
100
AcDbCircle
 10
97.14697817535659
 20
170.4640181981624
 30
0.0
 40
58.0
100
AcDbArc
 50
239.9999999999999
 51
269.9999999999998
  0
ARC
  5
963
330
18
100
AcDbEntity
  8
外形線
100
AcDbCircle
 10
97.14697817535659
 20
170.4640181981624
 30
0.0
 40
62.0
100
AcDbArc
 50
239.9999999999999
 51
269.9999999999998
  0
LINE
  5
964
330
18
100
AcDbEntity
  8
想像線
 48
0.3
100
AcDbLine
 10
70.44383376609193
 20
123.5728022785103
 30
0.0
 11
63.76172762403434
 21
112.5896931696778
 31
0.0
  0
ARC
  5
967
330
18
100
AcDbEntity
  8
中心線
100
AcDbCircle
 10
97.14697817535659
 20
170.4640181981624
 30
0.0
 40
60.0
100
AcDbArc
 50
233.8881275693504
 51
269.9999999999998
  0
LINE
  5
969
330
18
100
AcDbEntity
  8
外形線
100
AcDbLine
 10
111.1469781753565
 20
189.1978181321602
 30
0.0
 11
132.1469781753565
 21
189.7978181321601
 31
0.0
  0
LINE
  5
96A
330
18
100
AcDbEntity
  8
中心線
100
AcDbLine
 10
97.14697817535636
 20
186.7978181321602
 30
0.0
 11
137.0136435381425
 21
186.7978181321601
 31
0.0
  0
LINE
  5
96B
330
18
100
AcDbEntity
  8
外形線
100
AcDbLine
 10
132.1469781753564
 20
183.7978181321601
 30
0.0
 11
111.1469781753565
 21
184.3978181321602
 31
0.0
  0
LINE
  5
96C
330
18
100
AcDbEntity
  8
外形線
100
AcDbLine
 10
111.1469781753565
 20
189.1978181321602
 30
0.0
 11
111.1469781753565
 21
184.3978181321601
 31
0.0
  0
LINE
  5
96D
330
18
100
AcDbEntity
  8
外形線
100
AcDbLine
 10
70.14685944238568
 20
188.7978181321602
 30
0.0
 11
111.1469781753565
 21
188.7978181321602
 31
0.0
  0
LINE
  5
96E
330
18
100
AcDbEntity
  8
外形線
100
AcDbLine
 10
69.32984912618872
 20
184.7978181321602
 30
0.0
 11
111.1469781753565
 21
184.7978181321602
 31
0.0
  0
LINE
  5
96F
330
18
100
AcDbEntity
  8
想像線
 48
0.3
100
AcDbLine
 10
70.97328599294678
 20
192.8439190646827
 30
0.0
 11
68.50867190665872
 21
180.7774173942477
 31
0.0
  0
LINE
  5
970
330
18
100
AcDbEntity
  8
外形線
100
AcDbLine
 10
131.6469781753565
 20
183.8121038464458
 30
0.0
 11
131.6469781753565
 21
176.7978181321599
 31
0.0
  0
LINE
  5
979
330
18
100
AcDbEntity
  8
外形線
100
AcDbLine
 10
231.1469781753565
 20
197.7978181321601
 30
0.0
 11
231.1469781753565
 21
175.7978181321601
 31
0.0
  0
ARC
  5
97A
330
18
100
AcDbEntity
  8
外形線
100
AcDbCircle
 10
230.1469781753564
 20
173.7978181321601
 30
0.0
 40
1.0
100
AcDbArc
 50
90.0
 51
179.9999999999998
  0
ARC
  5
97B
330
18
100
AcDbEntity
  8
外形線
100
AcDbCircle
 10
230.1469781753565
 20
175.7978181321601
 30
0.0
 40
1.0
100
AcDbArc
 50
270.0
 51
359.9999999999999
  0
LINE
  5
97C
330
18
100
AcDbEntity
  8
外形線
100
AcDbLine
 10
230.1469781753564
 20
174.7978181321601
 30
0.0
 11
230.1469781753565
 21
174.7978181321601
 31
0.0
  0
ARC
  5
97D
330
18
100
AcDbEntity
  8
外形線
100
AcDbCircle
 10
230.1469781753566
 20
199.7978181321601
 30
0.0
 40
1.0
100
AcDbArc
 50
179.9999999999998
 51
269.9999999999992
  0
ARC
  5
97E
330
18
100
AcDbEntity
  8
外形線
100
AcDbCircle
 10
230.1469781753565
 20
197.7978181321601
 30
0.0
 40
1.0
100
AcDbArc
 50
359.9999999999998
 51
90.0
  0
LINE
  5
97F
330
18
100
AcDbEntity
  8
外形線
100
AcDbLine
 10
230.1469781753566
 20
198.7978181321601
 30
0.0
 11
230.1469781753565
 21
198.7978181321601
 31
0.0
  0
LINE
  5
980
330
18
100
AcDbEntity
  8
外形線
100
AcDbLine
 10
229.1469781753565
 20
200.7978181321602
 30
0.0
 11
229.1469781753565
 21
172.7978181321601
 31
0.0
  0
LINE
  5
981
330
18
100
AcDbEntity
  8
外形線
100
AcDbLine
 10
219.1469781753566
 20
195.7978181321601
 30
0.0
 11
219.1469781753565
 21
171.7978181321601
 31
0.0
  0
LINE
  5
982
330
18
100
AcDbEntity
  8
外形線
100
AcDbLine
 10
227.1469781753566
 20
201.7978181321601
 30
0.0
 11
227.1469781753565
 21
171.7978181321601
 31
0.0
  0
LINE
  5
983
330
18
100
AcDbEntity
  8
外形線
100
AcDbLine
 10
135.1469781753565
 20
195.7978181321601
 30
0.0
 11
135.1469781753565
 21
171.7978181321601
 31
0.0
  0
LINE
  5
984
330
18
100
AcDbEntity
  8
外形線
100
AcDbLine
 10
214.1469781753565
 20
201.7978181321602
 30
0.0
 11
228.1469781753565
 21
201.7978181321602
 31
0.0
  0
LINE
  5
985
330
18
100
AcDbEntity
  8
外形線
100
AcDbLine
 10
133.1469781753565
 20
171.7978181321601
 30
0.0
 11
228.1469781753564
 21
171.7978181321601
 31
0.0
  0
LINE
  5
987
330
18
100
AcDbEntity
  8
外形線
100
AcDbLine
 10
136.1469781753565
 20
196.7978181321601
 30
0.0
 11
218.1469781753566
 21
196.7978181321601
 31
0.0
  0
LINE
  5
989
330
18
100
AcDbEntity
  8
外形線
100
AcDbLine
 10
133.1469781753565
 20
201.2978181321601
 30
0.0
 11
213.6469781753565
 21
201.2978181321601
 31
0.0
  0
LINE
  5
98B
330
18
100
AcDbEntity
  8
外形線
100
AcDbLine
 10
214.1469781753565
 20
201.7978181321602
 30
0.0
 11
213.6469781753565
 21
201.2978181321601
 31
0.0
  0
ARC
  5
98C
330
18
100
AcDbEntity
  8
外形線
100
AcDbCircle
 10
218.1469781753566
 20
195.7978181321601
 30
0.0
 40
1.0
100
AcDbArc
 50
359.9999999999998
 51
90.0
  0
ARC
  5
98D
330
18
100
AcDbEntity
  8
外形線
100
AcDbCircle
 10
228.1469781753565
 20
200.7978181321601
 30
0.0
 40
1.0
100
AcDbArc
 50
359.9999999999999
 51
90.00000000000007
  0
ARC
  5
98E
330
18
100
AcDbEntity
  8
外形線
100
AcDbCircle
 10
228.1469781753564
 20
172.7978181321601
 30
0.0
 40
1.0
100
AcDbArc
 50
270.0
 51
0.0
  0
ARC
  5
98F
330
18
100
AcDbEntity
  8
外形線
100
AcDbCircle
 10
133.1469781753565
 20
172.7978181321601
 30
0.0
 40
1.0
100
AcDbArc
 50
180.0
 51
270.0
  0
ARC
  5
990
330
18
100
AcDbEntity
  8
外形線
100
AcDbCircle
 10
136.1469781753565
 20
195.7978181321601
 30
0.0
 40
1.0
100
AcDbArc
 50
90.0
 51
180.0
  0
ARC
  5
991
330
18
100
AcDbEntity
  8
外形線
100
AcDbCircle
 10
133.1469781753565
 20
200.2978181321601
 30
0.0
 40
1.0
100
AcDbArc
 50
90.0
 51
180.0
  0
LINE
  5
992
330
18
100
AcDbEntity
  8
中心線
 48
0.2
100
AcDbLine
 10
135.7533064533097
 20
193.7978181321601
 30
0.0
 11
142.5406498974032
 21
193.7978181321601
 31
0.0
  0
LINE
  5
993
330
18
100
AcDbEntity
  8
中心線
 48
0.2
100
AcDbLine
 10
216.1469781753565
 20
197.1914898542068
 30
0.0
 11
216.1469781753565
 21
190.4041464101134
 31
0.0
  0
LINE
  5
994
330
18
100
AcDbEntity
  8
中心線
 48
0.2
100
AcDbLine
 10
139.1469781753565
 20
197.1914898542068
 30
0.0
 11
139.1469781753565
 21
190.4041464101134
 31
0.0
  0
CIRCLE
  5
995
330
18
100
AcDbEntity
  8
外形線
100
AcDbCircle
 10
216.1469781753565
 20
193.79781813216
 30
0.0
 40
1.75
  0
LINE
  5
999
330
18
100
AcDbEntity
  8
外形線
100
AcDbLine
 10
217.07957029486
 20
194.7304102516636
 30
0.0
 11
215.214386055853
 21
192.8652260126566
 31
0.0
  0
LINE
  5
99A
330
18
100
AcDbEntity
  8
外形線
100
AcDbLine
 10
215.214386055853
 20
194.7304102516636
 30
0.0
 11
217.07957029486
 21
192.8652260126566
 31
0.0
  0
LINE
  5
99C
330
18
100
AcDbEntity
  8
外形線
100
AcDbLine
 10
138.2143860558529
 20
194.7304102516636
 30
0.0
 11
140.07957029486
 21
192.8652260126566
 31
0.0
  0
LINE
  5
99D
330
18
100
AcDbEntity
  8
外形線
100
AcDbLine
 10
140.07957029486
 20
194.7304102516636
 30
0.0
 11
138.214386055853
 21
192.8652260126566
 31
0.0
  0
CIRCLE
  5
99E
330
18
100
AcDbEntity
  8
外形線
100
AcDbCircle
 10
139.1469781753565
 20
193.7978181321601
 30
0.0
 40
1.75
  0
LINE
  5
99F
330
18
100
AcDbEntity
  8
中心線
 48
0.2
100
AcDbLine
 10
212.7533064533098
 20
193.7978181321601
 30
0.0
 11
219.5406498974032
 21
193.7978181321601
 31
0.0
  0
DIMENSION
  5
9AC
330
18
100
AcDbEntity
  8
寸法線
100
AcDbDimension
  2
*D8
 10
238.6579706600485
 20
186.7978181321601
 30
0.0
 11
236.7829706600485
 21
194.2978181321602
 31
0.0
 70
    32
 71
     5
 42
15.0
  3
STYLE3
100
AcDbAlignedDimension
 13
228.1469781753565
 23
201.7978181321602
 33
0.0
 14
238.3656065224366
 24
186.7978181321601
 34
0.0
 50
90.0
100
AcDbRotatedDimension
1001
ACAD
1000
DSTYLE
1002
{
1070
   271
1070
     7
1002
}
  0
DIMENSION
  5
9B8
330
18
100
AcDbEntity
  8
寸法線
100
AcDbDimension
  2
*D9
 10
238.6579706600485
 20
171.7978181321601
 30
0.0
 11
236.7829706600485
 21
179.2978181321601
 31
0.0
 70
    32
 71
     5
 42
15.00000000000006
  3
STYLE3
100
AcDbAlignedDimension
 13
238.3656065224366
 23
186.7978181321601
 33
0.0
 14
228.1469781753564
 24
171.7978181321601
 34
0.0
 50
90.0
100
AcDbRotatedDimension
1001
ACAD
1000
DSTYLE
1002
{
1070
    75
1070
     1
1070
   271
1070
     7
1070
   279
1070
     1
1002
}
  0
DIMENSION
  5
9C5
330
18
100
AcDbEntity
  8
寸法線
100
AcDbDimension
  2
*D10
 10
244.9437949675935
 20
171.7978181321601
 30
0.0
 11
243.0687949675935
 21
186.7978181321601
 31
0.0
 70
    32
 71
     5
 42
30.0
  3
STYLE3
100
AcDbAlignedDimension
 13
239.9079706600485
 23
201.7978181321601
 33
0.0
 14
239.9079706600485
 24
171.7978181321601
 34
0.0
 50
90.0
100
AcDbRotatedDimension
1001
ACAD
1000
DSTYLE
1002
{
1070
   271
1070
     7
1002
}
  0
DIMENSION
  5
9D2
330
18
100
AcDbEntity
  8
寸法線
100
AcDbDimension
  2
*D11
 10
239.4823043668282
 20
96.46401819816242
 30
0.0
 11
237.6073043668282
 21
103.9640181981624
 31
0.0
 70
    32
 71
     5
 42
15.0
  3
STYLE3
100
AcDbAlignedDimension
 13
229.981056105125
 23
111.4640181981624
 33
0.0
 14
239.2231642723286
 24
96.46401819816242
 34
0.0
 50
90.0
100
AcDbRotatedDimension
1001
ACAD
1000
DSTYLE
1002
{
1070
   271
1070
     7
1002
}
  0
DIMENSION
  5
9DF
330
18
100
AcDbEntity
  8
寸法線
100
AcDbDimension
  2
*D12
 10
245.4425428192041
 20
71.46401819816242
 30
0.0
 11
243.5675428192041
 21
91.46401819816246
 31
0.0
 70
    32
 71
     5
 42
40.0
  3
STYLE3
100
AcDbAlignedDimension
 13
240.7323043668282
 23
111.4640181981624
 33
0.0
 14
229.9810561051248
 24
71.46401819816242
 34
0.0
 50
90.0
100
AcDbRotatedDimension
1001
ACAD
1000
DSTYLE
1002
{
1070
   271
1070
     7
1002
}
  0
DIMENSION
  5
9EC
330
18
100
AcDbEntity
  8
寸法線
100
AcDbDimension
  2
*D13
 10
252.6984840696334
 20
64.46401819816242
 30
0.0
 11
250.8234840696334
 21
90.96401819816247
 31
0.0
 70
    32
 71
     5
 42
53.0
  3
STYLE3
100
AcDbAlignedDimension
 13
227.1469781753565
 23
117.4640181981624
 33
0.0
 14
227.1469781753563
 24
64.46401819816242
 34
0.0
 50
90.0
100
AcDbRotatedDimension
1001
ACAD
1000
DSTYLE
1002
{
1070
   271
1070
     7
1002
}
  0
DIMENSION
  5
9F9
330
18
100
AcDbEntity
  8
寸法線
100
AcDbDimension
  2
*D14
 10
204.2391584926813
 20
96.46401819816242
 30
0.0
 11
202.3641584926813
 21
106.9640181981624
 31
0.0
 70
    32
 71
     5
 42
21.0
  3
STYLE3
100
AcDbAlignedDimension
 13
202.4251731800741
 23
117.4640181981624
 33
0.0
 14
204.2391584926813
 24
96.46401819816242
 34
0.0
 50
90.0
100
AcDbRotatedDimension
1001
ACAD
1000
DSTYLE
1002
{
1070
   271
1070
     7
1002
}
  0
LINE
  5
9FA
330
18
100
AcDbEntity
  8
寸法線
100
AcDbLine
 10
316.1469781753564
 20
99.71401819816236
 30
0.0
 11
316.1469781753564
 21
111.2226634772835
 31
0.0
  0
DIMENSION
  5
A07
330
18
100
AcDbEntity
  8
寸法線
100
AcDbDimension
  2
*D15
 10
316.1469781753564
 20
129.2562734446182
 30
0.0
 11
323.1469781753565
 21
131.1312734446182
 31
0.0
 70
    32
 71
     5
 42
14.00000000000005
  3
STYLE3
100
AcDbAlignedDimension
 13
330.1469781753565
 23
96.46401819816237
 33
0.0
 14
316.1469781753564
 24
111.2226634772835
 34
0.0
100
AcDbRotatedDimension
1001
ACAD
1000
DSTYLE
1002
{
1070
   271
1070
     7
1002
}
  0
DIMENSION
  5
A13
330
18
100
AcDbEntity
  8
寸法線
100
AcDbDimension
  2
*D16
 10
261.1469781753565
 20
129.2562734446182
 30
0.0
 11
288.6469781753565
 21
131.1312734446182
 31
0.0
 70
    32
 71
     5
 42
54.99999999999994
  3
STYLE3
100
AcDbAlignedDimension
 13
316.1469781753564
 23
111.2226634772835
 33
0.0
 14
261.1469781753565
 24
104.4640181981625
 34
0.0
100
AcDbRotatedDimension
1001
ACAD
1000
DSTYLE
1002
{
1070
    75
1070
     1
1070
   271
1070
     7
1070
   279
1070
     1
1002
}
  0
DIMENSION
  5
A1F
330
18
100
AcDbEntity
  8
寸法線
100
AcDbDimension
  2
*D17
 10
231.1469781753564
 20
129.2562734446182
 30
0.0
 11
246.1469781753564
 21
131.1312734446183
 31
0.0
 70
    32
 71
     5
 42
30.00000000000009
  3
STYLE3
100
AcDbAlignedDimension
 13
261.1469781753565
 23
104.4640181981625
 33
0.0
 14
231.1469781753564
 24
107.4640181981624
 34
0.0
100
AcDbRotatedDimension
1001
ACAD
1000
DSTYLE
1002
{
1070
    75
1070
     1
1070
   271
1070
     7
1070
   279
1070
     1
1002
}
  0
DIMENSION
  5
A2B
330
18
100
AcDbEntity
  8
寸法線
100
AcDbDimension
  2
*D18
 10
132.1469781753565
 20
129.2562734446182
 30
0.0
 11
181.6469781753564
 21
131.1312734446183
 31
0.0
 70
    32
 71
     5
 42
98.99999999999989
  3
STYLE3
100
AcDbAlignedDimension
 13
231.1469781753564
 23
107.4640181981624
 33
0.0
 14
132.1469781753565
 24
116.4640181981624
 34
0.0
100
AcDbRotatedDimension
1001
ACAD
1000
DSTYLE
1002
{
1070
    75
1070
     1
1070
   271
1070
     7
1070
   279
1070
     1
1002
}
  0
DIMENSION
  5
A37
330
18
100
AcDbEntity
  8
寸法線
100
AcDbDimension
  2
*D19
 10
49.64697817535648
 20
129.2562734446183
 30
0.0
 11
90.89697817535649
 21
131.1312734446183
 31
0.0
 70
    32
 71
     5
 42
82.50000000000003
  3
STYLE3
100
AcDbAlignedDimension
 13
132.1469781753565
 23
116.4640181981624
 33
0.0
 14
49.64697817535648
 24
104.9640181981624
 34
0.0
100
AcDbRotatedDimension
1001
ACAD
1000
DSTYLE
1002
{
1070
    75
1070
     1
1070
   271
1070
     7
1070
   279
1070
     1
1002
}
  0
DIMENSION
  5
A77
330
18
100
AcDbEntity
  8
寸法線
100
AcDbDimension
  2
*D20
 10
330.1469781753565
 20
135.8995481729699
 30
0.0
 11
189.8969781753565
 21
137.7745481729699
 31
0.0
 70
    32
 71
     5
 42
280.5
  3
STYLE3
100
AcDbAlignedDimension
 13
49.64697817535648
 23
130.5062734446183
 33
0.0
 14
330.1469781753565
 24
130.5062734446182
 34
0.0
100
AcDbRotatedDimension
1001
ACAD
1000
DSTYLE
1002
{
1070
   271
1070
     7
1002
}
  0
ARC
  5
A78
330
18
100
AcDbEntity
  8
外形線
100
AcDbCircle
 10
258.9398713941697
 20
86.96401819816239
 30
0.0
 40
0.5
100
AcDbArc
 50
270.0000000000002
 51
314.9999999999999
  0
ARC
  5
A79
330
18
100
AcDbEntity
  8
外形線
100
AcDbCircle
 10
258.9398713941699
 20
105.9640181981625
 30
0.0
 40
0.5
100
AcDbArc
 50
45.0
 51
90.00000000000024
  0
ARC
  5
A7A
330
18
100
AcDbEntity
  8
外形線
100
AcDbCircle
 10
258.93987139417
 20
196.2978181321602
 30
0.0
 40
0.5
100
AcDbArc
 50
44.9999999999992
 51
90.00000000000024
  0
ARC
  5
A7B
330
18
100
AcDbEntity
  8
外形線
100
AcDbCircle
 10
258.9398713941698
 20
177.2978181321602
 30
0.0
 40
0.5
100
AcDbArc
 50
270.0000000000002
 51
314.9999999999999
  0
MTEXT
  5
A81
330
18
100
AcDbEntity
  8
0
  6
ByBlock
 62
     6
100
AcDbMText
 10
283.8053367888644
 20
113.5987051674494
 30
0.0
 40
2.5
 41
0.0
 71
     5
 72
     1
  1
φ20.0
  7
STYLE3
 73
     1
 44
1.0
  0
LINE
  5
A92
330
18
100
AcDbEntity
  8
0
  6
ByBlock
 62
     2
100
AcDbLine
 10
258.9398713941699
 20
106.4640181981624
 30
0.0
 11
271.6687721701148
 21
106.4640181981624
 31
0.0
  0
LINE
  5
A93
330
18
100
AcDbEntity
  8
0
  6
ByBlock
 62
     2
100
AcDbLine
 10
258.9398713941697
 20
86.46401819816242
 30
0.0
 11
271.6687721701148
 21
86.46401819816242
 31
0.0
  0
LINE
  5
A94
330
18
100
AcDbEntity
  8
0
  6
ByBlock
 62
     2
100
AcDbLine
 10
270.4187721701148
 20
103.9640181981625
 30
0.0
 11
270.4187721701148
 21
88.96401819816242
 31
0.0
  0
INSERT
  5
A95
330
18
100
AcDbEntity
  8
0
  6
ByBlock
 62
     2
100
AcDbBlockReference
  2
_OPEN
 10
270.4187721701148
 20
106.4640181981624
 30
0.0
 41
2.5
 42
2.5
 43
2.5
 50
90.0
  0
INSERT
  5
A96
330
18
100
AcDbEntity
  8
0
  6
ByBlock
 62
     2
100
AcDbBlockReference
  2
_OPEN
 10
270.4187721701148
 20
86.46401819816238
 30
0.0
 41
2.5
 42
2.5
 43
2.5
 50
270.0
  0
MTEXT
  5
A97
330
18
100
AcDbEntity
  8
0
  6
ByBlock
 62
     6
100
AcDbMText
 10
292.8889607587473
 20
116.227998357176
 30
0.0
 40
1.7
 41
0.0
 71
     5
 72
     1
  1
0
  7
STYLE3
 73
     1
 44
1.0
  0
POINT
  5
A98
330
18
100
AcDbEntity
  8
DEFPOINTS
  6
ByBlock
 62
     0
100
AcDbPoint
 10
258.9398713941699
 20
106.4640181981624
 30
0.0
  0
POINT
  5
A99
330
18
100
AcDbEntity
  8
DEFPOINTS
  6
ByBlock
 62
     0
100
AcDbPoint
 10
258.9398713941697
 20
86.46401819816242
 30
0.0
  0
POINT
  5
A9A
330
18
100
AcDbEntity
  8
DEFPOINTS
  6
ByBlock
 62
     0
100
AcDbPoint
 10
270.4187721701148
 20
86.46401819816242
 30
0.0
  0
LINE
  5
A9B
330
18
100
AcDbEntity
  8
寸法線
100
AcDbLine
 10
270.4187721701148
 20
96.4640181981624
 30
0.0
 11
278.8773928513263
 21
111.540162892508
 31
0.0
  0
LINE
  5
A9C
330
18
100
AcDbEntity
  8
寸法線
100
AcDbLine
 10
278.8773928513263
 20
111.540162892508
 30
0.0
 11
297.9408518180362
 21
111.540162892508
 31
0.0
  0
MTEXT
  5
A9D
330
18
100
AcDbEntity
  8
0
  6
ByBlock
 62
     6
100
AcDbMText
 10
293.9922041040365
 20
114.1710601222683
 30
0.0
 40
1.7
 41
0.0
 71
     5
 72
     1
  1
-0.03
  7
STYLE3
 73
     1
 44
1.0
  0
LINE
  5
AAD
330
18
100
AcDbEntity
  8
0
  6
ByBlock
 62
     2
100
AcDbLine
 10
235.3472144142453
 20
53.16519466367927
 30
0.0
 11
226.62670573397
 21
67.41266641942829
 31
0.0
  0
LINE
  5
AAE
330
18
100
AcDbEntity
  8
0
  6
ByBlock
 62
     2
100
AcDbLine
 10
221.6672506167427
 20
75.51536997689655
 30
0.0
 11
220.3621308490514
 21
77.64766038675659
 31
0.0
  0
LINE
  5
AB0
330
18
100
AcDbEntity
  8
0
  6
ByBlock
 62
     2
100
AcDbLine
 10
222.9723703844341
 20
73.38307956703648
 30
0.0
 11
225.3215859662786
 21
69.54495682928836
 31
0.0
  0
INSERT
  5
AB1
330
18
100
AcDbEntity
  8
0
  6
ByBlock
 62
     2
100
AcDbBlockReference
  2
_OPEN
 10
222.9723703844341
 20
73.38307956703646
 30
0.0
 41
2.5
 42
2.5
 43
2.5
 50
301.469721574464
  0
INSERT
  5
AB2
330
18
100
AcDbEntity
  8
0
  6
ByBlock
 62
     2
100
AcDbBlockReference
  2
_OPEN
 10
225.3215859662786
 20
69.54495682928835
 30
0.0
 41
2.5
 42
2.5
 43
2.5
 50
121.4697215744639
  0
POINT
  5
AB3
330
18
100
AcDbEntity
  8
DEFPOINTS
  6
ByBlock
 62
     0
100
AcDbPoint
 10
225.3215859662786
 20
69.54495682928836
 30
0.0
  0
POINT
  5
AB4
330
18
100
AcDbEntity
  8
DEFPOINTS
  6
ByBlock
 62
     0
100
AcDbPoint
 10
222.9723703844341
 20
73.38307956703648
 30
0.0
  0
LINE
  5
AB5
330
18
100
AcDbEntity
  8
寸法線
100
AcDbLine
 10
235.3472144142453
 20
53.16519466367927
 30
0.0
 11
273.8085047901793
 21
53.16519466367925
 31
0.0
  0
MTEXT
  5
AB6
330
18
100
AcDbEntity
  8
0
  6
ByBlock
 62
     6
100
AcDbMText
 10
254.0703319110596
 20
55.08653596411213
 30
0.0
 40
2.5
 41
0.0
 71
     5
 72
     1
  1
2-φ4.5×φ7.5深さ10
  7
STYLE3
 73
     1
 44
1.0
  0
DIMENSION
  5
AD6
330
18
100
AcDbEntity
  8
寸法線
100
AcDbDimension
  2
*D21
 10
214.1469781753565
 20
210.9724714454273
 30
0.0
 11
222.6469781753565
 21
212.8474714454272
 31
0.0
 70
    32
 71
     5
 42
17.0
  3
STYLE3
100
AcDbAlignedDimension
 13
231.1469781753565
 23
197.7978181321601
 33
0.0
 14
214.1469781753565
 24
201.7978181321602
 34
0.0
100
AcDbRotatedDimension
1001
ACAD
1000
DSTYLE
1002
{
1070
   271
1070
     7
1002
}
  0
LINE
  5
B08
330
18
100
AcDbEntity
  8
外形線
100
AcDbLine
 10
135.1469781753562
 20
66.4037558100359
 30
0.0
 11
219.1469781753563
 21
66.4037558100359
 31
0.0
  0
LINE
  5
B09
330
18
100
AcDbEntity
  8
外形線
100
AcDbLine
 10
135.1469781753562
 20
82.4037558100359
 30
0.0
 11
219.1469781753563
 21
82.4037558100359
 31
0.0
  0
LINE
  5
B0A
330
18
100
AcDbEntity
  8
外形線
100
AcDbLine
 10
135.6469781753563
 20
66.9037558100359
 30
0.0
 11
199.1469781753563
 21
66.9037558100359
 31
0.0
  0
LINE
  5
B0B
330
18
100
AcDbEntity
  8
外形線
100
AcDbLine
 10
135.6469781753563
 20
81.90375581003591
 30
0.0
 11
199.1469781753564
 21
81.90375581003591
 31
0.0
  0
LINE
  5
B0C
330
18
100
AcDbEntity
  8
外形線
100
AcDbLine
 10
135.6469781753563
 20
81.90375581003591
 30
0.0
 11
135.6469781753563
 21
66.9037558100359
 31
0.0
  0
LINE
  5
B0D
330
18
100
AcDbEntity
  8
外形線
100
AcDbLine
 10
218.6469781753564
 20
81.90375581003591
 30
0.0
 11
218.6469781753563
 21
66.9037558100359
 31
0.0
  0
TEXT
  5
C45
330
18
100
AcDbEntity
  8
0
  6
ByBlock
 62
     6
100
AcDbText
 10
185.9651754003567
 20
71.29313779891858
 30
0.0
 40
1.5
  1
DIGITAL  LINEAR  GAUGE
 50
180.0
 41
1.6
  7
4
100
AcDbText
  0
INSERT
  5
C46
330
18
100
AcDbEntity
  8
外形線
100
AcDbBlockReference
  2
A$C46B047FA
 10
216.5935455047271
 20
75.99225446777673
 30
0.0
 41
1.362234848541108
 42
1.362234848541108
 43
1.362234848541108
 50
180.0
  0
TEXT
  5
C47
330
18
100
AcDbEntity
  8
0
  6
ByBlock
 62
     6
100
AcDbText
 10
178.0926227365289
 20
75.437111090013
 30
0.0
 40
2.0
  1
MODEL  D-50
 50
180.0
 41
1.7
  7
4
100
AcDbText
  0
LINE
  5
C49
330
18
100
AcDbEntity
  8
外形線
100
AcDbLine
 10
199.6469781753564
 20
81.90375581003602
 30
0.0
 11
199.6469781753563
 21
66.90375581003602
 31
0.0
  0
LINE
  5
C4A
330
18
100
AcDbEntity
  8
外形線
100
AcDbLine
 10
199.1469781753564
 20
81.90375581003602
 30
0.0
 11
199.1469781753563
 21
66.90375581003602
 31
0.0
  0
LINE
  5
C4B
330
18
100
AcDbEntity
  8
外形線
100
AcDbLine
 10
199.6469781753564
 20
81.90375581003591
 30
0.0
 11
218.6469781753564
 21
81.90375581003591
 31
0.0
  0
LINE
  5
C4C
330
18
100
AcDbEntity
  8
外形線
100
AcDbLine
 10
199.6469781753563
 20
66.9037558100359
 30
0.0
 11
218.6469781753563
 21
66.9037558100359
 31
0.0
  0
TEXT
  5
C63
330
18
100
AcDbEntity
  8
文字
100
AcDbText
 10
189.582792783231
 20
81.14869172187093
 30
0.0
 40
1.5
  1
OZAKI  MFG. CO.,  LTD.  JAPAN
 50
180.0
 41
1.6
  7
4
100
AcDbText
  0
LINE
  5
D5C
330
18
100
AcDbEntity
  8
外形線
100
AcDbLine
 10
137.1469781753563
 20
76.87234280201346
 30
0.0
 11
137.1469781753563
 21
68.28511734148477
 31
0.0
  0
LINE
  5
D5D
330
18
100
AcDbEntity
  8
外形線
100
AcDbLine
 10
197.6469781753563
 20
76.87234280201341
 30
0.0
 11
197.6469781753563
 21
68.28511734148481
 31
0.0
  0
LINE
  5
D5E
330
18
100
AcDbEntity
  8
外形線
100
AcDbLine
 10
135.6469781753563
 20
78.90375581003588
 30
0.0
 11
199.1469781753563
 21
78.90375581003588
 31
0.0
  0
LINE
  5
D5F
330
18
100
AcDbEntity
  8
外形線
100
AcDbLine
 10
137.1469781753563
 20
76.87234280201346
 30
0.0
 11
197.6469781753563
 21
76.87234280201341
 31
0.0
  0
LINE
  5
D60
330
18
100
AcDbEntity
  8
外形線
100
AcDbLine
 10
137.1469781753563
 20
68.28511734148477
 30
0.0
 11
197.6469781753563
 21
68.28511734148477
 31
0.0
  0
DIMENSION
  5
1055
330
18
100
AcDbEntity
  8
寸法線
100
AcDbDimension
  2
*D25
 10
219.1469781753565
 20
230.4286147864158
 30
0.0
 11
177.1469781753565
 21
232.3036147864158
 31
0.0
 70
    32
 71
     5
 42
84.00000000000009
  3
STYLE3
100
AcDbAlignedDimension
 13
135.1469781753565
 23
186.7978181321602
 33
0.0
 14
219.1469781753565
 24
186.7978181321601
 34
0.0
100
AcDbRotatedDimension
1001
ACAD
1000
DSTYLE
1002
{
1070
   271
1070
     7
1070
   341
1005
0
1002
}
  0
TEXT
  5
10A3
330
18
100
AcDbEntity
  8
文字
100
AcDbText
 10
135.4762195420962
 20
267.0307863160306
 30
0.0
 40
4.0
  1
Model No.D-50 Linear Gauge
  7
STYLE3
100
AcDbText
  0
LINE
  5
10A4
330
18
100
AcDbEntity
  8
外形線
100
AcDbLine
 10
135.1723485420961
 20
264.9186803160306
 30
0.0
 11
222.1723485420961
 21
264.9186803160306
 31
0.0
  0
LINE
  5
10A5
330
18
100
AcDbEntity
  8
外形線
100
AcDbLine
 10
135.1723485420961
 20
263.9186803160306
 30
0.0
 11
222.1723485420961
 21
263.9186803160306
 31
0.0
  0
LINE
  5
10A7
330
18
100
AcDbEntity
  8
外形線
100
AcDbLine
 10
236.0089177927049
 20
21.10894633041993
 30
0.0
 11
376.8003357927049
 21
21.10894633041993
 31
0.0
  0
LINE
  5
10A8
330
18
100
AcDbEntity
  8
外形線
100
AcDbLine
 10
236.0089177927049
 20
10.32874033041993
 30
0.0
 11
376.8003357927049
 21
10.32874033041993
 31
0.0
  0
TEXT
  5
10A9
330
18
100
AcDbEntity
  8
0
  6
Continuous
100
AcDbText
 10
237.4663847927049
 20
12.22673033041993
 30
0.0
 40
2.1
  1
Design and specifications are subject to change without notice for future improvement.
  7
STYLE3
100
AcDbText
  0
TEXT
  5
10AA
330
18
100
AcDbEntity
  8
0
  6
Continuous
100
AcDbText
 10
237.7578787927049
 20
16.15587833041993
 30
0.0
 40
3.5
  1
仕様及び外観は予告なく変更される場合がございますのでご了承下さい。
  7
STYLE3
100
AcDbText
  0
TEXT
  5
10AB
330
18
100
AcDbEntity
  8
0
  6
Continuous
100
AcDbText
 10
237.1748937927049
 20
2.462102330419932
 30
0.0
 40
2.1
  1
3RD Angle Projection
  7
STYLE3
100
AcDbText
  0
TEXT
  5
10AC
330
18
100
AcDbEntity
  8
0
  6
Continuous
100
AcDbText
 10
239.7983367927049
 20
5.958385330419932
 30
0.0
 40
3.0
  1
三　　角　　法
  7
STYLE3
100
AcDbText
  0
LINE
  5
10AD
330
18
100
AcDbEntity
  8
外形線
100
AcDbLine
 10
236.0089177927049
 20
0.7139623304199319
 30
0.0
 11
236.0089177927049
 21
21.10894633041993
 31
0.0
  0
LINE
  5
10AE
330
18
100
AcDbEntity
  8
外形線
100
AcDbLine
 10
338.0316847927049
 20
10.32874033041993
 30
0.0
 11
338.0316847927049
 21
0.7139623304199319
 31
0.0
  0
LINE
  5
10AF
330
18
100
AcDbEntity
  8
外形線
100
AcDbLine
 10
308.2993347927049
 20
10.32874033041993
 30
0.0
 11
308.2993347927049
 21
0.7139623304199319
 31
0.0
  0
LINE
  5
10B0
330
18
100
AcDbEntity
  8
外形線
100
AcDbLine
 10
288.7692627927048
 20
10.32874033041993
 30
0.0
 11
288.7692627927048
 21
0.7139623304199319
 31
0.0
  0
LINE
  5
10B1
330
18
100
AcDbEntity
  8
外形線
100
AcDbLine
 10
271.2796457927049
 20
10.32874033041993
 30
0.0
 11
271.2796457927049
 21
0.7139623304199319
 31
0.0
  0
TEXT
  5
10B2
330
18
100
AcDbEntity
  8
0
  6
Continuous
100
AcDbText
 10
272.7371147927049
 20
5.964340330419931
 30
0.0
 40
3.0
  1
単位
  7
STYLE3
100
AcDbText
  0
TEXT
  5
10B3
330
18
100
AcDbEntity
  8
0
  6
Continuous
100
AcDbText
 10
272.9088357927049
 20
2.462103330419931
 30
0.0
 40
2.1
  1
Unit
  7
STYLE3
100
AcDbText
  0
TEXT
  5
10B4
330
18
100
AcDbEntity
  8
0
  6
Continuous
100
AcDbText
 10
290.0550107927049
 20
5.672982330419931
 30
0.0
 40
3.0
  1
尺 度
  7
STYLE3
100
AcDbText
  0
TEXT
  5
10B5
330
18
100
AcDbEntity
  8
0
  6
Continuous
100
AcDbText
 10
280.7791627927049
 20
4.210246330419931
 30
0.0
 40
2.399999999999999
  1
mm
  7
STYLE3
100
AcDbText
  0
TEXT
  5
10B6
330
18
100
AcDbEntity
  8
0
  6
Continuous
100
AcDbText
 10
290.5182257927048
 20
2.753460330419931
 30
0.0
 40
2.1
  1
Scale
  7
STYLE3
100
AcDbText
  0
TEXT
  5
10B7
330
18
100
AcDbEntity
  8
0
  6
Continuous
100
AcDbText
 10
300.1375147927049
 20
4.501603330419932
 30
0.0
 40
2.399999999999999
  1
1/1
  7
STYLE3
100
AcDbText
  0
TEXT
  5
10B8
330
18
100
AcDbEntity
  8
0
  6
Continuous
100
AcDbText
 10
310.2312857927049
 20
2.462104330419931
 30
0.0
 40
2.1
  1
Date
  7
STYLE3
100
AcDbText
  0
TEXT
  5
10B9
330
18
100
AcDbEntity
  8
0
  6
Continuous
100
AcDbText
 10
309.8479247927049
 20
5.795187330419931
 30
0.0
 40
3.0
  1
日 付
  7
STYLE3
100
AcDbText
  0
TEXT
  5
10BA
330
18
100
AcDbEntity
  8
0
  6
Continuous
100
AcDbText
 10
318.9760937927049
 20
4.210245330419931
 30
0.0
 40
2.1
  1
2010.06.30
  7
STYLE3
100
AcDbText
  0
TEXT
  5
10BB
330
18
100
AcDbEntity
  8
0
  6
Continuous
100
AcDbText
 10
339.3806477927049
 20
6.249742330419931
 30
0.0
 40
3.0
  1
株式会社　尾崎製作所
  7
STYLE3
100
AcDbText
  0
TEXT
  5
10BC
330
18
100
AcDbEntity
  8
0
  6
Continuous
100
AcDbText
 10
340.2551267927049
 20
2.462103330419931
 30
0.0
 40
2.1
  1
OZAKI MFG. CO., LTD.
  7
STYLE3
100
AcDbText
  0
ENDSEC
  0
SECTION
  2
OBJECTS
  0
DICTIONARY
  5
C
330
0
100
AcDbDictionary
281
     1
  3
ACAD_COLOR
350
1048
  3
ACAD_GROUP
350
D
  3
ACAD_LAYOUT
350
104B
  3
ACAD_MATERIAL
350
1047
  3
ACAD_MLINESTYLE
350
1B
  3
ACAD_PLOTSETTINGS
350
104C
  3
ACAD_PLOTSTYLENAME
350
1045
  3
ACAD_TABLESTYLE
350
1049
  3
ACDBVARIABLEDICTIONARY
350
7E5
  0
DICTIONARY
  5
1048
102
{ACAD_REACTORS
330
C
102
}
330
C
100
AcDbDictionary
281
     1
  0
DICTIONARY
  5
D
102
{ACAD_REACTORS
330
C
102
}
330
C
100
AcDbDictionary
281
     1
  0
DICTIONARY
  5
104B
102
{ACAD_REACTORS
330
C
102
}
330
C
100
AcDbDictionary
281
     1
  3
Model
350
104D
  3
レイアウト1
350
104E
  0
DICTIONARY
  5
1047
102
{ACAD_REACTORS
330
C
102
}
330
C
100
AcDbDictionary
281
     1
  0
DICTIONARY
  5
1B
102
{ACAD_REACTORS
330
C
102
}
330
C
100
AcDbDictionary
281
     1
  3
STANDARD
350
1C
  0
DICTIONARY
  5
104C
102
{ACAD_REACTORS
330
C
102
}
330
C
100
AcDbDictionary
281
     1
  0
ACDBDICTIONARYWDFLT
  5
1045
102
{ACAD_REACTORS
330
C
102
}
330
C
100
AcDbDictionary
281
     1
  3
Normal
350
1046
100
AcDbDictionaryWithDefault
340
1046
  0
DICTIONARY
  5
1049
102
{ACAD_REACTORS
330
C
102
}
330
C
100
AcDbDictionary
281
     1
  3
Standard
350
104A
  0
DICTIONARY
  5
7E5
102
{ACAD_REACTORS
330
C
102
}
330
C
100
AcDbDictionary
281
     1
  3
CTABLESTYLE
350
1063
  3
SORTENTS
350
7E6
  0
LAYOUT
  5
104D
102
{ACAD_REACTORS
330
104B
102
}
330
104B
100
AcDbPlotSettings
  1

  2
A4 EPSON LP-6100.pc3
  4
A4
  6

 40
5.873749732971191
 41
5.873747825622558
 42
5.873748779296875
 43
5.873748779296875
 44
209.9733276367187
 45
297.0106506347656
 46
1.5
 47
1.5
 48
0.0
 49
0.0
140
0.0
141
0.0
142
1.0
143
1.0
 70
 28336
 72
     1
 73
     0
 74
     1
  7
AutoCAD LT 98.ctb
 75
    16
147
1.0
 76
     1
 77
     2
 78
   300
148
0.4192398820396193
149
0.4136107062763586
100
AcDbLayout
  1
Model
 70
     1
 71
     0
 10
0.0
 20
0.0
 11
12.0
 21
9.0
 12
0.0
 22
0.0
 32
0.0
 14
0.0
 24
0.0
 34
0.0
 15
0.0
 25
0.0
 35
0.0
146
0.0
 13
0.0
 23
0.0
 33
0.0
 16
1.0
 26
0.0
 36
0.0
 17
0.0
 27
1.0
 37
0.0
 76
     0
330
18
1001
ACAD_PSEXT
1000
A4 EPSON LP-6100.pc3
1000
EPSON LP-6100
1000
USB002
1000

1070
     0
  0
LAYOUT
  5
104E
102
{ACAD_REACTORS
330
104B
102
}
330
104B
100
AcDbPlotSettings
  1

  2
\\SATO-MATE2\EPSON LP-6100
  4

  6

 40
0.0
 41
0.0
 42
0.0
 43
0.0
 44
0.0
 45
0.0
 46
0.0
 47
0.0
 48
0.0
 49
0.0
140
0.0
141
0.0
142
1.0
143
1.0
 70
   688
 72
     0
 73
     0
 74
     5
  7
AutoCAD LT 98.ctb
 75
    16
147
1.0
 76
     0
 77
     2
 78
   300
148
0.0
149
0.0
100
AcDbLayout
  1
レイアウト1
 70
     1
 71
     1
 10
0.0
 20
0.0
 11
420.0
 21
297.0
 12
0.0
 22
0.0
 32
0.0
 14
1.000000000000000E+20
 24
1.000000000000000E+20
 34
1.000000000000000E+20
 15
-1.000000000000000E+20
 25
-1.000000000000000E+20
 35
-1.000000000000000E+20
146
0.0
 13
0.0
 23
0.0
 33
0.0
 16
1.0
 26
0.0
 36
0.0
 17
0.0
 27
1.0
 37
0.0
 76
     0
330
15
  0
MLINESTYLE
  5
1C
102
{ACAD_REACTORS
330
1B
102
}
330
1B
100
AcDbMlineStyle
  2
STANDARD
 70
     0
  3

 62
   256
 51
90.0
 52
90.0
 71
     2
 49
0.5
 62
   256
  6
BYLAYER
 49
-0.5
 62
   256
  6
BYLAYER
  0
ACDBPLACEHOLDER
  5
1046
102
{ACAD_REACTORS
330
1045
102
}
330
1045
  0
ACAD_PROXY_OBJECT
  5
104A
102
{ACAD_REACTORS
330
1049
102
}
330
1049
100
AcDbProxyObject
 90
      499
 91
      505
 95
  2555929
 70
     0
 93
     1849
310
4214DD185B99185C992420000000000000F83F0000000000003E0FC00000000000004901028000000C1008070000C3001FDFF8000000C1003FBFF000000182007F7FE00000030400FEFFC00000060801FDFF8000000C1003FBFF000000182000000000000000C2020B0000001820100E000186003FBFF000000182007F7FE0
310
0000030400FEFFC00000060801FDFF8000000C1003FBFF000000182007F7FE0000003040000000000000012404160000003040201C00030C007F7FE00000030400FEFFC00000060801FDFF8000000C1003FBFF000000182007F7FE00000030400FEFFC000000608000
340
F
340
F
340
F
 94
        0
  0
DICTIONARYVAR
  5
1063
102
{ACAD_REACTORS
330
7E5
102
}
330
7E5
100
DictionaryVariables
280
     0
  1
STANDARD
  0
DICTIONARYVAR
  5
7E6
102
{ACAD_REACTORS
330
7E5
102
}
330
7E5
100
DictionaryVariables
280
     0
  1
96
  0
ENDSEC
  0
EOF
