  0
SECTION
  2
HEADER
  9
$ACADVER
  1
AC1018
  9
$ACADMAINTVER
 70
     0
  9
$DWGCODEPAGE
  3
ANSI_932
  9
$INSBASE
 10
0.0
 20
0.0
 30
0.0
  9
$EXTMIN
 10
236.4886379941705
 20
171.6235136330668
 30
-0.0015258207003583
  9
$EXTMAX
 10
491.9065729289581
 20
367.0613775925545
 30
0.0000000349246037
  9
$LIMMIN
 10
0.0
 20
0.0
  9
$LIMMAX
 10
420.0
 20
297.0
  9
$ORTHOMODE
 70
     0
  9
$REGENMODE
 70
     1
  9
$FILLMODE
 70
     1
  9
$QTEXTMODE
 70
     0
  9
$MIRRTEXT
 70
     1
  9
$LTSCALE
 40
1.0
  9
$ATTMODE
 70
     1
  9
$TEXTSIZE
 40
2.5
  9
$TRACEWID
 40
1.0
  9
$TEXTSTYLE
  7
STYLE3
  9
$CLAYER
  8
文字
  9
$CELTYPE
  6
BYLAYER
  9
$CECOLOR
 62
   256
  9
$CELTSCALE
 40
1.0
  9
$DISPSILH
 70
     0
  9
$DIMSCALE
 40
1.0
  9
$DIMASZ
 40
2.5
  9
$DIMEXO
 40
0.0
  9
$DIMDLI
 40
3.75
  9
$DIMRND
 40
0.0
  9
$DIMDLE
 40
0.0
  9
$DIMEXE
 40
1.25
  9
$DIMTP
 40
0.0
  9
$DIMTM
 40
0.0
  9
$DIMTXT
 40
2.5
  9
$DIMCEN
 40
2.5
  9
$DIMTSZ
 40
0.0
  9
$DIMTOL
 70
     0
  9
$DIMLIM
 70
     0
  9
$DIMTIH
 70
     0
  9
$DIMTOH
 70
     0
  9
$DIMSE1
 70
     0
  9
$DIMSE2
 70
     0
  9
$DIMTAD
 70
     1
  9
$DIMZIN
 70
     8
  9
$DIMBLK
  1

  9
$DIMASO
 70
     1
  9
$DIMSHO
 70
     1
  9
$DIMPOST
  1

  9
$DIMAPOST
  1

  9
$DIMALT
 70
     0
  9
$DIMALTD
 70
     4
  9
$DIMALTF
 40
0.0394
  9
$DIMLFAC
 40
1.0
  9
$DIMTOFL
 70
     1
  9
$DIMTVP
 40
0.0
  9
$DIMTIX
 70
     0
  9
$DIMSOXD
 70
     0
  9
$DIMSAH
 70
     1
  9
$DIMBLK1
  1
OPEN
  9
$DIMBLK2
  1
OPEN
  9
$DIMSTYLE
  2
STYLE3
  9
$DIMCLRD
 70
     2
  9
$DIMCLRE
 70
     2
  9
$DIMCLRT
 70
     6
  9
$DIMTFAC
 40
1.0
  9
$DIMGAP
 40
0.625
  9
$DIMJUST
 70
     0
  9
$DIMSD1
 70
     0
  9
$DIMSD2
 70
     0
  9
$DIMTOLJ
 70
     1
  9
$DIMTZIN
 70
     0
  9
$DIMALTZ
 70
     0
  9
$DIMALTTZ
 70
     0
  9
$DIMUPT
 70
     0
  9
$DIMDEC
 70
     2
  9
$DIMTDEC
 70
     4
  9
$DIMALTU
 70
     8
  9
$DIMALTTD
 70
     4
  9
$DIMTXSTY
  7
STYLE3
  9
$DIMAUNIT
 70
     0
  9
$DIMADEC
 70
     0
  9
$DIMALTRND
 40
0.0
  9
$DIMAZIN
 70
     0
  9
$DIMDSEP
 70
    46
  9
$DIMATFIT
 70
     3
  9
$DIMFRAC
 70
     0
  9
$DIMLDRBLK
  1

  9
$DIMLUNIT
 70
     2
  9
$DIMLWD
 70
    -2
  9
$DIMLWE
 70
    -2
  9
$DIMTMOVE
 70
     0
  9
$LUNITS
 70
     2
  9
$LUPREC
 70
     4
  9
$SKETCHINC
 40
1.0
  9
$FILLETRAD
 40
0.0
  9
$AUNITS
 70
     0
  9
$AUPREC
 70
     0
  9
$MENU
  1
.
  9
$ELEVATION
 40
0.0
  9
$PELEVATION
 40
0.0
  9
$THICKNESS
 40
0.0
  9
$LIMCHECK
 70
     0
  9
$CHAMFERA
 40
0.3
  9
$CHAMFERB
 40
0.3
  9
$CHAMFERC
 40
20.0
  9
$CHAMFERD
 40
0.0
  9
$SKPOLY
 70
     0
  9
$TDCREATE
 40
2450920.409121760
  9
$TDUCREATE
 40
2450920.034121759
  9
$TDUPDATE
 40
2455378.667328009
  9
$TDUUPDATE
 40
2455378.292328010
  9
$TDINDWG
 40
1.7736508102
  9
$TDUSRTIMER
 40
1.7736508102
  9
$USRTIMER
 70
     1
  9
$ANGBASE
 50
0.0
  9
$ANGDIR
 70
     0
  9
$PDMODE
 70
     0
  9
$PDSIZE
 40
0.0
  9
$PLINEWID
 40
0.0
  9
$SPLFRAME
 70
     0
  9
$SPLINETYPE
 70
     6
  9
$SPLINESEGS
 70
     8
  9
$HANDSEED
  5
1DB9
  9
$SURFTAB1
 70
     6
  9
$SURFTAB2
 70
     6
  9
$SURFTYPE
 70
     6
  9
$SURFU
 70
     6
  9
$SURFV
 70
     6
  9
$UCSBASE
  2

  9
$UCSNAME
  2

  9
$UCSORG
 10
0.0
 20
0.0
 30
0.0
  9
$UCSXDIR
 10
1.0
 20
0.0
 30
0.0
  9
$UCSYDIR
 10
0.0
 20
1.0
 30
0.0
  9
$UCSORTHOREF
  2

  9
$UCSORTHOVIEW
 70
     0
  9
$UCSORGTOP
 10
0.0
 20
0.0
 30
0.0
  9
$UCSORGBOTTOM
 10
0.0
 20
0.0
 30
0.0
  9
$UCSORGLEFT
 10
0.0
 20
0.0
 30
0.0
  9
$UCSORGRIGHT
 10
0.0
 20
0.0
 30
0.0
  9
$UCSORGFRONT
 10
0.0
 20
0.0
 30
0.0
  9
$UCSORGBACK
 10
0.0
 20
0.0
 30
0.0
  9
$PUCSBASE
  2

  9
$PUCSNAME
  2

  9
$PUCSORG
 10
0.0
 20
0.0
 30
0.0
  9
$PUCSXDIR
 10
1.0
 20
0.0
 30
0.0
  9
$PUCSYDIR
 10
0.0
 20
1.0
 30
0.0
  9
$PUCSORTHOREF
  2

  9
$PUCSORTHOVIEW
 70
     0
  9
$PUCSORGTOP
 10
0.0
 20
0.0
 30
0.0
  9
$PUCSORGBOTTOM
 10
0.0
 20
0.0
 30
0.0
  9
$PUCSORGLEFT
 10
0.0
 20
0.0
 30
0.0
  9
$PUCSORGRIGHT
 10
0.0
 20
0.0
 30
0.0
  9
$PUCSORGFRONT
 10
0.0
 20
0.0
 30
0.0
  9
$PUCSORGBACK
 10
0.0
 20
0.0
 30
0.0
  9
$USERI1
 70
     0
  9
$USERI2
 70
     0
  9
$USERI3
 70
     0
  9
$USERI4
 70
     0
  9
$USERI5
 70
     0
  9
$USERR1
 40
0.0
  9
$USERR2
 40
0.0
  9
$USERR3
 40
0.0
  9
$USERR4
 40
0.0
  9
$USERR5
 40
0.0
  9
$WORLDVIEW
 70
     1
  9
$SHADEDGE
 70
     3
  9
$SHADEDIF
 70
    70
  9
$TILEMODE
 70
     1
  9
$MAXACTVP
 70
    48
  9
$PINSBASE
 10
0.0
 20
0.0
 30
0.0
  9
$PLIMCHECK
 70
     0
  9
$PEXTMIN
 10
1.000000000000000E+20
 20
1.000000000000000E+20
 30
1.000000000000000E+20
  9
$PEXTMAX
 10
-1.000000000000000E+20
 20
-1.000000000000000E+20
 30
-1.000000000000000E+20
  9
$PLIMMIN
 10
0.0
 20
0.0
  9
$PLIMMAX
 10
420.0
 20
297.0
  9
$UNITMODE
 70
     0
  9
$VISRETAIN
 70
     1
  9
$PLINEGEN
 70
     0
  9
$PSLTSCALE
 70
     1
  9
$TREEDEPTH
 70
  3020
  9
$CMLSTYLE
  2
STANDARD
  9
$CMLJUST
 70
     0
  9
$CMLSCALE
 40
20.0
  9
$PROXYGRAPHICS
 70
     1
  9
$MEASUREMENT
 70
     1
  9
$CELWEIGHT
370
    -1
  9
$ENDCAPS
280
     0
  9
$JOINSTYLE
280
     0
  9
$LWDISPLAY
290
     0
  9
$INSUNITS
 70
     0
  9
$HYPERLINKBASE
  1

  9
$STYLESHEET
  1
AutoCAD LT 98.ctb
  9
$XEDIT
290
     1
  9
$CEPSNTYPE
380
     0
  9
$PSTYLEMODE
290
     1
  9
$FINGERPRINTGUID
  2
{36A2F265-3686-4DA8-A346-47EBC2970A44}
  9
$VERSIONGUID
  2
{669EC839-DC3F-4CDF-9819-50FF880224E2}
  9
$EXTNAMES
290
     1
  9
$PSVPSCALE
 40
0.0
  9
$OLESTARTUP
290
     0
  9
$SORTENTS
280
    96
  9
$INDEXCTL
280
     0
  9
$HIDETEXT
280
     0
  9
$XCLIPFRAME
290
     0
  9
$HALOGAP
280
     0
  9
$OBSCOLOR
 70
   257
  9
$OBSLTYPE
280
     0
  9
$INTERSECTIONDISPLAY
280
     0
  9
$INTERSECTIONCOLOR
 70
   257
  9
$DIMASSOC
280
     1
  9
$PROJECTNAME
  1

  0
ENDSEC
  0
SECTION
  2
CLASSES
  0
CLASS
  1
DICTIONARYVAR
  2
AcDbDictionaryVar
  3
ObjectDBX Classes
 90
        0
 91
        2
280
     0
281
     0
  0
CLASS
  1
HATCH
  2
AcDbHatch
  3
ObjectDBX Classes
 90
        0
 91
       16
280
     0
281
     1
  0
CLASS
  1
LWPOLYLINE
  2
AcDbPolyline
  3
ObjectDBX Classes
 90
        0
 91
        4
280
     0
281
     1
  0
CLASS
  1
ACDBDICTIONARYWDFLT
  2
AcDbDictionaryWithDefault
  3
ObjectDBX Classes
 90
        0
 91
        1
280
     0
281
     0
  0
CLASS
  1
TABLESTYLE
  2
AcDbTableStyle
  3
ObjectDBX Classes
 90
     2047
 91
        1
280
     0
281
     0
  0
ENDSEC
  0
SECTION
  2
TABLES
  0
TABLE
  2
VPORT
  5
8
330
0
100
AcDbSymbolTable
 70
     2
  0
VPORT
  5
1DB8
330
8
100
AcDbSymbolTableRecord
100
AcDbViewportTableRecord
  2
*Active
 70
     0
 10
0.0
 20
0.0
 11
1.0
 21
1.0
 12
364.1976054615643
 22
269.3424456128107
 13
0.0
 23
0.0
 14
10.0
 24
10.0
 15
10.0
 25
10.0
 16
0.0
 26
0.0
 36
1.0
 17
0.0
 27
0.0
 37
0.0
 40
196.9240834572785
 41
1.530456852791878
 42
50.0
 43
0.0
 44
0.0
 50
0.0
 51
0.0
 71
     0
 72
   100
 73
     1
 74
     1
 75
     0
 76
     0
 77
     0
 78
     0
281
     0
 65
     1
110
0.0
120
0.0
130
0.0
111
1.0
121
0.0
131
0.0
112
0.0
122
1.0
132
0.0
 79
     0
146
0.0
  0
ENDTAB
  0
TABLE
  2
LTYPE
  5
5
330
0
100
AcDbSymbolTable
 70
    12
  0
LTYPE
  5
12
330
5
100
AcDbSymbolTableRecord
100
AcDbLinetypeTableRecord
  2
BYBLOCK
 70
     0
  3

 72
    65
 73
     0
 40
0.0
  0
LTYPE
  5
13
330
5
100
AcDbSymbolTableRecord
100
AcDbLinetypeTableRecord
  2
BYLAYER
 70
     0
  3

 72
    65
 73
     0
 40
0.0
  0
LTYPE
  5
14
330
5
100
AcDbSymbolTableRecord
100
AcDbLinetypeTableRecord
  2
CONTINUOUS
 70
     0
  3
Solid line
 72
    65
 73
     0
 40
0.0
  0
LTYPE
  5
22
330
5
100
AcDbSymbolTableRecord
100
AcDbLinetypeTableRecord
  2
CENTER2
 70
     0
  3
Center (.5x) ___ _ ___ _ ___ _ ___ _ ___ _ ___
 72
    65
 73
     4
 40
28.575
 49
19.05
 74
     0
 49
-3.174999999999999
 74
     0
 49
3.174999999999999
 74
     0
 49
-3.174999999999999
 74
     0
  0
ENDTAB
  0
TABLE
  2
LAYER
  5
2
330
0
100
AcDbSymbolTable
 70
    14
  0
LAYER
  5
E
330
2
100
AcDbSymbolTableRecord
100
AcDbLayerTableRecord
  2
0
 70
     0
 62
     7
  6
CONTINUOUS
370
    -3
390
89E
  0
LAYER
  5
25
330
2
100
AcDbSymbolTableRecord
100
AcDbLayerTableRecord
  2
外形線
 70
     0
 62
     7
  6
CONTINUOUS
370
    -3
390
89E
  0
LAYER
  5
26
330
2
100
AcDbSymbolTableRecord
100
AcDbLayerTableRecord
  2
寸法線
 70
     0
 62
     2
  6
CONTINUOUS
370
    -3
390
89E
  0
LAYER
  5
27
330
2
100
AcDbSymbolTableRecord
100
AcDbLayerTableRecord
  2
中心線
 70
     0
 62
     4
  6
CENTER2
370
    -3
390
89E
  0
LAYER
  5
2B
330
2
100
AcDbSymbolTableRecord
100
AcDbLayerTableRecord
  2
文字
 70
     0
 62
     6
  6
CONTINUOUS
370
    -3
390
89E
  0
LAYER
  5
53
330
2
100
AcDbSymbolTableRecord
100
AcDbLayerTableRecord
  2
DEFPOINTS
 70
     0
 62
     7
  6
CONTINUOUS
290
     0
370
    -3
390
89E
  0
LAYER
  5
A5
330
2
100
AcDbSymbolTableRecord
100
AcDbLayerTableRecord
  2
C
 70
     0
 62
     7
  6
CONTINUOUS
370
    -3
390
89E
  0
LAYER
  5
576
330
2
100
AcDbSymbolTableRecord
100
AcDbLayerTableRecord
  2
ROGO
 70
     0
 62
     6
  6
CONTINUOUS
370
    -3
390
89E
  0
ENDTAB
  0
TABLE
  2
STYLE
  5
3
330
0
100
AcDbSymbolTable
 70
     8
  0
STYLE
  5
F
330
3
100
AcDbSymbolTableRecord
100
AcDbTextStyleTableRecord
  2
STANDARD
 70
     0
 40
0.0
 41
1.0
 50
0.0
 71
     0
 42
2.5
  3
txt
  4

  0
STYLE
  5
3F
330
3
100
AcDbSymbolTableRecord
100
AcDbTextStyleTableRecord
  2
STYLE3
 70
     0
 40
0.0
 41
1.0
 50
0.0
 71
     0
 42
2.5
  3
romans.shx
  4
bigfont.shx
  0
STYLE
  5
578
330
3
100
AcDbSymbolTableRecord
100
AcDbTextStyleTableRecord
  2
STYLE4
 70
     0
 40
0.0
 41
1.0
 50
0.0
 71
     0
 42
5.0
  3
romans.shx
  4
bigfont.shx
  0
ENDTAB
  0
TABLE
  2
VIEW
  5
6
330
0
100
AcDbSymbolTable
 70
     0
  0
ENDTAB
  0
TABLE
  2
UCS
  5
7
330
0
100
AcDbSymbolTable
 70
     0
  0
ENDTAB
  0
TABLE
  2
APPID
  5
9
330
0
100
AcDbSymbolTable
 70
     2
  0
APPID
  5
10
330
9
100
AcDbSymbolTableRecord
100
AcDbRegAppTableRecord
  2
ACAD
 70
     0
  0
APPID
  5
E7F
330
9
100
AcDbSymbolTableRecord
100
AcDbRegAppTableRecord
  2
ACAD_PSEXT
 70
     0
  0
ENDTAB
  0
TABLE
  2
DIMSTYLE
  5
A
330
0
100
AcDbSymbolTable
 70
     4
100
AcDbDimStyleTable
 71
     1
340
8F
  0
DIMSTYLE
105
1D
330
A
100
AcDbSymbolTableRecord
100
AcDbDimStyleTableRecord
  2
STANDARD
 70
     0
 41
2.5
 42
0.625
 43
3.75
 44
1.25
 73
     0
 74
     0
 77
     1
 78
     8
140
2.5
141
2.5
143
0.0394
147
0.625
171
     4
172
     1
273
     8
274
     4
277
     6
340
F
  0
DIMSTYLE
105
8F
102
{ACAD_REACTORS
330
2DB
330
333
330
33F
330
3C3
330
3DD
330
3EA
330
45A
330
467
330
473
330
53D
330
7F0
330
7F1
330
7F2
330
7F3
330
87F
330
7B1
330
7B2
330
7B3
330
7B4
330
878
102
}
330
A
100
AcDbSymbolTableRecord
100
AcDbDimStyleTableRecord
  2
STYLE3
 70
     0
 41
2.5
 42
0.0
 43
3.75
 44
1.25
 73
     0
 74
     0
 77
     1
 78
     8
140
2.5
141
2.5
143
0.0394
147
0.625
171
     4
172
     1
173
     1
176
     2
177
     2
178
     6
271
     1
273
     8
274
     4
340
3F
341
45
343
45
344
45
  0
ENDTAB
  0
TABLE
  2
BLOCK_RECORD
  5
1
330
0
100
AcDbSymbolTable
 70
    30
  0
BLOCK_RECORD
  5
18
330
1
100
AcDbSymbolTableRecord
100
AcDbBlockTableRecord
  2
*MODEL_SPACE
340
8A5
  0
BLOCK_RECORD
  5
15
330
1
100
AcDbSymbolTableRecord
100
AcDbBlockTableRecord
  2
*PAPER_SPACE
340
8A6
  0
BLOCK_RECORD
  5
45
330
1
100
AcDbSymbolTableRecord
100
AcDbBlockTableRecord
  2
_OPEN
340
0
102
{BLKREFS
331
380
331
381
331
477
331
478
331
47F
331
480
331
753
331
754
331
75F
331
760
331
76B
331
76C
331
777
331
778
331
86E
331
86F
331
1D29
331
1D2A
331
1D32
331
1D33
331
1D3B
331
1D3C
331
1D44
331
1D45
331
1D4D
331
1D4E
331
1D56
331
1D57
331
1D5E
331
1D5F
331
1D67
331
1D68
331
1D6F
331
1D70
331
1D78
331
1D79
331
1D83
331
1D84
331
1D8D
331
1D8E
331
1D96
331
1D97
331
1D9F
331
1DA0
331
1DA7
331
1DA8
102
}
  0
BLOCK_RECORD
  5
2CF
330
1
100
AcDbSymbolTableRecord
100
AcDbBlockTableRecord
  2
*D3
340
0
  0
BLOCK_RECORD
  5
328
330
1
100
AcDbSymbolTableRecord
100
AcDbBlockTableRecord
  2
*D4
340
0
  0
BLOCK_RECORD
  5
334
330
1
100
AcDbSymbolTableRecord
100
AcDbBlockTableRecord
  2
*D5
340
0
  0
BLOCK_RECORD
  5
3B7
330
1
100
AcDbSymbolTableRecord
100
AcDbBlockTableRecord
  2
*D6
340
0
  0
BLOCK_RECORD
  5
3D1
330
1
100
AcDbSymbolTableRecord
100
AcDbBlockTableRecord
  2
*D7
340
0
  0
BLOCK_RECORD
  5
3DE
330
1
100
AcDbSymbolTableRecord
100
AcDbBlockTableRecord
  2
*D8
340
0
  0
BLOCK_RECORD
  5
44E
330
1
100
AcDbSymbolTableRecord
100
AcDbBlockTableRecord
  2
*D9
340
0
  0
BLOCK_RECORD
  5
45B
330
1
100
AcDbSymbolTableRecord
100
AcDbBlockTableRecord
  2
*D10
340
0
  0
BLOCK_RECORD
  5
468
330
1
100
AcDbSymbolTableRecord
100
AcDbBlockTableRecord
  2
*D11
340
0
  0
BLOCK_RECORD
  5
52F
330
1
100
AcDbSymbolTableRecord
100
AcDbBlockTableRecord
  2
*D14
340
0
  0
BLOCK_RECORD
  5
7FB
330
1
100
AcDbSymbolTableRecord
100
AcDbBlockTableRecord
  2
*D22
340
0
  0
BLOCK_RECORD
  5
807
330
1
100
AcDbSymbolTableRecord
100
AcDbBlockTableRecord
  2
*D23
340
0
  0
BLOCK_RECORD
  5
813
330
1
100
AcDbSymbolTableRecord
100
AcDbBlockTableRecord
  2
*D24
340
0
  0
BLOCK_RECORD
  5
81F
330
1
100
AcDbSymbolTableRecord
100
AcDbBlockTableRecord
  2
*D25
340
0
  0
BLOCK_RECORD
  5
882
330
1
100
AcDbSymbolTableRecord
100
AcDbBlockTableRecord
  2
*D28
340
0
  0
ENDTAB
  0
ENDSEC
  0
SECTION
  2
BLOCKS
  0
BLOCK
  5
19
330
18
100
AcDbEntity
  8
0
100
AcDbBlockBegin
  2
*MODEL_SPACE
 70
     0
 10
0.0
 20
0.0
 30
0.0
  3
*MODEL_SPACE
  1

  0
ENDBLK
  5
1A
330
18
100
AcDbEntity
  8
0
100
AcDbBlockEnd
  0
BLOCK
  5
16
330
15
100
AcDbEntity
 67
     1
  8
0
100
AcDbBlockBegin
  2
*PAPER_SPACE
 70
     0
 10
0.0
 20
0.0
 30
0.0
  3
*PAPER_SPACE
  1

  0
ENDBLK
  5
17
330
15
100
AcDbEntity
 67
     1
  8
0
100
AcDbBlockEnd
  0
BLOCK
  5
46
330
45
100
AcDbEntity
  8
0
100
AcDbBlockBegin
  2
_OPEN
 70
     0
 10
0.0
 20
0.0
 30
0.0
  3
_OPEN
  1

  0
LINE
  5
47
330
45
100
AcDbEntity
  8
0
  6
ByBlock
 62
     0
100
AcDbLine
 10
-1.0
 20
0.1666666666666666
 30
0.0
 11
0.0
 21
0.0
 31
0.0
  0
LINE
  5
48
330
45
100
AcDbEntity
  8
0
  6
ByBlock
 62
     0
100
AcDbLine
 10
0.0
 20
0.0
 30
0.0
 11
-1.0
 21
-0.1666666666666666
 31
0.0
  0
LINE
  5
49
330
45
100
AcDbEntity
  8
0
  6
ByBlock
 62
     0
100
AcDbLine
 10
0.0
 20
0.0
 30
0.0
 11
-1.0
 21
0.0
 31
0.0
  0
ENDBLK
  5
4A
330
45
100
AcDbEntity
  8
0
100
AcDbBlockEnd
  0
BLOCK
  5
731
330
2CF
100
AcDbEntity
  8
0
100
AcDbBlockBegin
  2
*D3
 70
     1
 10
0.0
 20
0.0
 30
0.0
  3
*D3
  1

  0
LINE
  5
1D93
330
2CF
100
AcDbEntity
  8
外形線
 62
     2
370
    -2
100
AcDbLine
 10
327.145162807644
 20
329.2510489274178
 30
0.0
 11
327.145162807644
 21
337.9026503730719
 31
0.0
  0
LINE
  5
1D94
330
2CF
100
AcDbEntity
  8
外形線
 62
     2
370
    -2
100
AcDbLine
 10
337.1451628076439
 20
329.2510489274178
 30
0.0
 11
337.1451628076439
 21
337.9026503730719
 31
0.0
  0
LINE
  5
1D95
330
2CF
100
AcDbEntity
  8
外形線
 62
     2
370
    -2
100
AcDbLine
 10
329.6451628076439
 20
336.6526503730719
 30
0.0
 11
334.6451628076439
 21
336.6526503730719
 31
0.0
  0
INSERT
  5
1D96
330
2CF
100
AcDbEntity
  8
外形線
 62
     2
370
    -2
100
AcDbBlockReference
  2
_OPEN
 10
327.145162807644
 20
336.6526503730719
 30
0.0
 41
2.5
 42
2.5
 43
2.5
 50
180.0
  0
INSERT
  5
1D97
330
2CF
100
AcDbEntity
  8
外形線
 62
     2
370
    -2
100
AcDbBlockReference
  2
_OPEN
 10
337.1451628076439
 20
336.6526503730719
 30
0.0
 41
2.5
 42
2.5
 43
2.5
  0
MTEXT
  5
1D98
330
2CF
100
AcDbEntity
  8
外形線
 62
     6
100
AcDbMText
 10
332.1451628076439
 20
338.5276503730719
 30
0.0
 40
2.5
 41
0.0
 71
     5
 72
     1
  1
\A1;%%C10
  7
STYLE3
 73
     1
 44
1.0
  0
POINT
  5
1D99
330
2CF
100
AcDbEntity
  8
DEFPOINTS
 62
     0
100
AcDbPoint
 10
327.145162807644
 20
329.2510489274178
 30
0.0
  0
POINT
  5
1D9A
330
2CF
100
AcDbEntity
  8
DEFPOINTS
 62
     0
100
AcDbPoint
 10
337.1451628076439
 20
329.2510489274178
 30
0.0
  0
POINT
  5
1D9B
330
2CF
100
AcDbEntity
  8
DEFPOINTS
 62
     0
100
AcDbPoint
 10
337.1451628076439
 20
336.6526503730719
 30
0.0
  0
ENDBLK
  5
73B
330
2CF
100
AcDbEntity
  8
0
100
AcDbBlockEnd
  0
BLOCK
  5
329
330
328
100
AcDbEntity
  8
0
100
AcDbBlockBegin
  2
*D4
 70
     1
 10
0.0
 20
0.0
 30
0.0
  3
*D4
  1

  0
LINE
  5
1D6D
330
328
100
AcDbEntity
  8
外形線
 62
     2
370
    -2
100
AcDbLine
 10
328.3951628076439
 20
225.3510489274178
 30
0.0
 11
294.2084642293045
 21
225.3510489274179
 31
0.0
  0
LINE
  5
1D6E
330
328
100
AcDbEntity
  8
外形線
 62
     2
370
    -2
100
AcDbLine
 10
295.4584642293045
 20
243.8510489274179
 30
0.0
 11
295.4584642293045
 21
227.8510489274179
 31
0.0
  0
INSERT
  5
1D6F
330
328
100
AcDbEntity
  8
外形線
 62
     2
370
    -2
100
AcDbBlockReference
  2
_OPEN
 10
295.4584642293045
 20
246.3510489274179
 30
0.0
 41
2.5
 42
2.5
 43
2.5
 50
90.0
  0
INSERT
  5
1D70
330
328
100
AcDbEntity
  8
外形線
 62
     2
370
    -2
100
AcDbBlockReference
  2
_OPEN
 10
295.4584642293045
 20
225.3510489274179
 30
0.0
 41
2.5
 42
2.5
 43
2.5
 50
270.0
  0
MTEXT
  5
1D71
330
328
100
AcDbEntity
  8
外形線
 62
     6
100
AcDbMText
 10
293.5834642293044
 20
235.8510489274179
 30
0.0
 40
2.5
 41
0.0
 71
     5
 72
     1
  1
\A1;21
  7
STYLE3
 11
0.0000000000000001
 21
1.0
 31
0.0
 73
     1
 44
1.0
  0
POINT
  5
1D72
330
328
100
AcDbEntity
  8
DEFPOINTS
 62
     0
100
AcDbPoint
 10
326.1451628076439
 20
246.3510489274179
 30
0.0
  0
POINT
  5
1D73
330
328
100
AcDbEntity
  8
DEFPOINTS
 62
     0
100
AcDbPoint
 10
328.3951628076439
 20
225.3510489274178
 30
0.0
  0
POINT
  5
1D74
330
328
100
AcDbEntity
  8
DEFPOINTS
 62
     0
100
AcDbPoint
 10
295.4584642293045
 20
225.3510489274179
 30
0.0
  0
ENDBLK
  5
332
330
328
100
AcDbEntity
  8
0
100
AcDbBlockEnd
  0
BLOCK
  5
857
330
334
100
AcDbEntity
  8
0
100
AcDbBlockBegin
  2
*D5
 70
     1
 10
0.0
 20
0.0
 30
0.0
  3
*D5
  1

  0
LINE
  5
1D5C
330
334
100
AcDbEntity
  8
外形線
 62
     2
370
    -2
100
AcDbLine
 10
329.8954124848358
 20
211.4510489274179
 30
0.0
 11
294.2084642293045
 21
211.4510489274179
 31
0.0
  0
LINE
  5
1D5D
330
334
100
AcDbEntity
  8
外形線
 62
     2
370
    -2
100
AcDbLine
 10
295.4584642293045
 20
222.8510489274179
 30
0.0
 11
295.4584642293045
 21
213.9510489274179
 31
0.0
  0
INSERT
  5
1D5E
330
334
100
AcDbEntity
  8
外形線
 62
     2
370
    -2
100
AcDbBlockReference
  2
_OPEN
 10
295.4584642293045
 20
225.3510489274179
 30
0.0
 41
2.5
 42
2.5
 43
2.5
 50
90.0
  0
INSERT
  5
1D5F
330
334
100
AcDbEntity
  8
外形線
 62
     2
370
    -2
100
AcDbBlockReference
  2
_OPEN
 10
295.4584642293045
 20
211.4510489274179
 30
0.0
 41
2.5
 42
2.5
 43
2.5
 50
270.0
  0
MTEXT
  5
1D60
330
334
100
AcDbEntity
  8
外形線
 62
     6
100
AcDbMText
 10
293.5834642293044
 20
218.4010489274179
 30
0.0
 40
2.5
 41
0.0
 71
     5
 72
     1
  1
\A1;13.9
  7
STYLE3
 11
0.0000000000000001
 21
1.0
 31
0.0
 73
     1
 44
1.0
  0
POINT
  5
1D61
330
334
100
AcDbEntity
  8
DEFPOINTS
 62
     0
100
AcDbPoint
 10
328.3951628076439
 20
225.3510489274178
 30
0.0
  0
POINT
  5
1D62
330
334
100
AcDbEntity
  8
DEFPOINTS
 62
     0
100
AcDbPoint
 10
329.8954124848358
 20
211.4510489274179
 30
0.0
  0
POINT
  5
1D63
330
334
100
AcDbEntity
  8
DEFPOINTS
 62
     0
100
AcDbPoint
 10
295.4584642293045
 20
211.4510489274179
 30
0.0
  0
ENDBLK
  5
860
330
334
100
AcDbEntity
  8
0
100
AcDbBlockEnd
  0
BLOCK
  5
442
330
3B7
100
AcDbEntity
  8
0
100
AcDbBlockBegin
  2
*D6
 70
     1
 10
0.0
 20
0.0
 30
0.0
  3
*D6
  1

  0
LINE
  5
1D9C
330
3B7
100
AcDbEntity
  8
外形線
 62
     2
370
    -2
100
AcDbLine
 10
425.5212355068858
 20
306.7510489274178
 30
0.0
 11
436.6662427245914
 21
306.7510489274178
 31
0.0
  0
LINE
  5
1D9D
330
3B7
100
AcDbEntity
  8
外形線
 62
     2
370
    -2
100
AcDbLine
 10
425.5212355068858
 20
247.9510489274179
 30
0.0
 11
436.6662427245914
 21
247.9510489274179
 31
0.0
  0
LINE
  5
1D9E
330
3B7
100
AcDbEntity
  8
外形線
 62
     2
370
    -2
100
AcDbLine
 10
435.4162427245914
 20
304.2510489274178
 30
0.0
 11
435.4162427245914
 21
250.4510489274179
 31
0.0
  0
INSERT
  5
1D9F
330
3B7
100
AcDbEntity
  8
外形線
 62
     2
370
    -2
100
AcDbBlockReference
  2
_OPEN
 10
435.4162427245914
 20
306.7510489274178
 30
0.0
 41
2.5
 42
2.5
 43
2.5
 50
90.0
  0
INSERT
  5
1DA0
330
3B7
100
AcDbEntity
  8
外形線
 62
     2
370
    -2
100
AcDbBlockReference
  2
_OPEN
 10
435.4162427245914
 20
247.9510489274179
 30
0.0
 41
2.5
 42
2.5
 43
2.5
 50
270.0
  0
MTEXT
  5
1DA1
330
3B7
100
AcDbEntity
  8
外形線
 62
     6
100
AcDbMText
 10
433.5412427245914
 20
277.3510489274179
 30
0.0
 40
2.5
 41
0.0
 71
     5
 72
     1
  1
\A1;%%C58.8
  7
STYLE3
 11
0.0000000000000001
 21
1.0
 31
0.0
 73
     1
 44
1.0
  0
POINT
  5
1DA2
330
3B7
100
AcDbEntity
  8
DEFPOINTS
 62
     0
100
AcDbPoint
 10
425.5212355068858
 20
306.7510489274178
 30
0.0
  0
POINT
  5
1DA3
330
3B7
100
AcDbEntity
  8
DEFPOINTS
 62
     0
100
AcDbPoint
 10
425.5212355068858
 20
247.9510489274179
 30
0.0
  0
POINT
  5
1DA4
330
3B7
100
AcDbEntity
  8
DEFPOINTS
 62
     0
100
AcDbPoint
 10
435.4162427245914
 20
247.9510489274179
 30
0.0
  0
ENDBLK
  5
44C
330
3B7
100
AcDbEntity
  8
0
100
AcDbBlockEnd
  0
BLOCK
  5
437
330
3D1
100
AcDbEntity
  8
0
100
AcDbBlockBegin
  2
*D7
 70
     1
 10
0.0
 20
0.0
 30
0.0
  3
*D7
  1

  0
LINE
  5
1D41
330
3D1
100
AcDbEntity
  8
外形線
 62
     2
370
    -2
100
AcDbLine
 10
394.5212355068858
 20
307.3510489274178
 30
0.0
 11
382.1094629859519
 21
307.3510489274179
 31
0.0
  0
LINE
  5
1D42
330
3D1
100
AcDbEntity
  8
外形線
 62
     2
370
    -2
100
AcDbLine
 10
394.5212355068858
 20
247.3510489274179
 30
0.0
 11
382.1094629859519
 21
247.3510489274179
 31
0.0
  0
LINE
  5
1D43
330
3D1
100
AcDbEntity
  8
外形線
 62
     2
370
    -2
100
AcDbLine
 10
383.3594629859519
 20
304.8510489274179
 30
0.0
 11
383.3594629859519
 21
249.8510489274179
 31
0.0
  0
INSERT
  5
1D44
330
3D1
100
AcDbEntity
  8
外形線
 62
     2
370
    -2
100
AcDbBlockReference
  2
_OPEN
 10
383.3594629859519
 20
307.3510489274179
 30
0.0
 41
2.5
 42
2.5
 43
2.5
 50
90.0
  0
INSERT
  5
1D45
330
3D1
100
AcDbEntity
  8
外形線
 62
     2
370
    -2
100
AcDbBlockReference
  2
_OPEN
 10
383.3594629859519
 20
247.3510489274179
 30
0.0
 41
2.5
 42
2.5
 43
2.5
 50
270.0
  0
MTEXT
  5
1D46
330
3D1
100
AcDbEntity
  8
外形線
 62
     6
100
AcDbMText
 10
381.4844629859519
 20
277.3510489274179
 30
0.0
 40
2.5
 41
0.0
 71
     5
 72
     1
  1
\A1;%%C60
  7
STYLE3
 11
0.0000000000000001
 21
1.0
 31
0.0
 73
     1
 44
1.0
  0
POINT
  5
1D47
330
3D1
100
AcDbEntity
  8
DEFPOINTS
 62
     0
100
AcDbPoint
 10
394.5212355068858
 20
307.3510489274178
 30
0.0
  0
POINT
  5
1D48
330
3D1
100
AcDbEntity
  8
DEFPOINTS
 62
     0
100
AcDbPoint
 10
394.5212355068858
 20
247.3510489274179
 30
0.0
  0
POINT
  5
1D49
330
3D1
100
AcDbEntity
  8
DEFPOINTS
 62
     0
100
AcDbPoint
 10
383.3594629859519
 20
247.3510489274179
 30
0.0
  0
ENDBLK
  5
441
330
3D1
100
AcDbEntity
  8
0
100
AcDbBlockEnd
  0
BLOCK
  5
6D2
330
3DE
100
AcDbEntity
  8
0
100
AcDbBlockBegin
  2
*D8
 70
     1
 10
0.0
 20
0.0
 30
0.0
  3
*D8
  1

  0
LINE
  5
1D2F
330
3DE
100
AcDbEntity
  8
外形線
 62
     2
370
    -2
100
AcDbLine
 10
391.9237735713672
 20
255.3510489274179
 30
0.0
 11
391.9237735713672
 21
217.0075279024516
 31
0.0
  0
LINE
  5
1D30
330
3DE
100
AcDbEntity
  8
外形線
 62
     2
370
    -2
100
AcDbLine
 10
416.0212355068857
 20
216.361038523121
 30
0.0
 11
416.0212355068857
 21
219.5075279024516
 31
0.0
  0
LINE
  5
1D31
330
3DE
100
AcDbEntity
  8
外形線
 62
     2
370
    -2
100
AcDbLine
 10
394.4237735713672
 20
218.2575279024515
 30
0.0
 11
413.5212355068857
 21
218.2575279024515
 31
0.0
  0
INSERT
  5
1D32
330
3DE
100
AcDbEntity
  8
外形線
 62
     2
370
    -2
100
AcDbBlockReference
  2
_OPEN
 10
391.9237735713672
 20
218.2575279024515
 30
0.0
 41
2.5
 42
2.5
 43
2.5
 50
180.0
  0
INSERT
  5
1D33
330
3DE
100
AcDbEntity
  8
外形線
 62
     2
370
    -2
100
AcDbBlockReference
  2
_OPEN
 10
416.0212355068857
 20
218.2575279024515
 30
0.0
 41
2.5
 42
2.5
 43
2.5
  0
MTEXT
  5
1D34
330
3DE
100
AcDbEntity
  8
外形線
 62
     6
100
AcDbMText
 10
403.9725045391264
 20
220.1325279024516
 30
0.0
 40
2.5
 41
0.0
 71
     5
 72
     1
  1
\A1;24.1
  7
STYLE3
 73
     1
 44
1.0
  0
POINT
  5
1D35
330
3DE
100
AcDbEntity
  8
DEFPOINTS
 62
     0
100
AcDbPoint
 10
391.9237735713672
 20
255.3510489274179
 30
0.0
  0
POINT
  5
1D36
330
3DE
100
AcDbEntity
  8
DEFPOINTS
 62
     0
100
AcDbPoint
 10
416.0212355068857
 20
216.361038523121
 30
0.0
  0
POINT
  5
1D37
330
3DE
100
AcDbEntity
  8
DEFPOINTS
 62
     0
100
AcDbPoint
 10
416.0212355068857
 20
218.2575279024515
 30
0.0
  0
ENDBLK
  5
6DC
330
3DE
100
AcDbEntity
  8
0
100
AcDbBlockEnd
  0
BLOCK
  5
73C
330
44E
100
AcDbEntity
  8
0
100
AcDbBlockBegin
  2
*D9
 70
     1
 10
0.0
 20
0.0
 30
0.0
  3
*D9
  1

  0
LINE
  5
1D38
330
44E
100
AcDbEntity
  8
外形線
 62
     2
370
    -2
100
AcDbLine
 10
394.5212355068858
 20
307.3510489274179
 30
0.0
 11
394.5212355068858
 21
344.0292931343838
 31
0.0
  0
LINE
  5
1D39
330
44E
100
AcDbEntity
  8
外形線
 62
     2
370
    -2
100
AcDbLine
 10
425.5212355068858
 20
306.7510489274178
 30
0.0
 11
425.5212355068858
 21
344.0292931343838
 31
0.0
  0
LINE
  5
1D3A
330
44E
100
AcDbEntity
  8
外形線
 62
     2
370
    -2
100
AcDbLine
 10
397.0212355068858
 20
342.7792931343838
 30
0.0
 11
423.0212355068857
 21
342.7792931343838
 31
0.0
  0
INSERT
  5
1D3B
330
44E
100
AcDbEntity
  8
外形線
 62
     2
370
    -2
100
AcDbBlockReference
  2
_OPEN
 10
394.5212355068858
 20
342.7792931343838
 30
0.0
 41
2.5
 42
2.5
 43
2.5
 50
180.0
  0
INSERT
  5
1D3C
330
44E
100
AcDbEntity
  8
外形線
 62
     2
370
    -2
100
AcDbBlockReference
  2
_OPEN
 10
425.5212355068858
 20
342.7792931343838
 30
0.0
 41
2.5
 42
2.5
 43
2.5
  0
MTEXT
  5
1D3D
330
44E
100
AcDbEntity
  8
外形線
 62
     6
100
AcDbMText
 10
410.0212355068857
 20
344.6542931343838
 30
0.0
 40
2.5
 41
0.0
 71
     5
 72
     1
  1
\A1;31
  7
STYLE3
 73
     1
 44
1.0
  0
POINT
  5
1D3E
330
44E
100
AcDbEntity
  8
DEFPOINTS
 62
     0
100
AcDbPoint
 10
394.5212355068858
 20
307.3510489274179
 30
0.0
  0
POINT
  5
1D3F
330
44E
100
AcDbEntity
  8
DEFPOINTS
 62
     0
100
AcDbPoint
 10
425.5212355068858
 20
306.7510489274178
 30
0.0
  0
POINT
  5
1D40
330
44E
100
AcDbEntity
  8
DEFPOINTS
 62
     0
100
AcDbPoint
 10
425.5212355068858
 20
342.7792931343838
 30
0.0
  0
ENDBLK
  5
746
330
44E
100
AcDbEntity
  8
0
100
AcDbBlockEnd
  0
BLOCK
  5
45C
330
45B
100
AcDbEntity
  8
0
100
AcDbBlockBegin
  2
*D10
 70
     1
 10
0.0
 20
0.0
 30
0.0
  3
*D10
  1

  0
LINE
  5
1D26
330
45B
100
AcDbEntity
  8
外形線
 62
     2
370
    -2
100
AcDbLine
 10
394.5212355068858
 20
325.9538943655261
 30
0.0
 11
394.5212355068858
 21
338.0654259764635
 31
0.0
  0
LINE
  5
1D27
330
45B
100
AcDbEntity
  8
外形線
 62
     2
370
    -2
100
AcDbLine
 10
416.0212355068857
 20
333.4384677096892
 30
0.0
 11
416.0212355068857
 21
338.0654259764635
 31
0.0
  0
LINE
  5
1D28
330
45B
100
AcDbEntity
  8
外形線
 62
     2
370
    -2
100
AcDbLine
 10
397.0212355068858
 20
336.8154259764635
 30
0.0
 11
413.5212355068857
 21
336.8154259764635
 31
0.0
  0
INSERT
  5
1D29
330
45B
100
AcDbEntity
  8
外形線
 62
     2
370
    -2
100
AcDbBlockReference
  2
_OPEN
 10
394.5212355068858
 20
336.8154259764635
 30
0.0
 41
2.5
 42
2.5
 43
2.5
 50
180.0
  0
INSERT
  5
1D2A
330
45B
100
AcDbEntity
  8
外形線
 62
     2
370
    -2
100
AcDbBlockReference
  2
_OPEN
 10
416.0212355068857
 20
336.8154259764635
 30
0.0
 41
2.5
 42
2.5
 43
2.5
  0
MTEXT
  5
1D2B
330
45B
100
AcDbEntity
  8
外形線
 62
     6
100
AcDbMText
 10
405.2712355068857
 20
338.6904259764635
 30
0.0
 40
2.5
 41
0.0
 71
     5
 72
     1
  1
\A1;21.5
  7
STYLE3
 73
     1
 44
1.0
  0
POINT
  5
1D2C
330
45B
100
AcDbEntity
  8
DEFPOINTS
 62
     0
100
AcDbPoint
 10
394.5212355068858
 20
325.9538943655261
 30
0.0
  0
POINT
  5
1D2D
330
45B
100
AcDbEntity
  8
DEFPOINTS
 62
     0
100
AcDbPoint
 10
416.0212355068857
 20
333.4384677096892
 30
0.0
  0
POINT
  5
1D2E
330
45B
100
AcDbEntity
  8
DEFPOINTS
 62
     0
100
AcDbPoint
 10
416.0212355068857
 20
336.8154259764635
 30
0.0
  0
ENDBLK
  5
466
330
45B
100
AcDbEntity
  8
0
100
AcDbBlockEnd
  0
BLOCK
  5
469
330
468
100
AcDbEntity
  8
0
100
AcDbBlockBegin
  2
*D11
 70
     1
 10
0.0
 20
0.0
 30
0.0
  3
*D11
  1

  0
LINE
  5
1DA5
330
468
100
AcDbEntity
  8
外形線
 62
     2
370
    -2
100
AcDbLine
 10
425.5212355068858
 20
333.0742317801935
 30
0.0
 11
425.5212355068858
 21
338.0654259764635
 31
0.0
  0
LINE
  5
1DA6
330
468
100
AcDbEntity
  8
外形線
 62
     2
370
    -2
100
AcDbLine
 10
418.5212355068857
 20
336.8154259764635
 30
0.0
 11
423.0212355068857
 21
336.8154259764635
 31
0.0
  0
INSERT
  5
1DA7
330
468
100
AcDbEntity
  8
外形線
 62
     2
370
    -2
100
AcDbBlockReference
  2
_OPEN
 10
416.0212355068857
 20
336.8154259764635
 30
0.0
 41
2.5
 42
2.5
 43
2.5
 50
180.0
  0
INSERT
  5
1DA8
330
468
100
AcDbEntity
  8
外形線
 62
     2
370
    -2
100
AcDbBlockReference
  2
_OPEN
 10
425.5212355068858
 20
336.8154259764635
 30
0.0
 41
2.5
 42
2.5
 43
2.5
  0
MTEXT
  5
1DA9
330
468
100
AcDbEntity
  8
外形線
 62
     6
100
AcDbMText
 10
420.7712355068857
 20
338.6904259764635
 30
0.0
 40
2.5
 41
0.0
 71
     5
 72
     1
  1
\A1;9.5
  7
STYLE3
 73
     1
 44
1.0
  0
POINT
  5
1DAA
330
468
100
AcDbEntity
  8
DEFPOINTS
 62
     0
100
AcDbPoint
 10
416.0212355068857
 20
333.4384677096892
 30
0.0
  0
POINT
  5
1DAB
330
468
100
AcDbEntity
  8
DEFPOINTS
 62
     0
100
AcDbPoint
 10
425.5212355068858
 20
333.0742317801935
 30
0.0
  0
POINT
  5
1DAC
330
468
100
AcDbEntity
  8
DEFPOINTS
 62
     0
100
AcDbPoint
 10
425.5212355068858
 20
336.8154259764635
 30
0.0
  0
ENDBLK
  5
472
330
468
100
AcDbEntity
  8
0
100
AcDbBlockEnd
  0
BLOCK
  5
53E
330
52F
100
AcDbEntity
  8
0
100
AcDbBlockBegin
  2
*D14
 70
     1
 10
0.0
 20
0.0
 30
0.0
  3
*D14
  1

  0
LINE
  5
1D7E
330
52F
100
AcDbEntity
  8
文字
 62
     2
370
    -2
100
AcDbLine
 10
330.1451628076439
 20
219.9498856303816
 30
0.0
 11
330.1451628076439
 21
216.8330598492087
 31
0.0
  0
LINE
  5
1D7F
330
52F
100
AcDbEntity
  8
文字
 62
     2
370
    -2
100
AcDbLine
 10
334.1451628076439
 20
219.4407512437071
 30
0.0
 11
334.1451628076439
 21
216.8330598492087
 31
0.0
  0
LINE
  5
1D80
330
52F
100
AcDbEntity
  8
文字
 62
     2
370
    -2
100
AcDbLine
 10
327.6451628076439
 20
218.0830598492088
 30
0.0
 11
325.145162807644
 21
218.0830598492088
 31
0.0
  0
LINE
  5
1D81
330
52F
100
AcDbEntity
  8
文字
 62
     2
370
    -2
100
AcDbLine
 10
336.6451628076439
 20
218.0830598492088
 30
0.0
 11
345.0380199505011
 21
218.0830598492088
 31
0.0
  0
LINE
  5
1D82
330
52F
100
AcDbEntity
  8
文字
 62
     2
370
    -2
100
AcDbLine
 10
330.1451628076439
 20
218.0830598492088
 30
0.0
 11
334.1451628076439
 21
218.0830598492088
 31
0.0
  0
INSERT
  5
1D83
330
52F
100
AcDbEntity
  8
文字
 62
     2
370
    -2
100
AcDbBlockReference
  2
_OPEN
 10
330.1451628076439
 20
218.0830598492088
 30
0.0
 41
2.5
 42
2.5
 43
2.5
  0
INSERT
  5
1D84
330
52F
100
AcDbEntity
  8
文字
 62
     2
370
    -2
100
AcDbBlockReference
  2
_OPEN
 10
334.1451628076439
 20
218.0830598492088
 30
0.0
 41
2.5
 42
2.5
 43
2.5
 50
180.0
  0
MTEXT
  5
1D85
330
52F
100
AcDbEntity
  8
文字
 62
     6
100
AcDbMText
 10
342.0915913790725
 20
219.9580598492087
 30
0.0
 40
2.5
 41
0.0
 71
     5
 72
     1
  1
\A1;φ4
  7
STYLE3
 73
     1
 44
1.0
  0
POINT
  5
1D86
330
52F
100
AcDbEntity
  8
DEFPOINTS
 62
     0
100
AcDbPoint
 10
330.1451628076439
 20
219.9498856303816
 30
0.0
  0
POINT
  5
1D87
330
52F
100
AcDbEntity
  8
DEFPOINTS
 62
     0
100
AcDbPoint
 10
334.1451628076439
 20
219.4407512437071
 30
0.0
  0
POINT
  5
1D88
330
52F
100
AcDbEntity
  8
DEFPOINTS
 62
     0
100
AcDbPoint
 10
334.1451628076439
 20
218.0830598492088
 30
0.0
  0
ENDBLK
  5
54A
330
52F
100
AcDbEntity
  8
0
100
AcDbBlockEnd
  0
BLOCK
  5
82B
330
7FB
100
AcDbEntity
  8
0
100
AcDbBlockBegin
  2
*D22
 70
     1
 10
0.0
 20
0.0
 30
0.0
  3
*D22
  1

  0
LINE
  5
1D4A
330
7FB
100
AcDbEntity
  8
寸法線
 62
     2
370
    -2
100
AcDbLine
 10
287.2971534990742
 20
202.4510489428109
 30
0.0
 11
281.5994924548642
 21
202.4510489428109
 31
0.0
  0
LINE
  5
1D4B
330
7FB
100
AcDbEntity
  8
寸法線
 62
     2
370
    -2
100
AcDbLine
 10
287.2971534990742
 20
330.7510489274179
 30
0.0
 11
281.5994924548642
 21
330.7510489274179
 31
0.0
  0
LINE
  5
1D4C
330
7FB
100
AcDbEntity
  8
寸法線
 62
     2
370
    -2
100
AcDbLine
 10
282.8494924548642
 20
204.9510489428109
 30
0.0
 11
282.8494924548642
 21
328.2510489274179
 31
0.0
  0
INSERT
  5
1D4D
330
7FB
100
AcDbEntity
  8
寸法線
 62
     2
370
    -2
100
AcDbBlockReference
  2
_OPEN
 10
282.8494924548642
 20
202.4510489428109
 30
0.0
 41
2.5
 42
2.5
 43
2.5
 50
270.0
  0
INSERT
  5
1D4E
330
7FB
100
AcDbEntity
  8
寸法線
 62
     2
370
    -2
100
AcDbBlockReference
  2
_OPEN
 10
282.8494924548642
 20
330.7510489274179
 30
0.0
 41
2.5
 42
2.5
 43
2.5
 50
90.0
  0
MTEXT
  5
1D4F
330
7FB
100
AcDbEntity
  8
寸法線
 62
     6
100
AcDbMText
 10
280.9744924548642
 20
266.6010489351144
 30
0.0
 40
2.5
 41
0.0
 71
     5
 72
     1
  1
\A1;128.3
  7
STYLE3
 11
0.0000000000000001
 21
1.0
 31
0.0
 73
     1
 44
1.0
  0
POINT
  5
1D50
330
7FB
100
AcDbEntity
  8
DEFPOINTS
 62
     0
100
AcDbPoint
 10
287.2971534990742
 20
202.4510489428109
 30
0.0
  0
POINT
  5
1D51
330
7FB
100
AcDbEntity
  8
DEFPOINTS
 62
     0
100
AcDbPoint
 10
287.2971534990742
 20
330.7510489274179
 30
0.0
  0
POINT
  5
1D52
330
7FB
100
AcDbEntity
  8
DEFPOINTS
 62
     0
100
AcDbPoint
 10
282.8494924548642
 20
330.7510489274179
 30
0.0
  0
ENDBLK
  5
835
330
7FB
100
AcDbEntity
  8
0
100
AcDbBlockEnd
  0
BLOCK
  5
836
330
807
100
AcDbEntity
  8
0
100
AcDbBlockBegin
  2
*D23
 70
     1
 10
0.0
 20
0.0
 30
0.0
  3
*D23
  1

  0
LINE
  5
1D75
330
807
100
AcDbEntity
  8
寸法線
 62
     2
370
    -2
100
AcDbLine
 10
294.2084642293045
 20
202.4510489428109
 30
0.0
 11
287.2971534990742
 21
202.4510489428109
 31
0.0
  0
LINE
  5
1D76
330
807
100
AcDbEntity
  8
寸法線
 62
     2
370
    -2
100
AcDbLine
 10
291.2229337418724
 20
277.3510489274179
 30
0.0
 11
287.2971534990742
 21
277.3510489274179
 31
0.0
  0
LINE
  5
1D77
330
807
100
AcDbEntity
  8
寸法線
 62
     2
370
    -2
100
AcDbLine
 10
288.5471534990742
 20
204.9510489428109
 30
0.0
 11
288.5471534990742
 21
274.8510489274179
 31
0.0
  0
INSERT
  5
1D78
330
807
100
AcDbEntity
  8
寸法線
 62
     2
370
    -2
100
AcDbBlockReference
  2
_OPEN
 10
288.5471534990742
 20
202.4510489428109
 30
0.0
 41
2.5
 42
2.5
 43
2.5
 50
270.0
  0
INSERT
  5
1D79
330
807
100
AcDbEntity
  8
寸法線
 62
     2
370
    -2
100
AcDbBlockReference
  2
_OPEN
 10
288.5471534990742
 20
277.3510489274179
 30
0.0
 41
2.5
 42
2.5
 43
2.5
 50
90.0
  0
MTEXT
  5
1D7A
330
807
100
AcDbEntity
  8
寸法線
 62
     6
100
AcDbMText
 10
286.6721534990741
 20
239.9010489351144
 30
0.0
 40
2.5
 41
0.0
 71
     5
 72
     1
  1
\A1;74.9
  7
STYLE3
 11
0.0000000000000001
 21
1.0
 31
0.0
 73
     1
 44
1.0
  0
POINT
  5
1D7B
330
807
100
AcDbEntity
  8
DEFPOINTS
 62
     0
100
AcDbPoint
 10
294.2084642293045
 20
202.4510489428109
 30
0.0
  0
POINT
  5
1D7C
330
807
100
AcDbEntity
  8
DEFPOINTS
 62
     0
100
AcDbPoint
 10
291.2229337418724
 20
277.3510489274179
 30
0.0
  0
POINT
  5
1D7D
330
807
100
AcDbEntity
  8
DEFPOINTS
 62
     0
100
AcDbPoint
 10
288.5471534990742
 20
277.3510489274179
 30
0.0
  0
ENDBLK
  5
840
330
807
100
AcDbEntity
  8
0
100
AcDbBlockEnd
  0
BLOCK
  5
841
330
813
100
AcDbEntity
  8
0
100
AcDbBlockBegin
  2
*D24
 70
     1
 10
0.0
 20
0.0
 30
0.0
  3
*D24
  1

  0
LINE
  5
1D64
330
813
100
AcDbEntity
  8
寸法線
 62
     2
370
    -2
100
AcDbLine
 10
332.1451628076439
 20
202.4510489428109
 30
0.0
 11
294.2084642293045
 21
202.4510489428109
 31
0.0
  0
LINE
  5
1D65
330
813
100
AcDbEntity
  8
寸法線
 62
     2
370
    -2
100
AcDbLine
 10
299.9677757507744
 20
211.4510489274179
 30
0.0
 11
294.2084642293045
 21
211.4510489274179
 31
0.0
  0
LINE
  5
1D66
330
813
100
AcDbEntity
  8
寸法線
 62
     2
370
    -2
100
AcDbLine
 10
295.4584642293045
 20
204.9510489428109
 30
0.0
 11
295.4584642293045
 21
208.9510489274178
 31
0.0
  0
INSERT
  5
1D67
330
813
100
AcDbEntity
  8
寸法線
 62
     2
370
    -2
100
AcDbBlockReference
  2
_OPEN
 10
295.4584642293045
 20
202.4510489428109
 30
0.0
 41
2.5
 42
2.5
 43
2.5
 50
270.0
  0
INSERT
  5
1D68
330
813
100
AcDbEntity
  8
寸法線
 62
     2
370
    -2
100
AcDbBlockReference
  2
_OPEN
 10
295.4584642293045
 20
211.4510489274179
 30
0.0
 41
2.5
 42
2.5
 43
2.5
 50
90.0
  0
MTEXT
  5
1D69
330
813
100
AcDbEntity
  8
寸法線
 62
     6
100
AcDbMText
 10
293.5834642293044
 20
206.9510489351144
 30
0.0
 40
2.5
 41
0.0
 71
     5
 72
     1
  1
\A1;9
  7
STYLE3
 11
0.0000000000000001
 21
1.0
 31
0.0
 73
     1
 44
1.0
  0
POINT
  5
1D6A
330
813
100
AcDbEntity
  8
DEFPOINTS
 62
     0
100
AcDbPoint
 10
332.1451628076439
 20
202.4510489428109
 30
0.0
  0
POINT
  5
1D6B
330
813
100
AcDbEntity
  8
DEFPOINTS
 62
     0
100
AcDbPoint
 10
299.9677757507744
 20
211.4510489274179
 30
0.0
  0
POINT
  5
1D6C
330
813
100
AcDbEntity
  8
DEFPOINTS
 62
     0
100
AcDbPoint
 10
295.4584642293045
 20
211.4510489274179
 30
0.0
  0
ENDBLK
  5
84B
330
813
100
AcDbEntity
  8
0
100
AcDbBlockEnd
  0
BLOCK
  5
84C
330
81F
100
AcDbEntity
  8
0
100
AcDbBlockBegin
  2
*D25
 70
     1
 10
0.0
 20
0.0
 30
0.0
  3
*D25
  1

  0
LINE
  5
1D53
330
81F
100
AcDbEntity
  8
外形線
 62
     2
370
    -2
100
AcDbLine
 10
328.6451628076439
 20
330.7510489274179
 30
0.0
 11
287.2971534990742
 21
330.7510489274179
 31
0.0
  0
LINE
  5
1D54
330
81F
100
AcDbEntity
  8
外形線
 62
     2
370
    -2
100
AcDbLine
 10
296.6138770015291
 20
277.3510489274179
 30
0.0
 11
287.2971534990742
 21
277.3510489274179
 31
0.0
  0
LINE
  5
1D55
330
81F
100
AcDbEntity
  8
外形線
 62
     2
370
    -2
100
AcDbLine
 10
288.5471534990742
 20
328.2510489274179
 30
0.0
 11
288.5471534990742
 21
279.8510489274179
 31
0.0
  0
INSERT
  5
1D56
330
81F
100
AcDbEntity
  8
外形線
 62
     2
370
    -2
100
AcDbBlockReference
  2
_OPEN
 10
288.5471534990742
 20
330.7510489274179
 30
0.0
 41
2.5
 42
2.5
 43
2.5
 50
90.0
  0
INSERT
  5
1D57
330
81F
100
AcDbEntity
  8
外形線
 62
     2
370
    -2
100
AcDbBlockReference
  2
_OPEN
 10
288.5471534990742
 20
277.3510489274179
 30
0.0
 41
2.5
 42
2.5
 43
2.5
 50
270.0
  0
MTEXT
  5
1D58
330
81F
100
AcDbEntity
  8
外形線
 62
     6
100
AcDbMText
 10
286.6721534990741
 20
304.0510489274179
 30
0.0
 40
2.5
 41
0.0
 71
     5
 72
     1
  1
\A1;53.4
  7
STYLE3
 11
0.0000000000000001
 21
1.0
 31
0.0
 73
     1
 44
1.0
  0
POINT
  5
1D59
330
81F
100
AcDbEntity
  8
DEFPOINTS
 62
     0
100
AcDbPoint
 10
328.6451628076439
 20
330.7510489274179
 30
0.0
  0
POINT
  5
1D5A
330
81F
100
AcDbEntity
  8
DEFPOINTS
 62
     0
100
AcDbPoint
 10
296.6138770015291
 20
277.3510489274179
 30
0.0
  0
POINT
  5
1D5B
330
81F
100
AcDbEntity
  8
DEFPOINTS
 62
     0
100
AcDbPoint
 10
288.5471534990742
 20
277.3510489274179
 30
0.0
  0
ENDBLK
  5
856
330
81F
100
AcDbEntity
  8
0
100
AcDbBlockEnd
  0
BLOCK
  5
88F
330
882
100
AcDbEntity
  8
0
100
AcDbBlockBegin
  2
*D28
 70
     1
 10
0.0
 20
0.0
 30
0.0
  3
*D28
  1

  0
LINE
  5
1D89
330
882
100
AcDbEntity
  8
外形線
 62
     2
370
    -2
100
AcDbLine
 10
328.1451628076438
 20
235.3021683063545
 30
0.0
 11
328.1451628076438
 21
233.8132061073766
 31
0.0
  0
LINE
  5
1D8A
330
882
100
AcDbEntity
  8
外形線
 62
     2
370
    -2
100
AcDbLine
 10
336.1451628076438
 20
235.1826872068656
 30
0.0
 11
336.1451628076438
 21
233.8132061073766
 31
0.0
  0
LINE
  5
1D8B
330
882
100
AcDbEntity
  8
外形線
 62
     2
370
    -2
100
AcDbLine
 10
330.6451628076438
 20
235.0632061073766
 30
0.0
 11
333.6451628076438
 21
235.0632061073766
 31
0.0
  0
LINE
  5
1D8C
330
882
100
AcDbEntity
  8
外形線
 62
     2
370
    -2
100
AcDbLine
 10
336.1451628076438
 20
235.0632061073766
 30
0.0
 11
347.3951628076438
 21
235.0632061073766
 31
0.0
  0
INSERT
  5
1D8D
330
882
100
AcDbEntity
  8
外形線
 62
     2
370
    -2
100
AcDbBlockReference
  2
_OPEN
 10
328.1451628076438
 20
235.0632061073766
 30
0.0
 41
2.5
 42
2.5
 43
2.5
 50
180.0
  0
INSERT
  5
1D8E
330
882
100
AcDbEntity
  8
外形線
 62
     2
370
    -2
100
AcDbBlockReference
  2
_OPEN
 10
336.1451628076438
 20
235.0632061073766
 30
0.0
 41
2.5
 42
2.5
 43
2.5
  0
MTEXT
  5
1D8F
330
882
100
AcDbEntity
  8
外形線
 62
     6
100
AcDbMText
 10
343.0201628076438
 20
236.9382061073766
 30
0.0
 40
2.5
 41
0.0
 71
     5
 72
     1
  1
\A1;%%C8.0
  7
STYLE3
 73
     1
 44
1.0
  0
POINT
  5
1D90
330
882
100
AcDbEntity
  8
DEFPOINTS
 62
     0
100
AcDbPoint
 10
328.1451628076438
 20
235.3021683063545
 30
0.0
  0
POINT
  5
1D91
330
882
100
AcDbEntity
  8
DEFPOINTS
 62
     0
100
AcDbPoint
 10
336.1451628076438
 20
235.1826872068656
 30
0.0
  0
POINT
  5
1D92
330
882
100
AcDbEntity
  8
DEFPOINTS
 62
     0
100
AcDbPoint
 10
336.1451628076438
 20
235.0632061073766
 30
0.0
  0
ENDBLK
  5
89A
330
882
100
AcDbEntity
  8
0
100
AcDbBlockEnd
  0
ENDSEC
  0
SECTION
  2
ENTITIES
  0
LWPOLYLINE
  5
10B
330
18
100
AcDbEntity
  8
C
100
AcDbPolyline
 90
        5
 70
     0
 43
0.4
 10
236.6915604445414
 20
366.8501752555372
 10
491.6915604445414
 20
366.8501752555372
 10
491.6915604445414
 20
171.8501752555372
 10
236.6915604445414
 20
171.8501752555372
 10
236.6915604445414
 20
366.8501752555372
  0
LINE
  5
16A
330
18
100
AcDbEntity
  8
中心線
100
AcDbLine
 10
302.145162807644
 20
277.3510489274179
 30
0.0
 11
368.0639017735359
 21
277.3510489274179
 31
0.0
  0
LINE
  5
16B
330
18
100
AcDbEntity
  8
中心線
 48
0.8
100
AcDbLine
 10
332.1451628076439
 20
334.3380258417115
 30
0.0
 11
332.1451628076439
 21
199.7110679217227
 31
0.0
  0
CIRCLE
  5
16C
330
18
100
AcDbEntity
  8
外形線
100
AcDbCircle
 10
332.1451628076439
 20
277.3510489274179
 30
0.0
 40
30.0
  0
ARC
  5
16D
330
18
100
AcDbEntity
  8
外形線
100
AcDbCircle
 10
332.1451628076439
 20
277.3510489274179
 30
0.0
 40
29.0
100
AcDbArc
 50
0.0
 51
180.0
  0
LINE
  5
16E
330
18
100
AcDbEntity
  8
外形線
100
AcDbLine
 10
311.6451628076439
 20
288.8510489274178
 30
0.0
 11
352.6451628076439
 21
288.8510489274178
 31
0.0
  0
LINE
  5
16F
330
18
100
AcDbEntity
  8
外形線
100
AcDbLine
 10
311.6451628076439
 20
265.8510489274179
 30
0.0
 11
352.6451628076439
 21
265.8510489274179
 31
0.0
  0
LINE
  5
170
330
18
100
AcDbEntity
  8
外形線
100
AcDbLine
 10
354.145162807644
 20
287.3510489274179
 30
0.0
 11
354.145162807644
 21
267.3510489274179
 31
0.0
  0
LINE
  5
171
330
18
100
AcDbEntity
  8
外形線
100
AcDbLine
 10
310.145162807644
 20
287.3510489274179
 30
0.0
 11
310.1451628076439
 21
267.3510489274179
 31
0.0
  0
ARC
  5
17A
330
18
100
AcDbEntity
  8
外形線
100
AcDbCircle
 10
311.6451628076439
 20
287.3510489274179
 30
0.0
 40
1.5
100
AcDbArc
 50
90.0
 51
180.0
  0
ARC
  5
17B
330
18
100
AcDbEntity
  8
外形線
100
AcDbCircle
 10
352.6451628076439
 20
287.3510489274179
 30
0.0
 40
1.5
100
AcDbArc
 50
0.0
 51
90.0
  0
ARC
  5
17C
330
18
100
AcDbEntity
  8
外形線
100
AcDbCircle
 10
352.6451628076439
 20
267.3510489274179
 30
0.0
 40
1.5
100
AcDbArc
 50
270.0
 51
0.0
  0
ARC
  5
17D
330
18
100
AcDbEntity
  8
外形線
100
AcDbCircle
 10
311.6451628076439
 20
267.3510489274179
 30
0.0
 40
1.5
100
AcDbArc
 50
180.0
 51
270.0
  0
LINE
  5
17E
330
18
100
AcDbEntity
  8
外形線
100
AcDbLine
 10
303.1451628076439
 20
277.3510489274179
 30
0.0
 11
310.145162807644
 21
277.3510489274179
 31
0.0
  0
LINE
  5
17F
330
18
100
AcDbEntity
  8
外形線
100
AcDbLine
 10
354.145162807644
 20
277.3510489274179
 30
0.0
 11
361.1451628076439
 21
277.3510489274179
 31
0.0
  0
LINE
  5
188
330
18
100
AcDbEntity
  8
外形線
100
AcDbLine
 10
328.6451628076439
 20
330.7510489274179
 30
0.0
 11
335.645162807644
 21
330.7510489274179
 31
0.0
  0
ARC
  5
189
330
18
100
AcDbEntity
  8
外形線
100
AcDbCircle
 10
332.1451628076439
 20
277.3510489274179
 30
0.0
 40
31.0
100
AcDbArc
 50
69.21644040415431
 51
110.7835595958456
  0
LINE
  5
18A
330
18
100
AcDbEntity
  8
外形線
100
AcDbLine
 10
343.1451628076439
 20
306.3338024197968
 30
0.0
 11
343.1451628076439
 21
305.2616204013236
 31
0.0
  0
LINE
  5
18B
330
18
100
AcDbEntity
  8
外形線
100
AcDbLine
 10
321.145162807644
 20
306.3338024197968
 30
0.0
 11
321.145162807644
 21
305.2616204013236
 31
0.0
  0
LINE
  5
18F
330
18
100
AcDbEntity
  8
外形線
100
AcDbLine
 10
338.1451628076439
 20
313.1510489274179
 30
0.0
 11
338.1451628076439
 21
307.764861578909
 31
0.0
  0
LINE
  5
190
330
18
100
AcDbEntity
  8
外形線
100
AcDbLine
 10
326.1451628076439
 20
313.1510489274179
 30
0.0
 11
326.1451628076439
 21
307.7648615789089
 31
0.0
  0
LINE
  5
191
330
18
100
AcDbEntity
  8
外形線
100
AcDbLine
 10
327.145162807644
 20
314.151048927418
 30
0.0
 11
337.1451628076439
 21
314.1510489274179
 31
0.0
  0
LINE
  5
192
330
18
100
AcDbEntity
  8
外形線
100
AcDbLine
 10
326.1451628076439
 20
313.1510489274179
 30
0.0
 11
327.145162807644
 21
314.151048927418
 31
0.0
  0
LINE
  5
193
330
18
100
AcDbEntity
  8
外形線
100
AcDbLine
 10
337.1451628076439
 20
314.1510489274179
 30
0.0
 11
338.1451628076439
 21
313.1510489274179
 31
0.0
  0
LINE
  5
194
330
18
100
AcDbEntity
  8
外形線
100
AcDbLine
 10
326.1451628076439
 20
313.151048927418
 30
0.0
 11
338.1451628076439
 21
313.1510489274179
 31
0.0
  0
LINE
  5
195
330
18
100
AcDbEntity
  8
外形線
100
AcDbLine
 10
327.145162807644
 20
314.6510489274179
 30
0.0
 11
337.1451628076439
 21
314.6510489274179
 31
0.0
  0
LINE
  5
197
330
18
100
AcDbEntity
  8
外形線
100
AcDbLine
 10
337.1451628076439
 20
329.2510489274178
 30
0.0
 11
337.1451628076439
 21
327.7510489274178
 31
0.0
  0
LINE
  5
198
330
18
100
AcDbEntity
  8
外形線
100
AcDbLine
 10
327.145162807644
 20
329.2510489274178
 30
0.0
 11
327.145162807644
 21
327.7510489274179
 31
0.0
  0
LINE
  5
199
330
18
100
AcDbEntity
  8
外形線
100
AcDbLine
 10
336.1451628076439
 20
327.7510489274178
 30
0.0
 11
336.1451628076439
 21
326.7510489274179
 31
0.0
  0
LINE
  5
19A
330
18
100
AcDbEntity
  8
外形線
100
AcDbLine
 10
328.1451628076438
 20
327.7510489274179
 30
0.0
 11
328.1451628076438
 21
326.7510489274179
 31
0.0
  0
LINE
  5
19B
330
18
100
AcDbEntity
  8
外形線
100
AcDbLine
 10
327.145162807644
 20
321.6510489274179
 30
0.0
 11
337.145162807644
 21
321.6510489274179
 31
0.0
  0
LINE
  5
19C
330
18
100
AcDbEntity
  8
外形線
100
AcDbLine
 10
336.1451628076439
 20
314.6510489274178
 30
0.0
 11
336.1451628076439
 21
314.1510489274179
 31
0.0
  0
LINE
  5
19D
330
18
100
AcDbEntity
  8
外形線
100
AcDbLine
 10
328.1451628076439
 20
314.6510489274179
 30
0.0
 11
328.1451628076439
 21
314.151048927418
 31
0.0
  0
LINE
  5
19E
330
18
100
AcDbEntity
  8
外形線
100
AcDbLine
 10
327.145162807644
 20
323.1510489274179
 30
0.0
 11
337.145162807644
 21
323.1510489274179
 31
0.0
  0
LINE
  5
19F
330
18
100
AcDbEntity
  8
外形線
100
AcDbLine
 10
337.1451628076439
 20
321.6510489274179
 30
0.0
 11
337.1451628076439
 21
314.6510489274178
 31
0.0
  0
LINE
  5
1A0
330
18
100
AcDbEntity
  8
外形線
100
AcDbLine
 10
327.145162807644
 20
321.6510489274179
 30
0.0
 11
327.1451628076439
 21
314.6510489274179
 31
0.0
  0
LINE
  5
1A1
330
18
100
AcDbEntity
  8
外形線
100
AcDbLine
 10
327.145162807644
 20
324.451048927418
 30
0.0
 11
337.145162807644
 21
324.4510489274179
 31
0.0
  0
LINE
  5
1A2
330
18
100
AcDbEntity
  8
外形線
100
AcDbLine
 10
327.145162807644
 20
325.451048927418
 30
0.0
 11
337.145162807644
 21
325.4510489274179
 31
0.0
  0
LINE
  5
1A3
330
18
100
AcDbEntity
  8
外形線
100
AcDbLine
 10
327.145162807644
 20
326.751048927418
 30
0.0
 11
337.145162807644
 21
326.7510489274179
 31
0.0
  0
LINE
  5
1A4
330
18
100
AcDbEntity
  8
外形線
100
AcDbLine
 10
327.145162807644
 20
327.751048927418
 30
0.0
 11
337.145162807644
 21
327.7510489274179
 31
0.0
  0
LINE
  5
1A5
330
18
100
AcDbEntity
  8
外形線
100
AcDbLine
 10
336.1451628076439
 20
323.1510489274179
 30
0.0
 11
336.1451628076439
 21
321.6510489274178
 31
0.0
  0
LINE
  5
1A6
330
18
100
AcDbEntity
  8
外形線
100
AcDbLine
 10
328.1451628076439
 20
323.1510489274179
 30
0.0
 11
328.1451628076439
 21
321.6510489274179
 31
0.0
  0
LINE
  5
1A7
330
18
100
AcDbEntity
  8
外形線
100
AcDbLine
 10
327.145162807644
 20
324.451048927418
 30
0.0
 11
327.145162807644
 21
323.1510489274179
 31
0.0
  0
LINE
  5
1A8
330
18
100
AcDbEntity
  8
外形線
100
AcDbLine
 10
337.1451628076439
 20
324.4510489274179
 30
0.0
 11
337.1451628076439
 21
323.1510489274179
 31
0.0
  0
LINE
  5
1A9
330
18
100
AcDbEntity
  8
外形線
100
AcDbLine
 10
336.1451628076439
 20
325.4510489274179
 30
0.0
 11
336.1451628076439
 21
324.4510489274178
 31
0.0
  0
LINE
  5
1AA
330
18
100
AcDbEntity
  8
外形線
100
AcDbLine
 10
328.1451628076438
 20
325.4510489274178
 30
0.0
 11
328.1451628076439
 21
324.4510489274179
 31
0.0
  0
LINE
  5
1AB
330
18
100
AcDbEntity
  8
外形線
100
AcDbLine
 10
327.145162807644
 20
326.7510489274179
 30
0.0
 11
327.145162807644
 21
325.451048927418
 31
0.0
  0
LINE
  5
1AC
330
18
100
AcDbEntity
  8
外形線
100
AcDbLine
 10
337.1451628076439
 20
326.7510489274179
 30
0.0
 11
337.1451628076439
 21
325.4510489274178
 31
0.0
  0
ARC
  5
1AF
330
18
100
AcDbEntity
  8
外形線
100
AcDbCircle
 10
328.6451628076439
 20
329.2510489274178
 30
0.0
 40
1.5
100
AcDbArc
 50
90.0
 51
180.0
  0
ARC
  5
1B0
330
18
100
AcDbEntity
  8
外形線
100
AcDbCircle
 10
335.645162807644
 20
329.2510489274178
 30
0.0
 40
1.5
100
AcDbArc
 50
0.0
 51
90.0
  0
LINE
  5
1B4
330
18
100
AcDbEntity
  8
外形線
100
AcDbLine
 10
326.1451628076439
 20
246.3510489274179
 30
0.0
 11
338.145162807644
 21
246.3510489274179
 31
0.0
  0
LINE
  5
1B5
330
18
100
AcDbEntity
  8
外形線
100
AcDbLine
 10
328.3951628076439
 20
225.3510489274179
 30
0.0
 11
335.8951628076439
 21
225.3510489274179
 31
0.0
  0
LINE
  5
1B8
330
18
100
AcDbEntity
  8
外形線
100
AcDbLine
 10
338.1451628076439
 20
247.9571720140198
 30
0.0
 11
338.1451628076439
 21
246.3510489274179
 31
0.0
  0
LINE
  5
1B9
330
18
100
AcDbEntity
  8
外形線
100
AcDbLine
 10
326.1451628076439
 20
247.9571720140198
 30
0.0
 11
326.1451628076439
 21
246.3510489274179
 31
0.0
  0
LINE
  5
1BA
330
18
100
AcDbEntity
  8
外形線
100
AcDbLine
 10
336.1451628076439
 20
246.3510489274179
 30
0.0
 11
336.1451628076439
 21
231.3510489274179
 31
0.0
  0
LINE
  5
1BB
330
18
100
AcDbEntity
  8
外形線
100
AcDbLine
 10
328.1451628076439
 20
246.3510489274179
 30
0.0
 11
328.1451628076438
 21
231.3510489274179
 31
0.0
  0
LINE
  5
1BC
330
18
100
AcDbEntity
  8
外形線
100
AcDbLine
 10
328.1451628076438
 20
231.3510489274179
 30
0.0
 11
336.1451628076439
 21
231.3510489274179
 31
0.0
  0
LINE
  5
1BD
330
18
100
AcDbEntity
  8
外形線
100
AcDbLine
 10
328.3951628076439
 20
228.3510489274178
 30
0.0
 11
335.8951628076439
 21
228.3510489274179
 31
0.0
  0
LINE
  5
1C1
330
18
100
AcDbEntity
  8
外形線
100
AcDbLine
 10
328.3951628076439
 20
226.3510489274179
 30
0.0
 11
335.8951628076439
 21
226.3510489274179
 31
0.0
  0
LINE
  5
1C2
330
18
100
AcDbEntity
  8
外形線
100
AcDbLine
 10
335.8951628076439
 20
226.3510489274179
 30
0.0
 11
335.8951628076439
 21
225.3510489274178
 31
0.0
  0
LINE
  5
1C3
330
18
100
AcDbEntity
  8
外形線
100
AcDbLine
 10
328.3951628076439
 20
226.3510489274179
 30
0.0
 11
328.3951628076439
 21
225.3510489274178
 31
0.0
  0
LINE
  5
1C4
330
18
100
AcDbEntity
  8
外形線
100
AcDbLine
 10
335.145162807644
 20
228.3510489274179
 30
0.0
 11
335.145162807644
 21
226.3510489274179
 31
0.0
  0
LINE
  5
1C5
330
18
100
AcDbEntity
  8
外形線
100
AcDbLine
 10
329.145162807644
 20
228.3510489274179
 30
0.0
 11
329.145162807644
 21
226.3510489274179
 31
0.0
  0
LINE
  5
1C6
330
18
100
AcDbEntity
  8
外形線
100
AcDbLine
 10
335.8951628076439
 20
228.3510489274179
 30
0.0
 11
335.895162807644
 21
231.3510489274179
 31
0.0
  0
LINE
  5
1C8
330
18
100
AcDbEntity
  8
外形線
100
AcDbLine
 10
328.3951628076439
 20
228.3510489274178
 30
0.0
 11
328.3951628076439
 21
231.3510489274179
 31
0.0
  0
LINE
  5
1C9
330
18
100
AcDbEntity
  8
外形線
100
AcDbLine
 10
334.1451628076439
 20
225.3510489274179
 30
0.0
 11
334.1451628076439
 21
211.4510489274179
 31
0.0
  0
LINE
  5
1CA
330
18
100
AcDbEntity
  8
外形線
100
AcDbLine
 10
330.1451628076439
 20
225.3510489274179
 30
0.0
 11
330.1451628076439
 21
211.4510489274179
 31
0.0
  0
LINE
  5
1FF
330
18
100
AcDbEntity
  8
中心線
100
AcDbLine
 10
416.0212355068857
 20
333.206724933021
 30
0.0
 11
416.0212355068857
 21
199.1199627875019
 31
0.0
  0
LINE
  5
200
330
18
100
AcDbEntity
  8
中心線
100
AcDbLine
 10
387.8735842713251
 20
277.3510489274179
 30
0.0
 11
430.3914087168546
 21
277.3510489274179
 31
0.0
  0
LINE
  5
201
330
18
100
AcDbEntity
  8
外形線
100
AcDbLine
 10
409.5212355068857
 20
306.7510489274179
 30
0.0
 11
425.5212355068858
 21
306.7510489274178
 31
0.0
  0
LINE
  5
202
330
18
100
AcDbEntity
  8
外形線
100
AcDbLine
 10
409.5212355068857
 20
247.9510489274178
 30
0.0
 11
425.5212355068858
 21
247.9510489274179
 31
0.0
  0
LINE
  5
203
330
18
100
AcDbEntity
  8
外形線
100
AcDbLine
 10
425.5212355068858
 20
306.7510489274178
 30
0.0
 11
425.5212355068858
 21
247.9510489274179
 31
0.0
  0
LINE
  5
204
330
18
100
AcDbEntity
  8
外形線
100
AcDbLine
 10
394.5212355068858
 20
307.3510489274179
 30
0.0
 11
394.5212355068858
 21
247.3510489274179
 31
0.0
  0
LINE
  5
205
330
18
100
AcDbEntity
  8
外形線
100
AcDbLine
 10
424.0212355068857
 20
306.7510489274178
 30
0.0
 11
424.0212355068858
 21
247.9510489274179
 31
0.0
  0
LINE
  5
206
330
18
100
AcDbEntity
  8
外形線
100
AcDbLine
 10
423.0212355068857
 20
306.7510489274178
 30
0.0
 11
423.0212355068858
 21
247.9510489274179
 31
0.0
  0
LINE
  5
213
330
18
100
AcDbEntity
  8
外形線
100
AcDbLine
 10
407.5212355068858
 20
308.3510489274179
 30
0.0
 11
407.5212355068859
 21
303.8510489274179
 31
0.0
  0
LINE
  5
214
330
18
100
AcDbEntity
  8
外形線
100
AcDbLine
 10
402.0212355068857
 20
308.3510489274179
 30
0.0
 11
402.0212355068858
 21
303.8510489274179
 31
0.0
  0
LINE
  5
215
330
18
100
AcDbEntity
  8
外形線
100
AcDbLine
 10
394.5212355068858
 20
307.3510489274178
 30
0.0
 11
402.0212355068857
 21
307.3510489274179
 31
0.0
  0
LINE
  5
216
330
18
100
AcDbEntity
  8
外形線
100
AcDbLine
 10
394.5212355068859
 20
247.3510489274179
 30
0.0
 11
407.521235506886
 21
247.3510489274179
 31
0.0
  0
LINE
  5
217
330
18
100
AcDbEntity
  8
外形線
100
AcDbLine
 10
402.0212355068857
 20
308.3510489274179
 30
0.0
 11
407.5212355068858
 21
308.3510489274179
 31
0.0
  0
LINE
  5
218
330
18
100
AcDbEntity
  8
外形線
100
AcDbLine
 10
402.0212355068857
 20
304.8510489274179
 30
0.0
 11
407.5212355068858
 21
304.8510489274179
 31
0.0
  0
LINE
  5
219
330
18
100
AcDbEntity
  8
外形線
100
AcDbLine
 10
402.0212355068858
 20
303.8510489274179
 30
0.0
 11
407.5212355068859
 21
303.8510489274179
 31
0.0
  0
LINE
  5
21A
330
18
100
AcDbEntity
  8
外形線
100
AcDbLine
 10
407.5212355068859
 20
303.8510489274179
 30
0.0
 11
407.5212355068859
 21
247.3510489274178
 31
0.0
  0
LINE
  5
21D
330
18
100
AcDbEntity
  8
外形線
100
AcDbLine
 10
406.5212355068859
 20
249.8510489274179
 30
0.0
 11
406.5212355068858
 21
247.3510489274178
 31
0.0
  0
LINE
  5
21E
330
18
100
AcDbEntity
  8
外形線
100
AcDbLine
 10
401.0212355068857
 20
249.8510489274178
 30
0.0
 11
401.0212355068858
 21
247.3510489274178
 31
0.0
  0
LINE
  5
21F
330
18
100
AcDbEntity
  8
外形線
100
AcDbLine
 10
401.0212355068857
 20
249.8510489274178
 30
0.0
 11
406.5212355068859
 21
249.8510489274179
 31
0.0
  0
LINE
  5
222
330
18
100
AcDbEntity
  8
外形線
100
AcDbLine
 10
393.5212355068858
 20
277.3510489274179
 30
0.0
 11
393.5212355068858
 21
265.8510489274179
 31
0.0
  0
LINE
  5
224
330
18
100
AcDbEntity
  8
外形線
100
AcDbLine
 10
391.9212355068858
 20
265.8510489274179
 30
0.0
 11
393.5212355068858
 21
265.8510489274179
 31
0.0
  0
ARC
  5
226
330
18
100
AcDbEntity
  8
外形線
100
AcDbCircle
 10
573.1384897472122
 20
281.8618555852195
 30
0.0
 40
181.9206400838717
100
AcDbArc
 50
185.0491250177036
 51
187.1079812663738
  0
LINE
  5
227
330
18
100
AcDbEntity
  8
外形線
100
AcDbLine
 10
391.9237735713672
 20
259.3510489274179
 30
0.0
 11
392.9237735713672
 21
259.3510489274179
 31
0.0
  0
LINE
  5
228
330
18
100
AcDbEntity
  8
外形線
100
AcDbLine
 10
391.9237735713672
 20
255.3510489274179
 30
0.0
 11
393.9237735713672
 21
255.3510489274179
 31
0.0
  0
LINE
  5
229
330
18
100
AcDbEntity
  8
外形線
100
AcDbLine
 10
393.5212355068858
 20
277.3510489274179
 30
0.0
 11
394.5212355068858
 21
277.3510489274179
 31
0.0
  0
LINE
  5
22D
330
18
100
AcDbEntity
  8
外形線
100
AcDbLine
 10
391.9237735713672
 20
259.3510489274179
 30
0.0
 11
391.9237735713672
 21
255.3510489274179
 31
0.0
  0
LINE
  5
230
330
18
100
AcDbEntity
  8
外形線
100
AcDbLine
 10
392.9237735713672
 20
259.3510489274179
 30
0.0
 11
393.9237735713672
 21
255.3510489274179
 31
0.0
  0
ARC
  5
231
330
18
100
AcDbEntity
  8
外形線
100
AcDbCircle
 10
573.1384897472122
 20
281.8618555852195
 30
0.0
 40
181.9206400838717
100
AcDbArc
 50
188.3793987252573
 51
190.9354250164132
  0
LINE
  5
232
330
18
100
AcDbEntity
  8
外形線
100
AcDbLine
 10
411.0212355068857
 20
329.2510489274178
 30
0.0
 11
411.0212355068857
 21
327.7510489274179
 31
0.0
  0
LINE
  5
233
330
18
100
AcDbEntity
  8
外形線
100
AcDbLine
 10
421.0212355068858
 20
329.2510489274178
 30
0.0
 11
421.0212355068858
 21
327.7510489274178
 31
0.0
  0
LINE
  5
234
330
18
100
AcDbEntity
  8
外形線
100
AcDbLine
 10
411.0212355068858
 20
327.751048927418
 30
0.0
 11
421.0212355068858
 21
327.7510489274179
 31
0.0
  0
LINE
  5
235
330
18
100
AcDbEntity
  8
外形線
100
AcDbLine
 10
411.0212355068858
 20
326.751048927418
 30
0.0
 11
421.0212355068858
 21
326.7510489274179
 31
0.0
  0
LINE
  5
236
330
18
100
AcDbEntity
  8
外形線
100
AcDbLine
 10
411.0212355068858
 20
325.451048927418
 30
0.0
 11
421.0212355068858
 21
325.4510489274179
 31
0.0
  0
LINE
  5
237
330
18
100
AcDbEntity
  8
外形線
100
AcDbLine
 10
411.0212355068858
 20
324.451048927418
 30
0.0
 11
421.0212355068858
 21
324.4510489274179
 31
0.0
  0
LINE
  5
238
330
18
100
AcDbEntity
  8
外形線
100
AcDbLine
 10
411.0212355068858
 20
323.1510489274179
 30
0.0
 11
421.0212355068858
 21
323.1510489274179
 31
0.0
  0
LINE
  5
239
330
18
100
AcDbEntity
  8
外形線
100
AcDbLine
 10
411.0212355068858
 20
321.6510489274179
 30
0.0
 11
421.0212355068858
 21
321.6510489274179
 31
0.0
  0
LINE
  5
23A
330
18
100
AcDbEntity
  8
外形線
100
AcDbLine
 10
411.0212355068857
 20
314.6510489274179
 30
0.0
 11
421.0212355068858
 21
314.6510489274179
 31
0.0
  0
LINE
  5
23B
330
18
100
AcDbEntity
  8
外形線
100
AcDbLine
 10
410.0212355068856
 20
313.151048927418
 30
0.0
 11
422.0212355068857
 21
313.1510489274179
 31
0.0
  0
LINE
  5
23C
330
18
100
AcDbEntity
  8
外形線
100
AcDbLine
 10
411.0212355068857
 20
314.151048927418
 30
0.0
 11
421.0212355068858
 21
314.1510489274179
 31
0.0
  0
LINE
  5
23D
330
18
100
AcDbEntity
  8
外形線
100
AcDbLine
 10
411.0212355068857
 20
321.6510489274179
 30
0.0
 11
411.0212355068857
 21
314.6510489274179
 31
0.0
  0
LINE
  5
23E
330
18
100
AcDbEntity
  8
外形線
100
AcDbLine
 10
410.0212355068857
 20
313.1510489274179
 30
0.0
 11
411.0212355068857
 21
314.151048927418
 31
0.0
  0
LINE
  5
23F
330
18
100
AcDbEntity
  8
外形線
100
AcDbLine
 10
410.0212355068857
 20
313.1510489274179
 30
0.0
 11
410.0212355068856
 21
306.7510489274179
 31
0.0
  0
LINE
  5
240
330
18
100
AcDbEntity
  8
外形線
100
AcDbLine
 10
412.0212355068857
 20
314.6510489274179
 30
0.0
 11
412.0212355068857
 21
314.151048927418
 31
0.0
  0
LINE
  5
241
330
18
100
AcDbEntity
  8
外形線
100
AcDbLine
 10
412.0212355068857
 20
323.1510489274179
 30
0.0
 11
412.0212355068857
 21
321.6510489274179
 31
0.0
  0
LINE
  5
242
330
18
100
AcDbEntity
  8
外形線
100
AcDbLine
 10
411.0212355068857
 20
326.7510489274179
 30
0.0
 11
411.0212355068857
 21
325.451048927418
 31
0.0
  0
LINE
  5
243
330
18
100
AcDbEntity
  8
外形線
100
AcDbLine
 10
412.0212355068856
 20
325.4510489274178
 30
0.0
 11
412.0212355068857
 21
324.4510489274179
 31
0.0
  0
LINE
  5
244
330
18
100
AcDbEntity
  8
外形線
100
AcDbLine
 10
411.0212355068857
 20
324.451048927418
 30
0.0
 11
411.0212355068857
 21
323.1510489274179
 31
0.0
  0
LINE
  5
245
330
18
100
AcDbEntity
  8
外形線
100
AcDbLine
 10
412.0212355068856
 20
327.7510489274179
 30
0.0
 11
412.0212355068856
 21
326.7510489274179
 31
0.0
  0
LINE
  5
246
330
18
100
AcDbEntity
  8
外形線
100
AcDbLine
 10
421.0212355068858
 20
321.6510489274179
 30
0.0
 11
421.0212355068858
 21
314.6510489274178
 31
0.0
  0
LINE
  5
247
330
18
100
AcDbEntity
  8
外形線
100
AcDbLine
 10
422.0212355068857
 20
313.1510489274179
 30
0.0
 11
422.0212355068857
 21
306.7510489274178
 31
0.0
  0
LINE
  5
248
330
18
100
AcDbEntity
  8
外形線
100
AcDbLine
 10
420.0212355068857
 20
314.6510489274178
 30
0.0
 11
420.0212355068857
 21
314.1510489274179
 31
0.0
  0
LINE
  5
249
330
18
100
AcDbEntity
  8
外形線
100
AcDbLine
 10
421.0212355068858
 20
314.1510489274179
 30
0.0
 11
422.0212355068857
 21
313.1510489274179
 31
0.0
  0
LINE
  5
24A
330
18
100
AcDbEntity
  8
外形線
100
AcDbLine
 10
420.0212355068857
 20
323.1510489274179
 30
0.0
 11
420.0212355068857
 21
321.6510489274178
 31
0.0
  0
LINE
  5
24B
330
18
100
AcDbEntity
  8
外形線
100
AcDbLine
 10
421.0212355068858
 20
326.7510489274179
 30
0.0
 11
421.0212355068858
 21
325.4510489274178
 31
0.0
  0
LINE
  5
24C
330
18
100
AcDbEntity
  8
外形線
100
AcDbLine
 10
420.0212355068857
 20
325.4510489274179
 30
0.0
 11
420.0212355068857
 21
324.4510489274178
 31
0.0
  0
LINE
  5
24D
330
18
100
AcDbEntity
  8
外形線
100
AcDbLine
 10
421.0212355068858
 20
324.4510489274179
 30
0.0
 11
421.0212355068858
 21
323.1510489274179
 31
0.0
  0
LINE
  5
24E
330
18
100
AcDbEntity
  8
外形線
100
AcDbLine
 10
420.0212355068857
 20
327.7510489274178
 30
0.0
 11
420.0212355068857
 21
326.7510489274179
 31
0.0
  0
LINE
  5
24F
330
18
100
AcDbEntity
  8
外形線
100
AcDbLine
 10
412.5212355068858
 20
330.7510489274179
 30
0.0
 11
419.5212355068857
 21
330.7510489274179
 31
0.0
  0
ARC
  5
250
330
18
100
AcDbEntity
  8
外形線
100
AcDbCircle
 10
412.5212355068858
 20
329.2510489274178
 30
0.0
 40
1.5
100
AcDbArc
 50
90.0
 51
180.0
  0
ARC
  5
251
330
18
100
AcDbEntity
  8
外形線
100
AcDbCircle
 10
419.5212355068857
 20
329.2510489274178
 30
0.0
 40
1.5
100
AcDbArc
 50
0.0
 51
90.0
  0
LINE
  5
253
330
18
100
AcDbEntity
  8
外形線
100
AcDbLine
 10
409.5212355068857
 20
306.7510489274179
 30
0.0
 11
409.5212355068857
 21
247.9510489274178
 31
0.0
  0
LINE
  5
254
330
18
100
AcDbEntity
  8
外形線
100
AcDbLine
 10
407.521235506886
 20
247.3510489274179
 30
0.0
 11
409.5212355068857
 21
247.9510489274178
 31
0.0
  0
LINE
  5
256
330
18
100
AcDbEntity
  8
外形線
100
AcDbLine
 10
412.0212355068857
 20
246.3510489274179
 30
0.0
 11
412.0212355068856
 21
231.3510489274179
 31
0.0
  0
LINE
  5
257
330
18
100
AcDbEntity
  8
外形線
100
AcDbLine
 10
420.0212355068857
 20
246.3510489274179
 30
0.0
 11
420.0212355068857
 21
231.3510489274179
 31
0.0
  0
LINE
  5
258
330
18
100
AcDbEntity
  8
外形線
100
AcDbLine
 10
412.2712355068856
 20
226.3510489274179
 30
0.0
 11
419.7712355068857
 21
226.3510489274179
 31
0.0
  0
LINE
  5
259
330
18
100
AcDbEntity
  8
外形線
100
AcDbLine
 10
412.2712355068856
 20
228.3510489274178
 30
0.0
 11
419.7712355068857
 21
228.3510489274179
 31
0.0
  0
LINE
  5
25A
330
18
100
AcDbEntity
  8
外形線
100
AcDbLine
 10
412.0212355068856
 20
231.3510489274179
 30
0.0
 11
420.0212355068857
 21
231.3510489274179
 31
0.0
  0
LINE
  5
25B
330
18
100
AcDbEntity
  8
外形線
100
AcDbLine
 10
412.2712355068856
 20
225.3510489274179
 30
0.0
 11
419.7712355068857
 21
225.3510489274179
 31
0.0
  0
LINE
  5
25C
330
18
100
AcDbEntity
  8
外形線
100
AcDbLine
 10
412.2712355068856
 20
228.3510489274178
 30
0.0
 11
412.2712355068856
 21
231.3510489274179
 31
0.0
  0
LINE
  5
25D
330
18
100
AcDbEntity
  8
外形線
100
AcDbLine
 10
413.0212355068858
 20
228.3510489274179
 30
0.0
 11
413.0212355068858
 21
226.3510489274179
 31
0.0
  0
LINE
  5
25E
330
18
100
AcDbEntity
  8
外形線
100
AcDbLine
 10
412.2712355068856
 20
226.3510489274179
 30
0.0
 11
412.2712355068856
 21
225.3510489274178
 31
0.0
  0
LINE
  5
25F
330
18
100
AcDbEntity
  8
外形線
100
AcDbLine
 10
419.7712355068857
 20
228.3510489274179
 30
0.0
 11
419.7712355068857
 21
231.3510489274179
 31
0.0
  0
LINE
  5
260
330
18
100
AcDbEntity
  8
外形線
100
AcDbLine
 10
419.0212355068858
 20
228.3510489274179
 30
0.0
 11
419.0212355068857
 21
226.3510489274179
 31
0.0
  0
LINE
  5
261
330
18
100
AcDbEntity
  8
外形線
100
AcDbLine
 10
419.7712355068857
 20
226.3510489274179
 30
0.0
 11
419.7712355068857
 21
225.3510489274178
 31
0.0
  0
LINE
  5
262
330
18
100
AcDbEntity
  8
外形線
100
AcDbLine
 10
410.0212355068857
 20
246.3510489274179
 30
0.0
 11
422.0212355068857
 21
246.3510489274179
 31
0.0
  0
LINE
  5
263
330
18
100
AcDbEntity
  8
外形線
100
AcDbLine
 10
410.0212355068857
 20
247.9510489274178
 30
0.0
 11
410.0212355068857
 21
246.3510489274179
 31
0.0
  0
LINE
  5
264
330
18
100
AcDbEntity
  8
外形線
100
AcDbLine
 10
422.0212355068857
 20
247.9510489274178
 30
0.0
 11
422.0212355068857
 21
246.3510489274179
 31
0.0
  0
LINE
  5
265
330
18
100
AcDbEntity
  8
外形線
100
AcDbLine
 10
414.0212355068857
 20
225.3510489274179
 30
0.0
 11
414.0212355068857
 21
211.4510489274179
 31
0.0
  0
LINE
  5
266
330
18
100
AcDbEntity
  8
外形線
100
AcDbLine
 10
418.0212355068857
 20
225.3510489274179
 30
0.0
 11
418.0212355068857
 21
211.4510489274179
 31
0.0
  0
DIMENSION
  5
2DB
330
18
100
AcDbEntity
  8
外形線
100
AcDbDimension
  2
*D3
 10
337.1451628076439
 20
336.6526503730719
 30
0.0
 11
332.1451628076439
 21
338.5276503730719
 31
0.0
 70
    32
  1
%%C10
 71
     5
 42
10.0
  3
STYLE3
100
AcDbAlignedDimension
 13
327.145162807644
 23
329.2510489274178
 33
0.0
 14
337.1451628076439
 24
329.2510489274178
 34
0.0
100
AcDbRotatedDimension
1001
ACAD
1000
DSTYLE
1002
{
1070
   271
1070
     2
1002
}
  0
DIMENSION
  5
333
330
18
100
AcDbEntity
  8
外形線
100
AcDbDimension
  2
*D4
 10
295.4584642293045
 20
225.3510489274179
 30
0.0
 11
293.5834642293044
 21
235.8510489274179
 31
0.0
 70
    32
 71
     5
 42
21.00000000000003
  3
STYLE3
100
AcDbAlignedDimension
 13
326.1451628076439
 23
246.3510489274179
 33
0.0
 14
328.3951628076439
 24
225.3510489274178
 34
0.0
 50
90.0
100
AcDbRotatedDimension
1001
ACAD
1000
DSTYLE
1002
{
1070
    75
1070
     1
1070
   271
1070
     2
1070
   279
1070
     1
1002
}
  0
DIMENSION
  5
33F
330
18
100
AcDbEntity
  8
外形線
100
AcDbDimension
  2
*D5
 10
295.4584642293045
 20
211.4510489274179
 30
0.0
 11
293.5834642293044
 21
218.4010489274179
 31
0.0
 70
    32
 71
     5
 42
13.9
  3
STYLE3
100
AcDbAlignedDimension
 13
328.3951628076439
 23
225.3510489274178
 33
0.0
 14
329.8954124848358
 24
211.4510489274179
 34
0.0
 50
90.0
100
AcDbRotatedDimension
1001
ACAD
1000
DSTYLE
1002
{
1070
    75
1070
     1
1070
   271
1070
     2
1070
   279
1070
     1
1002
}
  0
LINE
  5
37C
330
18
100
AcDbEntity
  8
0
  6
ByBlock
 62
     2
100
AcDbLine
 10
326.1451628076439
 20
310.383812905171
 30
0.0
 11
326.1451628076439
 21
308.8817628414798
 31
0.0
  0
LINE
  5
37D
330
18
100
AcDbEntity
  8
0
  6
ByBlock
 62
     2
100
AcDbLine
 10
338.1451628076439
 20
309.6393455193645
 30
0.0
 11
338.1451628076439
 21
311.3817628414798
 31
0.0
  0
LINE
  5
37E
330
18
100
AcDbEntity
  8
0
  6
ByBlock
 62
     2
100
AcDbLine
 10
328.6451628076439
 20
310.1317628414798
 30
0.0
 11
335.645162807644
 21
310.1317628414798
 31
0.0
  0
LINE
  5
37F
330
18
100
AcDbEntity
  8
0
  6
ByBlock
 62
     2
100
AcDbLine
 10
338.1451628076439
 20
310.1317628414798
 30
0.0
 11
348.7999247124059
 21
310.1317628414798
 31
0.0
  0
INSERT
  5
380
330
18
100
AcDbEntity
  8
0
  6
ByBlock
 62
     2
100
AcDbBlockReference
  2
_OPEN
 10
326.1451628076439
 20
310.1317628414798
 30
0.0
 41
2.5
 42
2.5
 43
2.5
 50
180.0
  0
INSERT
  5
381
330
18
100
AcDbEntity
  8
0
  6
ByBlock
 62
     2
100
AcDbBlockReference
  2
_OPEN
 10
338.1451628076439
 20
310.1317628414798
 30
0.0
 41
2.5
 42
2.5
 43
2.5
  0
MTEXT
  5
382
330
18
100
AcDbEntity
  8
0
  6
ByBlock
 62
     6
100
AcDbMText
 10
343.5516422244023
 20
312.0067628414798
 30
0.0
 40
2.5
 41
0.0
 71
     5
 72
     1
  1
%%C12
  7
STYLE3
 73
     1
 44
1.0
  0
POINT
  5
383
330
18
100
AcDbEntity
  8
DEFPOINTS
  6
ByBlock
 62
     0
100
AcDbPoint
 10
326.1451628076439
 20
310.383812905171
 30
0.0
  0
POINT
  5
384
330
18
100
AcDbEntity
  8
DEFPOINTS
  6
ByBlock
 62
     0
100
AcDbPoint
 10
338.1451628076439
 20
309.6393455193645
 30
0.0
  0
POINT
  5
385
330
18
100
AcDbEntity
  8
DEFPOINTS
  6
ByBlock
 62
     0
100
AcDbPoint
 10
338.1451628076439
 20
310.1317628414798
 30
0.0
  0
DIMENSION
  5
3C3
330
18
100
AcDbEntity
  8
外形線
100
AcDbDimension
  2
*D6
 10
435.4162427245914
 20
247.9510489274179
 30
0.0
 11
433.5412427245914
 21
277.3510489274179
 31
0.0
 70
    32
  1
%%C<>
 71
     5
 42
58.79999999999992
  3
STYLE3
100
AcDbAlignedDimension
 13
425.5212355068858
 23
306.7510489274178
 33
0.0
 14
425.5212355068858
 24
247.9510489274179
 34
0.0
 50
90.0
100
AcDbRotatedDimension
1001
ACAD
1000
DSTYLE
1002
{
1070
   271
1070
     2
1002
}
  0
DIMENSION
  5
3DD
330
18
100
AcDbEntity
  8
外形線
100
AcDbDimension
  2
*D7
 10
383.3594629859519
 20
247.3510489274179
 30
0.0
 11
381.4844629859519
 21
277.3510489274179
 31
0.0
 70
    32
  1
%%C<>
 71
     5
 42
59.99999999999997
  3
STYLE3
100
AcDbAlignedDimension
 13
394.5212355068858
 23
307.3510489274178
 33
0.0
 14
394.5212355068858
 24
247.3510489274179
 34
0.0
 50
90.0
100
AcDbRotatedDimension
1001
ACAD
1000
DSTYLE
1002
{
1070
   271
1070
     2
1002
}
  0
DIMENSION
  5
3EA
330
18
100
AcDbEntity
  8
外形線
100
AcDbDimension
  2
*D8
 10
416.0212355068857
 20
218.2575279024515
 30
0.0
 11
403.9725045391264
 21
218.2575279024515
 31
0.0
 70
   160
 71
     5
 42
24.0974619355186
  3
STYLE3
100
AcDbAlignedDimension
 13
391.9237735713672
 23
255.3510489274179
 33
0.0
 14
416.0212355068857
 24
216.361038523121
 34
0.0
100
AcDbRotatedDimension
1001
ACAD
1000
DSTYLE
1002
{
1070
   271
1070
     2
1002
}
  0
DIMENSION
  5
45A
330
18
100
AcDbEntity
  8
外形線
100
AcDbDimension
  2
*D9
 10
425.5212355068858
 20
342.7792931343838
 30
0.0
 11
410.0212355068857
 21
344.6542931343838
 31
0.0
 70
    32
 71
     5
 42
31.0
  3
STYLE3
100
AcDbAlignedDimension
 13
394.5212355068858
 23
307.3510489274179
 33
0.0
 14
425.5212355068858
 24
306.7510489274178
 34
0.0
100
AcDbRotatedDimension
1001
ACAD
1000
DSTYLE
1002
{
1070
   271
1070
     2
1002
}
  0
DIMENSION
  5
467
330
18
100
AcDbEntity
  8
外形線
100
AcDbDimension
  2
*D10
 10
416.0212355068857
 20
336.8154259764635
 30
0.0
 11
405.2712355068857
 21
338.6904259764635
 31
0.0
 70
    32
 71
     5
 42
21.5
  3
STYLE3
100
AcDbAlignedDimension
 13
394.5212355068858
 23
325.9538943655261
 33
0.0
 14
416.0212355068857
 24
333.4384677096892
 34
0.0
100
AcDbRotatedDimension
1001
ACAD
1000
DSTYLE
1002
{
1070
   271
1070
     2
1002
}
  0
DIMENSION
  5
473
330
18
100
AcDbEntity
  8
外形線
100
AcDbDimension
  2
*D11
 10
425.5212355068858
 20
336.8154259764635
 30
0.0
 11
420.7712355068857
 21
338.6904259764635
 31
0.0
 70
    32
 71
     5
 42
9.5
  3
STYLE3
100
AcDbAlignedDimension
 13
416.0212355068857
 23
333.4384677096892
 33
0.0
 14
425.5212355068858
 24
333.0742317801935
 34
0.0
100
AcDbRotatedDimension
1001
ACAD
1000
DSTYLE
1002
{
1070
    75
1070
     1
1070
   271
1070
     2
1070
   279
1070
     1
1002
}
  0
LINE
  5
474
330
18
100
AcDbEntity
  8
0
  6
ByBlock
 62
     2
100
AcDbLine
 10
327.145162807644
 20
314.151048927418
 30
0.0
 11
294.2084642293045
 21
314.151048927418
 31
0.0
  0
LINE
  5
475
330
18
100
AcDbEntity
  8
0
  6
ByBlock
 62
     2
100
AcDbLine
 10
302.145162807644
 20
277.3510489274179
 30
0.0
 11
294.2084642293045
 21
277.3510489274179
 31
0.0
  0
LINE
  5
476
330
18
100
AcDbEntity
  8
0
  6
ByBlock
 62
     2
100
AcDbLine
 10
295.4584642293045
 20
311.651048927418
 30
0.0
 11
295.4584642293045
 21
279.8510489274179
 31
0.0
  0
INSERT
  5
477
330
18
100
AcDbEntity
  8
0
  6
ByBlock
 62
     2
100
AcDbBlockReference
  2
_OPEN
 10
295.4584642293045
 20
314.151048927418
 30
0.0
 41
2.5
 42
2.5
 43
2.5
 50
90.0
  0
INSERT
  5
478
330
18
100
AcDbEntity
  8
0
  6
ByBlock
 62
     2
100
AcDbBlockReference
  2
_OPEN
 10
295.4584642293045
 20
277.3510489274179
 30
0.0
 41
2.5
 42
2.5
 43
2.5
 50
270.0
  0
MTEXT
  5
479
330
18
100
AcDbEntity
  8
0
  6
ByBlock
 62
     6
100
AcDbMText
 10
293.5834642293045
 20
295.7510489274179
 30
0.0
 40
2.5
 41
0.0
 71
     5
 72
     1
  1
\A1;36.8
  7
STYLE3
 11
0.0000000000000001
 21
1.0
 31
0.0
 73
     1
 44
1.0
  0
POINT
  5
47A
330
18
100
AcDbEntity
  8
DEFPOINTS
  6
ByBlock
 62
     0
100
AcDbPoint
 10
327.145162807644
 20
314.151048927418
 30
0.0
  0
POINT
  5
47B
330
18
100
AcDbEntity
  8
DEFPOINTS
  6
ByBlock
 62
     0
100
AcDbPoint
 10
298.3136211207598
 20
277.3510489274179
 30
0.0
  0
POINT
  5
47C
330
18
100
AcDbEntity
  8
DEFPOINTS
  6
ByBlock
 62
     0
100
AcDbPoint
 10
295.4584642293045
 20
277.3510489274179
 30
0.0
  0
LINE
  5
47D
330
18
100
AcDbEntity
  8
0
  6
ByBlock
 62
     2
100
AcDbLine
 10
326.1451628076439
 20
246.3510489274179
 30
0.0
 11
294.2084642293045
 21
246.3510489274179
 31
0.0
  0
LINE
  5
47E
330
18
100
AcDbEntity
  8
0
  6
ByBlock
 62
     2
100
AcDbLine
 10
295.4584642293045
 20
274.8510489274179
 30
0.0
 11
295.4584642293045
 21
248.8510489274179
 31
0.0
  0
INSERT
  5
47F
330
18
100
AcDbEntity
  8
0
  6
ByBlock
 62
     2
100
AcDbBlockReference
  2
_OPEN
 10
295.4584642293045
 20
277.3510489274179
 30
0.0
 41
2.5
 42
2.5
 43
2.5
 50
90.0
  0
INSERT
  5
480
330
18
100
AcDbEntity
  8
0
  6
ByBlock
 62
     2
100
AcDbBlockReference
  2
_OPEN
 10
295.4584642293045
 20
246.3510489274179
 30
0.0
 41
2.5
 42
2.5
 43
2.5
 50
270.0
  0
MTEXT
  5
481
330
18
100
AcDbEntity
  8
0
  6
ByBlock
 62
     6
100
AcDbMText
 10
293.5834642293045
 20
261.8510489274179
 30
0.0
 40
2.5
 41
0.0
 71
     5
 72
     1
  1
\A1;31
  7
STYLE3
 11
0.0000000000000001
 21
1.0
 31
0.0
 73
     1
 44
1.0
  0
POINT
  5
482
330
18
100
AcDbEntity
  8
DEFPOINTS
  6
ByBlock
 62
     0
100
AcDbPoint
 10
298.3136211207598
 20
277.3510489274179
 30
0.0
  0
POINT
  5
483
330
18
100
AcDbEntity
  8
DEFPOINTS
  6
ByBlock
 62
     0
100
AcDbPoint
 10
326.1451628076439
 20
246.3510489274179
 30
0.0
  0
POINT
  5
484
330
18
100
AcDbEntity
  8
DEFPOINTS
  6
ByBlock
 62
     0
100
AcDbPoint
 10
295.4584642293045
 20
246.3510489274179
 30
0.0
  0
LINE
  5
4AC
330
18
100
AcDbEntity
  8
外形線
100
AcDbLine
 10
409.5212355068857
 20
306.7510489274179
 30
0.0
 11
407.5212355068858
 21
307.3510489274179
 31
0.0
  0
DIMENSION
  5
53D
330
18
100
AcDbEntity
  8
文字
100
AcDbDimension
  2
*D14
 10
334.1451628076439
 20
218.0830598492088
 30
0.0
 11
342.0915913790725
 21
219.9580598492087
 31
0.0
 70
    32
  1
φ4
 71
     5
 42
4.0
  3
STYLE3
100
AcDbAlignedDimension
 13
330.1451628076439
 23
219.9498856303816
 33
0.0
 14
334.1451628076439
 24
219.4407512437071
 34
0.0
100
AcDbRotatedDimension
1001
ACAD
1000
DSTYLE
1002
{
1070
   271
1070
     2
1002
}
  0
HATCH
  5
5F8
330
18
100
AcDbEntity
  8
ROGO
 62
     4
100
AcDbHatch
 10
0.0
 20
0.0
 30
0.0
210
0.0
220
0.0
230
1.0
  2
SOLID
 70
     1
 71
     1
 91
        2
 92
        5
 93
        6
 72
     1
 10
321.8614159998781
 20
291.8558244607991
 11
323.0877315146536
 21
291.8558244607991
 72
     1
 10
323.0877315146536
 20
291.8558244607991
 11
323.5174482800045
 21
292.8056251306759
 72
     1
 10
323.5174482800045
 20
292.8056251306759
 11
324.6638017676545
 21
292.8056251306758
 72
     4
 94
        3
 73
     0
 74
     0
 95
       18
 96
       14
 40
0.108740278791501
 40
0.108740278791501
 40
0.108740278791501
 40
0.108740278791501
 40
0.6623149649549278
 40
1.384304701649787
 40
2.097394834876493
 40
2.774073369849618
 40
3.428974823686337
 40
4.005208313035923
 40
4.455173659284313
 40
4.720999734343524
 40
5.086034088486724
 40
5.569973738255373
 40
6.060470601257719
 40
6.060470601257719
 40
6.060470601257719
 40
6.060470601257719
 10
324.6638017676544
 20
292.8056251306758
 10
324.7444802322333
 20
292.806225918773
 10
324.9303821198736
 20
292.8076102738412
 10
325.1904574060114
 20
292.9465482064781
 10
325.4370830857025
 20
293.1235450097746
 10
325.6357232930928
 20
293.344684049377
 10
325.7594821270765
 20
293.5975186547608
 10
325.7786519792798
 20
293.8398374004957
 10
325.7669492554801
 20
294.0315085158399
 10
325.6833274159248
 20
294.1651080416577
 10
325.59639230945
 20
294.3006978980227
 10
325.4369827208894
 20
294.4181508677545
 10
325.3063696450817
 20
294.4696127280169
 10
325.2399502395495
 20
294.493954327107
 72
     1
 10
325.2399502395497
 20
294.4939543271068
 11
323.1667381228545
 21
294.4939543271068
 72
     1
 10
323.1667381228545
 20
294.4939543271068
 11
321.8614159998781
 21
291.8558244607991
 97
        6
330
5FB
330
5FD
330
604
330
5FC
330
5FE
330
603
 92
       20
 93
        4
 72
     1
 10
323.7827740558318
 20
293.3920732749799
 11
323.9859140797199
 21
293.8410725841182
 72
     1
 10
323.9859140797199
 20
293.8410725841182
 11
324.5078973642737
 21
293.8410725841183
 72
     4
 94
        3
 73
     0
 74
     0
 95
       15
 96
       11
 40
0.0
 40
0.0
 40
0.0
 40
0.0
 40
0.1979620751796092
 40
0.2882218927611821
 40
0.390672794493828
 40
0.4604671121752228
 40
0.570847549457819
 40
0.6369624161317818
 40
0.7503938621545029
 40
0.7882043682941406
 40
0.7882043682941406
 40
0.7882043682941406
 40
0.7882043682941406
 10
324.5078973642737
 20
293.8410725841182
 10
324.5822480807784
 20
293.8414131500871
 10
324.6904986344244
 20
293.8419089954051
 10
324.7496938926077
 20
293.7080027474961
 10
324.7231597554501
 20
293.621788012962
 10
324.6898041824765
 20
293.5332723517865
 10
324.6308573304934
 20
293.4731246250116
 10
324.5517420210138
 20
293.415192224621
 10
324.4769742727995
 20
293.4081792481448
 10
324.4283462455489
 20
293.3952944708464
 10
324.416189232917
 20
293.3920732749799
 72
     1
 10
324.4161892329167
 20
293.3920732749799
 11
323.7827740558318
 21
293.3920732749799
 97
        4
330
602
330
600
330
601
330
5FF
 75
     0
 76
     1
 47
0.0514683685270805
 98
        2
 10
323.1778191199633
 20
293.6734259253925
 10
323.1778191199633
 20
293.6734259253925
450
        0
451
        0
460
0.0
461
0.0
452
        0
462
0.0
453
        0
470

  0
HATCH
  5
5F9
330
18
100
AcDbEntity
  8
ROGO
 62
     4
100
AcDbHatch
 10
0.0
 20
0.0
 30
0.0
210
0.0
220
0.0
230
1.0
  2
SOLID
 70
     1
 71
     0
 91
        1
 92
        7
 72
     0
 73
     1
 93
        4
 10
323.2073685601962
 20
292.1202575831736
 10
323.0877315146536
 20
291.8558244607991
 10
338.7468219599747
 20
291.8558244607991
 10
338.8786768551854
 20
292.1202575831736
 97
        0
 75
     0
 76
     1
 47
0.0514683685270805
 98
        1
 10
333.1025281813382
 20
292.0503192720532
450
        0
451
        0
460
0.0
461
0.0
452
        0
462
0.0
453
        0
470

  0
LINE
  5
5FA
330
18
100
AcDbEntity
  8
ROGO
 62
     4
100
AcDbLine
 10
323.1890298427318
 20
292.1202575831736
 30
0.0
 11
338.8786768551854
 21
292.1202575831736
 31
0.0
  0
SPLINE
  5
5FB
102
{ACAD_REACTORS
330
5F8
102
}
330
18
100
AcDbEntity
  8
ROGO
 62
     4
100
AcDbSpline
210
0.0
220
0.0
230
1.0
 70
     8
 71
     3
 72
    18
 73
    14
 74
     0
 42
0.0000000001
 43
0.0000000001
 40
0.1087402787915014
 40
0.1087402787915014
 40
0.1087402787915014
 40
0.1087402787915014
 40
0.5992371417938475
 40
1.083176791562496
 40
1.448211145705696
 40
1.714037220764907
 40
2.164002567013297
 40
2.740236056362883
 40
3.395137510199602
 40
4.071816045172726
 40
4.784906178399433
 40
5.506895915094292
 40
6.060470601257719
 40
6.060470601257719
 40
6.060470601257719
 40
6.060470601257719
 10
325.2399502395495
 20
294.493954327107
 30
0.0
 10
325.3063696450817
 20
294.4696127280169
 30
0.0
 10
325.4369827208894
 20
294.4181508677545
 30
0.0
 10
325.59639230945
 20
294.3006978980227
 30
0.0
 10
325.6833274159248
 20
294.1651080416577
 30
0.0
 10
325.7669492554801
 20
294.0315085158399
 30
0.0
 10
325.7786519792798
 20
293.8398374004957
 30
0.0
 10
325.7594821270765
 20
293.5975186547608
 30
0.0
 10
325.6357232930928
 20
293.344684049377
 30
0.0
 10
325.4370830857025
 20
293.1235450097746
 30
0.0
 10
325.1904574060114
 20
292.9465482064781
 30
0.0
 10
324.9303821198736
 20
292.8076102738412
 30
0.0
 10
324.7444802322333
 20
292.806225918773
 30
0.0
 10
324.6638017676544
 20
292.8056251306758
 30
0.0
  0
LINE
  5
5FC
102
{ACAD_REACTORS
330
5F8
330
62F
102
}
330
18
100
AcDbEntity
  8
ROGO
 62
     4
100
AcDbLine
 10
321.8614159998781
 20
291.8558244607991
 30
0.0
 11
339.7189296289087
 21
291.8558244607991
 31
0.0
  0
LINE
  5
5FD
102
{ACAD_REACTORS
330
5F8
102
}
330
18
100
AcDbEntity
  8
ROGO
 62
     4
100
AcDbLine
 10
323.1667381228545
 20
294.4939543271068
 30
0.0
 11
325.2399502395495
 21
294.4939543271068
 31
0.0
  0
LINE
  5
5FE
102
{ACAD_REACTORS
330
5F8
102
}
330
18
100
AcDbEntity
  8
ROGO
 62
     4
100
AcDbLine
 10
323.5174482800045
 20
292.8056251306758
 30
0.0
 11
323.0877315146536
 21
291.8558244607991
 31
0.0
  0
LINE
  5
5FF
102
{ACAD_REACTORS
330
5F8
102
}
330
18
100
AcDbEntity
  8
ROGO
 62
     4
100
AcDbLine
 10
324.4161892329171
 20
293.3920732749798
 30
0.0
 11
323.7827740558318
 21
293.3920732749799
 31
0.0
  0
LINE
  5
600
102
{ACAD_REACTORS
330
5F8
102
}
330
18
100
AcDbEntity
  8
ROGO
 62
     4
100
AcDbLine
 10
324.5078973642737
 20
293.8410725841182
 30
0.0
 11
323.9859140797199
 21
293.8410725841182
 31
0.0
  0
SPLINE
  5
601
102
{ACAD_REACTORS
330
5F8
102
}
330
18
100
AcDbEntity
  8
ROGO
 62
     4
100
AcDbSpline
210
0.0
220
0.0
230
1.0
 70
     8
 71
     3
 72
    15
 73
    11
 74
     9
 42
0.0000000001
 43
0.0000000001
 44
0.0000000001
 40
0.0
 40
0.0
 40
0.0
 40
0.0
 40
0.1979620751796092
 40
0.2882218927611821
 40
0.390672794493828
 40
0.4604671121752228
 40
0.570847549457819
 40
0.6369624161317818
 40
0.7503938621545029
 40
0.7882043682941406
 40
0.7882043682941406
 40
0.7882043682941406
 40
0.7882043682941406
 10
324.5078973642737
 20
293.8410725841182
 30
0.0
 10
324.5822480807784
 20
293.8414131500871
 30
0.0
 10
324.6904986344244
 20
293.8419089954051
 30
0.0
 10
324.7496938926077
 20
293.7080027474961
 30
0.0
 10
324.7231597554501
 20
293.621788012962
 30
0.0
 10
324.6898041824765
 20
293.5332723517865
 30
0.0
 10
324.6308573304934
 20
293.4731246250116
 30
0.0
 10
324.5517420210138
 20
293.415192224621
 30
0.0
 10
324.4769742727995
 20
293.4081792481448
 30
0.0
 10
324.4283462455489
 20
293.3952944708464
 30
0.0
 10
324.416189232917
 20
293.3920732749799
 30
0.0
 11
324.5078973642737
 21
293.8410725841182
 31
0.0
 11
324.7004845983251
 21
293.7952562061527
 31
0.0
 11
324.7371679563357
 21
293.7127870245457
 31
0.0
 11
324.7188265410003
 21
293.6119912917525
 31
0.0
 11
324.6913141543274
 21
293.5478483626007
 31
0.0
 11
324.6179474383059
 21
293.4653791809937
 31
0.0
 11
324.5629226649598
 21
293.4287260786213
 31
0.0
 11
324.4528725909276
 21
293.401236550573
 31
0.0
 11
324.416189232917
 21
293.3920732749799
 31
0.0
  0
LINE
  5
602
102
{ACAD_REACTORS
330
5F8
102
}
330
18
100
AcDbEntity
  8
ROGO
 62
     4
100
AcDbLine
 10
323.9859140797199
 20
293.8410725841182
 30
0.0
 11
323.7827740558318
 21
293.3920732749799
 31
0.0
  0
LINE
  5
603
102
{ACAD_REACTORS
330
5F8
102
}
330
18
100
AcDbEntity
  8
ROGO
 62
     4
100
AcDbLine
 10
324.6638017680517
 20
292.8056251306758
 30
0.0
 11
323.5174482800045
 21
292.8056251306758
 31
0.0
  0
LINE
  5
604
102
{ACAD_REACTORS
330
5F8
102
}
330
18
100
AcDbEntity
  8
ROGO
 62
     4
100
AcDbLine
 10
323.1667381228545
 20
294.4939543271068
 30
0.0
 11
321.8614159998781
 21
291.8558244607991
 31
0.0
  0
TEXT
  5
605
330
18
100
AcDbEntity
  8
文字
100
AcDbText
 10
327.2581568698785
 20
296.6942684982296
 30
0.0
 40
2.0
  1
DG-127
 51
10.0
  7
STYLE3
100
AcDbText
  0
HATCH
  5
606
330
18
100
AcDbEntity
  8
ROGO
 62
     4
100
AcDbHatch
 10
0.0
 20
0.0
 30
0.0
210
0.0
220
0.0
230
1.0
  2
SOLID
 70
     1
 71
     1
 91
        2
 92
        5
 93
        6
 72
     4
 94
        3
 73
     0
 74
     0
 95
       38
 96
       34
 40
0.0
 40
0.0
 40
0.0
 40
0.0
 40
0.2324160190625641
 40
0.3054076598660179
 40
0.3991969555208118
 40
0.4773548548861183
 40
0.5433001127836845
 40
0.6308904647837286
 40
0.6756456824938584
 40
0.7260518053353911
 40
0.8003409450195571
 40
0.884494420029689
 40
0.9390839551137702
 40
0.9983865037096219
 40
1.064308042580248
 40
1.164347318186099
 40
1.259395062462607
 40
1.303582284428296
 40
1.353971899974848
 40
1.413666953858189
 40
1.456162161198055
 40
1.491785383230425
 40
1.542647296663551
 40
1.598535826931799
 40
1.654424046021893
 40
1.703326315520178
 40
1.815321205179844
 40
1.859508427145426
 40
1.947882923564461
 40
2.026002047025105
 40
2.175555252260891
 40
2.360088422381767
 40
2.626581173122162
 40
2.626581173122162
 40
2.626581173122162
 40
2.626581173122162
 10
335.2063009692551
 20
294.5009964660427
 10
335.1288297437365
 20
294.4955236700559
 10
335.0270282165094
 20
294.4883321097582
 10
334.8977640804254
 20
294.4529175903517
 10
334.8273008247158
 20
294.4107274939059
 10
334.7539697230221
 20
294.3797157507195
 10
334.6914481290985
 20
294.3337935088275
 10
334.6282088567751
 20
294.3101302200075
 10
334.583926782435
 20
294.2674610806712
 10
334.5326738934069
 20
294.2413969287321
 10
334.4918603079043
 20
294.1830577792849
 10
334.4462422952207
 20
294.1285127885811
 10
334.3933196615544
 20
294.0886973779816
 10
334.3498853458351
 20
294.0468795478872
 10
334.3100404006468
 20
293.9823420712221
 10
334.2864583787696
 20
293.8965908751978
 10
334.2199846173861
 20
293.8424506625454
 10
334.2099757501935
 20
293.7773579726761
 10
334.1732070856563
 20
293.7389543810023
 10
334.1572187843558
 20
293.6893808613075
 10
334.1511296696252
 20
293.6439627607522
 10
334.1438212799992
 20
293.6015453989159
 10
334.124703916843
 20
293.5569242079671
 10
334.1309438901364
 20
293.5018052779079
 10
334.129166309082
 20
293.4484317884452
 10
334.1302124176193
 20
293.3763759156592
 10
334.1264368670313
 20
293.306220662477
 10
334.1565454034079
 20
293.2298751074032
 10
334.1743626360401
 20
293.1618236071177
 10
334.2231580259676
 20
293.0675980527943
 10
334.3073290510193
 20
292.9588821365972
 10
334.4673872958988
 20
292.8269216123636
 10
334.6212879780466
 20
292.8135348314413
 10
334.7122215901283
 20
292.8056251306758
 72
     1
 10
334.7122215901284
 20
292.8056251306758
 11
335.6770907913676
 21
292.8056251306758
 72
     4
 94
        3
 73
     0
 74
     0
 95
       11
 96
        7
 40
0.1647869275458135
 40
0.1647869275458135
 40
0.1647869275458135
 40
0.1647869275458135
 40
0.2545010798212315
 40
0.5111620267764023
 40
0.7602998271033902
 40
0.8850764140209603
 40
0.8850764140209603
 40
0.8850764140209603
 40
0.8850764140209603
 10
335.6770907913666
 20
292.8056251306758
 10
335.6905546632065
 20
292.8053656534205
 10
335.7425369851289
 20
292.8043638442547
 10
335.8313753963957
 20
292.8171265264349
 10
335.924845239859
 20
292.8293567477721
 10
335.9805693974172
 20
292.8382636489228
 10
335.9985418095897
 20
292.8432662767011
 72
     4
 94
        3
 73
     0
 74
     0
 95
        9
 96
        5
 40
0.0
 40
0.0
 40
0.0
 40
0.0
 40
0.146030572742497
 40
0.3423777932799819
 40
0.3423777932799819
 40
0.3423777932799819
 40
0.3423777932799819
 10
335.9985418095897
 20
292.8432662767011
 10
336.04545105457
 20
292.8576178563453
 10
336.1554327075838
 20
292.8912660306717
 10
336.2463027468883
 20
292.9623818678104
 10
336.2984150041601
 20
293.0031654619348
 72
     4
 94
        3
 73
     0
 74
     0
 95
       25
 96
       21
 40
0.0
 40
0.0
 40
0.0
 40
0.0
 40
0.165525918914855
 40
0.3412380755365305
 40
0.5940540902285263
 40
0.7697671103696209
 40
0.9377330196075423
 40
1.11479469302833
 40
1.274661249598185
 40
1.574522170874768
 40
1.815540668866877
 40
2.15849091873445
 40
2.536227739636605
 40
2.738070817316548
 40
2.925680654369045
 40
3.162706124480894
 40
3.395643218188267
 40
3.648478129958861
 40
3.928509979727306
 40
4.337226830236035
 40
4.337226830236035
 40
4.337226830236035
 40
4.337226830236035
 10
336.2984150041601
 20
293.0031654619348
 10
336.3175627065235
 20
293.0189884184364
 10
336.3538806627714
 20
293.0566214340072
 10
336.4182965384509
 20
293.1176161675854
 10
336.475061029631
 20
293.1886798724548
 10
336.5450841162674
 20
293.2462745147207
 10
336.581537916246
 20
293.3166882343104
 10
336.6340831913514
 20
293.372067124952
 10
336.6781600728166
 20
293.4575943589399
 10
336.715557128288
 20
293.5558380569823
 10
336.7512100567848
 20
293.6838968503153
 10
336.7648726267891
 20
293.8283662042311
 10
336.7446503240998
 20
293.9681402316423
 10
336.6957983528036
 20
294.0726167259041
 10
336.6598830032432
 20
294.1596871161891
 10
336.605376960703
 20
294.2421581066311
 10
336.543192933025
 20
294.3318544290607
 10
336.4555866491916
 20
294.40604780918
 10
336.3410942309645
 20
294.4955369812343
 10
336.2344530924691
 20
294.4989632510277
 10
336.1711701704935
 20
294.5009964660427
 72
     1
 10
336.1711701704936
 20
294.5009964660427
 11
335.2063009692553
 21
294.5009964660428
 97
        6
330
631
330
608
330
60C
330
60B
330
60A
330
607
 92
       20
 93
        1
 72
     3
 10
335.4280331909232
 20
293.6296730474754
 11
0.2292231973722778
 21
0.2015731185223643
 40
0.6788083417438792
 50
0.0
 51
360.0
 73
     1
 97
        1
330
609
 75
     0
 76
     1
 47
0.088756267210375
 98
        2
 10
335.4954448311972
 20
294.0327281093206
 10
335.4954448311972
 20
294.0327281093206
450
        0
451
        0
460
0.0
461
0.0
452
        0
462
0.0
453
        0
470

  0
SPLINE
  5
607
102
{ACAD_REACTORS
330
606
102
}
330
18
100
AcDbEntity
  8
ROGO
 62
     4
100
AcDbSpline
210
0.0
220
0.0
230
1.0
 70
     8
 71
     3
 72
     9
 73
     5
 74
     3
 42
0.0000000001
 43
0.0000000001
 44
0.0000000001
 40
0.0
 40
0.0
 40
0.0
 40
0.0
 40
0.146030572742497
 40
0.3423777932799819
 40
0.3423777932799819
 40
0.3423777932799819
 40
0.3423777932799819
 10
335.9985418095897
 20
292.8432662767011
 30
0.0
 10
336.04545105457
 20
292.8576178563453
 30
0.0
 10
336.1554327075838
 20
292.8912660306717
 30
0.0
 10
336.2463027468883
 20
292.9623818678104
 30
0.0
 10
336.2984150041601
 20
293.0031654619348
 30
0.0
 11
335.9985418095897
 21
292.8432662767011
 31
0.0
 11
336.1357927921643
 21
292.8931370693336
 31
0.0
 11
336.2984150041601
 21
293.0031654619348
 31
0.0
  0
LINE
  5
608
102
{ACAD_REACTORS
330
606
102
}
330
18
100
AcDbEntity
  8
ROGO
 62
     4
100
AcDbLine
 10
335.2063009692551
 20
294.5009964660427
 30
0.0
 11
336.1711701704935
 21
294.5009964660427
 31
0.0
  0
ELLIPSE
  5
609
102
{ACAD_REACTORS
330
606
102
}
330
18
100
AcDbEntity
  8
ROGO
 62
     4
100
AcDbEllipse
 10
335.4280331909232
 20
293.6296730474754
 30
0.0
 11
0.2292231973722778
 21
0.2015731185223643
 31
0.0
210
0.0
220
0.0
230
1.0
 40
0.6788083417438792
 41
0.0
 42
6.283185307179586
  0
SPLINE
  5
60A
102
{ACAD_REACTORS
330
606
102
}
330
18
100
AcDbEntity
  8
ROGO
 62
     4
100
AcDbSpline
210
0.0
220
0.0
230
1.0
 70
     8
 71
     3
 72
    11
 73
     7
 74
     0
 42
0.0000000001
 43
0.0000000001
 40
0.1647869275458134
 40
0.1647869275458134
 40
0.1647869275458134
 40
0.1647869275458134
 40
0.2895635144633836
 40
0.5387013147903714
 40
0.7953622617455423
 40
0.8850764140209602
 40
0.8850764140209602
 40
0.8850764140209602
 40
0.8850764140209602
 10
335.9985418095897
 20
292.8432662767011
 30
0.0
 10
335.9805693974172
 20
292.8382636489228
 30
0.0
 10
335.924845239859
 20
292.8293567477721
 30
0.0
 10
335.8313753963957
 20
292.8171265264349
 30
0.0
 10
335.7425369851289
 20
292.8043638442547
 30
0.0
 10
335.6905546632065
 20
292.8053656534205
 30
0.0
 10
335.6770907913666
 20
292.8056251306758
 30
0.0
  0
LINE
  5
60B
102
{ACAD_REACTORS
330
606
102
}
330
18
100
AcDbEntity
  8
ROGO
 62
     4
100
AcDbLine
 10
334.7122215901283
 20
292.8056251306758
 30
0.0
 11
335.6770907913666
 21
292.8056251306758
 31
0.0
  0
SPLINE
  5
60C
102
{ACAD_REACTORS
330
606
102
}
330
18
100
AcDbEntity
  8
ROGO
 62
     4
100
AcDbSpline
210
0.0
220
0.0
230
1.0
 70
     8
 71
     3
 72
    38
 73
    34
 74
    32
 42
0.0000000001
 43
0.0000000001
 44
0.0000000001
 40
0.0
 40
0.0
 40
0.0
 40
0.0
 40
0.2324160190625641
 40
0.3054076598660179
 40
0.3991969555208118
 40
0.4773548548861183
 40
0.5433001127836845
 40
0.6308904647837286
 40
0.6756456824938584
 40
0.7260518053353911
 40
0.8003409450195571
 40
0.884494420029689
 40
0.9390839551137702
 40
0.9983865037096219
 40
1.064308042580248
 40
1.164347318186099
 40
1.259395062462607
 40
1.303582284428296
 40
1.353971899974848
 40
1.413666953858189
 40
1.456162161198055
 40
1.491785383230425
 40
1.542647296663551
 40
1.598535826931799
 40
1.654424046021893
 40
1.703326315520178
 40
1.815321205179844
 40
1.859508427145426
 40
1.947882923564461
 40
2.026002047025105
 40
2.175555252260891
 40
2.360088422381767
 40
2.626581173122162
 40
2.626581173122162
 40
2.626581173122162
 40
2.626581173122162
 10
335.2063009692551
 20
294.5009964660427
 30
0.0
 10
335.1288297437365
 20
294.4955236700559
 30
0.0
 10
335.0270282165094
 20
294.4883321097582
 30
0.0
 10
334.8977640804254
 20
294.4529175903517
 30
0.0
 10
334.8273008247158
 20
294.4107274939059
 30
0.0
 10
334.7539697230221
 20
294.3797157507195
 30
0.0
 10
334.6914481290985
 20
294.3337935088275
 30
0.0
 10
334.6282088567751
 20
294.3101302200075
 30
0.0
 10
334.583926782435
 20
294.2674610806712
 30
0.0
 10
334.5326738934069
 20
294.2413969287321
 30
0.0
 10
334.4918603079043
 20
294.1830577792849
 30
0.0
 10
334.4462422952207
 20
294.1285127885811
 30
0.0
 10
334.3933196615544
 20
294.0886973779816
 30
0.0
 10
334.3498853458351
 20
294.0468795478872
 30
0.0
 10
334.3100404006468
 20
293.9823420712221
 30
0.0
 10
334.2864583787696
 20
293.8965908751978
 30
0.0
 10
334.2199846173861
 20
293.8424506625454
 30
0.0
 10
334.2099757501935
 20
293.7773579726761
 30
0.0
 10
334.1732070856563
 20
293.7389543810023
 30
0.0
 10
334.1572187843558
 20
293.6893808613075
 30
0.0
 10
334.1511296696252
 20
293.6439627607522
 30
0.0
 10
334.1438212799992
 20
293.6015453989159
 30
0.0
 10
334.124703916843
 20
293.5569242079671
 30
0.0
 10
334.1309438901364
 20
293.5018052779079
 30
0.0
 10
334.129166309082
 20
293.4484317884452
 30
0.0
 10
334.1302124176193
 20
293.3763759156592
 30
0.0
 10
334.1264368670313
 20
293.306220662477
 30
0.0
 10
334.1565454034079
 20
293.2298751074032
 30
0.0
 10
334.1743626360401
 20
293.1618236071177
 30
0.0
 10
334.2231580259676
 20
293.0675980527943
 30
0.0
 10
334.3073290510193
 20
292.9588821365972
 30
0.0
 10
334.4673872958988
 20
292.8269216123636
 30
0.0
 10
334.6212879780466
 20
292.8135348314413
 30
0.0
 10
334.7122215901283
 20
292.8056251306758
 30
0.0
 11
335.2063009692551
 21
294.5009964660427
 31
0.0
 11
334.9755710074658
 21
294.4730520453195
 31
0.0
 11
334.9056528538724
 21
294.4520941965444
 31
0.0
 11
334.8217513991479
 21
294.4101778766377
 31
0.0
 11
334.7518332455545
 21
294.375247817501
 31
0.0
 11
334.6958989424048
 21
294.340317447186
 31
0.0
 11
334.6189891382459
 21
294.2984014384576
 31
0.0
 11
334.5840297867929
 21
294.2704573289125
 31
0.0
 11
334.5420787847744
 21
294.2425129081893
 31
0.0
 11
334.4931361321903
 21
294.1866246890993
 31
0.0
 11
334.4372018290406
 21
294.1237505204174
 31
0.0
 11
334.3952508270221
 21
294.0888201501025
 31
0.0
 11
334.3533003743161
 21
294.0469041413741
 31
0.0
 11
334.3183410228631
 21
293.991015922284
 31
0.0
 11
334.2763905701572
 21
293.900197332879
 31
0.0
 11
334.2204557176949
 21
293.8233509538356
 31
0.0
 11
334.2064724165638
 21
293.781434633929
 31
0.0
 11
334.178505264989
 21
293.7395186252005
 31
0.0
 11
334.1575297639797
 21
293.6836300949323
 31
0.0
 11
334.1505375641016
 21
293.6417140862038
 31
0.0
 11
334.143545913536
 21
293.6067837158889
 31
0.0
 11
334.1295626124048
 21
293.5578817575687
 31
0.0
 11
334.1295626124048
 21
293.5019932273004
 31
0.0
 11
334.1295626124048
 21
293.4461050082104
 31
0.0
 11
334.1295626124048
 21
293.397202738712
 31
0.0
 11
334.1365542629704
 21
293.2854263005319
 31
0.0
 11
334.1505375641016
 21
293.2435099806253
 31
0.0
 11
334.178505264989
 21
293.1596776519901
 31
0.0
 11
334.2134640671294
 21
293.0898172225385
 31
0.0
 11
334.304357721732
 21
292.9710548347666
 31
0.0
 11
334.4511856794844
 21
292.8592780854083
 31
0.0
 11
334.7122215901283
 21
292.8056251306758
 31
0.0
  0
HATCH
  5
60D
330
18
100
AcDbEntity
  8
ROGO
 62
     4
100
AcDbHatch
 10
0.0
 20
0.0
 30
0.0
210
0.0
220
0.0
230
1.0
  2
SOLID
 70
     1
 71
     1
 91
        2
 92
        7
 72
     0
 73
     1
 93
        8
 10
330.7602993833965
 20
294.4939543271069
 10
329.4097806198331
 20
294.4939543271068
 10
328.1922936239913
 20
292.8056251306758
 10
329.1273258047376
 20
292.8056251306758
 10
329.359127795913
 20
293.1270725636497
 10
330.4261124957787
 20
293.1270725636498
 10
330.5689121825816
 20
292.8056251306759
 10
331.510322111032
 20
292.8056251306759
 97
        8
330
61D
330
623
330
61E
330
61F
330
621
330
60E
330
61C
330
610
 92
       22
 72
     0
 73
     1
 93
        3
 10
330.2754973600065
 20
293.4661128644018
 10
329.6036163459568
 20
293.4661128644018
 10
330.0193735783595
 20
294.0426570710262
 97
        3
330
620
330
622
330
60F
 75
     0
 76
     1
 47
0.0128389261915577
 98
        2
 10
330.6545430930447
 20
294.0889004340667
 10
330.6545430930447
 20
294.0889004340667
450
        0
451
        0
460
0.0
461
0.0
452
        0
462
0.0
453
        0
470

  0
LINE
  5
60E
102
{ACAD_REACTORS
330
60D
102
}
330
18
100
AcDbEntity
  8
ROGO
 62
     4
100
AcDbLine
 10
330.4261124957786
 20
293.1270725636497
 30
0.0
 11
330.5689121825816
 21
292.8056251306758
 31
0.0
  0
LINE
  5
60F
102
{ACAD_REACTORS
330
60D
102
}
330
18
100
AcDbEntity
  8
ROGO
 62
     4
100
AcDbLine
 10
330.0193735783596
 20
294.042657071026
 30
0.0
 11
330.2754973600065
 21
293.4661128644018
 31
0.0
  0
LINE
  5
610
102
{ACAD_REACTORS
330
60D
102
}
330
18
100
AcDbEntity
  8
ROGO
 62
     4
100
AcDbLine
 10
330.7602993833964
 20
294.4939543271068
 30
0.0
 11
331.5103221110321
 21
292.8056251306758
 31
0.0
  0
HATCH
  5
611
330
18
100
AcDbEntity
  8
ROGO
 62
     4
100
AcDbHatch
 10
0.0
 20
0.0
 30
0.0
210
0.0
220
0.0
230
1.0
  2
SOLID
 70
     1
 71
     1
 91
        1
 92
        5
 93
        8
 72
     1
 10
333.955500742791
 20
293.8657864028281
 11
334.2687255577717
 21
294.493954327107
 72
     1
 10
334.2687255577717
 20
294.493954327107
 11
332.5779645464925
 21
294.493954327107
 72
     4
 94
        3
 73
     0
 74
     0
 95
       26
 96
       22
 40
0.0
 40
0.0
 40
0.0
 40
0.0
 40
0.306282258847545
 40
0.5113145150563467
 40
0.6591594689727181
 40
0.7695505122602936
 40
0.9127334891892449
 40
1.017243103820777
 40
1.205963108812785
 40
1.359578479722587
 40
1.464061546148638
 40
1.566512542290269
 40
1.749777456690453
 40
1.879367624743226
 40
1.949161942424621
 40
2.048302708997833
 40
2.119894481049029
 40
2.223607322578598
 40
2.282299819925661
 40
2.410021277698012
 40
2.468340004823004
 40
2.468340004823004
 40
2.468340004823004
 40
2.468340004823004
 10
332.5779645464921
 20
294.4939543271068
 10
332.4740076155167
 20
294.4877520783374
 10
332.3004595688606
 20
294.4773979042702
 10
332.1099048693739
 20
294.361637970738
 10
331.9702933408465
 20
294.2943402324408
 10
331.8707225680153
 20
294.2028546906154
 10
331.7977367879
 20
294.1083568088023
 10
331.7057245104316
 20
293.9957632754982
 10
331.6306911274098
 20
293.8646526621866
 10
331.59248118701
 20
293.7201459093909
 10
331.5586351844554
 20
293.6049731889582
 10
331.5335344223472
 20
293.476628222382
 10
331.5399207668209
 20
293.337970509082
 10
331.5490663043868
 20
293.2091923235056
 10
331.5898989057175
 20
293.1172639797429
 10
331.6364000059333
 20
293.0518173336908
 10
331.6933399663181
 20
292.9797351087925
 10
331.7556447347265
 20
292.9319952846536
 10
331.8071758638684
 20
292.845511385187
 10
331.8973793670631
 20
292.8344754158891
 10
331.9547163023034
 20
292.8125105431902
 10
331.9726899303252
 20
292.8056251306758
 72
     1
 10
331.9726899303252
 20
292.8056251306758
 11
333.426870092474
 21
292.8056251306758
 72
     1
 10
333.426870092474
 20
292.8056251306758
 11
333.7400915904897
 21
293.433786402828
 72
     1
 10
333.7400915904897
 20
293.433786402828
 11
332.6605017065113
 21
293.433786402828
 72
     4
 94
        3
 73
     0
 74
     0
 95
       16
 96
       12
 40
0.0
 40
0.0
 40
0.0
 40
0.0
 40
0.092496428386945
 40
0.1859468902404647
 40
0.2416858907028242
 40
0.2951281203562815
 40
0.3538203845089407
 40
0.3948066843496557
 40
0.4336991257336609
 40
0.512567413098898
 40
0.6740411735369377
 40
0.6740411735369377
 40
0.6740411735369377
 40
0.6740411735369377
 10
332.6605017065113
 20
293.433786402828
 10
332.6279374710761
 20
293.4433672783704
 10
332.5624731237732
 20
293.4626278492268
 10
332.5569942865402
 20
293.5559960209746
 10
332.5644584096199
 20
293.6225284836366
 10
332.5957181737476
 20
293.6709680017001
 10
332.6336416895688
 20
293.7062141244601
 10
332.6477622964632
 20
293.7521166884088
 10
332.6892685339087
 20
293.7867788671013
 10
332.7628702142685
 20
293.8450411474988
 10
332.8442609315403
 20
293.8574497114372
 10
332.8989432699108
 20
293.865786402828
 72
     1
 10
332.8989432699108
 20
293.865786402828
 11
333.955500742791
 21
293.8657864028281
 97
        8
330
614
330
617
330
61B
330
615
330
618
330
616
330
619
330
61A
 75
     0
 76
     1
 47
0.0514683685270805
 98
        1
 10
333.1692862714725
 20
294.1181124546607
450
        0
451
        0
460
0.0
461
0.0
452
        0
462
0.0
453
        0
470

  0
HATCH
  5
612
330
18
100
AcDbEntity
  8
ROGO
 62
     4
100
AcDbHatch
 10
0.0
 20
0.0
 30
0.0
210
0.0
220
0.0
230
1.0
  2
SOLID
 70
     1
 71
     1
 91
        1
 92
        1
 93
       12
 72
     1
 10
326.4647525165282
 20
294.4939543271068
 11
328.7482879931504
 21
294.493954327107
 72
     1
 10
328.7482879931504
 20
294.4939543271068
 11
328.5569297414917
 21
294.1072084733598
 72
     1
 10
328.5569297414917
 20
294.1072084733598
 11
327.3567611986399
 21
294.1072084733598
 72
     1
 10
327.3567611986399
 20
294.1072084733598
 11
327.207142825113
 21
293.8048212749802
 72
     1
 10
327.207142825113
 20
293.8048212749802
 11
328.4073113679647
 21
293.8048212749802
 72
     1
 10
328.4073113679647
 20
293.8048212749802
 11
328.2538917421626
 21
293.4947515306758
 72
     1
 10
328.2538917421626
 20
293.4947515306759
 11
327.053723199311
 21
293.4947515306758
 72
     1
 10
327.053723199311
 20
293.4947515306758
 11
326.9040984916613
 21
293.1923515306758
 72
     1
 10
326.9040984916613
 20
293.1923515306758
 11
328.104267034513
 21
293.1923515306758
 72
     1
 10
328.104267034513
 20
293.1923515306758
 11
327.9129184083873
 21
292.8056251306758
 72
     1
 10
327.9129184083873
 20
292.8056251306758
 11
325.6293829317652
 21
292.8056251306758
 72
     1
 10
325.6293829317652
 20
292.8056251306758
 11
326.4647525165282
 21
294.4939543271068
 97
       12
330
613
330
62D
330
62A
330
62B
330
629
330
626
330
627
330
624
330
628
330
625
330
62C
330
62E
 75
     0
 76
     1
 98
        1
 10
233.0574438296167
 20
177.7535451223923
450
        0
451
        0
460
0.0
461
0.0
452
        0
462
0.0
453
        0
470

  0
LINE
  5
613
102
{ACAD_REACTORS
330
612
102
}
330
18
100
AcDbEntity
  8
ROGO
 62
     4
100
AcDbLine
 10
326.4647525165282
 20
294.4939543271068
 30
0.0
 11
328.7482879931504
 21
294.493954327107
 31
0.0
  0
LINE
  5
614
102
{ACAD_REACTORS
330
611
102
}
330
18
100
AcDbEntity
  8
ROGO
 62
     4
100
AcDbLine
 10
332.5779645464926
 20
294.493954327107
 30
0.0
 11
334.2687255577716
 21
294.493954327107
 31
0.0
  0
LINE
  5
615
102
{ACAD_REACTORS
330
611
102
}
330
18
100
AcDbEntity
  8
ROGO
 62
     4
100
AcDbLine
 10
333.7400915904897
 20
293.433786402828
 30
0.0
 11
333.426870092474
 21
292.8056251306758
 31
0.0
  0
SPLINE
  5
616
102
{ACAD_REACTORS
330
611
102
}
330
18
100
AcDbEntity
  8
ROGO
 62
     4
100
AcDbSpline
210
0.0
220
0.0
230
1.0
 70
     8
 71
     3
 72
    16
 73
    12
 74
    10
 42
0.0000000001
 43
0.0000000001
 44
0.0000000001
 40
0.0
 40
0.0
 40
0.0
 40
0.0
 40
0.1614737604380397
 40
0.2403420478032769
 40
0.279234489187282
 40
0.320220789027997
 40
0.3789130531806562
 40
0.4323552828341136
 40
0.488094283296473
 40
0.5815447451499928
 40
0.6740411735369377
 40
0.6740411735369377
 40
0.6740411735369377
 40
0.6740411735369377
 10
332.8989432699108
 20
293.865786402828
 30
0.0
 10
332.8442609315403
 20
293.8574497114372
 30
0.0
 10
332.7628702142685
 20
293.8450411474988
 30
0.0
 10
332.6892685339087
 20
293.7867788671013
 30
0.0
 10
332.6477622964632
 20
293.7521166884088
 30
0.0
 10
332.6336416895688
 20
293.7062141244601
 30
0.0
 10
332.5957181737476
 20
293.6709680017001
 30
0.0
 10
332.5644584096199
 20
293.6225284836366
 30
0.0
 10
332.5569942865402
 20
293.5559960209746
 30
0.0
 10
332.5624731237732
 20
293.4626278492268
 30
0.0
 10
332.6279374710761
 20
293.4433672783704
 30
0.0
 10
332.6605017065113
 20
293.433786402828
 30
0.0
 11
332.8989432699108
 21
293.865786402828
 31
0.0
 11
332.7430393938703
 21
293.8237417034528
 31
0.0
 11
332.6788436491865
 21
293.7779256242182
 31
0.0
 11
332.6513312625135
 21
293.7504357974388
 31
0.0
 11
332.6329893198382
 21
293.7137826950664
 31
0.0
 11
332.5963059618274
 21
293.6679666158319
 31
0.0
 11
332.5687935751544
 21
293.6221502378663
 31
0.0
 11
332.5596226038166
 21
293.5671708830387
 31
0.0
 11
332.5779645464921
 21
293.4755381271076
 31
0.0
 11
332.6605017065113
 21
293.433786402828
 31
0.0
  0
SPLINE
  5
617
102
{ACAD_REACTORS
330
611
102
}
330
18
100
AcDbEntity
  8
ROGO
 62
     4
100
AcDbSpline
210
0.0
220
0.0
230
1.0
 70
     8
 71
     3
 72
    26
 73
    22
 74
    20
 42
0.0000000001
 43
0.0000000001
 44
0.0000000001
 40
0.0
 40
0.0
 40
0.0
 40
0.0
 40
0.306282258847545
 40
0.5113145150563467
 40
0.6591594689727181
 40
0.7695505122602936
 40
0.9127334891892449
 40
1.017243103820777
 40
1.205963108812785
 40
1.359578479722587
 40
1.464061546148638
 40
1.566512542290269
 40
1.749777456690453
 40
1.879367624743226
 40
1.949161942424621
 40
2.048302708997833
 40
2.119894481049029
 40
2.223607322578598
 40
2.282299819925661
 40
2.410021277698012
 40
2.468340004823004
 40
2.468340004823004
 40
2.468340004823004
 40
2.468340004823004
 10
332.5779645464921
 20
294.4939543271068
 30
0.0
 10
332.4740076155167
 20
294.4877520783374
 30
0.0
 10
332.3004595688606
 20
294.4773979042702
 30
0.0
 10
332.1099048693739
 20
294.361637970738
 30
0.0
 10
331.9702933408465
 20
294.2943402324408
 30
0.0
 10
331.8707225680153
 20
294.2028546906154
 30
0.0
 10
331.7977367879
 20
294.1083568088023
 30
0.0
 10
331.7057245104316
 20
293.9957632754982
 30
0.0
 10
331.6306911274098
 20
293.8646526621866
 30
0.0
 10
331.59248118701
 20
293.7201459093909
 30
0.0
 10
331.5586351844554
 20
293.6049731889582
 30
0.0
 10
331.5335344223472
 20
293.476628222382
 30
0.0
 10
331.5399207668209
 20
293.337970509082
 30
0.0
 10
331.5490663043868
 20
293.2091923235056
 30
0.0
 10
331.5898989057175
 20
293.1172639797429
 30
0.0
 10
331.6364000059333
 20
293.0518173336908
 30
0.0
 10
331.6933399663181
 20
292.9797351087925
 30
0.0
 10
331.7556447347265
 20
292.9319952846536
 30
0.0
 10
331.8071758638684
 20
292.845511385187
 30
0.0
 10
331.8973793670631
 20
292.8344754158891
 30
0.0
 10
331.9547163023034
 20
292.8125105431902
 30
0.0
 10
331.9726899303252
 20
292.8056251306758
 30
0.0
 11
332.5779645464921
 21
294.4939543271068
 31
0.0
 11
332.2753272384086
 21
294.4468429501291
 31
0.0
 11
332.0919104483551
 21
294.3552104929291
 31
0.0
 11
331.9635189589875
 21
294.2819045869153
 31
0.0
 11
331.8809817989684
 21
294.2085983821704
 31
0.0
 11
331.7892736676117
 21
294.0986393737841
 31
0.0
 11
331.7250779229279
 21
294.0161701921771
 31
0.0
 11
331.6333692642311
 21
293.8512315302321
 31
0.0
 11
331.5875154622227
 21
293.7046194194734
 31
0.0
 11
331.5600030755498
 21
293.60382368668
 31
0.0
 11
331.5416611328743
 21
293.5030279538869
 31
0.0
 11
331.5416611328743
 21
293.3197630394867
 31
0.0
 11
331.5600030755498
 21
293.1914774799142
 31
0.0
 11
331.5875154622227
 21
293.1273345507624
 31
0.0
 11
331.6425402355687
 21
293.0448653691554
 31
0.0
 11
331.6883945649172
 21
292.9898857155966
 31
0.0
 11
331.7617607535985
 21
292.9165798095828
 31
0.0
 11
331.7984441116093
 21
292.8707634316172
 31
0.0
 11
331.9176651569792
 21
292.8249473523828
 31
0.0
 11
331.9726899303252
 21
292.8056251306758
 31
0.0
  0
LINE
  5
618
102
{ACAD_REACTORS
330
611
102
}
330
18
100
AcDbEntity
  8
ROGO
 62
     4
100
AcDbLine
 10
332.6605017065111
 20
293.433786402828
 30
0.0
 11
333.7400915904897
 21
293.433786402828
 31
0.0
  0
LINE
  5
619
102
{ACAD_REACTORS
330
611
102
}
330
18
100
AcDbEntity
  8
ROGO
 62
     4
100
AcDbLine
 10
332.8989432699108
 20
293.865786402828
 30
0.0
 11
333.9555007427908
 21
293.8657864028281
 31
0.0
  0
LINE
  5
61A
102
{ACAD_REACTORS
330
611
102
}
330
18
100
AcDbEntity
  8
ROGO
 62
     4
100
AcDbLine
 10
334.2687255577716
 20
294.4939543271068
 30
0.0
 11
333.9555007427908
 21
293.865786402828
 31
0.0
  0
LINE
  5
61B
102
{ACAD_REACTORS
330
611
102
}
330
18
100
AcDbEntity
  8
ROGO
 62
     4
100
AcDbLine
 10
331.9726899303252
 20
292.8056251306758
 30
0.0
 11
333.426870092474
 21
292.8056251306758
 31
0.0
  0
LINE
  5
61C
102
{ACAD_REACTORS
330
60D
102
}
330
18
100
AcDbEntity
  8
ROGO
 62
     4
100
AcDbLine
 10
331.5103221110321
 20
292.805625130676
 30
0.0
 11
330.5689121825816
 21
292.8056251306758
 31
0.0
  0
LINE
  5
61D
102
{ACAD_REACTORS
330
60D
102
}
330
18
100
AcDbEntity
  8
ROGO
 62
     4
100
AcDbLine
 10
329.4097806198331
 20
294.4939543271068
 30
0.0
 11
330.7602993833964
 21
294.4939543271068
 31
0.0
  0
LINE
  5
61E
102
{ACAD_REACTORS
330
60D
102
}
330
18
100
AcDbEntity
  8
ROGO
 62
     4
100
AcDbLine
 10
328.1922936239913
 20
292.8056251306758
 30
0.0
 11
329.1273258047377
 21
292.8056251306758
 31
0.0
  0
LINE
  5
61F
102
{ACAD_REACTORS
330
60D
102
}
330
18
100
AcDbEntity
  8
ROGO
 62
     4
100
AcDbLine
 10
329.3591277959131
 20
293.1270725636497
 30
0.0
 11
329.1273258047377
 21
292.805625130676
 31
0.0
  0
LINE
  5
620
102
{ACAD_REACTORS
330
60D
102
}
330
18
100
AcDbEntity
  8
ROGO
 62
     4
100
AcDbLine
 10
329.6036163459569
 20
293.4661128644018
 30
0.0
 11
330.2754973600065
 21
293.4661128644018
 31
0.0
  0
LINE
  5
621
102
{ACAD_REACTORS
330
60D
102
}
330
18
100
AcDbEntity
  8
ROGO
 62
     4
100
AcDbLine
 10
329.3591277959131
 20
293.1270725636497
 30
0.0
 11
330.4261124957786
 21
293.1270725636497
 31
0.0
  0
LINE
  5
622
102
{ACAD_REACTORS
330
60D
102
}
330
18
100
AcDbEntity
  8
ROGO
 62
     4
100
AcDbLine
 10
330.0193735783595
 20
294.042657071026
 30
0.0
 11
329.6036163459568
 21
293.4661128644018
 31
0.0
  0
LINE
  5
623
102
{ACAD_REACTORS
330
60D
102
}
330
18
100
AcDbEntity
  8
ROGO
 62
     4
100
AcDbLine
 10
329.4097806198331
 20
294.4939543271068
 30
0.0
 11
328.1922936239913
 21
292.8056251306758
 31
0.0
  0
LINE
  5
624
102
{ACAD_REACTORS
330
612
102
}
330
18
100
AcDbEntity
  8
ROGO
 62
     4
100
AcDbLine
 10
327.053723199311
 20
293.4947515306758
 30
0.0
 11
326.9040984916613
 21
293.1923515306758
 31
0.0
  0
LINE
  5
625
102
{ACAD_REACTORS
330
612
102
}
330
18
100
AcDbEntity
  8
ROGO
 62
     4
100
AcDbLine
 10
328.104267034513
 20
293.1923515306758
 30
0.0
 11
327.9129184083873
 21
292.8056251306758
 31
0.0
  0
LINE
  5
626
102
{ACAD_REACTORS
330
612
102
}
330
18
100
AcDbEntity
  8
ROGO
 62
     4
100
AcDbLine
 10
328.4073113679647
 20
293.8048212749802
 30
0.0
 11
328.2538917421626
 21
293.4947515306758
 31
0.0
  0
LINE
  5
627
102
{ACAD_REACTORS
330
612
102
}
330
18
100
AcDbEntity
  8
ROGO
 62
     4
100
AcDbLine
 10
327.053723199311
 20
293.4947515306758
 30
0.0
 11
328.2538917421626
 21
293.4947515306759
 31
0.0
  0
LINE
  5
628
102
{ACAD_REACTORS
330
612
102
}
330
18
100
AcDbEntity
  8
ROGO
 62
     4
100
AcDbLine
 10
326.9040984916613
 20
293.1923515306758
 30
0.0
 11
328.104267034513
 21
293.1923515306758
 31
0.0
  0
LINE
  5
629
102
{ACAD_REACTORS
330
612
102
}
330
18
100
AcDbEntity
  8
ROGO
 62
     4
100
AcDbLine
 10
327.207142825113
 20
293.8048212749802
 30
0.0
 11
328.4073113679647
 21
293.8048212749802
 31
0.0
  0
LINE
  5
62A
102
{ACAD_REACTORS
330
612
102
}
330
18
100
AcDbEntity
  8
ROGO
 62
     4
100
AcDbLine
 10
327.3567611986399
 20
294.1072084733598
 30
0.0
 11
328.5569297414917
 21
294.1072084733598
 31
0.0
  0
LINE
  5
62B
102
{ACAD_REACTORS
330
612
102
}
330
18
100
AcDbEntity
  8
ROGO
 62
     4
100
AcDbLine
 10
327.3567611986399
 20
294.1072084733598
 30
0.0
 11
327.207142825113
 21
293.8048212749802
 31
0.0
  0
LINE
  5
62C
102
{ACAD_REACTORS
330
612
102
}
330
18
100
AcDbEntity
  8
ROGO
 62
     4
100
AcDbLine
 10
325.6293829317652
 20
292.8056251306758
 30
0.0
 11
327.9129184083873
 21
292.8056251306758
 31
0.0
  0
LINE
  5
62D
102
{ACAD_REACTORS
330
612
102
}
330
18
100
AcDbEntity
  8
ROGO
 62
     4
100
AcDbLine
 10
328.7482879931504
 20
294.4939543271068
 30
0.0
 11
328.5569297414917
 21
294.1072084733598
 31
0.0
  0
LINE
  5
62E
102
{ACAD_REACTORS
330
612
102
}
330
18
100
AcDbEntity
  8
ROGO
 62
     4
100
AcDbLine
 10
326.4647525165282
 20
294.4939543271068
 30
0.0
 11
325.6293829317652
 21
292.8056251306758
 31
0.0
  0
HATCH
  5
62F
330
18
100
AcDbEntity
  8
ROGO
 62
     4
100
AcDbHatch
 10
0.0
 20
0.0
 30
0.0
210
0.0
220
0.0
230
1.0
  2
SOLID
 70
     1
 71
     1
 91
        1
 92
        7
 72
     0
 73
     1
 93
       11
 10
340.7972184362246
 20
294.0183173715427
 10
341.0343863839127
 20
294.4939543271068
 10
340.0622787149788
 20
294.4939543271068
 10
338.7468219599746
 20
291.8558244607991
 10
339.7189296289087
 20
291.8558244607991
 10
340.0622787149787
 20
292.5444061835243
 10
340.4056278010489
 20
291.8558244607991
 10
341.3777142010489
 20
291.8558244607991
 10
340.7199858235468
 20
293.1748893939529
 10
342.3180113532585
 20
294.4939543271068
 10
341.3459249532585
 20
294.4939543271068
 97
       11
330
634
330
630
330
639
330
63B
330
63A
330
5FC
330
636
330
638
330
633
330
637
330
635
 75
     0
 76
     1
 47
0.015942268611278
 98
        1
 10
340.5870295967685
 20
293.6380942513131
450
        0
451
        0
460
0.0
461
0.0
452
        0
462
0.0
453
        0
470

  0
LINE
  5
630
102
{ACAD_REACTORS
330
62F
102
}
330
18
100
AcDbEntity
  8
ROGO
 62
     4
100
AcDbLine
 10
340.7972184362249
 20
294.0183173715427
 30
0.0
 11
341.3459249532585
 21
294.4939543271068
 31
0.0
  0
SPLINE
  5
631
102
{ACAD_REACTORS
330
606
102
}
330
18
100
AcDbEntity
  8
ROGO
 62
     4
100
AcDbSpline
210
0.0
220
0.0
230
1.0
 70
     8
 71
     3
 72
    25
 73
    21
 74
     0
 42
0.0000000001
 43
0.0000000001
 40
0.0
 40
0.0
 40
0.0
 40
0.0
 40
0.4087168505087288
 40
0.6887487002771746
 40
0.9415836120477687
 40
1.17452070575514
 40
1.41154617586699
 40
1.599156012919487
 40
1.80099909059943
 40
2.178735911501585
 40
2.521686161369157
 40
2.762704659361267
 40
3.06256558063785
 40
3.222432137207705
 40
3.399493810628493
 40
3.567459719866414
 40
3.743172740007509
 40
3.995988754699505
 40
4.17170091132118
 40
4.337226830236035
 40
4.337226830236035
 40
4.337226830236035
 40
4.337226830236035
 10
336.1711701704935
 20
294.5009964660427
 30
0.0
 10
336.2344530924691
 20
294.4989632510277
 30
0.0
 10
336.3410942309645
 20
294.4955369812343
 30
0.0
 10
336.4555866491916
 20
294.40604780918
 30
0.0
 10
336.543192933025
 20
294.3318544290607
 30
0.0
 10
336.605376960703
 20
294.2421581066311
 30
0.0
 10
336.6598830032432
 20
294.1596871161891
 30
0.0
 10
336.6957983528036
 20
294.0726167259041
 30
0.0
 10
336.7446503240998
 20
293.9681402316423
 30
0.0
 10
336.7648726267891
 20
293.8283662042311
 30
0.0
 10
336.7512100567848
 20
293.6838968503153
 30
0.0
 10
336.715557128288
 20
293.5558380569823
 30
0.0
 10
336.6781600728166
 20
293.4575943589399
 30
0.0
 10
336.6340831913514
 20
293.372067124952
 30
0.0
 10
336.581537916246
 20
293.3166882343104
 30
0.0
 10
336.5450841162674
 20
293.2462745147207
 30
0.0
 10
336.475061029631
 20
293.1886798724548
 30
0.0
 10
336.4182965384509
 20
293.1176161675854
 30
0.0
 10
336.3538806627714
 20
293.0566214340072
 30
0.0
 10
336.3175627065235
 20
293.0189884184364
 30
0.0
 10
336.2984150041601
 20
293.0031654619348
 30
0.0
  0
HATCH
  5
632
330
18
100
AcDbEntity
  8
ROGO
 62
     4
100
AcDbHatch
 10
0.0
 20
0.0
 30
0.0
210
0.0
220
0.0
230
1.0
  2
SOLID
 70
     1
 71
     1
 91
        1
 92
        5
 93
        8
 72
     4
 94
        3
 73
     0
 74
     0
 95
       26
 96
       22
 40
0.0
 40
0.0
 40
0.0
 40
0.0
 40
0.306282258847545
 40
0.5113145150563467
 40
0.6591594689727181
 40
0.7695505122602936
 40
0.9127334891893321
 40
1.017243103820775
 40
1.205963108812882
 40
1.359578479722684
 40
1.464061546148625
 40
1.566512542290257
 40
1.74977745669044
 40
1.879367624743214
 40
1.949161942424609
 40
2.048302708997821
 40
2.119894481049017
 40
2.223607322578586
 40
2.282299819925649
 40
2.41002127769804
 40
2.468340004822995
 40
2.468340004822995
 40
2.468340004822995
 40
2.468340004822995
 10
338.0179113948279
 20
294.4939543271068
 10
337.9139544638525
 20
294.4877520783374
 10
337.7404064171963
 20
294.4773979042702
 10
337.5498517177098
 20
294.361637970738
 10
337.4102401891823
 20
294.2943402324407
 10
337.3106694163511
 20
294.2028546906156
 10
337.2376836362359
 20
294.1083568088022
 10
337.1456713587674
 20
293.9957632754982
 10
337.0706379757457
 20
293.8646526621866
 10
337.0324280353458
 20
293.7201459093909
 10
336.9985820327911
 20
293.604973188958
 10
336.973481270683
 20
293.476628222382
 10
336.9798676151568
 20
293.337970509082
 10
336.9890131527224
 20
293.2091923235056
 10
337.0298457540533
 20
293.1172639797429
 10
337.076346854269
 20
293.0518173336908
 10
337.1332868146541
 20
292.9797351087925
 10
337.1955915830622
 20
292.9319952846536
 10
337.2471227122044
 20
292.8455113851871
 10
337.3373262153989
 20
292.8344754158891
 10
337.3946631506393
 20
292.8125105431902
 10
337.4126367786611
 20
292.8056251306758
 72
     1
 10
337.412636778661
 20
292.8056251306758
 11
338.8668169408098
 21
292.8056251306759
 72
     1
 10
338.8668169408098
 20
292.8056251306759
 11
339.1800384388255
 21
293.4337864028279
 72
     1
 10
339.1800384388255
 20
293.4337864028279
 11
338.1004485548471
 21
293.433786402828
 72
     4
 94
        3
 73
     0
 74
     0
 95
       16
 96
       12
 40
0.0
 40
0.0
 40
0.0
 40
0.0
 40
0.0924964283868937
 40
0.185946890240525
 40
0.2416858907028844
 40
0.2951281203562444
 40
0.3538203845089212
 40
0.3948066843497379
 40
0.4336991257335823
 40
0.5125674130988856
 40
0.6740411735369252
 40
0.6740411735369252
 40
0.6740411735369252
 40
0.6740411735369252
 10
338.1004485548471
 20
293.433786402828
 10
338.067884319412
 20
293.4433672783704
 10
338.002419972109
 20
293.4626278492267
 10
337.9969411348761
 20
293.5559960209746
 10
338.0044052579556
 20
293.6225284836364
 10
338.0356650220835
 20
293.6709680016999
 10
338.0735885379041
 20
293.7062141244601
 10
338.0877091447993
 20
293.7521166884087
 10
338.1292153822445
 20
293.7867788671013
 10
338.2028170626043
 20
293.8450411474988
 10
338.2842077798762
 20
293.8574497114372
 10
338.3388901182466
 20
293.865786402828
 72
     1
 10
338.3388901182466
 20
293.865786402828
 11
339.3954475911266
 21
293.865786402828
 72
     1
 10
339.3954475911266
 20
293.865786402828
 11
339.7086724061074
 21
294.4939543271068
 72
     1
 10
339.7086724061074
 20
294.4939543271068
 11
338.0179113948279
 21
294.4939543271068
 97
        8
330
642
330
640
330
643
330
63F
330
63E
330
641
330
63D
330
63C
 75
     0
 76
     1
 47
0.0514683685270805
 98
        1
 10
338.3096623758513
 20
294.1848155087338
450
        0
451
        0
460
0.0
461
0.0
452
        0
462
0.0
453
        0
470

  0
LINE
  5
633
102
{ACAD_REACTORS
330
62F
102
}
330
18
100
AcDbEntity
  8
ROGO
 62
     4
100
AcDbLine
 10
340.4056278010489
 20
291.8558244607991
 30
0.0
 11
341.3777142010489
 21
291.8558244607991
 31
0.0
  0
LINE
  5
634
102
{ACAD_REACTORS
330
62F
102
}
330
18
100
AcDbEntity
  8
ROGO
 62
     4
100
AcDbLine
 10
341.3459249532585
 20
294.4939543271068
 30
0.0
 11
342.3180113532585
 21
294.4939543271068
 31
0.0
  0
LINE
  5
635
102
{ACAD_REACTORS
330
62F
102
}
330
18
100
AcDbEntity
  8
ROGO
 62
     4
100
AcDbLine
 10
340.7199858235468
 20
293.174889393953
 30
0.0
 11
342.3180113532585
 21
294.4939543271068
 31
0.0
  0
LINE
  5
636
102
{ACAD_REACTORS
330
62F
102
}
330
18
100
AcDbEntity
  8
ROGO
 62
     4
100
AcDbLine
 10
340.0622787149788
 20
292.5444061835243
 30
0.0
 11
339.7189296289087
 21
291.8558244607991
 31
0.0
  0
LINE
  5
637
102
{ACAD_REACTORS
330
62F
102
}
330
18
100
AcDbEntity
  8
ROGO
 62
     4
100
AcDbLine
 10
340.7199858235468
 20
293.174889393953
 30
0.0
 11
341.3777142010489
 21
291.8558244607991
 31
0.0
  0
LINE
  5
638
102
{ACAD_REACTORS
330
62F
102
}
330
18
100
AcDbEntity
  8
ROGO
 62
     4
100
AcDbLine
 10
340.0622787149788
 20
292.5444061835243
 30
0.0
 11
340.4056278010489
 21
291.8558244607991
 31
0.0
  0
LINE
  5
639
102
{ACAD_REACTORS
330
62F
102
}
330
18
100
AcDbEntity
  8
ROGO
 62
     4
100
AcDbLine
 10
341.0343863839127
 20
294.4939543271068
 30
0.0
 11
340.7972184362249
 21
294.0183173715427
 31
0.0
  0
LINE
  5
63A
102
{ACAD_REACTORS
330
62F
102
}
330
18
100
AcDbEntity
  8
ROGO
 62
     4
100
AcDbLine
 10
340.0622787149788
 20
294.4939543271068
 30
0.0
 11
338.7468219599747
 21
291.8558244607991
 31
0.0
  0
LINE
  5
63B
102
{ACAD_REACTORS
330
62F
102
}
330
18
100
AcDbEntity
  8
ROGO
 62
     4
100
AcDbLine
 10
340.0622787149788
 20
294.4939543271068
 30
0.0
 11
341.0343863839127
 21
294.4939543271068
 31
0.0
  0
LINE
  5
63C
102
{ACAD_REACTORS
330
632
102
}
330
18
100
AcDbEntity
  8
ROGO
 62
     4
100
AcDbLine
 10
339.7086724061074
 20
294.4939543271068
 30
0.0
 11
339.3954475911266
 21
293.865786402828
 31
0.0
  0
LINE
  5
63D
102
{ACAD_REACTORS
330
632
102
}
330
18
100
AcDbEntity
  8
ROGO
 62
     4
100
AcDbLine
 10
338.3388901182465
 20
293.865786402828
 30
0.0
 11
339.3954475911266
 21
293.865786402828
 31
0.0
  0
LINE
  5
63E
102
{ACAD_REACTORS
330
632
102
}
330
18
100
AcDbEntity
  8
ROGO
 62
     4
100
AcDbLine
 10
338.1004485548469
 20
293.433786402828
 30
0.0
 11
339.1800384388255
 21
293.433786402828
 31
0.0
  0
LINE
  5
63F
102
{ACAD_REACTORS
330
632
102
}
330
18
100
AcDbEntity
  8
ROGO
 62
     4
100
AcDbLine
 10
339.1800384388255
 20
293.433786402828
 30
0.0
 11
338.8668169408098
 21
292.8056251306758
 31
0.0
  0
SPLINE
  5
640
102
{ACAD_REACTORS
330
632
102
}
330
18
100
AcDbEntity
  8
ROGO
 62
     4
100
AcDbSpline
210
0.0
220
0.0
230
1.0
 70
     8
 71
     3
 72
    26
 73
    22
 74
    20
 42
0.0000000001
 43
0.0000000001
 44
0.0000000001
 40
0.0
 40
0.0
 40
0.0
 40
0.0
 40
0.306282258847545
 40
0.5113145150563467
 40
0.6591594689727181
 40
0.7695505122602936
 40
0.9127334891893321
 40
1.017243103820775
 40
1.205963108812882
 40
1.359578479722684
 40
1.464061546148625
 40
1.566512542290257
 40
1.74977745669044
 40
1.879367624743214
 40
1.949161942424609
 40
2.048302708997821
 40
2.119894481049017
 40
2.223607322578586
 40
2.282299819925649
 40
2.41002127769804
 40
2.468340004822995
 40
2.468340004822995
 40
2.468340004822995
 40
2.468340004822995
 10
338.0179113948279
 20
294.4939543271068
 30
0.0
 10
337.9139544638525
 20
294.4877520783374
 30
0.0
 10
337.7404064171963
 20
294.4773979042702
 30
0.0
 10
337.5498517177098
 20
294.361637970738
 30
0.0
 10
337.4102401891823
 20
294.2943402324407
 30
0.0
 10
337.3106694163511
 20
294.2028546906156
 30
0.0
 10
337.2376836362359
 20
294.1083568088022
 30
0.0
 10
337.1456713587674
 20
293.9957632754982
 30
0.0
 10
337.0706379757457
 20
293.8646526621866
 30
0.0
 10
337.0324280353458
 20
293.7201459093909
 30
0.0
 10
336.9985820327911
 20
293.604973188958
 30
0.0
 10
336.973481270683
 20
293.476628222382
 30
0.0
 10
336.9798676151568
 20
293.337970509082
 30
0.0
 10
336.9890131527224
 20
293.2091923235056
 30
0.0
 10
337.0298457540533
 20
293.1172639797429
 30
0.0
 10
337.076346854269
 20
293.0518173336908
 30
0.0
 10
337.1332868146541
 20
292.9797351087925
 30
0.0
 10
337.1955915830622
 20
292.9319952846536
 30
0.0
 10
337.2471227122044
 20
292.8455113851871
 30
0.0
 10
337.3373262153989
 20
292.8344754158891
 30
0.0
 10
337.3946631506393
 20
292.8125105431902
 30
0.0
 10
337.4126367786611
 20
292.8056251306758
 30
0.0
 11
338.0179113948279
 21
294.4939543271068
 31
0.0
 11
337.7152740867444
 21
294.4468429501291
 31
0.0
 11
337.5318572966909
 21
294.3552104929291
 31
0.0
 11
337.4034658073233
 21
294.2819045869153
 31
0.0
 11
337.3209286473042
 21
294.2085983821704
 31
0.0
 11
337.2292205159475
 21
294.098639373784
 31
0.0
 11
337.1650247712637
 21
294.0161701921771
 31
0.0
 11
337.0733161125669
 21
293.851231530232
 31
0.0
 11
337.0274623105585
 21
293.7046194194733
 31
0.0
 11
336.9999499238856
 21
293.60382368668
 31
0.0
 11
336.9816079812101
 21
293.5030279538869
 31
0.0
 11
336.9816079812101
 21
293.3197630394867
 31
0.0
 11
336.9999499238856
 21
293.1914774799142
 31
0.0
 11
337.0274623105585
 21
293.1273345507624
 31
0.0
 11
337.0824870839046
 21
293.0448653691554
 31
0.0
 11
337.128341413253
 21
292.9898857155966
 31
0.0
 11
337.2017076019343
 21
292.9165798095828
 31
0.0
 11
337.2383909599451
 21
292.8707634316172
 31
0.0
 11
337.357612005315
 21
292.8249473523827
 31
0.0
 11
337.4126367786611
 21
292.8056251306758
 31
0.0
  0
SPLINE
  5
641
102
{ACAD_REACTORS
330
632
102
}
330
18
100
AcDbEntity
  8
ROGO
 62
     4
100
AcDbSpline
210
0.0
220
0.0
230
1.0
 70
     8
 71
     3
 72
    16
 73
    12
 74
    10
 42
0.0000000001
 43
0.0000000001
 44
0.0000000001
 40
0.0
 40
0.0
 40
0.0
 40
0.0
 40
0.1614737604380397
 40
0.2403420478033429
 40
0.2792344891871872
 40
0.320220789028004
 40
0.3789130531806808
 40
0.4323552828340408
 40
0.4880942832964002
 40
0.5815447451500316
 40
0.6740411735369252
 40
0.6740411735369252
 40
0.6740411735369252
 40
0.6740411735369252
 10
338.3388901182466
 20
293.865786402828
 30
0.0
 10
338.2842077798762
 20
293.8574497114372
 30
0.0
 10
338.2028170626043
 20
293.8450411474988
 30
0.0
 10
338.1292153822445
 20
293.7867788671013
 30
0.0
 10
338.0877091447993
 20
293.7521166884087
 30
0.0
 10
338.0735885379041
 20
293.7062141244601
 30
0.0
 10
338.0356650220835
 20
293.6709680016999
 30
0.0
 10
338.0044052579556
 20
293.6225284836364
 30
0.0
 10
337.9969411348761
 20
293.5559960209746
 30
0.0
 10
338.002419972109
 20
293.4626278492267
 30
0.0
 10
338.067884319412
 20
293.4433672783704
 30
0.0
 10
338.1004485548471
 20
293.433786402828
 30
0.0
 11
338.3388901182466
 21
293.865786402828
 31
0.0
 11
338.1829862422061
 21
293.8237417034528
 31
0.0
 11
338.1187904975224
 21
293.7779256242182
 31
0.0
 11
338.0912781108494
 21
293.7504357974388
 31
0.0
 11
338.0729361681739
 21
293.7137826950664
 31
0.0
 11
338.0362528101632
 21
293.6679666158318
 31
0.0
 11
338.0087404234902
 21
293.6221502378663
 31
0.0
 11
337.9995694521524
 21
293.5671708830387
 31
0.0
 11
338.0179113948279
 21
293.4755381271075
 31
0.0
 11
338.1004485548471
 21
293.433786402828
 31
0.0
  0
LINE
  5
642
102
{ACAD_REACTORS
330
632
102
}
330
18
100
AcDbEntity
  8
ROGO
 62
     4
100
AcDbLine
 10
338.0179113948284
 20
294.4939543271068
 30
0.0
 11
339.7086724061074
 21
294.4939543271068
 31
0.0
  0
LINE
  5
643
102
{ACAD_REACTORS
330
632
102
}
330
18
100
AcDbEntity
  8
ROGO
 62
     4
100
AcDbLine
 10
337.412636778661
 20
292.8056251306758
 30
0.0
 11
338.8668169408098
 21
292.8056251306758
 31
0.0
  0
LINE
  5
7BF
330
18
100
AcDbEntity
  8
外形線
100
AcDbLine
 10
418.2712355068857
 20
207.9510489428109
 30
0.0
 11
417.3212355068857
 21
203.4510489428109
 31
0.0
  0
LINE
  5
7C0
330
18
100
AcDbEntity
  8
外形線
100
AcDbLine
 10
413.7712355068857
 20
207.9510489428109
 30
0.0
 11
414.7212355068857
 21
203.4510489428109
 31
0.0
  0
POINT
  5
7C1
330
18
100
AcDbEntity
  8
DEFPOINTS
  6
ByBlock
 62
     0
100
AcDbPoint
 10
416.0212355068857
 20
202.4510489428109
 30
0.0
  0
ARC
  5
7C2
330
18
100
AcDbEntity
  8
外形線
100
AcDbCircle
 10
416.0212355068857
 20
203.6010489428109
 30
0.0
 40
1.150000000000005
100
AcDbArc
 50
187.494717453927
 51
352.505282546073
  0
LINE
  5
7C3
330
18
100
AcDbEntity
  8
外形線
100
AcDbLine
 10
414.7212355068857
 20
203.4510489428109
 30
0.0
 11
417.3212355068857
 21
203.4510489428109
 31
0.0
  0
LINE
  5
7C4
330
18
100
AcDbEntity
  8
外形線
100
AcDbLine
 10
413.7712355068857
 20
211.4510489428109
 30
0.0
 11
418.2712355068857
 21
211.4510489428109
 31
0.0
  0
LINE
  5
7C5
330
18
100
AcDbEntity
  8
外形線
100
AcDbLine
 10
413.5212355068857
 20
211.2510489428109
 30
0.0
 11
418.5212355068857
 21
211.2510489428109
 31
0.0
  0
LINE
  5
7C6
330
18
100
AcDbEntity
  8
寸法線
100
AcDbLine
 10
413.5212355068857
 20
209.4968816291709
 30
0.0
 11
415.2754028205257
 21
211.2510489428109
 31
0.0
  0
LINE
  5
7C7
330
18
100
AcDbEntity
  8
外形線
100
AcDbLine
 10
413.7712355068857
 20
207.9510489428109
 30
0.0
 11
418.2712355068856
 21
207.9510489428109
 31
0.0
  0
LINE
  5
7C8
330
18
100
AcDbEntity
  8
外形線
100
AcDbLine
 10
413.5212355068857
 20
208.1510489428109
 30
0.0
 11
418.5212355068857
 21
208.1510489428109
 31
0.0
  0
LINE
  5
7C9
330
18
100
AcDbEntity
  8
寸法線
100
AcDbLine
 10
413.5224412386861
 20
208.1510489428109
 30
0.0
 11
416.0212355068858
 21
210.6498432110106
 31
0.0
  0
LINE
  5
7CA
330
18
100
AcDbEntity
  8
寸法線
100
AcDbLine
 10
414.9623218492315
 20
208.1510489428108
 30
0.0
 11
413.5212355068857
 21
209.5921352851567
 31
0.0
  0
LINE
  5
7CB
330
18
100
AcDbEntity
  8
寸法線
100
AcDbLine
 10
416.0212355068857
 20
208.4391737033171
 30
0.0
 11
413.5212355068857
 21
210.939173703317
 31
0.0
  0
LINE
  5
7CC
330
18
100
AcDbEntity
  8
外形線
100
AcDbLine
 10
413.7712355068857
 20
211.4510489428109
 30
0.0
 11
413.5212355068857
 21
211.2510489428109
 31
0.0
  0
LINE
  5
7CD
330
18
100
AcDbEntity
  8
寸法線
100
AcDbLine
 10
413.5212355068857
 20
210.8439200473313
 30
0.0
 11
413.9283644023653
 21
211.2510489428109
 31
0.0
  0
LINE
  5
7CE
330
18
100
AcDbEntity
  8
外形線
100
AcDbLine
 10
413.5212355068857
 20
208.1510489428109
 30
0.0
 11
413.7712355068857
 21
207.9510489428109
 31
0.0
  0
LINE
  5
7CF
330
18
100
AcDbEntity
  8
寸法線
100
AcDbLine
 10
413.6152834310712
 20
208.1510489428109
 30
0.0
 11
413.5212355068857
 21
208.2450968669963
 31
0.0
  0
LINE
  5
7D0
330
18
100
AcDbEntity
  8
外形線
100
AcDbLine
 10
413.5212355068857
 20
211.2510489428109
 30
0.0
 11
413.5212355068857
 21
208.1510489428109
 31
0.0
  0
LINE
  5
7D1
330
18
100
AcDbEntity
  8
外形線
100
AcDbLine
 10
418.2712355068857
 20
211.4510489428109
 30
0.0
 11
418.5212355068857
 21
211.2510489428109
 31
0.0
  0
LINE
  5
7D2
330
18
100
AcDbEntity
  8
寸法線
100
AcDbLine
 10
416.0212355068858
 20
211.1332505396378
 30
0.0
 11
415.9034371037127
 21
211.2510489428109
 31
0.0
  0
LINE
  5
7D3
330
18
100
AcDbEntity
  8
寸法線
100
AcDbLine
 10
416.0212355068857
 20
209.7862121214774
 30
0.0
 11
414.5563986855523
 21
211.2510489428109
 31
0.0
  0
LINE
  5
7D4
330
18
100
AcDbEntity
  8
外形線
100
AcDbLine
 10
418.5212355068857
 20
208.1510489428109
 30
0.0
 11
418.2712355068857
 21
207.9510489428109
 31
0.0
  0
LINE
  5
7D5
330
18
100
AcDbEntity
  8
外形線
100
AcDbLine
 10
418.5212355068857
 20
211.2510489428109
 30
0.0
 11
418.5212355068856
 21
208.1510489428109
 31
0.0
  0
LINE
  5
7D6
330
18
100
AcDbEntity
  8
寸法線
100
AcDbLine
 10
414.8694796568465
 20
208.1510489428109
 30
0.0
 11
416.0212355068857
 21
209.3028047928501
 31
0.0
  0
LINE
  5
7D7
330
18
100
AcDbEntity
  8
外形線
100
AcDbLine
 10
334.3951628076439
 20
207.9510489428109
 30
0.0
 11
333.4451628076439
 21
203.4510489428109
 31
0.0
  0
LINE
  5
7D8
330
18
100
AcDbEntity
  8
外形線
100
AcDbLine
 10
329.8951628076439
 20
207.9510489428109
 30
0.0
 11
330.8451628076439
 21
203.4510489428109
 31
0.0
  0
ARC
  5
7D9
330
18
100
AcDbEntity
  8
外形線
100
AcDbCircle
 10
332.1451628076439
 20
203.6010489428109
 30
0.0
 40
1.150000000000005
100
AcDbArc
 50
187.494717453927
 51
352.505282546073
  0
LINE
  5
7DA
330
18
100
AcDbEntity
  8
外形線
100
AcDbLine
 10
330.8451628076439
 20
203.4510489428109
 30
0.0
 11
333.4451628076439
 21
203.4510489428109
 31
0.0
  0
POINT
  5
7DB
330
18
100
AcDbEntity
  8
DEFPOINTS
  6
ByBlock
 62
     0
100
AcDbPoint
 10
332.1451628076439
 20
202.4510489428109
 30
0.0
  0
LINE
  5
7DC
330
18
100
AcDbEntity
  8
寸法線
100
AcDbLine
 10
329.6451628076439
 20
210.8439200473313
 30
0.0
 11
330.0522917031236
 21
211.2510489428109
 31
0.0
  0
LINE
  5
7DD
330
18
100
AcDbEntity
  8
外形線
100
AcDbLine
 10
329.8951628076439
 20
211.4510489428109
 30
0.0
 11
334.3951628076439
 21
211.4510489428109
 31
0.0
  0
LINE
  5
7DE
330
18
100
AcDbEntity
  8
外形線
100
AcDbLine
 10
329.6451628076438
 20
211.2510489428109
 30
0.0
 11
334.6451628076439
 21
211.2510489428109
 31
0.0
  0
LINE
  5
7DF
330
18
100
AcDbEntity
  8
外形線
100
AcDbLine
 10
329.8951628076439
 20
207.9510489428109
 30
0.0
 11
334.3951628076438
 21
207.9510489428109
 31
0.0
  0
LINE
  5
7E0
330
18
100
AcDbEntity
  8
外形線
100
AcDbLine
 10
329.6451628076438
 20
208.1510489428109
 30
0.0
 11
334.6451628076439
 21
208.1510489428109
 31
0.0
  0
LINE
  5
7E1
330
18
100
AcDbEntity
  8
寸法線
100
AcDbLine
 10
329.6463685394443
 20
208.1510489428109
 30
0.0
 11
332.145162807644
 21
210.6498432110106
 31
0.0
  0
LINE
  5
7E2
330
18
100
AcDbEntity
  8
寸法線
100
AcDbLine
 10
332.1451628076439
 20
208.4391737033171
 30
0.0
 11
329.6451628076439
 21
210.939173703317
 31
0.0
  0
LINE
  5
7E3
330
18
100
AcDbEntity
  8
寸法線
100
AcDbLine
 10
329.6451628076439
 20
209.4968816291709
 30
0.0
 11
331.3993301212839
 21
211.2510489428109
 31
0.0
  0
LINE
  5
7E4
330
18
100
AcDbEntity
  8
寸法線
100
AcDbLine
 10
331.0862491499898
 20
208.1510489428108
 30
0.0
 11
329.6451628076439
 21
209.5921352851567
 31
0.0
  0
LINE
  5
7E5
330
18
100
AcDbEntity
  8
外形線
100
AcDbLine
 10
329.8951628076439
 20
211.4510489428109
 30
0.0
 11
329.6451628076439
 21
211.2510489428109
 31
0.0
  0
LINE
  5
7E6
330
18
100
AcDbEntity
  8
外形線
100
AcDbLine
 10
329.6451628076439
 20
208.1510489428109
 30
0.0
 11
329.8951628076439
 21
207.9510489428109
 31
0.0
  0
LINE
  5
7E7
330
18
100
AcDbEntity
  8
寸法線
100
AcDbLine
 10
329.7392107318294
 20
208.1510489428109
 30
0.0
 11
329.6451628076439
 21
208.2450968669963
 31
0.0
  0
LINE
  5
7E8
330
18
100
AcDbEntity
  8
外形線
100
AcDbLine
 10
329.6451628076439
 20
211.2510489428109
 30
0.0
 11
329.6451628076439
 21
208.1510489428109
 31
0.0
  0
LINE
  5
7E9
330
18
100
AcDbEntity
  8
寸法線
100
AcDbLine
 10
332.145162807644
 20
211.1332505396378
 30
0.0
 11
332.0273644044708
 21
211.2510489428109
 31
0.0
  0
LINE
  5
7EA
330
18
100
AcDbEntity
  8
寸法線
100
AcDbLine
 10
332.1451628076439
 20
209.7862121214774
 30
0.0
 11
330.6803259863105
 21
211.2510489428109
 31
0.0
  0
LINE
  5
7EB
330
18
100
AcDbEntity
  8
寸法線
100
AcDbLine
 10
330.9934069576047
 20
208.1510489428109
 30
0.0
 11
332.1451628076439
 21
209.3028047928501
 31
0.0
  0
LINE
  5
7EC
330
18
100
AcDbEntity
  8
外形線
100
AcDbLine
 10
334.3951628076439
 20
211.4510489428109
 30
0.0
 11
334.6451628076439
 21
211.2510489428109
 31
0.0
  0
LINE
  5
7ED
330
18
100
AcDbEntity
  8
外形線
100
AcDbLine
 10
334.6451628076439
 20
208.1510489428109
 30
0.0
 11
334.3951628076439
 21
207.9510489428109
 31
0.0
  0
LINE
  5
7EE
330
18
100
AcDbEntity
  8
外形線
100
AcDbLine
 10
334.6451628076439
 20
211.2510489428109
 30
0.0
 11
334.6451628076438
 21
208.1510489428109
 31
0.0
  0
DIMENSION
  5
7F0
330
18
100
AcDbEntity
  8
寸法線
100
AcDbDimension
  2
*D22
 10
282.8494924548642
 20
330.7510489274179
 30
0.0
 11
280.9744924548642
 21
266.6010489351144
 31
0.0
 70
    32
 71
     5
 42
128.2999999846069
  3
STYLE3
100
AcDbAlignedDimension
 13
287.2971534990742
 23
202.4510489428109
 33
0.0
 14
287.2971534990742
 24
330.7510489274179
 34
0.0
 50
90.0
100
AcDbRotatedDimension
1001
ACAD
1000
DSTYLE
1002
{
1070
   271
1070
     2
1002
}
  0
DIMENSION
  5
7F1
330
18
100
AcDbEntity
  8
寸法線
100
AcDbDimension
  2
*D23
 10
288.5471534990742
 20
277.3510489274179
 30
0.0
 11
286.6721534990741
 21
239.9010489351144
 31
0.0
 70
    32
 71
     5
 42
74.89999998460698
  3
STYLE3
100
AcDbAlignedDimension
 13
294.2084642293045
 23
202.4510489428109
 33
0.0
 14
291.2229337418724
 24
277.3510489274179
 34
0.0
 50
90.0
100
AcDbRotatedDimension
1001
ACAD
1000
DSTYLE
1002
{
1070
   271
1070
     2
1002
}
  0
DIMENSION
  5
7F2
330
18
100
AcDbEntity
  8
寸法線
100
AcDbDimension
  2
*D24
 10
295.4584642293045
 20
211.4510489274179
 30
0.0
 11
293.5834642293044
 21
206.9510489351144
 31
0.0
 70
    32
 71
     5
 42
8.999999984606915
  3
STYLE3
100
AcDbAlignedDimension
 13
332.1451628076439
 23
202.4510489428109
 33
0.0
 14
299.9677757507744
 24
211.4510489274179
 34
0.0
 50
90.0
100
AcDbRotatedDimension
1001
ACAD
1000
DSTYLE
1002
{
1070
   271
1070
     2
1002
}
  0
DIMENSION
  5
7F3
330
18
100
AcDbEntity
  8
外形線
100
AcDbDimension
  2
*D25
 10
288.5471534990742
 20
277.3510489274179
 30
0.0
 11
286.6721534990741
 21
304.0510489274179
 31
0.0
 70
    32
 71
     5
 42
53.39999999999998
  3
STYLE3
100
AcDbAlignedDimension
 13
328.6451628076439
 23
330.7510489274179
 33
0.0
 14
296.6138770015291
 24
277.3510489274179
 34
0.0
 50
90.0
100
AcDbRotatedDimension
1001
ACAD
1000
DSTYLE
1002
{
1070
   271
1070
     2
1002
}
  0
TEXT
  5
87E
330
18
100
AcDbEntity
  8
文字
100
AcDbText
 10
347.0490509493631
 20
236.3505766095766
 30
0.0
 40
1.5
  1
-0.03
  7
STYLE3
100
AcDbText
  0
DIMENSION
  5
87F
330
18
100
AcDbEntity
  8
外形線
100
AcDbDimension
  2
*D28
 10
336.1451628076438
 20
235.0632061073766
 30
0.0
 11
343.0201628076438
 21
236.9382061073766
 31
0.0
 70
    32
  1
%%C8.0
 71
     5
 42
8.0
  3
STYLE3
100
AcDbAlignedDimension
 13
328.1451628076438
 23
235.3021683063545
 33
0.0
 14
336.1451628076438
 24
235.1826872068656
 34
0.0
100
AcDbRotatedDimension
1001
ACAD
1000
DSTYLE
1002
{
1070
   271
1070
     2
1002
}
  0
TEXT
  5
880
330
18
100
AcDbEntity
  8
文字
100
AcDbText
 10
348.9357004710314
 20
238.2125270027095
 30
0.0
 40
1.5
  1
0
  7
STYLE3
100
AcDbText
  0
TEXT
  5
1A03
330
18
100
AcDbEntity
  8
寸法線
100
AcDbText
 10
322.2038306673115
 20
262.4615415245707
 30
0.0
 40
1.199999999999999
  1
MODE
  7
STYLE4
100
AcDbText
  0
TEXT
  5
1A04
330
18
100
AcDbEntity
  8
寸法線
100
AcDbText
 10
336.4095182274988
 20
262.4615415245707
 30
0.0
 40
1.199999999999999
  1
ON/OFF
  7
STYLE4
100
AcDbText
  0
LINE
  5
1A05
330
18
100
AcDbEntity
  8
外形線
100
AcDbLine
 10
316.1451628076439
 20
263.8510489274179
 30
0.0
 11
316.1451628076439
 21
253.7078680923441
 31
0.0
  0
LINE
  5
1A06
330
18
100
AcDbEntity
  8
外形線
100
AcDbLine
 10
348.145162807644
 20
263.8510489274179
 30
0.0
 11
348.145162807644
 21
253.7078680923441
 31
0.0
  0
LINE
  5
1A07
330
18
100
AcDbEntity
  8
外形線
100
AcDbLine
 10
317.1451628076439
 20
264.8510489274179
 30
0.0
 11
347.1451628076439
 21
264.8510489274179
 31
0.0
  0
ARC
  5
1A08
330
18
100
AcDbEntity
  8
外形線
100
AcDbCircle
 10
332.1451628076439
 20
277.3510489274179
 30
0.0
 40
29.0
100
AcDbArc
 50
237.6076345141535
 51
302.3923654858465
  0
ARC
  5
1A09
330
18
100
AcDbEntity
  8
外形線
100
AcDbCircle
 10
317.1451628076439
 20
263.8510489274179
 30
0.0
 40
1.0
100
AcDbArc
 50
90.0
 51
180.0
  0
ARC
  5
1A0A
330
18
100
AcDbEntity
  8
外形線
100
AcDbCircle
 10
347.1451628076439
 20
263.8510489274179
 30
0.0
 40
1.0
100
AcDbArc
 50
0.0
 51
90.0
  0
ARC
  5
1A0B
330
18
100
AcDbEntity
  8
外形線
100
AcDbCircle
 10
347.1451628076439
 20
253.7078680923441
 30
0.0
 40
1.0
100
AcDbArc
 50
302.3923654858421
 51
0.0
  0
ARC
  5
1A0C
330
18
100
AcDbEntity
  8
外形線
100
AcDbCircle
 10
317.1451628076439
 20
253.7078680923441
 30
0.0
 40
1.0
100
AcDbArc
 50
180.0
 51
237.6076345141571
  0
ELLIPSE
  5
1A0D
330
18
100
AcDbEntity
  8
外形線
100
AcDbEllipse
 10
339.9939446952527
 20
257.4427654542386
 30
0.0
 11
-4.089143464216689
 21
0.0
 31
0.0
210
0.0
220
0.0
230
1.0
 40
0.6358299782710266
 41
0.0
 42
6.283185307179586
  0
ELLIPSE
  5
1A0E
330
18
100
AcDbEntity
  8
外形線
100
AcDbEllipse
 10
324.8177489982437
 20
257.4427654542386
 30
0.0
 11
-4.089143464216689
 21
0.0
 31
0.0
210
0.0
220
0.0
230
1.0
 40
0.6358299782710266
 41
0.0
 42
6.283185307179586
  0
TEXT
  5
1A0F
330
18
100
AcDbEntity
  8
寸法線
100
AcDbText
 10
338.299659116342
 20
251.3083177619794
 30
0.0
 40
1.199999999999999
  1
SET
  7
STYLE4
100
AcDbText
  0
ELLIPSE
  5
1A10
330
18
100
AcDbEntity
  8
外形線
100
AcDbEllipse
 10
339.9939446952527
 20
257.4427654542386
 30
0.0
 11
-5.473687379191062
 21
0.0
 31
0.0
210
0.0
220
0.0
230
1.0
 40
0.7307688077339824
 41
0.0
 42
6.283185307179586
  0
ELLIPSE
  5
1A11
330
18
100
AcDbEntity
  8
外形線
100
AcDbEllipse
 10
324.8177489982437
 20
257.4427654542386
 30
0.0
 11
-5.473687379191062
 21
0.0
 31
0.0
210
0.0
220
0.0
230
1.0
 40
0.7307688077339824
 41
0.0
 42
6.283185307179586
  0
LINE
  5
1A12
330
18
100
AcDbEntity
  8
中心線
 48
0.3
100
AcDbLine
 10
317.8481609006775
 20
257.4427654542386
 30
0.0
 11
331.7873370958097
 21
257.4427654542386
 31
0.0
  0
LINE
  5
1A13
330
18
100
AcDbEntity
  8
中心線
 48
0.3
100
AcDbLine
 10
324.8177489982437
 20
262.7603754380291
 30
0.0
 11
324.8177489982437
 21
252.1615266977889
 31
0.0
  0
LINE
  5
1A14
330
18
100
AcDbEntity
  8
中心線
 48
0.3
100
AcDbLine
 10
339.9939446952527
 20
262.7603754380291
 30
0.0
 11
339.9939446952527
 21
252.1615266977889
 31
0.0
  0
LINE
  5
1A15
330
18
100
AcDbEntity
  8
中心線
 48
0.3
100
AcDbLine
 10
333.0243565976865
 20
257.4427654542386
 30
0.0
 11
346.9635327928187
 21
257.4427654542386
 31
0.0
  0
LINE
  5
1C7B
330
18
100
AcDbEntity
  8
外形線
100
AcDbLine
 10
312.260710498882
 20
354.6724181640068
 30
0.0
 11
406.260710498882
 21
354.6724181640068
 31
0.0
  0
LINE
  5
1C7C
330
18
100
AcDbEntity
  8
外形線
100
AcDbLine
 10
312.260710498882
 20
353.6724181640068
 30
0.0
 11
406.260710498882
 21
353.6724181640068
 31
0.0
  0
TEXT
  5
1C7D
330
18
100
AcDbEntity
  8
文字
100
AcDbText
 10
312.143600498882
 20
356.7845241640068
 30
0.0
 40
4.0
  1
Model No.DG-127 Digital Gauge
  7
STYLE3
100
AcDbText
  0
LINE
  5
1C7E
330
18
100
AcDbEntity
  8
外形線
100
AcDbLine
 10
350.4012435112815
 20
172.5027185798363
 30
0.0
 11
350.4012435112815
 21
192.8977025798363
 31
0.0
  0
TEXT
  5
1C7F
330
18
100
AcDbEntity
  8
0
  6
Continuous
100
AcDbText
 10
351.8587105112815
 20
184.0154865798363
 30
0.0
 40
2.1
  1
Design and specifications are subject to change without notice for future improvement.
  7
STYLE3
100
AcDbText
  0
TEXT
  5
1C80
330
18
100
AcDbEntity
  8
0
  6
Continuous
100
AcDbText
 10
395.1714885112815
 20
175.9990025798363
 30
0.0
 40
2.399999999999999
  1
mm
  7
STYLE3
100
AcDbText
  0
LINE
  5
1C81
330
18
100
AcDbEntity
  8
外形線
100
AcDbLine
 10
350.4012435112815
 20
182.1174965798363
 30
0.0
 11
491.1926615112815
 21
182.1174965798363
 31
0.0
  0
TEXT
  5
1C82
330
18
100
AcDbEntity
  8
0
  6
Continuous
100
AcDbText
 10
354.1906625112815
 20
177.7471415798363
 30
0.0
 40
3.0
  1
三　　角　　法
  7
STYLE3
100
AcDbText
  0
TEXT
  5
1C83
330
18
100
AcDbEntity
  8
0
  6
Continuous
100
AcDbText
 10
351.5672195112815
 20
174.2508585798363
 30
0.0
 40
2.1
  1
3RD Angle Projection
  7
STYLE3
100
AcDbText
  0
TEXT
  5
1C84
330
18
100
AcDbEntity
  8
0
  6
Continuous
100
AcDbText
 10
387.3011615112815
 20
174.2508595798363
 30
0.0
 40
2.1
  1
Unit
  7
STYLE3
100
AcDbText
  0
TEXT
  5
1C85
330
18
100
AcDbEntity
  8
0
  6
Continuous
100
AcDbText
 10
387.1294405112815
 20
177.7530965798363
 30
0.0
 40
3.0
  1
単位
  7
STYLE3
100
AcDbText
  0
LINE
  5
1C86
330
18
100
AcDbEntity
  8
外形線
100
AcDbLine
 10
385.6719715112815
 20
182.1174965798363
 30
0.0
 11
385.6719715112815
 21
172.5027185798363
 31
0.0
  0
TEXT
  5
1C87
330
18
100
AcDbEntity
  8
0
  6
Continuous
100
AcDbText
 10
454.6474525112815
 20
174.2508595798363
 30
0.0
 40
2.1
  1
OZAKI MFG. CO., LTD.
  7
STYLE3
100
AcDbText
  0
TEXT
  5
1C88
330
18
100
AcDbEntity
  8
0
  6
Continuous
100
AcDbText
 10
453.7729735112815
 20
178.0384985798363
 30
0.0
 40
3.0
  1
株式会社　尾崎製作所
  7
STYLE3
100
AcDbText
  0
TEXT
  5
1C89
330
18
100
AcDbEntity
  8
0
  6
Continuous
100
AcDbText
 10
433.3684195112815
 20
175.9990015798363
 30
0.0
 40
2.1
  1
2010.06.30
  7
STYLE3
100
AcDbText
  0
TEXT
  5
1C8A
330
18
100
AcDbEntity
  8
0
  6
Continuous
100
AcDbText
 10
414.5298405112815
 20
176.2903595798363
 30
0.0
 40
2.399999999999999
  1
1/1
  7
STYLE3
100
AcDbText
  0
TEXT
  5
1C8B
330
18
100
AcDbEntity
  8
0
  6
Continuous
100
AcDbText
 10
404.9105515112815
 20
174.5422165798363
 30
0.0
 40
2.1
  1
Scale
  7
STYLE3
100
AcDbText
  0
TEXT
  5
1C8C
330
18
100
AcDbEntity
  8
0
  6
Continuous
100
AcDbText
 10
404.4473365112814
 20
177.4617385798363
 30
0.0
 40
3.0
  1
尺 度
  7
STYLE3
100
AcDbText
  0
LINE
  5
1C8D
330
18
100
AcDbEntity
  8
外形線
100
AcDbLine
 10
403.1615885112814
 20
182.1174965798363
 30
0.0
 11
403.1615885112814
 21
172.5027185798363
 31
0.0
  0
TEXT
  5
1C8E
330
18
100
AcDbEntity
  8
0
  6
Continuous
100
AcDbText
 10
424.2402505112815
 20
177.5839435798363
 30
0.0
 40
3.0
  1
日 付
  7
STYLE3
100
AcDbText
  0
TEXT
  5
1C8F
330
18
100
AcDbEntity
  8
0
  6
Continuous
100
AcDbText
 10
424.6236115112814
 20
174.2508605798363
 30
0.0
 40
2.1
  1
Date
  7
STYLE3
100
AcDbText
  0
LINE
  5
1C90
330
18
100
AcDbEntity
  8
外形線
100
AcDbLine
 10
422.6916605112815
 20
182.1174965798363
 30
0.0
 11
422.6916605112815
 21
172.5027185798363
 31
0.0
  0
LINE
  5
1C91
330
18
100
AcDbEntity
  8
外形線
100
AcDbLine
 10
452.4240105112815
 20
182.1174965798363
 30
0.0
 11
452.4240105112815
 21
172.5027185798363
 31
0.0
  0
TEXT
  5
1C92
330
18
100
AcDbEntity
  8
0
  6
Continuous
100
AcDbText
 10
352.1502045112815
 20
187.9446345798363
 30
0.0
 40
3.5
  1
仕様及び外観は予告なく変更される場合がございますのでご了承下さい。
  7
STYLE3
100
AcDbText
  0
LINE
  5
1C93
330
18
100
AcDbEntity
  8
外形線
100
AcDbLine
 10
350.4012435112815
 20
192.8977025798363
 30
0.0
 11
491.1926615112815
 21
192.8977025798363
 31
0.0
  0
ENDSEC
  0
SECTION
  2
OBJECTS
  0
DICTIONARY
  5
C
330
0
100
AcDbDictionary
281
     1
  3
ACAD_COLOR
350
8A0
  3
ACAD_GROUP
350
D
  3
ACAD_LAYOUT
350
8A3
  3
ACAD_MATERIAL
350
89F
  3
ACAD_MLINESTYLE
350
1B
  3
ACAD_PLOTSETTINGS
350
8A4
  3
ACAD_PLOTSTYLENAME
350
89D
  3
ACAD_TABLESTYLE
350
8A1
  3
ACDBVARIABLEDICTIONARY
350
208
  0
DICTIONARY
  5
8A0
102
{ACAD_REACTORS
330
C
102
}
330
C
100
AcDbDictionary
281
     1
  0
DICTIONARY
  5
D
102
{ACAD_REACTORS
330
C
102
}
330
C
100
AcDbDictionary
281
     1
  0
DICTIONARY
  5
8A3
102
{ACAD_REACTORS
330
C
102
}
330
C
100
AcDbDictionary
281
     1
  3
Model
350
8A5
  3
レイアウト1
350
8A6
  0
DICTIONARY
  5
89F
102
{ACAD_REACTORS
330
C
102
}
330
C
100
AcDbDictionary
281
     1
  0
DICTIONARY
  5
1B
102
{ACAD_REACTORS
330
C
102
}
330
C
100
AcDbDictionary
281
     1
  3
STANDARD
350
1C
  0
DICTIONARY
  5
8A4
102
{ACAD_REACTORS
330
C
102
}
330
C
100
AcDbDictionary
281
     1
  0
ACDBDICTIONARYWDFLT
  5
89D
102
{ACAD_REACTORS
330
C
102
}
330
C
100
AcDbDictionary
281
     1
  3
Normal
350
89E
100
AcDbDictionaryWithDefault
340
89E
  0
DICTIONARY
  5
8A1
102
{ACAD_REACTORS
330
C
102
}
330
C
100
AcDbDictionary
281
     1
  3
Standard
350
8A2
  0
DICTIONARY
  5
208
102
{ACAD_REACTORS
330
C
102
}
330
C
100
AcDbDictionary
281
     1
  3
CTABLESTYLE
350
E7E
  3
SORTENTS
350
209
  0
LAYOUT
  5
8A5
102
{ACAD_REACTORS
330
8A3
102
}
330
8A3
100
AcDbPlotSettings
  1

  2
A4 EPSON LP-6100.pc3
  4
A4
  6

 40
5.873749732971191
 41
5.873747825622558
 42
5.873748779296875
 43
5.873748779296875
 44
209.9733276367187
 45
297.0106506347656
 46
0.0
 47
25.0
 48
0.0
 49
0.0
140
0.0
141
0.0
142
1.0
143
1.0
 70
 28336
 72
     1
 73
     1
 74
     1
  7
AutoCad LT 98.ctb
 75
    16
147
1.0
 76
     1
 77
     2
 78
   300
148
-236.4886379941706
149
-171.6235136330668
100
AcDbLayout
  1
Model
 70
     1
 71
     0
 10
0.0
 20
0.0
 11
12.0
 21
9.0
 12
0.0
 22
0.0
 32
0.0
 14
0.0
 24
0.0
 34
0.0
 15
0.0
 25
0.0
 35
0.0
146
0.0
 13
0.0
 23
0.0
 33
0.0
 16
1.0
 26
0.0
 36
0.0
 17
0.0
 27
1.0
 37
0.0
 76
     0
330
18
1001
ACAD_PSEXT
1000
A4 EPSON LP-6100.pc3
1000
EPSON LP-6100
1000
\\SATO-MATE2
1000

1070
     0
  0
LAYOUT
  5
8A6
102
{ACAD_REACTORS
330
8A3
102
}
330
8A3
100
AcDbPlotSettings
  1

  2
WIDR Printer
  4

  6

 40
0.0
 41
0.0
 42
0.0
 43
0.0
 44
0.0
 45
0.0
 46
0.0
 47
0.0
 48
0.0
 49
0.0
140
0.0
141
0.0
142
1.0
143
1.0
 70
   688
 72
     0
 73
     0
 74
     5
  7
AutoCad LT 98.ctb
 75
    16
147
1.0
 76
     0
 77
     2
 78
   300
148
0.0
149
0.0
100
AcDbLayout
  1
レイアウト1
 70
     1
 71
     1
 10
0.0
 20
0.0
 11
420.0
 21
297.0
 12
0.0
 22
0.0
 32
0.0
 14
1.000000000000000E+20
 24
1.000000000000000E+20
 34
1.000000000000000E+20
 15
-1.000000000000000E+20
 25
-1.000000000000000E+20
 35
-1.000000000000000E+20
146
0.0
 13
0.0
 23
0.0
 33
0.0
 16
1.0
 26
0.0
 36
0.0
 17
0.0
 27
1.0
 37
0.0
 76
     0
330
15
  0
MLINESTYLE
  5
1C
102
{ACAD_REACTORS
330
1B
102
}
330
1B
100
AcDbMlineStyle
  2
STANDARD
 70
     0
  3

 62
   256
 51
90.0
 52
90.0
 71
     2
 49
0.5
 62
   256
  6
BYLAYER
 49
-0.5
 62
   256
  6
BYLAYER
  0
ACDBPLACEHOLDER
  5
89E
102
{ACAD_REACTORS
330
89D
102
}
330
89D
  0
ACAD_PROXY_OBJECT
  5
8A2
102
{ACAD_REACTORS
330
8A1
102
}
330
8A1
100
AcDbProxyObject
 90
      499
 91
      504
 95
  2555929
 70
     0
 93
     1849
310
4214DD185B99185C992420000000000000F83F0000000000003E0FC00000000000004901028000000C1008070000C3001FDFF8000000C1003FBFF000000182007F7FE00000030400FEFFC00000060801FDFF8000000C1003FBFF000000182000000000000000C2020B0000001820100E000186003FBFF000000182007F7FE0
310
0000030400FEFFC00000060801FDFF8000000C1003FBFF000000182007F7FE0000003040000000000000012404160000003040201C00030C007F7FE00000030400FEFFC00000060801FDFF8000000C1003FBFF000000182007F7FE00000030400FEFFC000000608000
340
F
340
F
340
F
 94
        0
  0
DICTIONARYVAR
  5
E7E
102
{ACAD_REACTORS
330
208
102
}
330
208
100
DictionaryVariables
280
     0
  1
STANDARD
  0
DICTIONARYVAR
  5
209
102
{ACAD_REACTORS
330
208
102
}
330
208
100
DictionaryVariables
280
     0
  1
96
  0
ENDSEC
  0
EOF
