  0
SECTION
  2
HEADER
  9
$ACADVER
  1
AC1018
  9
$ACADMAINTVER
 70
     0
  9
$DWGCODEPAGE
  3
ANSI_932
  9
$INSBASE
 10
0.0
 20
0.0
 30
0.0
  9
$EXTMIN
 10
169.9908401958984
 20
14.3116156984023
 30
-0.0000000000000078
  9
$EXTMAX
 10
425.4184982745664
 20
209.7254339395154
 30
0.0000000000000075
  9
$LIMMIN
 10
0.0
 20
0.0
  9
$LIMMAX
 10
420.0
 20
297.0
  9
$ORTHOMODE
 70
     0
  9
$REGENMODE
 70
     1
  9
$FILLMODE
 70
     1
  9
$QTEXTMODE
 70
     0
  9
$MIRRTEXT
 70
     1
  9
$LTSCALE
 40
1.0
  9
$ATTMODE
 70
     1
  9
$TEXTSIZE
 40
5.0
  9
$TRACEWID
 40
1.0
  9
$TEXTSTYLE
  7
STYLE3
  9
$CLAYER
  8
寸法線
  9
$CELTYPE
  6
BYLAYER
  9
$CECOLOR
 62
   256
  9
$CELTSCALE
 40
1.0
  9
$DISPSILH
 70
     0
  9
$DIMSCALE
 40
1.0
  9
$DIMASZ
 40
2.5
  9
$DIMEXO
 40
0.0
  9
$DIMDLI
 40
3.75
  9
$DIMRND
 40
0.0
  9
$DIMDLE
 40
0.0
  9
$DIMEXE
 40
1.25
  9
$DIMTP
 40
0.0
  9
$DIMTM
 40
0.0
  9
$DIMTXT
 40
2.5
  9
$DIMCEN
 40
2.5
  9
$DIMTSZ
 40
0.0
  9
$DIMTOL
 70
     0
  9
$DIMLIM
 70
     0
  9
$DIMTIH
 70
     0
  9
$DIMTOH
 70
     0
  9
$DIMSE1
 70
     0
  9
$DIMSE2
 70
     0
  9
$DIMTAD
 70
     1
  9
$DIMZIN
 70
     8
  9
$DIMBLK
  1

  9
$DIMASO
 70
     1
  9
$DIMSHO
 70
     1
  9
$DIMPOST
  1

  9
$DIMAPOST
  1

  9
$DIMALT
 70
     0
  9
$DIMALTD
 70
     4
  9
$DIMALTF
 40
0.0394
  9
$DIMLFAC
 40
1.0
  9
$DIMTOFL
 70
     1
  9
$DIMTVP
 40
0.0
  9
$DIMTIX
 70
     0
  9
$DIMSOXD
 70
     0
  9
$DIMSAH
 70
     1
  9
$DIMBLK1
  1
OPEN
  9
$DIMBLK2
  1
OPEN
  9
$DIMSTYLE
  2
STYLE3
  9
$DIMCLRD
 70
     2
  9
$DIMCLRE
 70
     2
  9
$DIMCLRT
 70
     6
  9
$DIMTFAC
 40
1.0
  9
$DIMGAP
 40
0.625
  9
$DIMJUST
 70
     0
  9
$DIMSD1
 70
     0
  9
$DIMSD2
 70
     0
  9
$DIMTOLJ
 70
     1
  9
$DIMTZIN
 70
     0
  9
$DIMALTZ
 70
     0
  9
$DIMALTTZ
 70
     0
  9
$DIMUPT
 70
     0
  9
$DIMDEC
 70
     2
  9
$DIMTDEC
 70
     4
  9
$DIMALTU
 70
     8
  9
$DIMALTTD
 70
     4
  9
$DIMTXSTY
  7
STYLE3
  9
$DIMAUNIT
 70
     0
  9
$DIMADEC
 70
     0
  9
$DIMALTRND
 40
0.0
  9
$DIMAZIN
 70
     0
  9
$DIMDSEP
 70
    46
  9
$DIMATFIT
 70
     3
  9
$DIMFRAC
 70
     0
  9
$DIMLDRBLK
  1

  9
$DIMLUNIT
 70
     2
  9
$DIMLWD
 70
    -2
  9
$DIMLWE
 70
    -2
  9
$DIMTMOVE
 70
     0
  9
$LUNITS
 70
     2
  9
$LUPREC
 70
     4
  9
$SKETCHINC
 40
1.0
  9
$FILLETRAD
 40
0.0
  9
$AUNITS
 70
     0
  9
$AUPREC
 70
     0
  9
$MENU
  1
.
  9
$ELEVATION
 40
0.0
  9
$PELEVATION
 40
0.0
  9
$THICKNESS
 40
0.0
  9
$LIMCHECK
 70
     0
  9
$CHAMFERA
 40
0.3
  9
$CHAMFERB
 40
0.3
  9
$CHAMFERC
 40
20.0
  9
$CHAMFERD
 40
0.0
  9
$SKPOLY
 70
     0
  9
$TDCREATE
 40
2451418.542758565
  9
$TDUCREATE
 40
2451418.167758565
  9
$TDUPDATE
 40
2455379.420093496
  9
$TDUUPDATE
 40
2455379.045093495
  9
$TDINDWG
 40
1.0037542361
  9
$TDUSRTIMER
 40
1.0037542361
  9
$USRTIMER
 70
     1
  9
$ANGBASE
 50
0.0
  9
$ANGDIR
 70
     0
  9
$PDMODE
 70
     0
  9
$PDSIZE
 40
0.0
  9
$PLINEWID
 40
0.0
  9
$SPLFRAME
 70
     0
  9
$SPLINETYPE
 70
     6
  9
$SPLINESEGS
 70
     8
  9
$HANDSEED
  5
26F7
  9
$SURFTAB1
 70
     6
  9
$SURFTAB2
 70
     6
  9
$SURFTYPE
 70
     6
  9
$SURFU
 70
     6
  9
$SURFV
 70
     6
  9
$UCSBASE
  2

  9
$UCSNAME
  2

  9
$UCSORG
 10
0.0
 20
0.0
 30
0.0
  9
$UCSXDIR
 10
1.0
 20
0.0
 30
0.0
  9
$UCSYDIR
 10
0.0
 20
1.0
 30
0.0
  9
$UCSORTHOREF
  2

  9
$UCSORTHOVIEW
 70
     0
  9
$UCSORGTOP
 10
0.0
 20
0.0
 30
0.0
  9
$UCSORGBOTTOM
 10
0.0
 20
0.0
 30
0.0
  9
$UCSORGLEFT
 10
0.0
 20
0.0
 30
0.0
  9
$UCSORGRIGHT
 10
0.0
 20
0.0
 30
0.0
  9
$UCSORGFRONT
 10
0.0
 20
0.0
 30
0.0
  9
$UCSORGBACK
 10
0.0
 20
0.0
 30
0.0
  9
$PUCSBASE
  2

  9
$PUCSNAME
  2

  9
$PUCSORG
 10
0.0
 20
0.0
 30
0.0
  9
$PUCSXDIR
 10
1.0
 20
0.0
 30
0.0
  9
$PUCSYDIR
 10
0.0
 20
1.0
 30
0.0
  9
$PUCSORTHOREF
  2

  9
$PUCSORTHOVIEW
 70
     0
  9
$PUCSORGTOP
 10
0.0
 20
0.0
 30
0.0
  9
$PUCSORGBOTTOM
 10
0.0
 20
0.0
 30
0.0
  9
$PUCSORGLEFT
 10
0.0
 20
0.0
 30
0.0
  9
$PUCSORGRIGHT
 10
0.0
 20
0.0
 30
0.0
  9
$PUCSORGFRONT
 10
0.0
 20
0.0
 30
0.0
  9
$PUCSORGBACK
 10
0.0
 20
0.0
 30
0.0
  9
$USERI1
 70
     0
  9
$USERI2
 70
     0
  9
$USERI3
 70
     0
  9
$USERI4
 70
     0
  9
$USERI5
 70
     0
  9
$USERR1
 40
0.0
  9
$USERR2
 40
0.0
  9
$USERR3
 40
0.0
  9
$USERR4
 40
0.0
  9
$USERR5
 40
0.0
  9
$WORLDVIEW
 70
     1
  9
$SHADEDGE
 70
     3
  9
$SHADEDIF
 70
    70
  9
$TILEMODE
 70
     1
  9
$MAXACTVP
 70
    48
  9
$PINSBASE
 10
0.0
 20
0.0
 30
0.0
  9
$PLIMCHECK
 70
     0
  9
$PEXTMIN
 10
-0.2
 20
-0.2
 30
0.0
  9
$PEXTMAX
 10
255.2
 20
195.2
 30
0.0
  9
$PLIMMIN
 10
0.0
 20
0.0
  9
$PLIMMAX
 10
420.0
 20
297.0
  9
$UNITMODE
 70
     0
  9
$VISRETAIN
 70
     1
  9
$PLINEGEN
 70
     0
  9
$PSLTSCALE
 70
     1
  9
$TREEDEPTH
 70
  3020
  9
$CMLSTYLE
  2
STANDARD
  9
$CMLJUST
 70
     0
  9
$CMLSCALE
 40
20.0
  9
$PROXYGRAPHICS
 70
     1
  9
$MEASUREMENT
 70
     1
  9
$CELWEIGHT
370
    -1
  9
$ENDCAPS
280
     0
  9
$JOINSTYLE
280
     0
  9
$LWDISPLAY
290
     0
  9
$INSUNITS
 70
     0
  9
$HYPERLINKBASE
  1

  9
$STYLESHEET
  1
AutoCAD LT 98.ctb
  9
$XEDIT
290
     1
  9
$CEPSNTYPE
380
     0
  9
$PSTYLEMODE
290
     1
  9
$FINGERPRINTGUID
  2
{E99F0E45-5ADC-4CA1-9906-996EA49FCE92}
  9
$VERSIONGUID
  2
{ED95B109-5AB8-4768-9BA2-CB3F3FC47D40}
  9
$EXTNAMES
290
     1
  9
$PSVPSCALE
 40
0.0
  9
$OLESTARTUP
290
     0
  9
$SORTENTS
280
   127
  9
$INDEXCTL
280
     0
  9
$HIDETEXT
280
     0
  9
$XCLIPFRAME
290
     0
  9
$HALOGAP
280
     0
  9
$OBSCOLOR
 70
   257
  9
$OBSLTYPE
280
     0
  9
$INTERSECTIONDISPLAY
280
     0
  9
$INTERSECTIONCOLOR
 70
   257
  9
$DIMASSOC
280
     1
  9
$PROJECTNAME
  1

  0
ENDSEC
  0
SECTION
  2
CLASSES
  0
CLASS
  1
LWPOLYLINE
  2
AcDbPolyline
  3
ObjectDBX Classes
 90
        0
 91
        4
280
     0
281
     1
  0
CLASS
  1
HATCH
  2
AcDbHatch
  3
ObjectDBX Classes
 90
        0
 91
       16
280
     0
281
     1
  0
CLASS
  1
ACDBDICTIONARYWDFLT
  2
AcDbDictionaryWithDefault
  3
ObjectDBX Classes
 90
        0
 91
        1
280
     0
281
     0
  0
CLASS
  1
TABLESTYLE
  2
AcDbTableStyle
  3
ObjectDBX Classes
 90
     2047
 91
        1
280
     0
281
     0
  0
CLASS
  1
SORTENTSTABLE
  2
AcDbSortentsTable
  3
ObjectDBX Classes
 90
        0
 91
        1
280
     0
281
     0
  0
CLASS
  1
DICTIONARYVAR
  2
AcDbDictionaryVar
  3
ObjectDBX Classes
 90
        0
 91
        1
280
     0
281
     0
  0
ENDSEC
  0
SECTION
  2
TABLES
  0
TABLE
  2
VPORT
  5
8
330
0
100
AcDbSymbolTable
 70
     2
  0
VPORT
  5
26F6
330
8
100
AcDbSymbolTableRecord
100
AcDbViewportTableRecord
  2
*Active
 70
     0
 10
0.0
 20
0.0
 11
1.0
 21
1.0
 12
297.7046692352324
 22
112.0185248189588
 13
0.0
 23
0.0
 14
10.0
 24
10.0
 15
10.0
 25
10.0
 16
0.0
 26
0.0
 36
1.0
 17
0.0
 27
0.0
 37
0.0
 40
196.8998548817299
 41
1.530456852791878
 42
50.0
 43
0.0
 44
0.0
 50
0.0
 51
0.0
 71
     0
 72
   100
 73
     1
 74
     1
 75
     0
 76
     0
 77
     0
 78
     0
281
     0
 65
     1
110
0.0
120
0.0
130
0.0
111
1.0
121
0.0
131
0.0
112
0.0
122
1.0
132
0.0
 79
     0
146
0.0
  0
ENDTAB
  0
TABLE
  2
LTYPE
  5
5
330
0
100
AcDbSymbolTable
 70
    12
  0
LTYPE
  5
12
330
5
100
AcDbSymbolTableRecord
100
AcDbLinetypeTableRecord
  2
BYBLOCK
 70
     0
  3

 72
    65
 73
     0
 40
0.0
  0
LTYPE
  5
13
330
5
100
AcDbSymbolTableRecord
100
AcDbLinetypeTableRecord
  2
BYLAYER
 70
     0
  3

 72
    65
 73
     0
 40
0.0
  0
LTYPE
  5
14
330
5
100
AcDbSymbolTableRecord
100
AcDbLinetypeTableRecord
  2
CONTINUOUS
 70
     0
  3
Solid line
 72
    65
 73
     0
 40
0.0
  0
LTYPE
  5
22
330
5
100
AcDbSymbolTableRecord
100
AcDbLinetypeTableRecord
  2
CENTER2
 70
     0
  3
Center (.5x) ___ _ ___ _ ___ _ ___ _ ___ _ ___
 72
    65
 73
     4
 40
28.575
 49
19.05
 74
     0
 49
-3.174999999999999
 74
     0
 49
3.174999999999999
 74
     0
 49
-3.174999999999999
 74
     0
  0
LTYPE
  5
23
330
5
100
AcDbSymbolTableRecord
100
AcDbLinetypeTableRecord
  2
HIDDEN2
 70
     0
  3
Hidden (.5x) _ _ _ _ _ _ _ _ _ _ _ _ _ _ _ _ _
 72
    65
 73
     2
 40
4.762499999999999
 49
3.174999999999999
 74
     0
 49
-1.587499999999999
 74
     0
  0
ENDTAB
  0
TABLE
  2
LAYER
  5
2
102
{ACAD_XDICTIONARY
360
2364
102
}
330
0
100
AcDbSymbolTable
 70
    16
  0
LAYER
  5
E
330
2
100
AcDbSymbolTableRecord
100
AcDbLayerTableRecord
  2
0
 70
     0
 62
     7
  6
CONTINUOUS
370
    -3
390
FFA
  0
LAYER
  5
25
330
2
100
AcDbSymbolTableRecord
100
AcDbLayerTableRecord
  2
外形線
 70
     0
 62
     7
  6
CONTINUOUS
370
    -3
390
FFA
  0
LAYER
  5
26
330
2
100
AcDbSymbolTableRecord
100
AcDbLayerTableRecord
  2
寸法線
 70
     0
 62
     2
  6
CONTINUOUS
370
    -3
390
FFA
  0
LAYER
  5
27
330
2
100
AcDbSymbolTableRecord
100
AcDbLayerTableRecord
  2
中心線
 70
     0
 62
     4
  6
CENTER2
370
    -3
390
FFA
  0
LAYER
  5
2B
330
2
100
AcDbSymbolTableRecord
100
AcDbLayerTableRecord
  2
文字
 70
     0
 62
     6
  6
CONTINUOUS
370
    -3
390
FFA
  0
LAYER
  5
53
330
2
100
AcDbSymbolTableRecord
100
AcDbLayerTableRecord
  2
DEFPOINTS
 70
     0
 62
     7
  6
CONTINUOUS
290
     0
370
    -3
390
FFA
  0
LAYER
  5
A5
330
2
100
AcDbSymbolTableRecord
100
AcDbLayerTableRecord
  2
C
 70
     0
 62
     7
  6
CONTINUOUS
370
    -3
390
FFA
  0
LAYER
  5
16A
330
2
100
AcDbSymbolTableRecord
100
AcDbLayerTableRecord
  2
隠れ線2
 70
     0
 62
     1
  6
HIDDEN2
370
    -3
390
FFA
  0
LAYER
  5
9B5
330
2
100
AcDbSymbolTableRecord
100
AcDbLayerTableRecord
  2
ROGO
 70
     0
 62
     6
  6
CONTINUOUS
370
    -3
390
FFA
  0
ENDTAB
  0
TABLE
  2
STYLE
  5
3
330
0
100
AcDbSymbolTable
 70
     7
  0
STYLE
  5
F
330
3
100
AcDbSymbolTableRecord
100
AcDbTextStyleTableRecord
  2
STANDARD
 70
     0
 40
0.0
 41
1.0
 50
0.0
 71
     0
 42
2.5
  3
txt
  4

  0
STYLE
  5
3F
330
3
100
AcDbSymbolTableRecord
100
AcDbTextStyleTableRecord
  2
STYLE3
 70
     0
 40
0.0
 41
1.0
 50
0.0
 71
     0
 42
5.0
  3
romans.shx
  4
bigfont.shx
  0
STYLE
  5
9B6
330
3
100
AcDbSymbolTableRecord
100
AcDbTextStyleTableRecord
  2
STYLE4
 70
     0
 40
0.0
 41
1.0
 50
0.0
 71
     0
 42
5.0
  3
romans.shx
  4
bigfont.shx
  0
ENDTAB
  0
TABLE
  2
VIEW
  5
6
330
0
100
AcDbSymbolTable
 70
     0
  0
ENDTAB
  0
TABLE
  2
UCS
  5
7
330
0
100
AcDbSymbolTable
 70
     0
  0
ENDTAB
  0
TABLE
  2
APPID
  5
9
330
0
100
AcDbSymbolTable
 70
     2
  0
APPID
  5
10
330
9
100
AcDbSymbolTableRecord
100
AcDbRegAppTableRecord
  2
ACAD
 70
     0
  0
APPID
  5
1BBF
330
9
100
AcDbSymbolTableRecord
100
AcDbRegAppTableRecord
  2
ACAD_PSEXT
 70
     0
  0
ENDTAB
  0
TABLE
  2
DIMSTYLE
  5
A
330
0
100
AcDbSymbolTable
 70
     4
100
AcDbDimStyleTable
 71
     1
340
8F
  0
DIMSTYLE
105
1D
330
A
100
AcDbSymbolTableRecord
100
AcDbDimStyleTableRecord
  2
STANDARD
 70
     0
 41
2.5
 42
0.625
 43
3.75
 44
1.25
 73
     0
 74
     0
 77
     1
 78
     8
140
2.5
141
2.5
143
0.0394
147
0.625
171
     4
172
     1
273
     8
274
     4
277
     6
340
F
  0
DIMSTYLE
105
8F
102
{ACAD_REACTORS
330
388
330
389
330
390
330
391
330
392
330
3B6
330
3BC
330
3D7
330
3F2
330
A9F
330
ADF
330
E26
330
E2F
330
1779
330
15AF
330
25DC
330
2603
102
}
330
A
100
AcDbSymbolTableRecord
100
AcDbDimStyleTableRecord
  2
STYLE3
 70
     0
 41
2.5
 42
0.0
 43
3.75
 44
1.25
 73
     0
 74
     0
 77
     1
 78
     8
140
2.5
141
2.5
143
0.0394
147
0.625
171
     4
172
     1
173
     1
176
     2
177
     2
178
     6
271
     1
273
     8
274
     4
340
3F
341
45
343
45
344
45
  0
ENDTAB
  0
TABLE
  2
BLOCK_RECORD
  5
1
330
0
100
AcDbSymbolTable
 70
    31
  0
BLOCK_RECORD
  5
18
102
{ACAD_XDICTIONARY
360
1B10
102
}
330
1
100
AcDbSymbolTableRecord
100
AcDbBlockTableRecord
  2
*MODEL_SPACE
340
1001
  0
BLOCK_RECORD
  5
15
330
1
100
AcDbSymbolTableRecord
100
AcDbBlockTableRecord
  2
*PAPER_SPACE
340
1002
  0
BLOCK_RECORD
  5
45
330
1
100
AcDbSymbolTableRecord
100
AcDbBlockTableRecord
  2
_OPEN
340
0
102
{BLKREFS
331
320
331
321
331
32C
331
32D
331
338
331
339
331
343
331
344
331
34E
331
34F
331
359
331
35A
331
364
331
365
331
370
331
371
331
37E
331
37F
331
38E
331
39A
331
3CF
331
3DA
331
3DC
331
3E3
331
3E4
331
3E5
331
8CD
331
8EF
331
8F3
331
8FF
331
A81
331
A82
331
A8D
331
A8E
331
E11
331
E12
331
E1D
331
E1E
331
E2B
331
E2E
331
1588
331
1589
331
25A5
331
25A6
331
268C
331
268D
331
26CF
331
26D0
331
26DA
331
26DB
331
26E3
331
26E4
331
26EC
331
26ED
102
}
  0
BLOCK_RECORD
  5
FE8
330
1
100
AcDbSymbolTableRecord
100
AcDbBlockTableRecord
  2
A$C56AA2A37
340
0
102
{BLKREFS
331
1AA1
331
1AD5
102
}
  0
BLOCK_RECORD
  5
19E7
330
1
100
AcDbSymbolTableRecord
100
AcDbBlockTableRecord
  2
*D24
340
0
  0
BLOCK_RECORD
  5
19F3
330
1
100
AcDbSymbolTableRecord
100
AcDbBlockTableRecord
  2
*D25
340
0
  0
BLOCK_RECORD
  5
25DD
330
1
100
AcDbSymbolTableRecord
100
AcDbBlockTableRecord
  2
*D27
340
0
  0
BLOCK_RECORD
  5
2604
330
1
100
AcDbSymbolTableRecord
100
AcDbBlockTableRecord
  2
*D28
340
0
  0
ENDTAB
  0
ENDSEC
  0
SECTION
  2
BLOCKS
  0
BLOCK
  5
19
330
18
100
AcDbEntity
  8
0
100
AcDbBlockBegin
  2
*MODEL_SPACE
 70
     0
 10
0.0
 20
0.0
 30
0.0
  3
*MODEL_SPACE
  1

  0
ENDBLK
  5
1A
330
18
100
AcDbEntity
  8
0
100
AcDbBlockEnd
  0
BLOCK
  5
16
330
15
100
AcDbEntity
 67
     1
  8
0
100
AcDbBlockBegin
  2
*PAPER_SPACE
 70
     0
 10
0.0
 20
0.0
 30
0.0
  3
*PAPER_SPACE
  1

  0
ENDBLK
  5
17
330
15
100
AcDbEntity
 67
     1
  8
0
100
AcDbBlockEnd
  0
BLOCK
  5
46
330
45
100
AcDbEntity
  8
0
100
AcDbBlockBegin
  2
_OPEN
 70
     0
 10
0.0
 20
0.0
 30
0.0
  3
_OPEN
  1

  0
LINE
  5
47
330
45
100
AcDbEntity
  8
0
  6
ByBlock
 62
     0
100
AcDbLine
 10
-1.0
 20
0.1666666666666666
 30
0.0
 11
0.0
 21
0.0
 31
0.0
  0
LINE
  5
48
330
45
100
AcDbEntity
  8
0
  6
ByBlock
 62
     0
100
AcDbLine
 10
0.0
 20
0.0
 30
0.0
 11
-1.0
 21
-0.1666666666666666
 31
0.0
  0
LINE
  5
49
330
45
100
AcDbEntity
  8
0
  6
ByBlock
 62
     0
100
AcDbLine
 10
0.0
 20
0.0
 30
0.0
 11
-1.0
 21
0.0
 31
0.0
  0
ENDBLK
  5
4A
330
45
100
AcDbEntity
  8
0
100
AcDbBlockEnd
  0
BLOCK
  5
FF2
330
FE8
100
AcDbEntity
  8
0
100
AcDbBlockBegin
  2
A$C56AA2A37
 70
     0
 10
0.0
 20
0.0
 30
0.0
  3
A$C56AA2A37
  1

  0
LINE
  5
FE9
330
FE8
100
AcDbEntity
  8
外形線
100
AcDbLine
 10
-0.0000001132486886
 20
1.379152211983097
 30
0.0
 11
5.999999886751311
 21
1.379152211983097
 31
0.0
  0
LINE
  5
FEA
330
FE8
100
AcDbEntity
  8
外形線
100
AcDbLine
 10
0.1499998867512886
 20
0.8791522119830972
 30
0.0
 11
5.849999886751334
 21
0.8791522119830972
 31
0.0
  0
ARC
  5
FEB
330
FE8
100
AcDbEntity
  8
外形線
100
AcDbCircle
 10
2.999999886751311
 20
4.471278712768523
 30
0.0
 40
4.585397779652827
100
AcDbArc
 50
231.5714489218192
 51
308.4285510781804
  0
ARC
  5
FEC
330
FE8
100
AcDbEntity
  8
隠れ線2
 48
0.2
100
AcDbCircle
 10
2.455651037862082
 20
-0.1226477874116938
 30
0.0
 40
1.490978010434763
100
AcDbArc
 50
5.088665163888521
 51
68.58656113486135
  0
LINE
  5
FED
330
FE8
100
AcDbEntity
  8
外形線
100
AcDbLine
 10
-0.0000001132486886
 20
1.879152211983097
 30
0.0
 11
-0.0000001132486886
 21
1.379152211983097
 31
0.0
  0
LINE
  5
FEE
330
FE8
100
AcDbEntity
  8
外形線
100
AcDbLine
 10
0.1499998867512886
 20
1.379152211983097
 30
0.0
 11
0.1499998867512886
 21
0.8791522119830972
 31
0.0
  0
ARC
  5
FEF
330
FE8
100
AcDbEntity
  8
隠れ線2
 48
0.2
100
AcDbCircle
 10
3.544348735640539
 20
-0.1226477874116938
 30
0.0
 40
1.490978010434763
100
AcDbArc
 50
111.4134388651386
 51
174.9113348361114
  0
LINE
  5
FF0
330
FE8
100
AcDbEntity
  8
外形線
100
AcDbLine
 10
5.999999886751311
 20
1.879152211983097
 30
0.0
 11
5.999999886751311
 21
1.379152211983097
 31
0.0
  0
LINE
  5
FF1
330
FE8
100
AcDbEntity
  8
外形線
100
AcDbLine
 10
5.849999886751334
 20
1.379152211983097
 30
0.0
 11
5.849999886751334
 21
0.8791522119830972
 31
0.0
  0
ENDBLK
  5
FF3
330
FE8
100
AcDbEntity
  8
0
100
AcDbBlockEnd
  0
BLOCK
  5
19F1
330
19E7
100
AcDbEntity
  8
0
100
AcDbBlockBegin
  2
*D24
 70
     1
 10
0.0
 20
0.0
 30
0.0
  3
*D24
  1

  0
LINE
  5
26E0
330
19E7
100
AcDbEntity
  8
寸法線
 62
     2
370
    -2
100
AcDbLine
 10
256.1337690227217
 20
142.513009796649
 30
0.0
 11
252.6528398789179
 21
142.513009796649
 31
0.0
  0
LINE
  5
26E1
330
19E7
100
AcDbEntity
  8
寸法線
 62
     2
370
    -2
100
AcDbLine
 10
291.8203414510285
 20
54.41300979664899
 30
0.0
 11
252.6528398789179
 21
54.413009796649
 31
0.0
  0
LINE
  5
26E2
330
19E7
100
AcDbEntity
  8
寸法線
 62
     2
370
    -2
100
AcDbLine
 10
253.9028398789179
 20
140.013009796649
 30
0.0
 11
253.9028398789179
 21
56.913009796649
 31
0.0
  0
INSERT
  5
26E3
330
19E7
100
AcDbEntity
  8
寸法線
 62
     2
370
    -2
100
AcDbBlockReference
  2
_OPEN
 10
253.9028398789179
 20
142.513009796649
 30
0.0
 41
2.5
 42
2.5
 43
2.5
 50
90.0
  0
INSERT
  5
26E4
330
19E7
100
AcDbEntity
  8
寸法線
 62
     2
370
    -2
100
AcDbBlockReference
  2
_OPEN
 10
253.9028398789179
 20
54.413009796649
 30
0.0
 41
2.5
 42
2.5
 43
2.5
 50
270.0
  0
MTEXT
  5
26E5
330
19E7
100
AcDbEntity
  8
寸法線
 62
     6
100
AcDbMText
 10
252.0278398789179
 20
98.46300979664903
 30
0.0
 40
2.5
 41
0.0
 71
     5
 72
     1
  1
\A1;88
  7
STYLE3
 11
0.0000000000000001
 21
1.0
 31
0.0
 73
     1
 44
1.0
  0
POINT
  5
26E6
330
19E7
100
AcDbEntity
  8
DEFPOINTS
 62
     0
100
AcDbPoint
 10
256.1337690227217
 20
142.513009796649
 30
0.0
  0
POINT
  5
26E7
330
19E7
100
AcDbEntity
  8
DEFPOINTS
 62
     0
100
AcDbPoint
 10
291.8203414510285
 20
54.41300979664899
 30
0.0
  0
POINT
  5
26E8
330
19E7
100
AcDbEntity
  8
DEFPOINTS
 62
     0
100
AcDbPoint
 10
253.9028398789179
 20
54.413009796649
 30
0.0
  0
ENDBLK
  5
19F2
330
19E7
100
AcDbEntity
  8
0
100
AcDbBlockEnd
  0
BLOCK
  5
19FD
330
19F3
100
AcDbEntity
  8
0
100
AcDbBlockBegin
  2
*D25
 70
     1
 10
0.0
 20
0.0
 30
0.0
  3
*D25
  1

  0
LINE
  5
26E9
330
19F3
100
AcDbEntity
  8
外形線
 62
     2
370
    -2
100
AcDbLine
 10
259.3282248714745
 20
54.41300979664902
 30
0.0
 11
262.4162521680463
 21
54.41300979664902
 31
0.0
  0
LINE
  5
26EA
330
19F3
100
AcDbEntity
  8
外形線
 62
     2
370
    -2
100
AcDbLine
 10
285.7203414510285
 20
89.413009796649
 30
0.0
 11
259.9162521680463
 21
89.413009796649
 31
0.0
  0
LINE
  5
26EB
330
19F3
100
AcDbEntity
  8
外形線
 62
     2
370
    -2
100
AcDbLine
 10
261.1662521680463
 20
56.91300979664902
 30
0.0
 11
261.1662521680463
 21
86.913009796649
 31
0.0
  0
INSERT
  5
26EC
330
19F3
100
AcDbEntity
  8
外形線
 62
     2
370
    -2
100
AcDbBlockReference
  2
_OPEN
 10
261.1662521680463
 20
54.41300979664902
 30
0.0
 41
2.5
 42
2.5
 43
2.5
 50
270.0
  0
INSERT
  5
26ED
330
19F3
100
AcDbEntity
  8
外形線
 62
     2
370
    -2
100
AcDbBlockReference
  2
_OPEN
 10
261.1662521680463
 20
89.413009796649
 30
0.0
 41
2.5
 42
2.5
 43
2.5
 50
90.0
  0
MTEXT
  5
26EE
330
19F3
100
AcDbEntity
  8
外形線
 62
     6
100
AcDbMText
 10
259.2912521680463
 20
71.91300979664906
 30
0.0
 40
2.5
 41
0.0
 71
     5
 72
     1
  1
\A1;35
  7
STYLE3
 11
0.0000000000000001
 21
1.0
 31
0.0
 73
     1
 44
1.0
  0
POINT
  5
26EF
330
19F3
100
AcDbEntity
  8
DEFPOINTS
 62
     0
100
AcDbPoint
 10
259.3282248714745
 20
54.41300979664902
 30
0.0
  0
POINT
  5
26F0
330
19F3
100
AcDbEntity
  8
DEFPOINTS
 62
     0
100
AcDbPoint
 10
285.7203414510285
 20
89.413009796649
 30
0.0
  0
POINT
  5
26F1
330
19F3
100
AcDbEntity
  8
DEFPOINTS
 62
     0
100
AcDbPoint
 10
261.1662521680463
 20
89.413009796649
 30
0.0
  0
ENDBLK
  5
19FE
330
19F3
100
AcDbEntity
  8
0
100
AcDbBlockEnd
  0
BLOCK
  5
25E9
330
25DD
100
AcDbEntity
  8
0
100
AcDbBlockBegin
  2
*D27
 70
     1
 10
0.0
 20
0.0
 30
0.0
  3
*D27
  1

  0
LINE
  5
26D5
330
25DD
100
AcDbEntity
  8
外形線
 62
     2
370
    -2
100
AcDbLine
 10
289.8203414510285
 20
81.19186892238241
 30
0.0
 11
289.8203414510285
 21
82.44186892238241
 31
0.0
  0
LINE
  5
26D6
330
25DD
100
AcDbEntity
  8
外形線
 62
     2
370
    -2
100
AcDbLine
 10
293.8203414510285
 20
81.19186892238241
 30
0.0
 11
293.8203414510285
 21
82.44186892238241
 31
0.0
  0
LINE
  5
26D7
330
25DD
100
AcDbEntity
  8
外形線
 62
     2
370
    -2
100
AcDbLine
 10
287.3203414510285
 20
81.19186892238241
 30
0.0
 11
284.8203414510285
 21
81.19186892238241
 31
0.0
  0
LINE
  5
26D8
330
25DD
100
AcDbEntity
  8
外形線
 62
     2
370
    -2
100
AcDbLine
 10
296.3203414510285
 20
81.19186892238241
 30
0.0
 11
304.1179604986475
 21
81.19186892238241
 31
0.0
  0
LINE
  5
26D9
330
25DD
100
AcDbEntity
  8
外形線
 62
     2
370
    -2
100
AcDbLine
 10
289.8203414510285
 20
81.19186892238241
 30
0.0
 11
293.8203414510285
 21
81.19186892238241
 31
0.0
  0
INSERT
  5
26DA
330
25DD
100
AcDbEntity
  8
外形線
 62
     2
370
    -2
100
AcDbBlockReference
  2
_OPEN
 10
289.8203414510285
 20
81.19186892238241
 30
0.0
 41
2.5
 42
2.5
 43
2.5
  0
INSERT
  5
26DB
330
25DD
100
AcDbEntity
  8
外形線
 62
     2
370
    -2
100
AcDbBlockReference
  2
_OPEN
 10
293.8203414510285
 20
81.19186892238241
 30
0.0
 41
2.5
 42
2.5
 43
2.5
 50
180.0
  0
MTEXT
  5
26DC
330
25DD
100
AcDbEntity
  8
外形線
 62
     6
100
AcDbMText
 10
301.469150974838
 20
83.06686892238241
 30
0.0
 40
2.5
 41
0.0
 71
     5
 72
     1
  1
\A1;%%C4
  7
STYLE3
 73
     1
 44
1.0
  0
POINT
  5
26DD
330
25DD
100
AcDbEntity
  8
DEFPOINTS
 62
     0
100
AcDbPoint
 10
289.8203414510285
 20
81.19186892238241
 30
0.0
  0
POINT
  5
26DE
330
25DD
100
AcDbEntity
  8
DEFPOINTS
 62
     0
100
AcDbPoint
 10
293.8203414510285
 20
81.19186892238241
 30
0.0
  0
POINT
  5
26DF
330
25DD
100
AcDbEntity
  8
DEFPOINTS
 62
     0
100
AcDbPoint
 10
293.8203414510285
 20
81.19186892238241
 30
0.0
  0
ENDBLK
  5
25EA
330
25DD
100
AcDbEntity
  8
0
100
AcDbBlockEnd
  0
BLOCK
  5
2610
330
2604
100
AcDbEntity
  8
0
100
AcDbBlockBegin
  2
*D28
 70
     1
 10
0.0
 20
0.0
 30
0.0
  3
*D28
  1

  0
LINE
  5
26CA
330
2604
100
AcDbEntity
  8
寸法線
 62
     2
370
    -2
100
AcDbLine
 10
289.3203414510285
 20
61.14202375491519
 30
0.0
 11
289.3203414510285
 21
68.7483600054889
 31
0.0
  0
LINE
  5
26CB
330
2604
100
AcDbEntity
  8
寸法線
 62
     2
370
    -2
100
AcDbLine
 10
294.3203414510285
 20
61.14202375491517
 30
0.0
 11
294.3203414510285
 21
68.7483600054889
 31
0.0
  0
LINE
  5
26CC
330
2604
100
AcDbEntity
  8
寸法線
 62
     2
370
    -2
100
AcDbLine
 10
286.8203414510285
 20
67.4983600054889
 30
0.0
 11
284.3203414510285
 21
67.4983600054889
 31
0.0
  0
LINE
  5
26CD
330
2604
100
AcDbEntity
  8
寸法線
 62
     2
370
    -2
100
AcDbLine
 10
296.8203414510285
 20
67.4983600054889
 30
0.0
 11
309.9751033557904
 21
67.4983600054889
 31
0.0
  0
LINE
  5
26CE
330
2604
100
AcDbEntity
  8
寸法線
 62
     2
370
    -2
100
AcDbLine
 10
289.3203414510285
 20
67.4983600054889
 30
0.0
 11
294.3203414510285
 21
67.4983600054889
 31
0.0
  0
INSERT
  5
26CF
330
2604
100
AcDbEntity
  8
寸法線
 62
     2
370
    -2
100
AcDbBlockReference
  2
_OPEN
 10
289.3203414510285
 20
67.4983600054889
 30
0.0
 41
2.5
 42
2.5
 43
2.5
  0
INSERT
  5
26D0
330
2604
100
AcDbEntity
  8
寸法線
 62
     2
370
    -2
100
AcDbBlockReference
  2
_OPEN
 10
294.3203414510285
 20
67.4983600054889
 30
0.0
 41
2.5
 42
2.5
 43
2.5
 50
180.0
  0
MTEXT
  5
26D1
330
2604
100
AcDbEntity
  8
寸法線
 62
     6
100
AcDbMText
 10
304.6477224034094
 20
69.3733600054889
 30
0.0
 40
2.5
 41
0.0
 71
     5
 72
     1
  1
\A1;2-%%C5
  7
STYLE3
 73
     1
 44
1.0
  0
POINT
  5
26D2
330
2604
100
AcDbEntity
  8
DEFPOINTS
 62
     0
100
AcDbPoint
 10
289.3203414510285
 20
61.14202375491519
 30
0.0
  0
POINT
  5
26D3
330
2604
100
AcDbEntity
  8
DEFPOINTS
 62
     0
100
AcDbPoint
 10
294.3203414510285
 20
61.14202375491517
 30
0.0
  0
POINT
  5
26D4
330
2604
100
AcDbEntity
  8
DEFPOINTS
 62
     0
100
AcDbPoint
 10
294.3203414510285
 20
67.4983600054889
 30
0.0
  0
ENDBLK
  5
2611
330
2604
100
AcDbEntity
  8
0
100
AcDbBlockEnd
  0
ENDSEC
  0
SECTION
  2
ENTITIES
  0
LWPOLYLINE
  5
1511
330
18
100
AcDbEntity
  8
C
100
AcDbPolyline
 90
        5
 70
     0
 43
0.4
 10
170.1927729719868
 20
209.5251134030836
 10
425.1927729719868
 20
209.5251134030836
 10
425.1927729719868
 20
14.52511340308359
 10
170.1927729719868
 20
14.52511340308359
 10
170.1927729719868
 20
209.5251134030836
  0
LINE
  5
154F
330
18
100
AcDbEntity
  8
外形線
100
AcDbLine
 10
284.2203414510285
 20
103.913009796649
 30
0.0
 11
284.2203414510285
 21
90.913009796649
 31
0.0
  0
LINE
  5
1550
330
18
100
AcDbEntity
  8
外形線
100
AcDbLine
 10
285.7203414510285
 20
105.413009796649
 30
0.0
 11
302.2126462964418
 21
105.413009796649
 31
0.0
  0
LINE
  5
1551
330
18
100
AcDbEntity
  8
外形線
100
AcDbLine
 10
285.7203414510285
 20
89.413009796649
 30
0.0
 11
319.8203414510285
 21
89.413009796649
 31
0.0
  0
LINE
  5
1552
330
18
100
AcDbEntity
  8
外形線
100
AcDbLine
 10
289.4203414510285
 20
54.41300979664902
 30
0.0
 11
319.8203414510285
 21
54.41300979664902
 31
0.0
  0
LINE
  5
1553
330
18
100
AcDbEntity
  8
外形線
100
AcDbLine
 10
289.4203414510285
 20
42.913009796649
 30
0.0
 11
303.3203414510284
 21
42.91300979664902
 31
0.0
  0
ARC
  5
1554
330
18
100
AcDbEntity
  8
外形線
100
AcDbCircle
 10
285.7203414510285
 20
103.913009796649
 30
0.0
 40
1.5
100
AcDbArc
 50
90.0
 51
180.0
  0
ARC
  5
1555
330
18
100
AcDbEntity
  8
外形線
100
AcDbCircle
 10
285.7203414510285
 20
90.913009796649
 30
0.0
 40
1.5
100
AcDbArc
 50
180.0
 51
270.0
  0
LINE
  5
1556
330
18
100
AcDbEntity
  8
中心線
100
AcDbLine
 10
291.8203414510285
 20
181.240771898131
 30
0.0
 11
291.8203414510285
 21
38.92501278784573
 31
0.0
  0
ARC
  5
1557
330
18
100
AcDbEntity
  8
外形線
100
AcDbCircle
 10
291.8203414510285
 20
131.413009796649
 30
0.0
 40
28.0
100
AcDbArc
 50
291.7867892982618
 51
340.9416675171071
  0
ARC
  5
1558
330
18
100
AcDbEntity
  8
外形線
100
AcDbCircle
 10
291.8203414510285
 20
138.413009796649
 30
0.0
 40
31.0
100
AcDbArc
 50
328.6182770478085
 51
351.3627832995586
  0
LINE
  5
1559
330
18
100
AcDbEntity
  8
外形線
100
AcDbLine
 10
324.8203414510285
 20
84.413009796649
 30
0.0
 11
324.8203414510285
 21
59.41300979664902
 31
0.0
  0
LINE
  5
155A
330
18
100
AcDbEntity
  8
外形線
100
AcDbLine
 10
329.8203414510285
 20
84.413009796649
 30
0.0
 11
329.8203414510285
 21
59.41300979664902
 31
0.0
  0
LINE
  5
155B
330
18
100
AcDbEntity
  8
外形線
100
AcDbLine
 10
334.8203414510285
 20
84.413009796649
 30
0.0
 11
334.8203414510285
 21
71.41300979664902
 31
0.0
  0
LINE
  5
155C
330
18
100
AcDbEntity
  8
外形線
100
AcDbLine
 10
360.8203414510285
 20
107.413009796649
 30
0.0
 11
360.8203414510285
 21
71.41300979664902
 31
0.0
  0
LINE
  5
155D
330
18
100
AcDbEntity
  8
外形線
100
AcDbLine
 10
370.8203414510285
 20
107.413009796649
 30
0.0
 11
370.8203414510285
 21
71.41300979664901
 31
0.0
  0
LINE
  5
155E
330
18
100
AcDbEntity
  8
外形線
100
AcDbLine
 10
336.8203414510285
 20
137.413009796649
 30
0.0
 11
340.8203414510285
 21
137.413009796649
 31
0.0
  0
ARC
  5
155F
330
18
100
AcDbEntity
  8
外形線
100
AcDbCircle
 10
340.8203414510285
 20
107.413009796649
 30
0.0
 40
20.0
100
AcDbArc
 50
0.0
 51
90.0
  0
ARC
  5
1560
330
18
100
AcDbEntity
  8
外形線
100
AcDbCircle
 10
336.8203414510285
 20
107.413009796649
 30
0.0
 40
20.0
100
AcDbArc
 50
90.0
 51
118.1194879415166
  0
ARC
  5
1561
330
18
100
AcDbEntity
  8
外形線
100
AcDbCircle
 10
291.8203414510285
 20
138.413009796649
 30
0.0
 40
38.0
100
AcDbArc
 50
329.7509669494132
 51
357.2263837701043
  0
ARC
  5
1562
330
18
100
AcDbEntity
  8
外形線
100
AcDbCircle
 10
291.8203414510285
 20
131.413009796649
 30
0.0
 40
35.0
100
AcDbArc
 50
306.8698976458437
 51
339.6998091580932
  0
ARC
  5
1563
330
18
100
AcDbEntity
  8
外形線
100
AcDbCircle
 10
319.8203414510285
 20
84.413009796649
 30
0.0
 40
5.0
100
AcDbArc
 50
0.0
 51
90.0
  0
ARC
  5
1564
330
18
100
AcDbEntity
  8
外形線
100
AcDbCircle
 10
319.8203414510285
 20
84.413009796649
 30
0.0
 40
10.0
100
AcDbArc
 50
0.0
 51
90.0
  0
ARC
  5
1565
330
18
100
AcDbEntity
  8
外形線
100
AcDbCircle
 10
319.8203414510285
 20
84.413009796649
 30
0.0
 40
15.0
100
AcDbArc
 50
0.0
 51
85.80345080949108
  0
ARC
  5
1566
330
18
100
AcDbEntity
  8
外形線
100
AcDbCircle
 10
321.2839040660481
 20
104.3593875247458
 30
0.0
 40
5.0
100
AcDbArc
 50
137.4416611471608
 51
265.8034508094911
  0
LINE
  5
1567
330
18
100
AcDbEntity
  8
外形線
100
AcDbLine
 10
319.8203414510285
 20
94.413009796649
 30
0.0
 11
315.8203414510285
 21
94.413009796649
 31
0.0
  0
ARC
  5
1568
330
18
100
AcDbEntity
  8
外形線
100
AcDbCircle
 10
315.8203414510285
 20
99.41300979664902
 30
0.0
 40
5.0
100
AcDbArc
 50
126.8698976458438
 51
270.0
  0
ARC
  5
1569
330
18
100
AcDbEntity
  8
外形線
100
AcDbCircle
 10
336.8203414510284
 20
107.4130097966495
 30
0.0
 40
29.99999999999952
100
AcDbArc
 50
90.0
 51
118.5800197386437
  0
ARC
  5
156A
330
18
100
AcDbEntity
  8
外形線
100
AcDbCircle
 10
340.8203414510285
 20
107.413009796649
 30
0.0
 40
30.0
100
AcDbArc
 50
0.0
 51
90.0
  0
ARC
  5
156B
330
18
100
AcDbEntity
  8
外形線
100
AcDbCircle
 10
319.8203414510285
 20
59.41300979664902
 30
0.0
 40
5.0
100
AcDbArc
 50
270.0
 51
0.0
  0
ARC
  5
156C
330
18
100
AcDbEntity
  8
外形線
100
AcDbCircle
 10
319.8203414510285
 20
59.41300979664902
 30
0.0
 40
10.0
100
AcDbArc
 50
270.0
 51
0.0
  0
ARC
  5
156D
330
18
100
AcDbEntity
  8
外形線
100
AcDbCircle
 10
347.8203414510285
 20
71.41300979664902
 30
0.0
 40
13.0
100
AcDbArc
 50
180.0
 51
0.0
  0
ARC
  5
156E
330
18
100
AcDbEntity
  8
外形線
100
AcDbCircle
 10
347.8203414510285
 20
71.41300979664902
 30
0.0
 40
23.0
100
AcDbArc
 50
270.0
 51
0.0
  0
ARC
  5
156F
330
18
100
AcDbEntity
  8
外形線
100
AcDbCircle
 10
347.8203414510285
 20
39.41300979664902
 30
0.0
 40
9.0
100
AcDbArc
 50
90.0
 51
140.8686380762549
  0
LINE
  5
1570
330
18
100
AcDbEntity
  8
外形線
100
AcDbLine
 10
301.8203414510285
 20
49.41300979664902
 30
0.0
 11
319.8203414510285
 21
49.41300979664902
 31
0.0
  0
ARC
  5
1571
330
18
100
AcDbEntity
  8
外形線
100
AcDbCircle
 10
331.8203414510285
 20
49.41300979664902
 30
0.0
 40
10.0
100
AcDbArc
 50
270.0
 51
334.4048408136371
  0
LINE
  5
1572
330
18
100
AcDbEntity
  8
外形線
100
AcDbLine
 10
296.8203414510285
 20
44.41300979664902
 30
0.0
 11
296.8203414510285
 21
42.91300979664902
 31
0.0
  0
ARC
  5
1573
330
18
100
AcDbEntity
  8
外形線
100
AcDbCircle
 10
301.8203414510285
 20
44.41300979664902
 30
0.0
 40
5.0
100
AcDbArc
 50
90.0
 51
180.0
  0
LINE
  5
1574
330
18
100
AcDbEntity
  8
外形線
100
AcDbLine
 10
306.8203414510285
 20
41.48372401092039
 30
0.0
 11
331.8203414510285
 21
39.41300979664902
 31
0.0
  0
ARC
  5
1575
330
18
100
AcDbEntity
  8
外形線
100
AcDbCircle
 10
303.3203414510284
 20
37.91300979664901
 30
0.0
 40
5.0
100
AcDbArc
 50
45.57299599919337
 51
90.0
  0
LINE
  5
1576
330
18
100
AcDbEntity
  8
外形線
100
AcDbLine
 10
340.8203414510285
 20
127.413009796649
 30
0.0
 11
336.8203414510285
 21
127.413009796649
 31
0.0
  0
LINE
  5
1577
330
18
100
AcDbEntity
  8
外形線
100
AcDbLine
 10
293.8203414510285
 20
84.41300979664903
 30
0.0
 11
293.8203414510285
 21
64.91300979664902
 31
0.0
  0
LINE
  5
1578
330
18
100
AcDbEntity
  8
外形線
100
AcDbLine
 10
289.8203414510285
 20
84.41300979664903
 30
0.0
 11
289.8203414510285
 21
64.91300979664902
 31
0.0
  0
LINE
  5
157B
330
18
100
AcDbEntity
  8
外形線
100
AcDbLine
 10
286.4498151649719
 20
100.413009796649
 30
0.0
 11
303.8203414510285
 21
100.413009796649
 31
0.0
  0
LINE
  5
157C
330
18
100
AcDbEntity
  8
外形線
100
AcDbLine
 10
303.8203414510285
 20
100.413009796649
 30
0.0
 11
303.8203414510285
 21
89.413009796649
 31
0.0
  0
LINE
  5
157D
330
18
100
AcDbEntity
  8
外形線
100
AcDbLine
 10
286.4498151649719
 20
100.413009796649
 30
0.0
 11
286.4498151649719
 21
89.413009796649
 31
0.0
  0
LINE
  5
157E
330
18
100
AcDbEntity
  8
中心線
100
AcDbLine
 10
208.0230607319829
 20
201.1872740395703
 30
0.0
 11
208.0230607319829
 21
35.1031132344969
 31
0.0
  0
LINE
  5
157F
330
18
100
AcDbEntity
  8
中心線
 48
0.3
100
AcDbLine
 10
281.7702998585868
 20
101.913009796649
 30
0.0
 11
290.4469188917919
 21
101.913009796649
 31
0.0
  0
LINE
  5
1580
330
18
100
AcDbEntity
  8
中心線
 48
0.3
100
AcDbLine
 10
281.7702998585868
 20
93.91300979664903
 30
0.0
 11
290.4469188917919
 21
93.91300979664903
 31
0.0
  0
LINE
  5
1587
330
18
100
AcDbEntity
  8
外形線
 62
     2
100
AcDbLine
 10
294.3203414510285
 20
75.64208246218081
 30
0.0
 11
322.3203414510285
 21
75.64208246218081
 31
0.0
  0
INSERT
  5
1588
330
18
100
AcDbEntity
  8
外形線
 62
     2
100
AcDbBlockReference
  2
_OPEN
 10
291.8203414510285
 20
75.64208246218081
 30
0.0
 41
2.5
 42
2.5
 43
2.5
 50
180.0
  0
INSERT
  5
1589
330
18
100
AcDbEntity
  8
外形線
 62
     2
100
AcDbBlockReference
  2
_OPEN
 10
324.8203414510285
 20
75.64208246218081
 30
0.0
 41
2.5
 42
2.5
 43
2.5
  0
MTEXT
  5
158A
330
18
100
AcDbEntity
  8
外形線
 62
     6
100
AcDbMText
 10
308.3203414510285
 20
78.16775956268052
 30
0.0
 40
2.5
 41
0.0
 71
     5
 72
     1
  1
\A1;33
  7
STYLE3
 73
     1
 44
1.0
  0
DIMENSION
  5
15AF
330
18
100
AcDbEntity
  8
外形線
100
AcDbDimension
  2
*D25
 10
261.1662521680463
 20
89.413009796649
 30
0.0
 11
259.2912521680463
 21
71.91300979664906
 31
0.0
 70
    32
 71
     5
 42
34.99999999999999
  3
STYLE3
100
AcDbAlignedDimension
 13
259.3282248714745
 23
54.41300979664902
 33
0.0
 14
285.7203414510285
 24
89.413009796649
 34
0.0
 50
90.0
100
AcDbRotatedDimension
1001
ACAD
1000
DSTYLE
1002
{
1070
   271
1070
     2
1002
}
  0
LINE
  5
15F1
330
18
100
AcDbEntity
  8
外形線
100
AcDbLine
 10
289.0203414510285
 20
54.41300979664901
 30
0.0
 11
294.6203414510285
 21
54.41300979664901
 31
0.0
  0
LINE
  5
15F8
330
18
100
AcDbEntity
  8
外形線
100
AcDbLine
 10
286.8203414510285
 20
105.413009796649
 30
0.0
 11
296.8203414510285
 21
105.413009796649
 31
0.0
  0
LINE
  5
15F9
330
18
100
AcDbEntity
  8
中心線
100
AcDbLine
 10
291.8203414510285
 20
201.1872740395703
 30
0.0
 11
291.8203414510285
 21
47.45359650657903
 31
0.0
  0
LINE
  5
15FA
330
18
100
AcDbEntity
  8
外形線
100
AcDbLine
 10
295.8203414510285
 20
107.413009796649
 30
0.0
 11
295.8203414510285
 21
105.413009796649
 31
0.0
  0
LINE
  5
15FB
330
18
100
AcDbEntity
  8
隠れ線2
100
AcDbLine
 10
295.8203414510285
 20
105.413009796649
 30
0.0
 11
295.8203414510285
 21
89.413009796649
 31
0.0
  0
LINE
  5
15FC
330
18
100
AcDbEntity
  8
外形線
100
AcDbLine
 10
287.8203414510285
 20
107.413009796649
 30
0.0
 11
287.8203414510284
 21
105.413009796649
 31
0.0
  0
LINE
  5
15FD
330
18
100
AcDbEntity
  8
隠れ線2
100
AcDbLine
 10
287.8203414510285
 20
105.413009796649
 30
0.0
 11
287.8203414510283
 21
89.413009796649
 31
0.0
  0
LINE
  5
15FE
330
18
100
AcDbEntity
  8
外形線
100
AcDbLine
 10
313.8203414510285
 20
152.513009796649
 30
0.0
 11
313.8203414510285
 21
132.513009796649
 31
0.0
  0
LINE
  5
15FF
330
18
100
AcDbEntity
  8
外形線
100
AcDbLine
 10
269.8203414510285
 20
152.513009796649
 30
0.0
 11
269.8203414510284
 21
132.513009796649
 31
0.0
  0
CIRCLE
  5
1600
330
18
100
AcDbEntity
  8
外形線
100
AcDbCircle
 10
291.8203414510285
 20
142.513009796649
 30
0.0
 40
30.0
  0
ARC
  5
1601
330
18
100
AcDbEntity
  8
外形線
100
AcDbCircle
 10
312.3203414510285
 20
132.513009796649
 30
0.0
 40
1.5
100
AcDbArc
 50
270.0
 51
0.0
  0
LINE
  5
1602
330
18
100
AcDbEntity
  8
外形線
100
AcDbLine
 10
289.8203414510286
 20
86.41300979664906
 30
0.0
 11
289.8203414510285
 21
63.11300979664896
 31
0.0
  0
LINE
  5
1603
330
18
100
AcDbEntity
  8
外形線
100
AcDbLine
 10
293.8203414510285
 20
86.41300979664904
 30
0.0
 11
293.8203414510285
 21
63.11300979664899
 31
0.0
  0
TEXT
  5
1604
330
18
100
AcDbEntity
  8
寸法線
100
AcDbText
 10
281.8790093106961
 20
127.6235023938018
 30
0.0
 40
1.199999999999999
  1
MODE
  7
STYLE4
100
AcDbText
  0
LINE
  5
1605
330
18
100
AcDbEntity
  8
外形線
100
AcDbLine
 10
271.3203414510284
 20
131.013009796649
 30
0.0
 11
312.3203414510285
 21
131.013009796649
 31
0.0
  0
LINE
  5
1606
330
18
100
AcDbEntity
  8
外形線
100
AcDbLine
 10
286.8203414510285
 20
107.4130097966489
 30
0.0
 11
296.8203414510285
 21
107.413009796649
 31
0.0
  0
POINT
  5
1607
330
18
100
AcDbEntity
  8
DEFPOINTS
  6
ByBlock
 62
     0
100
AcDbPoint
 10
285.8203414510285
 20
110.513009796649
 30
0.0
  0
LINE
  5
1608
330
18
100
AcDbEntity
  8
外形線
100
AcDbLine
 10
285.8203414510285
 20
113.1191328832509
 30
0.0
 11
285.8203414510285
 21
109.4130097966489
 31
0.0
  0
LINE
  5
1609
330
18
100
AcDbEntity
  8
外形線
100
AcDbLine
 10
297.8203414510285
 20
113.1191328832509
 30
0.0
 11
297.8203414510285
 21
109.413009796649
 31
0.0
  0
TEXT
  5
160A
330
18
100
AcDbEntity
  8
寸法線
100
AcDbText
 10
296.0846968708832
 20
127.6235023938018
 30
0.0
 40
1.199999999999999
  1
ON/OFF
  7
STYLE4
100
AcDbText
  0
LINE
  5
160B
330
18
100
AcDbEntity
  8
外形線
100
AcDbLine
 10
262.8203414510285
 20
142.513009796649
 30
0.0
 11
269.8203414510285
 21
142.513009796649
 31
0.0
  0
ARC
  5
160C
330
18
100
AcDbEntity
  8
外形線
100
AcDbCircle
 10
291.8203414510285
 20
142.513009796649
 30
0.0
 40
29.0
100
AcDbArc
 50
0.0
 51
180.0
  0
LINE
  5
160D
330
18
100
AcDbEntity
  8
中心線
100
AcDbLine
 10
255.5309327365708
 20
142.513009796649
 30
0.0
 11
328.1097501654863
 21
142.513009796649
 31
0.0
  0
ARC
  5
160E
330
18
100
AcDbEntity
  8
外形線
100
AcDbCircle
 10
312.3203414510285
 20
152.513009796649
 30
0.0
 40
1.5
100
AcDbArc
 50
0.0
 51
90.0
  0
LINE
  5
160F
102
{ACAD_REACTORS
330
1613
102
}
330
18
100
AcDbEntity
  8
ROGO
 62
     4
100
AcDbLine
 10
287.0319398420245
 20
159.2691693425909
 30
0.0
 11
288.2321083848763
 21
159.2691693425909
 31
0.0
  0
LINE
  5
1610
102
{ACAD_REACTORS
330
1613
102
}
330
18
100
AcDbEntity
  8
ROGO
 62
     4
100
AcDbLine
 10
286.8823214684976
 20
158.9667821442113
 30
0.0
 11
288.0824900113493
 21
158.9667821442113
 31
0.0
  0
LINE
  5
1611
102
{ACAD_REACTORS
330
1613
102
}
330
18
100
AcDbEntity
  8
ROGO
 62
     4
100
AcDbLine
 10
286.7289018426955
 20
158.6567123999069
 30
0.0
 11
287.9290703855472
 21
158.656712399907
 31
0.0
  0
LINE
  5
1612
102
{ACAD_REACTORS
330
1613
102
}
330
18
100
AcDbEntity
  8
ROGO
 62
     4
100
AcDbLine
 10
286.1399311599127
 20
159.6559151963379
 30
0.0
 11
288.423466636535
 21
159.6559151963381
 31
0.0
  0
HATCH
  5
1613
330
18
100
AcDbEntity
  8
ROGO
 62
     4
100
AcDbHatch
 10
0.0
 20
0.0
 30
0.0
210
0.0
220
0.0
230
1.0
  2
SOLID
 70
     1
 71
     1
 91
        1
 92
        1
 93
       12
 72
     1
 10
286.1399311599127
 20
159.6559151963379
 11
288.423466636535
 21
159.6559151963381
 72
     1
 10
288.423466636535
 20
159.6559151963379
 11
288.2321083848763
 21
159.2691693425909
 72
     1
 10
288.2321083848763
 20
159.2691693425909
 11
287.0319398420245
 21
159.2691693425909
 72
     1
 10
287.0319398420245
 20
159.2691693425909
 11
286.8823214684976
 21
158.9667821442113
 72
     1
 10
286.8823214684976
 20
158.9667821442113
 11
288.0824900113493
 21
158.9667821442113
 72
     1
 10
288.0824900113493
 20
158.9667821442113
 11
287.9290703855472
 21
158.6567123999069
 72
     1
 10
287.9290703855472
 20
158.656712399907
 11
286.7289018426955
 21
158.6567123999069
 72
     1
 10
286.7289018426955
 20
158.6567123999069
 11
286.5792771350459
 21
158.3543123999068
 72
     1
 10
286.5792771350459
 20
158.3543123999068
 11
287.7794456778976
 21
158.3543123999068
 72
     1
 10
287.7794456778976
 20
158.3543123999068
 11
287.5880970517719
 21
157.9675859999069
 72
     1
 10
287.5880970517719
 20
157.9675859999069
 11
285.3045615751498
 21
157.9675859999069
 72
     1
 10
285.3045615751498
 20
157.9675859999069
 11
286.1399311599127
 21
159.6559151963379
 97
       12
330
1612
330
163B
330
160F
330
161F
330
1610
330
1644
330
1611
330
1622
330
1620
330
1621
330
1629
330
161D
 75
     0
 76
     1
 98
        1
 10
192.7326224730012
 20
42.91550599162343
450
        0
451
        0
460
0.0
461
0.0
452
        0
462
0.0
453
        0
470

  0
TEXT
  5
1614
330
18
100
AcDbEntity
  8
文字
100
AcDbText
 10
284.6074664707212
 20
161.8562293674607
 30
0.0
 40
2.0
  1
G2-205A
 51
10.0
  7
STYLE3
100
AcDbText
  0
LINE
  5
1615
330
18
100
AcDbEntity
  8
ROGO
 62
     4
100
AcDbLine
 10
281.5365946432627
 20
157.0177853300302
 30
0.0
 11
299.3941082722932
 21
157.0177853300302
 31
0.0
  0
LINE
  5
1616
330
18
100
AcDbEntity
  8
ROGO
 62
     4
100
AcDbLine
 10
282.8642084861164
 20
157.2822184524047
 30
0.0
 11
298.55385549857
 21
157.2822184524047
 31
0.0
  0
HATCH
  5
1617
330
18
100
AcDbEntity
  8
ROGO
 62
     4
100
AcDbHatch
 10
0.0
 20
0.0
 30
0.0
210
0.0
220
0.0
230
1.0
  2
SOLID
 70
     1
 71
     0
 91
        1
 92
        7
 72
     0
 73
     1
 93
        4
 10
282.8825472035807
 20
157.2822184524047
 10
282.7629101580381
 20
157.0177853300302
 10
298.4220006033592
 20
157.0177853300302
 10
298.55385549857
 20
157.2822184524047
 97
        0
 75
     0
 76
     1
 47
0.0514683685270805
 98
        1
 10
292.7777068247228
 20
157.2122801412843
450
        0
451
        0
460
0.0
461
0.0
452
        0
462
0.0
453
        0
470

  0
ARC
  5
1618
330
18
100
AcDbEntity
  8
外形線
100
AcDbCircle
 10
291.8203414510285
 20
142.513009796649
 30
0.0
 40
31.0
100
AcDbArc
 50
69.21644040415322
 51
110.7835595958468
  0
LINE
  5
1619
330
18
100
AcDbEntity
  8
外形線
100
AcDbLine
 10
271.3203414510285
 20
154.013009796649
 30
0.0
 11
312.3203414510285
 21
154.013009796649
 31
0.0
  0
LINE
  5
161A
330
18
100
AcDbEntity
  8
ROGO
 62
     4
100
AcDbLine
 10
282.841916766239
 20
159.6559151963379
 30
0.0
 11
281.5365946432627
 21
157.0177853300302
 31
0.0
  0
SPLINE
  5
161B
330
18
100
AcDbEntity
  8
ROGO
 62
     4
100
AcDbSpline
210
0.0
220
0.0
230
1.0
 70
     8
 71
     3
 72
    18
 73
    14
 74
     0
 42
0.0000000001
 43
0.0000000001
 40
0.1087402787915014
 40
0.1087402787915014
 40
0.1087402787915014
 40
0.1087402787915014
 40
0.5992371417938475
 40
1.083176791562496
 40
1.448211145705696
 40
1.714037220764907
 40
2.164002567013297
 40
2.740236056362883
 40
3.395137510199602
 40
4.071816045172726
 40
4.784906178399433
 40
5.506895915094292
 40
6.060470601257719
 40
6.060470601257719
 40
6.060470601257719
 40
6.060470601257719
 10
284.9151288829341
 20
159.6559151963381
 30
0.0
 10
284.9815482884662
 20
159.631573597248
 30
0.0
 10
285.112161364274
 20
159.5801117369856
 30
0.0
 10
285.2715709528346
 20
159.4626587672538
 30
0.0
 10
285.3585060593093
 20
159.3270689108888
 30
0.0
 10
285.4421278988647
 20
159.1934693850709
 30
0.0
 10
285.4538306226644
 20
159.0017982697268
 30
0.0
 10
285.4346607704611
 20
158.7594795239918
 30
0.0
 10
285.3109019364774
 20
158.506644918608
 30
0.0
 10
285.1122617290871
 20
158.2855058790057
 30
0.0
 10
284.865636049396
 20
158.1085090757092
 30
0.0
 10
284.6055607632582
 20
157.9695711430723
 30
0.0
 10
284.4196588756179
 20
157.968186788004
 30
0.0
 10
284.3389804110389
 20
157.9675859999069
 30
0.0
  0
HATCH
  5
161C
330
18
100
AcDbEntity
  8
ROGO
 62
     4
100
AcDbHatch
 10
0.0
 20
0.0
 30
0.0
210
0.0
220
0.0
230
1.0
  2
SOLID
 70
     1
 71
     0
 91
        2
 92
        5
 93
        6
 72
     1
 10
281.5365946432627
 20
157.0177853300302
 11
282.7629101580381
 21
157.0177853300302
 72
     1
 10
282.7629101580381
 20
157.0177853300302
 11
283.1926269233891
 21
157.9675859999069
 72
     1
 10
283.1926269233891
 20
157.9675859999069
 11
284.338980411039
 21
157.9675859999069
 72
     4
 94
        3
 73
     0
 74
     0
 95
       18
 96
       14
 40
0.108740278791501
 40
0.108740278791501
 40
0.108740278791501
 40
0.108740278791501
 40
0.6623149649549278
 40
1.384304701649787
 40
2.097394834876493
 40
2.774073369849618
 40
3.428974823686337
 40
4.005208313035923
 40
4.455173659284313
 40
4.720999734343524
 40
5.086034088486724
 40
5.569973738255373
 40
6.060470601257719
 40
6.060470601257719
 40
6.060470601257719
 40
6.060470601257719
 10
284.3389804110389
 20
157.9675859999069
 10
284.4196588756179
 20
157.968186788004
 10
284.6055607632582
 20
157.9695711430723
 10
284.865636049396
 20
158.1085090757092
 10
285.1122617290871
 20
158.2855058790057
 10
285.3109019364774
 20
158.506644918608
 10
285.4346607704611
 20
158.7594795239918
 10
285.4538306226644
 20
159.0017982697268
 10
285.4421278988647
 20
159.1934693850709
 10
285.3585060593093
 20
159.3270689108888
 10
285.2715709528346
 20
159.4626587672538
 10
285.112161364274
 20
159.5801117369856
 10
284.9815482884662
 20
159.631573597248
 10
284.9151288829341
 20
159.6559151963381
 72
     1
 10
284.9151288829343
 20
159.6559151963379
 11
282.841916766239
 21
159.6559151963379
 72
     1
 10
282.841916766239
 20
159.6559151963379
 11
281.5365946432627
 21
157.0177853300302
 97
        0
 92
       20
 93
        4
 72
     1
 10
283.4579526992163
 20
158.554034144211
 11
283.6610927231046
 21
159.0030334533494
 72
     1
 10
283.6610927231046
 20
159.0030334533494
 11
284.1830760076582
 21
159.0030334533493
 72
     4
 94
        3
 73
     0
 74
     0
 95
       15
 96
       11
 40
0.0
 40
0.0
 40
0.0
 40
0.0
 40
0.1979620751796092
 40
0.2882218927611821
 40
0.390672794493828
 40
0.4604671121752228
 40
0.570847549457819
 40
0.6369624161317818
 40
0.7503938621545029
 40
0.7882043682941406
 40
0.7882043682941406
 40
0.7882043682941406
 40
0.7882043682941406
 10
284.1830760076583
 20
159.0030334533493
 10
284.257426724163
 20
159.0033740193182
 10
284.365677277809
 20
159.0038698646363
 10
284.4248725359922
 20
158.8699636167271
 10
284.3983383988346
 20
158.7837488821932
 10
284.3649828258611
 20
158.6952332210175
 10
284.306035973878
 20
158.6350854942427
 10
284.2269206643985
 20
158.577153093852
 10
284.1521529161839
 20
158.5701401173758
 10
284.1035248889335
 20
158.5572553400775
 10
284.0913678763016
 20
158.554034144211
 72
     1
 10
284.0913678763013
 20
158.5540341442109
 11
283.4579526992163
 21
158.554034144211
 97
        0
 75
     0
 76
     1
 47
0.0514683685270805
 98
        2
 10
282.8529977633479
 20
158.8353867946236
 10
282.8529977633479
 20
158.8353867946236
450
        0
451
        0
460
0.0
461
0.0
452
        0
462
0.0
453
        0
470

  0
LINE
  5
161D
102
{ACAD_REACTORS
330
1613
102
}
330
18
100
AcDbEntity
  8
ROGO
 62
     4
100
AcDbLine
 10
286.1399311599127
 20
159.6559151963379
 30
0.0
 11
285.3045615751498
 21
157.9675859999069
 31
0.0
  0
ARC
  5
161E
330
18
100
AcDbEntity
  8
外形線
100
AcDbCircle
 10
271.3203414510285
 20
152.513009796649
 30
0.0
 40
1.5
100
AcDbArc
 50
90.0
 51
180.0
  0
LINE
  5
161F
102
{ACAD_REACTORS
330
1613
102
}
330
18
100
AcDbEntity
  8
ROGO
 62
     4
100
AcDbLine
 10
287.0319398420245
 20
159.2691693425909
 30
0.0
 11
286.8823214684976
 21
158.9667821442113
 31
0.0
  0
LINE
  5
1620
102
{ACAD_REACTORS
330
1613
102
}
330
18
100
AcDbEntity
  8
ROGO
 62
     4
100
AcDbLine
 10
286.5792771350459
 20
158.3543123999068
 30
0.0
 11
287.7794456778976
 21
158.3543123999068
 31
0.0
  0
LINE
  5
1621
102
{ACAD_REACTORS
330
1613
102
}
330
18
100
AcDbEntity
  8
ROGO
 62
     4
100
AcDbLine
 10
287.7794456778976
 20
158.3543123999068
 30
0.0
 11
287.5880970517719
 21
157.9675859999069
 31
0.0
  0
LINE
  5
1622
102
{ACAD_REACTORS
330
1613
102
}
330
18
100
AcDbEntity
  8
ROGO
 62
     4
100
AcDbLine
 10
286.7289018426955
 20
158.6567123999069
 30
0.0
 11
286.5792771350459
 21
158.3543123999068
 31
0.0
  0
LINE
  5
1623
330
18
100
AcDbEntity
  8
ROGO
 62
     4
100
AcDbLine
 10
284.3389804114363
 20
157.9675859999069
 30
0.0
 11
283.1926269233891
 21
157.9675859999069
 31
0.0
  0
LINE
  5
1624
330
18
100
AcDbEntity
  8
ROGO
 62
     4
100
AcDbLine
 10
283.6610927231045
 20
159.0030334533493
 30
0.0
 11
283.4579526992163
 21
158.554034144211
 31
0.0
  0
SPLINE
  5
1625
330
18
100
AcDbEntity
  8
ROGO
 62
     4
100
AcDbSpline
210
0.0
220
0.0
230
1.0
 70
     8
 71
     3
 72
    15
 73
    11
 74
     9
 42
0.0000000001
 43
0.0000000001
 44
0.0000000001
 40
0.0
 40
0.0
 40
0.0
 40
0.0
 40
0.1979620751796092
 40
0.2882218927611821
 40
0.390672794493828
 40
0.4604671121752228
 40
0.570847549457819
 40
0.6369624161317818
 40
0.7503938621545029
 40
0.7882043682941406
 40
0.7882043682941406
 40
0.7882043682941406
 40
0.7882043682941406
 10
284.1830760076583
 20
159.0030334533493
 30
0.0
 10
284.257426724163
 20
159.0033740193182
 30
0.0
 10
284.365677277809
 20
159.0038698646363
 30
0.0
 10
284.4248725359922
 20
158.8699636167271
 30
0.0
 10
284.3983383988346
 20
158.7837488821932
 30
0.0
 10
284.3649828258612
 20
158.6952332210175
 30
0.0
 10
284.306035973878
 20
158.6350854942427
 30
0.0
 10
284.2269206643984
 20
158.577153093852
 30
0.0
 10
284.152152916184
 20
158.5701401173758
 30
0.0
 10
284.1035248889335
 20
158.5572553400775
 30
0.0
 10
284.0913678763016
 20
158.554034144211
 30
0.0
 11
284.1830760076583
 21
159.0030334533493
 31
0.0
 11
284.3756632417096
 21
158.9572170753837
 31
0.0
 11
284.4123465997203
 21
158.8747478937768
 31
0.0
 11
284.3940051843849
 21
158.7739521609836
 31
0.0
 11
284.366492797712
 21
158.7098092318318
 31
0.0
 11
284.2931260816905
 21
158.6273400502248
 31
0.0
 11
284.2381013083444
 21
158.5906869478523
 31
0.0
 11
284.1280512343122
 21
158.5631974198041
 31
0.0
 11
284.0913678763016
 21
158.554034144211
 31
0.0
  0
LINE
  5
1626
330
18
100
AcDbEntity
  8
ROGO
 62
     4
100
AcDbLine
 10
284.1830760076583
 20
159.0030334533493
 30
0.0
 11
283.6610927231045
 21
159.0030334533493
 31
0.0
  0
LINE
  5
1627
330
18
100
AcDbEntity
  8
ROGO
 62
     4
100
AcDbLine
 10
284.0913678763016
 20
158.5540341442109
 30
0.0
 11
283.4579526992163
 21
158.554034144211
 31
0.0
  0
LINE
  5
1628
330
18
100
AcDbEntity
  8
ROGO
 62
     4
100
AcDbLine
 10
283.1926269233891
 20
157.9675859999069
 30
0.0
 11
282.7629101580381
 21
157.0177853300302
 31
0.0
  0
LINE
  5
1629
102
{ACAD_REACTORS
330
1613
102
}
330
18
100
AcDbEntity
  8
ROGO
 62
     4
100
AcDbLine
 10
285.3045615751498
 20
157.9675859999069
 30
0.0
 11
287.5880970517719
 21
157.9675859999069
 31
0.0
  0
LINE
  5
162A
330
18
100
AcDbEntity
  8
外形線
100
AcDbLine
 10
280.8203414510285
 20
171.4957632890278
 30
0.0
 11
280.8203414510285
 21
170.4235812705547
 31
0.0
  0
LINE
  5
162B
330
18
100
AcDbEntity
  8
ROGO
 62
     4
100
AcDbLine
 10
282.841916766239
 20
159.6559151963379
 30
0.0
 11
284.9151288829341
 21
159.6559151963379
 31
0.0
  0
LINE
  5
162C
330
18
100
AcDbEntity
  8
ROGO
 62
     4
100
AcDbLine
 10
300.7095650272973
 20
159.6559151963379
 30
0.0
 11
300.4723970796094
 21
159.1802782407738
 31
0.0
  0
LINE
  5
162D
330
18
100
AcDbEntity
  8
ROGO
 62
     4
100
AcDbLine
 10
300.3951644669314
 20
158.3368502631841
 30
0.0
 11
301.9931899966431
 21
159.6559151963379
 31
0.0
  0
LINE
  5
162E
330
18
100
AcDbEntity
  8
ROGO
 62
     4
100
AcDbLine
 10
300.4723970796094
 20
159.1802782407738
 30
0.0
 11
301.0211035966431
 21
159.6559151963379
 31
0.0
  0
SPLINE
  5
162F
330
18
100
AcDbEntity
  8
ROGO
 62
     4
100
AcDbSpline
210
0.0
220
0.0
230
1.0
 70
     8
 71
     3
 72
    26
 73
    22
 74
    20
 42
0.0000000001
 43
0.0000000001
 44
0.0000000001
 40
0.0
 40
0.0
 40
0.0
 40
0.0
 40
0.306282258847545
 40
0.5113145150563467
 40
0.6591594689727181
 40
0.7695505122602936
 40
0.9127334891893321
 40
1.017243103820775
 40
1.205963108812882
 40
1.359578479722684
 40
1.464061546148625
 40
1.566512542290257
 40
1.74977745669044
 40
1.879367624743214
 40
1.949161942424609
 40
2.048302708997821
 40
2.119894481049017
 40
2.223607322578586
 40
2.282299819925649
 40
2.41002127769804
 40
2.468340004822995
 40
2.468340004822995
 40
2.468340004822995
 40
2.468340004822995
 10
297.6930900382125
 20
159.6559151963379
 30
0.0
 10
297.5891331072371
 20
159.6497129475685
 30
0.0
 10
297.4155850605809
 20
159.6393587735013
 30
0.0
 10
297.2250303610944
 20
159.5235988399692
 30
0.0
 10
297.0854188325669
 20
159.4563011016717
 30
0.0
 10
296.9858480597356
 20
159.3648155598466
 30
0.0
 10
296.9128622796205
 20
159.2703176780333
 30
0.0
 10
296.8208500021519
 20
159.1577241447293
 30
0.0
 10
296.7458166191303
 20
159.0266135314177
 30
0.0
 10
296.7076066787303
 20
158.882106778622
 30
0.0
 10
296.6737606761757
 20
158.7669340581891
 30
0.0
 10
296.6486599140676
 20
158.6385890916131
 30
0.0
 10
296.6550462585413
 20
158.4999313783131
 30
0.0
 10
296.664191796107
 20
158.3711531927367
 30
0.0
 10
296.7050243974379
 20
158.2792248489739
 30
0.0
 10
296.7515254976537
 20
158.2137782029219
 30
0.0
 10
296.8084654580385
 20
158.1416959780235
 30
0.0
 10
296.8707702264469
 20
158.0939561538847
 30
0.0
 10
296.9223013555889
 20
158.0074722544181
 30
0.0
 10
297.0125048587834
 20
157.9964362851201
 30
0.0
 10
297.0698417940239
 20
157.9744714124213
 30
0.0
 10
297.0878154220457
 20
157.9675859999069
 30
0.0
 11
297.6930900382125
 21
159.6559151963379
 31
0.0
 11
297.390452730129
 21
159.6088038193603
 31
0.0
 11
297.2070359400754
 21
159.5171713621602
 31
0.0
 11
297.0786444507079
 21
159.4438654561464
 31
0.0
 11
296.9961072906888
 21
159.3705592514015
 31
0.0
 11
296.9043991593321
 21
159.260600243015
 31
0.0
 11
296.8402034146483
 21
159.1781310614082
 31
0.0
 11
296.7484947559515
 21
159.0131923994631
 31
0.0
 11
296.702640953943
 21
158.8665802887043
 31
0.0
 11
296.6751285672701
 21
158.7657845559111
 31
0.0
 11
296.6567866245947
 21
158.664988823118
 31
0.0
 11
296.6567866245947
 21
158.4817239087178
 31
0.0
 11
296.6751285672701
 21
158.3534383491453
 31
0.0
 11
296.702640953943
 21
158.2892954199935
 31
0.0
 11
296.7576657272891
 21
158.2068262383864
 31
0.0
 11
296.8035200566376
 21
158.1518465848277
 31
0.0
 11
296.8768862453189
 21
158.0785406788139
 31
0.0
 11
296.9135696033297
 21
158.0327243008483
 31
0.0
 11
297.0327906486996
 21
157.9869082216137
 31
0.0
 11
297.0878154220457
 21
157.9675859999069
 31
0.0
  0
LINE
  5
1630
330
18
100
AcDbEntity
  8
ROGO
 62
     4
100
AcDbLine
 10
299.383851049492
 20
159.6559151963379
 30
0.0
 11
299.0706262345112
 21
159.0277472720591
 31
0.0
  0
LINE
  5
1631
330
18
100
AcDbEntity
  8
ROGO
 62
     4
100
AcDbLine
 10
299.7374573583634
 20
159.6559151963379
 30
0.0
 11
298.4220006033593
 21
157.0177853300302
 31
0.0
  0
HATCH
  5
1632
330
18
100
AcDbEntity
  8
ROGO
 62
     4
100
AcDbHatch
 10
0.0
 20
0.0
 30
0.0
210
0.0
220
0.0
230
1.0
  2
SOLID
 70
     1
 71
     0
 91
        1
 92
        5
 93
        8
 72
     4
 94
        3
 73
     0
 74
     0
 95
       26
 96
       22
 40
0.0
 40
0.0
 40
0.0
 40
0.0
 40
0.306282258847545
 40
0.5113145150563467
 40
0.6591594689727181
 40
0.7695505122602936
 40
0.9127334891893321
 40
1.017243103820775
 40
1.205963108812882
 40
1.359578479722684
 40
1.464061546148625
 40
1.566512542290257
 40
1.74977745669044
 40
1.879367624743214
 40
1.949161942424609
 40
2.048302708997821
 40
2.119894481049017
 40
2.223607322578586
 40
2.282299819925649
 40
2.41002127769804
 40
2.468340004822995
 40
2.468340004822995
 40
2.468340004822995
 40
2.468340004822995
 10
297.6930900382125
 20
159.6559151963379
 10
297.5891331072371
 20
159.6497129475685
 10
297.4155850605809
 20
159.6393587735013
 10
297.2250303610942
 20
159.5235988399691
 10
297.0854188325669
 20
159.4563011016718
 10
296.9858480597356
 20
159.3648155598466
 10
296.9128622796204
 20
159.2703176780333
 10
296.820850002152
 20
159.1577241447294
 10
296.7458166191302
 20
159.0266135314176
 10
296.7076066787304
 20
158.882106778622
 10
296.6737606761756
 20
158.7669340581891
 10
296.6486599140676
 20
158.6385890916131
 10
296.6550462585413
 20
158.4999313783131
 10
296.664191796107
 20
158.3711531927368
 10
296.7050243974378
 20
158.2792248489739
 10
296.7515254976537
 20
158.2137782029219
 10
296.8084654580384
 20
158.1416959780235
 10
296.8707702264467
 20
158.0939561538847
 10
296.9223013555888
 20
158.0074722544182
 10
297.0125048587835
 20
157.9964362851201
 10
297.0698417940237
 20
157.9744714124213
 10
297.0878154220457
 20
157.9675859999069
 72
     1
 10
297.0878154220457
 20
157.9675859999069
 11
298.5419955841944
 21
157.9675859999069
 72
     1
 10
298.5419955841944
 20
157.9675859999069
 11
298.8552170822101
 21
158.5957472720591
 72
     1
 10
298.8552170822101
 20
158.5957472720591
 11
297.7756271982315
 21
158.5957472720591
 72
     4
 94
        3
 73
     0
 74
     0
 95
       16
 96
       12
 40
0.0
 40
0.0
 40
0.0
 40
0.0
 40
0.0924964283868937
 40
0.185946890240525
 40
0.2416858907028844
 40
0.2951281203562444
 40
0.3538203845089212
 40
0.3948066843497379
 40
0.4336991257335823
 40
0.5125674130988856
 40
0.6740411735369252
 40
0.6740411735369252
 40
0.6740411735369252
 40
0.6740411735369252
 10
297.7756271982316
 20
158.5957472720591
 10
297.7430629627966
 20
158.6053281476015
 10
297.6775986154935
 20
158.6245887184578
 10
297.6721197782607
 20
158.7179568902057
 10
297.6795839013403
 20
158.7844893528675
 10
297.710843665468
 20
158.832928870931
 10
297.7487671812889
 20
158.8681749936912
 10
297.7628877881837
 20
158.9140775576398
 10
297.8043940256292
 20
158.9487397363323
 10
297.8779957059888
 20
159.0070020167298
 10
297.9593864232607
 20
159.0194105806683
 10
298.0140687616312
 20
159.0277472720591
 72
     1
 10
298.0140687616312
 20
159.0277472720591
 11
299.0706262345112
 21
159.0277472720591
 72
     1
 10
299.0706262345112
 20
159.0277472720591
 11
299.383851049492
 21
159.6559151963379
 72
     1
 10
299.383851049492
 20
159.6559151963379
 11
297.6930900382125
 21
159.6559151963379
 97
        0
 75
     0
 76
     1
 47
0.0514683685270805
 98
        1
 10
297.9848410192359
 20
159.3467763779649
450
        0
451
        0
460
0.0
461
0.0
452
        0
462
0.0
453
        0
470

  0
SPLINE
  5
1633
102
{ACAD_REACTORS
330
1639
102
}
330
18
100
AcDbEntity
  8
ROGO
 62
     4
100
AcDbSpline
210
0.0
220
0.0
230
1.0
 70
     8
 71
     3
 72
    25
 73
    21
 74
     0
 42
0.0000000001
 43
0.0000000001
 40
0.0
 40
0.0
 40
0.0
 40
0.0
 40
0.4087168505087288
 40
0.6887487002771746
 40
0.9415836120477687
 40
1.17452070575514
 40
1.41154617586699
 40
1.599156012919487
 40
1.80099909059943
 40
2.178735911501585
 40
2.521686161369157
 40
2.762704659361267
 40
3.06256558063785
 40
3.222432137207705
 40
3.399493810628493
 40
3.567459719866414
 40
3.743172740007509
 40
3.995988754699505
 40
4.17170091132118
 40
4.337226830236035
 40
4.337226830236035
 40
4.337226830236035
 40
4.337226830236035
 10
295.8463488138781
 20
159.6629573352738
 30
0.0
 10
295.9096317358537
 20
159.6609241202588
 30
0.0
 10
296.016272874349
 20
159.6574978504654
 30
0.0
 10
296.1307652925762
 20
159.5680086784111
 30
0.0
 10
296.2183715764096
 20
159.4938152982918
 30
0.0
 10
296.2805556040876
 20
159.4041189758622
 30
0.0
 10
296.3350616466278
 20
159.3216479854201
 30
0.0
 10
296.3709769961882
 20
159.2345775951352
 30
0.0
 10
296.4198289674844
 20
159.1301011008734
 30
0.0
 10
296.4400512701736
 20
158.9903270734622
 30
0.0
 10
296.4263887001694
 20
158.8458577195464
 30
0.0
 10
296.3907357716725
 20
158.7177989262134
 30
0.0
 10
296.3533387162012
 20
158.619555228171
 30
0.0
 10
296.309261834736
 20
158.5340279941831
 30
0.0
 10
296.2567165596306
 20
158.4786491035415
 30
0.0
 10
296.220262759652
 20
158.4082353839517
 30
0.0
 10
296.1502396730156
 20
158.3506407416859
 30
0.0
 10
296.0934751818355
 20
158.2795770368165
 30
0.0
 10
296.029059306156
 20
158.2185823032383
 30
0.0
 10
295.9927413499081
 20
158.1809492876675
 30
0.0
 10
295.9735936475447
 20
158.1651263311659
 30
0.0
  0
LINE
  5
1634
330
18
100
AcDbEntity
  8
ROGO
 62
     4
100
AcDbLine
 10
293.9439042011562
 20
159.6559151963379
 30
0.0
 11
293.6306793861754
 21
159.0277472720591
 31
0.0
  0
SPLINE
  5
1635
330
18
100
AcDbEntity
  8
ROGO
 62
     4
100
AcDbSpline
210
0.0
220
0.0
230
1.0
 70
     8
 71
     3
 72
    26
 73
    22
 74
    20
 42
0.0000000001
 43
0.0000000001
 44
0.0000000001
 40
0.0
 40
0.0
 40
0.0
 40
0.0
 40
0.306282258847545
 40
0.5113145150563467
 40
0.6591594689727181
 40
0.7695505122602936
 40
0.9127334891892449
 40
1.017243103820777
 40
1.205963108812785
 40
1.359578479722587
 40
1.464061546148638
 40
1.566512542290269
 40
1.749777456690453
 40
1.879367624743226
 40
1.949161942424621
 40
2.048302708997833
 40
2.119894481049029
 40
2.223607322578598
 40
2.282299819925661
 40
2.410021277698012
 40
2.468340004823004
 40
2.468340004823004
 40
2.468340004823004
 40
2.468340004823004
 10
292.2531431898767
 20
159.6559151963379
 30
0.0
 10
292.1491862589013
 20
159.6497129475685
 30
0.0
 10
291.9756382122451
 20
159.6393587735013
 30
0.0
 10
291.7850835127585
 20
159.5235988399691
 30
0.0
 10
291.6454719842312
 20
159.4563011016718
 30
0.0
 10
291.5459012113997
 20
159.3648155598466
 30
0.0
 10
291.4729154312846
 20
159.2703176780334
 30
0.0
 10
291.3809031538161
 20
159.1577241447293
 30
0.0
 10
291.3058697707944
 20
159.0266135314177
 30
0.0
 10
291.2676598303946
 20
158.882106778622
 30
0.0
 10
291.2338138278398
 20
158.7669340581892
 30
0.0
 10
291.2087130657318
 20
158.6385890916131
 30
0.0
 10
291.2150994102054
 20
158.4999313783131
 30
0.0
 10
291.2242449477713
 20
158.3711531927368
 30
0.0
 10
291.2650775491021
 20
158.2792248489739
 30
0.0
 10
291.3115786493179
 20
158.2137782029219
 30
0.0
 10
291.3685186097028
 20
158.1416959780235
 30
0.0
 10
291.430823378111
 20
158.0939561538847
 30
0.0
 10
291.4823545072531
 20
158.0074722544181
 30
0.0
 10
291.5725580104477
 20
157.9964362851203
 30
0.0
 10
291.6298949456879
 20
157.9744714124213
 30
0.0
 10
291.6478685737098
 20
157.9675859999069
 30
0.0
 11
292.2531431898767
 21
159.6559151963379
 31
0.0
 11
291.9505058817932
 21
159.6088038193603
 31
0.0
 11
291.7670890917396
 21
159.5171713621602
 31
0.0
 11
291.6386976023721
 21
159.4438654561464
 31
0.0
 11
291.556160442353
 21
159.3705592514015
 31
0.0
 11
291.4644523109963
 21
159.2606002430152
 31
0.0
 11
291.4002565663125
 21
159.1781310614082
 31
0.0
 11
291.3085479076157
 21
159.0131923994632
 31
0.0
 11
291.2626941056073
 21
158.8665802887045
 31
0.0
 11
291.2351817189343
 21
158.7657845559111
 31
0.0
 11
291.2168397762589
 21
158.664988823118
 31
0.0
 11
291.2168397762589
 21
158.4817239087178
 31
0.0
 11
291.2351817189343
 21
158.3534383491453
 31
0.0
 11
291.2626941056073
 21
158.2892954199935
 31
0.0
 11
291.3177188789533
 21
158.2068262383864
 31
0.0
 11
291.3635732083018
 21
158.1518465848277
 31
0.0
 11
291.4369393969831
 21
158.0785406788139
 31
0.0
 11
291.4736227549939
 21
158.0327243008483
 31
0.0
 11
291.5928438003638
 21
157.9869082216139
 31
0.0
 11
291.6478685737098
 21
157.9675859999069
 31
0.0
  0
HATCH
  5
1636
330
18
100
AcDbEntity
  8
ROGO
 62
     4
100
AcDbHatch
 10
0.0
 20
0.0
 30
0.0
210
0.0
220
0.0
230
1.0
  2
SOLID
 70
     1
 71
     0
 91
        1
 92
        5
 93
        8
 72
     1
 10
293.6306793861755
 20
159.0277472720592
 11
293.9439042011562
 21
159.6559151963381
 72
     1
 10
293.9439042011562
 20
159.6559151963381
 11
292.2531431898773
 21
159.6559151963381
 72
     4
 94
        3
 73
     0
 74
     0
 95
       26
 96
       22
 40
0.0
 40
0.0
 40
0.0
 40
0.0
 40
0.306282258847545
 40
0.5113145150563467
 40
0.6591594689727181
 40
0.7695505122602936
 40
0.9127334891892449
 40
1.017243103820777
 40
1.205963108812785
 40
1.359578479722587
 40
1.464061546148638
 40
1.566512542290269
 40
1.749777456690453
 40
1.879367624743226
 40
1.949161942424621
 40
2.048302708997833
 40
2.119894481049029
 40
2.223607322578598
 40
2.282299819925661
 40
2.410021277698012
 40
2.468340004823004
 40
2.468340004823004
 40
2.468340004823004
 40
2.468340004823004
 10
292.2531431898767
 20
159.6559151963379
 10
292.1491862589013
 20
159.6497129475685
 10
291.975638212245
 20
159.6393587735013
 10
291.7850835127585
 20
159.5235988399691
 10
291.645471984231
 20
159.4563011016718
 10
291.5459012113999
 20
159.3648155598465
 10
291.4729154312845
 20
159.2703176780334
 10
291.3809031538163
 20
159.1577241447293
 10
291.3058697707944
 20
159.0266135314177
 10
291.2676598303945
 20
158.8821067786221
 10
291.2338138278398
 20
158.7669340581891
 10
291.2087130657317
 20
158.6385890916131
 10
291.2150994102055
 20
158.4999313783131
 10
291.2242449477712
 20
158.3711531927368
 10
291.265077549102
 20
158.2792248489739
 10
291.3115786493179
 20
158.2137782029219
 10
291.3685186097026
 20
158.1416959780235
 10
291.4308233781109
 20
158.0939561538847
 10
291.4823545072531
 20
158.0074722544181
 10
291.5725580104476
 20
157.9964362851203
 10
291.629894945688
 20
157.9744714124213
 10
291.6478685737098
 20
157.9675859999069
 72
     1
 10
291.6478685737098
 20
157.9675859999069
 11
293.1020487358586
 21
157.9675859999069
 72
     1
 10
293.1020487358586
 20
157.9675859999069
 11
293.4152702338742
 21
158.5957472720591
 72
     1
 10
293.4152702338742
 20
158.5957472720591
 11
292.3356803498958
 21
158.5957472720591
 72
     4
 94
        3
 73
     0
 74
     0
 95
       16
 96
       12
 40
0.0
 40
0.0
 40
0.0
 40
0.0
 40
0.092496428386945
 40
0.1859468902404647
 40
0.2416858907028242
 40
0.2951281203562815
 40
0.3538203845089407
 40
0.3948066843496557
 40
0.4336991257336609
 40
0.512567413098898
 40
0.6740411735369377
 40
0.6740411735369377
 40
0.6740411735369377
 40
0.6740411735369377
 10
292.3356803498958
 20
158.5957472720591
 10
292.3031161144607
 20
158.6053281476015
 10
292.2376517671578
 20
158.6245887184579
 10
292.2321729299248
 20
158.7179568902057
 10
292.2396370530044
 20
158.7844893528676
 10
292.2708968171321
 20
158.8329288709312
 10
292.3088203329533
 20
158.8681749936912
 10
292.3229409398478
 20
158.9140775576398
 10
292.3644471772933
 20
158.9487397363324
 10
292.4380488576531
 20
159.0070020167298
 10
292.5194395749249
 20
159.0194105806683
 10
292.5741219132953
 20
159.0277472720591
 72
     1
 10
292.5741219132953
 20
159.0277472720591
 11
293.6306793861755
 21
159.0277472720592
 97
        0
 75
     0
 76
     1
 47
0.0514683685270805
 98
        1
 10
292.8444649148571
 20
159.2800733238918
450
        0
451
        0
460
0.0
461
0.0
452
        0
462
0.0
453
        0
470

  0
LINE
  5
1637
330
18
100
AcDbEntity
  8
ROGO
 62
     4
100
AcDbLine
 10
290.435478026781
 20
159.6559151963379
 30
0.0
 11
291.1855007544167
 21
157.9675859999069
 31
0.0
  0
SPLINE
  5
1638
102
{ACAD_REACTORS
330
1639
102
}
330
18
100
AcDbEntity
  8
ROGO
 62
     4
100
AcDbSpline
210
0.0
220
0.0
230
1.0
 70
     8
 71
     3
 72
    38
 73
    34
 74
    32
 42
0.0000000001
 43
0.0000000001
 44
0.0000000001
 40
0.0
 40
0.0
 40
0.0
 40
0.0
 40
0.2324160190625641
 40
0.3054076598660179
 40
0.3991969555208118
 40
0.4773548548861183
 40
0.5433001127836845
 40
0.6308904647837286
 40
0.6756456824938584
 40
0.7260518053353911
 40
0.8003409450195571
 40
0.884494420029689
 40
0.9390839551137702
 40
0.9983865037096219
 40
1.064308042580248
 40
1.164347318186099
 40
1.259395062462607
 40
1.303582284428296
 40
1.353971899974848
 40
1.413666953858189
 40
1.456162161198055
 40
1.491785383230425
 40
1.542647296663551
 40
1.598535826931799
 40
1.654424046021893
 40
1.703326315520178
 40
1.815321205179844
 40
1.859508427145426
 40
1.947882923564461
 40
2.026002047025105
 40
2.175555252260891
 40
2.360088422381767
 40
2.626581173122162
 40
2.626581173122162
 40
2.626581173122162
 40
2.626581173122162
 10
294.8814796126397
 20
159.6629573352738
 30
0.0
 10
294.8040083871211
 20
159.657484539287
 30
0.0
 10
294.702206859894
 20
159.6502929789892
 30
0.0
 10
294.57294272381
 20
159.6148784595828
 30
0.0
 10
294.5024794681003
 20
159.572688363137
 30
0.0
 10
294.4291483664067
 20
159.5416766199505
 30
0.0
 10
294.3666267724831
 20
159.4957543780586
 30
0.0
 10
294.3033875001597
 20
159.4720910892388
 30
0.0
 10
294.2591054258195
 20
159.4294219499022
 30
0.0
 10
294.2078525367914
 20
159.4033577979631
 30
0.0
 10
294.1670389512889
 20
159.345018648516
 30
0.0
 10
294.1214209386053
 20
159.2904736578123
 30
0.0
 10
294.068498304939
 20
159.2506582472127
 30
0.0
 10
294.0250639892197
 20
159.2088404171183
 30
0.0
 10
293.9852190440313
 20
159.1443029404532
 30
0.0
 10
293.9616370221541
 20
159.0585517444289
 30
0.0
 10
293.8951632607706
 20
159.0044115317765
 30
0.0
 10
293.8851543935781
 20
158.9393188419072
 30
0.0
 10
293.8483857290409
 20
158.9009152502335
 30
0.0
 10
293.8323974277404
 20
158.8513417305385
 30
0.0
 10
293.8263083130097
 20
158.8059236299833
 30
0.0
 10
293.8189999233837
 20
158.7635062681469
 30
0.0
 10
293.7998825602276
 20
158.7188850771982
 30
0.0
 10
293.8061225335209
 20
158.6637661471391
 30
0.0
 10
293.8043449524666
 20
158.6103926576762
 30
0.0
 10
293.8053910610038
 20
158.5383367848903
 30
0.0
 10
293.801615510416
 20
158.468181531708
 30
0.0
 10
293.8317240467925
 20
158.3918359766343
 30
0.0
 10
293.8495412794248
 20
158.3237844763488
 30
0.0
 10
293.8983366693522
 20
158.2295589220255
 30
0.0
 10
293.9825076944039
 20
158.1208430058283
 30
0.0
 10
294.1425659392834
 20
157.9888824815947
 30
0.0
 10
294.2964666214312
 20
157.9754957006724
 30
0.0
 10
294.3874002335128
 20
157.9675859999069
 30
0.0
 11
294.8814796126397
 21
159.6629573352738
 31
0.0
 11
294.6507496508504
 21
159.6350129145506
 31
0.0
 11
294.580831497257
 21
159.6140550657755
 31
0.0
 11
294.4969300425324
 21
159.5721387458688
 31
0.0
 11
294.4270118889391
 21
159.537208686732
 31
0.0
 11
294.3710775857894
 21
159.5022783164172
 31
0.0
 11
294.2941677816305
 21
159.4603623076887
 31
0.0
 11
294.2592084301775
 21
159.4324181981435
 31
0.0
 11
294.217257428159
 21
159.4044737774203
 31
0.0
 11
294.1683147755749
 21
159.3485855583304
 31
0.0
 11
294.1123804724252
 21
159.2857113896485
 31
0.0
 11
294.0704294704067
 21
159.2507810193336
 31
0.0
 11
294.0284790177006
 21
159.2088650106051
 31
0.0
 11
293.9935196662477
 21
159.152976791515
 31
0.0
 11
293.9515692135418
 21
159.0621582021101
 31
0.0
 11
293.8956343610795
 21
158.9853118230667
 31
0.0
 11
293.8816510599484
 21
158.94339550316
 31
0.0
 11
293.8536839083736
 21
158.9014794944316
 31
0.0
 11
293.8327084073643
 21
158.8455909641633
 31
0.0
 11
293.8257162074862
 21
158.8036749554349
 31
0.0
 11
293.8187245569205
 21
158.76874458512
 31
0.0
 11
293.8047412557894
 21
158.7198426267998
 31
0.0
 11
293.8047412557894
 21
158.6639540965315
 31
0.0
 11
293.8047412557894
 21
158.6080658774414
 31
0.0
 11
293.8047412557894
 21
158.5591636079431
 31
0.0
 11
293.811732906355
 21
158.447387169763
 31
0.0
 11
293.8257162074862
 21
158.4054708498564
 31
0.0
 11
293.8536839083736
 21
158.3216385212212
 31
0.0
 11
293.888642710514
 21
158.2517780917696
 31
0.0
 11
293.9795363651166
 21
158.1330157039977
 31
0.0
 11
294.126364322869
 21
158.0212389546394
 31
0.0
 11
294.3874002335128
 21
157.9675859999069
 31
0.0
  0
HATCH
  5
1639
330
18
100
AcDbEntity
  8
ROGO
 62
     4
100
AcDbHatch
 10
0.0
 20
0.0
 30
0.0
210
0.0
220
0.0
230
1.0
  2
SOLID
 70
     1
 71
     1
 91
        1
 92
        5
 93
        6
 72
     4
 94
        3
 73
     0
 74
     0
 95
       38
 96
       34
 40
0.0
 40
0.0
 40
0.0
 40
0.0
 40
0.2324160190625641
 40
0.3054076598660179
 40
0.3991969555208118
 40
0.4773548548861183
 40
0.5433001127836845
 40
0.6308904647837286
 40
0.6756456824938584
 40
0.7260518053353911
 40
0.8003409450195571
 40
0.884494420029689
 40
0.9390839551137702
 40
0.9983865037096219
 40
1.064308042580248
 40
1.164347318186099
 40
1.259395062462607
 40
1.303582284428296
 40
1.353971899974848
 40
1.413666953858189
 40
1.456162161198055
 40
1.491785383230425
 40
1.542647296663551
 40
1.598535826931799
 40
1.654424046021893
 40
1.703326315520178
 40
1.815321205179844
 40
1.859508427145426
 40
1.947882923564461
 40
2.026002047025105
 40
2.175555252260891
 40
2.360088422381767
 40
2.626581173122162
 40
2.626581173122162
 40
2.626581173122162
 40
2.626581173122162
 10
294.8814796126397
 20
159.6629573352738
 10
294.8040083871211
 20
159.657484539287
 10
294.702206859894
 20
159.6502929789892
 10
294.57294272381
 20
159.6148784595828
 10
294.5024794681003
 20
159.572688363137
 10
294.4291483664067
 20
159.5416766199505
 10
294.3666267724831
 20
159.4957543780586
 10
294.3033875001597
 20
159.4720910892388
 10
294.2591054258195
 20
159.4294219499022
 10
294.2078525367914
 20
159.4033577979631
 10
294.1670389512889
 20
159.345018648516
 10
294.1214209386053
 20
159.2904736578123
 10
294.068498304939
 20
159.2506582472127
 10
294.0250639892197
 20
159.2088404171183
 10
293.9852190440313
 20
159.1443029404532
 10
293.9616370221541
 20
159.0585517444289
 10
293.8951632607706
 20
159.0044115317765
 10
293.8851543935781
 20
158.9393188419072
 10
293.8483857290409
 20
158.9009152502335
 10
293.8323974277404
 20
158.8513417305385
 10
293.8263083130097
 20
158.8059236299833
 10
293.8189999233837
 20
158.7635062681469
 10
293.7998825602276
 20
158.7188850771982
 10
293.8061225335209
 20
158.6637661471391
 10
293.8043449524666
 20
158.6103926576762
 10
293.8053910610038
 20
158.5383367848903
 10
293.801615510416
 20
158.468181531708
 10
293.8317240467925
 20
158.3918359766343
 10
293.8495412794248
 20
158.3237844763488
 10
293.8983366693522
 20
158.2295589220255
 10
293.9825076944039
 20
158.1208430058283
 10
294.1425659392834
 20
157.9888824815947
 10
294.2964666214312
 20
157.9754957006724
 10
294.3874002335128
 20
157.9675859999069
 72
     1
 10
294.3874002335128
 20
157.9675859999069
 11
295.3522694347508
 21
157.9675859999069
 72
     4
 94
        3
 73
     0
 74
     0
 95
       11
 96
        7
 40
0.1647869275458135
 40
0.1647869275458135
 40
0.1647869275458135
 40
0.1647869275458135
 40
0.2545010798212315
 40
0.5111620267764023
 40
0.7602998271033902
 40
0.8850764140209603
 40
0.8850764140209603
 40
0.8850764140209603
 40
0.8850764140209603
 10
295.3522694347512
 20
157.9675859999069
 10
295.3657333065911
 20
157.9673265226516
 10
295.4177156285135
 20
157.9663247134858
 10
295.5065540397803
 20
157.979087395666
 10
295.6000238832436
 20
157.9913176170031
 10
295.6557480408018
 20
158.0002245181539
 10
295.6737204529743
 20
158.0052271459322
 72
     4
 94
        3
 73
     0
 74
     0
 95
        9
 96
        5
 40
0.0
 40
0.0
 40
0.0
 40
0.0
 40
0.146030572742497
 40
0.3423777932799819
 40
0.3423777932799819
 40
0.3423777932799819
 40
0.3423777932799819
 10
295.6737204529743
 20
158.0052271459322
 10
295.7206296979546
 20
158.0195787255763
 10
295.8306113509684
 20
158.0532268999029
 10
295.9214813902729
 20
158.1243427370415
 10
295.9735936475447
 20
158.1651263311659
 72
     4
 94
        3
 73
     0
 74
     0
 95
       25
 96
       21
 40
0.0
 40
0.0
 40
0.0
 40
0.0
 40
0.165525918914855
 40
0.3412380755365305
 40
0.5940540902285263
 40
0.7697671103696209
 40
0.9377330196075423
 40
1.11479469302833
 40
1.274661249598185
 40
1.574522170874768
 40
1.815540668866877
 40
2.15849091873445
 40
2.536227739636605
 40
2.738070817316548
 40
2.925680654369045
 40
3.162706124480894
 40
3.395643218188267
 40
3.648478129958861
 40
3.928509979727306
 40
4.337226830236035
 40
4.337226830236035
 40
4.337226830236035
 40
4.337226830236035
 10
295.9735936475447
 20
158.1651263311659
 10
295.9927413499081
 20
158.1809492876675
 10
296.029059306156
 20
158.2185823032383
 10
296.0934751818355
 20
158.2795770368165
 10
296.1502396730156
 20
158.3506407416859
 10
296.220262759652
 20
158.4082353839517
 10
296.2567165596306
 20
158.4786491035415
 10
296.309261834736
 20
158.5340279941831
 10
296.3533387162012
 20
158.619555228171
 10
296.3907357716725
 20
158.7177989262134
 10
296.4263887001694
 20
158.8458577195464
 10
296.4400512701736
 20
158.9903270734622
 10
296.4198289674844
 20
159.1301011008734
 10
296.3709769961882
 20
159.2345775951352
 10
296.3350616466278
 20
159.3216479854201
 10
296.2805556040876
 20
159.4041189758622
 10
296.2183715764096
 20
159.4938152982918
 10
296.1307652925762
 20
159.5680086784111
 10
296.016272874349
 20
159.6574978504654
 10
295.9096317358537
 20
159.6609241202588
 10
295.8463488138781
 20
159.6629573352738
 72
     1
 10
295.8463488138781
 20
159.6629573352738
 11
294.8814796126398
 21
159.6629573352738
 97
        6
330
1633
330
165D
330
1638
330
1655
330
1653
330
1654
 75
     0
 76
     1
 47
0.088756267210375
 98
        1
 10
295.1706234745818
 20
159.1946889785517
450
        0
451
        0
460
0.0
461
0.0
452
        0
462
0.0
453
        0
470

  0
HATCH
  5
163A
330
18
100
AcDbEntity
  8
ROGO
 62
     4
100
AcDbHatch
 10
0.0
 20
0.0
 30
0.0
210
0.0
220
0.0
230
1.0
  2
SOLID
 70
     1
 71
     0
 91
        1
 92
        7
 72
     0
 73
     1
 93
       11
 10
300.4723970796094
 20
159.1802782407734
 10
300.7095650272973
 20
159.6559151963379
 10
299.7374573583634
 20
159.6559151963379
 10
298.4220006033593
 20
157.0177853300302
 10
299.3941082722932
 20
157.0177853300302
 10
299.7374573583634
 20
157.7063670527554
 10
300.0808064444335
 20
157.0177853300302
 10
301.0528928444335
 20
157.0177853300302
 10
300.3951644669314
 20
158.3368502631841
 10
301.9931899966431
 20
159.6559151963379
 10
301.0211035966431
 20
159.6559151963379
 97
        0
 75
     0
 76
     1
 47
0.015942268611278
 98
        1
 10
300.2622082401531
 20
158.8000551205442
450
        0
451
        0
460
0.0
461
0.0
452
        0
462
0.0
453
        0
470

  0
LINE
  5
163B
102
{ACAD_REACTORS
330
1613
102
}
330
18
100
AcDbEntity
  8
ROGO
 62
     4
100
AcDbLine
 10
288.423466636535
 20
159.6559151963379
 30
0.0
 11
288.2321083848763
 21
159.2691693425909
 31
0.0
  0
LINE
  5
163C
330
18
100
AcDbEntity
  8
ROGO
 62
     4
100
AcDbLine
 10
289.0849592632177
 20
159.6559151963379
 30
0.0
 11
287.8674722673759
 21
157.9675859999069
 31
0.0
  0
HATCH
  5
163D
330
18
100
AcDbEntity
  8
ROGO
 62
     4
100
AcDbHatch
 10
0.0
 20
0.0
 30
0.0
210
0.0
220
0.0
230
1.0
  2
SOLID
 70
     1
 71
     0
 91
        2
 92
        7
 72
     0
 73
     1
 93
        8
 10
290.435478026781
 20
159.6559151963379
 10
289.0849592632177
 20
159.6559151963379
 10
287.8674722673759
 20
157.9675859999069
 10
288.8025044481221
 20
157.9675859999069
 10
289.0343064392977
 20
158.2890334328808
 10
290.1012911391632
 20
158.2890334328808
 10
290.2440908259661
 20
157.9675859999069
 10
291.1855007544166
 20
157.967585999907
 97
        0
 92
       22
 72
     0
 73
     1
 93
        3
 10
289.6945522217442
 20
159.2046179402571
 10
289.9506760033911
 20
158.6280737336329
 10
289.2787949893413
 20
158.6280737336329
 97
        0
 75
     0
 76
     1
 47
0.0128389261915577
 98
        2
 10
290.3297217364293
 20
159.2508613032977
 10
290.3297217364293
 20
159.2508613032977
450
        0
451
        0
460
0.0
461
0.0
452
        0
462
0.0
453
        0
470

  0
LINE
  5
163E
330
18
100
AcDbEntity
  8
ROGO
 62
     4
100
AcDbLine
 10
300.0808064444335
 20
157.0177853300302
 30
0.0
 11
301.0528928444335
 21
157.0177853300302
 31
0.0
  0
LINE
  5
163F
330
18
100
AcDbEntity
  8
ROGO
 62
     4
100
AcDbLine
 10
291.6478685737097
 20
157.9675859999069
 30
0.0
 11
293.1020487358586
 21
157.9675859999069
 31
0.0
  0
LINE
  5
1640
330
18
100
AcDbEntity
  8
ROGO
 62
     4
100
AcDbLine
 10
292.5741219132953
 20
159.0277472720591
 30
0.0
 11
293.6306793861754
 21
159.0277472720592
 31
0.0
  0
LINE
  5
1641
330
18
100
AcDbEntity
  8
ROGO
 62
     4
100
AcDbLine
 10
292.3356803498957
 20
158.5957472720591
 30
0.0
 11
293.4152702338742
 21
158.5957472720591
 31
0.0
  0
SPLINE
  5
1642
330
18
100
AcDbEntity
  8
ROGO
 62
     4
100
AcDbSpline
210
0.0
220
0.0
230
1.0
 70
     8
 71
     3
 72
    16
 73
    12
 74
    10
 42
0.0000000001
 43
0.0000000001
 44
0.0000000001
 40
0.0
 40
0.0
 40
0.0
 40
0.0
 40
0.1614737604380397
 40
0.2403420478032769
 40
0.279234489187282
 40
0.320220789027997
 40
0.3789130531806562
 40
0.4323552828341136
 40
0.488094283296473
 40
0.5815447451499928
 40
0.6740411735369377
 40
0.6740411735369377
 40
0.6740411735369377
 40
0.6740411735369377
 10
292.5741219132953
 20
159.0277472720591
 30
0.0
 10
292.519439574925
 20
159.0194105806683
 30
0.0
 10
292.4380488576531
 20
159.0070020167299
 30
0.0
 10
292.3644471772933
 20
158.9487397363323
 30
0.0
 10
292.3229409398478
 20
158.9140775576399
 30
0.0
 10
292.3088203329534
 20
158.8681749936912
 30
0.0
 10
292.2708968171322
 20
158.8329288709312
 30
0.0
 10
292.2396370530046
 20
158.7844893528675
 30
0.0
 10
292.2321729299248
 20
158.7179568902057
 30
0.0
 10
292.2376517671578
 20
158.6245887184579
 30
0.0
 10
292.3031161144607
 20
158.6053281476016
 30
0.0
 10
292.3356803498958
 20
158.5957472720591
 30
0.0
 11
292.5741219132953
 21
159.0277472720591
 31
0.0
 11
292.4182180372548
 21
158.9857025726839
 31
0.0
 11
292.3540222925711
 21
158.9398864934493
 31
0.0
 11
292.3265099058981
 21
158.9123966666699
 31
0.0
 11
292.3081679632228
 21
158.8757435642975
 31
0.0
 11
292.271484605212
 21
158.829927485063
 31
0.0
 11
292.2439722185389
 21
158.7841111070974
 31
0.0
 11
292.2348012472012
 21
158.7291317522698
 31
0.0
 11
292.2531431898767
 21
158.6374989963387
 31
0.0
 11
292.3356803498958
 21
158.5957472720591
 31
0.0
  0
LINE
  5
1643
330
18
100
AcDbEntity
  8
ROGO
 62
     4
100
AcDbLine
 10
293.4152702338742
 20
158.5957472720591
 30
0.0
 11
293.1020487358586
 21
157.9675859999069
 31
0.0
  0
LINE
  5
1644
102
{ACAD_REACTORS
330
1613
102
}
330
18
100
AcDbEntity
  8
ROGO
 62
     4
100
AcDbLine
 10
288.0824900113493
 20
158.9667821442113
 30
0.0
 11
287.9290703855472
 21
158.6567123999069
 31
0.0
  0
LINE
  5
1645
330
18
100
AcDbEntity
  8
ROGO
 62
     4
100
AcDbLine
 10
289.6945522217441
 20
159.2046179402571
 30
0.0
 11
289.2787949893413
 21
158.6280737336329
 31
0.0
  0
LINE
  5
1646
330
18
100
AcDbEntity
  8
ROGO
 62
     4
100
AcDbLine
 10
289.0343064392977
 20
158.2890334328808
 30
0.0
 11
290.1012911391632
 21
158.2890334328808
 31
0.0
  0
LINE
  5
1647
330
18
100
AcDbEntity
  8
ROGO
 62
     4
100
AcDbLine
 10
289.2787949893415
 20
158.6280737336329
 30
0.0
 11
289.9506760033911
 21
158.6280737336329
 31
0.0
  0
LINE
  5
1648
330
18
100
AcDbEntity
  8
ROGO
 62
     4
100
AcDbLine
 10
289.0343064392977
 20
158.2890334328808
 30
0.0
 11
288.8025044481222
 21
157.967585999907
 31
0.0
  0
LINE
  5
1649
330
18
100
AcDbEntity
  8
ROGO
 62
     4
100
AcDbLine
 10
287.8674722673759
 20
157.9675859999069
 30
0.0
 11
288.8025044481222
 21
157.9675859999069
 31
0.0
  0
LINE
  5
164A
330
18
100
AcDbEntity
  8
ROGO
 62
     4
100
AcDbLine
 10
289.6945522217442
 20
159.2046179402571
 30
0.0
 11
289.9506760033911
 21
158.6280737336329
 31
0.0
  0
LINE
  5
164B
330
18
100
AcDbEntity
  8
ROGO
 62
     4
100
AcDbLine
 10
290.1012911391632
 20
158.2890334328808
 30
0.0
 11
290.2440908259661
 21
157.9675859999069
 31
0.0
  0
LINE
  5
164C
330
18
100
AcDbEntity
  8
ROGO
 62
     4
100
AcDbLine
 10
291.1855007544167
 20
157.967585999907
 30
0.0
 11
290.2440908259661
 21
157.9675859999069
 31
0.0
  0
LINE
  5
164D
330
18
100
AcDbEntity
  8
ROGO
 62
     4
100
AcDbLine
 10
297.0878154220455
 20
157.9675859999069
 30
0.0
 11
298.5419955841944
 21
157.9675859999069
 31
0.0
  0
SPLINE
  5
164E
330
18
100
AcDbEntity
  8
ROGO
 62
     4
100
AcDbSpline
210
0.0
220
0.0
230
1.0
 70
     8
 71
     3
 72
    16
 73
    12
 74
    10
 42
0.0000000001
 43
0.0000000001
 44
0.0000000001
 40
0.0
 40
0.0
 40
0.0
 40
0.0
 40
0.1614737604380397
 40
0.2403420478033429
 40
0.2792344891871872
 40
0.320220789028004
 40
0.3789130531806808
 40
0.4323552828340408
 40
0.4880942832964002
 40
0.5815447451500316
 40
0.6740411735369252
 40
0.6740411735369252
 40
0.6740411735369252
 40
0.6740411735369252
 10
298.0140687616312
 20
159.0277472720591
 30
0.0
 10
297.9593864232608
 20
159.0194105806683
 30
0.0
 10
297.8779957059889
 20
159.0070020167299
 30
0.0
 10
297.8043940256291
 20
158.9487397363323
 30
0.0
 10
297.7628877881839
 20
158.9140775576398
 30
0.0
 10
297.7487671812887
 20
158.8681749936912
 30
0.0
 10
297.7108436654681
 20
158.832928870931
 30
0.0
 10
297.6795839013402
 20
158.7844893528675
 30
0.0
 10
297.6721197782607
 20
158.7179568902057
 30
0.0
 10
297.6775986154935
 20
158.6245887184578
 30
0.0
 10
297.7430629627966
 20
158.6053281476015
 30
0.0
 10
297.7756271982316
 20
158.5957472720591
 30
0.0
 11
298.0140687616312
 21
159.0277472720591
 31
0.0
 11
297.8581648855907
 21
158.9857025726839
 31
0.0
 11
297.7939691409069
 21
158.9398864934492
 31
0.0
 11
297.766456754234
 21
158.9123966666699
 31
0.0
 11
297.7481148115585
 21
158.8757435642975
 31
0.0
 11
297.7114314535478
 21
158.8299274850629
 31
0.0
 11
297.6839190668748
 21
158.7841111070974
 31
0.0
 11
297.674748095537
 21
158.7291317522698
 31
0.0
 11
297.6930900382125
 21
158.6374989963386
 31
0.0
 11
297.7756271982316
 21
158.5957472720591
 31
0.0
  0
LINE
  5
164F
330
18
100
AcDbEntity
  8
ROGO
 62
     4
100
AcDbLine
 10
298.8552170822101
 20
158.5957472720591
 30
0.0
 11
298.5419955841944
 21
157.9675859999069
 31
0.0
  0
LINE
  5
1650
330
18
100
AcDbEntity
  8
ROGO
 62
     4
100
AcDbLine
 10
297.7756271982315
 20
158.5957472720591
 30
0.0
 11
298.8552170822101
 21
158.5957472720591
 31
0.0
  0
LINE
  5
1651
330
18
100
AcDbEntity
  8
ROGO
 62
     4
100
AcDbLine
 10
298.0140687616311
 20
159.0277472720591
 30
0.0
 11
299.0706262345112
 21
159.0277472720591
 31
0.0
  0
LINE
  5
1652
330
18
100
AcDbEntity
  8
ROGO
 62
     4
100
AcDbLine
 10
299.7374573583634
 20
157.7063670527554
 30
0.0
 11
299.3941082722932
 21
157.0177853300302
 31
0.0
  0
SPLINE
  5
1653
102
{ACAD_REACTORS
330
1639
102
}
330
18
100
AcDbEntity
  8
ROGO
 62
     4
100
AcDbSpline
210
0.0
220
0.0
230
1.0
 70
     8
 71
     3
 72
    11
 73
     7
 74
     0
 42
0.0000000001
 43
0.0000000001
 40
0.1647869275458134
 40
0.1647869275458134
 40
0.1647869275458134
 40
0.1647869275458134
 40
0.2895635144633836
 40
0.5387013147903714
 40
0.7953622617455423
 40
0.8850764140209602
 40
0.8850764140209602
 40
0.8850764140209602
 40
0.8850764140209602
 10
295.6737204529743
 20
158.0052271459322
 30
0.0
 10
295.6557480408018
 20
158.0002245181539
 30
0.0
 10
295.6000238832436
 20
157.9913176170031
 30
0.0
 10
295.5065540397803
 20
157.979087395666
 30
0.0
 10
295.4177156285135
 20
157.9663247134858
 30
0.0
 10
295.3657333065911
 20
157.9673265226516
 30
0.0
 10
295.3522694347512
 20
157.9675859999069
 30
0.0
  0
SPLINE
  5
1654
102
{ACAD_REACTORS
330
1639
102
}
330
18
100
AcDbEntity
  8
ROGO
 62
     4
100
AcDbSpline
210
0.0
220
0.0
230
1.0
 70
     8
 71
     3
 72
     9
 73
     5
 74
     3
 42
0.0000000001
 43
0.0000000001
 44
0.0000000001
 40
0.0
 40
0.0
 40
0.0
 40
0.0
 40
0.146030572742497
 40
0.3423777932799819
 40
0.3423777932799819
 40
0.3423777932799819
 40
0.3423777932799819
 10
295.6737204529743
 20
158.0052271459322
 30
0.0
 10
295.7206296979546
 20
158.0195787255763
 30
0.0
 10
295.8306113509684
 20
158.0532268999029
 30
0.0
 10
295.9214813902729
 20
158.1243427370415
 30
0.0
 10
295.9735936475447
 20
158.1651263311659
 30
0.0
 11
295.6737204529743
 21
158.0052271459322
 31
0.0
 11
295.8109714355489
 21
158.0550979385647
 31
0.0
 11
295.9735936475447
 21
158.1651263311659
 31
0.0
  0
LINE
  5
1655
102
{ACAD_REACTORS
330
1639
102
}
330
18
100
AcDbEntity
  8
ROGO
 62
     4
100
AcDbLine
 10
294.3874002335128
 20
157.9675859999069
 30
0.0
 11
295.3522694347512
 21
157.9675859999069
 31
0.0
  0
ELLIPSE
  5
1656
330
18
100
AcDbEntity
  8
ROGO
 62
     4
100
AcDbEllipse
 10
295.1032118343078
 20
158.7916339167065
 30
0.0
 11
0.2292231973722778
 21
0.2015731185223643
 31
0.0
210
0.0
220
0.0
230
1.0
 40
0.6788083417438792
 41
0.0
 42
6.283185307179586
  0
LINE
  5
1657
330
18
100
AcDbEntity
  8
ROGO
 62
     4
100
AcDbLine
 10
299.7374573583634
 20
157.7063670527554
 30
0.0
 11
300.0808064444335
 21
157.0177853300302
 31
0.0
  0
LINE
  5
1658
330
18
100
AcDbEntity
  8
ROGO
 62
     4
100
AcDbLine
 10
300.3951644669314
 20
158.3368502631841
 30
0.0
 11
301.0528928444335
 21
157.0177853300302
 31
0.0
  0
LINE
  5
1659
330
18
100
AcDbEntity
  8
ROGO
 62
     4
100
AcDbLine
 10
299.7374573583634
 20
159.6559151963379
 30
0.0
 11
300.7095650272973
 21
159.6559151963379
 31
0.0
  0
LINE
  5
165A
330
18
100
AcDbEntity
  8
ROGO
 62
     4
100
AcDbLine
 10
292.2531431898772
 20
159.6559151963381
 30
0.0
 11
293.9439042011562
 21
159.6559151963381
 31
0.0
  0
LINE
  5
165B
330
18
100
AcDbEntity
  8
ROGO
 62
     4
100
AcDbLine
 10
289.0849592632177
 20
159.6559151963379
 30
0.0
 11
290.435478026781
 21
159.6559151963379
 31
0.0
  0
LINE
  5
165C
330
18
100
AcDbEntity
  8
ROGO
 62
     4
100
AcDbLine
 10
297.693090038213
 20
159.6559151963379
 30
0.0
 11
299.383851049492
 21
159.6559151963379
 31
0.0
  0
LINE
  5
165D
102
{ACAD_REACTORS
330
1639
102
}
330
18
100
AcDbEntity
  8
ROGO
 62
     4
100
AcDbLine
 10
294.8814796126397
 20
159.6629573352738
 30
0.0
 11
295.8463488138781
 21
159.6629573352738
 31
0.0
  0
LINE
  5
165E
330
18
100
AcDbEntity
  8
外形線
100
AcDbLine
 10
302.8203414510285
 20
171.4957632890278
 30
0.0
 11
302.8203414510285
 21
170.4235812705547
 31
0.0
  0
LINE
  5
165F
330
18
100
AcDbEntity
  8
ROGO
 62
     4
100
AcDbLine
 10
301.0211035966431
 20
159.6559151963379
 30
0.0
 11
301.9931899966431
 21
159.6559151963379
 31
0.0
  0
LINE
  5
1660
330
18
100
AcDbEntity
  8
外形線
100
AcDbLine
 10
313.8203414510285
 20
142.513009796649
 30
0.0
 11
320.8203414510285
 21
142.513009796649
 31
0.0
  0
LINE
  5
1661
330
18
100
AcDbEntity
  8
外形線
100
AcDbLine
 10
275.8203414510285
 20
129.013009796649
 30
0.0
 11
275.8203414510285
 21
118.8698289615752
 31
0.0
  0
LINE
  5
1662
330
18
100
AcDbEntity
  8
外形線
100
AcDbLine
 10
307.8203414510285
 20
129.013009796649
 30
0.0
 11
307.8203414510285
 21
118.8698289615752
 31
0.0
  0
LINE
  5
1663
330
18
100
AcDbEntity
  8
外形線
100
AcDbLine
 10
276.8203414510285
 20
130.013009796649
 30
0.0
 11
306.8203414510285
 21
130.013009796649
 31
0.0
  0
ARC
  5
1664
330
18
100
AcDbEntity
  8
外形線
100
AcDbCircle
 10
291.8203414510285
 20
142.513009796649
 30
0.0
 40
29.0
100
AcDbArc
 50
237.6076345141576
 51
302.3923654858425
  0
ARC
  5
1665
330
18
100
AcDbEntity
  8
外形線
100
AcDbCircle
 10
276.8203414510285
 20
129.013009796649
 30
0.0
 40
1.0
100
AcDbArc
 50
90.0
 51
180.0
  0
ARC
  5
1666
330
18
100
AcDbEntity
  8
外形線
100
AcDbCircle
 10
306.8203414510285
 20
129.013009796649
 30
0.0
 40
1.0
100
AcDbArc
 50
0.0
 51
90.0
  0
ARC
  5
1667
330
18
100
AcDbEntity
  8
外形線
100
AcDbCircle
 10
306.8203414510285
 20
118.8698289615752
 30
0.0
 40
1.0
100
AcDbArc
 50
302.3923654858425
 51
0.0
  0
ARC
  5
1668
330
18
100
AcDbEntity
  8
外形線
100
AcDbCircle
 10
276.8203414510285
 20
118.8698289615752
 30
0.0
 40
1.0
100
AcDbArc
 50
180.0
 51
237.6076345141576
  0
ELLIPSE
  5
1669
330
18
100
AcDbEntity
  8
外形線
100
AcDbEllipse
 10
299.6691233386372
 20
122.6047263234697
 30
0.0
 11
-4.089143464216689
 21
0.0
 31
0.0
210
0.0
220
0.0
230
1.0
 40
0.6358299782710266
 41
0.0
 42
6.283185307179586
  0
ELLIPSE
  5
166A
330
18
100
AcDbEntity
  8
外形線
100
AcDbEllipse
 10
284.4929276416282
 20
122.6047263234697
 30
0.0
 11
-4.089143464216689
 21
0.0
 31
0.0
210
0.0
220
0.0
230
1.0
 40
0.6358299782710266
 41
0.0
 42
6.283185307179586
  0
TEXT
  5
166B
330
18
100
AcDbEntity
  8
寸法線
100
AcDbText
 10
297.9748377597265
 20
116.4702786312105
 30
0.0
 40
1.199999999999999
  1
SET
  7
STYLE4
100
AcDbText
  0
ELLIPSE
  5
166C
330
18
100
AcDbEntity
  8
外形線
100
AcDbEllipse
 10
299.6691233386372
 20
122.6047263234697
 30
0.0
 11
-5.473687379191062
 21
0.0
 31
0.0
210
0.0
220
0.0
230
1.0
 40
0.7307688077339824
 41
0.0
 42
6.283185307179586
  0
ELLIPSE
  5
166D
330
18
100
AcDbEntity
  8
外形線
100
AcDbEllipse
 10
284.4929276416282
 20
122.6047263234697
 30
0.0
 11
-5.473687379191062
 21
0.0
 31
0.0
210
0.0
220
0.0
230
1.0
 40
0.7307688077339824
 41
0.0
 42
6.283185307179586
  0
LINE
  5
166E
330
18
100
AcDbEntity
  8
外形線
100
AcDbLine
 10
285.8203414510285
 20
109.4130097966489
 30
0.0
 11
297.8203414510285
 21
109.413009796649
 31
0.0
  0
LINE
  5
166F
330
18
100
AcDbEntity
  8
外形線
100
AcDbLine
 10
285.8203414510285
 20
109.4130097966489
 30
0.0
 11
286.8203414510285
 21
107.4130097966489
 31
0.0
  0
LINE
  5
1670
330
18
100
AcDbEntity
  8
外形線
100
AcDbLine
 10
297.8203414510285
 20
109.413009796649
 30
0.0
 11
296.8203414510285
 21
107.413009796649
 31
0.0
  0
LINE
  5
1671
330
18
100
AcDbEntity
  8
外形線
100
AcDbLine
 10
285.8203414510285
 20
109.9130097966489
 30
0.0
 11
297.8203414510285
 21
109.913009796649
 31
0.0
  0
LINE
  5
1672
330
18
100
AcDbEntity
  8
中心線
 48
0.3
100
AcDbLine
 10
277.5233395440621
 20
122.6047263234697
 30
0.0
 11
291.4625157391943
 21
122.6047263234697
 31
0.0
  0
LINE
  5
1673
330
18
100
AcDbEntity
  8
中心線
 48
0.3
100
AcDbLine
 10
284.4929276416282
 20
127.9223363072602
 30
0.0
 11
284.4929276416282
 21
117.3234875670199
 31
0.0
  0
LINE
  5
1674
330
18
100
AcDbEntity
  8
中心線
 48
0.3
100
AcDbLine
 10
292.6995352410711
 20
122.6047263234697
 30
0.0
 11
306.6387114362033
 21
122.6047263234697
 31
0.0
  0
CIRCLE
  5
1680
330
18
100
AcDbEntity
  8
外形線
100
AcDbCircle
 10
317.8203414510285
 20
187.013009796649
 30
0.0
 40
1.149999999999999
  0
LINE
  5
1681
330
18
100
AcDbEntity
  8
中心線
 48
0.2
100
AcDbLine
 10
317.8203414510283
 20
189.9472070701364
 30
0.0
 11
317.8203414510285
 21
184.0788125231616
 31
0.0
  0
LINE
  5
1682
330
18
100
AcDbEntity
  8
外形線
100
AcDbLine
 10
297.8203414510285
 20
181.513009796649
 30
0.0
 11
297.8203414510285
 21
172.9268224481401
 31
0.0
  0
LINE
  5
1683
330
18
100
AcDbEntity
  8
外形線
100
AcDbLine
 10
285.8203414510284
 20
189.513009796649
 30
0.0
 11
285.8203414510285
 21
172.9268224481401
 31
0.0
  0
LINE
  5
1684
330
18
100
AcDbEntity
  8
外形線
100
AcDbLine
 10
283.8203414510285
 20
189.513009796649
 30
0.0
 11
312.4377654455669
 21
189.513009796649
 31
0.0
  0
LINE
  5
1685
330
18
100
AcDbEntity
  8
隠れ線2
 48
0.7
100
AcDbLine
 10
312.4377654455669
 20
189.513009796649
 30
0.0
 11
321.8203414510284
 21
189.513009796649
 31
0.0
  0
LINE
  5
1686
330
18
100
AcDbEntity
  8
外形線
100
AcDbLine
 10
283.8203414510285
 20
181.513009796649
 30
0.0
 11
321.8203414510285
 21
181.513009796649
 31
0.0
  0
LINE
  5
1687
330
18
100
AcDbEntity
  8
外形線
100
AcDbLine
 10
283.8203414510285
 20
189.513009796649
 30
0.0
 11
283.8203414510284
 21
181.513009796649
 31
0.0
  0
LINE
  5
1688
330
18
100
AcDbEntity
  8
隠れ線2
 48
0.7
100
AcDbLine
 10
321.8203414510285
 20
189.513009796649
 30
0.0
 11
321.8203414510285
 21
184.9324450795412
 31
0.0
  0
LINE
  5
1689
330
18
100
AcDbEntity
  8
外形線
100
AcDbLine
 10
321.8203414510285
 20
184.9324450795412
 30
0.0
 11
321.8203414510285
 21
181.513009796649
 31
0.0
  0
LINE
  5
168A
330
18
100
AcDbEntity
  8
外形線
100
AcDbLine
 10
308.8203414510285
 20
189.5130097966489
 30
0.0
 11
308.8203414510285
 21
181.5130097966489
 31
0.0
  0
LINE
  5
168B
330
18
100
AcDbEntity
  8
外形線
100
AcDbLine
 10
311.8203414510285
 20
189.5130097966489
 30
0.0
 11
311.8203414510285
 21
181.5130097966489
 31
0.0
  0
LINE
  5
168C
330
18
100
AcDbEntity
  8
中心線
 48
0.3
100
AcDbLine
 10
301.8203414510285
 20
190.7489683515742
 30
0.0
 11
301.8203414510284
 21
180.2770512417237
 31
0.0
  0
LINE
  5
168D
330
18
100
AcDbEntity
  8
中心線
 48
0.3
100
AcDbLine
 10
296.5843828961032
 20
185.513009796649
 30
0.0
 11
307.0563000059538
 21
185.513009796649
 31
0.0
  0
CIRCLE
  5
168E
330
18
100
AcDbEntity
  8
外形線
100
AcDbCircle
 10
301.8203414510285
 20
185.513009796649
 30
0.0
 40
2.75
  0
LWPOLYLINE
  5
168F
330
18
100
AcDbEntity
  8
外形線
100
AcDbPolyline
 90
        6
 70
     1
 43
0.0
 10
303.3830459195143
 20
184.6105373070412
 10
303.3832577874883
 20
186.4151153201613
 10
301.8205533190025
 20
187.317587809769
 10
300.2576369825427
 20
186.4154822862567
 10
300.2574251145686
 20
184.6109042731366
 10
301.8201295830545
 20
183.7084317835289
  0
CIRCLE
  5
1690
330
18
100
AcDbEntity
  8
外形線
100
AcDbCircle
 10
301.8203414510285
 20
185.513009796649
 30
0.0
 40
3.0
  0
LINE
  5
1691
330
18
100
AcDbEntity
  8
中心線
 48
0.2
100
AcDbLine
 10
314.7268208721998
 20
187.013009796649
 30
0.0
 11
320.9138620298572
 21
187.013009796649
 31
0.0
  0
CIRCLE
  5
1692
330
18
100
AcDbEntity
  8
外形線
100
AcDbCircle
 10
317.8203414510285
 20
187.013009796649
 30
0.0
 40
1.0
  0
LINE
  5
16B1
330
18
100
AcDbEntity
  8
外形線
100
AcDbLine
 10
288.0703414510285
 20
86.91300979664905
 30
0.0
 11
295.5703414510285
 21
86.91300979664905
 31
0.0
  0
LINE
  5
16B2
330
18
100
AcDbEntity
  8
外形線
100
AcDbLine
 10
288.0703414510285
 20
88.41300979664898
 30
0.0
 11
295.5703414510285
 21
88.41300979664911
 31
0.0
  0
LINE
  5
16B3
330
18
100
AcDbEntity
  8
外形線
100
AcDbLine
 10
288.0703414510285
 20
86.41300979664904
 30
0.0
 11
295.5703414510285
 21
86.41300979664904
 31
0.0
  0
LINE
  5
16B4
330
18
100
AcDbEntity
  8
外形線
100
AcDbLine
 10
288.0703414510285
 20
86.91300979664905
 30
0.0
 11
288.0703414510285
 21
86.41300979664904
 31
0.0
  0
LINE
  5
16B5
330
18
100
AcDbEntity
  8
外形線
100
AcDbLine
 10
288.8203414510286
 20
88.41300979664906
 30
0.0
 11
288.8203414510286
 21
86.91300979664905
 31
0.0
  0
LINE
  5
16B6
330
18
100
AcDbEntity
  8
外形線
100
AcDbLine
 10
295.5703414510285
 20
86.91300979664905
 30
0.0
 11
295.5703414510285
 21
86.41300979664904
 31
0.0
  0
LINE
  5
16B7
330
18
100
AcDbEntity
  8
外形線
100
AcDbLine
 10
294.8203414510285
 20
88.41300979664906
 30
0.0
 11
294.8203414510285
 21
86.91300979664905
 31
0.0
  0
LINE
  5
16B8
330
18
100
AcDbEntity
  8
外形線
100
AcDbLine
 10
288.0703414510285
 20
86.41300979664903
 30
0.0
 11
295.5703414510285
 21
86.41300979664903
 31
0.0
  0
ARC
  5
16B9
330
18
100
AcDbEntity
  8
外形線
100
AcDbCircle
 10
271.3203414510284
 20
132.513009796649
 30
0.0
 40
1.5
100
AcDbArc
 50
180.0
 51
270.0
  0
LINE
  5
16BA
330
18
100
AcDbEntity
  8
外形線
100
AcDbLine
 10
214.5230607319829
 20
112.5130097966489
 30
0.0
 11
198.5230607319828
 21
112.513009796649
 31
0.0
  0
LINE
  5
16BB
330
18
100
AcDbEntity
  8
外形線
100
AcDbLine
 10
214.5230607319829
 20
171.313009796649
 30
0.0
 11
198.5230607319829
 21
171.3130097966489
 31
0.0
  0
LINE
  5
16BC
330
18
100
AcDbEntity
  8
外形線
100
AcDbLine
 10
214.5230607319829
 20
171.313009796649
 30
0.0
 11
214.5230607319829
 21
112.5130097966489
 31
0.0
  0
LINE
  5
16BD
330
18
100
AcDbEntity
  8
外形線
100
AcDbLine
 10
216.5230607319828
 20
168.413009796649
 30
0.0
 11
216.5230607319828
 21
111.9130097966489
 31
0.0
  0
LINE
  5
16BE
330
18
100
AcDbEntity
  8
外形線
100
AcDbLine
 10
229.5230607319829
 20
171.913009796649
 30
0.0
 11
229.5230607319829
 21
111.913009796649
 31
0.0
  0
LINE
  5
16BF
330
18
100
AcDbEntity
  8
外形線
100
AcDbLine
 10
223.0230607319829
 20
114.4130097966489
 30
0.0
 11
217.5230607319828
 21
114.413009796649
 31
0.0
  0
LINE
  5
16C0
330
18
100
AcDbEntity
  8
外形線
100
AcDbLine
 10
229.5230607319829
 20
111.913009796649
 30
0.0
 11
216.5230607319827
 21
111.913009796649
 31
0.0
  0
ARC
  5
16C1
330
18
100
AcDbEntity
  8
外形線
100
AcDbCircle
 10
50.90580649165644
 20
146.4238164544506
 30
0.0
 40
181.9206400838717
100
AcDbArc
 50
349.064574983587
 51
351.6497979287649
  0
LINE
  5
16C2
330
18
100
AcDbEntity
  8
外形線
100
AcDbLine
 10
223.0230607319829
 20
114.4130097966489
 30
0.0
 11
223.0230607319828
 21
111.9130097966489
 31
0.0
  0
LINE
  5
16C3
330
18
100
AcDbEntity
  8
外形線
100
AcDbLine
 10
217.5230607319828
 20
114.413009796649
 30
0.0
 11
217.5230607319828
 21
111.9130097966489
 31
0.0
  0
LINE
  5
16C4
330
18
100
AcDbEntity
  8
外形線
100
AcDbLine
 10
216.5230607319827
 20
111.913009796649
 30
0.0
 11
214.5230607319829
 21
112.5130097966489
 31
0.0
  0
LINE
  5
16C5
330
18
100
AcDbEntity
  8
外形線
100
AcDbLine
 10
230.5230607319829
 20
141.913009796649
 30
0.0
 11
230.5230607319829
 21
130.4130097966489
 31
0.0
  0
ARC
  5
16C6
330
18
100
AcDbEntity
  8
外形線
100
AcDbCircle
 10
50.90580649165644
 20
146.4238164544506
 30
0.0
 40
181.9206400838717
100
AcDbArc
 50
351.6497979287649
 51
354.9508749822963
  0
LINE
  5
16C7
330
18
100
AcDbEntity
  8
外形線
100
AcDbLine
 10
232.1230607319829
 20
130.4130097966489
 30
0.0
 11
230.5230607319829
 21
130.4130097966489
 31
0.0
  0
LINE
  5
16C8
330
18
100
AcDbEntity
  8
外形線
100
AcDbLine
 10
230.5230607319829
 20
141.913009796649
 30
0.0
 11
229.5230607319829
 21
141.913009796649
 31
0.0
  0
LINE
  5
16C9
330
18
100
AcDbEntity
  8
外形線
100
AcDbLine
 10
222.0230607319829
 20
168.413009796649
 30
0.0
 11
216.5230607319828
 21
168.413009796649
 31
0.0
  0
LINE
  5
16CA
330
18
100
AcDbEntity
  8
外形線
100
AcDbLine
 10
222.0230607319829
 20
169.413009796649
 30
0.0
 11
216.5230607319829
 21
169.413009796649
 31
0.0
  0
LINE
  5
16CB
330
18
100
AcDbEntity
  8
外形線
100
AcDbLine
 10
222.0230607319829
 20
172.913009796649
 30
0.0
 11
216.5230607319829
 21
172.913009796649
 31
0.0
  0
LINE
  5
16CC
330
18
100
AcDbEntity
  8
外形線
100
AcDbLine
 10
222.0230607319829
 20
172.913009796649
 30
0.0
 11
222.0230607319829
 21
168.413009796649
 31
0.0
  0
LINE
  5
16CD
330
18
100
AcDbEntity
  8
外形線
100
AcDbLine
 10
229.5230607319829
 20
171.9130097966489
 30
0.0
 11
222.0230607319829
 21
171.913009796649
 31
0.0
  0
LINE
  5
16CE
330
18
100
AcDbEntity
  8
外形線
100
AcDbLine
 10
216.5230607319829
 20
172.913009796649
 30
0.0
 11
216.5230607319828
 21
168.413009796649
 31
0.0
  0
LINE
  5
16CF
330
18
100
AcDbEntity
  8
外形線
100
AcDbLine
 10
214.5230607319829
 20
171.313009796649
 30
0.0
 11
216.5230607319829
 21
171.913009796649
 31
0.0
  0
LINE
  5
16D0
330
18
100
AcDbEntity
  8
外形線
100
AcDbLine
 10
201.0230607319829
 20
171.3130097966489
 30
0.0
 11
201.0230607319829
 21
112.513009796649
 31
0.0
  0
LINE
  5
16D1
330
18
100
AcDbEntity
  8
外形線
100
AcDbLine
 10
200.0230607319829
 20
171.3130097966489
 30
0.0
 11
200.0230607319829
 21
112.513009796649
 31
0.0
  0
LINE
  5
16D2
330
18
100
AcDbEntity
  8
外形線
100
AcDbLine
 10
198.5230607319829
 20
171.3130097966489
 30
0.0
 11
198.5230607319828
 21
112.513009796649
 31
0.0
  0
LINE
  5
16D3
330
18
100
AcDbEntity
  8
中心線
100
AcDbLine
 10
191.8629845565639
 20
141.9130097966489
 30
0.0
 11
236.3661164326789
 21
141.9130097966489
 31
0.0
  0
LINE
  5
16D4
330
18
100
AcDbEntity
  8
外形線
100
AcDbLine
 10
213.0230607319829
 20
107.413009796649
 30
0.0
 11
203.0230607319829
 21
107.413009796649
 31
0.0
  0
LINE
  5
16D5
330
18
100
AcDbEntity
  8
外形線
100
AcDbLine
 10
214.0230607319829
 20
89.41300979664896
 30
0.0
 11
202.0230607319829
 21
89.41300979664898
 31
0.0
  0
LINE
  5
16D6
330
18
100
AcDbEntity
  8
外形線
100
AcDbLine
 10
213.0230607319829
 20
54.41300979664899
 30
0.0
 11
203.0230607319829
 21
54.41300979664899
 31
0.0
  0
LINE
  5
16D7
330
18
100
AcDbEntity
  8
外形線
100
AcDbLine
 10
211.8230607319829
 20
42.91300979664899
 30
0.0
 11
204.2230607319829
 21
42.91300979664899
 31
0.0
  0
LINE
  5
16D8
330
18
100
AcDbEntity
  8
外形線
100
AcDbLine
 10
214.0230607319829
 20
110.5130097966489
 30
0.0
 11
214.0230607319829
 21
100.413009796649
 31
0.0
  0
LINE
  5
16D9
330
18
100
AcDbEntity
  8
外形線
100
AcDbLine
 10
211.8230607319829
 20
54.41300979664899
 30
0.0
 11
211.8230607319829
 21
42.91300979664899
 31
0.0
  0
LINE
  5
16DA
330
18
100
AcDbEntity
  8
外形線
100
AcDbLine
 10
204.2230607319829
 20
54.41300979664899
 30
0.0
 11
204.2230607319829
 21
42.91300979664899
 31
0.0
  0
LINE
  5
16DB
330
18
100
AcDbEntity
  8
外形線
100
AcDbLine
 10
213.0230607319829
 20
107.413009796649
 30
0.0
 11
213.0230607319829
 21
100.513009796649
 31
0.0
  0
LINE
  5
16DC
330
18
100
AcDbEntity
  8
外形線
100
AcDbLine
 10
212.0230607319829
 20
49.41300979664899
 30
0.0
 11
211.8230607319829
 21
49.41300979664899
 31
0.0
  0
LINE
  5
16DD
330
18
100
AcDbEntity
  8
外形線
100
AcDbLine
 10
213.0230607319829
 20
48.41300979664899
 30
0.0
 11
211.8230607319829
 21
48.41300979664899
 31
0.0
  0
ARC
  5
16DE
330
18
100
AcDbEntity
  8
外形線
100
AcDbCircle
 10
203.0230607319829
 20
49.41300979664899
 30
0.0
 40
1.0
100
AcDbArc
 50
180.0
 51
270.0
  0
ARC
  5
16DF
330
18
100
AcDbEntity
  8
外形線
100
AcDbCircle
 10
213.0230607319829
 20
49.41300979664899
 30
0.0
 40
1.0
100
AcDbArc
 50
270.0
 51
0.0
  0
ARC
  5
16E0
330
18
100
AcDbEntity
  8
外形線
100
AcDbCircle
 10
204.0230607319829
 20
50.41300979664899
 30
0.0
 40
1.0
100
AcDbArc
 50
180.0
 51
270.0
  0
ARC
  5
16E1
330
18
100
AcDbEntity
  8
外形線
100
AcDbCircle
 10
212.0230607319829
 20
50.41300979664899
 30
0.0
 40
1.0
100
AcDbArc
 50
270.0
 51
0.0
  0
LINE
  5
16E2
330
18
100
AcDbEntity
  8
外形線
100
AcDbLine
 10
204.2230607319829
 20
49.41300979664899
 30
0.0
 11
204.0230607319829
 21
49.41300979664899
 31
0.0
  0
LINE
  5
16E3
330
18
100
AcDbEntity
  8
外形線
100
AcDbLine
 10
204.2230607319829
 20
48.41300979664899
 30
0.0
 11
203.0230607319829
 21
48.41300979664899
 31
0.0
  0
LINE
  5
16E4
330
18
100
AcDbEntity
  8
外形線
100
AcDbLine
 10
215.0230607319829
 20
99.413009796649
 30
0.0
 11
215.0230607319829
 21
90.41300979664896
 31
0.0
  0
LINE
  5
16E5
330
18
100
AcDbEntity
  8
外形線
100
AcDbLine
 10
201.0230607319829
 20
104.413009796649
 30
0.0
 11
201.0230607319829
 21
90.41300979664898
 31
0.0
  0
ARC
  5
16E6
330
18
100
AcDbEntity
  8
外形線
100
AcDbCircle
 10
202.0230607319829
 20
104.413009796649
 30
0.0
 40
1.0
100
AcDbArc
 50
90.0
 51
180.0
  0
ARC
  5
16E7
330
18
100
AcDbEntity
  8
外形線
100
AcDbCircle
 10
214.0230607319829
 20
90.41300979664896
 30
0.0
 40
1.0
100
AcDbArc
 50
270.0
 51
0.0
  0
ARC
  5
16E8
330
18
100
AcDbEntity
  8
外形線
100
AcDbCircle
 10
202.0230607319829
 20
90.41300979664898
 30
0.0
 40
1.0
100
AcDbArc
 50
180.0
 51
270.0
  0
LINE
  5
16E9
330
18
100
AcDbEntity
  8
外形線
100
AcDbLine
 10
214.0230607319829
 20
100.413009796649
 30
0.0
 11
213.3230607319829
 21
100.413009796649
 31
0.0
  0
LINE
  5
16EA
330
18
100
AcDbEntity
  8
外形線
100
AcDbLine
 10
212.8230607319829
 20
104.413009796649
 30
0.0
 11
212.8230607319829
 21
100.913009796649
 31
0.0
  0
ARC
  5
16EB
330
18
100
AcDbEntity
  8
外形線
100
AcDbCircle
 10
213.3230607319829
 20
100.913009796649
 30
0.0
 40
0.5
100
AcDbArc
 50
180.0
 51
270.0
  0
ARC
  5
16EC
330
18
100
AcDbEntity
  8
外形線
100
AcDbCircle
 10
211.8230607319829
 20
104.413009796649
 30
0.0
 40
1.0
100
AcDbArc
 50
0.0
 51
90.0
  0
ARC
  5
16ED
330
18
100
AcDbEntity
  8
外形線
100
AcDbCircle
 10
214.0230607319829
 20
99.413009796649
 30
0.0
 40
1.0
100
AcDbArc
 50
0.0
 51
90.0
  0
LINE
  5
16EE
330
18
100
AcDbEntity
  8
外形線
100
AcDbLine
 10
203.0230607319829
 20
89.41300979664898
 30
0.0
 11
203.0230607319829
 21
50.41300979664899
 31
0.0
  0
LINE
  5
16EF
330
18
100
AcDbEntity
  8
外形線
100
AcDbLine
 10
202.0230607319829
 20
110.513009796649
 30
0.0
 11
202.0230607319829
 21
105.413009796649
 31
0.0
  0
LINE
  5
16F0
330
18
100
AcDbEntity
  8
外形線
100
AcDbLine
 10
213.0230607319829
 20
89.41300979664896
 30
0.0
 11
213.0230607319829
 21
50.41300979664899
 31
0.0
  0
LINE
  5
16F1
330
18
100
AcDbEntity
  8
外形線
100
AcDbLine
 10
214.0230607319829
 20
89.41300979664896
 30
0.0
 11
214.0230607319829
 21
49.41300979664899
 31
0.0
  0
LINE
  5
16F2
330
18
100
AcDbEntity
  8
中心線
 48
0.3
100
AcDbLine
 10
203.0583571503125
 20
93.91300979664899
 30
0.0
 11
212.8532481662929
 21
93.91300979664899
 31
0.0
  0
LINE
  5
16F3
330
18
100
AcDbEntity
  8
中心線
 48
0.3
100
AcDbLine
 10
203.0583571503125
 20
101.913009796649
 30
0.0
 11
212.8532481662929
 21
101.913009796649
 31
0.0
  0
CIRCLE
  5
16F4
330
18
100
AcDbEntity
  8
外形線
100
AcDbCircle
 10
208.0230607319829
 20
101.913009796649
 30
0.0
 40
1.5
  0
CIRCLE
  5
16F5
330
18
100
AcDbEntity
  8
外形線
100
AcDbCircle
 10
208.0230607319829
 20
93.91300979664899
 30
0.0
 40
1.5
  0
CIRCLE
  5
16F6
330
18
100
AcDbEntity
  8
中心線
100
AcDbCircle
 10
208.0230607319829
 20
101.913009796649
 30
0.0
 40
1.0
  0
CIRCLE
  5
16F7
330
18
100
AcDbEntity
  8
中心線
100
AcDbCircle
 10
208.0230607319829
 20
93.91300979664899
 30
0.0
 40
1.0
  0
LINE
  5
16F8
330
18
100
AcDbEntity
  8
外形線
100
AcDbLine
 10
203.0230607319829
 20
57.91300979664893
 30
0.0
 11
203.0230607319829
 21
55.91300979664893
 31
0.0
  0
LINE
  5
16F9
330
18
100
AcDbEntity
  8
外形線
100
AcDbLine
 10
213.0230607319829
 20
57.91300979664893
 30
0.0
 11
213.0230607319829
 21
55.91300979664893
 31
0.0
  0
LINE
  5
16FA
330
18
100
AcDbEntity
  8
外形線
100
AcDbLine
 10
210.0230607319829
 20
86.41300979664908
 30
0.0
 11
210.0230607319829
 21
63.11300979664903
 31
0.0
  0
LINE
  5
16FB
330
18
100
AcDbEntity
  8
外形線
100
AcDbLine
 10
206.0230607319829
 20
86.41300979664906
 30
0.0
 11
206.0230607319829
 21
63.11300979664892
 31
0.0
  0
LINE
  5
16FC
330
18
100
AcDbEntity
  8
隠れ線2
 48
0.5
100
AcDbLine
 10
209.9980607319828
 20
54.41300979664894
 30
0.0
 11
209.9980607319828
 21
42.91300979664893
 31
0.0
  0
LINE
  5
16FD
330
18
100
AcDbEntity
  8
隠れ線2
 48
0.5
100
AcDbLine
 10
206.0480607319829
 20
54.41300979664896
 30
0.0
 11
206.0480607319828
 21
42.91300979664893
 31
0.0
  0
ARC
  5
16FE
330
18
100
AcDbEntity
  8
外形線
100
AcDbCircle
 10
208.0230607319829
 20
42.41300979664899
 30
0.0
 40
3.0
100
AcDbArc
 50
180.0
 51
0.0
  0
LINE
  5
16FF
330
18
100
AcDbEntity
  8
外形線
100
AcDbLine
 10
211.0230607319829
 20
42.91300979664899
 30
0.0
 11
211.0230607319829
 21
42.41300979664899
 31
0.0
  0
LINE
  5
1700
330
18
100
AcDbEntity
  8
外形線
100
AcDbLine
 10
205.0230607319829
 20
42.91300979664899
 30
0.0
 11
205.0230607319829
 21
42.41300979664899
 31
0.0
  0
LINE
  5
1701
330
18
100
AcDbEntity
  8
外形線
100
AcDbLine
 10
202.0230607319829
 20
109.9130097966489
 30
0.0
 11
214.0230607319829
 21
109.913009796649
 31
0.0
  0
LINE
  5
1702
330
18
100
AcDbEntity
  8
外形線
100
AcDbLine
 10
202.0230607319829
 20
109.4130097966489
 30
0.0
 11
214.0230607319829
 21
109.413009796649
 31
0.0
  0
LINE
  5
1703
330
18
100
AcDbEntity
  8
外形線
100
AcDbLine
 10
202.0230607319829
 20
109.4130097966489
 30
0.0
 11
203.0230607319829
 21
107.4130097966489
 31
0.0
  0
LINE
  5
1704
330
18
100
AcDbEntity
  8
外形線
100
AcDbLine
 10
202.0230607319829
 20
112.513009796649
 30
0.0
 11
202.0230607319829
 21
109.4130097966489
 31
0.0
  0
LINE
  5
1705
330
18
100
AcDbEntity
  8
外形線
100
AcDbLine
 10
214.0230607319829
 20
109.413009796649
 30
0.0
 11
213.0230607319829
 21
107.413009796649
 31
0.0
  0
LINE
  5
1706
330
18
100
AcDbEntity
  8
外形線
100
AcDbLine
 10
214.0230607319829
 20
112.5130097966489
 30
0.0
 11
214.0230607319829
 21
109.413009796649
 31
0.0
  0
LINE
  5
1707
330
18
100
AcDbEntity
  8
外形線
100
AcDbLine
 10
202.0230607319829
 20
89.41300979664898
 30
0.0
 11
202.0230607319829
 21
49.41300979664899
 31
0.0
  0
LINE
  5
1708
330
18
100
AcDbEntity
  8
外形線
100
AcDbLine
 10
201.0230607319829
 20
181.513009796649
 30
0.0
 11
204.0230607319829
 21
181.513009796649
 31
0.0
  0
LINE
  5
1709
330
18
100
AcDbEntity
  8
外形線
100
AcDbLine
 10
202.0230607319829
 20
181.513009796649
 30
0.0
 11
202.0230607319829
 21
171.3130097966489
 31
0.0
  0
LINE
  5
170A
330
18
100
AcDbEntity
  8
外形線
100
AcDbLine
 10
201.0230607319829
 20
189.513009796649
 30
0.0
 11
204.0230607319829
 21
189.513009796649
 31
0.0
  0
LINE
  5
170B
330
18
100
AcDbEntity
  8
外形線
100
AcDbLine
 10
214.0230607319829
 20
181.513009796649
 30
0.0
 11
214.0230607319828
 21
171.313009796649
 31
0.0
  0
LINE
  5
170C
330
18
100
AcDbEntity
  8
外形線
100
AcDbLine
 10
212.0230607319829
 20
194.913009796649
 30
0.0
 11
212.0230607319829
 21
192.513009796649
 31
0.0
  0
LINE
  5
170D
330
18
100
AcDbEntity
  8
外形線
100
AcDbLine
 10
204.0230607319829
 20
194.913009796649
 30
0.0
 11
204.0230607319829
 21
192.513009796649
 31
0.0
  0
LINE
  5
170E
330
18
100
AcDbEntity
  8
外形線
100
AcDbLine
 10
206.0230607319829
 20
192.513009796649
 30
0.0
 11
210.0230607319829
 21
192.513009796649
 31
0.0
  0
LINE
  5
170F
330
18
100
AcDbEntity
  8
外形線
100
AcDbLine
 10
206.0230607319829
 20
191.013009796649
 30
0.0
 11
210.0230607319829
 21
191.013009796649
 31
0.0
  0
LINE
  5
1710
330
18
100
AcDbEntity
  8
外形線
100
AcDbLine
 10
204.0230607319829
 20
191.013009796649
 30
0.0
 11
204.0230607319829
 21
189.513009796649
 31
0.0
  0
LINE
  5
1712
330
18
100
AcDbEntity
  8
外形線
100
AcDbLine
 10
212.0230607319829
 20
191.013009796649
 30
0.0
 11
212.0230607319829
 21
189.513009796649
 31
0.0
  0
LINE
  5
1714
330
18
100
AcDbEntity
  8
外形線
100
AcDbLine
 10
206.0230607319829
 20
195.413009796649
 30
0.0
 11
210.0230607319829
 21
195.413009796649
 31
0.0
  0
LINE
  5
1715
330
18
100
AcDbEntity
  8
外形線
100
AcDbLine
 10
206.0230607319829
 20
197.7454951531331
 30
0.0
 11
206.0230607319829
 21
195.413009796649
 31
0.0
  0
LINE
  5
1716
330
18
100
AcDbEntity
  8
外形線
100
AcDbLine
 10
210.0230607319829
 20
197.7454951531331
 30
0.0
 11
210.0230607319829
 21
195.413009796649
 31
0.0
  0
LINE
  5
1717
330
18
100
AcDbEntity
  8
外形線
100
AcDbLine
 10
201.0230607319829
 20
189.513009796649
 30
0.0
 11
201.0230607319829
 21
181.513009796649
 31
0.0
  0
LINE
  5
1718
330
18
100
AcDbEntity
  8
外形線
100
AcDbLine
 10
215.0230607319829
 20
189.513009796649
 30
0.0
 11
215.0230607319829
 21
181.513009796649
 31
0.0
  0
LINE
  5
1719
330
18
100
AcDbEntity
  8
外形線
100
AcDbLine
 10
203.0230607319829
 20
189.513009796649
 30
0.0
 11
203.0230607319829
 21
181.513009796649
 31
0.0
  0
LINE
  5
171A
330
18
100
AcDbEntity
  8
外形線
100
AcDbLine
 10
213.0230607319829
 20
189.513009796649
 30
0.0
 11
213.0230607319829
 21
181.513009796649
 31
0.0
  0
LINE
  5
171B
330
18
100
AcDbEntity
  8
外形線
100
AcDbLine
 10
204.0230607319829
 20
194.913009796649
 30
0.0
 11
204.0230607319829
 21
192.513009796649
 31
0.0
  0
LINE
  5
171C
330
18
100
AcDbEntity
  8
外形線
100
AcDbLine
 10
212.0230607319829
 20
194.913009796649
 30
0.0
 11
212.0230607319829
 21
192.513009796649
 31
0.0
  0
LINE
  5
171D
330
18
100
AcDbEntity
  8
中心線
 48
0.6
100
AcDbLine
 10
217.393453786535
 20
187.013009796649
 30
0.0
 11
198.6526676774308
 21
187.013009796649
 31
0.0
  0
LINE
  5
171E
330
18
100
AcDbEntity
  8
外形線
100
AcDbLine
 10
204.0230607319829
 20
191.013009796649
 30
0.0
 11
204.0230607319829
 21
189.513009796649
 31
0.0
  0
LINE
  5
171F
330
18
100
AcDbEntity
  8
外形線
100
AcDbLine
 10
212.0230607319829
 20
191.013009796649
 30
0.0
 11
212.0230607319829
 21
189.513009796649
 31
0.0
  0
ARC
  5
1720
330
18
100
AcDbEntity
  8
外形線
100
AcDbCircle
 10
213.0230607319829
 20
198.3822335619013
 30
0.0
 40
0.5
100
AcDbArc
 50
0.0
 51
90.0
  0
LINE
  5
1721
330
18
100
AcDbEntity
  8
外形線
100
AcDbLine
 10
206.0230607319829
 20
198.8822335619013
 30
0.0
 11
206.0230607319829
 21
179.3645665315861
 31
0.0
  0
LINE
  5
1722
330
18
100
AcDbEntity
  8
外形線
100
AcDbLine
 10
204.0230607319829
 20
198.8822335619013
 30
0.0
 11
204.0230607319829
 21
179.3645665315861
 31
0.0
  0
LINE
  5
1723
330
18
100
AcDbEntity
  8
外形線
100
AcDbLine
 10
210.0230607319829
 20
198.8822335619013
 30
0.0
 11
210.0230607319829
 21
179.3645665315861
 31
0.0
  0
LINE
  5
1724
330
18
100
AcDbEntity
  8
外形線
100
AcDbLine
 10
212.0230607319829
 20
198.8822335619013
 30
0.0
 11
212.0230607319829
 21
179.3645665315861
 31
0.0
  0
LINE
  5
1729
330
18
100
AcDbEntity
  8
外形線
100
AcDbLine
 10
204.0230607319829
 20
198.8822335619013
 30
0.0
 11
206.0230607319829
 21
198.8822335619013
 31
0.0
  0
ARC
  5
172A
330
18
100
AcDbEntity
  8
外形線
100
AcDbCircle
 10
203.0230607319829
 20
198.3822335619013
 30
0.0
 40
0.5
100
AcDbArc
 50
90.0
 51
180.0
  0
LINE
  5
172B
330
18
100
AcDbEntity
  8
外形線
100
AcDbLine
 10
212.0230607319829
 20
198.8822335619013
 30
0.0
 11
210.0230607319829
 21
198.8822335619013
 31
0.0
  0
LINE
  5
172C
330
18
100
AcDbEntity
  8
外形線
100
AcDbLine
 10
202.5230607319829
 20
198.3822335619013
 30
0.0
 11
202.5230607319829
 21
189.513009796649
 31
0.0
  0
LINE
  5
172D
330
18
100
AcDbEntity
  8
外形線
100
AcDbLine
 10
213.5230607319829
 20
198.3822335619013
 30
0.0
 11
213.5230607319829
 21
189.513009796649
 31
0.0
  0
LINE
  5
172E
330
18
100
AcDbEntity
  8
外形線
100
AcDbLine
 10
231.8671863925918
 20
125.2047263234697
 30
0.0
 11
231.5847192140294
 21
125.2047263234697
 31
0.0
  0
LINE
  5
172F
330
18
100
AcDbEntity
  8
外形線
100
AcDbLine
 10
231.8671863925918
 20
120.0047263234697
 30
0.0
 11
230.897892332053
 21
120.0047263234697
 31
0.0
  0
LINE
  5
1730
330
18
100
AcDbEntity
  8
外形線
100
AcDbLine
 10
231.8671863925918
 20
125.2047263234697
 30
0.0
 11
231.8671863925918
 21
120.0047263234697
 31
0.0
  0
ARC
  5
1731
330
18
100
AcDbEntity
  8
外形線
100
AcDbCircle
 10
225.3238659687489
 20
122.6047263234697
 30
0.0
 40
7.040954634783575
100
AcDbArc
 50
338.3295132754056
 51
21.67048672459458
  0
LINE
  5
1732
330
18
100
AcDbEntity
  8
中心線
 48
0.2
100
AcDbLine
 10
227.8425781929473
 20
122.6047263234697
 30
0.0
 11
235.4299253283896
 21
122.6047263234697
 31
0.0
  0
LINE
  5
1733
330
18
100
AcDbEntity
  8
隠れ線2
 48
0.5
100
AcDbLine
 10
202.0230607319829
 20
189.513009796649
 30
0.0
 11
202.0230607319829
 21
181.513009796649
 31
0.0
  0
LINE
  5
1734
330
18
100
AcDbEntity
  8
隠れ線2
 48
0.5
100
AcDbLine
 10
214.0230607319829
 20
189.513009796649
 30
0.0
 11
214.0230607319829
 21
181.513009796649
 31
0.0
  0
LINE
  5
1737
330
18
100
AcDbEntity
  8
外形線
100
AcDbLine
 10
206.0230607319829
 20
194.913009796649
 30
0.0
 11
210.0230607319829
 21
194.913009796649
 31
0.0
  0
LINE
  5
1738
330
18
100
AcDbEntity
  8
外形線
100
AcDbLine
 10
203.0230607319829
 20
197.7454951531331
 30
0.0
 11
204.0230607319829
 21
197.7454951531331
 31
0.0
  0
LINE
  5
1739
330
18
100
AcDbEntity
  8
外形線
100
AcDbLine
 10
206.0230607319829
 20
197.7454951531331
 30
0.0
 11
210.0230607319829
 21
197.7454951531331
 31
0.0
  0
LINE
  5
173A
330
18
100
AcDbEntity
  8
外形線
100
AcDbLine
 10
212.0230607319829
 20
197.7454951531331
 30
0.0
 11
213.0230607319829
 21
197.7454951531331
 31
0.0
  0
LINE
  5
173B
330
18
100
AcDbEntity
  8
外形線
100
AcDbLine
 10
203.0230607319829
 20
199.7454951531331
 30
0.0
 11
213.0230607319829
 21
199.745495153133
 31
0.0
  0
LINE
  5
173C
330
18
100
AcDbEntity
  8
外形線
100
AcDbLine
 10
203.0230607319829
 20
199.7454951531331
 30
0.0
 11
203.0230607319829
 21
197.7454951531331
 31
0.0
  0
LINE
  5
173D
330
18
100
AcDbEntity
  8
外形線
100
AcDbLine
 10
213.0230607319827
 20
199.745495153133
 30
0.0
 11
213.0230607319828
 21
197.7454951531331
 31
0.0
  0
LINE
  5
173E
330
18
100
AcDbEntity
  8
寸法線
100
AcDbLine
 10
207.1228362350939
 20
199.745495153133
 30
0.0
 11
207.1228362350939
 21
197.7454951531331
 31
0.0
  0
LINE
  5
173F
330
18
100
AcDbEntity
  8
寸法線
100
AcDbLine
 10
206.2138164652874
 20
199.745495153133
 30
0.0
 11
206.2138164652874
 21
197.7454951531331
 31
0.0
  0
LINE
  5
1740
330
18
100
AcDbEntity
  8
寸法線
100
AcDbLine
 10
205.3697265644673
 20
199.745495153133
 30
0.0
 11
205.3697265644673
 21
198.8822335619013
 31
0.0
  0
LINE
  5
1741
330
18
100
AcDbEntity
  8
寸法線
100
AcDbLine
 10
204.5256374656465
 20
199.745495153133
 30
0.0
 11
204.5256374656465
 21
198.8822335619013
 31
0.0
  0
LINE
  5
1742
330
18
100
AcDbEntity
  8
寸法線
100
AcDbLine
 10
203.8114073027988
 20
199.745495153133
 30
0.0
 11
203.8114073027988
 21
197.7454951531331
 31
0.0
  0
LINE
  5
1743
330
18
100
AcDbEntity
  8
寸法線
100
AcDbLine
 10
203.2919675489094
 20
199.745495153133
 30
0.0
 11
203.2919675489094
 21
197.7454951531331
 31
0.0
  0
LINE
  5
1769
330
18
100
AcDbEntity
  8
隠れ線2
100
AcDbLine
 10
295.8203414510285
 20
91.41300979664899
 30
0.0
 11
295.8203414510285
 21
91.21300979664907
 31
0.0
  0
LINE
  5
176A
330
18
100
AcDbEntity
  8
隠れ線2
100
AcDbLine
 10
287.8203414510284
 20
91.41300979664897
 30
0.0
 11
287.8203414510284
 21
91.21300979664907
 31
0.0
  0
LINE
  5
176B
330
18
100
AcDbEntity
  8
隠れ線2
100
AcDbLine
 10
288.0703414510285
 20
89.413009796649
 30
0.0
 11
288.0703414510285
 21
91.21300979664907
 31
0.0
  0
LINE
  5
176C
330
18
100
AcDbEntity
  8
外形線
100
AcDbLine
 10
288.0703414510285
 20
86.91300979664905
 30
0.0
 11
295.5703414510285
 21
86.91300979664905
 31
0.0
  0
LINE
  5
176D
330
18
100
AcDbEntity
  8
外形線
100
AcDbLine
 10
288.0703414510285
 20
88.41300979664898
 30
0.0
 11
295.5703414510285
 21
88.41300979664911
 31
0.0
  0
LINE
  5
176E
330
18
100
AcDbEntity
  8
外形線
100
AcDbLine
 10
288.0703414510285
 20
86.41300979664904
 30
0.0
 11
295.5703414510285
 21
86.41300979664904
 31
0.0
  0
LINE
  5
176F
330
18
100
AcDbEntity
  8
外形線
100
AcDbLine
 10
288.0703414510285
 20
86.91300979664905
 30
0.0
 11
288.0703414510285
 21
86.41300979664904
 31
0.0
  0
LINE
  5
1770
330
18
100
AcDbEntity
  8
外形線
100
AcDbLine
 10
288.8203414510286
 20
88.41300979664906
 30
0.0
 11
288.8203414510286
 21
86.91300979664905
 31
0.0
  0
LINE
  5
1771
330
18
100
AcDbEntity
  8
外形線
100
AcDbLine
 10
295.5703414510285
 20
86.91300979664905
 30
0.0
 11
295.5703414510285
 21
86.41300979664904
 31
0.0
  0
LINE
  5
1772
330
18
100
AcDbEntity
  8
外形線
100
AcDbLine
 10
294.8203414510285
 20
88.41300979664906
 30
0.0
 11
294.8203414510285
 21
86.91300979664905
 31
0.0
  0
LINE
  5
1773
330
18
100
AcDbEntity
  8
隠れ線2
100
AcDbLine
 10
287.8203414510284
 20
91.21300979664907
 30
0.0
 11
295.8203414510285
 21
91.21300979664907
 31
0.0
  0
LINE
  5
1774
330
18
100
AcDbEntity
  8
外形線
100
AcDbLine
 10
288.0703414510285
 20
86.41300979664903
 30
0.0
 11
295.5703414510285
 21
86.41300979664903
 31
0.0
  0
LINE
  5
1775
330
18
100
AcDbEntity
  8
中心線
 48
0.3
100
AcDbLine
 10
299.6691233386372
 20
127.9223363072602
 30
0.0
 11
299.6691233386372
 21
117.3234875670199
 31
0.0
  0
LINE
  5
1776
330
18
100
AcDbEntity
  8
隠れ線2
100
AcDbLine
 10
295.5703414510285
 20
89.41300979664905
 30
0.0
 11
295.5703414510285
 21
91.21300979664907
 31
0.0
  0
LINE
  5
1777
330
18
100
AcDbEntity
  8
外形線
100
AcDbLine
 10
288.0703414510285
 20
89.413009796649
 30
0.0
 11
288.0703414510285
 21
88.41300979664898
 31
0.0
  0
LINE
  5
1778
330
18
100
AcDbEntity
  8
外形線
100
AcDbLine
 10
295.5703414510285
 20
89.41300979664905
 30
0.0
 11
295.5703414510285
 21
88.41300979664911
 31
0.0
  0
DIMENSION
  5
1779
330
18
100
AcDbEntity
  8
寸法線
100
AcDbDimension
  2
*D24
 10
253.9028398789179
 20
54.413009796649
 30
0.0
 11
252.0278398789179
 21
98.46300979664903
 31
0.0
 70
    32
 71
     5
 42
88.1
  3
STYLE3
100
AcDbAlignedDimension
 13
256.1337690227217
 23
142.513009796649
 33
0.0
 14
291.8203414510285
 24
54.41300979664899
 34
0.0
 50
90.0
100
AcDbRotatedDimension
1001
ACAD
1000
DSTYLE
1002
{
1070
   271
1070
     0
1070
   341
1005
0
1002
}
  0
LINE
  5
177A
330
18
100
AcDbEntity
  8
外形線
100
AcDbLine
 10
202.0230607319829
 20
105.413009796649
 30
0.0
 11
211.8230607319829
 21
105.413009796649
 31
0.0
  0
LINE
  5
177B
330
18
100
AcDbEntity
  8
外形線
100
AcDbLine
 10
212.0230607319829
 20
107.413009796649
 30
0.0
 11
212.0230607319829
 21
105.413009796649
 31
0.0
  0
LINE
  5
177C
330
18
100
AcDbEntity
  8
隠れ線2
100
AcDbLine
 10
212.0230607319829
 20
105.413009796649
 30
0.0
 11
212.0230607319829
 21
89.41300979664896
 31
0.0
  0
LINE
  5
177D
330
18
100
AcDbEntity
  8
外形線
100
AcDbLine
 10
204.0230607319829
 20
107.413009796649
 30
0.0
 11
204.0230607319829
 21
105.413009796649
 31
0.0
  0
LINE
  5
177E
330
18
100
AcDbEntity
  8
隠れ線2
100
AcDbLine
 10
204.0230607319829
 20
105.413009796649
 30
0.0
 11
204.0230607319828
 21
89.41300979664898
 31
0.0
  0
LINE
  5
177F
330
18
100
AcDbEntity
  8
外形線
100
AcDbLine
 10
204.2730607319829
 20
86.91300979664907
 30
0.0
 11
211.7730607319829
 21
86.91300979664907
 31
0.0
  0
LINE
  5
1780
330
18
100
AcDbEntity
  8
外形線
100
AcDbLine
 10
204.2730607319829
 20
88.413009796649
 30
0.0
 11
211.7730607319829
 21
88.41300979664913
 31
0.0
  0
LINE
  5
1781
330
18
100
AcDbEntity
  8
外形線
100
AcDbLine
 10
204.2730607319829
 20
86.41300979664906
 30
0.0
 11
211.7730607319829
 21
86.41300979664906
 31
0.0
  0
LINE
  5
1782
330
18
100
AcDbEntity
  8
外形線
100
AcDbLine
 10
204.2730607319829
 20
86.91300979664907
 30
0.0
 11
204.2730607319829
 21
86.41300979664906
 31
0.0
  0
LINE
  5
1783
330
18
100
AcDbEntity
  8
外形線
100
AcDbLine
 10
205.0230607319829
 20
88.41300979664906
 30
0.0
 11
205.0230607319829
 21
86.91300979664907
 31
0.0
  0
LINE
  5
1784
330
18
100
AcDbEntity
  8
外形線
100
AcDbLine
 10
211.7730607319829
 20
86.91300979664907
 30
0.0
 11
211.7730607319829
 21
86.41300979664906
 31
0.0
  0
LINE
  5
1785
330
18
100
AcDbEntity
  8
外形線
100
AcDbLine
 10
211.0230607319829
 20
88.41300979664906
 30
0.0
 11
211.0230607319829
 21
86.91300979664907
 31
0.0
  0
LINE
  5
1786
330
18
100
AcDbEntity
  8
外形線
100
AcDbLine
 10
204.2730607319829
 20
86.41300979664903
 30
0.0
 11
211.7730607319829
 21
86.41300979664903
 31
0.0
  0
LINE
  5
1787
330
18
100
AcDbEntity
  8
隠れ線2
100
AcDbLine
 10
212.0230607319829
 20
91.41300979664901
 30
0.0
 11
212.0230607319829
 21
91.21300979664907
 31
0.0
  0
LINE
  5
1788
330
18
100
AcDbEntity
  8
隠れ線2
100
AcDbLine
 10
204.0230607319828
 20
91.41300979664899
 30
0.0
 11
204.0230607319828
 21
91.21300979664907
 31
0.0
  0
LINE
  5
1789
330
18
100
AcDbEntity
  8
隠れ線2
100
AcDbLine
 10
204.2730607319829
 20
89.41300979664902
 30
0.0
 11
204.2730607319829
 21
91.21300979664907
 31
0.0
  0
LINE
  5
178A
330
18
100
AcDbEntity
  8
外形線
100
AcDbLine
 10
204.2730607319829
 20
86.91300979664907
 30
0.0
 11
211.7730607319829
 21
86.91300979664907
 31
0.0
  0
LINE
  5
178B
330
18
100
AcDbEntity
  8
外形線
100
AcDbLine
 10
204.2730607319829
 20
88.413009796649
 30
0.0
 11
211.7730607319829
 21
88.41300979664913
 31
0.0
  0
LINE
  5
178C
330
18
100
AcDbEntity
  8
外形線
100
AcDbLine
 10
204.2730607319829
 20
86.41300979664906
 30
0.0
 11
211.7730607319829
 21
86.41300979664906
 31
0.0
  0
LINE
  5
178D
330
18
100
AcDbEntity
  8
外形線
100
AcDbLine
 10
204.2730607319829
 20
86.91300979664907
 30
0.0
 11
204.2730607319829
 21
86.41300979664906
 31
0.0
  0
LINE
  5
178E
330
18
100
AcDbEntity
  8
外形線
100
AcDbLine
 10
205.0230607319829
 20
88.41300979664906
 30
0.0
 11
205.0230607319829
 21
86.91300979664907
 31
0.0
  0
LINE
  5
178F
330
18
100
AcDbEntity
  8
外形線
100
AcDbLine
 10
211.7730607319829
 20
86.91300979664907
 30
0.0
 11
211.7730607319829
 21
86.41300979664906
 31
0.0
  0
LINE
  5
1790
330
18
100
AcDbEntity
  8
外形線
100
AcDbLine
 10
211.0230607319829
 20
88.41300979664906
 30
0.0
 11
211.0230607319829
 21
86.91300979664907
 31
0.0
  0
LINE
  5
1791
330
18
100
AcDbEntity
  8
隠れ線2
100
AcDbLine
 10
204.0230607319828
 20
91.21300979664907
 30
0.0
 11
212.0230607319829
 21
91.21300979664907
 31
0.0
  0
LINE
  5
1792
330
18
100
AcDbEntity
  8
外形線
100
AcDbLine
 10
204.2730607319829
 20
86.41300979664903
 30
0.0
 11
211.7730607319829
 21
86.41300979664903
 31
0.0
  0
LINE
  5
1793
330
18
100
AcDbEntity
  8
隠れ線2
100
AcDbLine
 10
211.7730607319828
 20
89.41300979664907
 30
0.0
 11
211.7730607319829
 21
91.21300979664907
 31
0.0
  0
LINE
  5
1794
330
18
100
AcDbEntity
  8
外形線
100
AcDbLine
 10
204.2730607319829
 20
89.41300979664902
 30
0.0
 11
204.2730607319829
 21
88.413009796649
 31
0.0
  0
LINE
  5
1795
330
18
100
AcDbEntity
  8
外形線
100
AcDbLine
 10
211.7730607319828
 20
89.41300979664907
 30
0.0
 11
211.7730607319829
 21
88.41300979664913
 31
0.0
  0
LINE
  5
1A6D
330
18
100
AcDbEntity
  8
隠れ線2
 48
0.5
100
AcDbLine
 10
289.8453414510285
 20
54.41300979664902
 30
0.0
 11
289.8453414510284
 21
42.913009796649
 31
0.0
  0
LINE
  5
1A6E
330
18
100
AcDbEntity
  8
隠れ線2
 48
0.5
100
AcDbLine
 10
293.7953414510285
 20
54.41300979664901
 30
0.0
 11
293.7953414510285
 21
42.913009796649
 31
0.0
  0
LINE
  5
1A86
330
18
100
AcDbEntity
  8
外形線
100
AcDbLine
 10
289.6203414510285
 20
59.81300979664901
 30
0.0
 11
294.0203414510285
 21
59.81300979664901
 31
0.0
  0
LINE
  5
1A87
330
18
100
AcDbEntity
  8
外形線
100
AcDbLine
 10
294.3203414510285
 20
59.51300979664901
 30
0.0
 11
294.3203414510285
 21
56.41300979664902
 31
0.0
  0
LINE
  5
1A88
330
18
100
AcDbEntity
  8
外形線
100
AcDbLine
 10
289.3203414510285
 20
59.51300979664901
 30
0.0
 11
289.3203414510285
 21
56.41300979664902
 31
0.0
  0
ARC
  5
1A89
330
18
100
AcDbEntity
  8
外形線
100
AcDbCircle
 10
289.6203414510285
 20
59.51300979664901
 30
0.0
 40
0.3
100
AcDbArc
 50
90.0
 51
180.0
  0
ARC
  5
1A8A
330
18
100
AcDbEntity
  8
外形線
100
AcDbCircle
 10
294.0203414510285
 20
59.51300979664901
 30
0.0
 40
0.3
100
AcDbArc
 50
0.0
 51
90.0
  0
LINE
  5
1A8B
330
18
100
AcDbEntity
  8
外形線
100
AcDbLine
 10
288.3203414510285
 20
56.41300979664902
 30
0.0
 11
295.3203414510285
 21
56.41300979664902
 31
0.0
  0
LINE
  5
1A8C
330
18
100
AcDbEntity
  8
外形線
100
AcDbLine
 10
295.3203414510285
 20
56.41300979664902
 30
0.0
 11
295.3203414510285
 21
54.41300979664902
 31
0.0
  0
LINE
  5
1A8D
330
18
100
AcDbEntity
  8
外形線
100
AcDbLine
 10
288.3203414510285
 20
56.41300979664902
 30
0.0
 11
288.3203414510285
 21
54.41300979664902
 31
0.0
  0
LINE
  5
1A8E
330
18
100
AcDbEntity
  8
外形線
100
AcDbLine
 10
289.6203414510285
 20
63.11300979664901
 30
0.0
 11
294.0203414510285
 21
63.11300979664901
 31
0.0
  0
LINE
  5
1A8F
330
18
100
AcDbEntity
  8
外形線
100
AcDbLine
 10
289.3203414510285
 20
60.11300979664898
 30
0.0
 11
289.3203414510285
 21
62.81300979664902
 31
0.0
  0
ARC
  5
1A90
330
18
100
AcDbEntity
  8
外形線
100
AcDbCircle
 10
289.6203414510285
 20
60.11300979664898
 30
0.0
 40
0.3
100
AcDbArc
 50
180.0
 51
270.0
  0
LINE
  5
1A91
330
18
100
AcDbEntity
  8
外形線
100
AcDbLine
 10
294.3203414510285
 20
60.11300979664898
 30
0.0
 11
294.3203414510285
 21
62.81300979664901
 31
0.0
  0
ARC
  5
1A92
330
18
100
AcDbEntity
  8
外形線
100
AcDbCircle
 10
294.0203414510285
 20
60.11300979664898
 30
0.0
 40
0.3
100
AcDbArc
 50
270.0
 51
0.0
  0
LINE
  5
1A93
330
18
100
AcDbEntity
  8
外形線
100
AcDbLine
 10
289.3203414510285
 20
62.81300979664902
 30
0.0
 11
289.6203414510285
 21
63.11300979664901
 31
0.0
  0
LINE
  5
1A94
330
18
100
AcDbEntity
  8
外形線
100
AcDbLine
 10
294.0203414510285
 20
63.11300979664901
 30
0.0
 11
294.3203414510285
 21
62.81300979664901
 31
0.0
  0
POINT
  5
1A9E
330
18
100
AcDbEntity
  8
DEFPOINTS
  6
ByBlock
 62
     0
100
AcDbPoint
 10
289.3203414510285
 20
62.81300979664902
 30
0.0
  0
POINT
  5
1A9F
330
18
100
AcDbEntity
  8
DEFPOINTS
  6
ByBlock
 62
     0
100
AcDbPoint
 10
294.3203414510285
 20
62.81300979664901
 30
0.0
  0
INSERT
  5
1AA1
330
18
100
AcDbEntity
  8
外形線
100
AcDbBlockReference
  2
A$C56AA2A37
 10
288.8203415642772
 20
41.03385758466592
 30
0.0
  0
LINE
  5
1AA6
330
18
100
AcDbEntity
  8
外形線
100
AcDbLine
 10
288.8203414510286
 20
42.91300979664902
 30
0.0
 11
294.8203414510285
 21
42.91300979664902
 31
0.0
  0
LINE
  5
1AA7
330
18
100
AcDbEntity
  8
外形線
100
AcDbLine
 10
288.3203414510285
 20
54.41300979664902
 30
0.0
 11
295.3203414510285
 21
54.41300979664902
 31
0.0
  0
LINE
  5
1AAE
330
18
100
AcDbEntity
  8
外形線
100
AcDbLine
 10
288.3203414510285
 20
54.41300979664902
 30
0.0
 11
319.8203414510285
 21
54.41300979664902
 31
0.0
  0
LINE
  5
1AAF
330
18
100
AcDbEntity
  8
外形線
100
AcDbLine
 10
288.3203414510285
 20
42.913009796649
 30
0.0
 11
303.3203414510284
 21
42.91300979664902
 31
0.0
  0
LINE
  5
1AB0
330
18
100
AcDbEntity
  8
外形線
100
AcDbLine
 10
286.8203414510285
 20
52.91300979664902
 30
0.0
 11
286.8203414510285
 21
44.41300979664902
 31
0.0
  0
ARC
  5
1AB1
330
18
100
AcDbEntity
  8
外形線
100
AcDbCircle
 10
288.3203414510285
 20
52.91300979664902
 30
0.0
 40
1.5
100
AcDbArc
 50
90.0
 51
180.0
  0
ARC
  5
1AB2
330
18
100
AcDbEntity
  8
外形線
100
AcDbCircle
 10
288.3203414510285
 20
44.41300979664902
 30
0.0
 40
1.5
100
AcDbArc
 50
180.0
 51
270.0
  0
LINE
  5
1AC1
330
18
100
AcDbEntity
  8
外形線
100
AcDbLine
 10
205.2230607319829
 20
54.41300979664902
 30
0.0
 11
210.8230607319828
 21
54.41300979664902
 31
0.0
  0
LINE
  5
1AC2
330
18
100
AcDbEntity
  8
隠れ線2
 48
0.5
100
AcDbLine
 10
206.0480607319829
 20
54.41300979664903
 30
0.0
 11
206.0480607319827
 21
42.91300979664902
 31
0.0
  0
LINE
  5
1AC3
330
18
100
AcDbEntity
  8
隠れ線2
 48
0.5
100
AcDbLine
 10
209.9980607319828
 20
54.41300979664902
 30
0.0
 11
209.9980607319828
 21
42.91300979664902
 31
0.0
  0
LINE
  5
1AC4
330
18
100
AcDbEntity
  8
外形線
100
AcDbLine
 10
205.8230607319829
 20
59.81300979664903
 30
0.0
 11
210.223060731983
 21
59.81300979664903
 31
0.0
  0
LINE
  5
1AC5
330
18
100
AcDbEntity
  8
外形線
100
AcDbLine
 10
210.5230607319829
 20
59.51300979664903
 30
0.0
 11
210.5230607319829
 21
56.41300979664904
 31
0.0
  0
LINE
  5
1AC6
330
18
100
AcDbEntity
  8
外形線
100
AcDbLine
 10
205.5230607319829
 20
59.51300979664903
 30
0.0
 11
205.5230607319829
 21
56.41300979664904
 31
0.0
  0
ARC
  5
1AC7
330
18
100
AcDbEntity
  8
外形線
100
AcDbCircle
 10
205.8230607319829
 20
59.51300979664903
 30
0.0
 40
0.3
100
AcDbArc
 50
90.0
 51
180.0
  0
ARC
  5
1AC8
330
18
100
AcDbEntity
  8
外形線
100
AcDbCircle
 10
210.223060731983
 20
59.51300979664903
 30
0.0
 40
0.3
100
AcDbArc
 50
0.0
 51
90.0
  0
LINE
  5
1AC9
330
18
100
AcDbEntity
  8
外形線
100
AcDbLine
 10
204.5230607319829
 20
56.41300979664904
 30
0.0
 11
211.5230607319829
 21
56.41300979664904
 31
0.0
  0
LINE
  5
1ACA
330
18
100
AcDbEntity
  8
外形線
100
AcDbLine
 10
211.5230607319829
 20
56.41300979664904
 30
0.0
 11
211.5230607319829
 21
54.41300979664903
 31
0.0
  0
LINE
  5
1ACB
330
18
100
AcDbEntity
  8
外形線
100
AcDbLine
 10
204.5230607319829
 20
56.41300979664904
 30
0.0
 11
204.5230607319829
 21
54.41300979664903
 31
0.0
  0
LINE
  5
1ACC
330
18
100
AcDbEntity
  8
外形線
100
AcDbLine
 10
205.8230607319829
 20
63.11300979664903
 30
0.0
 11
210.223060731983
 21
63.11300979664903
 31
0.0
  0
LINE
  5
1ACD
330
18
100
AcDbEntity
  8
外形線
100
AcDbLine
 10
205.5230607319829
 20
60.11300979664899
 30
0.0
 11
205.5230607319829
 21
62.81300979664904
 31
0.0
  0
ARC
  5
1ACE
330
18
100
AcDbEntity
  8
外形線
100
AcDbCircle
 10
205.8230607319829
 20
60.11300979664899
 30
0.0
 40
0.3
100
AcDbArc
 50
180.0
 51
270.0
  0
LINE
  5
1ACF
330
18
100
AcDbEntity
  8
外形線
100
AcDbLine
 10
210.5230607319829
 20
60.11300979664899
 30
0.0
 11
210.5230607319829
 21
62.81300979664902
 31
0.0
  0
ARC
  5
1AD0
330
18
100
AcDbEntity
  8
外形線
100
AcDbCircle
 10
210.223060731983
 20
60.11300979664899
 30
0.0
 40
0.3
100
AcDbArc
 50
270.0
 51
0.0
  0
LINE
  5
1AD1
330
18
100
AcDbEntity
  8
外形線
100
AcDbLine
 10
205.5230607319829
 20
62.81300979664904
 30
0.0
 11
205.8230607319829
 21
63.11300979664903
 31
0.0
  0
LINE
  5
1AD2
330
18
100
AcDbEntity
  8
外形線
100
AcDbLine
 10
210.223060731983
 20
63.11300979664903
 30
0.0
 11
210.5230607319829
 21
62.81300979664902
 31
0.0
  0
POINT
  5
1AD3
330
18
100
AcDbEntity
  8
DEFPOINTS
  6
ByBlock
 62
     0
100
AcDbPoint
 10
205.5230607319829
 20
62.81300979664904
 30
0.0
  0
POINT
  5
1AD4
330
18
100
AcDbEntity
  8
DEFPOINTS
  6
ByBlock
 62
     0
100
AcDbPoint
 10
210.5230607319829
 20
62.81300979664902
 30
0.0
  0
INSERT
  5
1AD5
330
18
100
AcDbEntity
  8
外形線
100
AcDbBlockReference
  2
A$C56AA2A37
 10
205.0230608452316
 20
41.03385758466592
 30
0.0
  0
LINE
  5
1AD6
330
18
100
AcDbEntity
  8
外形線
100
AcDbLine
 10
205.0230607319829
 20
42.91300979664902
 30
0.0
 11
211.0230607319829
 21
42.91300979664902
 31
0.0
  0
LINE
  5
1AD7
330
18
100
AcDbEntity
  8
外形線
100
AcDbLine
 10
204.5230607319829
 20
54.41300979664903
 30
0.0
 11
211.5230607319829
 21
54.41300979664903
 31
0.0
  0
LINE
  5
2525
102
{ACAD_REACTORS
330
2553
102
}
330
18
100
AcDbEntity
  8
外形線
100
AcDbLine
 10
288.3203414510286
 20
195.413009796649
 30
0.0
 11
295.3203414510286
 21
195.413009796649
 31
0.0
  0
LINE
  5
2526
102
{ACAD_REACTORS
330
2553
102
}
330
18
100
AcDbEntity
  8
外形線
100
AcDbLine
 10
287.8203414510286
 20
191.013009796649
 30
0.0
 11
295.8203414510286
 21
191.013009796649
 31
0.0
  0
LINE
  5
2527
102
{ACAD_REACTORS
330
2553
102
}
330
18
100
AcDbEntity
  8
外形線
100
AcDbLine
 10
287.8203414510286
 20
191.013009796649
 30
0.0
 11
287.8203414510286
 21
189.513009796649
 31
0.0
  0
LINE
  5
2528
102
{ACAD_REACTORS
330
2553
102
}
330
18
100
AcDbEntity
  8
外形線
100
AcDbLine
 10
295.8203414510286
 20
191.013009796649
 30
0.0
 11
295.8203414510286
 21
189.513009796649
 31
0.0
  0
LINE
  5
2529
102
{ACAD_REACTORS
330
2553
102
}
330
18
100
AcDbEntity
  8
外形線
100
AcDbLine
 10
288.8203414510286
 20
192.513009796649
 30
0.0
 11
288.8203414510286
 21
191.013009796649
 31
0.0
  0
LINE
  5
252A
102
{ACAD_REACTORS
330
2553
102
}
330
18
100
AcDbEntity
  8
外形線
100
AcDbLine
 10
294.8203414510286
 20
192.513009796649
 30
0.0
 11
294.8203414510286
 21
191.013009796649
 31
0.0
  0
LINE
  5
252B
102
{ACAD_REACTORS
330
2553
102
}
330
18
100
AcDbEntity
  8
外形線
100
AcDbLine
 10
287.8203414510286
 20
192.513009796649
 30
0.0
 11
295.8203414510286
 21
192.5130097966489
 31
0.0
  0
LINE
  5
252C
102
{ACAD_REACTORS
330
2553
102
}
330
18
100
AcDbEntity
  8
外形線
100
AcDbLine
 10
287.8203414510286
 20
194.913009796649
 30
0.0
 11
287.8203414510286
 21
192.513009796649
 31
0.0
  0
LINE
  5
252D
102
{ACAD_REACTORS
330
2553
102
}
330
18
100
AcDbEntity
  8
外形線
100
AcDbLine
 10
295.8203414510286
 20
194.913009796649
 30
0.0
 11
295.8203414510286
 21
192.5130097966489
 31
0.0
  0
LINE
  5
252E
102
{ACAD_REACTORS
330
2553
102
}
330
18
100
AcDbEntity
  8
外形線
100
AcDbLine
 10
289.8203414510286
 20
195.7185586507594
 30
0.0
 11
289.8203414510286
 21
195.413009796649
 31
0.0
  0
LINE
  5
252F
102
{ACAD_REACTORS
330
2553
102
}
330
18
100
AcDbEntity
  8
外形線
100
AcDbLine
 10
293.8203414510286
 20
195.8910103331952
 30
0.0
 11
293.8203414510286
 21
195.413009796649
 31
0.0
  0
LINE
  5
2530
102
{ACAD_REACTORS
330
2553
102
}
330
18
100
AcDbEntity
  8
外形線
100
AcDbLine
 10
287.8203414510286
 20
194.913009796649
 30
0.0
 11
288.3203414510286
 21
195.413009796649
 31
0.0
  0
LINE
  5
2531
102
{ACAD_REACTORS
330
2553
102
}
330
18
100
AcDbEntity
  8
外形線
100
AcDbLine
 10
295.3203414510286
 20
195.413009796649
 30
0.0
 11
295.8203414510286
 21
194.913009796649
 31
0.0
  0
LINE
  5
2532
102
{ACAD_REACTORS
330
2553
102
}
330
18
100
AcDbEntity
  8
外形線
100
AcDbLine
 10
287.8203414510286
 20
194.913009796649
 30
0.0
 11
295.8203414510286
 21
194.913009796649
 31
0.0
  0
LINE
  5
2533
102
{ACAD_REACTORS
330
2553
102
}
330
18
100
AcDbEntity
  8
外形線
100
AcDbLine
 10
289.8203414510286
 20
197.7454951531331
 30
0.0
 11
289.8203414510286
 21
197.2973244148932
 31
0.0
  0
LINE
  5
2534
102
{ACAD_REACTORS
330
2553
102
}
330
18
100
AcDbEntity
  8
外形線
100
AcDbLine
 10
293.8203414510286
 20
197.7454951531331
 30
0.0
 11
293.8203414510286
 21
197.4625125072796
 31
0.0
  0
LINE
  5
2535
102
{ACAD_REACTORS
330
2553
102
}
330
18
100
AcDbEntity
  8
外形線
100
AcDbLine
 10
286.8203414510286
 20
197.7454951531331
 30
0.0
 11
296.8203414510286
 21
197.745495153133
 31
0.0
  0
LINE
  5
2536
102
{ACAD_REACTORS
330
2553
102
}
330
18
100
AcDbEntity
  8
外形線
100
AcDbLine
 10
286.8203414510286
 20
199.7454951531331
 30
0.0
 11
296.8203414510286
 21
199.745495153133
 31
0.0
  0
LINE
  5
2537
102
{ACAD_REACTORS
330
2553
102
}
330
18
100
AcDbEntity
  8
外形線
100
AcDbLine
 10
286.8203414510285
 20
199.7454951531331
 30
0.0
 11
286.8203414510286
 21
197.7454951531331
 31
0.0
  0
LINE
  5
2538
102
{ACAD_REACTORS
330
2553
102
}
330
18
100
AcDbEntity
  8
外形線
100
AcDbLine
 10
296.8203414510284
 20
199.745495153133
 30
0.0
 11
296.8203414510285
 21
197.745495153133
 31
0.0
  0
LINE
  5
2539
102
{ACAD_REACTORS
330
2553
102
}
330
18
100
AcDbEntity
  8
寸法線
100
AcDbLine
 10
290.9201169541396
 20
199.745495153133
 30
0.0
 11
290.9201169541396
 21
197.7454951531331
 31
0.0
  0
LINE
  5
253A
102
{ACAD_REACTORS
330
2553
102
}
330
18
100
AcDbEntity
  8
寸法線
100
AcDbLine
 10
290.0110971843331
 20
199.745495153133
 30
0.0
 11
290.0110971843331
 21
197.7454951531331
 31
0.0
  0
LINE
  5
253B
102
{ACAD_REACTORS
330
2553
102
}
330
18
100
AcDbEntity
  8
寸法線
100
AcDbLine
 10
289.167007283513
 20
199.745495153133
 30
0.0
 11
289.167007283513
 21
197.7454951531331
 31
0.0
  0
LINE
  5
253C
102
{ACAD_REACTORS
330
2553
102
}
330
18
100
AcDbEntity
  8
寸法線
100
AcDbLine
 10
288.3229181846921
 20
199.745495153133
 30
0.0
 11
288.3229181846921
 21
197.7454951531331
 31
0.0
  0
LINE
  5
253D
102
{ACAD_REACTORS
330
2553
102
}
330
18
100
AcDbEntity
  8
寸法線
100
AcDbLine
 10
287.6086880218444
 20
199.745495153133
 30
0.0
 11
287.6086880218444
 21
197.7454951531331
 31
0.0
  0
LINE
  5
253E
102
{ACAD_REACTORS
330
2553
102
}
330
18
100
AcDbEntity
  8
寸法線
100
AcDbLine
 10
287.089248267955
 20
199.745495153133
 30
0.0
 11
287.089248267955
 21
197.7454951531331
 31
0.0
  0
LINE
  5
253F
102
{ACAD_REACTORS
330
2553
102
}
330
18
100
AcDbEntity
  8
外形線
100
AcDbLine
 10
309.6682914458233
 20
195.5622618425858
 30
0.0
 11
314.329539129877
 21
185.3808836848598
 31
0.0
  0
LINE
  5
2540
102
{ACAD_REACTORS
330
2553
102
}
330
18
100
AcDbEntity
  8
外形線
100
AcDbLine
 10
320.4247896784172
 20
183.8539100470334
 30
0.0
 11
329.6784693412228
 21
191.005502622682
 31
0.0
  0
ARC
  5
2541
102
{ACAD_REACTORS
330
2553
102
}
330
18
100
AcDbEntity
  8
外形線
100
AcDbCircle
 10
317.9787808327327
 20
187.0188809358149
 30
0.0
 40
4.0
100
AcDbArc
 50
204.1733862924493
 51
307.6982020679207
  0
LINE
  5
2542
102
{ACAD_REACTORS
330
2553
102
}
330
18
100
AcDbEntity
  8
外形線
100
AcDbLine
 10
309.1724172401836
 20
195.6411671942261
 30
0.0
 11
308.8631524293259
 21
194.1713971496826
 31
0.0
  0
LINE
  5
2543
102
{ACAD_REACTORS
330
2553
102
}
330
18
100
AcDbEntity
  8
外形線
100
AcDbLine
 10
309.6668130612824
 20
195.5624989719997
 30
0.0
 11
309.3575866721967
 21
194.0929115255619
 31
0.0
  0
LINE
  5
2544
102
{ACAD_REACTORS
330
2553
102
}
330
18
100
AcDbEntity
  8
外形線
100
AcDbLine
 10
330.153836697782
 20
190.8364022976361
 30
0.0
 11
329.8438559829547
 21
189.3632299448659
 31
0.0
  0
LINE
  5
2545
102
{ACAD_REACTORS
330
2553
102
}
330
18
100
AcDbEntity
  8
外形線
100
AcDbLine
 10
329.6788444149224
 20
191.007285147136
 30
0.0
 11
329.3678665378229
 21
189.5293738160388
 31
0.0
  0
LINE
  5
2546
102
{ACAD_REACTORS
330
2553
102
}
330
18
100
AcDbEntity
  8
外形線
100
AcDbLine
 10
309.170092063232
 20
195.6301168732337
 30
0.0
 11
307.7450196897916
 21
194.3442135447767
 31
0.0
  0
ARC
  5
2547
102
{ACAD_REACTORS
330
2553
102
}
330
18
100
AcDbEntity
  8
隠れ線2
 48
0.7
100
AcDbCircle
 10
277.7553272134127
 20
-3.394549334867576
 30
0.0
 40
200.0
100
AcDbArc
 50
78.11733186598484
 51
80.60009829598881
  0
ARC
  5
2548
102
{ACAD_REACTORS
330
2553
102
}
330
18
100
AcDbEntity
  8
外形線
100
AcDbCircle
 10
298.3461450965842
 20
94.4625823362684
 30
0.0
 40
100.0
100
AcDbArc
 50
62.47549668420615
 51
72.6083394768707
  0
ARC
  5
2549
102
{ACAD_REACTORS
330
2553
102
}
330
18
100
AcDbEntity
  8
隠れ線2
 48
0.7
100
AcDbCircle
 10
298.3461450965842
 20
94.4625823362684
 30
0.0
 40
100.0
100
AcDbArc
 50
72.6083394768707
 51
78.11733186598484
  0
ARC
  5
254A
102
{ACAD_REACTORS
330
2553
102
}
330
18
100
AcDbEntity
  8
外形線
100
AcDbCircle
 10
298.3461450965842
 20
94.4625823362684
 30
0.0
 40
101.5
100
AcDbArc
 50
62.4970962852139
 51
78.11733186598484
  0
ARC
  5
254B
102
{ACAD_REACTORS
330
2553
102
}
330
18
100
AcDbEntity
  8
外形線
100
AcDbCircle
 10
350.8239131482683
 20
196.7729258500425
 30
0.0
 40
13.5
100
AcDbArc
 50
243.0815349963787
 51
291.2536071919758
  0
ARC
  5
254C
102
{ACAD_REACTORS
330
2553
102
}
330
18
100
AcDbEntity
  8
外形線
100
AcDbCircle
 10
350.8239131482683
 20
196.7729258500425
 30
0.0
 40
15.0
100
AcDbArc
 50
245.3127360061078
 51
291.1968540211995
  0
LINE
  5
254D
102
{ACAD_REACTORS
330
2553
102
}
330
18
100
AcDbEntity
  8
外形線
100
AcDbLine
 10
356.2486093425059
 20
182.7848696544887
 30
0.0
 11
355.7176187918035
 21
184.1911276846597
 31
0.0
  0
ARC
  5
254E
102
{ACAD_REACTORS
330
2553
102
}
330
18
100
AcDbEntity
  8
外形線
100
AcDbCircle
 10
282.4131927965406
 20
28.9261623872749
 30
0.0
 40
167.3539295215424
100
AcDbArc
 50
80.36611490834129
 51
85.98079412107628
  0
ARC
  5
254F
102
{ACAD_REACTORS
330
2553
102
}
330
18
100
AcDbEntity
  8
外形線
100
AcDbCircle
 10
277.7553272134127
 20
-3.394549334867576
 30
0.0
 40
201.5
100
AcDbArc
 50
78.11733186598484
 51
85.41140345185965
  0
ARC
  5
2550
102
{ACAD_REACTORS
330
2553
102
}
330
18
100
AcDbEntity
  8
外形線
100
AcDbCircle
 10
292.5908464569847
 20
175.9288375541709
 30
0.0
 40
19.99999999999998
100
AcDbArc
 50
85.54843338237336
 51
170.108296764825
  0
ARC
  5
2551
102
{ACAD_REACTORS
330
2553
102
}
330
18
100
AcDbEntity
  8
外形線
100
AcDbCircle
 10
292.7088977730067
 20
175.8636866518447
 30
0.0
 40
21.62740357469704
100
AcDbArc
 50
86.90808359977543
 51
170.1601663291239
  0
LINE
  5
2552
102
{ACAD_REACTORS
330
2553
102
}
330
18
100
AcDbEntity
  8
外形線
100
AcDbLine
 10
271.3996478857106
 20
179.5596918768902
 30
0.0
 11
272.8881622136195
 21
179.3645665315858
 31
0.0
  0
LINE
  5
255F
330
18
100
AcDbEntity
  8
外形線
100
AcDbLine
 10
212.0230607319829
 20
179.3645665315861
 30
0.0
 11
210.0230607319829
 21
179.3645665315861
 31
0.0
  0
LINE
  5
2560
330
18
100
AcDbEntity
  8
外形線
100
AcDbLine
 10
212.0230607319829
 20
179.5596918768901
 30
0.0
 11
210.0230607319829
 21
179.5596918768901
 31
0.0
  0
LINE
  5
2561
330
18
100
AcDbEntity
  8
外形線
100
AcDbLine
 10
206.0230607319829
 20
179.5596918768901
 30
0.0
 11
204.0230607319829
 21
179.5596918768901
 31
0.0
  0
LINE
  5
2562
330
18
100
AcDbEntity
  8
外形線
100
AcDbLine
 10
206.0230607319829
 20
179.3645665315861
 30
0.0
 11
204.0230607319829
 21
179.3645665315861
 31
0.0
  0
LINE
  5
2563
330
18
100
AcDbEntity
  8
外形線
100
AcDbLine
 10
206.0230607319829
 20
189.513009796649
 30
0.0
 11
210.0230607319829
 21
189.513009796649
 31
0.0
  0
LINE
  5
2564
330
18
100
AcDbEntity
  8
外形線
100
AcDbLine
 10
206.0230607319829
 20
181.513009796649
 30
0.0
 11
210.0230607319829
 21
181.513009796649
 31
0.0
  0
LINE
  5
2565
330
18
100
AcDbEntity
  8
外形線
100
AcDbLine
 10
212.0230607319829
 20
189.513009796649
 30
0.0
 11
215.0230607319829
 21
189.513009796649
 31
0.0
  0
LINE
  5
2566
330
18
100
AcDbEntity
  8
外形線
100
AcDbLine
 10
212.0230607319829
 20
181.513009796649
 30
0.0
 11
215.0230607319829
 21
181.513009796649
 31
0.0
  0
DIMENSION
  5
25DC
330
18
100
AcDbEntity
  8
外形線
100
AcDbDimension
  2
*D27
 10
293.8203414510285
 20
81.19186892238241
 30
0.0
 11
301.469150974838
 21
81.19186892238241
 31
0.0
 70
   160
  1
%%C<>
 71
     5
 42
3.999999999999943
  3
STYLE3
100
AcDbAlignedDimension
 13
289.8203414510285
 23
81.19186892238241
 33
0.0
 14
293.8203414510285
 24
81.19186892238241
 34
0.0
100
AcDbRotatedDimension
1001
ACAD
1000
DSTYLE
1002
{
1070
   271
1070
     2
1070
   341
1005
0
1002
}
  0
DIMENSION
  5
2603
330
18
100
AcDbEntity
  8
寸法線
100
AcDbDimension
  2
*D28
 10
294.3203414510285
 20
67.4983600054889
 30
0.0
 11
304.6477224034094
 21
67.4983600054889
 31
0.0
 70
   160
  1
2-%%C<>
 71
     5
 42
4.999999999999943
  3
STYLE3
100
AcDbAlignedDimension
 13
289.3203414510285
 23
61.14202375491519
 33
0.0
 14
294.3203414510285
 24
61.14202375491517
 34
0.0
100
AcDbRotatedDimension
1001
ACAD
1000
DSTYLE
1002
{
1070
   271
1070
     2
1070
   341
1005
0
1002
}
  0
LINE
  5
2687
330
18
100
AcDbEntity
  8
外形線
 62
     2
100
AcDbLine
 10
289.2886405307976
 20
59.81300979664897
 30
0.0
 11
277.9565867072357
 21
59.81300979664897
 31
0.0
  0
LINE
  5
2688
330
18
100
AcDbEntity
  8
外形線
 62
     2
100
AcDbLine
 10
282.2589625542532
 20
54.41300979664899
 30
0.0
 11
277.9565867072357
 21
54.41300979664899
 31
0.0
  0
LINE
  5
2689
330
18
100
AcDbEntity
  8
外形線
 62
     2
100
AcDbLine
 10
279.2065867072357
 20
51.91300979664899
 30
0.0
 11
279.2065867072357
 21
49.41300979664899
 31
0.0
  0
LINE
  5
268A
330
18
100
AcDbEntity
  8
外形線
 62
     2
100
AcDbLine
 10
279.2065867072357
 20
62.31300979664897
 30
0.0
 11
279.2065867072357
 21
71.42015265379183
 31
0.0
  0
LINE
  5
268B
330
18
100
AcDbEntity
  8
外形線
 62
     2
100
AcDbLine
 10
279.2065867072357
 20
54.41300979664899
 30
0.0
 11
279.2065867072357
 21
59.81300979664897
 31
0.0
  0
INSERT
  5
268C
330
18
100
AcDbEntity
  8
外形線
 62
     2
100
AcDbBlockReference
  2
_OPEN
 10
279.2065867072357
 20
54.41300979664899
 30
0.0
 41
2.5
 42
2.5
 43
2.5
 50
90.0
  0
INSERT
  5
268D
330
18
100
AcDbEntity
  8
外形線
 62
     2
100
AcDbBlockReference
  2
_OPEN
 10
279.2065867072357
 20
59.81300979664897
 30
0.0
 41
2.5
 42
2.5
 43
2.5
 50
270.0
  0
MTEXT
  5
268E
330
18
100
AcDbEntity
  8
外形線
 62
     6
100
AcDbMText
 10
277.3315867072357
 20
68.11658122522044
 30
0.0
 40
2.5
 41
0.0
 71
     5
 72
     1
  1
\A1;5.4
  7
STYLE3
 11
0.0000000000000001
 21
1.0
 31
0.0
 73
     1
 44
1.0
  0
TEXT
  5
26B0
330
18
100
AcDbEntity
  8
文字
100
AcDbText
 10
309.433444515847
 20
202.3616388266031
 30
0.0
 40
3.5
  1
Model No.G2-205A Digital Thickness Gauge
  7
STYLE3
100
AcDbText
  0
LINE
  5
26B1
330
18
100
AcDbEntity
  8
外形線
100
AcDbLine
 10
309.189300515847
 20
200.0768468266032
 30
0.0
 11
423.2263195158469
 21
200.0768468266032
 31
0.0
  0
LINE
  5
26B2
330
18
100
AcDbEntity
  8
外形線
100
AcDbLine
 10
309.189300515847
 20
199.0768468266031
 30
0.0
 11
423.2263195158469
 21
199.0768468266031
 31
0.0
  0
LINE
  5
26B4
330
18
100
AcDbEntity
  8
外形線
100
AcDbLine
 10
283.5676340229518
 20
35.58569681381295
 30
0.0
 11
424.3590520229518
 21
35.58569681381295
 31
0.0
  0
LINE
  5
26B5
330
18
100
AcDbEntity
  8
外形線
100
AcDbLine
 10
283.5676340229518
 20
24.80549081381295
 30
0.0
 11
424.3590520229518
 21
24.80549081381295
 31
0.0
  0
TEXT
  5
26B6
330
18
100
AcDbEntity
  8
0
  6
Continuous
100
AcDbText
 10
285.0251010229518
 20
26.70348081381295
 30
0.0
 40
2.1
  1
Design and specifications are subject to change without notice for future improvement.
  7
STYLE3
100
AcDbText
  0
TEXT
  5
26B7
330
18
100
AcDbEntity
  8
0
  6
Continuous
100
AcDbText
 10
285.3165950229518
 20
30.63262881381295
 30
0.0
 40
3.5
  1
仕様及び外観は予告なく変更される場合がございますのでご了承下さい。
  7
STYLE3
100
AcDbText
  0
TEXT
  5
26B8
330
18
100
AcDbEntity
  8
0
  6
Continuous
100
AcDbText
 10
284.7336100229518
 20
16.93885281381295
 30
0.0
 40
2.1
  1
3RD Angle Projection
  7
STYLE3
100
AcDbText
  0
TEXT
  5
26B9
330
18
100
AcDbEntity
  8
0
  6
Continuous
100
AcDbText
 10
287.3570530229518
 20
20.43513581381295
 30
0.0
 40
3.0
  1
三　　角　　法
  7
STYLE3
100
AcDbText
  0
LINE
  5
26BA
330
18
100
AcDbEntity
  8
外形線
100
AcDbLine
 10
283.5676340229518
 20
15.19071281381295
 30
0.0
 11
283.5676340229518
 21
35.58569681381295
 31
0.0
  0
LINE
  5
26BB
330
18
100
AcDbEntity
  8
外形線
100
AcDbLine
 10
385.5904010229518
 20
24.80549081381295
 30
0.0
 11
385.5904010229518
 21
15.19071281381295
 31
0.0
  0
LINE
  5
26BC
330
18
100
AcDbEntity
  8
外形線
100
AcDbLine
 10
355.8580510229518
 20
24.80549081381295
 30
0.0
 11
355.8580510229518
 21
15.19071281381295
 31
0.0
  0
LINE
  5
26BD
330
18
100
AcDbEntity
  8
外形線
100
AcDbLine
 10
336.3279790229518
 20
24.80549081381295
 30
0.0
 11
336.3279790229518
 21
15.19071281381295
 31
0.0
  0
LINE
  5
26BE
330
18
100
AcDbEntity
  8
外形線
100
AcDbLine
 10
318.8383620229518
 20
24.80549081381295
 30
0.0
 11
318.8383620229518
 21
15.19071281381295
 31
0.0
  0
TEXT
  5
26BF
330
18
100
AcDbEntity
  8
0
  6
Continuous
100
AcDbText
 10
320.2958310229518
 20
20.44109081381295
 30
0.0
 40
3.0
  1
単位
  7
STYLE3
100
AcDbText
  0
TEXT
  5
26C0
330
18
100
AcDbEntity
  8
0
  6
Continuous
100
AcDbText
 10
320.4675520229518
 20
16.93885381381295
 30
0.0
 40
2.1
  1
Unit
  7
STYLE3
100
AcDbText
  0
TEXT
  5
26C1
330
18
100
AcDbEntity
  8
0
  6
Continuous
100
AcDbText
 10
337.6137270229518
 20
20.14973281381295
 30
0.0
 40
3.0
  1
尺 度
  7
STYLE3
100
AcDbText
  0
TEXT
  5
26C2
330
18
100
AcDbEntity
  8
0
  6
Continuous
100
AcDbText
 10
328.3378790229518
 20
18.68699681381295
 30
0.0
 40
2.399999999999999
  1
mm
  7
STYLE3
100
AcDbText
  0
TEXT
  5
26C3
330
18
100
AcDbEntity
  8
0
  6
Continuous
100
AcDbText
 10
338.0769420229518
 20
17.23021081381295
 30
0.0
 40
2.1
  1
Scale
  7
STYLE3
100
AcDbText
  0
TEXT
  5
26C4
330
18
100
AcDbEntity
  8
0
  6
Continuous
100
AcDbText
 10
347.6962310229518
 20
18.97835381381295
 30
0.0
 40
2.399999999999999
  1
1/1
  7
STYLE3
100
AcDbText
  0
TEXT
  5
26C5
330
18
100
AcDbEntity
  8
0
  6
Continuous
100
AcDbText
 10
357.7900020229518
 20
16.93885481381295
 30
0.0
 40
2.1
  1
Date
  7
STYLE3
100
AcDbText
  0
TEXT
  5
26C6
330
18
100
AcDbEntity
  8
0
  6
Continuous
100
AcDbText
 10
357.4066410229518
 20
20.27193781381295
 30
0.0
 40
3.0
  1
日 付
  7
STYLE3
100
AcDbText
  0
TEXT
  5
26C7
330
18
100
AcDbEntity
  8
0
  6
Continuous
100
AcDbText
 10
366.5348100229518
 20
18.68699581381295
 30
0.0
 40
2.1
  1
2010.07.01
  7
STYLE3
100
AcDbText
  0
TEXT
  5
26C8
330
18
100
AcDbEntity
  8
0
  6
Continuous
100
AcDbText
 10
386.9393640229518
 20
20.72649281381295
 30
0.0
 40
3.0
  1
株式会社　尾崎製作所
  7
STYLE3
100
AcDbText
  0
TEXT
  5
26C9
330
18
100
AcDbEntity
  8
0
  6
Continuous
100
AcDbText
 10
387.8138430229518
 20
16.93885381381295
 30
0.0
 40
2.1
  1
OZAKI MFG. CO., LTD.
  7
STYLE3
100
AcDbText
  0
VIEWPORT
  5
177
330
15
100
AcDbEntity
 67
     1
  8
0
100
AcDbViewport
 10
127.5041203589828
 20
97.49391214526822
 30
0.0
 40
418.3086347473814
 41
243.0346063651093
 68
     1
 69
     1
 12
127.5041203589828
 22
97.49391214526822
 13
0.0
 23
0.0
 14
10.0
 24
10.0
 15
10.0
 25
10.0
 16
0.0
 26
0.0
 36
1.0
 17
0.0
 27
0.0
 37
0.0
 42
50.0
 43
0.0
 44
0.0
 45
243.0346063651093
 50
0.0
 51
0.0
 72
   100
 90
    32800
  1

281
     0
 71
     1
 74
     0
110
0.0
120
0.0
130
0.0
111
1.0
121
0.0
131
0.0
112
0.0
122
1.0
132
0.0
 79
     0
146
0.0
170
     0
  0
ENDSEC
  0
SECTION
  2
OBJECTS
  0
DICTIONARY
  5
C
330
0
100
AcDbDictionary
281
     1
  3
ACAD_COLOR
350
FFC
  3
ACAD_GROUP
350
D
  3
ACAD_LAYOUT
350
FFF
  3
ACAD_MATERIAL
350
FFB
  3
ACAD_MLINESTYLE
350
1B
  3
ACAD_PLOTSETTINGS
350
1000
  3
ACAD_PLOTSTYLENAME
350
FF9
  3
ACAD_TABLESTYLE
350
FFD
  3
AcDbVariableDictionary
350
1AEB
  0
DICTIONARY
  5
2364
330
2
100
AcDbDictionary
280
     1
281
     1
  3
ACAD_LAYERSTATES
360
2365
  0
DICTIONARY
  5
1B10
330
18
100
AcDbDictionary
280
     1
281
     1
  3
ACAD_SORTENTS
360
1B11
  0
DICTIONARY
  5
FFC
102
{ACAD_REACTORS
330
C
102
}
330
C
100
AcDbDictionary
281
     1
  0
DICTIONARY
  5
D
102
{ACAD_REACTORS
330
C
102
}
330
C
100
AcDbDictionary
281
     1
  3
*A1
350
2524
  3
*A2
350
2553
  0
DICTIONARY
  5
FFF
102
{ACAD_REACTORS
330
C
102
}
330
C
100
AcDbDictionary
281
     1
  3
Model
350
1001
  3
レイアウト1
350
1002
  0
DICTIONARY
  5
FFB
102
{ACAD_REACTORS
330
C
102
}
330
C
100
AcDbDictionary
281
     1
  0
DICTIONARY
  5
1B
102
{ACAD_REACTORS
330
C
102
}
330
C
100
AcDbDictionary
281
     1
  3
STANDARD
350
1C
  0
DICTIONARY
  5
1000
102
{ACAD_REACTORS
330
C
102
}
330
C
100
AcDbDictionary
281
     1
  0
ACDBDICTIONARYWDFLT
  5
FF9
102
{ACAD_REACTORS
330
C
102
}
330
C
100
AcDbDictionary
281
     1
  3
Normal
350
FFA
100
AcDbDictionaryWithDefault
340
FFA
  0
DICTIONARY
  5
FFD
102
{ACAD_REACTORS
330
C
102
}
330
C
100
AcDbDictionary
281
     1
  3
Standard
350
FFE
  0
DICTIONARY
  5
1AEB
102
{ACAD_REACTORS
330
C
102
}
330
C
100
AcDbDictionary
281
     1
  3
CTABLESTYLE
350
1AEC
  0
DICTIONARY
  5
2365
102
{ACAD_REACTORS
330
2364
102
}
330
2364
100
AcDbDictionary
281
     1
  0
SORTENTSTABLE
  5
1B11
102
{ACAD_REACTORS
330
1B10
102
}
330
1B10
100
AcDbSortentsTable
330
18
331
1520
  5
1520
331
155F
  5
155F
331
1528
  5
1528
331
1567
  5
1567
331
1530
  5
1530
331
156F
  5
156F
331
1538
  5
1538
331
1577
  5
1577
331
15FE
  5
15FF
331
170A
  5
170C
331
1AC3
  5
1AC7
331
1A84
  5
1A88
331
172F
  5
1733
331
1786
  5
178A
331
252A
  5
252D
331
2561
  5
2565
331
2591
  5
2566
331
1A8C
  5
1A90
331
1737
  5
1739
331
178E
  5
1792
331
1ACB
  5
1ACF
331
2532
  5
2535
331
1A94
  5
1A98
331
173F
  5
1743
331
1AD3
  5
1AD7
331
253A
  5
253D
331
197E
  5
1982
331
2542
  5
2545
331
1540
  5
1540
331
157F
  5
157F
331
1548
  5
1548
331
1606
  5
1607
331
1712
  5
1715
331
1587
  5
1587
331
1511
  5
1511
331
1550
  5
1550
331
171A
  5
171E
331
1519
  5
1519
331
1722
  5
172A
331
15AF
  5
15AF
331
1767
  5
176B
331
1986
  5
198A
331
254A
  5
254D
331
1A6D
  5
1A71
331
176F
  5
1773
331
198E
  5
1992
331
2552
  5
2561
331
1777
  5
177B
331
1996
  5
1A70
331
1A7D
  5
1A81
331
177F
  5
1783
331
2523
  5
2527
331
1521
  5
1521
331
1558
  5
1558
331
1560
  5
1560
331
1568
  5
1568
331
1531
  5
1531
331
1570
  5
1570
331
1539
  5
1539
331
15FF
  5
1600
331
170B
  5
170F
331
1AC4
  5
1AC8
331
1A85
  5
1A89
331
1730
  5
1734
331
1787
  5
178B
331
252B
  5
252E
331
2562
  5
2563
331
1A8D
  5
1A91
331
1738
  5
173C
331
178F
  5
1793
331
1ACC
  5
1AD0
331
2533
  5
2536
331
1A95
  5
1A99
331
1740
  5
1767
331
1AD4
  5
1B0F
331
253B
  5
253E
331
197F
  5
1983
331
2543
  5
2546
331
1578
  5
1578
331
1541
  5
1541
331
1580
  5
1580
331
1549
  5
1549
331
1607
  5
1608
331
1588
  5
1588
331
1512
  5
1512
331
1551
  5
1551
331
171B
  5
171F
331
151A
  5
151A
331
1723
  5
172B
331
1768
  5
176C
331
1987
  5
198B
331
254B
  5
254E
331
1A6E
  5
1A72
331
1770
  5
1774
331
198F
  5
1994
331
1A76
  5
1A7A
331
1778
  5
177C
331
1A7E
  5
1A82
331
1559
  5
1559
331
1522
  5
1522
331
15B0
  5
15B0
331
1561
  5
1561
331
152A
  5
152A
331
1569
  5
1569
331
1532
  5
1532
331
15F8
  5
15F8
331
1571
  5
1571
331
153A
  5
153A
331
170C
  5
1710
331
1729
  5
172D
331
1780
  5
1784
331
2563
  5
170D
331
1AC5
  5
1AC9
331
1A86
  5
1A8A
331
1731
  5
1735
331
1788
  5
178C
331
252C
  5
252F
331
1A8E
  5
1A92
331
1739
  5
173D
331
1790
  5
1794
331
1ACD
  5
1AD1
331
2534
  5
2537
331
1AD5
  5
2520
331
1741
  5
1768
331
253C
  5
253F
331
1A9E
  5
1AA6
331
2544
  5
2547
331
1600
  5
1601
331
1542
  5
1542
331
1581
  5
1581
331
154A
  5
154A
331
1608
  5
1609
331
1714
  5
1717
331
1589
  5
1589
331
1513
  5
1513
331
1552
  5
1552
331
171C
  5
1720
331
151B
  5
151B
331
1724
  5
172C
331
1980
  5
1984
331
1AA6
  5
1AB0
331
1769
  5
176D
331
1988
  5
198C
331
254C
  5
254F
331
1A6F
  5
1A73
331
1771
  5
1775
331
1990
  5
1995
331
1AAE
  5
1AB2
331
1A77
  5
1A7B
331
1779
  5
177D
331
1A7F
  5
1A83
331
2525
  5
2528
331
1523
  5
1523
331
155A
  5
155A
331
15B1
  5
15B1
331
1562
  5
1562
331
152B
  5
152B
331
15F1
  5
15F1
331
156A
  5
156A
331
1533
  5
1533
331
15F9
  5
15F9
331
1572
  5
1572
331
170D
  5
1711
331
172A
  5
172E
331
1781
  5
1785
331
2564
  5
1709
331
1AC6
  5
1ACA
331
1A87
  5
1A8B
331
1732
  5
1736
331
1789
  5
178D
331
252D
  5
2530
331
1A8F
  5
1A93
331
173A
  5
173E
331
1791
  5
1795
331
1ACE
  5
1AD2
331
2535
  5
2538
331
1AD6
  5
2521
331
1742
  5
1769
331
1979
  5
197D
331
253D
  5
2540
331
1A9F
  5
1AA7
331
2545
  5
2548
331
1543
  5
1543
331
1601
  5
1602
331
1609
  5
160A
331
1582
  5
1582
331
154B
  5
154B
331
1715
  5
1719
331
158A
  5
158A
331
1514
  5
1514
331
1553
  5
1553
331
171D
  5
1721
331
151C
  5
151C
331
1981
  5
1985
331
1AA7
  5
1AB1
331
176A
  5
176E
331
1989
  5
198D
331
254D
  5
2550
331
1A70
  5
1A74
331
1772
  5
1776
331
1991
  5
1996
331
1AAF
  5
1AC1
331
177A
  5
177E
331
1A78
  5
1A7C
331
2526
  5
2529
331
155B
  5
155B
331
1524
  5
1524
331
15B2
  5
15B2
331
1563
  5
1563
331
152C
  5
152C
331
156B
  5
156B
331
1534
  5
1534
331
15FA
  5
15FB
331
1573
  5
1573
331
170E
  5
1712
331
1A80
  5
1A84
331
172B
  5
172F
331
1782
  5
1786
331
2565
  5
170E
331
1A88
  5
1A8C
331
1733
  5
1737
331
178A
  5
178E
331
1AC7
  5
1ACB
331
252E
  5
2531
331
1A90
  5
1A94
331
173B
  5
173F
331
1792
  5
1979
331
1ACF
  5
1AD3
331
2536
  5
2539
331
1AD7
  5
2522
331
1743
  5
176A
331
197A
  5
197E
331
253E
  5
2541
331
2546
  5
2549
331
157B
  5
157B
331
1544
  5
1544
331
1602
  5
1603
331
1680
  5
1675
331
1583
  5
1583
331
154C
  5
154C
331
160A
  5
160B
331
1716
  5
171A
331
1515
  5
1515
331
1554
  5
1554
331
171E
  5
1722
331
151D
  5
151D
331
1982
  5
1986
331
254E
  5
2551
331
176B
  5
176F
331
198A
  5
198E
331
1AB0
  5
1AC2
331
1A71
  5
1A76
331
1773
  5
1777
331
1992
  5
1A6D
331
1A79
  5
1A7D
331
177B
  5
177F
331
2527
  5
252A
331
155C
  5
155C
331
1525
  5
1525
331
1564
  5
1564
331
152D
  5
152D
331
156C
  5
156C
331
1535
  5
1535
331
15FB
  5
15FC
331
153D
  5
153D
331
1574
  5
1574
331
170F
  5
1713
331
1A81
  5
1A85
331
172C
  5
1730
331
1783
  5
1787
331
2566
  5
170A
331
1A89
  5
1A8D
331
1734
  5
1738
331
178B
  5
178F
331
1AC8
  5
1ACC
331
252F
  5
2532
331
1A91
  5
1A95
331
173C
  5
1740
331
1793
  5
197A
331
1AD0
  5
1AD4
331
2537
  5
253A
331
253F
  5
2542
331
197B
  5
197F
331
2547
  5
254A
331
157C
  5
157C
331
1545
  5
1545
331
1603
  5
1604
331
1584
  5
1584
331
154D
  5
154D
331
160B
  5
2591
331
1717
  5
171B
331
1516
  5
1516
331
1555
  5
1555
331
171F
  5
1723
331
151E
  5
151E
331
1AA1
  5
1AAF
331
1983
  5
1987
331
254F
  5
2552
331
176C
  5
1770
331
198B
  5
198F
331
1AB1
  5
1AC3
331
1A72
  5
1A77
331
1774
  5
1778
331
255F
  5
2562
331
1A7A
  5
1A7E
331
177C
  5
1780
331
2520
  5
2523
331
155D
  5
155D
331
1526
  5
1526
331
16B1
  5
1693
331
1565
  5
1565
331
152E
  5
152E
331
156D
  5
156D
331
1536
  5
1536
331
1575
  5
1575
331
153E
  5
153E
331
15FC
  5
15FD
331
1AC1
  5
1AC5
331
1A82
  5
1A86
331
172D
  5
1731
331
1784
  5
1788
331
2528
  5
252B
331
1A8A
  5
1A8E
331
178C
  5
1790
331
1AC9
  5
1ACD
331
2530
  5
2533
331
1A92
  5
1A96
331
173D
  5
1741
331
1794
  5
197B
331
1AD1
  5
1AD5
331
2538
  5
253B
331
197C
  5
1980
331
2540
  5
2543
331
157D
  5
157D
331
1546
  5
1546
331
1604
  5
1605
331
1710
  5
1714
331
154E
  5
154E
331
150F
  5
150F
331
1718
  5
171C
331
1517
  5
1517
331
1556
  5
1556
331
1720
  5
1724
331
151F
  5
151F
331
1984
  5
1988
331
2548
  5
254B
331
176D
  5
1771
331
198C
  5
1990
331
2550
  5
255F
331
1A73
  5
1A78
331
1775
  5
1779
331
1994
  5
1A6E
331
1AB2
  5
1AC4
331
1A7B
  5
1A7F
331
177D
  5
1781
331
2521
  5
2525
331
155E
  5
155E
331
1527
  5
1527
331
15CD
  5
15CD
331
152F
  5
152F
331
1566
  5
1566
331
156E
  5
156E
331
1537
  5
1537
331
1576
  5
1576
331
153F
  5
153F
331
15FD
  5
15FE
331
1709
  5
170B
331
1AC2
  5
1AC6
331
1A83
  5
1A87
331
172E
  5
1732
331
1785
  5
1789
331
2529
  5
252C
331
2560
  5
2564
331
1A8B
  5
1A8F
331
178D
  5
1791
331
1ACA
  5
1ACE
331
2531
  5
2534
331
1A93
  5
1A97
331
173E
  5
1742
331
1795
  5
197C
331
1AD2
  5
1AD6
331
2539
  5
253C
331
197D
  5
1981
331
2541
  5
2544
331
157E
  5
157E
331
1547
  5
1547
331
1605
  5
1606
331
1510
  5
1510
331
154F
  5
154F
331
1719
  5
171D
331
1518
  5
1518
331
1557
  5
1557
331
1721
  5
1725
331
2549
  5
254C
331
1985
  5
1989
331
176E
  5
1772
331
198D
  5
1991
331
2551
  5
2560
331
1A74
  5
1A79
331
1776
  5
177A
331
1995
  5
1A6F
331
1A7C
  5
1A80
331
177E
  5
1782
331
2522
  5
2526
  0
GROUP
  5
2524
102
{ACAD_REACTORS
330
D
102
}
330
D
100
AcDbGroup
300

 70
     1
 71
     1
  0
GROUP
  5
2553
102
{ACAD_REACTORS
330
D
102
}
330
D
100
AcDbGroup
300

 70
     1
 71
     1
340
2552
340
2551
340
2550
340
253E
340
253D
340
253C
340
253B
340
253A
340
2539
340
2538
340
2534
340
2533
340
2532
340
2531
340
2530
340
252F
340
252E
340
252D
340
252C
340
252B
340
252A
340
2529
340
2528
340
2527
340
2526
340
2525
340
254F
340
2536
340
2535
340
2537
340
254E
340
2546
340
2543
340
2542
340
253F
340
2541
340
2540
340
254A
340
2549
340
2548
340
2545
340
2544
340
2547
340
254D
340
254C
340
254B
  0
LAYOUT
  5
1001
102
{ACAD_REACTORS
330
FFF
102
}
330
FFF
100
AcDbPlotSettings
  1

  2
A4 EPSON LP-6100.pc3
  4
A4
  6

 40
5.873749732971191
 41
5.873747825622558
 42
5.873748779296875
 43
5.873748779296875
 44
209.9733276367187
 45
297.0106506347656
 46
1.389999999999999
 47
5.0
 48
0.0
 49
0.0
140
0.0
141
0.0
142
1.0
143
1.0
 70
 28336
 72
     1
 73
     0
 74
     1
  7
monochrome.ctb
 75
    16
147
1.0
 76
     1
 77
     2
 78
   300
148
-169.9716413229539
149
-14.30807215526999
100
AcDbLayout
  1
Model
 70
     1
 71
     0
 10
0.0
 20
0.0
 11
12.0
 21
9.0
 12
0.0
 22
0.0
 32
0.0
 14
0.0
 24
0.0
 34
0.0
 15
0.0
 25
0.0
 35
0.0
146
0.0
 13
0.0
 23
0.0
 33
0.0
 16
1.0
 26
0.0
 36
0.0
 17
0.0
 27
1.0
 37
0.0
 76
     0
330
18
1001
ACAD_PSEXT
1000
A4 EPSON LP-6100.pc3
1000
EPSON LP-6100
1000
\\SATO-MATE2
1000

1070
     0
  0
LAYOUT
  5
1002
102
{ACAD_REACTORS
330
FFF
102
}
330
FFF
100
AcDbPlotSettings
  1

  2
Mytalk FAX
  4

  6

 40
0.0
 41
0.0
 42
0.0
 43
0.0
 44
0.0
 45
0.0
 46
0.0
 47
0.0
 48
0.0
 49
0.0
140
0.0
141
0.0
142
1.0
143
1.0
 70
   688
 72
     0
 73
     0
 74
     5
  7
monochrome.ctb
 75
    16
147
1.0
 76
     0
 77
     2
 78
   300
148
0.0
149
0.0
100
AcDbLayout
  1
レイアウト1
 70
     1
 71
     1
 10
0.0
 20
0.0
 11
420.0
 21
297.0
 12
0.0
 22
0.0
 32
0.0
 14
-0.2
 24
-0.2
 34
0.0
 15
255.2
 25
195.2
 35
0.0
146
0.0
 13
0.0
 23
0.0
 33
0.0
 16
1.0
 26
0.0
 36
0.0
 17
0.0
 27
1.0
 37
0.0
 76
     0
330
15
331
177
  0
MLINESTYLE
  5
1C
102
{ACAD_REACTORS
330
1B
102
}
330
1B
100
AcDbMlineStyle
  2
STANDARD
 70
     0
  3

 62
   256
 51
90.0
 52
90.0
 71
     2
 49
0.5
 62
   256
  6
BYLAYER
 49
-0.5
 62
   256
  6
BYLAYER
  0
ACDBPLACEHOLDER
  5
FFA
102
{ACAD_REACTORS
330
FF9
102
}
330
FF9
  0
ACAD_PROXY_OBJECT
  5
FFE
102
{ACAD_REACTORS
330
FFD
102
}
330
FFD
100
AcDbProxyObject
 90
      499
 91
      503
 95
  2555929
 70
     0
 93
     1849
310
4214DD185B99185C992420000000000000F83F0000000000003E0FC00000000000004901028000000C1008070000C3001FDFF8000000C1003FBFF000000182007F7FE00000030400FEFFC00000060801FDFF8000000C1003FBFF000000182000000000000000C2020B0000001820100E000186003FBFF000000182007F7FE0
310
0000030400FEFFC00000060801FDFF8000000C1003FBFF000000182007F7FE0000003040000000000000012404160000003040201C00030C007F7FE00000030400FEFFC00000060801FDFF8000000C1003FBFF000000182007F7FE00000030400FEFFC000000608000
340
F
340
F
340
F
 94
        0
  0
DICTIONARYVAR
  5
1AEC
102
{ACAD_REACTORS
330
1AEB
102
}
330
1AEB
100
DictionaryVariables
280
     0
  1
STANDARD
  0
ENDSEC
  0
EOF
