  0
SECTION
  2
HEADER
  9
$ACADVER
  1
AC1018
  9
$ACADMAINTVER
 70
     0
  9
$DWGCODEPAGE
  3
ANSI_932
  9
$INSBASE
 10
0.0
 20
0.0
 30
0.0
  9
$EXTMIN
 10
-0.2256454072593215
 20
-0.2181385412601458
 30
-1.000061032362211
  9
$EXTMAX
 10
255.2259969900183
 20
195.2198623512278
 30
0.0000610416757212
  9
$LIMMIN
 10
0.0
 20
0.0
  9
$LIMMAX
 10
420.0
 20
297.0
  9
$ORTHOMODE
 70
     0
  9
$REGENMODE
 70
     1
  9
$FILLMODE
 70
     1
  9
$QTEXTMODE
 70
     0
  9
$MIRRTEXT
 70
     1
  9
$LTSCALE
 40
1.0
  9
$ATTMODE
 70
     1
  9
$TEXTSIZE
 40
3.0
  9
$TRACEWID
 40
1.0
  9
$TEXTSTYLE
  7
STYLE3
  9
$CLAYER
  8
寸法線
  9
$CELTYPE
  6
BYLAYER
  9
$CECOLOR
 62
   256
  9
$CELTSCALE
 40
1.0
  9
$DISPSILH
 70
     0
  9
$DIMSCALE
 40
1.0
  9
$DIMASZ
 40
2.5
  9
$DIMEXO
 40
0.0
  9
$DIMDLI
 40
3.75
  9
$DIMRND
 40
0.0
  9
$DIMDLE
 40
0.0
  9
$DIMEXE
 40
1.25
  9
$DIMTP
 40
0.0
  9
$DIMTM
 40
0.0
  9
$DIMTXT
 40
2.5
  9
$DIMCEN
 40
2.5
  9
$DIMTSZ
 40
0.0
  9
$DIMTOL
 70
     0
  9
$DIMLIM
 70
     0
  9
$DIMTIH
 70
     0
  9
$DIMTOH
 70
     0
  9
$DIMSE1
 70
     0
  9
$DIMSE2
 70
     0
  9
$DIMTAD
 70
     1
  9
$DIMZIN
 70
     8
  9
$DIMBLK
  1

  9
$DIMASO
 70
     1
  9
$DIMSHO
 70
     1
  9
$DIMPOST
  1

  9
$DIMAPOST
  1

  9
$DIMALT
 70
     0
  9
$DIMALTD
 70
     4
  9
$DIMALTF
 40
0.0394
  9
$DIMLFAC
 40
1.0
  9
$DIMTOFL
 70
     1
  9
$DIMTVP
 40
0.0
  9
$DIMTIX
 70
     0
  9
$DIMSOXD
 70
     0
  9
$DIMSAH
 70
     1
  9
$DIMBLK1
  1
OPEN
  9
$DIMBLK2
  1
OPEN
  9
$DIMSTYLE
  2
STYLE3
  9
$DIMCLRD
 70
     2
  9
$DIMCLRE
 70
     2
  9
$DIMCLRT
 70
     6
  9
$DIMTFAC
 40
1.0
  9
$DIMGAP
 40
0.625
  9
$DIMJUST
 70
     0
  9
$DIMSD1
 70
     0
  9
$DIMSD2
 70
     0
  9
$DIMTOLJ
 70
     1
  9
$DIMTZIN
 70
     0
  9
$DIMALTZ
 70
     0
  9
$DIMALTTZ
 70
     0
  9
$DIMUPT
 70
     0
  9
$DIMDEC
 70
     2
  9
$DIMTDEC
 70
     4
  9
$DIMALTU
 70
     8
  9
$DIMALTTD
 70
     4
  9
$DIMTXSTY
  7
STYLE3
  9
$DIMAUNIT
 70
     0
  9
$DIMADEC
 70
     0
  9
$DIMALTRND
 40
0.0
  9
$DIMAZIN
 70
     0
  9
$DIMDSEP
 70
    46
  9
$DIMATFIT
 70
     3
  9
$DIMFRAC
 70
     0
  9
$DIMLDRBLK
  1

  9
$DIMLUNIT
 70
     2
  9
$DIMLWD
 70
    -2
  9
$DIMLWE
 70
    -2
  9
$DIMTMOVE
 70
     0
  9
$LUNITS
 70
     2
  9
$LUPREC
 70
     4
  9
$SKETCHINC
 40
1.0
  9
$FILLETRAD
 40
11.0
  9
$AUNITS
 70
     0
  9
$AUPREC
 70
     0
  9
$MENU
  1
.
  9
$ELEVATION
 40
0.0
  9
$PELEVATION
 40
0.0
  9
$THICKNESS
 40
0.0
  9
$LIMCHECK
 70
     0
  9
$CHAMFERA
 40
0.5
  9
$CHAMFERB
 40
0.5
  9
$CHAMFERC
 40
20.0
  9
$CHAMFERD
 40
0.0
  9
$SKPOLY
 70
     0
  9
$TDCREATE
 40
2451451.663712269
  9
$TDUCREATE
 40
2451451.288712269
  9
$TDUPDATE
 40
2455358.407311007
  9
$TDUUPDATE
 40
2455358.032311007
  9
$TDINDWG
 40
0.5816577546
  9
$TDUSRTIMER
 40
0.5816577546
  9
$USRTIMER
 70
     1
  9
$ANGBASE
 50
0.0
  9
$ANGDIR
 70
     0
  9
$PDMODE
 70
     0
  9
$PDSIZE
 40
0.0
  9
$PLINEWID
 40
0.0
  9
$SPLFRAME
 70
     0
  9
$SPLINETYPE
 70
     6
  9
$SPLINESEGS
 70
     8
  9
$HANDSEED
  5
21EE
  9
$SURFTAB1
 70
     6
  9
$SURFTAB2
 70
     6
  9
$SURFTYPE
 70
     6
  9
$SURFU
 70
     6
  9
$SURFV
 70
     6
  9
$UCSBASE
  2

  9
$UCSNAME
  2

  9
$UCSORG
 10
0.0
 20
0.0
 30
0.0
  9
$UCSXDIR
 10
1.0
 20
0.0
 30
0.0
  9
$UCSYDIR
 10
0.0
 20
1.0
 30
0.0
  9
$UCSORTHOREF
  2

  9
$UCSORTHOVIEW
 70
     0
  9
$UCSORGTOP
 10
0.0
 20
0.0
 30
0.0
  9
$UCSORGBOTTOM
 10
0.0
 20
0.0
 30
0.0
  9
$UCSORGLEFT
 10
0.0
 20
0.0
 30
0.0
  9
$UCSORGRIGHT
 10
0.0
 20
0.0
 30
0.0
  9
$UCSORGFRONT
 10
0.0
 20
0.0
 30
0.0
  9
$UCSORGBACK
 10
0.0
 20
0.0
 30
0.0
  9
$PUCSBASE
  2

  9
$PUCSNAME
  2

  9
$PUCSORG
 10
0.0
 20
0.0
 30
0.0
  9
$PUCSXDIR
 10
1.0
 20
0.0
 30
0.0
  9
$PUCSYDIR
 10
0.0
 20
1.0
 30
0.0
  9
$PUCSORTHOREF
  2

  9
$PUCSORTHOVIEW
 70
     0
  9
$PUCSORGTOP
 10
0.0
 20
0.0
 30
0.0
  9
$PUCSORGBOTTOM
 10
0.0
 20
0.0
 30
0.0
  9
$PUCSORGLEFT
 10
0.0
 20
0.0
 30
0.0
  9
$PUCSORGRIGHT
 10
0.0
 20
0.0
 30
0.0
  9
$PUCSORGFRONT
 10
0.0
 20
0.0
 30
0.0
  9
$PUCSORGBACK
 10
0.0
 20
0.0
 30
0.0
  9
$USERI1
 70
     0
  9
$USERI2
 70
     0
  9
$USERI3
 70
     0
  9
$USERI4
 70
     0
  9
$USERI5
 70
     0
  9
$USERR1
 40
0.0
  9
$USERR2
 40
0.0
  9
$USERR3
 40
0.0
  9
$USERR4
 40
0.0
  9
$USERR5
 40
0.0
  9
$WORLDVIEW
 70
     1
  9
$SHADEDGE
 70
     3
  9
$SHADEDIF
 70
    70
  9
$TILEMODE
 70
     1
  9
$MAXACTVP
 70
    48
  9
$PINSBASE
 10
0.0
 20
0.0
 30
0.0
  9
$PLIMCHECK
 70
     0
  9
$PEXTMIN
 10
-0.2
 20
-0.2
 30
0.0
  9
$PEXTMAX
 10
255.2
 20
195.2
 30
0.0
  9
$PLIMMIN
 10
0.0
 20
0.0
  9
$PLIMMAX
 10
420.0
 20
297.0
  9
$UNITMODE
 70
     0
  9
$VISRETAIN
 70
     1
  9
$PLINEGEN
 70
     0
  9
$PSLTSCALE
 70
     1
  9
$TREEDEPTH
 70
  3020
  9
$CMLSTYLE
  2
STANDARD
  9
$CMLJUST
 70
     0
  9
$CMLSCALE
 40
20.0
  9
$PROXYGRAPHICS
 70
     1
  9
$MEASUREMENT
 70
     1
  9
$CELWEIGHT
370
    -1
  9
$ENDCAPS
280
     0
  9
$JOINSTYLE
280
     0
  9
$LWDISPLAY
290
     0
  9
$INSUNITS
 70
     0
  9
$HYPERLINKBASE
  1

  9
$STYLESHEET
  1

  9
$XEDIT
290
     1
  9
$CEPSNTYPE
380
     0
  9
$PSTYLEMODE
290
     1
  9
$FINGERPRINTGUID
  2
{3339D036-6631-49EF-A8EC-82BE011A4282}
  9
$VERSIONGUID
  2
{0893DE6C-CD85-4280-BDE1-AF2DADB0A24F}
  9
$EXTNAMES
290
     1
  9
$PSVPSCALE
 40
0.0
  9
$OLESTARTUP
290
     0
  9
$SORTENTS
280
    96
  9
$INDEXCTL
280
     0
  9
$HIDETEXT
280
     0
  9
$XCLIPFRAME
290
     0
  9
$HALOGAP
280
     0
  9
$OBSCOLOR
 70
   257
  9
$OBSLTYPE
280
     0
  9
$INTERSECTIONDISPLAY
280
     0
  9
$INTERSECTIONCOLOR
 70
   257
  9
$DIMASSOC
280
     1
  9
$PROJECTNAME
  1

  0
ENDSEC
  0
SECTION
  2
CLASSES
  0
CLASS
  1
HATCH
  2
AcDbHatch
  3
ObjectDBX Classes
 90
        0
 91
       55
280
     0
281
     1
  0
CLASS
  1
IMAGEDEF
  2
AcDbRasterImageDef
  3
ISM
 90
        0
 91
        1
280
     0
281
     0
  0
CLASS
  1
LWPOLYLINE
  2
AcDbPolyline
  3
ObjectDBX Classes
 90
        0
 91
        9
280
     0
281
     1
  0
CLASS
  1
DICTIONARYVAR
  2
AcDbDictionaryVar
  3
ObjectDBX Classes
 90
        0
 91
        2
280
     0
281
     0
  0
CLASS
  1
ACDBDICTIONARYWDFLT
  2
AcDbDictionaryWithDefault
  3
ObjectDBX Classes
 90
        0
 91
        1
280
     0
281
     0
  0
CLASS
  1
TABLESTYLE
  2
AcDbTableStyle
  3
ObjectDBX Classes
 90
     2047
 91
        1
280
     0
281
     0
  0
ENDSEC
  0
SECTION
  2
TABLES
  0
TABLE
  2
VPORT
  5
8
330
0
100
AcDbSymbolTable
 70
     3
  0
VPORT
  5
21ED
330
8
100
AcDbSymbolTableRecord
100
AcDbViewportTableRecord
  2
*Active
 70
     0
 10
0.0
 20
0.0
 11
1.0
 21
1.0
 12
127.5001757913795
 22
97.50086190498384
 13
0.0
 23
0.0
 14
10.0
 24
10.0
 15
10.0
 25
10.0
 16
0.0
 26
0.0
 36
1.0
 17
0.0
 27
0.0
 37
0.0
 40
196.9242214315943
 41
1.530456852791878
 42
50.0
 43
0.0
 44
0.0
 50
0.0
 51
0.0
 71
     0
 72
   100
 73
     1
 74
     1
 75
     0
 76
     0
 77
     0
 78
     0
281
     0
 65
     1
110
0.0
120
0.0
130
0.0
111
1.0
121
0.0
131
0.0
112
0.0
122
1.0
132
0.0
 79
     0
146
0.0
  0
ENDTAB
  0
TABLE
  2
LTYPE
  5
5
330
0
100
AcDbSymbolTable
 70
    12
  0
LTYPE
  5
12
330
5
100
AcDbSymbolTableRecord
100
AcDbLinetypeTableRecord
  2
BYBLOCK
 70
     0
  3

 72
    65
 73
     0
 40
0.0
  0
LTYPE
  5
13
330
5
100
AcDbSymbolTableRecord
100
AcDbLinetypeTableRecord
  2
BYLAYER
 70
     0
  3

 72
    65
 73
     0
 40
0.0
  0
LTYPE
  5
14
330
5
100
AcDbSymbolTableRecord
100
AcDbLinetypeTableRecord
  2
CONTINUOUS
 70
     0
  3
Solid line
 72
    65
 73
     0
 40
0.0
  0
LTYPE
  5
22
330
5
100
AcDbSymbolTableRecord
100
AcDbLinetypeTableRecord
  2
CENTER2
 70
     0
  3
Center (.5x) ___ _ ___ _ ___ _ ___ _ ___ _ ___
 72
    65
 73
     4
 40
28.575
 49
19.05
 74
     0
 49
-3.174999999999999
 74
     0
 49
3.174999999999999
 74
     0
 49
-3.174999999999999
 74
     0
  0
LTYPE
  5
23
330
5
100
AcDbSymbolTableRecord
100
AcDbLinetypeTableRecord
  2
HIDDEN2
 70
     0
  3
Hidden (.5x) _ _ _ _ _ _ _ _ _ _ _ _ _ _ _ _ _
 72
    65
 73
     2
 40
4.762499999999999
 49
3.174999999999999
 74
     0
 49
-1.587499999999999
 74
     0
  0
LTYPE
  5
24
330
5
100
AcDbSymbolTableRecord
100
AcDbLinetypeTableRecord
  2
PHANTOM2
 70
     0
  3
Phantom (.5x) ___ _ _ ___ _ _ ___ _ _ ___ _ _
 72
    65
 73
     6
 40
31.75
 49
15.875
 74
     0
 49
-3.174999999999999
 74
     0
 49
3.174999999999999
 74
     0
 49
-3.174999999999999
 74
     0
 49
3.174999999999999
 74
     0
 49
-3.174999999999999
 74
     0
  0
ENDTAB
  0
TABLE
  2
LAYER
  5
2
330
0
100
AcDbSymbolTable
 70
    15
  0
LAYER
  5
E
330
2
100
AcDbSymbolTableRecord
100
AcDbLayerTableRecord
  2
0
 70
     0
 62
     7
  6
CONTINUOUS
370
    -3
390
20D0
  0
LAYER
  5
25
330
2
100
AcDbSymbolTableRecord
100
AcDbLayerTableRecord
  2
外形線
 70
     0
 62
     7
  6
CONTINUOUS
370
    -3
390
20D0
  0
LAYER
  5
26
330
2
100
AcDbSymbolTableRecord
100
AcDbLayerTableRecord
  2
寸法線
 70
     0
 62
     2
  6
CONTINUOUS
370
    -3
390
20D0
  0
LAYER
  5
27
330
2
100
AcDbSymbolTableRecord
100
AcDbLayerTableRecord
  2
中心線
 70
     0
 62
     4
  6
CENTER2
370
    -3
390
20D0
  0
LAYER
  5
29
330
2
100
AcDbSymbolTableRecord
100
AcDbLayerTableRecord
  2
想像線
 70
     0
 62
     1
  6
PHANTOM2
370
    -3
390
20D0
  0
LAYER
  5
2B
330
2
100
AcDbSymbolTableRecord
100
AcDbLayerTableRecord
  2
文字
 70
     0
 62
     6
  6
CONTINUOUS
370
    -3
390
20D0
  0
LAYER
  5
2C
330
2
100
AcDbSymbolTableRecord
100
AcDbLayerTableRecord
  2
目盛
 70
     0
 62
    70
  6
CONTINUOUS
370
    -3
390
20D0
  0
LAYER
  5
2D
330
2
100
AcDbSymbolTableRecord
100
AcDbLayerTableRecord
  2
針
 70
     0
 62
     5
  6
CONTINUOUS
370
    -3
390
20D0
  0
LAYER
  5
53
330
2
100
AcDbSymbolTableRecord
100
AcDbLayerTableRecord
  2
DEFPOINTS
 70
     0
 62
     7
  6
CONTINUOUS
290
     0
370
    -3
390
20D0
  0
LAYER
  5
A5
330
2
100
AcDbSymbolTableRecord
100
AcDbLayerTableRecord
  2
C
 70
     0
 62
     7
  6
CONTINUOUS
370
    -3
390
20D0
  0
LAYER
  5
16A
330
2
100
AcDbSymbolTableRecord
100
AcDbLayerTableRecord
  2
隠れ線2
 70
     0
 62
     1
  6
HIDDEN2
370
    -3
390
20D0
  0
LAYER
  5
2DB
330
2
100
AcDbSymbolTableRecord
100
AcDbLayerTableRecord
  2
ROGO
 70
     0
 62
     6
  6
CONTINUOUS
370
    -3
390
20D0
  0
ENDTAB
  0
TABLE
  2
STYLE
  5
3
330
0
100
AcDbSymbolTable
 70
     6
  0
STYLE
  5
F
330
3
100
AcDbSymbolTableRecord
100
AcDbTextStyleTableRecord
  2
STANDARD
 70
     0
 40
0.0
 41
1.0
 50
0.0
 71
     0
 42
2.5
  3
txt
  4

  0
STYLE
  5
3F
330
3
100
AcDbSymbolTableRecord
100
AcDbTextStyleTableRecord
  2
STYLE3
 70
     0
 40
0.0
 41
1.0
 50
0.0
 71
     0
 42
3.0
  3
romans.shx
  4
bigfont.shx
  0
ENDTAB
  0
TABLE
  2
VIEW
  5
6
330
0
100
AcDbSymbolTable
 70
     0
  0
ENDTAB
  0
TABLE
  2
UCS
  5
7
330
0
100
AcDbSymbolTable
 70
     0
  0
ENDTAB
  0
TABLE
  2
APPID
  5
9
330
0
100
AcDbSymbolTable
 70
     1
  0
APPID
  5
10
330
9
100
AcDbSymbolTableRecord
100
AcDbRegAppTableRecord
  2
ACAD
 70
     0
  0
ENDTAB
  0
TABLE
  2
DIMSTYLE
  5
A
330
0
100
AcDbSymbolTable
 70
     4
100
AcDbDimStyleTable
 71
     0
  0
DIMSTYLE
105
1D
330
A
100
AcDbSymbolTableRecord
100
AcDbDimStyleTableRecord
  2
STANDARD
 70
     0
 41
2.5
 42
0.625
 43
3.75
 44
1.25
 73
     0
 74
     0
 77
     1
 78
     8
140
2.5
141
2.5
143
0.0394
147
0.625
171
     4
172
     1
273
     8
274
     4
277
     6
340
F
  0
DIMSTYLE
105
8F
102
{ACAD_REACTORS
330
1AAB
330
1D19
330
1D25
330
1FEB
330
1FF9
330
2005
330
2012
330
202A
330
204F
330
2067
330
1925
330
193A
102
}
330
A
100
AcDbSymbolTableRecord
100
AcDbDimStyleTableRecord
  2
STYLE3
 70
     0
 41
2.5
 42
0.0
 43
3.75
 44
1.25
 73
     0
 74
     0
 77
     1
 78
     8
140
2.5
141
2.5
143
0.0394
147
0.625
171
     4
172
     1
173
     1
176
     2
177
     2
178
     6
271
     1
273
     8
274
     4
340
3F
341
45
343
45
344
45
  0
ENDTAB
  0
TABLE
  2
BLOCK_RECORD
  5
1
330
0
100
AcDbSymbolTable
 70
    26
  0
BLOCK_RECORD
  5
18
330
1
100
AcDbSymbolTableRecord
100
AcDbBlockTableRecord
  2
*MODEL_SPACE
340
20D7
  0
BLOCK_RECORD
  5
15
330
1
100
AcDbSymbolTableRecord
100
AcDbBlockTableRecord
  2
*PAPER_SPACE
340
20D8
  0
BLOCK_RECORD
  5
45
330
1
100
AcDbSymbolTableRecord
100
AcDbBlockTableRecord
  2
_OPEN
340
0
102
{BLKREFS
331
2078
331
2079
331
2085
331
2086
331
A19
331
A1A
331
A20
331
A21
331
A27
331
A28
331
A2E
331
A2F
331
A37
331
A38
331
A42
331
A43
331
A48
331
A49
331
A4F
331
A50
331
AEE
331
AEF
331
B00
331
B01
331
B06
331
B07
331
B20
331
B21
331
B28
331
B29
331
BC4
331
BC5
331
BCD
331
BCE
331
C14
331
C15
331
C45
331
C46
331
1314
331
1315
331
131C
331
131D
331
1327
331
1328
331
1335
331
1336
331
1341
331
1342
331
134A
331
134B
331
1353
331
1354
331
1364
331
1365
331
1384
331
1385
331
138E
331
138F
331
1397
331
1398
331
139F
331
13A0
331
13A7
331
13A8
331
13E4
331
13E5
331
1893
331
1894
331
189F
331
18A0
331
1C5F
331
1C61
331
218D
331
218E
331
2196
331
2197
331
219E
331
219F
331
21A7
331
21A8
331
21B0
331
21B1
331
21B8
331
21B9
331
21C1
331
21C2
331
21CA
331
21CB
331
21D3
331
21D4
331
21DC
331
21DD
102
}
  0
BLOCK_RECORD
  5
18A7
330
1
100
AcDbSymbolTableRecord
100
AcDbBlockTableRecord
  2
12
340
0
102
{BLKREFS
331
1A8A
331
1919
102
}
  0
BLOCK_RECORD
  5
1C04
330
1
100
AcDbSymbolTableRecord
100
AcDbBlockTableRecord
  2
*D12
340
0
  0
BLOCK_RECORD
  5
1D0D
330
1
100
AcDbSymbolTableRecord
100
AcDbBlockTableRecord
  2
*D14
340
0
  0
BLOCK_RECORD
  5
1D1A
330
1
100
AcDbSymbolTableRecord
100
AcDbBlockTableRecord
  2
*D15
340
0
  0
BLOCK_RECORD
  5
1FDF
330
1
100
AcDbSymbolTableRecord
100
AcDbBlockTableRecord
  2
*D17
340
0
  0
BLOCK_RECORD
  5
1FED
330
1
100
AcDbSymbolTableRecord
100
AcDbBlockTableRecord
  2
*D18
340
0
  0
BLOCK_RECORD
  5
1FFA
330
1
100
AcDbSymbolTableRecord
100
AcDbBlockTableRecord
  2
*D19
340
0
  0
BLOCK_RECORD
  5
2006
330
1
100
AcDbSymbolTableRecord
100
AcDbBlockTableRecord
  2
*D20
340
0
  0
BLOCK_RECORD
  5
201E
330
1
100
AcDbSymbolTableRecord
100
AcDbBlockTableRecord
  2
*D21
340
0
  0
BLOCK_RECORD
  5
2043
330
1
100
AcDbSymbolTableRecord
100
AcDbBlockTableRecord
  2
*D22
340
0
  0
BLOCK_RECORD
  5
205B
330
1
100
AcDbSymbolTableRecord
100
AcDbBlockTableRecord
  2
*D23
340
0
  0
ENDTAB
  0
ENDSEC
  0
SECTION
  2
BLOCKS
  0
BLOCK
  5
19
330
18
100
AcDbEntity
  8
0
100
AcDbBlockBegin
  2
*MODEL_SPACE
 70
     0
 10
0.0
 20
0.0
 30
0.0
  3
*MODEL_SPACE
  1

  0
ENDBLK
  5
1A
330
18
100
AcDbEntity
  8
0
100
AcDbBlockEnd
  0
BLOCK
  5
16
330
15
100
AcDbEntity
 67
     1
  8
0
100
AcDbBlockBegin
  2
*PAPER_SPACE
 70
     0
 10
0.0
 20
0.0
 30
0.0
  3
*PAPER_SPACE
  1

  0
ENDBLK
  5
17
330
15
100
AcDbEntity
 67
     1
  8
0
100
AcDbBlockEnd
  0
BLOCK
  5
46
330
45
100
AcDbEntity
  8
0
100
AcDbBlockBegin
  2
_OPEN
 70
     0
 10
0.0
 20
0.0
 30
0.0
  3
_OPEN
  1

  0
LINE
  5
47
330
45
100
AcDbEntity
  8
0
  6
ByBlock
 62
     0
100
AcDbLine
 10
-1.0
 20
0.1666666666666666
 30
0.0
 11
0.0
 21
0.0
 31
0.0
  0
LINE
  5
48
330
45
100
AcDbEntity
  8
0
  6
ByBlock
 62
     0
100
AcDbLine
 10
0.0
 20
0.0
 30
0.0
 11
-1.0
 21
-0.1666666666666666
 31
0.0
  0
LINE
  5
49
330
45
100
AcDbEntity
  8
0
  6
ByBlock
 62
     0
100
AcDbLine
 10
0.0
 20
0.0
 30
0.0
 11
-1.0
 21
0.0
 31
0.0
  0
ENDBLK
  5
4A
330
45
100
AcDbEntity
  8
0
100
AcDbBlockEnd
  0
BLOCK
  5
1916
330
18A7
100
AcDbEntity
  8
0
100
AcDbBlockBegin
  2
12
 70
     0
 10
0.0
 20
0.0
 30
0.0
  3
12
  1

  0
TEXT
  5
18A8
330
18A7
100
AcDbEntity
  8
文字
100
AcDbText
 10
-12.99252466379442
 20
13.40997501355684
 30
0.0
 40
2.5
  1
90
  7
STYLE3
100
AcDbText
  0
TEXT
  5
18A9
330
18A7
100
AcDbEntity
  8
文字
100
AcDbText
 10
-19.18697334178108
 20
4.509387238967633
 30
0.0
 40
2.5
  1
80
  7
STYLE3
100
AcDbText
  0
TEXT
  5
18AA
330
18A7
100
AcDbEntity
  8
文字
100
AcDbText
 10
-19.29265411071986
 20
-7.2251438858367
 30
0.0
 40
2.5
  1
70
  7
STYLE3
100
AcDbText
  0
LINE
  5
18AB
330
18A7
100
AcDbEntity
  8
目盛
100
AcDbLine
 10
-15.74458343635967
 20
16.76627843069252
 30
0.0
 11
-14.58085335628095
 21
15.52703176407613
 31
0.0
  0
LINE
  5
18AC
330
18A7
100
AcDbEntity
  8
目盛
100
AcDbLine
 10
-21.8742998747885
 20
-7.107390870623817
 30
0.0
 11
-19.30644728079158
 21
-6.273044985811452
 31
0.0
  0
LINE
  5
18AD
330
18A7
100
AcDbEntity
  8
目盛
100
AcDbLine
 10
-21.38485917542971
 20
-8.466864711747462
 30
0.0
 11
-19.80423914941968
 21
-7.84105297218349
 31
0.0
  0
LINE
  5
18AE
330
18A7
100
AcDbEntity
  8
目盛
100
AcDbLine
 10
-22.5926067667599
 20
-4.309770235471432
 30
0.0
 11
-20.92271844052107
 21
-3.991222000675747
 31
0.0
  0
LINE
  5
18AF
330
18A7
100
AcDbEntity
  8
目盛
100
AcDbLine
 10
-22.8186381302329
 20
-2.882664371978876
 30
0.0
 11
-21.13204313799838
 21
-2.669597874919531
 31
0.0
  0
LINE
  5
18B0
330
18A7
100
AcDbEntity
  8
目盛
100
AcDbLine
 10
-22.95461475385019
 20
-1.444181949174094
 30
0.0
 11
-21.25796931552219
 21
-1.337438065974254
 31
0.0
  0
LINE
  5
18B1
330
18A7
100
AcDbEntity
  8
目盛
100
AcDbLine
 10
-22.27741270595857
 20
-5.719867404791443
 30
0.0
 11
-20.63082133203989
 21
-5.297094596611259
 31
0.0
  0
LINE
  5
18B2
330
18A7
100
AcDbEntity
  8
目盛
100
AcDbLine
 10
-22.8186381302329
 20
2.882664371979217
 30
0.0
 11
-21.13204313799827
 21
2.669597874919872
 31
0.0
  0
LINE
  5
18B3
330
18A7
100
AcDbEntity
  8
目盛
100
AcDbLine
 10
-22.59260676675967
 20
4.309770235471773
 30
0.0
 11
-20.92271844052095
 21
3.991222000676089
 31
0.0
  0
LINE
  5
18B4
330
18A7
100
AcDbEntity
  8
目盛
100
AcDbLine
 10
-22.99999999999989
 20
0.0
 30
0.0
 11
-20.2999999999999
 21
0.0
 31
0.0
  0
LINE
  5
18B5
330
18A7
100
AcDbEntity
  8
目盛
100
AcDbLine
 10
-22.95461475385014
 20
1.444181949174435
 30
0.0
 11
-21.25796931552208
 21
1.337438065974538
 31
0.0
  0
LINE
  5
18B6
330
18A7
100
AcDbEntity
  8
目盛
100
AcDbLine
 10
-20.15505364100875
 20
11.08033450433953
 30
0.0
 11
-18.66533228493421
 21
10.26135325836668
 31
0.0
  0
LINE
  5
18B7
330
18A7
100
AcDbEntity
  8
目盛
100
AcDbLine
 10
-20.81102220671835
 20
9.792923705996884
 30
0.0
 11
-19.2728162175261
 21
9.069098910336208
 31
0.0
  0
LINE
  5
18B8
330
18A7
100
AcDbEntity
  8
目盛
100
AcDbLine
 10
-21.87429987478845
 20
7.10739087062376
 30
0.0
 11
-19.30644728079153
 21
6.273044985811452
 31
0.0
  0
LINE
  5
18B9
330
18A7
100
AcDbEntity
  8
目盛
100
AcDbLine
 10
-22.27741270595834
 20
5.719867404791784
 30
0.0
 11
-20.63082133203971
 21
5.297094596611543
 31
0.0
  0
LINE
  5
18BA
330
18A7
100
AcDbEntity
  8
目盛
100
AcDbLine
 10
-21.38485917542965
 20
8.466864711747803
 30
0.0
 11
-19.80423914941968
 21
7.841052972183774
 31
0.0
  0
LINE
  5
18BB
330
18A7
100
AcDbEntity
  8
目盛
100
AcDbLine
 10
-19.41954228654617
 20
12.32401628451703
 30
0.0
 11
-17.98418481319277
 21
11.41311073305274
 31
0.0
  0
LINE
  5
18BC
330
18A7
100
AcDbEntity
  8
目盛
100
AcDbLine
 10
-16.76627843069229
 20
15.74458343636002
 30
0.0
 11
-15.5270317640759
 21
14.58085335628118
 31
0.0
  0
LINE
  5
18BD
330
18A7
100
AcDbEntity
  8
目盛
100
AcDbLine
 10
-18.6073908706237
 20
13.51906080272687
 30
0.0
 11
-16.42304498581143
 21
11.93204062153722
 31
0.0
  0
LINE
  5
18BE
330
18A7
100
AcDbEntity
  8
目盛
100
AcDbLine
 10
-17.72180458384298
 20
14.66075176422004
 30
0.0
 11
-16.41193207112417
 21
13.5771309816472
 31
0.0
  0
LINE
  5
18BF
330
18A7
100
AcDbEntity
  8
目盛
100
AcDbLine
 10
-14.66075176421969
 20
17.72180458384321
 30
0.0
 11
-13.57713098164697
 21
16.41193207112439
 31
0.0
  0
LINE
  5
18C0
330
18A7
100
AcDbEntity
  8
目盛
100
AcDbLine
 10
-12.32401628451697
 20
-19.41954228654623
 30
0.0
 11
-11.41311073305269
 21
-17.98418481319282
 31
0.0
  0
LINE
  5
18C1
330
18A7
100
AcDbEntity
  8
目盛
100
AcDbLine
 10
-13.51906080272687
 20
-18.60739087062382
 30
0.0
 11
-11.93204062153722
 21
-16.42304498581143
 31
0.0
  0
LINE
  5
18C2
330
18A7
100
AcDbEntity
  8
目盛
100
AcDbLine
 10
-9.792923705996827
 20
-20.81102220671835
 30
0.0
 11
-9.069098910336151
 21
-19.27281621752615
 31
0.0
  0
LINE
  5
18C3
330
18A7
100
AcDbEntity
  8
目盛
100
AcDbLine
 10
-11.08033450433947
 20
-20.15505364100881
 30
0.0
 11
-10.26135325836662
 21
-18.66533228493426
 31
0.0
  0
LINE
  5
18C4
330
18A7
100
AcDbEntity
  8
目盛
100
AcDbLine
 10
-15.74458343636002
 20
-16.76627843069235
 30
0.0
 11
-14.58085335628118
 21
-15.5270317640759
 31
0.0
  0
LINE
  5
18C5
330
18A7
100
AcDbEntity
  8
目盛
100
AcDbLine
 10
-18.6073908706237
 20
-13.51906080272687
 30
0.0
 11
-16.42304498581131
 21
-11.93204062153722
 31
0.0
  0
LINE
  5
18C6
330
18A7
100
AcDbEntity
  8
目盛
100
AcDbLine
 10
-16.76627843069252
 20
-15.74458343635973
 30
0.0
 11
-15.52703176407613
 21
-14.58085335628095
 31
0.0
  0
LINE
  5
18C7
330
18A7
100
AcDbEntity
  8
目盛
100
AcDbLine
 10
-17.72180458384321
 20
-14.66075176421975
 30
0.0
 11
-16.41193207112439
 21
-13.57713098164697
 31
0.0
  0
LINE
  5
18C8
330
18A7
100
AcDbEntity
  8
目盛
100
AcDbLine
 10
-20.15505364100892
 20
-11.08033450433925
 30
0.0
 11
-18.66533228493432
 21
-10.2613532583664
 31
0.0
  0
LINE
  5
18C9
330
18A7
100
AcDbEntity
  8
目盛
100
AcDbLine
 10
-20.81102220671835
 20
-9.792923705996543
 30
0.0
 11
-19.27281621752621
 21
-9.069098910335924
 31
0.0
  0
LINE
  5
18CA
330
18A7
100
AcDbEntity
  8
目盛
100
AcDbLine
 10
-19.4195422865464
 20
-12.32401628451669
 30
0.0
 11
-17.98418481319288
 21
-11.41311073305246
 31
0.0
  0
TEXT
  5
18CB
330
18A7
100
AcDbEntity
  8
文字
100
AcDbText
 10
-13.55831700926097
 20
-15.81039448861065
 30
0.0
 40
2.5
  1
60
  7
STYLE3
100
AcDbText
  0
LINE
  5
18CC
330
18A7
100
AcDbEntity
  8
目盛
100
AcDbLine
 10
-14.66075176421998
 20
-17.72180458384298
 30
0.0
 11
-13.5771309816472
 21
-16.41193207112417
 31
0.0
  0
LINE
  5
18CD
330
18A7
100
AcDbEntity
  8
目盛
100
AcDbLine
 10
13.51906080272692
 20
-18.60739087062382
 30
0.0
 11
11.93204062153722
 21
-16.42304498581149
 31
0.0
  0
LINE
  5
18CE
330
18A7
100
AcDbEntity
  8
目盛
100
AcDbLine
 10
12.3240162845168
 20
-19.41954228654651
 30
0.0
 11
11.41311073305257
 21
-17.98418481319311
 31
0.0
  0
TEXT
  5
18CF
330
18A7
100
AcDbEntity
  8
文字
100
AcDbText
 10
-2.313247467148755
 20
-19.68288727335846
 30
0.0
 40
2.5
  1
50
  7
STYLE3
100
AcDbText
  0
LINE
  5
18D0
330
18A7
100
AcDbEntity
  8
目盛
100
AcDbLine
 10
-7.10739087062376
 20
-21.8742998747885
 30
0.0
 11
-6.273044985811395
 21
-19.30644728079158
 31
0.0
  0
LINE
  5
18D1
330
18A7
100
AcDbEntity
  8
目盛
100
AcDbLine
 10
-8.466864711747803
 20
-21.38485917542971
 30
0.0
 11
-7.841052972183774
 21
-19.80423914941968
 31
0.0
  0
LINE
  5
18D2
330
18A7
100
AcDbEntity
  8
目盛
100
AcDbLine
 10
-4.30977023547166
 20
-22.59260676675973
 30
0.0
 11
-3.991222000675975
 21
-20.92271844052101
 31
0.0
  0
LINE
  5
18D3
330
18A7
100
AcDbEntity
  8
目盛
100
AcDbLine
 10
-5.719867404791671
 20
-22.2774127059584
 30
0.0
 11
-5.29709459661143
 21
-20.63082133203977
 31
0.0
  0
LINE
  5
18D4
330
18A7
100
AcDbEntity
  8
目盛
100
AcDbLine
 10
-2.882664371979103
 20
-22.81863813023296
 30
0.0
 11
-2.669597874919759
 21
-21.13204313799832
 31
0.0
  0
LINE
  5
18D5
330
18A7
100
AcDbEntity
  8
目盛
100
AcDbLine
 10
9.792923705996599
 20
-20.81102220671852
 30
0.0
 11
9.069098910335981
 21
-19.27281621752638
 31
0.0
  0
LINE
  5
18D6
330
18A7
100
AcDbEntity
  8
目盛
100
AcDbLine
 10
5.719867404791557
 20
-22.27741270595857
 30
0.0
 11
5.297094596611373
 21
-20.63082133203989
 31
0.0
  0
LINE
  5
18D7
330
18A7
100
AcDbEntity
  8
目盛
100
AcDbLine
 10
4.309770235471603
 20
-22.5926067667599
 30
0.0
 11
3.991222000675861
 21
-20.92271844052107
 31
0.0
  0
LINE
  5
18D8
330
18A7
100
AcDbEntity
  8
目盛
100
AcDbLine
 10
2.882664371978989
 20
-22.8186381302329
 30
0.0
 11
2.669597874919645
 21
-21.13204313799838
 31
0.0
  0
LINE
  5
18D9
330
18A7
100
AcDbEntity
  8
目盛
100
AcDbLine
 10
8.466864711747518
 20
-21.38485917542983
 30
0.0
 11
7.841052972183604
 21
-19.80423914941986
 31
0.0
  0
LINE
  5
18DA
330
18A7
100
AcDbEntity
  8
目盛
100
AcDbLine
 10
7.10739087062393
 20
-21.8742998747885
 30
0.0
 11
6.273044985811566
 21
-19.30644728079158
 31
0.0
  0
LINE
  5
18DB
330
18A7
100
AcDbEntity
  8
目盛
100
AcDbLine
 10
11.08033450433936
 20
-20.15505364100909
 30
0.0
 11
10.2613532583664
 21
-18.66533228493449
 31
0.0
  0
LINE
  5
18DC
330
18A7
100
AcDbEntity
  8
目盛
100
AcDbLine
 10
1.444181949174208
 20
-22.95461475385019
 30
0.0
 11
1.337438065974367
 21
-21.25796931552213
 31
0.0
  0
LINE
  5
18DD
330
18A7
100
AcDbEntity
  8
目盛
100
AcDbLine
 10
0.0000000000001137
 20
-22.99999999999994
 30
0.0
 11
0.0000000000001137
 21
-20.29999999999995
 31
0.0
  0
LINE
  5
18DE
330
18A7
100
AcDbEntity
  8
目盛
100
AcDbLine
 10
-1.444181949174321
 20
-22.95461475385019
 30
0.0
 11
-1.337438065974424
 21
-21.25796931552213
 31
0.0
  0
LINE
  5
18DF
330
18A7
100
AcDbEntity
  8
目盛
100
AcDbLine
 10
15.74458343635979
 20
-16.76627843069252
 30
0.0
 11
14.58085335628107
 21
-15.52703176407613
 31
0.0
  0
LINE
  5
18E0
330
18A7
100
AcDbEntity
  8
目盛
100
AcDbLine
 10
14.66075176421975
 20
-17.72180458384321
 30
0.0
 11
13.57713098164708
 21
-16.41193207112439
 31
0.0
  0
TEXT
  5
18E1
330
18A7
100
AcDbEntity
  8
文字
100
AcDbText
 10
8.589307254844754
 20
-15.87242910647626
 30
0.0
 40
2.5
  1
40
  7
STYLE3
100
AcDbText
  0
LINE
  5
18E2
330
18A7
100
AcDbEntity
  8
目盛
100
AcDbLine
 10
18.60739087062382
 20
-13.51906080272687
 30
0.0
 11
16.42304498581149
 21
-11.93204062153722
 31
0.0
  0
LINE
  5
18E3
330
18A7
100
AcDbEntity
  8
目盛
100
AcDbLine
 10
17.72180458384309
 20
-14.66075176421998
 30
0.0
 11
16.41193207112428
 21
-13.5771309816472
 31
0.0
  0
LINE
  5
18E4
330
18A7
100
AcDbEntity
  8
目盛
100
AcDbLine
 10
16.76627843069241
 20
-15.74458343636002
 30
0.0
 11
15.52703176407601
 21
-14.58085335628118
 31
0.0
  0
LINE
  5
18E5
330
18A7
100
AcDbEntity
  8
目盛
100
AcDbLine
 10
20.81102220671841
 20
-9.792923705996827
 30
0.0
 11
19.27281621752615
 21
-9.069098910336151
 31
0.0
  0
LINE
  5
18E6
330
18A7
100
AcDbEntity
  8
目盛
100
AcDbLine
 10
20.15505364100881
 20
-11.08033450433947
 30
0.0
 11
18.66533228493426
 21
-10.26135325836662
 31
0.0
  0
LINE
  5
18E7
330
18A7
100
AcDbEntity
  8
目盛
100
AcDbLine
 10
19.41954228654629
 20
-12.32401628451703
 30
0.0
 11
17.98418481319288
 21
-11.41311073305269
 31
0.0
  0
TEXT
  5
18E8
330
18A7
100
AcDbEntity
  8
文字
100
AcDbText
 10
14.38687239322024
 20
-7.248829071035743
 30
0.0
 40
2.5
  1
30
  7
STYLE3
100
AcDbText
  0
LINE
  5
18E9
330
18A7
100
AcDbEntity
  8
目盛
100
AcDbLine
 10
21.87429987478856
 20
-7.10739087062376
 30
0.0
 11
19.30644728079164
 21
-6.273044985811395
 31
0.0
  0
LINE
  5
18EA
330
18A7
100
AcDbEntity
  8
目盛
100
AcDbLine
 10
21.38485917542971
 20
-8.466864711747803
 30
0.0
 11
19.80423914941974
 21
-7.841052972183774
 31
0.0
  0
LINE
  5
18EB
330
18A7
100
AcDbEntity
  8
目盛
100
AcDbLine
 10
22.81863813023307
 20
-2.882664371979217
 30
0.0
 11
21.13204313799844
 21
-2.669597874919872
 31
0.0
  0
LINE
  5
18EC
330
18A7
100
AcDbEntity
  8
目盛
100
AcDbLine
 10
22.59260676675984
 20
-4.309770235471773
 30
0.0
 11
20.92271844052112
 21
-3.991222000676089
 31
0.0
  0
LINE
  5
18ED
330
18A7
100
AcDbEntity
  8
目盛
100
AcDbLine
 10
22.27741270595851
 20
-5.719867404791784
 30
0.0
 11
20.63082133203989
 21
-5.297094596611543
 31
0.0
  0
LINE
  5
18EE
330
18A7
100
AcDbEntity
  8
目盛
100
AcDbLine
 10
22.95461475385031
 20
-1.444181949174435
 30
0.0
 11
21.25796931552224
 21
-1.337438065974538
 31
0.0
  0
LINE
  5
18EF
330
18A7
100
AcDbEntity
  8
目盛
100
AcDbLine
 10
17.72180458384332
 20
14.66075176421975
 30
0.0
 11
16.41193207112445
 21
13.57713098164697
 31
0.0
  0
LINE
  5
18F0
330
18A7
100
AcDbEntity
  8
目盛
100
AcDbLine
 10
18.60739087062387
 20
13.51906080272681
 30
0.0
 11
16.42304498581149
 21
11.93204062153717
 31
0.0
  0
TEXT
  5
18F1
330
18A7
100
AcDbEntity
  8
文字
100
AcDbText
 10
15.15460443586102
 20
3.229167086961638
 30
0.0
 40
2.5
  1
20
  7
STYLE3
100
AcDbText
  0
LINE
  5
18F2
330
18A7
100
AcDbEntity
  8
目盛
100
AcDbLine
 10
15.74458343636007
 20
16.76627843069229
 30
0.0
 11
14.58085335628129
 21
15.5270317640759
 31
0.0
  0
LINE
  5
18F3
330
18A7
100
AcDbEntity
  8
目盛
100
AcDbLine
 10
14.66075176422015
 20
17.72180458384298
 30
0.0
 11
13.57713098164731
 21
16.41193207112417
 31
0.0
  0
LINE
  5
18F4
330
18A7
100
AcDbEntity
  8
目盛
100
AcDbLine
 10
16.76627843069258
 20
15.74458343635973
 30
0.0
 11
15.5270317640763
 21
14.58085335628095
 31
0.0
  0
LINE
  5
18F5
330
18A7
100
AcDbEntity
  8
目盛
100
AcDbLine
 10
22.59260676676001
 20
4.309770235471432
 30
0.0
 11
20.92271844052124
 21
3.991222000675747
 31
0.0
  0
LINE
  5
18F6
330
18A7
100
AcDbEntity
  8
目盛
100
AcDbLine
 10
22.81863813023307
 20
2.882664371978876
 30
0.0
 11
21.13204313799855
 21
2.669597874919475
 31
0.0
  0
LINE
  5
18F7
330
18A7
100
AcDbEntity
  8
目盛
100
AcDbLine
 10
22.95461475385031
 20
1.444181949174094
 30
0.0
 11
21.2579693155223
 21
1.337438065974254
 31
0.0
  0
LINE
  5
18F8
330
18A7
100
AcDbEntity
  8
目盛
100
AcDbLine
 10
23.00000000000006
 20
0.0
 30
0.0
 11
20.30000000000007
 21
0.0
 31
0.0
  0
LINE
  5
18F9
330
18A7
100
AcDbEntity
  8
目盛
100
AcDbLine
 10
20.15505364100909
 20
11.08033450433925
 30
0.0
 11
18.66533228493449
 21
10.26135325836634
 31
0.0
  0
LINE
  5
18FA
330
18A7
100
AcDbEntity
  8
目盛
100
AcDbLine
 10
21.87429987478862
 20
7.10739087062376
 30
0.0
 11
19.3064472807917
 21
6.273044985811452
 31
0.0
  0
LINE
  5
18FB
330
18A7
100
AcDbEntity
  8
目盛
100
AcDbLine
 10
22.27741270595874
 20
5.719867404791443
 30
0.0
 11
20.63082133204
 21
5.297094596611259
 31
0.0
  0
LINE
  5
18FC
330
18A7
100
AcDbEntity
  8
目盛
100
AcDbLine
 10
20.81102220671852
 20
9.792923705996543
 30
0.0
 11
19.27281621752633
 21
9.069098910335924
 31
0.0
  0
LINE
  5
18FD
330
18A7
100
AcDbEntity
  8
目盛
100
AcDbLine
 10
21.38485917542988
 20
8.466864711747462
 30
0.0
 11
19.80423914941986
 21
7.84105297218349
 31
0.0
  0
LINE
  5
18FE
330
18A7
100
AcDbEntity
  8
目盛
100
AcDbLine
 10
19.41954228654657
 20
12.32401628451669
 30
0.0
 11
17.98418481319311
 21
11.41311073305246
 31
0.0
  0
LINE
  5
18FF
330
18A7
100
AcDbEntity
  8
目盛
100
AcDbLine
 10
13.51906080272698
 20
18.60739087062382
 30
0.0
 11
11.93204062153728
 21
16.42304498581143
 31
0.0
  0
TEXT
  5
1900
330
18A7
100
AcDbEntity
  8
文字
100
AcDbText
 10
8.199900625285465
 20
12.81951309573424
 30
0.0
 40
2.5
  1
10
  7
STYLE3
100
AcDbText
  0
LINE
  5
1901
330
18A7
100
AcDbEntity
  8
目盛
100
AcDbLine
 10
12.32401628451708
 20
19.41954228654617
 30
0.0
 11
11.4131107330528
 21
17.98418481319282
 31
0.0
  0
LINE
  5
1902
330
18A7
100
AcDbEntity
  8
目盛
100
AcDbLine
 10
9.79292370599694
 20
20.81102220671835
 30
0.0
 11
9.069098910336265
 21
19.27281621752615
 31
0.0
  0
LINE
  5
1903
330
18A7
100
AcDbEntity
  8
目盛
100
AcDbLine
 10
8.466864711747859
 20
21.38485917542971
 30
0.0
 11
7.841052972183831
 21
19.80423914941968
 31
0.0
  0
LINE
  5
1904
330
18A7
100
AcDbEntity
  8
目盛
100
AcDbLine
 10
11.08033450433953
 20
20.15505364100875
 30
0.0
 11
10.26135325836668
 21
18.66533228493426
 31
0.0
  0
LINE
  5
1905
330
18A7
100
AcDbEntity
  8
目盛
100
AcDbLine
 10
-13.51906080272681
 20
18.60739087062376
 30
0.0
 11
-11.93204062153717
 21
16.42304498581149
 31
0.0
  0
LINE
  5
1906
330
18A7
100
AcDbEntity
  8
目盛
100
AcDbLine
 10
-7.107390870623703
 20
21.8742998747885
 30
0.0
 11
-6.273044985811338
 21
19.30644728079158
 31
0.0
  0
LINE
  5
1907
330
18A7
100
AcDbEntity
  8
目盛
100
AcDbLine
 10
-12.32401628451669
 20
19.41954228654646
 30
0.0
 11
-11.41311073305246
 21
17.98418481319299
 31
0.0
  0
LINE
  5
1908
330
18A7
100
AcDbEntity
  8
目盛
100
AcDbLine
 10
-11.08033450433925
 20
20.15505364100903
 30
0.0
 11
-10.26135325836634
 21
18.66533228493443
 31
0.0
  0
LINE
  5
1909
330
18A7
100
AcDbEntity
  8
目盛
100
AcDbLine
 10
-9.792923705996486
 20
20.81102220671846
 30
0.0
 11
-9.069098910335867
 21
19.27281621752633
 31
0.0
  0
LINE
  5
190A
330
18A7
100
AcDbEntity
  8
目盛
100
AcDbLine
 10
-8.466864711747405
 20
21.38485917542983
 30
0.0
 11
-7.841052972183433
 21
19.80423914941986
 31
0.0
  0
LINE
  5
190B
330
18A7
100
AcDbEntity
  8
目盛
100
AcDbLine
 10
-4.309770235471432
 20
22.5926067667599
 30
0.0
 11
-3.991222000675747
 21
20.92271844052112
 31
0.0
  0
LINE
  5
190C
330
18A7
100
AcDbEntity
  8
目盛
100
AcDbLine
 10
-2.882664371978819
 20
22.81863813023301
 30
0.0
 11
-2.669597874919475
 21
21.13204313799844
 31
0.0
  0
LINE
  5
190D
330
18A7
100
AcDbEntity
  8
目盛
100
AcDbLine
 10
-1.44418194917398
 20
22.95461475385019
 30
0.0
 11
-1.337438065974197
 21
21.25796931552219
 31
0.0
  0
LINE
  5
190E
330
18A7
100
AcDbEntity
  8
目盛
100
AcDbLine
 10
0.0000000000000568
 20
23.0
 30
0.0
 11
0.0000000000000568
 21
20.30000000000001
 31
0.0
  0
LINE
  5
190F
330
18A7
100
AcDbEntity
  8
目盛
100
AcDbLine
 10
-5.719867404791386
 20
22.27741270595863
 30
0.0
 11
-5.297094596611202
 21
20.63082133203989
 31
0.0
  0
TEXT
  5
1910
330
18A7
100
AcDbEntity
  8
文字
100
AcDbText
 10
-1.214310522448897
 20
16.74100786367
 30
0.0
 40
2.5
  1
0
  7
STYLE3
100
AcDbText
  0
LINE
  5
1911
330
18A7
100
AcDbEntity
  8
目盛
100
AcDbLine
 10
1.444181949174492
 20
22.95461475385025
 30
0.0
 11
1.337438065974595
 21
21.25796931552219
 31
0.0
  0
LINE
  5
1912
330
18A7
100
AcDbEntity
  8
目盛
100
AcDbLine
 10
2.882664371979274
 20
22.81863813023301
 30
0.0
 11
2.669597874919929
 21
21.13204313799838
 31
0.0
  0
LINE
  5
1913
330
18A7
100
AcDbEntity
  8
目盛
100
AcDbLine
 10
4.30977023547183
 20
22.59260676675979
 30
0.0
 11
3.991222000676145
 21
20.92271844052107
 31
0.0
  0
LINE
  5
1914
330
18A7
100
AcDbEntity
  8
目盛
100
AcDbLine
 10
5.719867404791841
 20
22.27741270595846
 30
0.0
 11
5.2970945966116
 21
20.63082133203983
 31
0.0
  0
LINE
  5
1915
330
18A7
100
AcDbEntity
  8
目盛
100
AcDbLine
 10
7.107390870623873
 20
21.8742998747885
 30
0.0
 11
6.273044985811509
 21
19.30644728079158
 31
0.0
  0
ENDBLK
  5
1917
330
18A7
100
AcDbEntity
  8
0
100
AcDbBlockEnd
  0
BLOCK
  5
1C1B
330
1C04
100
AcDbEntity
  8
0
100
AcDbBlockBegin
  2
*D12
 70
     1
 10
0.0
 20
0.0
 30
0.0
  3
*D12
  1

  0
LINE
  5
2193
330
1C04
100
AcDbEntity
  8
文字
 62
     2
370
    -2
100
AcDbLine
 10
62.53792678759641
 20
164.0021098332534
 30
0.0
 11
81.53711822775189
 21
164.0021098332533
 31
0.0
  0
LINE
  5
2194
330
1C04
100
AcDbEntity
  8
文字
 62
     2
370
    -2
100
AcDbLine
 10
62.53792678759641
 20
111.2021098332534
 30
0.0
 11
81.53711822775187
 21
111.2021098332534
 31
0.0
  0
LINE
  5
2195
330
1C04
100
AcDbEntity
  8
文字
 62
     2
370
    -2
100
AcDbLine
 10
80.28711822775189
 20
161.5021098332533
 30
0.0
 11
80.28711822775187
 21
113.7021098332534
 31
0.0
  0
INSERT
  5
2196
330
1C04
100
AcDbEntity
  8
文字
 62
     2
370
    -2
100
AcDbBlockReference
  2
_OPEN
 10
80.28711822775189
 20
164.0021098332533
 30
0.0
 41
2.5
 42
2.5
 43
2.5
 50
90.0
  0
INSERT
  5
2197
330
1C04
100
AcDbEntity
  8
文字
 62
     2
370
    -2
100
AcDbBlockReference
  2
_OPEN
 10
80.28711822775187
 20
111.2021098332534
 30
0.0
 41
2.5
 42
2.5
 43
2.5
 50
270.0
  0
MTEXT
  5
2198
330
1C04
100
AcDbEntity
  8
文字
 62
     6
100
AcDbMText
 10
78.41211822775186
 20
137.6021098332534
 30
0.0
 40
2.5
 41
0.0
 71
     5
 72
     1
  1
\A1;φ53
  7
STYLE3
 11
0.0000000000000001
 21
1.0
 31
0.0
 73
     1
 44
1.0
  0
POINT
  5
2199
330
1C04
100
AcDbEntity
  8
DEFPOINTS
 62
     0
100
AcDbPoint
 10
62.53792678759641
 20
164.0021098332534
 30
0.0
  0
POINT
  5
219A
330
1C04
100
AcDbEntity
  8
DEFPOINTS
 62
     0
100
AcDbPoint
 10
62.53792678759641
 20
111.2021098332534
 30
0.0
  0
POINT
  5
219B
330
1C04
100
AcDbEntity
  8
DEFPOINTS
 62
     0
100
AcDbPoint
 10
80.28711822775187
 20
111.2021098332534
 30
0.0
  0
ENDBLK
  5
1C25
330
1C04
100
AcDbEntity
  8
0
100
AcDbBlockEnd
  0
BLOCK
  5
1D0E
330
1D0D
100
AcDbEntity
  8
0
100
AcDbBlockBegin
  2
*D14
 70
     1
 10
0.0
 20
0.0
 30
0.0
  3
*D14
  1

  0
LINE
  5
21A4
330
1D0D
100
AcDbEntity
  8
外形線
 62
     2
370
    -2
100
AcDbLine
 10
108.4859844709936
 20
137.6021098332534
 30
0.0
 11
105.3470884185981
 21
137.6021098332534
 31
0.0
  0
LINE
  5
21A5
330
1D0D
100
AcDbEntity
  8
外形線
 62
     2
370
    -2
100
AcDbLine
 10
132.5285790055945
 20
110.6021098332534
 30
0.0
 11
105.3470884185981
 21
110.6021098332534
 31
0.0
  0
LINE
  5
21A6
330
1D0D
100
AcDbEntity
  8
外形線
 62
     2
370
    -2
100
AcDbLine
 10
106.5970884185981
 20
135.1021098332534
 30
0.0
 11
106.5970884185981
 21
113.1021098332534
 31
0.0
  0
INSERT
  5
21A7
330
1D0D
100
AcDbEntity
  8
外形線
 62
     2
370
    -2
100
AcDbBlockReference
  2
_OPEN
 10
106.5970884185981
 20
137.6021098332534
 30
0.0
 41
2.5
 42
2.5
 43
2.5
 50
90.0
  0
INSERT
  5
21A8
330
1D0D
100
AcDbEntity
  8
外形線
 62
     2
370
    -2
100
AcDbBlockReference
  2
_OPEN
 10
106.5970884185981
 20
110.6021098332534
 30
0.0
 41
2.5
 42
2.5
 43
2.5
 50
270.0
  0
MTEXT
  5
21A9
330
1D0D
100
AcDbEntity
  8
外形線
 62
     6
100
AcDbMText
 10
104.7220884185981
 20
124.1021098332534
 30
0.0
 40
2.5
 41
0.0
 71
     5
 72
     1
  1
\A1;27
  7
STYLE3
 11
0.0000000000000001
 21
1.0
 31
0.0
 73
     1
 44
1.0
  0
POINT
  5
21AA
330
1D0D
100
AcDbEntity
  8
DEFPOINTS
 62
     0
100
AcDbPoint
 10
108.4859844709936
 20
137.6021098332534
 30
0.0
  0
POINT
  5
21AB
330
1D0D
100
AcDbEntity
  8
DEFPOINTS
 62
     0
100
AcDbPoint
 10
132.5285790055945
 20
110.6021098332534
 30
0.0
  0
POINT
  5
21AC
330
1D0D
100
AcDbEntity
  8
DEFPOINTS
 62
     0
100
AcDbPoint
 10
106.5970884185981
 20
110.6021098332534
 30
0.0
  0
ENDBLK
  5
1D18
330
1D0D
100
AcDbEntity
  8
0
100
AcDbBlockEnd
  0
BLOCK
  5
1D1B
330
1D1A
100
AcDbEntity
  8
0
100
AcDbBlockBegin
  2
*D15
 70
     1
 10
0.0
 20
0.0
 30
0.0
  3
*D15
  1

  0
LINE
  5
219C
330
1D1A
100
AcDbEntity
  8
外形線
 62
     2
370
    -2
100
AcDbLine
 10
132.5285790055945
 20
92.6021098332534
 30
0.0
 11
105.3470884185981
 21
92.6021098332534
 31
0.0
  0
LINE
  5
219D
330
1D1A
100
AcDbEntity
  8
外形線
 62
     2
370
    -2
100
AcDbLine
 10
106.5970884185981
 20
108.1021098332534
 30
0.0
 11
106.5970884185981
 21
95.1021098332534
 31
0.0
  0
INSERT
  5
219E
330
1D1A
100
AcDbEntity
  8
外形線
 62
     2
370
    -2
100
AcDbBlockReference
  2
_OPEN
 10
106.5970884185981
 20
110.6021098332534
 30
0.0
 41
2.5
 42
2.5
 43
2.5
 50
90.0
  0
INSERT
  5
219F
330
1D1A
100
AcDbEntity
  8
外形線
 62
     2
370
    -2
100
AcDbBlockReference
  2
_OPEN
 10
106.5970884185981
 20
92.6021098332534
 30
0.0
 41
2.5
 42
2.5
 43
2.5
 50
270.0
  0
MTEXT
  5
21A0
330
1D1A
100
AcDbEntity
  8
外形線
 62
     6
100
AcDbMText
 10
104.7220884185981
 20
101.6021098332534
 30
0.0
 40
2.5
 41
0.0
 71
     5
 72
     1
  1
\A1;18
  7
STYLE3
 11
0.0000000000000001
 21
1.0
 31
0.0
 73
     1
 44
1.0
  0
POINT
  5
21A1
330
1D1A
100
AcDbEntity
  8
DEFPOINTS
 62
     0
100
AcDbPoint
 10
132.5285790055945
 20
110.6021098332534
 30
0.0
  0
POINT
  5
21A2
330
1D1A
100
AcDbEntity
  8
DEFPOINTS
 62
     0
100
AcDbPoint
 10
132.5285790055945
 20
92.6021098332534
 30
0.0
  0
POINT
  5
21A3
330
1D1A
100
AcDbEntity
  8
DEFPOINTS
 62
     0
100
AcDbPoint
 10
106.5970884185981
 20
92.6021098332534
 30
0.0
  0
ENDBLK
  5
1D24
330
1D1A
100
AcDbEntity
  8
0
100
AcDbBlockEnd
  0
BLOCK
  5
1FE0
330
1FDF
100
AcDbEntity
  8
0
100
AcDbBlockBegin
  2
*D17
 70
     1
 10
0.0
 20
0.0
 30
0.0
  3
*D17
  1

  0
LINE
  5
218A
330
1FDF
100
AcDbEntity
  8
寸法線
 62
     2
370
    -2
100
AcDbLine
 10
137.4785790055945
 20
171.6021098332534
 30
0.0
 11
105.3470884185981
 21
171.6021098332534
 31
0.0
  0
LINE
  5
218B
330
1FDF
100
AcDbEntity
  8
寸法線
 62
     2
370
    -2
100
AcDbLine
 10
107.9446621435638
 20
137.6021098332534
 30
0.0
 11
105.3470884185981
 21
137.6021098332534
 31
0.0
  0
LINE
  5
218C
330
1FDF
100
AcDbEntity
  8
寸法線
 62
     2
370
    -2
100
AcDbLine
 10
106.5970884185981
 20
169.1021098332534
 30
0.0
 11
106.5970884185981
 21
140.1021098332534
 31
0.0
  0
INSERT
  5
218D
330
1FDF
100
AcDbEntity
  8
寸法線
 62
     2
370
    -2
100
AcDbBlockReference
  2
_OPEN
 10
106.5970884185981
 20
171.6021098332534
 30
0.0
 41
2.5
 42
2.5
 43
2.5
 50
90.0
  0
INSERT
  5
218E
330
1FDF
100
AcDbEntity
  8
寸法線
 62
     2
370
    -2
100
AcDbBlockReference
  2
_OPEN
 10
106.5970884185981
 20
137.6021098332534
 30
0.0
 41
2.5
 42
2.5
 43
2.5
 50
270.0
  0
MTEXT
  5
218F
330
1FDF
100
AcDbEntity
  8
寸法線
 62
     6
100
AcDbMText
 10
104.7220884185981
 20
154.6021098332534
 30
0.0
 40
2.5
 41
0.0
 71
     5
 72
     1
  1
\A1;34
  7
STYLE3
 11
0.0000000000000001
 21
1.0
 31
0.0
 73
     1
 44
1.0
  0
POINT
  5
2190
330
1FDF
100
AcDbEntity
  8
DEFPOINTS
 62
     0
100
AcDbPoint
 10
137.4785790055945
 20
171.6021098332534
 30
0.0
  0
POINT
  5
2191
330
1FDF
100
AcDbEntity
  8
DEFPOINTS
 62
     0
100
AcDbPoint
 10
107.9446621435638
 20
137.6021098332534
 30
0.0
  0
POINT
  5
2192
330
1FDF
100
AcDbEntity
  8
DEFPOINTS
 62
     0
100
AcDbPoint
 10
106.5970884185981
 20
137.6021098332534
 30
0.0
  0
ENDBLK
  5
1FEA
330
1FDF
100
AcDbEntity
  8
0
100
AcDbBlockEnd
  0
BLOCK
  5
1FEE
330
1FED
100
AcDbEntity
  8
0
100
AcDbBlockBegin
  2
*D18
 70
     1
 10
0.0
 20
0.0
 30
0.0
  3
*D18
  1

  0
LINE
  5
21D0
330
1FED
100
AcDbEntity
  8
寸法線
 62
     2
370
    -2
100
AcDbLine
 10
152.5285790055945
 20
92.6021098332534
 30
0.0
 11
208.6852635770612
 21
92.60210983325338
 31
0.0
  0
LINE
  5
21D1
330
1FED
100
AcDbEntity
  8
寸法線
 62
     2
370
    -2
100
AcDbLine
 10
180.8883073690541
 20
74.3021098332534
 30
0.0
 11
208.6852635770612
 21
74.3021098332534
 31
0.0
  0
LINE
  5
21D2
330
1FED
100
AcDbEntity
  8
寸法線
 62
     2
370
    -2
100
AcDbLine
 10
207.4352635770611
 20
90.10210983325338
 30
0.0
 11
207.4352635770611
 21
76.8021098332534
 31
0.0
  0
INSERT
  5
21D3
330
1FED
100
AcDbEntity
  8
寸法線
 62
     2
370
    -2
100
AcDbBlockReference
  2
_OPEN
 10
207.4352635770611
 20
92.60210983325338
 30
0.0
 41
2.5
 42
2.5
 43
2.5
 50
90.0
  0
INSERT
  5
21D4
330
1FED
100
AcDbEntity
  8
寸法線
 62
     2
370
    -2
100
AcDbBlockReference
  2
_OPEN
 10
207.4352635770611
 20
74.3021098332534
 30
0.0
 41
2.5
 42
2.5
 43
2.5
 50
270.0
  0
MTEXT
  5
21D5
330
1FED
100
AcDbEntity
  8
寸法線
 62
     6
100
AcDbMText
 10
205.5602635770611
 20
83.45210983325342
 30
0.0
 40
2.5
 41
0.0
 71
     5
 72
     1
  1
\A1;18.3
  7
STYLE3
 11
0.0000000000000001
 21
1.0
 31
0.0
 73
     1
 44
1.0
  0
POINT
  5
21D6
330
1FED
100
AcDbEntity
  8
DEFPOINTS
 62
     0
100
AcDbPoint
 10
152.5285790055945
 20
92.6021098332534
 30
0.0
  0
POINT
  5
21D7
330
1FED
100
AcDbEntity
  8
DEFPOINTS
 62
     0
100
AcDbPoint
 10
180.8883073690541
 20
74.3021098332534
 30
0.0
  0
POINT
  5
21D8
330
1FED
100
AcDbEntity
  8
DEFPOINTS
 62
     0
100
AcDbPoint
 10
207.4352635770611
 20
74.3021098332534
 30
0.0
  0
ENDBLK
  5
1FF8
330
1FED
100
AcDbEntity
  8
0
100
AcDbBlockEnd
  0
BLOCK
  5
1FFB
330
1FFA
100
AcDbEntity
  8
0
100
AcDbBlockBegin
  2
*D19
 70
     1
 10
0.0
 20
0.0
 30
0.0
  3
*D19
  1

  0
LINE
  5
21B6
330
1FFA
100
AcDbEntity
  8
寸法線
 62
     2
370
    -2
100
AcDbLine
 10
176.0285790055946
 20
42.30210983325337
 30
0.0
 11
208.6852635770612
 21
42.30210983325336
 31
0.0
  0
LINE
  5
21B7
330
1FFA
100
AcDbEntity
  8
寸法線
 62
     2
370
    -2
100
AcDbLine
 10
207.4352635770612
 20
71.8021098332534
 30
0.0
 11
207.4352635770611
 21
44.80210983325337
 31
0.0
  0
INSERT
  5
21B8
330
1FFA
100
AcDbEntity
  8
寸法線
 62
     2
370
    -2
100
AcDbBlockReference
  2
_OPEN
 10
207.4352635770612
 20
74.3021098332534
 30
0.0
 41
2.5
 42
2.5
 43
2.5
 50
90.0
  0
INSERT
  5
21B9
330
1FFA
100
AcDbEntity
  8
寸法線
 62
     2
370
    -2
100
AcDbBlockReference
  2
_OPEN
 10
207.4352635770611
 20
42.30210983325337
 30
0.0
 41
2.5
 42
2.5
 43
2.5
 50
270.0
  0
MTEXT
  5
21BA
330
1FFA
100
AcDbEntity
  8
寸法線
 62
     6
100
AcDbMText
 10
205.5602635770612
 20
58.30210983325341
 30
0.0
 40
2.5
 41
0.0
 71
     5
 72
     1
  1
\A1;32
  7
STYLE3
 11
0.0000000000000001
 21
1.0
 31
0.0
 73
     1
 44
1.0
  0
POINT
  5
21BB
330
1FFA
100
AcDbEntity
  8
DEFPOINTS
 62
     0
100
AcDbPoint
 10
180.8883073690541
 20
74.3021098332534
 30
0.0
  0
POINT
  5
21BC
330
1FFA
100
AcDbEntity
  8
DEFPOINTS
 62
     0
100
AcDbPoint
 10
176.0285790055946
 20
42.30210983325337
 30
0.0
  0
POINT
  5
21BD
330
1FFA
100
AcDbEntity
  8
DEFPOINTS
 62
     0
100
AcDbPoint
 10
207.4352635770611
 20
42.30210983325337
 30
0.0
  0
ENDBLK
  5
2004
330
1FFA
100
AcDbEntity
  8
0
100
AcDbBlockEnd
  0
BLOCK
  5
2013
330
2006
100
AcDbEntity
  8
0
100
AcDbBlockBegin
  2
*D20
 70
     1
 10
0.0
 20
0.0
 30
0.0
  3
*D20
  1

  0
LINE
  5
21C7
330
2006
100
AcDbEntity
  8
寸法線
 62
     2
370
    -2
100
AcDbLine
 10
141.5285790055945
 20
36.73415320335739
 30
0.0
 11
141.5285790055945
 21
27.89915422022983
 31
0.0
  0
LINE
  5
21C8
330
2006
100
AcDbEntity
  8
寸法線
 62
     2
370
    -2
100
AcDbLine
 10
171.5285790055945
 20
37.29110695225653
 30
0.0
 11
171.5285790055945
 21
27.89915422022983
 31
0.0
  0
LINE
  5
21C9
330
2006
100
AcDbEntity
  8
寸法線
 62
     2
370
    -2
100
AcDbLine
 10
144.0285790055945
 20
29.14915422022983
 30
0.0
 11
169.0285790055945
 21
29.14915422022983
 31
0.0
  0
INSERT
  5
21CA
330
2006
100
AcDbEntity
  8
寸法線
 62
     2
370
    -2
100
AcDbBlockReference
  2
_OPEN
 10
141.5285790055945
 20
29.14915422022983
 30
0.0
 41
2.5
 42
2.5
 43
2.5
 50
180.0
  0
INSERT
  5
21CB
330
2006
100
AcDbEntity
  8
寸法線
 62
     2
370
    -2
100
AcDbBlockReference
  2
_OPEN
 10
171.5285790055945
 20
29.14915422022983
 30
0.0
 41
2.5
 42
2.5
 43
2.5
  0
MTEXT
  5
21CC
330
2006
100
AcDbEntity
  8
寸法線
 62
     6
100
AcDbMText
 10
156.5285790055945
 20
31.02415422022983
 30
0.0
 40
2.5
 41
0.0
 71
     5
 72
     1
  1
\A1;30
  7
STYLE3
 73
     1
 44
1.0
  0
POINT
  5
21CD
330
2006
100
AcDbEntity
  8
DEFPOINTS
 62
     0
100
AcDbPoint
 10
141.5285790055945
 20
36.73415320335739
 30
0.0
  0
POINT
  5
21CE
330
2006
100
AcDbEntity
  8
DEFPOINTS
 62
     0
100
AcDbPoint
 10
171.5285790055945
 20
37.29110695225653
 30
0.0
  0
POINT
  5
21CF
330
2006
100
AcDbEntity
  8
DEFPOINTS
 62
     0
100
AcDbPoint
 10
171.5285790055945
 20
29.14915422022983
 30
0.0
  0
ENDBLK
  5
201D
330
2006
100
AcDbEntity
  8
0
100
AcDbBlockEnd
  0
BLOCK
  5
202B
330
201E
100
AcDbEntity
  8
0
100
AcDbBlockBegin
  2
*D21
 70
     1
 10
0.0
 20
0.0
 30
0.0
  3
*D21
  1

  0
LINE
  5
21BE
330
201E
100
AcDbEntity
  8
寸法線
 62
     2
370
    -2
100
AcDbLine
 10
166.5285790055945
 20
42.80210983325338
 30
0.0
 11
166.5285790055945
 21
33.92572123186056
 31
0.0
  0
LINE
  5
21BF
330
201E
100
AcDbEntity
  8
寸法線
 62
     2
370
    -2
100
AcDbLine
 10
176.5285790055946
 20
42.80210983325337
 30
0.0
 11
176.5285790055946
 21
33.92572123186056
 31
0.0
  0
LINE
  5
21C0
330
201E
100
AcDbEntity
  8
寸法線
 62
     2
370
    -2
100
AcDbLine
 10
169.0285790055945
 20
35.17572123186056
 30
0.0
 11
174.0285790055946
 21
35.17572123186056
 31
0.0
  0
INSERT
  5
21C1
330
201E
100
AcDbEntity
  8
寸法線
 62
     2
370
    -2
100
AcDbBlockReference
  2
_OPEN
 10
166.5285790055945
 20
35.17572123186056
 30
0.0
 41
2.5
 42
2.5
 43
2.5
 50
180.0
  0
INSERT
  5
21C2
330
201E
100
AcDbEntity
  8
寸法線
 62
     2
370
    -2
100
AcDbBlockReference
  2
_OPEN
 10
176.5285790055946
 20
35.17572123186056
 30
0.0
 41
2.5
 42
2.5
 43
2.5
  0
MTEXT
  5
21C3
330
201E
100
AcDbEntity
  8
寸法線
 62
     6
100
AcDbMText
 10
171.5285790055945
 20
37.05072123186056
 30
0.0
 40
2.5
 41
0.0
 71
     5
 72
     1
  1
\A1;φ10
  7
STYLE3
 73
     1
 44
1.0
  0
POINT
  5
21C4
330
201E
100
AcDbEntity
  8
DEFPOINTS
 62
     0
100
AcDbPoint
 10
166.5285790055945
 20
42.80210983325338
 30
0.0
  0
POINT
  5
21C5
330
201E
100
AcDbEntity
  8
DEFPOINTS
 62
     0
100
AcDbPoint
 10
176.5285790055946
 20
42.80210983325337
 30
0.0
  0
POINT
  5
21C6
330
201E
100
AcDbEntity
  8
DEFPOINTS
 62
     0
100
AcDbPoint
 10
176.5285790055946
 20
35.17572123186056
 30
0.0
  0
ENDBLK
  5
2035
330
201E
100
AcDbEntity
  8
0
100
AcDbBlockEnd
  0
BLOCK
  5
2050
330
2043
100
AcDbEntity
  8
0
100
AcDbBlockBegin
  2
*D22
 70
     1
 10
0.0
 20
0.0
 30
0.0
  3
*D22
  1

  0
LINE
  5
21D9
330
2043
100
AcDbEntity
  8
寸法線
 62
     2
370
    -2
100
AcDbLine
 10
146.5285790055945
 20
86.4021098332534
 30
0.0
 11
155.0743370589359
 21
86.4021098332534
 31
0.0
  0
LINE
  5
21DA
330
2043
100
AcDbEntity
  8
寸法線
 62
     2
370
    -2
100
AcDbLine
 10
146.5285790055945
 20
64.11270823388555
 30
0.0
 11
155.0743370589359
 21
64.11270823388555
 31
0.0
  0
LINE
  5
21DB
330
2043
100
AcDbEntity
  8
寸法線
 62
     2
370
    -2
100
AcDbLine
 10
153.8243370589359
 20
83.9021098332534
 30
0.0
 11
153.8243370589359
 21
66.61270823388555
 31
0.0
  0
INSERT
  5
21DC
330
2043
100
AcDbEntity
  8
寸法線
 62
     2
370
    -2
100
AcDbBlockReference
  2
_OPEN
 10
153.8243370589359
 20
86.4021098332534
 30
0.0
 41
2.5
 42
2.5
 43
2.5
 50
90.0
  0
INSERT
  5
21DD
330
2043
100
AcDbEntity
  8
寸法線
 62
     2
370
    -2
100
AcDbBlockReference
  2
_OPEN
 10
153.8243370589359
 20
64.11270823388555
 30
0.0
 41
2.5
 42
2.5
 43
2.5
 50
270.0
  0
MTEXT
  5
21DE
330
2043
100
AcDbEntity
  8
寸法線
 62
     6
100
AcDbMText
 10
151.9493370589359
 20
75.25740903356949
 30
0.0
 40
2.5
 41
0.0
 71
     5
 72
     1
  1
\A1;0～30
  7
STYLE3
 11
0.0000000000000001
 21
1.0
 31
0.0
 73
     1
 44
1.0
  0
POINT
  5
21DF
330
2043
100
AcDbEntity
  8
DEFPOINTS
 62
     0
100
AcDbPoint
 10
146.5285790055945
 20
86.4021098332534
 30
0.0
  0
POINT
  5
21E0
330
2043
100
AcDbEntity
  8
DEFPOINTS
 62
     0
100
AcDbPoint
 10
146.5285790055945
 20
64.11270823388555
 30
0.0
  0
POINT
  5
21E1
330
2043
100
AcDbEntity
  8
DEFPOINTS
 62
     0
100
AcDbPoint
 10
153.8243370589359
 20
64.11270823388555
 30
0.0
  0
ENDBLK
  5
205A
330
2043
100
AcDbEntity
  8
0
100
AcDbBlockEnd
  0
BLOCK
  5
205C
330
205B
100
AcDbEntity
  8
0
100
AcDbBlockBegin
  2
*D23
 70
     1
 10
0.0
 20
0.0
 30
0.0
  3
*D23
  1

  0
LINE
  5
21AD
330
205B
100
AcDbEntity
  8
寸法線
 62
     2
370
    -2
100
AcDbLine
 10
163.5285790055945
 20
74.3021098332534
 30
0.0
 11
163.5285790055945
 21
33.97881215141047
 31
0.0
  0
LINE
  5
21AE
330
205B
100
AcDbEntity
  8
寸法線
 62
     2
370
    -2
100
AcDbLine
 10
141.5285790055946
 20
35.91325834164019
 30
0.0
 11
141.5285790055946
 21
33.97881215141047
 31
0.0
  0
LINE
  5
21AF
330
205B
100
AcDbEntity
  8
寸法線
 62
     2
370
    -2
100
AcDbLine
 10
161.0285790055945
 20
35.22881215141047
 30
0.0
 11
144.0285790055946
 21
35.22881215141047
 31
0.0
  0
INSERT
  5
21B0
330
205B
100
AcDbEntity
  8
寸法線
 62
     2
370
    -2
100
AcDbBlockReference
  2
_OPEN
 10
163.5285790055945
 20
35.22881215141047
 30
0.0
 41
2.5
 42
2.5
 43
2.5
  0
INSERT
  5
21B1
330
205B
100
AcDbEntity
  8
寸法線
 62
     2
370
    -2
100
AcDbBlockReference
  2
_OPEN
 10
141.5285790055946
 20
35.22881215141047
 30
0.0
 41
2.5
 42
2.5
 43
2.5
 50
180.0
  0
MTEXT
  5
21B2
330
205B
100
AcDbEntity
  8
寸法線
 62
     6
100
AcDbMText
 10
152.5285790055946
 20
37.10381215141047
 30
0.0
 40
2.5
 41
0.0
 71
     5
 72
     1
  1
\A1;22
  7
STYLE3
 73
     1
 44
1.0
  0
POINT
  5
21B3
330
205B
100
AcDbEntity
  8
DEFPOINTS
 62
     0
100
AcDbPoint
 10
163.5285790055945
 20
74.3021098332534
 30
0.0
  0
POINT
  5
21B4
330
205B
100
AcDbEntity
  8
DEFPOINTS
 62
     0
100
AcDbPoint
 10
141.5285790055946
 20
35.91325834164019
 30
0.0
  0
POINT
  5
21B5
330
205B
100
AcDbEntity
  8
DEFPOINTS
 62
     0
100
AcDbPoint
 10
141.5285790055946
 20
35.22881215141047
 30
0.0
  0
ENDBLK
  5
2066
330
205B
100
AcDbEntity
  8
0
100
AcDbBlockEnd
  0
ENDSEC
  0
SECTION
  2
ENTITIES
  0
LWPOLYLINE
  5
26C
330
18
100
AcDbEntity
  8
C
100
AcDbPolyline
 90
        5
 70
     0
 43
0.4
 10
0.0
 20
195.0
 10
255.0
 20
195.0
 10
255.0
 20
0.0
 10
0.0
 20
0.0
 10
0.0
 20
195.0
  0
MTEXT
  5
638
330
18
100
AcDbEntity
  8
DEFPOINTS
  6
Continuous
100
AcDbMText
 10
925.5233116574627
 20
355.2589711284398
 30
0.0
 40
1.0
 41
0.0
 71
     4
 72
     1
  1
\A1;
 73
     1
 44
1.0
  0
MTEXT
  5
691
330
18
100
AcDbEntity
  8
文字
100
AcDbMText
 10
492.6625212154621
 20
381.3369533666739
 30
0.0
 40
1.0
 41
6.927999999999999
 71
     1
 72
     5
  1

  7
STYLE3
 73
     1
 44
1.0
  0
MTEXT
  5
6F0
330
18
100
AcDbEntity
  8
DEFPOINTS
  6
Continuous
100
AcDbMText
 10
814.3983308706037
 20
304.5845046541248
 30
0.0
 40
0.35
 41
0.0
 71
     4
 72
     1
  1
\A1;
 73
     1
 44
1.0
  0
MTEXT
  5
CC5
330
18
100
AcDbEntity
  8
DEFPOINTS
  6
Continuous
100
AcDbMText
 10
710.4729546088115
 20
331.694457677123
 30
0.0
 40
1.0
 41
0.0
 71
     4
 72
     1
  1
\A1;
 73
     1
 44
1.0
  0
MTEXT
  5
D1E
330
18
100
AcDbEntity
  8
文字
100
AcDbMText
 10
277.612164166811
 20
357.7724399153571
 30
0.0
 40
1.0
 41
6.927999999999999
 71
     1
 72
     5
  1

  7
STYLE3
 73
     1
 44
1.0
  0
MTEXT
  5
D7D
330
18
100
AcDbEntity
  8
DEFPOINTS
  6
Continuous
100
AcDbMText
 10
599.3479738219526
 20
281.019991202808
 30
0.0
 40
0.35
 41
0.0
 71
     4
 72
     1
  1
\A1;
 73
     1
 44
1.0
  0
MTEXT
  5
14A5
330
18
100
AcDbEntity
  8
DEFPOINTS
  6
Continuous
100
AcDbMText
 10
1025.567307082712
 20
154.6779584459976
 30
0.0
 40
1.0
 41
0.0
 71
     4
 72
     1
  1
\A1;
 73
     1
 44
1.0
  0
MTEXT
  5
14A9
330
18
100
AcDbEntity
  8
文字
100
AcDbMText
 10
592.7065166407121
 20
180.7559406842317
 30
0.0
 40
1.0
 41
6.927999999999999
 71
     1
 72
     5
  1

  7
STYLE3
 73
     1
 44
1.0
  0
MTEXT
  5
14AA
330
18
100
AcDbEntity
  8
DEFPOINTS
  6
Continuous
100
AcDbMText
 10
914.4423262958536
 20
104.0034919716825
 30
0.0
 40
0.35
 41
0.0
 71
     4
 72
     1
  1
\A1;
 73
     1
 44
1.0
  0
MTEXT
  5
1591
330
18
100
AcDbEntity
  8
DEFPOINTS
  6
Continuous
100
AcDbMText
 10
1120.36654932847
 20
257.9884247945498
 30
0.0
 40
1.0
 41
0.0
 71
     4
 72
     1
  1
\A1;
 73
     1
 44
1.0
  0
MTEXT
  5
1595
330
18
100
AcDbEntity
  8
文字
100
AcDbMText
 10
687.5057588864692
 20
284.0664070327839
 30
0.0
 40
1.0
 41
6.927999999999999
 71
     1
 72
     5
  1

  7
STYLE3
 73
     1
 44
1.0
  0
MTEXT
  5
1596
330
18
100
AcDbEntity
  8
DEFPOINTS
  6
Continuous
100
AcDbMText
 10
1009.24156854161
 20
207.3139583202348
 30
0.0
 40
0.35
 41
0.0
 71
     4
 72
     1
  1
\A1;
 73
     1
 44
1.0
  0
MTEXT
  5
1597
330
18
100
AcDbEntity
  8
DEFPOINTS
  6
Continuous
100
AcDbMText
 10
1620.80519670057
 20
433.2016133035515
 30
0.0
 40
1.0
 41
0.0
 71
     4
 72
     1
  1
\A1;
 73
     1
 44
1.0
  0
MTEXT
  5
1598
330
18
100
AcDbEntity
  8
文字
100
AcDbMText
 10
1187.94440625857
 20
459.2795955417855
 30
0.0
 40
1.0
 41
6.927999999999999
 71
     1
 72
     5
  1

  7
STYLE3
 73
     1
 44
1.0
  0
MTEXT
  5
1599
330
18
100
AcDbEntity
  8
DEFPOINTS
  6
Continuous
100
AcDbMText
 10
1509.680215913711
 20
382.5271468292364
 30
0.0
 40
0.35
 41
0.0
 71
     4
 72
     1
  1
\A1;
 73
     1
 44
1.0
  0
LINE
  5
1806
330
18
100
AcDbEntity
  8
外形線
100
AcDbLine
 10
132.5285790055945
 20
92.6021098332534
 30
0.0
 11
152.5285790055945
 21
92.6021098332534
 31
0.0
  0
LINE
  5
1807
330
18
100
AcDbEntity
  8
外形線
100
AcDbLine
 10
132.5285790055945
 20
110.6021098332534
 30
0.0
 11
148.8086888948751
 21
110.6021098332534
 31
0.0
  0
LINE
  5
1866
330
18
100
AcDbEntity
  8
中心線
100
AcDbLine
 10
52.2379267875964
 20
183.0196103492387
 30
0.0
 11
52.2379267875964
 21
38.61891449656247
 31
0.0
  0
LINE
  5
1869
330
18
100
AcDbEntity
  8
外形線
100
AcDbLine
 10
57.73792678759639
 20
110.6021098332534
 30
0.0
 11
57.73792678759639
 21
92.60210983325341
 31
0.0
  0
LINE
  5
186A
330
18
100
AcDbEntity
  8
外形線
100
AcDbLine
 10
46.73792678759639
 20
110.6021098332534
 30
0.0
 11
46.73792678759639
 21
92.6021098332534
 31
0.0
  0
LINE
  5
186E
330
18
100
AcDbEntity
  8
外形線
100
AcDbLine
 10
59.23792678759639
 20
92.60210983325343
 30
0.0
 11
52.98792678759639
 21
92.60210983325338
 31
0.0
  0
LINE
  5
186F
330
18
100
AcDbEntity
  8
外形線
100
AcDbLine
 10
59.23792678759639
 20
110.6021098332534
 30
0.0
 11
52.98792678759639
 21
110.6021098332534
 31
0.0
  0
LINE
  5
1872
330
18
100
AcDbEntity
  8
外形線
100
AcDbLine
 10
57.2379267875964
 20
113.1021098332533
 30
0.0
 11
56.73792678759639
 21
110.6021098332534
 31
0.0
  0
LINE
  5
1873
330
18
100
AcDbEntity
  8
外形線
100
AcDbLine
 10
47.23792678759639
 20
113.1021098332533
 30
0.0
 11
47.23792678759639
 21
110.6021098332534
 31
0.0
  0
LINE
  5
187A
330
18
100
AcDbEntity
  8
中心線
100
AcDbLine
 10
141.5285790055945
 20
172.7072595642771
 30
0.0
 11
141.5285790055945
 21
36.73415320335739
 31
0.0
  0
CIRCLE
  5
187B
330
18
100
AcDbEntity
  8
外形線
100
AcDbCircle
 10
131.5285790055945
 20
101.6021098332534
 30
0.0
 40
4.5
  0
LINE
  5
187C
330
18
100
AcDbEntity
  8
中心線
 48
0.3
100
AcDbLine
 10
124.6989464684869
 20
101.6021098332534
 30
0.0
 11
138.3582115427022
 21
101.6021098332534
 31
0.0
  0
LINE
  5
187D
330
18
100
AcDbEntity
  8
中心線
 48
0.3
100
AcDbLine
 10
131.5285790055945
 20
94.77247729614573
 30
0.0
 11
131.5285790055945
 21
108.431742370361
 31
0.0
  0
LINE
  5
187E
330
18
100
AcDbEntity
  8
外形線
100
AcDbLine
 10
52.98792678759639
 20
110.6021098332534
 30
0.0
 11
52.98792678759639
 21
92.60210983325338
 31
0.0
  0
LINE
  5
187F
330
18
100
AcDbEntity
  8
外形線
100
AcDbLine
 10
51.48792678759639
 20
110.6021098332534
 30
0.0
 11
51.48792678759639
 21
92.60210983325338
 31
0.0
  0
LINE
  5
1880
330
18
100
AcDbEntity
  8
外形線
100
AcDbLine
 10
51.48792678759639
 20
110.6021098332534
 30
0.0
 11
45.23792678759639
 21
110.6021098332534
 31
0.0
  0
LINE
  5
1881
330
18
100
AcDbEntity
  8
外形線
100
AcDbLine
 10
51.48792678759639
 20
92.60210983325338
 30
0.0
 11
45.23792678759639
 21
92.6021098332534
 31
0.0
  0
LINE
  5
1884
330
18
100
AcDbEntity
  8
隠れ線2
100
AcDbLine
 10
145.5285790055945
 20
111.5068995447732
 30
0.0
 11
145.5285790055945
 21
92.60210983325338
 31
0.0
  0
LINE
  5
1885
330
18
100
AcDbEntity
  8
隠れ線2
100
AcDbLine
 10
137.5285790055945
 20
110.6021098332534
 30
0.0
 11
137.5285790055945
 21
92.60210983325338
 31
0.0
  0
LINE
  5
1886
330
18
100
AcDbEntity
  8
中心線
100
AcDbLine
 10
108.4859844709936
 20
137.6021098332534
 30
0.0
 11
174.5711735401955
 21
137.6021098332534
 31
0.0
  0
INSERT
  5
1A8A
330
18
100
AcDbEntity
  8
文字
100
AcDbBlockReference
  2
12
 10
141.5285790055945
 20
137.6021098332534
 30
0.0
  0
LINE
  5
1A8B
330
18
100
AcDbEntity
  8
外形線
100
AcDbLine
 10
148.2472766862046
 20
169.8342918450173
 30
0.0
 11
163.1608100321585
 21
171.4425589680752
 31
0.0
  0
ARC
  5
1A8C
330
18
100
AcDbEntity
  8
外形線
100
AcDbCircle
 10
155.5285790055947
 20
167.6021098332534
 30
0.0
 40
2.0
100
AcDbArc
 50
0.0
 51
180.0
  0
LINE
  5
1A8D
330
18
100
AcDbEntity
  8
中心線
 48
0.5
100
AcDbLine
 10
152.4071404179509
 20
167.6021098332534
 30
0.0
 11
158.6516486701342
 21
167.6021098332534
 31
0.0
  0
LINE
  5
1A8E
330
18
100
AcDbEntity
  8
外形線
100
AcDbLine
 10
149.7108769713253
 20
162.7021098332534
 30
0.0
 11
157.5285790055947
 21
162.7021098332534
 31
0.0
  0
CIRCLE
  5
1A90
330
18
100
AcDbEntity
  8
外形線
100
AcDbCircle
 10
141.5285790055945
 20
137.6021098332534
 30
0.0
 40
15.5
  0
CIRCLE
  5
1A91
330
18
100
AcDbEntity
  8
外形線
100
AcDbCircle
 10
141.5285790055945
 20
137.6021098332534
 30
0.0
 40
23.0
  0
CIRCLE
  5
1A92
330
18
100
AcDbEntity
  8
外形線
100
AcDbCircle
 10
141.5285790055945
 20
137.6021098332534
 30
0.0
 40
26.4
  0
DIMENSION
  5
1AAB
330
18
100
AcDbEntity
  8
文字
100
AcDbDimension
  2
*D12
 10
80.28711822775187
 20
111.2021098332534
 30
0.0
 11
78.41211822775186
 21
137.6021098332534
 31
0.0
 70
    32
  1
φ53
 71
     5
 42
52.79999999999994
  3
STYLE3
100
AcDbAlignedDimension
 13
62.53792678759641
 23
164.0021098332534
 33
0.0
 14
62.53792678759641
 24
111.2021098332534
 34
0.0
 50
90.0
100
AcDbRotatedDimension
1001
ACAD
1000
DSTYLE
1002
{
1070
   271
1070
     2
1002
}
  0
ARC
  5
1AAD
330
18
100
AcDbEntity
  8
外形線
  6
Continuous
100
AcDbCircle
 10
-38.9287398790699
 20
137.6021098332534
 30
0.0
 40
105.6666666666664
100
AcDbArc
 50
346.3144531747381
 51
13.68554682526192
  0
LINE
  5
1AAE
330
18
100
AcDbEntity
  8
中心線
100
AcDbLine
 10
70.01997662374896
 20
137.6021098332534
 30
0.0
 11
40.98779880585095
 21
137.6021098332534
 31
0.0
  0
LINE
  5
1AAF
330
18
100
AcDbEntity
  8
外形線
  6
Continuous
100
AcDbLine
 10
57.23792678759645
 20
162.6021098332534
 30
0.0
 11
57.23792678759645
 21
112.6021098332534
 31
0.0
  0
LINE
  5
1AB0
330
18
100
AcDbEntity
  8
外形線
100
AcDbLine
 10
45.73792678759633
 20
162.1021098332534
 30
0.0
 11
45.73792678759633
 21
113.1021098332534
 31
0.0
  0
LINE
  5
1AB1
330
18
100
AcDbEntity
  8
外形線
100
AcDbLine
 10
44.63792678759642
 20
160.6021098332534
 30
0.0
 11
44.63792678759642
 21
114.6021098332534
 31
0.0
  0
LINE
  5
1AB2
330
18
100
AcDbEntity
  8
外形線
  6
Continuous
100
AcDbLine
 10
58.73792678759645
 20
164.0021098332534
 30
0.0
 11
58.73792678759645
 21
111.2021098332534
 31
0.0
  0
LINE
  5
1AB3
330
18
100
AcDbEntity
  8
外形線
  6
Continuous
100
AcDbLine
 10
62.53792678759641
 20
164.0021098332534
 30
0.0
 11
62.53792678759641
 21
111.2021098332534
 31
0.0
  0
LINE
  5
1AB4
330
18
100
AcDbEntity
  8
外形線
  6
Continuous
100
AcDbLine
 10
63.73792678759645
 20
162.6021098332534
 30
0.0
 11
63.73792678759645
 21
112.6021098332534
 31
0.0
  0
LINE
  5
1AB6
330
18
100
AcDbEntity
  8
外形線
100
AcDbLine
 10
57.23792678759645
 20
113.1021098332534
 30
0.0
 11
45.73792678759633
 21
113.1021098332534
 31
0.0
  0
LINE
  5
1AB8
330
18
100
AcDbEntity
  8
外形線
100
AcDbLine
 10
45.73792678759628
 20
114.6021098332534
 30
0.0
 11
44.63792678759642
 21
114.6021098332534
 31
0.0
  0
LINE
  5
1ABD
330
18
100
AcDbEntity
  8
外形線
  6
Continuous
 62
     4
100
AcDbLine
 10
62.53792678759641
 20
112.2021098332534
 30
0.0
 11
58.73792678759645
 21
112.2021098332534
 31
0.0
  0
LINE
  5
1ABE
330
18
100
AcDbEntity
  8
外形線
  6
Continuous
100
AcDbLine
 10
62.53792678759641
 20
111.2021098332534
 30
0.0
 11
58.73792678759645
 21
111.2021098332534
 31
0.0
  0
LINE
  5
1ABF
330
18
100
AcDbEntity
  8
外形線
  6
CENTER2
100
AcDbLine
 10
57.23792678759645
 20
112.6021098332534
 30
0.0
 11
58.73792678759645
 21
112.6021098332534
 31
0.0
  0
LINE
  5
1AC0
330
18
100
AcDbEntity
  8
外形線
  6
Continuous
100
AcDbLine
 10
62.53792678759641
 20
112.1021098332534
 30
0.0
 11
63.73792678759645
 21
112.6021098332534
 31
0.0
  0
POINT
  5
1AC1
330
18
100
AcDbEntity
  8
DEFPOINTS
  6
ByBlock
 62
     0
100
AcDbPoint
 10
62.53792678759641
 20
111.2021098332534
 30
0.0
  0
POINT
  5
1AC2
330
18
100
AcDbEntity
  8
DEFPOINTS
  6
ByBlock
 62
     0
100
AcDbPoint
 10
62.53792678759641
 20
111.2021098332534
 30
0.0
  0
LINE
  5
1AC3
330
18
100
AcDbEntity
  8
外形線
  6
Continuous
 62
     4
100
AcDbLine
 10
62.53792678759641
 20
113.2021098332534
 30
0.0
 11
58.73792678759645
 21
113.2021098332534
 31
0.0
  0
LINE
  5
1AC4
330
18
100
AcDbEntity
  8
外形線
  6
Continuous
 62
     4
100
AcDbLine
 10
62.53792678759641
 20
116.2021098332534
 30
0.0
 11
58.73792678759645
 21
116.2021098332534
 31
0.0
  0
LINE
  5
1AC5
330
18
100
AcDbEntity
  8
外形線
  6
Continuous
 62
     4
100
AcDbLine
 10
62.53792678759641
 20
114.2021098332534
 30
0.0
 11
58.73792678759645
 21
114.2021098332534
 31
0.0
  0
LINE
  5
1AC6
330
18
100
AcDbEntity
  8
外形線
  6
Continuous
 62
     4
100
AcDbLine
 10
62.53792678759641
 20
115.2021098332534
 30
0.0
 11
58.73792678759645
 21
115.2021098332534
 31
0.0
  0
LINE
  5
1AC7
330
18
100
AcDbEntity
  8
外形線
  6
Continuous
 62
     4
100
AcDbLine
 10
58.73792678759645
 20
135.6021098332534
 30
0.0
 11
62.53792678759641
 21
135.6021098332534
 31
0.0
  0
LINE
  5
1AC8
330
18
100
AcDbEntity
  8
外形線
  6
Continuous
 62
     4
100
AcDbLine
 10
58.73792678759645
 20
139.6021098332534
 30
0.0
 11
62.53792678759641
 21
139.6021098332534
 31
0.0
  0
LINE
  5
1AC9
330
18
100
AcDbEntity
  8
外形線
  6
Continuous
 62
     4
100
AcDbLine
 10
58.73792678759645
 20
140.6021098332534
 30
0.0
 11
62.53792678759641
 21
140.6021098332534
 31
0.0
  0
LINE
  5
1ACA
330
18
100
AcDbEntity
  8
外形線
  6
Continuous
 62
     4
100
AcDbLine
 10
58.73792678759645
 20
138.6021098332534
 30
0.0
 11
62.53792678759641
 21
138.6021098332534
 31
0.0
  0
LINE
  5
1ACB
330
18
100
AcDbEntity
  8
外形線
  6
Continuous
 62
     4
100
AcDbLine
 10
58.73792678759645
 20
137.6021098332534
 30
0.0
 11
62.53792678759641
 21
137.6021098332534
 31
0.0
  0
LINE
  5
1ACC
330
18
100
AcDbEntity
  8
外形線
  6
Continuous
 62
     4
100
AcDbLine
 10
58.73792678759645
 20
136.6021098332534
 30
0.0
 11
62.53792678759641
 21
136.6021098332534
 31
0.0
  0
LINE
  5
1ACD
330
18
100
AcDbEntity
  8
外形線
100
AcDbLine
 10
56.48792678759651
 20
171.4021098332535
 30
0.0
 11
56.48792678759628
 21
169.8021098332535
 31
0.0
  0
LINE
  5
1ACE
330
18
100
AcDbEntity
  8
外形線
100
AcDbLine
 10
47.9879267875965
 20
171.4021098332535
 30
0.0
 11
47.9879267875965
 21
169.8021098332534
 31
0.0
  0
LINE
  5
1ACF
330
18
100
AcDbEntity
  8
外形線
100
AcDbLine
 10
56.48792678759628
 20
171.4021098332535
 30
0.0
 11
56.48792678759628
 21
169.8021098332534
 31
0.0
  0
LINE
  5
1AD0
330
18
100
AcDbEntity
  8
外形線
100
AcDbLine
 10
47.98792678759627
 20
171.4021098332535
 30
0.0
 11
47.9879267875965
 21
169.8021098332535
 31
0.0
  0
LINE
  5
1AD1
330
18
100
AcDbEntity
  8
外形線
100
AcDbLine
 10
48.23792678759639
 20
162.1021098332534
 30
0.0
 11
45.73792678759633
 21
162.1021098332534
 31
0.0
  0
ARC
  5
1AD2
330
18
100
AcDbEntity
  8
外形線
100
AcDbCircle
 10
47.92542678759633
 20
162.1080994165845
 30
0.0
 40
3.59401041666899
100
AcDbArc
 50
85.01182040284382
 51
113.5763665982022
  0
ARC
  5
1AD3
330
18
100
AcDbEntity
  8
外形線
100
AcDbCircle
 10
47.92542678759633
 20
167.2961202499227
 30
0.0
 40
3.59401041666899
100
AcDbArc
 50
246.4236334017978
 51
274.988179597156
  0
LINE
  5
1AD4
330
18
100
AcDbEntity
  8
中心線
 48
0.5
100
AcDbLine
 10
45.21870955948037
 20
167.6021098332537
 30
0.0
 11
59.78256139969443
 21
167.6021098332536
 31
0.0
  0
LINE
  5
1AD5
330
18
100
AcDbEntity
  8
外形線
100
AcDbLine
 10
46.48792678759633
 20
165.4021098332536
 30
0.0
 11
46.48792678759633
 21
164.0021098332536
 31
0.0
  0
POINT
  5
1AD6
330
18
100
AcDbEntity
  8
DEFPOINTS
  6
ByBlock
 62
     0
100
AcDbPoint
 10
44.63792678759642
 20
160.6021098332534
 30
0.0
  0
POINT
  5
1AD7
330
18
100
AcDbEntity
  8
DEFPOINTS
  6
ByBlock
 62
     0
100
AcDbPoint
 10
44.63792678759642
 20
160.6021098332534
 30
0.0
  0
LINE
  5
1AD8
330
18
100
AcDbEntity
  8
外形線
100
AcDbLine
 10
45.73792678759633
 20
160.6021098332534
 30
0.0
 11
44.63792678759642
 21
160.6021098332534
 31
0.0
  0
LINE
  5
1AD9
330
18
100
AcDbEntity
  8
外形線
  6
Continuous
 62
     4
100
AcDbLine
 10
62.53792678759641
 20
159.0021098332534
 30
0.0
 11
58.73792678759645
 21
159.0021098332534
 31
0.0
  0
LINE
  5
1ADA
330
18
100
AcDbEntity
  8
外形線
100
AcDbLine
 10
48.18792678759655
 20
169.6021098332534
 30
0.0
 11
56.28792678759623
 21
169.6021098332535
 31
0.0
  0
LINE
  5
1ADB
330
18
100
AcDbEntity
  8
外形線
100
AcDbLine
 10
56.28792678759623
 20
169.6021098332534
 30
0.0
 11
48.18792678759655
 21
169.6021098332535
 31
0.0
  0
LINE
  5
1ADC
330
18
100
AcDbEntity
  8
外形線
100
AcDbLine
 10
56.23792678759639
 20
162.9158774374382
 30
0.0
 11
55.23792678759633
 21
162.9158774374382
 31
0.0
  0
LINE
  5
1ADD
330
18
100
AcDbEntity
  8
外形線
100
AcDbLine
 10
56.23792678759639
 20
162.0369487878342
 30
0.0
 11
55.23792678759639
 21
162.0369487878342
 31
0.0
  0
LINE
  5
1ADE
330
18
100
AcDbEntity
  8
外形線
100
AcDbLine
 10
49.23792678759639
 20
169.6021098332535
 30
0.0
 11
49.23792678759639
 21
162.0369487878342
 31
0.0
  0
LINE
  5
1ADF
330
18
100
AcDbEntity
  8
外形線
100
AcDbLine
 10
55.23792678759639
 20
169.6021098332535
 30
0.0
 11
55.23792678759639
 21
162.0369487878342
 31
0.0
  0
LINE
  5
1AE0
330
18
100
AcDbEntity
  8
外形線
100
AcDbLine
 10
48.23792678759639
 20
169.6021098332535
 30
0.0
 11
48.23792678759639
 21
162.0369487878342
 31
0.0
  0
LINE
  5
1AE1
330
18
100
AcDbEntity
  8
外形線
100
AcDbLine
 10
55.11292678759645
 20
164.0021098332535
 30
0.0
 11
55.11292678759645
 21
165.4021098332537
 31
0.0
  0
LINE
  5
1AE2
330
18
100
AcDbEntity
  8
外形線
100
AcDbLine
 10
49.36292678759634
 20
164.0021098332535
 30
0.0
 11
49.36292678759634
 21
165.4021098332537
 31
0.0
  0
LINE
  5
1AE3
330
18
100
AcDbEntity
  8
外形線
100
AcDbLine
 10
55.23792678759639
 20
162.1021098332534
 30
0.0
 11
49.23792678759639
 21
162.1021098332534
 31
0.0
  0
LINE
  5
1AE4
330
18
100
AcDbEntity
  8
外形線
100
AcDbLine
 10
49.23792678759639
 20
163.7021098332537
 30
0.0
 11
55.23792678759639
 21
163.7021098332537
 31
0.0
  0
ARC
  5
1AE5
330
18
100
AcDbEntity
  8
外形線
100
AcDbCircle
 10
52.23792678759633
 20
177.6281514999198
 30
0.0
 40
13.92604166666615
100
AcDbArc
 50
258.0857377705831
 51
270.0000000000002
  0
LINE
  5
1AE6
330
18
100
AcDbEntity
  8
外形線
100
AcDbLine
 10
47.92542678759633
 20
163.7021098332537
 30
0.0
 11
48.23792678759639
 21
163.7021098332537
 31
0.0
  0
LINE
  5
1AE7
330
18
100
AcDbEntity
  8
外形線
100
AcDbLine
 10
47.63792678759642
 20
163.7136274550765
 30
0.0
 11
47.63792678759642
 21
163.7021098332537
 31
0.0
  0
LINE
  5
1AE8
330
18
100
AcDbEntity
  8
外形線
100
AcDbLine
 10
49.23792678759639
 20
162.9158774374382
 30
0.0
 11
48.23792678759639
 21
162.9158774374382
 31
0.0
  0
LINE
  5
1AE9
330
18
100
AcDbEntity
  8
外形線
100
AcDbLine
 10
49.23792678759639
 20
162.0369487878342
 30
0.0
 11
48.23792678759639
 21
162.0369487878342
 31
0.0
  0
LINE
  5
1AEA
330
18
100
AcDbEntity
  8
外形線
100
AcDbLine
 10
49.93792678759598
 20
163.7021098332537
 30
0.0
 11
49.9379267875966
 21
162.1021098332536
 31
0.0
  0
ARC
  5
1AEB
330
18
100
AcDbEntity
  8
外形線
100
AcDbCircle
 10
47.92542678759633
 20
167.2961202499227
 30
0.0
 40
3.59401041666899
100
AcDbArc
 50
291.4193332207172
 51
293.576366598201
  0
ARC
  5
1AEC
330
18
100
AcDbEntity
  8
外形線
100
AcDbCircle
 10
52.23792678759645
 20
177.6281514999198
 30
0.0
 40
13.92604166666615
100
AcDbArc
 50
269.9999999999998
 51
281.9142622294169
  0
ARC
  5
1AED
330
18
100
AcDbEntity
  8
外形線
100
AcDbCircle
 10
56.55042678759645
 20
167.2961202499227
 30
0.0
 40
3.59401041666899
100
AcDbArc
 50
246.4236334017989
 51
248.580666779283
  0
LINE
  5
1AEE
330
18
100
AcDbEntity
  8
外形線
100
AcDbLine
 10
54.53792678759675
 20
163.7021098332537
 30
0.0
 11
54.53792678759618
 21
162.1021098332536
 31
0.0
  0
LINE
  5
1AEF
330
18
100
AcDbEntity
  8
外形線
100
AcDbLine
 10
49.23792678759639
 20
165.7021098332535
 30
0.0
 11
55.23792678759639
 21
165.7021098332535
 31
0.0
  0
LINE
  5
1AF0
330
18
100
AcDbEntity
  8
外形線
100
AcDbLine
 10
50.23792678759645
 20
169.6021098332537
 30
0.0
 11
54.23792678759645
 21
169.6021098332537
 31
0.0
  0
ARC
  5
1AF1
330
18
100
AcDbEntity
  8
外形線
100
AcDbCircle
 10
52.23792678759645
 20
151.7760681665875
 30
0.0
 40
13.92604166666615
100
AcDbArc
 50
78.08573777058317
 51
101.9142622294168
  0
LINE
  5
1AF2
330
18
100
AcDbEntity
  8
外形線
100
AcDbLine
 10
47.92542678759633
 20
165.7021098332535
 30
0.0
 11
48.23792678759639
 21
165.7021098332535
 31
0.0
  0
LINE
  5
1AF3
330
18
100
AcDbEntity
  8
外形線
100
AcDbLine
 10
49.93792678759632
 20
169.6021098332535
 30
0.0
 11
49.93792678759632
 21
165.7021098332535
 31
0.0
  0
LINE
  5
1AF4
330
18
100
AcDbEntity
  8
外形線
100
AcDbLine
 10
49.93792678759632
 20
167.1208549983854
 30
0.0
 11
49.93792678759632
 21
165.7021098332535
 31
0.0
  0
LINE
  5
1AF5
330
18
100
AcDbEntity
  8
外形線
100
AcDbLine
 10
47.9879267875965
 20
169.8021098332534
 30
0.0
 11
48.18792678759655
 21
169.6021098332534
 31
0.0
  0
LINE
  5
1AF6
330
18
100
AcDbEntity
  8
外形線
100
AcDbLine
 10
48.18792678759655
 20
169.6021098332535
 30
0.0
 11
47.9879267875965
 21
169.8021098332535
 31
0.0
  0
ARC
  5
1AF7
330
18
100
AcDbEntity
  8
外形線
100
AcDbCircle
 10
47.92542678759645
 20
162.1080994165845
 30
0.0
 40
3.59401041666899
100
AcDbArc
 50
66.42363340179895
 51
68.58066677928448
  0
LINE
  5
1AF8
330
18
100
AcDbEntity
  8
外形線
100
AcDbLine
 10
47.63792678759642
 20
169.6021098332536
 30
0.0
 11
47.63792678759642
 21
165.6905922114308
 31
0.0
  0
LINE
  5
1AF9
330
18
100
AcDbEntity
  8
外形線
100
AcDbLine
 10
48.63792678759643
 20
169.6021098332536
 30
0.0
 11
47.63792678759642
 21
169.6021098332536
 31
0.0
  0
LINE
  5
1AFA
330
18
100
AcDbEntity
  8
外形線
100
AcDbLine
 10
54.53792678759646
 20
168.1735992190132
 30
0.0
 11
54.53792678759646
 21
168.1563856766702
 31
0.0
  0
LINE
  5
1AFB
330
18
100
AcDbEntity
  8
外形線
100
AcDbLine
 10
54.5379267875964
 20
169.6021098332534
 30
0.0
 11
54.53792678759646
 21
165.7021098332535
 31
0.0
  0
LINE
  5
1AFC
330
18
100
AcDbEntity
  8
外形線
100
AcDbLine
 10
54.53792678759646
 20
167.1208549983854
 30
0.0
 11
54.53792678759646
 21
165.7021098332535
 31
0.0
  0
ARC
  5
1AFD
330
18
100
AcDbEntity
  8
外形線
100
AcDbCircle
 10
56.55042678759645
 20
162.1080994165845
 30
0.0
 40
3.59401041666899
100
AcDbArc
 50
111.419333220717
 51
113.576366598201
  0
LINE
  5
1AFE
330
18
100
AcDbEntity
  8
外形線
100
AcDbLine
 10
56.23792678759639
 20
169.6021098332535
 30
0.0
 11
56.23792678759639
 21
162.0369487878342
 31
0.0
  0
LINE
  5
1AFF
330
18
100
AcDbEntity
  8
外形線
100
AcDbLine
 10
57.98792678759645
 20
165.4021098332536
 30
0.0
 11
57.98792678759645
 21
164.0021098332536
 31
0.0
  0
LINE
  5
1B00
330
18
100
AcDbEntity
  8
外形線
  6
Continuous
100
AcDbLine
 10
62.53792678759641
 20
164.0021098332534
 30
0.0
 11
58.73792678759645
 21
164.0021098332534
 31
0.0
  0
LINE
  5
1B01
330
18
100
AcDbEntity
  8
外形線
  6
Continuous
 62
     4
100
AcDbLine
 10
62.53792678759641
 20
163.0021098332534
 30
0.0
 11
58.73792678759645
 21
163.0021098332534
 31
0.0
  0
LINE
  5
1B02
330
18
100
AcDbEntity
  8
外形線
  6
Continuous
 62
     4
100
AcDbLine
 10
62.53792678759641
 20
162.0021098332534
 30
0.0
 11
58.73792678759645
 21
162.0021098332534
 31
0.0
  0
LINE
  5
1B03
330
18
100
AcDbEntity
  8
外形線
  6
Continuous
 62
     4
100
AcDbLine
 10
62.53792678759641
 20
161.0021098332533
 30
0.0
 11
58.73792678759645
 21
161.0021098332533
 31
0.0
  0
LINE
  5
1B04
330
18
100
AcDbEntity
  8
外形線
  6
Continuous
 62
     4
100
AcDbLine
 10
62.53792678759641
 20
160.0021098332534
 30
0.0
 11
58.73792678759645
 21
160.0021098332534
 31
0.0
  0
LINE
  5
1B05
330
18
100
AcDbEntity
  8
外形線
100
AcDbLine
 10
56.23792678759639
 20
163.7021098332537
 30
0.0
 11
56.55042678759645
 21
163.7021098332537
 31
0.0
  0
LINE
  5
1B06
330
18
100
AcDbEntity
  8
外形線
100
AcDbLine
 10
56.83792678759636
 20
163.7136274550765
 30
0.0
 11
56.83792678759636
 21
163.7021098332537
 31
0.0
  0
ARC
  5
1B07
330
18
100
AcDbEntity
  8
外形線
100
AcDbCircle
 10
56.55042678759645
 20
167.2961202499227
 30
0.0
 40
3.59401041666899
100
AcDbArc
 50
265.0118204028446
 51
293.5763665982022
  0
LINE
  5
1B08
330
18
100
AcDbEntity
  8
外形線
100
AcDbLine
 10
57.23792678759645
 20
162.1021098332534
 30
0.0
 11
56.23792678759639
 21
162.1021098332534
 31
0.0
  0
LINE
  5
1B09
330
18
100
AcDbEntity
  8
外形線
  6
CENTER2
100
AcDbLine
 10
57.23792678759645
 20
162.6021098332534
 30
0.0
 11
58.73792678759645
 21
162.6021098332534
 31
0.0
  0
LINE
  5
1B0A
330
18
100
AcDbEntity
  8
外形線
  6
Continuous
100
AcDbLine
 10
62.53792678759641
 20
163.1021098332534
 30
0.0
 11
63.73792678759645
 21
162.6021098332534
 31
0.0
  0
POINT
  5
1B0B
330
18
100
AcDbEntity
  8
DEFPOINTS
  6
ByBlock
 62
     0
100
AcDbPoint
 10
62.53792678759641
 20
164.0021098332534
 30
0.0
  0
LINE
  5
1B0C
330
18
100
AcDbEntity
  8
外形線
100
AcDbLine
 10
56.23792678759639
 20
165.7021098332535
 30
0.0
 11
56.55042678759645
 21
165.7021098332535
 31
0.0
  0
LINE
  5
1B0D
330
18
100
AcDbEntity
  8
外形線
100
AcDbLine
 10
56.28792678759623
 20
169.6021098332535
 30
0.0
 11
56.48792678759628
 21
169.8021098332535
 31
0.0
  0
LINE
  5
1B0E
330
18
100
AcDbEntity
  8
外形線
100
AcDbLine
 10
56.48792678759628
 20
169.8021098332534
 30
0.0
 11
56.28792678759623
 21
169.6021098332534
 31
0.0
  0
ARC
  5
1B0F
330
18
100
AcDbEntity
  8
外形線
100
AcDbCircle
 10
56.55042678759645
 20
162.1080994165845
 30
0.0
 40
3.59401041666899
100
AcDbArc
 50
66.42363340179779
 51
94.98817959715561
  0
LINE
  5
1B10
330
18
100
AcDbEntity
  8
外形線
100
AcDbLine
 10
56.83792678759636
 20
169.6021098332536
 30
0.0
 11
56.83792678759636
 21
165.6905922114308
 31
0.0
  0
LINE
  5
1B11
330
18
100
AcDbEntity
  8
外形線
100
AcDbLine
 10
55.83792678759635
 20
169.6021098332536
 30
0.0
 11
56.83792678759636
 21
169.6021098332536
 31
0.0
  0
ARC
  5
1B12
330
18
100
AcDbEntity
  8
外形線
100
AcDbCircle
 10
49.31873894679364
 20
173.7216346626892
 30
0.0
 40
2.896155846903953
100
AcDbArc
 50
181.6649218613851
 51
242.6445160037918
  0
ELLIPSE
  5
1B13
330
18
100
AcDbEntity
  8
外形線
100
AcDbEllipse
 10
52.23792678759645
 20
174.0163564110544
 30
0.0
 11
-5.834642661603116
 21
0.0000000000000068
 31
0.0
210
0.0
220
0.0
230
1.0
 40
0.7748925521716198
 41
3.05769667350001
 42
6.367081287269371
  0
LINE
  5
1B14
330
18
100
AcDbEntity
  8
外形線
100
AcDbLine
 10
48.18792678759632
 20
171.6021098332534
 30
0.0
 11
56.28792678759646
 21
171.6021098332534
 31
0.0
  0
LINE
  5
1B15
330
18
100
AcDbEntity
  8
外形線
100
AcDbLine
 10
56.28792678759646
 20
171.6021098332534
 30
0.0
 11
48.18792678759632
 21
171.6021098332534
 31
0.0
  0
LINE
  5
1B16
330
18
100
AcDbEntity
  8
外形線
100
AcDbLine
 10
47.9879267875965
 20
171.4021098332535
 30
0.0
 11
48.18792678759632
 21
171.6021098332534
 31
0.0
  0
LINE
  5
1B17
330
18
100
AcDbEntity
  8
外形線
100
AcDbLine
 10
48.18792678759632
 20
171.6021098332534
 30
0.0
 11
47.98792678759627
 21
171.4021098332535
 31
0.0
  0
POINT
  5
1B18
330
18
100
AcDbEntity
  8
DEFPOINTS
  6
ByBlock
 62
     0
100
AcDbPoint
 10
52.23792678759628
 20
171.6021098332534
 30
0.0
 50
180.0
  0
LINE
  5
1B19
330
18
100
AcDbEntity
  8
外形線
100
AcDbLine
 10
56.28792678759646
 20
171.6021098332534
 30
0.0
 11
56.48792678759651
 21
171.4021098332535
 31
0.0
  0
LINE
  5
1B1A
330
18
100
AcDbEntity
  8
外形線
100
AcDbLine
 10
56.48792678759628
 20
171.4021098332535
 30
0.0
 11
56.28792678759646
 21
171.6021098332534
 31
0.0
  0
ARC
  5
1B1B
330
18
100
AcDbEntity
  8
外形線
100
AcDbCircle
 10
55.15711462839925
 20
173.7216346626892
 30
0.0
 40
2.896155846903953
100
AcDbArc
 50
297.3554839962098
 51
358.3350781386148
  0
POINT
  5
1B23
330
18
100
AcDbEntity
  8
DEFPOINTS
  6
ByBlock
 62
     0
100
AcDbPoint
 10
66.7379267875965
 20
137.6021098332534
 30
0.0
  0
LINE
  5
1B24
102
{ACAD_REACTORS
330
1B2D
102
}
330
18
100
AcDbEntity
  8
ROGO
 62
     4
100
AcDbLine
 10
148.5137288801803
 20
146.8025175423084
 30
0.0
 11
149.7566376255115
 21
147.8284569347614
 31
0.0
  0
LINE
  5
1B25
102
{ACAD_REACTORS
330
1B38
102
}
330
18
100
AcDbEntity
  8
ROGO
 62
     4
100
AcDbLine
 10
143.4960820067995
 20
147.8284569347614
 30
0.0
 11
143.2524627062589
 21
147.3398818825445
 31
0.0
  0
SPLINE
  5
1B26
102
{ACAD_REACTORS
330
1B28
102
}
330
18
100
AcDbEntity
  8
ROGO
 62
     4
100
AcDbSpline
210
0.0
220
0.0
230
1.0
 70
     8
 71
     3
 72
    26
 73
    22
 74
    20
 42
0.0000000001
 43
0.0000000001
 44
0.0000000001
 40
0.0
 40
0.0
 40
0.0
 40
0.0
 40
0.2382195346591896
 40
0.397689067266058
 40
0.5126795869787176
 40
0.5985392873135238
 40
0.7099038249250041
 40
0.7911890807494602
 40
0.9379713068544059
 40
1.057449928673177
 40
1.138714535893296
 40
1.218398644003487
 40
1.36093802187034
 40
1.461730374800238
 40
1.51601484410804
 40
1.593124329220486
 40
1.648806818593696
 40
1.729472362005543
 40
1.775122082164332
 40
1.874460993765135
 40
1.919820003751196
 40
1.919820003751196
 40
1.919820003751196
 40
1.919820003751196
 10
146.412115435621
 20
147.8284569347614
 30
0.0
 10
146.3312600448624
 20
147.8236329634963
 30
0.0
 10
146.1962782307965
 20
147.8155797169996
 30
0.0
 10
146.0480690200847
 20
147.7255442131412
 30
0.0
 10
145.9394822756744
 20
147.6732015277988
 30
0.0
 10
145.8620383412503
 20
147.6020461063792
 30
0.0
 10
145.8052716233827
 20
147.5285477538578
 30
0.0
 10
145.7337065186851
 20
147.4409750057324
 30
0.0
 10
145.6753472207793
 20
147.3390000842679
 30
0.0
 10
145.6456283782461
 20
147.2266059432045
 30
0.0
 10
145.6193037095924
 20
147.1370271606456
 30
0.0
 10
145.5997808946193
 20
147.0372032977532
 30
0.0
 10
145.6047480514323
 20
146.9293584096309
 30
0.0
 10
145.6118612473169
 20
146.8291975986271
 30
0.0
 10
145.6436199372408
 20
146.7576977757005
 30
0.0
 10
145.6797874596309
 20
146.7067948287711
 30
0.0
 10
145.7240740954857
 20
146.6507308760723
 30
0.0
 10
145.7725333598032
 20
146.6135999017422
 30
0.0
 10
145.8126131269138
 20
146.5463346466015
 30
0.0
 10
145.8827714071763
 20
146.5377511149254
 30
0.0
 10
145.9273668012521
 20
146.5206673250484
 30
0.0
 10
145.9413462897135
 20
146.5153120042039
 30
0.0
 11
146.412115435621
 21
147.8284569347614
 31
0.0
 11
146.1767308626672
 21
147.7918147526676
 31
0.0
 11
146.0340733592922
 21
147.7205450637343
 31
0.0
 11
145.9342133120064
 21
147.6635293590568
 31
0.0
 11
145.8700177431026
 21
147.606513422033
 31
0.0
 11
145.7986891964918
 21
147.5209897488436
 31
0.0
 11
145.7487591728489
 21
147.4568470520382
 31
0.0
 11
145.6774302160847
 21
147.3285614260809
 31
0.0
 11
145.6417661478559
 21
147.2145297843797
 31
0.0
 11
145.6203676248881
 21
147.1361331033183
 31
0.0
 11
145.6061016694738
 21
147.057736422257
 31
0.0
 11
145.6061016694738
 21
146.9151970443901
 31
0.0
 11
145.6203676248881
 21
146.8154193869449
 31
0.0
 11
145.6417661478559
 21
146.765530442049
 31
0.0
 11
145.6845631937917
 21
146.7013877452435
 31
0.0
 11
145.7202276721739
 21
146.6586257924757
 31
0.0
 11
145.7772902633705
 21
146.6016100877982
 31
0.0
 11
145.8058217640456
 21
146.5659751271583
 31
0.0
 11
145.8985492437777
 21
146.5303403988648
 31
0.0
 11
145.9413462897135
 21
146.5153120042039
 31
0.0
  0
LINE
  5
1B27
102
{ACAD_REACTORS
330
1B28
102
}
330
18
100
AcDbEntity
  8
ROGO
 62
     4
100
AcDbLine
 10
147.7271517777273
 20
147.8284569347614
 30
0.0
 11
147.4835324771867
 21
147.3398818825445
 31
0.0
  0
HATCH
  5
1B28
330
18
100
AcDbEntity
  8
ROGO
 62
     4
100
AcDbHatch
 10
0.0
 20
0.0
 30
0.0
210
0.0
220
0.0
230
1.0
  2
SOLID
 70
     1
 71
     1
 91
        1
 92
        5
 93
        8
 72
     4
 94
        3
 73
     0
 74
     0
 95
       26
 96
       22
 40
0.0
 40
0.0
 40
0.0
 40
0.0
 40
0.2382195346591896
 40
0.397689067266058
 40
0.5126795869787176
 40
0.5985392873135238
 40
0.7099038249250041
 40
0.7911890807494602
 40
0.9379713068544059
 40
1.057449928673177
 40
1.138714535893296
 40
1.218398644003487
 40
1.36093802187034
 40
1.461730374800238
 40
1.51601484410804
 40
1.593124329220486
 40
1.648806818593696
 40
1.729472362005543
 40
1.775122082164332
 40
1.874460993765135
 40
1.919820003751196
 40
1.919820003751196
 40
1.919820003751196
 40
1.919820003751196
 10
146.412115435621
 20
147.8284569347614
 10
146.3312600448624
 20
147.8236329634963
 10
146.1962782307965
 20
147.8155797169996
 10
146.0480690200847
 20
147.7255442131412
 10
145.9394822756744
 20
147.6732015277988
 10
145.8620383412503
 20
147.6020461063792
 10
145.8052716233827
 20
147.5285477538578
 10
145.7337065186851
 20
147.4409750057324
 10
145.6753472207793
 20
147.3390000842679
 10
145.6456283782461
 20
147.2266059432045
 10
145.6193037095924
 20
147.1370271606456
 10
145.5997808946193
 20
147.0372032977532
 10
145.6047480514323
 20
146.9293584096309
 10
145.6118612473169
 20
146.8291975986271
 10
145.6436199372408
 20
146.7576977757005
 10
145.6797874596309
 20
146.7067948287711
 10
145.7240740954857
 20
146.6507308760723
 10
145.7725333598032
 20
146.6135999017422
 10
145.8126131269138
 20
146.5463346466015
 10
145.8827714071763
 20
146.5377511149254
 10
145.9273668012521
 20
146.5206673250484
 10
145.9413462897135
 20
146.5153120042039
 72
     1
 10
145.9413462897135
 20
146.5153120042039
 11
147.0723753047181
 21
146.5153120042039
 72
     1
 10
147.0723753047181
 20
146.5153120042039
 11
147.3159920253969
 21
147.0038818825445
 72
     1
 10
147.3159920253969
 20
147.0038818825445
 11
146.4763110045248
 21
147.0038818825445
 72
     4
 94
        3
 73
     0
 74
     0
 95
       16
 96
       12
 40
0.0
 40
0.0
 40
0.0
 40
0.0
 40
0.0719416665231652
 40
0.1446253590759511
 40
0.1879779149910863
 40
0.229544093610429
 40
0.2751936323958108
 40
0.3070718656052417
 40
0.3373215422371831
 40
0.3986635435213285
 40
0.5242542460842448
 40
0.5242542460842448
 40
0.5242542460842448
 40
0.5242542460842448
 10
146.4763110045248
 20
147.0038818825444
 10
146.450983265853
 20
147.0113336746331
 10
146.400066551284
 20
147.0263141186324
 10
146.3958052334364
 20
147.0989338077697
 10
146.4016106624982
 20
147.1506812787288
 10
146.4259238123754
 20
147.1883564594449
 10
146.455419880236
 20
147.2157701104806
 10
146.4664025744875
 20
147.2514721046628
 10
146.4986852036117
 20
147.2784315769793
 10
146.5559309550028
 20
147.323746683955
 10
146.6192348462142
 20
147.3333977892405
 10
146.6617655538356
 20
147.3398818825445
 72
     1
 10
146.6617655538356
 20
147.3398818825446
 11
147.4835324771867
 21
147.3398818825445
 72
     1
 10
147.4835324771867
 20
147.3398818825445
 11
147.7271517777273
 21
147.8284569347614
 72
     1
 10
147.7271517777273
 20
147.8284569347614
 11
146.412115435621
 21
147.8284569347613
 97
        8
330
1BCE
330
1B26
330
1B72
330
1BBB
330
1BBC
330
1BBA
330
1BBD
330
1B27
 75
     0
 76
     1
 47
0.0514683685270805
 98
        1
 10
146.6390328653059
 20
147.5880156315823
450
        0
451
        0
460
0.0
461
0.0
452
        0
462
0.0
453
        0
470

  0
SPLINE
  5
1B29
102
{ACAD_REACTORS
330
1B2B
102
}
330
18
100
AcDbEntity
  8
ROGO
 62
     4
100
AcDbSpline
210
0.0
220
0.0
230
1.0
 70
     8
 71
     3
 72
    38
 73
    34
 74
    32
 42
0.0000000001
 43
0.0000000001
 44
0.0000000001
 40
0.0
 40
0.0
 40
0.0
 40
0.0
 40
0.1807680148264315
 40
0.2375392910068956
 40
0.3104865209606157
 40
0.3712759982447458
 40
0.422566754387306
 40
0.490692583720658
 40
0.5255021974951946
 40
0.5647069597052371
 40
0.622487401681883
 40
0.6879401044674746
 40
0.7303986317551266
 40
0.7765228362185534
 40
0.8277951442290254
 40
0.9056034697002209
 40
0.9795294930264187
 40
1.013897332332996
 40
1.053089255536027
 40
1.099518741889647
 40
1.132570569820733
 40
1.160277520290299
 40
1.19983678629386
 40
1.243305643169139
 40
1.286774258016964
 40
1.324809356515675
 40
1.411916492917645
 40
1.446284332224223
 40
1.5150200516612
 40
1.575779369908399
 40
1.69209852953623
 40
1.835624328519098
 40
2.042896467983898
 40
2.042896467983898
 40
2.042896467983898
 40
2.042896467983898
 10
144.2253073268422
 20
147.8339341539337
 30
0.0
 10
144.1650519292165
 20
147.8296775348328
 30
0.0
 10
144.0858729635954
 20
147.8240840990456
 30
0.0
 10
143.9853341910859
 20
147.7965394728407
 30
0.0
 10
143.9305294366449
 20
147.7637249533828
 30
0.0
 10
143.8734941353277
 20
147.7396047086823
 30
0.0
 10
143.8248662289426
 20
147.703887409433
 30
0.0
 10
143.7756801282468
 20
147.6854826292396
 30
0.0
 10
143.7412385148709
 20
147.6522955208671
 30
0.0
 10
143.701375156738
 20
147.632023402692
 30
0.0
 10
143.6696312569027
 20
147.5866485086777
 30
0.0
 10
143.634150580371
 20
147.5442246270192
 30
0.0
 10
143.5929885319638
 20
147.5132570854418
 30
0.0
 10
143.5592062864045
 20
147.4807321064794
 30
0.0
 10
143.5282157734801
 20
147.4305362912955
 30
0.0
 10
143.509874200909
 20
147.3638409166099
 30
0.0
 10
143.4581723864997
 20
147.3217318623247
 30
0.0
 10
143.4503877120165
 20
147.2711042146486
 30
0.0
 10
143.4217898618209
 20
147.2412347544579
 30
0.0
 10
143.409354516365
 20
147.2026775724729
 30
0.0
 10
143.4046185382411
 20
147.1673523831522
 30
0.0
 10
143.3989342351987
 20
147.1343611017239
 30
0.0
 10
143.3840651749662
 20
147.0996557309861
 30
0.0
 10
143.3889184875275
 20
147.0567854520511
 30
0.0
 10
143.3875359244854
 20
147.0152727380245
 30
0.0
 10
143.3883495644586
 20
146.9592292814131
 30
0.0
 10
143.3854130251127
 20
146.9046640844936
 30
0.0
 10
143.4088307756277
 20
146.8452842083252
 30
0.0
 10
143.4226886232305
 20
146.7923552636587
 30
0.0
 10
143.4606405931742
 20
146.7190687214072
 30
0.0
 10
143.5261069459921
 20
146.6345118976983
 30
0.0
 10
143.6505966920095
 20
146.5318759344055
 30
0.0
 10
143.7702972225689
 20
146.5214639936882
 30
0.0
 10
143.8410233652991
 20
146.5153120042039
 30
0.0
 11
144.2253073268422
 21
147.8339341539337
 31
0.0
 11
144.0458506898949
 21
147.8121996044823
 31
0.0
 11
143.9914699037668
 21
147.795899055435
 31
0.0
 11
143.9262132167588
 21
147.7632974732854
 31
0.0
 11
143.8718324306306
 21
147.7361296495123
 31
0.0
 11
143.8283279726253
 21
147.7089615837118
 31
0.0
 11
143.7685092360573
 21
147.6763602435897
 31
0.0
 11
143.7413186293716
 21
147.6546259361658
 31
0.0
 11
143.7086900722461
 21
147.6328913867144
 31
0.0
 11
143.6706235646807
 21
147.5894227718665
 31
0.0
 11
143.6271191066754
 21
147.5405206406696
 31
0.0
 11
143.5944905495498
 21
147.5133525748691
 31
0.0
 11
143.5618624196674
 21
147.480751234747
 31
0.0
 11
143.5346718129818
 21
147.4372826198992
 31
0.0
 11
143.5020436830994
 21
147.3666459392509
 31
0.0
 11
143.4585387978509
 21
147.3068765333282
 31
0.0
 11
143.4476628969712
 21
147.2742749511786
 31
0.0
 11
143.4259106679685
 21
147.2416736110564
 31
0.0
 11
143.4095963894058
 21
147.1982047541811
 31
0.0
 11
143.4041580117228
 21
147.165603414059
 31
0.0
 11
143.3987200612829
 21
147.1384353482585
 31
0.0
 11
143.3878441604031
 21
147.1004004917872
 31
0.0
 11
143.3878441604031
 21
147.0569316349119
 31
0.0
 11
143.3878441604031
 21
147.0134630200641
 31
0.0
 11
143.3878441604031
 21
146.9754279215654
 31
0.0
 11
143.3932821108431
 21
146.8884906918697
 31
0.0
 11
143.4041580117228
 21
146.8558891097201
 31
0.0
 11
143.4259106679685
 21
146.7906861874484
 31
0.0
 11
143.4531008474111
 21
146.7363502978749
 31
0.0
 11
143.523795912102
 21
146.64397955183
 31
0.0
 11
143.6379954347983
 21
146.5570420801069
 31
0.0
 11
143.8410233652991
 21
146.5153120042039
 31
0.0
  0
SPLINE
  5
1B2A
102
{ACAD_REACTORS
330
1B2B
102
}
330
18
100
AcDbEntity
  8
ROGO
 62
     4
100
AcDbSpline
210
0.0
220
0.0
230
1.0
 70
     8
 71
     3
 72
    25
 73
    21
 74
     0
 42
0.0000000001
 43
0.0000000001
 40
0.0
 40
0.0
 40
0.0
 40
0.0
 40
0.4087168505087288
 40
0.6887487002771746
 40
0.9415836120477687
 40
1.17452070575514
 40
1.41154617586699
 40
1.599156012919487
 40
1.80099909059943
 40
2.178735911501585
 40
2.521686161369157
 40
2.762704659361267
 40
3.06256558063785
 40
3.222432137207705
 40
3.399493810628493
 40
3.567459719866414
 40
3.743172740007509
 40
3.995988754699505
 40
4.17170091132118
 40
4.337226830236035
 40
4.337226830236035
 40
4.337226830236035
 40
4.337226830236035
 10
144.9757611500276
 20
147.8339341539337
 30
0.0
 10
145.0249812004531
 20
147.8323527644776
 30
0.0
 10
145.1079243081716
 20
147.8296878879716
 30
0.0
 10
145.1969739667928
 20
147.760085198596
 30
0.0
 10
145.2651121875522
 20
147.7023792362811
 30
0.0
 10
145.3134775424128
 20
147.6326154299469
 30
0.0
 10
145.3558711310552
 20
147.5684713262698
 30
0.0
 10
145.3838052918244
 20
147.5007499116037
 30
0.0
 10
145.4218012694991
 20
147.4194904160668
 30
0.0
 10
145.4375297271464
 20
147.3107772836358
 30
0.0
 10
145.4269032838097
 20
147.1984122305902
 30
0.0
 10
145.3991732283122
 20
147.0988109468867
 30
0.0
 10
145.3700866296122
 20
147.0223991817426
 30
0.0
 10
145.3358046106949
 20
146.955877999752
 30
0.0
 10
145.2949360633907
 20
146.912805529253
 30
0.0
 10
145.2665831078517
 20
146.8580393029054
 30
0.0
 10
145.2121207071345
 20
146.813243470032
 30
0.0
 10
145.1679705473279
 20
146.757971699578
 30
0.0
 10
145.1178693106882
 20
146.7105313512394
 30
0.0
 10
145.0896220113843
 20
146.6812612280177
 30
0.0
 10
145.0747293539905
 20
146.668954484072
 30
0.0
  0
HATCH
  5
1B2B
330
18
100
AcDbEntity
  8
ROGO
 62
     4
100
AcDbHatch
 10
0.0
 20
0.0
 30
0.0
210
0.0
220
0.0
230
1.0
  2
SOLID
 70
     1
 71
     1
 91
        2
 92
        5
 93
        6
 72
     4
 94
        3
 73
     0
 74
     0
 95
       38
 96
       34
 40
0.0
 40
0.0
 40
0.0
 40
0.0
 40
0.1807680148264315
 40
0.2375392910068956
 40
0.3104865209606157
 40
0.3712759982447458
 40
0.422566754387306
 40
0.490692583720658
 40
0.5255021974951946
 40
0.5647069597052371
 40
0.622487401681883
 40
0.6879401044674746
 40
0.7303986317551266
 40
0.7765228362185534
 40
0.8277951442290254
 40
0.9056034697002209
 40
0.9795294930264187
 40
1.013897332332996
 40
1.053089255536027
 40
1.099518741889647
 40
1.132570569820733
 40
1.160277520290299
 40
1.19983678629386
 40
1.243305643169139
 40
1.286774258016964
 40
1.324809356515675
 40
1.411916492917645
 40
1.446284332224223
 40
1.5150200516612
 40
1.575779369908399
 40
1.69209852953623
 40
1.835624328519098
 40
2.042896467983898
 40
2.042896467983898
 40
2.042896467983898
 40
2.042896467983898
 10
144.2253073268422
 20
147.8339341539337
 10
144.1650519292165
 20
147.8296775348328
 10
144.0858729635954
 20
147.8240840990456
 10
143.9853341910859
 20
147.7965394728407
 10
143.9305294366449
 20
147.7637249533828
 10
143.8734941353277
 20
147.7396047086823
 10
143.8248662289426
 20
147.703887409433
 10
143.7756801282468
 20
147.6854826292396
 10
143.7412385148709
 20
147.6522955208671
 10
143.701375156738
 20
147.632023402692
 10
143.6696312569027
 20
147.5866485086777
 10
143.634150580371
 20
147.5442246270192
 10
143.5929885319638
 20
147.5132570854418
 10
143.5592062864045
 20
147.4807321064794
 10
143.5282157734801
 20
147.4305362912955
 10
143.509874200909
 20
147.3638409166099
 10
143.4581723864997
 20
147.3217318623247
 10
143.4503877120165
 20
147.2711042146486
 10
143.4217898618209
 20
147.2412347544579
 10
143.409354516365
 20
147.2026775724729
 10
143.4046185382411
 20
147.1673523831522
 10
143.3989342351987
 20
147.1343611017239
 10
143.3840651749662
 20
147.0996557309861
 10
143.3889184875275
 20
147.0567854520511
 10
143.3875359244854
 20
147.0152727380245
 10
143.3883495644586
 20
146.9592292814131
 10
143.3854130251127
 20
146.9046640844936
 10
143.4088307756277
 20
146.8452842083252
 10
143.4226886232305
 20
146.7923552636587
 10
143.4606405931742
 20
146.7190687214072
 10
143.5261069459921
 20
146.6345118976983
 10
143.6505966920095
 20
146.5318759344055
 10
143.7702972225689
 20
146.5214639936882
 10
143.8410233652991
 20
146.5153120042039
 72
     1
 10
143.8410233652991
 20
146.5153120042039
 11
144.5914771884846
 21
146.5153120042039
 72
     4
 94
        3
 73
     0
 74
     0
 95
       11
 96
        7
 40
0.1647869275458135
 40
0.1647869275458135
 40
0.1647869275458135
 40
0.1647869275458135
 40
0.2545010798212315
 40
0.5111620267764023
 40
0.7602998271033902
 40
0.8850764140209603
 40
0.8850764140209603
 40
0.8850764140209603
 40
0.8850764140209603
 10
144.5914771884845
 20
146.5153120042039
 10
144.6019490888044
 20
146.5151101885609
 10
144.6423797836329
 20
146.5143310036541
 10
144.7114763257293
 20
146.5242575342387
 10
144.7841750928674
 20
146.5337699286121
 10
144.8275161043016
 20
146.540697518396
 10
144.8414946471024
 20
146.5445884511125
 72
     4
 94
        3
 73
     0
 74
     0
 95
        9
 96
        5
 40
0.0
 40
0.0
 40
0.0
 40
0.0
 40
0.1135793343552172
 40
0.2662938392177403
 40
0.2662938392177403
 40
0.2662938392177403
 40
0.2662938392177403
 10
144.8414946471024
 20
146.5445884511125
 10
144.8779796154205
 20
146.5557507908357
 10
144.9635209010979
 20
146.5819215930896
 10
145.0341975983347
 20
146.6372339108641
 10
145.0747293539905
 20
146.668954484072
 72
     4
 94
        3
 73
     0
 74
     0
 95
       25
 96
       21
 40
0.0
 40
0.0
 40
0.0
 40
0.0
 40
0.165525918914855
 40
0.3412380755365305
 40
0.5940540902285263
 40
0.7697671103696209
 40
0.9377330196075423
 40
1.11479469302833
 40
1.274661249598185
 40
1.574522170874768
 40
1.815540668866877
 40
2.15849091873445
 40
2.536227739636605
 40
2.738070817316548
 40
2.925680654369045
 40
3.162706124480894
 40
3.395643218188267
 40
3.648478129958861
 40
3.928509979727306
 40
4.337226830236035
 40
4.337226830236035
 40
4.337226830236035
 40
4.337226830236035
 10
145.0747293539905
 20
146.668954484072
 10
145.0896220113843
 20
146.6812612280177
 10
145.1178693106882
 20
146.7105313512394
 10
145.1679705473279
 20
146.757971699578
 10
145.2121207071345
 20
146.813243470032
 10
145.2665831078517
 20
146.8580393029054
 10
145.2949360633907
 20
146.912805529253
 10
145.3358046106949
 20
146.955877999752
 10
145.3700866296122
 20
147.0223991817426
 10
145.3991732283122
 20
147.0988109468867
 10
145.4269032838097
 20
147.1984122305902
 10
145.4375297271464
 20
147.3107772836358
 10
145.4218012694991
 20
147.4194904160668
 10
145.3838052918244
 20
147.5007499116037
 10
145.3558711310552
 20
147.5684713262698
 10
145.3134775424128
 20
147.6326154299469
 10
145.2651121875522
 20
147.7023792362811
 10
145.1969739667928
 20
147.760085198596
 10
145.1079243081716
 20
147.8296878879716
 10
145.0249812004531
 20
147.8323527644776
 10
144.9757611500276
 20
147.8339341539337
 72
     1
 10
144.9757611500276
 20
147.8339341539337
 11
144.2253073268422
 21
147.8339341539337
 97
        6
330
1B2A
330
1BD1
330
1B29
330
1B88
330
1B89
330
1B8A
 92
       20
 93
        1
 72
     3
 10
144.397765721473
 20
147.1562381617147
 11
0.1782847090673272
 21
0.1567790921840611
 40
0.678808341743879
 50
0.0
 51
360.0
 73
     1
 97
        1
330
1B8B
 75
     0
 76
     1
 47
0.088756267210375
 98
        2
 10
144.4501969972416
 20
147.4697254320387
 10
144.4501969972416
 20
147.4697254320387
450
        0
451
        0
460
0.0
461
0.0
452
        0
462
0.0
453
        0
470

  0
LINE
  5
1B2C
102
{ACAD_REACTORS
330
1B2D
102
}
330
18
100
AcDbEntity
  8
ROGO
 62
     4
100
AcDbLine
 10
148.0021789068495
 20
147.8284569347614
 30
0.0
 11
146.9790458751796
 21
145.7765781498554
 31
0.0
  0
HATCH
  5
1B2D
330
18
100
AcDbEntity
  8
ROGO
 62
     4
100
AcDbHatch
 10
0.0
 20
0.0
 30
0.0
210
0.0
220
0.0
230
1.0
  2
SOLID
 70
     1
 71
     1
 91
        1
 92
        7
 72
     0
 73
     1
 93
       11
 10
146.9790458751796
 20
145.7765781498554
 10
147.7351296176838
 20
145.7765781498554
 10
148.0021789068495
 20
146.3121417119749
 10
148.2692281960152
 20
145.7765781498554
 10
149.0252953960151
 20
145.7765781498554
 10
148.5137288801802
 20
146.8025175423083
 10
149.7566376255115
 20
147.8284569347613
 10
149.0005704255114
 20
147.8284569347613
 10
148.6465573424327
 20
147.6044335259398
 10
148.7582626493536
 20
147.8284569347613
 10
148.0021789068495
 20
147.8284569347614
 97
       11
330
1BD5
330
1BD4
330
1BD3
330
1BD2
330
1B2C
330
1B4C
330
1BBE
330
1BB7
330
1BB9
330
1BB8
330
1B24
 75
     0
 76
     1
 47
0.0514683685270805
 98
        1
 10
147.9371076604456
 20
146.9481609513199
450
        0
451
        0
460
0.0
461
0.0
452
        0
462
0.0
453
        0
470

  0
LINE
  5
1B2E
102
{ACAD_REACTORS
330
1B37
102
}
330
18
100
AcDbEntity
  8
ROGO
 62
     4
100
AcDbLine
 10
139.2024083454274
 20
147.8284569347614
 30
0.0
 11
139.0535741496928
 21
147.5276546040693
 31
0.0
  0
LINE
  5
1B2F
102
{ACAD_REACTORS
330
1B32
102
}
330
18
100
AcDbEntity
  8
ROGO
 62
     4
100
AcDbLine
 10
139.7169026106251
 20
147.8284569347614
 30
0.0
 11
138.7699682805259
 21
146.5153120042039
 31
0.0
  0
SPLINE
  5
1B30
102
{ACAD_REACTORS
330
1B38
102
}
330
18
100
AcDbEntity
  8
ROGO
 62
     4
100
AcDbSpline
210
0.0
220
0.0
230
1.0
 70
     8
 71
     3
 72
    26
 73
    22
 74
    20
 42
0.0000000001
 43
0.0000000001
 44
0.0000000001
 40
0.0
 40
0.0
 40
0.0
 40
0.0
 40
0.2382195346591896
 40
0.397689067266058
 40
0.5126795869787669
 40
0.5985392873135731
 40
0.7099038249249733
 40
0.7911890807494741
 40
0.9379713068543702
 40
1.057449928673087
 40
1.138714535893316
 40
1.218398644003506
 40
1.36093802187036
 40
1.461730374800257
 40
1.516014844108008
 40
1.593124329220501
 40
1.648806818593631
 40
1.729472362005518
 40
1.775122082164342
 40
1.874460993765092
 40
1.919820003751207
 40
1.919820003751207
 40
1.919820003751207
 40
1.919820003751207
 10
142.1810456646932
 20
147.8284569347614
 30
0.0
 10
142.1001902739345
 20
147.8236329634963
 30
0.0
 10
141.9652084598686
 20
147.8155797169996
 30
0.0
 10
141.8169992491568
 20
147.7255442131411
 30
0.0
 10
141.7084125047466
 20
147.6732015277988
 30
0.0
 10
141.6309685703224
 20
147.6020461063792
 30
0.0
 10
141.5742018524549
 20
147.5285477538579
 30
0.0
 10
141.5026367477573
 20
147.4409750057325
 30
0.0
 10
141.4442774498515
 20
147.3390000842679
 30
0.0
 10
141.4145586073182
 20
147.2266059432046
 30
0.0
 10
141.3882339386645
 20
147.1370271606456
 30
0.0
 10
141.3687111236916
 20
147.0372032977532
 30
0.0
 10
141.3736782805045
 20
146.929358409631
 30
0.0
 10
141.380791476389
 20
146.8291975986271
 30
0.0
 10
141.412550166313
 20
146.7576977757005
 30
0.0
 10
141.4487176887029
 20
146.7067948287711
 30
0.0
 10
141.4930043245579
 20
146.6507308760724
 30
0.0
 10
141.5414635888753
 20
146.6135999017421
 30
0.0
 10
141.581543355986
 20
146.5463346466016
 30
0.0
 10
141.6517016362484
 20
146.5377511149254
 30
0.0
 10
141.6962970303242
 20
146.5206673250484
 30
0.0
 10
141.7102765187857
 20
146.5153120042039
 30
0.0
 11
142.1810456646932
 21
147.8284569347614
 31
0.0
 11
141.9456610917394
 21
147.7918147526676
 31
0.0
 11
141.8030035883644
 21
147.7205450637343
 31
0.0
 11
141.7031435410785
 21
147.6635293590568
 31
0.0
 11
141.6389479721748
 21
147.606513422033
 31
0.0
 11
141.567619425564
 21
147.5209897488436
 31
0.0
 11
141.5176894019211
 21
147.4568470520382
 31
0.0
 11
141.4463604451569
 21
147.328561426081
 31
0.0
 11
141.4106963769281
 21
147.2145297843798
 31
0.0
 11
141.3892978539603
 21
147.1361331033183
 31
0.0
 11
141.375031898546
 21
147.057736422257
 31
0.0
 11
141.375031898546
 21
146.9151970443901
 31
0.0
 11
141.3892978539603
 21
146.8154193869449
 31
0.0
 11
141.4106963769281
 21
146.765530442049
 31
0.0
 11
141.4534934228639
 21
146.7013877452435
 31
0.0
 11
141.489157901246
 21
146.6586257924757
 31
0.0
 11
141.5462204924426
 21
146.6016100877982
 31
0.0
 11
141.5747519931177
 21
146.5659751271583
 31
0.0
 11
141.6674794728498
 21
146.5303403988648
 31
0.0
 11
141.7102765187857
 21
146.5153120042039
 31
0.0
  0
LINE
  5
1B31
102
{ACAD_REACTORS
330
1B32
102
}
330
18
100
AcDbEntity
  8
ROGO
 62
     4
100
AcDbLine
 10
140.7673060933965
 20
147.8284569347614
 30
0.0
 11
141.3506571037798
 21
146.5153120042039
 31
0.0
  0
HATCH
  5
1B32
330
18
100
AcDbEntity
  8
ROGO
 62
     4
100
AcDbHatch
 10
0.0
 20
0.0
 30
0.0
210
0.0
220
0.0
230
1.0
  2
SOLID
 70
     1
 71
     1
 91
        2
 92
        7
 72
     0
 73
     1
 93
        8
 10
140.7673060933965
 20
147.8284569347614
 10
139.7169026106251
 20
147.8284569347613
 10
138.7699682805259
 20
146.5153120042039
 10
139.4972155322175
 20
146.5153120042039
 10
139.6775059697984
 20
146.7653266742947
 10
140.5073829585828
 20
146.7653266742947
 10
140.6184493816517
 20
146.5153120042039
 10
141.3506571037798
 20
146.5153120042039
 97
        8
330
1BD0
330
1B2F
330
1B84
330
1B83
330
1B81
330
1B87
330
1B85
330
1B31
 92
       22
 72
     0
 73
     1
 93
        3
 10
140.3902378529822
 20
147.0290246859907
 10
139.8676637309435
 20
147.0290246859907
 10
140.1910304672568
 20
147.4774479578097
 97
        3
330
1B82
330
1B80
330
1B86
 75
     0
 76
     1
 47
0.0128389261915577
 98
        2
 10
140.6850512009008
 20
147.5134150179523
 10
140.6850512009008
 20
147.5134150179523
450
        0
451
        0
460
0.0
461
0.0
452
        0
462
0.0
453
        0
470

  0
LINE
  5
1B33
102
{ACAD_REACTORS
330
1B36
102
}
330
18
100
AcDbEntity
  8
ROGO
 62
     4
100
AcDbLine
 10
134.8612028907527
 20
147.8284569347614
 30
0.0
 11
133.8459523506601
 21
145.7765781498553
 31
0.0
  0
SPLINE
  5
1B34
102
{ACAD_REACTORS
330
1B36
102
}
330
18
100
AcDbEntity
  8
ROGO
 62
     4
100
AcDbSpline
210
0.0
220
0.0
230
1.0
 70
     8
 71
     3
 72
    18
 73
    14
 74
     0
 42
0.0000000001
 43
0.0000000001
 40
0.1087402787915014
 40
0.1087402787915014
 40
0.1087402787915014
 40
0.1087402787915014
 40
0.5992371417938475
 40
1.083176791562496
 40
1.448211145705696
 40
1.714037220764907
 40
2.164002567013297
 40
2.740236056362883
 40
3.395137510199602
 40
4.071816045172726
 40
4.784906178399433
 40
5.506895915094292
 40
6.060470601257719
 40
6.060470601257719
 40
6.060470601257719
 40
6.060470601257719
 10
136.4737012037379
 20
147.8284569347614
 30
0.0
 10
136.5253607413739
 20
147.8095245799137
 30
0.0
 10
136.6269486892244
 20
147.7694986885984
 30
0.0
 10
136.7509339247716
 20
147.678146378807
 30
0.0
 10
136.8185501186963
 20
147.5726876016343
 30
0.0
 10
136.8835893272394
 20
147.4687768593314
 30
0.0
 10
136.8926914457503
 20
147.319699325175
 30
0.0
 10
136.8777815607032
 20
147.1312291896033
 30
0.0
 10
136.7815246898271
 20
146.9345800520826
 30
0.0
 10
136.6270267507457
 20
146.7625830212807
 30
0.0
 10
136.4352067776527
 20
146.624918840939
 30
0.0
 10
136.2329259995454
 20
146.5168560044436
 30
0.0
 10
136.0883356424918
 20
146.515779283835
 30
0.0
 10
136.0255857255971
 20
146.5153120042039
 30
0.0
  0
LINE
  5
1B35
102
{ACAD_REACTORS
330
1B37
102
}
330
18
100
AcDbEntity
  8
ROGO
 62
     4
100
AcDbLine
 10
137.4263251969435
 20
147.8284569347614
 30
0.0
 11
136.7765932976834
 21
146.5153120042039
 31
0.0
  0
HATCH
  5
1B36
330
18
100
AcDbEntity
  8
ROGO
 62
     4
100
AcDbHatch
 10
0.0
 20
0.0
 30
0.0
210
0.0
220
0.0
230
1.0
  2
SOLID
 70
     1
 71
     1
 91
        2
 92
        5
 93
        6
 72
     1
 10
133.8459523506601
 20
145.7765781498554
 11
134.7997533065966
 21
145.7765781498554
 72
     1
 10
134.7997533065966
 20
145.7765781498554
 11
135.133977457425
 21
146.5153120042039
 72
     1
 10
135.133977457425
 20
146.5153120042039
 11
136.0255857255972
 21
146.5153120042039
 72
     4
 94
        3
 73
     0
 74
     0
 95
       18
 96
       14
 40
0.108740278791501
 40
0.108740278791501
 40
0.108740278791501
 40
0.108740278791501
 40
0.6623149649549278
 40
1.384304701649787
 40
2.097394834876493
 40
2.774073369849618
 40
3.428974823686337
 40
4.005208313035923
 40
4.455173659284313
 40
4.720999734343524
 40
5.086034088486724
 40
5.569973738255373
 40
6.060470601257719
 40
6.060470601257719
 40
6.060470601257719
 40
6.060470601257719
 10
136.0255857255971
 20
146.5153120042039
 10
136.0883356424918
 20
146.515779283835
 10
136.2329259995454
 20
146.5168560044436
 10
136.4352067776527
 20
146.624918840939
 10
136.6270267507457
 20
146.7625830212807
 10
136.7815246898271
 20
146.9345800520826
 10
136.8777815607032
 20
147.1312291896033
 10
136.8926914457503
 20
147.319699325175
 10
136.8835893272394
 20
147.4687768593314
 10
136.8185501186963
 20
147.5726876016343
 10
136.7509339247716
 20
147.678146378807
 10
136.6269486892244
 20
147.7694986885984
 10
136.5253607413739
 20
147.8095245799137
 10
136.4737012037379
 20
147.8284569347614
 72
     1
 10
136.473701203738
 20
147.8284569347614
 11
134.8612028907527
 21
147.8284569347614
 72
     1
 10
134.8612028907527
 20
147.8284569347614
 11
133.8459523506601
 21
145.7765781498554
 97
        6
330
1B34
330
1BCA
330
1B33
330
1B4C
330
1B65
330
1B60
 92
       20
 93
        4
 72
     1
 10
135.3403419497352
 20
146.9714383386626
 11
135.4983397460926
 21
147.320660023548
 72
     1
 10
135.4983397460926
 20
147.320660023548
 11
135.90432674519
 21
147.320660023548
 72
     4
 94
        3
 73
     0
 74
     0
 95
       15
 96
       11
 40
0.0
 40
0.0
 40
0.0
 40
0.0
 40
0.1539705029175028
 40
0.2241725832587281
 40
0.3038566179396687
 40
0.3581410872474193
 40
0.443992538467216
 40
0.4954152125469665
 40
0.5836396705646186
 40
0.6130478420065743
 40
0.6130478420065743
 40
0.6130478420065743
 40
0.6130478420065743
 10
135.90432674519
 20
147.320660023548
 10
135.9621550802492
 20
147.3209249081905
 10
136.0463499553073
 20
147.3213105656602
 10
136.0923907116719
 20
147.2171612617307
 10
136.0717530494384
 20
147.1501053570932
 10
136.0458098260143
 20
147.0812598428454
 10
135.9999622744719
 20
147.0344782775761
 10
135.9384281448768
 20
146.9894197439391
 10
135.880275451821
 20
146.9839652066796
 10
135.8424536528485
 20
146.9739437132254
 10
135.8329981985792
 20
146.9714383386626
 72
     1
 10
135.8329981985792
 20
146.9714383386626
 11
135.3403419497352
 21
146.9714383386626
 97
        4
330
1B61
330
1B63
330
1B62
330
1B64
 75
     0
 76
     1
 47
0.0514683685270805
 98
        2
 10
134.8698214440596
 20
147.1902681778724
 10
134.8698214440596
 20
147.1902681778724
450
        0
451
        0
460
0.0
461
0.0
452
        0
462
0.0
453
        0
470

  0
HATCH
  5
1B37
330
18
100
AcDbEntity
  8
ROGO
 62
     4
100
AcDbHatch
 10
0.0
 20
0.0
 30
0.0
210
0.0
220
0.0
230
1.0
  2
SOLID
 70
     1
 71
     1
 91
        1
 92
        1
 93
       12
 72
     1
 10
137.4263251969435
 20
147.8284569347614
 11
139.2024083454274
 21
147.8284569347614
 72
     1
 10
139.2024083454274
 20
147.8284569347614
 11
139.0535741496928
 21
147.5276546040693
 72
     1
 10
139.0535741496928
 20
147.5276546040693
 11
138.1201097274749
 21
147.5276546040693
 72
     1
 10
138.1201097274749
 20
147.5276546040693
 11
138.0037398813984
 21
147.2924645608851
 72
     1
 10
138.0037398813984
 20
147.2924645608851
 11
138.9372043036163
 21
147.2924645608851
 72
     1
 10
138.9372043036163
 20
147.2924645608851
 11
138.8178779279924
 21
147.0512992042039
 72
     1
 10
138.8178779279924
 20
147.0512992042039
 11
137.8844135057745
 21
147.0512992042039
 72
     1
 10
137.8844135057745
 20
147.0512992042039
 11
137.7680387331581
 21
146.8160992042039
 72
     1
 10
137.7680387331582
 20
146.8160992042039
 11
138.7015031553761
 21
146.8160992042039
 72
     1
 10
138.7015031553761
 20
146.8160992042039
 11
138.5526764461673
 21
146.5153120042039
 72
     1
 10
138.5526764461673
 20
146.5153120042039
 11
136.7765932976834
 21
146.5153120042039
 72
     1
 10
136.7765932976834
 20
146.5153120042039
 11
137.4263251969435
 21
147.8284569347614
 97
       12
330
1BC7
330
1B2E
330
1B48
330
1B66
330
1B49
330
1B7E
330
1B4B
330
1B67
330
1B4A
330
1B7F
330
1B47
330
1B35
 75
     0
 76
     1
 98
        1
 10
64.77619621823453
 20
57.0303608866501
450
        0
451
        0
460
0.0
461
0.0
452
        0
462
0.0
453
        0
470

  0
HATCH
  5
1B38
330
18
100
AcDbEntity
  8
ROGO
 62
     4
100
AcDbHatch
 10
0.0
 20
0.0
 30
0.0
210
0.0
220
0.0
230
1.0
  2
SOLID
 70
     1
 71
     1
 91
        1
 92
        5
 93
        8
 72
     1
 10
143.2524627062589
 20
147.3398818825445
 11
143.4960820067995
 21
147.8284569347614
 72
     1
 10
143.4960820067995
 20
147.8284569347614
 11
142.1810456646933
 21
147.8284569347614
 72
     4
 94
        3
 73
     0
 74
     0
 95
       26
 96
       22
 40
0.0
 40
0.0
 40
0.0
 40
0.0
 40
0.2382195346591896
 40
0.397689067266058
 40
0.5126795869787669
 40
0.5985392873135731
 40
0.7099038249249733
 40
0.7911890807494741
 40
0.9379713068543702
 40
1.057449928673087
 40
1.138714535893316
 40
1.218398644003506
 40
1.36093802187036
 40
1.461730374800257
 40
1.516014844108008
 40
1.593124329220501
 40
1.648806818593631
 40
1.729472362005518
 40
1.775122082164342
 40
1.874460993765092
 40
1.919820003751207
 40
1.919820003751207
 40
1.919820003751207
 40
1.919820003751207
 10
142.1810456646932
 20
147.8284569347614
 10
142.1001902739345
 20
147.8236329634963
 10
141.9652084598686
 20
147.8155797169996
 10
141.8169992491568
 20
147.7255442131411
 10
141.7084125047466
 20
147.6732015277988
 10
141.6309685703224
 20
147.6020461063792
 10
141.5742018524549
 20
147.5285477538579
 10
141.5026367477573
 20
147.4409750057325
 10
141.4442774498515
 20
147.3390000842679
 10
141.4145586073182
 20
147.2266059432046
 10
141.3882339386645
 20
147.1370271606456
 10
141.3687111236916
 20
147.0372032977532
 10
141.3736782805045
 20
146.929358409631
 10
141.380791476389
 20
146.8291975986271
 10
141.412550166313
 20
146.7576977757005
 10
141.4487176887029
 20
146.7067948287711
 10
141.4930043245579
 20
146.6507308760724
 10
141.5414635888753
 20
146.6135999017421
 10
141.581543355986
 20
146.5463346466016
 10
141.6517016362484
 20
146.5377511149254
 10
141.6962970303242
 20
146.5206673250484
 10
141.7102765187857
 20
146.5153120042039
 72
     1
 10
141.7102765187857
 20
146.5153120042039
 11
142.8413055337902
 21
146.5153120042039
 72
     1
 10
142.8413055337902
 20
146.5153120042039
 11
143.084922254469
 21
147.0038818825445
 72
     1
 10
143.084922254469
 20
147.0038818825445
 11
142.2452412335969
 21
147.0038818825445
 72
     4
 94
        3
 73
     0
 74
     0
 95
       16
 96
       12
 40
0.0
 40
0.0
 40
0.0
 40
0.0
 40
0.0719416665231651
 40
0.1446253590759065
 40
0.1879779149910977
 40
0.2295440936104405
 40
0.2751936323958134
 40
0.3070718656052443
 40
0.3373215422372259
 40
0.3986635435212919
 40
0.5242542460842631
 40
0.5242542460842631
 40
0.5242542460842631
 40
0.5242542460842631
 10
142.2452412335969
 20
147.0038818825445
 10
142.2199134949252
 20
147.0113336746331
 10
142.1689967803562
 20
147.0263141186324
 10
142.1647354625086
 20
147.0989338077698
 10
142.1705408915703
 20
147.1506812787288
 10
142.1948540414476
 20
147.188356459445
 10
142.2243501093081
 20
147.2157701104805
 10
142.2353328035598
 20
147.2514721046628
 10
142.2676154326838
 20
147.2784315769793
 10
142.324861184075
 20
147.323746683955
 10
142.3881650752863
 20
147.3333977892405
 10
142.4306957829077
 20
147.3398818825445
 72
     1
 10
142.4306957829077
 20
147.3398818825445
 11
143.2524627062589
 21
147.3398818825445
 97
        8
330
1BCF
330
1B30
330
1B7B
330
1B8D
330
1B7D
330
1B7C
330
1B8C
330
1B25
 75
     0
 76
     1
 47
0.0514683685270805
 98
        1
 10
142.6409625619001
 20
147.5361354784144
450
        0
451
        0
460
0.0
461
0.0
452
        0
462
0.0
453
        0
470

  0
HATCH
  5
1B39
330
18
100
AcDbEntity
  8
針
100
AcDbHatch
 10
0.0
 20
0.0
 30
0.0
210
0.0
220
0.0
230
1.0
  2
SOLID
 70
     1
 71
     0
 91
        2
 92
        7
 72
     1
 73
     1
 93
        5
 10
141.6185790055945
 20
159.6021098332534
 42
0.0
 10
141.5285790055946
 20
159.6021098332535
 42
0.0
 10
141.4385790055946
 20
159.6021098332534
 42
0.0
 10
141.2631320730996
 20
153.099836696443
 42
-0.0085634322047721
 10
141.7940259380895
 20
153.099836696443
 42
0.0
 97
        0
 92
        7
 72
     1
 73
     1
 93
        6
 10
141.7940259380895
 20
153.099836696443
 42
0.0085634322047721
 10
141.2631320730996
 20
153.099836696443
 42
0.0
 10
140.9285790055944
 20
140.7008999197221
 42
-0.1293106770632391
 10
140.540360520342
 20
139.2248926977812
 42
-0.2805221108582334
 10
142.5167974908471
 20
139.2248926977812
 42
-0.1293106770632486
 10
142.1285790055946
 20
140.7008999197221
 42
0.0
 97
        0
 75
     0
 76
     1
 47
0.0423559757596284
 98
        2
 10
141.4880162431302
 20
153.7280907086024
 10
141.6151823605217
 20
149.3230692051231
450
        0
451
        0
460
0.0
461
0.0
452
        0
462
0.0
453
        0
470

  0
LINE
  5
1B3A
330
18
100
AcDbEntity
  8
針
100
AcDbLine
 10
141.4385790055946
 20
159.6021098332534
 30
0.0
 11
140.9285790055944
 21
140.7008999197225
 31
0.0
  0
LINE
  5
1B3B
330
18
100
AcDbEntity
  8
針
100
AcDbLine
 10
141.6185790055945
 20
159.6021098332534
 30
0.0
 11
142.1285790055946
 21
140.7008999197225
 31
0.0
  0
TEXT
  5
1B3C
330
18
100
AcDbEntity
  8
文字
100
AcDbText
 10
139.9194280720328
 20
124.2763951448418
 30
0.0
 40
1.0
  1
6
  7
STYLE3
100
AcDbText
  0
TEXT
  5
1B3D
330
18
100
AcDbEntity
  8
文字
100
AcDbText
 10
135.6719652081756
 20
124.1854086003332
 30
0.0
 40
1.0
  1
4
  7
STYLE3
100
AcDbText
  0
TEXT
  5
1B3E
330
18
100
AcDbEntity
  8
文字
100
AcDbText
 10
137.8106273827425
 20
123.6052457113704
 30
0.0
 40
1.0
  1
5
  7
STYLE3
100
AcDbText
  0
LINE
  5
1B3F
330
18
100
AcDbEntity
  8
中心線
 48
0.2
100
AcDbLine
 10
138.3285790055945
 20
133.8915993396098
 30
0.0
 11
138.3285790055945
 21
121.1646775038691
 31
0.0
  0
CIRCLE
  5
1B40
330
18
100
AcDbEntity
  8
外形線
100
AcDbCircle
 10
138.3285790055945
 20
127.5281384217394
 30
0.0
 40
4.75
  0
LINE
  5
1B43
330
18
100
AcDbEntity
  8
目盛
100
AcDbLine
 10
135.5365990572052
 20
123.6853076984584
 30
0.0
 11
135.8304916833514
 21
124.0898161956459
 31
0.0
  0
LINE
  5
1B45
330
18
100
AcDbEntity
  8
目盛
100
AcDbLine
 10
138.3285790055945
 20
122.7781384217395
 30
0.0
 11
138.3285790055945
 21
123.2781384217394
 31
0.0
  0
LINE
  5
1B46
330
18
100
AcDbEntity
  8
目盛
100
AcDbLine
 10
141.1205589539838
 20
123.6853076984584
 30
0.0
 11
140.8266663278375
 21
124.089816195646
 31
0.0
  0
LINE
  5
1B47
102
{ACAD_REACTORS
330
1B37
102
}
330
18
100
AcDbEntity
  8
ROGO
 62
     4
100
AcDbLine
 10
136.7765932976834
 20
146.5153120042039
 30
0.0
 11
138.5526764461673
 21
146.5153120042039
 31
0.0
  0
LINE
  5
1B48
102
{ACAD_REACTORS
330
1B37
102
}
330
18
100
AcDbEntity
  8
ROGO
 62
     4
100
AcDbLine
 10
138.1201097274749
 20
147.5276546040693
 30
0.0
 11
139.0535741496928
 21
147.5276546040693
 31
0.0
  0
LINE
  5
1B49
102
{ACAD_REACTORS
330
1B37
102
}
330
18
100
AcDbEntity
  8
ROGO
 62
     4
100
AcDbLine
 10
138.0037398813984
 20
147.2924645608851
 30
0.0
 11
138.9372043036163
 21
147.2924645608851
 31
0.0
  0
LINE
  5
1B4A
102
{ACAD_REACTORS
330
1B37
102
}
330
18
100
AcDbEntity
  8
ROGO
 62
     4
100
AcDbLine
 10
137.7680387331582
 20
146.8160992042039
 30
0.0
 11
138.7015031553761
 21
146.8160992042039
 31
0.0
  0
LINE
  5
1B4B
102
{ACAD_REACTORS
330
1B37
102
}
330
18
100
AcDbEntity
  8
ROGO
 62
     4
100
AcDbLine
 10
137.8844135057745
 20
147.0512992042039
 30
0.0
 11
138.8178779279924
 21
147.0512992042039
 31
0.0
  0
LINE
  5
1B4C
102
{ACAD_REACTORS
330
1B2D
330
1B36
102
}
330
18
100
AcDbEntity
  8
ROGO
 62
     4
100
AcDbLine
 10
133.8459523506601
 20
145.7765781498554
 30
0.0
 11
147.7351296176838
 21
145.7765781498554
 31
0.0
  0
LINE
  5
1B4D
330
18
100
AcDbEntity
  8
ROGO
 62
     4
100
AcDbLine
 10
134.8785408951018
 20
145.9822483561467
 30
0.0
 11
147.0815996825658
 21
145.9822483561467
 31
0.0
  0
HATCH
  5
1B4E
330
18
100
AcDbEntity
  8
ROGO
 62
     4
100
AcDbHatch
 10
0.0
 20
0.0
 30
0.0
210
0.0
220
0.0
230
1.0
  2
SOLID
 70
     1
 71
     0
 91
        1
 92
        7
 72
     0
 73
     1
 93
        4
 10
134.8928043420186
 20
145.9822483561467
 10
134.7997533065966
 20
145.7765781498554
 10
146.9790458751796
 20
145.7765781498554
 10
147.0815996825657
 20
145.9822483561467
 97
        0
 75
     0
 76
     1
 47
0.0514683685270805
 98
        1
 10
142.5890396029068
 20
145.9278518919419
450
        0
451
        0
460
0.0
461
0.0
452
        0
462
0.0
453
        0
470

  0
TEXT
  5
1B4F
330
18
100
AcDbEntity
  8
文字
100
AcDbText
 10
137.8422025664641
 20
130.5559123502143
 30
0.0
 40
1.0
  1
0
  7
STYLE3
100
AcDbText
  0
LINE
  5
1B50
330
18
100
AcDbEntity
  8
文字
100
AcDbLine
 10
138.4285790055945
 20
132.2281384217394
 30
0.0
 11
138.2285790055944
 21
132.2281384217394
 31
0.0
  0
ARC
  5
1B51
330
18
100
AcDbEntity
  8
針
100
AcDbCircle
 10
137.6837185922489
 20
128.9924317828175
 30
0.0
 40
0.5
100
AcDbArc
 50
293.7682212975196
 51
359.2065408792653
  0
HATCH
  5
1B52
330
18
100
AcDbEntity
  8
針
100
AcDbHatch
 10
0.0
 20
0.0
 30
0.0
210
0.0
220
0.0
230
1.0
  2
SOLID
 70
     1
 71
     0
 91
        2
 92
        7
 72
     1
 73
     1
 93
        5
 10
138.6812532952387
 20
126.4862071162188
 42
0.31735696877887
 10
139.4284518453708
 20
127.5114131019383
 42
0.0
 10
139.0671211680881
 20
127.7781211520305
 42
0.0
 10
139.038986713904
 20
127.7685981646786
 42
-0.4142135623731173
 10
138.5690387485337
 20
126.8177307134299
 42
0.0
 97
        0
 92
        7
 72
     1
 73
     1
 93
        4
 10
138.6812532952387
 20
126.4862071162188
 42
0.0
 10
138.5690387485337
 20
126.8177307134299
 42
-0.4142135623730728
 10
137.618171297285
 20
127.2876786788002
 42
0.0
 10
137.2866477000739
 20
127.1754641320952
 42
0.4142135623730844
 97
        0
 75
     0
 76
     1
 47
0.0161501285364394
 98
        2
 10
138.9901260174206
 20
126.8318086193358
 10
138.3113309465034
 20
126.6190990773852
450
        0
451
        0
460
0.0
461
0.0
452
        0
462
0.0
453
        0
470

  0
HATCH
  5
1B53
330
18
100
AcDbEntity
  8
針
100
AcDbHatch
 10
0.0
 20
0.0
 30
0.0
210
0.0
220
0.0
230
1.0
  2
SOLID
 70
     1
 71
     0
 91
        4
 92
        7
 72
     1
 73
     1
 93
        4
 10
137.2406615558963
 20
127.690728773982
 42
0.0
 10
137.586817108073
 20
127.6389954800867
 42
-0.4142135623730951
 10
138.4394360639416
 20
128.2699003192609
 42
0.0
 10
138.491169357837
 20
128.6160558714376
 42
0.4142135623730996
 97
        0
 92
        7
 72
     1
 73
     1
 93
        5
 10
137.586817108073
 20
127.6389954800867
 42
0.0
 10
137.2406615558963
 20
127.690728773982
 42
0.3173569687788799
 10
137.8109536372249
 20
126.5575386185145
 42
0.0
 10
138.2133316474341
 20
126.7570003422352
 42
0.0
 10
138.2177219472472
 20
126.786376524218
 42
-0.4142135623730839
 97
        0
 92
        7
 72
     1
 73
     1
 93
        4
 10
138.491169357837
 20
128.6160558714376
 42
0.0
 10
138.4394360639416
 20
128.2699003192609
 42
-0.4142135623730951
 10
139.0703409031159
 20
127.4172813633922
 42
0.0
 10
139.4164964552926
 20
127.3655480694969
 42
0.4142135623730996
 97
        0
 92
        7
 72
     1
 73
     1
 93
        4
 10
139.0703409031159
 20
127.4172813633922
 42
-0.1036385141593389
 10
138.9634490730071
 20
127.12883903844
 42
0.0
 10
139.4144507108852
 20
127.3524038501582
 42
0.003023315109616
 10
139.4164964552926
 20
127.3655480694969
 42
0.0
 97
        0
 75
     0
 76
     1
 47
0.0223982890607777
 98
        4
 10
137.8245235045954
 20
128.3798936098081
 10
137.4971685173328
 20
127.250254408705
 10
138.7559588547866
 20
128.3993420806147
 10
139.141830311516
 20
127.3444276339016
450
        0
451
        0
460
0.0
461
0.0
452
        0
462
0.0
453
        0
470

  0
CIRCLE
  5
1B54
330
18
100
AcDbEntity
  8
針
100
AcDbCircle
 10
138.3285790055945
 20
127.5281384217394
 30
0.0
 40
1.1
  0
CIRCLE
  5
1B55
330
18
100
AcDbEntity
  8
針
100
AcDbCircle
 10
138.3285790055945
 20
127.5281384217394
 30
0.0
 40
0.75
  0
CIRCLE
  5
1B56
330
18
100
AcDbEntity
  8
針
 62
     4
100
AcDbCircle
 10
138.3285790055945
 20
127.5281384217394
 30
0.0
 40
0.4
  0
HATCH
  5
1B57
330
18
100
AcDbEntity
  8
針
100
AcDbHatch
 10
0.0
 20
0.0
 30
0.0
210
0.0
220
0.0
230
1.0
  2
SOLID
 70
     1
 71
     0
 91
        1
 92
        7
 72
     1
 73
     1
 93
        7
 10
138.4285790055946
 20
132.2281384217395
 42
0.0
 10
138.3285790055944
 20
132.2281384217394
 42
0.0
 10
138.2285790055944
 20
132.2281384217394
 42
0.0
 10
138.1836706479561
 20
128.985507767069
 42
-0.2935495917910092
 10
137.8852374714193
 20
128.5348401074809
 42
-0.2104432563350663
 10
138.7719198601523
 20
128.5348404067776
 42
-0.2935491884945053
 10
138.4734873632329
 20
128.985507767069
 42
0.0
 97
        0
 75
     0
 76
     1
 47
0.0140573597042523
 98
        1
 10
138.3871807214919
 20
130.4226984670397
450
        0
451
        0
460
0.0
461
0.0
452
        0
462
0.0
453
        0
470

  0
LINE
  5
1B58
330
18
100
AcDbEntity
  8
中心線
 48
0.2
100
AcDbLine
 10
131.9651180877241
 20
127.5281384217394
 30
0.0
 11
144.6920399234649
 21
127.5281384217394
 31
0.0
  0
TEXT
  5
1B59
330
18
100
AcDbEntity
  8
文字
100
AcDbText
 10
135.9020887917671
 20
129.7396220469221
 30
0.0
 40
1.0
  1
1
  7
STYLE3
100
AcDbText
  0
LINE
  5
1B5A
330
18
100
AcDbEntity
  8
針
100
AcDbLine
 10
138.1836706479561
 20
128.985507767069
 30
0.0
 11
138.2285790055944
 21
132.2281384217394
 31
0.0
  0
LINE
  5
1B5B
330
18
100
AcDbEntity
  8
目盛
100
AcDbLine
 10
133.8110605531924
 20
128.9959691450204
 30
0.0
 11
134.2865888113401
 21
128.841460647833
 31
0.0
  0
LINE
  5
1B5C
330
18
100
AcDbEntity
  8
目盛
100
AcDbLine
 10
133.8110605531924
 20
126.0603076984585
 30
0.0
 11
134.28658881134
 21
126.2148161956459
 31
0.0
  0
TEXT
  5
1B5D
330
18
100
AcDbEntity
  8
文字
100
AcDbText
 10
134.5233267237515
 20
125.7836222090483
 30
0.0
 40
1.0
  1
3
  7
STYLE3
100
AcDbText
  0
TEXT
  5
1B5E
330
18
100
AcDbEntity
  8
文字
100
AcDbText
 10
134.5769770500163
 20
128.0077371580645
 30
0.0
 40
1.0
  1
2
  7
STYLE3
100
AcDbText
  0
LINE
  5
1B5F
330
18
100
AcDbEntity
  8
目盛
100
AcDbLine
 10
135.5365990572052
 20
131.3709691450204
 30
0.0
 11
135.8304916833515
 21
130.966460647833
 31
0.0
  0
LINE
  5
1B60
102
{ACAD_REACTORS
330
1B36
102
}
330
18
100
AcDbEntity
  8
ROGO
 62
     4
100
AcDbLine
 10
136.0255857259063
 20
146.5153120042039
 30
0.0
 11
135.133977457425
 21
146.5153120042039
 31
0.0
  0
LINE
  5
1B61
102
{ACAD_REACTORS
330
1B36
102
}
330
18
100
AcDbEntity
  8
ROGO
 62
     4
100
AcDbLine
 10
135.4983397460926
 20
147.320660023548
 30
0.0
 11
135.3403419497352
 21
146.9714383386626
 31
0.0
  0
SPLINE
  5
1B62
102
{ACAD_REACTORS
330
1B36
102
}
330
18
100
AcDbEntity
  8
ROGO
 62
     4
100
AcDbSpline
210
0.0
220
0.0
230
1.0
 70
     8
 71
     3
 72
    15
 73
    11
 74
     9
 42
0.0000000001
 43
0.0000000001
 44
0.0000000001
 40
0.0
 40
0.0
 40
0.0
 40
0.0
 40
0.1539705029175028
 40
0.2241725832587281
 40
0.3038566179396687
 40
0.3581410872474193
 40
0.443992538467216
 40
0.4954152125469665
 40
0.5836396705646186
 40
0.6130478420065743
 40
0.6130478420065743
 40
0.6130478420065743
 40
0.6130478420065743
 10
135.90432674519
 20
147.320660023548
 30
0.0
 10
135.9621550802492
 20
147.3209249081905
 30
0.0
 10
136.0463499553073
 20
147.3213105656602
 30
0.0
 10
136.0923907116719
 20
147.2171612617307
 30
0.0
 10
136.0717530494384
 20
147.1501053570932
 30
0.0
 10
136.0458098260143
 20
147.0812598428454
 30
0.0
 10
135.9999622744719
 20
147.0344782775761
 30
0.0
 10
135.9384281448768
 20
146.9894197439391
 30
0.0
 10
135.880275451821
 20
146.9839652066796
 30
0.0
 10
135.8424536528485
 20
146.9739437132254
 30
0.0
 10
135.8329981985792
 20
146.9714383386626
 30
0.0
 11
135.90432674519
 21
147.320660023548
 31
0.0
 11
136.0541168161188
 21
147.2850250629081
 31
0.0
 11
136.0826483167938
 21
147.2208823661027
 31
0.0
 11
136.068382771533
 21
147.1424856850413
 31
0.0
 11
136.0469842485651
 21
147.0925967401455
 31
0.0
 11
135.989921247215
 21
147.0284540433401
 31
0.0
 11
135.9471242012792
 21
146.9999460748281
 31
0.0
 11
135.8615296992542
 21
146.9785653307906
 31
0.0
 11
135.8329981985792
 21
146.9714383386626
 31
0.0
  0
LINE
  5
1B63
102
{ACAD_REACTORS
330
1B36
102
}
330
18
100
AcDbEntity
  8
ROGO
 62
     4
100
AcDbLine
 10
135.9043267451901
 20
147.320660023548
 30
0.0
 11
135.4983397460926
 21
147.320660023548
 31
0.0
  0
LINE
  5
1B64
102
{ACAD_REACTORS
330
1B36
102
}
330
18
100
AcDbEntity
  8
ROGO
 62
     4
100
AcDbLine
 10
135.8329981985793
 20
146.9714383386626
 30
0.0
 11
135.3403419497352
 21
146.9714383386626
 31
0.0
  0
LINE
  5
1B65
102
{ACAD_REACTORS
330
1B36
102
}
330
18
100
AcDbEntity
  8
ROGO
 62
     4
100
AcDbLine
 10
135.133977457425
 20
146.5153120042039
 30
0.0
 11
134.7997533065966
 21
145.7765781498554
 31
0.0
  0
LINE
  5
1B66
102
{ACAD_REACTORS
330
1B37
102
}
330
18
100
AcDbEntity
  8
ROGO
 62
     4
100
AcDbLine
 10
138.1201097274749
 20
147.5276546040693
 30
0.0
 11
138.0037398813984
 21
147.2924645608851
 31
0.0
  0
LINE
  5
1B67
102
{ACAD_REACTORS
330
1B37
102
}
330
18
100
AcDbEntity
  8
ROGO
 62
     4
100
AcDbLine
 10
137.8844135057745
 20
147.0512992042039
 30
0.0
 11
137.7680387331581
 21
146.8160992042039
 31
0.0
  0
CIRCLE
  5
1B68
330
18
100
AcDbEntity
  8
針
100
AcDbCircle
 10
141.5285790055945
 20
137.6021098332534
 30
0.0
 40
1.9
  0
TEXT
  5
1B69
330
18
100
AcDbEntity
  8
文字
100
AcDbText
 10
139.9465213300625
 20
129.7836864500438
 30
0.0
 40
1.0
  1
9
  7
STYLE3
100
AcDbText
  0
LINE
  5
1B6A
330
18
100
AcDbEntity
  8
針
100
AcDbLine
 10
138.4734873632329
 20
128.985507767069
 30
0.0
 11
138.4285790055945
 21
132.2281384217394
 31
0.0
  0
TEXT
  5
1B6B
330
18
100
AcDbEntity
  8
文字
100
AcDbText
 10
141.3277422849326
 20
125.7256095014429
 30
0.0
 40
1.0
  1
7
  7
STYLE3
100
AcDbText
  0
ARC
  5
1B6C
330
18
100
AcDbEntity
  8
針
100
AcDbCircle
 10
138.97343941894
 20
128.9924317828175
 30
0.0
 40
0.5
100
AcDbArc
 50
180.7934591207347
 51
246.2317787024804
  0
TEXT
  5
1B6D
330
18
100
AcDbEntity
  8
文字
100
AcDbText
 10
141.377165130805
 20
128.1382463494934
 30
0.0
 40
1.0
  1
8
  7
STYLE3
100
AcDbText
  0
LINE
  5
1B6E
330
18
100
AcDbEntity
  8
目盛
100
AcDbLine
 10
142.8460974579964
 20
126.0603076984585
 30
0.0
 11
142.3705691998489
 21
126.2148161956459
 31
0.0
  0
LINE
  5
1B6F
330
18
100
AcDbEntity
  8
目盛
100
AcDbLine
 10
142.8460974579964
 20
128.9959691450204
 30
0.0
 11
142.3705691998489
 21
128.8414606478329
 31
0.0
  0
LINE
  5
1B70
330
18
100
AcDbEntity
  8
目盛
100
AcDbLine
 10
138.3285790055945
 20
132.2781384217394
 30
0.0
 11
138.3285790055945
 21
131.7781384217394
 31
0.0
  0
LINE
  5
1B71
330
18
100
AcDbEntity
  8
目盛
100
AcDbLine
 10
141.1205589539837
 20
131.3709691450204
 30
0.0
 11
140.8266663278375
 21
130.966460647833
 31
0.0
  0
LINE
  5
1B72
102
{ACAD_REACTORS
330
1B28
102
}
330
18
100
AcDbEntity
  8
ROGO
 62
     4
100
AcDbLine
 10
145.9413462897134
 20
146.5153120042039
 30
0.0
 11
147.0723753047181
 21
146.5153120042039
 31
0.0
  0
CIRCLE
  5
1B73
330
18
100
AcDbEntity
  8
針
100
AcDbCircle
 10
141.5285790055945
 20
137.6021098332534
 30
0.0
 40
1.5
  0
POINT
  5
1B74
330
18
100
AcDbEntity
  8
DEFPOINTS
  6
ByBlock
 62
     0
100
AcDbPoint
 10
141.5285790055945
 20
137.6021098332534
 30
0.0
  0
POINT
  5
1B75
330
18
100
AcDbEntity
  8
DEFPOINTS
  6
ByBlock
 62
     0
100
AcDbPoint
 10
141.5285790055945
 20
137.6021098332534
 30
0.0
  0
POINT
  5
1B76
330
18
100
AcDbEntity
  8
DEFPOINTS
  6
ByBlock
 62
     0
100
AcDbPoint
 10
141.5285790055945
 20
137.6021098332534
 30
0.0
  0
POINT
  5
1B77
330
18
100
AcDbEntity
  8
DEFPOINTS
  6
ByBlock
 62
     0
100
AcDbPoint
 10
141.5285790055945
 20
137.6021098332534
 30
0.0
  0
CIRCLE
  5
1B78
330
18
100
AcDbEntity
  8
針
100
AcDbCircle
 10
141.5285790055945
 20
137.6021098332534
 30
0.0
 40
0.475
  0
ARC
  5
1B79
330
18
100
AcDbEntity
  8
針
100
AcDbCircle
 10
137.9285790055945
 20
140.7008999197225
 30
0.0
 40
3.0
100
AcDbArc
 50
330.5277208229603
 51
0.0
  0
ARC
  5
1B7A
330
18
100
AcDbEntity
  8
針
100
AcDbCircle
 10
145.1285790055946
 20
140.7008999197225
 30
0.0
 40
3.0
100
AcDbArc
 50
180.0
 51
209.4722791770395
  0
LINE
  5
1B7B
102
{ACAD_REACTORS
330
1B38
102
}
330
18
100
AcDbEntity
  8
ROGO
 62
     4
100
AcDbLine
 10
141.7102765187856
 20
146.5153120042039
 30
0.0
 11
142.8413055337902
 21
146.5153120042039
 31
0.0
  0
SPLINE
  5
1B7C
102
{ACAD_REACTORS
330
1B38
102
}
330
18
100
AcDbEntity
  8
ROGO
 62
     4
100
AcDbSpline
210
0.0
220
0.0
230
1.0
 70
     8
 71
     3
 72
    16
 73
    12
 74
    10
 42
0.0000000001
 43
0.0000000001
 44
0.0000000001
 40
0.0
 40
0.0
 40
0.0
 40
0.0
 40
0.1255907025629711
 40
0.1869327038470372
 40
0.2171823804790188
 40
0.2490606136884497
 40
0.2947101524738226
 40
0.3362763310931653
 40
0.3796288870083566
 40
0.452312579561098
 40
0.5242542460842631
 40
0.5242542460842631
 40
0.5242542460842631
 40
0.5242542460842631
 10
142.4306957829077
 20
147.3398818825445
 30
0.0
 10
142.3881650752863
 20
147.3333977892405
 30
0.0
 10
142.324861184075
 20
147.323746683955
 30
0.0
 10
142.2676154326838
 20
147.2784315769793
 30
0.0
 10
142.2353328035598
 20
147.2514721046628
 30
0.0
 10
142.2243501093081
 20
147.2157701104805
 30
0.0
 10
142.1948540414476
 20
147.188356459445
 30
0.0
 10
142.1705408915703
 20
147.1506812787288
 30
0.0
 10
142.1647354625086
 20
147.0989338077698
 30
0.0
 10
142.1689967803562
 20
147.0263141186324
 30
0.0
 10
142.2199134949252
 20
147.0113336746331
 30
0.0
 10
142.2452412335969
 20
147.0038818825445
 30
0.0
 11
142.4306957829077
 21
147.3398818825445
 31
0.0
 11
142.309437212654
 21
147.3071804496971
 31
0.0
 11
142.2595071890111
 21
147.2715457214036
 31
0.0
 11
142.2381086660432
 21
147.2501647450195
 31
0.0
 11
142.223842710629
 21
147.2216567765077
 31
0.0
 11
142.195311209954
 21
147.1860220482142
 31
0.0
 11
142.173912686986
 21
147.1503870875743
 31
0.0
 11
142.1667797092789
 21
147.1076253671528
 31
0.0
 11
142.1810456646932
 21
147.0363554458731
 31
0.0
 11
142.2452412335969
 21
147.0038818825445
 31
0.0
  0
LINE
  5
1B7D
102
{ACAD_REACTORS
330
1B38
102
}
330
18
100
AcDbEntity
  8
ROGO
 62
     4
100
AcDbLine
 10
142.2452412335969
 20
147.0038818825445
 30
0.0
 11
143.084922254469
 21
147.0038818825445
 31
0.0
  0
LINE
  5
1B7E
102
{ACAD_REACTORS
330
1B37
102
}
330
18
100
AcDbEntity
  8
ROGO
 62
     4
100
AcDbLine
 10
138.9372043036163
 20
147.2924645608851
 30
0.0
 11
138.8178779279924
 21
147.0512992042039
 31
0.0
  0
LINE
  5
1B7F
102
{ACAD_REACTORS
330
1B37
102
}
330
18
100
AcDbEntity
  8
ROGO
 62
     4
100
AcDbLine
 10
138.7015031553761
 20
146.8160992042039
 30
0.0
 11
138.5526764461673
 21
146.5153120042039
 31
0.0
  0
LINE
  5
1B80
102
{ACAD_REACTORS
330
1B32
102
}
330
18
100
AcDbEntity
  8
ROGO
 62
     4
100
AcDbLine
 10
140.1910304672568
 20
147.4774479578096
 30
0.0
 11
139.8676637309435
 21
147.0290246859907
 31
0.0
  0
LINE
  5
1B81
102
{ACAD_REACTORS
330
1B32
102
}
330
18
100
AcDbEntity
  8
ROGO
 62
     4
100
AcDbLine
 10
139.6775059697984
 20
146.7653266742947
 30
0.0
 11
140.5073829585828
 21
146.7653266742947
 31
0.0
  0
LINE
  5
1B82
102
{ACAD_REACTORS
330
1B32
102
}
330
18
100
AcDbEntity
  8
ROGO
 62
     4
100
AcDbLine
 10
139.8676637309435
 20
147.0290246859908
 30
0.0
 11
140.3902378529822
 21
147.0290246859908
 31
0.0
  0
LINE
  5
1B83
102
{ACAD_REACTORS
330
1B32
102
}
330
18
100
AcDbEntity
  8
ROGO
 62
     4
100
AcDbLine
 10
139.6775059697984
 20
146.7653266742947
 30
0.0
 11
139.4972155322176
 21
146.5153120042039
 31
0.0
  0
LINE
  5
1B84
102
{ACAD_REACTORS
330
1B32
102
}
330
18
100
AcDbEntity
  8
ROGO
 62
     4
100
AcDbLine
 10
138.7699682805259
 20
146.5153120042039
 30
0.0
 11
139.4972155322175
 21
146.5153120042039
 31
0.0
  0
LINE
  5
1B85
102
{ACAD_REACTORS
330
1B32
102
}
330
18
100
AcDbEntity
  8
ROGO
 62
     4
100
AcDbLine
 10
141.3506571037798
 20
146.5153120042039
 30
0.0
 11
140.6184493816517
 21
146.5153120042039
 31
0.0
  0
LINE
  5
1B86
102
{ACAD_REACTORS
330
1B32
102
}
330
18
100
AcDbEntity
  8
ROGO
 62
     4
100
AcDbLine
 10
140.1910304672568
 20
147.4774479578096
 30
0.0
 11
140.3902378529822
 21
147.0290246859907
 31
0.0
  0
LINE
  5
1B87
102
{ACAD_REACTORS
330
1B32
102
}
330
18
100
AcDbEntity
  8
ROGO
 62
     4
100
AcDbLine
 10
140.5073829585828
 20
146.7653266742947
 30
0.0
 11
140.6184493816517
 21
146.5153120042039
 31
0.0
  0
LINE
  5
1B88
102
{ACAD_REACTORS
330
1B2B
102
}
330
18
100
AcDbEntity
  8
ROGO
 62
     4
100
AcDbLine
 10
143.8410233652991
 20
146.5153120042039
 30
0.0
 11
144.5914771884845
 21
146.5153120042039
 31
0.0
  0
SPLINE
  5
1B89
102
{ACAD_REACTORS
330
1B2B
102
}
330
18
100
AcDbEntity
  8
ROGO
 62
     4
100
AcDbSpline
210
0.0
220
0.0
230
1.0
 70
     8
 71
     3
 72
    11
 73
     7
 74
     0
 42
0.0000000001
 43
0.0000000001
 40
0.1647869275458134
 40
0.1647869275458134
 40
0.1647869275458134
 40
0.1647869275458134
 40
0.2895635144633836
 40
0.5387013147903714
 40
0.7953622617455423
 40
0.8850764140209602
 40
0.8850764140209602
 40
0.8850764140209602
 40
0.8850764140209602
 10
144.8414946471024
 20
146.5445884511125
 30
0.0
 10
144.8275161043016
 20
146.540697518396
 30
0.0
 10
144.7841750928674
 20
146.5337699286121
 30
0.0
 10
144.7114763257293
 20
146.5242575342387
 30
0.0
 10
144.6423797836329
 20
146.5143310036541
 30
0.0
 10
144.6019490888044
 20
146.5151101885609
 30
0.0
 10
144.5914771884845
 20
146.5153120042039
 30
0.0
  0
SPLINE
  5
1B8A
102
{ACAD_REACTORS
330
1B2B
102
}
330
18
100
AcDbEntity
  8
ROGO
 62
     4
100
AcDbSpline
210
0.0
220
0.0
230
1.0
 70
     8
 71
     3
 72
     9
 73
     5
 74
     3
 42
0.0000000001
 43
0.0000000001
 44
0.0000000001
 40
0.0
 40
0.0
 40
0.0
 40
0.0
 40
0.1135793343552172
 40
0.2662938392177403
 40
0.2662938392177403
 40
0.2662938392177403
 40
0.2662938392177403
 10
144.8414946471024
 20
146.5445884511125
 30
0.0
 10
144.8779796154205
 20
146.5557507908357
 30
0.0
 10
144.9635209010979
 20
146.5819215930896
 30
0.0
 10
145.0341975983347
 20
146.6372339108641
 30
0.0
 10
145.0747293539905
 20
146.668954484072
 30
0.0
 11
144.8414946471024
 21
146.5445884511125
 31
0.0
 11
144.9482454113271
 21
146.5833768453822
 31
0.0
 11
145.0747293539905
 21
146.668954484072
 31
0.0
  0
ELLIPSE
  5
1B8B
102
{ACAD_REACTORS
330
1B2B
102
}
330
18
100
AcDbEntity
  8
ROGO
 62
     4
100
AcDbEllipse
 10
144.397765721473
 20
147.1562381617147
 30
0.0
 11
0.1782847090673272
 21
0.1567790921840611
 31
0.0
210
0.0
220
0.0
230
0.9999999999999998
 40
0.6788083417438792
 41
0.0
 42
6.283185307179586
  0
LINE
  5
1B8C
102
{ACAD_REACTORS
330
1B38
102
}
330
18
100
AcDbEntity
  8
ROGO
 62
     4
100
AcDbLine
 10
142.4306957829077
 20
147.3398818825445
 30
0.0
 11
143.2524627062589
 21
147.3398818825445
 31
0.0
  0
LINE
  5
1B8D
102
{ACAD_REACTORS
330
1B38
102
}
330
18
100
AcDbEntity
  8
ROGO
 62
     4
100
AcDbLine
 10
143.084922254469
 20
147.0038818825445
 30
0.0
 11
142.8413055337902
 21
146.5153120042039
 31
0.0
  0
TEXT
  5
1B8E
330
18
100
AcDbEntity
  8
文字
100
AcDbText
 10
147.5971143258484
 20
137.1665864293392
 30
0.0
 40
1.0
  1
0.01mm
  7
STYLE3
100
AcDbText
  0
LINE
  5
1BB7
102
{ACAD_REACTORS
330
1B2D
102
}
330
18
100
AcDbEntity
  8
ROGO
 62
     4
100
AcDbLine
 10
148.0021789068495
 20
146.3121417119749
 30
0.0
 11
148.2692281960152
 21
145.7765781498554
 31
0.0
  0
LINE
  5
1BB8
102
{ACAD_REACTORS
330
1B2D
102
}
330
18
100
AcDbEntity
  8
ROGO
 62
     4
100
AcDbLine
 10
148.5137288801803
 20
146.8025175423084
 30
0.0
 11
149.0252953960151
 21
145.7765781498554
 31
0.0
  0
LINE
  5
1BB9
102
{ACAD_REACTORS
330
1B2D
102
}
330
18
100
AcDbEntity
  8
ROGO
 62
     4
100
AcDbLine
 10
148.2692281960152
 20
145.7765781498554
 30
0.0
 11
149.0252953960151
 21
145.7765781498554
 31
0.0
  0
SPLINE
  5
1BBA
102
{ACAD_REACTORS
330
1B28
102
}
330
18
100
AcDbEntity
  8
ROGO
 62
     4
100
AcDbSpline
210
0.0
220
0.0
230
1.0
 70
     8
 71
     3
 72
    16
 73
    12
 74
    10
 42
0.0000000001
 43
0.0000000001
 44
0.0000000001
 40
0.0
 40
0.0
 40
0.0
 40
0.0
 40
0.1255907025629163
 40
0.1869327038470616
 40
0.217182380479003
 40
0.2490606136884339
 40
0.2947101524738157
 40
0.3362763310931585
 40
0.3796288870082937
 40
0.4523125795610796
 40
0.5242542460842448
 40
0.5242542460842448
 40
0.5242542460842448
 40
0.5242542460842448
 10
146.6617655538356
 20
147.3398818825445
 30
0.0
 10
146.6192348462142
 20
147.3333977892405
 30
0.0
 10
146.5559309550028
 20
147.323746683955
 30
0.0
 10
146.4986852036117
 20
147.2784315769793
 30
0.0
 10
146.4664025744875
 20
147.2514721046628
 30
0.0
 10
146.455419880236
 20
147.2157701104806
 30
0.0
 10
146.4259238123754
 20
147.1883564594449
 30
0.0
 10
146.4016106624982
 20
147.1506812787288
 30
0.0
 10
146.3958052334364
 20
147.0989338077697
 30
0.0
 10
146.400066551284
 20
147.0263141186324
 30
0.0
 10
146.450983265853
 20
147.0113336746331
 30
0.0
 10
146.4763110045248
 20
147.0038818825444
 30
0.0
 11
146.6617655538356
 21
147.3398818825445
 31
0.0
 11
146.5405069835819
 21
147.3071804496971
 31
0.0
 11
146.4905769599389
 21
147.2715457214035
 31
0.0
 11
146.4691784369711
 21
147.2501647450195
 31
0.0
 11
146.4549124815568
 21
147.2216567765077
 31
0.0
 11
146.4263809808819
 21
147.1860220482142
 31
0.0
 11
146.4049824579139
 21
147.1503870875743
 31
0.0
 11
146.3978494802068
 21
147.1076253671528
 31
0.0
 11
146.412115435621
 21
147.036355445873
 31
0.0
 11
146.4763110045248
 21
147.0038818825444
 31
0.0
  0
LINE
  5
1BBB
102
{ACAD_REACTORS
330
1B28
102
}
330
18
100
AcDbEntity
  8
ROGO
 62
     4
100
AcDbLine
 10
147.3159920253969
 20
147.0038818825445
 30
0.0
 11
147.0723753047181
 21
146.5153120042039
 31
0.0
  0
LINE
  5
1BBC
102
{ACAD_REACTORS
330
1B28
102
}
330
18
100
AcDbEntity
  8
ROGO
 62
     4
100
AcDbLine
 10
146.4763110045248
 20
147.0038818825445
 30
0.0
 11
147.3159920253969
 21
147.0038818825445
 31
0.0
  0
LINE
  5
1BBD
102
{ACAD_REACTORS
330
1B28
102
}
330
18
100
AcDbEntity
  8
ROGO
 62
     4
100
AcDbLine
 10
146.6617655538355
 20
147.3398818825445
 30
0.0
 11
147.4835324771867
 21
147.3398818825445
 31
0.0
  0
LINE
  5
1BBE
102
{ACAD_REACTORS
330
1B2D
102
}
330
18
100
AcDbEntity
  8
ROGO
 62
     4
100
AcDbLine
 10
148.0021789068495
 20
146.3121417119749
 30
0.0
 11
147.7351296176838
 21
145.7765781498554
 31
0.0
  0
LINE
  5
1BBF
330
18
100
AcDbEntity
  8
外形線
100
AcDbLine
 10
137.2785790055944
 20
171.4021098332534
 30
0.0
 11
137.2785790055947
 21
169.8021098332534
 31
0.0
  0
LINE
  5
1BC0
330
18
100
AcDbEntity
  8
外形線
100
AcDbLine
 10
145.7785790055944
 20
171.4021098332534
 30
0.0
 11
145.7785790055944
 21
169.8021098332533
 31
0.0
  0
LINE
  5
1BC1
330
18
100
AcDbEntity
  8
外形線
100
AcDbLine
 10
137.2785790055947
 20
171.4021098332534
 30
0.0
 11
137.2785790055947
 21
169.8021098332533
 31
0.0
  0
LINE
  5
1BC2
330
18
100
AcDbEntity
  8
外形線
100
AcDbLine
 10
145.7785790055947
 20
171.4021098332534
 30
0.0
 11
145.7785790055944
 21
169.8021098332534
 31
0.0
  0
ARC
  5
1BC3
330
18
100
AcDbEntity
  8
外形線
100
AcDbCircle
 10
154.6803451784361
 20
110.1801584612001
 30
0.0
 40
60.0
100
AcDbArc
 50
96.15495908808656
 51
118.4866040973081
  0
LINE
  5
1BC4
330
18
100
AcDbEntity
  8
外形線
100
AcDbLine
 10
145.5785790055944
 20
169.6021098332534
 30
0.0
 11
137.4785790055947
 21
169.6021098332535
 31
0.0
  0
LINE
  5
1BC5
330
18
100
AcDbEntity
  8
外形線
100
AcDbLine
 10
137.4785790055947
 20
169.6021098332534
 30
0.0
 11
145.5785790055944
 21
169.6021098332535
 31
0.0
  0
ARC
  5
1BC6
330
18
100
AcDbEntity
  8
外形線
100
AcDbCircle
 10
154.6803451784361
 20
110.1801584612001
 30
0.0
 40
59.0
100
AcDbArc
 50
96.15495908808656
 51
118.4866040973081
  0
LINE
  5
1BC7
102
{ACAD_REACTORS
330
1B37
102
}
330
18
100
AcDbEntity
  8
ROGO
 62
     4
100
AcDbLine
 10
137.4263251969435
 20
147.8284569347614
 30
0.0
 11
139.2024083454274
 21
147.8284569347614
 31
0.0
  0
LINE
  5
1BC8
330
18
100
AcDbEntity
  8
針
100
AcDbLine
 10
141.5285790055945
 20
159.6021098332535
 30
0.0
 11
141.4385790055946
 21
159.6021098332534
 31
0.0
  0
LINE
  5
1BC9
330
18
100
AcDbEntity
  8
針
100
AcDbLine
 10
141.5285790055946
 20
159.6021098332535
 30
0.0
 11
141.6185790055945
 21
159.6021098332534
 31
0.0
  0
LINE
  5
1BCA
102
{ACAD_REACTORS
330
1B36
102
}
330
18
100
AcDbEntity
  8
ROGO
 62
     4
100
AcDbLine
 10
134.8612028907527
 20
147.8284569347614
 30
0.0
 11
136.4737012037379
 21
147.8284569347614
 31
0.0
  0
LINE
  5
1BCB
330
18
100
AcDbEntity
  8
外形線
100
AcDbLine
 10
126.0631485292316
 20
162.9158774374382
 30
0.0
 11
126.5401018067183
 21
162.0369487878341
 31
0.0
  0
LINE
  5
1BCC
330
18
100
AcDbEntity
  8
外形線
100
AcDbLine
 10
137.4785790055947
 20
169.6021098332535
 30
0.0
 11
137.2785790055947
 21
169.8021098332534
 31
0.0
  0
LINE
  5
1BCD
330
18
100
AcDbEntity
  8
外形線
100
AcDbLine
 10
137.2785790055947
 20
169.8021098332533
 30
0.0
 11
137.4785790055947
 21
169.6021098332534
 31
0.0
  0
LINE
  5
1BCE
102
{ACAD_REACTORS
330
1B28
102
}
330
18
100
AcDbEntity
  8
ROGO
 62
     4
100
AcDbLine
 10
146.4121154356214
 20
147.8284569347614
 30
0.0
 11
147.7271517777273
 21
147.8284569347614
 31
0.0
  0
LINE
  5
1BCF
102
{ACAD_REACTORS
330
1B38
102
}
330
18
100
AcDbEntity
  8
ROGO
 62
     4
100
AcDbLine
 10
142.1810456646936
 20
147.8284569347614
 30
0.0
 11
143.4960820067995
 21
147.8284569347614
 31
0.0
  0
LINE
  5
1BD0
102
{ACAD_REACTORS
330
1B32
102
}
330
18
100
AcDbEntity
  8
ROGO
 62
     4
100
AcDbLine
 10
139.7169026106251
 20
147.8284569347614
 30
0.0
 11
140.7673060933965
 21
147.8284569347614
 31
0.0
  0
LINE
  5
1BD1
102
{ACAD_REACTORS
330
1B2B
102
}
330
18
100
AcDbEntity
  8
ROGO
 62
     4
100
AcDbLine
 10
144.2253073268422
 20
147.8339341539337
 30
0.0
 11
144.9757611500276
 21
147.8339341539337
 31
0.0
  0
LINE
  5
1BD2
102
{ACAD_REACTORS
330
1B2D
102
}
330
18
100
AcDbEntity
  8
ROGO
 62
     4
100
AcDbLine
 10
148.0021789068495
 20
147.8284569347614
 30
0.0
 11
148.7582626493537
 21
147.8284569347614
 31
0.0
  0
LINE
  5
1BD3
102
{ACAD_REACTORS
330
1B2D
102
}
330
18
100
AcDbEntity
  8
ROGO
 62
     4
100
AcDbLine
 10
148.7582626493537
 20
147.8284569347614
 30
0.0
 11
148.6465573424327
 21
147.6044335259398
 31
0.0
  0
LINE
  5
1BD4
102
{ACAD_REACTORS
330
1B2D
102
}
330
18
100
AcDbEntity
  8
ROGO
 62
     4
100
AcDbLine
 10
148.6465573424327
 20
147.6044335259398
 30
0.0
 11
149.0005704255115
 21
147.8284569347614
 31
0.0
  0
LINE
  5
1BD5
102
{ACAD_REACTORS
330
1B2D
102
}
330
18
100
AcDbEntity
  8
ROGO
 62
     4
100
AcDbLine
 10
149.0005704255115
 20
147.8284569347614
 30
0.0
 11
149.7566376255115
 21
147.8284569347614
 31
0.0
  0
LINE
  5
1BD6
330
18
100
AcDbEntity
  8
外形線
100
AcDbLine
 10
145.4972059721923
 20
163.7021098332533
 30
0.0
 11
153.5285790055947
 21
163.7021098332534
 31
0.0
  0
LINE
  5
1BD7
330
18
100
AcDbEntity
  8
外形線
100
AcDbLine
 10
139.2285790055945
 20
167.1208549983853
 30
0.0
 11
139.2285790055945
 21
163.9017296023679
 31
0.0
  0
LINE
  5
1BD8
330
18
100
AcDbEntity
  8
外形線
100
AcDbLine
 10
139.2285790055945
 20
167.1208549983854
 30
0.0
 11
139.2285790055945
 21
163.9017296023679
 31
0.0
  0
LINE
  5
1BD9
330
18
100
AcDbEntity
  8
外形線
100
AcDbLine
 10
143.8285790055946
 20
167.1208549983853
 30
0.0
 11
143.8285790055946
 21
163.9017296023679
 31
0.0
  0
LINE
  5
1BDA
330
18
100
AcDbEntity
  8
外形線
100
AcDbLine
 10
143.8285790055946
 20
168.1735992190131
 30
0.0
 11
143.8285790055946
 21
163.9017296023679
 31
0.0
  0
LINE
  5
1BDB
330
18
100
AcDbEntity
  8
外形線
100
AcDbLine
 10
139.2285790055945
 20
169.6021098332535
 30
0.0
 11
139.2285790055945
 21
169.1906589753456
 31
0.0
  0
LINE
  5
1BDC
330
18
100
AcDbEntity
  8
外形線
100
AcDbLine
 10
139.2285790055945
 20
168.1735992190131
 30
0.0
 11
139.2285790055945
 21
168.1563856766703
 31
0.0
  0
LINE
  5
1BDD
330
18
100
AcDbEntity
  8
外形線
100
AcDbLine
 10
139.2285790055945
 20
169.6021098332535
 30
0.0
 11
139.2285790055945
 21
168.1563856766702
 31
0.0
  0
LINE
  5
1BDE
330
18
100
AcDbEntity
  8
外形線
100
AcDbLine
 10
145.7785790055944
 20
169.8021098332533
 30
0.0
 11
145.5785790055944
 21
169.6021098332534
 31
0.0
  0
LINE
  5
1BDF
330
18
100
AcDbEntity
  8
外形線
100
AcDbLine
 10
143.8285790055946
 20
169.6021098332535
 30
0.0
 11
143.8285790055946
 21
169.1906589753457
 31
0.0
  0
LINE
  5
1BE0
330
18
100
AcDbEntity
  8
外形線
100
AcDbLine
 10
145.5785790055944
 20
169.6021098332535
 30
0.0
 11
145.7785790055944
 21
169.8021098332534
 31
0.0
  0
LINE
  5
1BE1
330
18
100
AcDbEntity
  8
外形線
100
AcDbLine
 10
145.6079384237983
 20
169.4902877451461
 30
0.0
 11
145.7298729093862
 21
168.4973004192982
 31
0.0
  0
LINE
  5
1BE2
330
18
100
AcDbEntity
  8
外形線
100
AcDbLine
 10
143.8285790055946
 20
168.1735992190132
 30
0.0
 11
143.8285790055946
 21
168.1563856766702
 31
0.0
  0
LINE
  5
1BE3
330
18
100
AcDbEntity
  8
外形線
100
AcDbLine
 10
153.5285790055947
 20
167.6021098332534
 30
0.0
 11
153.5285790055947
 21
162.7021098332534
 31
0.0
  0
LINE
  5
1BE4
330
18
100
AcDbEntity
  8
外形線
100
AcDbLine
 10
148.3544944944084
 20
168.8400562886203
 30
0.0
 11
153.325672276393
 21
169.3761453296396
 31
0.0
  0
LINE
  5
1BE5
330
18
100
AcDbEntity
  8
外形線
100
AcDbLine
 10
153.5401078928006
 20
167.3876742168456
 30
0.0
 11
153.2184544681892
 21
170.3703808860365
 31
0.0
  0
LINE
  5
1BE6
330
18
100
AcDbEntity
  8
外形線
100
AcDbLine
 10
145.5785790055946
 20
171.6021098332534
 30
0.0
 11
137.4785790055945
 21
171.6021098332534
 31
0.0
  0
LINE
  5
1BE7
330
18
100
AcDbEntity
  8
外形線
100
AcDbLine
 10
137.4785790055945
 20
171.6021098332534
 30
0.0
 11
145.5785790055946
 21
171.6021098332534
 31
0.0
  0
LINE
  5
1BE8
330
18
100
AcDbEntity
  8
外形線
100
AcDbLine
 10
137.4785790055945
 20
171.6021098332534
 30
0.0
 11
137.2785790055944
 21
171.4021098332534
 31
0.0
  0
LINE
  5
1BE9
330
18
100
AcDbEntity
  8
外形線
100
AcDbLine
 10
137.2785790055947
 20
171.4021098332534
 30
0.0
 11
137.4785790055945
 21
171.6021098332534
 31
0.0
  0
POINT
  5
1BEA
330
18
100
AcDbEntity
  8
DEFPOINTS
  6
ByBlock
 62
     0
100
AcDbPoint
 10
141.5285790055944
 20
171.6021098332534
 30
0.0
 50
180.0
  0
LINE
  5
1BEB
330
18
100
AcDbEntity
  8
外形線
100
AcDbLine
 10
145.7785790055944
 20
171.4021098332534
 30
0.0
 11
145.5785790055946
 21
171.6021098332534
 31
0.0
  0
LINE
  5
1BEC
330
18
100
AcDbEntity
  8
外形線
100
AcDbLine
 10
145.5785790055946
 20
171.6021098332534
 30
0.0
 11
145.7785790055947
 21
171.4021098332534
 31
0.0
  0
LINE
  5
1BEF
330
18
100
AcDbEntity
  8
外形線
100
AcDbLine
 10
164.5637521909294
 20
171.6274186277012
 30
0.0
 11
164.8283636137022
 21
170.6567903438665
 31
0.0
  0
ARC
  5
1BF0
330
18
100
AcDbEntity
  8
外形線
100
AcDbCircle
 10
159.9442757860425
 20
201.2696256599837
 30
0.0
 40
31.0
100
AcDbArc
 50
276.1549590880868
 51
310.7350802207004
  0
ARC
  5
1BF1
330
18
100
AcDbEntity
  8
外形線
100
AcDbCircle
 10
159.9442757860425
 20
201.2696256599837
 30
0.0
 40
30.0
100
AcDbArc
 50
276.1549590880868
 51
310.7350802207004
  0
LINE
  5
1BF2
330
18
100
AcDbEntity
  8
中心線
 48
0.5
100
AcDbLine
 10
155.5285790055947
 20
171.3994033119691
 30
0.0
 11
155.5285790055947
 21
161.6542419871323
 31
0.0
  0
LINE
  5
1BF3
330
18
100
AcDbEntity
  8
外形線
100
AcDbLine
 10
157.3026145019809
 20
169.805016562455
 30
0.0
 11
163.2680278403624
 21
170.4483234116782
 31
0.0
  0
LINE
  5
1BF4
330
18
100
AcDbEntity
  8
外形線
100
AcDbLine
 10
157.5285790055947
 20
167.6021098332534
 30
0.0
 11
157.5285790055947
 21
162.7021098332534
 31
0.0
  0
CIRCLE
  5
1BF5
330
18
100
AcDbEntity
  8
外形線
100
AcDbCircle
 10
155.5285790055947
 20
167.6021098332534
 30
0.0
 40
0.8
  0
LINE
  5
1BF6
330
18
100
AcDbEntity
  8
外形線
100
AcDbLine
 10
157.5170501183885
 20
167.8165454496611
 30
0.0
 11
157.1953966937768
 21
170.7992521188519
 31
0.0
  0
LINE
  5
1BF7
330
18
100
AcDbEntity
  8
外形線
100
AcDbLine
 10
179.5211496149355
 20
178.5375775541131
 30
0.0
 11
180.1737120758986
 21
177.7798426172507
 31
0.0
  0
LINE
  5
1C6D
330
18
100
AcDbEntity
  8
外形線
100
AcDbLine
 10
137.5285790055945
 20
111.5068995447732
 30
0.0
 11
137.5285790055945
 21
110.6021098332534
 31
0.0
  0
LINE
  5
1C6E
330
18
100
AcDbEntity
  8
外形線
100
AcDbLine
 10
145.5285790055945
 20
111.5068995447732
 30
0.0
 11
145.5285790055945
 21
110.6021098332534
 31
0.0
  0
LINE
  5
1C6F
330
18
100
AcDbEntity
  8
隠れ線2
100
AcDbLine
 10
137.6785790055945
 20
95.6021098332534
 30
0.0
 11
145.3785790055946
 21
95.60210983325339
 31
0.0
  0
LINE
  5
1C70
330
18
100
AcDbEntity
  8
隠れ線2
100
AcDbLine
 10
137.9285790055946
 20
94.60210983325335
 30
0.0
 11
145.1285790055946
 21
94.60210983325341
 31
0.0
  0
LINE
  5
1C71
330
18
100
AcDbEntity
  8
隠れ線2
100
AcDbLine
 10
137.5285790055945
 20
97.10210983325335
 30
0.0
 11
145.5285790055945
 21
97.10210983325341
 31
0.0
  0
LINE
  5
1C72
330
18
100
AcDbEntity
  8
隠れ線2
100
AcDbLine
 10
138.1285790055945
 20
92.60210983325334
 30
0.0
 11
144.9285790055946
 21
92.60210983325334
 31
0.0
  0
LINE
  5
1C73
330
18
100
AcDbEntity
  8
隠れ線2
100
AcDbLine
 10
137.9285790055945
 20
94.60210983325337
 30
0.0
 11
137.9285790055945
 21
92.80210983325334
 31
0.0
  0
LINE
  5
1C74
330
18
100
AcDbEntity
  8
隠れ線2
100
AcDbLine
 10
137.9285790055945
 20
92.80210983325334
 30
0.0
 11
138.1285790055945
 21
92.60210983325334
 31
0.0
  0
ARC
  5
1C75
330
18
100
AcDbEntity
  8
隠れ線2
100
AcDbCircle
 10
137.8035790055945
 20
95.10210983325338
 30
0.0
 40
0.5153882032022076
100
AcDbArc
 50
284.0362434679264
 51
104.0362434679264
  0
LINE
  5
1C76
330
18
100
AcDbEntity
  8
隠れ線2
100
AcDbLine
 10
137.6785790055945
 20
97.10210983325339
 30
0.0
 11
137.6785790055945
 21
95.60210983325339
 31
0.0
  0
LINE
  5
1C77
330
18
100
AcDbEntity
  8
隠れ線2
100
AcDbLine
 10
145.1285790055946
 20
92.80210983325334
 30
0.0
 11
145.1285790055946
 21
94.60210983325337
 31
0.0
  0
LINE
  5
1C78
330
18
100
AcDbEntity
  8
隠れ線2
100
AcDbLine
 10
145.1285790055946
 20
92.80210983325334
 30
0.0
 11
144.9285790055946
 21
92.60210983325334
 31
0.0
  0
ARC
  5
1C79
330
18
100
AcDbEntity
  8
隠れ線2
100
AcDbCircle
 10
145.2535790055946
 20
95.10210983325338
 30
0.0
 40
0.5153882032022076
100
AcDbArc
 50
75.96375653207353
 51
255.9637565320735
  0
LINE
  5
1C7A
330
18
100
AcDbEntity
  8
隠れ線2
100
AcDbLine
 10
145.3785790055946
 20
97.10210983325339
 30
0.0
 11
145.3785790055946
 21
95.60210983325339
 31
0.0
  0
LINE
  5
1C85
330
18
100
AcDbEntity
  8
外形線
100
AcDbLine
 10
143.5285790055944
 20
92.60210983325338
 30
0.0
 11
143.5285790055945
 21
81.6021098332534
 31
0.0
  0
LINE
  5
1C86
330
18
100
AcDbEntity
  8
外形線
100
AcDbLine
 10
139.5285790055945
 20
92.60210983325338
 30
0.0
 11
139.5285790055945
 21
81.6021098332534
 31
0.0
  0
LINE
  5
1C87
330
18
100
AcDbEntity
  8
隠れ線2
100
AcDbLine
 10
145.5285790055945
 20
110.6021098332534
 30
0.0
 11
145.5285790055945
 21
97.10210983325341
 31
0.0
  0
LINE
  5
1C88
330
18
100
AcDbEntity
  8
隠れ線2
100
AcDbLine
 10
137.5285790055945
 20
110.6021098332534
 30
0.0
 11
137.5285790055945
 21
97.10210983325335
 31
0.0
  0
LINE
  5
1CE5
330
18
100
AcDbEntity
  8
外形線
100
AcDbLine
 10
54.23792678759626
 20
92.60210983325338
 30
0.0
 11
54.23792678759628
 21
81.6021098332534
 31
0.0
  0
LINE
  5
1CE6
330
18
100
AcDbEntity
  8
外形線
100
AcDbLine
 10
50.23792678759639
 20
92.60210983325338
 30
0.0
 11
50.23792678759639
 21
81.6021098332534
 31
0.0
  0
LINE
  5
1CE7
330
18
100
AcDbEntity
  8
外形線
100
AcDbLine
 10
51.48792678759639
 20
92.60210983325334
 30
0.0
 11
52.98792678759639
 21
92.60210983325334
 31
0.0
  0
LINE
  5
1CE8
330
18
100
AcDbEntity
  8
外形線
100
AcDbLine
 10
51.48792678759639
 20
97.10210983325339
 30
0.0
 11
52.98792678759639
 21
97.10210983325339
 31
0.0
  0
LINE
  5
1CE9
330
18
100
AcDbEntity
  8
外形線
100
AcDbLine
 10
51.48792678759639
 20
94.60210983325337
 30
0.0
 11
52.98792678759639
 21
94.60210983325337
 31
0.0
  0
LINE
  5
1CEA
330
18
100
AcDbEntity
  8
外形線
100
AcDbLine
 10
51.48792678759639
 20
95.60210983325339
 30
0.0
 11
52.98792678759639
 21
95.60210983325337
 31
0.0
  0
LINE
  5
1CF3
330
18
100
AcDbEntity
  8
中心線
 48
0.5
100
AcDbLine
 10
43.6683802396906
 20
101.6021098332534
 30
0.0
 11
62.32100677663678
 21
101.6021098332534
 31
0.0
  0
LINE
  5
1CF4
330
18
100
AcDbEntity
  8
外形線
100
AcDbLine
 10
51.48792678759639
 20
104.1021098332534
 30
0.0
 11
52.98792678759639
 21
104.1021098332534
 31
0.0
  0
LINE
  5
1CF5
330
18
100
AcDbEntity
  8
外形線
100
AcDbLine
 10
51.48792678759639
 20
99.1021098332534
 30
0.0
 11
52.98792678759639
 21
99.10210983325342
 31
0.0
  0
LINE
  5
1CF6
330
18
100
AcDbEntity
  8
中心線
 48
0.5
100
AcDbLine
 10
51.48792678759639
 20
103.6021098332534
 30
0.0
 11
52.98792678759639
 21
103.6021098332534
 31
0.0
  0
LINE
  5
1CF7
330
18
100
AcDbEntity
  8
中心線
 48
0.5
100
AcDbLine
 10
51.48792678759639
 20
99.60210983325339
 30
0.0
 11
52.98792678759639
 21
99.60210983325341
 31
0.0
  0
LINE
  5
1CFD
330
18
100
AcDbEntity
  8
隠れ線2
 48
0.1
100
AcDbLine
 10
59.90822881493056
 20
101.6021098332534
 30
0.0
 11
60.73792678759639
 21
102.4318078059192
 31
0.0
  0
LINE
  5
1CFE
330
18
100
AcDbEntity
  8
隠れ線2
 48
0.1
100
AcDbLine
 10
59.90822881493056
 20
101.6021098332534
 30
0.0
 11
60.73792678759639
 21
100.7724118605875
 31
0.0
  0
LINE
  5
1CFF
330
18
100
AcDbEntity
  8
外形線
100
AcDbLine
 10
133.4268569458679
 20
99.70383189298006
 30
0.0
 11
129.6303010653212
 21
103.5003877735267
 31
0.0
  0
LINE
  5
1D00
330
18
100
AcDbEntity
  8
外形線
100
AcDbLine
 10
129.6303010653212
 20
99.70383189298008
 30
0.0
 11
133.4268569458679
 21
103.5003877735267
 31
0.0
  0
DIMENSION
  5
1D19
330
18
100
AcDbEntity
  8
外形線
100
AcDbDimension
  2
*D14
 10
106.5970884185981
 20
110.6021098332534
 30
0.0
 11
104.7220884185981
 21
124.1021098332534
 31
0.0
 70
    32
 71
     5
 42
27.0
  3
STYLE3
100
AcDbAlignedDimension
 13
108.4859844709936
 23
137.6021098332534
 33
0.0
 14
132.5285790055945
 24
110.6021098332534
 34
0.0
 50
90.0
100
AcDbRotatedDimension
1001
ACAD
1000
DSTYLE
1002
{
1070
   271
1070
     2
1002
}
  0
DIMENSION
  5
1D25
330
18
100
AcDbEntity
  8
外形線
100
AcDbDimension
  2
*D15
 10
106.5970884185981
 20
92.6021098332534
 30
0.0
 11
104.7220884185981
 21
101.6021098332534
 31
0.0
 70
    32
 71
     5
 42
18.0
  3
STYLE3
100
AcDbAlignedDimension
 13
132.5285790055945
 23
110.6021098332534
 33
0.0
 14
132.5285790055945
 24
92.6021098332534
 34
0.0
 50
90.0
100
AcDbRotatedDimension
1001
ACAD
1000
DSTYLE
1002
{
1070
    75
1070
     1
1070
   271
1070
     2
1070
   279
1070
     1
1002
}
  0
LINE
  5
1E9E
330
18
100
AcDbEntity
  8
外形線
100
AcDbLine
 10
49.53792678759637
 20
81.6021098332534
 30
0.0
 11
54.93792678759641
 21
81.6021098332534
 31
0.0
  0
LINE
  5
1E9F
330
18
100
AcDbEntity
  8
外形線
100
AcDbLine
 10
49.23792678759638
 20
79.4021098332534
 30
0.0
 11
55.23792678759639
 21
79.40210983325342
 31
0.0
  0
LINE
  5
1EA1
330
18
100
AcDbEntity
  8
外形線
100
AcDbLine
 10
137.5285790055946
 20
61.11270823388555
 30
0.0
 11
145.5285790055945
 21
61.11270823388557
 31
0.0
  0
LINE
  5
1EA2
330
18
100
AcDbEntity
  8
外形線
100
AcDbLine
 10
48.23792678759641
 20
79.4021098332534
 30
0.0
 11
56.23792678759636
 21
79.4021098332534
 31
0.0
  0
LINE
  5
1EA3
330
18
100
AcDbEntity
  8
外形線
100
AcDbLine
 10
47.23792678759639
 20
76.4021098332534
 30
0.0
 11
57.23792678759636
 21
76.4021098332534
 31
0.0
  0
LINE
  5
1EA4
330
18
100
AcDbEntity
  8
外形線
100
AcDbLine
 10
136.5285790055946
 20
62.11270823388556
 30
0.0
 11
146.5285790055945
 21
62.11270823388557
 31
0.0
  0
LINE
  5
1EA5
330
18
100
AcDbEntity
  8
外形線
100
AcDbLine
 10
47.2379267875964
 20
78.40210983325341
 30
0.0
 11
57.23792678759636
 21
78.40210983325341
 31
0.0
  0
LINE
  5
1EA7
330
18
100
AcDbEntity
  8
外形線
100
AcDbLine
 10
47.23792678759639
 20
76.4021098332534
 30
0.0
 11
47.2379267875964
 21
78.40210983325341
 31
0.0
  0
LINE
  5
1EA8
330
18
100
AcDbEntity
  8
外形線
100
AcDbLine
 10
138.5785790055946
 20
60.81270823388557
 30
0.0
 11
138.7785790055946
 21
60.61270823388558
 31
0.0
  0
LINE
  5
1EA9
330
18
100
AcDbEntity
  8
外形線
100
AcDbLine
 10
138.5785790055946
 20
61.11270823388555
 30
0.0
 11
138.5785790055946
 21
60.81270823388557
 31
0.0
  0
LINE
  5
1EAA
330
18
100
AcDbEntity
  8
外形線
100
AcDbLine
 10
136.5285790055946
 20
62.11270823388556
 30
0.0
 11
137.5285790055946
 21
61.11270823388555
 31
0.0
  0
LINE
  5
1EAB
330
18
100
AcDbEntity
  8
外形線
100
AcDbLine
 10
136.5285790055945
 20
64.11270823388555
 30
0.0
 11
136.5285790055946
 21
62.11270823388556
 31
0.0
  0
LINE
  5
1EAC
330
18
100
AcDbEntity
  8
外形線
100
AcDbLine
 10
49.23792678759638
 20
81.30210983325339
 30
0.0
 11
49.53792678759637
 21
81.6021098332534
 31
0.0
  0
LINE
  5
1EAD
330
18
100
AcDbEntity
  8
外形線
100
AcDbLine
 10
49.23792678759638
 20
81.30210983325339
 30
0.0
 11
49.23792678759638
 21
79.4021098332534
 31
0.0
  0
LINE
  5
1EAE
330
18
100
AcDbEntity
  8
外形線
100
AcDbLine
 10
47.2379267875964
 20
78.40210983325341
 30
0.0
 11
48.23792678759641
 21
79.4021098332534
 31
0.0
  0
LINE
  5
1EAF
330
18
100
AcDbEntity
  8
外形線
100
AcDbLine
 10
57.23792678759636
 20
76.40210983325342
 30
0.0
 11
57.23792678759636
 21
78.40210983325341
 31
0.0
  0
LINE
  5
1EB0
330
18
100
AcDbEntity
  8
外形線
100
AcDbLine
 10
146.5285790055945
 20
64.11270823388555
 30
0.0
 11
146.5285790055945
 21
62.11270823388557
 31
0.0
  0
LINE
  5
1EB1
330
18
100
AcDbEntity
  8
外形線
 48
0.5
100
AcDbLine
 10
144.2785790055945
 20
60.61270823388558
 30
0.0
 11
144.4785790055945
 21
60.81270823388557
 31
0.0
  0
LINE
  5
1EB2
330
18
100
AcDbEntity
  8
外形線
100
AcDbLine
 10
144.4785790055945
 20
61.11270823388555
 30
0.0
 11
144.4785790055945
 21
60.81270823388557
 31
0.0
  0
LINE
  5
1EB3
330
18
100
AcDbEntity
  8
外形線
 48
0.5
100
AcDbLine
 10
145.5285790055945
 20
61.11270823388557
 30
0.0
 11
146.5285790055945
 21
62.11270823388557
 31
0.0
  0
LINE
  5
1EB4
330
18
100
AcDbEntity
  8
外形線
100
AcDbLine
 10
55.2379267875964
 20
81.30210983325341
 30
0.0
 11
55.23792678759639
 21
79.40210983325342
 31
0.0
  0
LINE
  5
1EB5
330
18
100
AcDbEntity
  8
外形線
 48
0.5
100
AcDbLine
 10
54.93792678759641
 20
81.6021098332534
 30
0.0
 11
55.2379267875964
 21
81.30210983325341
 31
0.0
  0
LINE
  5
1EB6
330
18
100
AcDbEntity
  8
外形線
 48
0.5
100
AcDbLine
 10
56.23792678759636
 20
79.4021098332534
 30
0.0
 11
57.23792678759636
 21
78.40210983325341
 31
0.0
  0
LINE
  5
1ECE
330
18
100
AcDbEntity
  8
外形線
100
AcDbLine
 10
138.5285790055945
 20
81.30210983325339
 30
0.0
 11
138.8285790055945
 21
81.6021098332534
 31
0.0
  0
LINE
  5
1ECF
330
18
100
AcDbEntity
  8
外形線
100
AcDbLine
 10
136.5285790055946
 20
78.40210983325341
 30
0.0
 11
146.5285790055945
 21
78.40210983325341
 31
0.0
  0
LINE
  5
1ED0
330
18
100
AcDbEntity
  8
外形線
100
AcDbLine
 10
136.5285790055945
 20
76.4021098332534
 30
0.0
 11
146.5285790055945
 21
76.4021098332534
 31
0.0
  0
LINE
  5
1ED1
330
18
100
AcDbEntity
  8
外形線
100
AcDbLine
 10
137.5285790055946
 20
79.4021098332534
 30
0.0
 11
145.5285790055945
 21
79.4021098332534
 31
0.0
  0
LINE
  5
1ED2
330
18
100
AcDbEntity
  8
外形線
100
AcDbLine
 10
138.5285790055945
 20
79.4021098332534
 30
0.0
 11
144.5285790055945
 21
79.40210983325342
 31
0.0
  0
LINE
  5
1ED3
330
18
100
AcDbEntity
  8
外形線
100
AcDbLine
 10
138.5285790055945
 20
81.30210983325339
 30
0.0
 11
138.5285790055945
 21
79.4021098332534
 31
0.0
  0
LINE
  5
1ED4
330
18
100
AcDbEntity
  8
外形線
100
AcDbLine
 10
136.5285790055946
 20
78.40210983325341
 30
0.0
 11
137.5285790055946
 21
79.4021098332534
 31
0.0
  0
LINE
  5
1ED5
330
18
100
AcDbEntity
  8
外形線
100
AcDbLine
 10
136.5285790055945
 20
76.4021098332534
 30
0.0
 11
136.5285790055946
 21
78.40210983325341
 31
0.0
  0
LINE
  5
1ED6
330
18
100
AcDbEntity
  8
外形線
100
AcDbLine
 10
144.5285790055946
 20
81.30210983325341
 30
0.0
 11
144.5285790055945
 21
79.40210983325342
 31
0.0
  0
LINE
  5
1ED7
330
18
100
AcDbEntity
  8
外形線
 48
0.5
100
AcDbLine
 10
145.5285790055945
 20
79.4021098332534
 30
0.0
 11
146.5285790055945
 21
78.40210983325341
 31
0.0
  0
LINE
  5
1ED8
330
18
100
AcDbEntity
  8
外形線
100
AcDbLine
 10
146.5285790055945
 20
76.40210983325342
 30
0.0
 11
146.5285790055945
 21
78.40210983325341
 31
0.0
  0
LINE
  5
1ED9
330
18
100
AcDbEntity
  8
外形線
100
AcDbLine
 10
138.8285790055945
 20
81.6021098332534
 30
0.0
 11
144.2285790055946
 21
81.6021098332534
 31
0.0
  0
LINE
  5
1EDA
330
18
100
AcDbEntity
  8
外形線
 48
0.5
100
AcDbLine
 10
144.2285790055946
 20
81.6021098332534
 30
0.0
 11
144.5285790055946
 21
81.30210983325341
 31
0.0
  0
ARC
  5
1EE8
330
18
100
AcDbEntity
  8
外形線
100
AcDbCircle
 10
131.5285790055945
 20
101.6021098332534
 30
0.0
 40
6.0
100
AcDbArc
 50
90.00000000000012
 51
269.9999999999999
  0
LINE
  5
1EE9
330
18
100
AcDbEntity
  8
外形線
100
AcDbLine
 10
134.5285790055945
 20
110.6021098332534
 30
0.0
 11
134.5285790055945
 21
107.6021098332534
 31
0.0
  0
LINE
  5
1EEA
330
18
100
AcDbEntity
  8
外形線
100
AcDbLine
 10
131.5285790055945
 20
95.60210983325339
 30
0.0
 11
134.5285790055945
 21
95.60210983325339
 31
0.0
  0
LINE
  5
1EEB
330
18
100
AcDbEntity
  8
外形線
100
AcDbLine
 10
131.5285790055945
 20
107.6021098332534
 30
0.0
 11
134.5285790055945
 21
107.6021098332534
 31
0.0
  0
ARC
  5
1EEE
330
18
100
AcDbEntity
  8
外形線
100
AcDbCircle
 10
134.5285790055945
 20
94.1021098332534
 30
0.0
 40
1.5
100
AcDbArc
 50
0.0
 51
90.00000000000108
  0
ARC
  5
1EEF
330
18
100
AcDbEntity
  8
外形線
100
AcDbCircle
 10
134.5285790055945
 20
109.1021098332534
 30
0.0
 40
1.5
100
AcDbArc
 50
270.0
 51
0.0
  0
LINE
  5
1EF0
330
18
100
AcDbEntity
  8
外形線
100
AcDbLine
 10
134.5285790055945
 20
95.60210983325339
 30
0.0
 11
134.5285790055945
 21
92.60210983325341
 31
0.0
  0
LINE
  5
1EF2
330
18
100
AcDbEntity
  8
外形線
100
AcDbLine
 10
163.5285790055945
 20
81.6021098332534
 30
0.0
 11
163.5285790055945
 21
74.3021098332534
 31
0.0
  0
LINE
  5
1EF4
330
18
100
AcDbEntity
  8
中心線
100
AcDbLine
 10
131.5285790055945
 20
109.3141648749708
 30
0.0
 11
131.5285790055945
 21
93.96007671918255
 31
0.0
  0
ARC
  5
1EF6
330
18
100
AcDbEntity
  8
外形線
100
AcDbCircle
 10
152.5285790055945
 20
81.6021098332534
 30
0.0
 40
11.0
100
AcDbArc
 50
0.0
 51
90.0
  0
ARC
  5
1EF8
330
18
100
AcDbEntity
  8
外形線
100
AcDbCircle
 10
141.4829050141957
 20
136.6692367654956
 30
0.0
 40
27.07696836737908
100
AcDbArc
 50
285.6972396442269
 51
359.855512611413
  0
ARC
  5
1F1B
330
18
100
AcDbEntity
  8
外形線
100
AcDbCircle
 10
181.5285790055945
 20
96.6021098332534
 30
0.0
 40
9.0
100
AcDbArc
 50
148.9195035598996
 51
324.5656716577846
  0
ARC
  5
1F1F
330
18
100
AcDbEntity
  8
外形線
100
AcDbCircle
 10
184.5285790055945
 20
135.6021098332534
 30
0.0
 40
11.0
100
AcDbArc
 50
21.48404253096088
 51
207.3974464134111
  0
ARC
  5
1F20
330
18
100
AcDbEntity
  8
外形線
100
AcDbCircle
 10
184.5285790055945
 20
135.6021098332534
 30
0.0
 40
16.0
100
AcDbArc
 50
21.48404253096085
 51
180.7389682650917
  0
ARC
  5
1F23
330
18
100
AcDbEntity
  8
外形線
100
AcDbCircle
 10
148.1273073242946
 20
116.7355409882252
 30
0.0
 40
30.0
100
AcDbArc
 50
328.9195035598996
 51
27.39744641341101
  0
ARC
  5
1F26
330
18
100
AcDbEntity
  8
外形線
100
AcDbCircle
 10
147.3077947540155
 20
120.9524265705543
 30
0.0
 40
51.0
100
AcDbArc
 50
324.5656716577847
 51
21.48404253096086
  0
ARC
  5
1F27
330
18
100
AcDbEntity
  8
外形線
100
AcDbCircle
 10
147.3077947540155
 20
120.9524265705543
 30
0.0
 40
56.0
100
AcDbArc
 50
311.576350388044
 51
21.48404253096085
  0
ARC
  5
1F2A
330
18
100
AcDbEntity
  8
外形線
100
AcDbCircle
 10
194.4246367055185
 20
67.83930950407927
 30
0.0
 40
15.0
100
AcDbArc
 50
131.5763503880439
 51
154.4782715934189
  0
LINE
  5
1F2C
330
18
100
AcDbEntity
  8
中心線
100
AcDbLine
 10
171.5285790055945
 20
86.64383777798459
 30
0.0
 11
171.5285790055945
 21
37.29110695225653
 31
0.0
  0
LINE
  5
1F2D
330
18
100
AcDbEntity
  8
外形線
100
AcDbLine
 10
167.0285790055945
 20
42.30210983325338
 30
0.0
 11
176.0285790055946
 21
42.30210983325337
 31
0.0
  0
LINE
  5
1F2E
330
18
100
AcDbEntity
  8
外形線
100
AcDbLine
 10
166.5285790055945
 20
74.3021098332534
 30
0.0
 11
166.5285790055946
 21
60.61270823388555
 31
0.0
  0
LINE
  5
1F2F
330
18
100
AcDbEntity
  8
外形線
100
AcDbLine
 10
176.5285790055946
 20
74.30210983325338
 30
0.0
 11
176.5285790055946
 21
60.61270823388554
 31
0.0
  0
LINE
  5
1F30
330
18
100
AcDbEntity
  8
隠れ線2
100
AcDbLine
 10
168.0285790055945
 20
84.30210983325338
 30
0.0
 11
175.0285790055945
 21
84.30210983325338
 31
0.0
  0
LINE
  5
1F31
330
18
100
AcDbEntity
  8
隠れ線2
100
AcDbLine
 10
168.0285790055945
 20
84.30210983325338
 30
0.0
 11
168.0285790055945
 21
74.30210983325338
 31
0.0
  0
LINE
  5
1F32
330
18
100
AcDbEntity
  8
隠れ線2
100
AcDbLine
 10
175.0285790055945
 20
84.30210983325336
 30
0.0
 11
175.0285790055945
 21
74.30210983325338
 31
0.0
  0
LINE
  5
1F33
330
18
100
AcDbEntity
  8
隠れ線2
100
AcDbLine
 10
168.7285790055945
 20
84.30210983325338
 30
0.0
 11
168.7285790055945
 21
74.30210983325338
 31
0.0
  0
LINE
  5
1F34
330
18
100
AcDbEntity
  8
隠れ線2
100
AcDbLine
 10
174.3285790055946
 20
84.30210983325336
 30
0.0
 11
174.3285790055946
 21
74.30210983325338
 31
0.0
  0
LINE
  5
1F35
330
18
100
AcDbEntity
  8
外形線
100
AcDbLine
 10
166.5285790055945
 20
42.80210983325338
 30
0.0
 11
167.0285790055945
 21
42.30210983325338
 31
0.0
  0
LINE
  5
1F36
330
18
100
AcDbEntity
  8
外形線
100
AcDbLine
 10
176.0285790055946
 20
42.30210983325337
 30
0.0
 11
176.5285790055946
 21
42.80210983325337
 31
0.0
  0
LINE
  5
1F37
330
18
100
AcDbEntity
  8
外形線
100
AcDbLine
 10
166.5285790055945
 20
42.80210983325338
 30
0.0
 11
176.5285790055946
 21
42.80210983325337
 31
0.0
  0
LINE
  5
1F38
330
18
100
AcDbEntity
  8
外形線
100
AcDbLine
 10
136.5285790055946
 20
50.6127082338856
 30
0.0
 11
179.5285790055946
 21
50.61270823388555
 31
0.0
  0
LINE
  5
1F39
330
18
100
AcDbEntity
  8
外形線
100
AcDbLine
 10
136.5285790055945
 20
60.61270823388558
 30
0.0
 11
179.5285790055946
 21
60.61270823388554
 31
0.0
  0
LINE
  5
1F47
330
18
100
AcDbEntity
  8
外形線
100
AcDbLine
 10
146.5285790055945
 20
64.11270823388555
 30
0.0
 11
136.5285790055945
 21
64.11270823388555
 31
0.0
  0
LINE
  5
1F57
330
18
100
AcDbEntity
  8
外形線
100
AcDbLine
 10
163.5285790055945
 20
74.3021098332534
 30
0.0
 11
180.8883073690541
 21
74.30210983325338
 31
0.0
  0
LINE
  5
1F58
330
18
100
AcDbEntity
  8
外形線
100
AcDbLine
 10
136.5285790055946
 20
60.61270823388558
 30
0.0
 11
136.5285790055945
 21
50.6127082338856
 31
0.0
  0
LINE
  5
1F59
330
18
100
AcDbEntity
  8
外形線
100
AcDbLine
 10
179.5285790055946
 20
60.61270823388554
 30
0.0
 11
179.5285790055946
 21
50.61270823388554
 31
0.0
  0
LINE
  5
1F5A
102
{ACAD_REACTORS
330
20C3
102
}
330
18
100
AcDbEntity
  8
中心線
100
AcDbLine
 10
175.3173616406819
 20
55.6127082338856
 30
0.0
 11
187.4403507220259
 21
55.61270823388555
 31
0.0
  0
LINE
  5
1F5C
330
18
100
AcDbEntity
  8
隠れ線2
100
AcDbLine
 10
166.5285790055945
 20
60.61270823388555
 30
0.0
 11
166.5285790055945
 21
50.61270823388557
 31
0.0
  0
LINE
  5
1F5D
330
18
100
AcDbEntity
  8
外形線
100
AcDbLine
 10
166.5285790055945
 20
50.61270823388557
 30
0.0
 11
166.5285790055945
 21
42.80210983325338
 31
0.0
  0
LINE
  5
1F5E
330
18
100
AcDbEntity
  8
外形線
100
AcDbLine
 10
176.5285790055945
 20
50.61270823388555
 30
0.0
 11
176.5285790055946
 21
42.80210983325337
 31
0.0
  0
LINE
  5
1F5F
330
18
100
AcDbEntity
  8
隠れ線2
100
AcDbLine
 10
176.5285790055946
 20
60.61270823388554
 30
0.0
 11
176.5285790055946
 21
50.61270823388555
 31
0.0
  0
LINE
  5
1F60
330
18
100
AcDbEntity
  8
隠れ線2
100
AcDbLine
 10
139.5285790055945
 20
60.61270823388557
 30
0.0
 11
139.5285790055946
 21
50.6127082338856
 31
0.0
  0
LINE
  5
1F61
330
18
100
AcDbEntity
  8
隠れ線2
100
AcDbLine
 10
143.5285790055945
 20
60.61270823388557
 30
0.0
 11
143.5285790055946
 21
50.61270823388559
 31
0.0
  0
LINE
  5
1F62
330
18
100
AcDbEntity
  8
外形線
100
AcDbLine
 10
182.5285790055946
 20
61.61270823388557
 30
0.0
 11
182.5285790055945
 21
49.61270823388556
 31
0.0
  0
LINE
  5
1F63
330
18
100
AcDbEntity
  8
外形線
100
AcDbLine
 10
185.5285790055946
 20
61.61270823388557
 30
0.0
 11
185.5285790055946
 21
49.61270823388556
 31
0.0
  0
LINE
  5
1F64
102
{ACAD_REACTORS
330
20C3
102
}
330
18
100
AcDbEntity
  8
外形線
100
AcDbLine
 10
183.0285790055946
 20
62.11270823388557
 30
0.0
 11
185.0285790055946
 21
62.11270823388557
 31
0.0
  0
LINE
  5
1F65
102
{ACAD_REACTORS
330
20C3
102
}
330
18
100
AcDbEntity
  8
外形線
100
AcDbLine
 10
183.0285790055945
 20
49.11270823388556
 30
0.0
 11
185.0285790055946
 21
49.11270823388555
 31
0.0
  0
LINE
  5
1F66
330
18
100
AcDbEntity
  8
外形線
100
AcDbLine
 10
179.5285790055946
 20
57.11270823388558
 30
0.0
 11
182.5285790055946
 21
57.11270823388556
 31
0.0
  0
LINE
  5
1F67
330
18
100
AcDbEntity
  8
外形線
100
AcDbLine
 10
179.5285790055946
 20
54.11270823388559
 30
0.0
 11
182.5285790055945
 21
54.11270823388556
 31
0.0
  0
LINE
  5
1F68
330
18
100
AcDbEntity
  8
中心線
100
AcDbLine
 10
179.5285790055946
 20
54.61270823388559
 30
0.0
 11
182.5285790055945
 21
54.61270823388556
 31
0.0
  0
LINE
  5
1F69
330
18
100
AcDbEntity
  8
中心線
100
AcDbLine
 10
179.5285790055946
 20
56.61270823388559
 30
0.0
 11
182.5285790055946
 21
56.61270823388556
 31
0.0
  0
LINE
  5
1F6A
330
18
100
AcDbEntity
  8
外形線
100
AcDbLine
 10
185.0285790055946
 20
62.11270823388557
 30
0.0
 11
185.5285790055946
 21
61.61270823388557
 31
0.0
  0
LINE
  5
1F6B
330
18
100
AcDbEntity
  8
外形線
100
AcDbLine
 10
185.0285790055946
 20
49.11270823388555
 30
0.0
 11
185.5285790055946
 21
49.61270823388556
 31
0.0
  0
LINE
  5
1F6C
330
18
100
AcDbEntity
  8
外形線
100
AcDbLine
 10
183.0285790055945
 20
49.11270823388556
 30
0.0
 11
182.5285790055945
 21
49.61270823388556
 31
0.0
  0
LINE
  5
1F6D
330
18
100
AcDbEntity
  8
外形線
100
AcDbLine
 10
182.5285790055946
 20
61.61270823388557
 30
0.0
 11
183.0285790055946
 21
62.11270823388557
 31
0.0
  0
LINE
  5
1F6E
102
{ACAD_REACTORS
330
20C3
102
}
330
18
100
AcDbEntity
  8
外形線
100
AcDbLine
 10
183.0285790055946
 20
62.11270823388557
 30
0.0
 11
183.0285790055945
 21
49.11270823388556
 31
0.0
  0
LINE
  5
1F6F
102
{ACAD_REACTORS
330
20C3
102
}
330
18
100
AcDbEntity
  8
外形線
100
AcDbLine
 10
185.0285790055946
 20
62.11270823388557
 30
0.0
 11
185.0285790055946
 21
49.11270823388555
 31
0.0
  0
LINE
  5
1F70
330
18
100
AcDbEntity
  8
隠れ線2
 48
0.4
100
AcDbLine
 10
179.5285790055946
 20
57.11270823388558
 30
0.0
 11
176.5285790055946
 21
57.11270823388558
 31
0.0
  0
LINE
  5
1F71
330
18
100
AcDbEntity
  8
隠れ線2
 48
0.4
100
AcDbLine
 10
179.5285790055946
 20
56.61270823388559
 30
0.0
 11
176.5285790055946
 21
56.61270823388559
 31
0.0
  0
LINE
  5
1F72
330
18
100
AcDbEntity
  8
隠れ線2
 48
0.4
100
AcDbLine
 10
179.5285790055946
 20
54.61270823388559
 30
0.0
 11
176.5285790055946
 21
54.61270823388559
 31
0.0
  0
LINE
  5
1F73
330
18
100
AcDbEntity
  8
隠れ線2
 48
0.4
100
AcDbLine
 10
179.5285790055946
 20
54.11270823388559
 30
0.0
 11
176.5285790055946
 21
54.11270823388559
 31
0.0
  0
ELLIPSE
  5
1F80
330
18
100
AcDbEntity
  8
外形線
100
AcDbEllipse
 10
57.73792678759639
 20
101.6021098332534
 30
0.0
 11
0.0
 21
4.5
 31
0.0
210
0.0
220
0.0
230
1.0
 40
0.6666666666666666
 41
3.141592653589793
 42
6.283185307179586
  0
LINE
  5
1F81
330
18
100
AcDbEntity
  8
外形線
100
AcDbLine
 10
44.23792678759639
 20
60.61270823388558
 30
0.0
 11
60.23792678759639
 21
60.61270823388555
 31
0.0
  0
LINE
  5
1F82
330
18
100
AcDbEntity
  8
外形線
100
AcDbLine
 10
44.23792678759639
 20
50.61270823388558
 30
0.0
 11
60.23792678759639
 21
50.61270823388556
 31
0.0
  0
LINE
  5
1F83
330
18
100
AcDbEntity
  8
外形線
100
AcDbLine
 10
44.23792678759639
 20
60.61270823388557
 30
0.0
 11
44.23792678759639
 21
50.61270823388559
 31
0.0
  0
LINE
  5
1F84
330
18
100
AcDbEntity
  8
外形線
100
AcDbLine
 10
60.23792678759639
 20
60.61270823388554
 30
0.0
 11
60.23792678759639
 21
50.61270823388556
 31
0.0
  0
LINE
  5
1F92
330
18
100
AcDbEntity
  8
外形線
100
AcDbLine
 10
46.23792678759639
 20
92.60210983325338
 30
0.0
 11
46.23792678759639
 21
74.30210983325338
 31
0.0
  0
LINE
  5
1F93
330
18
100
AcDbEntity
  8
外形線
100
AcDbLine
 10
58.23792678759639
 20
92.60210983325341
 30
0.0
 11
58.23792678759639
 21
74.30210983325338
 31
0.0
  0
LINE
  5
1F94
330
18
100
AcDbEntity
  8
外形線
100
AcDbLine
 10
45.23792678759639
 20
110.6021098332534
 30
0.0
 11
45.23792678759639
 21
92.6021098332534
 31
0.0
  0
LINE
  5
1F95
330
18
100
AcDbEntity
  8
外形線
100
AcDbLine
 10
59.23792678759639
 20
110.6021098332534
 30
0.0
 11
59.23792678759639
 21
105.4992241502833
 31
0.0
  0
LINE
  5
1F96
330
18
100
AcDbEntity
  8
外形線
100
AcDbLine
 10
51.48792678759639
 20
110.6021098332534
 30
0.0
 11
45.23792678759639
 21
110.6021098332534
 31
0.0
  0
LINE
  5
1F97
330
18
100
AcDbEntity
  8
外形線
100
AcDbLine
 10
59.23792678759639
 20
97.70499551622343
 30
0.0
 11
59.23792678759639
 21
92.60210983325341
 31
0.0
  0
LINE
  5
1F98
330
18
100
AcDbEntity
  8
外形線
100
AcDbLine
 10
46.23792678759639
 20
74.30210983325338
 30
0.0
 11
58.23792678759639
 21
74.30210983325338
 31
0.0
  0
LINE
  5
1F99
330
18
100
AcDbEntity
  8
隠れ線2
100
AcDbLine
 10
54.23792678759639
 20
60.61270823388557
 30
0.0
 11
54.23792678759641
 21
50.61270823388559
 31
0.0
  0
LINE
  5
1F9A
330
18
100
AcDbEntity
  8
隠れ線2
100
AcDbLine
 10
50.23792678759639
 20
60.61270823388557
 30
0.0
 11
50.2379267875964
 21
50.6127082338856
 31
0.0
  0
LINE
  5
1F9B
330
18
100
AcDbEntity
  8
外形線
100
AcDbLine
 10
57.23792678759638
 20
64.11270823388555
 30
0.0
 11
57.23792678759638
 21
62.11270823388557
 31
0.0
  0
LINE
  5
1F9C
330
18
100
AcDbEntity
  8
外形線
100
AcDbLine
 10
47.23792678759639
 20
64.11270823388555
 30
0.0
 11
47.2379267875964
 21
62.11270823388556
 31
0.0
  0
LINE
  5
1F9D
330
18
100
AcDbEntity
  8
外形線
100
AcDbLine
 10
47.2379267875964
 20
62.11270823388556
 30
0.0
 11
57.23792678759638
 21
62.11270823388557
 31
0.0
  0
LINE
  5
1F9E
330
18
100
AcDbEntity
  8
外形線
100
AcDbLine
 10
48.23792678759641
 20
61.11270823388555
 30
0.0
 11
56.23792678759638
 21
61.11270823388557
 31
0.0
  0
LINE
  5
1F9F
330
18
100
AcDbEntity
  8
外形線
100
AcDbLine
 10
47.2379267875964
 20
62.11270823388556
 30
0.0
 11
48.23792678759641
 21
61.11270823388555
 31
0.0
  0
LINE
  5
1FA0
330
18
100
AcDbEntity
  8
外形線
100
AcDbLine
 10
49.2879267875964
 20
61.11270823388555
 30
0.0
 11
49.2879267875964
 21
60.81270823388557
 31
0.0
  0
LINE
  5
1FA1
330
18
100
AcDbEntity
  8
外形線
100
AcDbLine
 10
49.2879267875964
 20
60.81270823388557
 30
0.0
 11
49.48792678759641
 21
60.61270823388558
 31
0.0
  0
LINE
  5
1FA2
330
18
100
AcDbEntity
  8
外形線
 48
0.5
100
AcDbLine
 10
56.23792678759638
 20
61.11270823388557
 30
0.0
 11
57.23792678759638
 21
62.11270823388557
 31
0.0
  0
LINE
  5
1FA3
330
18
100
AcDbEntity
  8
外形線
100
AcDbLine
 10
55.18792678759639
 20
61.11270823388555
 30
0.0
 11
55.18792678759639
 21
60.81270823388557
 31
0.0
  0
LINE
  5
1FA4
330
18
100
AcDbEntity
  8
外形線
 48
0.5
100
AcDbLine
 10
54.98792678759639
 20
60.61270823388558
 30
0.0
 11
55.18792678759639
 21
60.81270823388557
 31
0.0
  0
LINE
  5
1FA5
330
18
100
AcDbEntity
  8
外形線
100
AcDbLine
 10
57.23792678759638
 20
64.11270823388555
 30
0.0
 11
47.23792678759639
 21
64.11270823388555
 31
0.0
  0
LINE
  5
1FA6
330
18
100
AcDbEntity
  8
外形線
100
AcDbLine
 10
47.23792678759639
 20
42.80210983325343
 30
0.0
 11
57.23792678759642
 21
42.80210983325341
 31
0.0
  0
LINE
  5
1FA7
330
18
100
AcDbEntity
  8
外形線
100
AcDbLine
 10
47.73792678759639
 20
42.30210983325343
 30
0.0
 11
56.73792678759642
 21
42.30210983325341
 31
0.0
  0
LINE
  5
1FA8
330
18
100
AcDbEntity
  8
外形線
100
AcDbLine
 10
47.23792678759639
 20
50.61270823388561
 30
0.0
 11
47.23792678759639
 21
42.80210983325343
 31
0.0
  0
LINE
  5
1FA9
330
18
100
AcDbEntity
  8
外形線
100
AcDbLine
 10
47.23792678759639
 20
42.80210983325343
 30
0.0
 11
47.73792678759639
 21
42.30210983325343
 31
0.0
  0
LINE
  5
1FAA
330
18
100
AcDbEntity
  8
外形線
100
AcDbLine
 10
57.2379267875964
 20
50.6127082338856
 30
0.0
 11
57.23792678759642
 21
42.80210983325341
 31
0.0
  0
LINE
  5
1FAB
330
18
100
AcDbEntity
  8
外形線
100
AcDbLine
 10
56.73792678759642
 20
42.30210983325341
 30
0.0
 11
57.23792678759642
 21
42.80210983325341
 31
0.0
  0
LINE
  5
1FAC
330
18
100
AcDbEntity
  8
外形線
100
AcDbLine
 10
47.23792678759639
 20
74.30210983325344
 30
0.0
 11
47.23792678759642
 21
60.6127082338856
 31
0.0
  0
LINE
  5
1FAD
330
18
100
AcDbEntity
  8
外形線
100
AcDbLine
 10
57.23792678759642
 20
74.30210983325342
 30
0.0
 11
57.23792678759645
 21
60.61270823388558
 31
0.0
  0
LINE
  5
1FAE
330
18
100
AcDbEntity
  8
隠れ線2
100
AcDbLine
 10
47.23792678759639
 20
60.6127082338856
 30
0.0
 11
47.23792678759639
 21
50.61270823388562
 31
0.0
  0
LINE
  5
1FAF
330
18
100
AcDbEntity
  8
隠れ線2
100
AcDbLine
 10
57.23792678759642
 20
60.61270823388558
 30
0.0
 11
57.23792678759642
 21
50.61270823388559
 31
0.0
  0
LINE
  5
1FB0
330
18
100
AcDbEntity
  8
外形線
100
AcDbLine
 10
138.5285790055945
 20
81.30210983325339
 30
0.0
 11
144.5285790055946
 21
81.30210983325341
 31
0.0
  0
LINE
  5
1FB1
330
18
100
AcDbEntity
  8
想像線
 48
0.3
100
AcDbLine
 10
138.5285790055945
 20
91.30210983325339
 30
0.0
 11
144.5285790055946
 21
91.30210983325341
 31
0.0
  0
LINE
  5
1FB2
330
18
100
AcDbEntity
  8
想像線
 48
0.3
100
AcDbLine
 10
138.8285790055945
 20
91.6021098332534
 30
0.0
 11
144.2285790055946
 21
91.6021098332534
 31
0.0
  0
LINE
  5
1FB3
330
18
100
AcDbEntity
  8
外形線
100
AcDbLine
 10
138.5285790055945
 20
89.40210983325341
 30
0.0
 11
144.5285790055945
 21
89.40210983325341
 31
0.0
  0
LINE
  5
1FB4
330
18
100
AcDbEntity
  8
想像線
 48
0.3
100
AcDbLine
 10
137.5285790055946
 20
89.40210983325341
 30
0.0
 11
145.5285790055945
 21
89.40210983325341
 31
0.0
  0
LINE
  5
1FB5
330
18
100
AcDbEntity
  8
想像線
 48
0.3
100
AcDbLine
 10
136.5285790055945
 20
86.4021098332534
 30
0.0
 11
146.5285790055945
 21
86.4021098332534
 31
0.0
  0
LINE
  5
1FB6
330
18
100
AcDbEntity
  8
想像線
 48
0.3
100
AcDbLine
 10
136.5285790055946
 20
88.4021098332534
 30
0.0
 11
146.5285790055945
 21
88.4021098332534
 31
0.0
  0
LINE
  5
1FB7
330
18
100
AcDbEntity
  8
想像線
 48
0.3
100
AcDbLine
 10
138.5285790055945
 20
91.30210983325339
 30
0.0
 11
138.5285790055945
 21
89.40210983325341
 31
0.0
  0
LINE
  5
1FB8
330
18
100
AcDbEntity
  8
想像線
 48
0.3
100
AcDbLine
 10
136.5285790055946
 20
88.4021098332534
 30
0.0
 11
137.5285790055946
 21
89.40210983325341
 31
0.0
  0
LINE
  5
1FB9
330
18
100
AcDbEntity
  8
想像線
 48
0.3
100
AcDbLine
 10
136.5285790055945
 20
86.4021098332534
 30
0.0
 11
136.5285790055946
 21
88.4021098332534
 31
0.0
  0
LINE
  5
1FBA
330
18
100
AcDbEntity
  8
想像線
 48
0.3
100
AcDbLine
 10
138.5285790055945
 20
91.30210983325339
 30
0.0
 11
138.8285790055945
 21
91.6021098332534
 31
0.0
  0
LINE
  5
1FBB
330
18
100
AcDbEntity
  8
想像線
 48
0.3
100
AcDbLine
 10
144.5285790055946
 20
91.30210983325341
 30
0.0
 11
144.5285790055945
 21
89.40210983325341
 31
0.0
  0
LINE
  5
1FBC
330
18
100
AcDbEntity
  8
想像線
 48
0.3
100
AcDbLine
 10
145.5285790055945
 20
89.40210983325341
 30
0.0
 11
146.5285790055945
 21
88.4021098332534
 31
0.0
  0
LINE
  5
1FBD
330
18
100
AcDbEntity
  8
想像線
 48
0.3
100
AcDbLine
 10
146.5285790055945
 20
86.40210983325342
 30
0.0
 11
146.5285790055945
 21
88.4021098332534
 31
0.0
  0
LINE
  5
1FBE
330
18
100
AcDbEntity
  8
想像線
 48
0.3
100
AcDbLine
 10
144.2285790055946
 20
91.6021098332534
 30
0.0
 11
144.5285790055946
 21
91.30210983325341
 31
0.0
  0
DIMENSION
  5
1FEB
330
18
100
AcDbEntity
  8
寸法線
100
AcDbDimension
  2
*D17
 10
106.5970884185981
 20
137.6021098332534
 30
0.0
 11
104.7220884185981
 21
154.6021098332534
 31
0.0
 70
    32
 71
     5
 42
34.0
  3
STYLE3
100
AcDbAlignedDimension
 13
137.4785790055945
 23
171.6021098332534
 33
0.0
 14
107.9446621435638
 24
137.6021098332534
 34
0.0
 50
90.0
100
AcDbRotatedDimension
1001
ACAD
1000
DSTYLE
1002
{
1070
   271
1070
     2
1002
}
  0
DIMENSION
  5
1FF9
330
18
100
AcDbEntity
  8
寸法線
100
AcDbDimension
  2
*D18
 10
207.4352635770611
 20
74.3021098332534
 30
0.0
 11
205.5602635770611
 21
83.45210983325342
 31
0.0
 70
    32
 71
     5
 42
18.29999999999998
  3
STYLE3
100
AcDbAlignedDimension
 13
152.5285790055945
 23
92.6021098332534
 33
0.0
 14
180.8883073690541
 24
74.3021098332534
 34
0.0
 50
90.0
100
AcDbRotatedDimension
1001
ACAD
1000
DSTYLE
1002
{
1070
   271
1070
     2
1002
}
  0
DIMENSION
  5
2005
330
18
100
AcDbEntity
  8
寸法線
100
AcDbDimension
  2
*D19
 10
207.4352635770611
 20
42.30210983325337
 30
0.0
 11
205.5602635770612
 21
58.30210983325341
 31
0.0
 70
    32
 71
     5
 42
32.00000000000003
  3
STYLE3
100
AcDbAlignedDimension
 13
180.8883073690541
 23
74.3021098332534
 33
0.0
 14
176.0285790055946
 24
42.30210983325337
 34
0.0
 50
90.0
100
AcDbRotatedDimension
1001
ACAD
1000
DSTYLE
1002
{
1070
    75
1070
     1
1070
   271
1070
     2
1070
   279
1070
     1
1002
}
  0
DIMENSION
  5
2012
330
18
100
AcDbEntity
  8
寸法線
100
AcDbDimension
  2
*D20
 10
171.5285790055945
 20
29.14915422022983
 30
0.0
 11
156.5285790055945
 21
31.02415422022983
 31
0.0
 70
    32
 71
     5
 42
30.0
  3
STYLE3
100
AcDbAlignedDimension
 13
141.5285790055945
 23
36.73415320335739
 33
0.0
 14
171.5285790055945
 24
37.29110695225653
 34
0.0
100
AcDbRotatedDimension
1001
ACAD
1000
DSTYLE
1002
{
1070
   271
1070
     2
1002
}
  0
DIMENSION
  5
202A
330
18
100
AcDbEntity
  8
寸法線
100
AcDbDimension
  2
*D21
 10
176.5285790055946
 20
35.17572123186056
 30
0.0
 11
171.5285790055945
 21
37.05072123186056
 31
0.0
 70
    32
  1
φ<>
 71
     5
 42
10.00000000000003
  3
STYLE3
100
AcDbAlignedDimension
 13
166.5285790055945
 23
42.80210983325338
 33
0.0
 14
176.5285790055946
 24
42.80210983325337
 34
0.0
100
AcDbRotatedDimension
1001
ACAD
1000
DSTYLE
1002
{
1070
   271
1070
     2
1002
}
  0
DIMENSION
  5
204F
330
18
100
AcDbEntity
  8
寸法線
100
AcDbDimension
  2
*D22
 10
153.8243370589359
 20
64.11270823388555
 30
0.0
 11
151.9493370589359
 21
75.25740903356949
 31
0.0
 70
    32
  1
0～30
 71
     5
 42
22.28940159936785
  3
STYLE3
100
AcDbAlignedDimension
 13
146.5285790055945
 23
86.4021098332534
 33
0.0
 14
146.5285790055945
 24
64.11270823388555
 34
0.0
 50
90.0
100
AcDbRotatedDimension
1001
ACAD
1000
DSTYLE
1002
{
1070
   271
1070
     2
1002
}
  0
DIMENSION
  5
2067
330
18
100
AcDbEntity
  8
寸法線
100
AcDbDimension
  2
*D23
 10
141.5285790055946
 20
35.22881215141047
 30
0.0
 11
152.5285790055946
 21
37.10381215141047
 31
0.0
 70
    32
 71
     5
 42
21.99999999999994
  3
STYLE3
100
AcDbAlignedDimension
 13
163.5285790055945
 23
74.3021098332534
 33
0.0
 14
141.5285790055946
 24
35.91325834164019
 34
0.0
100
AcDbRotatedDimension
1001
ACAD
1000
DSTYLE
1002
{
1070
   271
1070
     2
1002
}
  0
LINE
  5
2075
330
18
100
AcDbEntity
  8
0
  6
ByBlock
 62
     2
100
AcDbLine
 10
136.5285790055945
 20
76.4021098332534
 30
0.0
 11
136.5285790055945
 21
72.30778223091409
 31
0.0
  0
LINE
  5
2076
330
18
100
AcDbEntity
  8
0
  6
ByBlock
 62
     2
100
AcDbLine
 10
146.5285790055945
 20
76.4021098332534
 30
0.0
 11
146.5285790055945
 21
72.30778223091409
 31
0.0
  0
LINE
  5
2077
330
18
100
AcDbEntity
  8
0
  6
ByBlock
 62
     2
100
AcDbLine
 10
139.0285790055945
 20
73.55778223091409
 30
0.0
 11
144.0285790055945
 21
73.55778223091409
 31
0.0
  0
INSERT
  5
2078
330
18
100
AcDbEntity
  8
0
  6
ByBlock
 62
     2
100
AcDbBlockReference
  2
_OPEN
 10
136.5285790055945
 20
73.55778223091409
 30
0.0
 41
2.5
 42
2.5
 43
2.5
 50
180.0
  0
INSERT
  5
2079
330
18
100
AcDbEntity
  8
0
  6
ByBlock
 62
     2
100
AcDbBlockReference
  2
_OPEN
 10
146.5285790055945
 20
73.55778223091409
 30
0.0
 41
2.5
 42
2.5
 43
2.5
  0
POINT
  5
207B
330
18
100
AcDbEntity
  8
DEFPOINTS
  6
ByBlock
 62
     0
100
AcDbPoint
 10
136.5285790055945
 20
76.4021098332534
 30
0.0
  0
POINT
  5
207C
330
18
100
AcDbEntity
  8
DEFPOINTS
  6
ByBlock
 62
     0
100
AcDbPoint
 10
146.5285790055945
 20
76.4021098332534
 30
0.0
  0
POINT
  5
207D
330
18
100
AcDbEntity
  8
DEFPOINTS
  6
ByBlock
 62
     0
100
AcDbPoint
 10
146.5285790055945
 20
73.55778223091409
 30
0.0
  0
LINE
  5
207E
330
18
100
AcDbEntity
  8
寸法線
100
AcDbLine
 10
141.5285790055945
 20
73.55778223091409
 30
0.0
 11
125.5102107589691
 21
51.8836622345193
 31
0.0
  0
LINE
  5
207F
330
18
100
AcDbEntity
  8
寸法線
100
AcDbLine
 10
125.5102107589691
 20
51.8836622345193
 30
0.0
 11
110.4397892652623
 21
51.8836622345193
 31
0.0
  0
TEXT
  5
2080
330
18
100
AcDbEntity
  8
文字
100
AcDbText
 10
110.1192742510387
 20
52.91108083403636
 30
0.0
 40
3.0
  1
2-φ10
  7
STYLE3
100
AcDbText
  0
LINE
  5
2082
330
18
100
AcDbEntity
  8
0
  6
ByBlock
 62
     2
100
AcDbLine
 10
136.5285790055945
 20
76.4021098332534
 30
0.0
 11
105.2696790545013
 21
76.40210983325342
 31
0.0
  0
LINE
  5
2083
330
18
100
AcDbEntity
  8
0
  6
ByBlock
 62
     2
100
AcDbLine
 10
110.4397884632377
 20
92.6021098332534
 30
0.0
 11
105.3470884185981
 21
92.6021098332534
 31
0.0
  0
LINE
  5
2084
330
18
100
AcDbEntity
  8
0
  6
ByBlock
 62
     2
100
AcDbLine
 10
106.5970884185981
 20
78.90210983325342
 30
0.0
 11
106.5970884185981
 21
90.1021098332534
 31
0.0
  0
INSERT
  5
2085
330
18
100
AcDbEntity
  8
0
  6
ByBlock
 62
     2
100
AcDbBlockReference
  2
_OPEN
 10
106.5970884185981
 20
76.40210983325342
 30
0.0
 41
2.5
 42
2.5
 43
2.5
 50
270.0
  0
INSERT
  5
2086
330
18
100
AcDbEntity
  8
0
  6
ByBlock
 62
     2
100
AcDbBlockReference
  2
_OPEN
 10
106.5970884185981
 20
92.6021098332534
 30
0.0
 41
2.5
 42
2.5
 43
2.5
 50
90.0
  0
MTEXT
  5
2087
330
18
100
AcDbEntity
  8
0
  6
ByBlock
 62
     6
100
AcDbMText
 10
104.7220884185981
 20
84.50210983325339
 30
0.0
 40
2.5
 41
0.0
 71
     5
 72
     1
  1
\A1;16.2
  7
STYLE3
 11
0.0000000000000001
 21
1.0
 31
0.0
 73
     1
 44
1.0
  0
POINT
  5
2088
330
18
100
AcDbEntity
  8
DEFPOINTS
  6
ByBlock
 62
     0
100
AcDbPoint
 10
136.5285790055945
 20
76.4021098332534
 30
0.0
  0
POINT
  5
2089
330
18
100
AcDbEntity
  8
DEFPOINTS
  6
ByBlock
 62
     0
100
AcDbPoint
 10
110.4397884632377
 20
92.6021098332534
 30
0.0
  0
POINT
  5
208A
330
18
100
AcDbEntity
  8
DEFPOINTS
  6
ByBlock
 62
     0
100
AcDbPoint
 10
106.5970884185981
 20
92.6021098332534
 30
0.0
  0
HATCH
  5
20C3
330
18
100
AcDbEntity
  8
寸法線
100
AcDbHatch
 10
0.0
 20
0.0
 30
0.0
210
0.0
220
0.0
230
1.0
  2
ANSI37
 70
     0
 71
     1
 91
        2
 92
        7
 72
     0
 73
     1
 93
        4
 10
183.0285790055946
 20
55.61270823388557
 10
185.0285790055946
 20
55.61270823388556
 10
185.0285790055946
 20
62.11270823388558
 10
183.0285790055946
 20
62.11270823388556
 97
        4
330
1F64
330
1F6E
330
1F5A
330
1F6F
 92
        7
 72
     0
 73
     1
 93
        4
 10
185.0285790055946
 20
55.61270823388556
 10
183.0285790055945
 20
55.61270823388556
 10
183.0285790055945
 20
49.11270823388556
 10
185.0285790055946
 20
49.11270823388556
 97
        4
330
1F5A
330
1F6E
330
1F65
330
1F6F
 75
     0
 76
     1
 52
0.0
 41
1.0
 77
     0
 78
     2
 53
45.0
 43
24.96967905450129
 44
-3.743806700209574
 45
-2.245064030267287
 46
2.245064030267288
 79
     0
 53
135.0
 43
24.96967905450129
 44
-3.743806700209574
 45
-2.245064030267288
 46
-2.245064030267287
 79
     0
 47
0.0641124205884486
 98
        2
 10
183.7270140561294
 20
58.07239037327457
 10
184.3686753689426
 20
53.45629600226897
  0
TEXT
  5
210D
330
18
100
AcDbEntity
  8
文字
100
AcDbText
 10
60.3549732823902
 20
187.9904359726468
 30
0.0
 40
4.0
  1
Model No.G-3 Dial Thickness Gauge
  7
STYLE3
100
AcDbText
  0
LINE
  5
210E
330
18
100
AcDbEntity
  8
外形線
100
AcDbLine
 10
59.58264928239018
 20
184.1277209726468
 30
0.0
 11
167.5826492823901
 21
184.1277209726468
 31
0.0
  0
LINE
  5
210F
330
18
100
AcDbEntity
  8
外形線
100
AcDbLine
 10
59.58264928239018
 20
185.1277209726468
 30
0.0
 11
167.5826492823901
 21
185.1277209726468
 31
0.0
  0
LINE
  5
2111
330
18
100
AcDbEntity
  8
外形線
100
AcDbLine
 10
113.7569702823902
 20
20.80646397264683
 30
0.0
 11
254.5483882823902
 21
20.80646397264683
 31
0.0
  0
LINE
  5
2112
330
18
100
AcDbEntity
  8
外形線
100
AcDbLine
 10
113.7569702823902
 20
10.02625797264683
 30
0.0
 11
254.5483882823902
 21
10.02625797264683
 31
0.0
  0
TEXT
  5
2113
330
18
100
AcDbEntity
  8
0
  6
Continuous
100
AcDbText
 10
115.2144372823902
 20
11.92424797264683
 30
0.0
 40
2.1
  1
Design and specifications are subject to change without notice for future improvement.
  7
STYLE3
100
AcDbText
  0
TEXT
  5
2114
330
18
100
AcDbEntity
  8
0
  6
Continuous
100
AcDbText
 10
115.5059312823901
 20
15.85339597264683
 30
0.0
 40
3.5
  1
仕様及び外観は予告なく変更される場合がございますのでご了承下さい。
  7
STYLE3
100
AcDbText
  0
TEXT
  5
2115
330
18
100
AcDbEntity
  8
0
  6
Continuous
100
AcDbText
 10
114.9229462823902
 20
2.159619972646831
 30
0.0
 40
2.1
  1
3RD Angle Projection
  7
STYLE3
100
AcDbText
  0
TEXT
  5
2116
330
18
100
AcDbEntity
  8
0
  6
Continuous
100
AcDbText
 10
117.5463892823902
 20
5.655902972646831
 30
0.0
 40
3.0
  1
三　　角　　法
  7
STYLE3
100
AcDbText
  0
LINE
  5
2117
330
18
100
AcDbEntity
  8
外形線
100
AcDbLine
 10
113.7569702823902
 20
0.4114799726468314
 30
0.0
 11
113.7569702823902
 21
20.80646397264683
 31
0.0
  0
LINE
  5
2118
330
18
100
AcDbEntity
  8
外形線
100
AcDbLine
 10
215.7797372823902
 20
10.02625797264683
 30
0.0
 11
215.7797372823902
 21
0.4114799726468314
 31
0.0
  0
LINE
  5
2119
330
18
100
AcDbEntity
  8
外形線
100
AcDbLine
 10
186.0473872823902
 20
10.02625797264683
 30
0.0
 11
186.0473872823902
 21
0.4114799726468314
 31
0.0
  0
LINE
  5
211A
330
18
100
AcDbEntity
  8
外形線
100
AcDbLine
 10
166.5173152823902
 20
10.02625797264683
 30
0.0
 11
166.5173152823902
 21
0.4114799726468314
 31
0.0
  0
LINE
  5
211B
330
18
100
AcDbEntity
  8
外形線
100
AcDbLine
 10
149.0276982823902
 20
10.02625797264683
 30
0.0
 11
149.0276982823902
 21
0.4114799726468314
 31
0.0
  0
TEXT
  5
211C
330
18
100
AcDbEntity
  8
0
  6
Continuous
100
AcDbText
 10
150.4851672823902
 20
5.66185797264683
 30
0.0
 40
3.0
  1
単位
  7
STYLE3
100
AcDbText
  0
TEXT
  5
211D
330
18
100
AcDbEntity
  8
0
  6
Continuous
100
AcDbText
 10
150.6568882823902
 20
2.159620972646831
 30
0.0
 40
2.1
  1
Unit
  7
STYLE3
100
AcDbText
  0
TEXT
  5
211E
330
18
100
AcDbEntity
  8
0
  6
Continuous
100
AcDbText
 10
167.8030632823902
 20
5.370499972646831
 30
0.0
 40
3.0
  1
尺 度
  7
STYLE3
100
AcDbText
  0
TEXT
  5
211F
330
18
100
AcDbEntity
  8
0
  6
Continuous
100
AcDbText
 10
158.5272152823902
 20
3.907763972646831
 30
0.0
 40
2.399999999999999
  1
mm
  7
STYLE3
100
AcDbText
  0
TEXT
  5
2120
330
18
100
AcDbEntity
  8
0
  6
Continuous
100
AcDbText
 10
168.2662782823902
 20
2.450977972646831
 30
0.0
 40
2.1
  1
Scale
  7
STYLE3
100
AcDbText
  0
TEXT
  5
2121
330
18
100
AcDbEntity
  8
0
  6
Continuous
100
AcDbText
 10
177.8855672823902
 20
4.199120972646831
 30
0.0
 40
2.399999999999999
  1
1/1
  7
STYLE3
100
AcDbText
  0
TEXT
  5
2122
330
18
100
AcDbEntity
  8
0
  6
Continuous
100
AcDbText
 10
187.9793382823902
 20
2.159621972646831
 30
0.0
 40
2.1
  1
Date
  7
STYLE3
100
AcDbText
  0
TEXT
  5
2123
330
18
100
AcDbEntity
  8
0
  6
Continuous
100
AcDbText
 10
187.5959772823902
 20
5.492704972646831
 30
0.0
 40
3.0
  1
日 付
  7
STYLE3
100
AcDbText
  0
TEXT
  5
2124
330
18
100
AcDbEntity
  8
0
  6
Continuous
100
AcDbText
 10
196.7241462823901
 20
3.907762972646831
 30
0.0
 40
2.1
  1
2010.06.10
  7
STYLE3
100
AcDbText
  0
TEXT
  5
2125
330
18
100
AcDbEntity
  8
0
  6
Continuous
100
AcDbText
 10
217.1287002823902
 20
5.947259972646831
 30
0.0
 40
3.0
  1
株式会社　尾崎製作所
  7
STYLE3
100
AcDbText
  0
TEXT
  5
2126
330
18
100
AcDbEntity
  8
0
  6
Continuous
100
AcDbText
 10
218.0031792823902
 20
2.159620972646831
 30
0.0
 40
2.1
  1
OZAKI MFG. CO., LTD.
  7
STYLE3
100
AcDbText
  0
VIEWPORT
  5
177
330
15
100
AcDbEntity
 67
     1
  8
0
100
AcDbViewport
 10
127.5041203589828
 20
97.49391214526822
 30
0.0
 40
418.3086347473814
 41
243.0346063651093
 68
     1
 69
     1
 12
127.5041203589828
 22
97.49391214526822
 13
0.0
 23
0.0
 14
10.0
 24
10.0
 15
10.0
 25
10.0
 16
0.0
 26
0.0
 36
1.0
 17
0.0
 27
0.0
 37
0.0
 42
50.0
 43
0.0
 44
0.0
 45
243.0346063651093
 50
0.0
 51
0.0
 72
   100
 90
    32800
  1

281
     0
 71
     1
 74
     0
110
0.0
120
0.0
130
0.0
111
1.0
121
0.0
131
0.0
112
0.0
122
1.0
132
0.0
 79
     0
146
0.0
170
     0
  0
ENDSEC
  0
SECTION
  2
OBJECTS
  0
DICTIONARY
  5
C
330
0
100
AcDbDictionary
281
     1
  3
ACAD_COLOR
350
20D2
  3
ACAD_GROUP
350
D
  3
ACAD_IMAGE_DICT
350
5BD
  3
ACAD_LAYOUT
350
20D5
  3
ACAD_MATERIAL
350
20D1
  3
ACAD_MLINESTYLE
350
1B
  3
ACAD_PLOTSETTINGS
350
20D6
  3
ACAD_PLOTSTYLENAME
350
20CF
  3
ACAD_TABLESTYLE
350
20D3
  3
ACDBVARIABLEDICTIONARY
350
1790
  0
DICTIONARY
  5
20D2
102
{ACAD_REACTORS
330
C
102
}
330
C
100
AcDbDictionary
281
     1
  0
DICTIONARY
  5
D
102
{ACAD_REACTORS
330
C
102
}
330
C
100
AcDbDictionary
281
     1
  0
DICTIONARY
  5
5BD
102
{ACAD_REACTORS
330
C
102
}
330
C
100
AcDbDictionary
281
     1
  3
ROGO01
350
5BE
  0
DICTIONARY
  5
20D5
102
{ACAD_REACTORS
330
C
102
}
330
C
100
AcDbDictionary
281
     1
  3
Model
350
20D7
  3
レイアウト1
350
20D8
  0
DICTIONARY
  5
20D1
102
{ACAD_REACTORS
330
C
102
}
330
C
100
AcDbDictionary
281
     1
  0
DICTIONARY
  5
1B
102
{ACAD_REACTORS
330
C
102
}
330
C
100
AcDbDictionary
281
     1
  3
STANDARD
350
1C
  0
DICTIONARY
  5
20D6
102
{ACAD_REACTORS
330
C
102
}
330
C
100
AcDbDictionary
281
     1
  0
ACDBDICTIONARYWDFLT
  5
20CF
102
{ACAD_REACTORS
330
C
102
}
330
C
100
AcDbDictionary
281
     1
  3
Normal
350
20D0
100
AcDbDictionaryWithDefault
340
20D0
  0
DICTIONARY
  5
20D3
102
{ACAD_REACTORS
330
C
102
}
330
C
100
AcDbDictionary
281
     1
  3
Standard
350
20D4
  0
DICTIONARY
  5
1790
102
{ACAD_REACTORS
330
C
102
}
330
C
100
AcDbDictionary
281
     1
  3
CTABLESTYLE
350
20DF
  3
SORTENTS
350
1791
  0
IMAGEDEF
  5
5BE
102
{ACAD_REACTORS
330
5BD
102
}
330
5BD
100
AcDbRasterImageDef
 90
        0
  1
D:\ﾃｽﾄ\rogo01.TIF
 10
3388.0
 20
4668.0
 11
0.0635
 21
0.0635
280
     1
281
     5
  0
LAYOUT
  5
20D7
102
{ACAD_REACTORS
330
20D5
102
}
330
20D5
100
AcDbPlotSettings
  1

  2
WIDR Printer
  4

  6

 40
0.0
 41
0.0
 42
0.0
 43
0.0
 44
0.0
 45
0.0
 46
0.0
 47
0.0
 48
0.0
 49
0.0
140
0.0
141
0.0
142
1.0
143
1.0
 70
  1712
 72
     0
 73
     0
 74
     0
  7
AutoCad LT 98.ctb
 75
     0
147
1.0
 76
     0
 77
     2
 78
   300
148
0.0
149
0.0
100
AcDbLayout
  1
Model
 70
     1
 71
     0
 10
0.0
 20
0.0
 11
12.0
 21
9.0
 12
0.0
 22
0.0
 32
0.0
 14
0.0
 24
0.0
 34
0.0
 15
0.0
 25
0.0
 35
0.0
146
0.0
 13
0.0
 23
0.0
 33
0.0
 16
1.0
 26
0.0
 36
0.0
 17
0.0
 27
1.0
 37
0.0
 76
     0
330
18
  0
LAYOUT
  5
20D8
102
{ACAD_REACTORS
330
20D5
102
}
330
20D5
100
AcDbPlotSettings
  1

  2
WIDR Printer
  4

  6

 40
0.0
 41
0.0
 42
0.0
 43
0.0
 44
0.0
 45
0.0
 46
0.0
 47
0.0
 48
0.0
 49
0.0
140
0.0
141
0.0
142
1.0
143
1.0
 70
   688
 72
     0
 73
     0
 74
     5
  7
AutoCad LT 98.ctb
 75
    16
147
1.0
 76
     0
 77
     2
 78
   300
148
0.0
149
0.0
100
AcDbLayout
  1
レイアウト1
 70
     1
 71
     1
 10
0.0
 20
0.0
 11
420.0
 21
297.0
 12
0.0
 22
0.0
 32
0.0
 14
-0.2
 24
-0.2
 34
0.0
 15
255.2
 25
195.2
 35
0.0
146
0.0
 13
0.0
 23
0.0
 33
0.0
 16
1.0
 26
0.0
 36
0.0
 17
0.0
 27
1.0
 37
0.0
 76
     0
330
15
331
177
  0
MLINESTYLE
  5
1C
102
{ACAD_REACTORS
330
1B
102
}
330
1B
100
AcDbMlineStyle
  2
STANDARD
 70
     0
  3

 62
   256
 51
90.0
 52
90.0
 71
     2
 49
0.5
 62
   256
  6
BYLAYER
 49
-0.5
 62
   256
  6
BYLAYER
  0
ACDBPLACEHOLDER
  5
20D0
102
{ACAD_REACTORS
330
20CF
102
}
330
20CF
  0
ACAD_PROXY_OBJECT
  5
20D4
102
{ACAD_REACTORS
330
20D3
102
}
330
20D3
100
AcDbProxyObject
 90
      499
 91
      505
 95
  2555929
 70
     0
 93
     1849
310
4214DD185B99185C992420000000000000F83F0000000000003E0FC00000000000004901028000000C1008070000C3001FDFF8000000C1003FBFF000000182007F7FE00000030400FEFFC00000060801FDFF8000000C1003FBFF000000182000000000000000C2020B0000001820100E000186003FBFF000000182007F7FE0
310
0000030400FEFFC00000060801FDFF8000000C1003FBFF000000182007F7FE0000003040000000000000012404160000003040201C00030C007F7FE00000030400FEFFC00000060801FDFF8000000C1003FBFF000000182007F7FE00000030400FEFFC000000608000
340
F
340
F
340
F
 94
        0
  0
DICTIONARYVAR
  5
20DF
102
{ACAD_REACTORS
330
1790
102
}
330
1790
100
DictionaryVariables
280
     0
  1
STANDARD
  0
DICTIONARYVAR
  5
1791
102
{ACAD_REACTORS
330
1790
102
}
330
1790
100
DictionaryVariables
280
     0
  1
96
  0
ENDSEC
  0
EOF
