  0
SECTION
  2
HEADER
  9
$ACADVER
  1
AC1018
  9
$ACADMAINTVER
 70
     0
  9
$DWGCODEPAGE
  3
ANSI_932
  9
$INSBASE
 10
0.0
 20
0.0
 30
0.0
  9
$EXTMIN
 10
128.257142240481
 20
39.50875928242317
 30
-1.000014237378449
  9
$EXTMAX
 10
383.6755380449765
 20
234.9225775235362
 30
0.0000306032629536
  9
$LIMMIN
 10
0.0
 20
0.0
  9
$LIMMAX
 10
420.0
 20
297.0
  9
$ORTHOMODE
 70
     0
  9
$REGENMODE
 70
     1
  9
$FILLMODE
 70
     1
  9
$QTEXTMODE
 70
     0
  9
$MIRRTEXT
 70
     1
  9
$LTSCALE
 40
1.0
  9
$ATTMODE
 70
     1
  9
$TEXTSIZE
 40
2.5
  9
$TRACEWID
 40
1.0
  9
$TEXTSTYLE
  7
STYLE3
  9
$CLAYER
  8
寸法線
  9
$CELTYPE
  6
BYLAYER
  9
$CECOLOR
 62
   256
  9
$CELTSCALE
 40
1.0
  9
$DISPSILH
 70
     0
  9
$DIMSCALE
 40
1.0
  9
$DIMASZ
 40
2.5
  9
$DIMEXO
 40
0.0
  9
$DIMDLI
 40
3.75
  9
$DIMRND
 40
0.0
  9
$DIMDLE
 40
0.0
  9
$DIMEXE
 40
1.25
  9
$DIMTP
 40
0.0
  9
$DIMTM
 40
0.0
  9
$DIMTXT
 40
2.5
  9
$DIMCEN
 40
2.5
  9
$DIMTSZ
 40
0.0
  9
$DIMTOL
 70
     0
  9
$DIMLIM
 70
     0
  9
$DIMTIH
 70
     0
  9
$DIMTOH
 70
     0
  9
$DIMSE1
 70
     0
  9
$DIMSE2
 70
     0
  9
$DIMTAD
 70
     1
  9
$DIMZIN
 70
     8
  9
$DIMBLK
  1

  9
$DIMASO
 70
     1
  9
$DIMSHO
 70
     1
  9
$DIMPOST
  1

  9
$DIMAPOST
  1

  9
$DIMALT
 70
     0
  9
$DIMALTD
 70
     4
  9
$DIMALTF
 40
0.0394
  9
$DIMLFAC
 40
1.0
  9
$DIMTOFL
 70
     1
  9
$DIMTVP
 40
0.0
  9
$DIMTIX
 70
     0
  9
$DIMSOXD
 70
     0
  9
$DIMSAH
 70
     1
  9
$DIMBLK1
  1
OPEN
  9
$DIMBLK2
  1
OPEN
  9
$DIMSTYLE
  2
STYLE3
  9
$DIMCLRD
 70
     2
  9
$DIMCLRE
 70
     2
  9
$DIMCLRT
 70
     6
  9
$DIMTFAC
 40
1.0
  9
$DIMGAP
 40
0.625
  9
$DIMJUST
 70
     0
  9
$DIMSD1
 70
     0
  9
$DIMSD2
 70
     0
  9
$DIMTOLJ
 70
     1
  9
$DIMTZIN
 70
     0
  9
$DIMALTZ
 70
     0
  9
$DIMALTTZ
 70
     0
  9
$DIMUPT
 70
     0
  9
$DIMDEC
 70
     1
  9
$DIMTDEC
 70
     4
  9
$DIMALTU
 70
     8
  9
$DIMALTTD
 70
     4
  9
$DIMTXSTY
  7
STYLE3
  9
$DIMAUNIT
 70
     0
  9
$DIMADEC
 70
     0
  9
$DIMALTRND
 40
0.0
  9
$DIMAZIN
 70
     0
  9
$DIMDSEP
 70
    46
  9
$DIMATFIT
 70
     3
  9
$DIMFRAC
 70
     0
  9
$DIMLDRBLK
  1

  9
$DIMLUNIT
 70
     2
  9
$DIMLWD
 70
    -2
  9
$DIMLWE
 70
    -2
  9
$DIMTMOVE
 70
     0
  9
$LUNITS
 70
     2
  9
$LUPREC
 70
     4
  9
$SKETCHINC
 40
1.0
  9
$FILLETRAD
 40
0.0
  9
$AUNITS
 70
     0
  9
$AUPREC
 70
     0
  9
$MENU
  1
.
  9
$ELEVATION
 40
0.0
  9
$PELEVATION
 40
0.0
  9
$THICKNESS
 40
0.0
  9
$LIMCHECK
 70
     0
  9
$CHAMFERA
 40
10.0
  9
$CHAMFERB
 40
10.0
  9
$CHAMFERC
 40
20.0
  9
$CHAMFERD
 40
0.0
  9
$SKPOLY
 70
     0
  9
$TDCREATE
 40
2451236.549921065
  9
$TDUCREATE
 40
2451236.174921064
  9
$TDUPDATE
 40
2455358.465049005
  9
$TDUUPDATE
 40
2455358.090049005
  9
$TDINDWG
 40
0.1787641435
  9
$TDUSRTIMER
 40
0.1787641435
  9
$USRTIMER
 70
     1
  9
$ANGBASE
 50
0.0
  9
$ANGDIR
 70
     0
  9
$PDMODE
 70
     0
  9
$PDSIZE
 40
0.0
  9
$PLINEWID
 40
0.0
  9
$SPLFRAME
 70
     0
  9
$SPLINETYPE
 70
     6
  9
$SPLINESEGS
 70
     8
  9
$HANDSEED
  5
206D
  9
$SURFTAB1
 70
     6
  9
$SURFTAB2
 70
     6
  9
$SURFTYPE
 70
     6
  9
$SURFU
 70
     6
  9
$SURFV
 70
     6
  9
$UCSBASE
  2

  9
$UCSNAME
  2

  9
$UCSORG
 10
0.0
 20
0.0
 30
0.0
  9
$UCSXDIR
 10
1.0
 20
0.0
 30
0.0
  9
$UCSYDIR
 10
0.0
 20
1.0
 30
0.0
  9
$UCSORTHOREF
  2

  9
$UCSORTHOVIEW
 70
     0
  9
$UCSORGTOP
 10
0.0
 20
0.0
 30
0.0
  9
$UCSORGBOTTOM
 10
0.0
 20
0.0
 30
0.0
  9
$UCSORGLEFT
 10
0.0
 20
0.0
 30
0.0
  9
$UCSORGRIGHT
 10
0.0
 20
0.0
 30
0.0
  9
$UCSORGFRONT
 10
0.0
 20
0.0
 30
0.0
  9
$UCSORGBACK
 10
0.0
 20
0.0
 30
0.0
  9
$PUCSBASE
  2

  9
$PUCSNAME
  2

  9
$PUCSORG
 10
0.0
 20
0.0
 30
0.0
  9
$PUCSXDIR
 10
1.0
 20
0.0
 30
0.0
  9
$PUCSYDIR
 10
0.0
 20
1.0
 30
0.0
  9
$PUCSORTHOREF
  2

  9
$PUCSORTHOVIEW
 70
     0
  9
$PUCSORGTOP
 10
0.0
 20
0.0
 30
0.0
  9
$PUCSORGBOTTOM
 10
0.0
 20
0.0
 30
0.0
  9
$PUCSORGLEFT
 10
0.0
 20
0.0
 30
0.0
  9
$PUCSORGRIGHT
 10
0.0
 20
0.0
 30
0.0
  9
$PUCSORGFRONT
 10
0.0
 20
0.0
 30
0.0
  9
$PUCSORGBACK
 10
0.0
 20
0.0
 30
0.0
  9
$USERI1
 70
     0
  9
$USERI2
 70
     0
  9
$USERI3
 70
     0
  9
$USERI4
 70
     0
  9
$USERI5
 70
     0
  9
$USERR1
 40
0.0
  9
$USERR2
 40
0.0
  9
$USERR3
 40
0.0
  9
$USERR4
 40
0.0
  9
$USERR5
 40
0.0
  9
$WORLDVIEW
 70
     1
  9
$SHADEDGE
 70
     3
  9
$SHADEDIF
 70
    70
  9
$TILEMODE
 70
     1
  9
$MAXACTVP
 70
    48
  9
$PINSBASE
 10
0.0
 20
0.0
 30
0.0
  9
$PLIMCHECK
 70
     0
  9
$PEXTMIN
 10
-0.2
 20
-0.2
 30
0.0
  9
$PEXTMAX
 10
255.2
 20
195.2
 30
0.0
  9
$PLIMMIN
 10
0.0
 20
0.0
  9
$PLIMMAX
 10
420.0
 20
297.0
  9
$UNITMODE
 70
     0
  9
$VISRETAIN
 70
     1
  9
$PLINEGEN
 70
     0
  9
$PSLTSCALE
 70
     1
  9
$TREEDEPTH
 70
  3020
  9
$CMLSTYLE
  2
STANDARD
  9
$CMLJUST
 70
     0
  9
$CMLSCALE
 40
20.0
  9
$PROXYGRAPHICS
 70
     1
  9
$MEASUREMENT
 70
     1
  9
$CELWEIGHT
370
    -1
  9
$ENDCAPS
280
     0
  9
$JOINSTYLE
280
     0
  9
$LWDISPLAY
290
     0
  9
$INSUNITS
 70
     0
  9
$HYPERLINKBASE
  1

  9
$STYLESHEET
  1

  9
$XEDIT
290
     1
  9
$CEPSNTYPE
380
     0
  9
$PSTYLEMODE
290
     1
  9
$FINGERPRINTGUID
  2
{3577A3D5-08FE-480D-ACB9-1FE39D1B6CC5}
  9
$VERSIONGUID
  2
{8840528B-5CC0-4040-8572-F78A39A14C89}
  9
$EXTNAMES
290
     1
  9
$PSVPSCALE
 40
0.0
  9
$OLESTARTUP
290
     0
  9
$SORTENTS
280
   127
  9
$INDEXCTL
280
     0
  9
$HIDETEXT
280
     0
  9
$XCLIPFRAME
290
     0
  9
$HALOGAP
280
     0
  9
$OBSCOLOR
 70
   257
  9
$OBSLTYPE
280
     0
  9
$INTERSECTIONDISPLAY
280
     0
  9
$INTERSECTIONCOLOR
 70
   257
  9
$DIMASSOC
280
     1
  9
$PROJECTNAME
  1

  0
ENDSEC
  0
SECTION
  2
CLASSES
  0
CLASS
  1
HATCH
  2
AcDbHatch
  3
ObjectDBX Classes
 90
        0
 91
       25
280
     0
281
     1
  0
CLASS
  1
LWPOLYLINE
  2
AcDbPolyline
  3
ObjectDBX Classes
 90
        0
 91
       31
280
     0
281
     1
  0
CLASS
  1
ACDBDICTIONARYWDFLT
  2
AcDbDictionaryWithDefault
  3
ObjectDBX Classes
 90
        0
 91
        1
280
     0
281
     0
  0
CLASS
  1
TABLESTYLE
  2
AcDbTableStyle
  3
ObjectDBX Classes
 90
     2047
 91
        1
280
     0
281
     0
  0
CLASS
  1
DICTIONARYVAR
  2
AcDbDictionaryVar
  3
ObjectDBX Classes
 90
        0
 91
        1
280
     0
281
     0
  0
ENDSEC
  0
SECTION
  2
TABLES
  0
TABLE
  2
VPORT
  5
8
330
0
100
AcDbSymbolTable
 70
     2
  0
VPORT
  5
206C
330
8
100
AcDbSymbolTableRecord
100
AcDbViewportTableRecord
  2
*Active
 70
     0
 10
0.0
 20
0.0
 11
1.0
 21
1.0
 12
255.9663401427287
 22
137.2156684029797
 13
0.0
 23
0.0
 14
10.0
 24
10.0
 15
10.0
 25
10.0
 16
0.0
 26
0.0
 36
1.0
 17
0.0
 27
0.0
 37
0.0
 40
196.8998548817299
 41
1.530456852791878
 42
50.0
 43
0.0
 44
0.0
 50
0.0
 51
0.0
 71
     0
 72
   100
 73
     1
 74
     1
 75
     0
 76
     0
 77
     0
 78
     0
281
     0
 65
     1
110
0.0
120
0.0
130
0.0
111
1.0
121
0.0
131
0.0
112
0.0
122
1.0
132
0.0
 79
     0
146
0.0
  0
ENDTAB
  0
TABLE
  2
LTYPE
  5
5
330
0
100
AcDbSymbolTable
 70
    12
  0
LTYPE
  5
12
330
5
100
AcDbSymbolTableRecord
100
AcDbLinetypeTableRecord
  2
BYBLOCK
 70
     0
  3

 72
    65
 73
     0
 40
0.0
  0
LTYPE
  5
13
330
5
100
AcDbSymbolTableRecord
100
AcDbLinetypeTableRecord
  2
BYLAYER
 70
     0
  3

 72
    65
 73
     0
 40
0.0
  0
LTYPE
  5
14
330
5
100
AcDbSymbolTableRecord
100
AcDbLinetypeTableRecord
  2
CONTINUOUS
 70
     0
  3
Solid line
 72
    65
 73
     0
 40
0.0
  0
LTYPE
  5
22
330
5
100
AcDbSymbolTableRecord
100
AcDbLinetypeTableRecord
  2
CENTER2
 70
     0
  3
Center (.5x) ___ _ ___ _ ___ _ ___ _ ___ _ ___
 72
    65
 73
     4
 40
28.575
 49
19.05
 74
     0
 49
-3.174999999999999
 74
     0
 49
3.174999999999999
 74
     0
 49
-3.174999999999999
 74
     0
  0
LTYPE
  5
23
330
5
100
AcDbSymbolTableRecord
100
AcDbLinetypeTableRecord
  2
HIDDEN2
 70
     0
  3
Hidden (.5x) _ _ _ _ _ _ _ _ _ _ _ _ _ _ _ _ _
 72
    65
 73
     2
 40
4.762499999999999
 49
3.174999999999999
 74
     0
 49
-1.587499999999999
 74
     0
  0
ENDTAB
  0
TABLE
  2
LAYER
  5
2
330
0
100
AcDbSymbolTable
 70
    16
  0
LAYER
  5
E
330
2
100
AcDbSymbolTableRecord
100
AcDbLayerTableRecord
  2
0
 70
     0
 62
     7
  6
CONTINUOUS
370
    -3
390
1BCC
  0
LAYER
  5
25
330
2
100
AcDbSymbolTableRecord
100
AcDbLayerTableRecord
  2
外形線
 70
     0
 62
     7
  6
CONTINUOUS
370
    -3
390
1BCC
  0
LAYER
  5
26
330
2
100
AcDbSymbolTableRecord
100
AcDbLayerTableRecord
  2
寸法線
 70
     0
 62
     2
  6
CONTINUOUS
370
    -3
390
1BCC
  0
LAYER
  5
27
330
2
100
AcDbSymbolTableRecord
100
AcDbLayerTableRecord
  2
中心線
 70
     0
 62
     4
  6
CENTER2
370
    -3
390
1BCC
  0
LAYER
  5
2B
330
2
100
AcDbSymbolTableRecord
100
AcDbLayerTableRecord
  2
文字
 70
     0
 62
     6
  6
CONTINUOUS
370
    -3
390
1BCC
  0
LAYER
  5
2C
330
2
100
AcDbSymbolTableRecord
100
AcDbLayerTableRecord
  2
目盛
 70
     0
 62
    70
  6
CONTINUOUS
370
    -3
390
1BCC
  0
LAYER
  5
2D
330
2
100
AcDbSymbolTableRecord
100
AcDbLayerTableRecord
  2
針
 70
     0
 62
     5
  6
CONTINUOUS
370
    -3
390
1BCC
  0
LAYER
  5
53
330
2
100
AcDbSymbolTableRecord
100
AcDbLayerTableRecord
  2
DEFPOINTS
 70
     0
 62
     7
  6
CONTINUOUS
290
     0
370
    -3
390
1BCC
  0
LAYER
  5
A5
330
2
100
AcDbSymbolTableRecord
100
AcDbLayerTableRecord
  2
C
 70
     0
 62
     7
  6
CONTINUOUS
370
    -3
390
1BCC
  0
LAYER
  5
16A
330
2
100
AcDbSymbolTableRecord
100
AcDbLayerTableRecord
  2
隠れ線2
 70
     0
 62
     1
  6
HIDDEN2
370
    -3
390
1BCC
  0
LAYER
  5
1171
330
2
100
AcDbSymbolTableRecord
100
AcDbLayerTableRecord
  2
ROGO
 70
     0
 62
     6
  6
CONTINUOUS
370
    -3
390
1BCC
  0
ENDTAB
  0
TABLE
  2
STYLE
  5
3
330
0
100
AcDbSymbolTable
 70
     6
  0
STYLE
  5
F
330
3
100
AcDbSymbolTableRecord
100
AcDbTextStyleTableRecord
  2
STANDARD
 70
     0
 40
0.0
 41
1.0
 50
0.0
 71
     0
 42
2.5
  3
txt
  4

  0
STYLE
  5
3F
330
3
100
AcDbSymbolTableRecord
100
AcDbTextStyleTableRecord
  2
STYLE3
 70
     0
 40
0.0
 41
1.0
 50
0.0
 71
     0
 42
2.5
  3
romans.shx
  4
bigfont.shx
  0
ENDTAB
  0
TABLE
  2
VIEW
  5
6
330
0
100
AcDbSymbolTable
 70
     0
  0
ENDTAB
  0
TABLE
  2
UCS
  5
7
330
0
100
AcDbSymbolTable
 70
     0
  0
ENDTAB
  0
TABLE
  2
APPID
  5
9
330
0
100
AcDbSymbolTable
 70
     1
  0
APPID
  5
10
330
9
100
AcDbSymbolTableRecord
100
AcDbRegAppTableRecord
  2
ACAD
 70
     0
  0
ENDTAB
  0
TABLE
  2
DIMSTYLE
  5
A
330
0
100
AcDbSymbolTable
 70
     4
100
AcDbDimStyleTable
 71
     1
340
8F
  0
DIMSTYLE
105
1D
330
A
100
AcDbSymbolTableRecord
100
AcDbDimStyleTableRecord
  2
STANDARD
 70
     0
 41
2.5
 42
0.625
 43
3.75
 44
1.25
 73
     0
 74
     0
 77
     1
 78
     8
140
2.5
141
2.5
143
0.0394
147
0.625
171
     4
172
     1
273
     8
274
     4
277
     6
340
F
  0
DIMSTYLE
105
8F
102
{ACAD_REACTORS
330
1528
330
1529
330
152A
330
195F
330
19F3
330
1A0B
330
1A17
330
1A24
330
1A30
330
1A3D
330
1A4C
330
1A65
330
1A72
330
1A7E
330
1A8B
330
1A98
330
1B1D
330
1A58
330
11DF
330
11E0
330
11E1
330
1247
330
1248
330
1249
330
1255
330
12C8
330
12C9
330
12D3
330
147B
330
1E9C
102
}
330
A
100
AcDbSymbolTableRecord
100
AcDbDimStyleTableRecord
  2
STYLE3
 70
     0
 41
2.5
 42
0.0
 43
3.75
 44
1.25
 73
     0
 74
     0
 77
     1
 78
     8
140
2.5
141
2.5
143
0.0394
147
0.625
171
     4
172
     1
173
     1
176
     2
177
     2
178
     6
271
     1
273
     8
274
     4
340
3F
341
45
343
45
344
45
  0
ENDTAB
  0
TABLE
  2
BLOCK_RECORD
  5
1
330
0
100
AcDbSymbolTable
 70
    53
  0
BLOCK_RECORD
  5
18
330
1
100
AcDbSymbolTableRecord
100
AcDbBlockTableRecord
  2
*MODEL_SPACE
340
1BD3
  0
BLOCK_RECORD
  5
15
330
1
100
AcDbSymbolTableRecord
100
AcDbBlockTableRecord
  2
*PAPER_SPACE
340
1BD4
  0
BLOCK_RECORD
  5
45
330
1
100
AcDbSymbolTableRecord
100
AcDbBlockTableRecord
  2
_OPEN
340
0
102
{BLKREFS
331
10EE
331
10EF
331
10F9
331
10FA
331
1106
331
1107
331
1112
331
1113
331
1120
331
1121
331
112C
331
112D
331
1138
331
1139
331
1143
331
1144
331
114F
331
1150
331
115B
331
115C
331
1169
331
116A
331
11BD
331
19D6
331
19D7
331
19E1
331
19E2
331
1B90
331
1B91
331
1BB9
331
1BBA
331
1BEE
331
1BEF
331
1E99
331
1E9A
331
1FBC
331
1FBD
331
1FC7
331
1FC8
331
1FD0
331
1FD1
331
1FD9
331
1FDA
331
1FE1
331
1FE2
331
1FEA
331
1FEB
331
1FF3
331
1FF4
331
1FFB
331
1FFC
331
2004
331
2005
331
200D
331
200E
331
2015
331
2016
331
201E
331
201F
331
2026
331
2027
331
202E
331
202F
331
2036
331
2037
331
203F
331
2040
331
2049
331
204A
331
2052
331
2053
331
205B
331
205C
102
}
  0
BLOCK_RECORD
  5
1801
330
1
100
AcDbSymbolTableRecord
100
AcDbBlockTableRecord
  2
*D17
340
0
  0
BLOCK_RECORD
  5
180D
330
1
100
AcDbSymbolTableRecord
100
AcDbBlockTableRecord
  2
*D18
340
0
  0
BLOCK_RECORD
  5
1819
330
1
100
AcDbSymbolTableRecord
100
AcDbBlockTableRecord
  2
*D19
340
0
  0
BLOCK_RECORD
  5
1913
330
1
100
AcDbSymbolTableRecord
100
AcDbBlockTableRecord
  2
11
340
0
102
{BLKREFS
331
1921
102
}
  0
BLOCK_RECORD
  5
1920
330
1
100
AcDbSymbolTableRecord
100
AcDbBlockTableRecord
  2
1-1
340
0
102
{BLKREFS
331
1924
102
}
  0
BLOCK_RECORD
  5
1925
330
1
100
AcDbSymbolTableRecord
100
AcDbBlockTableRecord
  2
短針
340
0
102
{BLKREFS
331
1934
102
}
  0
BLOCK_RECORD
  5
1933
330
1
100
AcDbSymbolTableRecord
100
AcDbBlockTableRecord
  2
22
340
0
102
{BLKREFS
331
1938
102
}
  0
BLOCK_RECORD
  5
1937
330
1
100
AcDbSymbolTableRecord
100
AcDbBlockTableRecord
  2
2
340
0
102
{BLKREFS
331
193B
102
}
  0
BLOCK_RECORD
  5
1953
330
1
100
AcDbSymbolTableRecord
100
AcDbBlockTableRecord
  2
*D27
340
0
  0
BLOCK_RECORD
  5
19E8
330
1
100
AcDbSymbolTableRecord
100
AcDbBlockTableRecord
  2
*D28
340
0
  0
BLOCK_RECORD
  5
1A00
330
1
100
AcDbSymbolTableRecord
100
AcDbBlockTableRecord
  2
*D29
340
0
  0
BLOCK_RECORD
  5
1A0C
330
1
100
AcDbSymbolTableRecord
100
AcDbBlockTableRecord
  2
*D30
340
0
  0
BLOCK_RECORD
  5
1A18
330
1
100
AcDbSymbolTableRecord
100
AcDbBlockTableRecord
  2
*D31
340
0
  0
BLOCK_RECORD
  5
1A25
330
1
100
AcDbSymbolTableRecord
100
AcDbBlockTableRecord
  2
*D32
340
0
  0
BLOCK_RECORD
  5
1A31
330
1
100
AcDbSymbolTableRecord
100
AcDbBlockTableRecord
  2
*D33
340
0
  0
BLOCK_RECORD
  5
1A40
330
1
100
AcDbSymbolTableRecord
100
AcDbBlockTableRecord
  2
*D34
340
0
  0
BLOCK_RECORD
  5
1A4D
330
1
100
AcDbSymbolTableRecord
100
AcDbBlockTableRecord
  2
*D35
340
0
  0
BLOCK_RECORD
  5
1A59
330
1
100
AcDbSymbolTableRecord
100
AcDbBlockTableRecord
  2
*D36
340
0
  0
BLOCK_RECORD
  5
1A66
330
1
100
AcDbSymbolTableRecord
100
AcDbBlockTableRecord
  2
*D37
340
0
  0
BLOCK_RECORD
  5
1A73
330
1
100
AcDbSymbolTableRecord
100
AcDbBlockTableRecord
  2
*D38
340
0
  0
BLOCK_RECORD
  5
1A7F
330
1
100
AcDbSymbolTableRecord
100
AcDbBlockTableRecord
  2
*D39
340
0
  0
BLOCK_RECORD
  5
1A8C
330
1
100
AcDbSymbolTableRecord
100
AcDbBlockTableRecord
  2
*D40
340
0
  0
BLOCK_RECORD
  5
1B0F
330
1
100
AcDbSymbolTableRecord
100
AcDbBlockTableRecord
  2
*D43
340
0
  0
BLOCK_RECORD
  5
1E9D
330
1
100
AcDbSymbolTableRecord
100
AcDbBlockTableRecord
  2
*D48
340
0
  0
ENDTAB
  0
ENDSEC
  0
SECTION
  2
BLOCKS
  0
BLOCK
  5
19
330
18
100
AcDbEntity
  8
0
100
AcDbBlockBegin
  2
*MODEL_SPACE
 70
     0
 10
0.0
 20
0.0
 30
0.0
  3
*MODEL_SPACE
  1

  0
ENDBLK
  5
1A
330
18
100
AcDbEntity
  8
0
100
AcDbBlockEnd
  0
BLOCK
  5
16
330
15
100
AcDbEntity
 67
     1
  8
0
100
AcDbBlockBegin
  2
*PAPER_SPACE
 70
     0
 10
0.0
 20
0.0
 30
0.0
  3
*PAPER_SPACE
  1

  0
ENDBLK
  5
17
330
15
100
AcDbEntity
 67
     1
  8
0
100
AcDbBlockEnd
  0
BLOCK
  5
46
330
45
100
AcDbEntity
  8
0
100
AcDbBlockBegin
  2
_OPEN
 70
     0
 10
0.0
 20
0.0
 30
0.0
  3
_OPEN
  1

  0
LINE
  5
47
330
45
100
AcDbEntity
  8
0
  6
ByBlock
 62
     0
100
AcDbLine
 10
-1.0
 20
0.1666666666666666
 30
0.0
 11
0.0
 21
0.0
 31
0.0
  0
LINE
  5
48
330
45
100
AcDbEntity
  8
0
  6
ByBlock
 62
     0
100
AcDbLine
 10
0.0
 20
0.0
 30
0.0
 11
-1.0
 21
-0.1666666666666666
 31
0.0
  0
LINE
  5
49
330
45
100
AcDbEntity
  8
0
  6
ByBlock
 62
     0
100
AcDbLine
 10
0.0
 20
0.0
 30
0.0
 11
-1.0
 21
0.0
 31
0.0
  0
ENDBLK
  5
4A
330
45
100
AcDbEntity
  8
0
100
AcDbBlockEnd
  0
BLOCK
  5
1888
330
1801
100
AcDbEntity
  8
0
100
AcDbBlockBegin
  2
*D17
 70
     1
 10
0.0
 20
0.0
 30
0.0
  3
*D17
  1

  0
LINE
  5
2058
330
1801
100
AcDbEntity
  8
外形線
 62
     2
370
    -2
100
AcDbLine
 10
177.173728693978
 20
93.18156098217821
 30
0.0
 11
177.173728693978
 21
69.96937136569329
 31
0.0
  0
LINE
  5
2059
330
1801
100
AcDbEntity
  8
外形線
 62
     2
370
    -2
100
AcDbLine
 10
188.1737286939779
 20
93.18156098217821
 30
0.0
 11
188.1737286939779
 21
69.96937136569329
 31
0.0
  0
LINE
  5
205A
330
1801
100
AcDbEntity
  8
外形線
 62
     2
370
    -2
100
AcDbLine
 10
179.6737286939779
 20
71.21937136569329
 30
0.0
 11
185.673728693978
 21
71.21937136569329
 31
0.0
  0
INSERT
  5
205B
330
1801
100
AcDbEntity
  8
外形線
 62
     2
370
    -2
100
AcDbBlockReference
  2
_OPEN
 10
177.173728693978
 20
71.21937136569329
 30
0.0
 41
2.5
 42
2.5
 43
2.5
 50
180.0
  0
INSERT
  5
205C
330
1801
100
AcDbEntity
  8
外形線
 62
     2
370
    -2
100
AcDbBlockReference
  2
_OPEN
 10
188.1737286939779
 20
71.21937136569329
 30
0.0
 41
2.5
 42
2.5
 43
2.5
  0
MTEXT
  5
205D
330
1801
100
AcDbEntity
  8
外形線
 62
     6
100
AcDbMText
 10
182.6737286939779
 20
73.09437136569329
 30
0.0
 40
2.5
 41
0.0
 71
     5
 72
     1
  1
\A1;11
  7
STYLE3
 73
     1
 44
1.0
  0
POINT
  5
205E
330
1801
100
AcDbEntity
  8
DEFPOINTS
 62
     0
100
AcDbPoint
 10
177.173728693978
 20
93.18156098217821
 30
0.0
  0
POINT
  5
205F
330
1801
100
AcDbEntity
  8
DEFPOINTS
 62
     0
100
AcDbPoint
 10
188.1737286939779
 20
93.18156098217821
 30
0.0
  0
POINT
  5
2060
330
1801
100
AcDbEntity
  8
DEFPOINTS
 62
     0
100
AcDbPoint
 10
188.1737286939779
 20
71.21937136569329
 30
0.0
  0
ENDBLK
  5
1892
330
1801
100
AcDbEntity
  8
0
100
AcDbBlockEnd
  0
BLOCK
  5
1893
330
180D
100
AcDbEntity
  8
0
100
AcDbBlockBegin
  2
*D18
 70
     1
 10
0.0
 20
0.0
 30
0.0
  3
*D18
  1

  0
LINE
  5
204F
330
180D
100
AcDbEntity
  8
外形線
 62
     2
370
    -2
100
AcDbLine
 10
280.6011416931723
 20
77.89197659006447
 30
0.0
 11
280.6011416931723
 21
69.96937136569329
 31
0.0
  0
LINE
  5
2050
330
180D
100
AcDbEntity
  8
外形線
 62
     2
370
    -2
100
AcDbLine
 10
300.8011416931723
 20
95.1815609821782
 30
0.0
 11
300.8011416931723
 21
69.96937136569329
 31
0.0
  0
LINE
  5
2051
330
180D
100
AcDbEntity
  8
外形線
 62
     2
370
    -2
100
AcDbLine
 10
283.1011416931723
 20
71.21937136569329
 30
0.0
 11
298.3011416931723
 21
71.21937136569329
 31
0.0
  0
INSERT
  5
2052
330
180D
100
AcDbEntity
  8
外形線
 62
     2
370
    -2
100
AcDbBlockReference
  2
_OPEN
 10
280.6011416931723
 20
71.21937136569329
 30
0.0
 41
2.5
 42
2.5
 43
2.5
 50
180.0
  0
INSERT
  5
2053
330
180D
100
AcDbEntity
  8
外形線
 62
     2
370
    -2
100
AcDbBlockReference
  2
_OPEN
 10
300.8011416931723
 20
71.21937136569329
 30
0.0
 41
2.5
 42
2.5
 43
2.5
  0
MTEXT
  5
2054
330
180D
100
AcDbEntity
  8
外形線
 62
     6
100
AcDbMText
 10
290.7011416931723
 20
73.09437136569329
 30
0.0
 40
2.5
 41
0.0
 71
     5
 72
     1
  1
\A1;20
  7
STYLE3
 73
     1
 44
1.0
  0
POINT
  5
2055
330
180D
100
AcDbEntity
  8
DEFPOINTS
 62
     0
100
AcDbPoint
 10
280.6011416931723
 20
77.89197659006447
 30
0.0
  0
POINT
  5
2056
330
180D
100
AcDbEntity
  8
DEFPOINTS
 62
     0
100
AcDbPoint
 10
300.8011416931723
 20
95.1815609821782
 30
0.0
  0
POINT
  5
2057
330
180D
100
AcDbEntity
  8
DEFPOINTS
 62
     0
100
AcDbPoint
 10
300.8011416931723
 20
71.21937136569329
 30
0.0
  0
ENDBLK
  5
189D
330
180D
100
AcDbEntity
  8
0
100
AcDbBlockEnd
  0
BLOCK
  5
19C7
330
1819
100
AcDbEntity
  8
0
100
AcDbBlockBegin
  2
*D19
 70
     1
 10
0.0
 20
0.0
 30
0.0
  3
*D19
  1

  0
LINE
  5
2045
330
1819
100
AcDbEntity
  8
外形線
 62
     2
370
    -2
100
AcDbLine
 10
270.3832062582291
 20
79.18156098217818
 30
0.0
 11
253.7786278846704
 21
79.18156098217818
 31
0.0
  0
LINE
  5
2046
330
1819
100
AcDbEntity
  8
外形線
 62
     2
370
    -2
100
AcDbLine
 10
255.0286278846704
 20
85.68156098217817
 30
0.0
 11
255.0286278846704
 21
88.18156098217817
 31
0.0
  0
LINE
  5
2047
330
1819
100
AcDbEntity
  8
外形線
 62
     2
370
    -2
100
AcDbLine
 10
255.0286278846704
 20
76.68156098217818
 30
0.0
 11
255.0286278846704
 21
74.18156098217818
 31
0.0
  0
LINE
  5
2048
330
1819
100
AcDbEntity
  8
外形線
 62
     2
370
    -2
100
AcDbLine
 10
255.0286278846704
 20
83.18156098217817
 30
0.0
 11
255.0286278846704
 21
79.18156098217818
 31
0.0
  0
INSERT
  5
2049
330
1819
100
AcDbEntity
  8
外形線
 62
     2
370
    -2
100
AcDbBlockReference
  2
_OPEN
 10
255.0286278846704
 20
83.18156098217817
 30
0.0
 41
2.5
 42
2.5
 43
2.5
 50
270.0
  0
INSERT
  5
204A
330
1819
100
AcDbEntity
  8
外形線
 62
     2
370
    -2
100
AcDbBlockReference
  2
_OPEN
 10
255.0286278846704
 20
79.18156098217818
 30
0.0
 41
2.5
 42
2.5
 43
2.5
 50
90.0
  0
MTEXT
  5
204B
330
1819
100
AcDbEntity
  8
外形線
 62
     6
100
AcDbMText
 10
253.1536278846704
 20
81.18156098217822
 30
0.0
 40
2.5
 41
0.0
 71
     5
 72
     1
  1
\A1;4
  7
STYLE3
 11
0.0000000000000001
 21
1.0
 31
0.0
 73
     1
 44
1.0
  0
POINT
  5
204C
330
1819
100
AcDbEntity
  8
DEFPOINTS
 62
     0
100
AcDbPoint
 10
277.3511416931723
 20
83.18156098217817
 30
0.0
  0
POINT
  5
204D
330
1819
100
AcDbEntity
  8
DEFPOINTS
 62
     0
100
AcDbPoint
 10
270.3832062582291
 20
79.18156098217818
 30
0.0
  0
POINT
  5
204E
330
1819
100
AcDbEntity
  8
DEFPOINTS
 62
     0
100
AcDbPoint
 10
255.0286278846704
 20
79.18156098217818
 30
0.0
  0
ENDBLK
  5
19D2
330
1819
100
AcDbEntity
  8
0
100
AcDbBlockEnd
  0
BLOCK
  5
191E
330
1913
100
AcDbEntity
  8
0
100
AcDbBlockBegin
  2
11
 70
     0
 10
0.0
 20
0.0
 30
0.0
  3
11
  1

  0
CIRCLE
  5
1914
102
{ACAD_REACTORS
330
1919
102
}
330
1913
100
AcDbEntity
  8
針
100
AcDbCircle
 10
0.0
 20
0.0
 30
0.0
 40
1.75
  0
ARC
  5
1915
102
{ACAD_REACTORS
330
1919
102
}
330
1913
100
AcDbEntity
  8
針
100
AcDbCircle
 10
-0.2249772231799625
 20
2.640432776845898
 30
0.0
 40
1.0
100
AcDbArc
 50
216.7600014781239
 51
254.2358574327112
  0
ARC
  5
1916
102
{ACAD_REACTORS
330
1919
102
}
330
1913
100
AcDbEntity
  8
針
100
AcDbCircle
 10
-2.441679012948668
 20
1.029904654673316
 30
0.0
 40
1.0
100
AcDbArc
 50
357.7641425672888
 51
35.23999852187607
  0
CIRCLE
  5
1917
330
1913
100
AcDbEntity
  8
針
100
AcDbCircle
 10
0.0
 20
0.0
 30
0.0
 40
0.3
  0
CIRCLE
  5
1918
330
1913
100
AcDbEntity
  8
針
100
AcDbCircle
 10
0.0
 20
0.0
 30
0.0
 40
1.549999999999999
  0
HATCH
  5
1919
330
1913
100
AcDbEntity
  8
針
100
AcDbHatch
 10
0.0
 20
0.0
 30
0.0
210
0.0
220
0.0
230
1.0
  2
SOLID
 70
     1
 71
     1
 91
        1
 92
        7
 72
     1
 73
     1
 93
        7
 10
-1.624936724501765
 20
1.606907284011072
 42
-0.1649924501947634
 10
-1.442440316476506
 20
0.9908914841712999
 42
-0.1719454326713527
 10
-0.4966552317996502
 20
1.678044570542169
 42
-0.1649924501947309
 10
-1.026126580885772
 20
2.041968319548914
 42
0.0
 10
-14.34006240658749
 20
19.86500025610809
 42
0.0
 10
-14.40073868116559
 20
19.82091636218621
 42
0.0
 10
-14.46141495574363
 20
19.77683246826427
 42
0.0
 97
        7
330
191D
330
191C
330
191A
330
1916
330
1914
330
1915
330
191B
 75
     0
 76
     1
 47
0.0639391368235378
 98
        1
 10
-2.800400200028093
 20
3.796313876481406
450
        0
451
        0
460
0.0
461
0.0
452
        0
462
0.0
453
        0
470

  0
LINE
  5
191A
102
{ACAD_REACTORS
330
1919
102
}
330
1913
100
AcDbEntity
  8
針
100
AcDbLine
 10
-1.624936724501708
 20
1.606907284011015
 30
0.0
 11
-14.46141495574369
 21
19.77683246826433
 31
0.0
  0
LINE
  5
191B
102
{ACAD_REACTORS
330
1919
102
}
330
1913
100
AcDbEntity
  8
針
100
AcDbLine
 10
-1.026126580885829
 20
2.041968319548971
 30
0.0
 11
-14.34006240658749
 21
19.86500025610815
 31
0.0
  0
LINE
  5
191C
102
{ACAD_REACTORS
330
1919
102
}
330
1913
100
AcDbEntity
  8
針
100
AcDbLine
 10
-14.40073868116559
 20
19.82091636218621
 30
0.0
 11
-14.46141495574363
 21
19.77683246826433
 31
0.0
  0
LINE
  5
191D
102
{ACAD_REACTORS
330
1919
102
}
330
1913
100
AcDbEntity
  8
針
100
AcDbLine
 10
-14.40073868116559
 20
19.82091636218621
 30
0.0
 11
-14.34006240658749
 21
19.86500025610809
 31
0.0
  0
ENDBLK
  5
191F
330
1913
100
AcDbEntity
  8
0
100
AcDbBlockEnd
  0
BLOCK
  5
1922
330
1920
100
AcDbEntity
  8
0
100
AcDbBlockBegin
  2
1-1
 70
     0
 10
0.0
 20
0.0
 30
0.0
  3
1-1
  1

  0
INSERT
  5
1921
330
1920
100
AcDbEntity
  8
外形線
100
AcDbBlockReference
  2
11
 10
0.0
 20
0.0
 30
0.0
  0
ENDBLK
  5
1923
330
1920
100
AcDbEntity
  8
0
100
AcDbBlockEnd
  0
BLOCK
  5
1931
330
1925
100
AcDbEntity
  8
0
100
AcDbBlockBegin
  2
短針
 70
     0
 10
0.0
 20
0.0
 30
0.0
  3
短針
  1

  0
HATCH
  5
1926
330
1925
100
AcDbEntity
  8
針
100
AcDbHatch
 10
0.0
 20
0.0
 30
0.0
210
0.0
220
0.0
230
1.0
  2
SOLID
 70
     1
 71
     0
 91
        2
 92
        7
 72
     1
 73
     1
 93
        5
 10
0.3526742896441988
 20
-1.041931305520677
 42
0.31735696877887
 10
1.09987283977631
 20
-0.0167253198011395
 42
0.0
 10
0.7385421624936157
 20
0.2499827302910376
 42
0.0
 10
0.7104077083095035
 20
0.2404597429392083
 42
-0.4142135623731173
 10
0.2404597429392083
 20
-0.710407708309532
 42
0.0
 97
        0
 92
        7
 72
     1
 73
     1
 93
        4
 10
0.3526742896441988
 20
-1.041931305520677
 42
0.0
 10
0.2404597429392083
 20
-0.710407708309532
 42
-0.4142135623730728
 10
-0.7104077083095035
 20
-0.2404597429392652
 42
0.0
 10
-1.04193130552062
 20
-0.3526742896442556
 42
0.4142135623730844
 97
        0
 75
     0
 76
     1
 47
0.0161501285364394
 98
        2
 10
0.6615470118260874
 20
-0.6963298024036249
 10
-0.0172480590911164
 20
-0.9090393443542552
450
        0
451
        0
460
0.0
461
0.0
452
        0
462
0.0
453
        0
470

  0
HATCH
  5
1927
330
1925
100
AcDbEntity
  8
針
100
AcDbHatch
 10
0.0
 20
0.0
 30
0.0
210
0.0
220
0.0
230
1.0
  2
SOLID
 70
     1
 71
     0
 91
        4
 92
        7
 72
     1
 73
     1
 93
        4
 10
-1.087917449698181
 20
0.1625903522426313
 42
0.0
 10
-0.7417618975214851
 20
0.1108570583472783
 42
-0.4142135623730951
 10
0.1108570583471078
 20
0.7417618975214282
 42
0.0
 10
0.1625903522424892
 20
1.087917449698124
 42
0.4142135623730996
 97
        0
 92
        7
 72
     1
 73
     1
 93
        5
 10
-0.7417618975214851
 20
0.1108570583472783
 42
0.0
 10
-1.087917449698181
 20
0.1625903522426313
 42
0.3173569687788799
 10
-0.5176253683696359
 20
-0.9705998032249567
 42
0.0
 10
-0.1152473581604454
 20
-0.7711380795042829
 42
0.0
 10
-0.1108570583473352
 20
-0.7417618975214851
 42
-0.4142135623730839
 97
        0
 92
        7
 72
     1
 73
     1
 93
        4
 10
0.1625903522424892
 20
1.087917449698124
 42
0.0
 10
0.1108570583471078
 20
0.7417618975214282
 42
-0.4142135623730951
 10
0.7417618975214282
 20
-0.1108570583472215
 42
0.0
 10
1.087917449698068
 20
-0.162590352242546
 42
0.4142135623730996
 97
        0
 92
        7
 72
     1
 73
     1
 93
        4
 10
0.7417618975214282
 20
-0.1108570583472215
 42
-0.1036385141593389
 10
0.6348700674126349
 20
-0.3992993832994784
 42
0.0
 10
1.085871705290742
 20
-0.1757345715812164
 42
0.003023315109616
 10
1.087917449698068
 20
-0.162590352242546
 42
0.0
 97
        0
 75
     0
 76
     1
 47
0.0223982890607777
 98
        4
 10
-0.5040555009990726
 20
0.8517551880686369
 10
-0.8314104882616675
 20
-0.2778840130343951
 10
0.4273798491921071
 20
0.871203658875288
 10
0.8132513059214829
 20
-0.1837107878378674
450
        0
451
        0
460
0.0
461
0.0
452
        0
462
0.0
453
        0
470

  0
CIRCLE
  5
1928
330
1925
100
AcDbEntity
  8
針
100
AcDbCircle
 10
0.0
 20
0.0
 30
0.0
 40
1.1
  0
CIRCLE
  5
1929
330
1925
100
AcDbEntity
  8
針
100
AcDbCircle
 10
0.0
 20
0.0
 30
0.0
 40
0.75
  0
HATCH
  5
192A
330
1925
100
AcDbEntity
  8
針
100
AcDbHatch
 10
0.0
 20
0.0
 30
0.0
210
0.0
220
0.0
230
1.0
  2
SOLID
 70
     1
 71
     0
 91
        1
 92
        7
 72
     1
 73
     1
 93
        7
 10
0.1000000000000796
 20
4.700000000000102
 42
0.0
 10
-0.0000000000000568
 20
4.700000000000017
 42
0.0
 10
-0.1000000000000796
 20
4.700000000000017
 42
0.0
 10
-0.1449083576383714
 20
1.457369345329567
 42
-0.2935495917910092
 10
-0.4433415341752039
 20
1.006701685741404
 42
-0.2104432563350663
 10
0.4433408545578459
 20
1.006701985038205
 42
-0.2935491884945053
 10
0.1449083576383714
 20
1.457369345329539
 42
0.0
 97
        0
 75
     0
 76
     1
 47
0.0140573597042523
 98
        1
 10
0.0586017158973959
 20
2.894560045300266
450
        0
451
        0
460
0.0
461
0.0
452
        0
462
0.0
453
        0
470

  0
LINE
  5
192B
330
1925
100
AcDbEntity
  8
針
100
AcDbLine
 10
0.1449083576383714
 20
1.457369345329595
 30
0.0
 11
0.0999999999999659
 21
4.699999999999988
 31
0.0
  0
LINE
  5
192C
330
1925
100
AcDbEntity
  8
針
100
AcDbLine
 10
-0.1449083576383714
 20
1.457369345329624
 30
0.0
 11
-0.1000000000000796
 21
4.69999999999996
 31
0.0
  0
CIRCLE
  5
192D
330
1925
100
AcDbEntity
  8
針
 62
     4
100
AcDbCircle
 10
0.0
 20
0.0
 30
0.0
 40
0.4
  0
ARC
  5
192E
330
1925
100
AcDbEntity
  8
針
100
AcDbCircle
 10
0.6448604133454979
 20
1.464293361078063
 30
0.0
 40
0.5
100
AcDbArc
 50
180.7934591207347
 51
246.2317787024804
  0
ARC
  5
192F
330
1925
100
AcDbEntity
  8
針
100
AcDbCircle
 10
-0.6448604133456115
 20
1.464293361078091
 30
0.0
 40
0.5
100
AcDbArc
 50
293.7682212975196
 51
359.2065408792653
  0
LINE
  5
1930
330
1925
100
AcDbEntity
  8
文字
100
AcDbLine
 10
0.0999999999999659
 20
4.699999999999988
 30
0.0
 11
-0.1000000000000796
 21
4.69999999999996
 31
0.0
  0
ENDBLK
  5
1932
330
1925
100
AcDbEntity
  8
0
100
AcDbBlockEnd
  0
BLOCK
  5
1935
330
1933
100
AcDbEntity
  8
0
100
AcDbBlockBegin
  2
22
 70
     0
 10
0.0
 20
0.0
 30
0.0
  3
22
  1

  0
INSERT
  5
1934
330
1933
100
AcDbEntity
  8
文字
100
AcDbBlockReference
  2
短針
 10
0.0
 20
0.0
 30
0.0
 50
268.8
  0
ENDBLK
  5
1936
330
1933
100
AcDbEntity
  8
0
100
AcDbBlockEnd
  0
BLOCK
  5
1939
330
1937
100
AcDbEntity
  8
0
100
AcDbBlockBegin
  2
2
 70
     0
 10
0.0
 20
0.0
 30
0.0
  3
2
  1

  0
INSERT
  5
1938
330
1937
100
AcDbEntity
  8
外形線
100
AcDbBlockReference
  2
22
 10
0.0000000000000568
 20
0.0000000000000568
 30
0.0
 41
1.157894736842105
 42
1.157894736842105
 43
1.157894736842105
 50
90.0
  0
ENDBLK
  5
193A
330
1937
100
AcDbEntity
  8
0
100
AcDbBlockEnd
  0
BLOCK
  5
19BC
330
1953
100
AcDbEntity
  8
0
100
AcDbBlockBegin
  2
*D27
 70
     1
 10
0.0
 20
0.0
 30
0.0
  3
*D27
  1

  0
LINE
  5
203C
330
1953
100
AcDbEntity
  8
外形線
 62
     2
370
    -2
100
AcDbLine
 10
297.8011416931723
 20
79.18156098217818
 30
0.0
 11
247.2023671180435
 21
79.1815609821782
 31
0.0
  0
LINE
  5
203D
330
1953
100
AcDbEntity
  8
外形線
 62
     2
370
    -2
100
AcDbLine
 10
253.7786278846704
 20
93.18156098217817
 30
0.0
 11
247.2023671180435
 21
93.18156098217817
 31
0.0
  0
LINE
  5
203E
330
1953
100
AcDbEntity
  8
外形線
 62
     2
370
    -2
100
AcDbLine
 10
248.4523671180435
 20
81.68156098217819
 30
0.0
 11
248.4523671180435
 21
90.68156098217817
 31
0.0
  0
INSERT
  5
203F
330
1953
100
AcDbEntity
  8
外形線
 62
     2
370
    -2
100
AcDbBlockReference
  2
_OPEN
 10
248.4523671180435
 20
79.1815609821782
 30
0.0
 41
2.5
 42
2.5
 43
2.5
 50
270.0
  0
INSERT
  5
2040
330
1953
100
AcDbEntity
  8
外形線
 62
     2
370
    -2
100
AcDbBlockReference
  2
_OPEN
 10
248.4523671180435
 20
93.18156098217817
 30
0.0
 41
2.5
 42
2.5
 43
2.5
 50
90.0
  0
MTEXT
  5
2041
330
1953
100
AcDbEntity
  8
外形線
 62
     6
100
AcDbMText
 10
246.5773671180435
 20
86.18156098217822
 30
0.0
 40
2.5
 41
0.0
 71
     5
 72
     1
  1
\A1;14
  7
STYLE3
 11
0.0000000000000001
 21
1.0
 31
0.0
 73
     1
 44
1.0
  0
POINT
  5
2042
330
1953
100
AcDbEntity
  8
DEFPOINTS
 62
     0
100
AcDbPoint
 10
297.8011416931723
 20
79.18156098217818
 30
0.0
  0
POINT
  5
2043
330
1953
100
AcDbEntity
  8
DEFPOINTS
 62
     0
100
AcDbPoint
 10
253.7786278846704
 20
93.18156098217817
 30
0.0
  0
POINT
  5
2044
330
1953
100
AcDbEntity
  8
DEFPOINTS
 62
     0
100
AcDbPoint
 10
248.4523671180435
 20
93.18156098217817
 30
0.0
  0
ENDBLK
  5
19C6
330
1953
100
AcDbEntity
  8
0
100
AcDbBlockEnd
  0
BLOCK
  5
19E9
330
19E8
100
AcDbEntity
  8
0
100
AcDbBlockBegin
  2
*D28
 70
     1
 10
0.0
 20
0.0
 30
0.0
  3
*D28
  1

  0
LINE
  5
2034
330
19E8
100
AcDbEntity
  8
外形線
 62
     2
370
    -2
100
AcDbLine
 10
267.1011416931723
 20
110.1815609821782
 30
0.0
 11
247.2023671180435
 21
110.1815609821782
 31
0.0
  0
LINE
  5
2035
330
19E8
100
AcDbEntity
  8
外形線
 62
     2
370
    -2
100
AcDbLine
 10
248.4523671180435
 20
95.68156098217817
 30
0.0
 11
248.4523671180435
 21
107.6815609821782
 31
0.0
  0
INSERT
  5
2036
330
19E8
100
AcDbEntity
  8
外形線
 62
     2
370
    -2
100
AcDbBlockReference
  2
_OPEN
 10
248.4523671180435
 20
93.18156098217817
 30
0.0
 41
2.5
 42
2.5
 43
2.5
 50
270.0
  0
INSERT
  5
2037
330
19E8
100
AcDbEntity
  8
外形線
 62
     2
370
    -2
100
AcDbBlockReference
  2
_OPEN
 10
248.4523671180435
 20
110.1815609821782
 30
0.0
 41
2.5
 42
2.5
 43
2.5
 50
90.0
  0
MTEXT
  5
2038
330
19E8
100
AcDbEntity
  8
外形線
 62
     6
100
AcDbMText
 10
246.5773671180435
 20
101.6815609821782
 30
0.0
 40
2.5
 41
0.0
 71
     5
 72
     1
  1
\A1;17
  7
STYLE3
 11
0.0000000000000001
 21
1.0
 31
0.0
 73
     1
 44
1.0
  0
POINT
  5
2039
330
19E8
100
AcDbEntity
  8
DEFPOINTS
 62
     0
100
AcDbPoint
 10
253.7786278846704
 20
93.18156098217817
 30
0.0
  0
POINT
  5
203A
330
19E8
100
AcDbEntity
  8
DEFPOINTS
 62
     0
100
AcDbPoint
 10
267.1011416931723
 20
110.1815609821782
 30
0.0
  0
POINT
  5
203B
330
19E8
100
AcDbEntity
  8
DEFPOINTS
 62
     0
100
AcDbPoint
 10
248.4523671180435
 20
110.1815609821782
 30
0.0
  0
ENDBLK
  5
19F2
330
19E8
100
AcDbEntity
  8
0
100
AcDbBlockEnd
  0
BLOCK
  5
1A01
330
1A00
100
AcDbEntity
  8
0
100
AcDbBlockBegin
  2
*D29
 70
     1
 10
0.0
 20
0.0
 30
0.0
  3
*D29
  1

  0
LINE
  5
202C
330
1A00
100
AcDbEntity
  8
外形線
 62
     2
370
    -2
100
AcDbLine
 10
267.1011416931723
 20
128.1815609821781
 30
0.0
 11
247.2023671180435
 21
128.1815609821781
 31
0.0
  0
LINE
  5
202D
330
1A00
100
AcDbEntity
  8
外形線
 62
     2
370
    -2
100
AcDbLine
 10
248.4523671180435
 20
112.6815609821782
 30
0.0
 11
248.4523671180435
 21
125.6815609821781
 31
0.0
  0
INSERT
  5
202E
330
1A00
100
AcDbEntity
  8
外形線
 62
     2
370
    -2
100
AcDbBlockReference
  2
_OPEN
 10
248.4523671180435
 20
110.1815609821782
 30
0.0
 41
2.5
 42
2.5
 43
2.5
 50
270.0
  0
INSERT
  5
202F
330
1A00
100
AcDbEntity
  8
外形線
 62
     2
370
    -2
100
AcDbBlockReference
  2
_OPEN
 10
248.4523671180435
 20
128.1815609821781
 30
0.0
 41
2.5
 42
2.5
 43
2.5
 50
90.0
  0
MTEXT
  5
2030
330
1A00
100
AcDbEntity
  8
外形線
 62
     6
100
AcDbMText
 10
246.5773671180435
 20
119.1815609821782
 30
0.0
 40
2.5
 41
0.0
 71
     5
 72
     1
  1
\A1;18
  7
STYLE3
 11
0.0000000000000001
 21
1.0
 31
0.0
 73
     1
 44
1.0
  0
POINT
  5
2031
330
1A00
100
AcDbEntity
  8
DEFPOINTS
 62
     0
100
AcDbPoint
 10
267.1011416931723
 20
110.1815609821782
 30
0.0
  0
POINT
  5
2032
330
1A00
100
AcDbEntity
  8
DEFPOINTS
 62
     0
100
AcDbPoint
 10
267.1011416931723
 20
128.1815609821781
 30
0.0
  0
POINT
  5
2033
330
1A00
100
AcDbEntity
  8
DEFPOINTS
 62
     0
100
AcDbPoint
 10
248.4523671180435
 20
128.1815609821781
 30
0.0
  0
ENDBLK
  5
1A0A
330
1A00
100
AcDbEntity
  8
0
100
AcDbBlockEnd
  0
BLOCK
  5
1B64
330
1A0C
100
AcDbEntity
  8
0
100
AcDbBlockBegin
  2
*D30
 70
     1
 10
0.0
 20
0.0
 30
0.0
  3
*D30
  1

  0
LINE
  5
2024
330
1A0C
100
AcDbEntity
  8
外形線
 62
     2
370
    -2
100
AcDbLine
 10
247.2485014212342
 20
155.1815609821781
 30
0.0
 11
249.7023671180435
 21
155.1815609821781
 31
0.0
  0
LINE
  5
2025
330
1A0C
100
AcDbEntity
  8
外形線
 62
     2
370
    -2
100
AcDbLine
 10
248.4523671180435
 20
130.6815609821781
 30
0.0
 11
248.4523671180435
 21
152.6815609821781
 31
0.0
  0
INSERT
  5
2026
330
1A0C
100
AcDbEntity
  8
外形線
 62
     2
370
    -2
100
AcDbBlockReference
  2
_OPEN
 10
248.4523671180435
 20
128.1815609821781
 30
0.0
 41
2.5
 42
2.5
 43
2.5
 50
270.0
  0
INSERT
  5
2027
330
1A0C
100
AcDbEntity
  8
外形線
 62
     2
370
    -2
100
AcDbBlockReference
  2
_OPEN
 10
248.4523671180435
 20
155.1815609821781
 30
0.0
 41
2.5
 42
2.5
 43
2.5
 50
90.0
  0
MTEXT
  5
2028
330
1A0C
100
AcDbEntity
  8
外形線
 62
     6
100
AcDbMText
 10
246.5773671180435
 20
141.6815609821782
 30
0.0
 40
2.5
 41
0.0
 71
     5
 72
     1
  1
\A1;27
  7
STYLE3
 11
0.0000000000000001
 21
1.0
 31
0.0
 73
     1
 44
1.0
  0
POINT
  5
2029
330
1A0C
100
AcDbEntity
  8
DEFPOINTS
 62
     0
100
AcDbPoint
 10
267.1011416931723
 20
128.1815609821781
 30
0.0
  0
POINT
  5
202A
330
1A0C
100
AcDbEntity
  8
DEFPOINTS
 62
     0
100
AcDbPoint
 10
247.2485014212342
 20
155.1815609821781
 30
0.0
  0
POINT
  5
202B
330
1A0C
100
AcDbEntity
  8
DEFPOINTS
 62
     0
100
AcDbPoint
 10
248.4523671180435
 20
155.1815609821781
 30
0.0
  0
ENDBLK
  5
1B6D
330
1A0C
100
AcDbEntity
  8
0
100
AcDbBlockEnd
  0
BLOCK
  5
1B9D
330
1A18
100
AcDbEntity
  8
0
100
AcDbBlockBegin
  2
*D31
 70
     1
 10
0.0
 20
0.0
 30
0.0
  3
*D31
  1

  0
LINE
  5
201B
330
1A18
100
AcDbEntity
  8
外形線
 62
     2
370
    -2
100
AcDbLine
 10
247.2023671180435
 20
79.18156098217818
 30
0.0
 11
240.2187255528853
 21
79.18156098217818
 31
0.0
  0
LINE
  5
201C
330
1A18
100
AcDbEntity
  8
外形線
 62
     2
370
    -2
100
AcDbLine
 10
247.2485014212342
 20
155.1815609821781
 30
0.0
 11
240.2187255528853
 21
155.1815609821781
 31
0.0
  0
LINE
  5
201D
330
1A18
100
AcDbEntity
  8
外形線
 62
     2
370
    -2
100
AcDbLine
 10
241.4687255528853
 20
81.68156098217819
 30
0.0
 11
241.4687255528853
 21
152.6815609821781
 31
0.0
  0
INSERT
  5
201E
330
1A18
100
AcDbEntity
  8
外形線
 62
     2
370
    -2
100
AcDbBlockReference
  2
_OPEN
 10
241.4687255528853
 20
79.18156098217818
 30
0.0
 41
2.5
 42
2.5
 43
2.5
 50
270.0
  0
INSERT
  5
201F
330
1A18
100
AcDbEntity
  8
外形線
 62
     2
370
    -2
100
AcDbBlockReference
  2
_OPEN
 10
241.4687255528853
 20
155.1815609821781
 30
0.0
 41
2.5
 42
2.5
 43
2.5
 50
90.0
  0
MTEXT
  5
2020
330
1A18
100
AcDbEntity
  8
外形線
 62
     6
100
AcDbMText
 10
239.5937255528853
 20
117.1815609821782
 30
0.0
 40
2.5
 41
0.0
 71
     5
 72
     1
  1
\A1;76
  7
STYLE3
 11
0.0000000000000001
 21
1.0
 31
0.0
 73
     1
 44
1.0
  0
POINT
  5
2021
330
1A18
100
AcDbEntity
  8
DEFPOINTS
 62
     0
100
AcDbPoint
 10
247.2023671180435
 20
79.18156098217818
 30
0.0
  0
POINT
  5
2022
330
1A18
100
AcDbEntity
  8
DEFPOINTS
 62
     0
100
AcDbPoint
 10
247.2485014212342
 20
155.1815609821781
 30
0.0
  0
POINT
  5
2023
330
1A18
100
AcDbEntity
  8
DEFPOINTS
 62
     0
100
AcDbPoint
 10
241.4687255528853
 20
155.1815609821781
 30
0.0
  0
ENDBLK
  5
1BA7
330
1A18
100
AcDbEntity
  8
0
100
AcDbBlockEnd
  0
BLOCK
  5
1A26
330
1A25
100
AcDbEntity
  8
0
100
AcDbBlockBegin
  2
*D32
 70
     1
 10
0.0
 20
0.0
 30
0.0
  3
*D32
  1

  0
LINE
  5
2013
330
1A25
100
AcDbEntity
  8
外形線
 62
     2
370
    -2
100
AcDbLine
 10
277.6011416931722
 20
199.6815609821781
 30
0.0
 11
240.2187255528853
 21
199.6815609821781
 31
0.0
  0
LINE
  5
2014
330
1A25
100
AcDbEntity
  8
外形線
 62
     2
370
    -2
100
AcDbLine
 10
241.4687255528853
 20
157.6815609821781
 30
0.0
 11
241.4687255528853
 21
197.1815609821781
 31
0.0
  0
INSERT
  5
2015
330
1A25
100
AcDbEntity
  8
外形線
 62
     2
370
    -2
100
AcDbBlockReference
  2
_OPEN
 10
241.4687255528853
 20
155.1815609821781
 30
0.0
 41
2.5
 42
2.5
 43
2.5
 50
270.0
  0
INSERT
  5
2016
330
1A25
100
AcDbEntity
  8
外形線
 62
     2
370
    -2
100
AcDbBlockReference
  2
_OPEN
 10
241.4687255528853
 20
199.6815609821781
 30
0.0
 41
2.5
 42
2.5
 43
2.5
 50
90.0
  0
MTEXT
  5
2017
330
1A25
100
AcDbEntity
  8
外形線
 62
     6
100
AcDbMText
 10
239.5937255528853
 20
177.4315609821782
 30
0.0
 40
2.5
 41
0.0
 71
     5
 72
     1
  1
\A1;44.5
  7
STYLE3
 11
0.0000000000000001
 21
1.0
 31
0.0
 73
     1
 44
1.0
  0
POINT
  5
2018
330
1A25
100
AcDbEntity
  8
DEFPOINTS
 62
     0
100
AcDbPoint
 10
247.2485014212342
 20
155.1815609821781
 30
0.0
  0
POINT
  5
2019
330
1A25
100
AcDbEntity
  8
DEFPOINTS
 62
     0
100
AcDbPoint
 10
277.6011416931722
 20
199.6815609821781
 30
0.0
  0
POINT
  5
201A
330
1A25
100
AcDbEntity
  8
DEFPOINTS
 62
     0
100
AcDbPoint
 10
241.4687255528853
 20
199.6815609821781
 30
0.0
  0
ENDBLK
  5
1A2F
330
1A25
100
AcDbEntity
  8
0
100
AcDbBlockEnd
  0
BLOCK
  5
1B59
330
1A31
100
AcDbEntity
  8
0
100
AcDbBlockBegin
  2
*D33
 70
     1
 10
0.0
 20
0.0
 30
0.0
  3
*D33
  1

  0
LINE
  5
200A
330
1A31
100
AcDbEntity
  8
外形線
 62
     2
370
    -2
100
AcDbLine
 10
240.2187255528853
 20
79.18156098217818
 30
0.0
 11
233.9702040699834
 21
79.18156098217818
 31
0.0
  0
LINE
  5
200B
330
1A31
100
AcDbEntity
  8
外形線
 62
     2
370
    -2
100
AcDbLine
 10
240.2187255528853
 20
199.6815609821782
 30
0.0
 11
233.9702040699834
 21
199.6815609821782
 31
0.0
  0
LINE
  5
200C
330
1A31
100
AcDbEntity
  8
外形線
 62
     2
370
    -2
100
AcDbLine
 10
235.2202040699834
 20
81.68156098217819
 30
0.0
 11
235.2202040699834
 21
197.1815609821782
 31
0.0
  0
INSERT
  5
200D
330
1A31
100
AcDbEntity
  8
外形線
 62
     2
370
    -2
100
AcDbBlockReference
  2
_OPEN
 10
235.2202040699834
 20
79.18156098217818
 30
0.0
 41
2.5
 42
2.5
 43
2.5
 50
270.0
  0
INSERT
  5
200E
330
1A31
100
AcDbEntity
  8
外形線
 62
     2
370
    -2
100
AcDbBlockReference
  2
_OPEN
 10
235.2202040699834
 20
199.6815609821782
 30
0.0
 41
2.5
 42
2.5
 43
2.5
 50
90.0
  0
MTEXT
  5
200F
330
1A31
100
AcDbEntity
  8
外形線
 62
     6
100
AcDbMText
 10
233.3452040699834
 20
139.4315609821782
 30
0.0
 40
2.5
 41
0.0
 71
     5
 72
     1
  1
\A1;120.5
  7
STYLE3
 11
0.0000000000000001
 21
1.0
 31
0.0
 73
     1
 44
1.0
  0
POINT
  5
2010
330
1A31
100
AcDbEntity
  8
DEFPOINTS
 62
     0
100
AcDbPoint
 10
240.2187255528853
 20
79.18156098217818
 30
0.0
  0
POINT
  5
2011
330
1A31
100
AcDbEntity
  8
DEFPOINTS
 62
     0
100
AcDbPoint
 10
240.2187255528853
 20
199.6815609821782
 30
0.0
  0
POINT
  5
2012
330
1A31
100
AcDbEntity
  8
DEFPOINTS
 62
     0
100
AcDbPoint
 10
235.2202040699834
 20
199.6815609821782
 30
0.0
  0
ENDBLK
  5
1B63
330
1A31
100
AcDbEntity
  8
0
100
AcDbBlockEnd
  0
BLOCK
  5
1A41
330
1A40
100
AcDbEntity
  8
0
100
AcDbBlockBegin
  2
*D34
 70
     1
 10
0.0
 20
0.0
 30
0.0
  3
*D34
  1

  0
LINE
  5
2001
330
1A40
100
AcDbEntity
  8
外形線
 62
     2
370
    -2
100
AcDbLine
 10
252.1011416931723
 20
155.1815609821781
 30
0.0
 11
252.1011416931723
 21
205.2858945403437
 31
0.0
  0
LINE
  5
2002
330
1A40
100
AcDbEntity
  8
外形線
 62
     2
370
    -2
100
AcDbLine
 10
280.6011416931723
 20
202.4030246463559
 30
0.0
 11
280.6011416931723
 21
205.2858945403437
 31
0.0
  0
LINE
  5
2003
330
1A40
100
AcDbEntity
  8
外形線
 62
     2
370
    -2
100
AcDbLine
 10
254.6011416931723
 20
204.0358945403437
 30
0.0
 11
278.1011416931723
 21
204.0358945403437
 31
0.0
  0
INSERT
  5
2004
330
1A40
100
AcDbEntity
  8
外形線
 62
     2
370
    -2
100
AcDbBlockReference
  2
_OPEN
 10
252.1011416931723
 20
204.0358945403437
 30
0.0
 41
2.5
 42
2.5
 43
2.5
 50
180.0
  0
INSERT
  5
2005
330
1A40
100
AcDbEntity
  8
外形線
 62
     2
370
    -2
100
AcDbBlockReference
  2
_OPEN
 10
280.6011416931723
 20
204.0358945403437
 30
0.0
 41
2.5
 42
2.5
 43
2.5
  0
MTEXT
  5
2006
330
1A40
100
AcDbEntity
  8
外形線
 62
     6
100
AcDbMText
 10
266.3511416931723
 20
205.9108945403437
 30
0.0
 40
2.5
 41
0.0
 71
     5
 72
     1
  1
\A1;28.5
  7
STYLE3
 73
     1
 44
1.0
  0
POINT
  5
2007
330
1A40
100
AcDbEntity
  8
DEFPOINTS
 62
     0
100
AcDbPoint
 10
252.1011416931723
 20
155.1815609821781
 30
0.0
  0
POINT
  5
2008
330
1A40
100
AcDbEntity
  8
DEFPOINTS
 62
     0
100
AcDbPoint
 10
280.6011416931723
 20
202.4030246463559
 30
0.0
  0
POINT
  5
2009
330
1A40
100
AcDbEntity
  8
DEFPOINTS
 62
     0
100
AcDbPoint
 10
280.6011416931723
 20
204.0358945403437
 30
0.0
  0
ENDBLK
  5
1A4B
330
1A40
100
AcDbEntity
  8
0
100
AcDbBlockEnd
  0
BLOCK
  5
1A4E
330
1A4D
100
AcDbEntity
  8
0
100
AcDbBlockBegin
  2
*D35
 70
     1
 10
0.0
 20
0.0
 30
0.0
  3
*D35
  1

  0
LINE
  5
1FF9
330
1A4D
100
AcDbEntity
  8
外形線
 62
     2
370
    -2
100
AcDbLine
 10
339.1011054795554
 20
147.1416435945768
 30
0.0
 11
339.1011054795554
 21
205.2858945403437
 31
0.0
  0
LINE
  5
1FFA
330
1A4D
100
AcDbEntity
  8
外形線
 62
     2
370
    -2
100
AcDbLine
 10
283.1011416931723
 20
204.0358945403437
 30
0.0
 11
336.6011054795554
 21
204.0358945403437
 31
0.0
  0
INSERT
  5
1FFB
330
1A4D
100
AcDbEntity
  8
外形線
 62
     2
370
    -2
100
AcDbBlockReference
  2
_OPEN
 10
280.6011416931723
 20
204.0358945403437
 30
0.0
 41
2.5
 42
2.5
 43
2.5
 50
180.0
  0
INSERT
  5
1FFC
330
1A4D
100
AcDbEntity
  8
外形線
 62
     2
370
    -2
100
AcDbBlockReference
  2
_OPEN
 10
339.1011054795554
 20
204.0358945403437
 30
0.0
 41
2.5
 42
2.5
 43
2.5
  0
MTEXT
  5
1FFD
330
1A4D
100
AcDbEntity
  8
外形線
 62
     6
100
AcDbMText
 10
309.8511235863638
 20
205.9108945403437
 30
0.0
 40
2.5
 41
0.0
 71
     5
 72
     1
  1
\A1;58.5
  7
STYLE3
 73
     1
 44
1.0
  0
POINT
  5
1FFE
330
1A4D
100
AcDbEntity
  8
DEFPOINTS
 62
     0
100
AcDbPoint
 10
280.6011416931723
 20
202.4030246463559
 30
0.0
  0
POINT
  5
1FFF
330
1A4D
100
AcDbEntity
  8
DEFPOINTS
 62
     0
100
AcDbPoint
 10
339.1011054795554
 20
147.1416435945768
 30
0.0
  0
POINT
  5
2000
330
1A4D
100
AcDbEntity
  8
DEFPOINTS
 62
     0
100
AcDbPoint
 10
339.1011054795554
 20
204.0358945403437
 30
0.0
  0
ENDBLK
  5
1A57
330
1A4D
100
AcDbEntity
  8
0
100
AcDbBlockEnd
  0
BLOCK
  5
1A5A
330
1A59
100
AcDbEntity
  8
0
100
AcDbBlockBegin
  2
*D36
 70
     1
 10
0.0
 20
0.0
 30
0.0
  3
*D36
  1

  0
LINE
  5
1FF0
330
1A59
100
AcDbEntity
  8
外形線
 62
     2
370
    -2
100
AcDbLine
 10
252.1011416931723
 20
205.2858945403437
 30
0.0
 11
252.1011416931723
 21
211.1622707600421
 31
0.0
  0
LINE
  5
1FF1
330
1A59
100
AcDbEntity
  8
外形線
 62
     2
370
    -2
100
AcDbLine
 10
339.1011054795554
 20
205.2858945403437
 30
0.0
 11
339.1011054795554
 21
211.1622707600421
 31
0.0
  0
LINE
  5
1FF2
330
1A59
100
AcDbEntity
  8
外形線
 62
     2
370
    -2
100
AcDbLine
 10
254.6011416931723
 20
209.9122707600421
 30
0.0
 11
336.6011054795554
 21
209.9122707600421
 31
0.0
  0
INSERT
  5
1FF3
330
1A59
100
AcDbEntity
  8
外形線
 62
     2
370
    -2
100
AcDbBlockReference
  2
_OPEN
 10
252.1011416931723
 20
209.9122707600421
 30
0.0
 41
2.5
 42
2.5
 43
2.5
 50
180.0
  0
INSERT
  5
1FF4
330
1A59
100
AcDbEntity
  8
外形線
 62
     2
370
    -2
100
AcDbBlockReference
  2
_OPEN
 10
339.1011054795554
 20
209.9122707600421
 30
0.0
 41
2.5
 42
2.5
 43
2.5
  0
MTEXT
  5
1FF5
330
1A59
100
AcDbEntity
  8
外形線
 62
     6
100
AcDbMText
 10
295.6011235863638
 20
211.7872707600421
 30
0.0
 40
2.5
 41
0.0
 71
     5
 72
     1
  1
\A1;87
  7
STYLE3
 73
     1
 44
1.0
  0
POINT
  5
1FF6
330
1A59
100
AcDbEntity
  8
DEFPOINTS
 62
     0
100
AcDbPoint
 10
252.1011416931723
 20
205.2858945403437
 30
0.0
  0
POINT
  5
1FF7
330
1A59
100
AcDbEntity
  8
DEFPOINTS
 62
     0
100
AcDbPoint
 10
339.1011054795554
 20
205.2858945403437
 30
0.0
  0
POINT
  5
1FF8
330
1A59
100
AcDbEntity
  8
DEFPOINTS
 62
     0
100
AcDbPoint
 10
339.1011054795554
 20
209.9122707600421
 30
0.0
  0
ENDBLK
  5
1A64
330
1A59
100
AcDbEntity
  8
0
100
AcDbBlockEnd
  0
BLOCK
  5
1A67
330
1A66
100
AcDbEntity
  8
0
100
AcDbBlockBegin
  2
*D37
 70
     1
 10
0.0
 20
0.0
 30
0.0
  3
*D37
  1

  0
LINE
  5
1FE7
330
1A66
100
AcDbEntity
  8
外形線
 62
     2
370
    -2
100
AcDbLine
 10
174.673728693978
 20
180.2252153827155
 30
0.0
 11
174.673728693978
 21
205.2858945403437
 31
0.0
  0
LINE
  5
1FE8
330
1A66
100
AcDbEntity
  8
外形線
 62
     2
370
    -2
100
AcDbLine
 10
182.673728693978
 20
202.6913892429601
 30
0.0
 11
182.673728693978
 21
205.2858945403437
 31
0.0
  0
LINE
  5
1FE9
330
1A66
100
AcDbEntity
  8
外形線
 62
     2
370
    -2
100
AcDbLine
 10
177.173728693978
 20
204.0358945403437
 30
0.0
 11
180.173728693978
 21
204.0358945403437
 31
0.0
  0
INSERT
  5
1FEA
330
1A66
100
AcDbEntity
  8
外形線
 62
     2
370
    -2
100
AcDbBlockReference
  2
_OPEN
 10
174.673728693978
 20
204.0358945403437
 30
0.0
 41
2.5
 42
2.5
 43
2.5
 50
180.0
  0
INSERT
  5
1FEB
330
1A66
100
AcDbEntity
  8
外形線
 62
     2
370
    -2
100
AcDbBlockReference
  2
_OPEN
 10
182.673728693978
 20
204.0358945403437
 30
0.0
 41
2.5
 42
2.5
 43
2.5
  0
MTEXT
  5
1FEC
330
1A66
100
AcDbEntity
  8
外形線
 62
     6
100
AcDbMText
 10
178.673728693978
 20
205.9108945403437
 30
0.0
 40
2.5
 41
0.0
 71
     5
 72
     1
  1
\A1;8
  7
STYLE3
 73
     1
 44
1.0
  0
POINT
  5
1FED
330
1A66
100
AcDbEntity
  8
DEFPOINTS
 62
     0
100
AcDbPoint
 10
174.673728693978
 20
180.2252153827155
 30
0.0
  0
POINT
  5
1FEE
330
1A66
100
AcDbEntity
  8
DEFPOINTS
 62
     0
100
AcDbPoint
 10
182.673728693978
 20
202.6913892429601
 30
0.0
  0
POINT
  5
1FEF
330
1A66
100
AcDbEntity
  8
DEFPOINTS
 62
     0
100
AcDbPoint
 10
182.673728693978
 20
204.0358945403437
 30
0.0
  0
ENDBLK
  5
1A71
330
1A66
100
AcDbEntity
  8
0
100
AcDbBlockEnd
  0
BLOCK
  5
1A74
330
1A73
100
AcDbEntity
  8
0
100
AcDbBlockBegin
  2
*D38
 70
     1
 10
0.0
 20
0.0
 30
0.0
  3
*D38
  1

  0
LINE
  5
1FDF
330
1A73
100
AcDbEntity
  8
外形線
 62
     2
370
    -2
100
AcDbLine
 10
199.673728693978
 20
155.1815609821781
 30
0.0
 11
199.673728693978
 21
205.2858945403437
 31
0.0
  0
LINE
  5
1FE0
330
1A73
100
AcDbEntity
  8
外形線
 62
     2
370
    -2
100
AcDbLine
 10
185.173728693978
 20
204.0358945403437
 30
0.0
 11
197.1737286939779
 21
204.0358945403437
 31
0.0
  0
INSERT
  5
1FE1
330
1A73
100
AcDbEntity
  8
外形線
 62
     2
370
    -2
100
AcDbBlockReference
  2
_OPEN
 10
182.673728693978
 20
204.0358945403437
 30
0.0
 41
2.5
 42
2.5
 43
2.5
 50
180.0
  0
INSERT
  5
1FE2
330
1A73
100
AcDbEntity
  8
外形線
 62
     2
370
    -2
100
AcDbBlockReference
  2
_OPEN
 10
199.673728693978
 20
204.0358945403437
 30
0.0
 41
2.5
 42
2.5
 43
2.5
  0
MTEXT
  5
1FE3
330
1A73
100
AcDbEntity
  8
外形線
 62
     6
100
AcDbMText
 10
191.173728693978
 20
205.9108945403437
 30
0.0
 40
2.5
 41
0.0
 71
     5
 72
     1
  1
\A1;17
  7
STYLE3
 73
     1
 44
1.0
  0
POINT
  5
1FE4
330
1A73
100
AcDbEntity
  8
DEFPOINTS
 62
     0
100
AcDbPoint
 10
182.673728693978
 20
202.6913892429601
 30
0.0
  0
POINT
  5
1FE5
330
1A73
100
AcDbEntity
  8
DEFPOINTS
 62
     0
100
AcDbPoint
 10
199.673728693978
 20
155.1815609821781
 30
0.0
  0
POINT
  5
1FE6
330
1A73
100
AcDbEntity
  8
DEFPOINTS
 62
     0
100
AcDbPoint
 10
199.673728693978
 20
204.0358945403437
 30
0.0
  0
ENDBLK
  5
1A7D
330
1A73
100
AcDbEntity
  8
0
100
AcDbBlockEnd
  0
BLOCK
  5
1A80
330
1A7F
100
AcDbEntity
  8
0
100
AcDbBlockBegin
  2
*D39
 70
     1
 10
0.0
 20
0.0
 30
0.0
  3
*D39
  1

  0
LINE
  5
1FD6
330
1A7F
100
AcDbEntity
  8
外形線
 62
     2
370
    -2
100
AcDbLine
 10
174.673728693978
 20
205.2858945403437
 30
0.0
 11
174.673728693978
 21
211.1622707600421
 31
0.0
  0
LINE
  5
1FD7
330
1A7F
100
AcDbEntity
  8
外形線
 62
     2
370
    -2
100
AcDbLine
 10
199.673728693978
 20
204.0358945403437
 30
0.0
 11
199.673728693978
 21
211.1622707600421
 31
0.0
  0
LINE
  5
1FD8
330
1A7F
100
AcDbEntity
  8
外形線
 62
     2
370
    -2
100
AcDbLine
 10
177.173728693978
 20
209.9122707600421
 30
0.0
 11
197.1737286939779
 21
209.9122707600421
 31
0.0
  0
INSERT
  5
1FD9
330
1A7F
100
AcDbEntity
  8
外形線
 62
     2
370
    -2
100
AcDbBlockReference
  2
_OPEN
 10
174.673728693978
 20
209.9122707600421
 30
0.0
 41
2.5
 42
2.5
 43
2.5
 50
180.0
  0
INSERT
  5
1FDA
330
1A7F
100
AcDbEntity
  8
外形線
 62
     2
370
    -2
100
AcDbBlockReference
  2
_OPEN
 10
199.673728693978
 20
209.9122707600421
 30
0.0
 41
2.5
 42
2.5
 43
2.5
  0
MTEXT
  5
1FDB
330
1A7F
100
AcDbEntity
  8
外形線
 62
     6
100
AcDbMText
 10
187.173728693978
 20
211.7872707600421
 30
0.0
 40
2.5
 41
0.0
 71
     5
 72
     1
  1
\A1;25
  7
STYLE3
 73
     1
 44
1.0
  0
POINT
  5
1FDC
330
1A7F
100
AcDbEntity
  8
DEFPOINTS
 62
     0
100
AcDbPoint
 10
174.673728693978
 20
205.2858945403437
 30
0.0
  0
POINT
  5
1FDD
330
1A7F
100
AcDbEntity
  8
DEFPOINTS
 62
     0
100
AcDbPoint
 10
199.673728693978
 20
204.0358945403437
 30
0.0
  0
POINT
  5
1FDE
330
1A7F
100
AcDbEntity
  8
DEFPOINTS
 62
     0
100
AcDbPoint
 10
199.673728693978
 20
209.9122707600421
 30
0.0
  0
ENDBLK
  5
1A8A
330
1A7F
100
AcDbEntity
  8
0
100
AcDbBlockEnd
  0
BLOCK
  5
1A99
330
1A8C
100
AcDbEntity
  8
0
100
AcDbBlockBegin
  2
*D40
 70
     1
 10
0.0
 20
0.0
 30
0.0
  3
*D40
  1

  0
LINE
  5
1FCD
330
1A8C
100
AcDbEntity
  8
外形線
 62
     2
370
    -2
100
AcDbLine
 10
194.5737286939779
 20
183.6315609821781
 30
0.0
 11
212.4551348507254
 21
183.6315609821781
 31
0.0
  0
LINE
  5
1FCE
330
1A8C
100
AcDbEntity
  8
外形線
 62
     2
370
    -2
100
AcDbLine
 10
194.5737286939779
 20
126.7315609821781
 30
0.0
 11
212.4551348507254
 21
126.7315609821781
 31
0.0
  0
LINE
  5
1FCF
330
1A8C
100
AcDbEntity
  8
外形線
 62
     2
370
    -2
100
AcDbLine
 10
211.2051348507253
 20
181.1315609821781
 30
0.0
 11
211.2051348507253
 21
129.2315609821781
 31
0.0
  0
INSERT
  5
1FD0
330
1A8C
100
AcDbEntity
  8
外形線
 62
     2
370
    -2
100
AcDbBlockReference
  2
_OPEN
 10
211.2051348507253
 20
183.6315609821781
 30
0.0
 41
2.5
 42
2.5
 43
2.5
 50
90.0
  0
INSERT
  5
1FD1
330
1A8C
100
AcDbEntity
  8
外形線
 62
     2
370
    -2
100
AcDbBlockReference
  2
_OPEN
 10
211.2051348507253
 20
126.7315609821781
 30
0.0
 41
2.5
 42
2.5
 43
2.5
 50
270.0
  0
MTEXT
  5
1FD2
330
1A8C
100
AcDbEntity
  8
外形線
 62
     6
100
AcDbMText
 10
209.3301348507253
 20
155.1815609821782
 30
0.0
 40
2.5
 41
0.0
 71
     5
 72
     1
  1
\A1;φ57
  7
STYLE3
 11
0.0000000000000001
 21
1.0
 31
0.0
 73
     1
 44
1.0
  0
POINT
  5
1FD3
330
1A8C
100
AcDbEntity
  8
DEFPOINTS
 62
     0
100
AcDbPoint
 10
194.5737286939779
 20
183.6315609821781
 30
0.0
  0
POINT
  5
1FD4
330
1A8C
100
AcDbEntity
  8
DEFPOINTS
 62
     0
100
AcDbPoint
 10
194.5737286939779
 20
126.7315609821781
 30
0.0
  0
POINT
  5
1FD5
330
1A8C
100
AcDbEntity
  8
DEFPOINTS
 62
     0
100
AcDbPoint
 10
211.2051348507253
 20
126.7315609821781
 30
0.0
  0
ENDBLK
  5
1AA3
330
1A8C
100
AcDbEntity
  8
0
100
AcDbBlockEnd
  0
BLOCK
  5
1B1E
330
1B0F
100
AcDbEntity
  8
0
100
AcDbBlockBegin
  2
*D43
 70
     1
 10
0.0
 20
0.0
 30
0.0
  3
*D43
  1

  0
LINE
  5
1FC2
330
1B0F
100
AcDbEntity
  8
外形線
 62
     2
370
    -2
100
AcDbLine
 10
188.1737286939779
 20
93.18156098217821
 30
0.0
 11
203.4388734929734
 21
93.18156098217821
 31
0.0
  0
LINE
  5
1FC3
330
1B0F
100
AcDbEntity
  8
外形線
 62
     2
370
    -2
100
AcDbLine
 10
184.973728693978
 20
96.68156098217815
 30
0.0
 11
203.4388734929734
 21
96.68156098217815
 31
0.0
  0
LINE
  5
1FC4
330
1B0F
100
AcDbEntity
  8
外形線
 62
     2
370
    -2
100
AcDbLine
 10
202.1888734929734
 20
99.18156098217815
 30
0.0
 11
202.1888734929734
 21
101.6815609821781
 31
0.0
  0
LINE
  5
1FC5
330
1B0F
100
AcDbEntity
  8
外形線
 62
     2
370
    -2
100
AcDbLine
 10
202.1888734929734
 20
90.68156098217821
 30
0.0
 11
202.1888734929734
 21
81.69346574408294
 31
0.0
  0
LINE
  5
1FC6
330
1B0F
100
AcDbEntity
  8
外形線
 62
     2
370
    -2
100
AcDbLine
 10
202.1888734929734
 20
96.68156098217815
 30
0.0
 11
202.1888734929734
 21
93.18156098217821
 31
0.0
  0
INSERT
  5
1FC7
330
1B0F
100
AcDbEntity
  8
外形線
 62
     2
370
    -2
100
AcDbBlockReference
  2
_OPEN
 10
202.1888734929734
 20
96.68156098217815
 30
0.0
 41
2.5
 42
2.5
 43
2.5
 50
270.0
  0
INSERT
  5
1FC8
330
1B0F
100
AcDbEntity
  8
外形線
 62
     2
370
    -2
100
AcDbBlockReference
  2
_OPEN
 10
202.1888734929734
 20
93.18156098217821
 30
0.0
 41
2.5
 42
2.5
 43
2.5
 50
90.0
  0
MTEXT
  5
1FC9
330
1B0F
100
AcDbEntity
  8
外形線
 62
     6
100
AcDbMText
 10
200.3138734929734
 20
84.93751336313058
 30
0.0
 40
2.5
 41
0.0
 71
     5
 72
     1
  1
\A1;3.5
  7
STYLE3
 11
0.0000000000000001
 21
1.0
 31
0.0
 73
     1
 44
1.0
  0
POINT
  5
1FCA
330
1B0F
100
AcDbEntity
  8
DEFPOINTS
 62
     0
100
AcDbPoint
 10
188.1737286939779
 20
93.18156098217821
 30
0.0
  0
POINT
  5
1FCB
330
1B0F
100
AcDbEntity
  8
DEFPOINTS
 62
     0
100
AcDbPoint
 10
184.973728693978
 20
96.68156098217815
 30
0.0
  0
POINT
  5
1FCC
330
1B0F
100
AcDbEntity
  8
DEFPOINTS
 62
     0
100
AcDbPoint
 10
202.1888734929734
 20
96.68156098217815
 30
0.0
  0
ENDBLK
  5
1B2A
330
1B0F
100
AcDbEntity
  8
0
100
AcDbBlockEnd
  0
BLOCK
  5
1EA7
330
1E9D
100
AcDbEntity
  8
0
100
AcDbBlockBegin
  2
*D48
 70
     1
 10
0.0
 20
0.0
 30
0.0
  3
*D48
  1

  0
LINE
  5
1FB9
330
1E9D
100
AcDbEntity
  8
寸法線
 62
     2
370
    -2
100
AcDbLine
 10
278.434208634433
 20
93.18156098217817
 30
0.0
 11
253.7786278846704
 21
93.18156098217817
 31
0.0
  0
LINE
  5
1FBA
330
1E9D
100
AcDbEntity
  8
寸法線
 62
     2
370
    -2
100
AcDbLine
 10
278.975105214949
 20
83.18156098217817
 30
0.0
 11
253.7786278846704
 21
83.18156098217817
 31
0.0
  0
LINE
  5
1FBB
330
1E9D
100
AcDbEntity
  8
寸法線
 62
     2
370
    -2
100
AcDbLine
 10
255.0286278846704
 20
90.68156098217817
 30
0.0
 11
255.0286278846704
 21
85.68156098217817
 31
0.0
  0
INSERT
  5
1FBC
330
1E9D
100
AcDbEntity
  8
寸法線
 62
     2
370
    -2
100
AcDbBlockReference
  2
_OPEN
 10
255.0286278846704
 20
93.18156098217817
 30
0.0
 41
2.5
 42
2.5
 43
2.5
 50
90.0
  0
INSERT
  5
1FBD
330
1E9D
100
AcDbEntity
  8
寸法線
 62
     2
370
    -2
100
AcDbBlockReference
  2
_OPEN
 10
255.0286278846704
 20
83.18156098217817
 30
0.0
 41
2.5
 42
2.5
 43
2.5
 50
270.0
  0
MTEXT
  5
1FBE
330
1E9D
100
AcDbEntity
  8
寸法線
 62
     6
100
AcDbMText
 10
253.1536278846704
 20
88.18156098217823
 30
0.0
 40
2.5
 41
0.0
 71
     5
 72
     1
  1
\A1;10
  7
STYLE3
 11
0.0000000000000001
 21
1.0
 31
0.0
 73
     1
 44
1.0
  0
POINT
  5
1FBF
330
1E9D
100
AcDbEntity
  8
DEFPOINTS
 62
     0
100
AcDbPoint
 10
278.434208634433
 20
93.18156098217817
 30
0.0
  0
POINT
  5
1FC0
330
1E9D
100
AcDbEntity
  8
DEFPOINTS
 62
     0
100
AcDbPoint
 10
278.975105214949
 20
83.18156098217817
 30
0.0
  0
POINT
  5
1FC1
330
1E9D
100
AcDbEntity
  8
DEFPOINTS
 62
     0
100
AcDbPoint
 10
255.0286278846704
 20
83.18156098217817
 30
0.0
  0
ENDBLK
  5
1EA8
330
1E9D
100
AcDbEntity
  8
0
100
AcDbBlockEnd
  0
ENDSEC
  0
SECTION
  2
ENTITIES
  0
LWPOLYLINE
  5
14BC
330
18
100
AcDbEntity
  8
C
100
AcDbPolyline
 90
        5
 70
     0
 43
0.4
 10
128.4738668322198
 20
234.7203069515555
 10
383.4738668322199
 20
234.7203069515555
 10
383.4738668322199
 20
39.72030695155553
 10
128.4738668322198
 20
39.72030695155553
 10
128.4738668322198
 20
234.7203069515555
  0
LINE
  5
14C3
330
18
100
AcDbEntity
  8
中心線
 48
0.5
100
AcDbLine
 10
182.673728693978
 20
202.6913892429601
 30
0.0
 11
182.6737286939779
 21
85.25846401657668
 31
0.0
  0
ARC
  5
14C5
330
18
100
AcDbEntity
  8
外形線
  6
Continuous
100
AcDbCircle
 10
61.94039536064628
 20
155.1815609821781
 30
0.0
 40
137.7333333333317
100
AcDbArc
 50
349.2883499142895
 51
10.71165008571052
  0
LINE
  5
14C6
330
18
100
AcDbEntity
  8
外形線
100
AcDbLine
 10
188.073728693978
 20
181.6815609821781
 30
0.0
 11
188.073728693978
 21
128.6815609821781
 31
0.0
  0
LINE
  5
14C7
330
18
100
AcDbEntity
  8
外形線
100
AcDbLine
 10
188.9737286939781
 20
182.9815609821782
 30
0.0
 11
188.9737286939756
 21
128.6815609821781
 31
0.0
  0
LINE
  5
14C8
330
18
100
AcDbEntity
  8
外形線
100
AcDbLine
 10
189.6737286939779
 20
182.9815609821782
 30
0.0
 11
189.6737286939779
 21
127.3815609821781
 31
0.0
  0
LINE
  5
14C9
330
18
100
AcDbEntity
  8
外形線
100
AcDbLine
 10
194.8737286939779
 20
183.1315609821781
 30
0.0
 11
194.8737286939779
 21
127.2315609821781
 31
0.0
  0
LINE
  5
14CA
330
18
100
AcDbEntity
  8
外形線
100
AcDbLine
 10
197.2737286939779
 20
180.7815609821782
 30
0.0
 11
197.273728693978
 21
129.5815609821782
 31
0.0
  0
LINE
  5
14CB
330
18
100
AcDbEntity
  8
外形線
100
AcDbLine
 10
195.7737286939779
 20
183.1315609821781
 30
0.0
 11
195.7737286939779
 21
127.2315609821781
 31
0.0
  0
LINE
  5
14CC
330
18
100
AcDbEntity
  8
外形線
100
AcDbLine
 10
176.1737286939779
 20
181.1815609821781
 30
0.0
 11
176.1737286939779
 21
129.1815609821781
 31
0.0
  0
LINE
  5
14CE
330
18
100
AcDbEntity
  8
外形線
100
AcDbLine
 10
189.6737286939779
 20
127.0315609821782
 30
0.0
 11
189.6737286939779
 21
127.3815609821781
 31
0.0
  0
LINE
  5
14CF
330
18
100
AcDbEntity
  8
外形線
100
AcDbLine
 10
186.6737286939779
 20
129.1815609821782
 30
0.0
 11
186.6737286939779
 21
128.1815609821781
 31
0.0
  0
LINE
  5
14D0
330
18
100
AcDbEntity
  8
外形線
100
AcDbLine
 10
178.6737286939779
 20
129.1815609821781
 30
0.0
 11
178.6737286939779
 21
128.1815609821781
 31
0.0
  0
LINE
  5
14D1
330
18
100
AcDbEntity
  8
外形線
100
AcDbLine
 10
194.5737286939779
 20
126.7315609821781
 30
0.0
 11
194.8737286939779
 21
127.2315609821781
 31
0.0
  0
LINE
  5
14D3
330
18
100
AcDbEntity
  8
外形線
100
AcDbLine
 10
194.5737286939779
 20
126.7315609821781
 30
0.0
 11
189.973728693978
 21
126.7315609821781
 31
0.0
  0
LINE
  5
14D6
330
18
100
AcDbEntity
  8
外形線
100
AcDbLine
 10
183.4237286939779
 20
113.4491054501445
 30
0.0
 11
181.9237286939779
 21
113.4491054501445
 31
0.0
  0
LINE
  5
14D7
330
18
100
AcDbEntity
  8
外形線
 62
     4
100
AcDbLine
 10
186.5737286939779
 20
109.9815609821781
 30
0.0
 11
178.773728693978
 21
109.9815609821781
 31
0.0
  0
LINE
  5
14D8
330
18
100
AcDbEntity
  8
外形線
100
AcDbLine
 10
179.073728693978
 20
109.6815609821781
 30
0.0
 11
186.2737286939778
 21
109.6815609821782
 31
0.0
  0
LINE
  5
14D9
330
18
100
AcDbEntity
  8
外形線
100
AcDbLine
 10
186.5737286939779
 20
109.9815609821781
 30
0.0
 11
186.2737286939778
 21
109.6815609821782
 31
0.0
  0
LINE
  5
14DA
330
18
100
AcDbEntity
  8
外形線
100
AcDbLine
 10
186.5737286939778
 20
110.181560982178
 30
0.0
 11
186.5737286939779
 21
109.9815609821781
 31
0.0
  0
LINE
  5
14DB
330
18
100
AcDbEntity
  8
外形線
 48
0.5
100
AcDbLine
 10
179.073728693978
 20
109.6815609821781
 30
0.0
 11
178.773728693978
 21
109.9815609821781
 31
0.0
  0
LINE
  5
14DC
330
18
100
AcDbEntity
  8
外形線
100
AcDbLine
 10
178.773728693978
 20
110.181560982178
 30
0.0
 11
178.773728693978
 21
109.9815609821781
 31
0.0
  0
LINE
  5
14DD
330
18
100
AcDbEntity
  8
外形線
100
AcDbLine
 10
183.423728693978
 20
114.7523813754282
 30
0.0
 11
181.9237286939779
 21
114.7523813754282
 31
0.0
  0
LINE
  5
14DE
330
18
100
AcDbEntity
  8
外形線
100
AcDbLine
 10
189.6737286939779
 20
127.0315609821782
 30
0.0
 11
189.973728693978
 21
126.7315609821781
 31
0.0
  0
LINE
  5
14DF
330
18
100
AcDbEntity
  8
中心線
 48
0.5
100
AcDbLine
 10
203.8743631150673
 20
155.1815609821781
 30
0.0
 11
168.5023347493161
 21
155.1815609821781
 31
0.0
  0
LINE
  5
14E6
330
18
100
AcDbEntity
  8
外形線
  6
Continuous
 62
     4
100
AcDbLine
 10
189.6737286939779
 20
152.1815609821781
 30
0.0
 11
194.8737286939779
 21
152.1815609821781
 31
0.0
  0
LINE
  5
14E7
330
18
100
AcDbEntity
  8
外形線
  6
Continuous
 62
     4
100
AcDbLine
 10
194.8737286939779
 20
133.0347985338675
 30
0.0
 11
189.6737286939779
 21
133.0347985338675
 31
0.0
  0
LINE
  5
14E8
330
18
100
AcDbEntity
  8
外形線
  6
Continuous
 62
     4
100
AcDbLine
 10
194.8737286939779
 20
132.0347985338675
 30
0.0
 11
189.6737286939779
 21
132.0347985338675
 31
0.0
  0
LINE
  5
14E9
330
18
100
AcDbEntity
  8
外形線
  6
Continuous
 62
     4
100
AcDbLine
 10
194.8737286939779
 20
131.0347985338675
 30
0.0
 11
189.6737286939779
 21
131.0347985338675
 31
0.0
  0
LINE
  5
14EA
330
18
100
AcDbEntity
  8
外形線
  6
Continuous
 62
     4
100
AcDbLine
 10
194.8737286939779
 20
130.0347985338675
 30
0.0
 11
189.6737286939779
 21
130.0347985338675
 31
0.0
  0
LINE
  5
14EB
330
18
100
AcDbEntity
  8
外形線
  6
Continuous
 62
     4
100
AcDbLine
 10
194.8737286939779
 20
129.0347985338675
 30
0.0
 11
189.6737286939779
 21
129.0347985338675
 31
0.0
  0
LINE
  5
14EC
330
18
100
AcDbEntity
  8
外形線
  6
Continuous
 62
     4
100
AcDbLine
 10
194.8737286939779
 20
128.0347985338675
 30
0.0
 11
189.6737286939779
 21
128.0347985338676
 31
0.0
  0
LINE
  5
14ED
330
18
100
AcDbEntity
  8
外形線
100
AcDbLine
 10
195.7737286939779
 20
127.2315609821781
 30
0.0
 11
194.8737286939779
 21
127.2315609821781
 31
0.0
  0
ARC
  5
14EE
330
18
100
AcDbEntity
  8
外形線
100
AcDbCircle
 10
195.7737286939779
 20
127.7315609821781
 30
0.0
 40
0.5
100
AcDbArc
 50
270.0
 51
333.1835883232853
  0
LINE
  5
14EF
330
18
100
AcDbEntity
  8
外形線
100
AcDbLine
 10
197.2737286939779
 20
129.5815609821781
 30
0.0
 11
196.219161871396
 21
127.5044282358486
 31
0.0
  0
LINE
  5
14F0
330
18
100
AcDbEntity
  8
外形線
100
AcDbLine
 10
188.073728693978
 20
129.1815609821781
 30
0.0
 11
176.1737286939779
 21
129.1815609821781
 31
0.0
  0
LINE
  5
14F1
330
18
100
AcDbEntity
  8
外形線
100
AcDbLine
 10
189.6737286939779
 20
127.3815609821781
 30
0.0
 11
188.9737286939781
 21
127.3815609821781
 31
0.0
  0
LINE
  5
14F2
330
18
100
AcDbEntity
  8
外形線
100
AcDbLine
 10
188.9737286939781
 20
127.3815609821781
 30
0.0
 11
188.973728693978
 21
128.6815609821781
 31
0.0
  0
LINE
  5
14F3
330
18
100
AcDbEntity
  8
外形線
100
AcDbLine
 10
188.973728693978
 20
128.6815609821781
 30
0.0
 11
188.073728693978
 21
128.6815609821781
 31
0.0
  0
LINE
  5
14F4
330
18
100
AcDbEntity
  8
外形線
100
AcDbLine
 10
174.673728693978
 20
130.1379065816407
 30
0.0
 11
176.1737286939779
 21
130.1379065816408
 31
0.0
  0
LINE
  5
14F5
330
18
100
AcDbEntity
  8
外形線
  6
Continuous
 62
     4
100
AcDbLine
 10
190.323728693978
 20
155.1815609821781
 30
0.0
 11
194.1237286939779
 21
155.1815609821782
 31
0.0
  0
LINE
  5
14F6
330
18
100
AcDbEntity
  8
外形線
  6
Continuous
 62
     4
100
AcDbLine
 10
189.6737286939779
 20
156.1815609821781
 30
0.0
 11
194.8737286939779
 21
156.1815609821781
 31
0.0
  0
LINE
  5
14F7
330
18
100
AcDbEntity
  8
外形線
  6
Continuous
 62
     4
100
AcDbLine
 10
189.6737286939779
 20
158.1815609821781
 30
0.0
 11
194.8737286939779
 21
158.1815609821782
 31
0.0
  0
LINE
  5
14F8
330
18
100
AcDbEntity
  8
外形線
  6
Continuous
 62
     4
100
AcDbLine
 10
189.6737286939779
 20
157.1815609821781
 30
0.0
 11
194.8737286939779
 21
157.1815609821782
 31
0.0
  0
LINE
  5
14F9
330
18
100
AcDbEntity
  8
外形線
  6
Continuous
 62
     4
100
AcDbLine
 10
194.8737286939779
 20
177.3283234304888
 30
0.0
 11
189.6737286939779
 21
177.3283234304887
 31
0.0
  0
LINE
  5
14FA
330
18
100
AcDbEntity
  8
外形線
  6
Continuous
 62
     4
100
AcDbLine
 10
189.6737286939779
 20
154.1815609821781
 30
0.0
 11
194.8737286939779
 21
154.1815609821781
 31
0.0
  0
LINE
  5
14FB
330
18
100
AcDbEntity
  8
外形線
  6
Continuous
 62
     4
100
AcDbLine
 10
189.6737286939779
 20
153.1815609821781
 30
0.0
 11
194.8737286939779
 21
153.1815609821781
 31
0.0
  0
POINT
  5
14FC
330
18
100
AcDbEntity
  8
DEFPOINTS
  6
ByBlock
 62
     0
100
AcDbPoint
 10
197.173728693978
 20
155.1815609821781
 30
0.0
  0
LINE
  5
1508
330
18
100
AcDbEntity
  8
外形線
  6
Continuous
 62
     4
100
AcDbLine
 10
194.8737286939779
 20
181.3283234304887
 30
0.0
 11
189.6737286939779
 21
181.3283234304887
 31
0.0
  0
LINE
  5
1509
330
18
100
AcDbEntity
  8
外形線
  6
Continuous
 62
     4
100
AcDbLine
 10
194.8737286939779
 20
180.3283234304888
 30
0.0
 11
189.6737286939779
 21
180.3283234304888
 31
0.0
  0
LINE
  5
150A
330
18
100
AcDbEntity
  8
外形線
  6
Continuous
 62
     4
100
AcDbLine
 10
194.8737286939779
 20
179.3283234304888
 30
0.0
 11
189.6737286939779
 21
179.3283234304889
 31
0.0
  0
LINE
  5
150B
330
18
100
AcDbEntity
  8
外形線
  6
Continuous
 62
     4
100
AcDbLine
 10
194.8737286939779
 20
182.3283234304887
 30
0.0
 11
189.6737286939779
 21
182.3283234304887
 31
0.0
  0
LINE
  5
150C
330
18
100
AcDbEntity
  8
外形線
  6
Continuous
 62
     4
100
AcDbLine
 10
194.8737286939779
 20
178.3283234304888
 30
0.0
 11
189.6737286939779
 21
178.3283234304888
 31
0.0
  0
LINE
  5
150D
330
18
100
AcDbEntity
  8
外形線
100
AcDbLine
 10
194.5737286939779
 20
183.6315609821781
 30
0.0
 11
189.973728693978
 21
183.6315609821781
 31
0.0
  0
LINE
  5
150E
330
18
100
AcDbEntity
  8
外形線
100
AcDbLine
 10
195.7737286939779
 20
183.1315609821781
 30
0.0
 11
194.8737286939779
 21
183.1315609821781
 31
0.0
  0
LINE
  5
150F
330
18
100
AcDbEntity
  8
外形線
100
AcDbLine
 10
194.5737286939779
 20
183.6315609821781
 30
0.0
 11
194.8737286939779
 21
183.1315609821781
 31
0.0
  0
ARC
  5
1510
330
18
100
AcDbEntity
  8
外形線
100
AcDbCircle
 10
195.7737286939779
 20
182.6315609821781
 30
0.0
 40
0.5
100
AcDbArc
 50
26.81641167671469
 51
90.0
  0
LINE
  5
1511
330
18
100
AcDbEntity
  8
外形線
100
AcDbLine
 10
197.2737286939779
 20
180.7815609821782
 30
0.0
 11
196.219161871396
 21
182.8586937285076
 31
0.0
  0
LINE
  5
1512
330
18
100
AcDbEntity
  8
外形線
100
AcDbLine
 10
178.423728693978
 20
190.6815609821781
 30
0.0
 11
178.4237286939779
 21
184.6815609821781
 31
0.0
  0
LINE
  5
1514
330
18
100
AcDbEntity
  8
外形線
100
AcDbLine
 10
186.923728693978
 20
190.6815609821781
 30
0.0
 11
186.9237286939781
 21
184.6815609821781
 31
0.0
  0
LINE
  5
1518
330
18
100
AcDbEntity
  8
外形線
100
AcDbLine
 10
186.9237286939781
 20
184.6815609821781
 30
0.0
 11
178.4237286939779
 21
184.6815609821781
 31
0.0
  0
LINE
  5
1519
330
18
100
AcDbEntity
  8
外形線
100
AcDbLine
 10
188.073728693978
 20
181.1815609821781
 30
0.0
 11
176.1737286939779
 21
181.1815609821781
 31
0.0
  0
LINE
  5
151A
330
18
100
AcDbEntity
  8
外形線
100
AcDbLine
 10
186.673728693978
 20
184.681560982178
 30
0.0
 11
186.6737286939779
 21
181.1815609821781
 31
0.0
  0
LINE
  5
151B
330
18
100
AcDbEntity
  8
外形線
100
AcDbLine
 10
189.6737286939779
 20
183.3315609821781
 30
0.0
 11
189.6737286939779
 21
182.9815609821782
 31
0.0
  0
LINE
  5
151C
330
18
100
AcDbEntity
  8
外形線
100
AcDbLine
 10
189.6737286939779
 20
182.9815609821782
 30
0.0
 11
188.9737286939781
 21
182.9815609821782
 31
0.0
  0
LINE
  5
151D
330
18
100
AcDbEntity
  8
外形線
100
AcDbLine
 10
189.6737286939779
 20
183.3315609821781
 30
0.0
 11
189.973728693978
 21
183.6315609821781
 31
0.0
  0
LINE
  5
151E
330
18
100
AcDbEntity
  8
外形線
100
AcDbLine
 10
188.973728693978
 20
181.6815609821781
 30
0.0
 11
188.073728693978
 21
181.6815609821781
 31
0.0
  0
LINE
  5
151F
330
18
100
AcDbEntity
  8
外形線
100
AcDbLine
 10
178.6737286939779
 20
184.6815609821781
 30
0.0
 11
178.673728693978
 21
181.1815609821781
 31
0.0
  0
LINE
  5
1520
330
18
100
AcDbEntity
  8
外形線
100
AcDbLine
 10
174.673728693978
 20
180.2252153827155
 30
0.0
 11
176.1737286939779
 21
180.2252153827155
 31
0.0
  0
LINE
  5
1521
330
18
100
AcDbEntity
  8
外形線
100
AcDbLine
 10
185.6737286939781
 20
199.6815609821781
 30
0.0
 11
179.6737286939779
 21
199.6815609821781
 31
0.0
  0
LINE
  5
1522
330
18
100
AcDbEntity
  8
外形線
100
AcDbLine
 10
186.673728693978
 20
198.6815609821782
 30
0.0
 11
178.6737286939779
 21
198.6815609821781
 31
0.0
  0
LINE
  5
1523
330
18
100
AcDbEntity
  8
外形線
100
AcDbLine
 10
186.923728693978
 20
190.6815609821781
 30
0.0
 11
178.423728693978
 21
190.6815609821781
 31
0.0
  0
LINE
  5
1524
330
18
100
AcDbEntity
  8
外形線
100
AcDbLine
 10
186.673728693978
 20
198.6815609821782
 30
0.0
 11
186.6737286939781
 21
190.6815609821781
 31
0.0
  0
LINE
  5
1525
330
18
100
AcDbEntity
  8
外形線
100
AcDbLine
 10
185.6737286939781
 20
199.6815609821781
 30
0.0
 11
186.6737286939781
 21
198.6815609821781
 31
0.0
  0
LINE
  5
1526
330
18
100
AcDbEntity
  8
外形線
100
AcDbLine
 10
178.6737286939779
 20
198.6815609821781
 30
0.0
 11
178.6737286939779
 21
190.6815609821781
 31
0.0
  0
LINE
  5
1527
330
18
100
AcDbEntity
  8
外形線
100
AcDbLine
 10
179.6737286939779
 20
199.6815609821781
 30
0.0
 11
178.6737286939779
 21
198.6815609821781
 31
0.0
  0
DIMENSION
  5
1528
330
18
100
AcDbEntity
  8
外形線
100
AcDbDimension
  2
*D17
 10
188.1737286939779
 20
71.21937136569329
 30
0.0
 11
182.6737286939779
 21
73.09437136569329
 31
0.0
 70
    32
 71
     5
 42
11.0
  3
STYLE3
100
AcDbAlignedDimension
 13
177.173728693978
 23
93.18156098217821
 33
0.0
 14
188.1737286939779
 24
93.18156098217821
 34
0.0
100
AcDbRotatedDimension
1001
ACAD
1000
DSTYLE
1002
{
1070
   271
1070
     2
1002
}
  0
DIMENSION
  5
1529
330
18
100
AcDbEntity
  8
外形線
100
AcDbDimension
  2
*D18
 10
300.8011416931723
 20
71.21937136569329
 30
0.0
 11
290.7011416931723
 21
73.09437136569329
 31
0.0
 70
    32
  1
20
 71
     5
 42
20.19999999999999
  3
STYLE3
100
AcDbAlignedDimension
 13
280.6011416931723
 23
77.89197659006447
 33
0.0
 14
300.8011416931723
 24
95.1815609821782
 34
0.0
100
AcDbRotatedDimension
1001
ACAD
1000
DSTYLE
1002
{
1070
   271
1070
     2
1002
}
  0
DIMENSION
  5
152A
330
18
100
AcDbEntity
  8
外形線
100
AcDbDimension
  2
*D19
 10
255.0286278846704
 20
79.18156098217818
 30
0.0
 11
253.1536278846704
 21
81.18156098217822
 31
0.0
 70
    32
 71
     5
 42
4.0
  3
STYLE3
100
AcDbAlignedDimension
 13
277.3511416931723
 23
83.18156098217817
 33
0.0
 14
270.3832062582291
 24
79.18156098217818
 34
0.0
 50
90.0
100
AcDbRotatedDimension
1001
ACAD
1000
DSTYLE
1002
{
1070
    75
1070
     1
1070
   271
1070
     2
1070
   279
1070
     1
1002
}
  0
LINE
  5
1571
330
18
100
AcDbEntity
  8
外形線
100
AcDbLine
 10
304.5702781268149
 20
182.1924815726284
 30
0.0
 11
317.4193344185469
 21
185.6678962290176
 31
0.0
  0
LINE
  5
1572
330
18
100
AcDbEntity
  8
外形線
100
AcDbLine
 10
302.683146144838
 20
180.1281486463971
 30
0.0
 11
317.8109811587666
 21
184.2199277104111
 31
0.0
  0
CIRCLE
  5
1573
330
18
100
AcDbEntity
  8
外形線
100
AcDbCircle
 10
280.6011416931723
 20
155.1815609821781
 30
0.0
 40
28.5
  0
ARC
  5
1574
330
18
100
AcDbEntity
  8
外形線
100
AcDbCircle
 10
297.8011416931723
 20
107.6815609821782
 30
0.0
 40
16.5
100
AcDbArc
 50
354.4599027282282
 51
84.27465976477021
  0
ARC
  5
1575
330
18
100
AcDbEntity
  8
外形線
100
AcDbCircle
 10
297.8011416931723
 20
97.18156098217818
 30
0.0
 40
18.0
100
AcDbArc
 50
231.0575587310185
 51
309.4716390250991
  0
ARC
  5
1576
330
18
100
AcDbEntity
  8
外形線
100
AcDbCircle
 10
280.6011416931723
 20
155.1815609821782
 30
0.0
 40
31.0
100
AcDbArc
 50
282.6356250930212
 51
9.616271099638414
  0
ARC
  5
1577
330
18
100
AcDbEntity
  8
外形線
100
AcDbCircle
 10
317.1011416931723
 20
147.1815609821782
 30
0.0
 40
22.0
100
AcDbArc
 50
359.8960409502883
 51
113.2588226306386
  0
LINE
  5
157B
330
18
100
AcDbEntity
  8
中心線
 48
0.5
100
AcDbLine
 10
247.2485014212342
 20
155.1815609821781
 30
0.0
 11
312.210253771486
 21
155.1815609821781
 31
0.0
  0
LINE
  5
157C
330
18
100
AcDbEntity
  8
外形線
100
AcDbLine
 10
299.1979612291303
 20
176.7780491954735
 30
0.0
 11
303.616324241088
 21
181.6112947409556
 31
0.0
  0
LINE
  5
157D
330
18
100
AcDbEntity
  8
外形線
100
AcDbLine
 10
302.3021970125915
 20
173.656251724475
 30
0.0
 11
304.9976201056469
 21
180.7541679074694
 31
0.0
  0
LINE
  5
157E
330
18
100
AcDbEntity
  8
目盛
100
AcDbLine
 10
279.8237254059886
 20
179.91934835123
 30
0.0
 11
279.8724120825597
 21
178.3701131826631
 31
0.0
  0
LINE
  5
157F
330
18
100
AcDbEntity
  8
目盛
100
AcDbLine
 10
275.2020964686078
 20
179.3355008401622
 30
0.0
 11
275.5402184927724
 21
177.8228298591571
 31
0.0
  0
LINE
  5
1580
330
18
100
AcDbEntity
  8
目盛
100
AcDbLine
 10
275.9634541571756
 20
179.4931704377132
 30
0.0
 11
276.2538951947834
 21
177.9706251990837
 31
0.0
  0
LINE
  5
1581
330
18
100
AcDbEntity
  8
目盛
100
AcDbLine
 10
277.4991441624557
 20
179.7363998397115
 30
0.0
 11
277.6934106744804
 21
178.198622052674
 31
0.0
  0
LINE
  5
1582
330
18
100
AcDbEntity
  8
目盛
100
AcDbLine
 10
278.2719609385391
 20
179.8217196061043
 30
0.0
 11
278.4178288241828
 21
178.2785985609696
 31
0.0
  0
LINE
  5
1583
330
18
100
AcDbEntity
  8
目盛
100
AcDbLine
 10
279.0470763348218
 20
179.8827225107778
 30
0.0
 11
279.1444016400922
 21
178.335781081714
 31
0.0
  0
LINE
  5
1584
330
18
100
AcDbEntity
  8
目盛
100
AcDbLine
 10
276.7293886834265
 20
179.6268474119079
 30
0.0
 11
277.097009676271
 21
177.3057798115092
 31
0.0
  0
LINE
  5
1585
330
18
100
AcDbEntity
  8
目盛
100
AcDbLine
 10
274.4460669858422
 20
179.1539942201118
 30
0.0
 11
274.8315363109476
 21
177.6526903203624
 31
0.0
  0
LINE
  5
1586
330
18
100
AcDbEntity
  8
目盛
100
AcDbLine
 10
286.7562164005025
 20
179.1539942201118
 30
0.0
 11
286.3707470753969
 21
177.6526903203624
 31
0.0
  0
LINE
  5
1587
330
18
100
AcDbEntity
  8
目盛
100
AcDbLine
 10
286.0001869177367
 20
179.3355008401621
 30
0.0
 11
285.6620648935721
 21
177.8228298591571
 31
0.0
  0
LINE
  5
1588
330
18
100
AcDbEntity
  8
目盛
100
AcDbLine
 10
285.238829229169
 20
179.4931704377132
 30
0.0
 11
284.9483881915611
 21
177.9706251990837
 31
0.0
  0
LINE
  5
1589
330
18
100
AcDbEntity
  8
目盛
100
AcDbLine
 10
284.472894702918
 20
179.6268474119078
 30
0.0
 11
284.1052737100735
 21
177.3057798115092
 31
0.0
  0
LINE
  5
158A
330
18
100
AcDbEntity
  8
目盛
100
AcDbLine
 10
283.7031392238888
 20
179.7363998397115
 30
0.0
 11
283.5088727118641
 21
178.198622052674
 31
0.0
  0
LINE
  5
158B
330
18
100
AcDbEntity
  8
目盛
100
AcDbLine
 10
282.9303224478055
 20
179.8217196061044
 30
0.0
 11
282.7844545621618
 21
178.2785985609696
 31
0.0
  0
LINE
  5
158C
330
18
100
AcDbEntity
  8
目盛
100
AcDbLine
 10
282.1552070515228
 20
179.8827225107778
 30
0.0
 11
282.0578817462524
 21
178.335781081714
 31
0.0
  0
LINE
  5
158D
330
18
100
AcDbEntity
  8
目盛
100
AcDbLine
 10
281.378557980356
 20
179.91934835123
 30
0.0
 11
281.3298713037849
 21
178.3701131826631
 31
0.0
  0
LINE
  5
158E
330
18
100
AcDbEntity
  8
目盛
100
AcDbLine
 10
280.6011416931723
 20
179.9315609821781
 30
0.0
 11
280.6011416931723
 21
176.9315609821781
 31
0.0
  0
CIRCLE
  5
158F
330
18
100
AcDbEntity
  8
外形線
100
AcDbCircle
 10
280.6011416931723
 20
155.1815609821781
 30
0.0
 40
24.75
  0
LINE
  5
1597
330
18
100
AcDbEntity
  8
中心線
 48
0.5
100
AcDbLine
 10
280.6011416931723
 20
202.4030246463559
 30
0.0
 11
280.6011416931723
 21
77.89197659006447
 31
0.0
  0
LINE
  5
1598
330
18
100
AcDbEntity
  8
外形線
100
AcDbLine
 10
177.173728693978
 20
129.1815609821781
 30
0.0
 11
177.173728693978
 21
92.18156098217821
 31
0.0
  0
LINE
  5
1599
330
18
100
AcDbEntity
  8
外形線
100
AcDbLine
 10
186.6737286939777
 20
128.6815609821781
 30
0.0
 11
186.6737286939777
 21
128.1815609821781
 31
0.0
  0
LINE
  5
159A
330
18
100
AcDbEntity
  8
外形線
100
AcDbLine
 10
178.6737286939779
 20
128.681560982178
 30
0.0
 11
178.6737286939779
 21
128.1815609821781
 31
0.0
  0
LINE
  5
159F
330
18
100
AcDbEntity
  8
中心線
 48
0.5
100
AcDbLine
 10
172.2862121378713
 20
119.1815609821781
 30
0.0
 11
192.7147217323129
 21
119.1815609821781
 31
0.0
  0
LINE
  5
15A3
330
18
100
AcDbEntity
  8
外形線
100
AcDbLine
 10
188.1737286939779
 20
128.6815609821781
 30
0.0
 11
188.1737286939779
 21
92.18156098217821
 31
0.0
  0
LINE
  5
15A6
330
18
100
AcDbEntity
  8
外形線
100
AcDbLine
 10
178.3737286939779
 20
93.18156098217821
 30
0.0
 11
178.3737286939779
 21
84.18156098217819
 31
0.0
  0
LINE
  5
15A7
330
18
100
AcDbEntity
  8
外形線
100
AcDbLine
 10
186.973728693978
 20
93.18156098217821
 30
0.0
 11
186.973728693978
 21
84.18156098217819
 31
0.0
  0
LINE
  5
15A8
330
18
100
AcDbEntity
  8
外形線
100
AcDbLine
 10
185.973728693978
 20
83.18156098217817
 30
0.0
 11
179.3737286939779
 21
83.18156098217817
 31
0.0
  0
ARC
  5
15A9
330
18
100
AcDbEntity
  8
外形線
100
AcDbCircle
 10
179.3737286939779
 20
84.18156098217819
 30
0.0
 40
1.0
100
AcDbArc
 50
180.0
 51
270.0
  0
ARC
  5
15AA
330
18
100
AcDbEntity
  8
外形線
100
AcDbCircle
 10
185.973728693978
 20
84.18156098217819
 30
0.0
 40
1.0
100
AcDbArc
 50
270.0
 51
0.0
  0
LINE
  5
15AB
330
18
100
AcDbEntity
  8
外形線
100
AcDbLine
 10
179.6737286939779
 20
82.68156098217819
 30
0.0
 11
185.673728693978
 21
82.68156098217819
 31
0.0
  0
ARC
  5
15AC
330
18
100
AcDbEntity
  8
外形線
100
AcDbCircle
 10
182.6737286939779
 20
84.63906098217819
 30
0.0
 40
3.4575
100
AcDbArc
 50
214.4829187978802
 51
325.5170812021199
  0
LINE
  5
15AD
330
18
100
AcDbEntity
  8
外形線
100
AcDbLine
 10
179.6737286939779
 20
83.18156098217817
 30
0.0
 11
179.6737286939779
 21
82.68156098217819
 31
0.0
  0
ARC
  5
15AE
330
18
100
AcDbEntity
  8
外形線
100
AcDbCircle
 10
182.6737286939779
 20
80.93156098217818
 30
0.0
 40
1.75
100
AcDbArc
 50
180.0
 51
0.0
  0
LINE
  5
15AF
330
18
100
AcDbEntity
  8
外形線
100
AcDbLine
 10
180.923728693978
 20
81.65714779598379
 30
0.0
 11
180.923728693978
 21
80.93156098217818
 31
0.0
  0
LINE
  5
15B0
330
18
100
AcDbEntity
  8
外形線
100
AcDbLine
 10
184.423728693978
 20
81.65714779598379
 30
0.0
 11
184.423728693978
 21
80.93156098217818
 31
0.0
  0
LINE
  5
15B1
330
18
100
AcDbEntity
  8
外形線
100
AcDbLine
 10
185.673728693978
 20
83.18156098217817
 30
0.0
 11
185.673728693978
 21
82.68156098217819
 31
0.0
  0
LINE
  5
15B2
330
18
100
AcDbEntity
  8
外形線
 62
     4
100
AcDbLine
 10
188.1737286939779
 20
93.18156098217821
 30
0.0
 11
177.173728693978
 21
93.18156098217821
 31
0.0
  0
LINE
  5
15B3
330
18
100
AcDbEntity
  8
外形線
100
AcDbLine
 10
178.3737286939779
 20
91.18156098217822
 30
0.0
 11
178.173728693978
 21
91.18156098217822
 31
0.0
  0
ARC
  5
15B4
330
18
100
AcDbEntity
  8
外形線
100
AcDbCircle
 10
178.173728693978
 20
92.18156098217821
 30
0.0
 40
1.0
100
AcDbArc
 50
180.0
 51
270.0
  0
LINE
  5
15B5
330
18
100
AcDbEntity
  8
外形線
100
AcDbLine
 10
184.973728693978
 20
96.68156098217815
 30
0.0
 11
185.173728693978
 21
96.48156098217818
 31
0.0
  0
LINE
  5
15B6
330
18
100
AcDbEntity
  8
外形線
100
AcDbLine
 10
180.1737286939779
 20
96.48156098217818
 30
0.0
 11
180.3737286939779
 21
96.68156098217815
 31
0.0
  0
LINE
  5
15B7
330
18
100
AcDbEntity
  8
外形線
100
AcDbLine
 10
179.6737286939779
 20
93.68156098217815
 30
0.0
 11
185.673728693978
 21
93.68156098217815
 31
0.0
  0
LINE
  5
15B8
330
18
100
AcDbEntity
  8
外形線
100
AcDbLine
 10
179.6737286939779
 20
93.68156098217815
 30
0.0
 11
179.6737286939779
 21
93.18156098217816
 31
0.0
  0
LINE
  5
15B9
330
18
100
AcDbEntity
  8
外形線
100
AcDbLine
 10
180.1737286939779
 20
96.48156098217818
 30
0.0
 11
180.1737286939779
 21
93.68156098217815
 31
0.0
  0
LINE
  5
15BA
330
18
100
AcDbEntity
  8
外形線
100
AcDbLine
 10
185.673728693978
 20
93.68156098217815
 30
0.0
 11
185.673728693978
 21
93.18156098217816
 31
0.0
  0
LINE
  5
15BB
330
18
100
AcDbEntity
  8
外形線
100
AcDbLine
 10
185.173728693978
 20
96.48156098217818
 30
0.0
 11
185.173728693978
 21
93.68156098217815
 31
0.0
  0
ARC
  5
15BC
330
18
100
AcDbEntity
  8
外形線
100
AcDbCircle
 10
187.173728693978
 20
92.18156098217821
 30
0.0
 40
1.0
100
AcDbArc
 50
270.0
 51
0.0
  0
LINE
  5
15BD
330
18
100
AcDbEntity
  8
外形線
100
AcDbLine
 10
187.173728693978
 20
91.18156098217822
 30
0.0
 11
186.973728693978
 21
91.18156098217822
 31
0.0
  0
LINE
  5
15BE
330
18
100
AcDbEntity
  8
外形線
100
AcDbLine
 10
180.423728693978
 20
101.8815609821781
 30
0.0
 11
184.923728693978
 21
101.8815609821781
 31
0.0
  0
LINE
  5
15BF
330
18
100
AcDbEntity
  8
外形線
100
AcDbLine
 10
180.3737286939779
 20
96.68156098217815
 30
0.0
 11
184.973728693978
 21
96.68156098217815
 31
0.0
  0
LINE
  5
15C0
330
18
100
AcDbEntity
  8
外形線
100
AcDbLine
 10
180.1737286939779
 20
99.68156098217816
 30
0.0
 11
185.173728693978
 21
99.68156098217816
 31
0.0
  0
LINE
  5
15C1
330
18
100
AcDbEntity
  8
外形線
100
AcDbLine
 10
180.1737286939779
 20
101.5815609821781
 30
0.0
 11
180.473728693978
 21
101.8815609821781
 31
0.0
  0
LINE
  5
15C2
330
18
100
AcDbEntity
  8
外形線
100
AcDbLine
 10
180.1737286939779
 20
96.88156098217815
 30
0.0
 11
180.3737286939779
 21
96.68156098217815
 31
0.0
  0
LINE
  5
15C3
330
18
100
AcDbEntity
  8
外形線
100
AcDbLine
 10
180.1737286939779
 20
96.88156098217815
 30
0.0
 11
180.1737286939779
 21
99.68156098217816
 31
0.0
  0
LINE
  5
15C4
330
18
100
AcDbEntity
  8
外形線
100
AcDbLine
 10
180.1737286939779
 20
99.68156098217816
 30
0.0
 11
180.1737286939779
 21
101.5815609821781
 31
0.0
  0
LINE
  5
15C5
330
18
100
AcDbEntity
  8
外形線
100
AcDbLine
 10
184.873728693978
 20
101.8815609821781
 30
0.0
 11
185.173728693978
 21
101.5815609821781
 31
0.0
  0
LINE
  5
15C6
330
18
100
AcDbEntity
  8
外形線
100
AcDbLine
 10
184.973728693978
 20
96.68156098217815
 30
0.0
 11
185.173728693978
 21
96.88156098217815
 31
0.0
  0
LINE
  5
15C7
330
18
100
AcDbEntity
  8
外形線
100
AcDbLine
 10
185.173728693978
 20
96.88156098217815
 30
0.0
 11
185.173728693978
 21
99.68156098217816
 31
0.0
  0
LINE
  5
15C8
330
18
100
AcDbEntity
  8
外形線
100
AcDbLine
 10
185.173728693978
 20
99.68156098217816
 30
0.0
 11
185.173728693978
 21
101.5815609821781
 31
0.0
  0
LINE
  5
15C9
330
18
100
AcDbEntity
  8
外形線
100
AcDbLine
 10
181.9237286939779
 20
120.6815609821781
 30
0.0
 11
181.9237286939779
 21
110.1815609821781
 31
0.0
  0
LINE
  5
15CA
330
18
100
AcDbEntity
  8
外形線
100
AcDbLine
 10
183.423728693978
 20
128.1815609821781
 30
0.0
 11
183.423728693978
 21
110.1815609821781
 31
0.0
  0
LINE
  5
15CB
330
18
100
AcDbEntity
  8
外形線
100
AcDbLine
 10
177.173728693978
 20
110.181560982178
 30
0.0
 11
181.9237286939779
 21
110.1815609821781
 31
0.0
  0
LINE
  5
15D2
330
18
100
AcDbEntity
  8
外形線
100
AcDbLine
 10
188.1737286939779
 20
110.181560982178
 30
0.0
 11
183.423728693978
 21
110.1815609821781
 31
0.0
  0
LINE
  5
15D5
330
18
100
AcDbEntity
  8
隠れ線2
 48
0.4
100
AcDbLine
 10
181.9237286939779
 20
117.6815609821782
 30
0.0
 11
177.173728693978
 21
117.6815609821781
 31
0.0
  0
LINE
  5
15D6
330
18
100
AcDbEntity
  8
隠れ線2
 48
0.4
100
AcDbLine
 10
181.9237286939779
 20
118.1815609821781
 30
0.0
 11
177.173728693978
 21
118.1815609821781
 31
0.0
  0
LINE
  5
15D7
330
18
100
AcDbEntity
  8
隠れ線2
 48
0.4
100
AcDbLine
 10
181.9237286939779
 20
120.1815609821781
 30
0.0
 11
177.173728693978
 21
120.1815609821781
 31
0.0
  0
LINE
  5
15D8
330
18
100
AcDbEntity
  8
隠れ線2
 48
0.4
100
AcDbLine
 10
181.9237286939779
 20
120.6815609821781
 30
0.0
 11
177.173728693978
 21
120.6815609821781
 31
0.0
  0
LINE
  5
15D9
330
18
100
AcDbEntity
  8
外形線
100
AcDbLine
 10
177.173728693978
 20
128.1815609821781
 30
0.0
 11
181.9237286939779
 21
128.1815609821781
 31
0.0
  0
LINE
  5
15DA
330
18
100
AcDbEntity
  8
隠れ線2
 48
0.4
100
AcDbLine
 10
185.673728693978
 20
122.1815609821781
 30
0.0
 11
185.673728693978
 21
116.1815609821781
 31
0.0
  0
LINE
  5
15DB
330
18
100
AcDbEntity
  8
外形線
100
AcDbLine
 10
181.9237286939779
 20
128.1815609821781
 30
0.0
 11
181.9237286939779
 21
120.6815609821781
 31
0.0
  0
LINE
  5
15DC
330
18
100
AcDbEntity
  8
隠れ線2
 48
0.4
100
AcDbLine
 10
185.673728693978
 20
117.6815609821781
 30
0.0
 11
183.423728693978
 21
117.6815609821782
 31
0.0
  0
LINE
  5
15DD
330
18
100
AcDbEntity
  8
隠れ線2
 48
0.4
100
AcDbLine
 10
185.673728693978
 20
118.1815609821781
 30
0.0
 11
183.423728693978
 21
118.1815609821781
 31
0.0
  0
LINE
  5
15DE
330
18
100
AcDbEntity
  8
隠れ線2
 48
0.4
100
AcDbLine
 10
185.673728693978
 20
120.1815609821781
 30
0.0
 11
183.423728693978
 21
120.1815609821781
 31
0.0
  0
LINE
  5
15DF
330
18
100
AcDbEntity
  8
隠れ線2
 48
0.4
100
AcDbLine
 10
185.673728693978
 20
120.6815609821781
 30
0.0
 11
183.423728693978
 21
120.6815609821781
 31
0.0
  0
LINE
  5
15E0
330
18
100
AcDbEntity
  8
外形線
100
AcDbLine
 10
183.423728693978
 20
117.6815609821782
 30
0.0
 11
181.9237286939779
 21
117.6815609821781
 31
0.0
  0
LINE
  5
15E1
330
18
100
AcDbEntity
  8
中心線
100
AcDbLine
 10
183.423728693978
 20
118.1815609821781
 30
0.0
 11
181.9237286939779
 21
118.1815609821781
 31
0.0
  0
LINE
  5
15E2
330
18
100
AcDbEntity
  8
中心線
100
AcDbLine
 10
183.423728693978
 20
120.1815609821781
 30
0.0
 11
181.9237286939779
 21
120.1815609821781
 31
0.0
  0
LINE
  5
15E3
330
18
100
AcDbEntity
  8
外形線
100
AcDbLine
 10
183.423728693978
 20
120.6815609821781
 30
0.0
 11
181.9237286939779
 21
120.6815609821781
 31
0.0
  0
LINE
  5
15E4
330
18
100
AcDbEntity
  8
隠れ線2
 48
0.4
100
AcDbLine
 10
185.673728693978
 20
116.1815609821781
 30
0.0
 11
188.1737286939779
 21
116.1815609821781
 31
0.0
  0
LINE
  5
15E5
330
18
100
AcDbEntity
  8
外形線
100
AcDbLine
 10
188.1737286939779
 20
128.1815609821781
 30
0.0
 11
183.423728693978
 21
128.1815609821781
 31
0.0
  0
LINE
  5
15E6
330
18
100
AcDbEntity
  8
隠れ線2
 48
0.4
100
AcDbLine
 10
185.673728693978
 20
122.1815609821781
 30
0.0
 11
188.1737286939779
 21
122.1815609821781
 31
0.0
  0
LINE
  5
15E7
330
18
100
AcDbEntity
  8
外形線
  6
CENTER2
100
AcDbLine
 10
187.6737286939779
 20
128.1815609821781
 30
0.0
 11
188.1737286939779
 21
128.1815609821781
 31
0.0
  0
POINT
  5
160D
330
18
100
AcDbEntity
  8
DEFPOINTS
  6
ByBlock
 62
     0
100
AcDbPoint
 10
197.1737286939779
 20
153.1815609821781
 30
0.0
  0
ARC
  5
160F
330
18
100
AcDbEntity
  8
外形線
100
AcDbCircle
 10
267.1011416931723
 20
127.1815609821781
 30
0.0
 40
1.0
100
AcDbArc
 50
89.99999999999992
 51
180.0
  0
ARC
  5
1610
330
18
100
AcDbEntity
  8
外形線
100
AcDbCircle
 10
299.7464582568417
 20
127.0842861378647
 30
0.0
 40
3.0
100
AcDbArc
 50
124.2702855343256
 51
264.2746597647699
  0
LINE
  5
1613
330
18
100
AcDbEntity
  8
中心線
 48
0.4
100
AcDbLine
 10
267.9115147829076
 20
119.1815609821781
 30
0.0
 11
280.1659406054686
 21
119.1815609821781
 31
0.0
  0
LINE
  5
1614
330
18
100
AcDbEntity
  8
外形線
100
AcDbLine
 10
267.1011416931723
 20
110.1815609821782
 30
0.0
 11
298.8011416931723
 21
110.1815609821782
 31
0.0
  0
LINE
  5
1615
330
18
100
AcDbEntity
  8
外形線
100
AcDbLine
 10
267.1011416931723
 20
128.1815609821781
 30
0.0
 11
271.476997897725
 21
128.1815609821781
 31
0.0
  0
LINE
  5
1616
330
18
100
AcDbEntity
  8
外形線
100
AcDbLine
 10
266.1011416931723
 20
127.1815609821781
 30
0.0
 11
266.1011416931723
 21
111.1815609821782
 31
0.0
  0
ARC
  5
1617
330
18
100
AcDbEntity
  8
外形線
100
AcDbCircle
 10
267.1011416931723
 20
111.1815609821782
 30
0.0
 40
1.0
100
AcDbArc
 50
180.0
 51
270.0
  0
LINE
  5
1618
330
18
100
AcDbEntity
  8
外形線
100
AcDbLine
 10
278.3511416931723
 20
109.6815609821781
 30
0.0
 11
278.3511416931723
 21
101.8815609821782
 31
0.0
  0
LINE
  5
1619
330
18
100
AcDbEntity
  8
外形線
100
AcDbLine
 10
282.8511416931723
 20
109.6815609821781
 30
0.0
 11
282.8511416931723
 21
101.8815609821782
 31
0.0
  0
LINE
  5
161A
330
18
100
AcDbEntity
  8
外形線
100
AcDbLine
 10
302.8011416931723
 20
108.1815609821782
 30
0.0
 11
302.8011416931723
 21
95.1815609821782
 31
0.0
  0
LINE
  5
161B
330
18
100
AcDbEntity
  8
外形線
100
AcDbLine
 10
300.8011416931723
 20
108.1815609821782
 30
0.0
 11
300.8011416931723
 21
95.1815609821782
 31
0.0
  0
LINE
  5
161D
330
18
100
AcDbEntity
  8
外形線
100
AcDbLine
 10
285.8511416931723
 20
91.18156098217818
 30
0.0
 11
298.8011416931723
 21
91.18156098217822
 31
0.0
  0
LINE
  5
161E
330
18
100
AcDbEntity
  8
外形線
100
AcDbLine
 10
277.3511416931723
 20
93.18156098217817
 30
0.0
 11
298.8011416931723
 21
93.18156098217821
 31
0.0
  0
LINE
  5
161F
330
18
100
AcDbEntity
  8
外形線
100
AcDbLine
 10
276.3511416931723
 20
92.18156098217818
 30
0.0
 11
276.3511416931723
 21
84.18156098217819
 31
0.0
  0
ARC
  5
1620
330
18
100
AcDbEntity
  8
外形線
100
AcDbCircle
 10
285.8511416931723
 20
90.18156098217819
 30
0.0
 40
1.0
100
AcDbArc
 50
90.00000000000005
 51
180.0
  0
ARC
  5
1621
330
18
100
AcDbEntity
  8
外形線
100
AcDbCircle
 10
280.6011416931723
 20
84.63906098217819
 30
0.0
 40
3.4575
100
AcDbArc
 50
214.4829187978802
 51
325.5170812021199
  0
LINE
  5
1622
330
18
100
AcDbEntity
  8
外形線
100
AcDbLine
 10
277.6011416931723
 20
82.68156098217819
 30
0.0
 11
283.6011416931723
 21
82.68156098217819
 31
0.0
  0
LINE
  5
1623
330
18
100
AcDbEntity
  8
外形線
100
AcDbLine
 10
277.3511416931723
 20
83.18156098217817
 30
0.0
 11
286.4874331941875
 21
83.18156098217821
 31
0.0
  0
ARC
  5
1624
330
18
100
AcDbEntity
  8
外形線
100
AcDbCircle
 10
277.3511416931723
 20
84.18156098217819
 30
0.0
 40
1.0
100
AcDbArc
 50
180.0
 51
270.0000000000001
  0
LINE
  5
1625
330
18
100
AcDbEntity
  8
外形線
100
AcDbLine
 10
277.6011416931723
 20
83.18156098217817
 30
0.0
 11
277.6011416931723
 21
82.68156098217819
 31
0.0
  0
LINE
  5
1626
330
18
100
AcDbEntity
  8
外形線
100
AcDbLine
 10
284.8511416931723
 20
90.18156098217819
 30
0.0
 11
284.8511416931723
 21
83.18156098217821
 31
0.0
  0
LINE
  5
1627
330
18
100
AcDbEntity
  8
外形線
100
AcDbLine
 10
283.6011416931723
 20
83.18156098217817
 30
0.0
 11
283.6011416931723
 21
82.68156098217819
 31
0.0
  0
ARC
  5
162F
330
18
100
AcDbEntity
  8
外形線
100
AcDbCircle
 10
277.3511416931723
 20
92.18156098217818
 30
0.0
 40
1.0
100
AcDbArc
 50
90.00000000000003
 51
180.0
  0
ARC
  5
163B
330
18
100
AcDbEntity
  8
外形線
100
AcDbCircle
 10
298.8011416931723
 20
95.1815609821782
 30
0.0
 40
4.0
100
AcDbArc
 50
270.0
 51
0.0
  0
ARC
  5
163C
330
18
100
AcDbEntity
  8
外形線
100
AcDbCircle
 10
298.8011416931723
 20
95.1815609821782
 30
0.0
 40
2.0
100
AcDbArc
 50
270.0
 51
0.0
  0
LINE
  5
163D
330
18
100
AcDbEntity
  8
外形線
100
AcDbLine
 10
287.6011416931723
 20
112.1815609821782
 30
0.0
 11
298.8011416931723
 21
112.1815609821782
 31
0.0
  0
CIRCLE
  5
1640
330
18
100
AcDbEntity
  8
外形線
100
AcDbCircle
 10
274.1011416931723
 20
119.1815609821781
 30
0.0
 40
4.0
  0
LINE
  5
1641
330
18
100
AcDbEntity
  8
中心線
 48
0.4
100
AcDbLine
 10
274.1011416931723
 20
125.1395893038053
 30
0.0
 11
274.1011416931723
 21
112.8048450924242
 31
0.0
  0
LINE
  5
1642
330
18
100
AcDbEntity
  8
外形線
100
AcDbLine
 10
286.6011416931723
 20
123.9565709901862
 30
0.0
 11
286.6011416931723
 21
113.1815609821781
 31
0.0
  0
LINE
  5
1645
330
18
100
AcDbEntity
  8
外形線
 62
     4
100
AcDbLine
 10
276.7011416931723
 20
109.9815609821782
 30
0.0
 11
284.5011416931722
 21
109.9815609821781
 31
0.0
  0
LINE
  5
1646
330
18
100
AcDbEntity
  8
外形線
100
AcDbLine
 10
284.2011416931722
 20
109.6815609821781
 30
0.0
 11
277.0011416931724
 21
109.6815609821781
 31
0.0
  0
LINE
  5
1648
330
18
100
AcDbEntity
  8
外形線
100
AcDbLine
 10
276.7011416931723
 20
109.9815609821782
 30
0.0
 11
277.0011416931724
 21
109.6815609821781
 31
0.0
  0
LINE
  5
1649
330
18
100
AcDbEntity
  8
外形線
100
AcDbLine
 10
276.7011416931724
 20
110.1815609821782
 30
0.0
 11
276.7011416931723
 21
109.9815609821782
 31
0.0
  0
LINE
  5
164B
330
18
100
AcDbEntity
  8
外形線
 48
0.5
100
AcDbLine
 10
284.2011416931722
 20
109.6815609821781
 30
0.0
 11
284.5011416931722
 21
109.9815609821781
 31
0.0
  0
LINE
  5
164C
330
18
100
AcDbEntity
  8
外形線
100
AcDbLine
 10
284.5011416931722
 20
110.1815609821782
 30
0.0
 11
284.5011416931722
 21
109.9815609821781
 31
0.0
  0
ARC
  5
164D
330
18
100
AcDbEntity
  8
外形線
100
AcDbCircle
 10
287.6011416931723
 20
113.1815609821781
 30
0.0
 40
1.0
100
AcDbArc
 50
180.0000000000002
 51
270.0
  0
LWPOLYLINE
  5
164E
330
18
100
AcDbEntity
  8
外形線
100
AcDbPolyline
 90
        6
 70
     1
 43
0.0
 10
276.1011416931723
 20
120.3362615205574
 10
274.1011416931723
 20
121.4909620589366
 10
272.1011416931723
 20
120.3362615205574
 10
272.1011416931723
 20
118.0268604437989
 10
274.1011416931723
 20
116.8721599054196
 10
276.1011416931723
 20
118.0268604437989
  0
ARC
  5
164F
330
18
100
AcDbEntity
  8
外形線
100
AcDbCircle
 10
287.6011416931723
 20
123.9565709901862
 30
0.0
 40
1.0
100
AcDbArc
 50
102.6356250930213
 51
180.0
  0
ARC
  5
1650
330
18
100
AcDbEntity
  8
外形線
100
AcDbCircle
 10
298.8011416931723
 20
108.1815609821782
 30
0.0
 40
4.0
100
AcDbArc
 50
0.0
 51
90.0
  0
ARC
  5
1651
330
18
100
AcDbEntity
  8
外形線
100
AcDbCircle
 10
298.8011416931723
 20
108.1815609821782
 30
0.0
 40
2.0
100
AcDbArc
 50
0.0
 51
90.0
  0
TEXT
  5
1652
330
18
100
AcDbEntity
  8
文字
100
AcDbText
 10
267.4347772709491
 20
170.1172064776035
 30
0.0
 40
2.5
  1
80
  7
STYLE3
100
AcDbText
  0
TEXT
  5
1653
330
18
100
AcDbEntity
  8
文字
100
AcDbText
 10
266.3834165771253
 20
138.8624697209824
 30
0.0
 40
2.5
  1
20
  7
STYLE3
100
AcDbText
  0
LINE
  5
1654
330
18
100
AcDbEntity
  8
目盛
100
AcDbLine
 10
268.6777382591549
 20
133.4929706510925
 30
0.0
 11
269.4244564540125
 21
134.8512460051606
 31
0.0
  0
LINE
  5
1655
330
18
100
AcDbEntity
  8
目盛
100
AcDbLine
 10
268.6777382591548
 20
176.8701513132638
 30
0.0
 11
269.4244564540124
 21
175.5118759591957
 31
0.0
  0
CIRCLE
  5
1656
330
18
100
AcDbEntity
  8
外形線
100
AcDbCircle
 10
280.6011416931723
 20
155.1815609821781
 30
0.0
 40
16.5
  0
LINE
  5
1657
330
18
100
AcDbEntity
  8
目盛
100
AcDbLine
 10
261.0448051368739
 20
140.012111404267
 30
0.0
 11
262.2695454060562
 21
140.9621173374291
 31
0.0
  0
LINE
  5
1658
330
18
100
AcDbEntity
  8
目盛
100
AcDbLine
 10
260.5779710823924
 20
140.6338759879394
 30
0.0
 11
263.0050220655173
 21
142.3972317448169
 31
0.0
  0
LINE
  5
1659
330
18
100
AcDbEntity
  8
目盛
100
AcDbLine
 10
268.0023666533505
 20
133.8781958138306
 30
0.0
 11
268.7913808477637
 21
135.2123459556867
 31
0.0
  0
LINE
  5
165A
330
18
100
AcDbEntity
  8
目盛
100
AcDbLine
 10
267.3394285174421
 20
134.2844448260033
 30
0.0
 11
268.1699600496596
 21
135.5931531105314
 31
0.0
  0
LINE
  5
165B
330
18
100
AcDbEntity
  8
目盛
100
AcDbLine
 10
263.6586008214372
 20
137.1395874534982
 30
0.0
 11
264.7196488356266
 21
138.2694888260013
 31
0.0
  0
LINE
  5
165C
330
18
100
AcDbEntity
  8
目盛
100
AcDbLine
 10
263.1002488588052
 20
137.6806681478111
 30
0.0
 11
264.7619497945936
 21
139.3423690835995
 31
0.0
  0
LINE
  5
165D
330
18
100
AcDbEntity
  8
目盛
100
AcDbLine
 10
262.5591681644923
 20
138.2390201104431
 30
0.0
 11
263.6890695369956
 21
139.3000681246326
 31
0.0
  0
LINE
  5
165E
330
18
100
AcDbEntity
  8
目盛
100
AcDbLine
 10
262.0358927198184
 20
138.8140923154178
 30
0.0
 11
263.1985648777456
 21
139.8391257066694
 31
0.0
  0
LINE
  5
165F
330
18
100
AcDbEntity
  8
目盛
100
AcDbLine
 10
261.5309389344714
 20
139.4053172358981
 30
0.0
 11
262.725234460774
 21
140.3933244200086
 31
0.0
  0
LINE
  5
1660
330
18
100
AcDbEntity
  8
目盛
100
AcDbLine
 10
266.6895780913321
 20
134.7113167688828
 30
0.0
 11
267.5608073270029
 21
135.9932916590083
 31
0.0
  0
LINE
  5
1661
330
18
100
AcDbEntity
  8
目盛
100
AcDbLine
 10
264.2336730264119
 20
136.6163120088243
 30
0.0
 11
265.2587064176635
 21
137.7789841667515
 31
0.0
  0
LINE
  5
1662
330
18
100
AcDbEntity
  8
目盛
100
AcDbLine
 10
266.0534566989335
 20
135.1583903713982
 30
0.0
 11
267.816812455811
 21
137.5854413545231
 31
0.0
  0
LINE
  5
1663
330
18
100
AcDbEntity
  8
目盛
100
AcDbLine
 10
265.431692115261
 20
135.6252244258798
 30
0.0
 11
266.3816980484232
 21
136.8499646950621
 31
0.0
  0
LINE
  5
1664
330
18
100
AcDbEntity
  8
目盛
100
AcDbLine
 10
264.8248979468923
 20
136.1113582234773
 30
0.0
 11
265.8129051310027
 21
137.3056537497798
 31
0.0
  0
LINE
  5
1665
330
18
100
AcDbEntity
  8
目盛
100
AcDbLine
 10
258.9125513620867
 20
143.2581575481607
 30
0.0
 11
260.2708267161546
 21
144.0048757430183
 31
0.0
  0
LINE
  5
1666
330
18
100
AcDbEntity
  8
目盛
100
AcDbLine
 10
258.2066721446383
 20
144.6435235159426
 30
0.0
 11
259.6091540759607
 21
145.3034814178685
 31
0.0
  0
LINE
  5
1667
330
18
100
AcDbEntity
  8
目盛
100
AcDbLine
 10
257.8867147074938
 20
145.3521506889674
 30
0.0
 11
259.309234377304
 21
145.9677299194513
 31
0.0
  0
LINE
  5
1668
330
18
100
AcDbEntity
  8
目盛
100
AcDbLine
 10
258.5487302195102
 20
143.9452961136243
 30
0.0
 11
260.6425955513529
 21
145.0121737880123
 31
0.0
  0
LINE
  5
1669
330
18
100
AcDbEntity
  8
目盛
100
AcDbLine
 10
257.0624929148672
 20
147.5333903713982
 30
0.0
 11
259.9156624637526
 21
148.460441354523
 31
0.0
  0
LINE
  5
166A
330
18
100
AcDbEntity
  8
目盛
100
AcDbLine
 10
257.3143426615553
 20
146.7977974561073
 30
0.0
 11
258.7727078534343
 21
147.3228412324874
 31
0.0
  0
LINE
  5
166B
330
18
100
AcDbEntity
  8
目盛
100
AcDbLine
 10
257.5891736674381
 20
146.0704783032324
 30
0.0
 11
259.0303272205649
 21
146.6410713598936
 31
0.0
  0
LINE
  5
166C
330
18
100
AcDbEntity
  8
目盛
100
AcDbLine
 10
256.4472018351882
 20
149.7825157576138
 30
0.0
 11
257.9598728161933
 21
150.1206377817784
 31
0.0
  0
LINE
  5
166D
330
18
100
AcDbEntity
  8
目盛
100
AcDbLine
 10
256.2895322376371
 20
150.5438734461814
 30
0.0
 11
257.8120774762667
 21
150.8343144837893
 31
0.0
  0
LINE
  5
166E
330
18
100
AcDbEntity
  8
目盛
100
AcDbLine
 10
256.0463028356389
 20
152.0795634514616
 30
0.0
 11
257.5840806226764
 21
152.2738299634863
 31
0.0
  0
LINE
  5
166F
330
18
100
AcDbEntity
  8
目盛
100
AcDbLine
 10
255.960983069246
 20
152.852380227545
 30
0.0
 11
257.5041041143808
 21
152.9982481131887
 31
0.0
  0
LINE
  5
1670
330
18
100
AcDbEntity
  8
目盛
100
AcDbLine
 10
256.1558552634426
 20
151.3098079724324
 30
0.0
 11
258.4769228638411
 21
151.677428965277
 31
0.0
  0
LINE
  5
1671
330
18
100
AcDbEntity
  8
目盛
100
AcDbLine
 10
256.8338729726678
 20
148.2765311077073
 30
0.0
 11
258.3223281854671
 21
148.7089673220681
 31
0.0
  0
LINE
  5
1672
330
18
100
AcDbEntity
  8
目盛
100
AcDbLine
 10
256.6287084552387
 20
149.026486274848
 30
0.0
 11
258.130012354988
 21
149.4119555999535
 31
0.0
  0
TEXT
  5
1673
330
18
100
AcDbEntity
  8
文字
100
AcDbText
 10
262.9419415095798
 20
142.286800608439
 30
0.0
 40
2.5
  1
30
  7
STYLE3
100
AcDbText
  0
LINE
  5
1674
330
18
100
AcDbEntity
  8
目盛
100
AcDbLine
 10
259.2977765248246
 20
142.5827859423564
 30
0.0
 11
260.6319266666808
 21
143.3718001367696
 31
0.0
  0
LINE
  5
1675
330
18
100
AcDbEntity
  8
目盛
100
AcDbLine
 10
260.1308974798769
 20
141.2699973803379
 30
0.0
 11
261.4128723700024
 21
142.1412266160087
 31
0.0
  0
LINE
  5
1676
330
18
100
AcDbEntity
  8
目盛
100
AcDbLine
 10
259.7040255369975
 20
141.919847806448
 30
0.0
 11
261.0127338215256
 21
142.7503793386654
 31
0.0
  0
TEXT
  5
1677
330
18
100
AcDbEntity
  8
文字
100
AcDbText
 10
260.1979694847431
 20
147.6717868138545
 30
0.0
 40
2.5
  1
40
  7
STYLE3
100
AcDbText
  0
TEXT
  5
1678
330
18
100
AcDbEntity
  8
文字
100
AcDbText
 10
263.3102799081663
 20
165.9350673510234
 30
0.0
 40
2.5
  1
70
  7
STYLE3
100
AcDbText
  0
LINE
  5
1679
330
18
100
AcDbEntity
  8
目盛
100
AcDbLine
 10
258.5487302195101
 20
166.4178258507319
 30
0.0
 11
260.6425955513528
 21
165.350948176344
 31
0.0
  0
TEXT
  5
167A
330
18
100
AcDbEntity
  8
文字
100
AcDbText
 10
258.885578612996
 20
153.9609491793745
 30
0.0
 40
2.5
  1
50
  7
STYLE3
100
AcDbText
  0
LINE
  5
167B
330
18
100
AcDbEntity
  8
目盛
100
AcDbLine
 10
257.8867147074937
 20
165.0109712753889
 30
0.0
 11
259.3092343773039
 21
164.395392044905
 31
0.0
  0
LINE
  5
167C
330
18
100
AcDbEntity
  8
目盛
100
AcDbLine
 10
258.2066721446383
 20
165.7195984484137
 30
0.0
 11
259.6091540759606
 21
165.0596405464878
 31
0.0
  0
LINE
  5
167D
330
18
100
AcDbEntity
  8
目盛
100
AcDbLine
 10
257.0624929148672
 20
162.8297315929581
 30
0.0
 11
259.9156624637527
 21
161.9026806098333
 31
0.0
  0
LINE
  5
167E
330
18
100
AcDbEntity
  8
目盛
100
AcDbLine
 10
255.8633543241204
 20
154.4041446949945
 30
0.0
 11
257.4125894926873
 21
154.4528313715656
 31
0.0
  0
LINE
  5
167F
330
18
100
AcDbEntity
  8
目盛
100
AcDbLine
 10
255.8999801645725
 20
153.6274956238277
 30
0.0
 11
257.4469215936363
 21
153.7248209290981
 31
0.0
  0
LINE
  5
1680
330
18
100
AcDbEntity
  8
目盛
100
AcDbLine
 10
255.9609830692461
 20
157.5107417368114
 30
0.0
 11
257.5041041143809
 21
157.3648738511677
 31
0.0
  0
LINE
  5
1681
330
18
100
AcDbEntity
  8
目盛
100
AcDbLine
 10
256.046302835639
 20
158.2835585128947
 30
0.0
 11
257.5840806226764
 21
158.08929200087
 31
0.0
  0
LINE
  5
1682
330
18
100
AcDbEntity
  8
目盛
100
AcDbLine
 10
256.2895322376373
 20
159.8192485181748
 30
0.0
 11
257.8120774762668
 21
159.5288074805669
 31
0.0
  0
LINE
  5
1683
330
18
100
AcDbEntity
  8
目盛
100
AcDbLine
 10
256.1558552634427
 20
159.0533139919238
 30
0.0
 11
258.4769228638413
 21
158.6856929990793
 31
0.0
  0
LINE
  5
1684
330
18
100
AcDbEntity
  8
目盛
100
AcDbLine
 10
255.8511416931724
 20
155.1815609821781
 30
0.0
 11
258.8511416931723
 21
155.1815609821781
 31
0.0
  0
LINE
  5
1685
330
18
100
AcDbEntity
  8
目盛
100
AcDbLine
 10
255.8633543241204
 20
155.9589772693619
 30
0.0
 11
257.4125894926873
 21
155.9102905927908
 31
0.0
  0
LINE
  5
1686
330
18
100
AcDbEntity
  8
目盛
100
AcDbLine
 10
255.8999801645726
 20
156.7356263405286
 30
0.0
 11
257.4469215936364
 21
156.6383010352582
 31
0.0
  0
LINE
  5
1687
330
18
100
AcDbEntity
  8
目盛
100
AcDbLine
 10
256.833872972668
 20
162.0865908566491
 30
0.0
 11
258.3223281854673
 21
161.6541546422883
 31
0.0
  0
LINE
  5
1688
330
18
100
AcDbEntity
  8
目盛
100
AcDbLine
 10
256.4472018351884
 20
160.5806062067426
 30
0.0
 11
257.9598728161934
 21
160.2424841825779
 31
0.0
  0
LINE
  5
1689
330
18
100
AcDbEntity
  8
目盛
100
AcDbLine
 10
256.6287084552387
 20
161.3366356895083
 30
0.0
 11
258.1300123549881
 21
160.9511663644028
 31
0.0
  0
LINE
  5
168A
330
18
100
AcDbEntity
  8
目盛
100
AcDbLine
 10
257.3143426615551
 20
163.5653245082491
 30
0.0
 11
258.7727078534342
 21
163.0402807318689
 31
0.0
  0
LINE
  5
168B
330
18
100
AcDbEntity
  8
目盛
100
AcDbLine
 10
257.589173667438
 20
164.2926436611239
 30
0.0
 11
259.0303272205649
 21
163.7220506044626
 31
0.0
  0
TEXT
  5
168C
330
18
100
AcDbEntity
  8
文字
100
AcDbText
 10
260.1834887372714
 20
160.7181535281166
 30
0.0
 40
2.5
  1
60
  7
STYLE3
100
AcDbText
  0
LINE
  5
168D
330
18
100
AcDbEntity
  8
目盛
100
AcDbLine
 10
258.9125513620866
 20
167.1049644161955
 30
0.0
 11
260.2708267161546
 21
166.3582462213379
 31
0.0
  0
LINE
  5
168E
330
18
100
AcDbEntity
  8
目盛
100
AcDbLine
 10
263.6586008214372
 20
173.2235345108581
 30
0.0
 11
264.7196488356267
 21
172.0936331383548
 31
0.0
  0
LINE
  5
168F
330
18
100
AcDbEntity
  8
目盛
100
AcDbLine
 10
264.233673026412
 20
173.746809955532
 30
0.0
 11
265.2587064176636
 21
172.5841377976048
 31
0.0
  0
LINE
  5
1690
330
18
100
AcDbEntity
  8
目盛
100
AcDbLine
 10
263.1002488588052
 20
172.6824538165452
 30
0.0
 11
264.7619497945936
 21
171.0207528807568
 31
0.0
  0
LINE
  5
1691
330
18
100
AcDbEntity
  8
目盛
100
AcDbLine
 10
260.1308974798769
 20
169.0931245840183
 30
0.0
 11
261.4128723700024
 21
168.2218953483475
 31
0.0
  0
LINE
  5
1692
330
18
100
AcDbEntity
  8
目盛
100
AcDbLine
 10
259.2977765248248
 20
167.7803360219998
 30
0.0
 11
260.6319266666808
 21
166.9913218275867
 31
0.0
  0
LINE
  5
1693
330
18
100
AcDbEntity
  8
目盛
100
AcDbLine
 10
259.7040255369975
 20
168.4432741579083
 30
0.0
 11
261.0127338215255
 21
167.6127426256909
 31
0.0
  0
LINE
  5
1694
330
18
100
AcDbEntity
  8
目盛
100
AcDbLine
 10
262.0358927198184
 20
171.5490296489385
 30
0.0
 11
263.1985648777456
 21
170.5239962576868
 31
0.0
  0
LINE
  5
1695
330
18
100
AcDbEntity
  8
目盛
100
AcDbLine
 10
262.5591681644923
 20
172.1241018539131
 30
0.0
 11
263.6890695369955
 21
171.0630538397237
 31
0.0
  0
LINE
  5
1696
330
18
100
AcDbEntity
  8
目盛
100
AcDbLine
 10
260.5779710823923
 20
169.7292459764168
 30
0.0
 11
263.0050220655172
 21
167.9658902195394
 31
0.0
  0
LINE
  5
1697
330
18
100
AcDbEntity
  8
目盛
100
AcDbLine
 10
261.0448051368739
 20
170.3510105600894
 30
0.0
 11
262.2695454060562
 21
169.4010046269272
 31
0.0
  0
LINE
  5
1698
330
18
100
AcDbEntity
  8
目盛
100
AcDbLine
 10
261.5309389344715
 20
170.9578047284582
 30
0.0
 11
262.725234460774
 21
169.9697975443477
 31
0.0
  0
LINE
  5
1699
330
18
100
AcDbEntity
  8
目盛
100
AcDbLine
 10
265.4316921152611
 20
174.7378975384765
 30
0.0
 11
266.3816980484232
 21
173.5131572692942
 31
0.0
  0
LINE
  5
169A
330
18
100
AcDbEntity
  8
目盛
100
AcDbLine
 10
264.8248979468923
 20
174.251763740879
 30
0.0
 11
265.8129051310027
 21
173.0574682145764
 31
0.0
  0
LINE
  5
169B
330
18
100
AcDbEntity
  8
目盛
100
AcDbLine
 10
268.0023666533506
 20
176.4849261505258
 30
0.0
 11
268.7913808477637
 21
175.1507760086696
 31
0.0
  0
LINE
  5
169C
330
18
100
AcDbEntity
  8
目盛
100
AcDbLine
 10
266.0534566989335
 20
175.2047315929581
 30
0.0
 11
267.816812455811
 21
172.7776806098333
 31
0.0
  0
LINE
  5
169D
330
18
100
AcDbEntity
  8
目盛
100
AcDbLine
 10
266.6895780913321
 20
175.6518051954735
 30
0.0
 11
267.5608073270029
 21
174.369830305348
 31
0.0
  0
LINE
  5
169E
330
18
100
AcDbEntity
  8
目盛
100
AcDbLine
 10
267.3394285174422
 20
176.078677138353
 30
0.0
 11
268.1699600496596
 21
174.7699688538249
 31
0.0
  0
TEXT
  5
169F
330
18
100
AcDbEntity
  8
文字
100
AcDbText
 10
286.0931287191141
 20
140.1549753141687
 30
0.0
 40
0.7
  1
O
 50
24.073190155665
  7
STYLE3
100
AcDbText
  0
TEXT
  5
16A0
330
18
100
AcDbEntity
  8
文字
100
AcDbText
 10
286.7453735804484
 20
140.4635002801311
 30
0.0
 40
0.7
  1
O
 50
20.90981646104409
  7
STYLE3
100
AcDbText
  0
TEXT
  5
16A1
330
18
100
AcDbEntity
  8
文字
100
AcDbText
 10
287.5174619871097
 20
140.7576127538664
 30
0.0
 40
0.7
  1
F
 50
28.62979423885832
  7
STYLE3
100
AcDbText
  0
LINE
  5
16A3
330
18
100
AcDbEntity
  8
目盛
100
AcDbLine
 10
269.3648768246185
 20
133.129149508516
 30
0.0
 11
270.4317544990065
 21
135.2230148403587
 31
0.0
  0
LINE
  5
16A4
330
18
100
AcDbEntity
  8
目盛
100
AcDbLine
 10
273.6961118187014
 20
131.4142922616739
 30
0.0
 11
274.1285480330622
 21
132.9027474744731
 31
0.0
  0
LINE
  5
16A5
330
18
100
AcDbEntity
  8
目盛
100
AcDbLine
 10
270.7717313999615
 20
132.4671339964996
 30
0.0
 11
271.3873106304454
 21
133.8896536663098
 31
0.0
  0
LINE
  5
16A6
330
18
100
AcDbEntity
  8
目盛
100
AcDbLine
 10
270.0631042269368
 20
132.7870914336442
 30
0.0
 11
270.7230621288626
 21
134.1895733649664
 31
0.0
  0
LINE
  5
16A7
330
18
100
AcDbEntity
  8
目盛
100
AcDbLine
 10
272.9529710823923
 20
131.6429122038731
 30
0.0
 11
273.8800220655171
 21
134.4960817527586
 31
0.0
  0
LINE
  5
16A8
330
18
100
AcDbEntity
  8
目盛
100
AcDbLine
 10
272.2173781671013
 20
131.894761950561
 30
0.0
 11
272.7424219434815
 21
133.3531271424401
 31
0.0
  0
LINE
  5
16A9
330
18
100
AcDbEntity
  8
目盛
100
AcDbLine
 10
271.4900590142265
 20
132.1695929564439
 30
0.0
 11
272.0606520708878
 21
133.6107465095707
 31
0.0
  0
LINE
  5
16AA
330
18
100
AcDbEntity
  8
目盛
100
AcDbLine
 10
278.2719609385391
 20
130.5414023582519
 30
0.0
 11
278.4178288241828
 21
132.0845234033867
 31
0.0
  0
LINE
  5
16AB
330
18
100
AcDbEntity
  8
目盛
100
AcDbLine
 10
277.4991441624558
 20
130.6267221246448
 30
0.0
 11
277.6934106744805
 21
132.1644999116823
 31
0.0
  0
LINE
  5
16AC
330
18
100
AcDbEntity
  8
目盛
100
AcDbLine
 10
275.9634541571756
 20
130.8699515266431
 30
0.0
 11
276.2538951947835
 21
132.3924967652726
 31
0.0
  0
LINE
  5
16AD
330
18
100
AcDbEntity
  8
目盛
100
AcDbLine
 10
275.2020964686078
 20
131.0276211241942
 30
0.0
 11
275.5402184927725
 21
132.5402921051993
 31
0.0
  0
LINE
  5
16AE
330
18
100
AcDbEntity
  8
目盛
100
AcDbLine
 10
274.4460669858422
 20
131.2091277442446
 30
0.0
 11
274.8315363109477
 21
132.7104316439939
 31
0.0
  0
LINE
  5
16AF
330
18
100
AcDbEntity
  8
目盛
100
AcDbLine
 10
276.7293886834266
 20
130.7362745524485
 30
0.0
 11
277.0970096762712
 21
133.0573421528471
 31
0.0
  0
LINE
  5
16B0
330
18
100
AcDbEntity
  8
目盛
100
AcDbLine
 10
279.0470763348218
 20
130.4803994535785
 30
0.0
 11
279.1444016400923
 21
132.0273408826423
 31
0.0
  0
TEXT
  5
16B1
330
18
100
AcDbEntity
  8
文字
100
AcDbText
 10
271.5839684239334
 20
136.1525386046335
 30
0.0
 40
2.5
  1
10
  7
STYLE3
100
AcDbText
  0
LINE
  5
16B2
330
18
100
AcDbEntity
  8
目盛
100
AcDbLine
 10
284.472894702918
 20
130.7362745524485
 30
0.0
 11
284.1052737100735
 21
133.0573421528471
 31
0.0
  0
LINE
  5
16B3
330
18
100
AcDbEntity
  8
目盛
100
AcDbLine
 10
281.378557980356
 20
130.4437736131263
 30
0.0
 11
281.3298713037849
 21
131.9930087816932
 31
0.0
  0
LINE
  5
16B4
330
18
100
AcDbEntity
  8
目盛
100
AcDbLine
 10
283.7031392238889
 20
130.6267221246448
 30
0.0
 11
283.5088727118641
 21
132.1644999116823
 31
0.0
  0
LINE
  5
16B5
330
18
100
AcDbEntity
  8
目盛
100
AcDbLine
 10
282.9303224478055
 20
130.541402358252
 30
0.0
 11
282.7844545621618
 21
132.0845234033867
 31
0.0
  0
LINE
  5
16B6
330
18
100
AcDbEntity
  8
目盛
100
AcDbLine
 10
282.1552070515228
 20
130.4803994535784
 30
0.0
 11
282.0578817462524
 21
132.0273408826422
 31
0.0
  0
LINE
  5
16B7
330
18
100
AcDbEntity
  8
目盛
100
AcDbLine
 10
280.6011416931724
 20
130.4315609821782
 30
0.0
 11
280.6011416931724
 21
133.4315609821782
 31
0.0
  0
LINE
  5
16B8
330
18
100
AcDbEntity
  8
目盛
100
AcDbLine
 10
279.8237254059886
 20
130.4437736131263
 30
0.0
 11
279.8724120825597
 21
131.9930087816932
 31
0.0
  0
LINE
  5
16B9
330
18
100
AcDbEntity
  8
目盛
100
AcDbLine
 10
288.9849052192432
 20
131.894761950561
 30
0.0
 11
288.4598614428631
 21
133.3531271424401
 31
0.0
  0
LINE
  5
16BA
330
18
100
AcDbEntity
  8
目盛
100
AcDbLine
 10
286.0001869177367
 20
131.0276211241941
 30
0.0
 11
285.6620648935721
 21
132.5402921051993
 31
0.0
  0
LINE
  5
16BB
330
18
100
AcDbEntity
  8
目盛
100
AcDbLine
 10
285.2388292291691
 20
130.8699515266431
 30
0.0
 11
284.9483881915611
 21
132.3924967652726
 31
0.0
  0
LINE
  5
16BC
330
18
100
AcDbEntity
  8
目盛
100
AcDbLine
 10
288.2493123039523
 20
131.6429122038731
 30
0.0
 11
287.3222613208275
 21
134.4960817527586
 31
0.0
  0
LINE
  5
16BD
330
18
100
AcDbEntity
  8
目盛
100
AcDbLine
 10
287.5061715676432
 20
131.4142922616738
 30
0.0
 11
287.0737353532824
 21
132.9027474744731
 31
0.0
  0
LINE
  5
16BE
330
18
100
AcDbEntity
  8
目盛
100
AcDbLine
 10
286.7562164005025
 20
131.2091277442446
 30
0.0
 11
286.370747075397
 21
132.7104316439939
 31
0.0
  0
TEXT
  5
16BF
330
18
100
AcDbEntity
  8
文字
100
AcDbText
 10
281.2526899468077
 20
139.2270821872997
 30
0.0
 40
0.7
  1
H
 50
3.041391095489256
  7
STYLE3
100
AcDbText
  0
TEXT
  5
16C0
330
18
100
AcDbEntity
  8
文字
100
AcDbText
 10
281.9894559765312
 20
139.2838389981767
 30
0.0
 40
0.7
  1
O
 50
1.760930144340787
  7
STYLE3
100
AcDbText
  0
TEXT
  5
16C1
330
18
100
AcDbEntity
  8
文字
100
AcDbText
 10
280.5639945651703
 20
139.2069010014088
 30
0.0
 40
0.7
  1
S
  7
STYLE3
100
AcDbText
  0
TEXT
  5
16C2
330
18
100
AcDbEntity
  8
文字
100
AcDbText
 10
282.7432896482795
 20
139.3575287247498
 30
0.0
 40
0.7
  1
C
 50
5.687207778684769
  7
STYLE3
100
AcDbText
  0
TEXT
  5
16C3
330
18
100
AcDbEntity
  8
文字
100
AcDbText
 10
283.5368689133905
 20
139.4507983533208
 30
0.0
 40
0.7
  1
K
 50
16.11080334047189
  7
STYLE3
100
AcDbText
  0
TEXT
  5
16C4
330
18
100
AcDbEntity
  8
文字
100
AcDbText
 10
284.648042330335
 20
139.6977428369841
 30
0.0
 40
0.7
  1
P
 50
18.4417774755011
  7
STYLE3
100
AcDbText
  0
TEXT
  5
16C5
330
18
100
AcDbEntity
  8
文字
100
AcDbText
 10
285.3530433047191
 20
139.9067299744844
 30
0.0
 40
0.7
  1
R
 50
20.24070213608718
  7
STYLE3
100
AcDbText
  0
TEXT
  5
16C6
330
18
100
AcDbEntity
  8
文字
100
AcDbText
 10
284.5186946225924
 20
135.5989770022444
 30
0.0
 40
2.5
  1
90
  7
STYLE3
100
AcDbText
  0
TEXT
  5
16C7
330
18
100
AcDbEntity
  8
文字
100
AcDbText
 10
273.5980180311262
 20
147.8711050583874
 30
0.0
 40
1.3
  1
MODEL  G-7C
  7
STYLE3
100
AcDbText
  0
LINE
  5
16C8
102
{ACAD_REACTORS
330
16CC
102
}
330
18
100
AcDbEntity
  8
ROGO
 62
     4
100
AcDbLine
 10
278.6377543669392
 20
145.0490555925125
 30
0.0
 11
279.4256588867041
 21
145.0490555925125
 31
0.0
  0
LINE
  5
16C9
102
{ACAD_REACTORS
330
16CC
102
}
330
18
100
AcDbEntity
  8
ROGO
 62
     4
100
AcDbLine
 10
278.8182945692818
 20
145.2994166196001
 30
0.0
 11
279.3144385981332
 21
145.2994166196001
 31
0.0
  0
LINE
  5
16CA
102
{ACAD_REACTORS
330
16CC
102
}
330
18
100
AcDbEntity
  8
ROGO
 62
     4
100
AcDbLine
 10
278.6751584542803
 20
146.0584161949165
 30
0.0
 11
279.6724359578592
 21
146.0584161949167
 31
0.0
  0
LINE
  5
16CB
102
{ACAD_REACTORS
330
16CC
102
}
330
18
100
AcDbEntity
  8
ROGO
 62
     4
100
AcDbLine
 10
279.1253064716797
 20
145.7251601061757
 30
0.0
 11
279.3144385981332
 21
145.2994166196001
 31
0.0
  0
HATCH
  5
16CC
330
18
100
AcDbEntity
  8
ROGO
 62
     4
100
AcDbHatch
 10
0.0
 20
0.0
 30
0.0
210
0.0
220
0.0
230
1.0
  2
SOLID
 70
     1
 71
     1
 91
        2
 92
        7
 72
     0
 73
     1
 93
        8
 10
279.6724359578592
 20
146.0584161949166
 10
278.6751584542803
 20
146.0584161949165
 10
277.7761169713991
 20
144.8116858482801
 10
278.466582431146
 20
144.8116858482801
 10
278.6377543669392
 20
145.0490555925126
 10
279.4256588867041
 20
145.0490555925125
 10
279.5311079326625
 20
144.8116858482801
 10
280.2262829784445
 20
144.8116858482801
 97
        8
330
16CA
330
16E2
330
16E5
330
16E4
330
16C8
330
16FC
330
16FA
330
16FB
 92
       22
 72
     0
 73
     1
 93
        3
 10
279.3144385981331
 20
145.2994166196001
 10
278.8182945692818
 20
145.2994166196001
 10
279.1253064716796
 20
145.7251601061758
 97
        3
330
16C9
330
16E3
330
16CB
 75
     0
 76
     1
 47
0.0128389261915577
 98
        2
 10
279.5943412493108
 20
145.7593080698282
 10
279.5943412493108
 20
145.7593080698282
450
        0
451
        0
460
0.0
461
0.0
452
        0
462
0.0
453
        0
470

  0
LINE
  5
16CD
102
{ACAD_REACTORS
330
16D3
330
1713
102
}
330
18
100
AcDbEntity
  8
ROGO
 62
     4
100
AcDbLine
 10
273.1011416931723
 20
144.1103147407414
 30
0.0
 11
286.2878497142435
 21
144.1103147407414
 31
0.0
  0
LINE
  5
16CE
330
18
100
AcDbEntity
  8
ROGO
 62
     4
100
AcDbLine
 10
274.0815052798467
 20
144.305582819394
 30
0.0
 11
285.6673731898426
 21
144.305582819394
 31
0.0
  0
HATCH
  5
16CF
330
18
100
AcDbEntity
  8
ROGO
 62
     4
100
AcDbHatch
 10
0.0
 20
0.0
 30
0.0
210
0.0
220
0.0
230
1.0
  2
SOLID
 70
     1
 71
     0
 91
        1
 92
        7
 72
     0
 73
     1
 93
        4
 10
274.0950473281804
 20
144.3055828193939
 10
274.0067025103717
 20
144.1103147407414
 10
285.5700062192545
 20
144.1103147407414
 10
285.6673731898426
 20
144.305582819394
 97
        0
 75
     0
 76
     1
 47
0.0514683685270805
 98
        1
 10
281.4020321333757
 20
144.2539375507753
450
        0
451
        0
460
0.0
461
0.0
452
        0
462
0.0
453
        0
470

  0
TEXT
  5
16D0
330
18
100
AcDbEntity
  8
文字
100
AcDbText
 10
274.3229851917884
 20
142.0167064470668
 30
0.0
 40
1.0
  1
MADE  IN  JAPAN
  7
STYLE3
100
AcDbText
  0
LINE
  5
16D1
102
{ACAD_REACTORS
330
16D3
102
}
330
18
100
AcDbEntity
  8
ROGO
 62
     4
100
AcDbLine
 10
274.3240226947017
 20
144.8116858482801
 30
0.0
 11
274.0067025103717
 21
144.1103147407414
 31
0.0
  0
LINE
  5
16D2
102
{ACAD_REACTORS
330
16D3
102
}
330
18
100
AcDbEntity
  8
ROGO
 62
     4
100
AcDbLine
 10
274.0650441751589
 20
146.0584161949165
 30
0.0
 11
275.5959875873573
 21
146.0584161949165
 31
0.0
  0
HATCH
  5
16D3
330
18
100
AcDbEntity
  8
ROGO
 62
     4
100
AcDbHatch
 10
0.0
 20
0.0
 30
0.0
210
0.0
220
0.0
230
1.0
  2
SOLID
 70
     1
 71
     1
 91
        2
 92
        5
 93
        6
 72
     1
 10
273.1011416931723
 20
144.1103147407414
 11
274.0067025103717
 21
144.1103147407414
 72
     1
 10
274.0067025103717
 20
144.1103147407414
 11
274.3240226947018
 21
144.8116858482801
 72
     1
 10
274.3240226947018
 20
144.8116858482801
 11
275.1705363272602
 21
144.8116858482801
 72
     4
 94
        3
 73
     0
 74
     0
 95
       18
 96
       14
 40
0.108740278791501
 40
0.108740278791501
 40
0.108740278791501
 40
0.108740278791501
 40
0.6623149649549278
 40
1.384304701649787
 40
2.097394834876493
 40
2.774073369849618
 40
3.428974823686337
 40
4.005208313035923
 40
4.455173659284313
 40
4.720999734343524
 40
5.086034088486724
 40
5.569973738255373
 40
6.060470601257719
 40
6.060470601257719
 40
6.060470601257719
 40
6.060470601257719
 10
275.1705363272604
 20
144.8116858482801
 10
275.2301125582011
 20
144.8121294944329
 10
275.3673900069996
 20
144.813151758028
 10
275.5594400836812
 20
144.9157491290167
 10
275.7415584287175
 20
145.0464507045116
 10
275.8882423663875
 20
145.2097486869673
 10
275.9796308789583
 20
145.396451953059
 10
275.993786670692
 20
145.5753898844207
 10
275.9851449076222
 20
145.7169275635523
 10
275.9233951699314
 20
145.8155828397186
 10
275.8591987823672
 20
145.9157078562045
 10
275.7414843152932
 20
146.0024398643796
 10
275.6450343542185
 20
146.0404413767738
 10
275.5959875873573
 20
146.0584161949167
 72
     1
 10
275.5959875873575
 20
146.0584161949165
 11
274.0650441751589
 21
146.0584161949165
 72
     1
 10
274.0650441751589
 20
146.0584161949165
 11
273.1011416931723
 21
144.1103147407414
 97
        6
330
16D5
330
16D2
330
16D4
330
16CD
330
16D1
330
16E9
 92
       20
 93
        4
 72
     1
 10
274.5199499446528
 20
145.2447428017333
 11
274.6699567282428
 21
145.5763019938062
 72
     1
 10
274.6699567282428
 20
145.5763019938062
 11
275.055410230241
 21
145.5763019938062
 72
     4
 94
        3
 73
     0
 74
     0
 95
       15
 96
       11
 40
0.0
 40
0.0
 40
0.0
 40
0.0
 40
0.1461831775054869
 40
0.2128346657926855
 40
0.2884885421222081
 40
0.3400274801801145
 40
0.4215368452530754
 40
0.4703587283434508
 40
0.5541210812769089
 40
0.5820418834082098
 40
0.5820418834082098
 40
0.5820418834082098
 40
0.5820418834082098
 10
275.055410230241
 20
145.5763019938062
 10
275.1103137968894
 20
145.5765534814481
 10
275.1902503700151
 20
145.5769196336219
 10
275.2339625352195
 20
145.4780378614973
 10
275.2143686585716
 20
145.4143734256173
 10
275.1897375586985
 20
145.3490098927389
 10
275.1462088266472
 20
145.3045943863259
 10
275.0877868924531
 20
145.2618147662299
 10
275.032575372777
 20
145.2566361016591
 10
274.9966664769299
 20
145.2471214626294
 10
274.9876892486709
 20
145.2447428017333
 72
     1
 10
274.987689248671
 20
145.2447428017334
 11
274.5199499446528
 21
145.2447428017333
 97
        4
330
16E8
330
16EA
330
16D6
330
16EB
 75
     0
 76
     1
 47
0.0514683685270805
 98
        2
 10
274.0732268301742
 20
145.4525049420301
 10
274.0732268301742
 20
145.4525049420301
450
        0
451
        0
460
0.0
461
0.0
452
        0
462
0.0
453
        0
470

  0
LINE
  5
16D4
102
{ACAD_REACTORS
330
16D3
102
}
330
18
100
AcDbEntity
  8
ROGO
 62
     4
100
AcDbLine
 10
274.0650441751589
 20
146.0584161949165
 30
0.0
 11
273.1011416931723
 21
144.1103147407414
 31
0.0
  0
SPLINE
  5
16D5
102
{ACAD_REACTORS
330
16D3
102
}
330
18
100
AcDbEntity
  8
ROGO
 62
     4
100
AcDbSpline
210
0.0
220
0.0
230
1.0
 70
     8
 71
     3
 72
    18
 73
    14
 74
     0
 42
0.0000000001
 43
0.0000000001
 40
0.1087402787915014
 40
0.1087402787915014
 40
0.1087402787915014
 40
0.1087402787915014
 40
0.5992371417938475
 40
1.083176791562496
 40
1.448211145705696
 40
1.714037220764907
 40
2.164002567013297
 40
2.740236056362883
 40
3.395137510199602
 40
4.071816045172726
 40
4.784906178399433
 40
5.506895915094292
 40
6.060470601257719
 40
6.060470601257719
 40
6.060470601257719
 40
6.060470601257719
 10
275.5959875873573
 20
146.0584161949167
 30
0.0
 10
275.6450343542185
 20
146.0404413767738
 30
0.0
 10
275.7414843152932
 20
146.0024398643796
 30
0.0
 10
275.8591987823672
 20
145.9157078562045
 30
0.0
 10
275.9233951699314
 20
145.8155828397186
 30
0.0
 10
275.9851449076222
 20
145.7169275635523
 30
0.0
 10
275.993786670692
 20
145.5753898844207
 30
0.0
 10
275.9796308789583
 20
145.396451953059
 30
0.0
 10
275.8882423663875
 20
145.2097486869673
 30
0.0
 10
275.7415584287175
 20
145.0464507045116
 30
0.0
 10
275.5594400836812
 20
144.9157491290167
 30
0.0
 10
275.3673900069996
 20
144.813151758028
 30
0.0
 10
275.2301125582011
 20
144.8121294944329
 30
0.0
 10
275.1705363272604
 20
144.8116858482801
 30
0.0
  0
SPLINE
  5
16D6
102
{ACAD_REACTORS
330
16D3
102
}
330
18
100
AcDbEntity
  8
ROGO
 62
     4
100
AcDbSpline
210
0.0
220
0.0
230
1.0
 70
     8
 71
     3
 72
    15
 73
    11
 74
     9
 42
0.0000000001
 43
0.0000000001
 44
0.0000000001
 40
0.0
 40
0.0
 40
0.0
 40
0.0
 40
0.1461831775054869
 40
0.2128346657926855
 40
0.2884885421222081
 40
0.3400274801801145
 40
0.4215368452530754
 40
0.4703587283434508
 40
0.5541210812769089
 40
0.5820418834082098
 40
0.5820418834082098
 40
0.5820418834082098
 40
0.5820418834082098
 10
275.055410230241
 20
145.5763019938062
 30
0.0
 10
275.1103137968894
 20
145.5765534814481
 30
0.0
 10
275.1902503700151
 20
145.5769196336219
 30
0.0
 10
275.2339625352195
 20
145.4780378614973
 30
0.0
 10
275.2143686585716
 20
145.4143734256173
 30
0.0
 10
275.1897375586985
 20
145.3490098927389
 30
0.0
 10
275.1462088266472
 20
145.3045943863259
 30
0.0
 10
275.0877868924531
 20
145.2618147662299
 30
0.0
 10
275.032575372777
 20
145.2566361016591
 30
0.0
 10
274.9966664769299
 20
145.2471214626294
 30
0.0
 10
274.9876892486709
 20
145.2447428017333
 30
0.0
 11
275.055410230241
 21
145.5763019938062
 31
0.0
 11
275.1976244083611
 21
145.5424693331476
 31
0.0
 11
275.224712878871
 21
145.4815707645575
 31
0.0
 11
275.2111688383206
 21
145.4071391317039
 31
0.0
 11
275.1908525827905
 21
145.359773406782
 31
0.0
 11
275.1366756417707
 21
145.2988748381918
 31
0.0
 11
275.0960431307104
 21
145.2718087096651
 31
0.0
 11
275.0147777191808
 21
145.251509333865
 31
0.0
 11
274.9876892486709
 21
145.2447428017333
 31
0.0
  0
LINE
  5
16D7
102
{ACAD_REACTORS
330
16E7
102
}
330
18
100
AcDbEntity
  8
ROGO
 62
     4
100
AcDbLine
 10
276.5004309687586
 20
146.0584161949165
 30
0.0
 11
275.8835603879603
 21
144.8116858482801
 31
0.0
  0
LINE
  5
16D8
102
{ACAD_REACTORS
330
16E7
102
}
330
18
100
AcDbEntity
  8
ROGO
 62
     4
100
AcDbLine
 10
278.186685629487
 20
146.0584161949165
 30
0.0
 11
278.0453789815143
 21
145.7728274641635
 31
0.0
  0
LINE
  5
16D9
102
{ACAD_REACTORS
330
16E7
102
}
330
18
100
AcDbEntity
  8
ROGO
 62
     4
100
AcDbLine
 10
275.8835603879603
 20
144.8116858482801
 30
0.0
 11
277.5698150486887
 21
144.8116858482801
 31
0.0
  0
LINE
  5
16DA
102
{ACAD_REACTORS
330
16E7
102
}
330
18
100
AcDbEntity
  8
ROGO
 62
     4
100
AcDbLine
 10
277.159126142545
 20
145.7728274641635
 30
0.0
 11
277.0486419034022
 21
145.5495325656027
 31
0.0
  0
LINE
  5
16DB
102
{ACAD_REACTORS
330
16E7
102
}
330
18
100
AcDbEntity
  8
ROGO
 62
     4
100
AcDbLine
 10
277.159126142545
 20
145.7728274641635
 30
0.0
 11
278.0453789815143
 21
145.7728274641635
 31
0.0
  0
LINE
  5
16DC
102
{ACAD_REACTORS
330
16E7
102
}
330
18
100
AcDbEntity
  8
ROGO
 62
     4
100
AcDbLine
 10
277.0486419034022
 20
145.5495325656027
 30
0.0
 11
277.9348947423714
 21
145.5495325656027
 31
0.0
  0
LINE
  5
16DD
102
{ACAD_REACTORS
330
16E7
102
}
330
18
100
AcDbEntity
  8
ROGO
 62
     4
100
AcDbLine
 10
276.8248617498107
 20
145.0972602136022
 30
0.0
 11
277.7111145887798
 21
145.0972602136022
 31
0.0
  0
LINE
  5
16DE
102
{ACAD_REACTORS
330
16E7
102
}
330
18
100
AcDbEntity
  8
ROGO
 62
     4
100
AcDbLine
 10
276.9353506663251
 20
145.3205645653956
 30
0.0
 11
277.8216035052942
 21
145.3205645653956
 31
0.0
  0
LINE
  5
16DF
102
{ACAD_REACTORS
330
16E7
102
}
330
18
100
AcDbEntity
  8
ROGO
 62
     4
100
AcDbLine
 10
277.9348947423714
 20
145.5495325656027
 30
0.0
 11
277.8216035052942
 21
145.3205645653956
 31
0.0
  0
LINE
  5
16E0
102
{ACAD_REACTORS
330
16E7
102
}
330
18
100
AcDbEntity
  8
ROGO
 62
     4
100
AcDbLine
 10
277.7111145887798
 20
145.0972602136022
 30
0.0
 11
277.5698150486887
 21
144.8116858482801
 31
0.0
  0
LINE
  5
16E1
102
{ACAD_REACTORS
330
16E7
102
}
330
18
100
AcDbEntity
  8
ROGO
 62
     4
100
AcDbLine
 10
276.9353506663251
 20
145.3205645653956
 30
0.0
 11
276.8248617498106
 21
145.0972602136022
 31
0.0
  0
LINE
  5
16E2
102
{ACAD_REACTORS
330
16CC
102
}
330
18
100
AcDbEntity
  8
ROGO
 62
     4
100
AcDbLine
 10
278.6751584542803
 20
146.0584161949165
 30
0.0
 11
277.776116971399
 21
144.8116858482801
 31
0.0
  0
LINE
  5
16E3
102
{ACAD_REACTORS
330
16CC
102
}
330
18
100
AcDbEntity
  8
ROGO
 62
     4
100
AcDbLine
 10
279.1253064716796
 20
145.7251601061757
 30
0.0
 11
278.8182945692818
 21
145.2994166196001
 31
0.0
  0
LINE
  5
16E4
102
{ACAD_REACTORS
330
16CC
102
}
330
18
100
AcDbEntity
  8
ROGO
 62
     4
100
AcDbLine
 10
278.6377543669392
 20
145.0490555925125
 30
0.0
 11
278.4665824311461
 21
144.8116858482802
 31
0.0
  0
LINE
  5
16E5
102
{ACAD_REACTORS
330
16CC
102
}
330
18
100
AcDbEntity
  8
ROGO
 62
     4
100
AcDbLine
 10
277.776116971399
 20
144.8116858482801
 30
0.0
 11
278.466582431146
 21
144.8116858482801
 31
0.0
  0
LINE
  5
16E6
102
{ACAD_REACTORS
330
16E7
102
}
330
18
100
AcDbEntity
  8
ROGO
 62
     4
100
AcDbLine
 10
276.5004309687586
 20
146.0584161949165
 30
0.0
 11
278.186685629487
 21
146.0584161949167
 31
0.0
  0
HATCH
  5
16E7
330
18
100
AcDbEntity
  8
ROGO
 62
     4
100
AcDbHatch
 10
0.0
 20
0.0
 30
0.0
210
0.0
220
0.0
230
1.0
  2
SOLID
 70
     1
 71
     1
 91
        1
 92
        1
 93
       12
 72
     1
 10
276.5004309687586
 20
146.0584161949165
 11
278.186685629487
 21
146.0584161949167
 72
     1
 10
278.186685629487
 20
146.0584161949165
 11
278.0453789815143
 21
145.7728274641635
 72
     1
 10
278.0453789815143
 20
145.7728274641635
 11
277.159126142545
 21
145.7728274641635
 72
     1
 10
277.159126142545
 20
145.7728274641635
 11
277.0486419034022
 21
145.5495325656027
 72
     1
 10
277.0486419034022
 20
145.5495325656027
 11
277.9348947423714
 21
145.5495325656027
 72
     1
 10
277.9348947423714
 20
145.5495325656027
 11
277.8216035052942
 21
145.3205645653956
 72
     1
 10
277.8216035052942
 20
145.3205645653956
 11
276.9353506663251
 21
145.3205645653956
 72
     1
 10
276.9353506663251
 20
145.3205645653956
 11
276.8248617498106
 21
145.0972602136022
 72
     1
 10
276.8248617498107
 20
145.0972602136022
 11
277.7111145887798
 21
145.0972602136022
 72
     1
 10
277.7111145887798
 20
145.0972602136022
 11
277.5698150486887
 21
144.8116858482801
 72
     1
 10
277.5698150486887
 20
144.8116858482801
 11
275.8835603879603
 21
144.8116858482801
 72
     1
 10
275.8835603879603
 20
144.8116858482801
 11
276.5004309687586
 21
146.0584161949165
 97
       12
330
16E6
330
16D8
330
16DB
330
16DA
330
16DC
330
16DF
330
16DE
330
16E1
330
16DD
330
16E0
330
16D9
330
16D7
 75
     0
 76
     1
 98
        1
 10
207.524708352707
 20
59.85259144110855
450
        0
451
        0
460
0.0
461
0.0
452
        0
462
0.0
453
        0
470

  0
LINE
  5
16E8
102
{ACAD_REACTORS
330
16D3
102
}
330
18
100
AcDbEntity
  8
ROGO
 62
     4
100
AcDbLine
 10
274.6699567282428
 20
145.5763019938062
 30
0.0
 11
274.5199499446528
 21
145.2447428017333
 31
0.0
  0
LINE
  5
16E9
102
{ACAD_REACTORS
330
16D3
102
}
330
18
100
AcDbEntity
  8
ROGO
 62
     4
100
AcDbLine
 10
275.1705363275539
 20
144.8116858482801
 30
0.0
 11
274.3240226947017
 21
144.8116858482801
 31
0.0
  0
LINE
  5
16EA
102
{ACAD_REACTORS
330
16D3
102
}
330
18
100
AcDbEntity
  8
ROGO
 62
     4
100
AcDbLine
 10
275.0554102302412
 20
145.5763019938062
 30
0.0
 11
274.6699567282428
 21
145.5763019938062
 31
0.0
  0
LINE
  5
16EB
102
{ACAD_REACTORS
330
16D3
102
}
330
18
100
AcDbEntity
  8
ROGO
 62
     4
100
AcDbLine
 10
274.987689248671
 20
145.2447428017333
 30
0.0
 11
274.5199499446528
 21
145.2447428017333
 31
0.0
  0
LINE
  5
16EC
102
{ACAD_REACTORS
330
16FF
102
}
330
18
100
AcDbEntity
  8
ROGO
 62
     4
100
AcDbLine
 10
282.2631992934537
 20
146.0584161949165
 30
0.0
 11
282.0319014618568
 21
145.594551673923
 31
0.0
  0
LINE
  5
16ED
102
{ACAD_REACTORS
330
16FF
102
}
330
18
100
AcDbEntity
  8
ROGO
 62
     4
100
AcDbLine
 10
281.2516968268901
 20
145.594551673923
 30
0.0
 11
282.0319014618568
 21
145.594551673923
 31
0.0
  0
LINE
  5
16EE
102
{ACAD_REACTORS
330
16FF
102
}
330
18
100
AcDbEntity
  8
ROGO
 62
     4
100
AcDbLine
 10
281.0756219632806
 20
145.2755454570753
 30
0.0
 11
281.8728346591949
 21
145.2755454570753
 31
0.0
  0
SPLINE
  5
16EF
102
{ACAD_REACTORS
330
16FF
102
}
330
18
100
AcDbEntity
  8
ROGO
 62
     4
100
AcDbSpline
210
0.0
220
0.0
230
1.0
 70
     8
 71
     3
 72
    16
 73
    12
 74
    10
 42
0.0000000001
 43
0.0000000001
 44
0.0000000001
 40
0.0
 40
0.0
 40
0.0
 40
0.0
 40
0.1192387348090995
 40
0.1774782579147198
 40
0.2061980046505734
 40
0.2364639408884763
 40
0.2798046750216953
 40
0.3192685720162602
 40
0.3604284971745742
 40
0.4294360858286333
 40
0.4977391777073984
 40
0.4977391777073984
 40
0.4977391777073984
 40
0.4977391777073984
 10
281.2516968268902
 20
145.594551673923
 30
0.0
 10
281.2113171836219
 20
145.5883955248914
 30
0.0
 10
281.151214996577
 20
145.5792325410059
 30
0.0
 10
281.0968645484166
 20
145.5362093242132
 30
0.0
 10
281.0662146692893
 20
145.5106133739992
 30
0.0
 10
281.0557874438609
 20
145.4767170701362
 30
0.0
 10
281.0277831908247
 20
145.45068991208
 30
0.0
 10
281.0046997206998
 20
145.4149202190167
 30
0.0
 10
280.9991879112886
 20
145.3657899662126
 30
0.0
 10
281.0032337055903
 20
145.2968431438903
 30
0.0
 10
281.0515752189503
 20
145.2826203618459
 30
0.0
 10
281.0756219632806
 20
145.2755454570753
 30
0.0
 11
281.2516968268902
 21
145.594551673923
 31
0.0
 11
281.13657111928
 21
145.5635041727975
 31
0.0
 11
281.0891663932401
 21
145.5296717327341
 31
0.0
 11
281.06885013771
 21
145.5093721363389
 31
0.0
 11
281.0553057077505
 21
145.4823060078121
 31
0.0
 11
281.0282172372406
 21
145.4484735677488
 31
0.0
 11
281.0079009817103
 21
145.4146409070903
 31
0.0
 11
281.0011287667306
 21
145.3740419348951
 31
0.0
 11
281.0146731966902
 21
145.3063766135782
 31
0.0
 11
281.0756219632806
 21
145.2755454570753
 31
0.0
  0
LINE
  5
16F0
102
{ACAD_REACTORS
330
16FF
102
}
330
18
100
AcDbEntity
  8
ROGO
 62
     4
100
AcDbLine
 10
281.8728346591949
 20
145.2755454570753
 30
0.0
 11
281.6415392769788
 21
144.8116858482801
 31
0.0
  0
LINE
  5
16F1
102
{ACAD_REACTORS
330
16FF
102
}
330
18
100
AcDbEntity
  8
ROGO
 62
     4
100
AcDbLine
 10
281.0146731966906
 20
146.0584161949167
 30
0.0
 11
282.2631992934537
 21
146.0584161949167
 31
0.0
  0
SPLINE
  5
16F2
102
{ACAD_REACTORS
330
16F9
102
}
330
18
100
AcDbEntity
  8
ROGO
 62
     4
100
AcDbSpline
210
0.0
220
0.0
230
1.0
 70
     8
 71
     3
 72
    38
 73
    34
 74
    32
 42
0.0000000001
 43
0.0000000001
 44
0.0000000001
 40
0.0
 40
0.0
 40
0.0
 40
0.0
 40
0.1716253587406623
 40
0.2255253290976248
 40
0.2947831262912113
 40
0.352498070257192
 40
0.401194707389018
 40
0.4658749546664991
 40
0.4989240118098149
 40
0.5361459251283493
 40
0.5910040209698863
 40
0.6531463397142244
 40
0.6934574532944029
 40
0.7372488460652118
 40
0.7859279681112547
 40
0.8598010024797554
 40
0.9299880888722469
 40
0.962617715058074
 40
0.99982743872465
 40
1.043908673224191
 40
1.075288847593852
 40
1.101594470956001
 40
1.139152958423429
 40
1.180423302418936
 40
1.221693416627877
 40
1.257804824007385
 40
1.340506365805091
 40
1.373135991990864
 40
1.438395283121515
 40
1.496081593396144
 40
1.606517709645446
 40
1.74278444224538
 40
1.93957343352095
 40
1.93957343352095
 40
1.93957343352095
 40
1.93957343352095
 10
282.955542777312
 20
146.0636163942232
 30
0.0
 10
282.8983349009988
 20
146.059575061021
 30
0.0
 10
282.8231605489848
 20
146.0542645229565
 30
0.0
 10
282.7277066993872
 20
146.0281130140276
 30
0.0
 10
282.6756737905197
 20
145.9969581458433
 30
0.0
 10
282.6215231485554
 20
145.974057824381
 30
0.0
 10
282.5753546829332
 20
145.9401469895311
 30
0.0
 10
282.528656254646
 20
145.9226730630388
 30
0.0
 10
282.4959565856425
 20
145.8911644502709
 30
0.0
 10
282.458109386033
 20
145.8719176296561
 30
0.0
 10
282.4279709890258
 20
145.8288376496581
 30
0.0
 10
282.3942848092888
 20
145.7885594294441
 30
0.0
 10
282.3552046029196
 20
145.7591581250286
 30
0.0
 10
282.3231309530608
 20
145.7282781533265
 30
0.0
 10
282.2937078391139
 20
145.6806210786142
 30
0.0
 10
282.2762939234088
 20
145.6172989382578
 30
0.0
 10
282.2272070179955
 20
145.5773196224765
 30
0.0
 10
282.2198160669351
 20
145.5292525559495
 30
0.0
 10
282.1926646026467
 20
145.5008937955485
 30
0.0
 10
282.1808581963697
 20
145.4642867099613
 30
0.0
 10
282.1763617485592
 20
145.4307481533998
 30
0.0
 10
282.1709649390086
 20
145.3994254632885
 30
0.0
 10
282.1568479073036
 20
145.3664753769094
 30
0.0
 10
282.161455755159
 20
145.3257733367361
 30
0.0
 10
282.1601431176422
 20
145.2863602002698
 30
0.0
 10
282.1609156063617
 20
145.2331512387439
 30
0.0
 10
282.1581275875896
 20
145.1813457713605
 30
0.0
 10
282.1803609447293
 20
145.1249691354873
 30
0.0
 10
282.1935179076382
 20
145.0747171640593
 30
0.0
 10
282.2295503908336
 20
145.0051372158764
 30
0.0
 10
282.2917056692362
 20
144.924857000281
 30
0.0
 10
282.4098991302879
 20
144.8274120289639
 30
0.0
 10
282.5235455987653
 20
144.8175266902191
 30
0.0
 10
282.5906946440765
 20
144.8116858482801
 30
0.0
 11
282.955542777312
 21
146.0636163942232
 31
0.0
 11
282.7851624712382
 21
146.0429811073321
 31
0.0
 11
282.7335320877503
 21
146.0275049868437
 31
0.0
 11
282.6715758709454
 21
145.9965522862937
 31
0.0
 11
282.6199454874575
 21
145.9707585223597
 31
0.0
 11
282.5786413429209
 21
145.9449645286392
 31
0.0
 11
282.5218480427746
 21
145.9140120578758
 31
0.0
 11
282.4960326482133
 21
145.8933770007713
 31
0.0
 11
282.4650543369937
 21
145.8727417138802
 31
0.0
 11
282.4289131091155
 21
145.8314715996712
 31
0.0
 11
282.387608964579
 21
145.7850427786327
 31
0.0
 11
282.3566306533593
 21
145.7592487849123
 31
0.0
 11
282.3256527477742
 21
145.7282963141488
 31
0.0
 11
282.2998373532129
 21
145.6870261999399
 31
0.0
 11
282.2688594476279
 21
145.6199620920104
 31
0.0
 11
282.2275548974567
 21
145.5632156275265
 31
0.0
 11
282.2172290641398
 21
145.5322629269765
 31
0.0
 11
282.1965769918715
 21
145.5013104562129
 31
0.0
 11
282.1810878362617
 21
145.4600401122175
 31
0.0
 11
282.1759245139688
 21
145.4290876414539
 31
0.0
 11
282.1707615973103
 21
145.4032936477335
 31
0.0
 11
282.1604357639934
 21
145.3671824701405
 31
0.0
 11
282.1604357639934
 21
145.325912126145
 31
0.0
 11
282.1604357639934
 21
145.2846420119361
 31
0.0
 11
282.1604357639934
 21
145.2485306045566
 31
0.0
 11
282.1655986806519
 21
145.1659903761386
 31
0.0
 11
282.1759245139688
 21
145.1350376755886
 31
0.0
 11
282.1965769918715
 21
145.0731325042752
 31
0.0
 11
282.2223919807983
 21
145.0215447466207
 31
0.0
 11
282.289511519896
 21
144.9338458113732
 31
0.0
 11
282.3979352035305
 21
144.8513053531688
 31
0.0
 11
282.5906946440765
 21
144.8116858482801
 31
0.0
  0
SPLINE
  5
16F3
102
{ACAD_REACTORS
330
16F9
102
}
330
18
100
AcDbEntity
  8
ROGO
 62
     4
100
AcDbSpline
210
0.0
220
0.0
230
1.0
 70
     8
 71
     3
 72
    25
 73
    21
 74
     0
 42
0.0000000001
 43
0.0000000001
 40
0.0
 40
0.0
 40
0.0
 40
0.0
 40
0.4087168505087288
 40
0.6887487002771746
 40
0.9415836120477687
 40
1.17452070575514
 40
1.41154617586699
 40
1.599156012919487
 40
1.80099909059943
 40
2.178735911501585
 40
2.521686161369157
 40
2.762704659361267
 40
3.06256558063785
 40
3.222432137207705
 40
3.399493810628493
 40
3.567459719866414
 40
3.743172740007509
 40
3.995988754699505
 40
4.17170091132118
 40
4.337226830236035
 40
4.337226830236035
 40
4.337226830236035
 40
4.337226830236035
 10
283.6680410959227
 20
146.0636163942232
 30
0.0
 10
283.7147717568731
 20
146.0621149862834
 30
0.0
 10
283.7935198729649
 20
146.0595848905317
 30
0.0
 10
283.8780656905492
 20
145.9935024779719
 30
0.0
 10
283.9427577025348
 20
145.9387150948538
 30
0.0
 10
283.9886768956318
 20
145.8724797141053
 30
0.0
 10
284.0289263549514
 20
145.8115798097983
 30
0.0
 10
284.0554476970579
 20
145.7472835232143
 30
0.0
 10
284.0915219622171
 20
145.670133867696
 30
0.0
 10
284.1064549258209
 20
145.5669190906172
 30
0.0
 10
284.096365933299
 20
145.4602370951471
 30
0.0
 10
284.0700383734858
 20
145.3656733192321
 30
0.0
 10
284.0424228799969
 20
145.2931262117283
 30
0.0
 10
284.0098747336853
 20
145.2299694539692
 30
0.0
 10
283.9710731840914
 20
145.189075448421
 30
0.0
 10
283.9441542284874
 20
145.1370791190218
 30
0.0
 10
283.8924463582099
 20
145.0945489131424
 30
0.0
 10
283.8505291693613
 20
145.0420726084073
 30
0.0
 10
283.8029618897189
 20
144.997031638022
 30
0.0
 10
283.7761432466025
 20
144.9692419020827
 30
0.0
 10
283.7620038112038
 20
144.9575575930713
 30
0.0
  0
LINE
  5
16F4
102
{ACAD_REACTORS
330
16F9
102
}
330
18
100
AcDbEntity
  8
ROGO
 62
     4
100
AcDbLine
 10
282.955542777312
 20
146.0636163942232
 30
0.0
 11
283.6680410959227
 21
146.0636163942232
 31
0.0
  0
LINE
  5
16F5
102
{ACAD_REACTORS
330
16F9
102
}
330
18
100
AcDbEntity
  8
ROGO
 62
     4
100
AcDbLine
 10
282.5906946440765
 20
144.8116858482801
 30
0.0
 11
283.3031929626873
 21
144.8116858482801
 31
0.0
  0
SPLINE
  5
16F6
102
{ACAD_REACTORS
330
16F9
102
}
330
18
100
AcDbEntity
  8
ROGO
 62
     4
100
AcDbSpline
210
0.0
220
0.0
230
1.0
 70
     8
 71
     3
 72
    11
 73
     7
 74
     0
 42
0.0000000001
 43
0.0000000001
 40
0.1647869275458134
 40
0.1647869275458134
 40
0.1647869275458134
 40
0.1647869275458134
 40
0.2895635144633836
 40
0.5387013147903714
 40
0.7953622617455423
 40
0.8850764140209602
 40
0.8850764140209602
 40
0.8850764140209602
 40
0.8850764140209602
 10
283.5405653544123
 20
144.839481588075
 30
0.0
 10
283.5272938006744
 20
144.8357874460336
 30
0.0
 10
283.4861448361149
 20
144.8292102311263
 30
0.0
 10
283.4171229352989
 20
144.8201789426079
 30
0.0
 10
283.351521070741
 20
144.8107544635358
 30
0.0
 10
283.3131352284738
 20
144.8114942398136
 30
0.0
 10
283.3031929626873
 20
144.8116858482801
 30
0.0
  0
SPLINE
  5
16F7
102
{ACAD_REACTORS
330
16F9
102
}
330
18
100
AcDbEntity
  8
ROGO
 62
     4
100
AcDbSpline
210
0.0
220
0.0
230
1.0
 70
     8
 71
     3
 72
     9
 73
     5
 74
     3
 42
0.0000000001
 43
0.0000000001
 44
0.0000000001
 40
0.0
 40
0.0
 40
0.0
 40
0.0
 40
0.1078348623950619
 40
0.2528255661270943
 40
0.2528255661270943
 40
0.2528255661270943
 40
0.2528255661270943
 10
283.5405653544123
 20
144.839481588075
 30
0.0
 10
283.5752050321353
 20
144.8500793730936
 30
0.0
 10
283.6564199188265
 20
144.8749265416023
 30
0.0
 10
283.723522019436
 20
144.9274413429067
 30
0.0
 10
283.7620038112038
 20
144.9575575930713
 30
0.0
 11
283.5405653544123
 21
144.839481588075
 31
0.0
 11
283.6419170134626
 21
144.8763081919844
 31
0.0
 11
283.7620038112038
 21
144.9575575930713
 31
0.0
  0
ELLIPSE
  5
16F8
102
{ACAD_REACTORS
330
16F9
102
}
330
18
100
AcDbEntity
  8
ROGO
 62
     4
100
AcDbEllipse
 10
283.1192787893201
 20
145.4201960530011
 30
0.0
 11
0.1692676504802256
 21
0.148849717495386
 31
0.0
210
0.0
220
0.0
230
1.0
 40
0.6788083417438791
 41
0.0
 42
6.283185307179586
  0
HATCH
  5
16F9
330
18
100
AcDbEntity
  8
ROGO
 62
     4
100
AcDbHatch
 10
0.0
 20
0.0
 30
0.0
210
0.0
220
0.0
230
1.0
  2
SOLID
 70
     1
 71
     1
 91
        2
 92
        5
 93
        6
 72
     4
 94
        3
 73
     0
 74
     0
 95
       38
 96
       34
 40
0.0
 40
0.0
 40
0.0
 40
0.0
 40
0.1716253587406623
 40
0.2255253290976248
 40
0.2947831262912113
 40
0.352498070257192
 40
0.401194707389018
 40
0.4658749546664991
 40
0.4989240118098149
 40
0.5361459251283493
 40
0.5910040209698863
 40
0.6531463397142244
 40
0.6934574532944029
 40
0.7372488460652118
 40
0.7859279681112547
 40
0.8598010024797554
 40
0.9299880888722469
 40
0.962617715058074
 40
0.99982743872465
 40
1.043908673224191
 40
1.075288847593852
 40
1.101594470956001
 40
1.139152958423429
 40
1.180423302418936
 40
1.221693416627877
 40
1.257804824007385
 40
1.340506365805091
 40
1.373135991990864
 40
1.438395283121515
 40
1.496081593396144
 40
1.606517709645446
 40
1.74278444224538
 40
1.93957343352095
 40
1.93957343352095
 40
1.93957343352095
 40
1.93957343352095
 10
282.955542777312
 20
146.0636163942232
 10
282.8983349009988
 20
146.059575061021
 10
282.8231605489848
 20
146.0542645229565
 10
282.7277066993872
 20
146.0281130140276
 10
282.6756737905197
 20
145.9969581458433
 10
282.6215231485554
 20
145.974057824381
 10
282.5753546829332
 20
145.9401469895311
 10
282.528656254646
 20
145.9226730630388
 10
282.4959565856425
 20
145.8911644502709
 10
282.458109386033
 20
145.8719176296561
 10
282.4279709890258
 20
145.8288376496581
 10
282.3942848092888
 20
145.7885594294441
 10
282.3552046029196
 20
145.7591581250286
 10
282.3231309530608
 20
145.7282781533265
 10
282.2937078391139
 20
145.6806210786142
 10
282.2762939234088
 20
145.6172989382578
 10
282.2272070179955
 20
145.5773196224765
 10
282.2198160669351
 20
145.5292525559495
 10
282.1926646026467
 20
145.5008937955485
 10
282.1808581963697
 20
145.4642867099613
 10
282.1763617485592
 20
145.4307481533998
 10
282.1709649390086
 20
145.3994254632885
 10
282.1568479073036
 20
145.3664753769094
 10
282.161455755159
 20
145.3257733367361
 10
282.1601431176422
 20
145.2863602002698
 10
282.1609156063617
 20
145.2331512387439
 10
282.1581275875896
 20
145.1813457713605
 10
282.1803609447293
 20
145.1249691354873
 10
282.1935179076382
 20
145.0747171640593
 10
282.2295503908336
 20
145.0051372158764
 10
282.2917056692362
 20
144.924857000281
 10
282.4098991302879
 20
144.8274120289639
 10
282.5235455987653
 20
144.8175266902191
 10
282.5906946440765
 20
144.8116858482801
 72
     1
 10
282.5906946440765
 20
144.8116858482801
 11
283.3031929626872
 21
144.8116858482801
 72
     4
 94
        3
 73
     0
 74
     0
 95
       11
 96
        7
 40
0.1647869275458135
 40
0.1647869275458135
 40
0.1647869275458135
 40
0.1647869275458135
 40
0.2545010798212315
 40
0.5111620267764023
 40
0.7602998271033902
 40
0.8850764140209603
 40
0.8850764140209603
 40
0.8850764140209603
 40
0.8850764140209603
 10
283.3031929626873
 20
144.8116858482801
 10
283.3131352284738
 20
144.8114942398136
 10
283.351521070741
 20
144.8107544635358
 10
283.4171229352989
 20
144.8201789426079
 10
283.4861448361149
 20
144.8292102311263
 10
283.5272938006744
 20
144.8357874460336
 10
283.5405653544123
 20
144.839481588075
 72
     4
 94
        3
 73
     0
 74
     0
 95
        9
 96
        5
 40
0.0
 40
0.0
 40
0.0
 40
0.0
 40
0.1078348623950619
 40
0.2528255661270943
 40
0.2528255661270943
 40
0.2528255661270943
 40
0.2528255661270943
 10
283.5405653544123
 20
144.839481588075
 10
283.5752050321353
 20
144.8500793730936
 10
283.6564199188265
 20
144.8749265416023
 10
283.723522019436
 20
144.9274413429067
 10
283.7620038112038
 20
144.9575575930713
 72
     4
 94
        3
 73
     0
 74
     0
 95
       25
 96
       21
 40
0.0
 40
0.0
 40
0.0
 40
0.0
 40
0.165525918914855
 40
0.3412380755365305
 40
0.5940540902285263
 40
0.7697671103696209
 40
0.9377330196075423
 40
1.11479469302833
 40
1.274661249598185
 40
1.574522170874768
 40
1.815540668866877
 40
2.15849091873445
 40
2.536227739636605
 40
2.738070817316548
 40
2.925680654369045
 40
3.162706124480894
 40
3.395643218188267
 40
3.648478129958861
 40
3.928509979727306
 40
4.337226830236035
 40
4.337226830236035
 40
4.337226830236035
 40
4.337226830236035
 10
283.7620038112038
 20
144.9575575930713
 10
283.7761432466025
 20
144.9692419020827
 10
283.8029618897189
 20
144.997031638022
 10
283.8505291693613
 20
145.0420726084073
 10
283.8924463582099
 20
145.0945489131424
 10
283.9441542284874
 20
145.1370791190218
 10
283.9710731840914
 20
145.189075448421
 10
284.0098747336853
 20
145.2299694539692
 10
284.0424228799969
 20
145.2931262117283
 10
284.0700383734858
 20
145.3656733192321
 10
284.096365933299
 20
145.4602370951471
 10
284.1064549258209
 20
145.5669190906172
 10
284.0915219622171
 20
145.670133867696
 10
284.0554476970579
 20
145.7472835232143
 10
284.0289263549514
 20
145.8115798097983
 10
283.9886768956318
 20
145.8724797141053
 10
283.9427577025348
 20
145.9387150948538
 10
283.8780656905492
 20
145.9935024779719
 10
283.7935198729649
 20
146.0595848905317
 10
283.7147717568731
 20
146.0621149862834
 10
283.6680410959227
 20
146.0636163942232
 72
     1
 10
283.6680410959226
 20
146.0636163942232
 11
282.9555427773119
 21
146.0636163942232
 97
        6
330
16F3
330
16F4
330
16F2
330
16F5
330
16F6
330
16F7
 92
       20
 93
        1
 72
     3
 10
283.1192787893201
 20
145.4201960530011
 11
0.1692676504802256
 21
0.148849717495386
 40
0.6788083417438791
 50
0.0
 51
360.0
 73
     1
 97
        1
330
16F8
 75
     0
 76
     1
 47
0.088756267210375
 98
        2
 10
283.1690582623186
 20
145.7178281605486
 10
283.1690582623186
 20
145.7178281605486
450
        0
451
        0
460
0.0
461
0.0
452
        0
462
0.0
453
        0
470

  0
LINE
  5
16FA
102
{ACAD_REACTORS
330
16CC
102
}
330
18
100
AcDbEntity
  8
ROGO
 62
     4
100
AcDbLine
 10
280.2262829784445
 20
144.8116858482802
 30
0.0
 11
279.5311079326625
 21
144.8116858482801
 31
0.0
  0
LINE
  5
16FB
102
{ACAD_REACTORS
330
16CC
102
}
330
18
100
AcDbEntity
  8
ROGO
 62
     4
100
AcDbLine
 10
279.6724359578592
 20
146.0584161949165
 30
0.0
 11
280.2262829784445
 21
144.8116858482801
 31
0.0
  0
LINE
  5
16FC
102
{ACAD_REACTORS
330
16CC
102
}
330
18
100
AcDbEntity
  8
ROGO
 62
     4
100
AcDbLine
 10
279.4256588867041
 20
145.0490555925125
 30
0.0
 11
279.5311079326625
 21
144.8116858482801
 31
0.0
  0
LINE
  5
16FD
102
{ACAD_REACTORS
330
16FF
102
}
330
18
100
AcDbEntity
  8
ROGO
 62
     4
100
AcDbLine
 10
280.5677140173908
 20
144.8116858482801
 30
0.0
 11
281.6415392769788
 21
144.8116858482801
 31
0.0
  0
SPLINE
  5
16FE
102
{ACAD_REACTORS
330
16FF
102
}
330
18
100
AcDbEntity
  8
ROGO
 62
     4
100
AcDbSpline
210
0.0
220
0.0
230
1.0
 70
     8
 71
     3
 72
    26
 73
    22
 74
    20
 42
0.0000000001
 43
0.0000000001
 44
0.0000000001
 40
0.0
 40
0.0
 40
0.0
 40
0.0
 40
0.2261711682465229
 40
0.3775752524709292
 40
0.4867499270747143
 40
0.568267124049349
 40
0.6739992068898783
 40
0.7511733198246171
 40
0.8905317800930589
 40
1.003967563249478
 40
1.081122071918962
 40
1.156776017963922
 40
1.292106219407743
 40
1.387800824155796
 40
1.439339762213627
 40
1.512549301287547
 40
1.565415552119591
 40
1.642001295672489
 40
1.685342202005951
 40
1.779656875742602
 40
1.822721775074863
 40
1.822721775074863
 40
1.822721775074863
 40
1.822721775074863
 10
281.0146731966902
 20
146.0584161949165
 30
0.0
 10
280.9379072076496
 20
146.0538362043705
 30
0.0
 10
280.8097523331008
 20
146.0461902647924
 30
0.0
 10
280.6690390604484
 20
145.9607084628047
 30
0.0
 10
280.565944279097
 20
145.9110130996181
 30
0.0
 10
280.4924172060657
 20
145.8434564871322
 30
0.0
 10
280.4385215634772
 20
145.7736754413513
 30
0.0
 10
280.3705759881562
 20
145.6905318369512
 30
0.0
 10
280.3151683130287
 20
145.5937144741245
 30
0.0
 10
280.2869525525357
 20
145.4870048618138
 30
0.0
 10
280.2619592996877
 20
145.4019566816532
 30
0.0
 10
280.2434238849652
 20
145.3071815838781
 30
0.0
 10
280.2481398192014
 20
145.2047911381452
 30
0.0
 10
280.2548932528587
 20
145.1096961339943
 30
0.0
 10
280.2850456919202
 20
145.0418125387052
 30
0.0
 10
280.3193839790939
 20
144.9934840966625
 30
0.0
 10
280.3614307414779
 20
144.9402556756747
 30
0.0
 10
280.4074390943979
 20
144.9050026648146
 30
0.0
 10
280.4454917577255
 20
144.8411394666965
 30
0.0
 10
280.5121016611988
 20
144.8329900620322
 30
0.0
 10
280.5544415658208
 20
144.8167703144784
 30
0.0
 10
280.5677140173909
 20
144.8116858482801
 30
0.0
 11
281.0146731966902
 21
146.0584161949165
 31
0.0
 11
280.7911936070405
 21
146.0236272547774
 31
0.0
 11
280.6557512544911
 21
145.9559621540555
 31
0.0
 11
280.5609418024111
 21
145.901830117597
 31
0.0
 11
280.4999930358207
 21
145.8476978605435
 31
0.0
 11
280.4322720542506
 21
145.7664996955582
 31
0.0
 11
280.3848673282106
 21
145.705601126968
 31
0.0
 11
280.3171459572313
 21
145.5838037691925
 31
0.0
 11
280.2832856611508
 21
145.4755394756806
 31
0.0
 11
280.2629694056208
 21
145.4011078428269
 31
0.0
 11
280.2494249756612
 21
145.3266762099733
 31
0.0
 11
280.2494249756612
 21
145.1913460085295
 31
0.0
 11
280.2629694056208
 21
145.0966147792809
 31
0.0
 11
280.2832856611508
 21
145.0492490543591
 31
0.0
 11
280.3239181722111
 21
144.9883504857687
 31
0.0
 11
280.3577788577007
 21
144.9477512929787
 31
0.0
 11
280.4119554093112
 21
144.8936192565201
 31
0.0
 11
280.4390438798212
 21
144.8597865958616
 31
0.0
 11
280.5270815063306
 21
144.8259541557982
 31
0.0
 11
280.5677140173909
 21
144.8116858482801
 31
0.0
  0
HATCH
  5
16FF
330
18
100
AcDbEntity
  8
ROGO
 62
     4
100
AcDbHatch
 10
0.0
 20
0.0
 30
0.0
210
0.0
220
0.0
230
1.0
  2
SOLID
 70
     1
 71
     1
 91
        1
 92
        5
 93
        8
 72
     1
 10
282.0319014618568
 20
145.594551673923
 11
282.2631992934537
 21
146.0584161949167
 72
     1
 10
282.2631992934537
 20
146.0584161949167
 11
281.0146731966906
 21
146.0584161949166
 72
     4
 94
        3
 73
     0
 74
     0
 95
       26
 96
       22
 40
0.0
 40
0.0
 40
0.0
 40
0.0
 40
0.2261711682465229
 40
0.3775752524709292
 40
0.4867499270747143
 40
0.568267124049349
 40
0.6739992068898783
 40
0.7511733198246171
 40
0.8905317800930589
 40
1.003967563249478
 40
1.081122071918962
 40
1.156776017963922
 40
1.292106219407743
 40
1.387800824155796
 40
1.439339762213627
 40
1.512549301287547
 40
1.565415552119591
 40
1.642001295672489
 40
1.685342202005951
 40
1.779656875742602
 40
1.822721775074863
 40
1.822721775074863
 40
1.822721775074863
 40
1.822721775074863
 10
281.0146731966902
 20
146.0584161949165
 10
280.9379072076496
 20
146.0538362043705
 10
280.8097523331008
 20
146.0461902647924
 10
280.6690390604484
 20
145.9607084628047
 10
280.565944279097
 20
145.9110130996181
 10
280.4924172060657
 20
145.8434564871322
 10
280.4385215634772
 20
145.7736754413513
 10
280.3705759881562
 20
145.6905318369512
 10
280.3151683130287
 20
145.5937144741245
 10
280.2869525525357
 20
145.4870048618138
 10
280.2619592996877
 20
145.4019566816532
 10
280.2434238849652
 20
145.3071815838781
 10
280.2481398192014
 20
145.2047911381452
 10
280.2548932528587
 20
145.1096961339943
 10
280.2850456919202
 20
145.0418125387052
 10
280.3193839790939
 20
144.9934840966625
 10
280.3614307414779
 20
144.9402556756747
 10
280.4074390943979
 20
144.9050026648146
 10
280.4454917577255
 20
144.8411394666965
 10
280.5121016611988
 20
144.8329900620322
 10
280.5544415658208
 20
144.8167703144784
 10
280.5677140173909
 20
144.8116858482801
 72
     1
 10
280.5677140173909
 20
144.8116858482801
 11
281.6415392769788
 21
144.8116858482801
 72
     1
 10
281.6415392769788
 20
144.8116858482801
 11
281.8728346591949
 21
145.2755454570753
 72
     1
 10
281.8728346591949
 20
145.2755454570753
 11
281.0756219632806
 21
145.2755454570753
 72
     4
 94
        3
 73
     0
 74
     0
 95
       16
 96
       12
 40
0.0
 40
0.0
 40
0.0
 40
0.0
 40
0.0683030918787651
 40
0.1373106805328241
 40
0.1784706056911381
 40
0.2179345026857031
 40
0.2612752368189221
 40
0.2915411730568249
 40
0.3202609197926786
 40
0.3785004428982989
 40
0.4977391777073984
 40
0.4977391777073984
 40
0.4977391777073984
 40
0.4977391777073984
 10
281.0756219632806
 20
145.2755454570753
 10
281.0515752189503
 20
145.2826203618459
 10
281.0032337055903
 20
145.2968431438903
 10
280.9991879112886
 20
145.3657899662126
 10
281.0046997206998
 20
145.4149202190167
 10
281.0277831908247
 20
145.45068991208
 10
281.0557874438609
 20
145.4767170701362
 10
281.0662146692893
 20
145.5106133739992
 10
281.0968645484166
 20
145.5362093242132
 10
281.151214996577
 20
145.5792325410059
 10
281.2113171836219
 20
145.5883955248914
 10
281.2516968268902
 20
145.594551673923
 72
     1
 10
281.2516968268902
 20
145.594551673923
 11
282.0319014618568
 21
145.594551673923
 97
        8
330
16F1
330
16FE
330
16FD
330
16F0
330
16EE
330
16EF
330
16ED
330
16EC
 75
     0
 76
     1
 47
0.0514683685270805
 98
        1
 10
281.4513289986019
 20
145.7808794035695
450
        0
451
        0
460
0.0
461
0.0
452
        0
462
0.0
453
        0
470

  0
LINE
  5
1700
102
{ACAD_REACTORS
330
1713
102
}
330
18
100
AcDbEntity
  8
ROGO
 62
     4
100
AcDbLine
 10
287.2592360171152
 20
146.0584161949165
 30
0.0
 11
287.1531803999644
 21
145.845723158805
 31
0.0
  0
LINE
  5
1701
102
{ACAD_REACTORS
330
1713
102
}
330
18
100
AcDbEntity
  8
ROGO
 62
     4
100
AcDbLine
 10
287.1531803999644
 20
145.845723158805
 30
0.0
 11
287.4892886569511
 21
146.0584161949165
 31
0.0
  0
LINE
  5
1702
102
{ACAD_REACTORS
330
1713
102
}
330
18
100
AcDbEntity
  8
ROGO
 62
     4
100
AcDbLine
 10
287.0270699677238
 20
145.084365467829
 30
0.0
 11
287.5127631191595
 21
144.1103147407414
 31
0.0
  0
LINE
  5
1703
102
{ACAD_REACTORS
330
1713
102
}
330
18
100
AcDbEntity
  8
ROGO
 62
     4
100
AcDbLine
 10
287.0270699677238
 20
145.084365467829
 30
0.0
 11
288.2071164461017
 21
146.0584161949165
 31
0.0
  0
LINE
  5
1704
102
{ACAD_REACTORS
330
1713
102
}
330
18
100
AcDbEntity
  8
ROGO
 62
     4
100
AcDbLine
 10
287.4892886569511
 20
146.0584161949165
 30
0.0
 11
288.2071164461017
 21
146.0584161949165
 31
0.0
  0
LINE
  5
1705
102
{ACAD_REACTORS
330
1713
102
}
330
18
100
AcDbEntity
  8
ROGO
 62
     4
100
AcDbLine
 10
286.794935330009
 20
144.1103147407414
 30
0.0
 11
287.5127631191595
 21
144.1103147407414
 31
0.0
  0
LINE
  5
1706
102
{ACAD_REACTORS
330
1710
102
}
330
18
100
AcDbEntity
  8
ROGO
 62
     4
100
AcDbLine
 10
284.584790091326
 20
144.8116858482801
 30
0.0
 11
285.6586153509141
 21
144.8116858482801
 31
0.0
  0
LINE
  5
1707
102
{ACAD_REACTORS
330
1710
102
}
330
18
100
AcDbEntity
  8
ROGO
 62
     4
100
AcDbLine
 10
285.0317492706257
 20
146.0584161949165
 30
0.0
 11
286.2802753673889
 21
146.0584161949165
 31
0.0
  0
SPLINE
  5
1708
102
{ACAD_REACTORS
330
1710
102
}
330
18
100
AcDbEntity
  8
ROGO
 62
     4
100
AcDbSpline
210
0.0
220
0.0
230
1.0
 70
     8
 71
     3
 72
    16
 73
    12
 74
    10
 42
0.0000000001
 43
0.0000000001
 44
0.0000000001
 40
0.0
 40
0.0
 40
0.0
 40
0.0
 40
0.1192387348090446
 40
0.177478257914731
 40
0.2061980046505444
 40
0.2364639408884473
 40
0.2798046750216751
 40
0.3192685720162108
 40
0.3604284971744688
 40
0.4294360858285167
 40
0.4977391777072823
 40
0.4977391777072823
 40
0.4977391777072823
 40
0.4977391777072823
 10
285.2687729008254
 20
145.594551673923
 30
0.0
 10
285.228393257557
 20
145.5883955248914
 30
0.0
 10
285.168291070512
 20
145.579232541006
 30
0.0
 10
285.113940622352
 20
145.5362093242131
 30
0.0
 10
285.0832907432245
 20
145.5106133739992
 30
0.0
 10
285.0728635177961
 20
145.4767170701362
 30
0.0
 10
285.04485926476
 20
145.45068991208
 30
0.0
 10
285.0217757946351
 20
145.4149202190166
 30
0.0
 10
285.016263985224
 20
145.3657899662127
 30
0.0
 10
285.0203097795254
 20
145.2968431438902
 30
0.0
 10
285.0686512928855
 20
145.2826203618458
 30
0.0
 10
285.0926980372157
 20
145.2755454570752
 30
0.0
 11
285.2687729008254
 21
145.594551673923
 31
0.0
 11
285.1536471932153
 21
145.5635041727975
 31
0.0
 11
285.1062424671753
 21
145.529671732734
 31
0.0
 11
285.0859262116452
 21
145.5093721363389
 31
0.0
 11
285.0723817816856
 21
145.4823060078121
 31
0.0
 11
285.0452933111758
 21
145.4484735677487
 31
0.0
 11
285.0249770556457
 21
145.4146409070903
 31
0.0
 11
285.0182048406659
 21
145.3740419348951
 31
0.0
 11
285.0317492706254
 21
145.3063766135782
 31
0.0
 11
285.0926980372157
 21
145.2755454570752
 31
0.0
  0
SPLINE
  5
1709
102
{ACAD_REACTORS
330
1710
102
}
330
18
100
AcDbEntity
  8
ROGO
 62
     4
100
AcDbSpline
210
0.0
220
0.0
230
1.0
 70
     8
 71
     3
 72
    26
 73
    22
 74
    20
 42
0.0000000001
 43
0.0000000001
 44
0.0000000001
 40
0.0
 40
0.0
 40
0.0
 40
0.0
 40
0.2261711682465229
 40
0.3775752524709292
 40
0.4867499270747143
 40
0.568267124049349
 40
0.6739992068899219
 40
0.7511733198246508
 40
0.8905317800930927
 40
1.003967563249621
 40
1.081122071918995
 40
1.156776017963945
 40
1.292106219407766
 40
1.38780082415581
 40
1.439339762213746
 40
1.512549301287572
 40
1.565415552119695
 40
1.642001295672594
 40
1.68534220200602
 40
1.779656875742671
 40
1.822721775074878
 40
1.822721775074878
 40
1.822721775074878
 40
1.822721775074878
 10
285.0317492706254
 20
146.0584161949165
 30
0.0
 10
284.9549832815847
 20
146.0538362043705
 30
0.0
 10
284.826828407036
 20
146.0461902647924
 30
0.0
 10
284.6861151343837
 20
145.9607084628047
 30
0.0
 10
284.5830203530323
 20
145.9110130996181
 30
0.0
 10
284.5094932800011
 20
145.8434564871323
 30
0.0
 10
284.4555976374126
 20
145.7736754413513
 30
0.0
 10
284.3876520620913
 20
145.6905318369512
 30
0.0
 10
284.3322443869639
 20
145.5937144741245
 30
0.0
 10
284.3040286264709
 20
145.4870048618137
 30
0.0
 10
284.2790353736228
 20
145.4019566816531
 30
0.0
 10
284.2604999589004
 20
145.3071815838781
 30
0.0
 10
284.2652158931366
 20
145.2047911381451
 30
0.0
 10
284.271969326794
 20
145.1096961339943
 30
0.0
 10
284.3021217658552
 20
145.0418125387051
 30
0.0
 10
284.3364600530291
 20
144.9934840966626
 30
0.0
 10
284.3785068154132
 20
144.9402556756747
 30
0.0
 10
284.4245151683331
 20
144.9050026648146
 30
0.0
 10
284.4625678316607
 20
144.8411394666965
 30
0.0
 10
284.5291777351341
 20
144.8329900620322
 30
0.0
 10
284.571517639756
 20
144.8167703144784
 30
0.0
 10
284.5847900913261
 20
144.8116858482801
 30
0.0
 11
285.0317492706254
 21
146.0584161949165
 31
0.0
 11
284.8082696809758
 21
146.0236272547774
 31
0.0
 11
284.6728273284263
 21
145.9559621540555
 31
0.0
 11
284.5780178763464
 21
145.901830117597
 31
0.0
 11
284.517069109756
 21
145.8476978605435
 31
0.0
 11
284.4493481281859
 21
145.7664996955581
 31
0.0
 11
284.4019434021458
 21
145.705601126968
 31
0.0
 11
284.3342220311665
 21
145.5838037691925
 31
0.0
 11
284.300361735086
 21
145.4755394756805
 31
0.0
 11
284.2800454795559
 21
145.4011078428269
 31
0.0
 11
284.2665010495964
 21
145.3266762099733
 31
0.0
 11
284.2665010495964
 21
145.1913460085295
 31
0.0
 11
284.2800454795559
 21
145.0966147792809
 31
0.0
 11
284.300361735086
 21
145.049249054359
 31
0.0
 11
284.3409942461462
 21
144.9883504857687
 31
0.0
 11
284.374854931636
 21
144.9477512929786
 31
0.0
 11
284.4290314832465
 21
144.8936192565201
 31
0.0
 11
284.4561199537565
 21
144.8597865958616
 31
0.0
 11
284.5441575802658
 21
144.8259541557982
 31
0.0
 11
284.5847900913261
 21
144.8116858482801
 31
0.0
  0
LINE
  5
170A
102
{ACAD_REACTORS
330
1710
102
}
330
18
100
AcDbEntity
  8
ROGO
 62
     4
100
AcDbLine
 10
285.8899107331301
 20
145.2755454570753
 30
0.0
 11
285.6586153509141
 21
144.8116858482801
 31
0.0
  0
LINE
  5
170B
102
{ACAD_REACTORS
330
1710
102
}
330
18
100
AcDbEntity
  8
ROGO
 62
     4
100
AcDbLine
 10
285.0926980372158
 20
145.2755454570753
 30
0.0
 11
285.8899107331301
 21
145.2755454570753
 31
0.0
  0
LINE
  5
170C
102
{ACAD_REACTORS
330
1710
102
}
330
18
100
AcDbEntity
  8
ROGO
 62
     4
100
AcDbLine
 10
285.2687729008254
 20
145.594551673923
 30
0.0
 11
286.0489775357921
 21
145.594551673923
 31
0.0
  0
LINE
  5
170D
102
{ACAD_REACTORS
330
1710
102
}
330
18
100
AcDbEntity
  8
ROGO
 62
     4
100
AcDbLine
 10
286.2802753673889
 20
146.0584161949165
 30
0.0
 11
286.0489775357921
 21
145.594551673923
 31
0.0
  0
LINE
  5
170E
102
{ACAD_REACTORS
330
1713
102
}
330
18
100
AcDbEntity
  8
ROGO
 62
     4
100
AcDbLine
 10
286.5413925221262
 20
146.0584161949165
 30
0.0
 11
285.5700062192545
 21
144.1103147407414
 31
0.0
  0
LINE
  5
170F
102
{ACAD_REACTORS
330
1713
102
}
330
18
100
AcDbEntity
  8
ROGO
 62
     4
100
AcDbLine
 10
286.5413925221262
 20
144.6187912461974
 30
0.0
 11
286.2878497142435
 21
144.1103147407414
 31
0.0
  0
HATCH
  5
1710
330
18
100
AcDbEntity
  8
ROGO
 62
     4
100
AcDbHatch
 10
0.0
 20
0.0
 30
0.0
210
0.0
220
0.0
230
1.0
  2
SOLID
 70
     1
 71
     1
 91
        1
 92
        5
 93
        8
 72
     4
 94
        3
 73
     0
 74
     0
 95
       26
 96
       22
 40
0.0
 40
0.0
 40
0.0
 40
0.0
 40
0.2261711682465229
 40
0.3775752524709292
 40
0.4867499270747143
 40
0.568267124049349
 40
0.6739992068899219
 40
0.7511733198246508
 40
0.8905317800930927
 40
1.003967563249621
 40
1.081122071918995
 40
1.156776017963945
 40
1.292106219407766
 40
1.38780082415581
 40
1.439339762213746
 40
1.512549301287572
 40
1.565415552119695
 40
1.642001295672594
 40
1.68534220200602
 40
1.779656875742671
 40
1.822721775074878
 40
1.822721775074878
 40
1.822721775074878
 40
1.822721775074878
 10
285.0317492706254
 20
146.0584161949165
 10
284.9549832815847
 20
146.0538362043705
 10
284.826828407036
 20
146.0461902647924
 10
284.6861151343837
 20
145.9607084628047
 10
284.5830203530323
 20
145.9110130996181
 10
284.5094932800011
 20
145.8434564871323
 10
284.4555976374126
 20
145.7736754413513
 10
284.3876520620913
 20
145.6905318369512
 10
284.3322443869639
 20
145.5937144741245
 10
284.3040286264709
 20
145.4870048618137
 10
284.2790353736228
 20
145.4019566816531
 10
284.2604999589004
 20
145.3071815838781
 10
284.2652158931366
 20
145.2047911381451
 10
284.271969326794
 20
145.1096961339943
 10
284.3021217658552
 20
145.0418125387051
 10
284.3364600530291
 20
144.9934840966626
 10
284.3785068154132
 20
144.9402556756747
 10
284.4245151683331
 20
144.9050026648146
 10
284.4625678316607
 20
144.8411394666965
 10
284.5291777351341
 20
144.8329900620322
 10
284.571517639756
 20
144.8167703144784
 10
284.5847900913261
 20
144.8116858482801
 72
     1
 10
284.5847900913261
 20
144.8116858482801
 11
285.6586153509141
 21
144.8116858482801
 72
     1
 10
285.6586153509141
 20
144.8116858482801
 11
285.8899107331301
 21
145.2755454570753
 72
     1
 10
285.8899107331301
 20
145.2755454570753
 11
285.0926980372157
 21
145.2755454570753
 72
     4
 94
        3
 73
     0
 74
     0
 95
       16
 96
       12
 40
0.0
 40
0.0
 40
0.0
 40
0.0
 40
0.0683030918787657
 40
0.1373106805328135
 40
0.1784706056910715
 40
0.2179345026856072
 40
0.261275236818835
 40
0.2915411730567379
 40
0.3202609197925513
 40
0.3785004428982377
 40
0.4977391777072823
 40
0.4977391777072823
 40
0.4977391777072823
 40
0.4977391777072823
 10
285.0926980372157
 20
145.2755454570752
 10
285.0686512928855
 20
145.2826203618458
 10
285.0203097795254
 20
145.2968431438902
 10
285.016263985224
 20
145.3657899662127
 10
285.0217757946351
 20
145.4149202190166
 10
285.04485926476
 20
145.45068991208
 10
285.0728635177961
 20
145.4767170701362
 10
285.0832907432245
 20
145.5106133739992
 10
285.113940622352
 20
145.5362093242131
 10
285.168291070512
 20
145.579232541006
 10
285.228393257557
 20
145.5883955248914
 10
285.2687729008254
 20
145.594551673923
 72
     1
 10
285.2687729008254
 20
145.594551673923
 11
286.0489775357921
 21
145.594551673923
 72
     1
 10
286.0489775357921
 20
145.594551673923
 11
286.2802753673888
 21
146.0584161949165
 72
     1
 10
286.2802753673888
 20
146.0584161949165
 11
285.0317492706254
 21
146.0584161949165
 97
        8
330
1707
330
1709
330
1706
330
170A
330
170B
330
1708
330
170C
330
170D
 75
     0
 76
     1
 47
0.0514683685270805
 98
        1
 10
285.2471899574723
 20
145.8301356279491
450
        0
451
        0
460
0.0
461
0.0
452
        0
462
0.0
453
        0
470

  0
LINE
  5
1711
102
{ACAD_REACTORS
330
1713
102
}
330
18
100
AcDbEntity
  8
ROGO
 62
     4
100
AcDbLine
 10
286.5413925221262
 20
146.0584161949165
 30
0.0
 11
287.2592360171152
 21
146.0584161949165
 31
0.0
  0
LINE
  5
1712
102
{ACAD_REACTORS
330
1713
102
}
330
18
100
AcDbEntity
  8
ROGO
 62
     4
100
AcDbLine
 10
286.5413925221262
 20
144.6187912461974
 30
0.0
 11
286.794935330009
 21
144.1103147407414
 31
0.0
  0
HATCH
  5
1713
330
18
100
AcDbEntity
  8
ROGO
 62
     4
100
AcDbHatch
 10
0.0
 20
0.0
 30
0.0
210
0.0
220
0.0
230
1.0
  2
SOLID
 70
     1
 71
     1
 91
        1
 92
        7
 72
     0
 73
     1
 93
       11
 10
285.5700062192545
 20
144.1103147407414
 10
286.2878497142435
 20
144.1103147407415
 10
286.5413925221262
 20
144.6187912461974
 10
286.7949353300089
 20
144.1103147407414
 10
287.5127631191596
 20
144.1103147407414
 10
287.0270699677238
 20
145.084365467829
 10
288.2071164461017
 20
146.0584161949165
 10
287.4892886569511
 20
146.0584161949165
 10
287.1531803999643
 20
145.845723158805
 10
287.2592360171152
 20
146.0584161949165
 10
286.5413925221263
 20
146.0584161949166
 97
       11
330
1704
330
1701
330
1700
330
1711
330
170E
330
16CD
330
170F
330
1712
330
1705
330
1702
330
1703
 75
     0
 76
     1
 47
0.0514683685270805
 98
        1
 10
286.479612366945
 20
145.2226427086551
450
        0
451
        0
460
0.0
461
0.0
452
        0
462
0.0
453
        0
470

  0
LINE
  5
1714
330
18
100
AcDbEntity
  8
目盛
100
AcDbLine
 10
300.6243123039522
 20
140.6338759879394
 30
0.0
 11
298.1972613208274
 21
142.3972317448169
 31
0.0
  0
LINE
  5
1715
330
18
100
AcDbEntity
  8
目盛
100
AcDbLine
 10
300.1574782494706
 20
140.0121114042669
 30
0.0
 11
298.9327379802883
 21
140.9621173374291
 31
0.0
  0
LINE
  5
1716
330
18
100
AcDbEntity
  8
目盛
100
AcDbLine
 10
299.1663906665262
 20
138.8140923154178
 30
0.0
 11
298.003718508599
 21
139.8391257066694
 31
0.0
  0
LINE
  5
1717
330
18
100
AcDbEntity
  8
目盛
100
AcDbLine
 10
299.671344451873
 20
139.4053172358981
 30
0.0
 11
298.4770489255706
 21
140.3933244200086
 31
0.0
  0
LINE
  5
1718
330
18
100
AcDbEntity
  8
目盛
100
AcDbLine
 10
293.199916732994
 20
133.8781958138304
 30
0.0
 11
292.4109025385808
 21
135.2123459556865
 31
0.0
  0
LINE
  5
1719
330
18
100
AcDbEntity
  8
目盛
100
AcDbLine
 10
292.5245451271898
 20
133.4929706510925
 30
0.0
 11
291.7778269323321
 21
134.8512460051604
 31
0.0
  0
LINE
  5
171A
330
18
100
AcDbEntity
  8
目盛
100
AcDbLine
 10
291.8374065617261
 20
133.1291495085159
 30
0.0
 11
290.7705288873381
 21
135.2230148403586
 31
0.0
  0
LINE
  5
171B
330
18
100
AcDbEntity
  8
目盛
100
AcDbLine
 10
293.8628548689024
 20
134.2844448260033
 30
0.0
 11
293.032323336685
 21
135.5931531105313
 31
0.0
  0
LINE
  5
171C
330
18
100
AcDbEntity
  8
目盛
100
AcDbLine
 10
291.1391791594078
 20
132.7870914336441
 30
0.0
 11
290.4792212574819
 21
134.1895733649664
 31
0.0
  0
LINE
  5
171D
330
18
100
AcDbEntity
  8
目盛
100
AcDbLine
 10
290.430551986383
 20
132.4671339964996
 30
0.0
 11
289.8149727558992
 21
133.8896536663097
 31
0.0
  0
LINE
  5
171E
330
18
100
AcDbEntity
  8
目盛
100
AcDbLine
 10
289.712224372118
 20
132.1695929564438
 30
0.0
 11
289.1416313154568
 21
133.6107465095706
 31
0.0
  0
LINE
  5
171F
330
18
100
AcDbEntity
  8
目盛
100
AcDbLine
 10
295.148826687411
 20
135.1583903713982
 30
0.0
 11
293.3854709305336
 21
137.5854413545229
 31
0.0
  0
LINE
  5
1720
330
18
100
AcDbEntity
  8
目盛
100
AcDbLine
 10
294.5127052950125
 20
134.7113167688826
 30
0.0
 11
293.6414760593417
 21
135.9932916590082
 31
0.0
  0
TEXT
  5
1721
330
18
100
AcDbEntity
  8
文字
100
AcDbText
 10
289.6396004002841
 20
138.3059398976503
 30
0.0
 40
2.5
  1
80
  7
STYLE3
100
AcDbText
  0
LINE
  5
1722
330
18
100
AcDbEntity
  8
目盛
100
AcDbLine
 10
295.7705912710835
 20
135.6252244258798
 30
0.0
 11
294.8205853379213
 21
136.8499646950621
 31
0.0
  0
LINE
  5
1723
330
18
100
AcDbEntity
  8
目盛
100
AcDbLine
 10
298.6431152218523
 20
138.2390201104431
 30
0.0
 11
297.513213849349
 21
139.3000681246325
 31
0.0
  0
LINE
  5
1724
330
18
100
AcDbEntity
  8
目盛
100
AcDbLine
 10
297.5436825649073
 20
137.1395874534982
 30
0.0
 11
296.4826345507178
 21
138.2694888260014
 31
0.0
  0
LINE
  5
1725
330
18
100
AcDbEntity
  8
目盛
100
AcDbLine
 10
296.9686103599326
 20
136.6163120088243
 30
0.0
 11
295.9435769686809
 21
137.7789841667515
 31
0.0
  0
LINE
  5
1726
330
18
100
AcDbEntity
  8
目盛
100
AcDbLine
 10
296.3773854394523
 20
136.1113582234773
 30
0.0
 11
295.3893782553419
 21
137.3056537497798
 31
0.0
  0
LINE
  5
1727
330
18
100
AcDbEntity
  8
目盛
100
AcDbLine
 10
298.1020345275393
 20
137.6806681478111
 30
0.0
 11
296.440333591751
 21
139.3423690835995
 31
0.0
  0
TEXT
  5
1728
330
18
100
AcDbEntity
  8
文字
100
AcDbText
 10
296.4224838632607
 20
147.8441256442495
 30
0.0
 40
2.5
  1
60
  7
STYLE3
100
AcDbText
  0
TEXT
  5
1729
330
18
100
AcDbEntity
  8
文字
100
AcDbText
 10
293.7351362681234
 20
142.5446595130403
 30
0.0
 40
2.5
  1
70
  7
STYLE3
100
AcDbText
  0
LINE
  5
172A
330
18
100
AcDbEntity
  8
目盛
100
AcDbLine
 10
303.8879407247894
 20
146.7977974561072
 30
0.0
 11
302.4295755329103
 21
147.3228412324874
 31
0.0
  0
LINE
  5
172B
330
18
100
AcDbEntity
  8
目盛
100
AcDbLine
 10
301.0713859064676
 20
141.269997380338
 30
0.0
 11
299.7894110163421
 21
142.1412266160087
 31
0.0
  0
LINE
  5
172C
330
18
100
AcDbEntity
  8
目盛
100
AcDbLine
 10
303.3155686788508
 20
145.3521506889673
 30
0.0
 11
301.8930490090406
 21
145.9677299194513
 31
0.0
  0
LINE
  5
172D
330
18
100
AcDbEntity
  8
目盛
100
AcDbLine
 10
302.9956112417062
 20
144.6435235159427
 30
0.0
 11
301.593129310384
 21
145.3034814178685
 31
0.0
  0
LINE
  5
172E
330
18
100
AcDbEntity
  8
目盛
100
AcDbLine
 10
302.2897320242579
 20
143.2581575481607
 30
0.0
 11
300.9314566701899
 21
144.0048757430184
 31
0.0
  0
LINE
  5
172F
330
18
100
AcDbEntity
  8
目盛
100
AcDbLine
 10
301.9045068615198
 20
142.5827859423564
 30
0.0
 11
300.5703567196637
 21
143.3718001367696
 31
0.0
  0
LINE
  5
1730
330
18
100
AcDbEntity
  8
目盛
100
AcDbLine
 10
301.4982578493471
 20
141.919847806448
 30
0.0
 11
300.189549564819
 21
142.7503793386654
 31
0.0
  0
LINE
  5
1731
330
18
100
AcDbEntity
  8
目盛
100
AcDbLine
 10
302.6535531668344
 20
143.9452961136244
 30
0.0
 11
300.5596878349917
 21
145.0121737880124
 31
0.0
  0
LINE
  5
1732
330
18
100
AcDbEntity
  8
目盛
100
AcDbLine
 10
303.6131097189064
 20
146.0704783032324
 30
0.0
 11
302.1719561657797
 21
146.6410713598937
 31
0.0
  0
LINE
  5
1733
330
18
100
AcDbEntity
  8
目盛
100
AcDbLine
 10
304.3684104136766
 20
148.2765311077072
 30
0.0
 11
302.8799552008774
 21
148.708967322068
 31
0.0
  0
LINE
  5
1734
330
18
100
AcDbEntity
  8
目盛
100
AcDbLine
 10
305.2413003170985
 20
152.8523802275449
 30
0.0
 11
303.6981792719637
 21
152.9982481131886
 31
0.0
  0
LINE
  5
1735
330
18
100
AcDbEntity
  8
目盛
100
AcDbLine
 10
305.1559805507056
 20
152.0795634514616
 30
0.0
 11
303.6182027636682
 21
152.2738299634863
 31
0.0
  0
LINE
  5
1736
330
18
100
AcDbEntity
  8
目盛
100
AcDbLine
 10
304.9127511487073
 20
150.5438734461814
 30
0.0
 11
303.3902059100778
 21
150.8343144837893
 31
0.0
  0
LINE
  5
1737
330
18
100
AcDbEntity
  8
目盛
100
AcDbLine
 10
304.7550815511562
 20
149.7825157576136
 30
0.0
 11
303.2424105701512
 21
150.1206377817783
 31
0.0
  0
LINE
  5
1738
330
18
100
AcDbEntity
  8
目盛
100
AcDbLine
 10
304.5735749311059
 20
149.026486274848
 30
0.0
 11
303.0722710313565
 21
149.4119555999535
 31
0.0
  0
LINE
  5
1739
330
18
100
AcDbEntity
  8
目盛
100
AcDbLine
 10
305.0464281229019
 20
151.3098079724324
 30
0.0
 11
302.7253605225034
 21
151.677428965277
 31
0.0
  0
LINE
  5
173A
330
18
100
AcDbEntity
  8
目盛
100
AcDbLine
 10
304.1397904714774
 20
147.5333903713982
 30
0.0
 11
301.2866209225919
 21
148.460441354523
 31
0.0
  0
LINE
  5
173B
102
{ACAD_REACTORS
330
173D
102
}
330
18
100
AcDbEntity
  8
外形線
100
AcDbLine
 10
289.2732639639732
 20
157.3815609821781
 30
0.0
 11
289.1065972973066
 21
157.3815609821781
 31
0.0
  0
LINE
  5
173C
102
{ACAD_REACTORS
330
173D
102
}
330
18
100
AcDbEntity
  8
外形線
100
AcDbLine
 10
289.2732639639732
 20
155.8815609821781
 30
0.0
 11
289.1065972973066
 21
155.8815609821781
 31
0.0
  0
HATCH
  5
173D
330
18
100
AcDbEntity
  8
外形線
100
AcDbHatch
 10
0.0
 20
0.0
 30
0.0
210
0.0
220
0.0
230
1.0
  2
SOLID
 70
     1
 71
     1
 91
        2
 92
        1
 93
        7
 72
     1
 10
289.1065972973066
 20
156.6315609821781
 11
287.9399306306399
 21
156.2069290422009
 72
     1
 10
287.9399306306399
 20
156.2069290422009
 11
287.93993063064
 21
156.5419776488448
 72
     1
 10
287.93993063064
 20
156.5419776488448
 11
286.9399306306399
 21
156.5419776488448
 72
     1
 10
286.9399306306399
 20
156.5419776488448
 11
286.9399306306399
 21
156.7211443155114
 72
     1
 10
286.9399306306399
 20
156.7211443155114
 11
287.9399306306399
 21
156.7211443155114
 72
     1
 10
287.9399306306399
 20
156.7211443155114
 11
287.9399306306399
 21
157.0561929221554
 72
     1
 10
287.9399306306399
 20
157.0561929221554
 11
289.1065972973066
 21
156.6315609821781
 97
        7
330
175C
330
1759
330
1758
330
175D
330
1752
330
1753
330
175E
 92
        1
 93
        4
 72
     1
 10
289.1065972973066
 20
157.3815609821781
 11
289.1065972973066
 21
155.8815609821781
 72
     1
 10
289.1065972973066
 20
155.8815609821781
 11
289.2732639639732
 21
155.8815609821781
 72
     1
 10
289.2732639639732
 20
155.8815609821781
 11
289.2732639639732
 21
157.3815609821781
 72
     1
 10
289.2732639639732
 20
157.3815609821781
 11
289.1065972973066
 21
157.3815609821781
 97
        4
330
175F
330
173C
330
179A
330
173B
 75
     0
 76
     1
 98
        1
 10
381.4361540037869
 20
87.9694101749971
450
        0
451
        0
460
0.0
461
0.0
452
        0
462
0.0
453
        0
470

  0
TEXT
  5
173E
330
18
100
AcDbEntity
  8
文字
100
AcDbText
 10
286.0202323578225
 20
154.1452707477656
 30
0.0
 40
1.0
  1
0.001mm
  7
STYLE3
100
AcDbText
  0
CIRCLE
  5
173F
330
18
100
AcDbEntity
  8
外形線
100
AcDbCircle
 10
276.4011416931722
 20
164.1815609821781
 30
0.0
 40
5.5
  0
LINE
  5
1740
330
18
100
AcDbEntity
  8
中心線
 48
0.3
100
AcDbLine
 10
276.4011416931722
 20
170.4998871902938
 30
0.0
 11
276.4011416931722
 21
157.7280644546062
 31
0.0
  0
LINE
  5
1741
330
18
100
AcDbEntity
  8
外形線
100
AcDbLine
 10
279.6339605807808
 20
159.7319675131159
 30
0.0
 11
278.8992290154153
 21
160.7432387560846
 31
0.0
  0
LINE
  5
1742
330
18
100
AcDbEntity
  8
中心線
 48
0.3
100
AcDbLine
 10
269.7814964865388
 20
164.1815609821781
 30
0.0
 11
283.0523942728635
 21
164.1815609821781
 31
0.0
  0
LINE
  5
1743
330
18
100
AcDbEntity
  8
外形線
100
AcDbLine
 10
273.1683228055636
 20
159.7319675131159
 30
0.0
 11
273.9030543709292
 21
160.7432387560846
 31
0.0
  0
LINE
  5
1744
330
18
100
AcDbEntity
  8
外形線
100
AcDbLine
 10
274.3764566534065
 20
159.0677903097927
 30
0.0
 11
274.6893625231885
 21
159.8581003227978
 31
0.0
  0
LINE
  5
1745
330
18
100
AcDbEntity
  8
外形線
100
AcDbLine
 10
278.425826732938
 20
159.0677903097927
 30
0.0
 11
278.112920863156
 21
159.8581003227978
 31
0.0
  0
LINE
  5
1746
330
18
100
AcDbEntity
  8
外形線
100
AcDbLine
 10
277.090474477776
 20
158.7249301249485
 30
0.0
 11
276.9839412292463
 21
159.5682276210658
 31
0.0
  0
LINE
  5
1747
330
18
100
AcDbEntity
  8
外形線
100
AcDbLine
 10
275.7118089085686
 20
158.7249301249485
 30
0.0
 11
275.8183421570983
 21
159.5682276210657
 31
0.0
  0
TEXT
  5
1748
330
18
100
AcDbEntity
  8
文字
100
AcDbText
 10
274.0218486680896
 20
161.1820853412453
 30
0.0
 40
1.0
  1
3
  7
STYLE3
100
AcDbText
  0
TEXT
  5
1749
330
18
100
AcDbEntity
  8
文字
100
AcDbText
 10
273.0201272791998
 20
164.99085797066
 30
0.0
 40
1.0
  1
4
  7
STYLE3
100
AcDbText
  0
LINE
  5
174A
330
18
100
AcDbEntity
  8
外形線
100
AcDbLine
 10
270.9119946868167
 20
164.5269088395894
 30
0.0
 11
271.7603174059808
 21
164.4735368979895
 31
0.0
  0
LINE
  5
174B
330
18
100
AcDbEntity
  8
外形線
100
AcDbLine
 10
272.1633188579054
 20
160.6757290385603
 30
0.0
 11
272.8182551142648
 21
161.2175394298467
 31
0.0
  0
LINE
  5
174C
330
18
100
AcDbEntity
  8
外形線
100
AcDbLine
 10
271.4245929046092
 20
161.8397748785702
 30
0.0
 11
272.1936958992053
 21
162.2016872764005
 31
0.0
  0
LINE
  5
174D
330
18
100
AcDbEntity
  8
外形線
100
AcDbLine
 10
270.9985618141645
 20
163.1509637519566
 30
0.0
 11
271.8335059772838
 21
163.3102378693545
 31
0.0
  0
LINE
  5
174E
330
18
100
AcDbEntity
  8
外形線
100
AcDbLine
 10
271.1703308535489
 20
165.8811544512403
 30
0.0
 11
272.3591514989177
 21
165.4948832082717
 31
0.0
  0
POINT
  5
174F
330
18
100
AcDbEntity
  8
DEFPOINTS
  6
ByBlock
 62
     0
100
AcDbPoint
 10
276.4011416931722
 20
160.2364388657994
 30
0.0
  0
TEXT
  5
1750
330
18
100
AcDbEntity
  8
文字
100
AcDbText
 10
277.8617792862644
 20
161.1264830402815
 30
0.0
 40
1.0
  1
2
  7
STYLE3
100
AcDbText
  0
LINE
  5
1752
102
{ACAD_REACTORS
330
173D
102
}
330
18
100
AcDbEntity
  8
外形線
100
AcDbLine
 10
286.9399306306399
 20
156.7211443155114
 30
0.0
 11
287.9399306306399
 21
156.7211443155114
 31
0.0
  0
LINE
  5
1753
102
{ACAD_REACTORS
330
173D
102
}
330
18
100
AcDbEntity
  8
外形線
100
AcDbLine
 10
287.9399306306399
 20
157.0561929221554
 30
0.0
 11
287.9399306306399
 21
156.7211443155114
 31
0.0
  0
POINT
  5
1754
330
18
100
AcDbEntity
  8
DEFPOINTS
  6
ByBlock
 62
     0
100
AcDbPoint
 10
287.9399306306399
 20
157.0561929221554
 30
0.0
  0
POINT
  5
1755
330
18
100
AcDbEntity
  8
DEFPOINTS
  6
ByBlock
 62
     0
100
AcDbPoint
 10
287.9399306306399
 20
157.0561929221554
 30
0.0
  0
POINT
  5
1756
330
18
100
AcDbEntity
  8
DEFPOINTS
  6
ByBlock
 62
     0
100
AcDbPoint
 10
289.1065972973066
 20
155.8815609821781
 30
0.0
  0
POINT
  5
1757
330
18
100
AcDbEntity
  8
DEFPOINTS
  6
ByBlock
 62
     0
100
AcDbPoint
 10
289.1065972973066
 20
155.8815609821781
 30
0.0
  0
LINE
  5
1758
102
{ACAD_REACTORS
330
173D
102
}
330
18
100
AcDbEntity
  8
外形線
100
AcDbLine
 10
286.9399306306399
 20
156.5419776488448
 30
0.0
 11
287.93993063064
 21
156.5419776488448
 31
0.0
  0
LINE
  5
1759
102
{ACAD_REACTORS
330
173D
102
}
330
18
100
AcDbEntity
  8
外形線
100
AcDbLine
 10
287.93993063064
 20
156.5419776488448
 30
0.0
 11
287.9399306306399
 21
156.2069290422009
 31
0.0
  0
POINT
  5
175A
330
18
100
AcDbEntity
  8
DEFPOINTS
  6
ByBlock
 62
     0
100
AcDbPoint
 10
287.9399306306399
 20
156.2069290422009
 30
0.0
  0
POINT
  5
175B
330
18
100
AcDbEntity
  8
DEFPOINTS
  6
ByBlock
 62
     0
100
AcDbPoint
 10
287.9399306306399
 20
156.2069290422009
 30
0.0
  0
LINE
  5
175C
102
{ACAD_REACTORS
330
173D
102
}
330
18
100
AcDbEntity
  8
外形線
100
AcDbLine
 10
289.1065972973066
 20
156.6315609821781
 30
0.0
 11
287.9399306306399
 21
156.2069290422009
 31
0.0
  0
LINE
  5
175D
102
{ACAD_REACTORS
330
173D
102
}
330
18
100
AcDbEntity
  8
外形線
100
AcDbLine
 10
286.9399306306399
 20
156.7211443155114
 30
0.0
 11
286.9399306306399
 21
156.5419776488448
 31
0.0
  0
LINE
  5
175E
102
{ACAD_REACTORS
330
173D
102
}
330
18
100
AcDbEntity
  8
外形線
100
AcDbLine
 10
289.1065972973066
 20
156.6315609821781
 30
0.0
 11
287.9399306306399
 21
157.0561929221554
 31
0.0
  0
LINE
  5
175F
102
{ACAD_REACTORS
330
173D
102
}
330
18
100
AcDbEntity
  8
外形線
100
AcDbLine
 10
289.1065972973066
 20
157.3815609821781
 30
0.0
 11
289.1065972973066
 21
155.8815609821781
 31
0.0
  0
TEXT
  5
1760
330
18
100
AcDbEntity
  8
文字
100
AcDbText
 10
279.1417564335033
 20
164.7962492348595
 30
0.0
 40
1.0
  1
1
  7
STYLE3
100
AcDbText
  0
LINE
  5
1761
330
18
100
AcDbEntity
  8
外形線
100
AcDbLine
 10
280.638964528439
 20
160.6757290385603
 30
0.0
 11
279.9840282720796
 21
161.2175394298467
 31
0.0
  0
LINE
  5
1762
330
18
100
AcDbEntity
  8
外形線
100
AcDbLine
 10
281.8902886995277
 20
164.5269088395894
 30
0.0
 11
281.0419659803637
 21
164.4735368979894
 31
0.0
  0
LINE
  5
1763
330
18
100
AcDbEntity
  8
外形線
100
AcDbLine
 10
281.8037215721801
 20
163.1509637519567
 30
0.0
 11
280.9687774090606
 21
163.3102378693546
 31
0.0
  0
LINE
  5
1764
330
18
100
AcDbEntity
  8
外形線
100
AcDbLine
 10
281.3776904817353
 20
161.8397748785703
 30
0.0
 11
280.6085874871393
 21
162.2016872764006
 31
0.0
  0
LINE
  5
1765
330
18
100
AcDbEntity
  8
外形線
100
AcDbLine
 10
281.6319525327956
 20
165.8811544512404
 30
0.0
 11
280.4431318874266
 21
165.4948832082717
 31
0.0
  0
TEXT
  5
1766
330
18
100
AcDbEntity
  8
文字
100
AcDbText
 10
272.2627198815936
 20
172.5314344411256
 30
0.0
 40
2.5
  1
90
  7
STYLE3
100
AcDbText
  0
LINE
  5
1767
330
18
100
AcDbEntity
  8
外形線
100
AcDbLine
 10
271.7573381029112
 20
167.1286083545625
 30
0.0
 11
272.4750168395878
 21
166.6731555788305
 31
0.0
  0
LINE
  5
1768
330
18
100
AcDbEntity
  8
外形線
100
AcDbLine
 10
272.6361326105644
 20
168.1908884329959
 30
0.0
 11
273.2179976506038
 21
167.5712650996876
 31
0.0
  0
LINE
  5
1769
330
18
100
AcDbEntity
  8
外形線
100
AcDbLine
 10
273.7514964856127
 20
169.0012477224193
 30
0.0
 11
274.1609871085992
 21
168.256387044382
 31
0.0
  0
POINT
  5
176A
330
18
100
AcDbEntity
  8
DEFPOINTS
  6
ByBlock
 62
     0
100
AcDbPoint
 10
278.6412962777452
 20
168.2563870443821
 30
0.0
  0
POINT
  5
176B
330
18
100
AcDbEntity
  8
DEFPOINTS
  6
ByBlock
 62
     0
100
AcDbPoint
 10
276.4011416931722
 20
168.4315609821781
 30
0.0
  0
TEXT
  5
176C
330
18
100
AcDbEntity
  8
文字
100
AcDbText
 10
275.9449992277744
 20
167.1871575028054
 30
0.0
 40
1.0
  1
0
  7
STYLE3
100
AcDbText
  0
LINE
  5
176D
330
18
100
AcDbEntity
  8
外形線
100
AcDbLine
 10
275.0333473137655
 20
169.5087683683856
 30
0.0
 11
275.2447337178556
 21
168.6854726814263
 31
0.0
  0
LINE
  5
176E
330
18
100
AcDbEntity
  8
外形線
100
AcDbLine
 10
279.0507869007316
 20
169.0012477224194
 30
0.0
 11
278.6412962777451
 21
168.2563870443821
 31
0.0
  0
LINE
  5
176F
330
18
100
AcDbEntity
  8
外形線
100
AcDbLine
 10
277.7689360725789
 20
169.5087683683856
 30
0.0
 11
277.5575496684888
 21
168.6854726814263
 31
0.0
  0
LINE
  5
1770
330
18
100
AcDbEntity
  8
外形線
100
AcDbLine
 10
276.4011416931722
 20
169.6815609821781
 30
0.0
 11
276.4011416931722
 21
168.4315609821781
 31
0.0
  0
LINE
  5
1771
330
18
100
AcDbEntity
  8
目盛
100
AcDbLine
 10
272.2173781671013
 20
178.4683600137952
 30
0.0
 11
272.7424219434816
 21
177.0099948219161
 31
0.0
  0
LINE
  5
1772
330
18
100
AcDbEntity
  8
目盛
100
AcDbLine
 10
270.0631042269368
 20
177.5760305307121
 30
0.0
 11
270.7230621288626
 21
176.1735485993898
 31
0.0
  0
LINE
  5
1773
330
18
100
AcDbEntity
  8
目盛
100
AcDbLine
 10
270.7717313999615
 20
177.8959879678567
 30
0.0
 11
271.3873106304454
 21
176.4734682980465
 31
0.0
  0
LINE
  5
1774
330
18
100
AcDbEntity
  8
目盛
100
AcDbLine
 10
271.4900590142265
 20
178.1935290079124
 30
0.0
 11
272.0606520708878
 21
176.7523754547856
 31
0.0
  0
LINE
  5
1775
330
18
100
AcDbEntity
  8
目盛
100
AcDbLine
 10
269.3648768246185
 20
177.2339724558402
 30
0.0
 11
270.4317544990065
 21
175.1401071239976
 31
0.0
  0
LINE
  5
1776
330
18
100
AcDbEntity
  8
目盛
100
AcDbLine
 10
272.9529710823924
 20
178.7202097604832
 30
0.0
 11
273.8800220655172
 21
175.8670402115977
 31
0.0
  0
LINE
  5
1777
330
18
100
AcDbEntity
  8
目盛
100
AcDbLine
 10
273.6961118187013
 20
178.9488297026825
 30
0.0
 11
274.1285480330622
 21
177.4603744898833
 31
0.0
  0
TEXT
  5
1778
330
18
100
AcDbEntity
  8
文字
100
AcDbText
 10
284.2244336785663
 20
172.266341322734
 30
0.0
 40
2.5
  1
10
  7
STYLE3
100
AcDbText
  0
LINE
  5
1779
330
18
100
AcDbEntity
  8
外形線
100
AcDbLine
 10
281.0449452834333
 20
167.1286083545626
 30
0.0
 11
280.3272665467566
 21
166.6731555788305
 31
0.0
  0
LINE
  5
177A
330
18
100
AcDbEntity
  8
外形線
100
AcDbLine
 10
280.1661507757799
 20
168.1908884329959
 30
0.0
 11
279.5842857357406
 21
167.5712650996877
 31
0.0
  0
TEXT
  5
177B
330
18
100
AcDbEntity
  8
文字
100
AcDbText
 10
279.4356640391775
 20
173.2807097844764
 30
0.0
 40
2.5
  1
0
  7
STYLE3
100
AcDbText
  0
LINE
  5
177C
330
18
100
AcDbEntity
  8
目盛
100
AcDbLine
 10
288.2493123039523
 20
178.7202097604832
 30
0.0
 11
287.3222613208274
 21
175.8670402115977
 31
0.0
  0
LINE
  5
177D
330
18
100
AcDbEntity
  8
目盛
100
AcDbLine
 10
288.9849052192432
 20
178.4683600137952
 30
0.0
 11
288.459861442863
 21
177.0099948219162
 31
0.0
  0
LINE
  5
177E
330
18
100
AcDbEntity
  8
目盛
100
AcDbLine
 10
287.5061715676432
 20
178.9488297026825
 30
0.0
 11
287.0737353532824
 21
177.4603744898832
 31
0.0
  0
TEXT
  5
177F
330
18
100
AcDbEntity
  8
文字
100
AcDbText
 10
293.9961664460465
 20
164.8207085673374
 30
0.0
 40
2.5
  1
30
  7
STYLE3
100
AcDbText
  0
LINE
  5
1780
330
18
100
AcDbEntity
  8
目盛
100
AcDbLine
 10
302.6535531668344
 20
166.4178258507319
 30
0.0
 11
300.5596878349917
 21
165.3509481763439
 31
0.0
  0
ARC
  5
1781
330
18
100
AcDbEntity
  8
外形線
100
AcDbCircle
 10
309.5983204078462
 20
164.6374388678778
 30
0.0
 40
3.0
100
AcDbArc
 50
113.2588226306383
 51
152.0076789870047
  0
TEXT
  5
1782
330
18
100
AcDbEntity
  8
文字
100
AcDbText
 10
297.3767470295245
 20
153.9681838482041
 30
0.0
 40
2.5
  1
50
  7
STYLE3
100
AcDbText
  0
TEXT
  5
1783
330
18
100
AcDbEntity
  8
文字
100
AcDbText
 10
296.283242653473
 20
159.9284370276145
 30
0.0
 40
2.5
  1
40
  7
STYLE3
100
AcDbText
  0
LINE
  5
1784
102
{ACAD_REACTORS
330
1797
102
}
330
18
100
AcDbEntity
  8
外形線
100
AcDbLine
 10
290.1065972973065
 20
157.3815609821781
 30
0.0
 11
290.2732639639733
 21
157.3815609821781
 31
0.0
  0
POINT
  5
1785
330
18
100
AcDbEntity
  8
DEFPOINTS
  6
ByBlock
 62
     0
100
AcDbPoint
 10
291.4399306306399
 20
157.0561929221554
 30
0.0
  0
POINT
  5
1786
330
18
100
AcDbEntity
  8
DEFPOINTS
  6
ByBlock
 62
     0
100
AcDbPoint
 10
291.4399306306399
 20
157.0561929221554
 30
0.0
  0
LINE
  5
1787
102
{ACAD_REACTORS
330
1797
102
}
330
18
100
AcDbEntity
  8
外形線
100
AcDbLine
 10
291.4399306306399
 20
157.0561929221554
 30
0.0
 11
291.4399306306399
 21
156.7211443155114
 31
0.0
  0
LINE
  5
1788
102
{ACAD_REACTORS
330
1797
102
}
330
18
100
AcDbEntity
  8
外形線
100
AcDbLine
 10
292.4399306306399
 20
156.7211443155114
 30
0.0
 11
291.4399306306399
 21
156.7211443155114
 31
0.0
  0
LINE
  5
1789
102
{ACAD_REACTORS
330
1797
102
}
330
18
100
AcDbEntity
  8
外形線
100
AcDbLine
 10
290.1065972973065
 20
155.8815609821781
 30
0.0
 11
290.2732639639733
 21
155.8815609821781
 31
0.0
  0
LINE
  5
178A
102
{ACAD_REACTORS
330
1797
102
}
330
18
100
AcDbEntity
  8
外形線
100
AcDbLine
 10
290.2732639639733
 20
156.6315609821781
 30
0.0
 11
291.4399306306399
 21
156.2069290422009
 31
0.0
  0
POINT
  5
178B
330
18
100
AcDbEntity
  8
DEFPOINTS
  6
ByBlock
 62
     0
100
AcDbPoint
 10
291.4399306306399
 20
156.2069290422009
 30
0.0
  0
POINT
  5
178C
330
18
100
AcDbEntity
  8
DEFPOINTS
  6
ByBlock
 62
     0
100
AcDbPoint
 10
290.2732639639733
 20
155.8815609821781
 30
0.0
  0
POINT
  5
178D
330
18
100
AcDbEntity
  8
DEFPOINTS
  6
ByBlock
 62
     0
100
AcDbPoint
 10
291.4399306306399
 20
156.2069290422009
 30
0.0
  0
POINT
  5
178E
330
18
100
AcDbEntity
  8
DEFPOINTS
  6
ByBlock
 62
     0
100
AcDbPoint
 10
290.1065972973065
 20
155.8815609821781
 30
0.0
  0
POINT
  5
178F
330
18
100
AcDbEntity
  8
DEFPOINTS
  6
ByBlock
 62
     0
100
AcDbPoint
 10
290.2732639639733
 20
155.8815609821781
 30
0.0
  0
POINT
  5
1790
330
18
100
AcDbEntity
  8
DEFPOINTS
  6
ByBlock
 62
     0
100
AcDbPoint
 10
290.1065972973065
 20
155.8815609821781
 30
0.0
  0
LINE
  5
1791
102
{ACAD_REACTORS
330
1797
102
}
330
18
100
AcDbEntity
  8
外形線
100
AcDbLine
 10
291.4399306306399
 20
156.5419776488448
 30
0.0
 11
291.4399306306399
 21
156.2069290422009
 31
0.0
  0
LINE
  5
1792
102
{ACAD_REACTORS
330
1797
102
}
330
18
100
AcDbEntity
  8
外形線
100
AcDbLine
 10
292.4399306306399
 20
156.5419776488448
 30
0.0
 11
291.4399306306399
 21
156.5419776488448
 31
0.0
  0
LINE
  5
1793
102
{ACAD_REACTORS
330
1797
102
}
330
18
100
AcDbEntity
  8
外形線
100
AcDbLine
 10
290.1065972973065
 20
157.3815609821781
 30
0.0
 11
290.1065972973065
 21
155.8815609821781
 31
0.0
  0
LINE
  5
1794
102
{ACAD_REACTORS
330
1797
102
}
330
18
100
AcDbEntity
  8
外形線
100
AcDbLine
 10
290.2732639639733
 20
157.3815609821781
 30
0.0
 11
290.2732639639733
 21
155.8815609821781
 31
0.0
  0
LINE
  5
1795
102
{ACAD_REACTORS
330
1797
102
}
330
18
100
AcDbEntity
  8
外形線
100
AcDbLine
 10
290.2732639639733
 20
156.6315609821781
 30
0.0
 11
291.4399306306399
 21
157.0561929221554
 31
0.0
  0
LINE
  5
1796
102
{ACAD_REACTORS
330
1797
102
}
330
18
100
AcDbEntity
  8
外形線
100
AcDbLine
 10
292.4399306306399
 20
156.7211443155114
 30
0.0
 11
292.4399306306399
 21
156.5419776488448
 31
0.0
  0
HATCH
  5
1797
330
18
100
AcDbEntity
  8
外形線
100
AcDbHatch
 10
0.0
 20
0.0
 30
0.0
210
0.0
220
0.0
230
1.0
  2
SOLID
 70
     1
 71
     1
 91
        2
 92
        1
 93
        7
 72
     1
 10
290.2732639639733
 20
156.6315609821781
 11
291.4399306306399
 21
156.2069290422009
 72
     1
 10
291.4399306306399
 20
156.2069290422009
 11
291.4399306306399
 21
156.5419776488448
 72
     1
 10
291.4399306306399
 20
156.5419776488448
 11
292.4399306306399
 21
156.5419776488448
 72
     1
 10
292.4399306306399
 20
156.5419776488448
 11
292.4399306306399
 21
156.7211443155114
 72
     1
 10
292.4399306306399
 20
156.7211443155114
 11
291.4399306306399
 21
156.7211443155114
 72
     1
 10
291.4399306306399
 20
156.7211443155114
 11
291.4399306306399
 21
157.0561929221554
 72
     1
 10
291.4399306306399
 20
157.0561929221554
 11
290.2732639639733
 21
156.6315609821781
 97
        7
330
178A
330
1791
330
1792
330
1796
330
1788
330
1787
330
1795
 92
        1
 93
        4
 72
     1
 10
290.2732639639733
 20
157.3815609821781
 11
290.2732639639733
 21
155.8815609821781
 72
     1
 10
290.2732639639733
 20
155.8815609821781
 11
290.1065972973065
 21
155.8815609821781
 72
     1
 10
290.1065972973065
 20
155.8815609821781
 11
290.1065972973065
 21
157.3815609821781
 72
     1
 10
290.1065972973065
 20
157.3815609821781
 11
290.2732639639733
 21
157.3815609821781
 97
        4
330
1794
330
1789
330
1793
330
1784
 75
     0
 76
     1
 98
        1
 10
197.9437072574928
 20
87.9694101749971
450
        0
451
        0
460
0.0
461
0.0
452
        0
462
0.0
453
        0
470

  0
POINT
  5
1798
330
18
100
AcDbEntity
  8
DEFPOINTS
  6
ByBlock
 62
     0
100
AcDbPoint
 10
289.2732639639732
 20
155.8815609821781
 30
0.0
  0
POINT
  5
1799
330
18
100
AcDbEntity
  8
DEFPOINTS
  6
ByBlock
 62
     0
100
AcDbPoint
 10
289.2732639639732
 20
155.8815609821781
 30
0.0
  0
LINE
  5
179A
102
{ACAD_REACTORS
330
173D
102
}
330
18
100
AcDbEntity
  8
外形線
100
AcDbLine
 10
289.2732639639732
 20
157.3815609821781
 30
0.0
 11
289.2732639639732
 21
155.8815609821781
 31
0.0
  0
LINE
  5
179B
330
18
100
AcDbEntity
  8
目盛
100
AcDbLine
 10
305.3389290622242
 20
155.9589772693618
 30
0.0
 11
303.7896938936573
 21
155.9102905927906
 31
0.0
  0
LINE
  5
179C
330
18
100
AcDbEntity
  8
目盛
100
AcDbLine
 10
304.9127511487074
 20
159.8192485181749
 30
0.0
 11
303.3902059100779
 21
159.5288074805669
 31
0.0
  0
LINE
  5
179D
330
18
100
AcDbEntity
  8
目盛
100
AcDbLine
 10
305.1559805507057
 20
158.2835585128947
 30
0.0
 11
303.6182027636682
 21
158.08929200087
 31
0.0
  0
LINE
  5
179E
330
18
100
AcDbEntity
  8
目盛
100
AcDbLine
 10
305.2413003170985
 20
157.5107417368113
 30
0.0
 11
303.6981792719638
 21
157.3648738511676
 31
0.0
  0
LINE
  5
179F
330
18
100
AcDbEntity
  8
目盛
100
AcDbLine
 10
305.302303221772
 20
156.7356263405286
 30
0.0
 11
303.7553617927082
 21
156.6383010352582
 31
0.0
  0
LINE
  5
17A0
330
18
100
AcDbEntity
  8
目盛
100
AcDbLine
 10
305.0464281229019
 20
159.0533139919238
 30
0.0
 11
302.7253605225034
 21
158.6856929990793
 31
0.0
  0
LINE
  5
17A1
330
18
100
AcDbEntity
  8
目盛
100
AcDbLine
 10
305.3511416931723
 20
155.1815609821781
 30
0.0
 11
302.3511416931723
 21
155.1815609821781
 31
0.0
  0
LINE
  5
17A2
330
18
100
AcDbEntity
  8
目盛
100
AcDbLine
 10
305.3389290622242
 20
154.4041446949944
 30
0.0
 11
303.7896938936573
 21
154.4528313715655
 31
0.0
  0
LINE
  5
17A3
330
18
100
AcDbEntity
  8
目盛
100
AcDbLine
 10
305.302303221772
 20
153.6274956238276
 30
0.0
 11
303.7553617927082
 21
153.7248209290981
 31
0.0
  0
LINE
  5
17A4
330
18
100
AcDbEntity
  8
目盛
100
AcDbLine
 10
304.7550815511564
 20
160.5806062067425
 30
0.0
 11
303.2424105701513
 21
160.2424841825779
 31
0.0
  0
LINE
  5
17A5
330
18
100
AcDbEntity
  8
目盛
100
AcDbLine
 10
304.1397904714774
 20
162.8297315929581
 30
0.0
 11
301.2866209225919
 21
161.9026806098332
 31
0.0
  0
LINE
  5
17A6
330
18
100
AcDbEntity
  8
目盛
100
AcDbLine
 10
304.3684104136767
 20
162.086590856649
 30
0.0
 11
302.8799552008774
 21
161.6541546422882
 31
0.0
  0
LINE
  5
17A7
330
18
100
AcDbEntity
  8
目盛
100
AcDbLine
 10
304.5735749311059
 20
161.3366356895083
 30
0.0
 11
303.0722710313566
 21
160.9511663644028
 31
0.0
  0
LINE
  5
17A8
330
18
100
AcDbEntity
  8
目盛
100
AcDbLine
 10
303.8879407247894
 20
163.5653245082491
 30
0.0
 11
302.4295755329104
 21
163.0402807318689
 31
0.0
  0
LINE
  5
17A9
330
18
100
AcDbEntity
  8
目盛
100
AcDbLine
 10
302.9956112417063
 20
165.7195984484137
 30
0.0
 11
301.5931293103839
 21
165.0596405464878
 31
0.0
  0
LINE
  5
17AA
330
18
100
AcDbEntity
  8
目盛
100
AcDbLine
 10
303.3155686788508
 20
165.0109712753888
 30
0.0
 11
301.8930490090407
 21
164.395392044905
 31
0.0
  0
LINE
  5
17AB
330
18
100
AcDbEntity
  8
目盛
100
AcDbLine
 10
303.6131097189065
 20
164.2926436611238
 30
0.0
 11
302.1719561657798
 21
163.7220506044626
 31
0.0
  0
LINE
  5
17AC
330
18
100
AcDbEntity
  8
目盛
100
AcDbLine
 10
300.1574782494706
 20
170.3510105600892
 30
0.0
 11
298.9327379802883
 21
169.4010046269272
 31
0.0
  0
LINE
  5
17AD
330
18
100
AcDbEntity
  8
目盛
100
AcDbLine
 10
299.1663906665262
 20
171.5490296489385
 30
0.0
 11
298.003718508599
 21
170.5239962576868
 31
0.0
  0
LINE
  5
17AE
330
18
100
AcDbEntity
  8
目盛
100
AcDbLine
 10
299.6713444518731
 20
170.9578047284582
 30
0.0
 11
298.4770489255706
 21
169.9697975443477
 31
0.0
  0
LINE
  5
17AF
330
18
100
AcDbEntity
  8
目盛
100
AcDbLine
 10
300.6243123039523
 20
169.7292459764168
 30
0.0
 11
298.1972613208274
 21
167.9658902195394
 31
0.0
  0
LINE
  5
17B0
330
18
100
AcDbEntity
  8
目盛
100
AcDbLine
 10
296.9686103599327
 20
173.746809955532
 30
0.0
 11
295.943576968681
 21
172.5841377976048
 31
0.0
  0
LINE
  5
17B1
330
18
100
AcDbEntity
  8
目盛
100
AcDbLine
 10
297.5436825649074
 20
173.2235345108581
 30
0.0
 11
296.4826345507179
 21
172.0936331383549
 31
0.0
  0
LINE
  5
17B2
330
18
100
AcDbEntity
  8
目盛
100
AcDbLine
 10
298.1020345275393
 20
172.6824538165452
 30
0.0
 11
296.4403335917509
 21
171.0207528807568
 31
0.0
  0
TEXT
  5
17B3
330
18
100
AcDbEntity
  8
文字
100
AcDbText
 10
290.0645632285702
 20
169.1275102432927
 30
0.0
 40
2.5
  1
20
  7
STYLE3
100
AcDbText
  0
LINE
  5
17B4
330
18
100
AcDbEntity
  8
目盛
100
AcDbLine
 10
298.6431152218522
 20
172.1241018539131
 30
0.0
 11
297.513213849349
 21
171.0630538397237
 31
0.0
  0
LINE
  5
17B5
330
18
100
AcDbEntity
  8
目盛
100
AcDbLine
 10
294.5127052950125
 20
175.6518051954735
 30
0.0
 11
293.6414760593417
 21
174.369830305348
 31
0.0
  0
LINE
  5
17B6
330
18
100
AcDbEntity
  8
目盛
100
AcDbLine
 10
295.148826687411
 20
175.2047315929581
 30
0.0
 11
293.3854709305336
 21
172.7776806098332
 31
0.0
  0
LINE
  5
17B7
330
18
100
AcDbEntity
  8
目盛
100
AcDbLine
 10
290.4305519863831
 20
177.8959879678567
 30
0.0
 11
289.8149727558992
 21
176.4734682980465
 31
0.0
  0
LINE
  5
17B8
330
18
100
AcDbEntity
  8
目盛
100
AcDbLine
 10
291.1391791594078
 20
177.5760305307121
 30
0.0
 11
290.4792212574819
 21
176.1735485993898
 31
0.0
  0
LINE
  5
17B9
330
18
100
AcDbEntity
  8
目盛
100
AcDbLine
 10
292.5245451271897
 20
176.8701513132637
 30
0.0
 11
291.7778269323321
 21
175.5118759591957
 31
0.0
  0
LINE
  5
17BA
330
18
100
AcDbEntity
  8
目盛
100
AcDbLine
 10
293.199916732994
 20
176.4849261505257
 30
0.0
 11
292.4109025385809
 21
175.1507760086696
 31
0.0
  0
LINE
  5
17BB
330
18
100
AcDbEntity
  8
目盛
100
AcDbLine
 10
293.8628548689024
 20
176.078677138353
 30
0.0
 11
293.032323336685
 21
174.7699688538248
 31
0.0
  0
LINE
  5
17BC
330
18
100
AcDbEntity
  8
目盛
100
AcDbLine
 10
291.837406561726
 20
177.2339724558402
 30
0.0
 11
290.7705288873381
 21
175.1401071239975
 31
0.0
  0
LINE
  5
17BD
330
18
100
AcDbEntity
  8
目盛
100
AcDbLine
 10
289.7122243721181
 20
178.1935290079123
 30
0.0
 11
289.1416313154567
 21
176.7523754547855
 31
0.0
  0
LINE
  5
17BE
330
18
100
AcDbEntity
  8
目盛
100
AcDbLine
 10
295.7705912710835
 20
174.7378975384765
 30
0.0
 11
294.8205853379214
 21
173.5131572692941
 31
0.0
  0
LINE
  5
17BF
330
18
100
AcDbEntity
  8
目盛
100
AcDbLine
 10
296.3773854394524
 20
174.251763740879
 30
0.0
 11
295.3893782553419
 21
173.0574682145764
 31
0.0
  0
LINE
  5
17C0
330
18
100
AcDbEntity
  8
目盛
100
AcDbLine
 10
301.9045068615199
 20
167.7803360219998
 30
0.0
 11
300.5703567196638
 21
166.9913218275867
 31
0.0
  0
LINE
  5
17C1
330
18
100
AcDbEntity
  8
目盛
100
AcDbLine
 10
302.2897320242579
 20
167.1049644161956
 30
0.0
 11
300.9314566701899
 21
166.358246221338
 31
0.0
  0
LINE
  5
17C2
330
18
100
AcDbEntity
  8
目盛
100
AcDbLine
 10
301.0713859064678
 20
169.0931245840183
 30
0.0
 11
299.7894110163422
 21
168.2218953483475
 31
0.0
  0
LINE
  5
17C3
330
18
100
AcDbEntity
  8
目盛
100
AcDbLine
 10
301.4982578493472
 20
168.4432741579083
 30
0.0
 11
300.1895495648191
 21
167.6127426256908
 31
0.0
  0
LINE
  5
17D1
330
18
100
AcDbEntity
  8
外形線
100
AcDbLine
 10
276.6011416931722
 20
198.6815609821782
 30
0.0
 11
276.6011416931722
 21
190.6815609821781
 31
0.0
  0
LINE
  5
17D2
330
18
100
AcDbEntity
  8
外形線
100
AcDbLine
 10
284.6011416931723
 20
198.6815609821781
 30
0.0
 11
284.6011416931723
 21
190.6815609821781
 31
0.0
  0
LINE
  5
17D3
330
18
100
AcDbEntity
  8
外形線
100
AcDbLine
 10
276.3511416931722
 20
184.6815609821781
 30
0.0
 11
284.8511416931723
 21
184.6815609821781
 31
0.0
  0
LINE
  5
17D4
330
18
100
AcDbEntity
  8
外形線
100
AcDbLine
 10
276.3511416931722
 20
190.6815609821781
 30
0.0
 11
284.8511416931722
 21
190.6815609821781
 31
0.0
  0
LINE
  5
17D5
330
18
100
AcDbEntity
  8
外形線
 62
     4
100
AcDbLine
 10
278.3511416931722
 20
190.6815609821781
 30
0.0
 11
278.3511416931722
 21
184.6815609821781
 31
0.0
  0
LINE
  5
17D6
330
18
100
AcDbEntity
  8
外形線
 62
     4
100
AcDbLine
 10
277.3511416931722
 20
190.6815609821781
 30
0.0
 11
277.3511416931722
 21
184.6815609821781
 31
0.0
  0
LINE
  5
17D7
330
18
100
AcDbEntity
  8
外形線
100
AcDbLine
 10
276.3511416931722
 20
190.6815609821781
 30
0.0
 11
276.3511416931722
 21
184.6815609821781
 31
0.0
  0
LINE
  5
17D8
330
18
100
AcDbEntity
  8
外形線
100
AcDbLine
 10
276.6011416931722
 20
184.681560982178
 30
0.0
 11
276.6011416931722
 21
183.3994631012231
 31
0.0
  0
LINE
  5
17D9
330
18
100
AcDbEntity
  8
外形線
 62
     4
100
AcDbLine
 10
280.6011416931722
 20
190.6815609821781
 30
0.0
 11
280.6011416931722
 21
184.6815609821781
 31
0.0
  0
LINE
  5
17DA
330
18
100
AcDbEntity
  8
外形線
 62
     4
100
AcDbLine
 10
279.3511416931722
 20
190.6815609821781
 30
0.0
 11
279.3511416931722
 21
184.6815609821781
 31
0.0
  0
LINE
  5
17DB
330
18
100
AcDbEntity
  8
外形線
100
AcDbLine
 10
284.8511416931722
 20
190.6815609821781
 30
0.0
 11
284.8511416931723
 21
184.6815609821781
 31
0.0
  0
LINE
  5
17DC
330
18
100
AcDbEntity
  8
外形線
100
AcDbLine
 10
284.6011416931723
 20
184.6815609821781
 30
0.0
 11
284.6011416931723
 21
183.3994631012231
 31
0.0
  0
LINE
  5
17DD
330
18
100
AcDbEntity
  8
外形線
100
AcDbLine
 10
276.6011416931722
 20
198.6815609821782
 30
0.0
 11
284.6011416931723
 21
198.6815609821781
 31
0.0
  0
LINE
  5
17DE
330
18
100
AcDbEntity
  8
外形線
100
AcDbLine
 10
277.6011416931722
 20
199.6815609821781
 30
0.0
 11
283.6011416931723
 21
199.6815609821781
 31
0.0
  0
LINE
  5
17DF
330
18
100
AcDbEntity
  8
外形線
100
AcDbLine
 10
277.6011416931722
 20
199.6815609821781
 30
0.0
 11
276.6011416931722
 21
198.6815609821781
 31
0.0
  0
LINE
  5
17E0
330
18
100
AcDbEntity
  8
外形線
100
AcDbLine
 10
283.6011416931723
 20
199.6815609821781
 30
0.0
 11
284.6011416931723
 21
198.6815609821781
 31
0.0
  0
ARC
  5
17E1
330
18
100
AcDbEntity
  8
外形線
100
AcDbCircle
 10
305.092473780441
 20
180.2618568811531
 30
0.0
 40
2.0
100
AcDbArc
 50
105.1352132696441
 51
137.5676726996855
  0
ARC
  5
17E2
330
18
100
AcDbEntity
  8
外形線
100
AcDbCircle
 10
303.2053417984641
 20
178.1975239549219
 30
0.0
 40
2.0
100
AcDbArc
 50
105.1352132696442
 51
137.5676726996862
  0
ARC
  5
17E3
330
18
100
AcDbEntity
  8
外形線
100
AcDbCircle
 10
306.5050166507941
 20
179.0900204996281
 30
0.0
 40
2.0
100
AcDbArc
 50
105.1352132696444
 51
159.2058012025932
  0
ARC
  5
17F2
330
18
100
AcDbEntity
  8
外形線
100
AcDbCircle
 10
248.4501428212019
 20
150.62049343454
 30
0.0
 40
90.7176908165943
100
AcDbArc
 50
312.0778514523193
 51
357.8022776228672
  0
ARC
  5
17F3
330
18
100
AcDbEntity
  8
外形線
100
AcDbCircle
 10
259.1098412173886
 20
148.3238625845292
 30
0.0
 40
75.0
100
AcDbArc
 50
323.7987484853825
 51
359.1273121143772
  0
ARC
  5
17FA
330
18
100
AcDbEntity
  8
外形線
100
AcDbCircle
 10
317.2100548325544
 20
105.7989854198376
 30
0.0
 40
3.0
100
AcDbArc
 50
174.4599027282285
 51
323.7987484853812
  0
ARC
  5
17FD
330
18
100
AcDbEntity
  8
外形線
100
AcDbCircle
 10
317.1011416931723
 20
147.1815609821782
 30
0.0
 40
17.0
100
AcDbArc
 50
0.0000000000043106
 51
102.2804014166684
  0
ARC
  5
17FE
330
18
100
AcDbEntity
  8
外形線
100
AcDbCircle
 10
314.1233953720111
 20
160.86121839188
 30
0.0
 40
3.0
100
AcDbArc
 50
102.280401416668
 51
189.6162710996384
  0
LINE
  5
1800
330
18
100
AcDbEntity
  8
外形線
100
AcDbLine
 10
317.4193344185469
 20
185.6678962290176
 30
0.0
 11
317.8109811587666
 21
184.2199277104111
 31
0.0
  0
LINE
  5
1905
330
18
100
AcDbEntity
  8
外形線
 62
     4
100
AcDbLine
 10
181.423728693978
 20
190.6815609821781
 30
0.0
 11
181.4237286939779
 21
184.6815609821781
 31
0.0
  0
LINE
  5
1906
330
18
100
AcDbEntity
  8
外形線
 62
     4
100
AcDbLine
 10
180.423728693978
 20
190.6815609821781
 30
0.0
 11
180.4237286939779
 21
184.6815609821781
 31
0.0
  0
LINE
  5
1907
330
18
100
AcDbEntity
  8
外形線
 62
     4
100
AcDbLine
 10
179.423728693978
 20
190.6815609821781
 30
0.0
 11
179.4237286939779
 21
184.6815609821781
 31
0.0
  0
INSERT
  5
1924
330
18
100
AcDbEntity
  8
外形線
100
AcDbBlockReference
  2
1-1
 10
280.6011416931723
 20
155.1815609821781
 30
0.0
 50
324.0
  0
INSERT
  5
193B
330
18
100
AcDbEntity
  8
外形線
100
AcDbBlockReference
  2
2
 10
276.4011416931722
 20
164.1815609821781
 30
0.0
 50
1.249999999999999
  0
LINE
  5
193C
330
18
100
AcDbEntity
  8
外形線
100
AcDbLine
 10
174.673728693978
 20
180.2252153827155
 30
0.0
 11
174.673728693978
 21
130.1379065816407
 31
0.0
  0
DIMENSION
  5
195F
330
18
100
AcDbEntity
  8
外形線
100
AcDbDimension
  2
*D27
 10
248.4523671180435
 20
93.18156098217817
 30
0.0
 11
246.5773671180435
 21
86.18156098217822
 31
0.0
 70
    32
 71
     5
 42
13.99999999999998
  3
STYLE3
100
AcDbAlignedDimension
 13
297.8011416931723
 23
79.18156098217818
 33
0.0
 14
253.7786278846704
 24
93.18156098217817
 34
0.0
 50
90.0
100
AcDbRotatedDimension
  0
DIMENSION
  5
19F3
330
18
100
AcDbEntity
  8
外形線
100
AcDbDimension
  2
*D28
 10
248.4523671180435
 20
110.1815609821782
 30
0.0
 11
246.5773671180435
 21
101.6815609821782
 31
0.0
 70
    32
 71
     5
 42
17.0
  3
STYLE3
100
AcDbAlignedDimension
 13
253.7786278846704
 23
93.18156098217817
 33
0.0
 14
267.1011416931723
 24
110.1815609821782
 34
0.0
 50
90.0
100
AcDbRotatedDimension
1001
ACAD
1000
DSTYLE
1002
{
1070
    75
1070
     1
1070
   279
1070
     1
1002
}
  0
DIMENSION
  5
1A0B
330
18
100
AcDbEntity
  8
外形線
100
AcDbDimension
  2
*D29
 10
248.4523671180435
 20
128.1815609821781
 30
0.0
 11
246.5773671180435
 21
119.1815609821782
 31
0.0
 70
    32
 71
     5
 42
17.99999999999997
  3
STYLE3
100
AcDbAlignedDimension
 13
267.1011416931723
 23
110.1815609821782
 33
0.0
 14
267.1011416931723
 24
128.1815609821781
 34
0.0
 50
90.0
100
AcDbRotatedDimension
1001
ACAD
1000
DSTYLE
1002
{
1070
    75
1070
     1
1070
   279
1070
     1
1002
}
  0
DIMENSION
  5
1A17
330
18
100
AcDbEntity
  8
外形線
100
AcDbDimension
  2
*D30
 10
248.4523671180435
 20
155.1815609821781
 30
0.0
 11
246.5773671180435
 21
141.6815609821782
 31
0.0
 70
    32
  1
27
 71
     5
 42
27.0
  3
STYLE3
100
AcDbAlignedDimension
 13
267.1011416931723
 23
128.1815609821781
 33
0.0
 14
247.2485014212342
 24
155.1815609821781
 34
0.0
 50
90.0
100
AcDbRotatedDimension
1001
ACAD
1000
DSTYLE
1002
{
1070
    75
1070
     1
1070
   279
1070
     1
1002
}
  0
DIMENSION
  5
1A24
330
18
100
AcDbEntity
  8
外形線
100
AcDbDimension
  2
*D31
 10
241.4687255528853
 20
155.1815609821781
 30
0.0
 11
239.5937255528853
 21
117.1815609821782
 31
0.0
 70
    32
  1
76
 71
     5
 42
75.99999999999997
  3
STYLE3
100
AcDbAlignedDimension
 13
247.2023671180435
 23
79.18156098217818
 33
0.0
 14
247.2485014212342
 24
155.1815609821781
 34
0.0
 50
90.0
100
AcDbRotatedDimension
  0
DIMENSION
  5
1A30
330
18
100
AcDbEntity
  8
外形線
100
AcDbDimension
  2
*D32
 10
241.4687255528853
 20
199.6815609821781
 30
0.0
 11
239.5937255528853
 21
177.4315609821782
 31
0.0
 70
    32
 71
     5
 42
44.5
  3
STYLE3
100
AcDbAlignedDimension
 13
247.2485014212342
 23
155.1815609821781
 33
0.0
 14
277.6011416931722
 24
199.6815609821781
 34
0.0
 50
90.0
100
AcDbRotatedDimension
1001
ACAD
1000
DSTYLE
1002
{
1070
    75
1070
     1
1070
   279
1070
     1
1002
}
  0
DIMENSION
  5
1A3D
330
18
100
AcDbEntity
  8
外形線
100
AcDbDimension
  2
*D33
 10
235.2202040699834
 20
199.6815609821782
 30
0.0
 11
233.3452040699834
 21
139.4315609821782
 31
0.0
 70
    32
  1
120.5
 71
     5
 42
120.5
  3
STYLE3
100
AcDbAlignedDimension
 13
240.2187255528853
 23
79.18156098217818
 33
0.0
 14
240.2187255528853
 24
199.6815609821782
 34
0.0
 50
90.0
100
AcDbRotatedDimension
  0
LINE
  5
1A3E
330
18
100
AcDbEntity
  8
外形線
100
AcDbLine
 10
184.923728693978
 20
109.681560982178
 30
0.0
 11
184.923728693978
 21
101.8815609821781
 31
0.0
  0
LINE
  5
1A3F
330
18
100
AcDbEntity
  8
外形線
100
AcDbLine
 10
180.423728693978
 20
109.6815609821781
 30
0.0
 11
180.423728693978
 21
101.8815609821781
 31
0.0
  0
DIMENSION
  5
1A4C
330
18
100
AcDbEntity
  8
外形線
100
AcDbDimension
  2
*D34
 10
280.6011416931723
 20
204.0358945403437
 30
0.0
 11
266.3511416931723
 21
205.9108945403437
 31
0.0
 70
    32
 71
     5
 42
28.5
  3
STYLE3
100
AcDbAlignedDimension
 13
252.1011416931723
 23
155.1815609821781
 33
0.0
 14
280.6011416931723
 24
202.4030246463559
 34
0.0
100
AcDbRotatedDimension
  0
DIMENSION
  5
1A58
330
18
100
AcDbEntity
  8
外形線
100
AcDbDimension
  2
*D35
 10
339.1011054795554
 20
204.0358945403437
 30
0.0
 11
309.8511235863638
 21
205.9108945403437
 31
0.0
 70
    32
 71
     5
 42
58.49996378638309
  3
STYLE3
100
AcDbAlignedDimension
 13
280.6011416931723
 23
202.4030246463559
 33
0.0
 14
339.1011054795554
 24
147.1416435945768
 34
0.0
100
AcDbRotatedDimension
1001
ACAD
1000
DSTYLE
1002
{
1070
    75
1070
     1
1070
   279
1070
     1
1002
}
  0
DIMENSION
  5
1A65
330
18
100
AcDbEntity
  8
外形線
100
AcDbDimension
  2
*D36
 10
339.1011054795554
 20
209.9122707600421
 30
0.0
 11
295.6011235863638
 21
211.7872707600421
 31
0.0
 70
    32
 71
     5
 42
86.99996378638308
  3
STYLE3
100
AcDbAlignedDimension
 13
252.1011416931723
 23
205.2858945403437
 33
0.0
 14
339.1011054795554
 24
205.2858945403437
 34
0.0
100
AcDbRotatedDimension
  0
DIMENSION
  5
1A72
330
18
100
AcDbEntity
  8
外形線
100
AcDbDimension
  2
*D37
 10
182.673728693978
 20
204.0358945403437
 30
0.0
 11
178.673728693978
 21
205.9108945403437
 31
0.0
 70
    32
 71
     5
 42
8.0
  3
STYLE3
100
AcDbAlignedDimension
 13
174.673728693978
 23
180.2252153827155
 33
0.0
 14
182.673728693978
 24
202.6913892429601
 34
0.0
100
AcDbRotatedDimension
  0
DIMENSION
  5
1A7E
330
18
100
AcDbEntity
  8
外形線
100
AcDbDimension
  2
*D38
 10
199.673728693978
 20
204.0358945403437
 30
0.0
 11
191.173728693978
 21
205.9108945403437
 31
0.0
 70
    32
 71
     5
 42
16.99999999999994
  3
STYLE3
100
AcDbAlignedDimension
 13
182.673728693978
 23
202.6913892429601
 33
0.0
 14
199.673728693978
 24
155.1815609821781
 34
0.0
100
AcDbRotatedDimension
1001
ACAD
1000
DSTYLE
1002
{
1070
    75
1070
     1
1070
   279
1070
     1
1002
}
  0
DIMENSION
  5
1A8B
330
18
100
AcDbEntity
  8
外形線
100
AcDbDimension
  2
*D39
 10
199.673728693978
 20
209.9122707600421
 30
0.0
 11
187.173728693978
 21
211.7872707600421
 31
0.0
 70
    32
 71
     5
 42
24.99999999999995
  3
STYLE3
100
AcDbAlignedDimension
 13
174.673728693978
 23
205.2858945403437
 33
0.0
 14
199.673728693978
 24
204.0358945403437
 34
0.0
100
AcDbRotatedDimension
  0
DIMENSION
  5
1A98
330
18
100
AcDbEntity
  8
外形線
100
AcDbDimension
  2
*D40
 10
211.2051348507253
 20
126.7315609821781
 30
0.0
 11
209.3301348507253
 21
155.1815609821782
 31
0.0
 70
    32
  1
φ57
 71
     5
 42
56.89999999999999
  3
STYLE3
100
AcDbAlignedDimension
 13
194.5737286939779
 23
183.6315609821781
 33
0.0
 14
194.5737286939779
 24
126.7315609821781
 34
0.0
 50
90.0
100
AcDbRotatedDimension
  0
TEXT
  5
1AB4
330
18
100
AcDbEntity
  8
文字
100
AcDbText
 10
279.4356640391775
 20
134.8989556691086
 30
0.0
 40
2.5
  1
0
  7
STYLE3
100
AcDbText
  0
DIMENSION
  5
1B1D
330
18
100
AcDbEntity
  8
外形線
100
AcDbDimension
  2
*D43
 10
202.1888734929734
 20
96.68156098217815
 30
0.0
 11
202.1888734929734
 21
84.93751336313058
 31
0.0
 70
   160
 71
     5
 42
3.499999999999943
  3
STYLE3
100
AcDbAlignedDimension
 13
188.1737286939779
 23
93.18156098217821
 33
0.0
 14
184.973728693978
 24
96.68156098217815
 34
0.0
 50
90.0
100
AcDbRotatedDimension
  0
LINE
  5
1E84
330
18
100
AcDbEntity
  8
外形線
100
AcDbLine
 10
282.9011416931723
 20
96.68156098217815
 30
0.0
 11
283.1011416931723
 21
96.48156098217818
 31
0.0
  0
LINE
  5
1E85
330
18
100
AcDbEntity
  8
外形線
100
AcDbLine
 10
278.1011416931723
 20
96.48156098217818
 30
0.0
 11
278.3011416931723
 21
96.68156098217815
 31
0.0
  0
LINE
  5
1E86
330
18
100
AcDbEntity
  8
外形線
100
AcDbLine
 10
277.6011416931723
 20
93.68156098217815
 30
0.0
 11
283.6011416931723
 21
93.68156098217815
 31
0.0
  0
LINE
  5
1E87
330
18
100
AcDbEntity
  8
外形線
100
AcDbLine
 10
277.6011416931723
 20
93.68156098217815
 30
0.0
 11
277.6011416931723
 21
93.18156098217816
 31
0.0
  0
LINE
  5
1E88
330
18
100
AcDbEntity
  8
外形線
100
AcDbLine
 10
278.1011416931723
 20
96.48156098217818
 30
0.0
 11
278.1011416931723
 21
93.68156098217815
 31
0.0
  0
LINE
  5
1E89
330
18
100
AcDbEntity
  8
外形線
100
AcDbLine
 10
283.6011416931723
 20
93.68156098217815
 30
0.0
 11
283.6011416931723
 21
93.18156098217816
 31
0.0
  0
LINE
  5
1E8A
330
18
100
AcDbEntity
  8
外形線
100
AcDbLine
 10
283.1011416931723
 20
96.48156098217818
 30
0.0
 11
283.1011416931723
 21
93.68156098217815
 31
0.0
  0
LINE
  5
1E8B
330
18
100
AcDbEntity
  8
外形線
100
AcDbLine
 10
278.3511416931723
 20
101.8815609821781
 30
0.0
 11
282.8511416931723
 21
101.8815609821781
 31
0.0
  0
LINE
  5
1E8C
330
18
100
AcDbEntity
  8
外形線
100
AcDbLine
 10
278.3011416931723
 20
96.68156098217815
 30
0.0
 11
282.9011416931723
 21
96.68156098217815
 31
0.0
  0
LINE
  5
1E8D
330
18
100
AcDbEntity
  8
外形線
100
AcDbLine
 10
278.1011416931723
 20
99.68156098217816
 30
0.0
 11
283.1011416931723
 21
99.68156098217816
 31
0.0
  0
LINE
  5
1E8E
330
18
100
AcDbEntity
  8
外形線
100
AcDbLine
 10
278.1011416931723
 20
101.5815609821781
 30
0.0
 11
278.4011416931723
 21
101.8815609821781
 31
0.0
  0
LINE
  5
1E8F
330
18
100
AcDbEntity
  8
外形線
100
AcDbLine
 10
278.1011416931723
 20
96.88156098217815
 30
0.0
 11
278.3011416931723
 21
96.68156098217815
 31
0.0
  0
LINE
  5
1E90
330
18
100
AcDbEntity
  8
外形線
100
AcDbLine
 10
278.1011416931723
 20
96.88156098217815
 30
0.0
 11
278.1011416931723
 21
99.68156098217816
 31
0.0
  0
LINE
  5
1E91
330
18
100
AcDbEntity
  8
外形線
100
AcDbLine
 10
278.1011416931723
 20
99.68156098217816
 30
0.0
 11
278.1011416931723
 21
101.5815609821781
 31
0.0
  0
LINE
  5
1E92
330
18
100
AcDbEntity
  8
外形線
100
AcDbLine
 10
282.8011416931723
 20
101.8815609821781
 30
0.0
 11
283.1011416931723
 21
101.5815609821781
 31
0.0
  0
LINE
  5
1E93
330
18
100
AcDbEntity
  8
外形線
100
AcDbLine
 10
282.9011416931723
 20
96.68156098217815
 30
0.0
 11
283.1011416931723
 21
96.88156098217815
 31
0.0
  0
LINE
  5
1E94
330
18
100
AcDbEntity
  8
外形線
100
AcDbLine
 10
283.1011416931723
 20
96.88156098217815
 30
0.0
 11
283.1011416931723
 21
99.68156098217816
 31
0.0
  0
LINE
  5
1E95
330
18
100
AcDbEntity
  8
外形線
100
AcDbLine
 10
283.1011416931723
 20
99.68156098217816
 30
0.0
 11
283.1011416931723
 21
101.5815609821781
 31
0.0
  0
LINE
  5
1E96
102
{ACAD_REACTORS
330
1EAC
102
}
330
18
100
AcDbEntity
  8
0
  6
ByBlock
 62
     2
100
AcDbLine
 10
275.6011416931722
 20
97.80643349387609
 30
0.0
 11
273.1011416931722
 21
97.80643349387609
 31
0.0
  0
LINE
  5
1E97
102
{ACAD_REACTORS
330
1EAC
102
}
330
18
100
AcDbEntity
  8
0
  6
ByBlock
 62
     2
100
AcDbLine
 10
285.6011416931722
 20
97.80643349387609
 30
0.0
 11
299.4939988360293
 21
97.80643349387609
 31
0.0
  0
LINE
  5
1E98
102
{ACAD_REACTORS
330
1EAC
102
}
330
18
100
AcDbEntity
  8
0
  6
ByBlock
 62
     2
100
AcDbLine
 10
278.1011416931722
 20
97.80643349387609
 30
0.0
 11
283.1011416931722
 21
97.80643349387609
 31
0.0
  0
INSERT
  5
1E99
102
{ACAD_REACTORS
330
1EAC
102
}
330
18
100
AcDbEntity
  8
0
  6
ByBlock
 62
     2
100
AcDbBlockReference
  2
_OPEN
 10
278.1011416931722
 20
97.80643349387609
 30
0.0
 41
2.5
 42
2.5
 43
2.5
  0
INSERT
  5
1E9A
102
{ACAD_REACTORS
330
1EAC
102
}
330
18
100
AcDbEntity
  8
0
  6
ByBlock
 62
     2
100
AcDbBlockReference
  2
_OPEN
 10
283.1011416931722
 20
97.80643349387609
 30
0.0
 41
2.5
 42
2.5
 43
2.5
 50
180.0
  0
MTEXT
  5
1E9B
102
{ACAD_REACTORS
330
1EAC
102
}
330
18
100
AcDbEntity
  8
0
  6
ByBlock
 62
     6
100
AcDbMText
 10
293.7975702646008
 20
99.68143349387609
 30
0.0
 40
2.5
 41
0.0
 71
     5
 72
     1
  1
\A1;2-φ5
  7
STYLE3
 73
     1
 44
1.0
  0
DIMENSION
  5
1E9C
330
18
100
AcDbEntity
  8
寸法線
100
AcDbDimension
  2
*D48
 10
255.0286278846704
 20
83.18156098217817
 30
0.0
 11
253.1536278846704
 21
88.18156098217823
 31
0.0
 70
    32
 71
     5
 42
10.0
  3
STYLE3
100
AcDbAlignedDimension
 13
278.434208634433
 23
93.18156098217817
 33
0.0
 14
278.975105214949
 24
83.18156098217817
 34
0.0
 50
90.0
100
AcDbRotatedDimension
1001
ACAD
1000
DSTYLE
1002
{
1070
   341
1005
0
1002
}
  0
LINE
  5
1EEA
330
18
100
AcDbEntity
  8
外形線
100
AcDbLine
 10
195.5471941796206
 20
224.4389390126587
 30
0.0
 11
307.5471941796206
 21
224.4389390126587
 31
0.0
  0
LINE
  5
1EEB
330
18
100
AcDbEntity
  8
外形線
100
AcDbLine
 10
195.5471941796206
 20
223.4389390126587
 30
0.0
 11
307.5471941796206
 21
223.4389390126587
 31
0.0
  0
TEXT
  5
1EEC
330
18
100
AcDbEntity
  8
文字
100
AcDbText
 10
196.2326321796206
 20
226.5325400126588
 30
0.0
 40
4.0
  1
Model No.G-7C Dial Thickness Gauge
  7
STYLE3
100
AcDbText
  0
LINE
  5
1EF0
330
18
100
AcDbEntity
  8
外形線
100
AcDbLine
 10
242.1156691796205
 20
60.53328401265875
 30
0.0
 11
382.9070871796206
 21
60.53328401265875
 31
0.0
  0
LINE
  5
1EF1
330
18
100
AcDbEntity
  8
外形線
100
AcDbLine
 10
242.1156691796205
 20
49.75307801265874
 30
0.0
 11
382.9070871796206
 21
49.75307801265874
 31
0.0
  0
TEXT
  5
1EF2
330
18
100
AcDbEntity
  8
0
  6
Continuous
100
AcDbText
 10
243.5731361796206
 20
51.65106801265874
 30
0.0
 40
2.1
  1
Design and specifications are subject to change without notice for future improvement.
  7
STYLE3
100
AcDbText
  0
TEXT
  5
1EF3
330
18
100
AcDbEntity
  8
0
  6
Continuous
100
AcDbText
 10
243.8646301796206
 20
55.58021601265874
 30
0.0
 40
3.5
  1
仕様及び外観は予告なく変更される場合がございますのでご了承下さい。
  7
STYLE3
100
AcDbText
  0
TEXT
  5
1EF4
330
18
100
AcDbEntity
  8
0
  6
Continuous
100
AcDbText
 10
243.2816451796206
 20
41.88644001265874
 30
0.0
 40
2.1
  1
3RD Angle Projection
  7
STYLE3
100
AcDbText
  0
TEXT
  5
1EF5
330
18
100
AcDbEntity
  8
0
  6
Continuous
100
AcDbText
 10
245.9050881796206
 20
45.38272301265874
 30
0.0
 40
3.0
  1
三　　角　　法
  7
STYLE3
100
AcDbText
  0
LINE
  5
1EF6
330
18
100
AcDbEntity
  8
外形線
100
AcDbLine
 10
242.1156691796205
 20
40.13830001265874
 30
0.0
 11
242.1156691796205
 21
60.53328401265875
 31
0.0
  0
LINE
  5
1EF7
330
18
100
AcDbEntity
  8
外形線
100
AcDbLine
 10
344.1384361796206
 20
49.75307801265874
 30
0.0
 11
344.1384361796206
 21
40.13830001265874
 31
0.0
  0
LINE
  5
1EF8
330
18
100
AcDbEntity
  8
外形線
100
AcDbLine
 10
314.4060861796206
 20
49.75307801265874
 30
0.0
 11
314.4060861796206
 21
40.13830001265874
 31
0.0
  0
LINE
  5
1EF9
330
18
100
AcDbEntity
  8
外形線
100
AcDbLine
 10
294.8760141796205
 20
49.75307801265874
 30
0.0
 11
294.8760141796205
 21
40.13830001265874
 31
0.0
  0
LINE
  5
1EFA
330
18
100
AcDbEntity
  8
外形線
100
AcDbLine
 10
277.3863971796206
 20
49.75307801265874
 30
0.0
 11
277.3863971796206
 21
40.13830001265874
 31
0.0
  0
TEXT
  5
1EFB
330
18
100
AcDbEntity
  8
0
  6
Continuous
100
AcDbText
 10
278.8438661796206
 20
45.38867801265874
 30
0.0
 40
3.0
  1
単位
  7
STYLE3
100
AcDbText
  0
TEXT
  5
1EFC
330
18
100
AcDbEntity
  8
0
  6
Continuous
100
AcDbText
 10
279.0155871796206
 20
41.88644101265874
 30
0.0
 40
2.1
  1
Unit
  7
STYLE3
100
AcDbText
  0
TEXT
  5
1EFD
330
18
100
AcDbEntity
  8
0
  6
Continuous
100
AcDbText
 10
296.1617621796206
 20
45.09732001265875
 30
0.0
 40
3.0
  1
尺 度
  7
STYLE3
100
AcDbText
  0
TEXT
  5
1EFE
330
18
100
AcDbEntity
  8
0
  6
Continuous
100
AcDbText
 10
286.8859141796205
 20
43.63458401265875
 30
0.0
 40
2.399999999999999
  1
mm
  7
STYLE3
100
AcDbText
  0
TEXT
  5
1EFF
330
18
100
AcDbEntity
  8
0
  6
Continuous
100
AcDbText
 10
296.6249771796205
 20
42.17779801265875
 30
0.0
 40
2.1
  1
Scale
  7
STYLE3
100
AcDbText
  0
TEXT
  5
1F00
330
18
100
AcDbEntity
  8
0
  6
Continuous
100
AcDbText
 10
306.2442661796206
 20
43.92594101265874
 30
0.0
 40
2.399999999999999
  1
1/1
  7
STYLE3
100
AcDbText
  0
TEXT
  5
1F01
330
18
100
AcDbEntity
  8
0
  6
Continuous
100
AcDbText
 10
316.3380371796206
 20
41.88644201265875
 30
0.0
 40
2.1
  1
Date
  7
STYLE3
100
AcDbText
  0
TEXT
  5
1F02
330
18
100
AcDbEntity
  8
0
  6
Continuous
100
AcDbText
 10
315.9546761796205
 20
45.21952501265874
 30
0.0
 40
3.0
  1
日 付
  7
STYLE3
100
AcDbText
  0
TEXT
  5
1F03
330
18
100
AcDbEntity
  8
0
  6
Continuous
100
AcDbText
 10
325.0828451796206
 20
43.63458301265874
 30
0.0
 40
2.1
  1
2010.06.10
  7
STYLE3
100
AcDbText
  0
TEXT
  5
1F04
330
18
100
AcDbEntity
  8
0
  6
Continuous
100
AcDbText
 10
345.4873991796206
 20
45.67408001265874
 30
0.0
 40
3.0
  1
株式会社　尾崎製作所
  7
STYLE3
100
AcDbText
  0
TEXT
  5
1F05
330
18
100
AcDbEntity
  8
0
  6
Continuous
100
AcDbText
 10
346.3618781796206
 20
41.88644101265874
 30
0.0
 40
2.1
  1
OZAKI MFG. CO., LTD.
  7
STYLE3
100
AcDbText
  0
VIEWPORT
  5
177
330
15
100
AcDbEntity
 67
     1
  8
0
100
AcDbViewport
 10
127.5041203589828
 20
97.49391214526822
 30
0.0
 40
418.3086347473814
 41
243.0346063651093
 68
     1
 69
     1
 12
127.5041203589828
 22
97.49391214526822
 13
0.0
 23
0.0
 14
10.0
 24
10.0
 15
10.0
 25
10.0
 16
0.0
 26
0.0
 36
1.0
 17
0.0
 27
0.0
 37
0.0
 42
50.0
 43
0.0
 44
0.0
 45
243.0346063651093
 50
0.0
 51
0.0
 72
   100
 90
    32800
  1

281
     0
 71
     1
 74
     0
110
0.0
120
0.0
130
0.0
111
1.0
121
0.0
131
0.0
112
0.0
122
1.0
132
0.0
 79
     0
146
0.0
170
     0
  0
ENDSEC
  0
SECTION
  2
OBJECTS
  0
DICTIONARY
  5
C
330
0
100
AcDbDictionary
281
     1
  3
ACAD_COLOR
350
1BCE
  3
ACAD_GROUP
350
D
  3
ACAD_LAYOUT
350
1BD1
  3
ACAD_MATERIAL
350
1BCD
  3
ACAD_MLINESTYLE
350
1B
  3
ACAD_PLOTSETTINGS
350
1BD2
  3
ACAD_PLOTSTYLENAME
350
1BCB
  3
ACAD_TABLESTYLE
350
1BCF
  3
AcDbVariableDictionary
350
1EAA
  0
DICTIONARY
  5
1BCE
102
{ACAD_REACTORS
330
C
102
}
330
C
100
AcDbDictionary
281
     1
  0
DICTIONARY
  5
D
102
{ACAD_REACTORS
330
C
102
}
330
C
100
AcDbDictionary
281
     1
  3
*A1
350
1EAC
  0
DICTIONARY
  5
1BD1
102
{ACAD_REACTORS
330
C
102
}
330
C
100
AcDbDictionary
281
     1
  3
Model
350
1BD3
  3
レイアウト1
350
1BD4
  0
DICTIONARY
  5
1BCD
102
{ACAD_REACTORS
330
C
102
}
330
C
100
AcDbDictionary
281
     1
  0
DICTIONARY
  5
1B
102
{ACAD_REACTORS
330
C
102
}
330
C
100
AcDbDictionary
281
     1
  3
STANDARD
350
1C
  0
DICTIONARY
  5
1BD2
102
{ACAD_REACTORS
330
C
102
}
330
C
100
AcDbDictionary
281
     1
  0
ACDBDICTIONARYWDFLT
  5
1BCB
102
{ACAD_REACTORS
330
C
102
}
330
C
100
AcDbDictionary
281
     1
  3
Normal
350
1BCC
100
AcDbDictionaryWithDefault
340
1BCC
  0
DICTIONARY
  5
1BCF
102
{ACAD_REACTORS
330
C
102
}
330
C
100
AcDbDictionary
281
     1
  3
Standard
350
1BD0
  0
DICTIONARY
  5
1EAA
102
{ACAD_REACTORS
330
C
102
}
330
C
100
AcDbDictionary
281
     1
  3
CTABLESTYLE
350
1EAB
  0
GROUP
  5
1EAC
102
{ACAD_REACTORS
330
D
102
}
330
D
100
AcDbGroup
300

 70
     1
 71
     1
340
1E9B
340
1E97
340
1E9A
340
1E98
340
1E99
340
1E96
  0
LAYOUT
  5
1BD3
102
{ACAD_REACTORS
330
1BD1
102
}
330
1BD1
100
AcDbPlotSettings
  1

  2
WIDR Printer
  4

  6

 40
0.0
 41
0.0
 42
0.0
 43
0.0
 44
0.0
 45
0.0
 46
0.0
 47
0.0
 48
0.0
 49
0.0
140
0.0
141
0.0
142
1.0
143
1.0
 70
  1712
 72
     0
 73
     0
 74
     0
  7
AutoCad LT 98.ctb
 75
     0
147
1.0
 76
     0
 77
     2
 78
   300
148
0.0
149
0.0
100
AcDbLayout
  1
Model
 70
     1
 71
     0
 10
0.0
 20
0.0
 11
12.0
 21
9.0
 12
0.0
 22
0.0
 32
0.0
 14
0.0
 24
0.0
 34
0.0
 15
0.0
 25
0.0
 35
0.0
146
0.0
 13
0.0
 23
0.0
 33
0.0
 16
1.0
 26
0.0
 36
0.0
 17
0.0
 27
1.0
 37
0.0
 76
     0
330
18
  0
LAYOUT
  5
1BD4
102
{ACAD_REACTORS
330
1BD1
102
}
330
1BD1
100
AcDbPlotSettings
  1

  2
WIDR Printer
  4

  6

 40
0.0
 41
0.0
 42
0.0
 43
0.0
 44
0.0
 45
0.0
 46
0.0
 47
0.0
 48
0.0
 49
0.0
140
0.0
141
0.0
142
1.0
143
1.0
 70
   688
 72
     0
 73
     0
 74
     5
  7
AutoCad LT 98.ctb
 75
    16
147
1.0
 76
     0
 77
     2
 78
   300
148
0.0
149
0.0
100
AcDbLayout
  1
レイアウト1
 70
     1
 71
     1
 10
0.0
 20
0.0
 11
420.0
 21
297.0
 12
0.0
 22
0.0
 32
0.0
 14
-0.2
 24
-0.2
 34
0.0
 15
255.2
 25
195.2
 35
0.0
146
0.0
 13
0.0
 23
0.0
 33
0.0
 16
1.0
 26
0.0
 36
0.0
 17
0.0
 27
1.0
 37
0.0
 76
     0
330
15
331
177
  0
MLINESTYLE
  5
1C
102
{ACAD_REACTORS
330
1B
102
}
330
1B
100
AcDbMlineStyle
  2
STANDARD
 70
     0
  3

 62
   256
 51
90.0
 52
90.0
 71
     2
 49
0.5
 62
   256
  6
BYLAYER
 49
-0.5
 62
   256
  6
BYLAYER
  0
ACDBPLACEHOLDER
  5
1BCC
102
{ACAD_REACTORS
330
1BCB
102
}
330
1BCB
  0
ACAD_PROXY_OBJECT
  5
1BD0
102
{ACAD_REACTORS
330
1BCF
102
}
330
1BCF
100
AcDbProxyObject
 90
      499
 91
      503
 95
  2555929
 70
     0
 93
     1849
310
4214DD185B99185C992420000000000000F83F0000000000003E0FC00000000000004901028000000C1008070000C3001FDFF8000000C1003FBFF000000182007F7FE00000030400FEFFC00000060801FDFF8000000C1003FBFF000000182000000000000000C2020B0000001820100E000186003FBFF000000182007F7FE0
310
0000030400FEFFC00000060801FDFF8000000C1003FBFF000000182007F7FE0000003040000000000000012404160000003040201C00030C007F7FE00000030400FEFFC00000060801FDFF8000000C1003FBFF000000182007F7FE00000030400FEFFC000000608000
340
F
340
F
340
F
 94
        0
  0
DICTIONARYVAR
  5
1EAB
102
{ACAD_REACTORS
330
1EAA
102
}
330
1EAA
100
DictionaryVariables
280
     0
  1
STANDARD
  0
ENDSEC
  0
EOF
