  0
SECTION
  2
HEADER
  9
$ACADVER
  1
AC1018
  9
$ACADMAINTVER
 70
     0
  9
$DWGCODEPAGE
  3
ANSI_932
  9
$INSBASE
 10
0.0
 20
0.0
 30
0.0
  9
$EXTMIN
 10
-0.2064080253769589
 20
-0.2045322825848643
 30
-0.0000610400456509
  9
$EXTMAX
 10
255.220968870147
 20
195.216756504897
 30
0.0000152620489651
  9
$LIMMIN
 10
0.0
 20
0.0
  9
$LIMMAX
 10
420.0
 20
297.0
  9
$ORTHOMODE
 70
     0
  9
$REGENMODE
 70
     1
  9
$FILLMODE
 70
     1
  9
$QTEXTMODE
 70
     0
  9
$MIRRTEXT
 70
     1
  9
$LTSCALE
 40
1.0
  9
$ATTMODE
 70
     1
  9
$TEXTSIZE
 40
2.5
  9
$TRACEWID
 40
1.0
  9
$TEXTSTYLE
  7
STYLE3
  9
$CLAYER
  8
外形線
  9
$CELTYPE
  6
BYLAYER
  9
$CECOLOR
 62
   256
  9
$CELTSCALE
 40
1.0
  9
$DISPSILH
 70
     0
  9
$DIMSCALE
 40
1.0
  9
$DIMASZ
 40
2.5
  9
$DIMEXO
 40
0.0
  9
$DIMDLI
 40
3.75
  9
$DIMRND
 40
0.0
  9
$DIMDLE
 40
0.0
  9
$DIMEXE
 40
1.25
  9
$DIMTP
 40
0.0
  9
$DIMTM
 40
0.0
  9
$DIMTXT
 40
2.5
  9
$DIMCEN
 40
2.5
  9
$DIMTSZ
 40
0.0
  9
$DIMTOL
 70
     0
  9
$DIMLIM
 70
     0
  9
$DIMTIH
 70
     0
  9
$DIMTOH
 70
     0
  9
$DIMSE1
 70
     0
  9
$DIMSE2
 70
     0
  9
$DIMTAD
 70
     1
  9
$DIMZIN
 70
     8
  9
$DIMBLK
  1

  9
$DIMASO
 70
     1
  9
$DIMSHO
 70
     1
  9
$DIMPOST
  1

  9
$DIMAPOST
  1

  9
$DIMALT
 70
     0
  9
$DIMALTD
 70
     4
  9
$DIMALTF
 40
0.0394
  9
$DIMLFAC
 40
1.0
  9
$DIMTOFL
 70
     1
  9
$DIMTVP
 40
0.0
  9
$DIMTIX
 70
     0
  9
$DIMSOXD
 70
     0
  9
$DIMSAH
 70
     1
  9
$DIMBLK1
  1
OPEN
  9
$DIMBLK2
  1
OPEN
  9
$DIMSTYLE
  2
STYLE3
  9
$DIMCLRD
 70
     2
  9
$DIMCLRE
 70
     2
  9
$DIMCLRT
 70
     6
  9
$DIMTFAC
 40
1.0
  9
$DIMGAP
 40
0.625
  9
$DIMJUST
 70
     0
  9
$DIMSD1
 70
     0
  9
$DIMSD2
 70
     0
  9
$DIMTOLJ
 70
     1
  9
$DIMTZIN
 70
     0
  9
$DIMALTZ
 70
     0
  9
$DIMALTTZ
 70
     0
  9
$DIMUPT
 70
     0
  9
$DIMDEC
 70
     2
  9
$DIMTDEC
 70
     4
  9
$DIMALTU
 70
     8
  9
$DIMALTTD
 70
     4
  9
$DIMTXSTY
  7
STYLE3
  9
$DIMAUNIT
 70
     0
  9
$DIMADEC
 70
     0
  9
$DIMALTRND
 40
0.0
  9
$DIMAZIN
 70
     0
  9
$DIMDSEP
 70
    46
  9
$DIMATFIT
 70
     3
  9
$DIMFRAC
 70
     0
  9
$DIMLDRBLK
  1

  9
$DIMLUNIT
 70
     2
  9
$DIMLWD
 70
    -2
  9
$DIMLWE
 70
    -2
  9
$DIMTMOVE
 70
     0
  9
$LUNITS
 70
     2
  9
$LUPREC
 70
     4
  9
$SKETCHINC
 40
1.0
  9
$FILLETRAD
 40
0.0
  9
$AUNITS
 70
     0
  9
$AUPREC
 70
     0
  9
$MENU
  1
.
  9
$ELEVATION
 40
0.0
  9
$PELEVATION
 40
0.0
  9
$THICKNESS
 40
0.0
  9
$LIMCHECK
 70
     0
  9
$CHAMFERA
 40
0.3
  9
$CHAMFERB
 40
0.3
  9
$CHAMFERC
 40
20.0
  9
$CHAMFERD
 40
0.0
  9
$SKPOLY
 70
     0
  9
$TDCREATE
 40
2451235.420719097
  9
$TDUCREATE
 40
2451235.045719098
  9
$TDUPDATE
 40
2455358.380987766
  9
$TDUUPDATE
 40
2455358.005987766
  9
$TDINDWG
 40
0.8389375579
  9
$TDUSRTIMER
 40
0.8389375579
  9
$USRTIMER
 70
     1
  9
$ANGBASE
 50
0.0
  9
$ANGDIR
 70
     0
  9
$PDMODE
 70
     0
  9
$PDSIZE
 40
0.0
  9
$PLINEWID
 40
0.0
  9
$SPLFRAME
 70
     0
  9
$SPLINETYPE
 70
     6
  9
$SPLINESEGS
 70
     8
  9
$HANDSEED
  5
1AEF
  9
$SURFTAB1
 70
     6
  9
$SURFTAB2
 70
     6
  9
$SURFTYPE
 70
     6
  9
$SURFU
 70
     6
  9
$SURFV
 70
     6
  9
$UCSBASE
  2

  9
$UCSNAME
  2

  9
$UCSORG
 10
0.0
 20
0.0
 30
0.0
  9
$UCSXDIR
 10
1.0
 20
0.0
 30
0.0
  9
$UCSYDIR
 10
0.0
 20
1.0
 30
0.0
  9
$UCSORTHOREF
  2

  9
$UCSORTHOVIEW
 70
     0
  9
$UCSORGTOP
 10
0.0
 20
0.0
 30
0.0
  9
$UCSORGBOTTOM
 10
0.0
 20
0.0
 30
0.0
  9
$UCSORGLEFT
 10
0.0
 20
0.0
 30
0.0
  9
$UCSORGRIGHT
 10
0.0
 20
0.0
 30
0.0
  9
$UCSORGFRONT
 10
0.0
 20
0.0
 30
0.0
  9
$UCSORGBACK
 10
0.0
 20
0.0
 30
0.0
  9
$PUCSBASE
  2

  9
$PUCSNAME
  2

  9
$PUCSORG
 10
0.0
 20
0.0
 30
0.0
  9
$PUCSXDIR
 10
1.0
 20
0.0
 30
0.0
  9
$PUCSYDIR
 10
0.0
 20
1.0
 30
0.0
  9
$PUCSORTHOREF
  2

  9
$PUCSORTHOVIEW
 70
     0
  9
$PUCSORGTOP
 10
0.0
 20
0.0
 30
0.0
  9
$PUCSORGBOTTOM
 10
0.0
 20
0.0
 30
0.0
  9
$PUCSORGLEFT
 10
0.0
 20
0.0
 30
0.0
  9
$PUCSORGRIGHT
 10
0.0
 20
0.0
 30
0.0
  9
$PUCSORGFRONT
 10
0.0
 20
0.0
 30
0.0
  9
$PUCSORGBACK
 10
0.0
 20
0.0
 30
0.0
  9
$USERI1
 70
     0
  9
$USERI2
 70
     0
  9
$USERI3
 70
     0
  9
$USERI4
 70
     0
  9
$USERI5
 70
     0
  9
$USERR1
 40
0.0
  9
$USERR2
 40
0.0
  9
$USERR3
 40
0.0
  9
$USERR4
 40
0.0
  9
$USERR5
 40
0.0
  9
$WORLDVIEW
 70
     1
  9
$SHADEDGE
 70
     3
  9
$SHADEDIF
 70
    70
  9
$TILEMODE
 70
     1
  9
$MAXACTVP
 70
    48
  9
$PINSBASE
 10
0.0
 20
0.0
 30
0.0
  9
$PLIMCHECK
 70
     0
  9
$PEXTMIN
 10
-0.2
 20
-0.2
 30
0.0
  9
$PEXTMAX
 10
255.2
 20
195.2
 30
0.0
  9
$PLIMMIN
 10
0.0
 20
0.0
  9
$PLIMMAX
 10
420.0
 20
297.0
  9
$UNITMODE
 70
     0
  9
$VISRETAIN
 70
     1
  9
$PLINEGEN
 70
     0
  9
$PSLTSCALE
 70
     1
  9
$TREEDEPTH
 70
  3020
  9
$CMLSTYLE
  2
STANDARD
  9
$CMLJUST
 70
     0
  9
$CMLSCALE
 40
20.0
  9
$PROXYGRAPHICS
 70
     1
  9
$MEASUREMENT
 70
     1
  9
$CELWEIGHT
370
    -1
  9
$ENDCAPS
280
     0
  9
$JOINSTYLE
280
     0
  9
$LWDISPLAY
290
     0
  9
$INSUNITS
 70
     0
  9
$HYPERLINKBASE
  1

  9
$STYLESHEET
  1
AutoCad LT 98.ctb
  9
$XEDIT
290
     1
  9
$CEPSNTYPE
380
     0
  9
$PSTYLEMODE
290
     1
  9
$FINGERPRINTGUID
  2
{04E58E75-D78A-44EE-A6BF-BE5B782ED292}
  9
$VERSIONGUID
  2
{04820ED7-D3C2-4D3F-8D68-86412C6D766A}
  9
$EXTNAMES
290
     1
  9
$PSVPSCALE
 40
0.0
  9
$OLESTARTUP
290
     0
  9
$SORTENTS
280
   127
  9
$INDEXCTL
280
     0
  9
$HIDETEXT
280
     0
  9
$XCLIPFRAME
290
     0
  9
$HALOGAP
280
     0
  9
$OBSCOLOR
 70
   257
  9
$OBSLTYPE
280
     0
  9
$INTERSECTIONDISPLAY
280
     0
  9
$INTERSECTIONCOLOR
 70
   257
  9
$DIMASSOC
280
     1
  9
$PROJECTNAME
  1

  0
ENDSEC
  0
SECTION
  2
CLASSES
  0
CLASS
  1
HATCH
  2
AcDbHatch
  3
ObjectDBX Classes
 90
        0
 91
       12
280
     0
281
     1
  0
CLASS
  1
LWPOLYLINE
  2
AcDbPolyline
  3
ObjectDBX Classes
 90
        0
 91
        1
280
     0
281
     1
  0
CLASS
  1
RASTERVARIABLES
  2
AcDbRasterVariables
  3
ISM
 90
        0
 91
        1
280
     0
281
     0
  0
CLASS
  1
IMAGEDEF
  2
AcDbRasterImageDef
  3
ISM
 90
        0
 91
        1
280
     0
281
     0
  0
CLASS
  1
IMAGEDEF_REACTOR
  2
AcDbRasterImageDefReactor
  3
ISM
 90
        1
 91
        0
280
     0
281
     0
  0
CLASS
  1
IMAGE
  2
AcDbRasterImage
  3
ISM
 90
      127
 91
        0
280
     0
281
     1
  0
CLASS
  1
ACDBDICTIONARYWDFLT
  2
AcDbDictionaryWithDefault
  3
ObjectDBX Classes
 90
        0
 91
        1
280
     0
281
     0
  0
CLASS
  1
TABLESTYLE
  2
AcDbTableStyle
  3
ObjectDBX Classes
 90
     2047
 91
        1
280
     0
281
     0
  0
CLASS
  1
DICTIONARYVAR
  2
AcDbDictionaryVar
  3
ObjectDBX Classes
 90
        0
 91
        1
280
     0
281
     0
  0
ENDSEC
  0
SECTION
  2
TABLES
  0
TABLE
  2
VPORT
  5
8
330
0
100
AcDbSymbolTable
 70
     2
  0
VPORT
  5
1AEE
330
8
100
AcDbSymbolTableRecord
100
AcDbViewportTableRecord
  2
*Active
 70
     0
 10
0.0
 20
0.0
 11
1.0
 21
1.0
 12
127.507280422385
 22
97.50611211115609
 13
0.0
 23
0.0
 14
10.0
 24
10.0
 15
10.0
 25
10.0
 16
0.0
 26
0.0
 36
1.0
 17
0.0
 27
0.0
 37
0.0
 40
196.9073822383372
 41
1.530456852791878
 42
50.0
 43
0.0
 44
0.0
 50
0.0
 51
0.0
 71
     0
 72
   100
 73
     1
 74
     1
 75
     0
 76
     0
 77
     0
 78
     0
281
     0
 65
     1
110
0.0
120
0.0
130
0.0
111
1.0
121
0.0
131
0.0
112
0.0
122
1.0
132
0.0
 79
     0
146
0.0
  0
ENDTAB
  0
TABLE
  2
LTYPE
  5
5
330
0
100
AcDbSymbolTable
 70
     3
  0
LTYPE
  5
12
330
5
100
AcDbSymbolTableRecord
100
AcDbLinetypeTableRecord
  2
BYBLOCK
 70
     0
  3

 72
    65
 73
     0
 40
0.0
  0
LTYPE
  5
13
330
5
100
AcDbSymbolTableRecord
100
AcDbLinetypeTableRecord
  2
BYLAYER
 70
     0
  3

 72
    65
 73
     0
 40
0.0
  0
LTYPE
  5
14
330
5
100
AcDbSymbolTableRecord
100
AcDbLinetypeTableRecord
  2
CONTINUOUS
 70
     0
  3
Solid line
 72
    65
 73
     0
 40
0.0
  0
LTYPE
  5
22
330
5
100
AcDbSymbolTableRecord
100
AcDbLinetypeTableRecord
  2
CENTER2
 70
     0
  3
Center (.5x) ___ _ ___ _ ___ _ ___ _ ___ _ ___
 72
    65
 73
     4
 40
28.575
 49
19.05
 74
     0
 49
-3.174999999999999
 74
     0
 49
3.174999999999999
 74
     0
 49
-3.174999999999999
 74
     0
  0
LTYPE
  5
23
330
5
100
AcDbSymbolTableRecord
100
AcDbLinetypeTableRecord
  2
HIDDEN2
 70
     0
  3
Hidden (.5x) _ _ _ _ _ _ _ _ _ _ _ _ _ _ _ _ _
 72
    65
 73
     2
 40
4.762499999999999
 49
3.174999999999999
 74
     0
 49
-1.587499999999999
 74
     0
  0
ENDTAB
  0
TABLE
  2
LAYER
  5
2
102
{ACAD_XDICTIONARY
360
1A35
102
}
330
0
100
AcDbSymbolTable
 70
    12
  0
LAYER
  5
E
330
2
100
AcDbSymbolTableRecord
100
AcDbLayerTableRecord
  2
0
 70
     0
 62
     7
  6
CONTINUOUS
370
    -3
390
19B0
  0
LAYER
  5
25
330
2
100
AcDbSymbolTableRecord
100
AcDbLayerTableRecord
  2
外形線
 70
     0
 62
     7
  6
CONTINUOUS
370
    -3
390
19B0
  0
LAYER
  5
26
330
2
100
AcDbSymbolTableRecord
100
AcDbLayerTableRecord
  2
寸法線
 70
     0
 62
     2
  6
CONTINUOUS
370
    -3
390
19B0
  0
LAYER
  5
27
330
2
100
AcDbSymbolTableRecord
100
AcDbLayerTableRecord
  2
中心線
 70
     0
 62
     4
  6
CENTER2
370
    -3
390
19B0
  0
LAYER
  5
2A
330
2
100
AcDbSymbolTableRecord
100
AcDbLayerTableRecord
  2
ﾊｯﾁﾝｸ
 70
     0
 62
     4
  6
CONTINUOUS
370
    -3
390
19B0
  0
LAYER
  5
2B
330
2
100
AcDbSymbolTableRecord
100
AcDbLayerTableRecord
  2
文字
 70
     0
 62
     6
  6
CONTINUOUS
370
    -3
390
19B0
  0
LAYER
  5
2C
330
2
100
AcDbSymbolTableRecord
100
AcDbLayerTableRecord
  2
目盛
 70
     0
 62
    70
  6
CONTINUOUS
370
    -3
390
19B0
  0
LAYER
  5
2D
330
2
100
AcDbSymbolTableRecord
100
AcDbLayerTableRecord
  2
針
 70
     0
 62
     5
  6
CONTINUOUS
370
    -3
390
19B0
  0
LAYER
  5
53
330
2
100
AcDbSymbolTableRecord
100
AcDbLayerTableRecord
  2
DEFPOINTS
 70
     0
 62
     7
  6
CONTINUOUS
290
     0
370
    -3
390
19B0
  0
LAYER
  5
A5
330
2
100
AcDbSymbolTableRecord
100
AcDbLayerTableRecord
  2
C
 70
     0
 62
     7
  6
CONTINUOUS
370
    -3
390
19B0
  0
LAYER
  5
16A
330
2
100
AcDbSymbolTableRecord
100
AcDbLayerTableRecord
  2
隠れ線2
 70
     0
 62
     1
  6
HIDDEN2
370
    -3
390
19B0
  0
LAYER
  5
B7C
330
2
100
AcDbSymbolTableRecord
100
AcDbLayerTableRecord
  2
ROGO
 70
     0
 62
     6
  6
CONTINUOUS
370
    -3
390
19B0
  0
ENDTAB
  0
TABLE
  2
STYLE
  5
3
330
0
100
AcDbSymbolTable
 70
     3
  0
STYLE
  5
F
330
3
100
AcDbSymbolTableRecord
100
AcDbTextStyleTableRecord
  2
STANDARD
 70
     0
 40
0.0
 41
1.0
 50
0.0
 71
     0
 42
2.5
  3
txt
  4

  0
STYLE
  5
3F
330
3
100
AcDbSymbolTableRecord
100
AcDbTextStyleTableRecord
  2
STYLE3
 70
     0
 40
0.0
 41
1.0
 50
0.0
 71
     0
 42
2.5
  3
romans.shx
  4
bigfont.shx
  0
ENDTAB
  0
TABLE
  2
VIEW
  5
6
330
0
100
AcDbSymbolTable
 70
     0
  0
ENDTAB
  0
TABLE
  2
UCS
  5
7
330
0
100
AcDbSymbolTable
 70
     0
  0
ENDTAB
  0
TABLE
  2
APPID
  5
9
330
0
100
AcDbSymbolTable
 70
     1
  0
APPID
  5
10
330
9
100
AcDbSymbolTableRecord
100
AcDbRegAppTableRecord
  2
ACAD
 70
     0
  0
ENDTAB
  0
TABLE
  2
DIMSTYLE
  5
A
330
0
100
AcDbSymbolTable
 70
     2
100
AcDbDimStyleTable
 71
     1
340
8F
  0
DIMSTYLE
105
1D
330
A
100
AcDbSymbolTableRecord
100
AcDbDimStyleTableRecord
  2
STANDARD
 70
     0
 41
2.5
 42
0.625
 43
3.75
 44
1.25
 73
     0
 74
     0
 77
     1
 78
     8
140
2.5
141
2.5
143
0.0394
147
0.625
171
     4
172
     1
273
     8
274
     4
277
     6
340
F
  0
DIMSTYLE
105
8F
102
{ACAD_REACTORS
330
1A77
102
}
330
A
100
AcDbSymbolTableRecord
100
AcDbDimStyleTableRecord
  2
STYLE3
 70
     0
 41
2.5
 42
0.0
 43
3.75
 44
1.25
 73
     0
 74
     0
 77
     1
 78
     8
140
2.5
141
2.5
143
0.0394
147
0.625
171
     4
172
     1
173
     1
176
     2
177
     2
178
     6
271
     1
273
     8
274
     4
340
3F
341
45
343
45
344
45
  0
ENDTAB
  0
TABLE
  2
BLOCK_RECORD
  5
1
330
0
100
AcDbSymbolTable
 70
     4
  0
BLOCK_RECORD
  5
18
330
1
100
AcDbSymbolTableRecord
100
AcDbBlockTableRecord
  2
*MODEL_SPACE
340
19B7
  0
BLOCK_RECORD
  5
15
330
1
100
AcDbSymbolTableRecord
100
AcDbBlockTableRecord
  2
*PAPER_SPACE
340
19B8
  0
BLOCK_RECORD
  5
45
330
1
100
AcDbSymbolTableRecord
100
AcDbBlockTableRecord
  2
_OPEN
340
0
102
{BLKREFS
331
17AC
331
17AD
331
17B4
331
17B5
331
17E8
331
17E9
331
1851
331
1852
331
1875
331
1876
331
187E
331
187F
331
1887
331
1888
331
1898
331
1899
331
18B8
331
18B9
331
18C2
331
18C3
331
18CB
331
18CC
331
18D3
331
18D4
331
18DB
331
18DC
331
1918
331
1919
331
1ADD
331
1ADE
102
}
  0
BLOCK_RECORD
  5
1A78
330
1
100
AcDbSymbolTableRecord
100
AcDbBlockTableRecord
  2
*D1
340
0
  0
ENDTAB
  0
ENDSEC
  0
SECTION
  2
BLOCKS
  0
BLOCK
  5
19
330
18
100
AcDbEntity
  8
0
100
AcDbBlockBegin
  2
*MODEL_SPACE
 70
     0
 10
0.0
 20
0.0
 30
0.0
  3
*MODEL_SPACE
  1

  0
ENDBLK
  5
1A
330
18
100
AcDbEntity
  8
0
100
AcDbBlockEnd
  0
BLOCK
  5
16
330
15
100
AcDbEntity
 67
     1
  8
0
100
AcDbBlockBegin
  2
*PAPER_SPACE
 70
     0
 10
0.0
 20
0.0
 30
0.0
  3
*PAPER_SPACE
  1

  0
ENDBLK
  5
17
330
15
100
AcDbEntity
 67
     1
  8
0
100
AcDbBlockEnd
  0
BLOCK
  5
46
330
45
100
AcDbEntity
  8
0
100
AcDbBlockBegin
  2
_OPEN
 70
     0
 10
0.0
 20
0.0
 30
0.0
  3
_OPEN
  1

  0
LINE
  5
47
330
45
100
AcDbEntity
  8
0
  6
ByBlock
 62
     0
100
AcDbLine
 10
-1.0
 20
0.1666666666666666
 30
0.0
 11
0.0
 21
0.0
 31
0.0
  0
LINE
  5
48
330
45
100
AcDbEntity
  8
0
  6
ByBlock
 62
     0
100
AcDbLine
 10
0.0
 20
0.0
 30
0.0
 11
-1.0
 21
-0.1666666666666666
 31
0.0
  0
LINE
  5
49
330
45
100
AcDbEntity
  8
0
  6
ByBlock
 62
     0
100
AcDbLine
 10
0.0
 20
0.0
 30
0.0
 11
-1.0
 21
0.0
 31
0.0
  0
ENDBLK
  5
4A
330
45
100
AcDbEntity
  8
0
100
AcDbBlockEnd
  0
BLOCK
  5
1A82
330
1A78
100
AcDbEntity
  8
0
100
AcDbBlockBegin
  2
*D1
 70
     1
 10
0.0
 20
0.0
 30
0.0
  3
*D1
  1

  0
LINE
  5
1ADA
330
1A78
100
AcDbEntity
  8
外形線
 62
     2
370
    -2
100
AcDbLine
 10
154.1226123311015
 20
52.25939034442039
 30
0.0
 11
144.7256005481256
 21
52.25939034442039
 31
0.0
  0
LINE
  5
1ADB
330
1A78
100
AcDbEntity
  8
外形線
 62
     2
370
    -2
100
AcDbLine
 10
156.4226123311015
 20
61.25939034442044
 30
0.0
 11
144.7256005481256
 21
61.25939034442044
 31
0.0
  0
LINE
  5
1ADC
330
1A78
100
AcDbEntity
  8
外形線
 62
     2
370
    -2
100
AcDbLine
 10
145.9756005481256
 20
54.75939034442039
 30
0.0
 11
145.9756005481256
 21
58.75939034442044
 31
0.0
  0
INSERT
  5
1ADD
330
1A78
100
AcDbEntity
  8
外形線
 62
     2
370
    -2
100
AcDbBlockReference
  2
_OPEN
 10
145.9756005481256
 20
52.25939034442039
 30
0.0
 41
2.5
 42
2.5
 43
2.5
 50
270.0
  0
INSERT
  5
1ADE
330
1A78
100
AcDbEntity
  8
外形線
 62
     2
370
    -2
100
AcDbBlockReference
  2
_OPEN
 10
145.9756005481256
 20
61.25939034442044
 30
0.0
 41
2.5
 42
2.5
 43
2.5
 50
90.0
  0
MTEXT
  5
1ADF
330
1A78
100
AcDbEntity
  8
外形線
 62
     6
100
AcDbMText
 10
144.1006005481256
 20
56.75939034442045
 30
0.0
 40
2.5
 41
0.0
 71
     5
 72
     1
  1
\A1;9
  7
STYLE3
 11
0.0000000000000001
 21
1.0
 31
0.0
 73
     1
 44
1.0
  0
POINT
  5
1AE0
330
1A78
100
AcDbEntity
  8
DEFPOINTS
 62
     0
100
AcDbPoint
 10
154.1226123311015
 20
52.25939034442039
 30
0.0
  0
POINT
  5
1AE1
330
1A78
100
AcDbEntity
  8
DEFPOINTS
 62
     0
100
AcDbPoint
 10
156.4226123311015
 20
61.25939034442044
 30
0.0
  0
POINT
  5
1AE2
330
1A78
100
AcDbEntity
  8
DEFPOINTS
 62
     0
100
AcDbPoint
 10
145.9756005481256
 20
61.25939034442044
 30
0.0
  0
ENDBLK
  5
1A83
330
1A78
100
AcDbEntity
  8
0
100
AcDbBlockEnd
  0
ENDSEC
  0
SECTION
  2
ENTITIES
  0
LWPOLYLINE
  5
26C
330
18
100
AcDbEntity
  8
C
100
AcDbPolyline
 90
        5
 70
     0
 43
0.4
 10
0.0
 20
195.0
 10
255.0
 20
195.0
 10
255.0
 20
0.0
 10
0.0
 20
0.0
 10
0.0
 20
195.0
  0
LINE
  5
2CE
330
18
100
AcDbEntity
  8
中心線
 48
0.5
100
AcDbLine
 10
128.983731278705
 20
115.9593903444204
 30
0.0
 11
190.7317244094152
 21
115.9593903444204
 31
0.0
  0
LINE
  5
2CF
330
18
100
AcDbEntity
  8
中心線
 48
0.5
100
AcDbLine
 10
159.1226123311015
 20
160.765379870386
 30
0.0
 11
159.1226123311015
 21
36.26235498394999
 31
0.0
  0
ARC
  5
2D3
330
18
100
AcDbEntity
  8
外形線
100
AcDbCircle
 10
191.1226123311015
 20
109.9593903444204
 30
0.0
 40
10.0
100
AcDbArc
 50
83.71952619315436
 51
120.0006402440774
  0
ARC
  5
2D8
330
18
100
AcDbEntity
  8
外形線
100
AcDbCircle
 10
187.6225445903192
 20
116.0215290602479
 30
0.0
 40
3.0
100
AcDbArc
 50
120.0006402440772
 51
136.7472281836805
  0
ARC
  5
2DB
330
18
100
AcDbEntity
  8
外形線
100
AcDbCircle
 10
193.6226123311015
 20
103.4593903444204
 30
0.0
 40
16.5
100
AcDbArc
 50
357.1822661628421
 51
94.88837729090812
  0
LINE
  5
2E3
330
18
100
AcDbEntity
  8
外形線
100
AcDbLine
 10
154.1226123311015
 20
76.9593903444204
 30
0.0
 11
177.3226123311015
 21
76.95939034442038
 31
0.0
  0
LINE
  5
2E6
330
18
100
AcDbEntity
  8
外形線
100
AcDbLine
 10
164.1226123311016
 20
90.03719907902
 30
0.0
 11
164.1226123311016
 21
78.95939034442038
 31
0.0
  0
LINE
  5
2E7
330
18
100
AcDbEntity
  8
外形線
100
AcDbLine
 10
154.1226123311015
 20
90.03719907902
 30
0.0
 11
154.1226123311015
 21
76.9593903444204
 31
0.0
  0
LINE
  5
2E8
330
18
100
AcDbEntity
  8
外形線
100
AcDbLine
 10
179.3226123311015
 20
74.95939034442038
 30
0.0
 11
179.3226123311015
 21
54.25939034442038
 31
0.0
  0
ARC
  5
2E9
330
18
100
AcDbEntity
  8
外形線
100
AcDbCircle
 10
177.3226123311015
 20
74.95939034442038
 30
0.0
 40
2.0
100
AcDbArc
 50
0.0
 51
90.0
  0
LINE
  5
2EA
330
18
100
AcDbEntity
  8
外形線
100
AcDbLine
 10
154.1226123311015
 20
52.25939034442039
 30
0.0
 11
177.3226123311015
 21
52.25939034442038
 31
0.0
  0
ARC
  5
2EB
330
18
100
AcDbEntity
  8
外形線
100
AcDbCircle
 10
177.3226123311015
 20
54.25939034442038
 30
0.0
 40
2.0
100
AcDbArc
 50
270.0
 51
0.0000000000000127
  0
LINE
  5
2EC
330
18
100
AcDbEntity
  8
外形線
100
AcDbLine
 10
154.1226123311015
 20
42.25939034442039
 30
0.0
 11
165.0089038321168
 21
42.25939034442038
 31
0.0
  0
LINE
  5
2ED
330
18
100
AcDbEntity
  8
外形線
100
AcDbLine
 10
164.1226123311015
 20
49.63011676223515
 30
0.0
 11
164.1226123311015
 21
42.8618556145858
 31
0.0
  0
LINE
  5
2EE
330
18
100
AcDbEntity
  8
外形線
100
AcDbLine
 10
154.1226123311015
 20
52.25939034442039
 30
0.0
 11
154.1226123311015
 21
42.25939034442039
 31
0.0
  0
LINE
  5
2F8
330
18
100
AcDbEntity
  8
外形線
100
AcDbLine
 10
162.4278528008798
 20
78.95939034442037
 30
0.0
 11
177.3226123311015
 21
78.95939034442038
 31
0.0
  0
LINE
  5
2F9
330
18
100
AcDbEntity
  8
外形線
100
AcDbLine
 10
181.3226123311015
 20
74.95939034442038
 30
0.0
 11
181.3226123311015
 21
54.25939034442038
 31
0.0
  0
ARC
  5
2FA
330
18
100
AcDbEntity
  8
外形線
100
AcDbCircle
 10
177.3226123311015
 20
74.95939034442038
 30
0.0
 40
4.0
100
AcDbArc
 50
0.0
 51
90.0
  0
ARC
  5
2FB
330
18
100
AcDbEntity
  8
外形線
100
AcDbCircle
 10
177.3226123311015
 20
54.25939034442038
 30
0.0
 40
4.0
100
AcDbArc
 50
270.0
 51
0.0000000000000127
  0
LINE
  5
2FC
330
18
100
AcDbEntity
  8
外形線
100
AcDbLine
 10
162.2303228946671
 20
50.25939034442038
 30
0.0
 11
177.3226123311015
 21
50.25939034442038
 31
0.0
  0
ARC
  5
300
330
18
100
AcDbEntity
  8
外形線
100
AcDbCircle
 10
176.3226123311016
 20
56.2593903444204
 30
0.0
 40
18.0
100
AcDbArc
 50
231.0575587310186
 51
308.5398743023956
  0
ARC
  5
301
330
18
100
AcDbEntity
  8
外形線
100
AcDbCircle
 10
138.6226123311015
 20
100.9593903444204
 30
0.0
 40
71.5
100
AcDbArc
 50
326.6196386340078
 51
1.353490620938833
  0
ARC
  5
306
330
18
100
AcDbEntity
  8
外形線
100
AcDbCircle
 10
176.3226123311015
 20
74.45939034442038
 30
0.0
 40
16.5
100
AcDbArc
 50
0.0
 51
87.3757854506773
  0
ARC
  5
307
330
18
100
AcDbEntity
  8
外形線
100
AcDbCircle
 10
177.2154231971249
 20
93.93894087202523
 30
0.0
 40
3.0
100
AcDbArc
 50
172.7854768140818
 51
267.3757854506774
  0
LINE
  5
308
330
18
100
AcDbEntity
  8
外形線
100
AcDbLine
 10
192.8226123311015
 20
74.45939034442038
 30
0.0
 11
192.8226123311015
 21
63.2710632390685
 31
0.0
  0
ARC
  5
309
330
18
100
AcDbEntity
  8
外形線
100
AcDbCircle
 10
195.8226123311015
 20
63.2710632390685
 30
0.0
 40
3.0
100
AcDbArc
 50
180.0
 51
326.6196386340078
  0
ARC
  5
30A
330
18
100
AcDbEntity
  8
外形線
100
AcDbCircle
 10
138.7733768364737
 20
100.9285857503711
 30
0.0
 40
76.35001291442993
100
AcDbArc
 50
309.6945077774725
 51
1.379273461646353
  0
ARC
  5
30B
330
18
100
AcDbEntity
  8
外形線
100
AcDbCircle
 10
193.6226123311015
 20
103.4593903444204
 30
0.0
 40
21.5
100
AcDbArc
 50
357.1822661628421
 51
109.2049454230978
  0
ARC
  5
30E
330
18
100
AcDbEntity
  8
外形線
100
AcDbCircle
 10
185.5633824518672
 20
126.5959158777336
 30
0.0
 40
3.0
100
AcDbArc
 50
245.2915051098868
 51
289.2049454230977
  0
LINE
  5
311
330
18
100
AcDbEntity
  8
外形線
100
AcDbLine
 10
69.28037224519266
 20
42.25939034442039
 30
0.0
 11
59.28037224519266
 21
42.25939034442039
 31
0.0
  0
LINE
  5
312
330
18
100
AcDbEntity
  8
外形線
100
AcDbLine
 10
69.28037224519266
 20
76.9593903444204
 30
0.0
 11
59.28037224519266
 21
76.95939034442041
 31
0.0
  0
LINE
  5
313
330
18
100
AcDbEntity
  8
中心線
 48
0.5
100
AcDbLine
 10
64.28037224519266
 20
160.765379870386
 30
0.0
 11
64.28037224519266
 21
34.79307912719736
 31
0.0
  0
LINE
  5
314
330
18
100
AcDbEntity
  8
中心線
 48
0.5
100
AcDbLine
 10
51.04990163948776
 20
115.9593903444204
 30
0.0
 11
83.75953735791439
 21
115.9593903444204
 31
0.0
  0
LINE
  5
315
330
18
100
AcDbEntity
  8
外形線
100
AcDbLine
 10
69.28037224519266
 20
91.45939034442042
 30
0.0
 11
69.28037224519266
 21
42.25939034442039
 31
0.0
  0
LINE
  5
316
330
18
100
AcDbEntity
  8
外形線
100
AcDbLine
 10
59.28037224519266
 20
90.95439084432042
 30
0.0
 11
59.28037224519266
 21
42.25939034442039
 31
0.0
  0
LINE
  5
317
330
18
100
AcDbEntity
  8
外形線
100
AcDbLine
 10
69.28037224519266
 20
52.25939034442041
 30
0.0
 11
59.28037224519266
 21
52.25939034442041
 31
0.0
  0
CIRCLE
  5
DEF
330
18
100
AcDbEntity
  8
外形線
100
AcDbCircle
 10
159.1226123311015
 20
115.9593903444204
 30
0.0
 40
15.5
  0
CIRCLE
  5
DF0
330
18
100
AcDbEntity
  8
外形線
100
AcDbCircle
 10
159.1226123311015
 20
115.9593903444204
 30
0.0
 40
23.0
  0
CIRCLE
  5
DF1
330
18
100
AcDbEntity
  8
外形線
100
AcDbCircle
 10
159.1226123311015
 20
115.9593903444204
 30
0.0
 40
26.4
  0
LINE
  5
DF2
330
18
100
AcDbEntity
  8
目盛
100
AcDbLine
 10
164.8424797358933
 20
138.2368030503788
 30
0.0
 11
164.4197069277131
 21
136.5902116764602
 31
0.0
  0
LINE
  5
DF3
330
18
100
AcDbEntity
  8
目盛
100
AcDbLine
 10
163.4323825665733
 20
138.5519971111802
 30
0.0
 11
163.1138343317776
 21
136.8821087849414
 31
0.0
  0
LINE
  5
DF4
330
18
100
AcDbEntity
  8
目盛
100
AcDbLine
 10
162.0052767030808
 20
138.7780284746534
 30
0.0
 11
161.7922102060214
 21
137.0914334824188
 31
0.0
  0
LINE
  5
DF5
330
18
100
AcDbEntity
  8
目盛
100
AcDbLine
 10
160.5667942802759
 20
138.9140050982706
 30
0.0
 11
160.4600503970761
 21
137.2173596599426
 31
0.0
  0
LINE
  5
DF6
330
18
100
AcDbEntity
  8
目盛
100
AcDbLine
 10
159.1226123311015
 20
138.9593903444204
 30
0.0
 11
159.1226123311015
 21
136.2593903444204
 31
0.0
  0
TEXT
  5
DF7
330
18
100
AcDbEntity
  8
文字
100
AcDbText
 10
157.9083018086526
 20
132.7003982080904
 30
0.0
 40
2.5
  1
0
  7
STYLE3
100
AcDbText
  0
TEXT
  5
DF8
330
18
100
AcDbEntity
  8
文字
100
AcDbText
 10
167.3225129563869
 20
128.7789034401546
 30
0.0
 40
2.5
  1
10
  7
STYLE3
100
AcDbText
  0
TEXT
  5
DF9
330
18
100
AcDbEntity
  8
文字
100
AcDbText
 10
174.2772167669625
 20
119.188557431382
 30
0.0
 40
2.5
  1
20
  7
STYLE3
100
AcDbText
  0
TEXT
  5
DFA
330
18
100
AcDbEntity
  8
文字
100
AcDbText
 10
173.5094847243217
 20
108.7105612733846
 30
0.0
 40
2.5
  1
30
  7
STYLE3
100
AcDbText
  0
TEXT
  5
DFB
330
18
100
AcDbEntity
  8
文字
100
AcDbText
 10
167.7119195859462
 20
100.0869612379441
 30
0.0
 40
2.5
  1
40
  7
STYLE3
100
AcDbText
  0
TEXT
  5
DFC
330
18
100
AcDbEntity
  8
文字
100
AcDbText
 10
156.8093648639527
 20
96.27650307106193
 30
0.0
 40
2.5
  1
50
  7
STYLE3
100
AcDbText
  0
TEXT
  5
DFD
330
18
100
AcDbEntity
  8
文字
100
AcDbText
 10
145.5642953218405
 20
100.1489958558097
 30
0.0
 40
2.5
  1
60
  7
STYLE3
100
AcDbText
  0
TEXT
  5
DFE
330
18
100
AcDbEntity
  8
文字
100
AcDbText
 10
139.8299582203816
 20
108.7342464585837
 30
0.0
 40
2.5
  1
70
  7
STYLE3
100
AcDbText
  0
TEXT
  5
DFF
330
18
100
AcDbEntity
  8
文字
100
AcDbText
 10
139.9356389893204
 20
120.468777583388
 30
0.0
 40
2.5
  1
80
  7
STYLE3
100
AcDbText
  0
TEXT
  5
E00
330
18
100
AcDbEntity
  8
文字
100
AcDbText
 10
146.130087667307
 20
129.3693653579772
 30
0.0
 40
2.5
  1
90
  7
STYLE3
100
AcDbText
  0
LINE
  5
E01
330
18
100
AcDbEntity
  8
中心線
 48
0.2
100
AcDbLine
 10
155.9226123311015
 20
113.7486263516282
 30
0.0
 11
155.9226123311015
 21
98.0590323295927
 31
0.0
  0
CIRCLE
  5
E02
330
18
100
AcDbEntity
  8
外形線
100
AcDbCircle
 10
155.9226123311015
 20
105.8854189329065
 30
0.0
 40
4.75
  0
LINE
  5
E03
330
18
100
AcDbEntity
  8
中心線
 48
0.2
100
AcDbLine
 10
148.9633371441717
 20
105.8854189329065
 30
0.0
 11
163.4913245921519
 21
105.8854189329065
 31
0.0
  0
LINE
  5
E04
330
18
100
AcDbEntity
  8
目盛
100
AcDbLine
 10
155.9226123311015
 20
110.6354189329064
 30
0.0
 11
155.9226123311015
 21
110.1354189329065
 31
0.0
  0
LINE
  5
E05
330
18
100
AcDbEntity
  8
目盛
100
AcDbLine
 10
153.1306323827122
 20
109.7282496561875
 30
0.0
 11
153.4245250088585
 21
109.323741159
 31
0.0
  0
LINE
  5
E06
330
18
100
AcDbEntity
  8
目盛
100
AcDbLine
 10
151.4050938786994
 20
107.3532496561874
 30
0.0
 11
151.8806221368471
 21
107.198741159
 31
0.0
  0
LINE
  5
E07
330
18
100
AcDbEntity
  8
目盛
100
AcDbLine
 10
151.4050938786994
 20
104.4175882096255
 30
0.0
 11
151.880622136847
 21
104.5720967068129
 31
0.0
  0
LINE
  5
E08
330
18
100
AcDbEntity
  8
目盛
100
AcDbLine
 10
153.1306323827122
 20
102.0425882096255
 30
0.0
 11
153.4245250088584
 21
102.4470967068129
 31
0.0
  0
LINE
  5
E09
330
18
100
AcDbEntity
  8
目盛
100
AcDbLine
 10
155.9226123311015
 20
101.1354189329064
 30
0.0
 11
155.9226123311015
 21
101.6354189329065
 31
0.0
  0
LINE
  5
E0A
330
18
100
AcDbEntity
  8
目盛
100
AcDbLine
 10
158.7145922794908
 20
102.0425882096255
 30
0.0
 11
158.4206996533445
 21
102.447096706813
 31
0.0
  0
LINE
  5
E0B
330
18
100
AcDbEntity
  8
目盛
100
AcDbLine
 10
160.4401307835034
 20
104.4175882096255
 30
0.0
 11
159.9646025253558
 21
104.5720967068129
 31
0.0
  0
LINE
  5
E0C
330
18
100
AcDbEntity
  8
目盛
100
AcDbLine
 10
160.4401307835034
 20
107.3532496561874
 30
0.0
 11
159.9646025253558
 21
107.1987411589999
 31
0.0
  0
LINE
  5
E0D
330
18
100
AcDbEntity
  8
目盛
100
AcDbLine
 10
158.7145922794907
 20
109.7282496561875
 30
0.0
 11
158.4206996533445
 21
109.323741159
 31
0.0
  0
TEXT
  5
E0E
330
18
100
AcDbEntity
  8
文字
100
AcDbText
 10
155.4362358919711
 20
108.9131928613813
 30
0.0
 40
1.0
  1
0
  7
STYLE3
100
AcDbText
  0
TEXT
  5
E0F
330
18
100
AcDbEntity
  8
文字
100
AcDbText
 10
157.5197356297329
 20
108.186862880923
 30
0.0
 40
1.0
  1
9
  7
STYLE3
100
AcDbText
  0
TEXT
  5
E10
330
18
100
AcDbEntity
  8
文字
100
AcDbText
 10
159.0171331475801
 20
106.4675551035242
 30
0.0
 40
1.0
  1
8
  7
STYLE3
100
AcDbText
  0
TEXT
  5
E11
330
18
100
AcDbEntity
  8
文字
100
AcDbText
 10
158.9569462156341
 20
104.1639277184496
 30
0.0
 40
1.0
  1
7
  7
STYLE3
100
AcDbText
  0
TEXT
  5
E12
330
18
100
AcDbEntity
  8
文字
100
AcDbText
 10
157.5170496939345
 20
102.5598079791604
 30
0.0
 40
1.0
  1
6
  7
STYLE3
100
AcDbText
  0
TEXT
  5
E13
330
18
100
AcDbEntity
  8
文字
100
AcDbText
 10
155.4046607082494
 20
101.9625262225374
 30
0.0
 40
1.0
  1
5
  7
STYLE3
100
AcDbText
  0
TEXT
  5
E14
330
18
100
AcDbEntity
  8
文字
100
AcDbText
 10
153.3011691388772
 20
102.4372642080689
 30
0.0
 40
1.0
  1
4
  7
STYLE3
100
AcDbText
  0
TEXT
  5
E15
330
18
100
AcDbEntity
  8
文字
100
AcDbText
 10
152.1065967662952
 20
104.1724590368961
 30
0.0
 40
1.0
  1
3
  7
STYLE3
100
AcDbText
  0
TEXT
  5
E16
330
18
100
AcDbEntity
  8
文字
100
AcDbText
 10
152.1358397703287
 20
106.4353007865354
 30
0.0
 40
1.0
  1
2
  7
STYLE3
100
AcDbText
  0
TEXT
  5
E17
330
18
100
AcDbEntity
  8
文字
100
AcDbText
 10
153.4961221172741
 20
108.2374687926968
 30
0.0
 40
1.0
  1
1
  7
STYLE3
100
AcDbText
  0
LINE
  5
E2C
330
18
100
AcDbEntity
  8
外形線
  6
Continuous
100
AcDbLine
 10
162.8226123311016
 20
157.9593903444203
 30
0.0
 11
162.8226123311016
 21
151.4593903444203
 31
0.0
  0
LINE
  5
E2D
330
18
100
AcDbEntity
  8
外形線
  6
Continuous
100
AcDbLine
 10
155.4226123311016
 20
157.9593903444203
 30
0.0
 11
155.4226123311016
 21
151.4593903444203
 31
0.0
  0
LINE
  5
E2E
330
18
100
AcDbEntity
  8
外形線
  6
Continuous
100
AcDbLine
 10
155.4226123311016
 20
157.9593903444203
 30
0.0
 11
162.8226123311016
 21
157.9593903444203
 31
0.0
  0
LINE
  5
E2F
330
18
100
AcDbEntity
  8
外形線
  6
Continuous
100
AcDbLine
 10
155.1226123311016
 20
151.4593903444203
 30
0.0
 11
163.1226123311015
 21
151.4593903444203
 31
0.0
  0
LINE
  5
E30
330
18
100
AcDbEntity
  8
外形線
  6
Continuous
100
AcDbLine
 10
155.1226123311015
 20
145.4593903444203
 30
0.0
 11
163.1226123311015
 21
145.4593903444203
 31
0.0
  0
LINE
  5
E31
330
18
100
AcDbEntity
  8
外形線
  6
Continuous
100
AcDbLine
 10
163.1226123311015
 20
151.4593903444203
 30
0.0
 11
163.1226123311015
 21
145.4593903444203
 31
0.0
  0
LINE
  5
E32
330
18
100
AcDbEntity
  8
外形線
  6
Continuous
100
AcDbLine
 10
155.1226123311016
 20
151.4593903444203
 30
0.0
 11
155.1226123311016
 21
145.4593903444203
 31
0.0
  0
LINE
  5
E33
330
18
100
AcDbEntity
  8
外形線
  6
Continuous
100
AcDbLine
 10
162.8226123311016
 20
145.4593903444203
 30
0.0
 11
162.8226123311016
 21
142.0988241561922
 31
0.0
  0
LINE
  5
E34
330
18
100
AcDbEntity
  8
外形線
  6
Continuous
100
AcDbLine
 10
155.4226123311016
 20
145.4593903444203
 30
0.0
 11
155.4226123311016
 21
142.0988241561922
 31
0.0
  0
ARC
  5
E35
330
18
100
AcDbEntity
  8
外形線
  6
Continuous
100
AcDbCircle
 10
159.1226123311015
 20
151.6143903444205
 30
0.0
 40
7.344999999999885
100
AcDbArc
 50
59.75198538337817
 51
120.2480146166212
  0
MTEXT
  5
E68
330
18
100
AcDbEntity
  8
DEFPOINTS
  6
Continuous
100
AcDbMText
 10
764.663097508542
 20
89.43881470936148
 30
0.0
 40
1.0
 41
0.0
 71
     4
 72
     1
  1
\A1;
 73
     1
 44
1.0
  0
POINT
  5
E9F
330
18
100
AcDbEntity
  8
DEFPOINTS
  6
ByBlock
 62
     0
100
AcDbPoint
 10
159.1226123311015
 20
158.9593903444204
 30
0.0
  0
POINT
  5
EA0
330
18
100
AcDbEntity
  8
DEFPOINTS
  6
ByBlock
 62
     0
100
AcDbPoint
 10
159.1226123311015
 20
115.9593903444204
 30
0.0
  0
POINT
  5
EA6
330
18
100
AcDbEntity
  8
DEFPOINTS
  6
ByBlock
 62
     0
100
AcDbPoint
 10
159.1226123311015
 20
115.9593903444204
 30
0.0
  0
MTEXT
  5
EC2
330
18
100
AcDbEntity
  8
文字
100
AcDbMText
 10
331.8023070665415
 20
115.5167969475956
 30
0.0
 40
1.0
 41
6.927999999999999
 71
     1
 72
     5
  1

  7
STYLE3
 73
     1
 44
1.0
  0
MTEXT
  5
F23
330
18
100
AcDbEntity
  8
DEFPOINTS
  6
Continuous
100
AcDbMText
 10
653.5381167216829
 20
38.76434823504644
 30
0.0
 40
0.35
 41
0.0
 71
     4
 72
     1
  1
\A1;
 73
     1
 44
1.0
  0
LINE
  5
F24
102
{ACAD_REACTORS
330
F62
102
}
330
18
100
AcDbEntity
  8
ROGO
 62
     4
100
AcDbLine
 10
152.4552362162597
 20
126.9791461171157
 30
0.0
 11
154.0677345292449
 21
126.9791461171157
 31
0.0
  0
LINE
  5
F25
102
{ACAD_REACTORS
330
F61
330
F62
102
}
330
18
100
AcDbEntity
  8
ROGO
 62
     4
100
AcDbLine
 10
151.439985676167
 20
124.9272673322097
 30
0.0
 11
165.3291629431908
 21
124.9272673322097
 31
0.0
  0
LINE
  5
F26
102
{ACAD_REACTORS
330
F62
102
}
330
18
100
AcDbEntity
  8
ROGO
 62
     4
100
AcDbLine
 10
152.4552362162597
 20
126.9791461171157
 30
0.0
 11
151.439985676167
 21
124.9272673322097
 31
0.0
  0
SPLINE
  5
F27
102
{ACAD_REACTORS
330
F62
102
}
330
18
100
AcDbEntity
  8
ROGO
 62
     4
100
AcDbSpline
210
0.0
220
0.0
230
1.0
 70
     8
 71
     3
 72
    18
 73
    14
 74
     0
 42
0.0000000001
 43
0.0000000001
 40
0.1087402787915014
 40
0.1087402787915014
 40
0.1087402787915014
 40
0.1087402787915014
 40
0.5992371417938475
 40
1.083176791562496
 40
1.448211145705696
 40
1.714037220764907
 40
2.164002567013297
 40
2.740236056362883
 40
3.395137510199602
 40
4.071816045172726
 40
4.784906178399433
 40
5.506895915094292
 40
6.060470601257719
 40
6.060470601257719
 40
6.060470601257719
 40
6.060470601257719
 10
154.0677345292449
 20
126.9791461171157
 30
0.0
 10
154.1193940668809
 20
126.960213762268
 30
0.0
 10
154.2209820147314
 20
126.9201878709527
 30
0.0
 10
154.3449672502786
 20
126.8288355611614
 30
0.0
 10
154.4125834442033
 20
126.7233767839886
 30
0.0
 10
154.4776226527464
 20
126.6194660416857
 30
0.0
 10
154.4867247712573
 20
126.4703885075293
 30
0.0
 10
154.4718148862102
 20
126.2819183719576
 30
0.0
 10
154.3755580153341
 20
126.0852692344369
 30
0.0
 10
154.2210600762527
 20
125.9132722036351
 30
0.0
 10
154.0292401031597
 20
125.7756080232933
 30
0.0
 10
153.8269593250524
 20
125.6675451867979
 30
0.0
 10
153.6823689679988
 20
125.6664684661894
 30
0.0
 10
153.6196190511041
 20
125.6660011865582
 30
0.0
  0
LINE
  5
F28
102
{ACAD_REACTORS
330
F62
102
}
330
18
100
AcDbEntity
  8
ROGO
 62
     4
100
AcDbLine
 10
153.6196190514132
 20
125.6660011865582
 30
0.0
 11
152.728010782932
 21
125.6660011865582
 31
0.0
  0
LINE
  5
F29
102
{ACAD_REACTORS
330
F62
102
}
330
18
100
AcDbEntity
  8
ROGO
 62
     4
100
AcDbLine
 10
153.0923730715995
 20
126.4713492059023
 30
0.0
 11
152.9343752752422
 21
126.122127521017
 31
0.0
  0
SPLINE
  5
F2A
102
{ACAD_REACTORS
330
F62
102
}
330
18
100
AcDbEntity
  8
ROGO
 62
     4
100
AcDbSpline
210
0.0
220
0.0
230
1.0
 70
     8
 71
     3
 72
    15
 73
    11
 74
     9
 42
0.0000000001
 43
0.0000000001
 44
0.0000000001
 40
0.0
 40
0.0
 40
0.0
 40
0.0
 40
0.1539705029175028
 40
0.2241725832587281
 40
0.3038566179396687
 40
0.3581410872474193
 40
0.443992538467216
 40
0.4954152125469665
 40
0.5836396705646186
 40
0.6130478420065743
 40
0.6130478420065743
 40
0.6130478420065743
 40
0.6130478420065743
 10
153.498360070697
 20
126.4713492059023
 30
0.0
 10
153.5561884057562
 20
126.4716140905448
 30
0.0
 10
153.6403832808143
 20
126.4719997480145
 30
0.0
 10
153.6864240371789
 20
126.367850444085
 30
0.0
 10
153.6657863749454
 20
126.3007945394476
 30
0.0
 10
153.6398431515213
 20
126.2319490251997
 30
0.0
 10
153.5939955999789
 20
126.1851674599304
 30
0.0
 10
153.5324614703838
 20
126.1401089262934
 30
0.0
 10
153.474308777328
 20
126.1346543890339
 30
0.0
 10
153.4364869783555
 20
126.1246328955797
 30
0.0
 10
153.4270315240862
 20
126.122127521017
 30
0.0
 11
153.498360070697
 21
126.4713492059023
 31
0.0
 11
153.6481501416258
 21
126.4357142452624
 31
0.0
 11
153.6766816423008
 21
126.371571548457
 31
0.0
 11
153.6624160970399
 21
126.2931748673956
 31
0.0
 11
153.6410175740721
 21
126.2432859224998
 31
0.0
 11
153.583954572722
 21
126.1791432256944
 31
0.0
 11
153.5411575267862
 21
126.1506352571825
 31
0.0
 11
153.4555630247612
 21
126.1292545131449
 31
0.0
 11
153.4270315240862
 21
126.122127521017
 31
0.0
  0
LINE
  5
F2B
102
{ACAD_REACTORS
330
F62
102
}
330
18
100
AcDbEntity
  8
ROGO
 62
     4
100
AcDbLine
 10
153.498360070697
 20
126.4713492059023
 30
0.0
 11
153.0923730715995
 21
126.4713492059023
 31
0.0
  0
LINE
  5
F2C
102
{ACAD_REACTORS
330
F62
102
}
330
18
100
AcDbEntity
  8
ROGO
 62
     4
100
AcDbLine
 10
153.4270315240862
 20
126.122127521017
 30
0.0
 11
152.9343752752422
 21
126.122127521017
 31
0.0
  0
LINE
  5
F2D
102
{ACAD_REACTORS
330
F62
102
}
330
18
100
AcDbEntity
  8
ROGO
 62
     4
100
AcDbLine
 10
152.728010782932
 20
125.6660011865582
 30
0.0
 11
152.3937866321035
 21
124.9272673322097
 31
0.0
  0
LINE
  5
F2E
102
{ACAD_REACTORS
330
F5D
102
}
330
18
100
AcDbEntity
  8
ROGO
 62
     4
100
AcDbLine
 10
155.0203585224504
 20
126.9791461171157
 30
0.0
 11
154.3706266231904
 21
125.6660011865582
 31
0.0
  0
LINE
  5
F2F
102
{ACAD_REACTORS
330
F5D
102
}
330
18
100
AcDbEntity
  8
ROGO
 62
     4
100
AcDbLine
 10
156.7964416709344
 20
126.9791461171157
 30
0.0
 11
156.6476074751998
 21
126.6783437864236
 31
0.0
  0
LINE
  5
F30
102
{ACAD_REACTORS
330
F5D
102
}
330
18
100
AcDbEntity
  8
ROGO
 62
     4
100
AcDbLine
 10
154.3706266231904
 20
125.6660011865582
 30
0.0
 11
156.1467097716743
 21
125.6660011865582
 31
0.0
  0
LINE
  5
F31
102
{ACAD_REACTORS
330
F5D
102
}
330
18
100
AcDbEntity
  8
ROGO
 62
     4
100
AcDbLine
 10
155.7141430529818
 20
126.6783437864236
 30
0.0
 11
155.5977732069054
 21
126.4431537432394
 31
0.0
  0
LINE
  5
F32
102
{ACAD_REACTORS
330
F5D
102
}
330
18
100
AcDbEntity
  8
ROGO
 62
     4
100
AcDbLine
 10
155.7141430529818
 20
126.6783437864236
 30
0.0
 11
156.6476074751998
 21
126.6783437864236
 31
0.0
  0
LINE
  5
F33
102
{ACAD_REACTORS
330
F5D
102
}
330
18
100
AcDbEntity
  8
ROGO
 62
     4
100
AcDbLine
 10
155.5977732069054
 20
126.4431537432394
 30
0.0
 11
156.5312376291233
 21
126.4431537432394
 31
0.0
  0
LINE
  5
F34
102
{ACAD_REACTORS
330
F5D
102
}
330
18
100
AcDbEntity
  8
ROGO
 62
     4
100
AcDbLine
 10
155.3620720586652
 20
125.9667883865583
 30
0.0
 11
156.2955364808831
 21
125.9667883865583
 31
0.0
  0
LINE
  5
F35
102
{ACAD_REACTORS
330
F5D
102
}
330
18
100
AcDbEntity
  8
ROGO
 62
     4
100
AcDbLine
 10
155.4784468312815
 20
126.2019883865582
 30
0.0
 11
156.4119112534994
 21
126.2019883865582
 31
0.0
  0
LINE
  5
F36
102
{ACAD_REACTORS
330
F5D
102
}
330
18
100
AcDbEntity
  8
ROGO
 62
     4
100
AcDbLine
 10
156.5312376291233
 20
126.4431537432394
 30
0.0
 11
156.4119112534994
 21
126.2019883865582
 31
0.0
  0
LINE
  5
F37
102
{ACAD_REACTORS
330
F5D
102
}
330
18
100
AcDbEntity
  8
ROGO
 62
     4
100
AcDbLine
 10
156.2955364808831
 20
125.9667883865583
 30
0.0
 11
156.1467097716743
 21
125.6660011865582
 31
0.0
  0
LINE
  5
F38
102
{ACAD_REACTORS
330
F5D
102
}
330
18
100
AcDbEntity
  8
ROGO
 62
     4
100
AcDbLine
 10
155.4784468312815
 20
126.2019883865582
 30
0.0
 11
155.3620720586651
 21
125.9667883865583
 31
0.0
  0
LINE
  5
F39
102
{ACAD_REACTORS
330
F66
102
}
330
18
100
AcDbEntity
  8
ROGO
 62
     4
100
AcDbLine
 10
157.310935936132
 20
126.9791461171157
 30
0.0
 11
156.3640016060329
 21
125.6660011865582
 31
0.0
  0
LINE
  5
F3A
102
{ACAD_REACTORS
330
F66
102
}
330
18
100
AcDbEntity
  8
ROGO
 62
     4
100
AcDbLine
 10
157.7850637927637
 20
126.6281371401639
 30
0.0
 11
157.4616970564505
 21
126.179713868345
 31
0.0
  0
LINE
  5
F3B
102
{ACAD_REACTORS
330
F66
102
}
330
18
100
AcDbEntity
  8
ROGO
 62
     4
100
AcDbLine
 10
157.2715392953054
 20
125.916015856649
 30
0.0
 11
158.1014162840898
 21
125.916015856649
 31
0.0
  0
LINE
  5
F3C
102
{ACAD_REACTORS
330
F66
102
}
330
18
100
AcDbEntity
  8
ROGO
 62
     4
100
AcDbLine
 10
157.4616970564505
 20
126.1797138683451
 30
0.0
 11
157.9842711784892
 21
126.1797138683451
 31
0.0
  0
LINE
  5
F3D
102
{ACAD_REACTORS
330
F66
102
}
330
18
100
AcDbEntity
  8
ROGO
 62
     4
100
AcDbLine
 10
157.2715392953054
 20
125.916015856649
 30
0.0
 11
157.0912488577245
 21
125.6660011865583
 31
0.0
  0
LINE
  5
F3E
102
{ACAD_REACTORS
330
F66
102
}
330
18
100
AcDbEntity
  8
ROGO
 62
     4
100
AcDbLine
 10
156.3640016060329
 20
125.6660011865582
 30
0.0
 11
157.0912488577245
 21
125.6660011865582
 31
0.0
  0
LINE
  5
F3F
102
{ACAD_REACTORS
330
F66
102
}
330
18
100
AcDbEntity
  8
ROGO
 62
     4
100
AcDbLine
 10
157.310935936132
 20
126.9791461171157
 30
0.0
 11
158.3613394189035
 21
126.9791461171157
 31
0.0
  0
LINE
  5
F40
102
{ACAD_REACTORS
330
F66
102
}
330
18
100
AcDbEntity
  8
ROGO
 62
     4
100
AcDbLine
 10
158.9446904292868
 20
125.6660011865583
 30
0.0
 11
158.2124827071587
 21
125.6660011865582
 31
0.0
  0
LINE
  5
F41
102
{ACAD_REACTORS
330
F5E
102
}
330
18
100
AcDbEntity
  8
ROGO
 62
     4
100
AcDbLine
 10
159.3043098442926
 20
125.6660011865582
 30
0.0
 11
160.4353388592972
 21
125.6660011865582
 31
0.0
  0
LINE
  5
F42
102
{ACAD_REACTORS
330
F5E
102
}
330
18
100
AcDbEntity
  8
ROGO
 62
     4
100
AcDbLine
 10
161.0901153323065
 20
126.9791461171157
 30
0.0
 11
160.8464960317658
 21
126.4905710648988
 31
0.0
  0
LINE
  5
F43
102
{ACAD_REACTORS
330
F5E
102
}
330
18
100
AcDbEntity
  8
ROGO
 62
     4
100
AcDbLine
 10
160.0247291084147
 20
126.4905710648988
 30
0.0
 11
160.8464960317658
 21
126.4905710648988
 31
0.0
  0
LINE
  5
F44
102
{ACAD_REACTORS
330
F5E
102
}
330
18
100
AcDbEntity
  8
ROGO
 62
     4
100
AcDbLine
 10
159.8392745591039
 20
126.1545710648988
 30
0.0
 11
160.678955579976
 21
126.1545710648988
 31
0.0
  0
SPLINE
  5
F45
102
{ACAD_REACTORS
330
F5E
102
}
330
18
100
AcDbEntity
  8
ROGO
 62
     4
100
AcDbSpline
210
0.0
220
0.0
230
1.0
 70
     8
 71
     3
 72
    26
 73
    22
 74
    20
 42
0.0000000001
 43
0.0000000001
 44
0.0000000001
 40
0.0
 40
0.0
 40
0.0
 40
0.0
 40
0.2382195346591896
 40
0.397689067266058
 40
0.5126795869787669
 40
0.5985392873135731
 40
0.7099038249249733
 40
0.7911890807494741
 40
0.9379713068543702
 40
1.057449928673087
 40
1.138714535893316
 40
1.218398644003506
 40
1.36093802187036
 40
1.461730374800257
 40
1.516014844108008
 40
1.593124329220501
 40
1.648806818593631
 40
1.729472362005518
 40
1.775122082164342
 40
1.874460993765092
 40
1.919820003751207
 40
1.919820003751207
 40
1.919820003751207
 40
1.919820003751207
 10
159.7750789902002
 20
126.9791461171157
 30
0.0
 10
159.6942235994415
 20
126.9743221458506
 30
0.0
 10
159.5592417853756
 20
126.9662688993539
 30
0.0
 10
159.4110325746638
 20
126.8762333954955
 30
0.0
 10
159.3024458302536
 20
126.8238907101531
 30
0.0
 10
159.2250018958294
 20
126.7527352887334
 30
0.0
 10
159.1682351779619
 20
126.6792369362121
 30
0.0
 10
159.0966700732643
 20
126.5916641880868
 30
0.0
 10
159.0383107753585
 20
126.4896892666223
 30
0.0
 10
159.0085919328252
 20
126.3772951255589
 30
0.0
 10
158.9822672641715
 20
126.287716343
 30
0.0
 10
158.9627444491986
 20
126.1878924801075
 30
0.0
 10
158.9677116060115
 20
126.0800475919852
 30
0.0
 10
158.974824801896
 20
125.9798867809815
 30
0.0
 10
159.0065834918199
 20
125.9083869580548
 30
0.0
 10
159.04275101421
 20
125.8574840111254
 30
0.0
 10
159.0870376500649
 20
125.8014200584268
 30
0.0
 10
159.1354969143823
 20
125.7642890840965
 30
0.0
 10
159.1755766814929
 20
125.6970238289558
 30
0.0
 10
159.2457349617554
 20
125.6884402972797
 30
0.0
 10
159.2903303558312
 20
125.6713565074027
 30
0.0
 10
159.3043098442926
 20
125.6660011865582
 30
0.0
 11
159.7750789902002
 21
126.9791461171157
 31
0.0
 11
159.5396944172463
 21
126.942503935022
 31
0.0
 11
159.3970369138713
 21
126.8712342460886
 31
0.0
 11
159.2971768665855
 21
126.8142185414111
 31
0.0
 11
159.2329812976817
 21
126.7572026043873
 31
0.0
 11
159.161652751071
 21
126.6716789311979
 31
0.0
 11
159.111722727428
 21
126.6075362343926
 31
0.0
 11
159.0403937706638
 21
126.4792506084353
 31
0.0
 11
159.0047297024351
 21
126.3652189667341
 31
0.0
 11
158.9833311794672
 21
126.2868222856726
 31
0.0
 11
158.969065224053
 21
126.2084256046113
 31
0.0
 11
158.969065224053
 21
126.0658862267444
 31
0.0
 11
158.9833311794672
 21
125.9661085692992
 31
0.0
 11
159.0047297024351
 21
125.9162196244034
 31
0.0
 11
159.0475267483709
 21
125.8520769275978
 31
0.0
 11
159.083191226753
 21
125.80931497483
 31
0.0
 11
159.1402538179496
 21
125.7522992701525
 31
0.0
 11
159.1687853186247
 21
125.7166643095127
 31
0.0
 11
159.2615127983568
 21
125.6810295812191
 31
0.0
 11
159.3043098442926
 21
125.6660011865582
 31
0.0
  0
SPLINE
  5
F46
102
{ACAD_REACTORS
330
F5E
102
}
330
18
100
AcDbEntity
  8
ROGO
 62
     4
100
AcDbSpline
210
0.0
220
0.0
230
1.0
 70
     8
 71
     3
 72
    16
 73
    12
 74
    10
 42
0.0000000001
 43
0.0000000001
 44
0.0000000001
 40
0.0
 40
0.0
 40
0.0
 40
0.0
 40
0.1255907025629711
 40
0.1869327038470372
 40
0.2171823804790188
 40
0.2490606136884497
 40
0.2947101524738226
 40
0.3362763310931653
 40
0.3796288870083566
 40
0.452312579561098
 40
0.5242542460842631
 40
0.5242542460842631
 40
0.5242542460842631
 40
0.5242542460842631
 10
160.0247291084147
 20
126.4905710648988
 30
0.0
 10
159.9821984007933
 20
126.4840869715949
 30
0.0
 10
159.918894509582
 20
126.4744358663094
 30
0.0
 10
159.8616487581908
 20
126.4291207593336
 30
0.0
 10
159.8293661290668
 20
126.4021612870171
 30
0.0
 10
159.8183834348151
 20
126.3664592928349
 30
0.0
 10
159.7888873669545
 20
126.3390456417993
 30
0.0
 10
159.7645742170772
 20
126.3013704610832
 30
0.0
 10
159.7587687880155
 20
126.2496229901241
 30
0.0
 10
159.7630301058632
 20
126.1770033009867
 30
0.0
 10
159.8139468204322
 20
126.1620228569874
 30
0.0
 10
159.8392745591039
 20
126.1545710648988
 30
0.0
 11
160.0247291084147
 21
126.4905710648988
 31
0.0
 11
159.903470538161
 21
126.4578696320514
 31
0.0
 11
159.8535405145181
 21
126.4222349037579
 31
0.0
 11
159.8321419915502
 21
126.4008539273739
 31
0.0
 11
159.817876036136
 21
126.372345958862
 31
0.0
 11
159.789344535461
 21
126.3367112305685
 31
0.0
 11
159.767946012493
 21
126.3010762699287
 31
0.0
 11
159.7608130347859
 21
126.2583145495071
 31
0.0
 11
159.7750789902002
 21
126.1870446282274
 31
0.0
 11
159.8392745591039
 21
126.1545710648988
 31
0.0
  0
LINE
  5
F47
102
{ACAD_REACTORS
330
F5E
102
}
330
18
100
AcDbEntity
  8
ROGO
 62
     4
100
AcDbLine
 10
160.678955579976
 20
126.1545710648988
 30
0.0
 11
160.4353388592972
 21
125.6660011865582
 31
0.0
  0
LINE
  5
F48
102
{ACAD_REACTORS
330
F5E
102
}
330
18
100
AcDbEntity
  8
ROGO
 62
     4
100
AcDbLine
 10
159.7750789902006
 20
126.9791461171157
 30
0.0
 11
161.0901153323065
 21
126.9791461171157
 31
0.0
  0
LINE
  5
F49
102
{ACAD_REACTORS
330
F5F
102
}
330
18
100
AcDbEntity
  8
ROGO
 62
     4
100
AcDbLine
 10
163.5353796152204
 20
125.6660011865582
 30
0.0
 11
164.6664086302251
 21
125.6660011865582
 31
0.0
  0
LINE
  5
F4A
102
{ACAD_REACTORS
330
F5F
102
}
330
18
100
AcDbEntity
  8
ROGO
 62
     4
100
AcDbLine
 10
164.0061487611284
 20
126.9791461171157
 30
0.0
 11
165.3211851032343
 21
126.9791461171157
 31
0.0
  0
SPLINE
  5
F4B
102
{ACAD_REACTORS
330
F5F
102
}
330
18
100
AcDbEntity
  8
ROGO
 62
     4
100
AcDbSpline
210
0.0
220
0.0
230
1.0
 70
     8
 71
     3
 72
    16
 73
    12
 74
    10
 42
0.0000000001
 43
0.0000000001
 44
0.0000000001
 40
0.0
 40
0.0
 40
0.0
 40
0.0
 40
0.1255907025629163
 40
0.1869327038470616
 40
0.217182380479003
 40
0.2490606136884339
 40
0.2947101524738157
 40
0.3362763310931585
 40
0.3796288870082937
 40
0.4523125795610796
 40
0.5242542460842448
 40
0.5242542460842448
 40
0.5242542460842448
 40
0.5242542460842448
 10
164.2557988793426
 20
126.4905710648988
 30
0.0
 10
164.2132681717212
 20
126.4840869715948
 30
0.0
 10
164.1499642805098
 20
126.4744358663093
 30
0.0
 10
164.0927185291187
 20
126.4291207593336
 30
0.0
 10
164.0604358999946
 20
126.4021612870171
 30
0.0
 10
164.0494532057429
 20
126.366459292835
 30
0.0
 10
164.0199571378824
 20
126.3390456417992
 30
0.0
 10
163.9956439880052
 20
126.3013704610831
 30
0.0
 10
163.9898385589434
 20
126.249622990124
 30
0.0
 10
163.994099876791
 20
126.1770033009867
 30
0.0
 10
164.04501659136
 20
126.1620228569873
 30
0.0
 10
164.0703443300318
 20
126.1545710648988
 30
0.0
 11
164.2557988793426
 21
126.4905710648988
 31
0.0
 11
164.1345403090889
 21
126.4578696320514
 31
0.0
 11
164.0846102854459
 21
126.4222349037578
 31
0.0
 11
164.0632117624781
 21
126.4008539273739
 31
0.0
 11
164.0489458070638
 21
126.372345958862
 31
0.0
 11
164.0204143063889
 21
126.3367112305685
 31
0.0
 11
163.9990157834209
 21
126.3010762699286
 31
0.0
 11
163.9918828057138
 21
126.2583145495071
 31
0.0
 11
164.006148761128
 21
126.1870446282273
 31
0.0
 11
164.0703443300318
 21
126.1545710648988
 31
0.0
  0
SPLINE
  5
F4C
102
{ACAD_REACTORS
330
F5F
102
}
330
18
100
AcDbEntity
  8
ROGO
 62
     4
100
AcDbSpline
210
0.0
220
0.0
230
1.0
 70
     8
 71
     3
 72
    26
 73
    22
 74
    20
 42
0.0000000001
 43
0.0000000001
 44
0.0000000001
 40
0.0
 40
0.0
 40
0.0
 40
0.0
 40
0.2382195346591896
 40
0.397689067266058
 40
0.5126795869787176
 40
0.5985392873135238
 40
0.7099038249250041
 40
0.7911890807494602
 40
0.9379713068544059
 40
1.057449928673177
 40
1.138714535893296
 40
1.218398644003487
 40
1.36093802187034
 40
1.461730374800238
 40
1.51601484410804
 40
1.593124329220486
 40
1.648806818593696
 40
1.729472362005543
 40
1.775122082164332
 40
1.874460993765135
 40
1.919820003751196
 40
1.919820003751196
 40
1.919820003751196
 40
1.919820003751196
 10
164.006148761128
 20
126.9791461171157
 30
0.0
 10
163.9252933703694
 20
126.9743221458506
 30
0.0
 10
163.7903115563034
 20
126.9662688993539
 30
0.0
 10
163.6421023455917
 20
126.8762333954955
 30
0.0
 10
163.5335156011814
 20
126.823890710153
 30
0.0
 10
163.4560716667572
 20
126.7527352887335
 30
0.0
 10
163.3993049488898
 20
126.6792369362121
 30
0.0
 10
163.3277398441921
 20
126.5916641880868
 30
0.0
 10
163.2693805462863
 20
126.4896892666222
 30
0.0
 10
163.2396617037531
 20
126.3772951255588
 30
0.0
 10
163.2133370350994
 20
126.287716343
 30
0.0
 10
163.1938142201263
 20
126.1878924801075
 30
0.0
 10
163.1987813769393
 20
126.0800475919853
 30
0.0
 10
163.2058945728238
 20
125.9798867809814
 30
0.0
 10
163.2376532627478
 20
125.9083869580548
 30
0.0
 10
163.2738207851379
 20
125.8574840111254
 30
0.0
 10
163.3181074209927
 20
125.8014200584267
 30
0.0
 10
163.3665666853102
 20
125.7642890840964
 30
0.0
 10
163.4066464524208
 20
125.6970238289559
 30
0.0
 10
163.4768047326833
 20
125.6884402972797
 30
0.0
 10
163.521400126759
 20
125.6713565074027
 30
0.0
 10
163.5353796152205
 20
125.6660011865582
 30
0.0
 11
164.006148761128
 21
126.9791461171157
 31
0.0
 11
163.7707641881742
 21
126.942503935022
 31
0.0
 11
163.6281066847992
 21
126.8712342460886
 31
0.0
 11
163.5282466375134
 21
126.8142185414111
 31
0.0
 11
163.4640510686096
 21
126.7572026043873
 31
0.0
 11
163.3927225219988
 21
126.6716789311979
 31
0.0
 11
163.3427924983559
 21
126.6075362343926
 31
0.0
 11
163.2714635415917
 21
126.4792506084353
 31
0.0
 11
163.2357994733629
 21
126.365218966734
 31
0.0
 11
163.2144009503951
 21
126.2868222856726
 31
0.0
 11
163.2001349949808
 21
126.2084256046113
 31
0.0
 11
163.2001349949808
 21
126.0658862267444
 31
0.0
 11
163.2144009503951
 21
125.9661085692992
 31
0.0
 11
163.2357994733629
 21
125.9162196244033
 31
0.0
 11
163.2785965192987
 21
125.8520769275978
 31
0.0
 11
163.3142609976809
 21
125.80931497483
 31
0.0
 11
163.3713235888775
 21
125.7522992701525
 31
0.0
 11
163.3998550895525
 21
125.7166643095127
 31
0.0
 11
163.4925825692847
 21
125.6810295812191
 31
0.0
 11
163.5353796152205
 21
125.6660011865582
 31
0.0
  0
LINE
  5
F4D
102
{ACAD_REACTORS
330
F5F
102
}
330
18
100
AcDbEntity
  8
ROGO
 62
     4
100
AcDbLine
 10
164.9100253509039
 20
126.1545710648988
 30
0.0
 11
164.6664086302251
 21
125.6660011865582
 31
0.0
  0
LINE
  5
F4E
102
{ACAD_REACTORS
330
F5F
102
}
330
18
100
AcDbEntity
  8
ROGO
 62
     4
100
AcDbLine
 10
164.0703443300318
 20
126.1545710648988
 30
0.0
 11
164.9100253509039
 21
126.1545710648988
 31
0.0
  0
LINE
  5
F4F
102
{ACAD_REACTORS
330
F5F
102
}
330
18
100
AcDbEntity
  8
ROGO
 62
     4
100
AcDbLine
 10
164.2557988793425
 20
126.4905710648988
 30
0.0
 11
165.0775658026937
 21
126.4905710648988
 31
0.0
  0
LINE
  5
F50
102
{ACAD_REACTORS
330
F5F
102
}
330
18
100
AcDbEntity
  8
ROGO
 62
     4
100
AcDbLine
 10
165.3211851032343
 20
126.9791461171157
 30
0.0
 11
165.0775658026937
 21
126.4905710648988
 31
0.0
  0
LINE
  5
F51
102
{ACAD_REACTORS
330
F61
102
}
330
18
100
AcDbEntity
  8
ROGO
 62
     4
100
AcDbLine
 10
165.5962122323565
 20
126.9791461171157
 30
0.0
 11
166.3522959748607
 21
126.9791461171157
 31
0.0
  0
LINE
  5
F52
102
{ACAD_REACTORS
330
F61
102
}
330
18
100
AcDbEntity
  8
ROGO
 62
     4
100
AcDbLine
 10
165.5962122323565
 20
126.9791461171157
 30
0.0
 11
164.5730792006866
 21
124.9272673322097
 31
0.0
  0
LINE
  5
F53
102
{ACAD_REACTORS
330
F61
102
}
330
18
100
AcDbEntity
  8
ROGO
 62
     4
100
AcDbLine
 10
166.3522959748607
 20
126.9791461171157
 30
0.0
 11
166.2405906679397
 21
126.7551227082941
 31
0.0
  0
LINE
  5
F54
102
{ACAD_REACTORS
330
F61
102
}
330
18
100
AcDbEntity
  8
ROGO
 62
     4
100
AcDbLine
 10
166.2405906679397
 20
126.7551227082941
 30
0.0
 11
166.5946037510185
 21
126.9791461171157
 31
0.0
  0
LINE
  5
F55
102
{ACAD_REACTORS
330
F61
102
}
330
18
100
AcDbEntity
  8
ROGO
 62
     4
100
AcDbLine
 10
165.5962122323565
 20
125.4628308943293
 30
0.0
 11
165.8632615215222
 21
124.9272673322097
 31
0.0
  0
LINE
  5
F56
102
{ACAD_REACTORS
330
F61
102
}
330
18
100
AcDbEntity
  8
ROGO
 62
     4
100
AcDbLine
 10
166.1077622056872
 20
125.9532067246627
 30
0.0
 11
166.6193287215221
 21
124.9272673322097
 31
0.0
  0
LINE
  5
F57
102
{ACAD_REACTORS
330
F61
102
}
330
18
100
AcDbEntity
  8
ROGO
 62
     4
100
AcDbLine
 10
165.5962122323565
 20
125.4628308943293
 30
0.0
 11
165.3291629431908
 21
124.9272673322097
 31
0.0
  0
LINE
  5
F58
102
{ACAD_REACTORS
330
F61
102
}
330
18
100
AcDbEntity
  8
ROGO
 62
     4
100
AcDbLine
 10
166.1077622056872
 20
125.9532067246627
 30
0.0
 11
167.3506709510185
 21
126.9791461171157
 31
0.0
  0
LINE
  5
F59
102
{ACAD_REACTORS
330
F61
102
}
330
18
100
AcDbEntity
  8
ROGO
 62
     4
100
AcDbLine
 10
166.5946037510185
 20
126.9791461171157
 30
0.0
 11
167.3506709510185
 21
126.9791461171157
 31
0.0
  0
LINE
  5
F5A
102
{ACAD_REACTORS
330
F61
102
}
330
18
100
AcDbEntity
  8
ROGO
 62
     4
100
AcDbLine
 10
165.8632615215222
 20
124.9272673322097
 30
0.0
 11
166.6193287215221
 21
124.9272673322097
 31
0.0
  0
LINE
  5
F5B
102
{ACAD_REACTORS
330
F5D
102
}
330
18
100
AcDbEntity
  8
ROGO
 62
     4
100
AcDbLine
 10
155.0203585224504
 20
126.9791461171157
 30
0.0
 11
156.7964416709344
 21
126.9791461171157
 31
0.0
  0
LINE
  5
F5C
330
18
100
AcDbEntity
  8
ROGO
 62
     4
100
AcDbLine
 10
152.4725742206088
 20
125.132937538501
 30
0.0
 11
164.6756330080728
 21
125.132937538501
 31
0.0
  0
HATCH
  5
F5D
330
18
100
AcDbEntity
  8
ROGO
 62
     4
100
AcDbHatch
 10
0.0
 20
0.0
 30
0.0
210
0.0
220
0.0
230
1.0
  2
SOLID
 70
     1
 71
     1
 91
        1
 92
        1
 93
       12
 72
     1
 10
155.0203585224504
 20
126.9791461171157
 11
156.7964416709344
 21
126.9791461171157
 72
     1
 10
156.7964416709344
 20
126.9791461171157
 11
156.6476074751998
 21
126.6783437864236
 72
     1
 10
156.6476074751998
 20
126.6783437864236
 11
155.7141430529818
 21
126.6783437864236
 72
     1
 10
155.7141430529818
 20
126.6783437864236
 11
155.5977732069054
 21
126.4431537432394
 72
     1
 10
155.5977732069054
 20
126.4431537432394
 11
156.5312376291233
 21
126.4431537432394
 72
     1
 10
156.5312376291233
 20
126.4431537432394
 11
156.4119112534994
 21
126.2019883865582
 72
     1
 10
156.4119112534994
 20
126.2019883865582
 11
155.4784468312815
 21
126.2019883865582
 72
     1
 10
155.4784468312815
 20
126.2019883865582
 11
155.3620720586651
 21
125.9667883865583
 72
     1
 10
155.3620720586652
 20
125.9667883865583
 11
156.2955364808831
 21
125.9667883865583
 72
     1
 10
156.2955364808831
 20
125.9667883865583
 11
156.1467097716743
 21
125.6660011865582
 72
     1
 10
156.1467097716743
 20
125.6660011865582
 11
154.3706266231904
 21
125.6660011865582
 72
     1
 10
154.3706266231904
 20
125.6660011865582
 11
155.0203585224504
 21
126.9791461171157
 97
       12
330
F5B
330
F2F
330
F32
330
F31
330
F33
330
F36
330
F35
330
F38
330
F34
330
F37
330
F30
330
F2E
 75
     0
 76
     1
 98
        1
 10
82.37022954374152
 20
36.18105006900441
450
        0
451
        0
460
0.0
461
0.0
452
        0
462
0.0
453
        0
470

  0
HATCH
  5
F5E
330
18
100
AcDbEntity
  8
ROGO
 62
     4
100
AcDbHatch
 10
0.0
 20
0.0
 30
0.0
210
0.0
220
0.0
230
1.0
  2
SOLID
 70
     1
 71
     1
 91
        1
 92
        5
 93
        8
 72
     1
 10
160.8464960317658
 20
126.4905710648988
 11
161.0901153323065
 21
126.9791461171157
 72
     1
 10
161.0901153323065
 20
126.9791461171157
 11
159.7750789902004
 21
126.9791461171158
 72
     4
 94
        3
 73
     0
 74
     0
 95
       26
 96
       22
 40
0.0
 40
0.0
 40
0.0
 40
0.0
 40
0.2382195346591896
 40
0.397689067266058
 40
0.5126795869787669
 40
0.5985392873135731
 40
0.7099038249249733
 40
0.7911890807494741
 40
0.9379713068543702
 40
1.057449928673087
 40
1.138714535893316
 40
1.218398644003506
 40
1.36093802187036
 40
1.461730374800257
 40
1.516014844108008
 40
1.593124329220501
 40
1.648806818593631
 40
1.729472362005518
 40
1.775122082164342
 40
1.874460993765092
 40
1.919820003751207
 40
1.919820003751207
 40
1.919820003751207
 40
1.919820003751207
 10
159.7750789902002
 20
126.9791461171157
 10
159.6942235994415
 20
126.9743221458506
 10
159.5592417853756
 20
126.9662688993539
 10
159.4110325746638
 20
126.8762333954955
 10
159.3024458302536
 20
126.8238907101531
 10
159.2250018958294
 20
126.7527352887334
 10
159.1682351779619
 20
126.6792369362121
 10
159.0966700732643
 20
126.5916641880868
 10
159.0383107753585
 20
126.4896892666223
 10
159.0085919328252
 20
126.3772951255589
 10
158.9822672641715
 20
126.287716343
 10
158.9627444491986
 20
126.1878924801075
 10
158.9677116060115
 20
126.0800475919852
 10
158.974824801896
 20
125.9798867809815
 10
159.0065834918199
 20
125.9083869580548
 10
159.04275101421
 20
125.8574840111254
 10
159.0870376500649
 20
125.8014200584268
 10
159.1354969143823
 20
125.7642890840965
 10
159.1755766814929
 20
125.6970238289558
 10
159.2457349617554
 20
125.6884402972797
 10
159.2903303558312
 20
125.6713565074027
 10
159.3043098442926
 20
125.6660011865582
 72
     1
 10
159.3043098442927
 20
125.6660011865582
 11
160.4353388592972
 21
125.6660011865582
 72
     1
 10
160.4353388592972
 20
125.6660011865582
 11
160.678955579976
 21
126.1545710648988
 72
     1
 10
160.678955579976
 20
126.1545710648988
 11
159.8392745591039
 21
126.1545710648988
 72
     4
 94
        3
 73
     0
 74
     0
 95
       16
 96
       12
 40
0.0
 40
0.0
 40
0.0
 40
0.0
 40
0.0719416665231651
 40
0.1446253590759065
 40
0.1879779149910977
 40
0.2295440936104405
 40
0.2751936323958134
 40
0.3070718656052443
 40
0.3373215422372259
 40
0.3986635435212919
 40
0.5242542460842631
 40
0.5242542460842631
 40
0.5242542460842631
 40
0.5242542460842631
 10
159.8392745591039
 20
126.1545710648988
 10
159.8139468204322
 20
126.1620228569874
 10
159.7630301058632
 20
126.1770033009867
 10
159.7587687880155
 20
126.2496229901241
 10
159.7645742170772
 20
126.3013704610832
 10
159.7888873669545
 20
126.3390456417993
 10
159.8183834348151
 20
126.3664592928349
 10
159.8293661290668
 20
126.4021612870171
 10
159.8616487581908
 20
126.4291207593336
 10
159.918894509582
 20
126.4744358663094
 10
159.9821984007933
 20
126.4840869715949
 10
160.0247291084147
 20
126.4905710648988
 72
     1
 10
160.0247291084147
 20
126.4905710648988
 11
160.8464960317658
 21
126.4905710648988
 97
        8
330
F48
330
F45
330
F41
330
F47
330
F44
330
F46
330
F43
330
F42
 75
     0
 76
     1
 47
0.0514683685270805
 98
        1
 10
160.2349958874071
 20
126.6868246607687
450
        0
451
        0
460
0.0
461
0.0
452
        0
462
0.0
453
        0
470

  0
HATCH
  5
F5F
330
18
100
AcDbEntity
  8
ROGO
 62
     4
100
AcDbHatch
 10
0.0
 20
0.0
 30
0.0
210
0.0
220
0.0
230
1.0
  2
SOLID
 70
     1
 71
     1
 91
        1
 92
        5
 93
        8
 72
     4
 94
        3
 73
     0
 74
     0
 95
       26
 96
       22
 40
0.0
 40
0.0
 40
0.0
 40
0.0
 40
0.2382195346591896
 40
0.397689067266058
 40
0.5126795869787176
 40
0.5985392873135238
 40
0.7099038249250041
 40
0.7911890807494602
 40
0.9379713068544059
 40
1.057449928673177
 40
1.138714535893296
 40
1.218398644003487
 40
1.36093802187034
 40
1.461730374800238
 40
1.51601484410804
 40
1.593124329220486
 40
1.648806818593696
 40
1.729472362005543
 40
1.775122082164332
 40
1.874460993765135
 40
1.919820003751196
 40
1.919820003751196
 40
1.919820003751196
 40
1.919820003751196
 10
164.006148761128
 20
126.9791461171157
 10
163.9252933703694
 20
126.9743221458506
 10
163.7903115563034
 20
126.9662688993539
 10
163.6421023455917
 20
126.8762333954955
 10
163.5335156011814
 20
126.823890710153
 10
163.4560716667572
 20
126.7527352887335
 10
163.3993049488898
 20
126.6792369362121
 10
163.3277398441921
 20
126.5916641880868
 10
163.2693805462863
 20
126.4896892666222
 10
163.2396617037531
 20
126.3772951255588
 10
163.2133370350994
 20
126.287716343
 10
163.1938142201263
 20
126.1878924801075
 10
163.1987813769393
 20
126.0800475919853
 10
163.2058945728238
 20
125.9798867809814
 10
163.2376532627478
 20
125.9083869580548
 10
163.2738207851379
 20
125.8574840111254
 10
163.3181074209927
 20
125.8014200584267
 10
163.3665666853102
 20
125.7642890840964
 10
163.4066464524208
 20
125.6970238289559
 10
163.4768047326833
 20
125.6884402972797
 10
163.521400126759
 20
125.6713565074027
 10
163.5353796152205
 20
125.6660011865582
 72
     1
 10
163.5353796152205
 20
125.6660011865582
 11
164.666408630225
 21
125.6660011865582
 72
     1
 10
164.666408630225
 20
125.6660011865582
 11
164.9100253509039
 21
126.1545710648988
 72
     1
 10
164.9100253509039
 20
126.1545710648988
 11
164.0703443300318
 21
126.1545710648988
 72
     4
 94
        3
 73
     0
 74
     0
 95
       16
 96
       12
 40
0.0
 40
0.0
 40
0.0
 40
0.0
 40
0.0719416665231652
 40
0.1446253590759511
 40
0.1879779149910863
 40
0.229544093610429
 40
0.2751936323958108
 40
0.3070718656052417
 40
0.3373215422371831
 40
0.3986635435213285
 40
0.5242542460842448
 40
0.5242542460842448
 40
0.5242542460842448
 40
0.5242542460842448
 10
164.0703443300318
 20
126.1545710648988
 10
164.04501659136
 20
126.1620228569873
 10
163.994099876791
 20
126.1770033009867
 10
163.9898385589434
 20
126.249622990124
 10
163.9956439880052
 20
126.3013704610831
 10
164.0199571378824
 20
126.3390456417992
 10
164.0494532057429
 20
126.366459292835
 10
164.0604358999946
 20
126.4021612870171
 10
164.0927185291187
 20
126.4291207593336
 10
164.1499642805098
 20
126.4744358663093
 10
164.2132681717212
 20
126.4840869715948
 10
164.2557988793426
 20
126.4905710648988
 72
     1
 10
164.2557988793426
 20
126.4905710648988
 11
165.0775658026937
 21
126.4905710648988
 72
     1
 10
165.0775658026937
 20
126.4905710648988
 11
165.3211851032343
 21
126.9791461171157
 72
     1
 10
165.3211851032343
 20
126.9791461171157
 11
164.0061487611281
 21
126.9791461171157
 97
        8
330
F4A
330
F4C
330
F49
330
F4D
330
F4E
330
F4B
330
F4F
330
F50
 75
     0
 76
     1
 47
0.0514683685270805
 98
        1
 10
164.2330661908129
 20
126.7387048139366
450
        0
451
        0
460
0.0
461
0.0
452
        0
462
0.0
453
        0
470

  0
HATCH
  5
F60
330
18
100
AcDbEntity
  8
ROGO
 62
     4
100
AcDbHatch
 10
0.0
 20
0.0
 30
0.0
210
0.0
220
0.0
230
1.0
  2
SOLID
 70
     1
 71
     0
 91
        1
 92
        7
 72
     0
 73
     1
 93
        4
 10
152.4868376675255
 20
125.132937538501
 10
152.3937866321035
 20
124.9272673322097
 10
164.5730792006865
 20
124.9272673322097
 10
164.6756330080727
 20
125.132937538501
 97
        0
 75
     0
 76
     1
 47
0.0514683685270805
 98
        1
 10
160.1830729284138
 20
125.0785410742962
450
        0
451
        0
460
0.0
461
0.0
452
        0
462
0.0
453
        0
470

  0
HATCH
  5
F61
330
18
100
AcDbEntity
  8
ROGO
 62
     4
100
AcDbHatch
 10
0.0
 20
0.0
 30
0.0
210
0.0
220
0.0
230
1.0
  2
SOLID
 70
     1
 71
     1
 91
        1
 92
        7
 72
     0
 73
     1
 93
       11
 10
164.5730792006866
 20
124.9272673322097
 10
165.3291629431908
 20
124.9272673322097
 10
165.5962122323565
 20
125.4628308943292
 10
165.8632615215222
 20
124.9272673322097
 10
166.6193287215221
 20
124.9272673322097
 10
166.1077622056872
 20
125.9532067246627
 10
167.3506709510185
 20
126.9791461171157
 10
166.5946037510185
 20
126.9791461171157
 10
166.2405906679396
 20
126.755122708294
 10
166.3522959748607
 20
126.9791461171157
 10
165.5962122323565
 20
126.9791461171156
 97
       11
330
F59
330
F54
330
F53
330
F51
330
F52
330
F25
330
F57
330
F55
330
F5A
330
F56
330
F58
 75
     0
 76
     1
 47
0.0514683685270805
 98
        1
 10
165.5311409859526
 20
126.0988501336742
450
        0
451
        0
460
0.0
461
0.0
452
        0
462
0.0
453
        0
470

  0
HATCH
  5
F62
330
18
100
AcDbEntity
  8
ROGO
 62
     4
100
AcDbHatch
 10
0.0
 20
0.0
 30
0.0
210
0.0
220
0.0
230
1.0
  2
SOLID
 70
     1
 71
     1
 91
        2
 92
        5
 93
        6
 72
     1
 10
151.439985676167
 20
124.9272673322097
 11
152.3937866321035
 21
124.9272673322097
 72
     1
 10
152.3937866321035
 20
124.9272673322097
 11
152.728010782932
 21
125.6660011865582
 72
     1
 10
152.728010782932
 20
125.6660011865582
 11
153.6196190511042
 21
125.6660011865582
 72
     4
 94
        3
 73
     0
 74
     0
 95
       18
 96
       14
 40
0.108740278791501
 40
0.108740278791501
 40
0.108740278791501
 40
0.108740278791501
 40
0.6623149649549278
 40
1.384304701649787
 40
2.097394834876493
 40
2.774073369849618
 40
3.428974823686337
 40
4.005208313035923
 40
4.455173659284313
 40
4.720999734343524
 40
5.086034088486724
 40
5.569973738255373
 40
6.060470601257719
 40
6.060470601257719
 40
6.060470601257719
 40
6.060470601257719
 10
153.6196190511041
 20
125.6660011865582
 10
153.6823689679988
 20
125.6664684661894
 10
153.8269593250524
 20
125.6675451867979
 10
154.0292401031597
 20
125.7756080232933
 10
154.2210600762527
 20
125.9132722036351
 10
154.3755580153341
 20
126.0852692344369
 10
154.4718148862102
 20
126.2819183719576
 10
154.4867247712573
 20
126.4703885075293
 10
154.4776226527464
 20
126.6194660416857
 10
154.4125834442033
 20
126.7233767839886
 10
154.3449672502786
 20
126.8288355611614
 10
154.2209820147314
 20
126.9201878709527
 10
154.1193940668809
 20
126.960213762268
 10
154.0677345292449
 20
126.9791461171157
 72
     1
 10
154.0677345292449
 20
126.9791461171157
 11
152.4552362162597
 21
126.9791461171157
 72
     1
 10
152.4552362162597
 20
126.9791461171157
 11
151.439985676167
 21
124.9272673322097
 97
        6
330
F27
330
F24
330
F26
330
F25
330
F2D
330
F28
 92
       20
 93
        4
 72
     1
 10
152.9343752752422
 20
126.122127521017
 11
153.0923730715995
 21
126.4713492059023
 72
     1
 10
153.0923730715995
 20
126.4713492059023
 11
153.498360070697
 21
126.4713492059023
 72
     4
 94
        3
 73
     0
 74
     0
 95
       15
 96
       11
 40
0.0
 40
0.0
 40
0.0
 40
0.0
 40
0.1539705029175028
 40
0.2241725832587281
 40
0.3038566179396687
 40
0.3581410872474193
 40
0.443992538467216
 40
0.4954152125469665
 40
0.5836396705646186
 40
0.6130478420065743
 40
0.6130478420065743
 40
0.6130478420065743
 40
0.6130478420065743
 10
153.498360070697
 20
126.4713492059023
 10
153.5561884057562
 20
126.4716140905448
 10
153.6403832808143
 20
126.4719997480145
 10
153.6864240371789
 20
126.367850444085
 10
153.6657863749454
 20
126.3007945394476
 10
153.6398431515213
 20
126.2319490251997
 10
153.5939955999789
 20
126.1851674599304
 10
153.5324614703838
 20
126.1401089262934
 10
153.474308777328
 20
126.1346543890339
 10
153.4364869783555
 20
126.1246328955797
 10
153.4270315240862
 20
126.122127521017
 72
     1
 10
153.4270315240862
 20
126.122127521017
 11
152.9343752752422
 21
126.122127521017
 97
        4
330
F29
330
F2B
330
F2A
330
F2C
 75
     0
 76
     1
 47
0.0514683685270805
 98
        2
 10
152.4638547695666
 20
126.3409573602267
 10
152.4638547695666
 20
126.3409573602267
450
        0
451
        0
460
0.0
461
0.0
452
        0
462
0.0
453
        0
470

  0
LINE
  5
F63
102
{ACAD_REACTORS
330
F66
102
}
330
18
100
AcDbEntity
  8
ROGO
 62
     4
100
AcDbLine
 10
158.3613394189035
 20
126.9791461171157
 30
0.0
 11
158.9446904292868
 21
125.6660011865582
 31
0.0
  0
LINE
  5
F64
102
{ACAD_REACTORS
330
F66
102
}
330
18
100
AcDbEntity
  8
ROGO
 62
     4
100
AcDbLine
 10
157.7850637927638
 20
126.6281371401639
 30
0.0
 11
157.9842711784892
 21
126.179713868345
 31
0.0
  0
LINE
  5
F65
102
{ACAD_REACTORS
330
F66
102
}
330
18
100
AcDbEntity
  8
ROGO
 62
     4
100
AcDbLine
 10
158.1014162840898
 20
125.916015856649
 30
0.0
 11
158.2124827071587
 21
125.6660011865582
 31
0.0
  0
HATCH
  5
F66
330
18
100
AcDbEntity
  8
ROGO
 62
     4
100
AcDbHatch
 10
0.0
 20
0.0
 30
0.0
210
0.0
220
0.0
230
1.0
  2
SOLID
 70
     1
 71
     1
 91
        2
 92
        7
 72
     0
 73
     1
 93
        8
 10
158.3613394189035
 20
126.9791461171157
 10
157.310935936132
 20
126.9791461171156
 10
156.3640016060329
 20
125.6660011865582
 10
157.0912488577245
 20
125.6660011865582
 10
157.2715392953054
 20
125.916015856649
 10
158.1014162840898
 20
125.916015856649
 10
158.2124827071587
 20
125.6660011865582
 10
158.9446904292868
 20
125.6660011865582
 97
        8
330
F3F
330
F39
330
F3E
330
F3D
330
F3B
330
F65
330
F40
330
F63
 92
       22
 72
     0
 73
     1
 93
        3
 10
157.9842711784892
 20
126.1797138683451
 10
157.4616970564506
 20
126.1797138683451
 10
157.7850637927639
 20
126.628137140164
 97
        3
330
F3C
330
F3A
330
F64
 75
     0
 76
     1
 47
0.0128389261915577
 98
        2
 10
158.2790845264077
 20
126.6641042003066
 10
158.2790845264077
 20
126.6641042003066
450
        0
451
        0
460
0.0
461
0.0
452
        0
462
0.0
453
        0
470

  0
SPLINE
  5
F67
102
{ACAD_REACTORS
330
F6E
102
}
330
18
100
AcDbEntity
  8
ROGO
 62
     4
100
AcDbSpline
210
0.0
220
0.0
230
1.0
 70
     8
 71
     3
 72
    38
 73
    34
 74
    32
 42
0.0000000001
 43
0.0000000001
 44
0.0000000001
 40
0.0
 40
0.0
 40
0.0
 40
0.0
 40
0.1807680148264315
 40
0.2375392910068956
 40
0.3104865209606157
 40
0.3712759982447458
 40
0.422566754387306
 40
0.490692583720658
 40
0.5255021974951946
 40
0.5647069597052371
 40
0.622487401681883
 40
0.6879401044674746
 40
0.7303986317551266
 40
0.7765228362185534
 40
0.8277951442290254
 40
0.9056034697002209
 40
0.9795294930264187
 40
1.013897332332996
 40
1.053089255536027
 40
1.099518741889647
 40
1.132570569820733
 40
1.160277520290299
 40
1.19983678629386
 40
1.243305643169139
 40
1.286774258016964
 40
1.324809356515675
 40
1.411916492917645
 40
1.446284332224223
 40
1.5150200516612
 40
1.575779369908399
 40
1.69209852953623
 40
1.835624328519098
 40
2.042896467983898
 40
2.042896467983898
 40
2.042896467983898
 40
2.042896467983898
 10
161.8193406523492
 20
126.984623336288
 30
0.0
 10
161.7590852547235
 20
126.9803667171871
 30
0.0
 10
161.6799062891024
 20
126.9747732813999
 30
0.0
 10
161.5793675165929
 20
126.9472286551951
 30
0.0
 10
161.5245627621519
 20
126.9144141357371
 30
0.0
 10
161.4675274608347
 20
126.8902938910366
 30
0.0
 10
161.4188995544496
 20
126.8545765917874
 30
0.0
 10
161.3697134537538
 20
126.8361718115939
 30
0.0
 10
161.3352718403779
 20
126.8029847032214
 30
0.0
 10
161.295408482245
 20
126.7827125850463
 30
0.0
 10
161.2636645824097
 20
126.737337691032
 30
0.0
 10
161.228183905878
 20
126.6949138093735
 30
0.0
 10
161.1870218574708
 20
126.6639462677961
 30
0.0
 10
161.1532396119114
 20
126.6314212888337
 30
0.0
 10
161.1222490989871
 20
126.5812254736498
 30
0.0
 10
161.103907526416
 20
126.5145300989642
 30
0.0
 10
161.0522057120066
 20
126.472421044679
 30
0.0
 10
161.0444210375235
 20
126.4217933970029
 30
0.0
 10
161.0158231873279
 20
126.3919239368122
 30
0.0
 10
161.0033878418719
 20
126.3533667548272
 30
0.0
 10
160.9986518637481
 20
126.3180415655065
 30
0.0
 10
160.9929675607057
 20
126.2850502840782
 30
0.0
 10
160.9780985004732
 20
126.2503449133403
 30
0.0
 10
160.9829518130346
 20
126.2074746344054
 30
0.0
 10
160.9815692499924
 20
126.1659619203789
 30
0.0
 10
160.9823828899657
 20
126.1099184637674
 30
0.0
 10
160.9794463506197
 20
126.055353266848
 30
0.0
 10
161.0028641011347
 20
125.9959733906795
 30
0.0
 10
161.0167219487376
 20
125.943044446013
 30
0.0
 10
161.0546739186811
 20
125.8697579037615
 30
0.0
 10
161.1201402714991
 20
125.7852010800526
 30
0.0
 10
161.2446300175165
 20
125.6825651167598
 30
0.0
 10
161.3643305480759
 20
125.6721531760425
 30
0.0
 10
161.4350566908061
 20
125.6660011865582
 30
0.0
 11
161.8193406523492
 21
126.984623336288
 31
0.0
 11
161.6398840154019
 21
126.9628887868366
 31
0.0
 11
161.5855032292738
 21
126.9465882377893
 31
0.0
 11
161.5202465422658
 21
126.9139866556397
 31
0.0
 11
161.4658657561376
 21
126.8868188318666
 31
0.0
 11
161.4223612981323
 21
126.8596507660662
 31
0.0
 11
161.3625425615643
 21
126.827049425944
 31
0.0
 11
161.3353519548786
 21
126.8053151185201
 31
0.0
 11
161.3027233977531
 21
126.7835805690687
 31
0.0
 11
161.2646568901877
 21
126.7401119542209
 31
0.0
 11
161.2211524321824
 21
126.6912098230239
 31
0.0
 11
161.1885238750568
 21
126.6640417572234
 31
0.0
 11
161.1558957451744
 21
126.6314404171013
 31
0.0
 11
161.1287051384888
 21
126.5879718022535
 31
0.0
 11
161.0960770086064
 21
126.5173351216052
 31
0.0
 11
161.0525721233579
 21
126.4575657156825
 31
0.0
 11
161.0416962224782
 21
126.4249641335329
 31
0.0
 11
161.0199439934755
 21
126.3923627934107
 31
0.0
 11
161.0036297149128
 21
126.3488939365355
 31
0.0
 11
160.9981913372298
 21
126.3162925964133
 31
0.0
 11
160.9927533867899
 21
126.2891245306128
 31
0.0
 11
160.9818774859101
 21
126.2510896741415
 31
0.0
 11
160.9818774859101
 21
126.2076208172663
 31
0.0
 11
160.9818774859101
 21
126.1641522024184
 31
0.0
 11
160.9818774859101
 21
126.1261171039197
 31
0.0
 11
160.98731543635
 21
126.039179874224
 31
0.0
 11
160.9981913372298
 21
126.0065782920744
 31
0.0
 11
161.0199439934755
 21
125.9413753698027
 31
0.0
 11
161.0471341729181
 21
125.8870394802292
 31
0.0
 11
161.117829237609
 21
125.7946687341843
 31
0.0
 11
161.2320287603053
 21
125.7077312624612
 31
0.0
 11
161.4350566908061
 21
125.6660011865582
 31
0.0
  0
SPLINE
  5
F68
102
{ACAD_REACTORS
330
F6E
102
}
330
18
100
AcDbEntity
  8
ROGO
 62
     4
100
AcDbSpline
210
0.0
220
0.0
230
1.0
 70
     8
 71
     3
 72
    25
 73
    21
 74
     0
 42
0.0000000001
 43
0.0000000001
 40
0.0
 40
0.0
 40
0.0
 40
0.0
 40
0.4087168505087288
 40
0.6887487002771746
 40
0.9415836120477687
 40
1.17452070575514
 40
1.41154617586699
 40
1.599156012919487
 40
1.80099909059943
 40
2.178735911501585
 40
2.521686161369157
 40
2.762704659361267
 40
3.06256558063785
 40
3.222432137207705
 40
3.399493810628493
 40
3.567459719866414
 40
3.743172740007509
 40
3.995988754699505
 40
4.17170091132118
 40
4.337226830236035
 40
4.337226830236035
 40
4.337226830236035
 40
4.337226830236035
 10
162.5697944755346
 20
126.984623336288
 30
0.0
 10
162.6190145259601
 20
126.9830419468319
 30
0.0
 10
162.7019576336786
 20
126.9803770703259
 30
0.0
 10
162.7910072922998
 20
126.9107743809504
 30
0.0
 10
162.8591455130591
 20
126.8530684186354
 30
0.0
 10
162.9075108679197
 20
126.7833046123012
 30
0.0
 10
162.9499044565622
 20
126.7191605086241
 30
0.0
 10
162.9778386173313
 20
126.651439093958
 30
0.0
 10
163.0158345950061
 20
126.5701795984211
 30
0.0
 10
163.0315630526534
 20
126.4614664659901
 30
0.0
 10
163.0209366093167
 20
126.3491014129445
 30
0.0
 10
162.9932065538192
 20
126.249500129241
 30
0.0
 10
162.9641199551192
 20
126.1730883640969
 30
0.0
 10
162.9298379362018
 20
126.1065671821063
 30
0.0
 10
162.8889693888977
 20
126.0634947116073
 30
0.0
 10
162.8606164333587
 20
126.0087284852598
 30
0.0
 10
162.8061540326415
 20
125.9639326523863
 30
0.0
 10
162.7620038728349
 20
125.9086608819323
 30
0.0
 10
162.7119026361952
 20
125.8612205335937
 30
0.0
 10
162.6836553368912
 20
125.831950410372
 30
0.0
 10
162.6687626794975
 20
125.8196436664263
 30
0.0
  0
LINE
  5
F69
102
{ACAD_REACTORS
330
F6E
102
}
330
18
100
AcDbEntity
  8
ROGO
 62
     4
100
AcDbLine
 10
161.8193406523492
 20
126.984623336288
 30
0.0
 11
162.5697944755346
 21
126.984623336288
 31
0.0
  0
LINE
  5
F6A
102
{ACAD_REACTORS
330
F6E
102
}
330
18
100
AcDbEntity
  8
ROGO
 62
     4
100
AcDbLine
 10
161.4350566908061
 20
125.6660011865582
 30
0.0
 11
162.1855105139914
 21
125.6660011865582
 31
0.0
  0
SPLINE
  5
F6B
102
{ACAD_REACTORS
330
F6E
102
}
330
18
100
AcDbEntity
  8
ROGO
 62
     4
100
AcDbSpline
210
0.0
220
0.0
230
1.0
 70
     8
 71
     3
 72
    11
 73
     7
 74
     0
 42
0.0000000001
 43
0.0000000001
 40
0.1647869275458134
 40
0.1647869275458134
 40
0.1647869275458134
 40
0.1647869275458134
 40
0.2895635144633836
 40
0.5387013147903714
 40
0.7953622617455423
 40
0.8850764140209602
 40
0.8850764140209602
 40
0.8850764140209602
 40
0.8850764140209602
 10
162.4355279726094
 20
125.6952776334668
 30
0.0
 10
162.4215494298086
 20
125.6913867007503
 30
0.0
 10
162.3782084183744
 20
125.6844591109664
 30
0.0
 10
162.3055096512363
 20
125.674946716593
 30
0.0
 10
162.2364131091399
 20
125.6650201860084
 30
0.0
 10
162.1959824143114
 20
125.6657993709152
 30
0.0
 10
162.1855105139914
 20
125.6660011865582
 30
0.0
  0
SPLINE
  5
F6C
102
{ACAD_REACTORS
330
F6E
102
}
330
18
100
AcDbEntity
  8
ROGO
 62
     4
100
AcDbSpline
210
0.0
220
0.0
230
1.0
 70
     8
 71
     3
 72
     9
 73
     5
 74
     3
 42
0.0000000001
 43
0.0000000001
 44
0.0000000001
 40
0.0
 40
0.0
 40
0.0
 40
0.0
 40
0.1135793343552172
 40
0.2662938392177403
 40
0.2662938392177403
 40
0.2662938392177403
 40
0.2662938392177403
 10
162.4355279726094
 20
125.6952776334668
 30
0.0
 10
162.4720129409275
 20
125.70643997319
 30
0.0
 10
162.5575542266049
 20
125.732610775444
 30
0.0
 10
162.6282309238417
 20
125.7879230932184
 30
0.0
 10
162.6687626794975
 20
125.8196436664263
 30
0.0
 11
162.4355279726094
 21
125.6952776334668
 31
0.0
 11
162.5422787368341
 21
125.7340660277365
 31
0.0
 11
162.6687626794975
 21
125.8196436664263
 31
0.0
  0
ELLIPSE
  5
F6D
102
{ACAD_REACTORS
330
F6E
102
}
330
18
100
AcDbEntity
  8
ROGO
 62
     4
100
AcDbEllipse
 10
161.9917990469799
 20
126.306927344069
 30
0.0
 11
0.1782847090673272
 21
0.1567790921840611
 31
0.0
210
0.0
220
0.0
230
0.9999999999999998
 40
0.6788083417438792
 41
0.0
 42
6.283185307179586
  0
HATCH
  5
F6E
330
18
100
AcDbEntity
  8
ROGO
 62
     4
100
AcDbHatch
 10
0.0
 20
0.0
 30
0.0
210
0.0
220
0.0
230
1.0
  2
SOLID
 70
     1
 71
     1
 91
        2
 92
        5
 93
        6
 72
     4
 94
        3
 73
     0
 74
     0
 95
       38
 96
       34
 40
0.0
 40
0.0
 40
0.0
 40
0.0
 40
0.1807680148264315
 40
0.2375392910068956
 40
0.3104865209606157
 40
0.3712759982447458
 40
0.422566754387306
 40
0.490692583720658
 40
0.5255021974951946
 40
0.5647069597052371
 40
0.622487401681883
 40
0.6879401044674746
 40
0.7303986317551266
 40
0.7765228362185534
 40
0.8277951442290254
 40
0.9056034697002209
 40
0.9795294930264187
 40
1.013897332332996
 40
1.053089255536027
 40
1.099518741889647
 40
1.132570569820733
 40
1.160277520290299
 40
1.19983678629386
 40
1.243305643169139
 40
1.286774258016964
 40
1.324809356515675
 40
1.411916492917645
 40
1.446284332224223
 40
1.5150200516612
 40
1.575779369908399
 40
1.69209852953623
 40
1.835624328519098
 40
2.042896467983898
 40
2.042896467983898
 40
2.042896467983898
 40
2.042896467983898
 10
161.8193406523492
 20
126.984623336288
 10
161.7590852547235
 20
126.9803667171871
 10
161.6799062891024
 20
126.9747732813999
 10
161.5793675165929
 20
126.9472286551951
 10
161.5245627621519
 20
126.9144141357371
 10
161.4675274608347
 20
126.8902938910366
 10
161.4188995544496
 20
126.8545765917874
 10
161.3697134537538
 20
126.8361718115939
 10
161.3352718403779
 20
126.8029847032214
 10
161.295408482245
 20
126.7827125850463
 10
161.2636645824097
 20
126.737337691032
 10
161.228183905878
 20
126.6949138093735
 10
161.1870218574708
 20
126.6639462677961
 10
161.1532396119114
 20
126.6314212888337
 10
161.1222490989871
 20
126.5812254736498
 10
161.103907526416
 20
126.5145300989642
 10
161.0522057120066
 20
126.472421044679
 10
161.0444210375235
 20
126.4217933970029
 10
161.0158231873279
 20
126.3919239368122
 10
161.0033878418719
 20
126.3533667548272
 10
160.9986518637481
 20
126.3180415655065
 10
160.9929675607057
 20
126.2850502840782
 10
160.9780985004732
 20
126.2503449133403
 10
160.9829518130346
 20
126.2074746344054
 10
160.9815692499924
 20
126.1659619203789
 10
160.9823828899657
 20
126.1099184637674
 10
160.9794463506197
 20
126.055353266848
 10
161.0028641011347
 20
125.9959733906795
 10
161.0167219487376
 20
125.943044446013
 10
161.0546739186811
 20
125.8697579037615
 10
161.1201402714991
 20
125.7852010800526
 10
161.2446300175165
 20
125.6825651167598
 10
161.3643305480759
 20
125.6721531760425
 10
161.4350566908061
 20
125.6660011865582
 72
     1
 10
161.435056690806
 20
125.6660011865582
 11
162.1855105139918
 21
125.6660011865582
 72
     4
 94
        3
 73
     0
 74
     0
 95
       11
 96
        7
 40
0.1647869275458135
 40
0.1647869275458135
 40
0.1647869275458135
 40
0.1647869275458135
 40
0.2545010798212315
 40
0.5111620267764023
 40
0.7602998271033902
 40
0.8850764140209603
 40
0.8850764140209603
 40
0.8850764140209603
 40
0.8850764140209603
 10
162.1855105139914
 20
125.6660011865582
 10
162.1959824143114
 20
125.6657993709152
 10
162.2364131091399
 20
125.6650201860084
 10
162.3055096512363
 20
125.674946716593
 10
162.3782084183744
 20
125.6844591109664
 10
162.4215494298086
 20
125.6913867007503
 10
162.4355279726094
 20
125.6952776334668
 72
     4
 94
        3
 73
     0
 74
     0
 95
        9
 96
        5
 40
0.0
 40
0.0
 40
0.0
 40
0.0
 40
0.1135793343552172
 40
0.2662938392177403
 40
0.2662938392177403
 40
0.2662938392177403
 40
0.2662938392177403
 10
162.4355279726094
 20
125.6952776334668
 10
162.4720129409275
 20
125.70643997319
 10
162.5575542266049
 20
125.732610775444
 10
162.6282309238417
 20
125.7879230932184
 10
162.6687626794975
 20
125.8196436664263
 72
     4
 94
        3
 73
     0
 74
     0
 95
       25
 96
       21
 40
0.0
 40
0.0
 40
0.0
 40
0.0
 40
0.165525918914855
 40
0.3412380755365305
 40
0.5940540902285263
 40
0.7697671103696209
 40
0.9377330196075423
 40
1.11479469302833
 40
1.274661249598185
 40
1.574522170874768
 40
1.815540668866877
 40
2.15849091873445
 40
2.536227739636605
 40
2.738070817316548
 40
2.925680654369045
 40
3.162706124480894
 40
3.395643218188267
 40
3.648478129958861
 40
3.928509979727306
 40
4.337226830236035
 40
4.337226830236035
 40
4.337226830236035
 40
4.337226830236035
 10
162.6687626794975
 20
125.8196436664263
 10
162.6836553368912
 20
125.831950410372
 10
162.7119026361952
 20
125.8612205335937
 10
162.7620038728349
 20
125.9086608819323
 10
162.8061540326415
 20
125.9639326523863
 10
162.8606164333587
 20
126.0087284852598
 10
162.8889693888977
 20
126.0634947116073
 10
162.9298379362018
 20
126.1065671821063
 10
162.9641199551192
 20
126.1730883640969
 10
162.9932065538192
 20
126.249500129241
 10
163.0209366093167
 20
126.3491014129445
 10
163.0315630526534
 20
126.4614664659901
 10
163.0158345950061
 20
126.5701795984211
 10
162.9778386173313
 20
126.651439093958
 10
162.9499044565622
 20
126.7191605086241
 10
162.9075108679197
 20
126.7833046123012
 10
162.8591455130591
 20
126.8530684186354
 10
162.7910072922998
 20
126.9107743809504
 10
162.7019576336786
 20
126.9803770703259
 10
162.6190145259601
 20
126.9830419468319
 10
162.5697944755346
 20
126.984623336288
 72
     1
 10
162.5697944755346
 20
126.984623336288
 11
161.8193406523492
 21
126.984623336288
 97
        6
330
F68
330
F69
330
F67
330
F6A
330
F6B
330
F6C
 92
       20
 93
        1
 72
     3
 10
161.9917990469799
 20
126.306927344069
 11
0.1782847090673272
 21
0.1567790921840611
 40
0.678808341743879
 50
0.0
 51
360.0
 73
     1
 97
        1
330
F6D
 75
     0
 76
     1
 47
0.088756267210375
 98
        2
 10
162.0442303227486
 20
126.620414614393
 10
162.0442303227486
 20
126.620414614393
450
        0
451
        0
460
0.0
461
0.0
452
        0
462
0.0
453
        0
470

  0
TEXT
  5
F9C
330
18
100
AcDbEntity
  8
文字
100
AcDbText
 10
153.1426759841812
 20
122.784229181899
 30
0.0
 40
1.0
  1
MADE  IN  JAPAN
  7
STYLE3
100
AcDbText
  0
TEXT
  5
F9D
330
18
100
AcDbEntity
  8
文字
100
AcDbText
 10
154.4187852582824
 20
120.4912498688786
 30
0.0
 40
1.3
  1
MODEL  G
  7
STYLE3
100
AcDbText
  0
TEXT
  5
F9E
330
18
100
AcDbEntity
  8
文字
100
AcDbText
 10
159.1519380145042
 20
100.990455003583
 30
0.0
 40
1.0
  1
S
  7
STYLE3
100
AcDbText
  0
TEXT
  5
F9F
330
18
100
AcDbEntity
  8
文字
100
AcDbText
 10
160.0349059016922
 20
101.0592921274961
 30
0.0
 40
1.0
  1
H
 50
1.589821613340259
  7
STYLE3
100
AcDbText
  0
TEXT
  5
FA0
330
18
100
AcDbEntity
  8
文字
100
AcDbText
 10
160.9867643637556
 20
101.1724470601327
 30
0.0
 40
1.0
  1
O
 50
1.760930144340787
  7
STYLE3
100
AcDbText
  0
TEXT
  5
FA1
330
18
100
AcDbEntity
  8
文字
100
AcDbText
 10
162.0090270370485
 20
101.3544391219707
 30
0.0
 40
1.0
  1
C
 50
5.687207778684769
  7
STYLE3
100
AcDbText
  0
TEXT
  5
FA2
330
18
100
AcDbEntity
  8
文字
100
AcDbText
 10
163.0358193385174
 20
101.5271906261318
 30
0.0
 40
1.0
  1
K
 50
11.14538657471254
  7
STYLE3
100
AcDbText
  0
TEXT
  5
FA3
330
18
100
AcDbEntity
  8
文字
100
AcDbText
 10
164.6118717078418
 20
102.0731666814789
 30
0.0
 40
1.0
  1
P
 50
23.24053280085741
  7
STYLE3
100
AcDbText
  0
TEXT
  5
FA4
330
18
100
AcDbEntity
  8
文字
100
AcDbText
 10
165.497858346529
 20
102.5350307606324
 30
0.0
 40
1.0
  1
R
 50
26.06198672177309
  7
STYLE3
100
AcDbText
  0
TEXT
  5
FA5
330
18
100
AcDbEntity
  8
文字
100
AcDbText
 10
166.4221602461954
 20
103.0151884619118
 30
0.0
 40
1.0
  1
O
 50
27.73777743938884
  7
STYLE3
100
AcDbText
  0
TEXT
  5
FA6
330
18
100
AcDbEntity
  8
文字
100
AcDbText
 10
167.3740191531245
 20
103.5902078483375
 30
0.0
 40
1.0
  1
O
 50
27.6495577688412
  7
STYLE3
100
AcDbText
  0
TEXT
  5
FA7
330
18
100
AcDbEntity
  8
文字
100
AcDbText
 10
168.3594756001772
 20
104.1407101140137
 30
0.0
 40
1.0
  1
F
 50
35.29154926473689
  7
STYLE3
100
AcDbText
  0
CIRCLE
  5
FB9
330
18
100
AcDbEntity
  8
針
100
AcDbCircle
 10
159.1226123311015
 20
115.9593903444204
 30
0.0
 40
1.9
  0
LINE
  5
FBA
330
18
100
AcDbEntity
  8
針
100
AcDbLine
 10
159.2126123311014
 20
137.9593903444204
 30
0.0
 11
159.7226123311015
 21
119.0581804308895
 31
0.0
  0
ARC
  5
FBB
330
18
100
AcDbEntity
  8
針
100
AcDbCircle
 10
162.7226123311015
 20
119.0581804308895
 30
0.0
 40
3.0
100
AcDbArc
 50
180.0
 51
209.4722791770395
  0
LINE
  5
FBC
330
18
100
AcDbEntity
  8
針
100
AcDbLine
 10
159.1226123311015
 20
137.9593903444204
 30
0.0
 11
159.2126123311014
 21
137.9593903444204
 31
0.0
  0
ARC
  5
FBD
330
18
100
AcDbEntity
  8
針
100
AcDbCircle
 10
155.5226123311014
 20
119.0581804308895
 30
0.0
 40
3.0
100
AcDbArc
 50
330.5277208229603
 51
0.0
  0
LINE
  5
FBE
330
18
100
AcDbEntity
  8
針
100
AcDbLine
 10
159.0326123311015
 20
137.9593903444204
 30
0.0
 11
158.5226123311014
 21
119.0581804308895
 31
0.0
  0
LINE
  5
FBF
330
18
100
AcDbEntity
  8
針
100
AcDbLine
 10
159.1226123311014
 20
137.9593903444205
 30
0.0
 11
159.0326123311015
 21
137.9593903444204
 31
0.0
  0
CIRCLE
  5
FC0
330
18
100
AcDbEntity
  8
針
100
AcDbCircle
 10
159.1226123311015
 20
115.9593903444204
 30
0.0
 40
0.475
  0
CIRCLE
  5
FC1
330
18
100
AcDbEntity
  8
針
100
AcDbCircle
 10
159.1226123311015
 20
115.9593903444204
 30
0.0
 40
1.5
  0
HATCH
  5
FC2
330
18
100
AcDbEntity
  8
針
100
AcDbHatch
 10
0.0
 20
0.0
 30
0.0
210
0.0
220
0.0
230
1.0
  2
SOLID
 70
     1
 71
     0
 91
        2
 92
        7
 72
     1
 73
     1
 93
        5
 10
159.2126123311014
 20
137.9593903444204
 42
0.0
 10
159.1226123311015
 20
137.9593903444204
 42
0.0
 10
159.0326123311015
 20
137.9593903444204
 42
0.0
 10
158.8571653986065
 20
131.45711720761
 42
-0.0085634322047721
 10
159.3880592635964
 20
131.45711720761
 42
0.0
 97
        0
 92
        7
 72
     1
 73
     1
 93
        6
 10
159.3880592635964
 20
131.45711720761
 42
0.0085634322047721
 10
158.8571653986065
 20
131.45711720761
 42
0.0
 10
158.5226123311014
 20
119.058180430889
 42
-0.1293106770632391
 10
158.134393845849
 20
117.5821732089482
 42
-0.2805221108582334
 10
160.110830816354
 20
117.5821732089482
 42
-0.1293106770632486
 10
159.7226123311015
 20
119.0581804308891
 42
0.0
 97
        0
 75
     0
 76
     1
 47
0.0423559757596284
 98
        2
 10
159.0820495686371
 20
132.0853712197693
 10
159.2092156860286
 20
127.6803497162901
450
        0
451
        0
460
0.0
461
0.0
452
        0
462
0.0
453
        0
470

  0
CIRCLE
  5
FE9
330
18
100
AcDbEntity
  8
針
100
AcDbCircle
 10
159.1226123311015
 20
115.9593903444204
 30
0.0
 40
0.0000000000000568
  0
LINE
  5
FEA
330
18
100
AcDbEntity
  8
目盛
100
AcDbLine
 10
153.4027449263101
 20
138.236803050379
 30
0.0
 11
153.8255177344903
 21
136.5902116764603
 31
0.0
  0
LINE
  5
FEB
330
18
100
AcDbEntity
  8
目盛
100
AcDbLine
 10
152.0152214604778
 20
137.8336902192089
 30
0.0
 11
152.8495673452901
 21
135.265837625212
 31
0.0
  0
LINE
  5
FEC
330
18
100
AcDbEntity
  8
目盛
100
AcDbLine
 10
157.6784303819275
 20
138.9140050982706
 30
0.0
 11
157.7851742651273
 21
137.2173596599426
 31
0.0
  0
LINE
  5
FED
330
18
100
AcDbEntity
  8
目盛
100
AcDbLine
 10
156.2399479591227
 20
138.7780284746534
 30
0.0
 11
156.453014456182
 21
137.0914334824188
 31
0.0
  0
LINE
  5
FEE
330
18
100
AcDbEntity
  8
目盛
100
AcDbLine
 10
154.81284209563
 20
138.5519971111803
 30
0.0
 11
155.1313903304257
 21
136.8821087849415
 31
0.0
  0
LINE
  5
FEF
330
18
100
AcDbEntity
  8
目盛
100
AcDbLine
 10
146.7985960465848
 20
135.3789326309668
 30
0.0
 11
147.709501598049
 21
133.9435751576134
 31
0.0
  0
LINE
  5
FF0
330
18
100
AcDbEntity
  8
目盛
100
AcDbLine
 10
145.6035515283747
 20
134.5667812150441
 30
0.0
 11
147.1905717095643
 21
132.3824353302319
 31
0.0
  0
LINE
  5
FF1
330
18
100
AcDbEntity
  8
目盛
100
AcDbLine
 10
150.6557476193541
 20
137.3442495198502
 30
0.0
 11
151.281559358918
 21
135.7636294938402
 31
0.0
  0
LINE
  5
FF2
330
18
100
AcDbEntity
  8
目盛
100
AcDbLine
 10
149.329688625105
 20
136.7704125511388
 30
0.0
 11
150.0535134207656
 21
135.2322065619467
 31
0.0
  0
LINE
  5
FF3
330
18
100
AcDbEntity
  8
目盛
100
AcDbLine
 10
148.0422778267622
 20
136.1144439854294
 30
0.0
 11
148.8612590727351
 21
134.6247226293548
 31
0.0
  0
LINE
  5
FF4
330
18
100
AcDbEntity
  8
目盛
100
AcDbLine
 10
141.4008077472585
 20
130.6201421086404
 30
0.0
 11
142.7106802599773
 21
129.5365213260676
 31
0.0
  0
LINE
  5
FF5
330
18
100
AcDbEntity
  8
目盛
100
AcDbLine
 10
140.5152214604778
 20
129.4784511471472
 30
0.0
 11
142.69956734529
 21
127.8914309659576
 31
0.0
  0
LINE
  5
FF6
330
18
100
AcDbEntity
  8
目盛
100
AcDbLine
 10
144.4618605668818
 20
133.6811949282636
 30
0.0
 11
145.5454813494545
 21
132.3713224155448
 31
0.0
  0
LINE
  5
FF7
330
18
100
AcDbEntity
  8
目盛
100
AcDbLine
 10
143.3780288947418
 20
132.7256687751129
 30
0.0
 11
144.5417589748205
 21
131.4864221084965
 31
0.0
  0
LINE
  5
FF8
330
18
100
AcDbEntity
  8
目盛
100
AcDbLine
 10
142.3563339004092
 20
131.7039737807804
 30
0.0
 11
143.5955805670256
 21
130.5402437007016
 31
0.0
  0
LINE
  5
FF9
330
18
100
AcDbEntity
  8
目盛
100
AcDbLine
 10
137.7377531556718
 20
124.4262550561682
 30
0.0
 11
139.3183731816818
 21
123.8004433166042
 31
0.0
  0
LINE
  5
FFA
330
18
100
AcDbEntity
  8
目盛
100
AcDbLine
 10
137.248312456313
 20
123.0667812150441
 30
0.0
 11
139.8161650503099
 21
122.2324353302318
 31
0.0
  0
LINE
  5
FFB
330
18
100
AcDbEntity
  8
目盛
100
AcDbLine
 10
139.7030700445553
 20
128.2834066289374
 30
0.0
 11
141.1384275179087
 21
127.3725010774731
 31
0.0
  0
LINE
  5
FFC
330
18
100
AcDbEntity
  8
目盛
100
AcDbLine
 10
138.9675586900927
 20
127.0397248487599
 30
0.0
 11
140.4572800461673
 21
126.220743602787
 31
0.0
  0
LINE
  5
FFD
330
18
100
AcDbEntity
  8
目盛
100
AcDbLine
 10
138.3115901243831
 20
125.7523140504173
 30
0.0
 11
139.8497961135754
 21
125.0284892547566
 31
0.0
  0
LINE
  5
FFE
330
18
100
AcDbEntity
  8
目盛
100
AcDbLine
 10
136.1679975772513
 20
117.4035722935948
 30
0.0
 11
137.8646430155794
 21
117.2968284103949
 31
0.0
  0
LINE
  5
FFF
330
18
100
AcDbEntity
  8
目盛
100
AcDbLine
 10
136.1226123311016
 20
115.9593903444204
 30
0.0
 11
138.8226123311016
 21
115.9593903444204
 31
0.0
  0
LINE
  5
1000
330
18
100
AcDbEntity
  8
目盛
100
AcDbLine
 10
136.8451996251431
 20
121.6792577492121
 30
0.0
 11
138.4917909990617
 21
121.2564849410319
 31
0.0
  0
LINE
  5
1001
330
18
100
AcDbEntity
  8
目盛
100
AcDbLine
 10
136.5300055643418
 20
120.2691605798921
 30
0.0
 11
138.1998938905805
 21
119.9506123450965
 31
0.0
  0
LINE
  5
1002
330
18
100
AcDbEntity
  8
目盛
100
AcDbLine
 10
136.3039742008686
 20
118.8420547163996
 30
0.0
 11
137.9905691931032
 21
118.6289882193402
 31
0.0
  0
LINE
  5
1003
330
18
100
AcDbEntity
  8
目盛
100
AcDbLine
 10
136.8451996251429
 20
110.2395229396289
 30
0.0
 11
138.4917909990616
 21
110.6622957478091
 31
0.0
  0
LINE
  5
1004
330
18
100
AcDbEntity
  8
目盛
100
AcDbLine
 10
137.248312456313
 20
108.8519994737966
 30
0.0
 11
139.8161650503099
 21
109.6863453586089
 31
0.0
  0
LINE
  5
1005
330
18
100
AcDbEntity
  8
目盛
100
AcDbLine
 10
136.1679975772513
 20
114.5152083952463
 30
0.0
 11
137.8646430155793
 21
114.6219522784461
 31
0.0
  0
LINE
  5
1006
330
18
100
AcDbEntity
  8
目盛
100
AcDbLine
 10
136.3039742008686
 20
113.0767259724415
 30
0.0
 11
137.9905691931031
 21
113.2897924695008
 31
0.0
  0
LINE
  5
1007
330
18
100
AcDbEntity
  8
目盛
100
AcDbLine
 10
136.5300055643416
 20
111.6496201089489
 30
0.0
 11
138.1998938905804
 21
111.9681683437446
 31
0.0
  0
LINE
  5
1008
330
18
100
AcDbEntity
  8
目盛
100
AcDbLine
 10
139.7030700445551
 20
103.6353740599037
 30
0.0
 11
141.1384275179086
 21
104.5462796113679
 31
0.0
  0
LINE
  5
1009
330
18
100
AcDbEntity
  8
目盛
100
AcDbLine
 10
140.5152214604778
 20
102.4403295416935
 30
0.0
 11
142.6995673452902
 21
104.0273497228831
 31
0.0
  0
LINE
  5
100A
330
18
100
AcDbEntity
  8
目盛
100
AcDbLine
 10
137.7377531556718
 20
107.4925256326729
 30
0.0
 11
139.3183731816818
 21
108.1183373722369
 31
0.0
  0
LINE
  5
100B
330
18
100
AcDbEntity
  8
目盛
100
AcDbLine
 10
138.3115901243831
 20
106.1664666384238
 30
0.0
 11
139.8497961135753
 21
106.8902914340845
 31
0.0
  0
LINE
  5
100C
330
18
100
AcDbEntity
  8
目盛
100
AcDbLine
 10
138.9675586900926
 20
104.8790558400811
 30
0.0
 11
140.4572800461671
 21
105.698037086054
 31
0.0
  0
LINE
  5
100D
330
18
100
AcDbEntity
  8
目盛
100
AcDbLine
 10
144.4618605668815
 20
98.23758576057741
 30
0.0
 11
145.5454813494543
 21
99.54745827329624
 31
0.0
  0
LINE
  5
100E
330
18
100
AcDbEntity
  8
目盛
100
AcDbLine
 10
145.6035515283746
 20
97.35199947379658
 30
0.0
 11
147.1905717095642
 21
99.53634535860897
 31
0.0
  0
LINE
  5
100F
330
18
100
AcDbEntity
  8
目盛
100
AcDbLine
 10
141.4008077472583
 20
101.2986385802006
 30
0.0
 11
142.7106802599771
 21
102.3822593627734
 31
0.0
  0
LINE
  5
1010
330
18
100
AcDbEntity
  8
目盛
100
AcDbLine
 10
142.356333900409
 20
100.2148069080606
 30
0.0
 11
143.5955805670253
 21
101.3785369881394
 31
0.0
  0
LINE
  5
1011
330
18
100
AcDbEntity
  8
目盛
100
AcDbLine
 10
143.3780288947414
 20
99.19311191372806
 30
0.0
 11
144.5417589748203
 21
100.4323585803445
 31
0.0
  0
LINE
  5
1012
330
18
100
AcDbEntity
  8
目盛
100
AcDbLine
 10
150.6557476193537
 20
94.57453116899069
 30
0.0
 11
151.2815593589177
 21
96.15515119500072
 31
0.0
  0
LINE
  5
1013
330
18
100
AcDbEntity
  8
目盛
100
AcDbLine
 10
152.0152214604777
 20
94.08509046963189
 30
0.0
 11
152.8495673452901
 21
96.65294306362881
 31
0.0
  0
LINE
  5
1014
330
18
100
AcDbEntity
  8
目盛
100
AcDbLine
 10
146.7985960465845
 20
96.53984805787416
 30
0.0
 11
147.7095015980488
 21
97.97520553122758
 31
0.0
  0
LINE
  5
1015
330
18
100
AcDbEntity
  8
目盛
100
AcDbLine
 10
148.042277826762
 20
95.80433670341159
 30
0.0
 11
148.8612590727348
 21
97.29405805948614
 31
0.0
  0
LINE
  5
1016
330
18
100
AcDbEntity
  8
目盛
100
AcDbLine
 10
149.3296886251046
 20
95.14836813770205
 30
0.0
 11
150.0535134207653
 21
96.68657412689425
 31
0.0
  0
LINE
  5
1017
330
18
100
AcDbEntity
  8
目盛
100
AcDbLine
 10
157.6784303819271
 20
93.0047755905702
 30
0.0
 11
157.7851742651271
 21
94.70142102889827
 31
0.0
  0
LINE
  5
1018
330
18
100
AcDbEntity
  8
目盛
100
AcDbLine
 10
159.1226123311016
 20
92.95939034442046
 30
0.0
 11
159.1226123311016
 21
95.65939034442044
 31
0.0
  0
LINE
  5
1019
330
18
100
AcDbEntity
  8
目盛
100
AcDbLine
 10
153.4027449263098
 20
93.681977638462
 30
0.0
 11
153.82551773449
 21
95.32856901238062
 31
0.0
  0
LINE
  5
101A
330
18
100
AcDbEntity
  8
目盛
100
AcDbLine
 10
154.8128420956298
 20
93.36678357766066
 30
0.0
 11
155.1313903304255
 21
95.03667190389938
 31
0.0
  0
LINE
  5
101B
330
18
100
AcDbEntity
  8
目盛
100
AcDbLine
 10
156.2399479591224
 20
93.14075221418745
 30
0.0
 11
156.4530144561817
 21
94.82734720642207
 31
0.0
  0
LINE
  5
101C
330
18
100
AcDbEntity
  8
目盛
100
AcDbLine
 10
164.842479735893
 20
93.68197763846183
 30
0.0
 11
164.4197069277128
 21
95.32856901238051
 31
0.0
  0
LINE
  5
101D
330
18
100
AcDbEntity
  8
目盛
100
AcDbLine
 10
166.2300032017254
 20
94.08509046963189
 30
0.0
 11
165.395657316913
 21
96.65294306362881
 31
0.0
  0
LINE
  5
101E
330
18
100
AcDbEntity
  8
目盛
100
AcDbLine
 10
160.5667942802757
 20
93.0047755905702
 30
0.0
 11
160.4600503970758
 21
94.70142102889827
 31
0.0
  0
LINE
  5
101F
330
18
100
AcDbEntity
  8
目盛
100
AcDbLine
 10
162.0052767030805
 20
93.1407522141875
 30
0.0
 11
161.7922102060211
 21
94.82734720642202
 31
0.0
  0
LINE
  5
1020
330
18
100
AcDbEntity
  8
目盛
100
AcDbLine
 10
163.4323825665731
 20
93.3667835776605
 30
0.0
 11
163.1138343317773
 21
95.03667190389933
 31
0.0
  0
LINE
  5
1021
330
18
100
AcDbEntity
  8
目盛
100
AcDbLine
 10
171.4466286156183
 20
96.53984805787388
 30
0.0
 11
170.535723064154
 21
97.9752055312273
 31
0.0
  0
LINE
  5
1022
330
18
100
AcDbEntity
  8
目盛
100
AcDbLine
 10
172.6416731338284
 20
97.35199947379658
 30
0.0
 11
171.0546529526387
 21
99.53634535860892
 31
0.0
  0
LINE
  5
1023
330
18
100
AcDbEntity
  8
目盛
100
AcDbLine
 10
167.589477042849
 20
94.57453116899058
 30
0.0
 11
166.9636653032851
 21
96.15515119500054
 31
0.0
  0
LINE
  5
1024
330
18
100
AcDbEntity
  8
目盛
100
AcDbLine
 10
168.9155360370981
 20
95.14836813770187
 30
0.0
 11
168.1917112414375
 21
96.68657412689402
 31
0.0
  0
LINE
  5
1025
330
18
100
AcDbEntity
  8
目盛
100
AcDbLine
 10
170.2029468354408
 20
95.80433670341131
 30
0.0
 11
169.3839655894679
 21
97.29405805948591
 31
0.0
  0
LINE
  5
1026
330
18
100
AcDbEntity
  8
目盛
100
AcDbLine
 10
176.8444169149446
 20
101.2986385802004
 30
0.0
 11
175.5345444022258
 21
102.3822593627732
 31
0.0
  0
LINE
  5
1027
330
18
100
AcDbEntity
  8
目盛
100
AcDbLine
 10
177.7300032017253
 20
102.4403295416935
 30
0.0
 11
175.545657316913
 21
104.0273497228831
 31
0.0
  0
LINE
  5
1028
330
18
100
AcDbEntity
  8
目盛
100
AcDbLine
 10
173.7833640953212
 20
98.2375857605772
 30
0.0
 11
172.6997433127485
 21
99.54745827329601
 31
0.0
  0
LINE
  5
1029
330
18
100
AcDbEntity
  8
目盛
100
AcDbLine
 10
174.8671957674613
 20
99.19311191372788
 30
0.0
 11
173.7034656873825
 21
100.4323585803442
 31
0.0
  0
LINE
  5
102A
330
18
100
AcDbEntity
  8
目盛
100
AcDbLine
 10
175.8888907617939
 20
100.2148069080604
 30
0.0
 11
174.6496440951775
 21
101.3785369881392
 31
0.0
  0
LINE
  5
102B
330
18
100
AcDbEntity
  8
目盛
100
AcDbLine
 10
180.5074715065312
 20
107.4925256326726
 30
0.0
 11
178.9268514805212
 21
108.1183373722366
 31
0.0
  0
LINE
  5
102C
330
18
100
AcDbEntity
  8
目盛
100
AcDbLine
 10
180.99691220589
 20
108.8519994737966
 30
0.0
 11
178.4290596118931
 21
109.686345358609
 31
0.0
  0
LINE
  5
102D
330
18
100
AcDbEntity
  8
目盛
100
AcDbLine
 10
178.5421546176477
 20
103.6353740599033
 30
0.0
 11
177.1067971442944
 21
104.5462796113677
 31
0.0
  0
LINE
  5
102E
330
18
100
AcDbEntity
  8
目盛
100
AcDbLine
 10
179.2776659721103
 20
104.8790558400809
 30
0.0
 11
177.7879446160357
 21
105.6980370860537
 31
0.0
  0
LINE
  5
102F
330
18
100
AcDbEntity
  8
目盛
100
AcDbLine
 10
179.9336345378199
 20
106.1664666384235
 30
0.0
 11
178.3954285486276
 21
106.8902914340842
 31
0.0
  0
LINE
  5
1030
330
18
100
AcDbEntity
  8
目盛
100
AcDbLine
 10
182.0772270849518
 20
114.5152083952459
 30
0.0
 11
180.3805816466237
 21
114.6219522784458
 31
0.0
  0
LINE
  5
1031
330
18
100
AcDbEntity
  8
目盛
100
AcDbLine
 10
182.1226123311015
 20
115.9593903444204
 30
0.0
 11
179.4226123311015
 21
115.9593903444204
 31
0.0
  0
LINE
  5
1032
330
18
100
AcDbEntity
  8
目盛
100
AcDbLine
 10
181.40002503706
 20
110.2395229396286
 30
0.0
 11
179.7534336631414
 21
110.6622957478088
 31
0.0
  0
LINE
  5
1033
330
18
100
AcDbEntity
  8
目盛
100
AcDbLine
 10
181.7152190978613
 20
111.6496201089486
 30
0.0
 11
180.0453307716226
 21
111.9681683437443
 31
0.0
  0
LINE
  5
1034
330
18
100
AcDbEntity
  8
目盛
100
AcDbLine
 10
181.9412504613345
 20
113.0767259724412
 30
0.0
 11
180.2546554690999
 21
113.2897924695005
 31
0.0
  0
LINE
  5
1035
330
18
100
AcDbEntity
  8
目盛
100
AcDbLine
 10
181.4000250370602
 20
121.6792577492118
 30
0.0
 11
179.7534336631415
 21
121.2564849410316
 31
0.0
  0
LINE
  5
1036
330
18
100
AcDbEntity
  8
目盛
100
AcDbLine
 10
180.9969122058901
 20
123.0667812150441
 30
0.0
 11
178.4290596118932
 21
122.2324353302318
 31
0.0
  0
LINE
  5
1037
330
18
100
AcDbEntity
  8
目盛
100
AcDbLine
 10
182.0772270849518
 20
117.4035722935945
 30
0.0
 11
180.3805816466238
 21
117.2968284103946
 31
0.0
  0
LINE
  5
1038
330
18
100
AcDbEntity
  8
目盛
100
AcDbLine
 10
181.9412504613345
 20
118.8420547163993
 30
0.0
 11
180.2546554691
 21
118.6289882193398
 31
0.0
  0
LINE
  5
1039
330
18
100
AcDbEntity
  8
目盛
100
AcDbLine
 10
181.7152190978615
 20
120.2691605798918
 30
0.0
 11
180.0453307716227
 21
119.9506123450961
 31
0.0
  0
LINE
  5
103A
330
18
100
AcDbEntity
  8
目盛
100
AcDbLine
 10
178.542154617648
 20
128.2834066289371
 30
0.0
 11
177.1067971442946
 21
127.3725010774728
 31
0.0
  0
LINE
  5
103B
330
18
100
AcDbEntity
  8
目盛
100
AcDbLine
 10
177.7300032017253
 20
129.4784511471472
 30
0.0
 11
175.545657316913
 21
127.8914309659575
 31
0.0
  0
LINE
  5
103C
330
18
100
AcDbEntity
  8
目盛
100
AcDbLine
 10
180.5074715065313
 20
124.4262550561678
 30
0.0
 11
178.9268514805213
 21
123.8004433166039
 31
0.0
  0
LINE
  5
103D
330
18
100
AcDbEntity
  8
目盛
100
AcDbLine
 10
179.93363453782
 20
125.7523140504169
 30
0.0
 11
178.3954285486278
 21
125.0284892547563
 31
0.0
  0
LINE
  5
103E
330
18
100
AcDbEntity
  8
目盛
100
AcDbLine
 10
179.2776659721106
 20
127.0397248487596
 30
0.0
 11
177.787944616036
 21
126.2207436027867
 31
0.0
  0
LINE
  5
103F
330
18
100
AcDbEntity
  8
目盛
100
AcDbLine
 10
173.7833640953216
 20
133.6811949282634
 30
0.0
 11
172.6997433127488
 21
132.3713224155445
 31
0.0
  0
LINE
  5
1040
330
18
100
AcDbEntity
  8
目盛
100
AcDbLine
 10
172.6416731338284
 20
134.5667812150442
 30
0.0
 11
171.0546529526387
 21
132.3824353302318
 31
0.0
  0
LINE
  5
1041
330
18
100
AcDbEntity
  8
目盛
100
AcDbLine
 10
176.8444169149448
 20
130.6201421086401
 30
0.0
 11
175.5345444022259
 21
129.5365213260673
 31
0.0
  0
LINE
  5
1042
330
18
100
AcDbEntity
  8
目盛
100
AcDbLine
 10
175.8888907617941
 20
131.7039737807801
 30
0.0
 11
174.6496440951778
 21
130.5402437007013
 31
0.0
  0
LINE
  5
1043
330
18
100
AcDbEntity
  8
目盛
100
AcDbLine
 10
174.8671957674615
 20
132.7256687751127
 30
0.0
 11
173.7034656873828
 21
131.4864221084963
 31
0.0
  0
LINE
  5
1044
330
18
100
AcDbEntity
  8
目盛
100
AcDbLine
 10
167.5894770428493
 20
137.3442495198501
 30
0.0
 11
166.9636653032853
 21
135.7636294938401
 31
0.0
  0
LINE
  5
1045
330
18
100
AcDbEntity
  8
目盛
100
AcDbLine
 10
166.2300032017253
 20
137.8336902192089
 30
0.0
 11
165.395657316913
 21
135.265837625212
 31
0.0
  0
LINE
  5
1046
330
18
100
AcDbEntity
  8
目盛
100
AcDbLine
 10
171.4466286156186
 20
135.3789326309666
 30
0.0
 11
170.5357230641543
 21
133.9435751576132
 31
0.0
  0
LINE
  5
1047
330
18
100
AcDbEntity
  8
目盛
100
AcDbLine
 10
170.202946835441
 20
136.1144439854291
 30
0.0
 11
169.3839655894682
 21
134.6247226293546
 31
0.0
  0
LINE
  5
1048
330
18
100
AcDbEntity
  8
目盛
100
AcDbLine
 10
168.9155360370984
 20
136.7704125511387
 30
0.0
 11
168.1917112414377
 21
135.2322065619465
 31
0.0
  0
ARC
  5
143B
330
18
100
AcDbEntity
  8
外形線
  6
Continuous
100
AcDbCircle
 10
-26.88629442147362
 20
115.9593903444204
 30
0.0
 40
105.6666666666664
100
AcDbArc
 50
346.3144531747381
 51
13.68554682526192
  0
LINE
  5
143C
330
18
100
AcDbEntity
  8
外形線
  6
Continuous
100
AcDbLine
 10
75.78037224519277
 20
140.9593903444204
 30
0.0
 11
75.78037224519277
 21
90.95939034442039
 31
0.0
  0
LINE
  5
143D
330
18
100
AcDbEntity
  8
外形線
  6
Continuous
100
AcDbLine
 10
74.58037224519273
 20
142.3593903444204
 30
0.0
 11
74.58037224519273
 21
89.55939034442042
 31
0.0
  0
LINE
  5
143E
330
18
100
AcDbEntity
  8
外形線
  6
Continuous
100
AcDbLine
 10
70.78037224519277
 20
142.3593903444204
 30
0.0
 11
70.78037224519277
 21
89.55939034442042
 31
0.0
  0
LINE
  5
143F
330
18
100
AcDbEntity
  8
外形線
  6
Continuous
100
AcDbLine
 10
69.28037224519278
 20
140.9593903444204
 30
0.0
 11
69.28037224519278
 21
90.95939034442039
 31
0.0
  0
LINE
  5
1440
330
18
100
AcDbEntity
  8
外形線
  6
Continuous
100
AcDbLine
 10
74.58037224519273
 20
90.4593903444204
 30
0.0
 11
75.78037224519277
 21
90.95939034442039
 31
0.0
  0
LINE
  5
1441
330
18
100
AcDbEntity
  8
外形線
  6
CENTER2
100
AcDbLine
 10
69.28037224519278
 20
90.95939034442039
 30
0.0
 11
70.78037224519277
 21
90.95939034442039
 31
0.0
  0
LINE
  5
1442
330
18
100
AcDbEntity
  8
外形線
  6
Continuous
100
AcDbLine
 10
74.58037224519273
 20
89.55939034442042
 30
0.0
 11
70.78037224519277
 21
89.55939034442042
 31
0.0
  0
LINE
  5
1443
330
18
100
AcDbEntity
  8
外形線
  6
Continuous
 62
     4
100
AcDbLine
 10
74.58037224519273
 20
93.55939034442043
 30
0.0
 11
70.78037224519277
 21
93.55939034442043
 31
0.0
  0
LINE
  5
1444
330
18
100
AcDbEntity
  8
外形線
  6
Continuous
 62
     4
100
AcDbLine
 10
74.58037224519273
 20
92.55939034442041
 30
0.0
 11
70.78037224519277
 21
92.55939034442041
 31
0.0
  0
LINE
  5
1445
330
18
100
AcDbEntity
  8
外形線
  6
Continuous
 62
     4
100
AcDbLine
 10
74.58037224519273
 20
91.55939034442042
 30
0.0
 11
70.78037224519277
 21
91.55939034442042
 31
0.0
  0
LINE
  5
1446
330
18
100
AcDbEntity
  8
外形線
  6
Continuous
 62
     4
100
AcDbLine
 10
74.58037224519273
 20
90.55939034442042
 30
0.0
 11
70.78037224519277
 21
90.55939034442042
 31
0.0
  0
ARC
  5
1447
330
18
100
AcDbEntity
  8
外形線
  6
Continuous
100
AcDbCircle
 10
64.28037224519266
 20
151.6143903444205
 30
0.0
 40
7.344999999999885
100
AcDbArc
 50
59.75198538337818
 51
120.2480146166212
  0
LINE
  5
1448
330
18
100
AcDbEntity
  8
外形線
  6
Continuous
100
AcDbLine
 10
74.58037224519273
 20
141.4593903444204
 30
0.0
 11
75.78037224519277
 21
140.9593903444204
 31
0.0
  0
LINE
  5
1449
330
18
100
AcDbEntity
  8
外形線
  6
Continuous
 62
     4
100
AcDbLine
 10
74.58037224519273
 20
94.55939034442042
 30
0.0
 11
70.78037224519277
 21
94.55939034442042
 31
0.0
  0
LINE
  5
144A
330
18
100
AcDbEntity
  8
外形線
  6
Continuous
 62
     4
100
AcDbLine
 10
70.78037224519277
 20
113.9593903444204
 30
0.0
 11
74.58037224519273
 21
113.9593903444204
 31
0.0
  0
LINE
  5
144B
330
18
100
AcDbEntity
  8
外形線
  6
Continuous
 62
     4
100
AcDbLine
 10
70.78037224519277
 20
114.9593903444204
 30
0.0
 11
74.58037224519273
 21
114.9593903444204
 31
0.0
  0
LINE
  5
144C
330
18
100
AcDbEntity
  8
外形線
  6
Continuous
 62
     4
100
AcDbLine
 10
70.78037224519277
 20
115.9593903444204
 30
0.0
 11
74.58037224519273
 21
115.9593903444204
 31
0.0
  0
LINE
  5
144D
330
18
100
AcDbEntity
  8
外形線
  6
Continuous
 62
     4
100
AcDbLine
 10
70.78037224519277
 20
116.9593903444204
 30
0.0
 11
74.58037224519273
 21
116.9593903444204
 31
0.0
  0
LINE
  5
144E
330
18
100
AcDbEntity
  8
外形線
  6
Continuous
 62
     4
100
AcDbLine
 10
70.78037224519277
 20
118.9593903444204
 30
0.0
 11
74.58037224519273
 21
118.9593903444204
 31
0.0
  0
LINE
  5
144F
330
18
100
AcDbEntity
  8
外形線
  6
Continuous
 62
     4
100
AcDbLine
 10
70.78037224519277
 20
117.9593903444204
 30
0.0
 11
74.58037224519273
 21
117.9593903444204
 31
0.0
  0
LINE
  5
1450
330
18
100
AcDbEntity
  8
外形線
  6
Continuous
 62
     4
100
AcDbLine
 10
74.58037224519273
 20
137.3593903444203
 30
0.0
 11
70.78037224519277
 21
137.3593903444203
 31
0.0
  0
LINE
  5
1451
330
18
100
AcDbEntity
  8
外形線
  6
Continuous
 62
     4
100
AcDbLine
 10
74.58037224519273
 20
138.3593903444203
 30
0.0
 11
70.78037224519277
 21
138.3593903444203
 31
0.0
  0
LINE
  5
1452
330
18
100
AcDbEntity
  8
外形線
  6
Continuous
 62
     4
100
AcDbLine
 10
74.58037224519273
 20
139.3593903444203
 30
0.0
 11
70.78037224519277
 21
139.3593903444203
 31
0.0
  0
LINE
  5
1453
330
18
100
AcDbEntity
  8
外形線
  6
Continuous
 62
     4
100
AcDbLine
 10
74.58037224519273
 20
140.3593903444203
 30
0.0
 11
70.78037224519277
 21
140.3593903444203
 31
0.0
  0
LINE
  5
1454
330
18
100
AcDbEntity
  8
外形線
  6
Continuous
100
AcDbLine
 10
60.58037224519262
 20
157.9593903444203
 30
0.0
 11
67.98037224519271
 21
157.9593903444203
 31
0.0
  0
LINE
  5
1455
330
18
100
AcDbEntity
  8
外形線
  6
Continuous
100
AcDbLine
 10
60.28037224519266
 20
151.4593903444203
 30
0.0
 11
68.28037224519267
 21
151.4593903444203
 31
0.0
  0
LINE
  5
1456
330
18
100
AcDbEntity
  8
外形線
  6
Continuous
100
AcDbLine
 10
60.28037224519266
 20
145.4593903444203
 30
0.0
 11
68.28037224519267
 21
145.4593903444203
 31
0.0
  0
LINE
  5
1457
330
18
100
AcDbEntity
  8
外形線
  6
Continuous
100
AcDbLine
 10
60.28037224519266
 20
151.4593903444203
 30
0.0
 11
60.28037224519266
 21
145.4593903444203
 31
0.0
  0
LINE
  5
1458
330
18
100
AcDbEntity
  8
外形線
  6
Continuous
100
AcDbLine
 10
60.58037224519262
 20
145.4593903444203
 30
0.0
 11
60.58037224519262
 21
141.1895310495373
 31
0.0
  0
LINE
  5
1459
330
18
100
AcDbEntity
  8
外形線
  6
Continuous
100
AcDbLine
 10
60.58037224519262
 20
157.9593903444203
 30
0.0
 11
60.58037224519262
 21
151.4593903444203
 31
0.0
  0
LINE
  5
145A
330
18
100
AcDbEntity
  8
外形線
  6
Continuous
100
AcDbLine
 10
68.28037224519267
 20
151.4593903444203
 30
0.0
 11
68.28037224519267
 21
145.4593903444203
 31
0.0
  0
LINE
  5
145B
330
18
100
AcDbEntity
  8
外形線
  6
CENTER2
100
AcDbLine
 10
69.28037224519278
 20
140.9593903444204
 30
0.0
 11
70.78037224519277
 21
140.9593903444204
 31
0.0
  0
LINE
  5
145C
330
18
100
AcDbEntity
  8
外形線
  6
Continuous
100
AcDbLine
 10
67.98037224519271
 20
145.4593903444203
 30
0.0
 11
67.98037224519271
 21
141.1895310495373
 31
0.0
  0
LINE
  5
145D
330
18
100
AcDbEntity
  8
外形線
  6
Continuous
 62
     4
100
AcDbLine
 10
74.58037224519273
 20
141.3593903444203
 30
0.0
 11
70.78037224519277
 21
141.3593903444203
 31
0.0
  0
LINE
  5
145E
330
18
100
AcDbEntity
  8
外形線
  6
Continuous
100
AcDbLine
 10
74.58037224519273
 20
142.3593903444204
 30
0.0
 11
70.78037224519277
 21
142.3593903444204
 31
0.0
  0
LINE
  5
145F
330
18
100
AcDbEntity
  8
外形線
  6
Continuous
100
AcDbLine
 10
67.98037224519271
 20
157.9593903444203
 30
0.0
 11
67.98037224519271
 21
151.4593903444203
 31
0.0
  0
MTEXT
  5
1461
330
18
100
AcDbEntity
  8
DEFPOINTS
  6
Continuous
100
AcDbMText
 10
859.462339754299
 20
192.7492810579137
 30
0.0
 40
1.0
 41
0.0
 71
     4
 72
     1
  1
\A1;
 73
     1
 44
1.0
  0
MTEXT
  5
14BC
330
18
100
AcDbEntity
  8
文字
100
AcDbMText
 10
426.6015493122985
 20
218.8272632961478
 30
0.0
 40
1.0
 41
6.927999999999999
 71
     1
 72
     5
  1

  7
STYLE3
 73
     1
 44
1.0
  0
MTEXT
  5
151D
330
18
100
AcDbEntity
  8
DEFPOINTS
  6
Continuous
100
AcDbMText
 10
748.3373589674401
 20
142.0748145835986
 30
0.0
 40
0.35
 41
0.0
 71
     4
 72
     1
  1
\A1;
 73
     1
 44
1.0
  0
MTEXT
  5
1579
330
18
100
AcDbEntity
  8
DEFPOINTS
  6
Continuous
100
AcDbMText
 10
1359.9009871264
 20
367.9624695669154
 30
0.0
 40
1.0
 41
0.0
 71
     4
 72
     1
  1
\A1;
 73
     1
 44
1.0
  0
MTEXT
  5
157A
330
18
100
AcDbEntity
  8
文字
100
AcDbMText
 10
927.0401966843992
 20
394.0404518051495
 30
0.0
 40
1.0
 41
6.927999999999999
 71
     1
 72
     5
  1

  7
STYLE3
 73
     1
 44
1.0
  0
MTEXT
  5
157B
330
18
100
AcDbEntity
  8
DEFPOINTS
  6
Continuous
100
AcDbMText
 10
1248.776006339541
 20
317.2880030926003
 30
0.0
 40
0.35
 41
0.0
 71
     4
 72
     1
  1
\A1;
 73
     1
 44
1.0
  0
POINT
  5
158E
330
18
100
AcDbEntity
  8
DEFPOINTS
  6
ByBlock
 62
     0
100
AcDbPoint
 10
78.78037224519278
 20
115.9593903444204
 30
0.0
  0
POINT
  5
158F
330
18
100
AcDbEntity
  8
DEFPOINTS
  6
ByBlock
 62
     0
100
AcDbPoint
 10
64.28037224519266
 20
158.9593903444203
 30
0.0
  0
LINE
  5
162D
330
18
100
AcDbEntity
  8
隠れ線2
 48
0.5
100
AcDbLine
 10
161.0976123311015
 20
52.25939034442039
 30
0.0
 11
161.0976123311015
 21
42.25939034442038
 31
0.0
  0
LINE
  5
162E
330
18
100
AcDbEntity
  8
隠れ線2
 48
0.5
100
AcDbLine
 10
157.1476123311015
 20
52.25939034442041
 30
0.0
 11
157.1476123311015
 21
42.25939034442039
 31
0.0
  0
LINE
  5
1660
330
18
100
AcDbEntity
  8
外形線
100
AcDbLine
 10
161.1226123311015
 20
76.9593903444204
 30
0.0
 11
161.1226123311015
 21
60.95939034442038
 31
0.0
  0
LINE
  5
1661
330
18
100
AcDbEntity
  8
外形線
100
AcDbLine
 10
157.1226123311015
 20
76.9593903444204
 30
0.0
 11
157.1226123311016
 21
60.95939034442037
 31
0.0
  0
ARC
  5
1682
330
18
100
AcDbEntity
  8
外形線
100
AcDbCircle
 10
162.3290878477735
 20
47.62003721827733
 30
0.0
 40
2.641200378699647
100
AcDbArc
 50
87.85698402593748
 51
140.4976314668953
  0
ARC
  5
1683
330
18
100
AcDbEntity
  8
外形線
100
AcDbCircle
 10
162.3290878477735
 20
81.59874347056343
 30
0.0
 40
2.641200378699647
100
AcDbArc
 50
219.5023685331047
 51
272.1430159740626
  0
LINE
  5
16D7
330
18
100
AcDbEntity
  8
隠れ線2
 48
0.5
100
AcDbLine
 10
66.25537224519264
 20
52.25939034442039
 30
0.0
 11
66.25537224519263
 21
42.25939034442038
 31
0.0
  0
LINE
  5
16D8
330
18
100
AcDbEntity
  8
隠れ線2
 48
0.5
100
AcDbLine
 10
62.30537224519267
 20
52.25939034442041
 30
0.0
 11
62.30537224519264
 21
42.25939034442039
 31
0.0
  0
LINE
  5
16D9
330
18
100
AcDbEntity
  8
外形線
100
AcDbLine
 10
66.28037224519267
 20
76.9593903444204
 30
0.0
 11
66.28037224519268
 21
60.95939034442038
 31
0.0
  0
LINE
  5
16DA
330
18
100
AcDbEntity
  8
外形線
100
AcDbLine
 10
62.28037224519268
 20
76.9593903444204
 30
0.0
 11
62.28037224519269
 21
60.95939034442037
 31
0.0
  0
LINE
  5
16DB
330
18
100
AcDbEntity
  8
外形線
 48
0.5
100
AcDbLine
 10
68.28037224519263
 20
58.75939034442038
 30
0.0
 11
69.28037224519264
 21
57.75939034442038
 31
0.0
  0
LINE
  5
16DC
330
18
100
AcDbEntity
  8
外形線
100
AcDbLine
 10
59.28037224519268
 20
57.75939034442038
 30
0.0
 11
69.28037224519264
 21
57.75939034442038
 31
0.0
  0
LINE
  5
16DD
330
18
100
AcDbEntity
  8
外形線
100
AcDbLine
 10
59.28037224519268
 20
53.75939034442038
 30
0.0
 11
69.28037224519264
 21
53.7593903444204
 31
0.0
  0
LINE
  5
16DE
330
18
100
AcDbEntity
  8
外形線
 48
0.5
100
AcDbLine
 10
68.28037224519263
 20
52.75939034442039
 30
0.0
 11
69.28037224519264
 21
53.7593903444204
 31
0.0
  0
LINE
  5
16DF
330
18
100
AcDbEntity
  8
外形線
100
AcDbLine
 10
59.28037224519266
 20
55.75939034442038
 30
0.0
 11
69.28037224519264
 21
55.75939034442038
 31
0.0
  0
LINE
  5
16E0
330
18
100
AcDbEntity
  8
外形線
100
AcDbLine
 10
60.28037224519268
 20
58.75939034442038
 30
0.0
 11
68.28037224519263
 21
58.75939034442038
 31
0.0
  0
LINE
  5
16E1
330
18
100
AcDbEntity
  8
外形線
100
AcDbLine
 10
60.28037224519268
 20
52.75939034442038
 30
0.0
 11
68.28037224519263
 21
52.75939034442039
 31
0.0
  0
LINE
  5
16E2
330
18
100
AcDbEntity
  8
外形線
100
AcDbLine
 10
59.28037224519266
 20
55.75939034442038
 30
0.0
 11
59.28037224519268
 21
57.75939034442038
 31
0.0
  0
LINE
  5
16E3
330
18
100
AcDbEntity
  8
外形線
100
AcDbLine
 10
59.28037224519266
 20
55.75939034442038
 30
0.0
 11
59.28037224519268
 21
53.75939034442038
 31
0.0
  0
LINE
  5
16E4
330
18
100
AcDbEntity
  8
外形線
100
AcDbLine
 10
59.28037224519268
 20
53.75939034442038
 30
0.0
 11
60.28037224519268
 21
52.75939034442038
 31
0.0
  0
LINE
  5
16E5
330
18
100
AcDbEntity
  8
外形線
100
AcDbLine
 10
59.28037224519268
 20
57.75939034442038
 30
0.0
 11
60.28037224519268
 21
58.75939034442038
 31
0.0
  0
LINE
  5
16E6
330
18
100
AcDbEntity
  8
外形線
100
AcDbLine
 10
61.53037224519268
 20
52.25939034442041
 30
0.0
 11
67.03037224519267
 21
52.25939034442041
 31
0.0
  0
LINE
  5
16E7
330
18
100
AcDbEntity
  8
外形線
100
AcDbLine
 10
61.33037224519267
 20
52.75939034442038
 30
0.0
 11
61.33037224519267
 21
52.4593903444204
 31
0.0
  0
LINE
  5
16E8
330
18
100
AcDbEntity
  8
外形線
100
AcDbLine
 10
61.33037224519267
 20
52.4593903444204
 30
0.0
 11
61.53037224519268
 21
52.25939034442041
 31
0.0
  0
LINE
  5
16E9
330
18
100
AcDbEntity
  8
外形線
100
AcDbLine
 10
67.23037224519266
 20
52.75939034442038
 30
0.0
 11
67.23037224519266
 21
52.4593903444204
 31
0.0
  0
LINE
  5
16EA
330
18
100
AcDbEntity
  8
外形線
 48
0.5
100
AcDbLine
 10
67.03037224519267
 20
52.25939034442041
 30
0.0
 11
67.23037224519266
 21
52.4593903444204
 31
0.0
  0
LINE
  5
16EB
330
18
100
AcDbEntity
  8
外形線
100
AcDbLine
 10
61.28037224519265
 20
58.75939034442038
 30
0.0
 11
67.28037224519266
 21
58.7593903444204
 31
0.0
  0
LINE
  5
16EC
330
18
100
AcDbEntity
  8
外形線
100
AcDbLine
 10
61.58037224519265
 20
60.95939034442037
 30
0.0
 11
66.98037224519268
 21
60.95939034442038
 31
0.0
  0
LINE
  5
16ED
330
18
100
AcDbEntity
  8
外形線
100
AcDbLine
 10
61.28037224519265
 20
60.65939034442037
 30
0.0
 11
61.58037224519265
 21
60.95939034442037
 31
0.0
  0
LINE
  5
16EE
330
18
100
AcDbEntity
  8
外形線
100
AcDbLine
 10
61.28037224519265
 20
60.65939034442037
 30
0.0
 11
61.28037224519265
 21
58.75939034442038
 31
0.0
  0
LINE
  5
16EF
330
18
100
AcDbEntity
  8
外形線
 48
0.5
100
AcDbLine
 10
66.98037224519268
 20
60.95939034442038
 30
0.0
 11
67.28037224519268
 21
60.65939034442038
 31
0.0
  0
LINE
  5
16F0
330
18
100
AcDbEntity
  8
外形線
100
AcDbLine
 10
67.28037224519268
 20
60.65939034442038
 30
0.0
 11
67.28037224519266
 21
58.7593903444204
 31
0.0
  0
LINE
  5
16F1
330
18
100
AcDbEntity
  8
外形線
100
AcDbLine
 10
69.28037224519264
 20
55.7593903444204
 30
0.0
 11
69.28037224519264
 21
57.75939034442038
 31
0.0
  0
LINE
  5
16F2
330
18
100
AcDbEntity
  8
外形線
100
AcDbLine
 10
69.28037224519264
 20
55.75939034442038
 30
0.0
 11
69.28037224519264
 21
53.7593903444204
 31
0.0
  0
ARC
  5
1723
330
18
100
AcDbEntity
  8
外形線
100
AcDbCircle
 10
64.28037224519266
 20
115.9593903444204
 30
0.0
 40
25.5
100
AcDbArc
 50
255.9282220339266
 51
281.3077294341376
  0
LINE
  5
1724
330
18
100
AcDbEntity
  8
外形線
100
AcDbLine
 10
58.08037224519266
 20
140.694183652633
 30
0.0
 11
58.08037224519266
 21
91.22459703620776
 31
0.0
  0
ARC
  5
1727
330
18
100
AcDbEntity
  8
外形線
100
AcDbCircle
 10
64.28037224519266
 20
115.9593903444204
 30
0.0
 40
25.5
100
AcDbArc
 50
78.69227056586237
 51
104.0717779660734
  0
ARC
  5
172A
330
18
100
AcDbEntity
  8
外形線
100
AcDbCircle
 10
64.28037224519266
 20
40.0093903444204
 30
0.0
 40
1.75
100
AcDbArc
 50
180.0
 51
0.0
  0
LINE
  5
172B
330
18
100
AcDbEntity
  8
外形線
100
AcDbLine
 10
66.03037224519266
 20
42.22027020279596
 30
0.0
 11
66.03037224519266
 21
40.0093903444204
 31
0.0
  0
LINE
  5
172C
330
18
100
AcDbEntity
  8
外形線
100
AcDbLine
 10
62.53037224519266
 20
42.22027020279592
 30
0.0
 11
62.53037224519267
 21
40.0093903444204
 31
0.0
  0
LINE
  5
17A4
330
18
100
AcDbEntity
  8
0
  6
ByBlock
 62
     2
100
AcDbLine
 10
148.4091471999799
 20
52.25939034442039
 30
0.0
 11
132.0804856767635
 21
52.25939034442039
 31
0.0
  0
LINE
  5
17A5
330
18
100
AcDbEntity
  8
0
  6
ByBlock
 62
     2
100
AcDbLine
 10
133.3304856767635
 20
58.25939034442038
 30
0.0
 11
133.3304856767635
 21
60.7593903444204
 31
0.0
  0
LINE
  5
17A6
330
18
100
AcDbEntity
  8
0
  6
ByBlock
 62
     2
100
AcDbLine
 10
133.3304856767635
 20
49.75939034442039
 30
0.0
 11
133.3304856767635
 21
47.25939034442039
 31
0.0
  0
MTEXT
  5
17A9
330
18
100
AcDbEntity
  8
0
  6
ByBlock
 62
     6
100
AcDbMText
 10
129.8929856767635
 20
51.61830421109509
 30
0.0
 40
2.5
 41
0.0
 71
     4
 72
     1
  1
\A1;3.5
  7
STYLE3
 11
0.0000000000000001
 21
1.0
 31
0.0
 73
     1
 44
1.0
  0
LINE
  5
17AA
330
18
100
AcDbEntity
  8
0
  6
ByBlock
 62
     2
100
AcDbLine
 10
133.3304856767635
 20
55.75939034442038
 30
0.0
 11
133.3304856767635
 21
52.25939034442039
 31
0.0
  0
LINE
  5
17AB
330
18
100
AcDbEntity
  8
0
  6
ByBlock
 62
     2
100
AcDbLine
 10
133.3304856767635
 20
55.75939034442038
 30
0.0
 11
133.3304856767635
 21
52.25939034442039
 31
0.0
  0
INSERT
  5
17AC
330
18
100
AcDbEntity
  8
0
  6
ByBlock
 62
     2
100
AcDbBlockReference
  2
_OPEN
 10
133.3304856767635
 20
55.75939034442038
 30
0.0
 41
2.5
 42
2.5
 43
2.5
 50
270.0
  0
INSERT
  5
17AD
330
18
100
AcDbEntity
  8
0
  6
ByBlock
 62
     2
100
AcDbBlockReference
  2
_OPEN
 10
133.3304856767635
 20
52.25939034442039
 30
0.0
 41
2.5
 42
2.5
 43
2.5
 50
90.0
  0
POINT
  5
17AF
330
18
100
AcDbEntity
  8
DEFPOINTS
  6
ByBlock
 62
     0
100
AcDbPoint
 10
148.4091471999799
 20
52.25939034442039
 30
0.0
  0
POINT
  5
17B0
330
18
100
AcDbEntity
  8
DEFPOINTS
  6
ByBlock
 62
     0
100
AcDbPoint
 10
133.3304856767635
 20
52.25939034442039
 30
0.0
  0
LINE
  5
17B1
330
18
100
AcDbEntity
  8
0
  6
ByBlock
 62
     2
100
AcDbLine
 10
133.7568534401708
 20
76.9593903444204
 30
0.0
 11
132.0804856767635
 21
76.9593903444204
 31
0.0
  0
LINE
  5
17B2
330
18
100
AcDbEntity
  8
0
  6
ByBlock
 62
     2
100
AcDbLine
 10
154.1226123311015
 20
55.75939034442038
 30
0.0
 11
132.0804856767635
 21
55.75939034442038
 31
0.0
  0
LINE
  5
17B3
330
18
100
AcDbEntity
  8
0
  6
ByBlock
 62
     2
100
AcDbLine
 10
133.3304856767635
 20
74.4593903444204
 30
0.0
 11
133.3304856767635
 21
58.25939034442038
 31
0.0
  0
INSERT
  5
17B4
330
18
100
AcDbEntity
  8
0
  6
ByBlock
 62
     2
100
AcDbBlockReference
  2
_OPEN
 10
133.3304856767635
 20
76.9593903444204
 30
0.0
 41
2.5
 42
2.5
 43
2.5
 50
90.0
  0
INSERT
  5
17B5
330
18
100
AcDbEntity
  8
0
  6
ByBlock
 62
     2
100
AcDbBlockReference
  2
_OPEN
 10
133.3304856767635
 20
55.75939034442038
 30
0.0
 41
2.5
 42
2.5
 43
2.5
 50
270.0
  0
MTEXT
  5
17B6
330
18
100
AcDbEntity
  8
0
  6
ByBlock
 62
     6
100
AcDbMText
 10
131.4554856767635
 20
66.3593903444204
 30
0.0
 40
2.5
 41
0.0
 71
     5
 72
     1
  1
\A1;21.2
  7
STYLE3
 11
0.0000000000000001
 21
1.0
 31
0.0
 73
     1
 44
1.0
  0
POINT
  5
17B7
330
18
100
AcDbEntity
  8
DEFPOINTS
  6
ByBlock
 62
     0
100
AcDbPoint
 10
133.7568534401708
 20
76.9593903444204
 30
0.0
  0
POINT
  5
17B9
330
18
100
AcDbEntity
  8
DEFPOINTS
  6
ByBlock
 62
     0
100
AcDbPoint
 10
133.3304856767635
 20
55.75939034442038
 30
0.0
  0
LINE
  5
17E3
330
18
100
AcDbEntity
  8
0
  6
ByBlock
 62
     2
100
AcDbLine
 10
58.08037224519266
 20
140.694183652633
 30
0.0
 11
58.08037224519266
 21
166.2414053187302
 31
0.0
  0
LINE
  5
17E4
330
18
100
AcDbEntity
  8
0
  6
ByBlock
 62
     2
100
AcDbLine
 10
64.28037224519266
 20
160.765379870386
 30
0.0
 11
64.28037224519266
 21
166.2414053187302
 31
0.0
  0
LINE
  5
17E5
330
18
100
AcDbEntity
  8
0
  6
ByBlock
 62
     2
100
AcDbLine
 10
55.58037224519266
 20
164.9914053187302
 30
0.0
 11
53.08037224519266
 21
164.9914053187302
 31
0.0
  0
LINE
  5
17E6
330
18
100
AcDbEntity
  8
0
  6
ByBlock
 62
     2
100
AcDbLine
 10
66.78037224519266
 20
164.9914053187302
 30
0.0
 11
75.64941986424028
 21
164.9914053187302
 31
0.0
  0
LINE
  5
17E7
330
18
100
AcDbEntity
  8
0
  6
ByBlock
 62
     2
100
AcDbLine
 10
58.08037224519266
 20
164.9914053187302
 30
0.0
 11
64.28037224519266
 21
164.9914053187302
 31
0.0
  0
INSERT
  5
17E8
330
18
100
AcDbEntity
  8
0
  6
ByBlock
 62
     2
100
AcDbBlockReference
  2
_OPEN
 10
58.08037224519266
 20
164.9914053187302
 30
0.0
 41
2.5
 42
2.5
 43
2.5
  0
INSERT
  5
17E9
330
18
100
AcDbEntity
  8
0
  6
ByBlock
 62
     2
100
AcDbBlockReference
  2
_OPEN
 10
64.28037224519266
 20
164.9914053187302
 30
0.0
 41
2.5
 42
2.5
 43
2.5
 50
180.0
  0
MTEXT
  5
17EA
330
18
100
AcDbEntity
  8
0
  6
ByBlock
 62
     6
100
AcDbMText
 10
61.19536292120422
 20
166.8664053187302
 30
0.0
 40
2.5
 41
0.0
 71
     5
 72
     1
  1
\A1;6.2
  7
STYLE3
 73
     1
 44
1.0
  0
POINT
  5
17EB
330
18
100
AcDbEntity
  8
DEFPOINTS
  6
ByBlock
 62
     0
100
AcDbPoint
 10
58.08037224519266
 20
140.694183652633
 30
0.0
  0
POINT
  5
17EC
330
18
100
AcDbEntity
  8
DEFPOINTS
  6
ByBlock
 62
     0
100
AcDbPoint
 10
64.28037224519266
 20
160.765379870386
 30
0.0
  0
POINT
  5
17ED
330
18
100
AcDbEntity
  8
DEFPOINTS
  6
ByBlock
 62
     0
100
AcDbPoint
 10
64.28037224519266
 20
164.9914053187302
 30
0.0
  0
LINE
  5
184D
330
18
100
AcDbEntity
  8
0
  6
ByBlock
 62
     2
100
AcDbLine
 10
154.1226123311015
 20
57.75939034442038
 30
0.0
 11
154.1226123311015
 21
64.83883809903762
 31
0.0
  0
LINE
  5
184E
330
18
100
AcDbEntity
  8
0
  6
ByBlock
 62
     2
100
AcDbLine
 10
164.1226123311015
 20
57.75939034442038
 30
0.0
 11
164.1226123311015
 21
64.83883809903762
 31
0.0
  0
LINE
  5
184F
330
18
100
AcDbEntity
  8
0
  6
ByBlock
 62
     2
100
AcDbLine
 10
156.6226123311015
 20
63.58883809903762
 30
0.0
 11
161.6226123311015
 21
63.58883809903762
 31
0.0
  0
LINE
  5
1850
330
18
100
AcDbEntity
  8
0
  6
ByBlock
 62
     2
100
AcDbLine
 10
164.1226123311015
 20
63.58883809903762
 30
0.0
 11
177.8426277243358
 21
63.58883809903762
 31
0.0
  0
INSERT
  5
1851
330
18
100
AcDbEntity
  8
0
  6
ByBlock
 62
     2
100
AcDbBlockReference
  2
_OPEN
 10
154.1226123311015
 20
63.58883809903762
 30
0.0
 41
2.5
 42
2.5
 43
2.5
 50
180.0
  0
INSERT
  5
1852
330
18
100
AcDbEntity
  8
0
  6
ByBlock
 62
     2
100
AcDbBlockReference
  2
_OPEN
 10
164.1226123311015
 20
63.58883809903762
 30
0.0
 41
2.5
 42
2.5
 43
2.5
  0
MTEXT
  5
1853
330
18
100
AcDbEntity
  8
0
  6
ByBlock
 62
     6
100
AcDbMText
 10
170.9591612583295
 20
65.46383809903762
 30
0.0
 40
2.5
 41
0.0
 71
     5
 72
     1
  1
\A1;2-φ10
  7
STYLE3
 73
     1
 44
1.0
  0
POINT
  5
1856
330
18
100
AcDbEntity
  8
DEFPOINTS
  6
ByBlock
 62
     0
100
AcDbPoint
 10
164.1226123311015
 20
63.58883809903762
 30
0.0
  0
LINE
  5
1873
330
18
100
AcDbEntity
  8
0
  6
ByBlock
 62
     2
100
AcDbLine
 10
78.78037224519281
 20
115.9593903444204
 30
0.0
 11
78.78037224519281
 21
166.2414053187302
 31
0.0
  0
LINE
  5
1874
330
18
100
AcDbEntity
  8
0
  6
ByBlock
 62
     2
100
AcDbLine
 10
66.78037224519266
 20
164.9914053187302
 30
0.0
 11
76.28037224519281
 21
164.9914053187302
 31
0.0
  0
INSERT
  5
1875
330
18
100
AcDbEntity
  8
0
  6
ByBlock
 62
     2
100
AcDbBlockReference
  2
_OPEN
 10
64.28037224519266
 20
164.9914053187302
 30
0.0
 41
2.5
 42
2.5
 43
2.5
 50
180.0
  0
INSERT
  5
1876
330
18
100
AcDbEntity
  8
0
  6
ByBlock
 62
     2
100
AcDbBlockReference
  2
_OPEN
 10
78.78037224519281
 20
164.9914053187302
 30
0.0
 41
2.5
 42
2.5
 43
2.5
  0
MTEXT
  5
1877
330
18
100
AcDbEntity
  8
0
  6
ByBlock
 62
     6
100
AcDbMText
 10
71.53037224519273
 20
166.8664053187302
 30
0.0
 40
2.5
 41
0.0
 71
     5
 72
     1
  1
\A1;14.5
  7
STYLE3
 73
     1
 44
1.0
  0
POINT
  5
1878
330
18
100
AcDbEntity
  8
DEFPOINTS
  6
ByBlock
 62
     0
100
AcDbPoint
 10
64.28037224519266
 20
160.765379870386
 30
0.0
  0
POINT
  5
1879
330
18
100
AcDbEntity
  8
DEFPOINTS
  6
ByBlock
 62
     0
100
AcDbPoint
 10
78.78037224519281
 20
115.9593903444204
 30
0.0
  0
POINT
  5
187A
330
18
100
AcDbEntity
  8
DEFPOINTS
  6
ByBlock
 62
     0
100
AcDbPoint
 10
78.78037224519281
 20
164.9914053187302
 30
0.0
  0
LINE
  5
187B
330
18
100
AcDbEntity
  8
0
  6
ByBlock
 62
     2
100
AcDbLine
 10
123.8899874426784
 20
158.9593903444204
 30
0.0
 11
116.5378761179943
 21
158.9593903444204
 31
0.0
  0
LINE
  5
187C
330
18
100
AcDbEntity
  8
0
  6
ByBlock
 62
     2
100
AcDbLine
 10
123.8899874426783
 20
38.2593903444204
 30
0.0
 11
116.5378761179943
 21
38.2593903444204
 31
0.0
  0
LINE
  5
187D
330
18
100
AcDbEntity
  8
0
  6
ByBlock
 62
     2
100
AcDbLine
 10
117.7878761179943
 20
156.4593903444204
 30
0.0
 11
117.7878761179943
 21
40.75939034442039
 31
0.0
  0
INSERT
  5
187E
330
18
100
AcDbEntity
  8
0
  6
ByBlock
 62
     2
100
AcDbBlockReference
  2
_OPEN
 10
117.7878761179943
 20
158.9593903444204
 30
0.0
 41
2.5
 42
2.5
 43
2.5
 50
90.0
  0
INSERT
  5
187F
330
18
100
AcDbEntity
  8
0
  6
ByBlock
 62
     2
100
AcDbBlockReference
  2
_OPEN
 10
117.7878761179943
 20
38.2593903444204
 30
0.0
 41
2.5
 42
2.5
 43
2.5
 50
270.0
  0
MTEXT
  5
1880
330
18
100
AcDbEntity
  8
0
  6
ByBlock
 62
     6
100
AcDbMText
 10
115.9128761179943
 20
98.6093903444204
 30
0.0
 40
2.5
 41
0.0
 71
     5
 72
     1
  1
\A1;120.7
  7
STYLE3
 11
0.0000000000000001
 21
1.0
 31
0.0
 73
     1
 44
1.0
  0
POINT
  5
1881
330
18
100
AcDbEntity
  8
DEFPOINTS
  6
ByBlock
 62
     0
100
AcDbPoint
 10
123.8899874426784
 20
158.9593903444204
 30
0.0
  0
POINT
  5
1882
330
18
100
AcDbEntity
  8
DEFPOINTS
  6
ByBlock
 62
     0
100
AcDbPoint
 10
123.8899874426783
 20
38.2593903444204
 30
0.0
  0
POINT
  5
1883
330
18
100
AcDbEntity
  8
DEFPOINTS
  6
ByBlock
 62
     0
100
AcDbPoint
 10
117.7878761179943
 20
38.2593903444204
 30
0.0
  0
LINE
  5
1884
330
18
100
AcDbEntity
  8
0
  6
ByBlock
 62
     2
100
AcDbLine
 10
159.1226123311015
 20
158.9593903444204
 30
0.0
 11
123.8899874426784
 21
158.9593903444204
 31
0.0
  0
LINE
  5
1885
330
18
100
AcDbEntity
  8
0
  6
ByBlock
 62
     2
100
AcDbLine
 10
132.7226123311015
 20
115.9593903444204
 30
0.0
 11
123.8899874426784
 21
115.9593903444204
 31
0.0
  0
LINE
  5
1886
330
18
100
AcDbEntity
  8
0
  6
ByBlock
 62
     2
100
AcDbLine
 10
125.1399874426784
 20
156.4593903444204
 30
0.0
 11
125.1399874426784
 21
118.4593903444204
 31
0.0
  0
INSERT
  5
1887
330
18
100
AcDbEntity
  8
0
  6
ByBlock
 62
     2
100
AcDbBlockReference
  2
_OPEN
 10
125.1399874426784
 20
158.9593903444204
 30
0.0
 41
2.5
 42
2.5
 43
2.5
 50
90.0
  0
INSERT
  5
1888
330
18
100
AcDbEntity
  8
0
  6
ByBlock
 62
     2
100
AcDbBlockReference
  2
_OPEN
 10
125.1399874426784
 20
115.9593903444204
 30
0.0
 41
2.5
 42
2.5
 43
2.5
 50
270.0
  0
MTEXT
  5
1889
330
18
100
AcDbEntity
  8
0
  6
ByBlock
 62
     6
100
AcDbMText
 10
123.2649874426783
 20
137.4593903444204
 30
0.0
 40
2.5
 41
0.0
 71
     5
 72
     1
  1
\A1;43
  7
STYLE3
 11
0.0000000000000001
 21
1.0
 31
0.0
 73
     1
 44
1.0
  0
POINT
  5
188A
330
18
100
AcDbEntity
  8
DEFPOINTS
  6
ByBlock
 62
     0
100
AcDbPoint
 10
159.1226123311015
 20
158.9593903444204
 30
0.0
  0
POINT
  5
188B
330
18
100
AcDbEntity
  8
DEFPOINTS
  6
ByBlock
 62
     0
100
AcDbPoint
 10
132.7226123311015
 20
115.9593903444204
 30
0.0
  0
POINT
  5
188C
330
18
100
AcDbEntity
  8
DEFPOINTS
  6
ByBlock
 62
     0
100
AcDbPoint
 10
125.1399874426784
 20
115.9593903444204
 30
0.0
  0
LINE
  5
188D
330
18
100
AcDbEntity
  8
外形線
100
AcDbLine
 10
177.3791323695866
 20
135.029248133203
 30
0.0
 11
179.5971944029868
 21
142.7090504499582
 31
0.0
  0
LINE
  5
188E
330
18
100
AcDbEntity
  8
外形線
100
AcDbLine
 10
173.8366978858373
 20
137.8786897467261
 30
0.0
 11
178.1505114796302
 21
143.4505038830189
 31
0.0
  0
LINE
  5
188F
330
18
100
AcDbEntity
  8
外形線
100
AcDbLine
 10
177.3415789225064
 20
141.8960998766068
 30
0.0
 11
192.0847038923149
 21
147.2096969860942
 31
0.0
  0
LINE
  5
1890
330
18
100
AcDbEntity
  8
外形線
100
AcDbLine
 10
179.0538132323688
 20
144.1076584256514
 30
0.0
 11
191.5761102086839
 21
148.620842784717
 31
0.0
  0
ARC
  5
1891
330
18
100
AcDbEntity
  8
外形線
100
AcDbCircle
 10
178.0197038340143
 20
140.0145721451099
 30
0.0
 40
2.0
100
AcDbArc
 50
109.8197641089328
 51
142.2522235389748
  0
ARC
  5
1892
330
18
100
AcDbEntity
  8
外形線
100
AcDbCircle
 10
181.2354659482127
 20
141.1735709536932
 30
0.0
 40
2.0
100
AcDbArc
 50
109.819764108933
 51
163.8903520418817
  0
ARC
  5
1893
330
18
100
AcDbEntity
  8
外形線
100
AcDbCircle
 10
179.7319381438768
 20
142.2261306941544
 30
0.0
 40
2.0
100
AcDbArc
 50
109.8197641089327
 51
142.2522235389741
  0
LINE
  5
1894
330
18
100
AcDbEntity
  8
外形線
100
AcDbLine
 10
191.5761102086839
 20
148.620842784717
 30
0.0
 11
192.0847038923149
 21
147.2096969860942
 31
0.0
  0
LINE
  5
1895
330
18
100
AcDbEntity
  8
0
  6
ByBlock
 62
     2
100
AcDbLine
 10
74.58037224519273
 20
142.3593903444204
 30
0.0
 11
92.57027425178298
 21
142.3593903444204
 31
0.0
  0
LINE
  5
1896
330
18
100
AcDbEntity
  8
0
  6
ByBlock
 62
     2
100
AcDbLine
 10
74.58037224519273
 20
89.55939034442042
 30
0.0
 11
92.57027425178296
 21
89.55939034442042
 31
0.0
  0
LINE
  5
1897
330
18
100
AcDbEntity
  8
0
  6
ByBlock
 62
     2
100
AcDbLine
 10
91.32027425178298
 20
139.8593903444204
 30
0.0
 11
91.32027425178296
 21
92.05939034442042
 31
0.0
  0
INSERT
  5
1898
330
18
100
AcDbEntity
  8
0
  6
ByBlock
 62
     2
100
AcDbBlockReference
  2
_OPEN
 10
91.32027425178298
 20
142.3593903444204
 30
0.0
 41
2.5
 42
2.5
 43
2.5
 50
90.0
  0
INSERT
  5
1899
330
18
100
AcDbEntity
  8
0
  6
ByBlock
 62
     2
100
AcDbBlockReference
  2
_OPEN
 10
91.32027425178296
 20
89.55939034442042
 30
0.0
 41
2.5
 42
2.5
 43
2.5
 50
270.0
  0
MTEXT
  5
189A
330
18
100
AcDbEntity
  8
0
  6
ByBlock
 62
     6
100
AcDbMText
 10
89.44527425178298
 20
115.9593903444204
 30
0.0
 40
2.5
 41
0.0
 71
     5
 72
     1
  1
\A1;φ53
  7
STYLE3
 11
0.0000000000000001
 21
1.0
 31
0.0
 73
     1
 44
1.0
  0
POINT
  5
189B
330
18
100
AcDbEntity
  8
DEFPOINTS
  6
ByBlock
 62
     0
100
AcDbPoint
 10
74.58037224519273
 20
142.3593903444204
 30
0.0
  0
POINT
  5
189C
330
18
100
AcDbEntity
  8
DEFPOINTS
  6
ByBlock
 62
     0
100
AcDbPoint
 10
74.58037224519273
 20
89.55939034442042
 30
0.0
  0
POINT
  5
189D
330
18
100
AcDbEntity
  8
DEFPOINTS
  6
ByBlock
 62
     0
100
AcDbPoint
 10
91.32027425178296
 20
89.55939034442042
 30
0.0
  0
LINE
  5
18B6
330
18
100
AcDbEntity
  8
0
  6
ByBlock
 62
     2
100
AcDbLine
 10
154.1226123311015
 20
42.25939034442039
 30
0.0
 11
123.8899874426783
 21
42.25939034442039
 31
0.0
  0
LINE
  5
18B7
330
18
100
AcDbEntity
  8
0
  6
ByBlock
 62
     2
100
AcDbLine
 10
125.1399874426783
 20
49.75939034442039
 30
0.0
 11
125.1399874426783
 21
44.75939034442039
 31
0.0
  0
INSERT
  5
18B8
330
18
100
AcDbEntity
  8
0
  6
ByBlock
 62
     2
100
AcDbBlockReference
  2
_OPEN
 10
125.1399874426783
 20
52.25939034442039
 30
0.0
 41
2.5
 42
2.5
 43
2.5
 50
90.0
  0
INSERT
  5
18B9
330
18
100
AcDbEntity
  8
0
  6
ByBlock
 62
     2
100
AcDbBlockReference
  2
_OPEN
 10
125.1399874426783
 20
42.25939034442039
 30
0.0
 41
2.5
 42
2.5
 43
2.5
 50
270.0
  0
MTEXT
  5
18BA
330
18
100
AcDbEntity
  8
0
  6
ByBlock
 62
     6
100
AcDbMText
 10
123.2649874426783
 20
47.25939034442039
 30
0.0
 40
2.5
 41
0.0
 71
     5
 72
     1
  1
\A1;10
  7
STYLE3
 11
0.0000000000000001
 21
1.0
 31
0.0
 73
     1
 44
1.0
  0
POINT
  5
18BC
330
18
100
AcDbEntity
  8
DEFPOINTS
  6
ByBlock
 62
     0
100
AcDbPoint
 10
154.1226123311015
 20
42.25939034442039
 30
0.0
  0
POINT
  5
18BD
330
18
100
AcDbEntity
  8
DEFPOINTS
  6
ByBlock
 62
     0
100
AcDbPoint
 10
125.1399874426783
 20
42.25939034442039
 30
0.0
  0
LINE
  5
18BE
330
18
100
AcDbEntity
  8
0
  6
ByBlock
 62
     2
100
AcDbLine
 10
176.3226123311016
 20
38.2593903444204
 30
0.0
 11
123.8899874426783
 21
38.2593903444204
 31
0.0
  0
LINE
  5
18BF
330
18
100
AcDbEntity
  8
0
  6
ByBlock
 62
     2
100
AcDbLine
 10
125.1399874426783
 20
44.75939034442039
 30
0.0
 11
125.1399874426783
 21
47.25939034442039
 31
0.0
  0
LINE
  5
18C0
330
18
100
AcDbEntity
  8
0
  6
ByBlock
 62
     2
100
AcDbLine
 10
125.1399874426783
 20
35.7593903444204
 30
0.0
 11
125.1399874426783
 21
33.2593903444204
 31
0.0
  0
LINE
  5
18C1
330
18
100
AcDbEntity
  8
0
  6
ByBlock
 62
     2
100
AcDbLine
 10
125.1399874426783
 20
42.25939034442039
 30
0.0
 11
125.1399874426783
 21
38.2593903444204
 31
0.0
  0
INSERT
  5
18C2
330
18
100
AcDbEntity
  8
0
  6
ByBlock
 62
     2
100
AcDbBlockReference
  2
_OPEN
 10
125.1399874426783
 20
42.25939034442039
 30
0.0
 41
2.5
 42
2.5
 43
2.5
 50
270.0
  0
INSERT
  5
18C3
330
18
100
AcDbEntity
  8
0
  6
ByBlock
 62
     2
100
AcDbBlockReference
  2
_OPEN
 10
125.1399874426783
 20
38.2593903444204
 30
0.0
 41
2.5
 42
2.5
 43
2.5
 50
90.0
  0
MTEXT
  5
18C4
330
18
100
AcDbEntity
  8
0
  6
ByBlock
 62
     6
100
AcDbMText
 10
123.2649874426783
 20
40.25939034442039
 30
0.0
 40
2.5
 41
0.0
 71
     5
 72
     1
  1
\A1;4
  7
STYLE3
 11
0.0000000000000001
 21
1.0
 31
0.0
 73
     1
 44
1.0
  0
POINT
  5
18C5
330
18
100
AcDbEntity
  8
DEFPOINTS
  6
ByBlock
 62
     0
100
AcDbPoint
 10
154.1226123311015
 20
42.25939034442039
 30
0.0
  0
POINT
  5
18C6
330
18
100
AcDbEntity
  8
DEFPOINTS
  6
ByBlock
 62
     0
100
AcDbPoint
 10
176.3226123311016
 20
38.2593903444204
 30
0.0
  0
POINT
  5
18C7
330
18
100
AcDbEntity
  8
DEFPOINTS
  6
ByBlock
 62
     0
100
AcDbPoint
 10
125.1399874426783
 20
38.2593903444204
 30
0.0
  0
LINE
  5
18C8
330
18
100
AcDbEntity
  8
0
  6
ByBlock
 62
     2
100
AcDbLine
 10
159.1226123311015
 20
66.65506390104297
 30
0.0
 11
159.1226123311015
 21
70.46127636342095
 31
0.0
  0
LINE
  5
18C9
330
18
100
AcDbEntity
  8
0
  6
ByBlock
 62
     2
100
AcDbLine
 10
179.3226123311015
 20
65.2704490637347
 30
0.0
 11
179.3226123311015
 21
70.46127636342095
 31
0.0
  0
LINE
  5
18CA
330
18
100
AcDbEntity
  8
0
  6
ByBlock
 62
     2
100
AcDbLine
 10
161.6226123311015
 20
69.21127636342095
 30
0.0
 11
176.8226123311015
 21
69.21127636342095
 31
0.0
  0
INSERT
  5
18CB
330
18
100
AcDbEntity
  8
0
  6
ByBlock
 62
     2
100
AcDbBlockReference
  2
_OPEN
 10
159.1226123311015
 20
69.21127636342095
 30
0.0
 41
2.5
 42
2.5
 43
2.5
 50
180.0
  0
INSERT
  5
18CC
330
18
100
AcDbEntity
  8
0
  6
ByBlock
 62
     2
100
AcDbBlockReference
  2
_OPEN
 10
179.3226123311015
 20
69.21127636342095
 30
0.0
 41
2.5
 42
2.5
 43
2.5
  0
MTEXT
  5
18CD
330
18
100
AcDbEntity
  8
0
  6
ByBlock
 62
     6
100
AcDbMText
 10
169.2226123311016
 20
71.08627636342095
 30
0.0
 40
2.5
 41
0.0
 71
     5
 72
     1
  1
\A1;20.2
  7
STYLE3
 73
     1
 44
1.0
  0
POINT
  5
18CE
330
18
100
AcDbEntity
  8
DEFPOINTS
  6
ByBlock
 62
     0
100
AcDbPoint
 10
159.1226123311015
 20
66.65506390104297
 30
0.0
  0
POINT
  5
18CF
330
18
100
AcDbEntity
  8
DEFPOINTS
  6
ByBlock
 62
     0
100
AcDbPoint
 10
179.3226123311015
 20
65.2704490637347
 30
0.0
  0
POINT
  5
18D0
330
18
100
AcDbEntity
  8
DEFPOINTS
  6
ByBlock
 62
     0
100
AcDbPoint
 10
179.3226123311015
 20
69.21127636342095
 30
0.0
  0
LINE
  5
18D1
330
18
100
AcDbEntity
  8
0
  6
ByBlock
 62
     2
100
AcDbLine
 10
154.1226123311015
 20
76.9593903444204
 30
0.0
 11
123.8899874426783
 21
76.95939034442041
 31
0.0
  0
LINE
  5
18D2
330
18
100
AcDbEntity
  8
0
  6
ByBlock
 62
     2
100
AcDbLine
 10
125.1399874426784
 20
113.4593903444204
 30
0.0
 11
125.1399874426783
 21
79.45939034442041
 31
0.0
  0
INSERT
  5
18D3
330
18
100
AcDbEntity
  8
0
  6
ByBlock
 62
     2
100
AcDbBlockReference
  2
_OPEN
 10
125.1399874426784
 20
115.9593903444204
 30
0.0
 41
2.5
 42
2.5
 43
2.5
 50
90.0
  0
INSERT
  5
18D4
330
18
100
AcDbEntity
  8
0
  6
ByBlock
 62
     2
100
AcDbBlockReference
  2
_OPEN
 10
125.1399874426783
 20
76.95939034442041
 30
0.0
 41
2.5
 42
2.5
 43
2.5
 50
270.0
  0
MTEXT
  5
18D5
330
18
100
AcDbEntity
  8
0
  6
ByBlock
 62
     6
100
AcDbMText
 10
123.2649874426783
 20
96.4593903444204
 30
0.0
 40
2.5
 41
0.0
 71
     5
 72
     1
  1
\A1;39
  7
STYLE3
 11
0.0000000000000001
 21
1.0
 31
0.0
 73
     1
 44
1.0
  0
POINT
  5
18D6
330
18
100
AcDbEntity
  8
DEFPOINTS
  6
ByBlock
 62
     0
100
AcDbPoint
 10
132.7226123311015
 20
115.9593903444204
 30
0.0
  0
POINT
  5
18D7
330
18
100
AcDbEntity
  8
DEFPOINTS
  6
ByBlock
 62
     0
100
AcDbPoint
 10
154.1226123311015
 20
76.9593903444204
 30
0.0
  0
POINT
  5
18D8
330
18
100
AcDbEntity
  8
DEFPOINTS
  6
ByBlock
 62
     0
100
AcDbPoint
 10
125.1399874426783
 20
76.95939034442041
 30
0.0
  0
LINE
  5
18D9
330
18
100
AcDbEntity
  8
0
  6
ByBlock
 62
     2
100
AcDbLine
 10
154.1226123311015
 20
52.25939034442039
 30
0.0
 11
123.8899874426783
 21
52.25939034442039
 31
0.0
  0
LINE
  5
18DA
330
18
100
AcDbEntity
  8
0
  6
ByBlock
 62
     2
100
AcDbLine
 10
125.1399874426783
 20
74.45939034442041
 30
0.0
 11
125.1399874426783
 21
54.75939034442039
 31
0.0
  0
INSERT
  5
18DB
330
18
100
AcDbEntity
  8
0
  6
ByBlock
 62
     2
100
AcDbBlockReference
  2
_OPEN
 10
125.1399874426783
 20
76.95939034442041
 30
0.0
 41
2.5
 42
2.5
 43
2.5
 50
90.0
  0
INSERT
  5
18DC
330
18
100
AcDbEntity
  8
0
  6
ByBlock
 62
     2
100
AcDbBlockReference
  2
_OPEN
 10
125.1399874426783
 20
52.25939034442039
 30
0.0
 41
2.5
 42
2.5
 43
2.5
 50
270.0
  0
MTEXT
  5
18DD
330
18
100
AcDbEntity
  8
0
  6
ByBlock
 62
     6
100
AcDbMText
 10
123.2649874426783
 20
64.6093903444204
 30
0.0
 40
2.5
 41
0.0
 71
     5
 72
     1
  1
\A1;24.7
  7
STYLE3
 11
0.0000000000000001
 21
1.0
 31
0.0
 73
     1
 44
1.0
  0
POINT
  5
18DE
330
18
100
AcDbEntity
  8
DEFPOINTS
  6
ByBlock
 62
     0
100
AcDbPoint
 10
154.1226123311015
 20
76.9593903444204
 30
0.0
  0
POINT
  5
18E0
330
18
100
AcDbEntity
  8
DEFPOINTS
  6
ByBlock
 62
     0
100
AcDbPoint
 10
125.1399874426783
 20
52.25939034442039
 30
0.0
  0
HATCH
  5
18E1
330
18
100
AcDbEntity
  8
針
100
AcDbHatch
 10
0.0
 20
0.0
 30
0.0
210
0.0
220
0.0
230
1.0
  2
SOLID
 70
     1
 71
     0
 91
        2
 92
        7
 72
     1
 73
     1
 93
        5
 10
156.2752866207457
 20
104.8434876273858
 42
0.31735696877887
 10
157.0224851708778
 20
105.8686936131053
 42
0.0
 10
156.6611544935951
 20
106.1354016631975
 42
0.0
 10
156.633020039411
 20
106.1258786758457
 42
-0.4142135623731173
 10
156.1630720740407
 20
105.1750112245969
 42
0.0
 97
        0
 92
        7
 72
     1
 73
     1
 93
        4
 10
156.2752866207457
 20
104.8434876273858
 42
0.0
 10
156.1630720740407
 20
105.1750112245969
 42
-0.4142135623730728
 10
155.212204622792
 20
105.6449591899672
 42
0.0
 10
154.8806810255809
 20
105.5327446432622
 42
0.4142135623730844
 97
        0
 75
     0
 76
     1
 47
0.0161501285364394
 98
        2
 10
156.5841593429276
 20
105.1890891305028
 10
155.9053642720104
 20
104.9763795885522
450
        0
451
        0
460
0.0
461
0.0
452
        0
462
0.0
453
        0
470

  0
HATCH
  5
18E2
330
18
100
AcDbEntity
  8
針
100
AcDbHatch
 10
0.0
 20
0.0
 30
0.0
210
0.0
220
0.0
230
1.0
  2
SOLID
 70
     1
 71
     0
 91
        4
 92
        7
 72
     1
 73
     1
 93
        4
 10
154.8346948814033
 20
106.0480092851491
 42
0.0
 10
155.18085043358
 20
105.9962759912537
 42
-0.4142135623730951
 10
156.0334693894486
 20
106.6271808304279
 42
0.0
 10
156.085202683344
 20
106.9733363826046
 42
0.4142135623730996
 97
        0
 92
        7
 72
     1
 73
     1
 93
        5
 10
155.18085043358
 20
105.9962759912537
 42
0.0
 10
154.8346948814033
 20
106.0480092851491
 42
0.3173569687788799
 10
155.4049869627318
 20
104.9148191296815
 42
0.0
 10
155.807364972941
 20
105.1142808534022
 42
0.0
 10
155.8117552727541
 20
105.143657035385
 42
-0.4142135623730839
 97
        0
 92
        7
 72
     1
 73
     1
 93
        4
 10
156.085202683344
 20
106.9733363826046
 42
0.0
 10
156.0334693894486
 20
106.6271808304279
 42
-0.4142135623730951
 10
156.6643742286229
 20
105.7745618745592
 42
0.0
 10
157.0105297807995
 20
105.7228285806639
 42
0.4142135623730996
 97
        0
 92
        7
 72
     1
 73
     1
 93
        4
 10
156.6643742286229
 20
105.7745618745592
 42
-0.1036385141593389
 10
156.5574823985141
 20
105.486119549607
 42
0.0
 10
157.0084840363922
 20
105.7096843613252
 42
0.003023315109616
 10
157.0105297807995
 20
105.7228285806639
 42
0.0
 97
        0
 75
     0
 76
     1
 47
0.0223982890607777
 98
        4
 10
155.4185568301024
 20
106.7371741209751
 10
155.0912018428398
 20
105.6075349198721
 10
156.3499921802936
 20
106.7566225917817
 10
156.735863637023
 20
105.7017081450686
450
        0
451
        0
460
0.0
461
0.0
452
        0
462
0.0
453
        0
470

  0
CIRCLE
  5
18E3
330
18
100
AcDbEntity
  8
針
100
AcDbCircle
 10
155.9226123311015
 20
105.8854189329065
 30
0.0
 40
1.1
  0
CIRCLE
  5
18E4
330
18
100
AcDbEntity
  8
針
100
AcDbCircle
 10
155.9226123311015
 20
105.8854189329065
 30
0.0
 40
0.75
  0
HATCH
  5
18E5
330
18
100
AcDbEntity
  8
針
100
AcDbHatch
 10
0.0
 20
0.0
 30
0.0
210
0.0
220
0.0
230
1.0
  2
SOLID
 70
     1
 71
     0
 91
        1
 92
        7
 72
     1
 73
     1
 93
        7
 10
156.0226123311016
 20
110.5854189329066
 42
0.0
 10
155.9226123311014
 20
110.5854189329065
 42
0.0
 10
155.8226123311014
 20
110.5854189329065
 42
0.0
 10
155.7777039734631
 20
107.342788278236
 42
-0.2935495917910092
 10
155.4792707969263
 20
106.8921206186479
 42
-0.2104432563350663
 10
156.3659531856593
 20
106.8921209179447
 42
-0.2935491884945053
 10
156.0675206887399
 20
107.342788278236
 42
0.0
 97
        0
 75
     0
 76
     1
 47
0.0140573597042523
 98
        1
 10
155.9812140469989
 20
108.7799789782067
450
        0
451
        0
460
0.0
461
0.0
452
        0
462
0.0
453
        0
470

  0
LINE
  5
18E6
330
18
100
AcDbEntity
  8
針
100
AcDbLine
 10
156.0675206887399
 20
107.342788278236
 30
0.0
 11
156.0226123311015
 21
110.5854189329064
 31
0.0
  0
LINE
  5
18E7
330
18
100
AcDbEntity
  8
針
100
AcDbLine
 10
155.7777039734631
 20
107.3427882782361
 30
0.0
 11
155.8226123311014
 21
110.5854189329064
 31
0.0
  0
CIRCLE
  5
18E8
330
18
100
AcDbEntity
  8
針
 62
     4
100
AcDbCircle
 10
155.9226123311015
 20
105.8854189329065
 30
0.0
 40
0.4
  0
ARC
  5
18E9
330
18
100
AcDbEntity
  8
針
100
AcDbCircle
 10
156.567472744447
 20
107.3497122939845
 30
0.0
 40
0.5
100
AcDbArc
 50
180.7934591207347
 51
246.2317787024804
  0
ARC
  5
18EA
330
18
100
AcDbEntity
  8
針
100
AcDbCircle
 10
155.2777519177559
 20
107.3497122939846
 30
0.0
 40
0.5
100
AcDbArc
 50
293.7682212975196
 51
359.2065408792653
  0
LINE
  5
18EB
330
18
100
AcDbEntity
  8
文字
100
AcDbLine
 10
156.0226123311015
 20
110.5854189329064
 30
0.0
 11
155.8226123311014
 21
110.5854189329064
 31
0.0
  0
TEXT
  5
18EE
330
18
100
AcDbEntity
  8
文字
100
AcDbText
 10
163.0905126418245
 20
115.4371415036574
 30
0.0
 40
1.0
  1
0.01×10mm
  7
STYLE3
100
AcDbText
  0
LINE
  5
1915
330
18
100
AcDbEntity
  8
0
  6
ByBlock
 62
     2
100
AcDbLine
 10
58.08037224519266
 20
166.2414053187302
 30
0.0
 11
58.08037224519266
 21
172.1185087457405
 31
0.0
  0
LINE
  5
1916
330
18
100
AcDbEntity
  8
0
  6
ByBlock
 62
     2
100
AcDbLine
 10
78.78037224519281
 20
166.2414053187302
 30
0.0
 11
78.78037224519281
 21
172.1185087457405
 31
0.0
  0
LINE
  5
1917
330
18
100
AcDbEntity
  8
0
  6
ByBlock
 62
     2
100
AcDbLine
 10
60.58037224519266
 20
170.8685087457405
 30
0.0
 11
76.28037224519281
 21
170.8685087457405
 31
0.0
  0
INSERT
  5
1918
330
18
100
AcDbEntity
  8
0
  6
ByBlock
 62
     2
100
AcDbBlockReference
  2
_OPEN
 10
58.08037224519266
 20
170.8685087457405
 30
0.0
 41
2.5
 42
2.5
 43
2.5
 50
180.0
  0
INSERT
  5
1919
330
18
100
AcDbEntity
  8
0
  6
ByBlock
 62
     2
100
AcDbBlockReference
  2
_OPEN
 10
78.78037224519281
 20
170.8685087457405
 30
0.0
 41
2.5
 42
2.5
 43
2.5
  0
MTEXT
  5
191A
330
18
100
AcDbEntity
  8
0
  6
ByBlock
 62
     6
100
AcDbMText
 10
68.43037224519273
 20
172.7435087457405
 30
0.0
 40
2.5
 41
0.0
 71
     5
 72
     1
  1
\A1;20.7
  7
STYLE3
 73
     1
 44
1.0
  0
POINT
  5
191B
330
18
100
AcDbEntity
  8
DEFPOINTS
  6
ByBlock
 62
     0
100
AcDbPoint
 10
58.08037224519266
 20
166.2414053187302
 30
0.0
  0
POINT
  5
191C
330
18
100
AcDbEntity
  8
DEFPOINTS
  6
ByBlock
 62
     0
100
AcDbPoint
 10
78.78037224519281
 20
166.2414053187302
 30
0.0
  0
POINT
  5
191D
330
18
100
AcDbEntity
  8
DEFPOINTS
  6
ByBlock
 62
     0
100
AcDbPoint
 10
78.78037224519281
 20
170.8685087457405
 30
0.0
  0
LINE
  5
191E
330
18
100
AcDbEntity
  8
ﾊｯﾁﾝｸ
  6
Continuous
100
AcDbLine
 10
60.28037224519244
 20
151.2258841407181
 30
0.0
 11
60.51387844889458
 21
151.4593903444203
 31
0.0
  0
LINE
  5
191F
330
18
100
AcDbEntity
  8
ﾊｯﾁﾝｸ
  6
Continuous
100
AcDbLine
 10
60.28037224519241
 20
149.4581171877517
 30
0.0
 11
62.28164540186097
 21
151.4593903444203
 31
0.0
  0
LINE
  5
1920
330
18
100
AcDbEntity
  8
ﾊｯﾁﾝｸ
  6
Continuous
100
AcDbLine
 10
60.28037224519244
 20
147.6903502347854
 30
0.0
 11
64.04941235482735
 21
151.4593903444203
 31
0.0
  0
LINE
  5
1921
330
18
100
AcDbEntity
  8
ﾊｯﾁﾝｸ
  6
Continuous
100
AcDbLine
 10
60.28037224519241
 20
145.922583281819
 30
0.0
 11
64.28037224519241
 21
149.922583281819
 31
0.0
  0
LINE
  5
1922
330
18
100
AcDbEntity
  8
ﾊｯﾁﾝｸ
  6
Continuous
100
AcDbLine
 10
61.58494626076006
 20
145.4593903444203
 30
0.0
 11
64.28037224519241
 21
148.1548163288526
 31
0.0
  0
LINE
  5
1923
330
18
100
AcDbEntity
  8
ﾊｯﾁﾝｸ
  6
Continuous
100
AcDbLine
 10
63.35271321372644
 20
145.4593903444203
 30
0.0
 11
64.28037224519243
 21
146.3870493758863
 31
0.0
  0
LINE
  5
1924
330
18
100
AcDbEntity
  8
ﾊｯﾁﾝｸ
  6
Continuous
100
AcDbLine
 10
60.33191789151139
 20
145.4593903444203
 30
0.0
 11
60.28037224519241
 21
145.5109359907393
 31
0.0
  0
LINE
  5
1925
330
18
100
AcDbEntity
  8
ﾊｯﾁﾝｸ
  6
Continuous
100
AcDbLine
 10
62.09968484447777
 20
145.4593903444203
 30
0.0
 11
60.28037224519244
 21
147.2787029437056
 31
0.0
  0
LINE
  5
1926
330
18
100
AcDbEntity
  8
ﾊｯﾁﾝｸ
  6
Continuous
100
AcDbLine
 10
63.86745179744415
 20
145.4593903444203
 30
0.0
 11
60.28037224519243
 21
149.046469896672
 31
0.0
  0
LINE
  5
1927
330
18
100
AcDbEntity
  8
ﾊｯﾁﾝｸ
  6
Continuous
100
AcDbLine
 10
64.28037224519243
 20
146.8142368496384
 30
0.0
 11
60.28037224519242
 21
150.8142368496384
 31
0.0
  0
LINE
  5
1928
330
18
100
AcDbEntity
  8
ﾊｯﾁﾝｸ
  6
Continuous
100
AcDbLine
 10
64.28037224519241
 20
148.5820038026047
 30
0.0
 11
61.40298570337687
 21
151.4593903444203
 31
0.0
  0
LINE
  5
1929
330
18
100
AcDbEntity
  8
ﾊｯﾁﾝｸ
  6
Continuous
100
AcDbLine
 10
64.28037224519241
 20
150.3497707555711
 30
0.0
 11
63.17075265634326
 21
151.4593903444203
 31
0.0
  0
LINE
  5
192A
330
18
100
AcDbEntity
  8
ﾊｯﾁﾝｸ
  6
Continuous
100
AcDbLine
 10
155.1226123311016
 20
151.2258841407181
 30
0.0
 11
155.3561185348037
 21
151.4593903444203
 31
0.0
  0
LINE
  5
192B
330
18
100
AcDbEntity
  8
ﾊｯﾁﾝｸ
  6
Continuous
100
AcDbLine
 10
155.1226123311016
 20
149.4581171877518
 30
0.0
 11
157.1238854877702
 21
151.4593903444203
 31
0.0
  0
LINE
  5
192C
330
18
100
AcDbEntity
  8
ﾊｯﾁﾝｸ
  6
Continuous
100
AcDbLine
 10
155.1226123311016
 20
147.6903502347854
 30
0.0
 11
158.8916524407365
 21
151.4593903444203
 31
0.0
  0
LINE
  5
192D
330
18
100
AcDbEntity
  8
ﾊｯﾁﾝｸ
  6
Continuous
100
AcDbLine
 10
155.1226123311016
 20
145.9225832818191
 30
0.0
 11
159.1226123311017
 21
149.922583281819
 31
0.0
  0
LINE
  5
192E
330
18
100
AcDbEntity
  8
ﾊｯﾁﾝｸ
  6
Continuous
100
AcDbLine
 10
156.4271863466692
 20
145.4593903444203
 30
0.0
 11
159.1226123311017
 21
148.1548163288527
 31
0.0
  0
LINE
  5
192F
330
18
100
AcDbEntity
  8
ﾊｯﾁﾝｸ
  6
Continuous
100
AcDbLine
 10
158.1949532996356
 20
145.4593903444203
 30
0.0
 11
159.1226123311017
 21
146.3870493758863
 31
0.0
  0
LINE
  5
1930
330
18
100
AcDbEntity
  8
ﾊｯﾁﾝｸ
  6
Continuous
100
AcDbLine
 10
155.1741579774206
 20
145.4593903444203
 30
0.0
 11
155.1226123311016
 21
145.5109359907392
 31
0.0
  0
LINE
  5
1931
330
18
100
AcDbEntity
  8
ﾊｯﾁﾝｸ
  6
Continuous
100
AcDbLine
 10
156.9419249303869
 20
145.4593903444203
 30
0.0
 11
155.1226123311016
 21
147.2787029437056
 31
0.0
  0
LINE
  5
1932
330
18
100
AcDbEntity
  8
ﾊｯﾁﾝｸ
  6
Continuous
100
AcDbLine
 10
158.7096918833533
 20
145.4593903444203
 30
0.0
 11
155.1226123311016
 21
149.046469896672
 31
0.0
  0
LINE
  5
1933
330
18
100
AcDbEntity
  8
ﾊｯﾁﾝｸ
  6
Continuous
100
AcDbLine
 10
159.1226123311017
 20
146.8142368496383
 30
0.0
 11
155.1226123311016
 21
150.8142368496383
 31
0.0
  0
LINE
  5
1934
330
18
100
AcDbEntity
  8
ﾊｯﾁﾝｸ
  6
Continuous
100
AcDbLine
 10
159.1226123311017
 20
148.5820038026046
 30
0.0
 11
156.245225789286
 21
151.4593903444203
 31
0.0
  0
LINE
  5
1935
330
18
100
AcDbEntity
  8
ﾊｯﾁﾝｸ
  6
Continuous
100
AcDbLine
 10
159.1226123311017
 20
150.349770755571
 30
0.0
 11
158.0129927422524
 21
151.4593903444203
 31
0.0
  0
TEXT
  5
1954
330
18
100
AcDbEntity
  8
文字
100
AcDbText
 10
164.2480058712053
 20
113.4666498016227
 30
0.0
 40
1.0
  1
JEWELED
  7
STYLE3
100
AcDbText
  0
ARC
  5
1A59
330
18
100
AcDbEntity
  8
外形線
100
AcDbCircle
 10
159.1226123311015
 20
47.95939034442044
 30
0.0
 40
6.0
100
AcDbArc
 50
251.8051276612348
 51
288.1948723387651
  0
LINE
  5
1A5A
330
18
100
AcDbEntity
  8
外形線
100
AcDbLine
 10
161.8226123311015
 20
61.25939034442041
 30
0.0
 11
162.1226123311015
 21
60.95939034442041
 31
0.0
  0
LINE
  5
1A5B
330
18
100
AcDbEntity
  8
外形線
100
AcDbLine
 10
164.1226123311015
 20
55.7593903444204
 30
0.0
 11
164.1226123311015
 21
57.75939034442039
 31
0.0
  0
LINE
  5
1A5C
330
18
100
AcDbEntity
  8
外形線
100
AcDbLine
 10
161.9726123311015
 20
59.05939034442041
 30
0.0
 11
161.9726123311015
 21
58.7593903444204
 31
0.0
  0
LINE
  5
1A5D
330
18
100
AcDbEntity
  8
外形線
100
AcDbLine
 10
163.1226123311015
 20
58.7593903444204
 30
0.0
 11
164.1226123311015
 21
57.75939034442039
 31
0.0
  0
LINE
  5
1A5E
330
18
100
AcDbEntity
  8
外形線
100
AcDbLine
 10
162.1226123311015
 20
52.55939034442047
 30
0.0
 11
161.8226123311015
 21
52.25939034442045
 31
0.0
  0
LINE
  5
1A5F
330
18
100
AcDbEntity
  8
外形線
100
AcDbLine
 10
162.1226123311015
 20
52.55939034442047
 30
0.0
 11
162.1226123311015
 21
52.75939034442039
 31
0.0
  0
LINE
  5
1A60
330
18
100
AcDbEntity
  8
外形線
100
AcDbLine
 10
163.1226123311015
 20
52.75939034442039
 30
0.0
 11
164.1226123311015
 21
53.7593903444204
 31
0.0
  0
LINE
  5
1A61
330
18
100
AcDbEntity
  8
外形線
100
AcDbLine
 10
164.1226123311015
 20
55.7593903444204
 30
0.0
 11
164.1226123311015
 21
53.7593903444204
 31
0.0
  0
LINE
  5
1A62
330
18
100
AcDbEntity
  8
外形線
100
AcDbLine
 10
162.1226123311015
 20
60.95939034442041
 30
0.0
 11
162.1226123311015
 21
59.05939034442039
 31
0.0
  0
LINE
  5
1A63
330
18
100
AcDbEntity
  8
外形線
100
AcDbLine
 10
156.1226123311015
 20
60.95939034442044
 30
0.0
 11
156.4226123311015
 21
61.25939034442044
 31
0.0
  0
LINE
  5
1A64
330
18
100
AcDbEntity
  8
外形線
100
AcDbLine
 10
156.2726123311015
 20
59.05939034442041
 30
0.0
 11
156.2726123311015
 21
58.7593903444204
 31
0.0
  0
LINE
  5
1A65
330
18
100
AcDbEntity
  8
外形線
100
AcDbLine
 10
154.1226123311015
 20
55.7593903444204
 30
0.0
 11
154.1226123311015
 21
57.75939034442039
 31
0.0
  0
LINE
  5
1A66
330
18
100
AcDbEntity
  8
外形線
100
AcDbLine
 10
154.1226123311015
 20
57.75939034442039
 30
0.0
 11
155.1226123311015
 21
58.7593903444204
 31
0.0
  0
LINE
  5
1A67
330
18
100
AcDbEntity
  8
外形線
100
AcDbLine
 10
156.4226123311014
 20
52.25939034442045
 30
0.0
 11
156.1226123311015
 21
52.55939034442047
 31
0.0
  0
LINE
  5
1A68
330
18
100
AcDbEntity
  8
外形線
100
AcDbLine
 10
156.1226123311015
 20
52.55939034442047
 30
0.0
 11
156.1226123311015
 21
52.75939034442039
 31
0.0
  0
LINE
  5
1A69
330
18
100
AcDbEntity
  8
外形線
100
AcDbLine
 10
154.1226123311015
 20
53.7593903444204
 30
0.0
 11
155.1226123311015
 21
52.75939034442039
 31
0.0
  0
LINE
  5
1A6A
330
18
100
AcDbEntity
  8
外形線
100
AcDbLine
 10
154.1226123311015
 20
55.7593903444204
 30
0.0
 11
154.1226123311015
 21
53.7593903444204
 31
0.0
  0
LINE
  5
1A6B
330
18
100
AcDbEntity
  8
外形線
100
AcDbLine
 10
156.1226123311015
 20
60.95939034442044
 30
0.0
 11
156.1226123311015
 21
59.05939034442041
 31
0.0
  0
LINE
  5
1A6C
330
18
100
AcDbEntity
  8
外形線
100
AcDbLine
 10
155.1226123311015
 20
58.7593903444204
 30
0.0
 11
163.1226123311015
 21
58.7593903444204
 31
0.0
  0
LINE
  5
1A6D
330
18
100
AcDbEntity
  8
外形線
100
AcDbLine
 10
154.1226123311015
 20
55.7593903444204
 30
0.0
 11
164.1226123311015
 21
55.7593903444204
 31
0.0
  0
LINE
  5
1A6E
330
18
100
AcDbEntity
  8
外形線
100
AcDbLine
 10
161.8226123311015
 20
61.25939034442041
 30
0.0
 11
156.4226123311015
 21
61.25939034442044
 31
0.0
  0
LINE
  5
1A6F
330
18
100
AcDbEntity
  8
外形線
100
AcDbLine
 10
162.1226123311015
 20
59.05939034442041
 30
0.0
 11
156.1226123311015
 21
59.05939034442041
 31
0.0
  0
LINE
  5
1A70
330
18
100
AcDbEntity
  8
外形線
100
AcDbLine
 10
161.8226123311015
 20
52.25939034442045
 30
0.0
 11
156.4226123311016
 21
52.25939034442035
 31
0.0
  0
LINE
  5
1A71
330
18
100
AcDbEntity
  8
外形線
100
AcDbLine
 10
155.1226123311015
 20
52.75939034442039
 30
0.0
 11
163.1226123311015
 21
52.75939034442039
 31
0.0
  0
LINE
  5
1A72
330
18
100
AcDbEntity
  8
寸法線
100
AcDbLine
 10
154.1226123311015
 20
57.75939034442039
 30
0.0
 11
164.1226123311015
 21
57.75939034442039
 31
0.0
  0
LINE
  5
1A73
330
18
100
AcDbEntity
  8
寸法線
100
AcDbLine
 10
156.1226123311015
 20
60.95939034442044
 30
0.0
 11
162.1226123311015
 21
60.95939034442041
 31
0.0
  0
LINE
  5
1A74
330
18
100
AcDbEntity
  8
寸法線
100
AcDbLine
 10
154.1226123311015
 20
53.7593903444204
 30
0.0
 11
164.1226123311015
 21
53.7593903444204
 31
0.0
  0
LINE
  5
1A75
330
18
100
AcDbEntity
  8
寸法線
100
AcDbLine
 10
156.1226123311015
 20
52.55939034442047
 30
0.0
 11
162.1226123311015
 21
52.55939034442047
 31
0.0
  0
DIMENSION
  5
1A77
330
18
100
AcDbEntity
  8
外形線
100
AcDbDimension
  2
*D1
 10
145.9756005481256
 20
61.25939034442044
 30
0.0
 11
144.1006005481256
 21
56.75939034442045
 31
0.0
 70
    32
 71
     5
 42
9.000000000000042
  3
STYLE3
100
AcDbAlignedDimension
 13
154.1226123311015
 23
52.25939034442039
 33
0.0
 14
156.4226123311015
 24
61.25939034442044
 34
0.0
 50
90.0
100
AcDbRotatedDimension
1001
ACAD
1000
DSTYLE
1002
{
1070
   271
1070
     2
1070
   341
1005
0
1002
}
  0
ARC
  5
1A8A
330
18
100
AcDbEntity
  8
外形線
100
AcDbCircle
 10
64.28037224519261
 20
47.95939034442045
 30
0.0
 40
6.0
100
AcDbArc
 50
251.805127661235
 51
288.1948723387651
  0
TEXT
  5
1AC0
330
18
100
AcDbEntity
  8
文字
100
AcDbText
 10
76.82258146341341
 20
187.0990110746685
 30
0.0
 40
4.0
  1
Model No.G Dial Thickness Gauge
  7
STYLE3
100
AcDbText
  0
LINE
  5
1AC1
330
18
100
AcDbEntity
  8
外形線
100
AcDbLine
 10
75.63359846341342
 20
183.7168130746684
 30
0.0
 11
175.6335984634134
 21
183.7168130746684
 31
0.0
  0
LINE
  5
1AC2
330
18
100
AcDbEntity
  8
外形線
100
AcDbLine
 10
75.63359846341342
 20
184.7168130746684
 30
0.0
 11
175.6335984634134
 21
184.7168130746684
 31
0.0
  0
LINE
  5
1AC4
330
18
100
AcDbEntity
  8
外形線
100
AcDbLine
 10
113.7508534634134
 20
20.81806007466846
 30
0.0
 11
254.5422714634134
 21
20.81806007466846
 31
0.0
  0
LINE
  5
1AC5
330
18
100
AcDbEntity
  8
外形線
100
AcDbLine
 10
113.7508534634134
 20
10.03785407466846
 30
0.0
 11
254.5422714634134
 21
10.03785407466846
 31
0.0
  0
TEXT
  5
1AC6
330
18
100
AcDbEntity
  8
0
  6
Continuous
100
AcDbText
 10
115.2083204634134
 20
11.93584407466846
 30
0.0
 40
2.1
  1
Design and specifications are subject to change without notice for future improvement.
  7
STYLE3
100
AcDbText
  0
TEXT
  5
1AC7
330
18
100
AcDbEntity
  8
0
  6
Continuous
100
AcDbText
 10
115.4998144634134
 20
15.86499207466846
 30
0.0
 40
3.5
  1
仕様及び外観は予告なく変更される場合がございますのでご了承下さい。
  7
STYLE3
100
AcDbText
  0
TEXT
  5
1AC8
330
18
100
AcDbEntity
  8
0
  6
Continuous
100
AcDbText
 10
114.9168294634134
 20
2.171216074668465
 30
0.0
 40
2.1
  1
3RD Angle Projection
  7
STYLE3
100
AcDbText
  0
TEXT
  5
1AC9
330
18
100
AcDbEntity
  8
0
  6
Continuous
100
AcDbText
 10
117.5402724634134
 20
5.667499074668466
 30
0.0
 40
3.0
  1
三　　角　　法
  7
STYLE3
100
AcDbText
  0
LINE
  5
1ACA
330
18
100
AcDbEntity
  8
外形線
100
AcDbLine
 10
113.7508534634134
 20
0.4230760746684659
 30
0.0
 11
113.7508534634134
 21
20.81806007466846
 31
0.0
  0
LINE
  5
1ACB
330
18
100
AcDbEntity
  8
外形線
100
AcDbLine
 10
215.7736204634134
 20
10.03785407466846
 30
0.0
 11
215.7736204634134
 21
0.4230760746684659
 31
0.0
  0
LINE
  5
1ACC
330
18
100
AcDbEntity
  8
外形線
100
AcDbLine
 10
186.0412704634134
 20
10.03785407466846
 30
0.0
 11
186.0412704634134
 21
0.4230760746684659
 31
0.0
  0
LINE
  5
1ACD
330
18
100
AcDbEntity
  8
外形線
100
AcDbLine
 10
166.5111984634134
 20
10.03785407466846
 30
0.0
 11
166.5111984634134
 21
0.4230760746684659
 31
0.0
  0
LINE
  5
1ACE
330
18
100
AcDbEntity
  8
外形線
100
AcDbLine
 10
149.0215814634134
 20
10.03785407466846
 30
0.0
 11
149.0215814634134
 21
0.4230760746684659
 31
0.0
  0
TEXT
  5
1ACF
330
18
100
AcDbEntity
  8
0
  6
Continuous
100
AcDbText
 10
150.4790504634134
 20
5.673454074668465
 30
0.0
 40
3.0
  1
単位
  7
STYLE3
100
AcDbText
  0
TEXT
  5
1AD0
330
18
100
AcDbEntity
  8
0
  6
Continuous
100
AcDbText
 10
150.6507714634134
 20
2.171217074668465
 30
0.0
 40
2.1
  1
Unit
  7
STYLE3
100
AcDbText
  0
TEXT
  5
1AD1
330
18
100
AcDbEntity
  8
0
  6
Continuous
100
AcDbText
 10
167.7969464634134
 20
5.382096074668465
 30
0.0
 40
3.0
  1
尺 度
  7
STYLE3
100
AcDbText
  0
TEXT
  5
1AD2
330
18
100
AcDbEntity
  8
0
  6
Continuous
100
AcDbText
 10
158.5210984634134
 20
3.919360074668465
 30
0.0
 40
2.399999999999999
  1
mm
  7
STYLE3
100
AcDbText
  0
TEXT
  5
1AD3
330
18
100
AcDbEntity
  8
0
  6
Continuous
100
AcDbText
 10
168.2601614634134
 20
2.462574074668465
 30
0.0
 40
2.1
  1
Scale
  7
STYLE3
100
AcDbText
  0
TEXT
  5
1AD4
330
18
100
AcDbEntity
  8
0
  6
Continuous
100
AcDbText
 10
177.8794504634134
 20
4.210717074668465
 30
0.0
 40
2.399999999999999
  1
1/1
  7
STYLE3
100
AcDbText
  0
TEXT
  5
1AD5
330
18
100
AcDbEntity
  8
0
  6
Continuous
100
AcDbText
 10
187.9732214634134
 20
2.171218074668465
 30
0.0
 40
2.1
  1
Date
  7
STYLE3
100
AcDbText
  0
TEXT
  5
1AD6
330
18
100
AcDbEntity
  8
0
  6
Continuous
100
AcDbText
 10
187.5898604634134
 20
5.504301074668465
 30
0.0
 40
3.0
  1
日 付
  7
STYLE3
100
AcDbText
  0
TEXT
  5
1AD7
330
18
100
AcDbEntity
  8
0
  6
Continuous
100
AcDbText
 10
196.7180294634134
 20
3.919359074668465
 30
0.0
 40
2.1
  1
2010.06.10
  7
STYLE3
100
AcDbText
  0
TEXT
  5
1AD8
330
18
100
AcDbEntity
  8
0
  6
Continuous
100
AcDbText
 10
217.1225834634134
 20
5.958856074668466
 30
0.0
 40
3.0
  1
株式会社　尾崎製作所
  7
STYLE3
100
AcDbText
  0
TEXT
  5
1AD9
330
18
100
AcDbEntity
  8
0
  6
Continuous
100
AcDbText
 10
217.9970624634135
 20
2.171217074668465
 30
0.0
 40
2.1
  1
OZAKI MFG. CO., LTD.
  7
STYLE3
100
AcDbText
  0
VIEWPORT
  5
177
330
15
100
AcDbEntity
 67
     1
  8
0
100
AcDbViewport
 10
127.5041203589828
 20
97.49391214526822
 30
0.0
 40
418.3086347473814
 41
243.0346063651093
 68
     1
 69
     1
 12
127.5041203589828
 22
97.49391214526822
 13
0.0
 23
0.0
 14
10.0
 24
10.0
 15
10.0
 25
10.0
 16
0.0
 26
0.0
 36
1.0
 17
0.0
 27
0.0
 37
0.0
 42
50.0
 43
0.0
 44
0.0
 45
243.0346063651093
 50
0.0
 51
0.0
 72
   100
 90
    32800
  1

281
     0
 71
     1
 74
     0
110
0.0
120
0.0
130
0.0
111
1.0
121
0.0
131
0.0
112
0.0
122
1.0
132
0.0
 79
     0
146
0.0
170
     0
  0
ENDSEC
  0
SECTION
  2
OBJECTS
  0
DICTIONARY
  5
C
330
0
100
AcDbDictionary
281
     1
  3
ACAD_COLOR
350
19B2
  3
ACAD_GROUP
350
D
  3
ACAD_IMAGE_DICT
350
1971
  3
ACAD_IMAGE_VARS
350
1970
  3
ACAD_LAYOUT
350
19B5
  3
ACAD_MATERIAL
350
19B1
  3
ACAD_MLINESTYLE
350
1B
  3
ACAD_PLOTSETTINGS
350
19B6
  3
ACAD_PLOTSTYLENAME
350
19AF
  3
ACAD_TABLESTYLE
350
19B3
  3
AcDbVariableDictionary
350
19DA
  0
DICTIONARY
  5
1A35
330
2
100
AcDbDictionary
280
     1
281
     1
  3
ACAD_LAYERSTATES
360
1A36
  0
DICTIONARY
  5
19B2
102
{ACAD_REACTORS
330
C
102
}
330
C
100
AcDbDictionary
281
     1
  0
DICTIONARY
  5
D
102
{ACAD_REACTORS
330
C
102
}
330
C
100
AcDbDictionary
281
     1
  0
DICTIONARY
  5
1971
102
{ACAD_REACTORS
330
C
102
}
330
C
100
AcDbDictionary
281
     1
  3
1
350
1972
  0
RASTERVARIABLES
  5
1970
102
{ACAD_REACTORS
330
C
102
}
330
C
100
AcDbRasterVariables
 90
        0
 70
     1
 71
     1
 72
     0
  0
DICTIONARY
  5
19B5
102
{ACAD_REACTORS
330
C
102
}
330
C
100
AcDbDictionary
281
     1
  3
Model
350
19B7
  3
レイアウト1
350
19B8
  0
DICTIONARY
  5
19B1
102
{ACAD_REACTORS
330
C
102
}
330
C
100
AcDbDictionary
281
     1
  0
DICTIONARY
  5
1B
102
{ACAD_REACTORS
330
C
102
}
330
C
100
AcDbDictionary
281
     1
  3
STANDARD
350
1C
  0
DICTIONARY
  5
19B6
102
{ACAD_REACTORS
330
C
102
}
330
C
100
AcDbDictionary
281
     1
  0
ACDBDICTIONARYWDFLT
  5
19AF
102
{ACAD_REACTORS
330
C
102
}
330
C
100
AcDbDictionary
281
     1
  3
Normal
350
19B0
100
AcDbDictionaryWithDefault
340
19B0
  0
DICTIONARY
  5
19B3
102
{ACAD_REACTORS
330
C
102
}
330
C
100
AcDbDictionary
281
     1
  3
Standard
350
19B4
  0
DICTIONARY
  5
19DA
102
{ACAD_REACTORS
330
C
102
}
330
C
100
AcDbDictionary
281
     1
  3
CTABLESTYLE
350
19DB
  0
DICTIONARY
  5
1A36
102
{ACAD_REACTORS
330
1A35
102
}
330
1A35
100
AcDbDictionary
281
     1
  0
IMAGEDEF
  5
1972
102
{ACAD_REACTORS
330
1971
102
}
330
1971
100
AcDbRasterImageDef
 90
        0
  1
\\Nx\nxdata\末本\1.tif
 10
1248.0
 20
1760.0
 11
0.127
 21
0.127
280
     1
281
     5
  0
LAYOUT
  5
19B7
102
{ACAD_REACTORS
330
19B5
102
}
330
19B5
100
AcDbPlotSettings
  1

  2
A4 EPSON LP-6100.pc3
  4
A4
  6

 40
3.174999952316284
 41
3.174999952316284
 42
3.175003051757812
 43
3.17498779296875
 44
210.0
 45
297.0
 46
1.399999999999999
 47
25.0
 48
0.0
 49
0.0
140
0.0
141
0.0
142
1.0
143
1.0
 70
 28336
 72
     1
 73
     1
 74
     1
  7
AutoCad LT 98.ctb
 75
    16
147
1.0
 76
     1
 77
     2
 78
   300
148
0.2256454072593215
149
0.2181385412601458
100
AcDbLayout
  1
Model
 70
     1
 71
     0
 10
0.0
 20
0.0
 11
12.0
 21
9.0
 12
0.0
 22
0.0
 32
0.0
 14
0.0
 24
0.0
 34
0.0
 15
0.0
 25
0.0
 35
0.0
146
0.0
 13
0.0
 23
0.0
 33
0.0
 16
1.0
 26
0.0
 36
0.0
 17
0.0
 27
1.0
 37
0.0
 76
     0
330
18
  0
LAYOUT
  5
19B8
102
{ACAD_REACTORS
330
19B5
102
}
330
19B5
100
AcDbPlotSettings
  1

  2
Mytalk FAX
  4

  6

 40
0.0
 41
0.0
 42
0.0
 43
0.0
 44
0.0
 45
0.0
 46
0.0
 47
0.0
 48
0.0
 49
0.0
140
0.0
141
0.0
142
1.0
143
1.0
 70
   688
 72
     0
 73
     0
 74
     5
  7
AutoCAD LT 98.ctb
 75
    16
147
1.0
 76
     0
 77
     2
 78
   300
148
0.0
149
0.0
100
AcDbLayout
  1
レイアウト1
 70
     1
 71
     1
 10
0.0
 20
0.0
 11
420.0
 21
297.0
 12
0.0
 22
0.0
 32
0.0
 14
-0.2
 24
-0.2
 34
0.0
 15
255.2
 25
195.2
 35
0.0
146
0.0
 13
0.0
 23
0.0
 33
0.0
 16
1.0
 26
0.0
 36
0.0
 17
0.0
 27
1.0
 37
0.0
 76
     0
330
15
331
177
  0
MLINESTYLE
  5
1C
102
{ACAD_REACTORS
330
1B
102
}
330
1B
100
AcDbMlineStyle
  2
STANDARD
 70
     0
  3

 62
   256
 51
90.0
 52
90.0
 71
     2
 49
0.5
 62
   256
  6
BYLAYER
 49
-0.5
 62
   256
  6
BYLAYER
  0
ACDBPLACEHOLDER
  5
19B0
102
{ACAD_REACTORS
330
19AF
102
}
330
19AF
  0
ACAD_PROXY_OBJECT
  5
19B4
102
{ACAD_REACTORS
330
19B3
102
}
330
19B3
100
AcDbProxyObject
 90
      499
 91
      507
 95
       25
 70
     0
 93
     1849
310
4214DD185B99185C992420000000000000F83F0000000000003E0FC00000000000004901028000000C1008070000C3001FDFF8000000C1003FBFF000000182007F7FE00000030400FEFFC00000060801FDFF8000000C1003FBFF000000182000000000000000C2020B0000001820100E000186003FBFF000000182007F7FE0
310
0000030400FEFFC00000060801FDFF8000000C1003FBFF000000182007F7FE0000003040000000000000012404160000003040201C00030C007F7FE00000030400FEFFC00000060801FDFF8000000C1003FBFF000000182007F7FE00000030400FEFFC000000608000
340
F
340
F
340
F
 94
        0
  0
DICTIONARYVAR
  5
19DB
102
{ACAD_REACTORS
330
19DA
102
}
330
19DA
100
DictionaryVariables
280
     0
  1
STANDARD
  0
ENDSEC
  0
EOF
