  0
SECTION
  2
HEADER
  9
$ACADVER
  1
AC1018
  9
$ACADMAINTVER
 70
     0
  9
$DWGCODEPAGE
  3
ANSI_932
  9
$INSBASE
 10
0.0
 20
0.0
 30
0.0
  9
$EXTMIN
 10
-0.2128225079886761
 20
-0.2090691322566727
 30
-0.0015258207003583
  9
$EXTMAX
 10
255.2310249564599
 20
195.2002935422122
 30
0.0000000349246037
  9
$LIMMIN
 10
0.0
 20
0.0
  9
$LIMMAX
 10
420.0
 20
297.0
  9
$ORTHOMODE
 70
     0
  9
$REGENMODE
 70
     1
  9
$FILLMODE
 70
     1
  9
$QTEXTMODE
 70
     0
  9
$MIRRTEXT
 70
     1
  9
$LTSCALE
 40
1.0
  9
$ATTMODE
 70
     1
  9
$TEXTSIZE
 40
3.0
  9
$TRACEWID
 40
1.0
  9
$TEXTSTYLE
  7
STYLE3
  9
$CLAYER
  8
文字
  9
$CELTYPE
  6
BYLAYER
  9
$CECOLOR
 62
   256
  9
$CELTSCALE
 40
1.0
  9
$DISPSILH
 70
     0
  9
$DIMSCALE
 40
1.0
  9
$DIMASZ
 40
2.5
  9
$DIMEXO
 40
0.0
  9
$DIMDLI
 40
3.75
  9
$DIMRND
 40
0.0
  9
$DIMDLE
 40
0.0
  9
$DIMEXE
 40
1.25
  9
$DIMTP
 40
0.0
  9
$DIMTM
 40
0.0
  9
$DIMTXT
 40
2.5
  9
$DIMCEN
 40
2.5
  9
$DIMTSZ
 40
0.0
  9
$DIMTOL
 70
     0
  9
$DIMLIM
 70
     0
  9
$DIMTIH
 70
     0
  9
$DIMTOH
 70
     0
  9
$DIMSE1
 70
     0
  9
$DIMSE2
 70
     0
  9
$DIMTAD
 70
     1
  9
$DIMZIN
 70
     8
  9
$DIMBLK
  1

  9
$DIMASO
 70
     1
  9
$DIMSHO
 70
     1
  9
$DIMPOST
  1

  9
$DIMAPOST
  1

  9
$DIMALT
 70
     0
  9
$DIMALTD
 70
     4
  9
$DIMALTF
 40
0.0394
  9
$DIMLFAC
 40
1.0
  9
$DIMTOFL
 70
     1
  9
$DIMTVP
 40
0.0
  9
$DIMTIX
 70
     0
  9
$DIMSOXD
 70
     0
  9
$DIMSAH
 70
     1
  9
$DIMBLK1
  1
OPEN
  9
$DIMBLK2
  1
OPEN
  9
$DIMSTYLE
  2
STYLE3
  9
$DIMCLRD
 70
     2
  9
$DIMCLRE
 70
     2
  9
$DIMCLRT
 70
     6
  9
$DIMTFAC
 40
1.0
  9
$DIMGAP
 40
0.625
  9
$DIMJUST
 70
     0
  9
$DIMSD1
 70
     0
  9
$DIMSD2
 70
     0
  9
$DIMTOLJ
 70
     1
  9
$DIMTZIN
 70
     0
  9
$DIMALTZ
 70
     0
  9
$DIMALTTZ
 70
     0
  9
$DIMUPT
 70
     0
  9
$DIMDEC
 70
     2
  9
$DIMTDEC
 70
     4
  9
$DIMALTU
 70
     8
  9
$DIMALTTD
 70
     4
  9
$DIMTXSTY
  7
STYLE3
  9
$DIMAUNIT
 70
     0
  9
$DIMADEC
 70
     0
  9
$DIMALTRND
 40
0.0
  9
$DIMAZIN
 70
     0
  9
$DIMDSEP
 70
    46
  9
$DIMATFIT
 70
     3
  9
$DIMFRAC
 70
     0
  9
$DIMLDRBLK
  1

  9
$DIMLUNIT
 70
     2
  9
$DIMLWD
 70
    -2
  9
$DIMLWE
 70
    -2
  9
$DIMTMOVE
 70
     0
  9
$LUNITS
 70
     2
  9
$LUPREC
 70
     4
  9
$SKETCHINC
 40
1.0
  9
$FILLETRAD
 40
1.75
  9
$AUNITS
 70
     0
  9
$AUPREC
 70
     0
  9
$MENU
  1
.
  9
$ELEVATION
 40
0.0
  9
$PELEVATION
 40
0.0
  9
$THICKNESS
 40
0.0
  9
$LIMCHECK
 70
     0
  9
$CHAMFERA
 40
10.0
  9
$CHAMFERB
 40
10.0
  9
$CHAMFERC
 40
20.0
  9
$CHAMFERD
 40
0.0
  9
$SKPOLY
 70
     0
  9
$TDCREATE
 40
2451859.479272570
  9
$TDUCREATE
 40
2451859.104272570
  9
$TDUPDATE
 40
2455358.476024664
  9
$TDUUPDATE
 40
2455358.101024665
  9
$TDINDWG
 40
0.4516137500
  9
$TDUSRTIMER
 40
0.4516137500
  9
$USRTIMER
 70
     1
  9
$ANGBASE
 50
0.0
  9
$ANGDIR
 70
     0
  9
$PDMODE
 70
     0
  9
$PDSIZE
 40
0.0
  9
$PLINEWID
 40
0.0
  9
$SPLFRAME
 70
     0
  9
$SPLINETYPE
 70
     6
  9
$SPLINESEGS
 70
     8
  9
$HANDSEED
  5
1438
  9
$SURFTAB1
 70
     6
  9
$SURFTAB2
 70
     6
  9
$SURFTYPE
 70
     6
  9
$SURFU
 70
     6
  9
$SURFV
 70
     6
  9
$UCSBASE
  2

  9
$UCSNAME
  2

  9
$UCSORG
 10
0.0
 20
0.0
 30
0.0
  9
$UCSXDIR
 10
1.0
 20
0.0
 30
0.0
  9
$UCSYDIR
 10
0.0
 20
1.0
 30
0.0
  9
$UCSORTHOREF
  2

  9
$UCSORTHOVIEW
 70
     0
  9
$UCSORGTOP
 10
0.0
 20
0.0
 30
0.0
  9
$UCSORGBOTTOM
 10
0.0
 20
0.0
 30
0.0
  9
$UCSORGLEFT
 10
0.0
 20
0.0
 30
0.0
  9
$UCSORGRIGHT
 10
0.0
 20
0.0
 30
0.0
  9
$UCSORGFRONT
 10
0.0
 20
0.0
 30
0.0
  9
$UCSORGBACK
 10
0.0
 20
0.0
 30
0.0
  9
$PUCSBASE
  2

  9
$PUCSNAME
  2

  9
$PUCSORG
 10
0.0
 20
0.0
 30
0.0
  9
$PUCSXDIR
 10
1.0
 20
0.0
 30
0.0
  9
$PUCSYDIR
 10
0.0
 20
1.0
 30
0.0
  9
$PUCSORTHOREF
  2

  9
$PUCSORTHOVIEW
 70
     0
  9
$PUCSORGTOP
 10
0.0
 20
0.0
 30
0.0
  9
$PUCSORGBOTTOM
 10
0.0
 20
0.0
 30
0.0
  9
$PUCSORGLEFT
 10
0.0
 20
0.0
 30
0.0
  9
$PUCSORGRIGHT
 10
0.0
 20
0.0
 30
0.0
  9
$PUCSORGFRONT
 10
0.0
 20
0.0
 30
0.0
  9
$PUCSORGBACK
 10
0.0
 20
0.0
 30
0.0
  9
$USERI1
 70
     0
  9
$USERI2
 70
     0
  9
$USERI3
 70
     0
  9
$USERI4
 70
     0
  9
$USERI5
 70
     0
  9
$USERR1
 40
0.0
  9
$USERR2
 40
0.0
  9
$USERR3
 40
0.0
  9
$USERR4
 40
0.0
  9
$USERR5
 40
0.0
  9
$WORLDVIEW
 70
     1
  9
$SHADEDGE
 70
     3
  9
$SHADEDIF
 70
    70
  9
$TILEMODE
 70
     1
  9
$MAXACTVP
 70
    48
  9
$PINSBASE
 10
0.0
 20
0.0
 30
0.0
  9
$PLIMCHECK
 70
     0
  9
$PEXTMIN
 10
-0.2
 20
-0.2
 30
0.0
  9
$PEXTMAX
 10
255.2
 20
195.2
 30
0.0
  9
$PLIMMIN
 10
0.0
 20
0.0
  9
$PLIMMAX
 10
420.0
 20
297.0
  9
$UNITMODE
 70
     0
  9
$VISRETAIN
 70
     1
  9
$PLINEGEN
 70
     0
  9
$PSLTSCALE
 70
     1
  9
$TREEDEPTH
 70
  3020
  9
$CMLSTYLE
  2
STANDARD
  9
$CMLJUST
 70
     0
  9
$CMLSCALE
 40
20.0
  9
$PROXYGRAPHICS
 70
     1
  9
$MEASUREMENT
 70
     0
  9
$CELWEIGHT
370
    -1
  9
$ENDCAPS
280
     0
  9
$JOINSTYLE
280
     0
  9
$LWDISPLAY
290
     0
  9
$INSUNITS
 70
     0
  9
$HYPERLINKBASE
  1

  9
$STYLESHEET
  1
AutoCAD LT 98.ctb
  9
$XEDIT
290
     1
  9
$CEPSNTYPE
380
     0
  9
$PSTYLEMODE
290
     1
  9
$FINGERPRINTGUID
  2
{83204172-18F2-4914-8A62-ACA7813B9581}
  9
$VERSIONGUID
  2
{D61B61FB-F888-4340-AB4F-8A17E1427E68}
  9
$EXTNAMES
290
     1
  9
$PSVPSCALE
 40
0.0
  9
$OLESTARTUP
290
     0
  9
$SORTENTS
280
   127
  9
$INDEXCTL
280
     0
  9
$HIDETEXT
280
     0
  9
$XCLIPFRAME
290
     0
  9
$HALOGAP
280
     0
  9
$OBSCOLOR
 70
   257
  9
$OBSLTYPE
280
     0
  9
$INTERSECTIONDISPLAY
280
     0
  9
$INTERSECTIONCOLOR
 70
   257
  9
$DIMASSOC
280
     1
  9
$PROJECTNAME
  1

  0
ENDSEC
  0
SECTION
  2
CLASSES
  0
CLASS
  1
HATCH
  2
AcDbHatch
  3
ObjectDBX Classes
 90
        0
 91
       15
280
     0
281
     1
  0
CLASS
  1
ACDBDICTIONARYWDFLT
  2
AcDbDictionaryWithDefault
  3
ObjectDBX Classes
 90
        0
 91
        1
280
     0
281
     0
  0
CLASS
  1
TABLESTYLE
  2
AcDbTableStyle
  3
ObjectDBX Classes
 90
     2047
 91
        1
280
     0
281
     0
  0
CLASS
  1
SORTENTSTABLE
  2
AcDbSortentsTable
  3
ObjectDBX Classes
 90
        0
 91
        0
280
     0
281
     0
  0
CLASS
  1
DICTIONARYVAR
  2
AcDbDictionaryVar
  3
ObjectDBX Classes
 90
        0
 91
        1
280
     0
281
     0
  0
ENDSEC
  0
SECTION
  2
TABLES
  0
TABLE
  2
VPORT
  5
8
330
0
100
AcDbSymbolTable
 70
     2
  0
VPORT
  5
1437
330
8
100
AcDbSymbolTableRecord
100
AcDbViewportTableRecord
  2
*Active
 70
     0
 10
0.0
 20
0.0
 11
1.0
 21
1.0
 12
127.5091012242356
 22
97.49561220497778
 13
0.0
 23
0.0
 14
10.0
 24
10.0
 15
10.0
 25
10.0
 16
0.0
 26
0.0
 36
1.0
 17
0.0
 27
0.0
 37
0.0
 40
196.8953654324496
 41
1.530456852791878
 42
50.0
 43
0.0
 44
0.0
 50
0.0
 51
0.0
 71
     0
 72
   100
 73
     1
 74
     1
 75
     0
 76
     0
 77
     0
 78
     0
281
     0
 65
     1
110
0.0
120
0.0
130
0.0
111
1.0
121
0.0
131
0.0
112
0.0
122
1.0
132
0.0
 79
     0
146
0.0
  0
ENDTAB
  0
TABLE
  2
LTYPE
  5
5
330
0
100
AcDbSymbolTable
 70
    12
  0
LTYPE
  5
12
330
5
100
AcDbSymbolTableRecord
100
AcDbLinetypeTableRecord
  2
BYBLOCK
 70
     0
  3

 72
    65
 73
     0
 40
0.0
  0
LTYPE
  5
13
330
5
100
AcDbSymbolTableRecord
100
AcDbLinetypeTableRecord
  2
BYLAYER
 70
     0
  3

 72
    65
 73
     0
 40
0.0
  0
LTYPE
  5
14
330
5
100
AcDbSymbolTableRecord
100
AcDbLinetypeTableRecord
  2
CONTINUOUS
 70
     0
  3
Solid line
 72
    65
 73
     0
 40
0.0
  0
LTYPE
  5
22
330
5
100
AcDbSymbolTableRecord
100
AcDbLinetypeTableRecord
  2
CENTER2
 70
     0
  3
Center (.5x) ___ _ ___ _ ___ _ ___ _ ___ _ ___
 72
    65
 73
     4
 40
28.575
 49
19.05
 74
     0
 49
-3.174999999999999
 74
     0
 49
3.174999999999999
 74
     0
 49
-3.174999999999999
 74
     0
  0
LTYPE
  5
24
330
5
100
AcDbSymbolTableRecord
100
AcDbLinetypeTableRecord
  2
PHANTOM2
 70
     0
  3
Phantom (.5x) ___ _ _ ___ _ _ ___ _ _ ___ _ _
 72
    65
 73
     6
 40
31.75
 49
15.875
 74
     0
 49
-3.174999999999999
 74
     0
 49
3.174999999999999
 74
     0
 49
-3.174999999999999
 74
     0
 49
3.174999999999999
 74
     0
 49
-3.174999999999999
 74
     0
  0
ENDTAB
  0
TABLE
  2
LAYER
  5
2
102
{ACAD_XDICTIONARY
360
B8D
102
}
330
0
100
AcDbSymbolTable
 70
    16
  0
LAYER
  5
E
330
2
100
AcDbSymbolTableRecord
100
AcDbLayerTableRecord
  2
0
 70
     0
 62
     7
  6
CONTINUOUS
370
    -3
390
A9A
  0
LAYER
  5
25
330
2
100
AcDbSymbolTableRecord
100
AcDbLayerTableRecord
  2
外形線
 70
     0
 62
     7
  6
CONTINUOUS
370
    -3
390
A9A
  0
LAYER
  5
26
330
2
100
AcDbSymbolTableRecord
100
AcDbLayerTableRecord
  2
寸法線
 70
     0
 62
     2
  6
CONTINUOUS
370
    -3
390
A9A
  0
LAYER
  5
27
330
2
100
AcDbSymbolTableRecord
100
AcDbLayerTableRecord
  2
中心線
 70
     0
 62
     4
  6
CENTER2
370
    -3
390
A9A
  0
LAYER
  5
29
330
2
100
AcDbSymbolTableRecord
100
AcDbLayerTableRecord
  2
想像線
 70
     0
 62
     1
  6
PHANTOM2
370
    -3
390
A9A
  0
LAYER
  5
2B
330
2
100
AcDbSymbolTableRecord
100
AcDbLayerTableRecord
  2
文字
 70
     0
 62
     6
  6
CONTINUOUS
370
    -3
390
A9A
  0
LAYER
  5
2C
330
2
100
AcDbSymbolTableRecord
100
AcDbLayerTableRecord
  2
目盛
 70
     0
 62
    70
  6
CONTINUOUS
370
    -3
390
A9A
  0
LAYER
  5
2D
330
2
100
AcDbSymbolTableRecord
100
AcDbLayerTableRecord
  2
針
 70
     0
 62
     5
  6
CONTINUOUS
370
    -3
390
A9A
  0
LAYER
  5
53
330
2
100
AcDbSymbolTableRecord
100
AcDbLayerTableRecord
  2
DEFPOINTS
 70
     0
 62
     7
  6
CONTINUOUS
290
     0
370
    -3
390
A9A
  0
LAYER
  5
A5
330
2
100
AcDbSymbolTableRecord
100
AcDbLayerTableRecord
  2
C
 70
     0
 62
     7
  6
CONTINUOUS
370
    -3
390
A9A
  0
LAYER
  5
348
330
2
100
AcDbSymbolTableRecord
100
AcDbLayerTableRecord
  2
ROGO
 70
     0
 62
     6
  6
CONTINUOUS
370
    -3
390
A9A
  0
ENDTAB
  0
TABLE
  2
STYLE
  5
3
330
0
100
AcDbSymbolTable
 70
     7
  0
STYLE
  5
F
330
3
100
AcDbSymbolTableRecord
100
AcDbTextStyleTableRecord
  2
STANDARD
 70
     0
 40
0.0
 41
1.0
 50
0.0
 71
     0
 42
2.5
  3
txt
  4

  0
STYLE
  5
3F
330
3
100
AcDbSymbolTableRecord
100
AcDbTextStyleTableRecord
  2
STYLE3
 70
     0
 40
0.0
 41
1.0
 50
0.0
 71
     0
 42
3.0
  3
romans.shx
  4
bigfont.shx
  0
ENDTAB
  0
TABLE
  2
VIEW
  5
6
330
0
100
AcDbSymbolTable
 70
     0
  0
ENDTAB
  0
TABLE
  2
UCS
  5
7
330
0
100
AcDbSymbolTable
 70
     0
  0
ENDTAB
  0
TABLE
  2
APPID
  5
9
330
0
100
AcDbSymbolTable
 70
     2
  0
APPID
  5
10
330
9
100
AcDbSymbolTableRecord
100
AcDbRegAppTableRecord
  2
ACAD
 70
     0
  0
APPID
  5
B8C
330
9
100
AcDbSymbolTableRecord
100
AcDbRegAppTableRecord
  2
ACAD_PSEXT
 70
     0
  0
ENDTAB
  0
TABLE
  2
DIMSTYLE
  5
A
330
0
100
AcDbSymbolTable
 70
     7
100
AcDbDimStyleTable
 71
     1
340
8F
  0
DIMSTYLE
105
1D
330
A
100
AcDbSymbolTableRecord
100
AcDbDimStyleTableRecord
  2
STANDARD
 70
     0
 41
2.5
 42
0.625
 43
3.75
 44
1.25
 73
     0
 74
     0
 77
     1
 78
     8
140
2.5
141
2.5
143
0.0394
147
0.625
171
     4
172
     1
273
     8
274
     4
277
     6
340
F
  0
DIMSTYLE
105
8F
102
{ACAD_REACTORS
330
856
330
86E
330
87A
330
897
330
8A4
102
}
330
A
100
AcDbSymbolTableRecord
100
AcDbDimStyleTableRecord
  2
STYLE3
 70
     0
 41
2.5
 42
0.0
 43
3.75
 44
1.25
 73
     0
 74
     0
 77
     1
 78
     8
140
2.5
141
2.5
143
0.0394
147
0.625
171
     4
172
     1
173
     1
176
     2
177
     2
178
     6
271
     1
273
     8
274
     4
340
3F
341
45
343
45
344
45
  0
ENDTAB
  0
TABLE
  2
BLOCK_RECORD
  5
1
330
0
100
AcDbSymbolTable
 70
    15
  0
BLOCK_RECORD
  5
18
330
1
100
AcDbSymbolTableRecord
100
AcDbBlockTableRecord
  2
*MODEL_SPACE
340
AA1
  0
BLOCK_RECORD
  5
15
330
1
100
AcDbSymbolTableRecord
100
AcDbBlockTableRecord
  2
*PAPER_SPACE
340
AA2
  0
BLOCK_RECORD
  5
45
330
1
100
AcDbSymbolTableRecord
100
AcDbBlockTableRecord
  2
_OPEN
340
0
102
{BLKREFS
331
62D
331
644
331
7DB
331
7EF
331
7F0
331
7FB
331
7FD
331
800
331
A42
331
A6D
331
A72
331
8B1
331
8B2
331
8BC
331
8BD
331
8C6
331
8C7
331
8DE
331
8DF
331
8E9
331
8EA
331
9C2
331
9C3
331
9C7
331
9CB
331
9CF
331
9D1
331
9E6
331
9E8
331
9ED
331
9F2
102
}
  0
BLOCK_RECORD
  5
84A
330
1
100
AcDbSymbolTableRecord
100
AcDbBlockTableRecord
  2
*D1
340
0
  0
BLOCK_RECORD
  5
862
330
1
100
AcDbSymbolTableRecord
100
AcDbBlockTableRecord
  2
*D2
340
0
  0
BLOCK_RECORD
  5
86F
330
1
100
AcDbSymbolTableRecord
100
AcDbBlockTableRecord
  2
*D3
340
0
  0
BLOCK_RECORD
  5
88B
330
1
100
AcDbSymbolTableRecord
100
AcDbBlockTableRecord
  2
*D4
340
0
  0
BLOCK_RECORD
  5
898
330
1
100
AcDbSymbolTableRecord
100
AcDbBlockTableRecord
  2
*D5
340
0
  0
ENDTAB
  0
ENDSEC
  0
SECTION
  2
BLOCKS
  0
BLOCK
  5
19
330
18
100
AcDbEntity
  8
0
100
AcDbBlockBegin
  2
*MODEL_SPACE
 70
     0
 10
0.0
 20
0.0
 30
0.0
  3
*MODEL_SPACE
  1

  0
ENDBLK
  5
1A
330
18
100
AcDbEntity
  8
0
100
AcDbBlockEnd
  0
BLOCK
  5
16
330
15
100
AcDbEntity
 67
     1
  8
0
100
AcDbBlockBegin
  2
*PAPER_SPACE
 70
     0
 10
0.0
 20
0.0
 30
0.0
  3
*PAPER_SPACE
  1

  0
ENDBLK
  5
17
330
15
100
AcDbEntity
 67
     1
  8
0
100
AcDbBlockEnd
  0
BLOCK
  5
46
330
45
100
AcDbEntity
  8
0
100
AcDbBlockBegin
  2
_OPEN
 70
     0
 10
0.0
 20
0.0
 30
0.0
  3
_OPEN
  1

  0
LINE
  5
47
330
45
100
AcDbEntity
  8
0
  6
ByBlock
 62
     0
100
AcDbLine
 10
-1.0
 20
0.1666666666666666
 30
0.0
 11
0.0
 21
0.0
 31
0.0
  0
LINE
  5
48
330
45
100
AcDbEntity
  8
0
  6
ByBlock
 62
     0
100
AcDbLine
 10
0.0
 20
0.0
 30
0.0
 11
-1.0
 21
-0.1666666666666666
 31
0.0
  0
LINE
  5
49
330
45
100
AcDbEntity
  8
0
  6
ByBlock
 62
     0
100
AcDbLine
 10
0.0
 20
0.0
 30
0.0
 11
-1.0
 21
0.0
 31
0.0
  0
ENDBLK
  5
4A
330
45
100
AcDbEntity
  8
0
100
AcDbBlockEnd
  0
BLOCK
  5
8AD
330
84A
100
AcDbEntity
  8
0
100
AcDbBlockBegin
  2
*D1
 70
     1
 10
0.0
 20
0.0
 30
0.0
  3
*D1
  1

  0
LINE
  5
8AE
330
84A
100
AcDbEntity
  8
0
  6
ByBlock
 62
     2
100
AcDbLine
 10
92.15702736131504
 20
47.62264016755347
 30
0.0
 11
92.15702736131504
 21
29.43238392382358
 31
0.0
  0
LINE
  5
8AF
330
84A
100
AcDbEntity
  8
0
  6
ByBlock
 62
     2
100
AcDbLine
 10
212.157027361315
 20
45.39375674288741
 30
0.0
 11
212.157027361315
 21
29.43238392382358
 31
0.0
  0
LINE
  5
8B0
330
84A
100
AcDbEntity
  8
0
  6
ByBlock
 62
     2
100
AcDbLine
 10
94.65702736131504
 20
30.68238392382358
 30
0.0
 11
209.657027361315
 21
30.68238392382358
 31
0.0
  0
INSERT
  5
8B1
330
84A
100
AcDbEntity
  8
0
  6
ByBlock
 62
     2
100
AcDbBlockReference
  2
_OPEN
 10
92.15702736131504
 20
30.68238392382358
 30
0.0
 41
2.5
 42
2.5
 43
2.5
 50
180.0
  0
INSERT
  5
8B2
330
84A
100
AcDbEntity
  8
0
  6
ByBlock
 62
     2
100
AcDbBlockReference
  2
_OPEN
 10
212.157027361315
 20
30.68238392382358
 30
0.0
 41
2.5
 42
2.5
 43
2.5
  0
MTEXT
  5
8B3
330
84A
100
AcDbEntity
  8
0
  6
ByBlock
 62
     6
100
AcDbMText
 10
152.157027361315
 20
32.55738392382358
 30
0.0
 40
2.5
 41
0.0
 71
     5
 72
     1
  1
\A1;120
  7
STYLE3
 73
     1
 44
1.0
  0
POINT
  5
8B4
330
84A
100
AcDbEntity
  8
DEFPOINTS
  6
ByBlock
 62
     0
100
AcDbPoint
 10
92.15702736131504
 20
47.62264016755347
 30
0.0
  0
POINT
  5
8B5
330
84A
100
AcDbEntity
  8
DEFPOINTS
  6
ByBlock
 62
     0
100
AcDbPoint
 10
212.157027361315
 20
45.39375674288741
 30
0.0
  0
POINT
  5
8B6
330
84A
100
AcDbEntity
  8
DEFPOINTS
  6
ByBlock
 62
     0
100
AcDbPoint
 10
212.157027361315
 20
30.68238392382358
 30
0.0
  0
ENDBLK
  5
8B7
330
84A
100
AcDbEntity
  8
0
100
AcDbBlockEnd
  0
BLOCK
  5
8B8
330
862
100
AcDbEntity
  8
0
100
AcDbBlockBegin
  2
*D2
 70
     1
 10
0.0
 20
0.0
 30
0.0
  3
*D2
  1

  0
LINE
  5
8B9
330
862
100
AcDbEntity
  8
0
  6
ByBlock
 62
     2
100
AcDbLine
 10
92.15702736131504
 20
170.95987707584
 30
0.0
 11
56.96955328210754
 21
170.95987707584
 31
0.0
  0
LINE
  5
8BA
330
862
100
AcDbEntity
  8
0
  6
ByBlock
 62
     2
100
AcDbLine
 10
61.40627914244475
 20
127.95987707584
 30
0.0
 11
56.96955328210754
 21
127.95987707584
 31
0.0
  0
LINE
  5
8BB
330
862
100
AcDbEntity
  8
0
  6
ByBlock
 62
     2
100
AcDbLine
 10
58.21955328210754
 20
168.45987707584
 30
0.0
 11
58.21955328210754
 21
130.45987707584
 31
0.0
  0
INSERT
  5
8BC
330
862
100
AcDbEntity
  8
0
  6
ByBlock
 62
     2
100
AcDbBlockReference
  2
_OPEN
 10
58.21955328210754
 20
170.95987707584
 30
0.0
 41
2.5
 42
2.5
 43
2.5
 50
90.0
  0
INSERT
  5
8BD
330
862
100
AcDbEntity
  8
0
  6
ByBlock
 62
     2
100
AcDbBlockReference
  2
_OPEN
 10
58.21955328210754
 20
127.95987707584
 30
0.0
 41
2.5
 42
2.5
 43
2.5
 50
270.0
  0
MTEXT
  5
8BE
330
862
100
AcDbEntity
  8
0
  6
ByBlock
 62
     6
100
AcDbMText
 10
56.34455328210754
 20
149.45987707584
 30
0.0
 40
2.5
 41
0.0
 71
     5
 72
     1
  1
\A1;43
  7
STYLE3
 11
0.0000000000000001
 21
1.0
 31
0.0
 73
     1
 44
1.0
  0
POINT
  5
8BF
330
862
100
AcDbEntity
  8
DEFPOINTS
  6
ByBlock
 62
     0
100
AcDbPoint
 10
92.15702736131504
 20
170.95987707584
 30
0.0
  0
POINT
  5
8C0
330
862
100
AcDbEntity
  8
DEFPOINTS
  6
ByBlock
 62
     0
100
AcDbPoint
 10
61.40627914244475
 20
127.95987707584
 30
0.0
  0
POINT
  5
8C1
330
862
100
AcDbEntity
  8
DEFPOINTS
  6
ByBlock
 62
     0
100
AcDbPoint
 10
58.21955328210754
 20
127.95987707584
 30
0.0
  0
ENDBLK
  5
8C2
330
862
100
AcDbEntity
  8
0
100
AcDbBlockEnd
  0
BLOCK
  5
8C3
330
86F
100
AcDbEntity
  8
0
100
AcDbBlockBegin
  2
*D3
 70
     1
 10
0.0
 20
0.0
 30
0.0
  3
*D3
  1

  0
LINE
  5
8C4
330
86F
100
AcDbEntity
  8
0
  6
ByBlock
 62
     2
100
AcDbLine
 10
87.15702736131504
 20
64.25987707584005
 30
0.0
 11
56.96955328210754
 21
64.25987707584005
 31
0.0
  0
LINE
  5
8C5
330
86F
100
AcDbEntity
  8
0
  6
ByBlock
 62
     2
100
AcDbLine
 10
58.21955328210754
 20
125.45987707584
 30
0.0
 11
58.21955328210754
 21
66.75987707584005
 31
0.0
  0
INSERT
  5
8C6
330
86F
100
AcDbEntity
  8
0
  6
ByBlock
 62
     2
100
AcDbBlockReference
  2
_OPEN
 10
58.21955328210754
 20
127.95987707584
 30
0.0
 41
2.5
 42
2.5
 43
2.5
 50
90.0
  0
INSERT
  5
8C7
330
86F
100
AcDbEntity
  8
0
  6
ByBlock
 62
     2
100
AcDbBlockReference
  2
_OPEN
 10
58.21955328210754
 20
64.25987707584005
 30
0.0
 41
2.5
 42
2.5
 43
2.5
 50
270.0
  0
MTEXT
  5
8C8
330
86F
100
AcDbEntity
  8
0
  6
ByBlock
 62
     6
100
AcDbMText
 10
56.34455328210754
 20
96.10987707584005
 30
0.0
 40
2.5
 41
0.0
 71
     5
 72
     1
  1
\A1;63.7
  7
STYLE3
 11
0.0000000000000001
 21
1.0
 31
0.0
 73
     1
 44
1.0
  0
POINT
  5
8C9
330
86F
100
AcDbEntity
  8
DEFPOINTS
  6
ByBlock
 62
     0
100
AcDbPoint
 10
61.40627914244475
 20
127.95987707584
 30
0.0
  0
POINT
  5
8CA
330
86F
100
AcDbEntity
  8
DEFPOINTS
  6
ByBlock
 62
     0
100
AcDbPoint
 10
87.15702736131504
 20
64.25987707584005
 30
0.0
  0
POINT
  5
8CB
330
86F
100
AcDbEntity
  8
DEFPOINTS
  6
ByBlock
 62
     0
100
AcDbPoint
 10
58.21955328210754
 20
64.25987707584005
 30
0.0
  0
ENDBLK
  5
8CC
330
86F
100
AcDbEntity
  8
0
100
AcDbBlockEnd
  0
BLOCK
  5
8DA
330
88B
100
AcDbEntity
  8
0
100
AcDbBlockBegin
  2
*D4
 70
     1
 10
0.0
 20
0.0
 30
0.0
  3
*D4
  1

  0
LINE
  5
8DB
330
88B
100
AcDbEntity
  8
0
  6
ByBlock
 62
     2
100
AcDbLine
 10
66.76906888648819
 20
64.25987707584005
 30
0.0
 11
65.14056300080994
 21
64.25987707584005
 31
0.0
  0
LINE
  5
8DC
330
88B
100
AcDbEntity
  8
0
  6
ByBlock
 62
     2
100
AcDbLine
 10
87.15702736131504
 20
88.95987707584003
 30
0.0
 11
65.14056300080994
 21
88.95987707584003
 31
0.0
  0
LINE
  5
8DD
330
88B
100
AcDbEntity
  8
0
  6
ByBlock
 62
     2
100
AcDbLine
 10
66.39056300080994
 20
66.75987707584005
 30
0.0
 11
66.39056300080994
 21
86.45987707584003
 31
0.0
  0
INSERT
  5
8DE
330
88B
100
AcDbEntity
  8
0
  6
ByBlock
 62
     2
100
AcDbBlockReference
  2
_OPEN
 10
66.39056300080994
 20
64.25987707584005
 30
0.0
 41
2.5
 42
2.5
 43
2.5
 50
270.0
  0
INSERT
  5
8DF
330
88B
100
AcDbEntity
  8
0
  6
ByBlock
 62
     2
100
AcDbBlockReference
  2
_OPEN
 10
66.39056300080994
 20
88.95987707584003
 30
0.0
 41
2.5
 42
2.5
 43
2.5
 50
90.0
  0
MTEXT
  5
8E0
330
88B
100
AcDbEntity
  8
0
  6
ByBlock
 62
     6
100
AcDbMText
 10
64.51556300080994
 20
76.60987707584005
 30
0.0
 40
2.5
 41
0.0
 71
     5
 72
     1
  1
\A1;24.7
  7
STYLE3
 11
0.0000000000000001
 21
1.0
 31
0.0
 73
     1
 44
1.0
  0
POINT
  5
8E1
330
88B
100
AcDbEntity
  8
DEFPOINTS
  6
ByBlock
 62
     0
100
AcDbPoint
 10
66.76906888648819
 20
64.25987707584005
 30
0.0
  0
POINT
  5
8E2
330
88B
100
AcDbEntity
  8
DEFPOINTS
  6
ByBlock
 62
     0
100
AcDbPoint
 10
87.15702736131504
 20
88.95987707584003
 30
0.0
  0
POINT
  5
8E3
330
88B
100
AcDbEntity
  8
DEFPOINTS
  6
ByBlock
 62
     0
100
AcDbPoint
 10
66.39056300080994
 20
88.95987707584003
 30
0.0
  0
ENDBLK
  5
8E4
330
88B
100
AcDbEntity
  8
0
100
AcDbBlockEnd
  0
BLOCK
  5
8E5
330
898
100
AcDbEntity
  8
0
100
AcDbBlockBegin
  2
*D5
 70
     1
 10
0.0
 20
0.0
 30
0.0
  3
*D5
  1

  0
LINE
  5
8E6
330
898
100
AcDbEntity
  8
0
  6
ByBlock
 62
     2
100
AcDbLine
 10
56.96955328210754
 20
64.25987707584005
 30
0.0
 11
50.76759397502883
 21
64.25987707584005
 31
0.0
  0
LINE
  5
8E7
330
898
100
AcDbEntity
  8
0
  6
ByBlock
 62
     2
100
AcDbLine
 10
56.96955328210754
 20
170.95987707584
 30
0.0
 11
50.76759397502883
 21
170.95987707584
 31
0.0
  0
LINE
  5
8E8
330
898
100
AcDbEntity
  8
0
  6
ByBlock
 62
     2
100
AcDbLine
 10
52.01759397502883
 20
66.75987707584005
 30
0.0
 11
52.01759397502883
 21
168.45987707584
 31
0.0
  0
INSERT
  5
8E9
330
898
100
AcDbEntity
  8
0
  6
ByBlock
 62
     2
100
AcDbBlockReference
  2
_OPEN
 10
52.01759397502883
 20
64.25987707584005
 30
0.0
 41
2.5
 42
2.5
 43
2.5
 50
270.0
  0
INSERT
  5
8EA
330
898
100
AcDbEntity
  8
0
  6
ByBlock
 62
     2
100
AcDbBlockReference
  2
_OPEN
 10
52.01759397502883
 20
170.95987707584
 30
0.0
 41
2.5
 42
2.5
 43
2.5
 50
90.0
  0
MTEXT
  5
8EB
330
898
100
AcDbEntity
  8
0
  6
ByBlock
 62
     6
100
AcDbMText
 10
50.14259397502883
 20
117.60987707584
 30
0.0
 40
2.5
 41
0.0
 71
     5
 72
     1
  1
\A1;106.7
  7
STYLE3
 11
0.0000000000000001
 21
1.0
 31
0.0
 73
     1
 44
1.0
  0
POINT
  5
8EC
330
898
100
AcDbEntity
  8
DEFPOINTS
  6
ByBlock
 62
     0
100
AcDbPoint
 10
56.96955328210754
 20
64.25987707584005
 30
0.0
  0
POINT
  5
8ED
330
898
100
AcDbEntity
  8
DEFPOINTS
  6
ByBlock
 62
     0
100
AcDbPoint
 10
56.96955328210754
 20
170.95987707584
 30
0.0
  0
POINT
  5
8EE
330
898
100
AcDbEntity
  8
DEFPOINTS
  6
ByBlock
 62
     0
100
AcDbPoint
 10
52.01759397502883
 20
170.95987707584
 30
0.0
  0
ENDBLK
  5
8EF
330
898
100
AcDbEntity
  8
0
100
AcDbBlockEnd
  0
ENDSEC
  0
SECTION
  2
ENTITIES
  0
LWPOLYLINE
  5
26C
330
18
100
AcDbEntity
  8
C
100
AcDbPolyline
 90
        5
 70
     0
 43
0.4
 10
0.0
 20
195.0
 10
255.0
 20
195.0
 10
255.0
 20
0.0
 10
0.0
 20
0.0
 10
0.0
 20
195.0
  0
ARC
  5
2FF
330
18
100
AcDbEntity
  8
外形線
100
AcDbCircle
 10
210.157027361315
 20
89.60987707584004
 30
0.0
 40
15.0
100
AcDbArc
 50
16.45897725956903
 51
92.74855930925273
  0
ARC
  5
300
330
18
100
AcDbEntity
  8
外形線
100
AcDbCircle
 10
210.157027361315
 20
89.60987707584004
 30
0.0
 40
13.0
100
AcDbArc
 50
332.7406161232482
 51
92.74855930925273
  0
ARC
  5
301
330
18
100
AcDbEntity
  8
外形線
100
AcDbCircle
 10
210.157027361315
 20
63.60987707584005
 30
0.0
 40
15.0
100
AcDbArc
 50
267.2514406907473
 51
343.541022740431
  0
ARC
  5
302
330
18
100
AcDbEntity
  8
外形線
100
AcDbCircle
 10
210.157027361315
 20
63.60987707584005
 30
0.0
 40
13.0
100
AcDbArc
 50
267.2514406907473
 51
27.25938387675181
  0
ARC
  5
303
330
18
100
AcDbEntity
  8
外形線
100
AcDbCircle
 10
203.307027361315
 20
76.60987707584005
 30
0.0
 40
14.85
100
AcDbArc
 50
270.0
 51
90.0
  0
ARC
  5
304
330
18
100
AcDbEntity
  8
外形線
100
AcDbCircle
 10
205.807027361315
 20
76.60987707584005
 30
0.0
 40
39.35
100
AcDbArc
 50
262.9300034118231
 51
76.8126261810889
  0
ARC
  5
305
330
18
100
AcDbEntity
  8
外形線
100
AcDbCircle
 10
223.9096442352078
 20
153.8673541399861
 30
0.0
 40
40.0
100
AcDbArc
 50
225.3586908109113
 51
256.8126261810889
  0
ARC
  5
306
330
18
100
AcDbEntity
  8
外形線
100
AcDbCircle
 10
199.807027361315
 20
76.60987707584005
 30
0.0
 40
12.35
100
AcDbArc
 50
270.0
 51
90.0
  0
LINE
  5
307
330
18
100
AcDbEntity
  8
中心線
100
AcDbLine
 10
92.15702736131504
 20
173.5622865950942
 30
0.0
 11
92.15702736131504
 21
47.62264016755347
 31
0.0
  0
LINE
  5
308
330
18
100
AcDbEntity
  8
外形線
100
AcDbLine
 10
94.68488978094718
 20
58.09959235676511
 30
0.0
 11
209.5676193627915
 21
50.62291106008117
 31
0.0
  0
LINE
  5
309
330
18
100
AcDbEntity
  8
外形線
100
AcDbLine
 10
94.68488978094718
 20
56.09536129751333
 30
0.0
 11
209.4377321713217
 21
48.62713318729771
 31
0.0
  0
LINE
  5
30A
330
18
100
AcDbEntity
  8
外形線
100
AcDbLine
 10
94.68488978094717
 20
61.75987707584005
 30
0.0
 11
203.307027361315
 21
61.75987707584005
 31
0.0
  0
LINE
  5
30B
330
18
100
AcDbEntity
  8
外形線
100
AcDbLine
 10
87.15702736131504
 20
64.25987707584005
 30
0.0
 11
199.807027361315
 21
64.25987707584005
 31
0.0
  0
LINE
  5
30C
330
18
100
AcDbEntity
  8
外形線
100
AcDbLine
 10
200.9637578647744
 20
37.55907374756163
 30
0.0
 11
109.159985118856
 21
48.94502164906549
 31
0.0
  0
ARC
  5
30D
330
18
100
AcDbEntity
  8
外形線
100
AcDbCircle
 10
112.157027361315
 20
73.10987707584004
 30
0.0
 40
24.35
100
AcDbArc
 50
231.5395312991792
 51
262.9300034118231
  0
LINE
  5
30E
330
18
100
AcDbEntity
  8
外形線
100
AcDbLine
 10
87.15702736131504
 20
54.25987707584005
 30
0.0
 11
96.38997310251333
 21
54.25987707584005
 31
0.0
  0
LINE
  5
30F
330
18
100
AcDbEntity
  8
外形線
100
AcDbLine
 10
87.15702736131504
 20
64.25987707584005
 30
0.0
 11
87.15702736131504
 21
54.25987707584005
 31
0.0
  0
ARC
  5
310
330
18
100
AcDbEntity
  8
外形線
100
AcDbCircle
 10
96.38997310251333
 20
53.25987707584005
 30
0.0
 40
1.0
100
AcDbArc
 50
51.53953129917781
 51
90.0
  0
LINE
  5
311
330
18
100
AcDbEntity
  8
外形線
100
AcDbLine
 10
94.68488978094718
 20
97.12439285416676
 30
0.0
 11
209.4377321713217
 21
104.5926209643823
 31
0.0
  0
LINE
  5
312
330
18
100
AcDbEntity
  8
外形線
100
AcDbLine
 10
94.68488978094718
 20
95.12016179491501
 30
0.0
 11
209.5676193627915
 21
102.5968430915989
 31
0.0
  0
LINE
  5
313
330
18
100
AcDbEntity
  8
外形線
100
AcDbLine
 10
94.68488978094717
 20
91.45987707584003
 30
0.0
 11
203.307027361315
 21
91.45987707584003
 31
0.0
  0
LINE
  5
314
330
18
100
AcDbEntity
  8
外形線
100
AcDbLine
 10
87.15702736131504
 20
88.95987707584003
 30
0.0
 11
199.807027361315
 21
88.95987707584001
 31
0.0
  0
ARC
  5
315
330
18
100
AcDbEntity
  8
外形線
100
AcDbCircle
 10
144.157027361315
 20
73.10987707584004
 30
0.0
 40
73.5
100
AcDbArc
 50
45.35869081091124
 51
111.0148462464114
  0
ARC
  5
316
330
18
100
AcDbEntity
  8
外形線
100
AcDbCircle
 10
144.157027361315
 20
73.10987707584004
 30
0.0
 40
69.0
100
AcDbArc
 50
42.85550999712329
 51
110.4400988727516
  0
LINE
  5
317
330
18
100
AcDbEntity
  8
外形線
100
AcDbLine
 10
115.8277457907187
 20
104.4619912663931
 30
0.0
 11
191.9131606075672
 21
112.5046029292009
 31
0.0
  0
ARC
  5
318
330
18
100
AcDbEntity
  8
外形線
100
AcDbCircle
 10
116.1854596052009
 20
145.9219049096061
 30
0.0
 40
4.5
100
AcDbArc
 50
250.9875119056596
 51
291.0148462464115
  0
LINE
  5
31A
330
18
100
AcDbEntity
  8
中心線
100
AcDbLine
 10
61.40627914244475
 20
127.95987707584
 30
0.0
 11
122.9077755801853
 21
127.95987707584
 31
0.0
  0
LINE
  5
31B
330
18
100
AcDbEntity
  8
外形線
100
AcDbLine
 10
87.15702736131504
 20
100.6057183426602
 30
0.0
 11
87.15702736131504
 21
88.95987707584003
 31
0.0
  0
ARC
  5
31C
330
18
100
AcDbEntity
  8
外形線
100
AcDbCircle
 10
84.15702736131505
 20
100.6057183426602
 30
0.0
 40
3.0
100
AcDbArc
 50
0.0
 51
30.32021370564653
  0
ARC
  5
31D
330
18
100
AcDbEntity
  8
外形線
100
AcDbCircle
 10
115.3547085324583
 20
108.9370595063531
 30
0.0
 40
4.5
100
AcDbArc
 50
174.8553979629983
 51
276.0340452117911
  0
ARC
  5
31E
330
18
100
AcDbEntity
  8
外形線
100
AcDbCircle
 10
121.6318261602585
 20
133.5488157731064
 30
0.0
 40
4.5
100
AcDbArc
 50
110.4400988727514
 51
156.5286030573146
  0
ARC
  5
31F
330
18
100
AcDbEntity
  8
外形線
100
AcDbCircle
 10
191.4401233493068
 20
116.9796711691607
 30
0.0
 40
4.5
100
AcDbArc
 50
276.0340452117919
 51
42.85550999712327
  0
ARC
  5
320
330
18
100
AcDbEntity
  8
外形線
100
AcDbCircle
 10
222.1570273613151
 20
76.60987707584005
 30
0.0
 40
15.0
100
AcDbArc
 50
291.0401973448459
 51
68.95980265515409
  0
ARC
  5
321
330
18
100
AcDbEntity
  8
外形線
100
AcDbCircle
 10
210.157027361315
 20
89.60987707584004
 30
0.0
 40
15.0
100
AcDbArc
 50
319.4583981264955
 51
345.2362094243778
  0
ARC
  5
322
330
18
100
AcDbEntity
  8
外形線
100
AcDbCircle
 10
222.1570273613151
 20
76.60987707584005
 30
0.0
 40
13.0
100
AcDbArc
 50
302.7226086673266
 51
57.27739133267333
  0
ARC
  5
323
330
18
100
AcDbEntity
  8
外形線
100
AcDbCircle
 10
219.0464487531229
 20
85.02968195784896
 30
0.0
 40
3.0
100
AcDbArc
 50
208.1445578697152
 51
332.740616123248
  0
ARC
  5
324
330
18
100
AcDbEntity
  8
外形線
100
AcDbCircle
 10
210.157027361315
 20
63.60987707584005
 30
0.0
 40
15.0
100
AcDbArc
 50
14.76379057562227
 51
40.54160187350457
  0
ARC
  5
325
330
18
100
AcDbEntity
  8
外形線
100
AcDbCircle
 10
227.5627507106416
 20
68.19690167646169
 30
0.0
 40
3.0
100
AcDbArc
 50
194.7637905756223
 51
302.7226086673264
  0
ARC
  5
326
330
18
100
AcDbEntity
  8
外形線
100
AcDbCircle
 10
229.3374841399919
 20
57.94330158783063
 30
0.0
 40
5.0
100
AcDbArc
 50
111.040197344846
 51
163.5410227404312
  0
ARC
  5
327
330
18
100
AcDbEntity
  8
外形線
100
AcDbCircle
 10
225.3557115148857
 20
76.60987707584005
 30
0.0
 40
5.0
100
AcDbArc
 50
139.4583981264954
 51
220.5416018735046
  0
ARC
  5
328
330
18
100
AcDbEntity
  8
外形線
100
AcDbCircle
 10
219.0464487531229
 20
68.19007219383113
 30
0.0
 40
3.0
100
AcDbArc
 50
27.259383876752
 51
151.8554421302847
  0
ARC
  5
329
330
18
100
AcDbEntity
  8
外形線
100
AcDbCircle
 10
229.3374841399919
 20
95.27645256384946
 30
0.0
 40
5.0
100
AcDbArc
 50
196.4589772595688
 51
248.959802655154
  0
ARC
  5
32A
330
18
100
AcDbEntity
  8
外形線
100
AcDbCircle
 10
227.5627507106416
 20
85.0228524752184
 30
0.0
 40
3.0
100
AcDbArc
 50
57.27739133267333
 51
165.2362094243777
  0
LINE
  5
333
330
18
100
AcDbEntity
  8
中心線
100
AcDbLine
 10
17.14820704684973
 20
173.8066897365254
 30
0.0
 11
17.14820704684973
 21
35.26866992651759
 31
0.0
  0
LINE
  5
335
330
18
100
AcDbEntity
  8
外形線
100
AcDbLine
 10
22.64820704684973
 20
54.25987707584005
 30
0.0
 11
11.64820704684973
 21
54.25987707584005
 31
0.0
  0
LINE
  5
336
330
18
100
AcDbEntity
  8
外形線
100
AcDbLine
 10
22.64820704684973
 20
64.25987707584005
 30
0.0
 11
11.64820704684973
 21
64.25987707584005
 31
0.0
  0
LINE
  5
337
330
18
100
AcDbEntity
  8
外形線
100
AcDbLine
 10
22.64820704684973
 20
88.95987707584003
 30
0.0
 11
11.64820704684973
 21
88.95987707584003
 31
0.0
  0
LINE
  5
338
330
18
100
AcDbEntity
  8
中心線
100
AcDbLine
 10
5.491302243762334
 20
127.95987707584
 30
0.0
 11
36.52416858071536
 21
127.9598770758401
 31
0.0
  0
LINE
  5
33A
330
18
100
AcDbEntity
  8
外形線
100
AcDbLine
 10
22.64820704684973
 20
102.9598770758401
 30
0.0
 11
22.64820704684973
 21
54.25987707584005
 31
0.0
  0
LINE
  5
33B
330
18
100
AcDbEntity
  8
外形線
100
AcDbLine
 10
11.64820704684973
 20
103.0600778798626
 30
0.0
 11
11.64820704684973
 21
54.25987707584005
 31
0.0
  0
LINE
  5
33C
330
18
100
AcDbEntity
  8
外形線
100
AcDbLine
 10
18.89820704684973
 20
52.51274260180216
 30
0.0
 11
18.89820704684973
 21
39.00987707584005
 31
0.0
  0
LINE
  5
33D
330
18
100
AcDbEntity
  8
外形線
100
AcDbLine
 10
15.39820704684973
 20
52.51274260180186
 30
0.0
 11
15.39820704684973
 21
39.00987707584005
 31
0.0
  0
ARC
  5
33F
330
18
100
AcDbEntity
  8
外形線
100
AcDbCircle
 10
17.14820704684973
 20
39.00987707584005
 30
0.0
 40
1.75
100
AcDbArc
 50
180.0
 51
0.0
  0
ARC
  5
5CB
330
18
100
AcDbEntity
  8
外形線
100
AcDbCircle
 10
112.7663531740903
 20
154.2266174255741
 30
0.0
 40
2.0
100
AcDbArc
 50
109.8197641089327
 51
142.2522235389741
  0
LINE
  5
5CC
330
18
100
AcDbEntity
  8
外形線
100
AcDbLine
 10
110.3759939527199
 20
153.8965866080265
 30
0.0
 11
125.1191189225284
 21
159.2101837175139
 31
0.0
  0
LINE
  5
5CF
330
18
100
AcDbEntity
  8
0
  6
ByBlock
 62
     2
100
AcDbLine
 10
31.64820704684985
 20
127.9598770758401
 30
0.0
 11
31.64820704684985
 21
178.2418920501499
 31
0.0
  0
LINE
  5
5D0
330
18
100
AcDbEntity
  8
0
  6
ByBlock
 62
     2
100
AcDbLine
 10
10.94820704684974
 20
152.6946703840527
 30
0.0
 11
10.94820704684974
 21
178.2418920501499
 31
0.0
  0
LINE
  5
5D1
330
18
100
AcDbEntity
  8
外形線
  6
Continuous
100
AcDbLine
 10
20.84820704684978
 20
157.45987707584
 30
0.0
 11
20.84820704684978
 21
153.190017780957
 31
0.0
  0
LINE
  5
5D2
330
18
100
AcDbEntity
  8
外形線
  6
Continuous
100
AcDbLine
 10
13.44820704684969
 20
157.45987707584
 30
0.0
 11
13.44820704684969
 21
153.190017780957
 31
0.0
  0
LINE
  5
5D3
330
18
100
AcDbEntity
  8
外形線
  6
Continuous
100
AcDbLine
 10
88.45702736131512
 20
157.4598770758399
 30
0.0
 11
88.45702736131512
 21
154.0993108876118
 31
0.0
  0
LINE
  5
5D4
330
18
100
AcDbEntity
  8
外形線
  6
Continuous
100
AcDbLine
 10
95.85702736131509
 20
157.4598770758399
 30
0.0
 11
95.85702736131509
 21
154.0993108876118
 31
0.0
  0
LINE
  5
5E6
330
18
100
AcDbEntity
  8
0
  6
ByBlock
 62
     2
100
AcDbLine
 10
44.18810905344003
 20
151.85987707584
 30
0.0
 11
44.18810905344003
 21
104.0598770758401
 31
0.0
  0
LINE
  5
5E7
330
18
100
AcDbEntity
  8
外形線
100
AcDbLine
 10
10.94820704684974
 20
152.6946703840527
 30
0.0
 11
10.94820704684974
 21
103.2250837676274
 31
0.0
  0
LINE
  5
5E8
330
18
100
AcDbEntity
  8
外形線
  6
Continuous
100
AcDbLine
 10
22.14820704684985
 20
152.9598770758401
 30
0.0
 11
22.14820704684985
 21
102.9598770758401
 31
0.0
  0
LINE
  5
5E9
330
18
100
AcDbEntity
  8
外形線
  6
Continuous
100
AcDbLine
 10
23.64820704684985
 20
154.35987707584
 30
0.0
 11
23.64820704684985
 21
101.5598770758401
 31
0.0
  0
LINE
  5
5EA
330
18
100
AcDbEntity
  8
外形線
  6
Continuous
100
AcDbLine
 10
27.4482070468498
 20
154.35987707584
 30
0.0
 11
27.4482070468498
 21
101.5598770758401
 31
0.0
  0
LINE
  5
5EB
330
18
100
AcDbEntity
  8
外形線
  6
Continuous
100
AcDbLine
 10
28.64820704684985
 20
152.9598770758401
 30
0.0
 11
28.64820704684985
 21
102.9598770758401
 31
0.0
  0
ARC
  5
5EC
330
18
100
AcDbEntity
  8
外形線
  6
Continuous
100
AcDbCircle
 10
-74.01845961981655
 20
127.9598770758401
 30
0.0
 40
105.6666666666664
100
AcDbArc
 50
346.3144531747381
 51
13.68554682526192
  0
LINE
  5
5F0
330
18
100
AcDbEntity
  8
外形線
  6
Continuous
 62
     4
100
AcDbLine
 10
27.4482070468498
 20
106.5598770758401
 30
0.0
 11
23.64820704684985
 21
106.5598770758401
 31
0.0
  0
LINE
  5
5F1
330
18
100
AcDbEntity
  8
外形線
  6
Continuous
 62
     4
100
AcDbLine
 10
27.4482070468498
 20
102.5598770758401
 30
0.0
 11
23.64820704684985
 21
102.5598770758401
 31
0.0
  0
LINE
  5
5F2
330
18
100
AcDbEntity
  8
外形線
  6
Continuous
 62
     4
100
AcDbLine
 10
27.4482070468498
 20
103.5598770758401
 30
0.0
 11
23.64820704684985
 21
103.5598770758401
 31
0.0
  0
LINE
  5
5F3
330
18
100
AcDbEntity
  8
外形線
  6
Continuous
 62
     4
100
AcDbLine
 10
27.4482070468498
 20
104.5598770758401
 30
0.0
 11
23.64820704684985
 21
104.5598770758401
 31
0.0
  0
LINE
  5
5F4
330
18
100
AcDbEntity
  8
外形線
  6
Continuous
 62
     4
100
AcDbLine
 10
27.4482070468498
 20
105.5598770758401
 30
0.0
 11
23.64820704684985
 21
105.5598770758401
 31
0.0
  0
LINE
  5
5F5
330
18
100
AcDbEntity
  8
外形線
  6
Continuous
100
AcDbLine
 10
27.4482070468498
 20
101.5598770758401
 30
0.0
 11
23.64820704684985
 21
101.5598770758401
 31
0.0
  0
LINE
  5
5F6
330
18
100
AcDbEntity
  8
外形線
100
AcDbLine
 10
15.14820704684973
 20
88.95987707584003
 30
0.0
 11
15.14820704684973
 21
74.15987707584005
 31
0.0
  0
LINE
  5
5F7
330
18
100
AcDbEntity
  8
外形線
100
AcDbLine
 10
19.14820704684973
 20
88.95987707584003
 30
0.0
 11
19.14820704684973
 21
74.15987707584005
 31
0.0
  0
ARC
  5
612
330
18
100
AcDbEntity
  8
外形線
100
AcDbCircle
 10
17.14820704684973
 20
127.9598770758401
 30
0.0
 40
25.5
100
AcDbArc
 50
255.9282220339266
 51
281.3077294341376
  0
LINE
  5
613
330
18
100
AcDbEntity
  8
外形線
  6
CENTER2
100
AcDbLine
 10
22.14820704684985
 20
102.9598770758401
 30
0.0
 11
23.64820704684985
 21
102.9598770758401
 31
0.0
  0
LINE
  5
62A
330
18
100
AcDbEntity
  8
0
  6
ByBlock
 62
     2
100
AcDbLine
 10
27.4482070468498
 20
101.5598770758401
 30
0.0
 11
45.43810905344003
 21
101.5598770758401
 31
0.0
  0
POINT
  5
62B
330
18
100
AcDbEntity
  8
DEFPOINTS
  6
ByBlock
 62
     0
100
AcDbPoint
 10
27.4482070468498
 20
101.5598770758401
 30
0.0
  0
LINE
  5
62C
330
18
100
AcDbEntity
  8
外形線
  6
Continuous
100
AcDbLine
 10
27.4482070468498
 20
102.4598770758401
 30
0.0
 11
28.64820704684985
 21
102.9598770758401
 31
0.0
  0
INSERT
  5
62D
330
18
100
AcDbEntity
  8
0
  6
ByBlock
 62
     2
100
AcDbBlockReference
  2
_OPEN
 10
44.18810905344003
 20
101.5598770758401
 30
0.0
 41
2.5
 42
2.5
 43
2.5
 50
270.0
  0
POINT
  5
62E
330
18
100
AcDbEntity
  8
DEFPOINTS
  6
ByBlock
 62
     0
100
AcDbPoint
 10
44.18810905344003
 20
101.5598770758401
 30
0.0
  0
LINE
  5
62F
330
18
100
AcDbEntity
  8
外形線
  6
Continuous
100
AcDbLine
 10
27.4482070468498
 20
154.35987707584
 30
0.0
 11
23.64820704684985
 21
154.35987707584
 31
0.0
  0
LINE
  5
630
330
18
100
AcDbEntity
  8
外形線
  6
Continuous
 62
     4
100
AcDbLine
 10
27.4482070468498
 20
153.35987707584
 30
0.0
 11
23.64820704684985
 21
153.35987707584
 31
0.0
  0
LINE
  5
631
330
18
100
AcDbEntity
  8
外形線
  6
Continuous
 62
     4
100
AcDbLine
 10
27.4482070468498
 20
152.3598770758401
 30
0.0
 11
23.64820704684985
 21
152.3598770758401
 31
0.0
  0
LINE
  5
632
330
18
100
AcDbEntity
  8
外形線
  6
Continuous
 62
     4
100
AcDbLine
 10
27.4482070468498
 20
151.3598770758401
 30
0.0
 11
23.64820704684985
 21
151.3598770758401
 31
0.0
  0
LINE
  5
633
330
18
100
AcDbEntity
  8
外形線
  6
Continuous
 62
     4
100
AcDbLine
 10
27.4482070468498
 20
150.3598770758401
 30
0.0
 11
23.64820704684985
 21
150.3598770758401
 31
0.0
  0
LINE
  5
634
330
18
100
AcDbEntity
  8
外形線
  6
Continuous
 62
     4
100
AcDbLine
 10
27.4482070468498
 20
149.3598770758401
 30
0.0
 11
23.64820704684985
 21
149.3598770758401
 31
0.0
  0
LINE
  5
635
330
18
100
AcDbEntity
  8
外形線
  6
Continuous
 62
     4
100
AcDbLine
 10
23.64820704684985
 20
129.9598770758401
 30
0.0
 11
27.4482070468498
 21
129.9598770758401
 31
0.0
  0
LINE
  5
636
330
18
100
AcDbEntity
  8
外形線
  6
Continuous
 62
     4
100
AcDbLine
 10
23.64820704684985
 20
130.9598770758401
 30
0.0
 11
27.4482070468498
 21
130.9598770758401
 31
0.0
  0
LINE
  5
637
330
18
100
AcDbEntity
  8
外形線
  6
Continuous
 62
     4
100
AcDbLine
 10
23.64820704684985
 20
128.9598770758401
 30
0.0
 11
27.4482070468498
 21
128.9598770758401
 31
0.0
  0
LINE
  5
638
330
18
100
AcDbEntity
  8
外形線
  6
Continuous
 62
     4
100
AcDbLine
 10
23.64820704684985
 20
127.9598770758401
 30
0.0
 11
27.4482070468498
 21
127.9598770758401
 31
0.0
  0
LINE
  5
639
330
18
100
AcDbEntity
  8
外形線
  6
Continuous
 62
     4
100
AcDbLine
 10
23.64820704684985
 20
126.9598770758401
 30
0.0
 11
27.4482070468498
 21
126.9598770758401
 31
0.0
  0
LINE
  5
63A
330
18
100
AcDbEntity
  8
外形線
  6
Continuous
 62
     4
100
AcDbLine
 10
23.64820704684985
 20
125.9598770758401
 30
0.0
 11
27.4482070468498
 21
125.9598770758401
 31
0.0
  0
ARC
  5
63B
330
18
100
AcDbEntity
  8
外形線
100
AcDbCircle
 10
17.14820704684973
 20
127.9598770758401
 30
0.0
 40
25.5
100
AcDbArc
 50
78.69227056586237
 51
104.0717779660734
  0
POINT
  5
63C
330
18
100
AcDbEntity
  8
DEFPOINTS
  6
ByBlock
 62
     0
100
AcDbPoint
 10
10.94820704684974
 20
152.6946703840527
 30
0.0
  0
LINE
  5
63D
330
18
100
AcDbEntity
  8
外形線
  6
CENTER2
100
AcDbLine
 10
22.14820704684985
 20
152.9598770758401
 30
0.0
 11
23.64820704684985
 21
152.9598770758401
 31
0.0
  0
MTEXT
  5
63E
330
18
100
AcDbEntity
  8
0
  6
ByBlock
 62
     6
100
AcDbMText
 10
42.31310905344003
 20
127.9598770758401
 30
0.0
 40
2.5
 41
0.0
 71
     5
 72
     1
  1
\A1;φ53
  7
STYLE3
 11
0.0000000000000001
 21
1.0
 31
0.0
 73
     1
 44
1.0
  0
POINT
  5
63F
330
18
100
AcDbEntity
  8
DEFPOINTS
  6
ByBlock
 62
     0
100
AcDbPoint
 10
31.64820704684985
 20
127.9598770758401
 30
0.0
  0
POINT
  5
640
330
18
100
AcDbEntity
  8
DEFPOINTS
  6
ByBlock
 62
     0
100
AcDbPoint
 10
31.64820704684985
 20
127.9598770758401
 30
0.0
  0
LINE
  5
641
330
18
100
AcDbEntity
  8
0
  6
ByBlock
 62
     2
100
AcDbLine
 10
27.4482070468498
 20
154.35987707584
 30
0.0
 11
45.43810905344003
 21
154.35987707584
 31
0.0
  0
POINT
  5
642
330
18
100
AcDbEntity
  8
DEFPOINTS
  6
ByBlock
 62
     0
100
AcDbPoint
 10
27.4482070468498
 20
154.35987707584
 30
0.0
  0
LINE
  5
643
330
18
100
AcDbEntity
  8
外形線
  6
Continuous
100
AcDbLine
 10
27.4482070468498
 20
153.4598770758401
 30
0.0
 11
28.64820704684985
 21
152.9598770758401
 31
0.0
  0
INSERT
  5
644
330
18
100
AcDbEntity
  8
0
  6
ByBlock
 62
     2
100
AcDbBlockReference
  2
_OPEN
 10
44.18810905344003
 20
154.35987707584
 30
0.0
 41
2.5
 42
2.5
 43
2.5
 50
90.0
  0
LINE
  5
66F
330
18
100
AcDbEntity
  8
目盛
100
AcDbLine
 10
105.6760881640419
 20
146.5672679464638
 30
0.0
 11
104.0890679828522
 21
144.3829220616514
 31
0.0
  0
LINE
  5
670
330
18
100
AcDbEntity
  8
目盛
100
AcDbLine
 10
105.6760881640419
 20
109.3524862052162
 30
0.0
 11
104.0890679828522
 21
111.5368320900285
 31
0.0
  0
CIRCLE
  5
671
330
18
100
AcDbEntity
  8
外形線
100
AcDbCircle
 10
92.15702736131504
 20
127.95987707584
 30
0.0
 40
26.4
  0
CIRCLE
  5
672
330
18
100
AcDbEntity
  8
外形線
100
AcDbCircle
 10
92.15702736131504
 20
127.95987707584
 30
0.0
 40
23.0
  0
CIRCLE
  5
673
330
18
100
AcDbEntity
  8
外形線
100
AcDbCircle
 10
92.15702736131504
 20
127.95987707584
 30
0.0
 40
15.5
  0
LINE
  5
67B
330
18
100
AcDbEntity
  8
目盛
100
AcDbLine
 10
104.4810436458318
 20
108.5403347892935
 30
0.0
 11
103.5701380943675
 21
109.9756922626469
 31
0.0
  0
LINE
  5
67C
330
18
100
AcDbEntity
  8
目盛
100
AcDbLine
 10
79.83301107679801
 20
108.5403347892938
 30
0.0
 11
80.74391662826229
 21
109.9756922626472
 31
0.0
  0
LINE
  5
67D
330
18
100
AcDbEntity
  8
目盛
100
AcDbLine
 10
78.63796655858812
 20
109.3524862052162
 30
0.0
 11
80.22498673977777
 21
111.5368320900286
 31
0.0
  0
TEXT
  5
67E
330
18
100
AcDbEntity
  8
文字
100
AcDbText
 10
89.84377989416623
 20
108.2769898024816
 30
0.0
 40
2.5
  1
50
  7
STYLE3
100
AcDbText
  0
LINE
  5
6C4
330
18
100
AcDbEntity
  8
目盛
100
AcDbLine
 10
82.36410365531815
 20
107.1488548691217
 30
0.0
 11
83.08792845097883
 21
108.6870608583138
 31
0.0
  0
LINE
  5
6C5
330
18
100
AcDbEntity
  8
目盛
100
AcDbLine
 10
81.07669285697552
 20
107.8048234348312
 30
0.0
 11
81.89567410294836
 21
109.2945447909057
 31
0.0
  0
LINE
  5
6C6
330
18
100
AcDbEntity
  8
目盛
100
AcDbLine
 10
83.69016264956718
 20
106.5750179004103
 30
0.0
 11
84.3159743891312
 21
108.1556379264203
 31
0.0
  0
LINE
  5
6C7
330
18
100
AcDbEntity
  8
目盛
100
AcDbLine
 10
87.84725712584332
 20
105.3672703090803
 30
0.0
 11
88.165805360639
 21
107.037158635319
 31
0.0
  0
LINE
  5
6C8
330
18
100
AcDbEntity
  8
目盛
100
AcDbLine
 10
86.43715995652332
 20
105.6824643698816
 30
0.0
 11
86.85993276470355
 21
107.3290557438002
 31
0.0
  0
LINE
  5
6C9
330
18
100
AcDbEntity
  8
目盛
100
AcDbLine
 10
85.04963649069123
 20
106.0855772010515
 30
0.0
 11
85.88398237550359
 21
108.6534297950484
 31
0.0
  0
LINE
  5
6CC
330
18
100
AcDbEntity
  8
目盛
100
AcDbLine
 10
89.27436298933589
 20
105.1412389456071
 30
0.0
 11
89.48742948639523
 21
106.8278339378417
 31
0.0
  0
LINE
  5
6CD
330
18
100
AcDbEntity
  8
目盛
100
AcDbLine
 10
92.15702736131509
 20
104.9598770758401
 30
0.0
 11
92.15702736131509
 21
107.6598770758401
 31
0.0
  0
LINE
  5
6CE
330
18
100
AcDbEntity
  8
目盛
100
AcDbLine
 10
90.71284541214067
 20
105.0052623219898
 30
0.0
 11
90.81958929534057
 21
106.7019077603179
 31
0.0
  0
LINE
  5
6CF
330
18
100
AcDbEntity
  8
目盛
100
AcDbLine
 10
96.4667975967866
 20
105.3672703090801
 30
0.0
 11
96.14824936199084
 21
107.0371586353189
 31
0.0
  0
LINE
  5
6D0
330
18
100
AcDbEntity
  8
目盛
100
AcDbLine
 10
95.03969173329398
 20
105.1412389456071
 30
0.0
 11
94.82662523623464
 21
106.8278339378416
 31
0.0
  0
LINE
  5
6D1
330
18
100
AcDbEntity
  8
目盛
100
AcDbLine
 10
93.60120931048919
 20
105.0052623219898
 30
0.0
 11
93.49446542728935
 21
106.7019077603179
 31
0.0
  0
LINE
  5
6D2
330
18
100
AcDbEntity
  8
目盛
100
AcDbLine
 10
100.6238920730625
 20
106.5750179004102
 30
0.0
 11
99.99808033349859
 21
108.1556379264202
 31
0.0
  0
LINE
  5
6D3
330
18
100
AcDbEntity
  8
目盛
100
AcDbLine
 10
99.26441823193892
 20
106.0855772010515
 30
0.0
 11
98.43007234712656
 21
108.6534297950484
 31
0.0
  0
LINE
  5
6D4
330
18
100
AcDbEntity
  8
目盛
100
AcDbLine
 10
97.87689476610655
 20
105.6824643698814
 30
0.0
 11
97.45412195792637
 21
107.3290557438001
 31
0.0
  0
LINE
  5
6D5
330
18
100
AcDbEntity
  8
目盛
100
AcDbLine
 10
103.2373618656543
 20
107.8048234348309
 30
0.0
 11
102.4183806196814
 21
109.2945447909055
 31
0.0
  0
LINE
  5
6D6
330
18
100
AcDbEntity
  8
目盛
100
AcDbLine
 10
101.9499510673116
 20
107.1488548691215
 30
0.0
 11
101.2261262716509
 21
108.6870608583136
 31
0.0
  0
LINE
  5
6D7
330
18
100
AcDbEntity
  8
目盛
100
AcDbLine
 10
72.00197372030607
 20
116.8795425715008
 30
0.0
 11
73.49169507638066
 21
117.6985238174736
 31
0.0
  0
LINE
  5
6D8
330
18
100
AcDbEntity
  8
目盛
100
AcDbLine
 10
71.34600515459664
 20
118.1669533698435
 30
0.0
 11
72.88421114378877
 21
118.8907781655041
 31
0.0
  0
LINE
  5
6D9
330
18
100
AcDbEntity
  8
目盛
100
AcDbLine
 10
70.28272748652648
 20
120.8524862052162
 30
0.0
 11
72.8505800805234
 21
121.6868320900286
 31
0.0
  0
LINE
  5
6DA
330
18
100
AcDbEntity
  8
目盛
100
AcDbLine
 10
71.34600515459664
 20
137.7528007818369
 30
0.0
 11
72.88421114378889
 21
137.0289759861762
 31
0.0
  0
LINE
  5
6DB
330
18
100
AcDbEntity
  8
目盛
100
AcDbLine
 10
72.00197372030624
 20
139.0402115801796
 30
0.0
 11
73.49169507638078
 21
138.2212303342067
 31
0.0
  0
LINE
  5
6DC
330
18
100
AcDbEntity
  8
目盛
100
AcDbLine
 10
70.28272748652653
 20
135.0672679464638
 30
0.0
 11
72.85058008052345
 21
134.2329220616515
 31
0.0
  0
LINE
  5
6DD
330
18
100
AcDbEntity
  8
目盛
100
AcDbLine
 10
70.77216818588528
 20
119.4930123640925
 30
0.0
 11
72.3527882118953
 21
120.1188241036565
 31
0.0
  0
LINE
  5
6E2
330
18
100
AcDbEntity
  8
目盛
100
AcDbLine
 10
69.56442059455508
 20
123.6501068403686
 30
0.0
 11
71.23430892079392
 21
123.9686550751643
 31
0.0
  0
LINE
  5
6E3
330
18
100
AcDbEntity
  8
目盛
100
AcDbLine
 10
69.33838923108209
 20
125.0772127038611
 30
0.0
 11
71.0249842233166
 21
125.2902792009205
 31
0.0
  0
LINE
  5
6E4
330
18
100
AcDbEntity
  8
目盛
100
AcDbLine
 10
69.20241260746479
 20
126.5156951266659
 30
0.0
 11
70.8990580457928
 21
126.6224390098658
 31
0.0
  0
LINE
  5
6E5
330
18
100
AcDbEntity
  8
目盛
100
AcDbLine
 10
69.87961465535642
 20
122.2400096710486
 30
0.0
 11
71.5262060292751
 21
122.6627824792288
 31
0.0
  0
POINT
  5
6E6
330
18
100
AcDbEntity
  8
DEFPOINTS
  6
ByBlock
 62
     0
100
AcDbPoint
 10
65.75702736131507
 20
127.95987707584
 30
0.0
  0
POINT
  5
6E7
330
18
100
AcDbEntity
  8
DEFPOINTS
  6
ByBlock
 62
     0
100
AcDbPoint
 10
65.75702736131507
 20
127.95987707584
 30
0.0
  0
LINE
  5
6E8
330
18
100
AcDbEntity
  8
目盛
100
AcDbLine
 10
69.33838923108209
 20
130.8425414478192
 30
0.0
 11
71.02498422331672
 21
130.6294749507599
 31
0.0
  0
LINE
  5
6E9
330
18
100
AcDbEntity
  8
目盛
100
AcDbLine
 10
69.56442059455532
 20
132.2696473113118
 30
0.0
 11
71.23430892079404
 21
131.9510990765161
 31
0.0
  0
LINE
  5
6EA
330
18
100
AcDbEntity
  8
目盛
100
AcDbLine
 10
69.1570273613151
 20
127.95987707584
 30
0.0
 11
71.85702736131509
 21
127.95987707584
 31
0.0
  0
LINE
  5
6EB
330
18
100
AcDbEntity
  8
目盛
100
AcDbLine
 10
69.20241260746485
 20
129.4040590250145
 30
0.0
 11
70.89905804579291
 21
129.2973151418145
 31
0.0
  0
LINE
  5
6ED
330
18
100
AcDbEntity
  8
目盛
100
AcDbLine
 10
69.87961465535665
 20
133.6797444806318
 30
0.0
 11
71.52620602927527
 21
133.2569716724516
 31
0.0
  0
LINE
  5
6EE
330
18
100
AcDbEntity
  8
目盛
100
AcDbLine
 10
70.77216818588533
 20
136.4267417875878
 30
0.0
 11
72.3527882118953
 21
135.8009300480238
 31
0.0
  0
HATCH
  5
6EF
330
18
100
AcDbEntity
  8
針
100
AcDbHatch
 10
0.0
 20
0.0
 30
0.0
210
0.0
220
0.0
230
1.0
  2
SOLID
 70
     1
 71
     0
 91
        2
 92
        7
 72
     1
 73
     1
 93
        5
 10
92.24702736131495
 20
149.9598770758401
 42
0.0
 10
92.15702736131504
 20
149.9598770758401
 42
0.0
 10
92.06702736131502
 20
149.9598770758401
 42
0.0
 10
91.89158042882002
 20
143.4576039390297
 42
-0.0085634322047721
 10
92.42247429380995
 20
143.4576039390296
 42
0.0
 97
        0
 92
        7
 72
     1
 73
     1
 93
        6
 10
92.42247429380995
 20
143.4576039390296
 42
0.0085634322047721
 10
91.89158042882002
 20
143.4576039390297
 42
0.0
 10
91.55702736131491
 20
131.0586671623087
 42
-0.1293106770632391
 10
91.16880887606248
 20
129.5826599403679
 42
-0.2805221108582334
 10
93.14524584656755
 20
129.5826599403679
 42
-0.1293106770632486
 10
92.75702736131506
 20
131.0586671623088
 42
0.0
 97
        0
 75
     0
 76
     1
 47
0.0423559757596284
 98
        2
 10
92.11646459885065
 20
144.085857951189
 10
92.24363071624214
 20
139.6808364477097
450
        0
451
        0
460
0.0
461
0.0
452
        0
462
0.0
453
        0
470

  0
LINE
  5
6F0
330
18
100
AcDbEntity
  8
針
100
AcDbLine
 10
92.06702736131502
 20
149.9598770758401
 30
0.0
 11
91.55702736131491
 21
131.0586671623092
 31
0.0
  0
LINE
  5
6F1
330
18
100
AcDbEntity
  8
針
100
AcDbLine
 10
92.24702736131495
 20
149.9598770758401
 30
0.0
 11
92.75702736131506
 21
131.0586671623091
 31
0.0
  0
TEXT
  5
6F3
330
18
100
AcDbEntity
  8
文字
100
AcDbText
 10
72.9700540195339
 20
132.4692643148076
 30
0.0
 40
2.5
  1
80
  7
STYLE3
100
AcDbText
  0
ARC
  5
6F4
330
18
100
AcDbEntity
  8
針
100
AcDbCircle
 10
88.31216694796939
 20
119.3501990254042
 30
0.0
 40
0.5
100
AcDbArc
 50
293.7682212975196
 51
359.2065408792653
  0
CIRCLE
  5
6F5
330
18
100
AcDbEntity
  8
針
 62
     4
100
AcDbCircle
 10
88.957027361315
 20
117.8859056643261
 30
0.0
 40
0.4
  0
LINE
  5
6F6
330
18
100
AcDbEntity
  8
針
100
AcDbLine
 10
88.81211900367663
 20
119.3432750096557
 30
0.0
 11
88.85702736131491
 21
122.5859056643261
 31
0.0
  0
HATCH
  5
6F7
330
18
100
AcDbEntity
  8
針
100
AcDbHatch
 10
0.0
 20
0.0
 30
0.0
210
0.0
220
0.0
230
1.0
  2
SOLID
 70
     1
 71
     0
 91
        1
 92
        7
 72
     1
 73
     1
 93
        7
 10
89.05702736131507
 20
122.5859056643262
 42
0.0
 10
88.95702736131495
 20
122.5859056643261
 42
0.0
 10
88.85702736131491
 20
122.5859056643261
 42
0.0
 10
88.81211900367663
 20
119.3432750096557
 42
-0.2935495917910092
 10
88.51368582713979
 20
118.8926073500675
 42
-0.2104432563350663
 10
89.40036821587284
 20
118.8926076493643
 42
-0.2935491884945053
 10
89.10193571895337
 20
119.3432750096556
 42
0.0
 97
        0
 75
     0
 76
     1
 47
0.0140573597042523
 98
        1
 10
89.0156290772124
 20
120.7804657096264
450
        0
451
        0
460
0.0
461
0.0
452
        0
462
0.0
453
        0
470

  0
CIRCLE
  5
6F8
330
18
100
AcDbEntity
  8
針
100
AcDbCircle
 10
88.957027361315
 20
117.8859056643261
 30
0.0
 40
0.75
  0
CIRCLE
  5
6F9
330
18
100
AcDbEntity
  8
針
100
AcDbCircle
 10
88.957027361315
 20
117.8859056643261
 30
0.0
 40
1.1
  0
HATCH
  5
6FA
330
18
100
AcDbEntity
  8
針
100
AcDbHatch
 10
0.0
 20
0.0
 30
0.0
210
0.0
220
0.0
230
1.0
  2
SOLID
 70
     1
 71
     0
 91
        4
 92
        7
 72
     1
 73
     1
 93
        4
 10
87.86910991161681
 20
118.0484960165687
 42
0.0
 10
88.21526546379351
 20
117.9967627226734
 42
-0.4142135623730951
 10
89.06788441966211
 20
118.6276675618475
 42
0.0
 10
89.11961771355748
 20
118.9738231140242
 42
0.4142135623730996
 97
        0
 92
        7
 72
     1
 73
     1
 93
        5
 10
88.21526546379351
 20
117.9967627226734
 42
0.0
 10
87.86910991161681
 20
118.0484960165687
 42
0.3173569687788799
 10
88.43940199294536
 20
116.9153058611011
 42
0.0
 10
88.84178000315456
 20
117.1147675848218
 42
0.0
 10
88.84617030296766
 20
117.1441437668046
 42
-0.4142135623730839
 97
        0
 92
        7
 72
     1
 73
     1
 93
        4
 10
89.11961771355748
 20
118.9738231140242
 42
0.0
 10
89.06788441966211
 20
118.6276675618475
 42
-0.4142135623730951
 10
89.69878925883643
 20
117.7750486059789
 42
0.0
 10
90.04494481101307
 20
117.7233153120835
 42
0.4142135623730996
 97
        0
 92
        7
 72
     1
 73
     1
 93
        4
 10
89.69878925883643
 20
117.7750486059789
 42
-0.1036385141593389
 10
89.59189742872764
 20
117.4866062810266
 42
0.0
 10
90.04289906660574
 20
117.7101710927449
 42
0.003023315109616
 10
90.04494481101307
 20
117.7233153120835
 42
0.0
 97
        0
 75
     0
 76
     1
 47
0.0223982890607777
 98
        4
 10
88.45297186031592
 20
118.7376608523947
 10
88.12561687305333
 20
117.6080216512917
 10
89.3844072105071
 20
118.7571093232014
 10
89.77027866723648
 20
117.7021948764882
450
        0
451
        0
460
0.0
461
0.0
452
        0
462
0.0
453
        0
470

  0
HATCH
  5
6FB
330
18
100
AcDbEntity
  8
針
100
AcDbHatch
 10
0.0
 20
0.0
 30
0.0
210
0.0
220
0.0
230
1.0
  2
SOLID
 70
     1
 71
     0
 91
        2
 92
        7
 72
     1
 73
     1
 93
        5
 10
89.30970165095919
 20
116.8439743588054
 42
0.31735696877887
 10
90.05690020109131
 20
117.869180344525
 42
0.0
 10
89.69556952380861
 20
118.1358883946171
 42
0.0
 10
89.66743506962449
 20
118.1263654072653
 42
-0.4142135623731173
 10
89.19748710425421
 20
117.1754979560166
 42
0.0
 97
        0
 92
        7
 72
     1
 73
     1
 93
        4
 10
89.30970165095919
 20
116.8439743588054
 42
0.0
 10
89.19748710425421
 20
117.1754979560166
 42
-0.4142135623730728
 10
88.24661965300549
 20
117.6454459213868
 42
0.0
 10
87.91509605579438
 20
117.5332313746818
 42
0.4142135623730844
 97
        0
 75
     0
 76
     1
 47
0.0161501285364394
 98
        2
 10
89.61857437314108
 20
117.1895758619225
 10
88.93977930222389
 20
116.9768663199718
450
        0
451
        0
460
0.0
461
0.0
452
        0
462
0.0
453
        0
470

  0
TEXT
  5
6FC
330
18
100
AcDbEntity
  8
文字
100
AcDbText
 10
88.43907573846298
 20
113.9630129539571
 30
0.0
 40
1.0
  1
5
  7
STYLE3
100
AcDbText
  0
TEXT
  5
6FD
330
18
100
AcDbEntity
  8
文字
100
AcDbText
 10
88.47065092218462
 20
120.9136795928009
 30
0.0
 40
1.0
  1
0
  7
STYLE3
100
AcDbText
  0
LINE
  5
6FE
330
18
100
AcDbEntity
  8
中心線
 48
0.2
100
AcDbLine
 10
81.99775217438526
 20
117.8859056643261
 30
0.0
 11
96.52573962236544
 21
117.8859056643261
 31
0.0
  0
CIRCLE
  5
6FF
330
18
100
AcDbEntity
  8
外形線
100
AcDbCircle
 10
88.957027361315
 20
117.8859056643261
 30
0.0
 40
4.75
  0
TEXT
  5
700
330
18
100
AcDbEntity
  8
文字
100
AcDbText
 10
72.86437325059512
 20
120.7347331900033
 30
0.0
 40
2.5
  1
70
  7
STYLE3
100
AcDbText
  0
TEXT
  5
701
330
18
100
AcDbEntity
  8
文字
100
AcDbText
 10
78.59871035205401
 20
112.1494825872294
 30
0.0
 40
2.5
  1
60
  7
STYLE3
100
AcDbText
  0
LINE
  5
702
330
18
100
AcDbEntity
  8
目盛
100
AcDbLine
 10
73.54963649069128
 20
114.4408162731131
 30
0.0
 11
75.73398237550367
 21
116.0278364543028
 31
0.0
  0
LINE
  5
703
330
18
100
AcDbEntity
  8
目盛
100
AcDbLine
 10
76.41244392495497
 20
111.1935986451477
 30
0.0
 11
77.57617400503381
 21
112.4328453117641
 31
0.0
  0
LINE
  5
704
330
18
100
AcDbEntity
  8
目盛
100
AcDbLine
 10
75.39074893062246
 20
112.2152936394803
 30
0.0
 11
76.62999559723886
 21
113.3790237195591
 31
0.0
  0
LINE
  5
705
330
18
100
AcDbEntity
  8
目盛
100
AcDbLine
 10
74.43522277747177
 20
113.2991253116203
 30
0.0
 11
75.74509529019059
 21
114.382746094193
 31
0.0
  0
LINE
  5
706
330
18
100
AcDbEntity
  8
目盛
100
AcDbLine
 10
77.49627559709501
 20
110.238072491997
 30
0.0
 11
78.57989637966778
 21
111.5479450047158
 31
0.0
  0
LINE
  5
707
330
18
100
AcDbEntity
  8
目盛
100
AcDbLine
 10
72.73748507476859
 20
115.6358607913233
 30
0.0
 11
74.1728425481221
 21
116.5467663427875
 31
0.0
  0
TEXT
  5
708
330
18
100
AcDbEntity
  8
文字
100
AcDbText
 10
86.33558416909068
 20
114.4377509394885
 30
0.0
 40
1.0
  1
4
  7
STYLE3
100
AcDbText
  0
LINE
  5
709
330
18
100
AcDbEntity
  8
目盛
100
AcDbLine
 10
86.16504741292567
 20
114.0430749410451
 30
0.0
 11
86.45894003907187
 21
114.4475834382326
 31
0.0
  0
LINE
  5
70A
330
18
100
AcDbEntity
  8
目盛
100
AcDbLine
 10
84.4395089089129
 20
116.4180749410451
 30
0.0
 11
84.91503716706052
 21
116.5725834382326
 31
0.0
  0
LINE
  5
70B
330
18
100
AcDbEntity
  8
目盛
100
AcDbLine
 10
84.4395089089129
 20
119.3537363876071
 30
0.0
 11
84.91503716706063
 21
119.1992278904196
 31
0.0
  0
TEXT
  5
70C
330
18
100
AcDbEntity
  8
文字
100
AcDbText
 10
86.53053714748763
 20
120.2379555241165
 30
0.0
 40
1.0
  1
1
  7
STYLE3
100
AcDbText
  0
TEXT
  5
70D
330
18
100
AcDbEntity
  8
文字
100
AcDbText
 10
85.17025480054224
 20
118.435787517955
 30
0.0
 40
1.0
  1
2
  7
STYLE3
100
AcDbText
  0
TEXT
  5
70E
330
18
100
AcDbEntity
  8
文字
100
AcDbText
 10
85.14101179650868
 20
116.1729457683158
 30
0.0
 40
1.0
  1
3
  7
STYLE3
100
AcDbText
  0
LINE
  5
70F
330
18
100
AcDbEntity
  8
目盛
100
AcDbLine
 10
86.16504741292567
 20
121.7287363876071
 30
0.0
 11
86.458940039072
 21
121.3242278904196
 31
0.0
  0
LINE
  5
710
330
18
100
AcDbEntity
  8
針
100
AcDbLine
 10
89.10193571895337
 20
119.3432750096557
 30
0.0
 11
89.05702736131496
 21
122.5859056643261
 31
0.0
  0
LINE
  5
711
330
18
100
AcDbEntity
  8
中心線
 48
0.2
100
AcDbLine
 10
88.957027361315
 20
125.7491130830478
 30
0.0
 11
88.957027361315
 21
110.0595190610123
 31
0.0
  0
TEXT
  5
712
330
18
100
AcDbEntity
  8
文字
100
AcDbText
 10
90.55146472414799
 20
114.5602947105801
 30
0.0
 40
1.0
  1
6
  7
STYLE3
100
AcDbText
  0
LINE
  5
714
330
18
100
AcDbEntity
  8
目盛
100
AcDbLine
 10
91.74900730970433
 20
114.0430749410451
 30
0.0
 11
91.45511468355801
 21
114.4475834382326
 31
0.0
  0
LINE
  5
715
330
18
100
AcDbEntity
  8
目盛
100
AcDbLine
 10
88.957027361315
 20
113.1359056643261
 30
0.0
 11
88.957027361315
 21
113.6359056643261
 31
0.0
  0
ARC
  5
71A
330
18
100
AcDbEntity
  8
針
100
AcDbCircle
 10
89.60188777466049
 20
119.3501990254042
 30
0.0
 40
0.5
100
AcDbArc
 50
180.7934591207347
 51
246.2317787024804
  0
TEXT
  5
71B
330
18
100
AcDbEntity
  8
文字
100
AcDbText
 10
91.99136124584766
 20
116.1644144498692
 30
0.0
 40
1.0
  1
7
  7
STYLE3
100
AcDbText
  0
TEXT
  5
71C
330
18
100
AcDbEntity
  8
文字
100
AcDbText
 10
92.05154817779362
 20
118.4680418349438
 30
0.0
 40
1.0
  1
8
  7
STYLE3
100
AcDbText
  0
TEXT
  5
71D
330
18
100
AcDbEntity
  8
文字
100
AcDbText
 10
90.55415065994646
 20
120.1873496123426
 30
0.0
 40
1.0
  1
9
  7
STYLE3
100
AcDbText
  0
LINE
  5
71E
330
18
100
AcDbEntity
  8
目盛
100
AcDbLine
 10
93.47454581371687
 20
119.3537363876071
 30
0.0
 11
92.99901755556936
 21
119.1992278904196
 31
0.0
  0
LINE
  5
71F
330
18
100
AcDbEntity
  8
目盛
100
AcDbLine
 10
93.47454581371687
 20
116.4180749410451
 30
0.0
 11
92.99901755556936
 21
116.5725834382326
 31
0.0
  0
TEXT
  5
722
330
18
100
AcDbEntity
  8
文字
100
AcDbText
 10
100.7463346161597
 20
112.0874479693638
 30
0.0
 40
2.5
  1
40
  7
STYLE3
100
AcDbText
  0
CIRCLE
  5
727
330
18
100
AcDbEntity
  8
針
100
AcDbCircle
 10
92.15702736131499
 20
127.95987707584
 30
0.0
 40
1.5
  0
CIRCLE
  5
728
330
18
100
AcDbEntity
  8
針
100
AcDbCircle
 10
92.15702736131499
 20
127.95987707584
 30
0.0
 40
1.9
  0
LINE
  5
729
330
18
100
AcDbEntity
  8
文字
100
AcDbLine
 10
89.05702736131496
 20
122.5859056643261
 30
0.0
 11
88.85702736131491
 21
122.5859056643261
 31
0.0
  0
LINE
  5
72A
330
18
100
AcDbEntity
  8
目盛
100
AcDbLine
 10
91.74900730970421
 20
121.7287363876071
 30
0.0
 11
91.45511468355801
 21
121.3242278904196
 31
0.0
  0
LINE
  5
72B
330
18
100
AcDbEntity
  8
目盛
100
AcDbLine
 10
88.957027361315
 20
122.6359056643261
 30
0.0
 11
88.957027361315
 21
122.1359056643261
 31
0.0
  0
ARC
  5
72C
330
18
100
AcDbEntity
  8
針
100
AcDbCircle
 10
95.75702736131507
 20
131.0586671623092
 30
0.0
 40
3.0
100
AcDbArc
 50
180.0
 51
209.4722791770395
  0
CIRCLE
  5
72D
330
18
100
AcDbEntity
  8
針
100
AcDbCircle
 10
92.15702736131504
 20
127.95987707584
 30
0.0
 40
0.0000000000000568
  0
CIRCLE
  5
72E
330
18
100
AcDbEntity
  8
針
100
AcDbCircle
 10
92.15702736131499
 20
127.95987707584
 30
0.0
 40
0.475
  0
ARC
  5
72F
330
18
100
AcDbEntity
  8
針
100
AcDbCircle
 10
88.5570273613149
 20
131.0586671623092
 30
0.0
 40
3.0
100
AcDbArc
 50
330.5277208229603
 51
0.0
  0
POINT
  5
730
330
18
100
AcDbEntity
  8
DEFPOINTS
  6
ByBlock
 62
     0
100
AcDbPoint
 10
92.15702736131499
 20
127.95987707584
 30
0.0
  0
POINT
  5
731
330
18
100
AcDbEntity
  8
DEFPOINTS
  6
ByBlock
 62
     0
100
AcDbPoint
 10
92.15702736131499
 20
127.95987707584
 30
0.0
  0
LINE
  5
73E
330
18
100
AcDbEntity
  8
目盛
100
AcDbLine
 10
76.41244392495531
 20
144.7261555065325
 30
0.0
 11
77.57617400503403
 21
143.4869088399161
 31
0.0
  0
LINE
  5
73F
330
18
100
AcDbEntity
  8
目盛
100
AcDbLine
 10
77.49627559709529
 20
145.6816816596832
 30
0.0
 11
78.57989637966801
 21
144.3718091469644
 31
0.0
  0
LINE
  5
740
330
18
100
AcDbEntity
  8
目盛
100
AcDbLine
 10
78.63796655858817
 20
146.5672679464638
 30
0.0
 11
80.22498673977782
 21
144.3829220616515
 31
0.0
  0
TEXT
  5
741
330
18
100
AcDbEntity
  8
文字
100
AcDbText
 10
79.16450269752056
 20
141.3698520893969
 30
0.0
 40
2.5
  1
90
  7
STYLE3
100
AcDbText
  0
LINE
  5
742
330
18
100
AcDbEntity
  8
目盛
100
AcDbLine
 10
75.39074893062269
 20
143.7044605122
 30
0.0
 11
76.62999559723909
 21
142.5407304321212
 31
0.0
  0
LINE
  5
743
330
18
100
AcDbEntity
  8
目盛
100
AcDbLine
 10
72.73748507476881
 20
140.283893360357
 30
0.0
 11
74.17284254812222
 21
139.3729878088928
 31
0.0
  0
LINE
  5
744
330
18
100
AcDbEntity
  8
目盛
100
AcDbLine
 10
73.54963649069128
 20
141.4789378785669
 30
0.0
 11
75.73398237550356
 21
139.8919176973772
 31
0.0
  0
LINE
  5
745
330
18
100
AcDbEntity
  8
目盛
100
AcDbLine
 10
74.435222777472
 20
142.62062884006
 30
0.0
 11
75.74509529019081
 21
141.5370080574872
 31
0.0
  0
LINE
  5
753
330
18
100
AcDbEntity
  8
目盛
100
AcDbLine
 10
79.8330110767983
 20
147.3794193623865
 30
0.0
 11
80.74391662826252
 21
145.944061889033
 31
0.0
  0
LINE
  5
754
330
18
100
AcDbEntity
  8
目盛
100
AcDbLine
 10
87.84725712584355
 20
150.5524838425999
 30
0.0
 11
88.16580536063924
 21
148.8825955163611
 31
0.0
  0
LINE
  5
755
330
18
100
AcDbEntity
  8
目盛
100
AcDbLine
 10
81.07669285697573
 20
148.114930716849
 30
0.0
 11
81.89567410294865
 21
146.6252093607744
 31
0.0
  0
LINE
  5
756
330
18
100
AcDbEntity
  8
目盛
100
AcDbLine
 10
82.36410365531851
 20
148.7708992825585
 30
0.0
 11
83.08792845097912
 21
147.2326932933663
 31
0.0
  0
LINE
  5
757
330
18
100
AcDbEntity
  8
目盛
100
AcDbLine
 10
83.69016264956758
 20
149.3447362512698
 30
0.0
 11
84.31597438913156
 21
147.7641162252599
 31
0.0
  0
LINE
  5
758
330
18
100
AcDbEntity
  8
目盛
100
AcDbLine
 10
85.04963649069129
 20
149.8341769506285
 30
0.0
 11
85.88398237550364
 21
147.2663243566316
 31
0.0
  0
LINE
  5
759
330
18
100
AcDbEntity
  8
目盛
100
AcDbLine
 10
86.4371599565236
 20
150.2372897817986
 30
0.0
 11
86.85993276470378
 21
148.5906984078799
 31
0.0
  0
TEXT
  5
789
330
18
100
AcDbEntity
  8
文字
100
AcDbText
 10
100.3569279866004
 20
140.7793901715742
 30
0.0
 40
2.5
  1
10
  7
STYLE3
100
AcDbText
  0
LINE
  5
78F
330
18
100
AcDbEntity
  8
目盛
100
AcDbLine
 10
89.27436298933617
 20
150.778515206073
 30
0.0
 11
89.48742948639551
 21
149.0919202138385
 31
0.0
  0
LINE
  5
790
330
18
100
AcDbEntity
  8
目盛
100
AcDbLine
 10
90.71284541214101
 20
150.9144918296902
 30
0.0
 11
90.8195892953408
 21
149.2178463913622
 31
0.0
  0
LINE
  5
791
330
18
100
AcDbEntity
  8
目盛
100
AcDbLine
 10
92.15702736131504
 20
150.95987707584
 30
0.0
 11
92.15702736131504
 21
148.25987707584
 31
0.0
  0
LINE
  5
792
330
18
100
AcDbEntity
  8
目盛
100
AcDbLine
 10
93.60120931048948
 20
150.9144918296903
 30
0.0
 11
93.49446542728959
 21
149.2178463913622
 31
0.0
  0
LINE
  5
793
330
18
100
AcDbEntity
  8
目盛
100
AcDbLine
 10
95.03969173329426
 20
150.778515206073
 30
0.0
 11
94.82662523623492
 21
149.0919202138384
 31
0.0
  0
LINE
  5
794
330
18
100
AcDbEntity
  8
目盛
100
AcDbLine
 10
96.46679759678683
 20
150.5524838425998
 30
0.0
 11
96.14824936199113
 21
148.8825955163611
 31
0.0
  0
TEXT
  5
795
330
18
100
AcDbEntity
  8
文字
100
AcDbText
 10
90.94271683886608
 20
144.70088493951
 30
0.0
 40
2.5
  1
0
  7
STYLE3
100
AcDbText
  0
LINE
  5
796
330
18
100
AcDbEntity
  8
針
100
AcDbLine
 10
92.15702736131493
 20
149.9598770758401
 30
0.0
 11
92.06702736131502
 21
149.9598770758401
 31
0.0
  0
LINE
  5
797
330
18
100
AcDbEntity
  8
針
100
AcDbLine
 10
92.15702736131504
 20
149.9598770758401
 30
0.0
 11
92.24702736131495
 21
149.9598770758401
 31
0.0
  0
LINE
  5
798
330
18
100
AcDbEntity
  8
目盛
100
AcDbLine
 10
99.26441823193886
 20
149.8341769506285
 30
0.0
 11
98.43007234712651
 21
147.2663243566316
 31
0.0
  0
LINE
  5
799
330
18
100
AcDbEntity
  8
目盛
100
AcDbLine
 10
100.6238920730628
 20
149.3447362512697
 30
0.0
 11
99.99808033349882
 21
147.7641162252597
 31
0.0
  0
LINE
  5
79A
330
18
100
AcDbEntity
  8
目盛
100
AcDbLine
 10
97.87689476610683
 20
150.2372897817985
 30
0.0
 11
97.4541219579266
 21
148.5906984078798
 31
0.0
  0
LINE
  5
79B
330
18
100
AcDbEntity
  8
目盛
100
AcDbLine
 10
101.9499510673119
 20
148.7708992825584
 30
0.0
 11
101.2261262716512
 21
147.2326932933662
 31
0.0
  0
LINE
  5
79C
330
18
100
AcDbEntity
  8
目盛
100
AcDbLine
 10
103.2373618656545
 20
148.1149307168488
 30
0.0
 11
102.4183806196816
 21
146.6252093607743
 31
0.0
  0
LINE
  5
79D
330
18
100
AcDbEntity
  8
目盛
100
AcDbLine
 10
104.4810436458321
 20
147.3794193623862
 30
0.0
 11
103.5701380943678
 21
145.9440618890328
 31
0.0
  0
TEXT
  5
7AF
330
18
100
AcDbEntity
  8
文字
100
AcDbText
 10
107.311631797176
 20
131.1890441628017
 30
0.0
 40
2.5
  1
20
  7
STYLE3
100
AcDbText
  0
LINE
  5
7B1
330
18
100
AcDbEntity
  8
目盛
100
AcDbLine
 10
114.0313272361035
 20
120.8524862052163
 30
0.0
 11
111.4634746421066
 21
121.6868320900286
 31
0.0
  0
TEXT
  5
7B2
330
18
100
AcDbEntity
  8
文字
100
AcDbText
 10
106.5438997545352
 20
120.7110480048043
 30
0.0
 40
2.5
  1
30
  7
STYLE3
100
AcDbText
  0
LINE
  5
7B3
330
18
100
AcDbEntity
  8
目盛
100
AcDbLine
 10
113.5418865367447
 20
119.4930123640922
 30
0.0
 11
111.9612665107347
 21
120.1188241036562
 31
0.0
  0
LINE
  5
7B4
330
18
100
AcDbEntity
  8
目盛
100
AcDbLine
 10
110.7644182319388
 20
114.4408162731131
 30
0.0
 11
108.5800723471264
 21
116.0278364543028
 31
0.0
  0
LINE
  5
7B5
330
18
100
AcDbEntity
  8
目盛
100
AcDbLine
 10
109.8788319451581
 20
113.29912531162
 30
0.0
 11
108.5689594324392
 21
114.3827460941928
 31
0.0
  0
LINE
  5
7B6
330
18
100
AcDbEntity
  8
目盛
100
AcDbLine
 10
108.9233057920074
 20
112.21529363948
 30
0.0
 11
107.684059125391
 21
113.3790237195588
 31
0.0
  0
LINE
  5
7B7
330
18
100
AcDbEntity
  8
目盛
100
AcDbLine
 10
107.9016107976747
 20
111.1935986451475
 30
0.0
 11
106.737880717596
 21
112.4328453117639
 31
0.0
  0
LINE
  5
7B8
330
18
100
AcDbEntity
  8
目盛
100
AcDbLine
 10
106.8177791255347
 20
110.2380724919968
 30
0.0
 11
105.734158342962
 21
111.5479450047156
 31
0.0
  0
LINE
  5
7B9
330
18
100
AcDbEntity
  8
目盛
100
AcDbLine
 10
112.9680495680334
 20
118.1669533698432
 30
0.0
 11
111.4298435788411
 21
118.8907781655039
 31
0.0
  0
LINE
  5
7BA
330
18
100
AcDbEntity
  8
目盛
100
AcDbLine
 10
112.3120810023238
 20
116.8795425715005
 30
0.0
 11
110.8223596462492
 21
117.6985238174734
 31
0.0
  0
LINE
  5
7BB
330
18
100
AcDbEntity
  8
目盛
100
AcDbLine
 10
111.5765696478613
 20
115.635860791323
 30
0.0
 11
110.1412121745078
 21
116.5467663427873
 31
0.0
  0
LINE
  5
7BC
330
18
100
AcDbEntity
  8
目盛
100
AcDbLine
 10
114.749634128075
 20
132.2696473113115
 30
0.0
 11
113.0797458018362
 21
131.9510990765158
 31
0.0
  0
LINE
  5
7BD
330
18
100
AcDbEntity
  8
目盛
100
AcDbLine
 10
114.975665491548
 20
130.8425414478189
 30
0.0
 11
113.2890704993135
 21
130.6294749507595
 31
0.0
  0
LINE
  5
7BE
330
18
100
AcDbEntity
  8
目盛
100
AcDbLine
 10
115.1116421151653
 20
129.4040590250141
 30
0.0
 11
113.4149966768373
 21
129.2973151418143
 31
0.0
  0
LINE
  5
7BF
330
18
100
AcDbEntity
  8
目盛
100
AcDbLine
 10
114.975665491548
 20
125.0772127038608
 30
0.0
 11
113.2890704993134
 21
125.2902792009201
 31
0.0
  0
LINE
  5
7C0
330
18
100
AcDbEntity
  8
目盛
100
AcDbLine
 10
114.7496341280748
 20
123.6501068403683
 30
0.0
 11
113.0797458018361
 21
123.9686550751639
 31
0.0
  0
LINE
  5
7C1
330
18
100
AcDbEntity
  8
目盛
100
AcDbLine
 10
114.4344400672735
 20
122.2400096710482
 30
0.0
 11
112.7878486933548
 21
122.6627824792285
 31
0.0
  0
LINE
  5
7C2
330
18
100
AcDbEntity
  8
目盛
100
AcDbLine
 10
115.157027361315
 20
127.95987707584
 30
0.0
 11
112.457027361315
 21
127.95987707584
 31
0.0
  0
LINE
  5
7C3
330
18
100
AcDbEntity
  8
目盛
100
AcDbLine
 10
115.1116421151653
 20
126.5156951266656
 30
0.0
 11
113.4149966768372
 21
126.6224390098655
 31
0.0
  0
LINE
  5
7C5
330
18
100
AcDbEntity
  8
目盛
100
AcDbLine
 10
107.901610797675
 20
144.7261555065323
 30
0.0
 11
106.7378807175963
 21
143.4869088399159
 31
0.0
  0
LINE
  5
7C6
330
18
100
AcDbEntity
  8
目盛
100
AcDbLine
 10
106.8177791255351
 20
145.681681659683
 30
0.0
 11
105.7341583429623
 21
144.3718091469642
 31
0.0
  0
LINE
  5
7C7
330
18
100
AcDbEntity
  8
目盛
100
AcDbLine
 10
113.5418865367448
 20
136.4267417875875
 30
0.0
 11
111.9612665107348
 21
135.8009300480235
 31
0.0
  0
LINE
  5
7C8
330
18
100
AcDbEntity
  8
目盛
100
AcDbLine
 10
114.0313272361036
 20
135.0672679464638
 30
0.0
 11
111.4634746421067
 21
134.2329220616515
 31
0.0
  0
LINE
  5
7C9
330
18
100
AcDbEntity
  8
目盛
100
AcDbLine
 10
114.4344400672737
 20
133.6797444806315
 30
0.0
 11
112.787848693355
 21
133.2569716724513
 31
0.0
  0
LINE
  5
7CA
330
18
100
AcDbEntity
  8
目盛
100
AcDbLine
 10
112.3120810023241
 20
139.0402115801793
 30
0.0
 11
110.8223596462495
 21
138.2212303342064
 31
0.0
  0
LINE
  5
7CB
330
18
100
AcDbEntity
  8
目盛
100
AcDbLine
 10
112.9680495680335
 20
137.7528007818366
 30
0.0
 11
111.4298435788413
 21
137.0289759861759
 31
0.0
  0
LINE
  5
7CC
330
18
100
AcDbEntity
  8
目盛
100
AcDbLine
 10
109.8788319451583
 20
142.6206288400598
 30
0.0
 11
108.5689594324394
 21
141.537008057487
 31
0.0
  0
LINE
  5
7CD
330
18
100
AcDbEntity
  8
目盛
100
AcDbLine
 10
110.7644182319388
 20
141.4789378785668
 30
0.0
 11
108.5800723471264
 21
139.8919176973772
 31
0.0
  0
LINE
  5
7CE
330
18
100
AcDbEntity
  8
目盛
100
AcDbLine
 10
108.9233057920075
 20
143.7044605121998
 30
0.0
 11
107.6840591253913
 21
142.540730432121
 31
0.0
  0
LINE
  5
7CF
330
18
100
AcDbEntity
  8
目盛
100
AcDbLine
 10
111.5765696478615
 20
140.2838933603567
 30
0.0
 11
110.1412121745081
 21
139.3729878088925
 31
0.0
  0
ARC
  5
7D1
330
18
100
AcDbEntity
  8
外形線
100
AcDbCircle
 10
114.2698809784262
 20
153.1740576851128
 30
0.0
 40
2.0
100
AcDbArc
 50
109.819764108933
 51
163.8903520418817
  0
LINE
  5
7D2
330
18
100
AcDbEntity
  8
外形線
100
AcDbLine
 10
106.8711129160508
 20
149.8791764781457
 30
0.0
 11
111.1849265098437
 21
155.4509906144386
 31
0.0
  0
LINE
  5
7D3
330
18
100
AcDbEntity
  8
外形線
100
AcDbLine
 10
110.4135473998001
 20
147.0297348646226
 30
0.0
 11
112.6316094332003
 21
154.7095371813778
 31
0.0
  0
ARC
  5
7D4
330
18
100
AcDbEntity
  8
外形線
100
AcDbCircle
 10
111.0541188642278
 20
152.0150588765295
 30
0.0
 40
2.0
100
AcDbArc
 50
109.8197641089328
 51
142.2522235389748
  0
LINE
  5
7D5
330
18
100
AcDbEntity
  8
0
  6
ByBlock
 62
     2
100
AcDbLine
 10
13.44820704684974
 20
182.8689954771602
 30
0.0
 11
29.14820704684985
 21
182.8689954771602
 31
0.0
  0
MTEXT
  5
7D6
330
18
100
AcDbEntity
  8
0
  6
ByBlock
 62
     6
100
AcDbMText
 10
24.39820704684979
 20
178.8668920501499
 30
0.0
 40
2.5
 41
0.0
 71
     5
 72
     1
  1
\A1;14.5
  7
STYLE3
 73
     1
 44
1.0
  0
LINE
  5
7D7
330
18
100
AcDbEntity
  8
0
  6
ByBlock
 62
     2
100
AcDbLine
 10
19.64820704684973
 20
176.9918920501499
 30
0.0
 11
29.14820704684985
 21
176.9918920501499
 31
0.0
  0
LINE
  5
7D8
330
18
100
AcDbEntity
  8
0
  6
ByBlock
 62
     2
100
AcDbLine
 10
19.64820704684973
 20
176.9918920501499
 30
0.0
 11
28.51725466589733
 21
176.9918920501499
 31
0.0
  0
LINE
  5
7D9
330
18
100
AcDbEntity
  8
0
  6
ByBlock
 62
     2
100
AcDbLine
 10
10.94820704684974
 20
178.2418920501499
 30
0.0
 11
10.94820704684974
 21
184.1189954771602
 31
0.0
  0
MTEXT
  5
7DA
330
18
100
AcDbEntity
  8
0
  6
ByBlock
 62
     6
100
AcDbMText
 10
14.06319772286127
 20
178.8668920501499
 30
0.0
 40
2.5
 41
0.0
 71
     5
 72
     1
  1
\A1;6.2
  7
STYLE3
 73
     1
 44
1.0
  0
INSERT
  5
7DB
330
18
100
AcDbEntity
  8
0
  6
ByBlock
 62
     2
100
AcDbBlockReference
  2
_OPEN
 10
10.94820704684974
 20
176.9918920501499
 30
0.0
 41
2.5
 42
2.5
 43
2.5
  0
LINE
  5
7DC
330
18
100
AcDbEntity
  8
0
  6
ByBlock
 62
     2
100
AcDbLine
 10
8.448207046849745
 20
176.9918920501499
 30
0.0
 11
5.948207046849745
 21
176.9918920501499
 31
0.0
  0
LINE
  5
7DD
330
18
100
AcDbEntity
  8
外形線
  6
Continuous
100
AcDbLine
 10
20.84820704684978
 20
169.95987707584
 30
0.0
 11
20.84820704684978
 21
163.45987707584
 31
0.0
  0
LINE
  5
7DE
330
18
100
AcDbEntity
  8
外形線
  6
Continuous
100
AcDbLine
 10
13.44820704684969
 20
169.95987707584
 30
0.0
 11
13.44820704684969
 21
163.45987707584
 31
0.0
  0
LINE
  5
7DF
330
18
100
AcDbEntity
  8
外形線
  6
Continuous
100
AcDbLine
 10
13.14820704684973
 20
157.45987707584
 30
0.0
 11
21.14820704684973
 21
157.45987707584
 31
0.0
  0
LINE
  5
7E0
330
18
100
AcDbEntity
  8
外形線
  6
Continuous
100
AcDbLine
 10
13.14820704684973
 20
163.45987707584
 30
0.0
 11
21.14820704684973
 21
163.45987707584
 31
0.0
  0
LINE
  5
7E1
330
18
100
AcDbEntity
  8
寸法線
  6
Continuous
100
AcDbLine
 10
17.14820704684951
 20
160.5824905340244
 30
0.0
 11
14.27082050503395
 21
163.45987707584
 31
0.0
  0
LINE
  5
7E2
330
18
100
AcDbEntity
  8
寸法線
  6
Continuous
100
AcDbLine
 10
17.14820704684951
 20
158.8147235810581
 30
0.0
 11
13.1482070468495
 21
162.8147235810581
 31
0.0
  0
LINE
  5
7E3
330
18
100
AcDbEntity
  8
寸法線
  6
Continuous
100
AcDbLine
 10
13.1482070468495
 20
157.9230700132387
 30
0.0
 11
17.14820704684951
 21
161.9230700132387
 31
0.0
  0
LINE
  5
7E4
330
18
100
AcDbEntity
  8
寸法線
  6
Continuous
100
AcDbLine
 10
13.1482070468495
 20
159.6908369662051
 30
0.0
 11
16.91724715648445
 21
163.45987707584
 31
0.0
  0
LINE
  5
7E5
330
18
100
AcDbEntity
  8
寸法線
  6
Continuous
100
AcDbLine
 10
13.1482070468495
 20
161.4586039191714
 30
0.0
 11
15.14948020351801
 21
163.45987707584
 31
0.0
  0
LINE
  5
7E6
330
18
100
AcDbEntity
  8
外形線
  6
Continuous
100
AcDbLine
 10
13.14820704684973
 20
163.45987707584
 30
0.0
 11
13.14820704684973
 21
157.45987707584
 31
0.0
  0
LINE
  5
7E7
330
18
100
AcDbEntity
  8
寸法線
  6
Continuous
100
AcDbLine
 10
16.73528659910118
 20
157.45987707584
 30
0.0
 11
13.1482070468495
 21
161.0469566280917
 31
0.0
  0
LINE
  5
7E8
330
18
100
AcDbEntity
  8
寸法線
  6
Continuous
100
AcDbLine
 10
14.96751964613486
 20
157.45987707584
 30
0.0
 11
13.1482070468495
 21
159.2791896751253
 31
0.0
  0
LINE
  5
7E9
330
18
100
AcDbEntity
  8
寸法線
  6
Continuous
100
AcDbLine
 10
13.19975269316848
 20
157.45987707584
 30
0.0
 11
13.1482070468495
 21
157.511422722159
 31
0.0
  0
LINE
  5
7EA
330
18
100
AcDbEntity
  8
寸法線
  6
Continuous
100
AcDbLine
 10
16.22054801538354
 20
157.45987707584
 30
0.0
 11
17.14820704684951
 21
158.387536107306
 31
0.0
  0
LINE
  5
7EB
330
18
100
AcDbEntity
  8
寸法線
  6
Continuous
100
AcDbLine
 10
14.4527810624171
 20
157.45987707584
 30
0.0
 11
17.14820704684951
 21
160.1553030602723
 31
0.0
  0
LINE
  5
7EC
330
18
100
AcDbEntity
  8
寸法線
  6
Continuous
100
AcDbLine
 10
13.1482070468495
 20
163.2263708721378
 30
0.0
 11
13.38171325055168
 21
163.45987707584
 31
0.0
  0
LINE
  5
7ED
330
18
100
AcDbEntity
  8
寸法線
  6
Continuous
100
AcDbLine
 10
17.14820704684951
 20
162.3502574869908
 30
0.0
 11
16.03858745800033
 21
163.4598770758399
 31
0.0
  0
LINE
  5
7EE
330
18
100
AcDbEntity
  8
外形線
  6
Continuous
100
AcDbLine
 10
21.14820704684973
 20
163.45987707584
 30
0.0
 11
21.14820704684973
 21
157.45987707584
 31
0.0
  0
INSERT
  5
7EF
330
18
100
AcDbEntity
  8
0
  6
ByBlock
 62
     2
100
AcDbBlockReference
  2
_OPEN
 10
17.14820704684973
 20
176.9918920501499
 30
0.0
 41
2.5
 42
2.5
 43
2.5
 50
180.0
  0
INSERT
  5
7F0
330
18
100
AcDbEntity
  8
0
  6
ByBlock
 62
     2
100
AcDbBlockReference
  2
_OPEN
 10
17.14820704684973
 20
176.9918920501499
 30
0.0
 41
2.5
 42
2.5
 43
2.5
 50
180.0
  0
LINE
  5
7F1
330
18
100
AcDbEntity
  8
外形線
  6
Continuous
100
AcDbLine
 10
13.44820704684969
 20
169.95987707584
 30
0.0
 11
20.84820704684978
 21
169.95987707584
 31
0.0
  0
ARC
  5
7F2
330
18
100
AcDbEntity
  8
外形線
  6
Continuous
100
AcDbCircle
 10
17.14820704684973
 20
163.6148770758402
 30
0.0
 40
7.344999999999885
100
AcDbArc
 50
59.75198538337818
 51
120.2480146166212
  0
LINE
  5
7F3
330
18
100
AcDbEntity
  8
0
  6
ByBlock
 62
     2
100
AcDbLine
 10
17.14820704684973
 20
172.7658666018057
 30
0.0
 11
17.14820704684973
 21
178.2418920501499
 31
0.0
  0
POINT
  5
7F4
330
18
100
AcDbEntity
  8
DEFPOINTS
  6
ByBlock
 62
     0
100
AcDbPoint
 10
17.14820704684973
 20
172.7658666018057
 30
0.0
  0
POINT
  5
7F5
330
18
100
AcDbEntity
  8
DEFPOINTS
  6
ByBlock
 62
     0
100
AcDbPoint
 10
17.14820704684973
 20
172.7658666018057
 30
0.0
  0
POINT
  5
7F6
330
18
100
AcDbEntity
  8
DEFPOINTS
  6
ByBlock
 62
     0
100
AcDbPoint
 10
17.14820704684973
 20
170.9598770758401
 30
0.0
  0
LINE
  5
7F7
330
18
100
AcDbEntity
  8
0
  6
ByBlock
 62
     2
100
AcDbLine
 10
10.94820704684974
 20
176.9918920501499
 30
0.0
 11
17.14820704684973
 21
176.9918920501499
 31
0.0
  0
POINT
  5
7F8
330
18
100
AcDbEntity
  8
DEFPOINTS
  6
ByBlock
 62
     0
100
AcDbPoint
 10
10.94820704684974
 20
178.2418920501499
 30
0.0
  0
POINT
  5
7F9
330
18
100
AcDbEntity
  8
DEFPOINTS
  6
ByBlock
 62
     0
100
AcDbPoint
 10
17.14820704684973
 20
176.9918920501499
 30
0.0
  0
MTEXT
  5
7FA
330
18
100
AcDbEntity
  8
0
  6
ByBlock
 62
     6
100
AcDbMText
 10
21.29820704684982
 20
184.7439954771602
 30
0.0
 40
2.5
 41
0.0
 71
     5
 72
     1
  1
\A1;20.7
  7
STYLE3
 73
     1
 44
1.0
  0
INSERT
  5
7FB
330
18
100
AcDbEntity
  8
0
  6
ByBlock
 62
     2
100
AcDbBlockReference
  2
_OPEN
 10
10.94820704684974
 20
182.8689954771602
 30
0.0
 41
2.5
 42
2.5
 43
2.5
 50
180.0
  0
LINE
  5
7FC
330
18
100
AcDbEntity
  8
0
  6
ByBlock
 62
     2
100
AcDbLine
 10
31.64820704684985
 20
178.2418920501499
 30
0.0
 11
31.64820704684985
 21
184.1189954771602
 31
0.0
  0
INSERT
  5
7FD
330
18
100
AcDbEntity
  8
0
  6
ByBlock
 62
     2
100
AcDbBlockReference
  2
_OPEN
 10
31.64820704684985
 20
176.9918920501499
 30
0.0
 41
2.5
 42
2.5
 43
2.5
  0
POINT
  5
7FE
330
18
100
AcDbEntity
  8
DEFPOINTS
  6
ByBlock
 62
     0
100
AcDbPoint
 10
31.64820704684985
 20
178.2418920501499
 30
0.0
  0
POINT
  5
7FF
330
18
100
AcDbEntity
  8
DEFPOINTS
  6
ByBlock
 62
     0
100
AcDbPoint
 10
31.64820704684985
 20
176.9918920501499
 30
0.0
  0
INSERT
  5
800
330
18
100
AcDbEntity
  8
0
  6
ByBlock
 62
     2
100
AcDbBlockReference
  2
_OPEN
 10
31.64820704684985
 20
182.8689954771602
 30
0.0
 41
2.5
 42
2.5
 43
2.5
  0
POINT
  5
801
330
18
100
AcDbEntity
  8
DEFPOINTS
  6
ByBlock
 62
     0
100
AcDbPoint
 10
31.64820704684985
 20
182.8689954771602
 30
0.0
  0
LINE
  5
80A
330
18
100
AcDbEntity
  8
寸法線
  6
Continuous
100
AcDbLine
 10
92.15702736131516
 20
158.814723581058
 30
0.0
 11
88.15702736131516
 21
162.814723581058
 31
0.0
  0
LINE
  5
80B
330
18
100
AcDbEntity
  8
寸法線
  6
Continuous
100
AcDbLine
 10
91.74410691356683
 20
157.4598770758399
 30
0.0
 11
88.15702736131516
 21
161.0469566280916
 31
0.0
  0
LINE
  5
80C
330
18
100
AcDbEntity
  8
寸法線
  6
Continuous
100
AcDbLine
 10
89.97633996060045
 20
157.4598770758399
 30
0.0
 11
88.15702736131516
 21
159.2791896751252
 31
0.0
  0
LINE
  5
80D
330
18
100
AcDbEntity
  8
寸法線
  6
Continuous
100
AcDbLine
 10
88.15702736131516
 20
157.9230700132387
 30
0.0
 11
92.15702736131522
 21
161.9230700132387
 31
0.0
  0
LINE
  5
80E
330
18
100
AcDbEntity
  8
寸法線
  6
Continuous
100
AcDbLine
 10
88.15702736131516
 20
159.6908369662051
 30
0.0
 11
91.92606747095004
 21
163.4598770758399
 31
0.0
  0
LINE
  5
80F
330
18
100
AcDbEntity
  8
寸法線
  6
Continuous
100
AcDbLine
 10
88.15702736131516
 20
161.4586039191714
 30
0.0
 11
90.15830051798365
 21
163.4598770758399
 31
0.0
  0
ARC
  5
810
330
18
100
AcDbEntity
  8
外形線
  6
Continuous
100
AcDbCircle
 10
92.15702736131504
 20
163.6148770758401
 30
0.0
 40
7.344999999999885
100
AcDbArc
 50
59.75198538337817
 51
120.2480146166212
  0
LINE
  5
811
330
18
100
AcDbEntity
  8
外形線
  6
Continuous
100
AcDbLine
 10
88.15702736131504
 20
157.4598770758399
 30
0.0
 11
96.15702736131504
 21
157.4598770758399
 31
0.0
  0
LINE
  5
812
330
18
100
AcDbEntity
  8
外形線
  6
Continuous
100
AcDbLine
 10
88.15702736131516
 20
163.4598770758399
 30
0.0
 11
96.15702736131504
 21
163.4598770758399
 31
0.0
  0
LINE
  5
813
330
18
100
AcDbEntity
  8
外形線
  6
Continuous
100
AcDbLine
 10
88.45702736131512
 20
169.9598770758399
 30
0.0
 11
95.85702736131509
 21
169.9598770758399
 31
0.0
  0
LINE
  5
814
330
18
100
AcDbEntity
  8
外形線
  6
Continuous
100
AcDbLine
 10
88.45702736131512
 20
169.9598770758399
 30
0.0
 11
88.45702736131512
 21
163.4598770758399
 31
0.0
  0
LINE
  5
815
330
18
100
AcDbEntity
  8
外形線
  6
Continuous
100
AcDbLine
 10
88.15702736131516
 20
163.4598770758399
 30
0.0
 11
88.15702736131516
 21
157.4598770758399
 31
0.0
  0
LINE
  5
816
330
18
100
AcDbEntity
  8
寸法線
  6
Continuous
100
AcDbLine
 10
88.20857300763407
 20
157.4598770758399
 30
0.0
 11
88.15702736131511
 21
157.5114227221589
 31
0.0
  0
LINE
  5
817
330
18
100
AcDbEntity
  8
寸法線
  6
Continuous
100
AcDbLine
 10
88.15702736131516
 20
163.2263708721378
 30
0.0
 11
88.39053356501727
 21
163.4598770758399
 31
0.0
  0
LINE
  5
818
330
18
100
AcDbEntity
  8
外形線
  6
Continuous
100
AcDbLine
 10
95.85702736131509
 20
169.9598770758399
 30
0.0
 11
95.85702736131509
 21
163.4598770758399
 31
0.0
  0
LINE
  5
819
330
18
100
AcDbEntity
  8
寸法線
  6
Continuous
100
AcDbLine
 10
92.15702736131516
 20
160.5824905340243
 30
0.0
 11
89.27964081949955
 21
163.4598770758399
 31
0.0
  0
LINE
  5
81A
330
18
100
AcDbEntity
  8
外形線
  6
Continuous
100
AcDbLine
 10
96.15702736131504
 20
163.4598770758399
 30
0.0
 11
96.15702736131504
 21
157.4598770758399
 31
0.0
  0
LINE
  5
81B
330
18
100
AcDbEntity
  8
寸法線
  6
Continuous
100
AcDbLine
 10
91.22936832984914
 20
157.4598770758399
 30
0.0
 11
92.15702736131516
 21
158.387536107306
 31
0.0
  0
LINE
  5
81C
330
18
100
AcDbEntity
  8
寸法線
  6
Continuous
100
AcDbLine
 10
89.46160137688275
 20
157.4598770758399
 30
0.0
 11
92.15702736131516
 21
160.1553030602723
 31
0.0
  0
LINE
  5
81D
330
18
100
AcDbEntity
  8
寸法線
  6
Continuous
100
AcDbLine
 10
92.15702736131516
 20
162.3502574869907
 30
0.0
 11
91.04740777246593
 21
163.4598770758399
 31
0.0
  0
POINT
  5
81E
330
18
100
AcDbEntity
  8
DEFPOINTS
  6
ByBlock
 62
     0
100
AcDbPoint
 10
92.15702736131504
 20
170.95987707584
 30
0.0
  0
POINT
  5
81F
330
18
100
AcDbEntity
  8
DEFPOINTS
  6
ByBlock
 62
     0
100
AcDbPoint
 10
92.15702736131504
 20
170.9598770758401
 30
0.0
  0
LINE
  5
820
330
18
100
AcDbEntity
  8
外形線
100
AcDbLine
 10
112.0882282625823
 20
156.1081451570711
 30
0.0
 11
124.6105252388973
 21
160.6213295161366
 31
0.0
  0
LINE
  5
821
330
18
100
AcDbEntity
  8
外形線
100
AcDbLine
 10
124.6105252388973
 20
160.6213295161366
 30
0.0
 11
125.1191189225284
 21
159.2101837175139
 31
0.0
  0
LINE
  5
836
330
18
100
AcDbEntity
  8
外形線
100
AcDbLine
 10
94.15702736131505
 20
88.95987707584003
 30
0.0
 11
94.15702736131503
 21
74.15987707584005
 31
0.0
  0
LINE
  5
837
330
18
100
AcDbEntity
  8
外形線
100
AcDbLine
 10
90.15702736131505
 20
88.95987707584003
 30
0.0
 11
90.15702736131503
 21
74.15987707584005
 31
0.0
  0
LINE
  5
845
330
18
100
AcDbEntity
  8
想像線
100
AcDbLine
 10
212.157027361315
 20
97.05611077680762
 30
0.0
 11
212.157027361315
 21
45.39375674288741
 31
0.0
  0
DIMENSION
  5
856
330
18
100
AcDbEntity
  8
外形線
100
AcDbDimension
  2
*D1
 10
212.157027361315
 20
30.68238392382358
 30
0.0
 11
152.157027361315
 21
32.55738392382358
 31
0.0
 70
    32
 71
     5
 42
-1.0
  3
STYLE3
100
AcDbAlignedDimension
 13
92.15702736131504
 23
47.62264016755347
 33
0.0
 14
212.157027361315
 24
45.39375674288741
 34
0.0
100
AcDbRotatedDimension
1001
ACAD
1000
DSTYLE
1002
{
1070
   271
1070
     2
1002
}
  0
DIMENSION
  5
86E
330
18
100
AcDbEntity
  8
外形線
100
AcDbDimension
  2
*D2
 10
58.21955328210754
 20
127.95987707584
 30
0.0
 11
56.34455328210754
 21
149.45987707584
 31
0.0
 70
    32
 71
     5
 42
-1.0
  3
STYLE3
100
AcDbAlignedDimension
 13
92.15702736131504
 23
170.95987707584
 33
0.0
 14
61.40627914244475
 24
127.95987707584
 34
0.0
 50
90.0
100
AcDbRotatedDimension
1001
ACAD
1000
DSTYLE
1002
{
1070
   271
1070
     2
1002
}
  0
DIMENSION
  5
87A
330
18
100
AcDbEntity
  8
外形線
100
AcDbDimension
  2
*D3
 10
58.21955328210754
 20
64.25987707584005
 30
0.0
 11
56.34455328210754
 21
96.10987707584005
 31
0.0
 70
    32
 71
     5
 42
-1.0
  3
STYLE3
100
AcDbAlignedDimension
 13
61.40627914244475
 23
127.95987707584
 33
0.0
 14
87.15702736131504
 24
64.25987707584005
 34
0.0
 50
90.0
100
AcDbRotatedDimension
1001
ACAD
1000
DSTYLE
1002
{
1070
    75
1070
     1
1070
   271
1070
     2
1070
   279
1070
     1
1002
}
  0
DIMENSION
  5
897
330
18
100
AcDbEntity
  8
外形線
100
AcDbDimension
  2
*D4
 10
66.39056300080994
 20
88.95987707584003
 30
0.0
 11
64.51556300080994
 21
76.60987707584005
 31
0.0
 70
    32
 71
     5
 42
-1.0
  3
STYLE3
100
AcDbAlignedDimension
 13
66.76906888648819
 23
64.25987707584005
 33
0.0
 14
87.15702736131504
 24
88.95987707584003
 34
0.0
 50
90.0
100
AcDbRotatedDimension
1001
ACAD
1000
DSTYLE
1002
{
1070
   271
1070
     2
1002
}
  0
DIMENSION
  5
8A4
330
18
100
AcDbEntity
  8
外形線
100
AcDbDimension
  2
*D5
 10
52.01759397502883
 20
170.95987707584
 30
0.0
 11
50.14259397502883
 21
117.60987707584
 31
0.0
 70
    32
 71
     5
 42
-1.0
  3
STYLE3
100
AcDbAlignedDimension
 13
56.96955328210754
 23
64.25987707584005
 33
0.0
 14
56.96955328210754
 24
170.95987707584
 34
0.0
 50
90.0
100
AcDbRotatedDimension
1001
ACAD
1000
DSTYLE
1002
{
1070
   271
1070
     2
1002
}
  0
LINE
  5
A11
330
18
100
AcDbEntity
  8
外形線
100
AcDbLine
 10
14.29820704684974
 20
53.45987707584007
 30
0.0
 11
19.99820704684973
 21
53.45987707584004
 31
0.0
  0
ELLIPSE
  5
A12
330
18
100
AcDbEntity
  8
外形線
100
AcDbEllipse
 10
17.14820704684973
 20
53.45987707584007
 30
0.0
 11
-2.849999999999994
 21
0.0000000000000142
 31
0.0
210
0.0
220
0.0
230
1.0
 40
0.4210526315789468
 41
0.0
 42
3.141592653589793
  0
LINE
  5
A13
330
18
100
AcDbEntity
  8
外形線
100
AcDbLine
 10
13.89820704684973
 20
53.75987707584006
 30
0.0
 11
20.39820704684971
 21
53.75987707584005
 31
0.0
  0
LINE
  5
A15
330
18
100
AcDbEntity
  8
外形線
100
AcDbLine
 10
13.89820704684973
 20
54.25987707584005
 30
0.0
 11
13.89820704684973
 21
53.75987707584006
 31
0.0
  0
LINE
  5
A17
330
18
100
AcDbEntity
  8
外形線
100
AcDbLine
 10
14.29820704684974
 20
53.75987707584006
 30
0.0
 11
14.29820704684974
 21
53.45987707584007
 31
0.0
  0
LINE
  5
A19
330
18
100
AcDbEntity
  8
外形線
100
AcDbLine
 10
20.39820704684971
 20
54.25987707584005
 30
0.0
 11
20.39820704684974
 21
53.75987707584005
 31
0.0
  0
LINE
  5
A1A
330
18
100
AcDbEntity
  8
外形線
100
AcDbLine
 10
19.99820704684973
 20
53.75987707584005
 30
0.0
 11
19.99820704684973
 21
53.45987707584004
 31
0.0
  0
LINE
  5
A23
330
18
100
AcDbEntity
  8
外形線
100
AcDbLine
 10
14.94820704684977
 20
69.55987707584005
 30
0.0
 11
19.34820704684975
 21
69.55987707584006
 31
0.0
  0
LINE
  5
A24
330
18
100
AcDbEntity
  8
外形線
100
AcDbLine
 10
15.14820704684976
 20
74.15987707584005
 30
0.0
 11
19.1482070468497
 21
74.15987707584005
 31
0.0
  0
LINE
  5
A25
330
18
100
AcDbEntity
  8
外形線
100
AcDbLine
 10
14.64820704684976
 20
73.65987707584004
 30
0.0
 11
19.6482070468497
 21
73.65987707584004
 31
0.0
  0
LINE
  5
A26
330
18
100
AcDbEntity
  8
外形線
100
AcDbLine
 10
13.64820704684972
 20
66.25987707584005
 30
0.0
 11
20.64820704684974
 21
66.25987707584005
 31
0.0
  0
LINE
  5
A27
330
18
100
AcDbEntity
  8
外形線
100
AcDbLine
 10
22.14820704684973
 20
64.25987707584005
 30
0.0
 11
12.14820704684973
 21
64.25987707584005
 31
0.0
  0
LINE
  5
A28
330
18
100
AcDbEntity
  8
外形線
100
AcDbLine
 10
14.64820704684973
 20
69.25987707584003
 30
0.0
 11
14.64820704684973
 21
66.25987707584005
 31
0.0
  0
LINE
  5
A29
330
18
100
AcDbEntity
  8
外形線
100
AcDbLine
 10
13.64820704684972
 20
66.25987707584005
 30
0.0
 11
13.64820704684972
 21
64.25987707584005
 31
0.0
  0
LINE
  5
A2A
330
18
100
AcDbEntity
  8
外形線
100
AcDbLine
 10
14.64820704684976
 20
73.65987707584004
 30
0.0
 11
14.64820704684976
 21
69.85987707584005
 31
0.0
  0
ARC
  5
A2B
330
18
100
AcDbEntity
  8
外形線
100
AcDbCircle
 10
14.94820704684974
 20
69.25987707584003
 30
0.0
 40
0.3
100
AcDbArc
 50
90.00000000000007
 51
179.9999999999996
  0
ARC
  5
A2C
330
18
100
AcDbEntity
  8
外形線
100
AcDbCircle
 10
14.94820704684977
 20
69.85987707584005
 30
0.0
 40
0.3
100
AcDbArc
 50
180.0
 51
270.0000000000003
  0
LINE
  5
A2D
330
18
100
AcDbEntity
  8
外形線
100
AcDbLine
 10
14.64820704684976
 20
73.65987707584004
 30
0.0
 11
15.14820704684976
 21
74.15987707584005
 31
0.0
  0
LINE
  5
A2F
330
18
100
AcDbEntity
  8
外形線
100
AcDbLine
 10
19.64820704684973
 20
69.25987707584005
 30
0.0
 11
19.64820704684973
 21
66.25987707584005
 31
0.0
  0
LINE
  5
A30
330
18
100
AcDbEntity
  8
外形線
100
AcDbLine
 10
20.64820704684974
 20
66.25987707584005
 30
0.0
 11
20.64820704684974
 21
64.25987707584005
 31
0.0
  0
LINE
  5
A31
330
18
100
AcDbEntity
  8
外形線
100
AcDbLine
 10
19.6482070468497
 20
73.65987707584004
 30
0.0
 11
19.64820704684976
 21
69.85987707584005
 31
0.0
  0
ARC
  5
A32
330
18
100
AcDbEntity
  8
外形線
100
AcDbCircle
 10
19.34820704684972
 20
69.25987707584005
 30
0.0
 40
0.3
100
AcDbArc
 50
0.0
 51
90.0000000000001
  0
ARC
  5
A33
330
18
100
AcDbEntity
  8
外形線
100
AcDbCircle
 10
19.34820704684975
 20
69.85987707584005
 30
0.0
 40
0.3
100
AcDbArc
 50
270.0000000000001
 51
0.0
  0
LINE
  5
A34
330
18
100
AcDbEntity
  8
外形線
100
AcDbLine
 10
19.1482070468497
 20
74.15987707584005
 30
0.0
 11
19.6482070468497
 21
73.65987707584004
 31
0.0
  0
INSERT
  5
A42
330
18
100
AcDbEntity
  8
0
  6
ByBlock
 62
     2
100
AcDbBlockReference
  2
_OPEN
 10
73.63325774336295
 20
64.25987707584005
 30
0.0
 41
2.5
 42
2.5
 43
2.5
 50
90.0
  0
LINE
  5
A53
330
18
100
AcDbEntity
  8
0
  6
ByBlock
 62
     2
100
AcDbLine
 10
73.63325774336295
 20
61.75987707584005
 30
0.0
 11
73.63325774336295
 21
59.47376692948354
 31
0.0
  0
POINT
  5
A54
330
18
100
AcDbEntity
  8
DEFPOINTS
  6
ByBlock
 62
     0
100
AcDbPoint
 10
87.15702736131504
 20
54.25987707584005
 30
0.0
  0
POINT
  5
A55
330
18
100
AcDbEntity
  8
DEFPOINTS
  6
ByBlock
 62
     0
100
AcDbPoint
 10
87.15702736131504
 20
54.25987707584005
 30
0.0
  0
LINE
  5
A56
330
18
100
AcDbEntity
  8
外形線
100
AcDbLine
 10
88.90702736131505
 20
53.75987707584006
 30
0.0
 11
95.40702736131501
 21
53.75987707584005
 31
0.0
  0
ELLIPSE
  5
A57
330
18
100
AcDbEntity
  8
外形線
100
AcDbEllipse
 10
92.15702736131504
 20
53.45987707584007
 30
0.0
 11
-2.849999999999994
 21
0.0000000000000142
 31
0.0
210
0.0
220
0.0
230
1.0
 40
0.4210526315789468
 41
0.0
 42
3.141592653589793
  0
LINE
  5
A58
330
18
100
AcDbEntity
  8
外形線
100
AcDbLine
 10
89.30702736131506
 20
53.45987707584007
 30
0.0
 11
95.00702736131504
 21
53.45987707584004
 31
0.0
  0
LINE
  5
A59
330
18
100
AcDbEntity
  8
外形線
100
AcDbLine
 10
89.30702736131506
 20
53.75987707584006
 30
0.0
 11
89.30702736131506
 21
53.45987707584007
 31
0.0
  0
LINE
  5
A5A
330
18
100
AcDbEntity
  8
外形線
100
AcDbLine
 10
88.90702736131505
 20
54.25987707584005
 30
0.0
 11
88.90702736131505
 21
53.75987707584006
 31
0.0
  0
LINE
  5
A5B
330
18
100
AcDbEntity
  8
外形線
100
AcDbLine
 10
95.00702736131504
 20
53.75987707584005
 30
0.0
 11
95.00702736131504
 21
53.45987707584004
 31
0.0
  0
LINE
  5
A5C
330
18
100
AcDbEntity
  8
外形線
100
AcDbLine
 10
95.40702736131501
 20
54.25987707584005
 30
0.0
 11
95.40702736131505
 21
53.75987707584005
 31
0.0
  0
MTEXT
  5
A5F
330
18
100
AcDbEntity
  8
0
  6
ByBlock
 62
     6
100
AcDbMText
 10
103.4581382881256
 20
72.44545722348654
 30
0.0
 40
2.5
 41
0.0
 71
     5
 72
     1
  1
2-φ5
  7
STYLE3
 73
     1
 44
1.0
  0
LINE
  5
A60
330
18
100
AcDbEntity
  8
0
  6
ByBlock
 62
     2
100
AcDbLine
 10
97.15702736131504
 20
70.57045722348654
 30
0.0
 11
109.396810278865
 21
70.57045722348654
 31
0.0
  0
LINE
  5
A62
330
18
100
AcDbEntity
  8
0
  6
ByBlock
 62
     2
100
AcDbLine
 10
89.95702736131509
 20
69.55987707584005
 30
0.0
 11
72.38325774336295
 21
69.55987707584005
 31
0.0
  0
MTEXT
  5
A67
330
18
100
AcDbEntity
  8
0
  6
ByBlock
 62
     6
100
AcDbMText
 10
70.85416831575265
 20
67.31131040719398
 30
0.0
 40
2.5
 41
0.0
 71
     5
 72
     1
  1
\A1;5.3
  7
STYLE3
 11
0.0000000000000001
 21
1.0
 31
0.0
 73
     1
 44
1.0
  0
LINE
  5
A69
330
18
100
AcDbEntity
  8
外形線
100
AcDbLine
 10
88.65702736131503
 20
66.25987707584005
 30
0.0
 11
95.65702736131504
 21
66.25987707584005
 31
0.0
  0
LINE
  5
A6A
330
18
100
AcDbEntity
  8
0
  6
ByBlock
 62
     2
100
AcDbLine
 10
73.63325774336295
 20
69.55987707584005
 30
0.0
 11
73.63325774336295
 21
64.25987707584005
 31
0.0
  0
POINT
  5
A6B
330
18
100
AcDbEntity
  8
DEFPOINTS
  6
ByBlock
 62
     0
100
AcDbPoint
 10
73.63325774336295
 20
64.25987707584005
 30
0.0
  0
INSERT
  5
A6D
330
18
100
AcDbEntity
  8
0
  6
ByBlock
 62
     2
100
AcDbBlockReference
  2
_OPEN
 10
73.63325774336295
 20
69.55987707584005
 30
0.0
 41
2.5
 42
2.5
 43
2.5
 50
270.0
  0
LINE
  5
A6E
330
18
100
AcDbEntity
  8
0
  6
ByBlock
 62
     2
100
AcDbLine
 10
73.63325774336295
 20
72.05987707584005
 30
0.0
 11
73.63325774336295
 21
74.55987707584005
 31
0.0
  0
LINE
  5
A70
330
18
100
AcDbEntity
  8
外形線
100
AcDbLine
 10
88.65702736131503
 20
66.25987707584006
 30
0.0
 11
88.65702736131503
 21
64.25987707584005
 31
0.0
  0
LINE
  5
A71
330
18
100
AcDbEntity
  8
0
  6
ByBlock
 62
     2
100
AcDbLine
 10
87.15702736131508
 20
70.57045722348654
 30
0.0
 11
84.65702736131508
 21
70.57045722348654
 31
0.0
  0
INSERT
  5
A72
330
18
100
AcDbEntity
  8
0
  6
ByBlock
 62
     2
100
AcDbBlockReference
  2
_OPEN
 10
94.65702736131504
 20
70.57045722348654
 30
0.0
 41
2.5
 42
2.5
 43
2.5
 50
180.0
  0
LINE
  5
A73
330
18
100
AcDbEntity
  8
外形線
100
AcDbLine
 10
94.65702736131504
 20
69.25987707584006
 30
0.0
 11
94.65702736131504
 21
66.25987707584005
 31
0.0
  0
LINE
  5
A74
330
18
100
AcDbEntity
  8
外形線
100
AcDbLine
 10
89.65702736131504
 20
69.25987707584003
 30
0.0
 11
89.65702736131504
 21
66.25987707584005
 31
0.0
  0
LINE
  5
A75
330
18
100
AcDbEntity
  8
外形線
100
AcDbLine
 10
95.65702736131504
 20
66.25987707584005
 30
0.0
 11
95.65702736131504
 21
64.25987707584005
 31
0.0
  0
LINE
  5
A76
330
18
100
AcDbEntity
  8
0
  6
ByBlock
 62
     2
100
AcDbLine
 10
89.65702736131508
 20
70.57045722348654
 30
0.0
 11
94.65702736131504
 21
70.57045722348654
 31
0.0
  0
LINE
  5
A77
330
18
100
AcDbEntity
  8
外形線
100
AcDbLine
 10
89.65702736131508
 20
73.65987707584004
 30
0.0
 11
94.65702736131502
 21
73.65987707584004
 31
0.0
  0
LINE
  5
A78
330
18
100
AcDbEntity
  8
外形線
100
AcDbLine
 10
90.15702736131506
 20
74.15987707584005
 30
0.0
 11
94.15702736131501
 21
74.15987707584005
 31
0.0
  0
LINE
  5
A79
330
18
100
AcDbEntity
  8
外形線
100
AcDbLine
 10
89.95702736131509
 20
69.55987707584005
 30
0.0
 11
94.35702736131506
 21
69.55987707584005
 31
0.0
  0
POINT
  5
A7C
330
18
100
AcDbEntity
  8
DEFPOINTS
  6
ByBlock
 62
     0
100
AcDbPoint
 10
89.95702736131509
 20
69.55987707584005
 30
0.0
  0
LINE
  5
A7D
330
18
100
AcDbEntity
  8
外形線
100
AcDbLine
 10
89.65702736131508
 20
73.65987707584004
 30
0.0
 11
90.15702736131506
 21
74.15987707584005
 31
0.0
  0
ARC
  5
A7E
330
18
100
AcDbEntity
  8
外形線
100
AcDbCircle
 10
89.95702736131509
 20
69.85987707584005
 30
0.0
 40
0.3
100
AcDbArc
 50
180.0
 51
270.0000000000003
  0
ARC
  5
A7F
330
18
100
AcDbEntity
  8
外形線
100
AcDbCircle
 10
89.95702736131505
 20
69.25987707584003
 30
0.0
 40
0.3
100
AcDbArc
 50
90.00000000000007
 51
179.9999999999996
  0
LINE
  5
A80
330
18
100
AcDbEntity
  8
外形線
100
AcDbLine
 10
89.65702736131508
 20
73.65987707584004
 30
0.0
 11
89.65702736131508
 21
69.85987707584005
 31
0.0
  0
POINT
  5
A81
330
18
100
AcDbEntity
  8
DEFPOINTS
  6
ByBlock
 62
     0
100
AcDbPoint
 10
94.65702736131504
 20
70.57045722348654
 30
0.0
  0
LINE
  5
A84
330
18
100
AcDbEntity
  8
外形線
100
AcDbLine
 10
94.15702736131501
 20
74.15987707584005
 30
0.0
 11
94.65702736131502
 21
73.65987707584004
 31
0.0
  0
ARC
  5
A85
330
18
100
AcDbEntity
  8
外形線
100
AcDbCircle
 10
94.35702736131506
 20
69.85987707584006
 30
0.0
 40
0.3
100
AcDbArc
 50
270.0000000000001
 51
0.0
  0
ARC
  5
A86
330
18
100
AcDbEntity
  8
外形線
100
AcDbCircle
 10
94.35702736131503
 20
69.25987707584006
 30
0.0
 40
0.3
100
AcDbArc
 50
0.0
 51
90.0000000000001
  0
LINE
  5
A87
330
18
100
AcDbEntity
  8
外形線
100
AcDbLine
 10
94.65702736131502
 20
73.65987707584004
 30
0.0
 11
94.65702736131508
 21
69.85987707584006
 31
0.0
  0
LINE
  5
A8C
330
18
100
AcDbEntity
  8
0
  6
ByBlock
 62
     2
100
AcDbLine
 10
87.15702736131508
 20
70.98712389015322
 30
0.0
 11
89.65702736131508
 21
70.57045722348654
 31
0.0
  0
LINE
  5
A8D
330
18
100
AcDbEntity
  8
0
  6
ByBlock
 62
     2
100
AcDbLine
 10
89.65702736131508
 20
70.57045722348654
 30
0.0
 11
87.15702736131508
 21
70.15379055681987
 31
0.0
  0
LINE
  5
A8E
330
18
100
AcDbEntity
  8
0
  6
ByBlock
 62
     2
100
AcDbLine
 10
89.65702736131508
 20
70.57045722348654
 30
0.0
 11
87.15702736131508
 21
70.57045722348654
 31
0.0
  0
LINE
  5
12BA
102
{ACAD_REACTORS
330
12F8
102
}
330
18
100
AcDbEntity
  8
ROGO
 62
     4
100
AcDbLine
 10
83.6008118714488
 20
139.2422476994354
 30
0.0
 11
85.55161835777568
 21
139.2422476994354
 31
0.0
  0
LINE
  5
12BB
102
{ACAD_REACTORS
330
12F7
330
12F8
102
}
330
18
100
AcDbEntity
  8
ROGO
 62
     4
100
AcDbLine
 10
82.37255797318999
 20
136.7598770758401
 30
0.0
 11
99.17573654650352
 21
136.7598770758401
 31
0.0
  0
LINE
  5
12BC
102
{ACAD_REACTORS
330
12F8
102
}
330
18
100
AcDbEntity
  8
ROGO
 62
     4
100
AcDbLine
 10
83.6008118714488
 20
139.2422476994354
 30
0.0
 11
82.37255797318999
 21
136.75987707584
 31
0.0
  0
SPLINE
  5
12BD
102
{ACAD_REACTORS
330
12F8
102
}
330
18
100
AcDbEntity
  8
ROGO
 62
     4
100
AcDbSpline
210
0.0
220
0.0
230
1.0
 70
     8
 71
     3
 72
    18
 73
    14
 74
     0
 42
0.0000000001
 43
0.0000000001
 40
0.1087402787915014
 40
0.1087402787915014
 40
0.1087402787915014
 40
0.1087402787915014
 40
0.5992371417938475
 40
1.083176791562496
 40
1.448211145705696
 40
1.714037220764907
 40
2.164002567013297
 40
2.740236056362883
 40
3.395137510199602
 40
4.071816045172726
 40
4.784906178399433
 40
5.506895915094292
 40
6.060470601257719
 40
6.060470601257719
 40
6.060470601257719
 40
6.060470601257719
 10
85.55161835777568
 20
139.2422476994355
 30
0.0
 10
85.61411625950364
 20
139.2193432657744
 30
0.0
 10
85.73701773853377
 20
139.1709197928504
 30
0.0
 10
85.88701553993685
 20
139.0604014270035
 30
0.0
 10
85.96881786408614
 20
138.9328170041907
 30
0.0
 10
86.04750254168839
 20
138.8071053997499
 30
0.0
 10
86.05851431868524
 20
138.626750841698
 30
0.0
 10
86.04047628402446
 20
138.3987389672101
 30
0.0
 10
85.92402436184471
 20
138.1608321055924
 30
0.0
 10
85.73711217765373
 20
137.9527494548292
 30
0.0
 10
85.50504765721148
 20
137.7862028148837
 30
0.0
 10
85.26032761576203
 20
137.6554679913688
 30
0.0
 10
85.08540166134144
 20
137.6541653707519
 30
0.0
 10
85.00948657733266
 20
137.6536000541075
 30
0.0
  0
LINE
  5
12BE
102
{ACAD_REACTORS
330
12F8
102
}
330
18
100
AcDbEntity
  8
ROGO
 62
     4
100
AcDbLine
 10
85.00948657770647
 20
137.6536000541076
 30
0.0
 11
83.93081556179941
 21
137.6536000541076
 31
0.0
  0
LINE
  5
12BF
102
{ACAD_REACTORS
330
12F8
102
}
330
18
100
AcDbEntity
  8
ROGO
 62
     4
100
AcDbLine
 10
84.37162242056121
 20
138.6279130981806
 30
0.0
 11
84.18047609595584
 21
138.2054233984678
 31
0.0
  0
SPLINE
  5
12C0
102
{ACAD_REACTORS
330
12F8
102
}
330
18
100
AcDbEntity
  8
ROGO
 62
     4
100
AcDbSpline
210
0.0
220
0.0
230
1.0
 70
     8
 71
     3
 72
    15
 73
    11
 74
     9
 42
0.0000000001
 43
0.0000000001
 44
0.0000000001
 40
0.0
 40
0.0
 40
0.0
 40
0.0
 40
0.1862740899482178
 40
0.2712048291500573
 40
0.3676068721540314
 40
0.4332804260297873
 40
0.537143832615276
 40
0.5993551759274022
 40
0.7060894550069186
 40
0.7416675707407233
 40
0.7416675707407233
 40
0.7416675707407233
 40
0.7416675707407233
 10
84.86278700958797
 20
138.6279130981806
 30
0.0
 10
84.93274794549613
 20
138.6282335566111
 30
0.0
 10
85.03460722004916
 20
138.6287001264594
 30
0.0
 10
85.09030749919304
 20
138.5026999092711
 30
0.0
 10
85.06533997828197
 20
138.4215754251958
 30
0.0
 10
85.03395376961192
 20
138.3382858647246
 30
0.0
 10
84.97848723038464
 20
138.2816893521992
 30
0.0
 10
84.90404301039498
 20
138.227177369783
 30
0.0
 10
84.8336896649701
 20
138.2205784502183
 30
0.0
 10
84.78793271120082
 20
138.2084544099786
 30
0.0
 10
84.77649346728282
 20
138.2054233984678
 30
0.0
 11
84.86278700958797
 21
138.6279130981806
 31
0.0
 11
85.04400359729045
 21
138.5848017896003
 31
0.0
 11
85.07852111345375
 21
138.5072017152492
 31
0.0
 11
85.06126260347452
 21
138.4123571174662
 31
0.0
 11
85.03537459040359
 21
138.3520012854537
 31
0.0
 11
84.96633955807743
 21
138.2744012111028
 31
0.0
 11
84.91456353193512
 21
138.2399121642385
 31
0.0
 11
84.8110109834459
 21
138.2140456601838
 31
0.0
 11
84.77649346728282
 21
138.2054233984678
 31
0.0
  0
LINE
  5
12C1
102
{ACAD_REACTORS
330
12F8
102
}
330
18
100
AcDbEntity
  8
ROGO
 62
     4
100
AcDbLine
 10
84.86278700958797
 20
138.6279130981806
 30
0.0
 11
84.37162242056121
 21
138.6279130981806
 31
0.0
  0
LINE
  5
12C2
102
{ACAD_REACTORS
330
12F8
102
}
330
18
100
AcDbEntity
  8
ROGO
 62
     4
100
AcDbLine
 10
84.77649346728282
 20
138.2054233984678
 30
0.0
 11
84.18047609595584
 21
138.2054233984678
 31
0.0
  0
LINE
  5
12C3
102
{ACAD_REACTORS
330
12F8
102
}
330
18
100
AcDbEntity
  8
ROGO
 62
     4
100
AcDbLine
 10
83.93081556179941
 20
137.6536000541076
 30
0.0
 11
83.52646993484729
 21
136.7598770758401
 31
0.0
  0
LINE
  5
12C4
102
{ACAD_REACTORS
330
12F3
102
}
330
18
100
AcDbEntity
  8
ROGO
 62
     4
100
AcDbLine
 10
86.70410642552207
 20
139.2422476994354
 30
0.0
 11
85.91805834519647
 21
137.6536000541076
 31
0.0
  0
LINE
  5
12C5
102
{ACAD_REACTORS
330
12F3
102
}
330
18
100
AcDbEntity
  8
ROGO
 62
     4
100
AcDbLine
 10
88.8528184572911
 20
139.2422476994354
 30
0.0
 11
88.67275829097144
 21
138.87833591541
 31
0.0
  0
LINE
  5
12C6
102
{ACAD_REACTORS
330
12F3
102
}
330
18
100
AcDbEntity
  8
ROGO
 62
     4
100
AcDbLine
 10
85.91805834519647
 20
137.6536000541076
 30
0.0
 11
88.0667703769655
 21
137.6536000541076
 31
0.0
  0
LINE
  5
12C7
102
{ACAD_REACTORS
330
12F3
102
}
330
18
100
AcDbEntity
  8
ROGO
 62
     4
100
AcDbLine
 10
87.54344954382174
 20
138.87833591541
 30
0.0
 11
87.40266486906518
 21
138.5938021220606
 31
0.0
  0
LINE
  5
12C8
102
{ACAD_REACTORS
330
12F3
102
}
330
18
100
AcDbEntity
  8
ROGO
 62
     4
100
AcDbLine
 10
87.54344954382174
 20
138.87833591541
 30
0.0
 11
88.67275829097144
 21
138.87833591541
 31
0.0
  0
LINE
  5
12C9
102
{ACAD_REACTORS
330
12F3
102
}
330
18
100
AcDbEntity
  8
ROGO
 62
     4
100
AcDbLine
 10
87.40266486906518
 20
138.5938021220606
 30
0.0
 11
88.53197361621511
 21
138.5938021220606
 31
0.0
  0
LINE
  5
12CA
102
{ACAD_REACTORS
330
12F3
102
}
330
18
100
AcDbEntity
  8
ROGO
 62
     4
100
AcDbLine
 10
87.11751273890859
 20
138.0174935329652
 30
0.0
 11
88.2468214860583
 21
138.0174935329652
 31
0.0
  0
LINE
  5
12CB
102
{ACAD_REACTORS
330
12F3
102
}
330
18
100
AcDbEntity
  8
ROGO
 62
     4
100
AcDbLine
 10
87.25830337381154
 20
138.3020393721076
 30
0.0
 11
88.38761212096102
 21
138.3020393721076
 31
0.0
  0
LINE
  5
12CC
102
{ACAD_REACTORS
330
12F3
102
}
330
18
100
AcDbEntity
  8
ROGO
 62
     4
100
AcDbLine
 10
88.53197361621511
 20
138.5938021220606
 30
0.0
 11
88.38761212096102
 21
138.3020393721076
 31
0.0
  0
LINE
  5
12CD
102
{ACAD_REACTORS
330
12F3
102
}
330
18
100
AcDbEntity
  8
ROGO
 62
     4
100
AcDbLine
 10
88.2468214860583
 20
138.0174935329652
 30
0.0
 11
88.0667703769655
 21
137.6536000541076
 31
0.0
  0
LINE
  5
12CE
102
{ACAD_REACTORS
330
12F3
102
}
330
18
100
AcDbEntity
  8
ROGO
 62
     4
100
AcDbLine
 10
87.25830337381154
 20
138.3020393721076
 30
0.0
 11
87.11751273890859
 21
138.0174935329652
 31
0.0
  0
LINE
  5
12CF
102
{ACAD_REACTORS
330
12FC
102
}
330
18
100
AcDbEntity
  8
ROGO
 62
     4
100
AcDbLine
 10
89.47525554243004
 20
139.2422476994354
 30
0.0
 11
88.32965085037704
 21
137.6536000541076
 31
0.0
  0
LINE
  5
12D0
102
{ACAD_REACTORS
330
12FC
102
}
330
18
100
AcDbEntity
  8
ROGO
 62
     4
100
AcDbLine
 10
90.0488571956019
 20
138.8175957271002
 30
0.0
 11
89.65764690931388
 21
138.2750915767145
 31
0.0
  0
LINE
  5
12D1
102
{ACAD_REACTORS
330
12FC
102
}
330
18
100
AcDbEntity
  8
ROGO
 62
     4
100
AcDbLine
 10
89.42759333909913
 20
137.9560687365009
 30
0.0
 11
90.43158162208674
 21
137.9560687365009
 31
0.0
  0
LINE
  5
12D2
102
{ACAD_REACTORS
330
12FC
102
}
330
18
100
AcDbEntity
  8
ROGO
 62
     4
100
AcDbLine
 10
89.65764690931388
 20
138.2750915767145
 30
0.0
 11
90.2898590354601
 21
138.2750915767145
 31
0.0
  0
LINE
  5
12D3
102
{ACAD_REACTORS
330
12FC
102
}
330
18
100
AcDbEntity
  8
ROGO
 62
     4
100
AcDbLine
 10
89.42759333909913
 20
137.9560687365009
 30
0.0
 11
89.20947729381493
 21
137.6536000541076
 31
0.0
  0
LINE
  5
12D4
102
{ACAD_REACTORS
330
12FC
102
}
330
18
100
AcDbEntity
  8
ROGO
 62
     4
100
AcDbLine
 10
88.32965085037704
 20
137.6536000541076
 30
0.0
 11
89.20947729381493
 21
137.6536000541076
 31
0.0
  0
LINE
  5
12D5
102
{ACAD_REACTORS
330
12FC
102
}
330
18
100
AcDbEntity
  8
ROGO
 62
     4
100
AcDbLine
 10
89.47525554243004
 20
139.2422476994354
 30
0.0
 11
90.74603760213795
 21
139.2422476994355
 31
0.0
  0
LINE
  5
12D6
102
{ACAD_REACTORS
330
12FC
102
}
330
18
100
AcDbEntity
  8
ROGO
 62
     4
100
AcDbLine
 10
91.45177783497871
 20
137.6536000541076
 30
0.0
 11
90.56595019586513
 21
137.6536000541076
 31
0.0
  0
LINE
  5
12D7
102
{ACAD_REACTORS
330
12F4
102
}
330
18
100
AcDbEntity
  8
ROGO
 62
     4
100
AcDbLine
 10
91.8868467474561
 20
137.6536000541076
 30
0.0
 11
93.25516987742622
 21
137.6536000541076
 31
0.0
  0
LINE
  5
12D8
102
{ACAD_REACTORS
330
12F4
102
}
330
18
100
AcDbEntity
  8
ROGO
 62
     4
100
AcDbLine
 10
94.04732090192949
 20
139.2422476994354
 30
0.0
 11
93.75258936152278
 21
138.651167775043
 31
0.0
  0
LINE
  5
12D9
102
{ACAD_REACTORS
330
12F4
102
}
330
18
100
AcDbEntity
  8
ROGO
 62
     4
100
AcDbLine
 10
92.75841266601066
 20
138.651167775043
 30
0.0
 11
93.75258936152278
 21
138.651167775043
 31
0.0
  0
LINE
  5
12DA
102
{ACAD_REACTORS
330
12F4
102
}
330
18
100
AcDbEntity
  8
ROGO
 62
     4
100
AcDbLine
 10
92.53404905905318
 20
138.2446737191252
 30
0.0
 11
93.54989829670632
 21
138.2446737191252
 31
0.0
  0
SPLINE
  5
12DB
102
{ACAD_REACTORS
330
12F4
102
}
330
18
100
AcDbEntity
  8
ROGO
 62
     4
100
AcDbSpline
210
0.0
220
0.0
230
1.0
 70
     8
 71
     3
 72
    26
 73
    22
 74
    20
 42
0.0000000001
 43
0.0000000001
 44
0.0000000001
 40
0.0
 40
0.0
 40
0.0
 40
0.0
 40
0.2881988834597496
 40
0.4811257200807095
 40
0.6202416806465815
 40
0.7241150670423511
 40
0.8588443009085285
 40
0.9571835072372568
 40
1.134761193029005
 40
1.279306876298447
 40
1.377621101868456
 40
1.47402323370743
 40
1.646467905841678
 40
1.768406871162937
 40
1.834080425038782
 40
1.927367768351507
 40
1.994732652127931
 40
2.092322128063421
 40
2.147549330143425
 40
2.267729916712045
 40
2.322605416538377
 40
2.322605416538377
 40
2.322605416538377
 40
2.322605416538377
 10
92.45638501983995
 20
139.2422476994354
 30
0.0
 10
92.35856586587475
 20
139.2364116409676
 30
0.0
 10
92.19526436267594
 20
139.2266687932541
 30
0.0
 10
92.01596030557301
 20
139.1177435041468
 30
0.0
 10
91.88459165630446
 20
139.0544191277706
 30
0.0
 10
91.79089969496411
 20
138.968335032969
 30
0.0
 10
91.72222310750274
 20
138.8794164513625
 30
0.0
 10
91.63564337633964
 20
138.7734706133469
 30
0.0
 10
91.56504007959487
 20
138.6501009721919
 30
0.0
 10
91.52908611281398
 20
138.514126120221
 30
0.0
 10
91.49723843027869
 20
138.4057533742492
 30
0.0
 10
91.4736196557512
 20
138.2849860917951
 30
0.0
 10
91.47962894062999
 20
138.1545149430368
 30
0.0
 10
91.4882345115989
 20
138.0333400194982
 30
0.0
 10
91.5266562933785
 20
137.946839266466
 30
0.0
 10
91.57041189715434
 20
137.885256691003
 30
0.0
 10
91.62399003474858
 20
137.8174303114696
 30
0.0
 10
91.68261623385324
 20
137.7725091199347
 30
0.0
 10
91.73110488591607
 20
137.6911313628383
 30
0.0
 10
91.81598263561864
 20
137.6807469741324
 30
0.0
 10
91.86993431006246
 20
137.6600789412826
 30
0.0
 10
91.88684674745633
 20
137.6536000541075
 30
0.0
 11
92.45638501983995
 21
139.2422476994354
 31
0.0
 11
92.17161588364803
 21
139.1979178505754
 31
0.0
 11
91.99902830283264
 21
139.1116955145083
 31
0.0
 11
91.87821724436417
 21
139.0427177018734
 31
0.0
 11
91.80055320515094
 21
138.973739608145
 31
0.0
 11
91.71425966284601
 21
138.8702727486458
 31
0.0
 11
91.65385413361155
 21
138.7926726742948
 31
0.0
 11
91.56756009510132
 21
138.6374722444992
 31
0.0
 11
91.52441357205139
 21
138.4995163381359
 31
0.0
 11
91.49852555898025
 21
138.4046717403527
 31
0.0
 11
91.48126655279616
 21
138.3098271425696
 31
0.0
 11
91.48126655279616
 21
138.1373824704353
 31
0.0
 11
91.49852555898025
 21
138.0166710875041
 31
0.0
 11
91.52441357205139
 21
137.9563152554917
 31
0.0
 11
91.57618959819325
 21
137.8787151811406
 31
0.0
 11
91.61933661744848
 21
137.8269816108443
 31
0.0
 11
91.68837115356955
 21
137.7580037982093
 31
0.0
 11
91.72288866973287
 21
137.714892489629
 31
0.0
 11
91.83507072131424
 21
137.6717814621422
 31
0.0
 11
91.88684674745633
 21
137.6536000541075
 31
0.0
  0
SPLINE
  5
12DC
102
{ACAD_REACTORS
330
12F4
102
}
330
18
100
AcDbEntity
  8
ROGO
 62
     4
100
AcDbSpline
210
0.0
220
0.0
230
1.0
 70
     8
 71
     3
 72
    16
 73
    12
 74
    10
 42
0.0000000001
 43
0.0000000001
 44
0.0000000001
 40
0.0
 40
0.0
 40
0.0
 40
0.0
 40
0.1519401013999422
 40
0.2261518838407146
 40
0.262748055698998
 40
0.3013144613917346
 40
0.3565414440454822
 40
0.4068283623073305
 40
0.4592764464988671
 40
0.5472094494300525
 40
0.6342447464969839
 40
0.6342447464969839
 40
0.6342447464969839
 40
0.6342447464969839
 10
92.75841266601089
 20
138.651167775043
 30
0.0
 10
92.70695885695705
 20
138.6433232947273
 30
0.0
 10
92.63037357274905
 20
138.6316473514785
 30
0.0
 10
92.56111744873999
 20
138.5768249656781
 30
0.0
 10
92.52206180335788
 20
138.5442092952992
 30
0.0
 10
92.50877489880066
 20
138.5010168892888
 30
0.0
 10
92.47309044565104
 20
138.4678517517978
 30
0.0
 10
92.44367630605063
 20
138.4222721773433
 30
0.0
 10
92.43665287627164
 20
138.3596678935525
 30
0.0
 10
92.44180823453216
 20
138.2718123221927
 30
0.0
 10
92.50340746613684
 20
138.2536889250476
 30
0.0
 10
92.53404905905318
 20
138.2446737191252
 30
0.0
 11
92.75841266601089
 21
138.651167775043
 31
0.0
 11
92.6117135944715
 21
138.6116054593511
 31
0.0
 11
92.55130806523727
 21
138.5684944318643
 31
0.0
 11
92.52542005216611
 21
138.542627646716
 31
0.0
 11
92.50816104598204
 21
138.5081385998519
 31
0.0
 11
92.47364352981895
 21
138.4650275723651
 31
0.0
 11
92.44775551674781
 21
138.4219162637848
 31
0.0
 11
92.43912601365565
 21
138.370182974582
 31
0.0
 11
92.45638501983995
 21
138.2839603574214
 31
0.0
 11
92.53404905905318
 21
138.2446737191252
 31
0.0
  0
LINE
  5
12DD
102
{ACAD_REACTORS
330
12F4
102
}
330
18
100
AcDbEntity
  8
ROGO
 62
     4
100
AcDbLine
 10
93.54989829670632
 20
138.2446737191252
 30
0.0
 11
93.25516987742622
 21
137.6536000541076
 31
0.0
  0
LINE
  5
12DE
102
{ACAD_REACTORS
330
12F4
102
}
330
18
100
AcDbEntity
  8
ROGO
 62
     4
100
AcDbLine
 10
92.45638501984041
 20
139.2422476994355
 30
0.0
 11
94.04732090192949
 21
139.2422476994355
 31
0.0
  0
LINE
  5
12DF
102
{ACAD_REACTORS
330
12F5
102
}
330
18
100
AcDbEntity
  8
ROGO
 62
     4
100
AcDbLine
 10
97.00561077143113
 20
137.6536000541076
 30
0.0
 11
98.37393390140125
 21
137.6536000541076
 31
0.0
  0
LINE
  5
12E0
102
{ACAD_REACTORS
330
12F5
102
}
330
18
100
AcDbEntity
  8
ROGO
 62
     4
100
AcDbLine
 10
97.57514904381521
 20
139.2422476994354
 30
0.0
 11
99.16608492590427
 21
139.2422476994354
 31
0.0
  0
SPLINE
  5
12E1
102
{ACAD_REACTORS
330
12F5
102
}
330
18
100
AcDbEntity
  8
ROGO
 62
     4
100
AcDbSpline
210
0.0
220
0.0
230
1.0
 70
     8
 71
     3
 72
    16
 73
    12
 74
    10
 42
0.0000000001
 43
0.0000000001
 44
0.0000000001
 40
0.0
 40
0.0
 40
0.0
 40
0.0
 40
0.1519401013997227
 40
0.2261518838405612
 40
0.2627480556987642
 40
0.3013144613915008
 40
0.3565414440452485
 40
0.4068283623069796
 40
0.4592764464985536
 40
0.5472094494297391
 40
0.6342447464966705
 40
0.6342447464966705
 40
0.6342447464966705
 40
0.6342447464966705
 10
97.87717668998546
 20
138.651167775043
 30
0.0
 10
97.82572288093163
 20
138.6433232947273
 30
0.0
 10
97.74913759672363
 20
138.6316473514785
 30
0.0
 10
97.6798814727149
 20
138.576824965678
 30
0.0
 10
97.64082582733259
 20
138.5442092952992
 30
0.0
 10
97.62753892277551
 20
138.5010168892889
 30
0.0
 10
97.59185446962577
 20
138.4678517517978
 30
0.0
 10
97.56244033002577
 20
138.4222721773432
 30
0.0
 10
97.55541690024626
 20
138.3596678935525
 30
0.0
 10
97.560572258507
 20
138.2718123221927
 30
0.0
 10
97.62217149011165
 20
138.2536889250477
 30
0.0
 10
97.65281308302798
 20
138.2446737191252
 30
0.0
 11
97.87717668998546
 21
138.651167775043
 31
0.0
 11
97.7304776184463
 21
138.6116054593511
 31
0.0
 11
97.67007208921206
 21
138.5684944318642
 31
0.0
 11
97.6441840761409
 21
138.542627646716
 31
0.0
 11
97.62692506995684
 21
138.5081385998519
 31
0.0
 11
97.59240755379375
 21
138.4650275723651
 31
0.0
 11
97.56651954072282
 21
138.4219162637848
 31
0.0
 11
97.55789003763045
 21
138.370182974582
 31
0.0
 11
97.57514904381475
 21
138.2839603574214
 31
0.0
 11
97.65281308302798
 21
138.2446737191252
 31
0.0
  0
SPLINE
  5
12E2
102
{ACAD_REACTORS
330
12F5
102
}
330
18
100
AcDbEntity
  8
ROGO
 62
     4
100
AcDbSpline
210
0.0
220
0.0
230
1.0
 70
     8
 71
     3
 72
    26
 73
    22
 74
    20
 42
0.0000000001
 43
0.0000000001
 44
0.0000000001
 40
0.0
 40
0.0
 40
0.0
 40
0.0
 40
0.2881988834597496
 40
0.4811257200807095
 40
0.620241680646384
 40
0.7241150670423236
 40
0.8588443009086466
 40
0.9571835072372351
 40
1.134761193028983
 40
1.279306876298601
 40
1.377621101868441
 40
1.474023233707415
 40
1.646467905841663
 40
1.768406871162922
 40
1.834080425038782
 40
1.927367768351539
 40
1.994732652127963
 40
2.092322128063613
 40
2.147549330143333
 40
2.267729916712165
 40
2.322605416538497
 40
2.322605416538497
 40
2.322605416538497
 40
2.322605416538497
 10
97.57514904381475
 20
139.2422476994354
 30
0.0
 10
97.47732988984957
 20
139.2364116409676
 30
0.0
 10
97.31402838665076
 20
139.2266687932541
 30
0.0
 10
97.1347243295478
 20
139.117743504147
 30
0.0
 10
97.00335568027945
 20
139.0544191277705
 30
0.0
 10
96.90966371893885
 20
138.9683350329689
 30
0.0
 10
96.84098713147733
 20
138.8794164513627
 30
0.0
 10
96.75440740031447
 20
138.7734706133467
 30
0.0
 10
96.68380410356974
 20
138.6501009721918
 30
0.0
 10
96.64785013678844
 20
138.514126120221
 30
0.0
 10
96.61600245425354
 20
138.4057533742491
 30
0.0
 10
96.59238367972598
 20
138.2849860917951
 30
0.0
 10
96.5983929646047
 20
138.1545149430367
 30
0.0
 10
96.60699853557385
 20
138.0333400194982
 30
0.0
 10
96.64542031735292
 20
137.9468392664658
 30
0.0
 10
96.68917592112922
 20
137.8852566910031
 30
0.0
 10
96.74275405872331
 20
137.8174303114695
 30
0.0
 10
96.80138025782836
 20
137.772509119935
 30
0.0
 10
96.84986890989055
 20
137.6911313628381
 30
0.0
 10
96.93474665959341
 20
137.6807469741325
 30
0.0
 10
96.98869833403724
 20
137.6600789412826
 30
0.0
 10
97.00561077143113
 20
137.6536000541075
 30
0.0
 11
97.57514904381475
 21
139.2422476994354
 31
0.0
 11
97.29037990762282
 21
139.1979178505754
 31
0.0
 11
97.11779232680743
 21
139.1116955145083
 31
0.0
 11
96.9969812683392
 21
139.0427177018734
 31
0.0
 11
96.91931722912574
 21
138.973739608145
 31
0.0
 11
96.83302368682058
 21
138.8702727486458
 31
0.0
 11
96.77261815758635
 21
138.7926726742948
 31
0.0
 11
96.68632411907612
 21
138.6374722444992
 31
0.0
 11
96.64317759602596
 21
138.4995163381357
 31
0.0
 11
96.61728958295505
 21
138.4046717403527
 31
0.0
 11
96.60003057677096
 21
138.3098271425696
 31
0.0
 11
96.60003057677096
 21
138.1373824704353
 31
0.0
 11
96.61728958295505
 21
138.0166710875041
 31
0.0
 11
96.64317759602596
 21
137.9563152554916
 31
0.0
 11
96.69495362216805
 21
137.8787151811406
 31
0.0
 11
96.73810064142328
 21
137.8269816108443
 31
0.0
 11
96.80713517754458
 21
137.7580037982093
 31
0.0
 11
96.84165269370744
 21
137.714892489629
 31
0.0
 11
96.95383474528904
 21
137.6717814621422
 31
0.0
 11
97.00561077143113
 21
137.6536000541075
 31
0.0
  0
LINE
  5
12E3
102
{ACAD_REACTORS
330
12F5
102
}
330
18
100
AcDbEntity
  8
ROGO
 62
     4
100
AcDbLine
 10
98.66866232068133
 20
138.2446737191252
 30
0.0
 11
98.37393390140102
 21
137.6536000541076
 31
0.0
  0
LINE
  5
12E4
102
{ACAD_REACTORS
330
12F5
102
}
330
18
100
AcDbEntity
  8
ROGO
 62
     4
100
AcDbLine
 10
97.65281308302798
 20
138.2446737191252
 30
0.0
 11
98.66866232068133
 21
138.2446737191252
 31
0.0
  0
LINE
  5
12E5
102
{ACAD_REACTORS
330
12F5
102
}
330
18
100
AcDbEntity
  8
ROGO
 62
     4
100
AcDbLine
 10
97.87717668998546
 20
138.651167775043
 30
0.0
 11
98.8713533854978
 21
138.651167775043
 31
0.0
  0
LINE
  5
12E6
102
{ACAD_REACTORS
330
12F5
102
}
330
18
100
AcDbEntity
  8
ROGO
 62
     4
100
AcDbLine
 10
99.16608492590427
 20
139.2422476994354
 30
0.0
 11
98.8713533854978
 21
138.651167775043
 31
0.0
  0
LINE
  5
12E7
102
{ACAD_REACTORS
330
12F7
102
}
330
18
100
AcDbEntity
  8
ROGO
 62
     4
100
AcDbLine
 10
99.49881377472644
 20
139.2422476994354
 30
0.0
 11
100.413526712536
 21
139.2422476994354
 31
0.0
  0
LINE
  5
12E8
102
{ACAD_REACTORS
330
12F7
102
}
330
18
100
AcDbEntity
  8
ROGO
 62
     4
100
AcDbLine
 10
99.49881377472644
 20
139.2422476994354
 30
0.0
 11
98.26102360869397
 21
136.7598770758401
 31
0.0
  0
LINE
  5
12E9
102
{ACAD_REACTORS
330
12F7
102
}
330
18
100
AcDbEntity
  8
ROGO
 62
     4
100
AcDbLine
 10
100.413526712536
 20
139.2422476994354
 30
0.0
 11
100.2783852146854
 21
138.9712233420771
 31
0.0
  0
LINE
  5
12EA
102
{ACAD_REACTORS
330
12F7
102
}
330
18
100
AcDbEntity
  8
ROGO
 62
     4
100
AcDbLine
 10
100.2783852146854
 20
138.9712233420771
 30
0.0
 11
100.7066715658421
 21
139.2422476994354
 31
0.0
  0
LINE
  5
12EB
102
{ACAD_REACTORS
330
12F7
102
}
330
18
100
AcDbEntity
  8
ROGO
 62
     4
100
AcDbLine
 10
99.49881377472644
 20
137.4078038751488
 30
0.0
 11
99.82189100294938
 21
136.7598770758401
 31
0.0
  0
LINE
  5
12EC
102
{ACAD_REACTORS
330
12F7
102
}
330
18
100
AcDbEntity
  8
ROGO
 62
     4
100
AcDbLine
 10
100.1176888445594
 20
138.0010623876378
 30
0.0
 11
100.7365839275756
 21
136.7598770758401
 31
0.0
  0
LINE
  5
12ED
102
{ACAD_REACTORS
330
12F7
102
}
330
18
100
AcDbEntity
  8
ROGO
 62
     4
100
AcDbLine
 10
99.49881377472644
 20
137.4078038751488
 30
0.0
 11
99.17573654650352
 21
136.7598770758401
 31
0.0
  0
LINE
  5
12EE
102
{ACAD_REACTORS
330
12F7
102
}
330
18
100
AcDbEntity
  8
ROGO
 62
     4
100
AcDbLine
 10
100.1176888445594
 20
138.0010623876378
 30
0.0
 11
101.6213644904681
 21
139.2422476994354
 31
0.0
  0
LINE
  5
12EF
102
{ACAD_REACTORS
330
12F7
102
}
330
18
100
AcDbEntity
  8
ROGO
 62
     4
100
AcDbLine
 10
100.7066715658421
 20
139.2422476994354
 30
0.0
 11
101.6213644904681
 21
139.2422476994354
 31
0.0
  0
LINE
  5
12F0
102
{ACAD_REACTORS
330
12F7
102
}
330
18
100
AcDbEntity
  8
ROGO
 62
     4
100
AcDbLine
 10
99.82189100294938
 20
136.7598770758401
 30
0.0
 11
100.7365839275756
 21
136.7598770758401
 31
0.0
  0
LINE
  5
12F1
102
{ACAD_REACTORS
330
12F3
102
}
330
18
100
AcDbEntity
  8
ROGO
 62
     4
100
AcDbLine
 10
86.70410642552207
 20
139.2422476994354
 30
0.0
 11
88.8528184572911
 21
139.2422476994355
 31
0.0
  0
LINE
  5
12F2
330
18
100
AcDbEntity
  8
ROGO
 62
     4
100
AcDbLine
 10
83.62178745391707
 20
137.0086976601757
 30
0.0
 11
98.38509358820061
 21
137.0086976601757
 31
0.0
  0
HATCH
  5
12F3
330
18
100
AcDbEntity
  8
ROGO
 62
     4
100
AcDbHatch
 10
0.0
 20
0.0
 30
0.0
210
0.0
220
0.0
230
1.0
  2
SOLID
 70
     1
 71
     1
 91
        1
 92
        1
 93
       12
 72
     1
 10
86.70410642552207
 20
139.2422476994354
 11
88.8528184572911
 21
139.2422476994355
 72
     1
 10
88.8528184572911
 20
139.2422476994354
 11
88.67275829097144
 21
138.87833591541
 72
     1
 10
88.67275829097144
 20
138.87833591541
 11
87.54344954382174
 21
138.87833591541
 72
     1
 10
87.54344954382174
 20
138.87833591541
 11
87.40266486906518
 21
138.5938021220606
 72
     1
 10
87.40266486906518
 20
138.5938021220606
 11
88.53197361621511
 21
138.5938021220606
 72
     1
 10
88.53197361621511
 20
138.5938021220606
 11
88.38761212096102
 21
138.3020393721076
 72
     1
 10
88.38761212096102
 20
138.3020393721076
 11
87.25830337381154
 21
138.3020393721076
 72
     1
 10
87.25830337381154
 20
138.3020393721076
 11
87.11751273890859
 21
138.0174935329652
 72
     1
 10
87.11751273890859
 20
138.0174935329652
 11
88.2468214860583
 21
138.0174935329652
 72
     1
 10
88.2468214860583
 20
138.0174935329652
 11
88.0667703769655
 21
137.6536000541076
 72
     1
 10
88.0667703769655
 20
137.6536000541076
 11
85.91805834519647
 21
137.6536000541076
 72
     1
 10
85.91805834519647
 20
137.6536000541076
 11
86.70410642552207
 21
139.2422476994354
 97
       12
330
12F1
330
12C5
330
12C8
330
12C7
330
12C9
330
12CC
330
12CB
330
12CE
330
12CA
330
12CD
330
12C6
330
12C4
 75
     0
 76
     1
 98
        1
 10
-1.188291168241562
 20
29.39437171072103
450
        0
451
        0
460
0.0
461
0.0
452
        0
462
0.0
453
        0
470

  0
HATCH
  5
12F4
330
18
100
AcDbEntity
  8
ROGO
 62
     4
100
AcDbHatch
 10
0.0
 20
0.0
 30
0.0
210
0.0
220
0.0
230
1.0
  2
SOLID
 70
     1
 71
     1
 91
        1
 92
        5
 93
        8
 72
     1
 10
93.75258936152278
 20
138.651167775043
 11
94.04732090192954
 21
139.2422476994355
 72
     1
 10
94.04732090192954
 20
139.2422476994355
 11
92.45638501984107
 21
139.2422476994355
 72
     4
 94
        3
 73
     0
 74
     0
 95
       26
 96
       22
 40
0.0
 40
0.0
 40
0.0
 40
0.0
 40
0.5763977669194992
 40
0.9622514401614189
 40
1.240483361293162
 40
1.448230134084777
 40
1.717688601817045
 40
1.914367014474591
 40
2.269522386057988
 40
2.558613752596873
 40
2.755242203736891
 40
2.948046467414839
 40
3.292935811683334
 40
3.536813742325964
 40
3.668160850077551
 40
3.854735536703
 40
3.989465304255848
 40
4.184644256126828
 40
4.295098660286837
 40
4.535459833424076
 40
4.64521083307674
 40
4.64521083307674
 40
4.64521083307674
 40
4.64521083307674
 10
92.45638501983995
 20
139.2422476994354
 10
92.35856586587477
 20
139.2364116409676
 10
92.19526436267591
 20
139.2266687932541
 10
92.01596030557301
 20
139.1177435041469
 10
91.88459165630451
 20
139.0544191277706
 10
91.79089969496407
 20
138.9683350329688
 10
91.7222231075028
 20
138.8794164513625
 10
91.63564337633962
 20
138.7734706133469
 10
91.56504007959483
 20
138.6501009721919
 10
91.52908611281395
 20
138.514126120221
 10
91.49723843027871
 20
138.4057533742492
 10
91.4736196557512
 20
138.2849860917952
 10
91.47962894062999
 20
138.1545149430368
 10
91.48823451159888
 20
138.0333400194981
 10
91.52665629337855
 20
137.9468392664661
 10
91.57041189715428
 20
137.885256691003
 10
91.6239900347486
 20
137.8174303114696
 10
91.68261623385319
 20
137.7725091199347
 10
91.73110488591612
 20
137.6911313628384
 10
91.81598263561861
 20
137.6807469741325
 10
91.86993431006246
 20
137.6600789412826
 10
91.88684674745633
 20
137.6536000541075
 72
     1
 10
91.8868467474561
 20
137.6536000541076
 11
93.25516987742622
 21
137.6536000541076
 72
     1
 10
93.25516987742622
 20
137.6536000541076
 11
93.5498982967063
 21
138.2446737191252
 72
     1
 10
93.5498982967063
 20
138.2446737191252
 11
92.53404905905311
 21
138.2446737191252
 72
     4
 94
        3
 73
     0
 74
     0
 95
       16
 96
       12
 40
0.0
 40
0.0
 40
0.0
 40
0.0
 40
0.1740705941338627
 40
0.3499365999961221
 40
0.4548327683793074
 40
0.5554066049030038
 40
0.6658605702104104
 40
0.7429933815959852
 40
0.8161857253124715
 40
0.9646092901940162
 40
1.2684894929939
 40
1.2684894929939
 40
1.2684894929939
 40
1.2684894929939
 10
92.53404905905318
 20
138.2446737191252
 10
92.50340746613682
 20
138.2536889250476
 10
92.44180823453218
 20
138.2718123221927
 10
92.43665287627157
 20
138.3596678935525
 10
92.44367630605067
 20
138.4222721773433
 10
92.47309044565099
 20
138.4678517517977
 10
92.50877489880076
 20
138.5010168892888
 10
92.52206180335781
 20
138.5442092952992
 10
92.56111744873999
 20
138.576824965678
 10
92.63037357274908
 20
138.6316473514785
 10
92.70695885695705
 20
138.6433232947272
 10
92.75841266601089
 20
138.651167775043
 72
     1
 10
92.75841266601091
 20
138.651167775043
 11
93.75258936152278
 21
138.651167775043
 97
        8
330
12DE
330
12DB
330
12D7
330
12DD
330
12DA
330
12DC
330
12D9
330
12D8
 75
     0
 76
     1
 47
0.0514683685270805
 98
        1
 10
93.0127942011814
 20
138.888596108893
450
        0
451
        0
460
0.0
461
0.0
452
        0
462
0.0
453
        0
470

  0
HATCH
  5
12F5
330
18
100
AcDbEntity
  8
ROGO
 62
     4
100
AcDbHatch
 10
0.0
 20
0.0
 30
0.0
210
0.0
220
0.0
230
1.0
  2
SOLID
 70
     1
 71
     1
 91
        1
 92
        5
 93
        8
 72
     4
 94
        3
 73
     0
 74
     0
 95
       26
 96
       22
 40
0.0
 40
0.0
 40
0.0
 40
0.0
 40
0.5763977669194992
 40
0.9622514401614189
 40
1.240483361292767
 40
1.448230134084722
 40
1.717688601817368
 40
1.914367014474546
 40
2.269522386058042
 40
2.558613752597171
 40
2.75524220373685
 40
2.948046467414799
 40
3.292935811683293
 40
3.536813742325923
 40
3.66816085007754
 40
3.854735536703053
 40
3.989465304255988
 40
4.184644256127209
 40
4.295098660286649
 40
4.535459833424313
 40
4.645210833076977
 40
4.645210833076977
 40
4.645210833076977
 40
4.645210833076977
 10
97.57514904381475
 20
139.2422476994354
 10
97.47732988984957
 20
139.2364116409676
 10
97.31402838665076
 20
139.2266687932541
 10
97.13472432954786
 20
139.117743504147
 10
97.00335568027945
 20
139.0544191277705
 10
96.90966371893887
 20
138.968335032969
 10
96.84098713147733
 20
138.8794164513626
 10
96.75440740031445
 20
138.7734706133467
 10
96.68380410356977
 20
138.6501009721918
 10
96.64785013678844
 20
138.514126120221
 10
96.61600245425351
 20
138.4057533742491
 10
96.59238367972603
 20
138.2849860917952
 10
96.59839296460475
 20
138.1545149430368
 10
96.60699853557375
 20
138.0333400194981
 10
96.64542031735297
 20
137.9468392664658
 10
96.68917592112928
 20
137.8852566910031
 10
96.74275405872329
 20
137.8174303114695
 10
96.80138025782845
 20
137.7725091199351
 10
96.84986890989049
 20
137.691131362838
 10
96.93474665959341
 20
137.6807469741325
 10
96.98869833403726
 20
137.6600789412826
 10
97.00561077143113
 20
137.6536000541075
 72
     1
 10
97.00561077143081
 20
137.6536000541076
 11
98.373933901401
 21
137.6536000541076
 72
     1
 10
98.373933901401
 20
137.6536000541076
 11
98.66866232068135
 21
138.2446737191252
 72
     1
 10
98.66866232068135
 20
138.2446737191252
 11
97.65281308302792
 21
138.2446737191252
 72
     4
 94
        3
 73
     0
 74
     0
 95
       16
 96
       12
 40
0.0
 40
0.0
 40
0.0
 40
0.0
 40
0.1740705941338627
 40
0.3499365999962337
 40
0.4548327683793816
 40
0.5554066049028439
 40
0.6658605702103392
 40
0.7429933815959141
 40
0.81618572531232
 40
0.9646092901939308
 40
1.268489492993376
 40
1.268489492993376
 40
1.268489492993376
 40
1.268489492993376
 10
97.65281308302798
 20
138.2446737191252
 10
97.62217149011167
 20
138.2536889250476
 10
97.560572258507
 20
138.2718123221926
 10
97.55541690024626
 20
138.3596678935525
 10
97.56244033002573
 20
138.4222721773432
 10
97.59185446962579
 20
138.4678517517978
 10
97.62753892277556
 20
138.5010168892888
 10
97.64082582733259
 20
138.5442092952992
 10
97.67988147271484
 20
138.5768249656779
 10
97.74913759672372
 20
138.6316473514785
 10
97.82572288093167
 20
138.6433232947273
 10
97.87717668998546
 20
138.651167775043
 72
     1
 10
97.87717668998537
 20
138.651167775043
 11
98.87135338549782
 21
138.651167775043
 72
     1
 10
98.87135338549782
 20
138.651167775043
 11
99.16608492590427
 21
139.2422476994354
 72
     1
 10
99.16608492590427
 20
139.2422476994354
 11
97.57514904381487
 21
139.2422476994354
 97
        8
330
12E0
330
12E2
330
12DF
330
12E3
330
12E4
330
12E1
330
12E5
330
12E6
 75
     0
 76
     1
 47
0.0514683685270805
 98
        1
 10
97.8496745984308
 20
138.9513609121157
450
        0
451
        0
460
0.0
461
0.0
452
        0
462
0.0
453
        0
470

  0
HATCH
  5
12F6
330
18
100
AcDbEntity
  8
ROGO
 62
     4
100
AcDbHatch
 10
0.0
 20
0.0
 30
0.0
210
0.0
220
0.0
230
1.0
  2
SOLID
 70
     1
 71
     0
 91
        1
 92
        7
 72
     0
 73
     1
 93
        4
 10
83.63904342531162
 20
137.0086976601757
 10
83.52646993484729
 20
136.75987707584
 10
98.26102360869397
 20
136.75987707584
 10
98.3850935882004
 20
137.0086976601757
 97
        0
 75
     0
 76
     1
 47
0.0514683685270805
 98
        1
 10
92.94997761131122
 20
136.9428886144549
450
        0
451
        0
460
0.0
461
0.0
452
        0
462
0.0
453
        0
470

  0
HATCH
  5
12F7
330
18
100
AcDbEntity
  8
ROGO
 62
     4
100
AcDbHatch
 10
0.0
 20
0.0
 30
0.0
210
0.0
220
0.0
230
1.0
  2
SOLID
 70
     1
 71
     1
 91
        1
 92
        7
 72
     0
 73
     1
 93
       11
 10
98.26102360869395
 20
136.7598770758401
 10
99.17573654650352
 20
136.75987707584
 10
99.49881377472646
 20
137.4078038751488
 10
99.82189100294938
 20
136.75987707584
 10
100.7365839275756
 20
136.75987707584
 10
100.1176888445593
 20
138.0010623876378
 10
101.6213644904681
 20
139.2422476994354
 10
100.7066715658421
 20
139.2422476994354
 10
100.2783852146854
 20
138.9712233420771
 10
100.413526712536
 20
139.2422476994354
 10
99.49881377472644
 20
139.2422476994354
 97
       11
330
12EF
330
12EA
330
12E9
330
12E7
330
12E8
330
12BB
330
12ED
330
12EB
330
12F0
330
12EC
330
12EE
 75
     0
 76
     1
 47
0.0514683685270805
 98
        1
 10
99.42009033760047
 20
138.1772623282531
450
        0
451
        0
460
0.0
461
0.0
452
        0
462
0.0
453
        0
470

  0
HATCH
  5
12F8
330
18
100
AcDbEntity
  8
ROGO
 62
     4
100
AcDbHatch
 10
0.0
 20
0.0
 30
0.0
210
0.0
220
0.0
230
1.0
  2
SOLID
 70
     1
 71
     1
 91
        2
 92
        5
 93
        6
 72
     1
 10
82.37255797319006
 20
136.7598770758401
 11
83.52646993484729
 21
136.7598770758401
 72
     1
 10
83.52646993484729
 20
136.7598770758401
 11
83.93081556179943
 21
137.6536000541076
 72
     1
 10
83.93081556179943
 20
137.6536000541076
 11
85.00948657733429
 21
137.6536000541076
 72
     4
 94
        3
 73
     0
 74
     0
 95
       18
 96
       14
 40
0.108740278791501
 40
0.108740278791501
 40
0.108740278791501
 40
0.108740278791501
 40
0.6623149649549278
 40
1.384304701649787
 40
2.097394834876493
 40
2.774073369849618
 40
3.428974823686337
 40
4.005208313035923
 40
4.455173659284313
 40
4.720999734343524
 40
5.086034088486724
 40
5.569973738255373
 40
6.060470601257719
 40
6.060470601257719
 40
6.060470601257719
 40
6.060470601257719
 10
85.00948657733266
 20
137.6536000541075
 10
85.08540166134144
 20
137.6541653707519
 10
85.26032761576203
 20
137.6554679913688
 10
85.50504765721148
 20
137.7862028148837
 10
85.73711217765373
 20
137.9527494548292
 10
85.92402436184471
 20
138.1608321055924
 10
86.04047628402446
 20
138.3987389672101
 10
86.05851431868524
 20
138.626750841698
 10
86.04750254168839
 20
138.8071053997499
 10
85.96881786408614
 20
138.9328170041907
 10
85.88701553993685
 20
139.0604014270035
 10
85.73701773853377
 20
139.1709197928504
 10
85.61411625950364
 20
139.2193432657744
 10
85.55161835777568
 20
139.2422476994355
 72
     1
 10
85.55161835777594
 20
139.2422476994354
 11
83.60081187144881
 21
139.2422476994354
 72
     1
 10
83.60081187144881
 20
139.2422476994354
 11
82.37255797319006
 21
136.7598770758401
 97
        6
330
12BD
330
12BA
330
12BC
330
12BB
330
12C3
330
12BE
 92
       20
 93
        4
 72
     1
 10
84.18047609595582
 20
138.2054233984678
 11
84.37162242056123
 21
138.6279130981806
 72
     1
 10
84.37162242056123
 20
138.6279130981806
 11
84.86278700958779
 21
138.6279130981806
 72
     4
 94
        3
 73
     0
 74
     0
 95
       15
 96
       11
 40
0.0
 40
0.0
 40
0.0
 40
0.0
 40
0.3725481798964357
 40
0.5424096583000109
 40
0.7352137443080709
 40
0.866560852059478
 40
1.07428766523054
 40
1.198710351854729
 40
1.412178910013762
 40
1.483335141481371
 40
1.483335141481371
 40
1.483335141481371
 40
1.483335141481371
 10
84.86278700958797
 20
138.6279130981806
 10
84.93274794549614
 20
138.6282335566111
 10
85.03460722004911
 20
138.6287001264593
 10
85.09030749919308
 20
138.5026999092711
 10
85.06533997828205
 20
138.4215754251957
 10
85.03395376961185
 20
138.3382858647245
 10
84.97848723038472
 20
138.2816893521991
 10
84.90404301039495
 20
138.2271773697831
 10
84.83368966497005
 20
138.2205784502183
 10
84.78793271120087
 20
138.2084544099787
 10
84.77649346728282
 20
138.2054233984678
 72
     1
 10
84.77649346728277
 20
138.2054233984678
 11
84.18047609595582
 21
138.2054233984678
 97
        4
330
12BF
330
12C1
330
12C0
330
12C2
 75
     0
 76
     1
 47
0.0514683685270805
 98
        2
 10
83.61123862945424
 20
138.4701645558971
 10
83.61123862945424
 20
138.4701645558971
450
        0
451
        0
460
0.0
461
0.0
452
        0
462
0.0
453
        0
470

  0
LINE
  5
12F9
102
{ACAD_REACTORS
330
12FC
102
}
330
18
100
AcDbEntity
  8
ROGO
 62
     4
100
AcDbLine
 10
90.74603760213795
 20
139.2422476994354
 30
0.0
 11
91.45177783497871
 21
137.6536000541076
 31
0.0
  0
LINE
  5
12FA
102
{ACAD_REACTORS
330
12FC
102
}
330
18
100
AcDbEntity
  8
ROGO
 62
     4
100
AcDbLine
 10
90.04885719560212
 20
138.8175957271002
 30
0.0
 11
90.2898590354601
 21
138.2750915767145
 31
0.0
  0
LINE
  5
12FB
102
{ACAD_REACTORS
330
12FC
102
}
330
18
100
AcDbEntity
  8
ROGO
 62
     4
100
AcDbLine
 10
90.43158162208674
 20
137.9560687365009
 30
0.0
 11
90.56595019586513
 21
137.6536000541076
 31
0.0
  0
HATCH
  5
12FC
330
18
100
AcDbEntity
  8
ROGO
 62
     4
100
AcDbHatch
 10
0.0
 20
0.0
 30
0.0
210
0.0
220
0.0
230
1.0
  2
SOLID
 70
     1
 71
     1
 91
        2
 92
        7
 72
     0
 73
     1
 93
        8
 10
90.74603760213793
 20
139.2422476994355
 10
89.47525554243004
 20
139.2422476994354
 10
88.32965085037704
 20
137.6536000541076
 10
89.20947729381492
 20
137.6536000541076
 10
89.42759333909915
 20
137.9560687365009
 10
90.43158162208674
 20
137.9560687365009
 10
90.56595019586511
 20
137.6536000541076
 10
91.45177783497871
 20
137.6536000541076
 97
        8
330
12D5
330
12CF
330
12D4
330
12D3
330
12D1
330
12FB
330
12D6
330
12F9
 92
       22
 72
     0
 73
     1
 93
        3
 10
90.28985903546013
 20
138.2750915767145
 10
89.65764690931386
 20
138.2750915767145
 10
90.04885719560203
 20
138.8175957271003
 97
        3
330
12D2
330
12D0
330
12FA
 75
     0
 76
     1
 47
0.0128389261915577
 98
        2
 10
90.64652532574001
 20
138.8611088109003
 10
90.64652532574001
 20
138.8611088109003
450
        0
451
        0
460
0.0
461
0.0
452
        0
462
0.0
453
        0
470

  0
SPLINE
  5
12FD
102
{ACAD_REACTORS
330
1304
102
}
330
18
100
AcDbEntity
  8
ROGO
 62
     4
100
AcDbSpline
210
0.0
220
0.0
230
1.0
 70
     8
 71
     3
 72
    38
 73
    34
 74
    32
 42
0.0000000001
 43
0.0000000001
 44
0.0000000001
 40
0.0
 40
0.0
 40
0.0
 40
0.0
 40
0.2186938200209625
 40
0.2873759221466846
 40
0.3756277536105527
 40
0.4491710904506831
 40
0.5112228389491494
 40
0.5936417219209315
 40
0.6357545227786115
 40
0.6831845906418521
 40
0.7530875853198716
 40
0.8322725098020766
 40
0.883638994818377
 40
0.9394402297836455
 40
1.001469659663015
 40
1.095602462653831
 40
1.185038441998282
 40
1.226616782453312
 40
1.274031317637843
 40
1.330201883774936
 40
1.37018810874884
 40
1.403708080991251
 40
1.451567028869025
 40
1.504155814396885
 40
1.556744307118951
 40
1.60275931145225
 40
1.708141850664711
 40
1.749720191119633
 40
1.832876921418365
 40
1.906383771743119
 40
2.047107125844457
 40
2.220745173931995
 40
2.471503783008893
 40
2.471503783008893
 40
2.471503783008893
 40
2.471503783008893
 10
94.92954041985246
 20
139.2488740596632
 30
0.0
 10
94.85664321457921
 20
139.2437243859644
 30
0.0
 10
94.76085220601158
 20
139.2369574264418
 30
0.0
 10
94.6392200232305
 20
139.203633834701
 30
0.0
 10
94.57291702645589
 20
139.1639347064054
 30
0.0
 10
94.50391550573293
 20
139.1347539442086
 30
0.0
 10
94.4450852828246
 20
139.0915430220709
 30
0.0
 10
94.38557975435228
 20
139.0692768501987
 30
0.0
 10
94.34391216175241
 20
139.0291269624411
 30
0.0
 10
94.29568532208007
 20
139.0046016780987
 30
0.0
 10
94.25728143340529
 20
138.9497069617157
 30
0.0
 10
94.21435677831588
 20
138.8983823911111
 30
0.0
 10
94.16455877829537
 20
138.8609177435587
 30
0.0
 10
94.12368889134468
 20
138.8215689024364
 30
0.0
 10
94.08619645297058
 20
138.7608418176026
 30
0.0
 10
94.0640067499163
 20
138.6801535040105
 30
0.0
 10
94.00145770159003
 20
138.6292098127391
 30
0.0
 10
93.99203977330264
 20
138.5679602953418
 30
0.0
 10
93.95744198724125
 20
138.5318241107557
 30
0.0
 10
93.94239765982732
 20
138.4851774878691
 30
0.0
 10
93.93666805579064
 20
138.4424409417887
 30
0.0
 10
93.92979116472295
 20
138.4025279662002
 30
0.0
 10
93.91180252007513
 20
138.3605412789582
 30
0.0
 10
93.91767407575295
 20
138.3086766552599
 30
0.0
 10
93.91600144581671
 20
138.2584544186623
 30
0.0
 10
93.91698579049757
 20
138.1906528353717
 30
0.0
 10
93.91343315422068
 20
138.124639656182
 30
0.0
 10
93.94176403632561
 20
138.0528016600403
 30
0.0
 10
93.95852931215415
 20
137.9887680249423
 30
0.0
 10
94.00444374725068
 20
137.9001056921923
 30
0.0
 10
94.08364518559329
 20
137.7978085308084
 30
0.0
 10
94.23425334564939
 20
137.673639158779
 30
0.0
 10
94.37906749494279
 20
137.6610427539809
 30
0.0
 10
94.4646322467816
 20
137.6536000541075
 30
0.0
 11
94.92954041985246
 21
139.2488740596632
 31
0.0
 11
94.71243310969141
 21
139.2225795204964
 31
0.0
 11
94.64664303136629
 21
139.2028590553299
 31
0.0
 11
94.56769524750422
 21
139.1634175393855
 31
0.0
 11
94.50190516917933
 21
139.1305498046356
 31
0.0
 11
94.44927331327136
 21
139.0976817770799
 31
0.0
 11
94.37690438217765
 21
139.0582405539413
 31
0.0
 11
94.3440090845748
 21
139.0319463075802
 31
0.0
 11
94.30453493420378
 21
139.0056517684133
 31
0.0
 11
94.25848193106418
 21
138.9530632756913
 31
0.0
 11
94.20585007515644
 21
138.8939012945805
 31
0.0
 11
94.16637592478521
 21
138.8610332670248
 31
0.0
 11
94.12690229129436
 21
138.8215920438861
 31
0.0
 11
94.09400699369149
 21
138.769003551164
 31
0.0
 11
94.05453336020087
 21
138.6835470308864
 31
0.0
 11
94.00190098741251
 21
138.6112377801921
 31
0.0
 11
93.98874328187577
 21
138.5717962642476
 31
0.0
 11
93.96242735392167
 21
138.5323550411089
 31
0.0
 11
93.94269027873617
 21
138.4797662555811
 31
0.0
 11
93.9361109090874
 21
138.4403250324423
 31
0.0
 11
93.92953205631902
 21
138.4074570048868
 31
0.0
 11
93.91637435078207
 21
138.3614422933592
 31
0.0
 11
93.91637435078207
 21
138.3088535078313
 31
0.0
 11
93.91637435078207
 21
138.2562650151093
 31
0.0
 11
93.91637435078207
 21
138.210250010776
 31
0.0
 11
93.92295320355065
 21
138.1050730253319
 31
0.0
 11
93.9361109090874
 21
138.0656315093874
 31
0.0
 11
93.96242735392167
 21
137.9867487703043
 31
0.0
 11
93.99532213464414
 21
137.9210130079988
 31
0.0
 11
94.08084928815474
 21
137.8092625341658
 31
0.0
 11
94.21900829757356
 21
137.7040852559158
 31
0.0
 11
94.4646322467816
 21
137.6536000541075
 31
0.0
  0
SPLINE
  5
12FE
102
{ACAD_REACTORS
330
1304
102
}
330
18
100
AcDbEntity
  8
ROGO
 62
     4
100
AcDbSpline
210
0.0
220
0.0
230
1.0
 70
     8
 71
     3
 72
    25
 73
    21
 74
     0
 42
0.0000000001
 43
0.0000000001
 40
0.0
 40
0.0
 40
0.0
 40
0.0
 40
0.4087168505087288
 40
0.6887487002771746
 40
0.9415836120477687
 40
1.17452070575514
 40
1.41154617586699
 40
1.599156012919487
 40
1.80099909059943
 40
2.178735911501585
 40
2.521686161369157
 40
2.762704659361267
 40
3.06256558063785
 40
3.222432137207705
 40
3.399493810628493
 40
3.567459719866414
 40
3.743172740007509
 40
3.995988754699505
 40
4.17170091132118
 40
4.337226830236035
 40
4.337226830236035
 40
4.337226830236035
 40
4.337226830236035
 10
95.83744226022629
 20
139.2488740596632
 30
0.0
 10
95.89698886120805
 20
139.2469608887882
 30
0.0
 10
95.99733374295515
 20
139.2437369112302
 30
0.0
 10
96.10506635280927
 20
139.1595313174593
 30
0.0
 10
96.18750022697424
 20
139.0897184285544
 30
0.0
 10
96.24601281406723
 20
139.0053179148847
 30
0.0
 10
96.29730073606772
 20
138.9277161384949
 30
0.0
 10
96.33109558817984
 20
138.8457865178994
 30
0.0
 10
96.37706326399422
 20
138.747478476463
 30
0.0
 10
96.39609161084633
 20
138.6159569224945
 30
0.0
 10
96.38323569997766
 20
138.4800172613163
 30
0.0
 10
96.34968777518594
 20
138.3595192559971
 30
0.0
 10
96.31449869935734
 20
138.26707601691
 30
0.0
 10
96.27302418473011
 20
138.1865984422915
 30
0.0
 10
96.22358126344108
 20
138.1344892064833
 30
0.0
 10
96.18927975185085
 20
138.0682328211401
 30
0.0
 10
96.12339093589078
 20
138.0140386550897
 30
0.0
 10
96.06997790753013
 20
137.9471706605968
 30
0.0
 10
96.00936524417244
 20
137.8897771498518
 30
0.0
 10
95.97519155589049
 20
137.854366045371
 30
0.0
 10
95.95717436330875
 20
137.8394773005446
 30
0.0
  0
LINE
  5
12FF
102
{ACAD_REACTORS
330
1304
102
}
330
18
100
AcDbEntity
  8
ROGO
 62
     4
100
AcDbLine
 10
94.92954041985246
 20
139.2488740596632
 30
0.0
 11
95.83744226022629
 21
139.2488740596632
 31
0.0
  0
LINE
  5
1300
102
{ACAD_REACTORS
330
1304
102
}
330
18
100
AcDbEntity
  8
ROGO
 62
     4
100
AcDbLine
 10
94.4646322467816
 20
137.6536000541076
 30
0.0
 11
95.37253408715542
 21
137.6536000541076
 31
0.0
  0
SPLINE
  5
1301
102
{ACAD_REACTORS
330
1304
102
}
330
18
100
AcDbEntity
  8
ROGO
 62
     4
100
AcDbSpline
210
0.0
220
0.0
230
1.0
 70
     8
 71
     3
 72
    11
 73
     7
 74
     0
 42
0.0000000001
 43
0.0000000001
 40
0.1647869275458134
 40
0.1647869275458134
 40
0.1647869275458134
 40
0.1647869275458134
 40
0.2895635144633836
 40
0.5387013147903714
 40
0.7953622617455423
 40
0.8850764140209602
 40
0.8850764140209602
 40
0.8850764140209602
 40
0.8850764140209602
 10
95.67500614311923
 20
137.6890188090086
 30
0.0
 10
95.65809484978904
 20
137.6843115440645
 30
0.0
 10
95.60566073215369
 20
137.6759305200496
 30
0.0
 10
95.51770949193297
 20
137.6644223897808
 30
0.0
 10
95.43411623703224
 20
137.6524132359757
 30
0.0
 10
95.38520303130468
 20
137.6533558967883
 30
0.0
 10
95.37253408715542
 20
137.6536000541075
 30
0.0
  0
SPLINE
  5
1302
102
{ACAD_REACTORS
330
1304
102
}
330
18
100
AcDbEntity
  8
ROGO
 62
     4
100
AcDbSpline
210
0.0
220
0.0
230
1.0
 70
     8
 71
     3
 72
     9
 73
     5
 74
     3
 42
0.0000000001
 43
0.0000000001
 44
0.0000000001
 40
0.0
 40
0.0
 40
0.0
 40
0.0
 40
0.1374087032454894
 40
0.3221632820520579
 40
0.3221632820520579
 40
0.3221632820520579
 40
0.3221632820520579
 10
95.67500614311923
 20
137.6890188090086
 30
0.0
 10
95.71914579416569
 20
137.7025230493289
 30
0.0
 10
95.82263396131878
 20
137.7341845837182
 30
0.0
 10
95.9081388938147
 20
137.8011016325109
 30
0.0
 10
95.95717436330875
 20
137.8394773005446
 30
0.0
 11
95.67500614311923
 21
137.6890188090086
 31
0.0
 11
95.80415361669663
 21
137.7359451533813
 31
0.0
 11
95.95717436330875
 21
137.8394773005446
 31
0.0
  0
ELLIPSE
  5
1303
102
{ACAD_REACTORS
330
1304
102
}
330
18
100
AcDbEntity
  8
ROGO
 62
     4
100
AcDbEllipse
 10
95.13818123030029
 20
138.4289949151504
 30
0.0
 11
0.2156895074312427
 21
0.1896719317410863
 31
0.0
210
0.0
220
0.0
230
1.0
 40
0.6788083417438794
 41
0.0
 42
6.283185307179586
  0
HATCH
  5
1304
330
18
100
AcDbEntity
  8
ROGO
 62
     4
100
AcDbHatch
 10
0.0
 20
0.0
 30
0.0
210
0.0
220
0.0
230
1.0
  2
SOLID
 70
     1
 71
     1
 91
        2
 92
        5
 93
        6
 72
     4
 94
        3
 73
     0
 74
     0
 95
       38
 96
       34
 40
0.0
 40
0.0
 40
0.0
 40
0.0
 40
0.4373876400419387
 40
0.5747518442933501
 40
0.7512555072211372
 40
0.8983421809013979
 40
1.02244567789827
 40
1.187283443841888
 40
1.271509045557249
 40
1.366369181283667
 40
1.506175170639706
 40
1.664545019604201
 40
1.767277989636729
 40
1.878880459567266
 40
2.002939319326006
 40
2.191204925307742
 40
2.370076883996644
 40
2.453233564906595
 40
2.548062635275752
 40
2.660403767549937
 40
2.740376217497634
 40
2.807416161982566
 40
2.903134057738115
 40
3.008311628793721
 40
3.113488614237853
 40
3.20551862290445
 40
3.416283701329487
 40
3.49944038223933
 40
3.665753842836795
 40
3.8127675434862
 40
4.094214251688966
 40
4.441490347863974
 40
4.943007566017771
 40
4.943007566017771
 40
4.943007566017771
 40
4.943007566017771
 10
94.92954041985246
 20
139.2488740596632
 10
94.85664321457926
 20
139.2437243859643
 10
94.76085220601163
 20
139.2369574264417
 10
94.63922002323048
 20
139.2036338347011
 10
94.57291702645591
 20
139.1639347064052
 10
94.50391550573295
 20
139.1347539442086
 10
94.44508528282455
 20
139.0915430220709
 10
94.38557975435225
 20
139.0692768501986
 10
94.34391216175246
 20
139.029126962441
 10
94.29568532208007
 20
139.0046016780987
 10
94.25728143340526
 20
138.9497069617158
 10
94.21435677831595
 20
138.898382391111
 10
94.16455877829532
 20
138.8609177435587
 10
94.12368889134464
 20
138.8215689024364
 10
94.08619645297063
 20
138.7608418176027
 10
94.06400674991633
 20
138.6801535040105
 10
94.00145770158998
 20
138.629209812739
 10
93.99203977330268
 20
138.5679602953417
 10
93.95744198724122
 20
138.5318241107557
 10
93.94239765982735
 20
138.4851774878691
 10
93.93666805579064
 20
138.4424409417887
 10
93.92979116472293
 20
138.4025279662002
 10
93.9118025200751
 20
138.3605412789581
 10
93.91767407575295
 20
138.3086766552599
 10
93.91600144581673
 20
138.2584544186622
 10
93.91698579049757
 20
138.1906528353717
 10
93.91343315422066
 20
138.1246396561819
 10
93.94176403632565
 20
138.0528016600403
 10
93.95852931215413
 20
137.9887680249422
 10
94.00444374725074
 20
137.9001056921923
 10
94.08364518559322
 20
137.7978085308084
 10
94.23425334564948
 20
137.673639158779
 10
94.37906749494286
 20
137.6610427539809
 10
94.4646322467816
 20
137.6536000541075
 72
     1
 10
94.46463224678089
 20
137.6536000541076
 11
95.37253408715656
 21
137.6536000541076
 72
     4
 94
        3
 73
     0
 74
     0
 95
       11
 96
        7
 40
0.1647869275458135
 40
0.1647869275458135
 40
0.1647869275458135
 40
0.1647869275458135
 40
0.2545010798212315
 40
0.5111620267764023
 40
0.7602998271033902
 40
0.8850764140209603
 40
0.8850764140209603
 40
0.8850764140209603
 40
0.8850764140209603
 10
95.37253408715542
 20
137.6536000541075
 10
95.38520303130468
 20
137.6533558967883
 10
95.43411623703224
 20
137.6524132359757
 10
95.51770949193297
 20
137.6644223897808
 10
95.60566073215369
 20
137.6759305200496
 10
95.65809484978904
 20
137.6843115440645
 10
95.67500614311923
 20
137.6890188090086
 72
     4
 94
        3
 73
     0
 74
     0
 95
        9
 96
        5
 40
0.0
 40
0.0
 40
0.0
 40
0.0
 40
0.2748174064910177
 40
0.6443265641041546
 40
0.6443265641041546
 40
0.6443265641041546
 40
0.6443265641041546
 10
95.67500614311923
 20
137.6890188090086
 10
95.71914579416569
 20
137.7025230493289
 10
95.82263396131882
 20
137.7341845837182
 10
95.9081388938147
 20
137.8011016325109
 10
95.95717436330875
 20
137.8394773005446
 72
     4
 94
        3
 73
     0
 74
     0
 95
       25
 96
       21
 40
0.0
 40
0.0
 40
0.0
 40
0.0
 40
0.165525918914855
 40
0.3412380755365305
 40
0.5940540902285263
 40
0.7697671103696209
 40
0.9377330196075423
 40
1.11479469302833
 40
1.274661249598185
 40
1.574522170874768
 40
1.815540668866877
 40
2.15849091873445
 40
2.536227739636605
 40
2.738070817316548
 40
2.925680654369045
 40
3.162706124480894
 40
3.395643218188267
 40
3.648478129958861
 40
3.928509979727306
 40
4.337226830236035
 40
4.337226830236035
 40
4.337226830236035
 40
4.337226830236035
 10
95.95717436330875
 20
137.8394773005446
 10
95.97519155589049
 20
137.854366045371
 10
96.00936524417244
 20
137.8897771498518
 10
96.06997790753013
 20
137.9471706605968
 10
96.12339093589078
 20
138.0140386550897
 10
96.18927975185085
 20
138.0682328211401
 10
96.22358126344108
 20
138.1344892064833
 10
96.27302418473011
 20
138.1865984422915
 10
96.31449869935734
 20
138.26707601691
 10
96.34968777518594
 20
138.3595192559971
 10
96.38323569997766
 20
138.4800172613163
 10
96.39609161084633
 20
138.6159569224945
 10
96.37706326399422
 20
138.747478476463
 10
96.33109558817984
 20
138.8457865178994
 10
96.29730073606772
 20
138.9277161384949
 10
96.24601281406723
 20
139.0053179148847
 10
96.18750022697424
 20
139.0897184285544
 10
96.10506635280927
 20
139.1595313174593
 10
95.99733374295515
 20
139.2437369112302
 10
95.89698886120805
 20
139.2469608887882
 10
95.83744226022629
 20
139.2488740596632
 72
     1
 10
95.83744226022629
 20
139.2488740596632
 11
94.92954041985241
 21
139.2488740596632
 97
        6
330
12FE
330
12FF
330
12FD
330
1300
330
1301
330
1302
 92
       20
 93
        1
 72
     3
 10
95.13818123030029
 20
138.4289949151504
 11
0.2156895074312427
 21
0.1896719317410863
 40
0.6788083417438795
 50
0.0
 51
360.0
 73
     1
 97
        1
330
1303
 75
     0
 76
     1
 47
0.088756267210375
 98
        2
 10
95.20161278370535
 20
138.8082529865569
 10
95.20161278370535
 20
138.8082529865569
450
        0
451
        0
460
0.0
461
0.0
452
        0
462
0.0
453
        0
470

  0
TEXT
  5
1305
330
18
100
AcDbEntity
  8
文字
100
AcDbText
 10
86.17709101439464
 20
134.7847159133187
 30
0.0
 40
1.0
  1
MADE  IN  JAPAN
  7
STYLE3
100
AcDbText
  0
TEXT
  5
1306
330
18
100
AcDbEntity
  8
文字
100
AcDbText
 10
85.57377072997548
 20
132.4917366002983
 30
0.0
 40
1.3
  1
MODEL  H-1A
  7
STYLE3
100
AcDbText
  0
TEXT
  5
1307
330
18
100
AcDbEntity
  8
文字
100
AcDbText
 10
92.18635304471769
 20
112.9909417350027
 30
0.0
 40
0.5
  1
S
  7
STYLE3
100
AcDbText
  0
TEXT
  5
1308
330
18
100
AcDbEntity
  8
文字
100
AcDbText
 10
92.68444854069826
 20
112.9836811002794
 30
0.0
 40
0.5
  1
H
 50
0.0022417246830669
  7
STYLE3
100
AcDbText
  0
TEXT
  5
1309
330
18
100
AcDbEntity
  8
文字
100
AcDbText
 10
93.19772526521097
 20
113.0357284581578
 30
0.0
 40
0.5
  1
O
 50
358.5797436677339
  7
STYLE3
100
AcDbText
  0
TEXT
  5
130A
330
18
100
AcDbEntity
  8
文字
100
AcDbText
 10
93.77884908588503
 20
113.0887741048288
 30
0.0
 40
0.5
  1
C
 50
0.8714279930359063
  7
STYLE3
100
AcDbText
  0
TEXT
  5
130B
330
18
100
AcDbEntity
  8
文字
100
AcDbText
 10
94.40569189450144
 20
113.1483352054961
 30
0.0
 40
0.5
  1
K
 50
4.623618268853123
  7
STYLE3
100
AcDbText
  0
TEXT
  5
130C
330
18
100
AcDbEntity
  8
文字
100
AcDbText
 10
95.55405992446123
 20
113.3347971074444
 30
0.0
 40
0.5
  1
P
 50
14.82162457924975
  7
STYLE3
100
AcDbText
  0
TEXT
  5
130D
330
18
100
AcDbEntity
  8
文字
100
AcDbText
 10
96.03213161227479
 20
113.4713696700435
 30
0.0
 40
0.5
  1
R
 50
15.77356889381292
  7
STYLE3
100
AcDbText
  0
TEXT
  5
130E
330
18
100
AcDbEntity
  8
文字
100
AcDbText
 10
96.53244941529289
 20
113.6242818943628
 30
0.0
 40
0.5
  1
O
 50
15.78420796706311
  7
STYLE3
100
AcDbText
  0
TEXT
  5
130F
330
18
100
AcDbEntity
  8
文字
100
AcDbText
 10
97.05286994177306
 20
113.805994735253
 30
0.0
 40
0.5
  1
O
 50
13.59071360399164
  7
STYLE3
100
AcDbText
  0
TEXT
  5
1310
330
18
100
AcDbEntity
  8
文字
100
AcDbText
 10
97.63030524651169
 20
113.9978895634015
 30
0.0
 40
0.5
  1
F
 50
19.49724868742275
  7
STYLE3
100
AcDbText
  0
TEXT
  5
1312
330
18
100
AcDbEntity
  8
文字
100
AcDbText
 10
96.57172784256097
 20
124.9626087310977
 30
0.0
 40
1.0
  1
0.01mm
  7
STYLE3
100
AcDbText
  0
HATCH
  5
1315
330
18
100
AcDbEntity
  8
外形線
100
AcDbHatch
 10
0.0
 20
0.0
 30
0.0
210
0.0
220
0.0
230
1.0
  2
SOLID
 70
     1
 71
     1
 91
        2
 92
        1
 93
        7
 72
     1
 10
99.65702736131522
 20
127.9598770758401
 11
98.15702736131498
 21
127.4503187478674
 72
     1
 10
98.15702736131498
 20
127.4503187478675
 11
98.15702736131498
 21
127.85237707584
 72
     1
 10
98.15702736131498
 20
127.85237707584
 11
96.657027361315
 21
127.85237707584
 72
     1
 10
96.657027361315
 20
127.85237707584
 11
96.657027361315
 21
128.0673770758401
 72
     1
 10
96.657027361315
 20
128.0673770758401
 11
98.15702736131498
 21
128.0673770758401
 72
     1
 10
98.15702736131498
 20
128.0673770758401
 11
98.15702736131498
 21
128.4694354038128
 72
     1
 10
98.15702736131498
 20
128.4694354038128
 11
99.65702736131522
 21
127.9598770758401
 97
        7
330
1322
330
131B
330
131A
330
1316
330
1324
330
1325
330
1317
 92
        1
 93
        4
 72
     1
 10
99.65702736131522
 20
128.8598770758401
 11
99.65702736131522
 21
127.0598770758402
 72
     1
 10
99.65702736131522
 20
127.0598770758402
 11
99.85702736131504
 21
127.0598770758402
 72
     1
 10
99.85702736131504
 20
127.0598770758402
 11
99.85702736131504
 21
128.8598770758401
 72
     1
 10
99.85702736131504
 20
128.8598770758401
 11
99.65702736131522
 21
128.8598770758401
 97
        4
330
1318
330
1323
330
1319
330
1328
 75
     0
 76
     1
 98
        1
 10
210.3524954090915
 20
45.56529610722288
450
        0
451
        0
460
0.0
461
0.0
452
        0
462
0.0
453
        0
470

  0
LINE
  5
1316
102
{ACAD_REACTORS
330
1315
102
}
330
18
100
AcDbEntity
  8
外形線
100
AcDbLine
 10
96.657027361315
 20
128.0673770758401
 30
0.0
 11
96.657027361315
 21
127.85237707584
 31
0.0
  0
LINE
  5
1317
102
{ACAD_REACTORS
330
1315
102
}
330
18
100
AcDbEntity
  8
外形線
100
AcDbLine
 10
99.65702736131522
 20
127.9598770758401
 30
0.0
 11
98.15702736131498
 21
128.4694354038128
 31
0.0
  0
LINE
  5
1318
102
{ACAD_REACTORS
330
1315
102
}
330
18
100
AcDbEntity
  8
外形線
100
AcDbLine
 10
99.65702736131522
 20
128.8598770758401
 30
0.0
 11
99.65702736131522
 21
127.0598770758402
 31
0.0
  0
LINE
  5
1319
102
{ACAD_REACTORS
330
1315
102
}
330
18
100
AcDbEntity
  8
外形線
100
AcDbLine
 10
99.85702736131504
 20
128.8598770758401
 30
0.0
 11
99.85702736131504
 21
127.0598770758402
 31
0.0
  0
LINE
  5
131A
102
{ACAD_REACTORS
330
1315
102
}
330
18
100
AcDbEntity
  8
外形線
100
AcDbLine
 10
96.657027361315
 20
127.85237707584
 30
0.0
 11
98.15702736131498
 21
127.85237707584
 31
0.0
  0
LINE
  5
131B
102
{ACAD_REACTORS
330
1315
102
}
330
18
100
AcDbEntity
  8
外形線
100
AcDbLine
 10
98.15702736131498
 20
127.85237707584
 30
0.0
 11
98.15702736131498
 21
127.4503187478675
 31
0.0
  0
POINT
  5
131C
330
18
100
AcDbEntity
  8
DEFPOINTS
  6
ByBlock
 62
     0
100
AcDbPoint
 10
99.85702736131504
 20
127.0598770758402
 30
0.0
  0
POINT
  5
131D
330
18
100
AcDbEntity
  8
DEFPOINTS
  6
ByBlock
 62
     0
100
AcDbPoint
 10
99.65702736131522
 20
127.0598770758402
 30
0.0
  0
POINT
  5
131E
330
18
100
AcDbEntity
  8
DEFPOINTS
  6
ByBlock
 62
     0
100
AcDbPoint
 10
99.85702736131504
 20
127.0598770758402
 30
0.0
  0
POINT
  5
131F
330
18
100
AcDbEntity
  8
DEFPOINTS
  6
ByBlock
 62
     0
100
AcDbPoint
 10
98.15702736131498
 20
127.4503187478674
 30
0.0
  0
POINT
  5
1320
330
18
100
AcDbEntity
  8
DEFPOINTS
  6
ByBlock
 62
     0
100
AcDbPoint
 10
99.65702736131522
 20
127.0598770758402
 30
0.0
  0
POINT
  5
1321
330
18
100
AcDbEntity
  8
DEFPOINTS
  6
ByBlock
 62
     0
100
AcDbPoint
 10
98.15702736131498
 20
127.4503187478674
 30
0.0
  0
LINE
  5
1322
102
{ACAD_REACTORS
330
1315
102
}
330
18
100
AcDbEntity
  8
外形線
100
AcDbLine
 10
99.65702736131522
 20
127.9598770758401
 30
0.0
 11
98.15702736131498
 21
127.4503187478674
 31
0.0
  0
LINE
  5
1323
102
{ACAD_REACTORS
330
1315
102
}
330
18
100
AcDbEntity
  8
外形線
100
AcDbLine
 10
99.85702736131504
 20
127.0598770758402
 30
0.0
 11
99.65702736131522
 21
127.0598770758402
 31
0.0
  0
LINE
  5
1324
102
{ACAD_REACTORS
330
1315
102
}
330
18
100
AcDbEntity
  8
外形線
100
AcDbLine
 10
96.657027361315
 20
128.0673770758401
 30
0.0
 11
98.15702736131498
 21
128.0673770758401
 31
0.0
  0
LINE
  5
1325
102
{ACAD_REACTORS
330
1315
102
}
330
18
100
AcDbEntity
  8
外形線
100
AcDbLine
 10
98.15702736131498
 20
128.4694354038128
 30
0.0
 11
98.15702736131498
 21
128.0673770758401
 31
0.0
  0
POINT
  5
1326
330
18
100
AcDbEntity
  8
DEFPOINTS
  6
ByBlock
 62
     0
100
AcDbPoint
 10
98.15702736131498
 20
128.4694354038128
 30
0.0
  0
POINT
  5
1327
330
18
100
AcDbEntity
  8
DEFPOINTS
  6
ByBlock
 62
     0
100
AcDbPoint
 10
98.15702736131498
 20
128.4694354038128
 30
0.0
  0
LINE
  5
1328
102
{ACAD_REACTORS
330
1315
102
}
330
18
100
AcDbEntity
  8
外形線
100
AcDbLine
 10
99.85702736131504
 20
128.8598770758401
 30
0.0
 11
99.65702736131522
 21
128.8598770758401
 31
0.0
  0
HATCH
  5
1329
330
18
100
AcDbEntity
  8
外形線
100
AcDbHatch
 10
0.0
 20
0.0
 30
0.0
210
0.0
220
0.0
230
1.0
  2
SOLID
 70
     1
 71
     1
 91
        2
 92
        1
 93
        7
 72
     1
 10
101.4570273613151
 20
127.9598770758401
 11
102.9570273613152
 21
127.4503187478674
 72
     1
 10
102.9570273613152
 20
127.4503187478675
 11
102.9570273613152
 21
127.85237707584
 72
     1
 10
102.9570273613152
 20
127.85237707584
 11
104.4570273613151
 21
127.85237707584
 72
     1
 10
104.4570273613151
 20
127.85237707584
 11
104.4570273613151
 21
128.0673770758401
 72
     1
 10
104.4570273613151
 20
128.0673770758401
 11
102.9570273613152
 21
128.0673770758401
 72
     1
 10
102.9570273613152
 20
128.0673770758401
 11
102.9570273613152
 21
128.4694354038128
 72
     1
 10
102.9570273613152
 20
128.4694354038128
 11
101.4570273613151
 21
127.9598770758401
 97
        7
330
1336
330
132F
330
132E
330
132A
330
1338
330
1339
330
132B
 92
        1
 93
        4
 72
     1
 10
101.4570273613151
 20
128.8598770758401
 11
101.4570273613151
 21
127.0598770758402
 72
     1
 10
101.4570273613151
 20
127.0598770758402
 11
101.2570273613151
 21
127.0598770758402
 72
     1
 10
101.2570273613151
 20
127.0598770758402
 11
101.2570273613151
 21
128.8598770758401
 72
     1
 10
101.2570273613151
 20
128.8598770758401
 11
101.4570273613151
 21
128.8598770758401
 97
        4
330
132C
330
1337
330
132D
330
133C
 75
     0
 76
     1
 98
        1
 10
-9.238440686461217
 20
45.56529610722288
450
        0
451
        0
460
0.0
461
0.0
452
        0
462
0.0
453
        0
470

  0
LINE
  5
132A
102
{ACAD_REACTORS
330
1329
102
}
330
18
100
AcDbEntity
  8
外形線
100
AcDbLine
 10
104.4570273613151
 20
128.0673770758401
 30
0.0
 11
104.4570273613151
 21
127.85237707584
 31
0.0
  0
LINE
  5
132B
102
{ACAD_REACTORS
330
1329
102
}
330
18
100
AcDbEntity
  8
外形線
100
AcDbLine
 10
101.4570273613151
 20
127.9598770758401
 30
0.0
 11
102.9570273613152
 21
128.4694354038128
 31
0.0
  0
LINE
  5
132C
102
{ACAD_REACTORS
330
1329
102
}
330
18
100
AcDbEntity
  8
外形線
100
AcDbLine
 10
101.4570273613151
 20
128.8598770758401
 30
0.0
 11
101.4570273613151
 21
127.0598770758402
 31
0.0
  0
LINE
  5
132D
102
{ACAD_REACTORS
330
1329
102
}
330
18
100
AcDbEntity
  8
外形線
100
AcDbLine
 10
101.2570273613151
 20
128.8598770758401
 30
0.0
 11
101.2570273613151
 21
127.0598770758402
 31
0.0
  0
LINE
  5
132E
102
{ACAD_REACTORS
330
1329
102
}
330
18
100
AcDbEntity
  8
外形線
100
AcDbLine
 10
104.4570273613151
 20
127.85237707584
 30
0.0
 11
102.9570273613152
 21
127.85237707584
 31
0.0
  0
LINE
  5
132F
102
{ACAD_REACTORS
330
1329
102
}
330
18
100
AcDbEntity
  8
外形線
100
AcDbLine
 10
102.9570273613152
 20
127.85237707584
 30
0.0
 11
102.9570273613152
 21
127.4503187478675
 31
0.0
  0
POINT
  5
1330
330
18
100
AcDbEntity
  8
DEFPOINTS
  6
ByBlock
 62
     0
100
AcDbPoint
 10
101.2570273613151
 20
127.0598770758402
 30
0.0
  0
POINT
  5
1331
330
18
100
AcDbEntity
  8
DEFPOINTS
  6
ByBlock
 62
     0
100
AcDbPoint
 10
101.4570273613151
 20
127.0598770758402
 30
0.0
  0
POINT
  5
1332
330
18
100
AcDbEntity
  8
DEFPOINTS
  6
ByBlock
 62
     0
100
AcDbPoint
 10
101.2570273613151
 20
127.0598770758402
 30
0.0
  0
POINT
  5
1333
330
18
100
AcDbEntity
  8
DEFPOINTS
  6
ByBlock
 62
     0
100
AcDbPoint
 10
102.9570273613152
 20
127.4503187478674
 30
0.0
  0
POINT
  5
1334
330
18
100
AcDbEntity
  8
DEFPOINTS
  6
ByBlock
 62
     0
100
AcDbPoint
 10
101.4570273613151
 20
127.0598770758402
 30
0.0
  0
POINT
  5
1335
330
18
100
AcDbEntity
  8
DEFPOINTS
  6
ByBlock
 62
     0
100
AcDbPoint
 10
102.9570273613152
 20
127.4503187478674
 30
0.0
  0
LINE
  5
1336
102
{ACAD_REACTORS
330
1329
102
}
330
18
100
AcDbEntity
  8
外形線
100
AcDbLine
 10
101.4570273613151
 20
127.9598770758401
 30
0.0
 11
102.9570273613152
 21
127.4503187478674
 31
0.0
  0
LINE
  5
1337
102
{ACAD_REACTORS
330
1329
102
}
330
18
100
AcDbEntity
  8
外形線
100
AcDbLine
 10
101.2570273613151
 20
127.0598770758402
 30
0.0
 11
101.4570273613151
 21
127.0598770758402
 31
0.0
  0
LINE
  5
1338
102
{ACAD_REACTORS
330
1329
102
}
330
18
100
AcDbEntity
  8
外形線
100
AcDbLine
 10
104.4570273613151
 20
128.0673770758401
 30
0.0
 11
102.9570273613152
 21
128.0673770758401
 31
0.0
  0
LINE
  5
1339
102
{ACAD_REACTORS
330
1329
102
}
330
18
100
AcDbEntity
  8
外形線
100
AcDbLine
 10
102.9570273613152
 20
128.4694354038128
 30
0.0
 11
102.9570273613152
 21
128.0673770758401
 31
0.0
  0
POINT
  5
133A
330
18
100
AcDbEntity
  8
DEFPOINTS
  6
ByBlock
 62
     0
100
AcDbPoint
 10
102.9570273613152
 20
128.4694354038128
 30
0.0
  0
POINT
  5
133B
330
18
100
AcDbEntity
  8
DEFPOINTS
  6
ByBlock
 62
     0
100
AcDbPoint
 10
102.9570273613152
 20
128.4694354038128
 30
0.0
  0
LINE
  5
133C
102
{ACAD_REACTORS
330
1329
102
}
330
18
100
AcDbEntity
  8
外形線
100
AcDbLine
 10
101.2570273613151
 20
128.8598770758401
 30
0.0
 11
101.4570273613151
 21
128.8598770758401
 31
0.0
  0
POINT
  5
133D
330
18
100
AcDbEntity
  8
DEFPOINTS
  6
ByBlock
 62
     0
100
AcDbPoint
 10
104.4570273613151
 20
128.0673770758401
 30
0.0
  0
TEXT
  5
133F
330
18
100
AcDbEntity
  8
文字
100
AcDbText
 10
80.17085179770726
 20
127.4461634776404
 30
0.0
 40
1.024999999999999
  1
JEWELED
  7
STYLE3
100
AcDbText
  0
LINE
  5
13BE
330
18
100
AcDbEntity
  8
中心線
100
AcDbLine
 10
92.15702736131504
 20
173.5622865950942
 30
0.0
 11
92.15702736131504
 21
47.62264016755347
 31
0.0
  0
HATCH
  5
13BF
330
18
100
AcDbEntity
  8
針
100
AcDbHatch
 10
0.0
 20
0.0
 30
0.0
210
0.0
220
0.0
230
1.0
  2
SOLID
 70
     1
 71
     0
 91
        2
 92
        7
 72
     1
 73
     1
 93
        5
 10
92.24702736131495
 20
149.9598770758401
 42
0.0
 10
92.15702736131504
 20
149.9598770758401
 42
0.0
 10
92.06702736131502
 20
149.9598770758401
 42
0.0
 10
91.89158042882002
 20
143.4576039390297
 42
-0.0085634322047721
 10
92.42247429380995
 20
143.4576039390296
 42
0.0
 97
        0
 92
        7
 72
     1
 73
     1
 93
        6
 10
92.42247429380995
 20
143.4576039390296
 42
0.0085634322047721
 10
91.89158042882002
 20
143.4576039390297
 42
0.0
 10
91.55702736131491
 20
131.0586671623087
 42
-0.1293106770632391
 10
91.16880887606248
 20
129.5826599403679
 42
-0.2805221108582334
 10
93.14524584656755
 20
129.5826599403679
 42
-0.1293106770632486
 10
92.75702736131506
 20
131.0586671623088
 42
0.0
 97
        0
 75
     0
 76
     1
 47
0.0423559757596284
 98
        2
 10
92.11646459885065
 20
144.085857951189
 10
92.24363071624214
 20
139.6808364477097
450
        0
451
        0
460
0.0
461
0.0
452
        0
462
0.0
453
        0
470

  0
LINE
  5
13C0
330
18
100
AcDbEntity
  8
針
100
AcDbLine
 10
92.06702736131502
 20
149.9598770758401
 30
0.0
 11
91.55702736131491
 21
131.0586671623092
 31
0.0
  0
LINE
  5
13C1
330
18
100
AcDbEntity
  8
針
100
AcDbLine
 10
92.24702736131495
 20
149.9598770758401
 30
0.0
 11
92.75702736131506
 21
131.0586671623091
 31
0.0
  0
LINE
  5
1419
330
18
100
AcDbEntity
  8
外形線
100
AcDbLine
 10
62.59744885166128
 20
185.732610416248
 30
0.0
 11
173.5974488516613
 21
185.732610416248
 31
0.0
  0
LINE
  5
141A
330
18
100
AcDbEntity
  8
外形線
100
AcDbLine
 10
62.59744885166128
 20
184.732610416248
 30
0.0
 11
173.5974488516613
 21
184.732610416248
 31
0.0
  0
TEXT
  5
141B
330
18
100
AcDbEntity
  8
文字
100
AcDbText
 10
63.07052985166127
 20
187.2490824162481
 30
0.0
 40
4.0
  1
Model No.H-1A Dial Thickness Gauge
  7
STYLE3
100
AcDbText
  0
LINE
  5
1421
330
18
100
AcDbEntity
  8
外形線
100
AcDbLine
 10
113.6157678516612
 20
20.81544141624805
 30
0.0
 11
254.4071858516613
 21
20.81544141624805
 31
0.0
  0
LINE
  5
1422
330
18
100
AcDbEntity
  8
外形線
100
AcDbLine
 10
113.6157678516612
 20
10.03523541624804
 30
0.0
 11
254.4071858516613
 21
10.03523541624804
 31
0.0
  0
TEXT
  5
1423
330
18
100
AcDbEntity
  8
0
  6
Continuous
100
AcDbText
 10
115.0732348516612
 20
11.93322541624804
 30
0.0
 40
2.1
  1
Design and specifications are subject to change without notice for future improvement.
  7
STYLE3
100
AcDbText
  0
TEXT
  5
1424
330
18
100
AcDbEntity
  8
0
  6
Continuous
100
AcDbText
 10
115.3647288516612
 20
15.86237341624804
 30
0.0
 40
3.5
  1
仕様及び外観は予告なく変更される場合がございますのでご了承下さい。
  7
STYLE3
100
AcDbText
  0
TEXT
  5
1425
330
18
100
AcDbEntity
  8
0
  6
Continuous
100
AcDbText
 10
114.7817438516613
 20
2.168597416248045
 30
0.0
 40
2.1
  1
3RD Angle Projection
  7
STYLE3
100
AcDbText
  0
TEXT
  5
1426
330
18
100
AcDbEntity
  8
0
  6
Continuous
100
AcDbText
 10
117.4051868516613
 20
5.664880416248045
 30
0.0
 40
3.0
  1
三　　角　　法
  7
STYLE3
100
AcDbText
  0
LINE
  5
1427
330
18
100
AcDbEntity
  8
外形線
100
AcDbLine
 10
113.6157678516612
 20
0.4204574162480452
 30
0.0
 11
113.6157678516612
 21
20.81544141624805
 31
0.0
  0
LINE
  5
1428
330
18
100
AcDbEntity
  8
外形線
100
AcDbLine
 10
215.6385348516613
 20
10.03523541624804
 30
0.0
 11
215.6385348516613
 21
0.4204574162480452
 31
0.0
  0
LINE
  5
1429
330
18
100
AcDbEntity
  8
外形線
100
AcDbLine
 10
185.9061848516613
 20
10.03523541624804
 30
0.0
 11
185.9061848516613
 21
0.4204574162480452
 31
0.0
  0
LINE
  5
142A
330
18
100
AcDbEntity
  8
外形線
100
AcDbLine
 10
166.3761128516612
 20
10.03523541624804
 30
0.0
 11
166.3761128516612
 21
0.4204574162480452
 31
0.0
  0
LINE
  5
142B
330
18
100
AcDbEntity
  8
外形線
100
AcDbLine
 10
148.8864958516612
 20
10.03523541624804
 30
0.0
 11
148.8864958516612
 21
0.4204574162480452
 31
0.0
  0
TEXT
  5
142C
330
18
100
AcDbEntity
  8
0
  6
Continuous
100
AcDbText
 10
150.3439648516613
 20
5.670835416248044
 30
0.0
 40
3.0
  1
単位
  7
STYLE3
100
AcDbText
  0
TEXT
  5
142D
330
18
100
AcDbEntity
  8
0
  6
Continuous
100
AcDbText
 10
150.5156858516612
 20
2.168598416248045
 30
0.0
 40
2.1
  1
Unit
  7
STYLE3
100
AcDbText
  0
TEXT
  5
142E
330
18
100
AcDbEntity
  8
0
  6
Continuous
100
AcDbText
 10
167.6618608516613
 20
5.379477416248044
 30
0.0
 40
3.0
  1
尺 度
  7
STYLE3
100
AcDbText
  0
TEXT
  5
142F
330
18
100
AcDbEntity
  8
0
  6
Continuous
100
AcDbText
 10
158.3860128516613
 20
3.916741416248044
 30
0.0
 40
2.399999999999999
  1
mm
  7
STYLE3
100
AcDbText
  0
TEXT
  5
1430
330
18
100
AcDbEntity
  8
0
  6
Continuous
100
AcDbText
 10
168.1250758516612
 20
2.459955416248045
 30
0.0
 40
2.1
  1
Scale
  7
STYLE3
100
AcDbText
  0
TEXT
  5
1431
330
18
100
AcDbEntity
  8
0
  6
Continuous
100
AcDbText
 10
177.7443648516612
 20
4.208098416248045
 30
0.0
 40
2.399999999999999
  1
1/1
  7
STYLE3
100
AcDbText
  0
TEXT
  5
1432
330
18
100
AcDbEntity
  8
0
  6
Continuous
100
AcDbText
 10
187.8381358516612
 20
2.168599416248044
 30
0.0
 40
2.1
  1
Date
  7
STYLE3
100
AcDbText
  0
TEXT
  5
1433
330
18
100
AcDbEntity
  8
0
  6
Continuous
100
AcDbText
 10
187.4547748516613
 20
5.501682416248044
 30
0.0
 40
3.0
  1
日 付
  7
STYLE3
100
AcDbText
  0
TEXT
  5
1434
330
18
100
AcDbEntity
  8
0
  6
Continuous
100
AcDbText
 10
196.5829438516612
 20
3.916740416248045
 30
0.0
 40
2.1
  1
2010.06.10
  7
STYLE3
100
AcDbText
  0
TEXT
  5
1435
330
18
100
AcDbEntity
  8
0
  6
Continuous
100
AcDbText
 10
216.9874978516613
 20
5.956237416248044
 30
0.0
 40
3.0
  1
株式会社　尾崎製作所
  7
STYLE3
100
AcDbText
  0
TEXT
  5
1436
330
18
100
AcDbEntity
  8
0
  6
Continuous
100
AcDbText
 10
217.8619768516613
 20
2.168598416248045
 30
0.0
 40
2.1
  1
OZAKI MFG. CO., LTD.
  7
STYLE3
100
AcDbText
  0
VIEWPORT
  5
177
330
15
100
AcDbEntity
 67
     1
  8
0
100
AcDbViewport
 10
127.5041203589828
 20
97.49391214526822
 30
0.0
 40
418.3086347473814
 41
243.0346063651093
 68
     1
 69
     1
 12
127.5041203589828
 22
97.49391214526822
 13
0.0
 23
0.0
 14
10.0
 24
10.0
 15
10.0
 25
10.0
 16
0.0
 26
0.0
 36
1.0
 17
0.0
 27
0.0
 37
0.0
 42
50.0
 43
0.0
 44
0.0
 45
243.0346063651093
 50
0.0
 51
0.0
 72
   100
 90
    32800
  1

281
     0
 71
     1
 74
     0
110
0.0
120
0.0
130
0.0
111
1.0
121
0.0
131
0.0
112
0.0
122
1.0
132
0.0
 79
     0
146
0.0
170
     0
  0
ENDSEC
  0
SECTION
  2
OBJECTS
  0
DICTIONARY
  5
C
330
0
100
AcDbDictionary
281
     1
  3
ACAD_COLOR
350
A9C
  3
ACAD_GROUP
350
D
  3
ACAD_LAYOUT
350
A9F
  3
ACAD_MATERIAL
350
A9B
  3
ACAD_MLINESTYLE
350
1B
  3
ACAD_PLOTSETTINGS
350
AA0
  3
ACAD_PLOTSTYLENAME
350
A99
  3
ACAD_TABLESTYLE
350
A9D
  3
AcDbVariableDictionary
350
13C9
  0
DICTIONARY
  5
B8D
330
2
100
AcDbDictionary
280
     1
281
     1
  3
ACAD_LAYERSTATES
360
B8E
  0
DICTIONARY
  5
A9C
102
{ACAD_REACTORS
330
C
102
}
330
C
100
AcDbDictionary
281
     1
  0
DICTIONARY
  5
D
102
{ACAD_REACTORS
330
C
102
}
330
C
100
AcDbDictionary
281
     1
  0
DICTIONARY
  5
A9F
102
{ACAD_REACTORS
330
C
102
}
330
C
100
AcDbDictionary
281
     1
  3
Model
350
AA1
  3
レイアウト1
350
AA2
  0
DICTIONARY
  5
A9B
102
{ACAD_REACTORS
330
C
102
}
330
C
100
AcDbDictionary
281
     1
  0
DICTIONARY
  5
1B
102
{ACAD_REACTORS
330
C
102
}
330
C
100
AcDbDictionary
281
     1
  3
STANDARD
350
1C
  0
DICTIONARY
  5
AA0
102
{ACAD_REACTORS
330
C
102
}
330
C
100
AcDbDictionary
281
     1
  0
ACDBDICTIONARYWDFLT
  5
A99
102
{ACAD_REACTORS
330
C
102
}
330
C
100
AcDbDictionary
281
     1
  3
Normal
350
A9A
100
AcDbDictionaryWithDefault
340
A9A
  0
DICTIONARY
  5
A9D
102
{ACAD_REACTORS
330
C
102
}
330
C
100
AcDbDictionary
281
     1
  3
Standard
350
A9E
  0
DICTIONARY
  5
13C9
102
{ACAD_REACTORS
330
C
102
}
330
C
100
AcDbDictionary
281
     1
  3
CTABLESTYLE
350
13CA
  0
DICTIONARY
  5
B8E
102
{ACAD_REACTORS
330
B8D
102
}
330
B8D
100
AcDbDictionary
281
     1
  0
LAYOUT
  5
AA1
102
{ACAD_REACTORS
330
A9F
102
}
330
A9F
100
AcDbPlotSettings
  1

  2
A4 EPSON LP-6100.pc3
  4
A4
  6

 40
5.873749732971191
 41
5.873747825622558
 42
5.873748779296875
 43
5.873748779296875
 44
209.9733276367187
 45
297.0106506347656
 46
0.0
 47
0.0
 48
0.0
 49
0.0
140
0.0
141
0.0
142
1.0
143
1.0
 70
 28336
 72
     1
 73
     0
 74
     1
  7
AutoCAD LT 98.ctb
 75
    16
147
1.0
 76
     1
 77
     2
 78
   300
148
0.2320474639241183
149
0.222666602280583
100
AcDbLayout
  1
Model
 70
     1
 71
     0
 10
0.0
 20
0.0
 11
12.0
 21
9.0
 12
0.0
 22
0.0
 32
0.0
 14
0.0
 24
0.0
 34
0.0
 15
0.0
 25
0.0
 35
0.0
146
0.0
 13
0.0
 23
0.0
 33
0.0
 16
1.0
 26
0.0
 36
0.0
 17
0.0
 27
1.0
 37
0.0
 76
     0
330
18
1001
ACAD_PSEXT
1000
A4 EPSON LP-6100.pc3
1000
EPSON LP-6100
1000
\\SATO-MATE2
1000

1070
     0
  0
LAYOUT
  5
AA2
102
{ACAD_REACTORS
330
A9F
102
}
330
A9F
100
AcDbPlotSettings
  1

  2
WIDR Printer
  4

  6

 40
0.0
 41
0.0
 42
0.0
 43
0.0
 44
0.0
 45
0.0
 46
0.0
 47
0.0
 48
0.0
 49
0.0
140
0.0
141
0.0
142
1.0
143
1.0
 70
   688
 72
     0
 73
     0
 74
     5
  7
AutoCad LT 98.ctb
 75
    16
147
1.0
 76
     0
 77
     2
 78
   300
148
0.0
149
0.0
100
AcDbLayout
  1
レイアウト1
 70
     1
 71
     1
 10
0.0
 20
0.0
 11
420.0
 21
297.0
 12
0.0
 22
0.0
 32
0.0
 14
-0.2
 24
-0.2
 34
0.0
 15
255.2
 25
195.2
 35
0.0
146
0.0
 13
0.0
 23
0.0
 33
0.0
 16
1.0
 26
0.0
 36
0.0
 17
0.0
 27
1.0
 37
0.0
 76
     0
330
15
331
177
  0
MLINESTYLE
  5
1C
102
{ACAD_REACTORS
330
1B
102
}
330
1B
100
AcDbMlineStyle
  2
STANDARD
 70
     0
  3

 62
   256
 51
90.0
 52
90.0
 71
     2
 49
0.5
 62
   256
  6
BYLAYER
 49
-0.5
 62
   256
  6
BYLAYER
  0
ACDBPLACEHOLDER
  5
A9A
102
{ACAD_REACTORS
330
A99
102
}
330
A99
  0
ACAD_PROXY_OBJECT
  5
A9E
102
{ACAD_REACTORS
330
A9D
102
}
330
A9D
100
AcDbProxyObject
 90
      499
 91
      502
 95
  2555929
 70
     0
 93
     1841
310
4214DD185B99185C9928B81E85EB51B8AE3F2E07A17AD46E2B8FC02B5E8DC0F42B1CFD028000000C1008070000C3001FDFF8000000C1003FBFF000000182007F7FE00000030400FEFFC00000060801FDFF8000000C1003FBFF00000018200000000000000681FA0B0000001820100E000186003FBFF000000182007F7FE000
310
00030400FEFFC00000060801FDFF8000000C1003FBFF000000182007F7FE000000304000AD7A3703D0AC73F4160000003040201C00030C007F7FE00000030400FEFFC00000060801FDFF8000000C1003FBFF000000182007F7FE00000030400FEFFC000000608000
340
F
340
F
340
F
 94
        0
  0
DICTIONARYVAR
  5
13CA
102
{ACAD_REACTORS
330
13C9
102
}
330
13C9
100
DictionaryVariables
280
     0
  1
STANDARD
  0
ENDSEC
  0
EOF
