  0
SECTION
  2
HEADER
  9
$ACADVER
  1
AC1018
  9
$ACADMAINTVER
 70
     0
  9
$DWGCODEPAGE
  3
ANSI_932
  9
$INSBASE
 10
0.0
 20
0.0
 30
0.0
  9
$EXTMIN
 10
-130.1734746989225
 20
-0.0140685445282998
 30
-0.0000610260732543
  9
$EXTMAX
 10
255.0184739834999
 20
275.9243034655197
 30
0.0000152760201182
  9
$LIMMIN
 10
0.0
 20
0.0
  9
$LIMMAX
 10
420.0
 20
297.0
  9
$ORTHOMODE
 70
     0
  9
$REGENMODE
 70
     1
  9
$FILLMODE
 70
     1
  9
$QTEXTMODE
 70
     0
  9
$MIRRTEXT
 70
     1
  9
$LTSCALE
 40
1.0
  9
$ATTMODE
 70
     1
  9
$TEXTSIZE
 40
3.0
  9
$TRACEWID
 40
1.0
  9
$TEXTSTYLE
  7
STYLE3
  9
$CLAYER
  8
寸法線
  9
$CELTYPE
  6
BYLAYER
  9
$CECOLOR
 62
   256
  9
$CELTSCALE
 40
1.0
  9
$DISPSILH
 70
     0
  9
$DIMSCALE
 40
1.0
  9
$DIMASZ
 40
2.5
  9
$DIMEXO
 40
0.0
  9
$DIMDLI
 40
3.75
  9
$DIMRND
 40
0.0
  9
$DIMDLE
 40
0.0
  9
$DIMEXE
 40
1.25
  9
$DIMTP
 40
0.0
  9
$DIMTM
 40
0.0
  9
$DIMTXT
 40
2.5
  9
$DIMCEN
 40
2.5
  9
$DIMTSZ
 40
0.0
  9
$DIMTOL
 70
     0
  9
$DIMLIM
 70
     0
  9
$DIMTIH
 70
     0
  9
$DIMTOH
 70
     0
  9
$DIMSE1
 70
     0
  9
$DIMSE2
 70
     0
  9
$DIMTAD
 70
     1
  9
$DIMZIN
 70
     8
  9
$DIMBLK
  1

  9
$DIMASO
 70
     1
  9
$DIMSHO
 70
     1
  9
$DIMPOST
  1

  9
$DIMAPOST
  1

  9
$DIMALT
 70
     0
  9
$DIMALTD
 70
     4
  9
$DIMALTF
 40
0.0394
  9
$DIMLFAC
 40
1.0
  9
$DIMTOFL
 70
     1
  9
$DIMTVP
 40
0.0
  9
$DIMTIX
 70
     0
  9
$DIMSOXD
 70
     0
  9
$DIMSAH
 70
     1
  9
$DIMBLK1
  1
OPEN
  9
$DIMBLK2
  1
OPEN
  9
$DIMSTYLE
  2
STYLE3
  9
$DIMCLRD
 70
     2
  9
$DIMCLRE
 70
     2
  9
$DIMCLRT
 70
     6
  9
$DIMTFAC
 40
1.0
  9
$DIMGAP
 40
0.625
  9
$DIMJUST
 70
     0
  9
$DIMSD1
 70
     0
  9
$DIMSD2
 70
     0
  9
$DIMTOLJ
 70
     1
  9
$DIMTZIN
 70
     0
  9
$DIMALTZ
 70
     0
  9
$DIMALTTZ
 70
     0
  9
$DIMUPT
 70
     0
  9
$DIMDEC
 70
     2
  9
$DIMTDEC
 70
     4
  9
$DIMALTU
 70
     8
  9
$DIMALTTD
 70
     4
  9
$DIMTXSTY
  7
STYLE3
  9
$DIMAUNIT
 70
     0
  9
$DIMADEC
 70
     0
  9
$DIMALTRND
 40
0.0
  9
$DIMAZIN
 70
     0
  9
$DIMDSEP
 70
    46
  9
$DIMATFIT
 70
     3
  9
$DIMFRAC
 70
     0
  9
$DIMLDRBLK
  1

  9
$DIMLUNIT
 70
     2
  9
$DIMLWD
 70
    -2
  9
$DIMLWE
 70
    -2
  9
$DIMTMOVE
 70
     0
  9
$LUNITS
 70
     2
  9
$LUPREC
 70
     4
  9
$SKETCHINC
 40
1.0
  9
$FILLETRAD
 40
0.15
  9
$AUNITS
 70
     0
  9
$AUPREC
 70
     0
  9
$MENU
  1
.
  9
$ELEVATION
 40
0.0
  9
$PELEVATION
 40
0.0
  9
$THICKNESS
 40
0.0
  9
$LIMCHECK
 70
     0
  9
$CHAMFERA
 40
0.5
  9
$CHAMFERB
 40
0.5
  9
$CHAMFERC
 40
20.0
  9
$CHAMFERD
 40
0.0
  9
$SKPOLY
 70
     0
  9
$TDCREATE
 40
2451859.479272570
  9
$TDUCREATE
 40
2451859.104272570
  9
$TDUPDATE
 40
2455358.650112303
  9
$TDUUPDATE
 40
2455358.275112303
  9
$TDINDWG
 40
0.4784127199
  9
$TDUSRTIMER
 40
0.4784127199
  9
$USRTIMER
 70
     1
  9
$ANGBASE
 50
0.0
  9
$ANGDIR
 70
     0
  9
$PDMODE
 70
     0
  9
$PDSIZE
 40
0.0
  9
$PLINEWID
 40
0.0
  9
$SPLFRAME
 70
     0
  9
$SPLINETYPE
 70
     6
  9
$SPLINESEGS
 70
     8
  9
$HANDSEED
  5
E5B
  9
$SURFTAB1
 70
     6
  9
$SURFTAB2
 70
     6
  9
$SURFTYPE
 70
     6
  9
$SURFU
 70
     6
  9
$SURFV
 70
     6
  9
$UCSBASE
  2

  9
$UCSNAME
  2

  9
$UCSORG
 10
0.0
 20
0.0
 30
0.0
  9
$UCSXDIR
 10
1.0
 20
0.0
 30
0.0
  9
$UCSYDIR
 10
0.0
 20
1.0
 30
0.0
  9
$UCSORTHOREF
  2

  9
$UCSORTHOVIEW
 70
     0
  9
$UCSORGTOP
 10
0.0
 20
0.0
 30
0.0
  9
$UCSORGBOTTOM
 10
0.0
 20
0.0
 30
0.0
  9
$UCSORGLEFT
 10
0.0
 20
0.0
 30
0.0
  9
$UCSORGRIGHT
 10
0.0
 20
0.0
 30
0.0
  9
$UCSORGFRONT
 10
0.0
 20
0.0
 30
0.0
  9
$UCSORGBACK
 10
0.0
 20
0.0
 30
0.0
  9
$PUCSBASE
  2

  9
$PUCSNAME
  2

  9
$PUCSORG
 10
0.0
 20
0.0
 30
0.0
  9
$PUCSXDIR
 10
1.0
 20
0.0
 30
0.0
  9
$PUCSYDIR
 10
0.0
 20
1.0
 30
0.0
  9
$PUCSORTHOREF
  2

  9
$PUCSORTHOVIEW
 70
     0
  9
$PUCSORGTOP
 10
0.0
 20
0.0
 30
0.0
  9
$PUCSORGBOTTOM
 10
0.0
 20
0.0
 30
0.0
  9
$PUCSORGLEFT
 10
0.0
 20
0.0
 30
0.0
  9
$PUCSORGRIGHT
 10
0.0
 20
0.0
 30
0.0
  9
$PUCSORGFRONT
 10
0.0
 20
0.0
 30
0.0
  9
$PUCSORGBACK
 10
0.0
 20
0.0
 30
0.0
  9
$USERI1
 70
     0
  9
$USERI2
 70
     0
  9
$USERI3
 70
     0
  9
$USERI4
 70
     0
  9
$USERI5
 70
     0
  9
$USERR1
 40
0.0
  9
$USERR2
 40
0.0
  9
$USERR3
 40
0.0
  9
$USERR4
 40
0.0
  9
$USERR5
 40
0.0
  9
$WORLDVIEW
 70
     1
  9
$SHADEDGE
 70
     3
  9
$SHADEDIF
 70
    70
  9
$TILEMODE
 70
     1
  9
$MAXACTVP
 70
    48
  9
$PINSBASE
 10
0.0
 20
0.0
 30
0.0
  9
$PLIMCHECK
 70
     0
  9
$PEXTMIN
 10
-0.2
 20
-0.2
 30
0.0
  9
$PEXTMAX
 10
255.2
 20
195.2
 30
0.0
  9
$PLIMMIN
 10
0.0
 20
0.0
  9
$PLIMMAX
 10
420.0
 20
297.0
  9
$UNITMODE
 70
     0
  9
$VISRETAIN
 70
     1
  9
$PLINEGEN
 70
     0
  9
$PSLTSCALE
 70
     1
  9
$TREEDEPTH
 70
  3020
  9
$CMLSTYLE
  2
STANDARD
  9
$CMLJUST
 70
     0
  9
$CMLSCALE
 40
20.0
  9
$PROXYGRAPHICS
 70
     1
  9
$MEASUREMENT
 70
     0
  9
$CELWEIGHT
370
    -1
  9
$ENDCAPS
280
     0
  9
$JOINSTYLE
280
     0
  9
$LWDISPLAY
290
     0
  9
$INSUNITS
 70
     0
  9
$HYPERLINKBASE
  1

  9
$STYLESHEET
  1

  9
$XEDIT
290
     1
  9
$CEPSNTYPE
380
     0
  9
$PSTYLEMODE
290
     1
  9
$FINGERPRINTGUID
  2
{3AEFC0F5-E82C-41D5-9789-8D49E0069BBA}
  9
$VERSIONGUID
  2
{C66988DE-3975-4291-ABCB-69468E915D00}
  9
$EXTNAMES
290
     1
  9
$PSVPSCALE
 40
0.0
  9
$OLESTARTUP
290
     0
  9
$SORTENTS
280
   127
  9
$INDEXCTL
280
     0
  9
$HIDETEXT
280
     0
  9
$XCLIPFRAME
290
     0
  9
$HALOGAP
280
     0
  9
$OBSCOLOR
 70
   257
  9
$OBSLTYPE
280
     0
  9
$INTERSECTIONDISPLAY
280
     0
  9
$INTERSECTIONCOLOR
 70
   257
  9
$DIMASSOC
280
     1
  9
$PROJECTNAME
  1

  0
ENDSEC
  0
SECTION
  2
CLASSES
  0
CLASS
  1
ACDBDICTIONARYWDFLT
  2
AcDbDictionaryWithDefault
  3
ObjectDBX Classes
 90
        0
 91
        1
280
     0
281
     0
  0
ENDSEC
  0
SECTION
  2
TABLES
  0
TABLE
  2
VPORT
  5
8
330
0
100
AcDbSymbolTable
 70
     2
  0
VPORT
  5
E5A
330
8
100
AcDbSymbolTableRecord
100
AcDbViewportTableRecord
  2
*Active
 70
     0
 10
0.0
 20
0.0
 11
1.0
 21
1.0
 12
62.42249964228873
 22
137.9551174604957
 13
0.0
 23
0.0
 14
10.0
 24
10.0
 15
10.0
 25
10.0
 16
0.0
 26
0.0
 36
1.0
 17
0.0
 27
0.0
 37
0.0
 40
278.0367626717214
 41
1.530456852791878
 42
50.0
 43
0.0
 44
0.0
 50
0.0
 51
0.0
 71
     0
 72
   100
 73
     1
 74
     1
 75
     0
 76
     0
 77
     0
 78
     0
281
     0
 65
     1
110
0.0
120
0.0
130
0.0
111
1.0
121
0.0
131
0.0
112
0.0
122
1.0
132
0.0
 79
     0
146
0.0
  0
ENDTAB
  0
TABLE
  2
LTYPE
  5
5
330
0
100
AcDbSymbolTable
 70
    12
  0
LTYPE
  5
12
330
5
100
AcDbSymbolTableRecord
100
AcDbLinetypeTableRecord
  2
BYBLOCK
 70
     0
  3

 72
    65
 73
     0
 40
0.0
  0
LTYPE
  5
13
330
5
100
AcDbSymbolTableRecord
100
AcDbLinetypeTableRecord
  2
BYLAYER
 70
     0
  3

 72
    65
 73
     0
 40
0.0
  0
LTYPE
  5
14
330
5
100
AcDbSymbolTableRecord
100
AcDbLinetypeTableRecord
  2
CONTINUOUS
 70
     0
  3
Solid line
 72
    65
 73
     0
 40
0.0
  0
LTYPE
  5
22
330
5
100
AcDbSymbolTableRecord
100
AcDbLinetypeTableRecord
  2
CENTER2
 70
     0
  3
Center (.5x) ___ _ ___ _ ___ _ ___ _ ___ _ ___
 72
    65
 73
     4
 40
28.575
 49
19.05
 74
     0
 49
-3.174999999999999
 74
     0
 49
3.174999999999999
 74
     0
 49
-3.174999999999999
 74
     0
  0
LTYPE
  5
23
330
5
100
AcDbSymbolTableRecord
100
AcDbLinetypeTableRecord
  2
HIDDEN2
 70
     0
  3
Hidden (.5x) _ _ _ _ _ _ _ _ _ _ _ _ _ _ _ _ _
 72
    65
 73
     2
 40
4.762499999999999
 49
3.174999999999999
 74
     0
 49
-1.587499999999999
 74
     0
  0
LTYPE
  5
24
330
5
100
AcDbSymbolTableRecord
100
AcDbLinetypeTableRecord
  2
PHANTOM2
 70
     0
  3
Phantom (.5x) ___ _ _ ___ _ _ ___ _ _ ___ _ _
 72
    65
 73
     6
 40
31.75
 49
15.875
 74
     0
 49
-3.174999999999999
 74
     0
 49
3.174999999999999
 74
     0
 49
-3.174999999999999
 74
     0
 49
3.174999999999999
 74
     0
 49
-3.174999999999999
 74
     0
  0
ENDTAB
  0
TABLE
  2
LAYER
  5
2
330
0
100
AcDbSymbolTable
 70
    16
  0
LAYER
  5
E
330
2
100
AcDbSymbolTableRecord
100
AcDbLayerTableRecord
  2
0
 70
     0
 62
     7
  6
CONTINUOUS
370
    -3
390
DFA
  0
LAYER
  5
25
330
2
100
AcDbSymbolTableRecord
100
AcDbLayerTableRecord
  2
外形線
 70
     0
 62
     7
  6
CONTINUOUS
370
    -3
390
DFA
  0
LAYER
  5
26
330
2
100
AcDbSymbolTableRecord
100
AcDbLayerTableRecord
  2
寸法線
 70
     0
 62
     2
  6
CONTINUOUS
370
    -3
390
DFA
  0
LAYER
  5
27
330
2
100
AcDbSymbolTableRecord
100
AcDbLayerTableRecord
  2
中心線
 70
     0
 62
     4
  6
CENTER2
370
    -3
390
DFA
  0
LAYER
  5
29
330
2
100
AcDbSymbolTableRecord
100
AcDbLayerTableRecord
  2
想像線
 70
     0
 62
     1
  6
PHANTOM2
370
    -3
390
DFA
  0
LAYER
  5
2A
330
2
100
AcDbSymbolTableRecord
100
AcDbLayerTableRecord
  2
ﾊｯﾁﾝｸ
 70
     0
 62
     6
  6
CONTINUOUS
370
    -3
390
DFA
  0
LAYER
  5
2B
330
2
100
AcDbSymbolTableRecord
100
AcDbLayerTableRecord
  2
文字
 70
     0
 62
     6
  6
CONTINUOUS
370
    -3
390
DFA
  0
LAYER
  5
2C
330
2
100
AcDbSymbolTableRecord
100
AcDbLayerTableRecord
  2
目盛
 70
     0
 62
    70
  6
CONTINUOUS
370
    -3
390
DFA
  0
LAYER
  5
2D
330
2
100
AcDbSymbolTableRecord
100
AcDbLayerTableRecord
  2
針
 70
     0
 62
     5
  6
CONTINUOUS
370
    -3
390
DFA
  0
LAYER
  5
53
330
2
100
AcDbSymbolTableRecord
100
AcDbLayerTableRecord
  2
DEFPOINTS
 70
     0
 62
     7
  6
CONTINUOUS
290
     0
370
    -3
390
DFA
  0
LAYER
  5
A5
330
2
100
AcDbSymbolTableRecord
100
AcDbLayerTableRecord
  2
C
 70
     0
 62
     7
  6
CONTINUOUS
370
    -3
390
DFA
  0
LAYER
  5
16A
330
2
100
AcDbSymbolTableRecord
100
AcDbLayerTableRecord
  2
隠れ線2
 70
     0
 62
     1
  6
HIDDEN2
370
    -3
390
DFA
  0
LAYER
  5
348
330
2
100
AcDbSymbolTableRecord
100
AcDbLayerTableRecord
  2
ROGO
 70
     0
 62
     6
  6
CONTINUOUS
370
    -3
390
DFA
  0
ENDTAB
  0
TABLE
  2
STYLE
  5
3
330
0
100
AcDbSymbolTable
 70
     6
  0
STYLE
  5
F
330
3
100
AcDbSymbolTableRecord
100
AcDbTextStyleTableRecord
  2
STANDARD
 70
     0
 40
0.0
 41
1.0
 50
0.0
 71
     0
 42
2.5
  3
txt
  4

  0
STYLE
  5
3F
330
3
100
AcDbSymbolTableRecord
100
AcDbTextStyleTableRecord
  2
STYLE3
 70
     0
 40
0.0
 41
1.0
 50
0.0
 71
     0
 42
3.0
  3
romans.shx
  4
bigfont.shx
  0
ENDTAB
  0
TABLE
  2
VIEW
  5
6
330
0
100
AcDbSymbolTable
 70
     0
  0
ENDTAB
  0
TABLE
  2
UCS
  5
7
330
0
100
AcDbSymbolTable
 70
     0
  0
ENDTAB
  0
TABLE
  2
APPID
  5
9
330
0
100
AcDbSymbolTable
 70
     1
  0
APPID
  5
10
330
9
100
AcDbSymbolTableRecord
100
AcDbRegAppTableRecord
  2
ACAD
 70
     0
  0
ENDTAB
  0
TABLE
  2
DIMSTYLE
  5
A
330
0
100
AcDbSymbolTable
 70
     4
100
AcDbDimStyleTable
 71
     0
  0
DIMSTYLE
105
1D
330
A
100
AcDbSymbolTableRecord
100
AcDbDimStyleTableRecord
  2
STANDARD
 70
     0
 41
2.5
 42
0.625
 43
3.75
 44
1.25
 73
     0
 74
     0
 77
     1
 78
     8
140
2.5
141
2.5
143
0.0394
147
0.625
171
     4
172
     1
273
     8
274
     4
277
     6
340
F
  0
DIMSTYLE
105
8F
102
{ACAD_REACTORS
330
B09
330
B4A
330
B7B
330
B87
330
BBB
330
CE1
330
D1B
330
D28
330
DA2
102
}
330
A
100
AcDbSymbolTableRecord
100
AcDbDimStyleTableRecord
  2
STYLE3
 70
     0
 41
2.5
 42
0.0
 43
3.75
 44
1.25
 73
     0
 74
     0
 77
     1
 78
     8
140
2.5
141
2.5
143
0.0394
147
0.625
171
     4
172
     1
173
     1
176
     2
177
     2
178
     6
271
     1
273
     8
274
     4
340
3F
341
45
343
45
344
45
  0
ENDTAB
  0
TABLE
  2
BLOCK_RECORD
  5
1
330
0
100
AcDbSymbolTable
 70
    22
  0
BLOCK_RECORD
  5
18
330
1
100
AcDbSymbolTableRecord
100
AcDbBlockTableRecord
  2
*MODEL_SPACE
340
DFF
  0
BLOCK_RECORD
  5
15
330
1
100
AcDbSymbolTableRecord
100
AcDbBlockTableRecord
  2
*PAPER_SPACE
340
E00
  0
BLOCK_RECORD
  5
45
330
1
100
AcDbSymbolTableRecord
100
AcDbBlockTableRecord
  2
_OPEN
340
0
102
{BLKREFS
331
62D
331
644
331
7EF
331
7F0
331
7FD
331
B9D
331
BA3
331
BDC
331
BDD
331
DC0
331
DC1
331
DCD
331
A3E
331
A4E
331
AD8
331
ADB
331
ADE
331
B02
331
B03
331
B4F
331
B50
331
B74
331
B75
331
B80
331
B81
331
BCB
331
BCC
331
CDA
331
CDB
331
D14
331
D15
331
D21
331
D22
331
DB5
331
DB6
331
B68
331
B69
331
C28
331
C29
331
D07
331
D08
331
D8C
331
D8D
331
D9B
331
D9C
331
DA8
331
DA9
102
}
  0
BLOCK_RECORD
  5
AFD
330
1
100
AcDbSymbolTableRecord
100
AcDbBlockTableRecord
  2
*D4
340
0
  0
BLOCK_RECORD
  5
B3E
330
1
100
AcDbSymbolTableRecord
100
AcDbBlockTableRecord
  2
*D5
340
0
  0
BLOCK_RECORD
  5
B70
330
1
100
AcDbSymbolTableRecord
100
AcDbBlockTableRecord
  2
*D6
340
0
  0
BLOCK_RECORD
  5
B7C
330
1
100
AcDbSymbolTableRecord
100
AcDbBlockTableRecord
  2
*D7
340
0
  0
BLOCK_RECORD
  5
BAF
330
1
100
AcDbSymbolTableRecord
100
AcDbBlockTableRecord
  2
*D8
340
0
  0
BLOCK_RECORD
  5
C44
330
1
100
AcDbSymbolTableRecord
100
AcDbBlockTableRecord
  2
ROGO
340
0
102
{BLKREFS
331
CB3
331
C9A
102
}
  0
BLOCK_RECORD
  5
CD5
330
1
100
AcDbSymbolTableRecord
100
AcDbBlockTableRecord
  2
*D12
340
0
  0
BLOCK_RECORD
  5
D0F
330
1
100
AcDbSymbolTableRecord
100
AcDbBlockTableRecord
  2
*D13
340
0
  0
BLOCK_RECORD
  5
D1C
330
1
100
AcDbSymbolTableRecord
100
AcDbBlockTableRecord
  2
*D14
340
0
  0
BLOCK_RECORD
  5
D94
330
1
100
AcDbSymbolTableRecord
100
AcDbBlockTableRecord
  2
*D15
340
0
  0
ENDTAB
  0
ENDSEC
  0
SECTION
  2
BLOCKS
  0
BLOCK
  5
19
330
18
100
AcDbEntity
  8
0
100
AcDbBlockBegin
  2
*MODEL_SPACE
 70
     0
 10
0.0
 20
0.0
 30
0.0
  3
*MODEL_SPACE
  1

  0
ENDBLK
  5
1A
330
18
100
AcDbEntity
  8
0
100
AcDbBlockEnd
  0
BLOCK
  5
16
330
15
100
AcDbEntity
 67
     1
  8
0
100
AcDbBlockBegin
  2
*PAPER_SPACE
 70
     0
 10
0.0
 20
0.0
 30
0.0
  3
*PAPER_SPACE
  1

  0
ENDBLK
  5
17
330
15
100
AcDbEntity
 67
     1
  8
0
100
AcDbBlockEnd
  0
BLOCK
  5
46
330
45
100
AcDbEntity
  8
0
100
AcDbBlockBegin
  2
_OPEN
 70
     0
 10
0.0
 20
0.0
 30
0.0
  3
_OPEN
  1

  0
LINE
  5
47
330
45
100
AcDbEntity
  8
0
  6
ByBlock
 62
     0
100
AcDbLine
 10
-1.0
 20
0.1666666666666666
 30
0.0
 11
0.0
 21
0.0
 31
0.0
  0
LINE
  5
48
330
45
100
AcDbEntity
  8
0
  6
ByBlock
 62
     0
100
AcDbLine
 10
0.0
 20
0.0
 30
0.0
 11
-1.0
 21
-0.1666666666666666
 31
0.0
  0
LINE
  5
49
330
45
100
AcDbEntity
  8
0
  6
ByBlock
 62
     0
100
AcDbLine
 10
0.0
 20
0.0
 30
0.0
 11
-1.0
 21
0.0
 31
0.0
  0
ENDBLK
  5
4A
330
45
100
AcDbEntity
  8
0
100
AcDbBlockEnd
  0
BLOCK
  5
AFE
330
AFD
100
AcDbEntity
  8
0
100
AcDbBlockBegin
  2
*D4
 70
     1
 10
0.0
 20
0.0
 30
0.0
  3
*D4
  1

  0
LINE
  5
AFF
330
AFD
100
AcDbEntity
  8
0
  6
ByBlock
 62
     2
100
AcDbLine
 10
-88.64633876757265
 20
205.8388548154308
 30
0.0
 11
-88.64633876757265
 21
233.1208697897407
 31
0.0
  0
LINE
  5
B00
330
AFD
100
AcDbEntity
  8
0
  6
ByBlock
 62
     2
100
AcDbLine
 10
-81.0463387675727
 20
229.119702607174
 30
0.0
 11
-81.0463387675727
 21
233.1208697897407
 31
0.0
  0
LINE
  5
B01
330
AFD
100
AcDbEntity
  8
0
  6
ByBlock
 62
     2
100
AcDbLine
 10
-86.14633876757265
 20
231.8708697897407
 30
0.0
 11
-83.5463387675727
 21
231.8708697897407
 31
0.0
  0
INSERT
  5
B02
330
AFD
100
AcDbEntity
  8
0
  6
ByBlock
 62
     2
100
AcDbBlockReference
  2
_OPEN
 10
-88.64633876757265
 20
231.8708697897407
 30
0.0
 41
2.5
 42
2.5
 43
2.5
 50
180.0
  0
INSERT
  5
B03
330
AFD
100
AcDbEntity
  8
0
  6
ByBlock
 62
     2
100
AcDbBlockReference
  2
_OPEN
 10
-81.0463387675727
 20
231.8708697897407
 30
0.0
 41
2.5
 42
2.5
 43
2.5
  0
MTEXT
  5
B04
330
AFD
100
AcDbEntity
  8
0
  6
ByBlock
 62
     6
100
AcDbMText
 10
-84.84633876757268
 20
233.7458697897407
 30
0.0
 40
2.5
 41
0.0
 71
     5
 72
     1
  1
\A1;7.6
  7
STYLE3
 73
     1
 44
1.0
  0
POINT
  5
B05
330
AFD
100
AcDbEntity
  8
DEFPOINTS
  6
ByBlock
 62
     0
100
AcDbPoint
 10
-88.64633876757265
 20
205.8388548154308
 30
0.0
  0
POINT
  5
B06
330
AFD
100
AcDbEntity
  8
DEFPOINTS
  6
ByBlock
 62
     0
100
AcDbPoint
 10
-81.0463387675727
 20
229.119702607174
 30
0.0
  0
POINT
  5
B07
330
AFD
100
AcDbEntity
  8
DEFPOINTS
  6
ByBlock
 62
     0
100
AcDbPoint
 10
-81.0463387675727
 20
231.8708697897407
 30
0.0
  0
ENDBLK
  5
B08
330
AFD
100
AcDbEntity
  8
0
100
AcDbBlockEnd
  0
BLOCK
  5
B4B
330
B3E
100
AcDbEntity
  8
0
100
AcDbBlockBegin
  2
*D5
 70
     1
 10
0.0
 20
0.0
 30
0.0
  3
*D5
  1

  0
LINE
  5
B4C
330
B3E
100
AcDbEntity
  8
0
  6
ByBlock
 62
     2
100
AcDbLine
 10
242.2610519761857
 20
99.47256398698037
 30
0.0
 11
242.2610519761857
 21
47.85727461871499
 31
0.0
  0
LINE
  5
B4D
330
B3E
100
AcDbEntity
  8
0
  6
ByBlock
 62
     2
100
AcDbLine
 10
1.989189978675992
 20
57.5963887717927
 30
0.0
 11
1.989189978675991
 21
47.85727461871499
 31
0.0
  0
LINE
  5
B4E
330
B3E
100
AcDbEntity
  8
0
  6
ByBlock
 62
     2
100
AcDbLine
 10
239.7610519761857
 20
49.10727461871499
 30
0.0
 11
4.489189978675991
 21
49.10727461871499
 31
0.0
  0
INSERT
  5
B4F
330
B3E
100
AcDbEntity
  8
0
  6
ByBlock
 62
     2
100
AcDbBlockReference
  2
_OPEN
 10
242.2610519761857
 20
49.10727461871499
 30
0.0
 41
2.5
 42
2.5
 43
2.5
  0
INSERT
  5
B50
330
B3E
100
AcDbEntity
  8
0
  6
ByBlock
 62
     2
100
AcDbBlockReference
  2
_OPEN
 10
1.989189978675991
 20
49.10727461871499
 30
0.0
 41
2.5
 42
2.5
 43
2.5
 50
180.0
  0
MTEXT
  5
B51
330
B3E
100
AcDbEntity
  8
0
  6
ByBlock
 62
     6
100
AcDbMText
 10
122.1251209774308
 20
50.98227461871499
 30
0.0
 40
2.5
 41
0.0
 71
     5
 72
     1
  1
\A1;240
  7
STYLE3
 73
     1
 44
1.0
  0
POINT
  5
B52
330
B3E
100
AcDbEntity
  8
DEFPOINTS
  6
ByBlock
 62
     0
100
AcDbPoint
 10
242.2610519761857
 20
99.47256398698037
 30
0.0
  0
POINT
  5
B53
330
B3E
100
AcDbEntity
  8
DEFPOINTS
  6
ByBlock
 62
     0
100
AcDbPoint
 10
1.989189978675992
 20
57.5963887717927
 30
0.0
  0
POINT
  5
B54
330
B3E
100
AcDbEntity
  8
DEFPOINTS
  6
ByBlock
 62
     0
100
AcDbPoint
 10
1.989189978675991
 20
49.10727461871499
 30
0.0
  0
ENDBLK
  5
B55
330
B3E
100
AcDbEntity
  8
0
100
AcDbBlockEnd
  0
BLOCK
  5
B71
330
B70
100
AcDbEntity
  8
0
100
AcDbBlockBegin
  2
*D6
 70
     1
 10
0.0
 20
0.0
 30
0.0
  3
*D6
  1

  0
LINE
  5
B72
330
B70
100
AcDbEntity
  8
0
  6
ByBlock
 62
     2
100
AcDbLine
 10
-3.510810021324004
 20
115.8388548154308
 30
0.0
 11
-32.76494291452458
 21
115.8388548154308
 31
0.0
  0
LINE
  5
B73
330
B70
100
AcDbEntity
  8
0
  6
ByBlock
 62
     2
100
AcDbLine
 10
-31.51494291452457
 20
136.8388548154308
 30
0.0
 11
-31.51494291452457
 21
118.3388548154308
 31
0.0
  0
INSERT
  5
B74
330
B70
100
AcDbEntity
  8
0
  6
ByBlock
 62
     2
100
AcDbBlockReference
  2
_OPEN
 10
-31.51494291452457
 20
139.3388548154308
 30
0.0
 41
2.5
 42
2.5
 43
2.5
 50
90.0
  0
INSERT
  5
B75
330
B70
100
AcDbEntity
  8
0
  6
ByBlock
 62
     2
100
AcDbBlockReference
  2
_OPEN
 10
-31.51494291452457
 20
115.8388548154308
 30
0.0
 41
2.5
 42
2.5
 43
2.5
 50
270.0
  0
MTEXT
  5
B76
330
B70
100
AcDbEntity
  8
0
  6
ByBlock
 62
     6
100
AcDbMText
 10
-33.38994291452458
 20
127.5888548154308
 30
0.0
 40
2.5
 41
0.0
 71
     5
 72
     1
  1
\A1;23.5
  7
STYLE3
 11
0.0000000000000001
 21
1.0
 31
0.0
 73
     1
 44
1.0
  0
POINT
  5
B77
330
B70
100
AcDbEntity
  8
DEFPOINTS
  6
ByBlock
 62
     0
100
AcDbPoint
 10
-3.510810021324004
 20
139.3388548154308
 30
0.0
  0
POINT
  5
B78
330
B70
100
AcDbEntity
  8
DEFPOINTS
  6
ByBlock
 62
     0
100
AcDbPoint
 10
-3.510810021324004
 20
115.8388548154308
 30
0.0
  0
POINT
  5
B79
330
B70
100
AcDbEntity
  8
DEFPOINTS
  6
ByBlock
 62
     0
100
AcDbPoint
 10
-31.51494291452457
 20
115.8388548154308
 30
0.0
  0
ENDBLK
  5
B7A
330
B70
100
AcDbEntity
  8
0
100
AcDbBlockEnd
  0
BLOCK
  5
B7D
330
B7C
100
AcDbEntity
  8
0
100
AcDbBlockBegin
  2
*D7
 70
     1
 10
0.0
 20
0.0
 30
0.0
  3
*D7
  1

  0
LINE
  5
B7E
330
B7C
100
AcDbEntity
  8
0
  6
ByBlock
 62
     2
100
AcDbLine
 10
-3.510810021324004
 20
100.8388548154308
 30
0.0
 11
-32.76494291452457
 21
100.8388548154308
 31
0.0
  0
LINE
  5
B7F
330
B7C
100
AcDbEntity
  8
0
  6
ByBlock
 62
     2
100
AcDbLine
 10
-31.51494291452457
 20
113.3388548154308
 30
0.0
 11
-31.51494291452457
 21
103.3388548154308
 31
0.0
  0
INSERT
  5
B80
330
B7C
100
AcDbEntity
  8
0
  6
ByBlock
 62
     2
100
AcDbBlockReference
  2
_OPEN
 10
-31.51494291452457
 20
115.8388548154308
 30
0.0
 41
2.5
 42
2.5
 43
2.5
 50
90.0
  0
INSERT
  5
B81
330
B7C
100
AcDbEntity
  8
0
  6
ByBlock
 62
     2
100
AcDbBlockReference
  2
_OPEN
 10
-31.51494291452457
 20
100.8388548154308
 30
0.0
 41
2.5
 42
2.5
 43
2.5
 50
270.0
  0
MTEXT
  5
B82
330
B7C
100
AcDbEntity
  8
0
  6
ByBlock
 62
     6
100
AcDbMText
 10
-33.38994291452458
 20
108.3388548154308
 30
0.0
 40
2.5
 41
0.0
 71
     5
 72
     1
  1
\A1;15
  7
STYLE3
 11
0.0000000000000001
 21
1.0
 31
0.0
 73
     1
 44
1.0
  0
POINT
  5
B83
330
B7C
100
AcDbEntity
  8
DEFPOINTS
  6
ByBlock
 62
     0
100
AcDbPoint
 10
-3.510810021324004
 20
115.8388548154308
 30
0.0
  0
POINT
  5
B84
330
B7C
100
AcDbEntity
  8
DEFPOINTS
  6
ByBlock
 62
     0
100
AcDbPoint
 10
-3.510810021324004
 20
100.8388548154308
 30
0.0
  0
POINT
  5
B85
330
B7C
100
AcDbEntity
  8
DEFPOINTS
  6
ByBlock
 62
     0
100
AcDbPoint
 10
-31.51494291452457
 20
100.8388548154308
 30
0.0
  0
ENDBLK
  5
B86
330
B7C
100
AcDbEntity
  8
0
100
AcDbBlockEnd
  0
BLOCK
  5
BC7
330
BAF
100
AcDbEntity
  8
0
100
AcDbBlockBegin
  2
*D8
 70
     1
 10
0.0
 20
0.0
 30
0.0
  3
*D8
  1

  0
LINE
  5
BC8
330
BAF
100
AcDbEntity
  8
0
  6
ByBlock
 62
     2
100
AcDbLine
 10
-90.91182649457039
 20
100.8388548154308
 30
0.0
 11
-80.51916469371803
 21
100.8388548154308
 31
0.0
  0
LINE
  5
BC9
330
BAF
100
AcDbEntity
  8
0
  6
ByBlock
 62
     2
100
AcDbLine
 10
-96.41182649457039
 20
59.47256398698036
 30
0.0
 11
-80.51916469371803
 21
59.47256398698036
 31
0.0
  0
LINE
  5
BCA
330
BAF
100
AcDbEntity
  8
0
  6
ByBlock
 62
     2
100
AcDbLine
 10
-81.76916469371803
 20
98.33885481543084
 30
0.0
 11
-81.76916469371803
 21
61.97256398698036
 31
0.0
  0
INSERT
  5
BCB
330
BAF
100
AcDbEntity
  8
0
  6
ByBlock
 62
     2
100
AcDbBlockReference
  2
_OPEN
 10
-81.76916469371803
 20
100.8388548154308
 30
0.0
 41
2.5
 42
2.5
 43
2.5
 50
90.0
  0
INSERT
  5
BCC
330
BAF
100
AcDbEntity
  8
0
  6
ByBlock
 62
     2
100
AcDbBlockReference
  2
_OPEN
 10
-81.76916469371803
 20
59.47256398698036
 30
0.0
 41
2.5
 42
2.5
 43
2.5
 50
270.0
  0
MTEXT
  5
BCD
330
BAF
100
AcDbEntity
  8
0
  6
ByBlock
 62
     6
100
AcDbMText
 10
-83.64416469371803
 20
80.15570940120559
 30
0.0
 40
2.5
 41
0.0
 71
     5
 72
     1
  1
\A1;41
  7
STYLE3
 11
0.0000000000000001
 21
1.0
 31
0.0
 73
     1
 44
1.0
  0
POINT
  5
BCE
330
BAF
100
AcDbEntity
  8
DEFPOINTS
  6
ByBlock
 62
     0
100
AcDbPoint
 10
-90.91182649457039
 20
100.8388548154308
 30
0.0
  0
POINT
  5
BCF
330
BAF
100
AcDbEntity
  8
DEFPOINTS
  6
ByBlock
 62
     0
100
AcDbPoint
 10
-96.41182649457039
 20
59.47256398698036
 30
0.0
  0
POINT
  5
BD0
330
BAF
100
AcDbEntity
  8
DEFPOINTS
  6
ByBlock
 62
     0
100
AcDbPoint
 10
-81.76916469371803
 20
59.47256398698036
 30
0.0
  0
ENDBLK
  5
BD1
330
BAF
100
AcDbEntity
  8
0
100
AcDbBlockEnd
  0
BLOCK
  5
C97
330
C44
100
AcDbEntity
  8
0
100
AcDbBlockBegin
  2
ROGO
 70
     0
 10
0.0
 20
0.0
 30
0.0
  3
ROGO
  1

  0
HATCH
  5
C45
330
C44
100
AcDbEntity
  8
ROGO
 62
     4
100
AcDbHatch
 10
0.0
 20
0.0
 30
0.0
210
0.0
220
0.0
230
1.0
  2
SOLID
 70
     1
 71
     1
 91
        1
 92
        7
 72
     0
 73
     1
 93
       11
 10
38.38165352405156
 20
4.949786840425588
 10
36.55777800832078
 20
4.949786840425588
 10
35.70378540756275
 20
4.409370842614521
 10
35.97325427788326
 20
4.949786840425588
 10
34.14933885635003
 20
4.949786840425645
 10
31.68121527448045
 20
0.0
 10
33.50513069601385
 20
0.0
 10
34.14933885635003
 20
1.291950329371957
 10
34.79354701668632
 20
0.0
 10
36.61742253241704
 20
0.0
 10
35.38336074148237
 20
2.474893420212765
 97
       11
330
C93
330
C96
330
C95
330
C94
330
C4A
330
C47
330
C90
330
C8F
330
C91
330
C8E
330
C92
 75
     0
 76
     1
 47
0.0514683685270805
 98
        1
 10
33.99236623130548
 20
2.826231829978155
450
        0
451
        0
460
0.0
461
0.0
452
        0
462
0.0
453
        0
470

  0
HATCH
  5
C46
330
C44
100
AcDbEntity
  8
ROGO
 62
     4
100
AcDbHatch
 10
0.0
 20
0.0
 30
0.0
210
0.0
220
0.0
230
1.0
  2
SOLID
 70
     1
 71
     1
 91
        1
 92
        5
 93
        8
 72
     1
 10
33.48588559853425
 20
4.949786840425645
 11
30.31359802057352
 21
4.949786840425645
 72
     4
 94
        3
 73
     0
 74
     0
 95
       26
 96
       22
 40
0.0
 40
0.0
 40
0.0
 40
0.0
 40
0.7089867102952115
 40
1.183598414482279
 40
1.525832104103439
 40
1.781366926528389
 40
2.112809002752968
 40
2.354729406992515
 40
2.791581270399936
 40
3.147172406765291
 40
3.389031356825354
 40
3.626186440486682
 40
4.050410779375985
 40
4.350388020238963
 40
4.511948940797758
 40
4.741441456013356
 40
4.907163150576407
 40
5.147239172635527
 40
5.28310143501293
 40
5.578752957634333
 40
5.713750011164293
 40
5.713750011164293
 40
5.713750011164293
 40
5.713750011164293
 10
30.31359802057318
 20
4.949786840425645
 10
30.11854899911117
 20
4.938149881331241
 10
29.7929297608427
 20
4.91872287919773
 10
29.43540181805798
 20
4.70152849352172
 10
29.17345591634097
 20
4.575261222274434
 10
28.98663641691252
 20
4.403611624277345
 10
28.84969696652098
 20
4.226310128312206
 10
28.67705908163674
 20
4.015056695877603
 10
28.53627781964582
 20
3.769060622409767
 10
28.46458648155834
 20
3.497930064177694
 10
28.40108297470425
 20
3.28183743611737
 10
28.35398771091377
 20
3.041030402807223
 10
28.36597007927202
 20
2.780874095348053
 10
28.38312937914947
 20
2.539254235598093
 10
28.45974148051295
 20
2.366773831190926
 10
28.5469890936244
 20
2.243979668736869
 10
28.65382260102928
 20
2.108735512341411
 10
28.77072182070049
 20
2.019163745498303
 10
28.86740701734601
 20
1.85689847078413
 10
29.03665119246222
 20
1.836192251465718
 10
29.14422952328943
 20
1.794980695042454
 10
29.17795251342483
 20
1.782061951090668
 72
     1
 10
29.1779525134246
 20
1.782061951090668
 11
31.90635566072177
 21
1.782061951090724
 72
     1
 10
31.90635566072177
 20
1.782061951090668
 11
32.49403698331935
 21
2.960648509043437
 72
     1
 10
32.49403698331941
 20
2.960648509043437
 11
30.46845823186379
 21
2.960648509043437
 72
     4
 94
        3
 73
     0
 74
     0
 95
       16
 96
       12
 40
0.0
 40
0.0
 40
0.0
 40
0.0
 40
0.2141121027475241
 40
0.4304326162973471
 40
0.5594580803306056
 40
0.6831669452691567
 40
0.8190286678446897
 40
0.9139043619204622
 40
1.003933161420314
 40
1.186498641432482
 40
1.560280494298353
 40
1.560280494298353
 40
1.560280494298353
 40
1.560280494298353
 10
30.46845823186391
 20
2.960648509043437
 10
30.40735963846879
 20
2.978624611086559
 10
30.2845322640714
 20
3.014762225606943
 10
30.27425260468789
 20
3.189944104912854
 10
30.28825715338957
 20
3.314775529002304
 10
30.34690823463126
 20
3.405660095425673
 10
30.41806216907168
 20
3.471790575521367
 10
30.44455593462857
 20
3.557915185941965
 10
30.52243194464864
 20
3.622950041937542
 10
30.66052697686496
 20
3.732264550099898
 10
30.81323617682881
 20
3.755546097864453
 10
30.9158338246271
 20
3.771187801431096
 72
     1
 10
30.91583382462705
 20
3.77118780143121
 11
32.89819805248612
 21
3.77118780143121
 72
     1
 10
32.89819805248612
 20
3.77118780143121
 11
33.48588559853425
 21
4.949786840425701
 97
        8
330
C48
330
C6C
330
C78
330
C71
330
C8C
330
C8B
330
C8D
330
C49
 75
     0
 76
     1
 47
0.0514683685270805
 98
        1
 10
30.86099532083267
 20
4.369765638819899
450
        0
451
        0
460
0.0
461
0.0
452
        0
462
0.0
453
        0
470

  0
LINE
  5
C47
102
{ACAD_REACTORS
330
C4B
330
C45
330
C50
102
}
330
C44
100
AcDbEntity
  8
ROGO
 62
     4
100
AcDbLine
 10
0.0000000000000568
 20
0.0
 30
0.0
 11
33.50513069601385
 21
0.0
 31
0.0
  0
LINE
  5
C48
102
{ACAD_REACTORS
330
C46
102
}
330
C44
100
AcDbEntity
  8
ROGO
 62
     4
100
AcDbLine
 10
30.31359802057415
 20
4.949786840425645
 30
0.0
 11
33.48588559853425
 21
4.949786840425645
 31
0.0
  0
LINE
  5
C49
102
{ACAD_REACTORS
330
C46
102
}
330
C44
100
AcDbEntity
  8
ROGO
 62
     4
100
AcDbLine
 10
33.48588559853425
 20
4.949786840425645
 30
0.0
 11
32.89819805248607
 21
3.77118780143121
 31
0.0
  0
LINE
  5
C4A
102
{ACAD_REACTORS
330
C4B
330
C45
102
}
330
C44
100
AcDbEntity
  8
ROGO
 62
     4
100
AcDbLine
 10
34.14933885635003
 20
4.949786840425645
 30
0.0
 11
31.6812152744804
 21
0.0
 31
0.0
  0
HATCH
  5
C4B
330
C44
100
AcDbEntity
  8
ROGO
 62
     4
100
AcDbHatch
 10
0.0
 20
0.0
 30
0.0
210
0.0
220
0.0
230
1.0
  2
SOLID
 70
     1
 71
     1
 91
        1
 92
        7
 72
     0
 73
     1
 93
        4
 10
31.9286078056424
 20
0.4961422127159381
 10
2.525341286638024
 20
0.4961422127159381
 10
2.30087247590319
 20
-0.0000000000000568
 10
31.68121527448045
 20
-0.0000000000000568
 97
        4
330
C4F
330
C59
330
C47
330
C4A
 75
     0
 76
     1
 47
0.0514683685270805
 98
        1
 10
21.09111831761885
 20
0.3649205710345882
450
        0
451
        0
460
0.0
461
0.0
452
        0
462
0.0
453
        0
470

  0
HATCH
  5
C4C
330
C44
100
AcDbEntity
  8
ROGO
 62
     4
100
AcDbHatch
 10
0.0
 20
0.0
 30
0.0
210
0.0
220
0.0
230
1.0
  2
SOLID
 70
     1
 71
     1
 91
        2
 92
        7
 72
     0
 73
     1
 93
        8
 10
15.99342784516449
 20
4.949786840425645
 10
14.16260675403379
 20
4.949786840425645
 10
11.87829877231911
 20
1.782061951090668
 10
13.63265136986962
 20
1.782061951090668
 10
14.06756947612285
 20
2.38517717067981
 10
16.08846512307536
 20
2.385177170679696
 10
16.52338322932866
 20
1.782061951090668
 10
18.27773582687916
 20
1.782061951090668
 97
        8
330
C4E
330
C56
330
C5B
330
C57
330
C4D
330
C6F
330
C75
330
C6E
 92
       22
 72
     0
 73
     1
 93
        3
 10
15.62974388152605
 20
3.021300979620718
 10
14.52629071767222
 20
3.021300979620718
 10
15.07801729959914
 20
3.786398348131172
 97
        3
330
C7A
330
C79
330
C7B
 75
     0
 76
     1
 47
0.0514683685270805
 98
        2
 10
16.20617981601185
 20
3.326837253266262
 10
16.20617981601185
 20
3.326837253266262
450
        0
451
        0
460
0.0
461
0.0
452
        0
462
0.0
453
        0
470

  0
LINE
  5
C4D
102
{ACAD_REACTORS
330
C4C
102
}
330
C44
100
AcDbEntity
  8
ROGO
 62
     4
100
AcDbLine
 10
14.06756947612285
 20
2.385177170679753
 30
0.0
 11
16.08846512307542
 21
2.385177170679753
 31
0.0
  0
LINE
  5
C4E
102
{ACAD_REACTORS
330
C4C
102
}
330
C44
100
AcDbEntity
  8
ROGO
 62
     4
100
AcDbLine
 10
14.16260675403379
 20
4.949786840425645
 30
0.0
 11
15.99342784516443
 21
4.949786840425645
 31
0.0
  0
LINE
  5
C4F
102
{ACAD_REACTORS
330
C4B
102
}
330
C44
100
AcDbEntity
  8
ROGO
 62
     4
100
AcDbLine
 10
2.490933298034235
 20
0.4961422127159381
 30
0.0
 11
31.92860780564246
 21
0.4961422127159381
 31
0.0
  0
HATCH
  5
C50
330
C44
100
AcDbEntity
  8
ROGO
 62
     4
100
AcDbHatch
 10
0.0
 20
0.0
 30
0.0
210
0.0
220
0.0
230
1.0
  2
SOLID
 70
     1
 71
     1
 91
        2
 92
        5
 93
        6
 72
     4
 94
        3
 73
     0
 74
     0
 95
       18
 96
       14
 40
0.108740278791501
 40
0.108740278791501
 40
0.108740278791501
 40
0.108740278791501
 40
0.6623149649549278
 40
1.384304701649787
 40
2.097394834876493
 40
2.774073369849618
 40
3.428974823686337
 40
4.005208313035923
 40
4.455173659284313
 40
4.720999734343524
 40
5.086034088486724
 40
5.569973738255373
 40
6.060470601257719
 40
6.060470601257719
 40
6.060470601257719
 40
6.060470601257719
 10
5.257971706506339
 20
1.782061951090668
 10
5.409344543521854
 20
1.783189178773909
 10
5.758142655701249
 20
1.785786572703102
 10
6.246108485316483
 20
2.046468641233957
 10
6.708839512865949
 20
2.378558603499755
 10
7.081537876611037
 20
2.793470364329778
 10
7.313740186156906
 20
3.267850878540173
 10
7.349707589953482
 20
3.722501028309523
 10
7.327750373593119
 20
4.082123644518105
 10
7.170855034099304
 20
4.33278953599904
 10
7.007743182975218
 20
4.587189781908875
 10
6.708651203549891
 20
4.807560723981168
 10
6.463588634008544
 20
4.904115955004613
 10
6.338969333173452
 20
4.949786840425758
 72
     1
 10
6.338969333173679
 20
4.949786840425645
 11
2.449108495127859
 21
4.949786840425645
 72
     1
 10
2.449108495127859
 20
4.949786840425645
 11
0.0
 21
-0.0000000000000568
 72
     1
 10
-0.0000000000000568
 20
0.0
 11
2.300872475903247
 21
0.0
 72
     1
 10
2.300872475903304
 20
0.0
 11
3.107127853020472
 21
1.782061951090724
 72
     1
 10
3.107127853020472
 20
1.782061951090668
 11
5.257971706506168
 21
1.782061951090668
 97
        6
330
C52
330
C5C
330
C53
330
C47
330
C59
330
C58
 92
       20
 93
        4
 72
     1
 10
3.604944905315051
 20
2.882384321244217
 11
3.98608604239348
 21
3.724818539558043
 72
     1
 10
3.98608604239348
 20
3.724818539557986
 11
4.965456325034381
 21
3.724818539557986
 72
     4
 94
        3
 73
     0
 74
     0
 95
       15
 96
       11
 40
0.0
 40
0.0
 40
0.0
 40
0.0
 40
0.458245544397197
 40
0.6671803073175111
 40
0.9043351724393449
 40
1.065896092998139
 40
1.321406364485703
 40
1.474450037341961
 40
1.737022829061231
 40
1.824547148828933
 40
1.824547148828933
 40
1.824547148828933
 40
1.824547148828933
 10
4.965456325033528
 20
3.724818539557986
 10
5.104956735089615
 20
3.72545752589923
 10
5.308061659054601
 20
3.726387854865265
 10
5.419126665259284
 20
3.475146476562713
 10
5.369342033880457
 20
3.313386222112512
 10
5.306758694724408
 20
3.147308857819552
 10
5.196159760245848
 20
3.034456783979635
 10
5.047719790425048
 20
2.925761212639713
 10
4.907436925306626
 20
2.912603127013085
 10
4.816198668830168
 20
2.888428084712359
 10
4.793389093792598
 20
2.88238432124416
 72
     1
 10
4.793389093792541
 20
2.882384321244217
 11
3.604944905315051
 21
2.882384321244217
 97
        4
330
C5F
330
C5D
330
C61
330
C5E
 75
     0
 76
     1
 47
0.0514683685270805
 98
        2
 10
2.469899197802817
 20
3.410271770727717
 10
2.469899197802817
 20
3.410271770727717
450
        0
451
        0
460
0.0
461
0.0
452
        0
462
0.0
453
        0
470

  0
HATCH
  5
C51
330
C44
100
AcDbEntity
  8
ROGO
 62
     4
100
AcDbHatch
 10
0.0
 20
0.0
 30
0.0
210
0.0
220
0.0
230
1.0
  2
SOLID
 70
     1
 71
     1
 91
        1
 92
        1
 93
       12
 72
     1
 10
8.637002599138838
 20
4.949786840425645
 11
12.92148229673961
 21
4.949786840425701
 72
     1
 10
12.92148229673961
 20
4.949786840425645
 11
12.56244669050807
 21
4.224155565819216
 72
     1
 10
12.56244669050812
 20
4.224155565819273
 11
10.31063242784853
 21
4.224155565819273
 72
     1
 10
10.31063242784847
 20
4.224155565819273
 11
10.02991119959222
 21
3.656802080167153
 72
     1
 10
10.02991119959228
 20
3.656802080167153
 11
12.28172546225187
 21
3.656802080167153
 72
     1
 10
12.28172546225181
 20
3.656802080167153
 11
11.99387214064069
 21
3.075034230307551
 72
     1
 10
11.99387214064069
 20
3.075034230307551
 11
9.742057877981153
 21
3.075034230307494
 72
     1
 10
9.742057877981153
 20
3.075034230307551
 11
9.461324765337508
 21
2.507656725636252
 72
     1
 10
9.461324765337565
 20
2.507656725636138
 11
11.71313902799716
 21
2.507656725636138
 72
     1
 10
11.71313902799716
 20
2.507656725636138
 11
11.3541214816563
 21
1.782061951090668
 72
     1
 10
11.35412148165636
 20
1.782061951090668
 11
7.06964178405559
 21
1.782061951090668
 72
     1
 10
7.06964178405559
 20
1.782061951090668
 11
8.637002599138838
 21
4.949786840425645
 97
       12
330
C60
330
C62
330
C64
330
C63
330
C65
330
C68
330
C67
330
C69
330
C66
330
C55
330
C5A
330
C54
 75
     0
 76
     1
 98
        1
 10
-166.6183073243049
 20
-214.0842147101267
450
        0
451
        0
460
0.0
461
0.0
452
        0
462
0.0
453
        0
470

  0
SPLINE
  5
C52
102
{ACAD_REACTORS
330
C50
102
}
330
C44
100
AcDbEntity
  8
ROGO
 62
     4
100
AcDbSpline
210
0.0
220
0.0
230
1.0
 70
     8
 71
     3
 72
    18
 73
    14
 74
     0
 42
0.0000000001
 43
0.0000000001
 40
0.1087402787915014
 40
0.1087402787915014
 40
0.1087402787915014
 40
0.1087402787915014
 40
0.5992371417938475
 40
1.083176791562496
 40
1.448211145705696
 40
1.714037220764907
 40
2.164002567013297
 40
2.740236056362883
 40
3.395137510199602
 40
4.071816045172726
 40
4.784906178399433
 40
5.506895915094292
 40
6.060470601257719
 40
6.060470601257719
 40
6.060470601257719
 40
6.060470601257719
 10
6.338969333173452
 20
4.949786840425758
 30
0.0
 10
6.463588634008544
 20
4.904115955004613
 30
0.0
 10
6.708651203549891
 20
4.807560723981168
 30
0.0
 10
7.007743182975218
 20
4.587189781908875
 30
0.0
 10
7.170855034099304
 20
4.33278953599904
 30
0.0
 10
7.327750373593119
 20
4.082123644518105
 30
0.0
 10
7.349707589953482
 20
3.722501028309523
 30
0.0
 10
7.313740186156906
 20
3.267850878540173
 30
0.0
 10
7.081537876611037
 20
2.793470364329778
 30
0.0
 10
6.708839512865949
 20
2.378558603499755
 30
0.0
 10
6.246108485316483
 20
2.046468641233957
 30
0.0
 10
5.758142655701249
 20
1.785786572703102
 30
0.0
 10
5.409344543521854
 20
1.783189178773909
 30
0.0
 10
5.257971706506339
 20
1.782061951090668
 30
0.0
  0
LINE
  5
C53
102
{ACAD_REACTORS
330
C50
102
}
330
C44
100
AcDbEntity
  8
ROGO
 62
     4
100
AcDbLine
 10
2.449108495127859
 20
4.949786840425645
 30
0.0
 11
0.0
 21
0.0
 31
0.0
  0
LINE
  5
C54
102
{ACAD_REACTORS
330
C51
102
}
330
C44
100
AcDbEntity
  8
ROGO
 62
     4
100
AcDbLine
 10
8.637002599138952
 20
4.949786840425645
 30
0.0
 11
7.06964178405559
 21
1.782061951090668
 31
0.0
  0
LINE
  5
C55
102
{ACAD_REACTORS
330
C51
102
}
330
C44
100
AcDbEntity
  8
ROGO
 62
     4
100
AcDbLine
 10
11.71313902799716
 20
2.507656725636195
 30
0.0
 11
11.35412148165636
 21
1.782061951090668
 31
0.0
  0
LINE
  5
C56
102
{ACAD_REACTORS
330
C4C
102
}
330
C44
100
AcDbEntity
  8
ROGO
 62
     4
100
AcDbLine
 10
14.16260675403384
 20
4.949786840425645
 30
0.0
 11
11.87829877231911
 21
1.782061951090668
 31
0.0
  0
LINE
  5
C57
102
{ACAD_REACTORS
330
C4C
102
}
330
C44
100
AcDbEntity
  8
ROGO
 62
     4
100
AcDbLine
 10
14.06756947612285
 20
2.385177170679753
 30
0.0
 11
13.63265136986962
 21
1.782061951090781
 31
0.0
  0
LINE
  5
C58
102
{ACAD_REACTORS
330
C50
102
}
330
C44
100
AcDbEntity
  8
ROGO
 62
     4
100
AcDbLine
 10
5.257971707251897
 20
1.782061951090668
 30
0.0
 11
3.107127853020358
 21
1.782061951090668
 31
0.0
  0
LINE
  5
C59
102
{ACAD_REACTORS
330
C4B
330
C50
102
}
330
C44
100
AcDbEntity
  8
ROGO
 62
     4
100
AcDbLine
 10
3.107127853020472
 20
1.782061951090668
 30
0.0
 11
2.300872475903304
 21
0.0
 31
0.0
  0
LINE
  5
C5A
102
{ACAD_REACTORS
330
C51
102
}
330
C44
100
AcDbEntity
  8
ROGO
 62
     4
100
AcDbLine
 10
7.06964178405559
 20
1.782061951090668
 30
0.0
 11
11.35412148165636
 21
1.782061951090668
 31
0.0
  0
LINE
  5
C5B
102
{ACAD_REACTORS
330
C4C
102
}
330
C44
100
AcDbEntity
  8
ROGO
 62
     4
100
AcDbLine
 10
11.87829877231917
 20
1.782061951090668
 30
0.0
 11
13.63265136986962
 21
1.782061951090668
 31
0.0
  0
LINE
  5
C5C
102
{ACAD_REACTORS
330
C50
102
}
330
C44
100
AcDbEntity
  8
ROGO
 62
     4
100
AcDbLine
 10
2.449108495127859
 20
4.949786840425645
 30
0.0
 11
6.338969333173452
 21
4.949786840425645
 31
0.0
  0
LINE
  5
C5D
102
{ACAD_REACTORS
330
C50
102
}
330
C44
100
AcDbEntity
  8
ROGO
 62
     4
100
AcDbLine
 10
4.965456325033528
 20
3.724818539557986
 30
0.0
 11
3.986086042393537
 21
3.724818539557986
 31
0.0
  0
LINE
  5
C5E
102
{ACAD_REACTORS
330
C50
102
}
330
C44
100
AcDbEntity
  8
ROGO
 62
     4
100
AcDbLine
 10
4.793389093792598
 20
2.88238432124416
 30
0.0
 11
3.604944905315107
 21
2.882384321244217
 31
0.0
  0
LINE
  5
C5F
102
{ACAD_REACTORS
330
C50
102
}
330
C44
100
AcDbEntity
  8
ROGO
 62
     4
100
AcDbLine
 10
3.986086042393537
 20
3.724818539557986
 30
0.0
 11
3.604944905315051
 21
2.882384321244217
 31
0.0
  0
LINE
  5
C60
102
{ACAD_REACTORS
330
C51
102
}
330
C44
100
AcDbEntity
  8
ROGO
 62
     4
100
AcDbLine
 10
8.637002599138838
 20
4.949786840425645
 30
0.0
 11
12.92148229673961
 21
4.949786840425758
 31
0.0
  0
SPLINE
  5
C61
102
{ACAD_REACTORS
330
C50
102
}
330
C44
100
AcDbEntity
  8
ROGO
 62
     4
100
AcDbSpline
210
0.0
220
0.0
230
1.0
 70
     8
 71
     3
 72
    15
 73
    11
 74
     9
 42
0.0000000001
 43
0.0000000001
 44
0.0000000001
 40
0.0
 40
0.0
 40
0.0
 40
0.0
 40
0.3714260192954959
 40
0.5407758541881006
 40
0.7329991907503102
 40
0.8639506649775173
 40
1.071051779626874
 40
1.195099689928134
 40
1.407925254728536
 40
1.478867154939799
 40
1.478867154939799
 40
1.478867154939799
 40
1.478867154939799
 10
4.965456325033528
 20
3.724818539557986
 30
0.0
 10
5.104956735089532
 20
3.725457525899206
 30
0.0
 10
5.308061659054509
 20
3.726387854865235
 30
0.0
 10
5.419126665259303
 20
3.475146476562761
 30
0.0
 10
5.369342033880415
 20
3.31338622211255
 30
0.0
 10
5.306758694724477
 20
3.147308857819524
 30
0.0
 10
5.19615976024584
 20
3.034456783979611
 30
0.0
 10
5.047719790425087
 20
2.925761212639771
 30
0.0
 10
4.907436925306584
 20
2.912603127013052
 30
0.0
 10
4.816198668830153
 20
2.888428084712352
 30
0.0
 10
4.793389093792598
 20
2.88238432124416
 30
0.0
 11
4.965456325033528
 21
3.724818539557986
 31
0.0
 11
5.326797807465993
 21
3.63885563544693
 31
0.0
 11
5.395624897846573
 21
3.484122968540759
 31
0.0
 11
5.361211847366689
 21
3.295005139989939
 31
0.0
 11
5.309591776936599
 21
3.174657074234517
 31
0.0
 11
5.171937596175325
 21
3.019924407328176
 31
0.0
 11
5.068697455314975
 21
2.951154084039387
 31
0.0
 11
4.862216184173178
 21
2.899576902066371
 31
0.0
 11
4.793389093792598
 21
2.88238432124416
 31
0.0
  0
LINE
  5
C62
102
{ACAD_REACTORS
330
C51
102
}
330
C44
100
AcDbEntity
  8
ROGO
 62
     4
100
AcDbLine
 10
12.92148229673961
 20
4.949786840425645
 30
0.0
 11
12.56244669050807
 21
4.224155565819273
 31
0.0
  0
LINE
  5
C63
102
{ACAD_REACTORS
330
C51
102
}
330
C44
100
AcDbEntity
  8
ROGO
 62
     4
100
AcDbLine
 10
10.31063242784847
 20
4.224155565819273
 30
0.0
 11
10.02991119959222
 21
3.656802080167153
 31
0.0
  0
LINE
  5
C64
102
{ACAD_REACTORS
330
C51
102
}
330
C44
100
AcDbEntity
  8
ROGO
 62
     4
100
AcDbLine
 10
10.31063242784847
 20
4.224155565819273
 30
0.0
 11
12.56244669050807
 21
4.224155565819273
 31
0.0
  0
LINE
  5
C65
102
{ACAD_REACTORS
330
C51
102
}
330
C44
100
AcDbEntity
  8
ROGO
 62
     4
100
AcDbLine
 10
10.02991119959222
 20
3.656802080167153
 30
0.0
 11
12.28172546225187
 21
3.656802080167153
 31
0.0
  0
LINE
  5
C66
102
{ACAD_REACTORS
330
C51
102
}
330
C44
100
AcDbEntity
  8
ROGO
 62
     4
100
AcDbLine
 10
9.461324765337565
 20
2.507656725636195
 30
0.0
 11
11.71313902799716
 21
2.507656725636195
 31
0.0
  0
LINE
  5
C67
102
{ACAD_REACTORS
330
C51
102
}
330
C44
100
AcDbEntity
  8
ROGO
 62
     4
100
AcDbLine
 10
9.742057877981153
 20
3.075034230307551
 30
0.0
 11
11.99387214064069
 21
3.075034230307608
 31
0.0
  0
LINE
  5
C68
102
{ACAD_REACTORS
330
C51
102
}
330
C44
100
AcDbEntity
  8
ROGO
 62
     4
100
AcDbLine
 10
12.28172546225187
 20
3.656802080167153
 30
0.0
 11
11.99387214064069
 21
3.075034230307551
 31
0.0
  0
LINE
  5
C69
102
{ACAD_REACTORS
330
C51
102
}
330
C44
100
AcDbEntity
  8
ROGO
 62
     4
100
AcDbLine
 10
9.742057877981153
 20
3.075034230307551
 30
0.0
 11
9.461324765337508
 21
2.507656725636195
 31
0.0
  0
HATCH
  5
C6A
330
C44
100
AcDbEntity
  8
ROGO
 62
     4
100
AcDbHatch
 10
0.0
 20
0.0
 30
0.0
210
0.0
220
0.0
230
1.0
  2
SOLID
 70
     1
 71
     1
 91
        2
 92
        7
 72
     1
 73
     1
 93
        4
 10
26.16568830176476
 20
4.949786840425645
 42
0.0
 10
24.88477496917216
 20
4.949786840425645
 42
0.9597396185052668
 10
24.88477496917204
 20
1.782061951090668
 42
0.0
 10
26.25774038752116
 20
1.782061951090668
 42
0.9713627655772736
 97
        4
330
C8A
330
C72
330
C77
330
C73
 92
       22
 72
     1
 73
     1
 93
        8
 10
25.9709322672415
 20
3.347576112203057
 42
0.0
 10
25.92877650574593
 20
3.045974519724552
 42
-0.3696060376523694
 10
25.58588379175427
 20
2.870057733155022
 42
0.0
 10
25.47108749766136
 20
2.886103156372541
 42
-0.3541938351274232
 10
25.17427477727125
 20
3.157453445413239
 42
0.0
 10
25.21643053876682
 20
3.459055037891914
 42
-0.3439742752229287
 10
25.58698051573322
 20
3.668449396631842
 42
0.0
 10
25.69536003945933
 20
3.653300864703851
 42
-0.3460733018205655
 97
        8
330
C82
330
C88
330
C84
330
C87
330
C83
330
C86
330
C81
330
C85
 75
     0
 76
     1
 47
0.0514683685270805
 98
        2
 10
26.4770758482868
 20
3.660574202124962
 10
26.4770758482868
 20
3.660574202124962
450
        0
451
        0
460
0.0
461
0.0
452
        0
462
0.0
453
        0
470

  0
HATCH
  5
C6B
330
C44
100
AcDbEntity
  8
ROGO
 62
     4
100
AcDbHatch
 10
0.0
 20
0.0
 30
0.0
210
0.0
220
0.0
230
1.0
  2
SOLID
 70
     1
 71
     1
 91
        1
 92
        5
 93
        8
 72
     1
 10
23.27919423493069
 20
4.949786840425645
 11
20.10690665697018
 21
4.949786840425701
 72
     4
 94
        3
 73
     0
 74
     0
 95
       26
 96
       22
 40
0.0
 40
0.0
 40
0.0
 40
0.0
 40
0.7089867102952115
 40
1.183598414482279
 40
1.525832104103439
 40
1.781366926528389
 40
2.112809002752968
 40
2.354729406992515
 40
2.791581270399936
 40
3.147172406765291
 40
3.389031356825354
 40
3.626186440486682
 40
4.050410779375985
 40
4.350388020238963
 40
4.511948940797758
 40
4.741441456013356
 40
4.907163150576407
 40
5.147239172635527
 40
5.28310143501293
 40
5.578752957634333
 40
5.713750011164293
 40
5.713750011164293
 40
5.713750011164293
 40
5.713750011164293
 10
20.10690665696961
 20
4.949786840425645
 10
19.9118576355076
 20
4.938149881331241
 10
19.58623839723913
 20
4.91872287919773
 10
19.22871045445441
 20
4.701528493521777
 10
18.9667645527374
 20
4.575261222274434
 10
18.77994505330895
 20
4.403611624277402
 10
18.64300560291741
 20
4.226310128312206
 10
18.47036771803317
 20
4.01505669587766
 10
18.32958645604225
 20
3.769060622409824
 10
18.25789511795477
 20
3.497930064177751
 10
18.19439161110068
 20
3.281837436117484
 10
18.14729634731026
 20
3.041030402807223
 10
18.15927871566845
 20
2.780874095348053
 10
18.1764380155459
 20
2.53925423559815
 10
18.25305011690938
 20
2.366773831190926
 10
18.34029773002083
 20
2.243979668736869
 10
18.44713123742571
 20
2.108735512341468
 10
18.56403045709697
 20
2.019163745498303
 10
18.66071565374244
 20
1.85689847078413
 10
18.82995982885865
 20
1.836192251465718
 10
18.93753815968586
 20
1.794980695042511
 10
18.97126114982126
 20
1.782061951090668
 72
     1
 10
18.97126114982103
 20
1.782061951090668
 11
21.6996642971182
 21
1.782061951090724
 72
     1
 10
21.6996642971182
 20
1.782061951090781
 11
22.28734561971584
 21
2.960648509043551
 72
     1
 10
22.28734561971584
 20
2.960648509043494
 11
20.26176686826005
 21
2.960648509043494
 72
     4
 94
        3
 73
     0
 74
     0
 95
       16
 96
       12
 40
0.0
 40
0.0
 40
0.0
 40
0.0
 40
0.2141121027475241
 40
0.4304326162973471
 40
0.5594580803306056
 40
0.6831669452691567
 40
0.8190286678446897
 40
0.9139043619204622
 40
1.003933161420314
 40
1.186498641432482
 40
1.560280494298353
 40
1.560280494298353
 40
1.560280494298353
 40
1.560280494298353
 10
20.26176686826034
 20
2.960648509043494
 10
20.20066827486522
 20
2.978624611086615
 10
20.07784090046783
 20
3.014762225607
 10
20.06756124108432
 20
3.18994410491291
 10
20.081565789786
 20
3.314775529002361
 10
20.14021687102769
 20
3.40566009542573
 10
20.21137080546811
 20
3.471790575521481
 10
20.237864571025
 20
3.557915185942079
 10
20.31574058104508
 20
3.622950041937542
 10
20.45383561326139
 20
3.732264550099955
 10
20.60654481322524
 20
3.755546097864453
 10
20.70914246102353
 20
3.77118780143121
 72
     1
 10
20.70914246102353
 20
3.77118780143121
 11
22.69150668888256
 21
3.771187801431267
 72
     1
 10
22.69150668888256
 20
3.77118780143121
 11
23.27919423493069
 21
4.949786840425645
 97
        8
330
C80
330
C6D
330
C74
330
C70
330
C7F
330
C7C
330
C7E
330
C7D
 75
     0
 76
     1
 47
0.0514683685270805
 98
        1
 10
21.21637307488407
 20
4.244614142874524
450
        0
451
        0
460
0.0
461
0.0
452
        0
462
0.0
453
        0
470

  0
SPLINE
  5
C6C
102
{ACAD_REACTORS
330
C46
102
}
330
C44
100
AcDbEntity
  8
ROGO
 62
     4
100
AcDbSpline
210
0.0
220
0.0
230
1.0
 70
     8
 71
     3
 72
    26
 73
    22
 74
    20
 42
0.0000000001
 43
0.0000000001
 44
0.0000000001
 40
0.0
 40
0.0
 40
0.0
 40
0.0
 40
0.5746615864749196
 40
0.9593530213456462
 40
1.236746873962384
 40
1.443867888111121
 40
1.712514714041724
 40
1.90860070730817
 40
2.262686307552686
 40
2.55090689560158
 40
2.746943077840944
 40
2.939166591537864
 40
3.283017086994854
 40
3.526160427536374
 40
3.657111901763582
 40
3.843124602654698
 40
3.97744854769916
 40
4.172039596738211
 40
4.282161298747791
 40
4.521798474686698
 40
4.631218890929293
 40
4.631218890929293
 40
4.631218890929293
 40
4.631218890929293
 10
30.31359802057318
 20
4.949786840425645
 30
0.0
 10
30.11854899911117
 20
4.938149881331216
 30
0.0
 10
29.79292976084273
 20
4.918722879197668
 30
0.0
 10
29.43540181805795
 20
4.701528493521752
 30
0.0
 10
29.17345591634098
 20
4.575261222274342
 30
0.0
 10
28.98663641691248
 20
4.403611624277403
 30
0.0
 10
28.84969696652104
 20
4.226310128312151
 30
0.0
 10
28.67705908163667
 20
4.015056695877607
 30
0.0
 10
28.53627781964588
 20
3.769060622409776
 30
0.0
 10
28.46458648155826
 20
3.49793006417775
 30
0.0
 10
28.40108297470428
 20
3.28183743611741
 30
0.0
 10
28.35398771091379
 20
3.041030402807234
 30
0.0
 10
28.36597007927193
 20
2.780874095348088
 30
0.0
 10
28.38312937914937
 20
2.539254235598058
 30
0.0
 10
28.45974148051292
 20
2.366773831190866
 30
0.0
 10
28.54698909362438
 20
2.243979668736892
 30
0.0
 10
28.65382260102934
 20
2.108735512341419
 30
0.0
 10
28.77072182070049
 20
2.019163745498228
 30
0.0
 10
28.86740701734603
 20
1.85689847078413
 30
0.0
 10
29.03665119246222
 20
1.836192251465618
 30
0.0
 10
29.14422952328949
 20
1.794980695042471
 30
0.0
 10
29.17795251342483
 20
1.782061951090668
 30
0.0
 11
30.31359802057318
 21
4.949786840425645
 31
0.0
 11
29.74577526699892
 21
4.861394196539322
 31
0.0
 11
29.40163981509602
 21
4.689468948810883
 31
0.0
 11
29.1607454934744
 21
4.551928862726811
 31
0.0
 11
29.00588528218367
 21
4.414388216149177
 31
0.0
 11
28.83381805094274
 21
4.208077806776145
 31
0.0
 11
28.7133708901319
 21
4.053345139869975
 31
0.0
 11
28.54130266946999
 21
3.743879245563732
 31
0.0
 11
28.45526954855979
 21
3.468798512902026
 31
0.0
 11
28.4036494781297
 21
3.279680684351205
 31
0.0
 11
28.36923543822883
 21
3.090562855800612
 31
0.0
 11
28.36923543822883
 21
2.746712360343622
 31
0.0
 11
28.4036494781297
 21
2.506016789326224
 31
0.0
 11
28.45526954855979
 21
2.385668723570802
 31
0.0
 11
28.55850968942019
 21
2.230936056664518
 31
0.0
 11
28.64454379975138
 21
2.127780571731193
 31
0.0
 11
28.78219699109144
 21
1.99024048564712
 31
0.0
 11
28.85102408147219
 21
1.904277581536064
 31
0.0
 11
29.07471237256442
 21
1.818315237918568
 31
0.0
 11
29.17795251342483
 21
1.782061951090668
 31
0.0
  0
SPLINE
  5
C6D
102
{ACAD_REACTORS
330
C6B
102
}
330
C44
100
AcDbEntity
  8
ROGO
 62
     4
100
AcDbSpline
210
0.0
220
0.0
230
1.0
 70
     8
 71
     3
 72
    26
 73
    22
 74
    20
 42
0.0000000001
 43
0.0000000001
 44
0.0000000001
 40
0.0
 40
0.0
 40
0.0
 40
0.0
 40
0.5746615864749109
 40
0.9593530213456375
 40
1.236746873962375
 40
1.44386788811115
 40
1.71251471404171
 40
1.9086007073082
 40
2.262686307552666
 40
2.550906895601598
 40
2.746943077840867
 40
2.939166591537899
 40
3.28301708699489
 40
3.526160427536353
 40
3.657111901763635
 40
3.843124602654719
 40
3.977448547699138
 40
4.172039596738189
 40
4.282161298747769
 40
4.521798474686655
 40
4.631218890929288
 40
4.631218890929288
 40
4.631218890929288
 40
4.631218890929288
 10
20.10690665696961
 20
4.949786840425645
 30
0.0
 10
19.91185763550759
 20
4.938149881331241
 30
0.0
 10
19.58623839723914
 20
4.918722879197736
 30
0.0
 10
19.22871045445439
 20
4.701528493521801
 30
0.0
 10
18.96676455273739
 20
4.575261222274411
 30
0.0
 10
18.77994505330897
 20
4.4036116242774
 30
0.0
 10
18.64300560291743
 20
4.226310128312206
 30
0.0
 10
18.47036771803315
 20
4.015056695877609
 30
0.0
 10
18.32958645604223
 20
3.769060622409829
 30
0.0
 10
18.25789511795483
 20
3.497930064177774
 30
0.0
 10
18.19439161110065
 20
3.281837436117467
 30
0.0
 10
18.14729634731024
 20
3.041030402807263
 30
0.0
 10
18.15927871566836
 20
2.780874095348114
 30
0.0
 10
18.17643801554578
 20
2.539254235598062
 30
0.0
 10
18.25305011690943
 20
2.366773831190911
 30
0.0
 10
18.3402977300208
 20
2.243979668736876
 30
0.0
 10
18.44713123742579
 20
2.10873551234148
 30
0.0
 10
18.56403045709692
 20
2.019163745498289
 30
0.0
 10
18.66071565374245
 20
1.856898470784175
 30
0.0
 10
18.82995982885869
 20
1.836192251465799
 30
0.0
 10
18.93753815968592
 20
1.794980695042517
 30
0.0
 10
18.97126114982126
 20
1.782061951090668
 30
0.0
 11
20.10690665696961
 21
4.949786840425645
 31
0.0
 11
19.53908390339535
 21
4.861394196539379
 31
0.0
 11
19.19494845149245
 21
4.68946894881094
 31
0.0
 11
18.95405412987082
 21
4.551928862726867
 31
0.0
 11
18.7991939185801
 21
4.414388216149177
 31
0.0
 11
18.62712668733917
 21
4.208077806776202
 31
0.0
 11
18.50667952652833
 21
4.053345139869975
 31
0.0
 11
18.33461130586641
 21
3.743879245563789
 31
0.0
 11
18.24857818495627
 21
3.468798512902026
 31
0.0
 11
18.19695811452612
 21
3.279680684351319
 31
0.0
 11
18.16254407462526
 21
3.090562855800612
 31
0.0
 11
18.16254407462526
 21
2.746712360343622
 31
0.0
 11
18.19695811452612
 21
2.506016789326281
 31
0.0
 11
18.24857818495627
 21
2.385668723570802
 31
0.0
 11
18.35181832581662
 21
2.230936056664518
 31
0.0
 11
18.43785243614781
 21
2.12778057173125
 31
0.0
 11
18.57550562748787
 21
1.990240485647177
 31
0.0
 11
18.64433271786862
 21
1.904277581536121
 31
0.0
 11
18.86802100896085
 21
1.818315237918682
 31
0.0
 11
18.97126114982126
 21
1.782061951090668
 31
0.0
  0
LINE
  5
C6E
102
{ACAD_REACTORS
330
C4C
102
}
330
C44
100
AcDbEntity
  8
ROGO
 62
     4
100
AcDbLine
 10
15.99342784516443
 20
4.949786840425645
 30
0.0
 11
18.27773582687916
 21
1.782061951090668
 31
0.0
  0
LINE
  5
C6F
102
{ACAD_REACTORS
330
C4C
102
}
330
C44
100
AcDbEntity
  8
ROGO
 62
     4
100
AcDbLine
 10
16.08846512307542
 20
2.385177170679753
 30
0.0
 11
16.52338322932866
 21
1.782061951090781
 31
0.0
  0
LINE
  5
C70
102
{ACAD_REACTORS
330
C6B
102
}
330
C44
100
AcDbEntity
  8
ROGO
 62
     4
100
AcDbLine
 10
22.28734561971584
 20
2.960648509043494
 30
0.0
 11
21.69966429711815
 21
1.782061951090668
 31
0.0
  0
LINE
  5
C71
102
{ACAD_REACTORS
330
C46
102
}
330
C44
100
AcDbEntity
  8
ROGO
 62
     4
100
AcDbLine
 10
32.49403698331935
 20
2.960648509043494
 30
0.0
 11
31.90635566072177
 21
1.782061951090611
 31
0.0
  0
ARC
  5
C72
102
{ACAD_REACTORS
330
C6A
102
}
330
C44
100
AcDbEntity
  8
ROGO
 62
     4
100
AcDbCircle
 10
24.94987936318324
 20
3.365924395758156
 30
0.0
 40
1.585199932421021
100
AcDbArc
 50
92.3538081120337
 51
270.0
  0
ARC
  5
C73
102
{ACAD_REACTORS
330
C6A
102
}
330
C44
100
AcDbEntity
  8
ROGO
 62
     4
100
AcDbCircle
 10
26.16568830176476
 20
3.364586908004639
 30
0.0
 40
1.585199932421021
100
AcDbArc
 50
273.3290215232082
 51
90.0000000000006
  0
LINE
  5
C74
102
{ACAD_REACTORS
330
C6B
102
}
330
C44
100
AcDbEntity
  8
ROGO
 62
     4
100
AcDbLine
 10
18.97126114982109
 20
1.782061951090668
 30
0.0
 11
21.6996642971182
 21
1.782061951090668
 31
0.0
  0
LINE
  5
C75
102
{ACAD_REACTORS
330
C4C
102
}
330
C44
100
AcDbEntity
  8
ROGO
 62
     4
100
AcDbLine
 10
18.27773582687911
 20
1.782061951090668
 30
0.0
 11
16.52338322932866
 21
1.782061951090668
 31
0.0
  0
LINE
  5
C76
330
C44
100
AcDbEntity
  8
ROGO
 62
     4
100
AcDbLine
 10
24.8847749691733
 20
1.782061951090668
 30
0.0
 11
26.25774038752019
 21
1.782061951090668
 31
0.0
  0
LINE
  5
C77
102
{ACAD_REACTORS
330
C6A
102
}
330
C44
100
AcDbEntity
  8
ROGO
 62
     4
100
AcDbLine
 10
24.8847749691721
 20
1.782061951090668
 30
0.0
 11
26.25774038752121
 21
1.782061951090668
 31
0.0
  0
LINE
  5
C78
102
{ACAD_REACTORS
330
C46
102
}
330
C44
100
AcDbEntity
  8
ROGO
 62
     4
100
AcDbLine
 10
29.1779525134246
 20
1.782061951090668
 30
0.0
 11
31.90635566072177
 21
1.782061951090668
 31
0.0
  0
LINE
  5
C79
102
{ACAD_REACTORS
330
C4C
102
}
330
C44
100
AcDbEntity
  8
ROGO
 62
     4
100
AcDbLine
 10
15.07801729959914
 20
3.786398348131228
 30
0.0
 11
14.52629071767222
 21
3.021300979620718
 31
0.0
  0
LINE
  5
C7A
102
{ACAD_REACTORS
330
C4C
102
}
330
C44
100
AcDbEntity
  8
ROGO
 62
     4
100
AcDbLine
 10
14.52629071767222
 20
3.021300979620775
 30
0.0
 11
15.62974388152599
 21
3.021300979620775
 31
0.0
  0
LINE
  5
C7B
102
{ACAD_REACTORS
330
C4C
102
}
330
C44
100
AcDbEntity
  8
ROGO
 62
     4
100
AcDbLine
 10
15.07801729959914
 20
3.786398348131228
 30
0.0
 11
15.62974388152599
 21
3.021300979620718
 31
0.0
  0
SPLINE
  5
C7C
102
{ACAD_REACTORS
330
C6B
102
}
330
C44
100
AcDbEntity
  8
ROGO
 62
     4
100
AcDbSpline
210
0.0
220
0.0
230
1.0
 70
     8
 71
     3
 72
    16
 73
    12
 74
    10
 42
0.0000000001
 43
0.0000000001
 44
0.0000000001
 40
0.0
 40
0.0
 40
0.0
 40
0.0
 40
0.3029648785292891
 40
0.4509413735127203
 40
0.5239132529538693
 40
0.6008137308948465
 40
0.7109349953737907
 40
0.8112058912231434
 40
0.9157860995406091
 40
1.091122375522293
 40
1.264668647774888
 40
1.264668647774888
 40
1.264668647774888
 40
1.264668647774888
 10
20.70914246102353
 20
3.77118780143121
 30
0.0
 10
20.60654481322523
 20
3.75554609786451
 30
0.0
 10
20.45383561326141
 20
3.732264550100005
 30
0.0
 10
20.31574058104511
 20
3.622950041937553
 30
0.0
 10
20.237864571025
 20
3.557915185941986
 30
0.0
 10
20.21137080546809
 20
3.471790575521536
 30
0.0
 10
20.14021687102763
 20
3.405660095425645
 30
0.0
 10
20.08156578978607
 20
3.314775529002434
 30
0.0
 10
20.06756124108431
 20
3.189944104912836
 30
0.0
 10
20.07784090046788
 20
3.014762225607029
 30
0.0
 10
20.2006682748652
 20
2.978624611086606
 30
0.0
 10
20.26176686826034
 20
2.960648509043494
 30
0.0
 11
20.70914246102353
 21
3.77118780143121
 31
0.0
 11
20.41662806897176
 21
3.692301503097155
 31
0.0
 11
20.29618090816098
 21
3.606339159479716
 31
0.0
 11
20.24456083773083
 21
3.554761417013025
 31
0.0
 11
20.21014679782997
 21
3.48599109372418
 31
0.0
 11
20.14131970744944
 21
3.400028750106798
 31
0.0
 11
20.08969963701918
 21
3.314065845995742
 31
0.0
 11
20.07249261706875
 21
3.210910921556092
 31
0.0
 11
20.10690665696961
 21
3.038985113333978
 31
0.0
 11
20.26176686826034
 21
2.960648509043494
 31
0.0
  0
LINE
  5
C7D
102
{ACAD_REACTORS
330
C6B
102
}
330
C44
100
AcDbEntity
  8
ROGO
 62
     4
100
AcDbLine
 10
23.27919423493069
 20
4.949786840425645
 30
0.0
 11
22.69150668888256
 21
3.77118780143121
 31
0.0
  0
LINE
  5
C7E
102
{ACAD_REACTORS
330
C6B
102
}
330
C44
100
AcDbEntity
  8
ROGO
 62
     4
100
AcDbLine
 10
20.70914246102342
 20
3.77118780143121
 30
0.0
 11
22.69150668888256
 21
3.771187801431267
 31
0.0
  0
LINE
  5
C7F
102
{ACAD_REACTORS
330
C6B
102
}
330
C44
100
AcDbEntity
  8
ROGO
 62
     4
100
AcDbLine
 10
20.26176686826017
 20
2.960648509043494
 30
0.0
 11
22.28734561971584
 21
2.960648509043494
 31
0.0
  0
LINE
  5
C80
102
{ACAD_REACTORS
330
C6B
102
}
330
C44
100
AcDbEntity
  8
ROGO
 62
     4
100
AcDbLine
 10
20.10690665697052
 20
4.949786840425758
 30
0.0
 11
23.27919423493069
 21
4.949786840425758
 31
0.0
  0
LINE
  5
C81
102
{ACAD_REACTORS
330
C6A
102
}
330
C44
100
AcDbEntity
  8
ROGO
 62
     4
100
AcDbLine
 10
25.58056374536529
 20
3.669346287921371
 30
0.0
 11
25.69536003945927
 21
3.653300864703908
 31
0.0
  0
LINE
  5
C82
102
{ACAD_REACTORS
330
C6A
102
}
330
C44
100
AcDbEntity
  8
ROGO
 62
     4
100
AcDbLine
 10
25.97093226724161
 20
3.347576112203455
 30
0.0
 11
25.92877650574604
 21
3.04597451972495
 31
0.0
  0
LINE
  5
C83
102
{ACAD_REACTORS
330
C6A
102
}
330
C44
100
AcDbEntity
  8
ROGO
 62
     4
100
AcDbLine
 10
25.17427477727125
 20
3.157453445413295
 30
0.0
 11
25.21643053876682
 21
3.45905503789163
 31
0.0
  0
LINE
  5
C84
102
{ACAD_REACTORS
330
C6A
102
}
330
C44
100
AcDbEntity
  8
ROGO
 62
     4
100
AcDbLine
 10
25.4710874976596
 20
2.886103156372769
 30
0.0
 11
25.58588379175365
 21
2.870057733155078
 31
0.0
  0
ARC
  5
C85
102
{ACAD_REACTORS
330
C6A
102
}
330
C44
100
AcDbEntity
  8
ROGO
 62
     4
100
AcDbCircle
 10
25.6387443480632
 20
3.325209828916854
 30
0.0
 40
0.3329400310507254
100
AcDbArc
 50
3.851923331663601
 51
80.20940670206341
  0
ARC
  5
C86
102
{ACAD_REACTORS
330
C6A
102
}
330
C44
100
AcDbEntity
  8
ROGO
 62
     4
100
AcDbCircle
 10
25.53588647264388
 20
3.326301951055086
 30
0.0
 40
0.3459414339941871
100
AcDbArc
 50
82.57970078354313
 51
157.4341870372611
  0
ARC
  5
C87
102
{ACAD_REACTORS
330
C6A
102
}
330
C44
100
AcDbEntity
  8
ROGO
 62
     4
100
AcDbCircle
 10
25.49018017588719
 20
3.204994782556525
 30
0.0
 40
0.3194626732688521
100
AcDbArc
 50
188.5583509056651
 51
266.5736774635929
  0
ARC
  5
C88
102
{ACAD_REACTORS
330
C6A
102
}
330
C44
100
AcDbEntity
  8
ROGO
 62
     4
100
AcDbCircle
 10
25.6545957362211
 20
3.158263540113921
 30
0.0
 40
0.2962835103026008
100
AcDbArc
 50
256.5902863289752
 51
337.7287536965499
  0
LINE
  5
C89
330
C44
100
AcDbEntity
  8
ROGO
 62
     4
100
AcDbLine
 10
24.88477496917261
 20
4.949786840425645
 30
0.0
 11
25.78248633299404
 21
4.949786840425645
 31
0.0
  0
LINE
  5
C8A
102
{ACAD_REACTORS
330
C6A
102
}
330
C44
100
AcDbEntity
  8
ROGO
 62
     4
100
AcDbLine
 10
24.88477496917216
 20
4.949786840425645
 30
0.0
 11
26.16568830176476
 21
4.949786840425645
 31
0.0
  0
SPLINE
  5
C8B
102
{ACAD_REACTORS
330
C46
102
}
330
C44
100
AcDbEntity
  8
ROGO
 62
     4
100
AcDbSpline
210
0.0
220
0.0
230
1.0
 70
     8
 71
     3
 72
    16
 73
    12
 74
    10
 42
0.0000000001
 43
0.0000000001
 44
0.0000000001
 40
0.0
 40
0.0
 40
0.0
 40
0.0
 40
0.3029648785292594
 40
0.4509413735127369
 40
0.5239132529538859
 40
0.6008137308948632
 40
0.710934995373763
 40
0.811205891223145
 40
0.9157860995407135
 40
1.091122375522274
 40
1.264668647774946
 40
1.264668647774946
 40
1.264668647774946
 40
1.264668647774946
 10
30.9158338246271
 20
3.771187801431096
 30
0.0
 10
30.81323617682881
 20
3.755546097864422
 30
0.0
 10
30.660526976865
 20
3.732264550099954
 30
0.0
 10
30.5224319446486
 20
3.62295004193761
 30
0.0
 10
30.44455593462858
 20
3.557915185941908
 30
0.0
 10
30.41806216907167
 20
3.4717905755215
 30
0.0
 10
30.34690823463119
 20
3.405660095425618
 30
0.0
 10
30.28825715338954
 20
3.314775529002425
 30
0.0
 10
30.27425260468793
 20
3.189944104912787
 30
0.0
 10
30.28453226407141
 20
3.014762225606994
 30
0.0
 10
30.40735963846873
 20
2.978624611086564
 30
0.0
 10
30.46845823186391
 20
2.960648509043437
 30
0.0
 11
30.9158338246271
 21
3.771187801431096
 31
0.0
 11
30.62331943257533
 21
3.692301503097155
 31
0.0
 11
30.50287227176449
 21
3.606339159479716
 31
0.0
 11
30.4512522013344
 21
3.554761417012969
 31
0.0
 11
30.41683816143353
 21
3.485991093724123
 31
0.0
 11
30.34801107105301
 21
3.400028750106798
 31
0.0
 11
30.29639100062269
 21
3.314065845995742
 31
0.0
 11
30.27918398067232
 21
3.210910921555978
 31
0.0
 11
30.31359802057313
 21
3.038985113333978
 31
0.0
 11
30.46845823186391
 21
2.960648509043437
 31
0.0
  0
LINE
  5
C8C
102
{ACAD_REACTORS
330
C46
102
}
330
C44
100
AcDbEntity
  8
ROGO
 62
     4
100
AcDbLine
 10
30.46845823186379
 20
2.960648509043494
 30
0.0
 11
32.49403698331941
 21
2.960648509043494
 31
0.0
  0
LINE
  5
C8D
102
{ACAD_REACTORS
330
C46
102
}
330
C44
100
AcDbEntity
  8
ROGO
 62
     4
100
AcDbLine
 10
30.91583382462699
 20
3.77118780143121
 30
0.0
 11
32.89819805248607
 21
3.77118780143121
 31
0.0
  0
LINE
  5
C8E
102
{ACAD_REACTORS
330
C45
102
}
330
C44
100
AcDbEntity
  8
ROGO
 62
     4
100
AcDbLine
 10
35.38336074148231
 20
2.474893420212765
 30
0.0
 11
36.6174225324171
 21
0.0
 31
0.0
  0
LINE
  5
C8F
102
{ACAD_REACTORS
330
C45
102
}
330
C44
100
AcDbEntity
  8
ROGO
 62
     4
100
AcDbLine
 10
34.14933885635003
 20
1.291950329372127
 30
0.0
 11
34.79354701668626
 21
0.0
 31
0.0
  0
LINE
  5
C90
102
{ACAD_REACTORS
330
C45
102
}
330
C44
100
AcDbEntity
  8
ROGO
 62
     4
100
AcDbLine
 10
34.14933885635008
 20
1.29195032937207
 30
0.0
 11
33.50513069601385
 21
0.0
 31
0.0
  0
LINE
  5
C91
102
{ACAD_REACTORS
330
C45
102
}
330
C44
100
AcDbEntity
  8
ROGO
 62
     4
100
AcDbLine
 10
34.79354701668626
 20
0.0
 30
0.0
 11
36.6174225324171
 21
0.0
 31
0.0
  0
LINE
  5
C92
102
{ACAD_REACTORS
330
C45
102
}
330
C44
100
AcDbEntity
  8
ROGO
 62
     4
100
AcDbLine
 10
35.38336074148231
 20
2.474893420212765
 30
0.0
 11
38.38165352405161
 21
4.949786840425645
 31
0.0
  0
LINE
  5
C93
102
{ACAD_REACTORS
330
C45
102
}
330
C44
100
AcDbEntity
  8
ROGO
 62
     4
100
AcDbLine
 10
36.55777800832078
 20
4.949786840425645
 30
0.0
 11
38.38165352405156
 21
4.949786840425645
 31
0.0
  0
LINE
  5
C94
102
{ACAD_REACTORS
330
C45
102
}
330
C44
100
AcDbEntity
  8
ROGO
 62
     4
100
AcDbLine
 10
34.14933885635003
 20
4.949786840425645
 30
0.0
 11
35.97325427788326
 21
4.949786840425588
 31
0.0
  0
LINE
  5
C95
102
{ACAD_REACTORS
330
C45
102
}
330
C44
100
AcDbEntity
  8
ROGO
 62
     4
100
AcDbLine
 10
35.97325427788326
 20
4.949786840425588
 30
0.0
 11
35.70378540756269
 21
4.409370842614521
 31
0.0
  0
LINE
  5
C96
102
{ACAD_REACTORS
330
C45
102
}
330
C44
100
AcDbEntity
  8
ROGO
 62
     4
100
AcDbLine
 10
35.70378540756269
 20
4.409370842614521
 30
0.0
 11
36.55777800832078
 21
4.949786840425645
 31
0.0
  0
ENDBLK
  5
C98
330
C44
100
AcDbEntity
  8
0
100
AcDbBlockEnd
  0
BLOCK
  5
CD6
330
CD5
100
AcDbEntity
  8
0
100
AcDbBlockBegin
  2
*D12
 70
     1
 10
0.0
 20
0.0
 30
0.0
  3
*D12
  1

  0
LINE
  5
CD7
330
CD5
100
AcDbEntity
  8
0
  6
ByBlock
 62
     2
100
AcDbLine
 10
-8.020994596902028
 20
115.8388548154308
 30
0.0
 11
-13.12242377583061
 21
115.8388548154308
 31
0.0
  0
LINE
  5
CD8
330
CD5
100
AcDbEntity
  8
0
  6
ByBlock
 62
     2
100
AcDbLine
 10
-6.991832323772769
 20
122.8388548154308
 30
0.0
 11
-13.12242377583061
 21
122.8388548154308
 31
0.0
  0
LINE
  5
CD9
330
CD5
100
AcDbEntity
  8
0
  6
ByBlock
 62
     2
100
AcDbLine
 10
-11.87242377583061
 20
118.3388548154308
 30
0.0
 11
-11.87242377583061
 21
120.3388548154308
 31
0.0
  0
INSERT
  5
CDA
330
CD5
100
AcDbEntity
  8
0
  6
ByBlock
 62
     2
100
AcDbBlockReference
  2
_OPEN
 10
-11.87242377583061
 20
115.8388548154308
 30
0.0
 41
2.5
 42
2.5
 43
2.5
 50
270.0
  0
INSERT
  5
CDB
330
CD5
100
AcDbEntity
  8
0
  6
ByBlock
 62
     2
100
AcDbBlockReference
  2
_OPEN
 10
-11.87242377583061
 20
122.8388548154308
 30
0.0
 41
2.5
 42
2.5
 43
2.5
 50
90.0
  0
MTEXT
  5
CDC
330
CD5
100
AcDbEntity
  8
0
  6
ByBlock
 62
     6
100
AcDbMText
 10
-13.74742377583061
 20
119.3388548154308
 30
0.0
 40
2.5
 41
0.0
 71
     5
 72
     1
  1
\A1;7
  7
STYLE3
 11
0.0000000000000001
 21
1.0
 31
0.0
 73
     1
 44
1.0
  0
POINT
  5
CDD
330
CD5
100
AcDbEntity
  8
DEFPOINTS
  6
ByBlock
 62
     0
100
AcDbPoint
 10
-8.020994596902028
 20
115.8388548154308
 30
0.0
  0
POINT
  5
CDE
330
CD5
100
AcDbEntity
  8
DEFPOINTS
  6
ByBlock
 62
     0
100
AcDbPoint
 10
-6.991832323772769
 20
122.8388548154308
 30
0.0
  0
POINT
  5
CDF
330
CD5
100
AcDbEntity
  8
DEFPOINTS
  6
ByBlock
 62
     0
100
AcDbPoint
 10
-11.87242377583061
 20
122.8388548154308
 30
0.0
  0
ENDBLK
  5
CE0
330
CD5
100
AcDbEntity
  8
0
100
AcDbBlockEnd
  0
BLOCK
  5
D10
330
D0F
100
AcDbEntity
  8
0
100
AcDbBlockBegin
  2
*D13
 70
     1
 10
0.0
 20
0.0
 30
0.0
  3
*D13
  1

  0
LINE
  5
D11
330
D0F
100
AcDbEntity
  8
0
  6
ByBlock
 62
     2
100
AcDbLine
 10
-29.51125943162924
 20
187.3388548154308
 30
0.0
 11
-32.76494291452457
 21
187.3388548154308
 31
0.0
  0
LINE
  5
D12
330
D0F
100
AcDbEntity
  8
0
  6
ByBlock
 62
     2
100
AcDbLine
 10
-26.54999880871902
 20
139.3388548154308
 30
0.0
 11
-32.76494291452458
 21
139.3388548154308
 31
0.0
  0
LINE
  5
D13
330
D0F
100
AcDbEntity
  8
0
  6
ByBlock
 62
     2
100
AcDbLine
 10
-31.51494291452457
 20
184.8388548154308
 30
0.0
 11
-31.51494291452457
 21
141.8388548154307
 31
0.0
  0
INSERT
  5
D14
330
D0F
100
AcDbEntity
  8
0
  6
ByBlock
 62
     2
100
AcDbBlockReference
  2
_OPEN
 10
-31.51494291452457
 20
187.3388548154308
 30
0.0
 41
2.5
 42
2.5
 43
2.5
 50
90.0
  0
INSERT
  5
D15
330
D0F
100
AcDbEntity
  8
0
  6
ByBlock
 62
     2
100
AcDbBlockReference
  2
_OPEN
 10
-31.51494291452457
 20
139.3388548154308
 30
0.0
 41
2.5
 42
2.5
 43
2.5
 50
270.0
  0
MTEXT
  5
D16
330
D0F
100
AcDbEntity
  8
0
  6
ByBlock
 62
     6
100
AcDbMText
 10
-33.38994291452458
 20
163.3388548154308
 30
0.0
 40
2.5
 41
0.0
 71
     5
 72
     1
  1
\A1;48
  7
STYLE3
 11
0.0000000000000001
 21
1.0
 31
0.0
 73
     1
 44
1.0
  0
POINT
  5
D17
330
D0F
100
AcDbEntity
  8
DEFPOINTS
  6
ByBlock
 62
     0
100
AcDbPoint
 10
-29.51125943162924
 20
187.3388548154308
 30
0.0
  0
POINT
  5
D18
330
D0F
100
AcDbEntity
  8
DEFPOINTS
  6
ByBlock
 62
     0
100
AcDbPoint
 10
-26.54999880871902
 20
139.3388548154308
 30
0.0
  0
POINT
  5
D19
330
D0F
100
AcDbEntity
  8
DEFPOINTS
  6
ByBlock
 62
     0
100
AcDbPoint
 10
-31.51494291452457
 20
139.3388548154308
 30
0.0
  0
ENDBLK
  5
D1A
330
D0F
100
AcDbEntity
  8
0
100
AcDbBlockEnd
  0
BLOCK
  5
D1D
330
D1C
100
AcDbEntity
  8
0
100
AcDbBlockBegin
  2
*D14
 70
     1
 10
0.0
 20
0.0
 30
0.0
  3
*D14
  1

  0
LINE
  5
D1E
330
D1C
100
AcDbEntity
  8
0
  6
ByBlock
 62
     2
100
AcDbLine
 10
1.989189978675995
 20
228.8388548154308
 30
0.0
 11
-32.76494291452457
 21
228.8388548154308
 31
0.0
  0
LINE
  5
D1F
330
D1C
100
AcDbEntity
  8
0
  6
ByBlock
 62
     2
100
AcDbLine
 10
-28.73198064522034
 20
187.3388548154308
 30
0.0
 11
-32.76494291452457
 21
187.3388548154308
 31
0.0
  0
LINE
  5
D20
330
D1C
100
AcDbEntity
  8
0
  6
ByBlock
 62
     2
100
AcDbLine
 10
-31.51494291452456
 20
226.3388548154308
 30
0.0
 11
-31.51494291452457
 21
189.8388548154308
 31
0.0
  0
INSERT
  5
D21
330
D1C
100
AcDbEntity
  8
0
  6
ByBlock
 62
     2
100
AcDbBlockReference
  2
_OPEN
 10
-31.51494291452456
 20
228.8388548154308
 30
0.0
 41
2.5
 42
2.5
 43
2.5
 50
90.0
  0
INSERT
  5
D22
330
D1C
100
AcDbEntity
  8
0
  6
ByBlock
 62
     2
100
AcDbBlockReference
  2
_OPEN
 10
-31.51494291452457
 20
187.3388548154308
 30
0.0
 41
2.5
 42
2.5
 43
2.5
 50
270.0
  0
MTEXT
  5
D23
330
D1C
100
AcDbEntity
  8
0
  6
ByBlock
 62
     6
100
AcDbMText
 10
-33.38994291452457
 20
208.0888548154308
 30
0.0
 40
2.5
 41
0.0
 71
     5
 72
     1
  1
\A1;41.5
  7
STYLE3
 11
0.0000000000000001
 21
1.0
 31
0.0
 73
     1
 44
1.0
  0
POINT
  5
D24
330
D1C
100
AcDbEntity
  8
DEFPOINTS
  6
ByBlock
 62
     0
100
AcDbPoint
 10
1.989189978675995
 20
228.8388548154308
 30
0.0
  0
POINT
  5
D25
330
D1C
100
AcDbEntity
  8
DEFPOINTS
  6
ByBlock
 62
     0
100
AcDbPoint
 10
-28.73198064522034
 20
187.3388548154308
 30
0.0
  0
POINT
  5
D26
330
D1C
100
AcDbEntity
  8
DEFPOINTS
  6
ByBlock
 62
     0
100
AcDbPoint
 10
-31.51494291452457
 20
187.3388548154308
 30
0.0
  0
ENDBLK
  5
D27
330
D1C
100
AcDbEntity
  8
0
100
AcDbBlockEnd
  0
BLOCK
  5
DAF
330
D94
100
AcDbEntity
  8
0
100
AcDbBlockBegin
  2
*D15
 70
     1
 10
0.0
 20
0.0
 30
0.0
  3
*D15
  1

  0
LINE
  5
DB0
330
D94
100
AcDbEntity
  8
0
  6
ByBlock
 62
     2
100
AcDbLine
 10
-46.595757818033
 20
44.27919943122007
 30
0.0
 11
-46.595757818033
 21
29.92093526386839
 31
0.0
  0
LINE
  5
DB1
330
D94
100
AcDbEntity
  8
0
  6
ByBlock
 62
     2
100
AcDbLine
 10
-43.595757818033
 20
44.27919943122004
 30
0.0
 11
-43.595757818033
 21
29.92093526386839
 31
0.0
  0
LINE
  5
DB2
330
D94
100
AcDbEntity
  8
0
  6
ByBlock
 62
     2
100
AcDbLine
 10
-49.09575781803301
 20
31.17093526386839
 30
0.0
 11
-51.59575781803301
 21
31.17093526386839
 31
0.0
  0
LINE
  5
DB3
330
D94
100
AcDbEntity
  8
0
  6
ByBlock
 62
     2
100
AcDbLine
 10
-41.095757818033
 20
31.17093526386839
 30
0.0
 11
-32.46480543708063
 21
31.17093526386839
 31
0.0
  0
LINE
  5
DB4
330
D94
100
AcDbEntity
  8
0
  6
ByBlock
 62
     2
100
AcDbLine
 10
-46.595757818033
 20
31.17093526386839
 30
0.0
 11
-43.595757818033
 21
31.17093526386839
 31
0.0
  0
INSERT
  5
DB5
330
D94
100
AcDbEntity
  8
0
  6
ByBlock
 62
     2
100
AcDbBlockReference
  2
_OPEN
 10
-46.595757818033
 20
31.17093526386839
 30
0.0
 41
2.5
 42
2.5
 43
2.5
  0
INSERT
  5
DB6
330
D94
100
AcDbEntity
  8
0
  6
ByBlock
 62
     2
100
AcDbBlockReference
  2
_OPEN
 10
-43.595757818033
 20
31.17093526386839
 30
0.0
 41
2.5
 42
2.5
 43
2.5
 50
180.0
  0
MTEXT
  5
DB7
330
D94
100
AcDbEntity
  8
0
  6
ByBlock
 62
     6
100
AcDbMText
 10
-35.53028162755682
 20
33.04593526386839
 30
0.0
 40
2.5
 41
0.0
 71
     5
 72
     1
  1
\A1;1.5
  7
STYLE3
 73
     1
 44
1.0
  0
POINT
  5
DB8
330
D94
100
AcDbEntity
  8
DEFPOINTS
  6
ByBlock
 62
     0
100
AcDbPoint
 10
-46.595757818033
 20
44.27919943122007
 30
0.0
  0
POINT
  5
DB9
330
D94
100
AcDbEntity
  8
DEFPOINTS
  6
ByBlock
 62
     0
100
AcDbPoint
 10
-43.595757818033
 20
44.27919943122004
 30
0.0
  0
POINT
  5
DBA
330
D94
100
AcDbEntity
  8
DEFPOINTS
  6
ByBlock
 62
     0
100
AcDbPoint
 10
-43.595757818033
 20
31.17093526386839
 30
0.0
  0
ENDBLK
  5
DBB
330
D94
100
AcDbEntity
  8
0
100
AcDbBlockEnd
  0
ENDSEC
  0
SECTION
  2
ENTITIES
  0
LINE
  5
307
330
18
100
AcDbEntity
  8
中心線
100
AcDbLine
 10
1.989189978675995
 20
233.785348263553
 30
0.0
 11
1.989189978675994
 21
96.38711845704813
 31
0.0
  0
LINE
  5
31A
330
18
100
AcDbEntity
  8
中心線
100
AcDbLine
 10
-33.63492992747229
 20
187.3388548154308
 30
0.0
 11
30.85147084388086
 21
187.3388548154308
 31
0.0
  0
LINE
  5
333
330
18
100
AcDbEntity
  8
中心線
100
AcDbLine
 10
-96.41182649457039
 20
230.7983213791096
 30
0.0
 11
-96.41182649457039
 21
56.48797464596771
 31
0.0
  0
LINE
  5
338
330
18
100
AcDbEntity
  8
中心線
100
AcDbLine
 10
-106.5697129803748
 20
187.3388548154308
 30
0.0
 11
-78.16022307353932
 21
187.3388548154308
 31
0.0
  0
ARC
  5
5CB
330
18
100
AcDbEntity
  8
外形線
100
AcDbCircle
 10
22.59851579145124
 20
213.6055951651648
 30
0.0
 40
2.0
100
AcDbArc
 50
109.8197641089327
 51
142.2522235389741
  0
LINE
  5
5CC
330
18
100
AcDbEntity
  8
外形線
100
AcDbLine
 10
20.20815657008086
 20
213.2755643476173
 30
0.0
 11
34.95128153988935
 21
218.5891614571047
 31
0.0
  0
LINE
  5
5CF
330
18
100
AcDbEntity
  8
0
  6
ByBlock
 62
     2
100
AcDbLine
 10
-81.91182649457028
 20
187.3388548154308
 30
0.0
 11
-81.91182649457028
 21
237.6208697897407
 31
0.0
  0
LINE
  5
5D1
330
18
100
AcDbEntity
  8
外形線
  6
Continuous
100
AcDbLine
 10
-92.71182649457035
 20
215.3388548154308
 30
0.0
 11
-92.71182649457035
 21
211.8388548154308
 31
0.0
  0
LINE
  5
5D2
330
18
100
AcDbEntity
  8
外形線
  6
Continuous
100
AcDbLine
 10
-100.1118264945704
 20
215.3388548154308
 30
0.0
 11
-100.1118264945704
 21
211.8388548154308
 31
0.0
  0
LINE
  5
5D3
330
18
100
AcDbEntity
  8
外形線
  6
Continuous
100
AcDbLine
 10
-1.710810021323936
 20
215.3388548154307
 30
0.0
 11
-1.710810021323936
 21
213.4782886272026
 31
0.0
  0
LINE
  5
5D4
330
18
100
AcDbEntity
  8
外形線
  6
Continuous
100
AcDbLine
 10
5.68918997867604
 20
215.3388548154307
 30
0.0
 11
5.68918997867604
 21
213.4782886272026
 31
0.0
  0
LINE
  5
5E6
330
18
100
AcDbEntity
  8
0
  6
ByBlock
 62
     2
100
AcDbLine
 10
-69.37192448798009
 20
211.2388548154308
 30
0.0
 11
-69.37192448798009
 21
163.4388548154309
 31
0.0
  0
LINE
  5
5E8
330
18
100
AcDbEntity
  8
外形線
  6
Continuous
100
AcDbLine
 10
-91.41182649457027
 20
212.3388548154309
 30
0.0
 11
-91.41182649457027
 21
162.3388548154308
 31
0.0
  0
LINE
  5
5E9
330
18
100
AcDbEntity
  8
外形線
  6
Continuous
100
AcDbLine
 10
-89.91182649457028
 20
213.7388548154309
 30
0.0
 11
-89.91182649457028
 21
160.9388548154309
 31
0.0
  0
LINE
  5
5EA
330
18
100
AcDbEntity
  8
外形線
  6
Continuous
100
AcDbLine
 10
-86.11182649457033
 20
213.7388548154309
 30
0.0
 11
-86.11182649457033
 21
160.9388548154309
 31
0.0
  0
LINE
  5
5EB
330
18
100
AcDbEntity
  8
外形線
  6
Continuous
100
AcDbLine
 10
-84.91182649457028
 20
212.3388548154309
 30
0.0
 11
-84.91182649457028
 21
162.3388548154308
 31
0.0
  0
ARC
  5
5EC
330
18
100
AcDbEntity
  8
外形線
  6
Continuous
100
AcDbCircle
 10
-187.5784931612367
 20
187.3388548154308
 30
0.0
 40
105.6666666666664
100
AcDbArc
 50
346.3144531747381
 51
13.68554682526192
  0
LINE
  5
5F0
330
18
100
AcDbEntity
  8
外形線
  6
Continuous
 62
     4
100
AcDbLine
 10
-86.11182649457033
 20
165.9388548154309
 30
0.0
 11
-89.91182649457028
 21
165.9388548154309
 31
0.0
  0
LINE
  5
5F1
330
18
100
AcDbEntity
  8
外形線
  6
Continuous
 62
     4
100
AcDbLine
 10
-86.11182649457033
 20
161.9388548154309
 30
0.0
 11
-89.91182649457028
 21
161.9388548154309
 31
0.0
  0
LINE
  5
5F2
330
18
100
AcDbEntity
  8
外形線
  6
Continuous
 62
     4
100
AcDbLine
 10
-86.11182649457033
 20
162.9388548154309
 30
0.0
 11
-89.91182649457028
 21
162.9388548154309
 31
0.0
  0
LINE
  5
5F3
330
18
100
AcDbEntity
  8
外形線
  6
Continuous
 62
     4
100
AcDbLine
 10
-86.11182649457033
 20
163.9388548154309
 30
0.0
 11
-89.91182649457028
 21
163.9388548154309
 31
0.0
  0
LINE
  5
5F4
330
18
100
AcDbEntity
  8
外形線
  6
Continuous
 62
     4
100
AcDbLine
 10
-86.11182649457033
 20
164.9388548154309
 30
0.0
 11
-89.91182649457028
 21
164.9388548154309
 31
0.0
  0
LINE
  5
5F5
330
18
100
AcDbEntity
  8
外形線
  6
Continuous
100
AcDbLine
 10
-86.11182649457033
 20
160.9388548154309
 30
0.0
 11
-89.91182649457028
 21
160.9388548154309
 31
0.0
  0
LINE
  5
613
330
18
100
AcDbEntity
  8
外形線
  6
CENTER2
100
AcDbLine
 10
-91.41182649457027
 20
162.3388548154308
 30
0.0
 11
-89.91182649457028
 21
162.3388548154308
 31
0.0
  0
LINE
  5
62A
330
18
100
AcDbEntity
  8
0
  6
ByBlock
 62
     2
100
AcDbLine
 10
-86.11182649457033
 20
160.9388548154309
 30
0.0
 11
-68.12192448798009
 21
160.9388548154309
 31
0.0
  0
POINT
  5
62B
330
18
100
AcDbEntity
  8
DEFPOINTS
  6
ByBlock
 62
     0
100
AcDbPoint
 10
-86.11182649457033
 20
160.9388548154309
 30
0.0
  0
LINE
  5
62C
330
18
100
AcDbEntity
  8
外形線
  6
Continuous
100
AcDbLine
 10
-86.11182649457033
 20
161.8388548154308
 30
0.0
 11
-84.91182649457028
 21
162.3388548154308
 31
0.0
  0
INSERT
  5
62D
330
18
100
AcDbEntity
  8
0
  6
ByBlock
 62
     2
100
AcDbBlockReference
  2
_OPEN
 10
-69.37192448798009
 20
160.9388548154309
 30
0.0
 41
2.5
 42
2.5
 43
2.5
 50
270.0
  0
POINT
  5
62E
330
18
100
AcDbEntity
  8
DEFPOINTS
  6
ByBlock
 62
     0
100
AcDbPoint
 10
-69.37192448798009
 20
160.9388548154309
 30
0.0
  0
LINE
  5
62F
330
18
100
AcDbEntity
  8
外形線
  6
Continuous
100
AcDbLine
 10
-86.11182649457033
 20
213.7388548154309
 30
0.0
 11
-89.91182649457028
 21
213.7388548154309
 31
0.0
  0
LINE
  5
630
330
18
100
AcDbEntity
  8
外形線
  6
Continuous
 62
     4
100
AcDbLine
 10
-86.11182649457033
 20
212.7388548154308
 30
0.0
 11
-89.91182649457028
 21
212.7388548154308
 31
0.0
  0
LINE
  5
631
330
18
100
AcDbEntity
  8
外形線
  6
Continuous
 62
     4
100
AcDbLine
 10
-86.11182649457033
 20
211.7388548154309
 30
0.0
 11
-89.91182649457028
 21
211.7388548154309
 31
0.0
  0
LINE
  5
632
330
18
100
AcDbEntity
  8
外形線
  6
Continuous
 62
     4
100
AcDbLine
 10
-86.11182649457033
 20
210.7388548154308
 30
0.0
 11
-89.91182649457028
 21
210.7388548154308
 31
0.0
  0
LINE
  5
633
330
18
100
AcDbEntity
  8
外形線
  6
Continuous
 62
     4
100
AcDbLine
 10
-86.11182649457033
 20
209.7388548154309
 30
0.0
 11
-89.91182649457028
 21
209.7388548154309
 31
0.0
  0
LINE
  5
634
330
18
100
AcDbEntity
  8
外形線
  6
Continuous
 62
     4
100
AcDbLine
 10
-86.11182649457033
 20
208.7388548154308
 30
0.0
 11
-89.91182649457028
 21
208.7388548154308
 31
0.0
  0
LINE
  5
635
330
18
100
AcDbEntity
  8
外形線
  6
Continuous
 62
     4
100
AcDbLine
 10
-89.91182649457028
 20
189.3388548154308
 30
0.0
 11
-86.11182649457033
 21
189.3388548154308
 31
0.0
  0
LINE
  5
636
330
18
100
AcDbEntity
  8
外形線
  6
Continuous
 62
     4
100
AcDbLine
 10
-89.91182649457028
 20
190.3388548154308
 30
0.0
 11
-86.11182649457033
 21
190.3388548154308
 31
0.0
  0
LINE
  5
637
330
18
100
AcDbEntity
  8
外形線
  6
Continuous
 62
     4
100
AcDbLine
 10
-89.91182649457028
 20
188.3388548154308
 30
0.0
 11
-86.11182649457033
 21
188.3388548154308
 31
0.0
  0
LINE
  5
638
330
18
100
AcDbEntity
  8
外形線
  6
Continuous
 62
     4
100
AcDbLine
 10
-89.91182649457028
 20
187.3388548154308
 30
0.0
 11
-86.11182649457033
 21
187.3388548154308
 31
0.0
  0
LINE
  5
639
330
18
100
AcDbEntity
  8
外形線
  6
Continuous
 62
     4
100
AcDbLine
 10
-89.91182649457028
 20
186.3388548154308
 30
0.0
 11
-86.11182649457033
 21
186.3388548154308
 31
0.0
  0
LINE
  5
63A
330
18
100
AcDbEntity
  8
外形線
  6
Continuous
 62
     4
100
AcDbLine
 10
-89.91182649457028
 20
185.3388548154308
 30
0.0
 11
-86.11182649457033
 21
185.3388548154308
 31
0.0
  0
LINE
  5
63D
330
18
100
AcDbEntity
  8
外形線
  6
CENTER2
100
AcDbLine
 10
-91.41182649457027
 20
212.3388548154309
 30
0.0
 11
-89.91182649457028
 21
212.3388548154309
 31
0.0
  0
MTEXT
  5
63E
330
18
100
AcDbEntity
  8
0
  6
ByBlock
 62
     6
100
AcDbMText
 10
-71.24692448798009
 20
187.3388548154308
 30
0.0
 40
2.5
 41
0.0
 71
     5
 72
     1
  1
\A1;φ53
  7
STYLE3
 11
0.0000000000000001
 21
1.0
 31
0.0
 73
     1
 44
1.0
  0
POINT
  5
63F
330
18
100
AcDbEntity
  8
DEFPOINTS
  6
ByBlock
 62
     0
100
AcDbPoint
 10
-81.91182649457028
 20
187.3388548154308
 30
0.0
  0
POINT
  5
640
330
18
100
AcDbEntity
  8
DEFPOINTS
  6
ByBlock
 62
     0
100
AcDbPoint
 10
-81.91182649457028
 20
187.3388548154308
 30
0.0
  0
LINE
  5
641
330
18
100
AcDbEntity
  8
0
  6
ByBlock
 62
     2
100
AcDbLine
 10
-86.11182649457033
 20
213.7388548154309
 30
0.0
 11
-68.12192448798009
 21
213.7388548154309
 31
0.0
  0
POINT
  5
642
330
18
100
AcDbEntity
  8
DEFPOINTS
  6
ByBlock
 62
     0
100
AcDbPoint
 10
-86.11182649457033
 20
213.7388548154309
 30
0.0
  0
LINE
  5
643
330
18
100
AcDbEntity
  8
外形線
  6
Continuous
100
AcDbLine
 10
-86.11182649457033
 20
212.8388548154309
 30
0.0
 11
-84.91182649457028
 21
212.3388548154309
 31
0.0
  0
INSERT
  5
644
330
18
100
AcDbEntity
  8
0
  6
ByBlock
 62
     2
100
AcDbBlockReference
  2
_OPEN
 10
-69.37192448798009
 20
213.7388548154309
 30
0.0
 41
2.5
 42
2.5
 43
2.5
 50
90.0
  0
LINE
  5
66F
330
18
100
AcDbEntity
  8
目盛
100
AcDbLine
 10
15.50825078140292
 20
205.9462456860546
 30
0.0
 11
13.92123060021322
 21
203.7618998012422
 31
0.0
  0
LINE
  5
670
330
18
100
AcDbEntity
  8
目盛
100
AcDbLine
 10
15.50825078140286
 20
168.731463944807
 30
0.0
 11
13.92123060021316
 21
170.9158098296193
 31
0.0
  0
CIRCLE
  5
671
330
18
100
AcDbEntity
  8
外形線
100
AcDbCircle
 10
1.989189978675995
 20
187.3388548154308
 30
0.0
 40
26.4
  0
CIRCLE
  5
672
330
18
100
AcDbEntity
  8
外形線
100
AcDbCircle
 10
1.989189978675995
 20
187.3388548154308
 30
0.0
 40
23.0
  0
CIRCLE
  5
673
330
18
100
AcDbEntity
  8
外形線
100
AcDbCircle
 10
1.989189978675995
 20
187.3388548154308
 30
0.0
 40
15.5
  0
LINE
  5
67B
330
18
100
AcDbEntity
  8
目盛
100
AcDbLine
 10
14.31320626319274
 20
167.9193125288843
 30
0.0
 11
13.40230071172851
 21
169.3546700022377
 31
0.0
  0
LINE
  5
67C
330
18
100
AcDbEntity
  8
目盛
100
AcDbLine
 10
-10.33482630584103
 20
167.9193125288845
 30
0.0
 11
-9.423920754376752
 21
169.354670002238
 31
0.0
  0
LINE
  5
67D
330
18
100
AcDbEntity
  8
目盛
100
AcDbLine
 10
-11.52987082405093
 20
168.731463944807
 30
0.0
 11
-9.942850642861287
 21
170.9158098296193
 31
0.0
  0
TEXT
  5
67E
330
18
100
AcDbEntity
  8
文字
100
AcDbText
 10
-0.3240574884728176
 20
167.6559675420723
 30
0.0
 40
2.5
  1
50
  7
STYLE3
100
AcDbText
  0
LINE
  5
6C4
330
18
100
AcDbEntity
  8
目盛
100
AcDbLine
 10
-7.803733727320889
 20
166.5278326087124
 30
0.0
 11
-7.079908931660213
 21
168.0660385979046
 31
0.0
  0
LINE
  5
6C5
330
18
100
AcDbEntity
  8
目盛
100
AcDbLine
 10
-9.091144525663537
 20
167.183801174422
 30
0.0
 11
-8.272163279690687
 21
168.6735225304965
 31
0.0
  0
LINE
  5
6C6
330
18
100
AcDbEntity
  8
目盛
100
AcDbLine
 10
-6.477674733071864
 20
165.9539956400011
 30
0.0
 11
-5.851862993507836
 21
167.5346156660111
 31
0.0
  0
LINE
  5
6C7
330
18
100
AcDbEntity
  8
目盛
100
AcDbLine
 10
-2.320580256795722
 20
164.7462480486711
 30
0.0
 11
-2.002032022000037
 21
166.4161363749098
 31
0.0
  0
LINE
  5
6C8
330
18
100
AcDbEntity
  8
目盛
100
AcDbLine
 10
-3.730677426115732
 20
165.0614421094724
 30
0.0
 11
-3.307904617935491
 21
166.708033483391
 31
0.0
  0
LINE
  5
6C9
330
18
100
AcDbEntity
  8
目盛
100
AcDbLine
 10
-5.118200891947822
 20
165.4645549406423
 30
0.0
 11
-4.283855007135457
 21
168.0324075346392
 31
0.0
  0
LINE
  5
6CC
330
18
100
AcDbEntity
  8
目盛
100
AcDbLine
 10
-0.8934743933031654
 20
164.5202166851978
 30
0.0
 11
-0.6804078962438212
 21
166.2068116774325
 31
0.0
  0
LINE
  5
6CD
330
18
100
AcDbEntity
  8
目盛
100
AcDbLine
 10
1.989189978676051
 20
164.3388548154308
 30
0.0
 11
1.989189978676051
 21
167.0388548154308
 31
0.0
  0
LINE
  5
6CE
330
18
100
AcDbEntity
  8
目盛
100
AcDbLine
 10
0.5450080295016165
 20
164.3842400615806
 30
0.0
 11
0.6517519127015135
 21
166.0808854999086
 31
0.0
  0
LINE
  5
6CF
330
18
100
AcDbEntity
  8
目盛
100
AcDbLine
 10
6.298960214147541
 20
164.7462480486709
 30
0.0
 11
5.980411979351799
 21
166.4161363749097
 31
0.0
  0
LINE
  5
6D0
330
18
100
AcDbEntity
  8
目盛
100
AcDbLine
 10
4.871854350654928
 20
164.5202166851979
 30
0.0
 11
4.658787853595583
 21
166.2068116774324
 31
0.0
  0
LINE
  5
6D1
330
18
100
AcDbEntity
  8
目盛
100
AcDbLine
 10
3.433371927850146
 20
164.3842400615806
 30
0.0
 11
3.326628044650306
 21
166.0808854999086
 31
0.0
  0
LINE
  5
6D2
330
18
100
AcDbEntity
  8
目盛
100
AcDbLine
 10
10.45605469042345
 20
165.953995640001
 30
0.0
 11
9.830242950859542
 21
167.5346156660109
 31
0.0
  0
LINE
  5
6D3
330
18
100
AcDbEntity
  8
目盛
100
AcDbLine
 10
9.096580849299868
 20
165.4645549406423
 30
0.0
 11
8.262234964487504
 21
168.0324075346392
 31
0.0
  0
LINE
  5
6D4
330
18
100
AcDbEntity
  8
目盛
100
AcDbLine
 10
7.709057383467495
 20
165.0614421094722
 30
0.0
 11
7.286284575287311
 21
166.7080334833909
 31
0.0
  0
LINE
  5
6D5
330
18
100
AcDbEntity
  8
目盛
100
AcDbLine
 10
13.0695244830153
 20
167.1838011744217
 30
0.0
 11
12.25054323704233
 21
168.6735225304963
 31
0.0
  0
LINE
  5
6D6
330
18
100
AcDbEntity
  8
目盛
100
AcDbLine
 10
11.78211368467254
 20
166.5278326087123
 30
0.0
 11
11.05828888901192
 21
168.0660385979044
 31
0.0
  0
LINE
  5
6D7
330
18
100
AcDbEntity
  8
目盛
100
AcDbLine
 10
-18.16586366233298
 20
176.2585203110915
 30
0.0
 11
-16.67614230625838
 21
177.0775015570644
 31
0.0
  0
LINE
  5
6D8
330
18
100
AcDbEntity
  8
目盛
100
AcDbLine
 10
-18.82183222804241
 20
177.5459311094342
 30
0.0
 11
-17.28362623885027
 21
178.2697559050949
 31
0.0
  0
LINE
  5
6D9
330
18
100
AcDbEntity
  8
目盛
100
AcDbLine
 10
-19.88510989611256
 20
180.231463944807
 30
0.0
 11
-17.31725730211565
 21
181.0658098296193
 31
0.0
  0
LINE
  5
6DA
330
18
100
AcDbEntity
  8
目盛
100
AcDbLine
 10
-18.82183222804241
 20
197.1317785214277
 30
0.0
 11
-17.28362623885016
 21
196.407953725767
 31
0.0
  0
LINE
  5
6DB
330
18
100
AcDbEntity
  8
目盛
100
AcDbLine
 10
-18.16586366233281
 20
198.4191893197703
 30
0.0
 11
-16.67614230625827
 21
197.6002080737975
 31
0.0
  0
LINE
  5
6DC
330
18
100
AcDbEntity
  8
目盛
100
AcDbLine
 10
-19.88510989611251
 20
194.4462456860545
 30
0.0
 11
-17.31725730211559
 21
193.6118998012423
 31
0.0
  0
LINE
  5
6DD
330
18
100
AcDbEntity
  8
目盛
100
AcDbLine
 10
-19.39566919675377
 20
178.8719901036833
 30
0.0
 11
-17.81504917074375
 21
179.4978018432473
 31
0.0
  0
LINE
  5
6E2
330
18
100
AcDbEntity
  8
目盛
100
AcDbLine
 10
-20.60341678808396
 20
183.0290845799593
 30
0.0
 11
-18.93352846184513
 21
183.347632814755
 31
0.0
  0
LINE
  5
6E3
330
18
100
AcDbEntity
  8
目盛
100
AcDbLine
 10
-20.82944815155696
 20
184.4561904434519
 30
0.0
 11
-19.14285315932244
 21
184.6692569405113
 31
0.0
  0
LINE
  5
6E4
330
18
100
AcDbEntity
  8
目盛
100
AcDbLine
 10
-20.96542477517425
 20
185.8946728662567
 30
0.0
 11
-19.26877933684625
 21
186.0014167494565
 31
0.0
  0
LINE
  5
6E5
330
18
100
AcDbEntity
  8
目盛
100
AcDbLine
 10
-20.28822272728263
 20
181.6189874106393
 30
0.0
 11
-18.64163135336395
 21
182.0417602188195
 31
0.0
  0
POINT
  5
6E6
330
18
100
AcDbEntity
  8
DEFPOINTS
  6
ByBlock
 62
     0
100
AcDbPoint
 10
-24.41081002132398
 20
187.3388548154308
 30
0.0
  0
POINT
  5
6E7
330
18
100
AcDbEntity
  8
DEFPOINTS
  6
ByBlock
 62
     0
100
AcDbPoint
 10
-24.41081002132398
 20
187.3388548154308
 30
0.0
  0
LINE
  5
6E8
330
18
100
AcDbEntity
  8
目盛
100
AcDbLine
 10
-20.82944815155696
 20
190.22151918741
 30
0.0
 11
-19.14285315932233
 21
190.0084526903507
 31
0.0
  0
LINE
  5
6E9
330
18
100
AcDbEntity
  8
目盛
100
AcDbLine
 10
-20.60341678808374
 20
191.6486250509026
 30
0.0
 11
-18.93352846184501
 21
191.3300768161069
 31
0.0
  0
LINE
  5
6EA
330
18
100
AcDbEntity
  8
目盛
100
AcDbLine
 10
-21.01081002132395
 20
187.3388548154308
 30
0.0
 11
-18.31081002132396
 21
187.3388548154308
 31
0.0
  0
LINE
  5
6EB
330
18
100
AcDbEntity
  8
目盛
100
AcDbLine
 10
-20.9654247751742
 20
188.7830367646052
 30
0.0
 11
-19.26877933684614
 21
188.6762928814053
 31
0.0
  0
LINE
  5
6ED
330
18
100
AcDbEntity
  8
目盛
100
AcDbLine
 10
-20.2882227272824
 20
193.0587222202226
 30
0.0
 11
-18.64163135336378
 21
192.6359494120423
 31
0.0
  0
LINE
  5
6EE
330
18
100
AcDbEntity
  8
目盛
100
AcDbLine
 10
-19.39566919675371
 20
195.8057195271786
 30
0.0
 11
-17.81504917074375
 21
195.1799077876145
 31
0.0
  0
HATCH
  5
6EF
330
18
100
AcDbEntity
  8
針
100
AcDbHatch
 10
0.0
 20
0.0
 30
0.0
210
0.0
220
0.0
230
1.0
  2
SOLID
 70
     1
 71
     0
 91
        2
 92
        7
 72
     1
 73
     1
 93
        5
 10
2.079189978675913
 20
209.3388548154309
 42
0.0
 10
1.989189978675995
 20
209.3388548154309
 42
0.0
 10
1.899189978675963
 20
209.3388548154309
 42
0.0
 10
1.72374304618097
 20
202.8365816786205
 42
-0.0085634322047721
 10
2.254636911170905
 20
202.8365816786204
 42
0.0
 97
        0
 92
        7
 72
     1
 73
     1
 93
        6
 10
2.254636911170905
 20
202.8365816786204
 42
0.0085634322047721
 10
1.72374304618097
 20
202.8365816786205
 42
0.0
 10
1.389189978675858
 20
190.4376449018995
 42
-0.1293106770632391
 10
1.000971493423435
 20
188.9616376799587
 42
-0.2805221108582334
 10
2.977408463928497
 20
188.9616376799586
 42
-0.1293106770632486
 10
2.589189978676017
 20
190.4376449018995
 42
0.0
 97
        0
 75
     0
 76
     1
 47
0.0423559757596284
 98
        2
 10
1.948627216211605
 20
203.4648356907797
 10
2.075793333603087
 20
199.0598141873005
450
        0
451
        0
460
0.0
461
0.0
452
        0
462
0.0
453
        0
470

  0
LINE
  5
6F0
330
18
100
AcDbEntity
  8
針
100
AcDbLine
 10
1.899189978675963
 20
209.3388548154309
 30
0.0
 11
1.389189978675858
 21
190.4376449018999
 31
0.0
  0
LINE
  5
6F1
330
18
100
AcDbEntity
  8
針
100
AcDbLine
 10
2.079189978675913
 20
209.3388548154309
 30
0.0
 11
2.589189978676017
 21
190.4376449018999
 31
0.0
  0
TEXT
  5
6F3
330
18
100
AcDbEntity
  8
文字
100
AcDbText
 10
-17.19778336310514
 20
191.8482420543984
 30
0.0
 40
2.5
  1
80
  7
STYLE3
100
AcDbText
  0
ARC
  5
6F4
330
18
100
AcDbEntity
  8
針
100
AcDbCircle
 10
-1.855670434669661
 20
178.729176764995
 30
0.0
 40
0.5
100
AcDbArc
 50
293.7682212975196
 51
359.2065408792653
  0
CIRCLE
  5
6F5
330
18
100
AcDbEntity
  8
針
 62
     4
100
AcDbCircle
 10
-1.21081002132405
 20
177.2648834039169
 30
0.0
 40
0.4
  0
LINE
  5
6F6
330
18
100
AcDbEntity
  8
針
100
AcDbLine
 10
-1.355718378962421
 20
178.7222527492465
 30
0.0
 11
-1.31081002132413
 21
181.9648834039168
 31
0.0
  0
HATCH
  5
6F7
330
18
100
AcDbEntity
  8
針
100
AcDbHatch
 10
0.0
 20
0.0
 30
0.0
210
0.0
220
0.0
230
1.0
  2
SOLID
 70
     1
 71
     0
 91
        1
 92
        7
 72
     1
 73
     1
 93
        7
 10
-1.11081002132397
 20
181.964883403917
 42
0.0
 10
-1.210810021324107
 20
181.9648834039169
 42
0.0
 10
-1.31081002132413
 20
181.9648834039169
 42
0.0
 10
-1.355718378962421
 20
178.7222527492464
 42
-0.2935495917910092
 10
-1.654151555499254
 20
178.2715850896583
 42
-0.2104432563350663
 10
-0.7674691667662046
 20
178.2715853889551
 42
-0.2935491884945053
 10
-1.065901663685679
 20
178.7222527492464
 42
0.0
 97
        0
 75
     0
 76
     1
 47
0.0140573597042523
 98
        1
 10
-1.152208305426654
 20
180.1594434492171
450
        0
451
        0
460
0.0
461
0.0
452
        0
462
0.0
453
        0
470

  0
CIRCLE
  5
6F8
330
18
100
AcDbEntity
  8
針
100
AcDbCircle
 10
-1.21081002132405
 20
177.2648834039169
 30
0.0
 40
0.75
  0
CIRCLE
  5
6F9
330
18
100
AcDbEntity
  8
針
100
AcDbCircle
 10
-1.21081002132405
 20
177.2648834039169
 30
0.0
 40
1.1
  0
HATCH
  5
6FA
330
18
100
AcDbEntity
  8
針
100
AcDbHatch
 10
0.0
 20
0.0
 30
0.0
210
0.0
220
0.0
230
1.0
  2
SOLID
 70
     1
 71
     0
 91
        4
 92
        7
 72
     1
 73
     1
 93
        4
 10
-2.298727471022232
 20
177.4274737561595
 42
0.0
 10
-1.952571918845535
 20
177.3757404622641
 42
-0.4142135623730951
 10
-1.099952962976942
 20
178.0066453014383
 42
0.0
 10
-1.048219669081561
 20
178.352800853615
 42
0.4142135623730996
 97
        0
 92
        7
 72
     1
 73
     1
 93
        5
 10
-1.952571918845535
 20
177.3757404622641
 42
0.0
 10
-2.298727471022232
 20
177.4274737561595
 42
0.3173569687788799
 10
-1.728435389693686
 20
176.2942836006919
 42
0.0
 10
-1.326057379484495
 20
176.4937453244126
 42
0.0
 10
-1.321667079671385
 20
176.5231215063954
 42
-0.4142135623730839
 97
        0
 92
        7
 72
     1
 73
     1
 93
        4
 10
-1.048219669081561
 20
178.352800853615
 42
0.0
 10
-1.099952962976942
 20
178.0066453014383
 42
-0.4142135623730951
 10
-0.4690481238026223
 20
177.1540263455696
 42
0.0
 10
-0.1228925716259823
 20
177.1022930516743
 42
0.4142135623730996
 97
        0
 92
        7
 72
     1
 73
     1
 93
        4
 10
-0.4690481238026223
 20
177.1540263455696
 42
-0.1036385141593389
 10
-0.5759399539114157
 20
176.8655840206174
 42
0.0
 10
-0.1249383160333082
 20
177.0891488323356
 42
0.003023315109616
 10
-0.1228925716259823
 20
177.1022930516743
 42
0.0
 97
        0
 75
     0
 76
     1
 47
0.0223982890607777
 98
        4
 10
-1.714865522323123
 20
178.1166385919855
 10
-2.042220509585717
 20
176.9869993908825
 10
-0.7834301721319435
 20
178.1360870627922
 10
-0.3975587154025675
 20
177.081172616079
450
        0
451
        0
460
0.0
461
0.0
452
        0
462
0.0
453
        0
470

  0
HATCH
  5
6FB
330
18
100
AcDbEntity
  8
針
100
AcDbHatch
 10
0.0
 20
0.0
 30
0.0
210
0.0
220
0.0
230
1.0
  2
SOLID
 70
     1
 71
     0
 91
        2
 92
        7
 72
     1
 73
     1
 93
        5
 10
-0.8581357316798516
 20
176.2229520983962
 42
0.31735696877887
 10
-0.1109371815477402
 20
177.2481580841157
 42
0.0
 10
-0.4722678588304348
 20
177.5148661342079
 42
0.0
 10
-0.500402313014547
 20
177.5053431468561
 42
-0.4142135623731173
 10
-0.9703502783848421
 20
176.5544756956073
 42
0.0
 97
        0
 92
        7
 72
     1
 73
     1
 93
        4
 10
-0.8581357316798516
 20
176.2229520983962
 42
0.0
 10
-0.9703502783848421
 20
176.5544756956073
 42
-0.4142135623730728
 10
-1.921217729633553
 20
177.0244236609776
 42
0.0
 10
-2.25274132684467
 20
176.9122091142726
 42
0.4142135623730844
 97
        0
 75
     0
 76
     1
 47
0.0161501285364394
 98
        2
 10
-0.5492630094979632
 20
176.5685536015132
 10
-1.228058080415166
 20
176.3558440595626
450
        0
451
        0
460
0.0
461
0.0
452
        0
462
0.0
453
        0
470

  0
TEXT
  5
6FC
330
18
100
AcDbEntity
  8
文字
100
AcDbText
 10
-1.728761644176074
 20
173.3419906935479
 30
0.0
 40
1.0
  1
5
  7
STYLE3
100
AcDbText
  0
TEXT
  5
6FD
330
18
100
AcDbEntity
  8
文字
100
AcDbText
 10
-1.697186460454418
 20
180.2926573323917
 30
0.0
 40
1.0
  1
0
  7
STYLE3
100
AcDbText
  0
LINE
  5
6FE
330
18
100
AcDbEntity
  8
中心線
 48
0.2
100
AcDbLine
 10
-8.170085208253794
 20
177.2648834039169
 30
0.0
 11
6.357902239726399
 21
177.2648834039169
 31
0.0
  0
CIRCLE
  5
6FF
330
18
100
AcDbEntity
  8
外形線
100
AcDbCircle
 10
-1.21081002132405
 20
177.2648834039169
 30
0.0
 40
4.75
  0
TEXT
  5
700
330
18
100
AcDbEntity
  8
文字
100
AcDbText
 10
-17.30346413204393
 20
180.1137109295941
 30
0.0
 40
2.5
  1
70
  7
STYLE3
100
AcDbText
  0
TEXT
  5
701
330
18
100
AcDbEntity
  8
文字
100
AcDbText
 10
-11.56912703058504
 20
171.5284603268201
 30
0.0
 40
2.5
  1
60
  7
STYLE3
100
AcDbText
  0
LINE
  5
702
330
18
100
AcDbEntity
  8
目盛
100
AcDbLine
 10
-16.61820089194776
 20
173.8197940127039
 30
0.0
 11
-14.43385500713538
 21
175.4068141938936
 31
0.0
  0
LINE
  5
703
330
18
100
AcDbEntity
  8
目盛
100
AcDbLine
 10
-13.75539345768408
 20
170.5725763847384
 30
0.0
 11
-12.59166337760524
 21
171.8118230513549
 31
0.0
  0
LINE
  5
704
330
18
100
AcDbEntity
  8
目盛
100
AcDbLine
 10
-14.77708845201658
 20
171.5942713790711
 30
0.0
 11
-13.53784178540019
 21
172.7580014591498
 31
0.0
  0
LINE
  5
705
330
18
100
AcDbEntity
  8
目盛
100
AcDbLine
 10
-15.73261460516727
 20
172.678103051211
 30
0.0
 11
-14.42274209244846
 21
173.7617238337838
 31
0.0
  0
LINE
  5
706
330
18
100
AcDbEntity
  8
目盛
100
AcDbLine
 10
-12.67156178554404
 20
169.6170502315878
 30
0.0
 11
-11.58794100297126
 21
170.9269227443066
 31
0.0
  0
LINE
  5
707
330
18
100
AcDbEntity
  8
目盛
100
AcDbLine
 10
-17.43035230787046
 20
175.0148385309141
 30
0.0
 11
-15.99499483451694
 21
175.9257440823783
 31
0.0
  0
TEXT
  5
708
330
18
100
AcDbEntity
  8
文字
100
AcDbText
 10
-3.832253213548369
 20
173.8167286790793
 30
0.0
 40
1.0
  1
4
  7
STYLE3
100
AcDbText
  0
LINE
  5
709
330
18
100
AcDbEntity
  8
目盛
100
AcDbLine
 10
-4.002789969713376
 20
173.4220526806359
 30
0.0
 11
-3.708897343567173
 21
173.8265611778233
 31
0.0
  0
LINE
  5
70A
330
18
100
AcDbEntity
  8
目盛
100
AcDbLine
 10
-5.728328473726151
 20
175.7970526806358
 30
0.0
 11
-5.252800215578531
 21
175.9515611778233
 31
0.0
  0
LINE
  5
70B
330
18
100
AcDbEntity
  8
目盛
100
AcDbLine
 10
-5.728328473726151
 20
178.7327141271979
 30
0.0
 11
-5.252800215578417
 21
178.5782056300104
 31
0.0
  0
TEXT
  5
70C
330
18
100
AcDbEntity
  8
文字
100
AcDbText
 10
-3.637300235151428
 20
179.6169332637072
 30
0.0
 40
1.0
  1
1
  7
STYLE3
100
AcDbText
  0
TEXT
  5
70D
330
18
100
AcDbEntity
  8
文字
100
AcDbText
 10
-4.997582582096811
 20
177.8147652575458
 30
0.0
 40
1.0
  1
2
  7
STYLE3
100
AcDbText
  0
TEXT
  5
70E
330
18
100
AcDbEntity
  8
文字
100
AcDbText
 10
-5.026825586130371
 20
175.5519235079065
 30
0.0
 40
1.0
  1
3
  7
STYLE3
100
AcDbText
  0
LINE
  5
70F
330
18
100
AcDbEntity
  8
目盛
100
AcDbLine
 10
-4.002789969713376
 20
181.1077141271979
 30
0.0
 11
-3.708897343567059
 21
180.7032056300104
 31
0.0
  0
LINE
  5
710
330
18
100
AcDbEntity
  8
針
100
AcDbLine
 10
-1.065901663685679
 20
178.7222527492465
 30
0.0
 11
-1.110810021324084
 21
181.9648834039169
 31
0.0
  0
LINE
  5
711
330
18
100
AcDbEntity
  8
中心線
 48
0.2
100
AcDbLine
 10
-1.21081002132405
 20
185.1280908226386
 30
0.0
 11
-1.21081002132405
 21
169.4384968006031
 31
0.0
  0
TEXT
  5
712
330
18
100
AcDbEntity
  8
文字
100
AcDbText
 10
0.3836273415089408
 20
173.9392724501708
 30
0.0
 40
1.0
  1
6
  7
STYLE3
100
AcDbText
  0
LINE
  5
714
330
18
100
AcDbEntity
  8
目盛
100
AcDbLine
 10
1.581169927065275
 20
173.4220526806359
 30
0.0
 11
1.287277300918958
 21
173.8265611778234
 31
0.0
  0
LINE
  5
715
330
18
100
AcDbEntity
  8
目盛
100
AcDbLine
 10
-1.21081002132405
 20
172.5148834039169
 30
0.0
 11
-1.21081002132405
 21
173.0148834039169
 31
0.0
  0
ARC
  5
71A
330
18
100
AcDbEntity
  8
針
100
AcDbCircle
 10
-0.5659496079785527
 20
178.7291767649949
 30
0.0
 40
0.5
100
AcDbArc
 50
180.7934591207347
 51
246.2317787024804
  0
TEXT
  5
71B
330
18
100
AcDbEntity
  8
文字
100
AcDbText
 10
1.823523863208606
 20
175.54339218946
 30
0.0
 40
1.0
  1
7
  7
STYLE3
100
AcDbText
  0
TEXT
  5
71C
330
18
100
AcDbEntity
  8
文字
100
AcDbText
 10
1.88371079515457
 20
177.8470195745346
 30
0.0
 40
1.0
  1
8
  7
STYLE3
100
AcDbText
  0
TEXT
  5
71D
330
18
100
AcDbEntity
  8
文字
100
AcDbText
 10
0.3863132773074085
 20
179.5663273519334
 30
0.0
 40
1.0
  1
9
  7
STYLE3
100
AcDbText
  0
LINE
  5
71E
330
18
100
AcDbEntity
  8
目盛
100
AcDbLine
 10
3.306708431077822
 20
178.7327141271979
 30
0.0
 11
2.831180172930316
 21
178.5782056300103
 31
0.0
  0
LINE
  5
71F
330
18
100
AcDbEntity
  8
目盛
100
AcDbLine
 10
3.306708431077822
 20
175.7970526806358
 30
0.0
 11
2.831180172930316
 21
175.9515611778233
 31
0.0
  0
TEXT
  5
722
330
18
100
AcDbEntity
  8
文字
100
AcDbText
 10
10.57849723352069
 20
171.4664257089545
 30
0.0
 40
2.5
  1
40
  7
STYLE3
100
AcDbText
  0
CIRCLE
  5
727
330
18
100
AcDbEntity
  8
針
100
AcDbCircle
 10
1.989189978675938
 20
187.3388548154308
 30
0.0
 40
1.5
  0
CIRCLE
  5
728
330
18
100
AcDbEntity
  8
針
100
AcDbCircle
 10
1.989189978675938
 20
187.3388548154308
 30
0.0
 40
1.9
  0
LINE
  5
729
330
18
100
AcDbEntity
  8
文字
100
AcDbLine
 10
-1.110810021324084
 20
181.9648834039169
 30
0.0
 11
-1.31081002132413
 21
181.9648834039168
 31
0.0
  0
LINE
  5
72A
330
18
100
AcDbEntity
  8
目盛
100
AcDbLine
 10
1.581169927065161
 20
181.1077141271979
 30
0.0
 11
1.287277300918958
 21
180.7032056300104
 31
0.0
  0
LINE
  5
72B
330
18
100
AcDbEntity
  8
目盛
100
AcDbLine
 10
-1.21081002132405
 20
182.0148834039169
 30
0.0
 11
-1.21081002132405
 21
181.5148834039169
 31
0.0
  0
ARC
  5
72C
330
18
100
AcDbEntity
  8
針
100
AcDbCircle
 10
5.589189978676017
 20
190.4376449018999
 30
0.0
 40
3.0
100
AcDbArc
 50
180.0
 51
209.4722791770395
  0
CIRCLE
  5
72D
330
18
100
AcDbEntity
  8
針
100
AcDbCircle
 10
1.989189978675995
 20
187.3388548154308
 30
0.0
 40
0.0000000000000568
  0
CIRCLE
  5
72E
330
18
100
AcDbEntity
  8
針
100
AcDbCircle
 10
1.989189978675938
 20
187.3388548154308
 30
0.0
 40
0.475
  0
ARC
  5
72F
330
18
100
AcDbEntity
  8
針
100
AcDbCircle
 10
-1.610810021324141
 20
190.4376449018999
 30
0.0
 40
3.0
100
AcDbArc
 50
330.5277208229603
 51
0.0
  0
POINT
  5
730
330
18
100
AcDbEntity
  8
DEFPOINTS
  6
ByBlock
 62
     0
100
AcDbPoint
 10
1.989189978675938
 20
187.3388548154308
 30
0.0
  0
POINT
  5
731
330
18
100
AcDbEntity
  8
DEFPOINTS
  6
ByBlock
 62
     0
100
AcDbPoint
 10
1.989189978675938
 20
187.3388548154308
 30
0.0
  0
LINE
  5
73E
330
18
100
AcDbEntity
  8
目盛
100
AcDbLine
 10
-13.75539345768373
 20
204.1051332461233
 30
0.0
 11
-12.59166337760502
 21
202.8658865795069
 31
0.0
  0
LINE
  5
73F
330
18
100
AcDbEntity
  8
目盛
100
AcDbLine
 10
-12.67156178554376
 20
205.060659399274
 30
0.0
 11
-11.58794100297103
 21
203.7507868865552
 31
0.0
  0
LINE
  5
740
330
18
100
AcDbEntity
  8
目盛
100
AcDbLine
 10
-11.52987082405087
 20
205.9462456860546
 30
0.0
 11
-9.94285064286123
 21
203.7618998012423
 31
0.0
  0
TEXT
  5
741
330
18
100
AcDbEntity
  8
文字
100
AcDbText
 10
-11.00333468511849
 20
200.7488298289877
 30
0.0
 40
2.5
  1
90
  7
STYLE3
100
AcDbText
  0
LINE
  5
742
330
18
100
AcDbEntity
  8
目盛
100
AcDbLine
 10
-14.77708845201636
 20
203.0834382517908
 30
0.0
 11
-13.53784178539996
 21
201.919708171712
 31
0.0
  0
LINE
  5
743
330
18
100
AcDbEntity
  8
目盛
100
AcDbLine
 10
-17.43035230787024
 20
199.6628710999478
 30
0.0
 11
-15.99499483451683
 21
198.7519655484835
 31
0.0
  0
LINE
  5
744
330
18
100
AcDbEntity
  8
目盛
100
AcDbLine
 10
-16.61820089194776
 20
200.8579156181577
 30
0.0
 11
-14.43385500713549
 21
199.270895436968
 31
0.0
  0
LINE
  5
745
330
18
100
AcDbEntity
  8
目盛
100
AcDbLine
 10
-15.73261460516704
 20
201.9996065796509
 30
0.0
 11
-14.42274209244823
 21
200.915985797078
 31
0.0
  0
LINE
  5
753
330
18
100
AcDbEntity
  8
目盛
100
AcDbLine
 10
-10.33482630584075
 20
206.7583971019772
 30
0.0
 11
-9.423920754376524
 21
205.3230396286238
 31
0.0
  0
LINE
  5
754
330
18
100
AcDbEntity
  8
目盛
100
AcDbLine
 10
-2.320580256795494
 20
209.9314615821907
 30
0.0
 11
-2.002032021999809
 21
208.2615732559519
 31
0.0
  0
LINE
  5
755
330
18
100
AcDbEntity
  8
目盛
100
AcDbLine
 10
-9.09114452566331
 20
207.4939084564398
 30
0.0
 11
-8.272163279690403
 21
206.0041871003652
 31
0.0
  0
LINE
  5
756
330
18
100
AcDbEntity
  8
目盛
100
AcDbLine
 10
-7.803733727320548
 20
208.1498770221493
 30
0.0
 11
-7.079908931659929
 21
206.6116710329571
 31
0.0
  0
LINE
  5
757
330
18
100
AcDbEntity
  8
目盛
100
AcDbLine
 10
-6.477674733071467
 20
208.7237139908606
 30
0.0
 11
-5.851862993507495
 21
207.1430939648507
 31
0.0
  0
LINE
  5
758
330
18
100
AcDbEntity
  8
目盛
100
AcDbLine
 10
-5.118200891947765
 20
209.2131546902193
 30
0.0
 11
-4.2838550071354
 21
206.6453020962224
 31
0.0
  0
LINE
  5
759
330
18
100
AcDbEntity
  8
目盛
100
AcDbLine
 10
-3.730677426115448
 20
209.6162675213894
 30
0.0
 11
-3.307904617935264
 21
207.9696761474707
 31
0.0
  0
TEXT
  5
789
330
18
100
AcDbEntity
  8
文字
100
AcDbText
 10
10.1890906039614
 20
200.1583679111651
 30
0.0
 40
2.5
  1
10
  7
STYLE3
100
AcDbText
  0
LINE
  5
78F
330
18
100
AcDbEntity
  8
目盛
100
AcDbLine
 10
-0.8934743933028812
 20
210.1574929456638
 30
0.0
 11
-0.680407896243537
 21
208.4708979534292
 31
0.0
  0
LINE
  5
790
330
18
100
AcDbEntity
  8
目盛
100
AcDbLine
 10
0.5450080295019575
 20
210.293469569281
 30
0.0
 11
0.6517519127017409
 21
208.596824130953
 31
0.0
  0
LINE
  5
791
330
18
100
AcDbEntity
  8
目盛
100
AcDbLine
 10
1.989189978675995
 20
210.3388548154308
 30
0.0
 11
1.989189978675995
 21
207.6388548154308
 31
0.0
  0
LINE
  5
792
330
18
100
AcDbEntity
  8
目盛
100
AcDbLine
 10
3.43337192785043
 20
210.2934695692811
 30
0.0
 11
3.326628044650533
 21
208.596824130953
 31
0.0
  0
LINE
  5
793
330
18
100
AcDbEntity
  8
目盛
100
AcDbLine
 10
4.871854350655212
 20
210.1574929456638
 30
0.0
 11
4.658787853595868
 21
208.4708979534292
 31
0.0
  0
LINE
  5
794
330
18
100
AcDbEntity
  8
目盛
100
AcDbLine
 10
6.298960214147768
 20
209.9314615821906
 30
0.0
 11
5.980411979352084
 21
208.2615732559519
 31
0.0
  0
TEXT
  5
795
330
18
100
AcDbEntity
  8
文字
100
AcDbText
 10
0.7748794562270405
 20
204.0798626791008
 30
0.0
 40
2.5
  1
0
  7
STYLE3
100
AcDbText
  0
LINE
  5
796
330
18
100
AcDbEntity
  8
針
100
AcDbLine
 10
1.989189978675881
 20
209.3388548154309
 30
0.0
 11
1.899189978675963
 21
209.3388548154309
 31
0.0
  0
LINE
  5
797
330
18
100
AcDbEntity
  8
針
100
AcDbLine
 10
1.989189978675995
 20
209.3388548154309
 30
0.0
 11
2.079189978675913
 21
209.3388548154309
 31
0.0
  0
LINE
  5
798
330
18
100
AcDbEntity
  8
目盛
100
AcDbLine
 10
9.096580849299812
 20
209.2131546902193
 30
0.0
 11
8.262234964487447
 21
206.6453020962224
 31
0.0
  0
LINE
  5
799
330
18
100
AcDbEntity
  8
目盛
100
AcDbLine
 10
10.4560546904238
 20
208.7237139908605
 30
0.0
 11
9.830242950859769
 21
207.1430939648505
 31
0.0
  0
LINE
  5
79A
330
18
100
AcDbEntity
  8
目盛
100
AcDbLine
 10
7.709057383467779
 20
209.6162675213892
 30
0.0
 11
7.286284575287538
 21
207.9696761474707
 31
0.0
  0
LINE
  5
79B
330
18
100
AcDbEntity
  8
目盛
100
AcDbLine
 10
11.78211368467288
 20
208.1498770221492
 30
0.0
 11
11.0582888890122
 21
206.6116710329569
 31
0.0
  0
LINE
  5
79C
330
18
100
AcDbEntity
  8
目盛
100
AcDbLine
 10
13.06952448301547
 20
207.4939084564396
 30
0.0
 11
12.25054323704262
 21
206.004187100365
 31
0.0
  0
LINE
  5
79D
330
18
100
AcDbEntity
  8
目盛
100
AcDbLine
 10
14.31320626319302
 20
206.758397101977
 30
0.0
 11
13.40230071172874
 21
205.3230396286236
 31
0.0
  0
TEXT
  5
7AF
330
18
100
AcDbEntity
  8
文字
100
AcDbText
 10
17.14379441453695
 20
190.5680219023924
 30
0.0
 40
2.5
  1
20
  7
STYLE3
100
AcDbText
  0
LINE
  5
7B1
330
18
100
AcDbEntity
  8
目盛
100
AcDbLine
 10
23.8634898534645
 20
180.231463944807
 30
0.0
 11
21.29563725946758
 21
181.0658098296194
 31
0.0
  0
TEXT
  5
7B2
330
18
100
AcDbEntity
  8
文字
100
AcDbText
 10
16.37606237189618
 20
180.090025744395
 30
0.0
 40
2.5
  1
30
  7
STYLE3
100
AcDbText
  0
LINE
  5
7B3
330
18
100
AcDbEntity
  8
目盛
100
AcDbLine
 10
23.37404915410565
 20
178.871990103683
 30
0.0
 11
21.79342912809568
 21
179.497801843247
 31
0.0
  0
LINE
  5
7B4
330
18
100
AcDbEntity
  8
目盛
100
AcDbLine
 10
20.59658084929976
 20
173.8197940127039
 30
0.0
 11
18.41223496448742
 21
175.4068141938936
 31
0.0
  0
LINE
  5
7B5
330
18
100
AcDbEntity
  8
目盛
100
AcDbLine
 10
19.71099456251903
 20
172.6781030512108
 30
0.0
 11
18.40112204980022
 21
173.7617238337836
 31
0.0
  0
LINE
  5
7B6
330
18
100
AcDbEntity
  8
目盛
100
AcDbLine
 10
18.75546840936834
 20
171.5942713790708
 30
0.0
 11
17.51622174275195
 21
172.7580014591496
 31
0.0
  0
LINE
  5
7B7
330
18
100
AcDbEntity
  8
目盛
100
AcDbLine
 10
17.73377341503573
 20
170.5725763847383
 30
0.0
 11
16.570043334957
 21
171.8118230513546
 31
0.0
  0
LINE
  5
7B8
330
18
100
AcDbEntity
  8
目盛
100
AcDbLine
 10
16.64994174289569
 20
169.6170502315876
 30
0.0
 11
15.56632096032302
 21
170.9269227443064
 31
0.0
  0
LINE
  5
7B9
330
18
100
AcDbEntity
  8
目盛
100
AcDbLine
 10
22.80021218539435
 20
177.545931109434
 30
0.0
 11
21.2620061962021
 21
178.2697559050946
 31
0.0
  0
LINE
  5
7BA
330
18
100
AcDbEntity
  8
目盛
100
AcDbLine
 10
22.14424361968474
 20
176.2585203110913
 30
0.0
 11
20.65452226361021
 21
177.0775015570642
 31
0.0
  0
LINE
  5
7BB
330
18
100
AcDbEntity
  8
目盛
100
AcDbLine
 10
21.40873226522223
 20
175.0148385309137
 30
0.0
 11
19.97337479186882
 21
175.9257440823781
 31
0.0
  0
LINE
  5
7BC
330
18
100
AcDbEntity
  8
目盛
100
AcDbLine
 10
24.58179674543595
 20
191.6486250509022
 30
0.0
 11
22.91190841919718
 21
191.3300768161065
 31
0.0
  0
LINE
  5
7BD
330
18
100
AcDbEntity
  8
目盛
100
AcDbLine
 10
24.80782810890901
 20
190.2215191874097
 30
0.0
 11
23.12123311667449
 21
190.0084526903503
 31
0.0
  0
LINE
  5
7BE
330
18
100
AcDbEntity
  8
目盛
100
AcDbLine
 10
24.94380473252625
 20
188.7830367646049
 30
0.0
 11
23.24715929419824
 21
188.676292881405
 31
0.0
  0
LINE
  5
7BF
330
18
100
AcDbEntity
  8
目盛
100
AcDbLine
 10
24.80782810890901
 20
184.4561904434516
 30
0.0
 11
23.12123311667438
 21
184.6692569405109
 31
0.0
  0
LINE
  5
7C0
330
18
100
AcDbEntity
  8
目盛
100
AcDbLine
 10
24.58179674543578
 20
183.029084579959
 30
0.0
 11
22.91190841919706
 21
183.3476328147547
 31
0.0
  0
LINE
  5
7C1
330
18
100
AcDbEntity
  8
目盛
100
AcDbLine
 10
24.26660268463445
 20
181.618987410639
 30
0.0
 11
22.62001131071583
 21
182.0417602188192
 31
0.0
  0
LINE
  5
7C2
330
18
100
AcDbEntity
  8
目盛
100
AcDbLine
 10
24.989189978676
 20
187.3388548154308
 30
0.0
 11
22.28918997867601
 21
187.3388548154308
 31
0.0
  0
LINE
  5
7C3
330
18
100
AcDbEntity
  8
目盛
100
AcDbLine
 10
24.94380473252625
 20
185.8946728662564
 30
0.0
 11
23.24715929419818
 21
186.0014167494562
 31
0.0
  0
LINE
  5
7C5
330
18
100
AcDbEntity
  8
目盛
100
AcDbLine
 10
17.73377341503601
 20
204.1051332461231
 30
0.0
 11
16.57004333495723
 21
202.8658865795067
 31
0.0
  0
LINE
  5
7C6
330
18
100
AcDbEntity
  8
目盛
100
AcDbLine
 10
16.64994174289609
 20
205.0606593992738
 30
0.0
 11
15.56632096032325
 21
203.750786886555
 31
0.0
  0
LINE
  5
7C7
330
18
100
AcDbEntity
  8
目盛
100
AcDbLine
 10
23.37404915410582
 20
195.8057195271782
 30
0.0
 11
21.7934291280958
 21
195.1799077876143
 31
0.0
  0
LINE
  5
7C8
330
18
100
AcDbEntity
  8
目盛
100
AcDbLine
 10
23.86348985346456
 20
194.4462456860545
 30
0.0
 11
21.29563725946764
 21
193.6118998012423
 31
0.0
  0
LINE
  5
7C9
330
18
100
AcDbEntity
  8
目盛
100
AcDbLine
 10
24.26660268463468
 20
193.0587222202222
 30
0.0
 11
22.62001131071594
 21
192.635949412042
 31
0.0
  0
LINE
  5
7CA
330
18
100
AcDbEntity
  8
目盛
100
AcDbLine
 10
22.14424361968503
 20
198.41918931977
 30
0.0
 11
20.65452226361043
 21
197.6002080737971
 31
0.0
  0
LINE
  5
7CB
330
18
100
AcDbEntity
  8
目盛
100
AcDbLine
 10
22.80021218539446
 20
197.1317785214273
 30
0.0
 11
21.26200619620226
 21
196.4079537257667
 31
0.0
  0
LINE
  5
7CC
330
18
100
AcDbEntity
  8
目盛
100
AcDbLine
 10
19.71099456251926
 20
201.9996065796505
 30
0.0
 11
18.40112204980039
 21
200.9159857970778
 31
0.0
  0
LINE
  5
7CD
330
18
100
AcDbEntity
  8
目盛
100
AcDbLine
 10
20.59658084929981
 20
200.8579156181576
 30
0.0
 11
18.41223496448742
 21
199.270895436968
 31
0.0
  0
LINE
  5
7CE
330
18
100
AcDbEntity
  8
目盛
100
AcDbLine
 10
18.75546840936852
 20
203.0834382517905
 30
0.0
 11
17.51622174275223
 21
201.9197081717118
 31
0.0
  0
LINE
  5
7CF
330
18
100
AcDbEntity
  8
目盛
100
AcDbLine
 10
21.40873226522251
 20
199.6628710999475
 30
0.0
 11
19.97337479186905
 21
198.7519655484832
 31
0.0
  0
ARC
  5
7D1
330
18
100
AcDbEntity
  8
外形線
100
AcDbCircle
 10
24.10204359578723
 20
212.5530354247036
 30
0.0
 40
2.0
100
AcDbArc
 50
109.819764108933
 51
163.8903520418817
  0
LINE
  5
7D2
330
18
100
AcDbEntity
  8
外形線
100
AcDbLine
 10
16.70327553341178
 20
209.2581542177365
 30
0.0
 11
21.01708912720472
 21
214.8299683540294
 31
0.0
  0
LINE
  5
7D3
330
18
100
AcDbEntity
  8
外形線
100
AcDbLine
 10
20.24571001716106
 20
206.4087126042134
 30
0.0
 11
22.46377205056132
 21
214.0885149209686
 31
0.0
  0
ARC
  5
7D4
330
18
100
AcDbEntity
  8
外形線
100
AcDbCircle
 10
20.88628148158875
 20
211.3940366161203
 30
0.0
 40
2.0
100
AcDbArc
 50
109.8197641089328
 51
142.2522235389748
  0
MTEXT
  5
7D6
330
18
100
AcDbEntity
  8
0
  6
ByBlock
 62
     6
100
AcDbMText
 10
-89.16182649457033
 20
238.2458697897407
 30
0.0
 40
2.5
 41
0.0
 71
     5
 72
     1
  1
\A1;14.5
  7
STYLE3
 73
     1
 44
1.0
  0
LINE
  5
7D7
330
18
100
AcDbEntity
  8
0
  6
ByBlock
 62
     2
100
AcDbLine
 10
-93.91182649457039
 20
236.3708697897407
 30
0.0
 11
-84.41182649457028
 21
236.3708697897407
 31
0.0
  0
LINE
  5
7D8
330
18
100
AcDbEntity
  8
0
  6
ByBlock
 62
     2
100
AcDbLine
 10
-93.91182649457039
 20
236.3708697897407
 30
0.0
 11
-85.0427788755228
 21
236.3708697897407
 31
0.0
  0
LINE
  5
7DD
330
18
100
AcDbEntity
  8
外形線
  6
Continuous
100
AcDbLine
 10
-92.71182649457035
 20
227.8388548154308
 30
0.0
 11
-92.71182649457035
 21
221.3388548154308
 31
0.0
  0
LINE
  5
7DE
330
18
100
AcDbEntity
  8
外形線
  6
Continuous
100
AcDbLine
 10
-100.1118264945704
 20
227.8388548154308
 30
0.0
 11
-100.1118264945704
 21
221.3388548154308
 31
0.0
  0
LINE
  5
7DF
330
18
100
AcDbEntity
  8
外形線
  6
Continuous
100
AcDbLine
 10
-100.4118264945704
 20
215.3388548154308
 30
0.0
 11
-92.41182649457039
 21
215.3388548154308
 31
0.0
  0
LINE
  5
7E0
330
18
100
AcDbEntity
  8
外形線
  6
Continuous
100
AcDbLine
 10
-100.4118264945704
 20
221.3388548154308
 30
0.0
 11
-92.41182649457039
 21
221.3388548154308
 31
0.0
  0
LINE
  5
7E1
330
18
100
AcDbEntity
  8
ﾊｯﾁﾝｸ
  6
Continuous
100
AcDbLine
 10
-96.41182649457062
 20
218.4614682736152
 30
0.0
 11
-99.28921303638617
 21
221.3388548154308
 31
0.0
  0
LINE
  5
7E2
330
18
100
AcDbEntity
  8
ﾊｯﾁﾝｸ
  6
Continuous
100
AcDbLine
 10
-96.41182649457062
 20
216.6937013206489
 30
0.0
 11
-100.4118264945706
 21
220.6937013206489
 31
0.0
  0
LINE
  5
7E3
330
18
100
AcDbEntity
  8
ﾊｯﾁﾝｸ
  6
Continuous
100
AcDbLine
 10
-100.4118264945706
 20
215.8020477528295
 30
0.0
 11
-96.41182649457062
 21
219.8020477528295
 31
0.0
  0
LINE
  5
7E4
330
18
100
AcDbEntity
  8
ﾊｯﾁﾝｸ
  6
Continuous
100
AcDbLine
 10
-100.4118264945706
 20
217.5698147057959
 30
0.0
 11
-96.64278638493568
 21
221.3388548154308
 31
0.0
  0
LINE
  5
7E5
330
18
100
AcDbEntity
  8
ﾊｯﾁﾝｸ
  6
Continuous
100
AcDbLine
 10
-100.4118264945706
 20
219.3375816587622
 30
0.0
 11
-98.41055333790212
 21
221.3388548154308
 31
0.0
  0
LINE
  5
7E6
330
18
100
AcDbEntity
  8
外形線
  6
Continuous
100
AcDbLine
 10
-100.4118264945704
 20
221.3388548154308
 30
0.0
 11
-100.4118264945704
 21
215.3388548154308
 31
0.0
  0
LINE
  5
7E7
330
18
100
AcDbEntity
  8
ﾊｯﾁﾝｸ
  6
Continuous
100
AcDbLine
 10
-96.82474694231894
 20
215.3388548154308
 30
0.0
 11
-100.4118264945706
 21
218.9259343676825
 31
0.0
  0
LINE
  5
7E8
330
18
100
AcDbEntity
  8
ﾊｯﾁﾝｸ
  6
Continuous
100
AcDbLine
 10
-98.59251389528527
 20
215.3388548154307
 30
0.0
 11
-100.4118264945706
 21
217.1581674147161
 31
0.0
  0
LINE
  5
7E9
330
18
100
AcDbEntity
  8
ﾊｯﾁﾝｸ
  6
Continuous
100
AcDbLine
 10
-100.3602808482516
 20
215.3388548154308
 30
0.0
 11
-100.4118264945706
 21
215.3904004617498
 31
0.0
  0
LINE
  5
7EA
330
18
100
AcDbEntity
  8
ﾊｯﾁﾝｸ
  6
Continuous
100
AcDbLine
 10
-97.33948552603658
 20
215.3388548154308
 30
0.0
 11
-96.41182649457062
 21
216.2665138468968
 31
0.0
  0
LINE
  5
7EB
330
18
100
AcDbEntity
  8
ﾊｯﾁﾝｸ
  6
Continuous
100
AcDbLine
 10
-99.10725247900302
 20
215.3388548154308
 30
0.0
 11
-96.41182649457062
 21
218.0342807998631
 31
0.0
  0
LINE
  5
7EC
330
18
100
AcDbEntity
  8
ﾊｯﾁﾝｸ
  6
Continuous
100
AcDbLine
 10
-100.4118264945706
 20
221.1053486117286
 30
0.0
 11
-100.1783202908684
 21
221.3388548154308
 31
0.0
  0
LINE
  5
7ED
330
18
100
AcDbEntity
  8
ﾊｯﾁﾝｸ
  6
Continuous
100
AcDbLine
 10
-96.41182649457062
 20
220.2292352265816
 30
0.0
 11
-97.52144608341978
 21
221.3388548154307
 31
0.0
  0
LINE
  5
7EE
330
18
100
AcDbEntity
  8
外形線
  6
Continuous
100
AcDbLine
 10
-92.41182649457039
 20
221.3388548154308
 30
0.0
 11
-92.41182649457039
 21
215.3388548154308
 31
0.0
  0
INSERT
  5
7EF
330
18
100
AcDbEntity
  8
0
  6
ByBlock
 62
     2
100
AcDbBlockReference
  2
_OPEN
 10
-96.41182649457039
 20
236.3708697897407
 30
0.0
 41
2.5
 42
2.5
 43
2.5
 50
180.0
  0
INSERT
  5
7F0
330
18
100
AcDbEntity
  8
0
  6
ByBlock
 62
     2
100
AcDbBlockReference
  2
_OPEN
 10
-96.41182649457039
 20
236.3708697897407
 30
0.0
 41
2.5
 42
2.5
 43
2.5
 50
180.0
  0
LINE
  5
7F1
330
18
100
AcDbEntity
  8
外形線
  6
Continuous
100
AcDbLine
 10
-100.1118264945704
 20
227.8388548154308
 30
0.0
 11
-92.71182649457035
 21
227.8388548154308
 31
0.0
  0
ARC
  5
7F2
330
18
100
AcDbEntity
  8
外形線
  6
Continuous
100
AcDbCircle
 10
-96.41182649457039
 20
221.493854815431
 30
0.0
 40
7.344999999999885
100
AcDbArc
 50
59.75198538337818
 51
120.2480146166212
  0
LINE
  5
7F3
330
18
100
AcDbEntity
  8
0
  6
ByBlock
 62
     2
100
AcDbLine
 10
-96.41182649457039
 20
230.6448443413965
 30
0.0
 11
-96.41182649457039
 21
237.6208697897407
 31
0.0
  0
POINT
  5
7F4
330
18
100
AcDbEntity
  8
DEFPOINTS
  6
ByBlock
 62
     0
100
AcDbPoint
 10
-96.41182649457039
 20
230.6448443413965
 30
0.0
  0
POINT
  5
7F5
330
18
100
AcDbEntity
  8
DEFPOINTS
  6
ByBlock
 62
     0
100
AcDbPoint
 10
-96.41182649457039
 20
230.6448443413965
 30
0.0
  0
POINT
  5
7F6
330
18
100
AcDbEntity
  8
DEFPOINTS
  6
ByBlock
 62
     0
100
AcDbPoint
 10
-96.41182649457039
 20
228.8388548154308
 30
0.0
  0
POINT
  5
7F9
330
18
100
AcDbEntity
  8
DEFPOINTS
  6
ByBlock
 62
     0
100
AcDbPoint
 10
-96.41182649457039
 20
236.3708697897407
 30
0.0
  0
LINE
  5
7FC
330
18
100
AcDbEntity
  8
0
  6
ByBlock
 62
     2
100
AcDbLine
 10
-81.91182649457028
 20
237.6208697897407
 30
0.0
 11
-81.91182649457028
 21
238.2243363420503
 31
0.0
  0
INSERT
  5
7FD
330
18
100
AcDbEntity
  8
0
  6
ByBlock
 62
     2
100
AcDbBlockReference
  2
_OPEN
 10
-81.91182649457028
 20
236.3708697897407
 30
0.0
 41
2.5
 42
2.5
 43
2.5
  0
POINT
  5
7FE
330
18
100
AcDbEntity
  8
DEFPOINTS
  6
ByBlock
 62
     0
100
AcDbPoint
 10
-81.91182649457028
 20
237.6208697897407
 30
0.0
  0
POINT
  5
7FF
330
18
100
AcDbEntity
  8
DEFPOINTS
  6
ByBlock
 62
     0
100
AcDbPoint
 10
-81.91182649457028
 20
236.3708697897407
 30
0.0
  0
POINT
  5
801
330
18
100
AcDbEntity
  8
DEFPOINTS
  6
ByBlock
 62
     0
100
AcDbPoint
 10
-81.91182649457028
 20
236.9743363420503
 30
0.0
  0
LINE
  5
80A
330
18
100
AcDbEntity
  8
ﾊｯﾁﾝｸ
  6
Continuous
100
AcDbLine
 10
1.989189978676108
 20
216.6937013206488
 30
0.0
 11
-2.010810021323891
 21
220.6937013206488
 31
0.0
  0
LINE
  5
80B
330
18
100
AcDbEntity
  8
ﾊｯﾁﾝｸ
  6
Continuous
100
AcDbLine
 10
1.576269530927788
 20
215.3388548154307
 30
0.0
 11
-2.010810021323891
 21
218.9259343676824
 31
0.0
  0
LINE
  5
80C
330
18
100
AcDbEntity
  8
ﾊｯﾁﾝｸ
  6
Continuous
100
AcDbLine
 10
-0.1914974220385943
 20
215.3388548154307
 30
0.0
 11
-2.010810021323891
 21
217.158167414716
 31
0.0
  0
LINE
  5
80D
330
18
100
AcDbEntity
  8
ﾊｯﾁﾝｸ
  6
Continuous
100
AcDbLine
 10
-2.010810021323891
 20
215.8020477528295
 30
0.0
 11
1.989189978676165
 21
219.8020477528295
 31
0.0
  0
LINE
  5
80E
330
18
100
AcDbEntity
  8
ﾊｯﾁﾝｸ
  6
Continuous
100
AcDbLine
 10
-2.010810021323891
 20
217.5698147057958
 30
0.0
 11
1.758230088310995
 21
221.3388548154307
 31
0.0
  0
LINE
  5
80F
330
18
100
AcDbEntity
  8
ﾊｯﾁﾝｸ
  6
Continuous
100
AcDbLine
 10
-2.010810021323891
 20
219.3375816587622
 30
0.0
 11
-0.0095368646553879
 21
221.3388548154307
 31
0.0
  0
ARC
  5
810
330
18
100
AcDbEntity
  8
外形線
  6
Continuous
100
AcDbCircle
 10
1.989189978675995
 20
221.4938548154309
 30
0.0
 40
7.344999999999885
100
AcDbArc
 50
59.75198538337817
 51
120.2480146166212
  0
LINE
  5
811
330
18
100
AcDbEntity
  8
外形線
  6
Continuous
100
AcDbLine
 10
-2.010810021324004
 20
215.3388548154307
 30
0.0
 11
5.989189978675995
 21
215.3388548154307
 31
0.0
  0
LINE
  5
812
330
18
100
AcDbEntity
  8
外形線
  6
Continuous
100
AcDbLine
 10
-2.010810021323891
 20
221.3388548154307
 30
0.0
 11
5.989189978675995
 21
221.3388548154307
 31
0.0
  0
LINE
  5
813
330
18
100
AcDbEntity
  8
外形線
  6
Continuous
100
AcDbLine
 10
-1.710810021323936
 20
227.8388548154307
 30
0.0
 11
5.68918997867604
 21
227.8388548154307
 31
0.0
  0
LINE
  5
814
330
18
100
AcDbEntity
  8
外形線
  6
Continuous
100
AcDbLine
 10
-1.710810021323936
 20
227.8388548154307
 30
0.0
 11
-1.710810021323936
 21
221.3388548154307
 31
0.0
  0
LINE
  5
815
330
18
100
AcDbEntity
  8
外形線
  6
Continuous
100
AcDbLine
 10
-2.010810021323891
 20
221.3388548154307
 30
0.0
 11
-2.010810021323891
 21
215.3388548154307
 31
0.0
  0
LINE
  5
816
330
18
100
AcDbEntity
  8
ﾊｯﾁﾝｸ
  6
Continuous
100
AcDbLine
 10
-1.959264375004977
 20
215.3388548154307
 30
0.0
 11
-2.010810021323948
 21
215.3904004617497
 31
0.0
  0
LINE
  5
817
330
18
100
AcDbEntity
  8
ﾊｯﾁﾝｸ
  6
Continuous
100
AcDbLine
 10
-2.010810021323891
 20
221.1053486117286
 30
0.0
 11
-1.777303817621771
 21
221.3388548154307
 31
0.0
  0
LINE
  5
818
330
18
100
AcDbEntity
  8
外形線
  6
Continuous
100
AcDbLine
 10
5.68918997867604
 20
227.8388548154307
 30
0.0
 11
5.68918997867604
 21
221.3388548154307
 31
0.0
  0
LINE
  5
819
330
18
100
AcDbEntity
  8
ﾊｯﾁﾝｸ
  6
Continuous
100
AcDbLine
 10
1.989189978676108
 20
218.4614682736151
 30
0.0
 11
-0.8881965631395019
 21
221.3388548154307
 31
0.0
  0
LINE
  5
81A
330
18
100
AcDbEntity
  8
外形線
  6
Continuous
100
AcDbLine
 10
5.989189978675995
 20
221.3388548154307
 30
0.0
 11
5.989189978675995
 21
215.3388548154307
 31
0.0
  0
LINE
  5
81B
330
18
100
AcDbEntity
  8
ﾊｯﾁﾝｸ
  6
Continuous
100
AcDbLine
 10
1.061530947210087
 20
215.3388548154307
 30
0.0
 11
1.989189978676108
 21
216.2665138468967
 31
0.0
  0
LINE
  5
81C
330
18
100
AcDbEntity
  8
ﾊｯﾁﾝｸ
  6
Continuous
100
AcDbLine
 10
-0.7062360057562956
 20
215.3388548154307
 30
0.0
 11
1.989189978676108
 21
218.0342807998631
 31
0.0
  0
LINE
  5
81D
330
18
100
AcDbEntity
  8
ﾊｯﾁﾝｸ
  6
Continuous
100
AcDbLine
 10
1.989189978676108
 20
220.2292352265815
 30
0.0
 11
0.8795703898268811
 21
221.3388548154307
 31
0.0
  0
POINT
  5
81E
330
18
100
AcDbEntity
  8
DEFPOINTS
  6
ByBlock
 62
     0
100
AcDbPoint
 10
1.989189978675995
 20
228.8388548154308
 30
0.0
  0
POINT
  5
81F
330
18
100
AcDbEntity
  8
DEFPOINTS
  6
ByBlock
 62
     0
100
AcDbPoint
 10
1.989189978675995
 20
228.8388548154308
 30
0.0
  0
LINE
  5
820
330
18
100
AcDbEntity
  8
外形線
100
AcDbLine
 10
21.92039087994329
 20
215.4871228966619
 30
0.0
 11
34.44268785625832
 21
220.0003072557274
 31
0.0
  0
LINE
  5
821
330
18
100
AcDbEntity
  8
外形線
100
AcDbLine
 10
34.44268785625832
 20
220.0003072557274
 30
0.0
 11
34.95128153988935
 21
218.5891614571047
 31
0.0
  0
LINE
  5
98E
330
18
100
AcDbEntity
  8
C
100
AcDbLine
 10
-130.1430087329021
 20
275.9101006014788
 30
0.0
 11
255.0
 21
275.9101006014788
 31
0.0
  0
LINE
  5
98F
330
18
100
AcDbEntity
  8
C
100
AcDbLine
 10
255.0
 20
275.9101006014788
 30
0.0
 11
255.0
 21
0.0
 31
0.0
  0
LINE
  5
990
330
18
100
AcDbEntity
  8
C
100
AcDbLine
 10
255.0
 20
0.0
 30
0.0
 11
-130.1430087329021
 21
0.0
 31
0.0
  0
LINE
  5
991
330
18
100
AcDbEntity
  8
C
100
AcDbLine
 10
-130.1430087329021
 20
0.0
 30
0.0
 11
-130.1430087329021
 21
275.9101006014788
 31
0.0
  0
LINE
  5
99F
330
18
100
AcDbEntity
  8
外形線
100
AcDbLine
 10
-3.510810021324004
 20
139.3388548154308
 30
0.0
 11
11.49038840486839
 21
139.3388548154308
 31
0.0
  0
LINE
  5
9A0
330
18
100
AcDbEntity
  8
外形線
100
AcDbLine
 10
-3.510810021324004
 20
115.8388548154308
 30
0.0
 11
5.54923697067575
 21
115.8388548154307
 31
0.0
  0
LINE
  5
9A1
330
18
100
AcDbEntity
  8
外形線
100
AcDbLine
 10
-3.510810021324004
 20
100.8388548154308
 30
0.0
 11
7.989189978675995
 21
100.8388548154308
 31
0.0
  0
LINE
  5
9A4
330
18
100
AcDbEntity
  8
外形線
100
AcDbLine
 10
-3.510810021324004
 20
157.0181267079587
 30
0.0
 11
-3.510810021324004
 21
139.3388548154308
 31
0.0
  0
LINE
  5
9A5
330
18
100
AcDbEntity
  8
外形線
100
AcDbLine
 10
7.989189978675995
 20
157.3388548154308
 30
0.0
 11
7.989189978675995
 21
146.1596144440501
 31
0.0
  0
LINE
  5
9A6
330
18
100
AcDbEntity
  8
外形線
100
AcDbLine
 10
-3.510810021324004
 20
115.8388548154308
 30
0.0
 11
-3.510810021324004
 21
100.8388548154308
 31
0.0
  0
LINE
  5
9A7
330
18
100
AcDbEntity
  8
外形線
100
AcDbLine
 10
7.989189978675995
 20
109.6668338046612
 30
0.0
 11
7.989189978675995
 21
100.8388548154308
 31
0.0
  0
ARC
  5
9AA
330
18
100
AcDbEntity
  8
外形線
100
AcDbCircle
 10
1.989189978675995
 20
184.3388548154308
 30
0.0
 40
28.0
100
AcDbArc
 50
285.3588855808228
 51
341.2399754484776
  0
ARC
  5
9AD
330
18
100
AcDbEntity
  8
外形線
100
AcDbCircle
 10
51.989189978676
 20
166.8388548154308
 30
0.0
 40
19.0
100
AcDbArc
 50
100.1465016536609
 51
175.3776238728588
  0
ARC
  5
9AE
330
18
100
AcDbEntity
  8
外形線
100
AcDbCircle
 10
51.989189978676
 20
166.8388548154308
 30
0.0
 40
25.0
100
AcDbArc
 50
97.83005111481333
 51
160.1070893074222
  0
ARC
  5
9B3
330
18
100
AcDbEntity
  8
外形線
100
AcDbCircle
 10
176.4834855804666
 20
102.8662449847017
 30
0.0
 40
17.0
100
AcDbArc
 50
259.9429215385797
 51
83.18560079451543
  0
ARC
  5
9B4
330
18
100
AcDbEntity
  8
外形線
100
AcDbCircle
 10
182.4321547487095
 20
102.0830878313814
 30
0.0
 40
26.0
100
AcDbArc
 50
258.9471999132516
 51
84.41907587657651
  0
ARC
  5
9B5
330
18
100
AcDbEntity
  8
外形線
100
AcDbCircle
 10
202.2610519761857
 20
99.47256398698037
 30
0.0
 40
40.0
100
AcDbArc
 50
257.5175946427628
 51
85.365441621847
  0
LINE
  5
9B7
330
18
100
AcDbEntity
  8
外形線
100
AcDbLine
 10
8.354031918201457
 20
101.4298537962595
 30
0.0
 11
193.6154600394571
 21
60.41806693397029
 31
0.0
  0
LINE
  5
9B9
330
18
100
AcDbEntity
  8
外形線
100
AcDbLine
 10
7.989189978675995
 20
109.6668338046612
 30
0.0
 11
177.4476032706371
 21
76.56536366635354
 31
0.0
  0
LINE
  5
9BB
330
18
100
AcDbEntity
  8
外形線
100
AcDbLine
 10
6.422382789663977
 20
115.7620261895333
 30
0.0
 11
173.5147897959066
 21
86.12746231275282
 31
0.0
  0
LINE
  5
9BF
330
18
100
AcDbEntity
  8
外形線
100
AcDbLine
 10
11.8247860317501
 20
139.6635239523207
 30
0.0
 11
178.5005952546664
 21
119.7461522285893
 31
0.0
  0
LINE
  5
9C0
330
18
100
AcDbEntity
  8
外形線
100
AcDbLine
 10
8.891938432198635
 20
145.1643546102842
 30
0.0
 11
184.9606949571208
 21
127.9598435092952
 31
0.0
  0
LINE
  5
9C1
330
18
100
AcDbEntity
  8
外形線
100
AcDbLine
 10
46.80581893754266
 20
152.2057866692185
 30
0.0
 11
122.266590150172
 21
146.0885455792465
 31
0.0
  0
ARC
  5
9D9
330
18
100
AcDbEntity
  8
外形線
100
AcDbCircle
 10
11.78918997867599
 20
139.3656432362521
 30
0.0
 40
0.3
100
AcDbArc
 50
83.18560079451549
 51
185.1230350829986
  0
LINE
  5
9DA
330
18
100
AcDbEntity
  8
外形線
100
AcDbLine
 10
9.489189978675995
 20
157.3620128949984
 30
0.0
 11
9.489189978675995
 21
146.0130423482346
 31
0.0
  0
ARC
  5
9DB
330
18
100
AcDbEntity
  8
外形線
100
AcDbCircle
 10
8.989189978675995
 20
146.1596144440501
 30
0.0
 40
1.0
100
AcDbArc
 50
180.0
 51
264.4190758765765
  0
ARC
  5
9DC
330
18
100
AcDbEntity
  8
外形線
100
AcDbCircle
 10
10.48918997867599
 20
146.0130423482346
 30
0.0
 40
1.0
100
AcDbArc
 50
180.0
 51
264.4190758765765
  0
ARC
  5
9DF
330
18
100
AcDbEntity
  8
外形線
100
AcDbCircle
 10
62.98918997867599
 20
99.83885481543081
 30
0.0
 40
86.90000000000001
100
AcDbArc
 50
41.89293196236223
 51
99.50430751718544
  0
ARC
  5
9E0
330
18
100
AcDbEntity
  8
外形線
100
AcDbCircle
 10
62.98918997867601
 20
99.83885481543076
 30
0.0
 40
92.90000000000004
100
AcDbArc
 50
35.96185236001058
 51
99.9321131008107
  0
ARC
  5
9E2
330
18
100
AcDbEntity
  8
外形線
100
AcDbCircle
 10
159.168026170747
 20
167.982187869886
 30
0.0
 40
25.0
100
AcDbArc
 50
212.9239530565781
 51
272.5502433878228
  0
ARC
  5
9E8
330
18
100
AcDbEntity
  8
外形線
100
AcDbCircle
 10
122.5443730369447
 20
153.0889898681852
 30
0.0
 40
7.0
100
AcDbArc
 50
267.7178858927617
 51
42.9503889550139
  0
ARC
  5
9F5
330
18
100
AcDbEntity
  8
外形線
100
AcDbCircle
 10
48.01782080269695
 20
167.156741537683
 30
0.0
 40
15.0
100
AcDbArc
 50
175.3654416218468
 51
265.365441621847
  0
LINE
  5
9FA
330
18
100
AcDbEntity
  8
外形線
100
AcDbLine
 10
154.2412003911027
 20
143.4965180070591
 30
0.0
 11
205.4930569499305
 21
139.3417769695523
 31
0.0
  0
LINE
  5
9FD
330
18
100
AcDbEntity
  8
外形線
100
AcDbLine
 10
7.989189978675995
 20
101.1369450683619
 30
0.0
 11
7.989189978675995
 21
100.8388548154308
 31
0.0
  0
ARC
  5
9FE
330
18
100
AcDbEntity
  8
外形線
100
AcDbCircle
 10
8.289189978675992
 20
101.1369450683619
 30
0.0
 40
0.3
100
AcDbArc
 50
77.51759464276279
 51
180.0
  0
ARC
  5
A00
330
18
100
AcDbEntity
  8
外形線
100
AcDbCircle
 10
8.003165730820704
 20
108.6452041841115
 30
0.0
 40
1.0
100
AcDbArc
 50
90.80077768305812
 51
168.9471999132505
  0
ARC
  5
A03
330
18
100
AcDbEntity
  8
外形線
100
AcDbCircle
 10
5.549236970675742
 20
110.8388548154307
 30
0.0
 40
5.0
100
AcDbArc
 50
79.94292153857975
 51
89.99999999999992
  0
LINE
  5
A19
330
18
100
AcDbEntity
  8
中心線
100
AcDbLine
 10
18.28991674048274
 20
120.5954616277753
 30
0.0
 11
223.5029775963334
 21
93.57864962854831
 31
0.0
  0
LINE
  5
A1D
330
18
100
AcDbEntity
  8
隠れ線2
100
AcDbLine
 10
-0.010810021324005
 20
115.8388548154308
 30
0.0
 11
-0.010810021324005
 21
100.8388548154308
 31
0.0
  0
LINE
  5
A1E
330
18
100
AcDbEntity
  8
隠れ線2
100
AcDbLine
 10
3.989189978675995
 20
115.8388548154307
 30
0.0
 11
3.989189978675995
 21
100.8388548154308
 31
0.0
  0
LINE
  5
A27
330
18
100
AcDbEntity
  8
外形線
100
AcDbLine
 10
-0.010810021324005
 20
130.3388548154307
 30
0.0
 11
3.989189978675994
 21
130.3388548154307
 31
0.0
  0
LINE
  5
A28
330
18
100
AcDbEntity
  8
外形線
100
AcDbLine
 10
-0.010810021324005
 20
139.3388548154308
 30
0.0
 11
-0.010810021324005
 21
130.3388548154307
 31
0.0
  0
LINE
  5
A29
330
18
100
AcDbEntity
  8
外形線
100
AcDbLine
 10
3.989189978675994
 20
139.3388548154308
 30
0.0
 11
3.989189978675994
 21
130.3388548154307
 31
0.0
  0
LINE
  5
A5C
330
18
100
AcDbEntity
  8
外形線
100
AcDbLine
 10
4.489189978675995
 20
129.8388548154308
 30
0.0
 11
4.489189978675995
 21
127.3388548154308
 31
0.0
  0
LINE
  5
A5D
330
18
100
AcDbEntity
  8
外形線
 62
     4
100
AcDbLine
 10
0.5668347703337986
 20
127.3388548154308
 30
0.0
 11
2.010210443307869
 21
129.8388548154308
 31
0.0
  0
LINE
  5
A5E
330
18
100
AcDbEntity
  8
外形線
 62
     4
100
AcDbLine
 10
1.989189978675995
 20
127.6399197744834
 30
0.0
 11
0.719634240854532
 21
129.8388548154308
 31
0.0
  0
LINE
  5
A5F
330
18
100
AcDbEntity
  8
外形線
100
AcDbLine
 10
-0.510810021324005
 20
129.8388548154308
 30
0.0
 11
-0.510810021324005
 21
127.3388548154308
 31
0.0
  0
LINE
  5
A60
330
18
100
AcDbEntity
  8
外形線
 62
     4
100
AcDbLine
 10
-0.510810021324005
 20
127.4723192837675
 30
0.0
 11
0.8555099049286241
 21
129.8388548154308
 31
0.0
  0
LINE
  5
A61
330
18
100
AcDbEntity
  8
外形線
 62
     4
100
AcDbLine
 10
1.008309375449357
 20
127.3388548154308
 30
0.0
 11
-0.4350662975247133
 21
129.8388548154308
 31
0.0
  0
LINE
  5
A68
330
18
100
AcDbEntity
  8
外形線
100
AcDbLine
 10
1.989189978675995
 20
127.3388548154308
 30
0.0
 11
4.489189978675995
 21
127.3388548154308
 31
0.0
  0
LINE
  5
A69
330
18
100
AcDbEntity
  8
外形線
100
AcDbLine
 10
1.989189978675995
 20
127.3388548154308
 30
0.0
 11
-0.510810021324005
 21
127.3388548154308
 31
0.0
  0
LINE
  5
A6A
330
18
100
AcDbEntity
  8
外形線
100
AcDbLine
 10
-0.2486321948329078
 20
127.3388548154308
 30
0.0
 11
0.6891899786759837
 21
123.8388548154308
 31
0.0
  0
LINE
  5
A6B
330
18
100
AcDbEntity
  8
外形線
 62
     4
100
AcDbLine
 10
-0.1463911629298877
 20
127.3388548154308
 30
0.0
 11
-0.510810021324005
 21
127.9700467934056
 31
0.0
  0
LINE
  5
A6C
330
18
100
AcDbEntity
  8
外形線
100
AcDbLine
 10
4.227012152184897
 20
127.3388548154308
 30
0.0
 11
3.289189978676006
 21
123.8388548154308
 31
0.0
  0
ARC
  5
A6D
330
18
100
AcDbEntity
  8
外形線
100
AcDbCircle
 10
1.989189978675995
 20
123.9888548154308
 30
0.0
 40
1.149999999999999
100
AcDbArc
 50
187.494717453927
 51
352.505282546073
  0
LINE
  5
A6E
330
18
100
AcDbEntity
  8
外形線
100
AcDbLine
 10
1.989189978675995
 20
123.8388548154308
 30
0.0
 11
3.289189978676006
 21
123.8388548154308
 31
0.0
  0
LINE
  5
A6F
330
18
100
AcDbEntity
  8
外形線
100
AcDbLine
 10
1.989189978675995
 20
123.8388548154308
 30
0.0
 11
0.6891899786759837
 21
123.8388548154308
 31
0.0
  0
POINT
  5
A70
330
18
100
AcDbEntity
  8
DEFPOINTS
  6
ByBlock
 62
     0
100
AcDbPoint
 10
1.989189978675995
 20
122.8388548154308
 30
0.0
  0
POINT
  5
A71
330
18
100
AcDbEntity
  8
DEFPOINTS
  6
ByBlock
 62
     0
100
AcDbPoint
 10
1.989189978675995
 20
122.8388548154308
 30
0.0
  0
POINT
  5
A72
330
18
100
AcDbEntity
  8
中心線
  6
ByBlock
100
AcDbPoint
 10
1.277160063927567
 20
123.8932757114787
 30
0.0
  0
POINT
  5
A73
330
18
100
AcDbEntity
  8
中心線
  6
ByBlock
100
AcDbPoint
 10
1.277160063927567
 20
123.8932757114787
 30
0.0
  0
LINE
  5
A74
330
18
100
AcDbEntity
  8
外形線
 62
     4
100
AcDbLine
 10
1.721535308713043
 20
127.3388548154308
 30
0.0
 11
1.989189978675995
 21
127.8024463026897
 31
0.0
  0
LINE
  5
A77
330
18
100
AcDbEntity
  8
外形線
100
AcDbLine
 10
1.989189978675995
 20
129.8388548154308
 30
0.0
 11
4.489189978675995
 21
129.8388548154308
 31
0.0
  0
LINE
  5
A78
330
18
100
AcDbEntity
  8
外形線
100
AcDbLine
 10
1.989189978675995
 20
130.3388548154307
 30
0.0
 11
-0.260810021324005
 21
130.3388548154308
 31
0.0
  0
LINE
  5
A79
330
18
100
AcDbEntity
  8
外形線
100
AcDbLine
 10
1.989189978675995
 20
129.8388548154308
 30
0.0
 11
-0.510810021324005
 21
129.8388548154308
 31
0.0
  0
LINE
  5
A7A
330
18
100
AcDbEntity
  8
外形線
 62
     4
100
AcDbLine
 10
-0.510810021324005
 20
129.4723192837674
 30
0.0
 11
-0.2991906334506211
 21
129.8388548154308
 31
0.0
  0
LINE
  5
A7B
330
18
100
AcDbEntity
  8
外形線
100
AcDbLine
 10
-0.260810021324005
 20
130.3388548154308
 30
0.0
 11
-0.260810021324005
 21
129.8388548154308
 31
0.0
  0
POINT
  5
A7C
330
18
100
AcDbEntity
  8
DEFPOINTS
  6
ByBlock
 62
     0
100
AcDbPoint
 10
-0.260810021324005
 20
130.3388548154308
 30
0.0
  0
LINE
  5
A7D
330
18
100
AcDbEntity
  8
外形線
100
AcDbLine
 10
1.989189978675995
 20
130.3388548154307
 30
0.0
 11
4.239189978675995
 21
130.3388548154308
 31
0.0
  0
LINE
  5
A7E
330
18
100
AcDbEntity
  8
外形線
 62
     4
100
AcDbLine
 10
1.989189978675995
 20
129.6399197744834
 30
0.0
 11
1.874334779233834
 21
129.8388548154308
 31
0.0
  0
LINE
  5
A7F
330
18
100
AcDbEntity
  8
外形線
100
AcDbLine
 10
4.239189978675995
 20
130.3388548154308
 30
0.0
 11
4.239189978675995
 21
129.8388548154308
 31
0.0
  0
LINE
  5
A84
330
18
100
AcDbEntity
  8
隠れ線2
100
AcDbLine
 10
-94.41182649457038
 20
115.8388548154308
 30
0.0
 11
-94.41182649457038
 21
100.8388548154308
 31
0.0
  0
LINE
  5
A85
330
18
100
AcDbEntity
  8
隠れ線2
100
AcDbLine
 10
-98.41182649457039
 20
115.8388548154308
 30
0.0
 11
-98.41182649457039
 21
100.8388548154308
 31
0.0
  0
LINE
  5
A86
330
18
100
AcDbEntity
  8
外形線
100
AcDbLine
 10
-101.9118264945704
 20
157.3388548154308
 30
0.0
 11
-101.9118264945704
 21
77.08308783138139
 31
0.0
  0
LINE
  5
A87
330
18
100
AcDbEntity
  8
外形線
100
AcDbLine
 10
-101.9118264945704
 20
100.8388548154308
 30
0.0
 11
-90.91182649457039
 21
100.8388548154308
 31
0.0
  0
LINE
  5
A8A
330
18
100
AcDbEntity
  8
外形線
100
AcDbLine
 10
-93.91182649457039
 20
129.8388548154308
 30
0.0
 11
-93.91182649457039
 21
127.3388548154308
 31
0.0
  0
LINE
  5
A8B
330
18
100
AcDbEntity
  8
外形線
 62
     4
100
AcDbLine
 10
-97.39270709779702
 20
127.3388548154308
 30
0.0
 11
-98.8360827707711
 21
129.8388548154308
 31
0.0
  0
LINE
  5
A8C
330
18
100
AcDbEntity
  8
外形線
 62
     4
100
AcDbLine
 10
-98.91182649457039
 20
127.4723192837675
 30
0.0
 11
-97.54550656831776
 21
129.8388548154308
 31
0.0
  0
LINE
  5
A8D
330
18
100
AcDbEntity
  8
外形線
100
AcDbLine
 10
-98.91182649457039
 20
129.8388548154308
 30
0.0
 11
-98.91182649457039
 21
127.3388548154308
 31
0.0
  0
LINE
  5
A8E
330
18
100
AcDbEntity
  8
外形線
 62
     4
100
AcDbLine
 10
-96.41182649457039
 20
127.6399197744834
 30
0.0
 11
-97.68138223239185
 21
129.8388548154308
 31
0.0
  0
LINE
  5
A8F
330
18
100
AcDbEntity
  8
外形線
 62
     4
100
AcDbLine
 10
-97.83418170291259
 20
127.3388548154308
 30
0.0
 11
-96.39080602993852
 21
129.8388548154308
 31
0.0
  0
LINE
  5
A91
330
18
100
AcDbEntity
  8
外形線
100
AcDbLine
 10
-101.9118264945704
 20
115.8388548154308
 30
0.0
 11
-90.9118264945704
 21
115.8388548154308
 31
0.0
  0
ARC
  5
A92
330
18
100
AcDbEntity
  8
外形線
100
AcDbCircle
 10
-96.41182649457039
 20
123.9888548154308
 30
0.0
 40
1.149999999999999
100
AcDbArc
 50
187.494717453927
 51
352.505282546073
  0
POINT
  5
A93
330
18
100
AcDbEntity
  8
DEFPOINTS
  6
ByBlock
 62
     0
100
AcDbPoint
 10
-96.41182649457039
 20
122.8388548154308
 30
0.0
  0
POINT
  5
A94
330
18
100
AcDbEntity
  8
DEFPOINTS
  6
ByBlock
 62
     0
100
AcDbPoint
 10
-96.41182649457039
 20
122.8388548154308
 30
0.0
  0
LINE
  5
A98
330
18
100
AcDbEntity
  8
外形線
100
AcDbLine
 10
-96.41182649457039
 20
127.3388548154308
 30
0.0
 11
-98.91182649457039
 21
127.3388548154308
 31
0.0
  0
LINE
  5
A99
330
18
100
AcDbEntity
  8
外形線
100
AcDbLine
 10
-98.6496486680793
 20
127.3388548154308
 30
0.0
 11
-97.7118264945704
 21
123.8388548154308
 31
0.0
  0
LINE
  5
A9A
330
18
100
AcDbEntity
  8
外形線
 62
     4
100
AcDbLine
 10
-98.54740763617627
 20
127.3388548154308
 30
0.0
 11
-98.91182649457039
 21
127.9700467934056
 31
0.0
  0
LINE
  5
A9B
330
18
100
AcDbEntity
  8
外形線
 62
     4
100
AcDbLine
 10
-96.67948116453334
 20
127.3388548154308
 30
0.0
 11
-96.41182649457039
 21
127.8024463026897
 31
0.0
  0
LINE
  5
A9C
330
18
100
AcDbEntity
  8
外形線
100
AcDbLine
 10
-96.41182649457039
 20
127.3388548154308
 30
0.0
 11
-93.91182649457039
 21
127.3388548154308
 31
0.0
  0
LINE
  5
A9D
330
18
100
AcDbEntity
  8
外形線
100
AcDbLine
 10
-96.41182649457039
 20
123.8388548154308
 30
0.0
 11
-95.11182649457039
 21
123.8388548154308
 31
0.0
  0
POINT
  5
A9E
330
18
100
AcDbEntity
  8
中心線
  6
ByBlock
100
AcDbPoint
 10
-97.12385640931882
 20
123.8932757114788
 30
0.0
  0
POINT
  5
A9F
330
18
100
AcDbEntity
  8
中心線
  6
ByBlock
100
AcDbPoint
 10
-97.12385640931882
 20
123.8932757114788
 30
0.0
  0
LINE
  5
AA0
330
18
100
AcDbEntity
  8
外形線
100
AcDbLine
 10
-96.41182649457039
 20
123.8388548154308
 30
0.0
 11
-97.7118264945704
 21
123.8388548154308
 31
0.0
  0
LINE
  5
AA1
330
18
100
AcDbEntity
  8
外形線
100
AcDbLine
 10
-94.17400432106148
 20
127.3388548154308
 30
0.0
 11
-95.11182649457039
 21
123.8388548154308
 31
0.0
  0
LINE
  5
AA3
330
18
100
AcDbEntity
  8
外形線
100
AcDbLine
 10
-94.41182649457038
 20
139.3388548154308
 30
0.0
 11
-94.41182649457038
 21
130.3388548154308
 31
0.0
  0
LINE
  5
AA4
330
18
100
AcDbEntity
  8
外形線
100
AcDbLine
 10
-98.41182649457039
 20
139.3388548154308
 30
0.0
 11
-98.41182649457039
 21
130.3388548154308
 31
0.0
  0
LINE
  5
AA5
330
18
100
AcDbEntity
  8
外形線
100
AcDbLine
 10
-96.41182649457039
 20
129.8388548154308
 30
0.0
 11
-98.91182649457039
 21
129.8388548154308
 31
0.0
  0
LINE
  5
AA6
330
18
100
AcDbEntity
  8
外形線
100
AcDbLine
 10
-96.41182649457039
 20
130.3388548154308
 30
0.0
 11
-98.66182649457039
 21
130.3388548154308
 31
0.0
  0
POINT
  5
AA7
330
18
100
AcDbEntity
  8
DEFPOINTS
  6
ByBlock
 62
     0
100
AcDbPoint
 10
-98.66182649457039
 20
130.3388548154308
 30
0.0
  0
LINE
  5
AA8
330
18
100
AcDbEntity
  8
外形線
100
AcDbLine
 10
-98.66182649457039
 20
130.3388548154308
 30
0.0
 11
-98.66182649457039
 21
129.8388548154308
 31
0.0
  0
LINE
  5
AA9
330
18
100
AcDbEntity
  8
外形線
 62
     4
100
AcDbLine
 10
-98.91182649457039
 20
129.4723192837675
 30
0.0
 11
-98.70020710669701
 21
129.8388548154308
 31
0.0
  0
LINE
  5
AAA
330
18
100
AcDbEntity
  8
外形線
100
AcDbLine
 10
-94.1618264945704
 20
130.3388548154308
 30
0.0
 11
-94.1618264945704
 21
129.8388548154308
 31
0.0
  0
LINE
  5
AAB
330
18
100
AcDbEntity
  8
外形線
 62
     4
100
AcDbLine
 10
-96.41182649457039
 20
129.6399197744834
 30
0.0
 11
-96.52668169401255
 21
129.8388548154308
 31
0.0
  0
LINE
  5
AAC
330
18
100
AcDbEntity
  8
外形線
100
AcDbLine
 10
-96.41182649457039
 20
130.3388548154308
 30
0.0
 11
-94.1618264945704
 21
130.3388548154308
 31
0.0
  0
LINE
  5
AAD
330
18
100
AcDbEntity
  8
外形線
100
AcDbLine
 10
-96.41182649457039
 20
129.8388548154308
 30
0.0
 11
-93.91182649457039
 21
129.8388548154308
 31
0.0
  0
LINE
  5
AAE
330
18
100
AcDbEntity
  8
外形線
100
AcDbLine
 10
-98.41182649457039
 20
130.3388548154308
 30
0.0
 11
-94.41182649457038
 21
130.3388548154308
 31
0.0
  0
LINE
  5
AB0
330
18
100
AcDbEntity
  8
外形線
100
AcDbLine
 10
-101.9118264945704
 20
139.3388548154308
 30
0.0
 11
-90.91182649457039
 21
139.3388548154308
 31
0.0
  0
ARC
  5
AB7
330
18
100
AcDbEntity
  8
外形線
100
AcDbCircle
 10
-96.41182649457039
 20
61.72256398698036
 30
0.0
 40
2.25
100
AcDbArc
 50
180.0
 51
0.0
  0
LINE
  5
AB8
330
18
100
AcDbEntity
  8
外形線
100
AcDbLine
 10
-98.66182649457039
 20
99.30231352345021
 30
0.0
 11
-98.66182649457039
 21
74.0830878313814
 31
0.0
  0
LINE
  5
AB9
330
18
100
AcDbEntity
  8
外形線
100
AcDbLine
 10
-94.1618264945704
 20
99.30231352345058
 30
0.0
 11
-94.1618264945704
 21
74.08308783138136
 31
0.0
  0
LINE
  5
ABB
330
18
100
AcDbEntity
  8
外形線
100
AcDbLine
 10
-90.91182649457039
 20
157.3388548154308
 30
0.0
 11
-90.91182649457039
 21
77.08308783138138
 31
0.0
  0
LINE
  5
ABC
330
18
100
AcDbEntity
  8
外形線
100
AcDbLine
 10
-101.9118264945704
 20
157.3388548154308
 30
0.0
 11
-90.9118264945704
 21
157.3388548154308
 31
0.0
  0
LINE
  5
AE4
330
18
100
AcDbEntity
  8
外形線
100
AcDbLine
 10
-102.9118264945704
 20
211.8388548154309
 30
0.0
 11
-102.9118264945703
 21
162.8388548154308
 31
0.0
  0
LINE
  5
AE5
330
18
100
AcDbEntity
  8
外形線
100
AcDbLine
 10
-104.0118264945703
 20
210.3388548154308
 30
0.0
 11
-104.0118264945703
 21
164.3388548154308
 31
0.0
  0
LINE
  5
AE7
330
18
100
AcDbEntity
  8
外形線
100
AcDbLine
 10
-91.41182649457025
 20
162.8388548154308
 30
0.0
 11
-102.9118264945703
 21
162.8388548154308
 31
0.0
  0
LINE
  5
AE8
330
18
100
AcDbEntity
  8
外形線
100
AcDbLine
 10
-100.4118264945702
 20
162.8388548154308
 30
0.0
 11
-100.4118264945703
 21
157.3388548154308
 31
0.0
  0
LINE
  5
AEA
330
18
100
AcDbEntity
  8
外形線
100
AcDbLine
 10
-102.9118264945704
 20
164.3388548154308
 30
0.0
 11
-104.0118264945703
 21
164.3388548154308
 31
0.0
  0
LINE
  5
AED
330
18
100
AcDbEntity
  8
外形線
100
AcDbLine
 10
-91.4118264945703
 20
211.8388548154308
 30
0.0
 11
-102.9118264945704
 21
211.8388548154309
 31
0.0
  0
POINT
  5
AEF
330
18
100
AcDbEntity
  8
DEFPOINTS
  6
ByBlock
 62
     0
100
AcDbPoint
 10
-104.0118264945703
 20
210.3388548154308
 30
0.0
  0
POINT
  5
AF0
330
18
100
AcDbEntity
  8
DEFPOINTS
  6
ByBlock
 62
     0
100
AcDbPoint
 10
-104.0118264945703
 20
210.3388548154308
 30
0.0
  0
LINE
  5
AF1
330
18
100
AcDbEntity
  8
外形線
100
AcDbLine
 10
-102.9118264945704
 20
210.3388548154308
 30
0.0
 11
-104.0118264945703
 21
210.3388548154308
 31
0.0
  0
LINE
  5
AF2
330
18
100
AcDbEntity
  8
外形線
100
AcDbLine
 10
-92.41182649457043
 20
162.8388548154308
 30
0.0
 11
-92.41182649457043
 21
157.3388548154308
 31
0.0
  0
DIMENSION
  5
B09
330
18
100
AcDbEntity
  8
寸法線
100
AcDbDimension
  2
*D4
 10
-96.41182649457039
 20
236.3708697897407
 30
0.0
 11
-100.2118264945703
 21
238.2458697897407
 31
0.0
 12
-15.36548772699768
 22
4.5
 32
0.0
 70
    32
 71
     5
 42
-1.0
  3
STYLE3
100
AcDbAlignedDimension
 13
-104.0118264945703
 23
210.3388548154308
 33
0.0
 14
-96.41182649457039
 24
233.619702607174
 34
0.0
100
AcDbRotatedDimension
1001
ACAD
1000
DSTYLE
1002
{
1070
   271
1070
     2
1002
}
  0
LINE
  5
B0A
330
18
100
AcDbEntity
  8
隠れ線2
100
AcDbLine
 10
-100.4118264945702
 20
157.3388548154308
 30
0.0
 11
-100.4118264945702
 21
139.3388548154308
 31
0.0
  0
LINE
  5
B0B
330
18
100
AcDbEntity
  8
隠れ線2
100
AcDbLine
 10
-92.41182649457043
 20
157.3388548154308
 30
0.0
 11
-92.41182649457041
 21
139.3388548154308
 31
0.0
  0
LINE
  5
B0E
330
18
100
AcDbEntity
  8
中心線
100
AcDbLine
 10
5.933545111875673
 20
149.3388548154308
 30
0.0
 11
11.49038737614007
 21
149.3388548154308
 31
0.0
  0
LINE
  5
B0F
330
18
100
AcDbEntity
  8
中心線
100
AcDbLine
 10
5.933545111875673
 20
154.3388548154308
 30
0.0
 11
11.49038737614007
 21
154.3388548154308
 31
0.0
  0
LINE
  5
B1F
330
18
100
AcDbEntity
  8
中心線
100
AcDbLine
 10
8.739189978675995
 20
156.5191972504482
 30
0.0
 11
8.739189978675995
 21
147.2211609358338
 31
0.0
  0
ELLIPSE
  5
B24
330
18
100
AcDbEntity
  8
外形線
100
AcDbEllipse
 10
8.739189978675995
 20
154.3388548154308
 30
0.0
 11
0.0
 21
1.5
 31
0.0
210
0.0
220
0.0
230
1.0
 40
0.4666666666666662
 41
0.0
 42
6.283185307179586
  0
ELLIPSE
  5
B29
330
18
100
AcDbEntity
  8
寸法線
100
AcDbEllipse
 10
8.739189978675995
 20
154.3388548154308
 30
0.0
 11
0.0
 21
0.9000000000000056
 31
0.0
210
0.0
220
0.0
230
1.0
 40
0.555555555555552
 41
0.0
 42
6.283185307179586
  0
ELLIPSE
  5
B2A
330
18
100
AcDbEntity
  8
寸法線
100
AcDbEllipse
 10
8.739189978675995
 20
149.3388548154308
 30
0.0
 11
0.0
 21
0.9000000000000056
 31
0.0
210
0.0
220
0.0
230
1.0
 40
0.555555555555552
 41
0.0
 42
6.283185307179586
  0
ELLIPSE
  5
B2B
330
18
100
AcDbEntity
  8
外形線
100
AcDbEllipse
 10
8.739189978675995
 20
149.3388548154308
 30
0.0
 11
0.0
 21
1.5
 31
0.0
210
0.0
220
0.0
230
1.0
 40
0.4666666666666662
 41
0.0
 42
6.283185307179586
  0
LINE
  5
B2F
330
18
100
AcDbEntity
  8
想像線
100
AcDbLine
 10
171.989189978676
 20
152.401255410045
 30
0.0
 11
171.989189978676
 21
53.60225038167403
 31
0.0
  0
DIMENSION
  5
B4A
330
18
100
AcDbEntity
  8
寸法線
100
AcDbDimension
  2
*D5
 10
1.989189978675991
 20
49.10727461871499
 30
0.0
 11
122.1251209774308
 21
50.98227461871499
 31
0.0
 70
    32
  1
240
 71
     5
 42
-1.0
  3
STYLE3
100
AcDbAlignedDimension
 13
242.2610519761857
 23
99.47256398698037
 33
0.0
 14
1.989189978675992
 24
57.5963887717927
 34
0.0
100
AcDbRotatedDimension
1001
ACAD
1000
DSTYLE
1002
{
1070
   271
1070
     2
1002
}
  0
DIMENSION
  5
B7B
330
18
100
AcDbEntity
  8
寸法線
100
AcDbDimension
  2
*D6
 10
-31.51494291452457
 20
115.8388548154308
 30
0.0
 11
-33.38994291452458
 21
127.5888548154308
 31
0.0
 70
    32
 71
     5
 42
-1.0
  3
STYLE3
100
AcDbAlignedDimension
 13
-3.510810021324004
 23
139.3388548154308
 33
0.0
 14
-3.510810021324004
 24
115.8388548154308
 34
0.0
 50
90.0
100
AcDbRotatedDimension
1001
ACAD
1000
DSTYLE
1002
{
1070
    75
1070
     1
1070
   271
1070
     2
1070
   279
1070
     1
1002
}
  0
DIMENSION
  5
B87
330
18
100
AcDbEntity
  8
寸法線
100
AcDbDimension
  2
*D7
 10
-31.51494291452457
 20
100.8388548154308
 30
0.0
 11
-33.38994291452458
 21
108.3388548154308
 31
0.0
 70
    32
 71
     5
 42
-1.0
  3
STYLE3
100
AcDbAlignedDimension
 13
-3.510810021324004
 23
115.8388548154308
 33
0.0
 14
-3.510810021324004
 24
100.8388548154308
 34
0.0
 50
90.0
100
AcDbRotatedDimension
1001
ACAD
1000
DSTYLE
1002
{
1070
    75
1070
     1
1070
   271
1070
     2
1070
   279
1070
     1
1002
}
  0
LINE
  5
B97
330
18
100
AcDbEntity
  8
0
  6
ByBlock
 62
     2
100
AcDbLine
 10
-11.17035479205606
 20
115.8388548154308
 30
0.0
 11
-13.12242377583061
 21
115.8388548154308
 31
0.0
  0
LINE
  5
B98
330
18
100
AcDbEntity
  8
0
  6
ByBlock
 62
     2
100
AcDbLine
 10
1.989189978675995
 20
122.8388548154307
 30
0.0
 11
-13.12242377583061
 21
122.8388548154307
 31
0.0
  0
LINE
  5
B9A
330
18
100
AcDbEntity
  8
0
  6
ByBlock
 62
     2
100
AcDbLine
 10
-11.87242377583061
 20
125.3388548154308
 30
0.0
 11
-11.87242377583061
 21
130.3388548154308
 31
0.0
  0
INSERT
  5
B9D
330
18
100
AcDbEntity
  8
0
  6
ByBlock
 62
     2
100
AcDbBlockReference
  2
_OPEN
 10
-11.87242377583061
 20
122.8388548154307
 30
0.0
 41
2.5
 42
2.5
 43
2.5
 50
270.0
  0
POINT
  5
B9F
330
18
100
AcDbEntity
  8
DEFPOINTS
  6
ByBlock
 62
     0
100
AcDbPoint
 10
-11.17035479205606
 20
115.8388548154308
 30
0.0
  0
POINT
  5
BA0
330
18
100
AcDbEntity
  8
DEFPOINTS
  6
ByBlock
 62
     0
100
AcDbPoint
 10
1.989189978675995
 20
122.8388548154307
 30
0.0
  0
POINT
  5
BA1
330
18
100
AcDbEntity
  8
DEFPOINTS
  6
ByBlock
 62
     0
100
AcDbPoint
 10
-11.87242377583061
 20
122.8388548154307
 30
0.0
  0
LINE
  5
BA2
330
18
100
AcDbEntity
  8
寸法線
100
AcDbLine
 10
-0.260810021324005
 20
130.3388548154308
 30
0.0
 11
-12.95743788817503
 21
130.3388548154308
 31
0.0
  0
INSERT
  5
BA3
330
18
100
AcDbEntity
  8
0
  6
ByBlock
 62
     2
100
AcDbBlockReference
  2
_OPEN
 10
-11.87242377583061
 20
130.3388548154308
 30
0.0
 41
2.5
 42
2.5
 43
2.5
 50
90.0
  0
MTEXT
  5
BA4
330
18
100
AcDbEntity
  8
0
  6
ByBlock
 62
     6
100
AcDbMText
 10
-13.81124813538031
 20
126.8087991991319
 30
0.0
 40
2.5
 41
0.0
 71
     5
 72
     1
  1
7.5
  7
STYLE3
 11
0.0000000000000001
 21
1.0
 31
0.0
 73
     1
 44
1.0
  0
DIMENSION
  5
BBB
330
18
100
AcDbEntity
  8
寸法線
100
AcDbDimension
  2
*D8
 10
-81.76916469371803
 20
59.47256398698036
 30
0.0
 11
-83.64416469371803
 21
80.15570940120559
 31
0.0
 70
    32
  1
41
 71
     5
 42
-1.0
  3
STYLE3
100
AcDbAlignedDimension
 13
-90.91182649457039
 23
100.8388548154308
 33
0.0
 14
-96.41182649457039
 24
59.47256398698036
 34
0.0
 50
90.0
100
AcDbRotatedDimension
1001
ACAD
1000
DSTYLE
1002
{
1070
   271
1070
     2
1002
}
  0
LINE
  5
BD9
330
18
100
AcDbEntity
  8
0
  6
ByBlock
 62
     2
100
AcDbLine
 10
1.989189978675994
 20
96.76983194079788
 30
0.0
 11
1.989189978675992
 21
57.5963887717927
 31
0.0
  0
LINE
  5
BDA
330
18
100
AcDbEntity
  8
0
  6
ByBlock
 62
     2
100
AcDbLine
 10
171.989189978676
 20
59.59555139895257
 30
0.0
 11
171.989189978676
 21
57.5963887717927
 31
0.0
  0
LINE
  5
BDB
330
18
100
AcDbEntity
  8
0
  6
ByBlock
 62
     2
100
AcDbLine
 10
4.489189978675992
 20
58.8463887717927
 30
0.0
 11
169.489189978676
 21
58.8463887717927
 31
0.0
  0
INSERT
  5
BDC
330
18
100
AcDbEntity
  8
0
  6
ByBlock
 62
     2
100
AcDbBlockReference
  2
_OPEN
 10
1.989189978675992
 20
58.8463887717927
 30
0.0
 41
2.5
 42
2.5
 43
2.5
 50
180.0
  0
INSERT
  5
BDD
330
18
100
AcDbEntity
  8
0
  6
ByBlock
 62
     2
100
AcDbBlockReference
  2
_OPEN
 10
171.989189978676
 20
58.8463887717927
 30
0.0
 41
2.5
 42
2.5
 43
2.5
  0
MTEXT
  5
BDE
330
18
100
AcDbEntity
  8
0
  6
ByBlock
 62
     6
100
AcDbMText
 10
86.98918997867599
 20
60.7213887717927
 30
0.0
 40
2.5
 41
0.0
 71
     5
 72
     1
  1
\A1;170
  7
STYLE3
 73
     1
 44
1.0
  0
POINT
  5
BDF
330
18
100
AcDbEntity
  8
DEFPOINTS
  6
ByBlock
 62
     0
100
AcDbPoint
 10
1.989189978675994
 20
96.76983194079788
 30
0.0
  0
POINT
  5
BE0
330
18
100
AcDbEntity
  8
DEFPOINTS
  6
ByBlock
 62
     0
100
AcDbPoint
 10
171.989189978676
 20
59.59555139895257
 30
0.0
  0
POINT
  5
BE1
330
18
100
AcDbEntity
  8
DEFPOINTS
  6
ByBlock
 62
     0
100
AcDbPoint
 10
171.989189978676
 20
58.8463887717927
 30
0.0
  0
LINE
  5
C2F
330
18
100
AcDbEntity
  8
外形線
100
AcDbLine
 10
-91.91182649457038
 20
76.08308783138138
 30
0.0
 11
-92.16182649457037
 21
76.08308783138136
 31
0.0
  0
ARC
  5
C30
330
18
100
AcDbEntity
  8
外形線
100
AcDbCircle
 10
-100.9118264945704
 20
77.08308783138139
 30
0.0
 40
1.0
100
AcDbArc
 50
180.0
 51
270.0
  0
ARC
  5
C31
330
18
100
AcDbEntity
  8
外形線
100
AcDbCircle
 10
-91.91182649457038
 20
77.08308783138138
 30
0.0
 40
1.0
100
AcDbArc
 50
270.0
 51
0.0
  0
LINE
  5
C33
330
18
100
AcDbEntity
  8
外形線
100
AcDbLine
 10
-98.66182649457041
 20
74.0830878313814
 30
0.0
 11
-98.66182649457039
 21
61.72256398698035
 31
0.0
  0
LINE
  5
C34
330
18
100
AcDbEntity
  8
外形線
100
AcDbLine
 10
-94.16182649457038
 20
74.08308783138136
 30
0.0
 11
-94.1618264945704
 21
61.72256398698035
 31
0.0
  0
LINE
  5
C36
330
18
100
AcDbEntity
  8
外形線
100
AcDbLine
 10
-100.6618264945704
 20
76.08308783138141
 30
0.0
 11
-100.9118264945704
 21
76.08308783138139
 31
0.0
  0
ARC
  5
C37
330
18
100
AcDbEntity
  8
外形線
100
AcDbCircle
 10
-100.6618264945704
 20
74.0830878313814
 30
0.0
 40
2.0
100
AcDbArc
 50
0.0
 51
90.0
  0
ARC
  5
C38
330
18
100
AcDbEntity
  8
外形線
100
AcDbCircle
 10
-92.16182649457037
 20
74.08308783138136
 30
0.0
 40
2.0
100
AcDbArc
 50
89.99999999999976
 51
180.0
  0
INSERT
  5
CB3
330
18
100
AcDbEntity
  8
外形線
100
AcDbBlockReference
  2
ROGO
 10
-6.455020030111256
 20
195.3388548154308
 30
0.0
 41
0.45
 42
0.45
 43
0.45
  0
TEXT
  5
CB4
330
18
100
AcDbEntity
  8
文字
100
AcDbText
 10
5.918351715967389
 20
186.8327706813347
 30
0.0
 40
1.0
  1
0.01mm
  7
STYLE3
100
AcDbText
  0
LINE
  5
CCA
330
18
100
AcDbEntity
  8
中心線
100
AcDbLine
 10
-2.595997511524934
 20
120.3388548154308
 30
0.0
 11
6.46404948047482
 21
120.3388548154307
 31
0.0
  0
CIRCLE
  5
CCB
330
18
100
AcDbEntity
  8
外形線
100
AcDbCircle
 10
1.989189978675994
 20
120.3388548154308
 30
0.0
 40
1.0
  0
LINE
  5
CCC
330
18
100
AcDbEntity
  8
外形線
100
AcDbLine
 10
-0.5108100213240052
 20
122.3388548154308
 30
0.0
 11
4.489189978675994
 21
122.3388548154307
 31
0.0
  0
LINE
  5
CCD
330
18
100
AcDbEntity
  8
外形線
100
AcDbLine
 10
-1.010810021324005
 20
121.8388548154308
 30
0.0
 11
-1.010810021324005
 21
115.8388548154308
 31
0.0
  0
LINE
  5
CCE
330
18
100
AcDbEntity
  8
外形線
100
AcDbLine
 10
4.989189978675994
 20
121.8388548154307
 30
0.0
 11
4.989189978675995
 21
115.8388548154307
 31
0.0
  0
LINE
  5
CCF
330
18
100
AcDbEntity
  8
外形線
100
AcDbLine
 10
-1.010810021324005
 20
121.8388548154308
 30
0.0
 11
4.989189978675994
 21
121.8388548154307
 31
0.0
  0
LINE
  5
CD2
330
18
100
AcDbEntity
  8
外形線
100
AcDbLine
 10
4.989189978675994
 20
121.8388548154307
 30
0.0
 11
4.489189978675994
 21
122.3388548154307
 31
0.0
  0
LINE
  5
CD3
330
18
100
AcDbEntity
  8
外形線
100
AcDbLine
 10
-1.010810021324005
 20
121.8388548154308
 30
0.0
 11
-0.5108100213240052
 21
122.3388548154308
 31
0.0
  0
ARC
  5
CD4
330
18
100
AcDbEntity
  8
外形線
100
AcDbCircle
 10
1.989189978675994
 20
120.3388548154308
 30
0.0
 40
2.5
100
AcDbArc
 50
53.13010235415537
 51
126.8698976458434
  0
DIMENSION
  5
CE1
330
18
100
AcDbEntity
  8
寸法線
100
AcDbDimension
  2
*D12
 10
-11.87242377583061
 20
122.8388548154308
 30
0.0
 11
-13.74742377583061
 21
119.3388548154308
 31
0.0
 70
    32
 71
     5
 42
-1.0
  3
STYLE3
100
AcDbAlignedDimension
 13
-8.020994596902028
 23
115.8388548154308
 33
0.0
 14
-6.991832323772769
 24
122.8388548154308
 34
0.0
 50
90.0
100
AcDbRotatedDimension
1001
ACAD
1000
DSTYLE
1002
{
1070
   271
1070
     2
1002
}
  0
ARC
  5
CE2
330
18
100
AcDbEntity
  8
外形線
100
AcDbCircle
 10
1.989189978675994
 20
120.3388548154308
 30
0.0
 40
1.5
100
AcDbArc
 50
42.29599702758576
 51
317.7040029724135
  0
LINE
  5
CE3
330
18
100
AcDbEntity
  8
外形線
100
AcDbLine
 10
2.714378415308925
 20
121.027405272096
 30
0.0
 11
3.022795657077775
 21
121.101502082869
 31
0.0
  0
LINE
  5
CE4
330
18
100
AcDbEntity
  8
外形線
100
AcDbLine
 10
2.714378415308901
 20
119.6503043587655
 30
0.0
 11
3.022795657077765
 21
119.5762075479925
 31
0.0
  0
ARC
  5
CE8
330
18
100
AcDbEntity
  8
外形線
100
AcDbCircle
 10
2.987755431530268
 20
119.430357684799
 30
0.0
 40
0.15
100
AcDbArc
 50
317.7040029724141
 51
76.49079946477835
  0
ARC
  5
CE9
330
18
100
AcDbEntity
  8
外形線
100
AcDbCircle
 10
2.987755431530278
 20
121.2473519460625
 30
0.0
 40
0.15
100
AcDbArc
 50
283.5092005352219
 51
42.29599702758495
  0
LINE
  5
CEA
330
18
100
AcDbEntity
  8
外形線
100
AcDbLine
 10
-3.510810021324004
 20
157.3388548154308
 30
0.0
 11
9.405388465771634
 21
157.3388548154308
 31
0.0
  0
LINE
  5
CEB
330
18
100
AcDbEntity
  8
外形線
  6
Continuous
100
AcDbLine
 10
-1.710810021323936
 20
161.199421003659
 30
0.0
 11
-1.710810021323936
 21
157.3388548154308
 31
0.0
  0
LINE
  5
CEC
330
18
100
AcDbEntity
  8
外形線
  6
Continuous
100
AcDbLine
 10
5.68918997867604
 20
161.199421003659
 30
0.0
 11
5.68918997867604
 21
157.3388548154308
 31
0.0
  0
LINE
  5
CED
330
18
100
AcDbEntity
  8
0
  6
ByBlock
 62
     2
100
AcDbLine
 10
-3.510810021324004
 20
139.3388548154308
 30
0.0
 11
-32.76494291452458
 21
139.3388548154308
 31
0.0
  0
POINT
  5
CF3
330
18
100
AcDbEntity
  8
DEFPOINTS
  6
ByBlock
 62
     0
100
AcDbPoint
 10
-3.510810021324004
 20
139.3388548154308
 30
0.0
  0
POINT
  5
CF4
330
18
100
AcDbEntity
  8
DEFPOINTS
  6
ByBlock
 62
     0
100
AcDbPoint
 10
-31.51494291452457
 20
139.3388548154308
 30
0.0
  0
DIMENSION
  5
D1B
330
18
100
AcDbEntity
  8
寸法線
100
AcDbDimension
  2
*D13
 10
-31.51494291452457
 20
139.3388548154308
 30
0.0
 11
-33.38994291452458
 21
163.3388548154308
 31
0.0
 70
    32
 71
     5
 42
-1.0
  3
STYLE3
100
AcDbAlignedDimension
 13
-29.51125943162924
 23
187.3388548154308
 33
0.0
 14
-26.54999880871902
 24
139.3388548154308
 34
0.0
 50
90.0
100
AcDbRotatedDimension
1001
ACAD
1000
DSTYLE
1002
{
1070
   271
1070
     2
1002
}
  0
DIMENSION
  5
D28
330
18
100
AcDbEntity
  8
寸法線
100
AcDbDimension
  2
*D14
 10
-31.51494291452457
 20
187.3388548154308
 30
0.0
 11
-33.38994291452457
 21
208.0888548154308
 31
0.0
 70
    32
 71
     5
 42
-1.0
  3
STYLE3
100
AcDbAlignedDimension
 13
1.989189978675995
 23
228.8388548154308
 33
0.0
 14
-28.73198064522034
 24
187.3388548154308
 34
0.0
 50
90.0
100
AcDbRotatedDimension
1001
ACAD
1000
DSTYLE
1002
{
1070
   271
1070
     2
1002
}
  0
LINE
  5
D29
330
18
100
AcDbEntity
  8
外形線
100
AcDbLine
 10
-99.4118264945704
 20
121.8388548154308
 30
0.0
 11
-99.4118264945704
 21
115.8388548154308
 31
0.0
  0
LINE
  5
D2A
330
18
100
AcDbEntity
  8
外形線
100
AcDbLine
 10
-93.41182649457039
 20
121.8388548154307
 30
0.0
 11
-93.41182649457039
 21
115.8388548154308
 31
0.0
  0
LINE
  5
D2B
330
18
100
AcDbEntity
  8
外形線
100
AcDbLine
 10
-99.4118264945704
 20
121.8388548154308
 30
0.0
 11
-97.16182649457039
 21
121.8388548154308
 31
0.0
  0
LINE
  5
D2C
330
18
100
AcDbEntity
  8
外形線
100
AcDbLine
 10
-98.91182649457039
 20
122.3388548154308
 30
0.0
 11
-97.16182649457039
 21
122.3388548154308
 31
0.0
  0
LINE
  5
D2D
330
18
100
AcDbEntity
  8
外形線
100
AcDbLine
 10
-93.41182649457039
 20
121.8388548154307
 30
0.0
 11
-93.91182649457039
 21
122.3388548154307
 31
0.0
  0
LINE
  5
D2E
330
18
100
AcDbEntity
  8
外形線
100
AcDbLine
 10
-99.4118264945704
 20
121.8388548154308
 30
0.0
 11
-98.91182649457039
 21
122.3388548154308
 31
0.0
  0
LINE
  5
D2F
330
18
100
AcDbEntity
  8
中心線
100
AcDbLine
 10
-100.9970139847713
 20
120.3388548154308
 30
0.0
 11
-91.93696699277158
 21
120.3388548154308
 31
0.0
  0
LINE
  5
D30
330
18
100
AcDbEntity
  8
外形線
100
AcDbLine
 10
-97.16182649457039
 20
117.3388548154308
 30
0.0
 11
-95.66182649457038
 21
117.3388548154308
 31
0.0
  0
LINE
  5
D31
330
18
100
AcDbEntity
  8
外形線
100
AcDbLine
 10
-97.16182649457039
 20
122.8388548154308
 30
0.0
 11
-97.16182649457039
 21
117.3388548154308
 31
0.0
  0
LINE
  5
D32
330
18
100
AcDbEntity
  8
外形線
100
AcDbLine
 10
-95.66182649457038
 20
122.8388548154308
 30
0.0
 11
-95.66182649457038
 21
117.3388548154308
 31
0.0
  0
LINE
  5
D33
330
18
100
AcDbEntity
  8
外形線
100
AcDbLine
 10
-95.66182649457038
 20
121.8388548154308
 30
0.0
 11
-93.41182649457039
 21
121.8388548154307
 31
0.0
  0
LINE
  5
D34
330
18
100
AcDbEntity
  8
外形線
100
AcDbLine
 10
-95.66182649457038
 20
122.3388548154308
 30
0.0
 11
-93.91182649457039
 21
122.3388548154307
 31
0.0
  0
LINE
  5
D35
330
18
100
AcDbEntity
  8
外形線
100
AcDbLine
 10
-97.1618264945703
 20
122.8388548154308
 30
0.0
 11
-95.66182649457028
 21
122.8388548154308
 31
0.0
  0
LINE
  5
D36
330
18
100
AcDbEntity
  8
外形線
100
AcDbLine
 10
-97.16182649457039
 20
117.8388548154308
 30
0.0
 11
-95.66182649457037
 21
117.8388548154308
 31
0.0
  0
LINE
  5
D37
330
18
100
AcDbEntity
  8
外形線
100
AcDbLine
 10
-99.71182649457039
 20
121.8388548154308
 30
0.0
 11
-99.71182649457039
 21
118.8388548154308
 31
0.0
  0
LINE
  5
D38
330
18
100
AcDbEntity
  8
外形線
100
AcDbLine
 10
-93.11182649457039
 20
121.8388548154308
 30
0.0
 11
-93.11182649457039
 21
118.8388548154307
 31
0.0
  0
LINE
  5
D39
330
18
100
AcDbEntity
  8
外形線
100
AcDbLine
 10
-99.71182649457041
 20
121.8388548154308
 30
0.0
 11
-97.16182649457039
 21
121.8388548154308
 31
0.0
  0
LINE
  5
D3A
330
18
100
AcDbEntity
  8
外形線
100
AcDbLine
 10
-99.71182649457041
 20
118.8388548154308
 30
0.0
 11
-99.4118264945704
 21
118.8388548154308
 31
0.0
  0
LINE
  5
D3B
330
18
100
AcDbEntity
  8
外形線
100
AcDbLine
 10
-93.41182649457037
 20
118.8388548154307
 30
0.0
 11
-93.11182649457039
 21
118.8388548154307
 31
0.0
  0
LINE
  5
D3C
330
18
100
AcDbEntity
  8
外形線
100
AcDbLine
 10
-95.66182649457038
 20
121.8388548154308
 30
0.0
 11
-93.11182649457039
 21
121.8388548154308
 31
0.0
  0
LINE
  5
D3E
330
18
100
AcDbEntity
  8
外形線
100
AcDbLine
 10
-100.1118264945703
 20
121.3388548154308
 30
0.0
 11
-100.1118264945703
 21
119.3388548154308
 31
0.0
  0
LINE
  5
D3F
330
18
100
AcDbEntity
  8
外形線
100
AcDbLine
 10
-92.41182649457041
 20
121.3388548154308
 30
0.0
 11
-92.41182649457039
 21
119.3388548154308
 31
0.0
  0
LINE
  5
D40
330
18
100
AcDbEntity
  8
外形線
100
AcDbLine
 10
-100.1118264945704
 20
121.3388548154308
 30
0.0
 11
-99.71182649457039
 21
121.3388548154308
 31
0.0
  0
LINE
  5
D41
330
18
100
AcDbEntity
  8
外形線
100
AcDbLine
 10
-100.1118264945704
 20
119.3388548154308
 30
0.0
 11
-99.71182649457039
 21
119.3388548154308
 31
0.0
  0
LINE
  5
D42
330
18
100
AcDbEntity
  8
外形線
100
AcDbLine
 10
-93.11182649457039
 20
121.3388548154308
 30
0.0
 11
-92.41182649457039
 21
121.3388548154308
 31
0.0
  0
LINE
  5
D43
330
18
100
AcDbEntity
  8
外形線
100
AcDbLine
 10
-93.11182649457039
 20
119.3388548154308
 30
0.0
 11
-92.41182649457039
 21
119.3388548154308
 31
0.0
  0
LINE
  5
D44
330
18
100
AcDbEntity
  8
隠れ線2
100
AcDbLine
 10
-99.41182649457038
 20
119.3388548154308
 30
0.0
 11
-93.41182649457039
 21
119.3388548154308
 31
0.0
  0
LINE
  5
D45
330
18
100
AcDbEntity
  8
隠れ線2
100
AcDbLine
 10
-99.41182649457038
 20
121.3388548154308
 30
0.0
 11
-93.41182649457037
 21
121.3388548154307
 31
0.0
  0
LINE
  5
D47
330
18
100
AcDbEntity
  8
外形線
100
AcDbLine
 10
-46.825917070993
 20
50.66769232454388
 30
0.0
 11
-48.70156141801079
 21
43.66769232454391
 31
0.0
  0
LINE
  5
D48
330
18
100
AcDbEntity
  8
外形線
100
AcDbLine
 10
-55.77720576502861
 20
50.66769232454388
 30
0.0
 11
-53.90156141801083
 21
43.66769232454391
 31
0.0
  0
LINE
  5
D49
330
18
100
AcDbEntity
  8
外形線
100
AcDbLine
 10
-62.30156141801081
 20
27.66769232454394
 30
0.0
 11
-40.3015614180108
 21
27.66769232454383
 31
0.0
  0
LINE
  5
D4A
330
18
100
AcDbEntity
  8
外形線
100
AcDbLine
 10
-58.70156141801079
 20
38.66769232454391
 30
0.0
 11
-58.70156141801079
 21
34.66769232454391
 31
0.0
  0
LINE
  5
D4B
330
18
100
AcDbEntity
  8
外形線
100
AcDbLine
 10
-43.3015614180108
 20
38.66769232454391
 30
0.0
 11
-43.3015614180108
 21
34.66769232454389
 31
0.0
  0
LINE
  5
D4C
330
18
100
AcDbEntity
  8
外形線
100
AcDbLine
 10
-44.70156141801078
 20
39.66769232454386
 30
0.0
 11
-44.70156141801078
 21
33.66769232454383
 31
0.0
  0
LINE
  5
D4D
330
18
100
AcDbEntity
  8
外形線
100
AcDbLine
 10
-57.90156141801083
 20
39.66769232454394
 30
0.0
 11
-57.90156141801083
 21
33.66769232454391
 31
0.0
  0
LINE
  5
D4E
330
18
100
AcDbEntity
  8
外形線
100
AcDbLine
 10
-49.80156141801081
 20
41.66769232454385
 30
0.0
 11
-49.80156141801081
 21
30.66769232454386
 31
0.0
  0
LINE
  5
D4F
330
18
100
AcDbEntity
  8
外形線
100
AcDbLine
 10
-52.8015614180108
 20
41.66769232454391
 30
0.0
 11
-52.8015614180108
 21
30.66769232454389
 31
0.0
  0
LINE
  5
D50
330
18
100
AcDbEntity
  8
外形線
100
AcDbLine
 10
-45.3015614180108
 20
39.6676923245438
 30
0.0
 11
-45.3015614180108
 21
27.66769232454383
 31
0.0
  0
LINE
  5
D51
330
18
100
AcDbEntity
  8
外形線
100
AcDbLine
 10
-57.30156141801081
 20
39.66769232454391
 30
0.0
 11
-57.30156141801081
 21
27.66769232454389
 31
0.0
  0
LINE
  5
D52
330
18
100
AcDbEntity
  8
隠れ線2
100
AcDbLine
 10
-57.30156141801081
 20
34.66769232454386
 30
0.0
 11
-45.3015614180108
 21
34.66769232454391
 31
0.0
  0
LINE
  5
D53
330
18
100
AcDbEntity
  8
外形線
100
AcDbLine
 10
-52.8015614180108
 20
31.66769232454392
 30
0.0
 11
-49.80156141801081
 21
31.66769232454386
 31
0.0
  0
LINE
  5
D54
330
18
100
AcDbEntity
  8
外形線
100
AcDbLine
 10
-52.8015614180108
 20
30.66769232454392
 30
0.0
 11
-49.80156141801081
 21
30.66769232454386
 31
0.0
  0
LINE
  5
D55
330
18
100
AcDbEntity
  8
外形線
100
AcDbLine
 10
-58.70156141801079
 20
34.66769232454395
 30
0.0
 11
-57.90156141801083
 21
34.66769232454397
 31
0.0
  0
LINE
  5
D56
330
18
100
AcDbEntity
  8
外形線
100
AcDbLine
 10
-57.90156141801083
 20
33.66769232454394
 30
0.0
 11
-57.30156141801081
 21
33.66769232454391
 31
0.0
  0
LINE
  5
D57
330
18
100
AcDbEntity
  8
外形線
100
AcDbLine
 10
-44.70156141801078
 20
34.66769232454386
 30
0.0
 11
-43.3015614180108
 21
34.66769232454389
 31
0.0
  0
LINE
  5
D58
330
18
100
AcDbEntity
  8
外形線
100
AcDbLine
 10
-45.3015614180108
 20
33.66769232454383
 30
0.0
 11
-44.70156141801078
 21
33.66769232454383
 31
0.0
  0
LINE
  5
D59
330
18
100
AcDbEntity
  8
隠れ線2
100
AcDbLine
 10
-57.30156141801081
 20
38.66769232454391
 30
0.0
 11
-45.3015614180108
 21
38.66769232454377
 31
0.0
  0
LINE
  5
D5A
330
18
100
AcDbEntity
  8
外形線
100
AcDbLine
 10
-52.80156141801057
 20
41.66769232454391
 30
0.0
 11
-49.80156141801058
 21
41.66769232454385
 31
0.0
  0
LINE
  5
D5B
330
18
100
AcDbEntity
  8
中心線
100
AcDbLine
 10
-60.47193639841271
 20
36.66769232454394
 30
0.0
 11
-42.35184241441311
 21
36.66769232454386
 31
0.0
  0
LINE
  5
D5C
330
18
100
AcDbEntity
  8
外形線
100
AcDbLine
 10
-51.3015614180108
 20
43.66769232454391
 30
0.0
 11
-53.90156141801083
 21
43.66769232454391
 31
0.0
  0
ARC
  5
D5D
330
18
100
AcDbEntity
  8
外形線
100
AcDbCircle
 10
-51.3015614180108
 20
43.96769232454392
 30
0.0
 40
2.299999999999999
100
AcDbArc
 50
187.494717453927
 51
352.505282546073
  0
LINE
  5
D5E
330
18
100
AcDbEntity
  8
外形線
100
AcDbLine
 10
-58.70156141801079
 20
38.66769232454394
 30
0.0
 11
-57.90156141801083
 21
38.66769232454394
 31
0.0
  0
LINE
  5
D5F
330
18
100
AcDbEntity
  8
外形線
100
AcDbLine
 10
-57.90156141801083
 20
39.66769232454391
 30
0.0
 11
-52.8015614180108
 21
39.66769232454391
 31
0.0
  0
LINE
  5
D60
330
18
100
AcDbEntity
  8
外形線
100
AcDbLine
 10
-56.3015614180108
 20
40.66769232454391
 30
0.0
 11
-52.8015614180108
 21
40.66769232454388
 31
0.0
  0
LINE
  5
D61
330
18
100
AcDbEntity
  8
外形線
100
AcDbLine
 10
-57.30156141801081
 20
39.66769232454391
 30
0.0
 11
-52.8015614180108
 21
39.66769232454391
 31
0.0
  0
LINE
  5
D62
330
18
100
AcDbEntity
  8
外形線
100
AcDbLine
 10
-57.30156141801081
 20
39.66769232454391
 30
0.0
 11
-56.3015614180108
 21
40.66769232454391
 31
0.0
  0
POINT
  5
D63
330
18
100
AcDbEntity
  8
中心線
  6
ByBlock
100
AcDbPoint
 10
-52.72562124750766
 20
43.77653411663983
 30
0.0
  0
POINT
  5
D64
330
18
100
AcDbEntity
  8
中心線
  6
ByBlock
100
AcDbPoint
 10
-52.72562124750766
 20
43.77653411663983
 30
0.0
  0
LINE
  5
D65
330
18
100
AcDbEntity
  8
外形線
100
AcDbLine
 10
-44.70156141801078
 20
38.66769232454383
 30
0.0
 11
-43.3015614180108
 21
38.66769232454389
 31
0.0
  0
LINE
  5
D66
330
18
100
AcDbEntity
  8
外形線
100
AcDbLine
 10
-49.80156141801081
 20
39.66769232454389
 30
0.0
 11
-44.70156141801078
 21
39.66769232454386
 31
0.0
  0
LINE
  5
D67
330
18
100
AcDbEntity
  8
外形線
100
AcDbLine
 10
-49.80156141801081
 20
40.66769232454386
 30
0.0
 11
-46.3015614180108
 21
40.6676923245438
 31
0.0
  0
LINE
  5
D68
330
18
100
AcDbEntity
  8
外形線
100
AcDbLine
 10
-49.80156141801081
 20
39.66769232454389
 30
0.0
 11
-45.3015614180108
 21
39.66769232454383
 31
0.0
  0
LINE
  5
D69
330
18
100
AcDbEntity
  8
外形線
100
AcDbLine
 10
-45.3015614180108
 20
39.6676923245438
 30
0.0
 11
-46.3015614180108
 21
40.6676923245438
 31
0.0
  0
LINE
  5
D6A
330
18
100
AcDbEntity
  8
外形線
100
AcDbLine
 10
-51.3015614180108
 20
43.66769232454391
 30
0.0
 11
-48.70156141801079
 21
43.66769232454391
 31
0.0
  0
POINT
  5
D6B
330
18
100
AcDbEntity
  8
DEFPOINTS
  6
ByBlock
 62
     0
100
AcDbPoint
 10
-51.3015614180108
 20
41.66769232454391
 30
0.0
  0
POINT
  5
D6C
330
18
100
AcDbEntity
  8
DEFPOINTS
  6
ByBlock
 62
     0
100
AcDbPoint
 10
-51.3015614180108
 20
41.66769232454391
 30
0.0
  0
LINE
  5
D6D
330
18
100
AcDbEntity
  8
外形線
100
AcDbLine
 10
-51.3015614180108
 20
55.66769232454388
 30
0.0
 11
-56.3015614180108
 21
55.66769232454388
 31
0.0
  0
LINE
  5
D6E
330
18
100
AcDbEntity
  8
外形線
100
AcDbLine
 10
-51.3015614180108
 20
56.66769232454388
 30
0.0
 11
-55.8015614180108
 21
56.66769232454393
 31
0.0
  0
LINE
  5
D6F
330
18
100
AcDbEntity
  8
外形線
100
AcDbLine
 10
-55.3015614180108
 20
56.66769232454388
 30
0.0
 11
-47.30156141801081
 21
56.66769232454388
 31
0.0
  0
LINE
  5
D70
330
18
100
AcDbEntity
  8
外形線
100
AcDbLine
 10
-51.3015614180108
 20
50.66769232454388
 30
0.0
 11
-56.3015614180108
 21
50.66769232454388
 31
0.0
  0
LINE
  5
D71
330
18
100
AcDbEntity
  8
外形線
 62
     4
100
AcDbLine
 10
-51.3015614180108
 20
51.26982224264915
 30
0.0
 11
-53.84067289365373
 21
55.66769232454394
 31
0.0
  0
LINE
  5
D72
330
18
100
AcDbEntity
  8
外形線
 62
     4
100
AcDbLine
 10
-54.14627183469519
 20
50.6676923245439
 30
0.0
 11
-51.25952048874705
 21
55.66769232454388
 31
0.0
  0
POINT
  5
D73
330
18
100
AcDbEntity
  8
DEFPOINTS
  6
ByBlock
 62
     0
100
AcDbPoint
 10
-55.8015614180108
 20
56.66769232454393
 30
0.0
  0
LINE
  5
D74
330
18
100
AcDbEntity
  8
外形線
100
AcDbLine
 10
-55.8015614180108
 20
56.66769232454393
 30
0.0
 11
-55.8015614180108
 21
55.66769232454388
 31
0.0
  0
LINE
  5
D75
330
18
100
AcDbEntity
  8
外形線
 62
     4
100
AcDbLine
 10
-56.3015614180108
 20
54.93462126121724
 30
0.0
 11
-55.87832264226403
 21
55.66769232454388
 31
0.0
  0
LINE
  5
D76
330
18
100
AcDbEntity
  8
外形線
 62
     4
100
AcDbLine
 10
-55.57272370122257
 20
50.66769232454388
 30
0.0
 11
-56.3015614180108
 21
51.93007628049358
 31
0.0
  0
LINE
  5
D77
330
18
100
AcDbEntity
  8
外形線
 62
     4
100
AcDbLine
 10
-53.26332262446408
 20
50.6676923245439
 30
0.0
 11
-56.15007397041222
 21
55.66769232454388
 31
0.0
  0
LINE
  5
D78
330
18
100
AcDbEntity
  8
外形線
 62
     4
100
AcDbLine
 10
-56.3015614180108
 20
50.9346212612173
 30
0.0
 11
-53.56892156550554
 21
55.66769232454394
 31
0.0
  0
LINE
  5
D79
330
18
100
AcDbEntity
  8
外形線
100
AcDbLine
 10
-56.3015614180108
 20
55.66769232454388
 30
0.0
 11
-56.3015614180108
 21
50.66769232454388
 31
0.0
  0
LINE
  5
D7A
330
18
100
AcDbEntity
  8
外形線
100
AcDbLine
 10
-46.8015614180108
 20
56.66769232454393
 30
0.0
 11
-46.8015614180108
 21
55.66769232454388
 31
0.0
  0
LINE
  5
D7B
330
18
100
AcDbEntity
  8
外形線
 62
     4
100
AcDbLine
 10
-51.3015614180108
 20
55.26982224264916
 30
0.0
 11
-51.53127181689512
 21
55.66769232454394
 31
0.0
  0
LINE
  5
D7C
330
18
100
AcDbEntity
  8
外形線
100
AcDbLine
 10
-51.3015614180108
 20
56.66769232454388
 30
0.0
 11
-46.8015614180108
 21
56.66769232454393
 31
0.0
  0
LINE
  5
D7D
330
18
100
AcDbEntity
  8
外形線
100
AcDbLine
 10
-51.3015614180108
 20
55.66769232454388
 30
0.0
 11
-46.3015614180108
 21
55.66769232454388
 31
0.0
  0
LINE
  5
D7E
330
18
100
AcDbEntity
  8
外形線
 62
     4
100
AcDbLine
 10
-51.8368707579367
 20
50.6676923245439
 30
0.0
 11
-51.3015614180108
 21
51.59487529906172
 31
0.0
  0
LINE
  5
D7F
330
18
100
AcDbEntity
  8
外形線
100
AcDbLine
 10
-51.3015614180108
 20
50.66769232454388
 30
0.0
 11
-46.3015614180108
 21
50.66769232454388
 31
0.0
  0
LINE
  5
D80
330
18
100
AcDbEntity
  8
外形線
100
AcDbLine
 10
-46.3015614180108
 20
55.66769232454388
 30
0.0
 11
-46.3015614180108
 21
50.66769232454388
 31
0.0
  0
LINE
  5
D81
330
18
100
AcDbEntity
  8
外形線
100
AcDbLine
 10
-55.3015614180108
 20
66.35794302682365
 30
0.0
 11
-55.3015614180108
 21
56.66769232454388
 31
0.0
  0
LINE
  5
D82
330
18
100
AcDbEntity
  8
外形線
100
AcDbLine
 10
-47.30156141801081
 20
67.88909466398654
 30
0.0
 11
-47.30156141801081
 21
56.66769232454388
 31
0.0
  0
LINE
  5
D84
330
18
100
AcDbEntity
  8
中心線
100
AcDbLine
 10
-51.3015614180108
 20
71.72003274412216
 30
0.0
 11
-51.3015614180108
 21
24.10521468347421
 31
0.0
  0
LINE
  5
D86
330
18
100
AcDbEntity
  8
想像線
 48
0.3
100
AcDbLine
 10
-59.10259425292202
 20
65.63044832081311
 30
0.0
 11
-42.89855203404568
 21
68.73180404232425
 31
0.0
  0
DIMENSION
  5
DA2
330
18
100
AcDbEntity
  8
寸法線
100
AcDbDimension
  2
*D15
 10
-49.80156141801081
 20
17.5594281571922
 30
0.0
 11
-41.73608522753461
 21
19.4344281571922
 31
0.0
 12
-6.205803599977798
 22
-13.61150710667618
 32
0.0
 70
    32
  1
1.5
 71
     5
 42
-1.0
  3
STYLE3
100
AcDbAlignedDimension
 13
-52.8015614180108
 23
30.66769232454389
 33
0.0
 14
-49.80156141801081
 24
30.66769232454386
 34
0.0
100
AcDbRotatedDimension
1001
ACAD
1000
DSTYLE
1002
{
1070
   271
1070
     2
1002
}
  0
LINE
  5
DBC
330
18
100
AcDbEntity
  8
0
  6
ByBlock
 62
     2
100
AcDbLine
 10
-49.80156141801058
 20
41.66769232454385
 30
0.0
 11
-30.09886174355472
 21
41.66769232454385
 31
0.0
  0
LINE
  5
DBD
330
18
100
AcDbEntity
  8
0
  6
ByBlock
 62
     2
100
AcDbLine
 10
-49.80156141801081
 20
31.66769232454386
 30
0.0
 11
-30.09886174355472
 21
31.66769232454386
 31
0.0
  0
LINE
  5
DBE
330
18
100
AcDbEntity
  8
0
  6
ByBlock
 62
     2
100
AcDbLine
 10
-31.34886174355472
 20
39.16769232454386
 30
0.0
 11
-31.34886174355472
 21
34.16769232454386
 31
0.0
  0
LINE
  5
DBF
330
18
100
AcDbEntity
  8
0
  6
ByBlock
 62
     2
100
AcDbLine
 10
-31.34886174355472
 20
79.94150184835338
 30
0.0
 11
-31.34886174355472
 21
41.66769232454385
 31
0.0
  0
INSERT
  5
DC0
330
18
100
AcDbEntity
  8
0
  6
ByBlock
 62
     2
100
AcDbBlockReference
  2
_OPEN
 10
-31.34886174355472
 20
41.66769232454385
 30
0.0
 41
2.5
 42
2.5
 43
2.5
 50
90.0
  0
INSERT
  5
DC1
330
18
100
AcDbEntity
  8
0
  6
ByBlock
 62
     2
100
AcDbBlockReference
  2
_OPEN
 10
-31.34886174355472
 20
31.66769232454386
 30
0.0
 41
2.5
 42
2.5
 43
2.5
 50
270.0
  0
MTEXT
  5
DC2
330
18
100
AcDbEntity
  8
0
  6
ByBlock
 62
     6
100
AcDbMText
 10
-33.22386174355472
 20
59.00721279009662
 30
0.0
 40
2.5
 41
0.0
 71
     5
 72
     1
  1
\A1;φ5ミニチュアベアリング
  7
STYLE3
 11
0.0000000000000001
 21
1.0
 31
0.0
 73
     1
 44
1.0
  0
POINT
  5
DC3
330
18
100
AcDbEntity
  8
DEFPOINTS
  6
ByBlock
 62
     0
100
AcDbPoint
 10
-49.80156141801058
 20
41.66769232454385
 30
0.0
  0
POINT
  5
DC4
330
18
100
AcDbEntity
  8
DEFPOINTS
  6
ByBlock
 62
     0
100
AcDbPoint
 10
-49.80156141801081
 20
31.66769232454386
 30
0.0
  0
POINT
  5
DC5
330
18
100
AcDbEntity
  8
DEFPOINTS
  6
ByBlock
 62
     0
100
AcDbPoint
 10
-31.34886174355472
 20
31.66769232454386
 30
0.0
  0
MTEXT
  5
DC6
330
18
100
AcDbEntity
  8
0
  6
ByBlock
 62
     6
100
AcDbMText
 10
-52.84859946195036
 20
9.838161351231178
 30
0.0
 40
2.5
 41
0.0
 71
     5
 72
     1
  1
A部詳細図　Ｓ＝2/1
  7
STYLE3
 73
     1
 44
1.0
  0
CIRCLE
  5
DC7
330
18
100
AcDbEntity
  8
想像線
100
AcDbCircle
 10
-96.41182649457039
 20
122.8388548154308
 30
0.0
 40
10.29473855954609
  0
MTEXT
  5
DCC
330
18
100
AcDbEntity
  8
寸法線
 62
     6
100
AcDbMText
 10
-85.97557295960053
 20
139.4728258981165
 30
0.0
 40
2.5
 41
0.0
 71
     4
 72
     1
  1
\A1;A
  7
STYLE3
 73
     1
 44
1.0
  0
INSERT
  5
DCD
330
18
100
AcDbEntity
  8
寸法線
 62
     2
100
AcDbBlockReference
  2
_OPEN
 10
-89.88667202523361
 20
130.8015177594904
 30
0.0
 41
2.5
 42
2.5
 43
2.5
 50
244.4923266217383
1001
ACAD
1000
DSTYLE
1002
{
1070
   271
1070
     2
1002
}
  0
LWPOLYLINE
  5
DCE
330
18
100
AcDbEntity
  8
寸法線
 62
     2
100
AcDbPolyline
 90
        3
 70
     0
 43
0.0
 10
-88.81009209441605
 20
133.0578368088628
 10
-86.55391857670839
 20
137.7863731125515
 10
-81.52415667194649
 20
137.7863731125515
1001
ACAD
1000
DSTYLE
1002
{
1070
   271
1070
     2
1002
}
  0
ELLIPSE
  5
DE5
330
18
100
AcDbEntity
  8
外形線
100
AcDbEllipse
 10
-96.41182649457039
 20
100.0388548154308
 30
0.0
 11
-2.849999999999994
 21
0.0000000000000142
 31
0.0
210
0.0
220
0.0
230
1.0
 40
0.4210526315789468
 41
0.0
 42
3.141592653589793
  0
LINE
  5
DE6
330
18
100
AcDbEntity
  8
外形線
100
AcDbLine
 10
-99.26182649457039
 20
100.0388548154308
 30
0.0
 11
-93.56182649457039
 21
100.0388548154308
 31
0.0
  0
LINE
  5
DE7
330
18
100
AcDbEntity
  8
外形線
100
AcDbLine
 10
-99.66182649457039
 20
100.3388548154308
 30
0.0
 11
-93.16182649457042
 21
100.3388548154308
 31
0.0
  0
LINE
  5
DE8
330
18
100
AcDbEntity
  8
外形線
100
AcDbLine
 10
-99.26182649457039
 20
100.3388548154308
 30
0.0
 11
-99.26182649457039
 21
100.0388548154308
 31
0.0
  0
LINE
  5
DE9
330
18
100
AcDbEntity
  8
外形線
100
AcDbLine
 10
-99.66182649457039
 20
100.8388548154308
 30
0.0
 11
-99.66182649457039
 21
100.3388548154308
 31
0.0
  0
LINE
  5
DEC
330
18
100
AcDbEntity
  8
外形線
100
AcDbLine
 10
-93.56182649457039
 20
100.3388548154308
 30
0.0
 11
-93.56182649457039
 21
100.0388548154308
 31
0.0
  0
LINE
  5
DED
330
18
100
AcDbEntity
  8
外形線
100
AcDbLine
 10
-93.16182649457042
 20
100.8388548154308
 30
0.0
 11
-93.16182649457038
 21
100.3388548154308
 31
0.0
  0
LINE
  5
DF0
330
18
100
AcDbEntity
  8
外形線
100
AcDbLine
 10
5.239189978675966
 20
100.8388548154308
 30
0.0
 11
5.239189978675995
 21
100.3388548154308
 31
0.0
  0
LINE
  5
DF1
330
18
100
AcDbEntity
  8
外形線
100
AcDbLine
 10
-1.260810021324004
 20
100.8388548154308
 30
0.0
 11
-1.260810021324004
 21
100.3388548154308
 31
0.0
  0
LINE
  5
DF2
330
18
100
AcDbEntity
  8
外形線
100
AcDbLine
 10
-1.260810021324004
 20
100.3388548154308
 30
0.0
 11
5.239189978675966
 21
100.3388548154308
 31
0.0
  0
LINE
  5
DF3
330
18
100
AcDbEntity
  8
外形線
100
AcDbLine
 10
-0.8608100213239993
 20
100.0388548154308
 30
0.0
 11
4.839189978675989
 21
100.0388548154308
 31
0.0
  0
ELLIPSE
  5
DF4
330
18
100
AcDbEntity
  8
外形線
100
AcDbEllipse
 10
1.989189978675995
 20
100.0388548154308
 30
0.0
 11
-2.849999999999994
 21
0.0000000000000142
 31
0.0
210
0.0
220
0.0
230
1.0
 40
0.4210526315789468
 41
0.0
 42
3.141592653589793
  0
LINE
  5
DF5
330
18
100
AcDbEntity
  8
外形線
100
AcDbLine
 10
-0.8608100213239993
 20
100.3388548154308
 30
0.0
 11
-0.8608100213239993
 21
100.0388548154308
 31
0.0
  0
LINE
  5
DF6
330
18
100
AcDbEntity
  8
外形線
100
AcDbLine
 10
4.839189978675989
 20
100.3388548154308
 30
0.0
 11
4.839189978675989
 21
100.0388548154308
 31
0.0
  0
TEXT
  5
E11
330
18
100
AcDbEntity
  8
寸法線
 62
     6
100
AcDbText
 10
-28.19951807600412
 20
46.93989550703137
 30
0.0
 40
2.2
  1
miniature bearing
 50
90.0
  7
STYLE3
100
AcDbText
  0
LINE
  5
E3F
330
18
100
AcDbEntity
  8
外形線
100
AcDbLine
 10
0.7804465011286331
 20
257.5161973526613
 30
0.0
 11
108.7804465011286
 21
257.5161973526613
 31
0.0
  0
LINE
  5
E40
330
18
100
AcDbEntity
  8
外形線
100
AcDbLine
 10
0.7804465011286331
 20
256.5161973526613
 30
0.0
 11
108.7804465011286
 21
256.5161973526613
 31
0.0
  0
TEXT
  5
E41
330
18
100
AcDbEntity
  8
文字
100
AcDbText
 10
1.006327501128633
 20
259.7825013526614
 30
0.0
 40
4.0
  1
Model No.H-3 Dial Thickness Gauge
  7
STYLE3
100
AcDbText
  0
LINE
  5
E44
330
18
100
AcDbEntity
  8
外形線
100
AcDbLine
 10
113.6379315011286
 20
20.78171435266135
 30
0.0
 11
254.4293495011286
 21
20.78171435266135
 31
0.0
  0
LINE
  5
E45
330
18
100
AcDbEntity
  8
外形線
100
AcDbLine
 10
113.6379315011286
 20
10.00150835266135
 30
0.0
 11
254.4293495011286
 21
10.00150835266135
 31
0.0
  0
TEXT
  5
E46
330
18
100
AcDbEntity
  8
0
  6
Continuous
100
AcDbText
 10
115.0953985011286
 20
11.89949835266134
 30
0.0
 40
2.1
  1
Design and specifications are subject to change without notice for future improvement.
  7
STYLE3
100
AcDbText
  0
TEXT
  5
E47
330
18
100
AcDbEntity
  8
0
  6
Continuous
100
AcDbText
 10
115.3868925011286
 20
15.82864635266135
 30
0.0
 40
3.5
  1
仕様及び外観は予告なく変更される場合がございますのでご了承下さい。
  7
STYLE3
100
AcDbText
  0
TEXT
  5
E48
330
18
100
AcDbEntity
  8
0
  6
Continuous
100
AcDbText
 10
114.8039075011286
 20
2.134870352661347
 30
0.0
 40
2.1
  1
3RD Angle Projection
  7
STYLE3
100
AcDbText
  0
TEXT
  5
E49
330
18
100
AcDbEntity
  8
0
  6
Continuous
100
AcDbText
 10
117.4273505011286
 20
5.631153352661348
 30
0.0
 40
3.0
  1
三　　角　　法
  7
STYLE3
100
AcDbText
  0
LINE
  5
E4A
330
18
100
AcDbEntity
  8
外形線
100
AcDbLine
 10
113.6379315011286
 20
0.3867303526613479
 30
0.0
 11
113.6379315011286
 21
20.78171435266135
 31
0.0
  0
LINE
  5
E4B
330
18
100
AcDbEntity
  8
外形線
100
AcDbLine
 10
215.6606985011286
 20
10.00150835266135
 30
0.0
 11
215.6606985011286
 21
0.3867303526613479
 31
0.0
  0
LINE
  5
E4C
330
18
100
AcDbEntity
  8
外形線
100
AcDbLine
 10
185.9283485011286
 20
10.00150835266135
 30
0.0
 11
185.9283485011286
 21
0.3867303526613479
 31
0.0
  0
LINE
  5
E4D
330
18
100
AcDbEntity
  8
外形線
100
AcDbLine
 10
166.3982765011286
 20
10.00150835266135
 30
0.0
 11
166.3982765011286
 21
0.3867303526613479
 31
0.0
  0
LINE
  5
E4E
330
18
100
AcDbEntity
  8
外形線
100
AcDbLine
 10
148.9086595011286
 20
10.00150835266135
 30
0.0
 11
148.9086595011286
 21
0.3867303526613479
 31
0.0
  0
TEXT
  5
E4F
330
18
100
AcDbEntity
  8
0
  6
Continuous
100
AcDbText
 10
150.3661285011286
 20
5.637108352661347
 30
0.0
 40
3.0
  1
単位
  7
STYLE3
100
AcDbText
  0
TEXT
  5
E50
330
18
100
AcDbEntity
  8
0
  6
Continuous
100
AcDbText
 10
150.5378495011286
 20
2.134871352661347
 30
0.0
 40
2.1
  1
Unit
  7
STYLE3
100
AcDbText
  0
TEXT
  5
E51
330
18
100
AcDbEntity
  8
0
  6
Continuous
100
AcDbText
 10
167.6840245011286
 20
5.345750352661347
 30
0.0
 40
3.0
  1
尺 度
  7
STYLE3
100
AcDbText
  0
TEXT
  5
E52
330
18
100
AcDbEntity
  8
0
  6
Continuous
100
AcDbText
 10
158.4081765011286
 20
3.883014352661347
 30
0.0
 40
2.399999999999999
  1
mm
  7
STYLE3
100
AcDbText
  0
TEXT
  5
E53
330
18
100
AcDbEntity
  8
0
  6
Continuous
100
AcDbText
 10
168.1472395011286
 20
2.426228352661347
 30
0.0
 40
2.1
  1
Scale
  7
STYLE3
100
AcDbText
  0
TEXT
  5
E54
330
18
100
AcDbEntity
  8
0
  6
Continuous
100
AcDbText
 10
177.7665285011286
 20
4.174371352661347
 30
0.0
 40
2.399999999999999
  1
1/1
  7
STYLE3
100
AcDbText
  0
TEXT
  5
E55
330
18
100
AcDbEntity
  8
0
  6
Continuous
100
AcDbText
 10
187.8602995011286
 20
2.134872352661347
 30
0.0
 40
2.1
  1
Date
  7
STYLE3
100
AcDbText
  0
TEXT
  5
E56
330
18
100
AcDbEntity
  8
0
  6
Continuous
100
AcDbText
 10
187.4769385011286
 20
5.467955352661348
 30
0.0
 40
3.0
  1
日 付
  7
STYLE3
100
AcDbText
  0
TEXT
  5
E57
330
18
100
AcDbEntity
  8
0
  6
Continuous
100
AcDbText
 10
196.6051075011286
 20
3.883013352661347
 30
0.0
 40
2.1
  1
2010.06.10
  7
STYLE3
100
AcDbText
  0
TEXT
  5
E58
330
18
100
AcDbEntity
  8
0
  6
Continuous
100
AcDbText
 10
217.0096615011286
 20
5.922510352661348
 30
0.0
 40
3.0
  1
株式会社　尾崎製作所
  7
STYLE3
100
AcDbText
  0
TEXT
  5
E59
330
18
100
AcDbEntity
  8
0
  6
Continuous
100
AcDbText
 10
217.8841405011286
 20
2.134871352661347
 30
0.0
 40
2.1
  1
OZAKI MFG. CO., LTD.
  7
STYLE3
100
AcDbText
  0
VIEWPORT
  5
177
330
15
100
AcDbEntity
 67
     1
  8
0
100
AcDbViewport
 10
127.5041203589828
 20
97.49391214526822
 30
0.0
 40
418.3086347473814
 41
243.0346063651093
 68
     1
 69
     1
 12
127.5041203589828
 22
97.49391214526822
 13
0.0
 23
0.0
 14
10.0
 24
10.0
 15
10.0
 25
10.0
 16
0.0
 26
0.0
 36
1.0
 17
0.0
 27
0.0
 37
0.0
 42
50.0
 43
0.0
 44
0.0
 45
243.0346063651093
 50
0.0
 51
0.0
 72
   100
 90
    32800
  1

281
     0
 71
     1
 74
     0
110
0.0
120
0.0
130
0.0
111
1.0
121
0.0
131
0.0
112
0.0
122
1.0
132
0.0
 79
     0
146
0.0
170
     0
  0
ENDSEC
  0
SECTION
  2
OBJECTS
  0
DICTIONARY
  5
C
330
0
100
AcDbDictionary
281
     1
  3
ACAD_COLOR
350
DFC
  3
ACAD_GROUP
350
D
  3
ACAD_LAYOUT
350
DFD
  3
ACAD_MATERIAL
350
DFB
  3
ACAD_MLINESTYLE
350
1B
  3
ACAD_PLOTSETTINGS
350
DFE
  3
ACAD_PLOTSTYLENAME
350
DF9
  0
DICTIONARY
  5
DFC
102
{ACAD_REACTORS
330
C
102
}
330
C
100
AcDbDictionary
281
     1
  0
DICTIONARY
  5
D
102
{ACAD_REACTORS
330
C
102
}
330
C
100
AcDbDictionary
281
     1
  0
DICTIONARY
  5
DFD
102
{ACAD_REACTORS
330
C
102
}
330
C
100
AcDbDictionary
281
     1
  3
Model
350
DFF
  3
レイアウト1
350
E00
  0
DICTIONARY
  5
DFB
102
{ACAD_REACTORS
330
C
102
}
330
C
100
AcDbDictionary
281
     1
  0
DICTIONARY
  5
1B
102
{ACAD_REACTORS
330
C
102
}
330
C
100
AcDbDictionary
281
     1
  3
STANDARD
350
1C
  0
DICTIONARY
  5
DFE
102
{ACAD_REACTORS
330
C
102
}
330
C
100
AcDbDictionary
281
     1
  0
ACDBDICTIONARYWDFLT
  5
DF9
102
{ACAD_REACTORS
330
C
102
}
330
C
100
AcDbDictionary
281
     1
  3
Normal
350
DFA
100
AcDbDictionaryWithDefault
340
DFA
  0
LAYOUT
  5
DFF
102
{ACAD_REACTORS
330
DFD
102
}
330
DFD
100
AcDbPlotSettings
  1

  2
EPSON PX-101
  4

  6

 40
0.0
 41
0.0
 42
0.0
 43
0.0
 44
0.0
 45
0.0
 46
0.0
 47
0.0
 48
0.0
 49
0.0
140
0.0
141
0.0
142
1.0
143
1.0
 70
  1712
 72
     0
 73
     0
 74
     0
  7
AutoCad LT 98fukui.ctb
 75
     0
147
1.0
 76
     0
 77
     2
 78
   300
148
0.0
149
0.0
100
AcDbLayout
  1
Model
 70
     1
 71
     0
 10
0.0
 20
0.0
 11
12.0
 21
9.0
 12
0.0
 22
0.0
 32
0.0
 14
0.0
 24
0.0
 34
0.0
 15
0.0
 25
0.0
 35
0.0
146
0.0
 13
0.0
 23
0.0
 33
0.0
 16
1.0
 26
0.0
 36
0.0
 17
0.0
 27
1.0
 37
0.0
 76
     0
330
18
  0
LAYOUT
  5
E00
102
{ACAD_REACTORS
330
DFD
102
}
330
DFD
100
AcDbPlotSettings
  1

  2
EPSON PX-101
  4

  6

 40
0.0
 41
0.0
 42
0.0
 43
0.0
 44
0.0
 45
0.0
 46
0.0
 47
0.0
 48
0.0
 49
0.0
140
0.0
141
0.0
142
1.0
143
1.0
 70
   688
 72
     0
 73
     0
 74
     5
  7
AutoCad LT 98fukui.ctb
 75
    16
147
1.0
 76
     0
 77
     2
 78
   300
148
0.0
149
0.0
100
AcDbLayout
  1
レイアウト1
 70
     1
 71
     1
 10
0.0
 20
0.0
 11
420.0
 21
297.0
 12
0.0
 22
0.0
 32
0.0
 14
-0.2
 24
-0.2
 34
0.0
 15
255.2
 25
195.2
 35
0.0
146
0.0
 13
0.0
 23
0.0
 33
0.0
 16
1.0
 26
0.0
 36
0.0
 17
0.0
 27
1.0
 37
0.0
 76
     0
330
15
331
177
  0
MLINESTYLE
  5
1C
102
{ACAD_REACTORS
330
1B
102
}
330
1B
100
AcDbMlineStyle
  2
STANDARD
 70
     0
  3

 62
   256
 51
90.0
 52
90.0
 71
     2
 49
0.5
 62
   256
  6
BYLAYER
 49
-0.5
 62
   256
  6
BYLAYER
  0
ACDBPLACEHOLDER
  5
DFA
102
{ACAD_REACTORS
330
DF9
102
}
330
DF9
  0
ENDSEC
  0
EOF
