  0
SECTION
  2
HEADER
  9
$ACADVER
  1
AC1018
  9
$ACADMAINTVER
 70
     0
  9
$DWGCODEPAGE
  3
ANSI_932
  9
$INSBASE
 10
0.0
 20
0.0
 30
0.0
  9
$EXTMIN
 10
-0.2256454072593215
 20
-0.2181385412601458
 30
-1.000061032362211
  9
$EXTMAX
 10
255.2259969900183
 20
195.2198623512278
 30
0.0000610416757212
  9
$LIMMIN
 10
0.0
 20
0.0
  9
$LIMMAX
 10
420.0
 20
297.0
  9
$ORTHOMODE
 70
     1
  9
$REGENMODE
 70
     1
  9
$FILLMODE
 70
     1
  9
$QTEXTMODE
 70
     0
  9
$MIRRTEXT
 70
     1
  9
$LTSCALE
 40
1.0
  9
$ATTMODE
 70
     1
  9
$TEXTSIZE
 40
3.0
  9
$TRACEWID
 40
1.0
  9
$TEXTSTYLE
  7
STYLE3
  9
$CLAYER
  8
文字
  9
$CELTYPE
  6
BYLAYER
  9
$CECOLOR
 62
   256
  9
$CELTSCALE
 40
1.0
  9
$DISPSILH
 70
     0
  9
$DIMSCALE
 40
1.0
  9
$DIMASZ
 40
2.5
  9
$DIMEXO
 40
0.0
  9
$DIMDLI
 40
3.75
  9
$DIMRND
 40
0.0
  9
$DIMDLE
 40
0.0
  9
$DIMEXE
 40
1.25
  9
$DIMTP
 40
0.0
  9
$DIMTM
 40
0.0
  9
$DIMTXT
 40
2.5
  9
$DIMCEN
 40
2.5
  9
$DIMTSZ
 40
0.0
  9
$DIMTOL
 70
     0
  9
$DIMLIM
 70
     0
  9
$DIMTIH
 70
     0
  9
$DIMTOH
 70
     0
  9
$DIMSE1
 70
     0
  9
$DIMSE2
 70
     0
  9
$DIMTAD
 70
     1
  9
$DIMZIN
 70
     8
  9
$DIMBLK
  1

  9
$DIMASO
 70
     1
  9
$DIMSHO
 70
     1
  9
$DIMPOST
  1

  9
$DIMAPOST
  1

  9
$DIMALT
 70
     0
  9
$DIMALTD
 70
     4
  9
$DIMALTF
 40
0.0394
  9
$DIMLFAC
 40
1.0
  9
$DIMTOFL
 70
     1
  9
$DIMTVP
 40
0.0
  9
$DIMTIX
 70
     0
  9
$DIMSOXD
 70
     0
  9
$DIMSAH
 70
     1
  9
$DIMBLK1
  1
OPEN
  9
$DIMBLK2
  1
OPEN
  9
$DIMSTYLE
  2
STYLE3
  9
$DIMCLRD
 70
     2
  9
$DIMCLRE
 70
     2
  9
$DIMCLRT
 70
     6
  9
$DIMTFAC
 40
1.0
  9
$DIMGAP
 40
0.625
  9
$DIMJUST
 70
     0
  9
$DIMSD1
 70
     0
  9
$DIMSD2
 70
     0
  9
$DIMTOLJ
 70
     1
  9
$DIMTZIN
 70
     0
  9
$DIMALTZ
 70
     0
  9
$DIMALTTZ
 70
     0
  9
$DIMUPT
 70
     0
  9
$DIMDEC
 70
     2
  9
$DIMTDEC
 70
     4
  9
$DIMALTU
 70
     8
  9
$DIMALTTD
 70
     4
  9
$DIMTXSTY
  7
STYLE3
  9
$DIMAUNIT
 70
     0
  9
$DIMADEC
 70
     0
  9
$DIMALTRND
 40
0.0
  9
$DIMAZIN
 70
     0
  9
$DIMDSEP
 70
    46
  9
$DIMATFIT
 70
     3
  9
$DIMFRAC
 70
     0
  9
$DIMLDRBLK
  1

  9
$DIMLUNIT
 70
     2
  9
$DIMLWD
 70
    -2
  9
$DIMLWE
 70
    -2
  9
$DIMTMOVE
 70
     0
  9
$LUNITS
 70
     2
  9
$LUPREC
 70
     4
  9
$SKETCHINC
 40
1.0
  9
$FILLETRAD
 40
1.75
  9
$AUNITS
 70
     0
  9
$AUPREC
 70
     0
  9
$MENU
  1
.
  9
$ELEVATION
 40
0.0
  9
$PELEVATION
 40
0.0
  9
$THICKNESS
 40
0.0
  9
$LIMCHECK
 70
     0
  9
$CHAMFERA
 40
10.0
  9
$CHAMFERB
 40
10.0
  9
$CHAMFERC
 40
20.0
  9
$CHAMFERD
 40
0.0
  9
$SKPOLY
 70
     0
  9
$TDCREATE
 40
2451859.479272570
  9
$TDUCREATE
 40
2451859.104272570
  9
$TDUPDATE
 40
2455358.471635197
  9
$TDUUPDATE
 40
2455358.096635197
  9
$TDINDWG
 40
0.2231941551
  9
$TDUSRTIMER
 40
0.2231941551
  9
$USRTIMER
 70
     1
  9
$ANGBASE
 50
0.0
  9
$ANGDIR
 70
     0
  9
$PDMODE
 70
     0
  9
$PDSIZE
 40
0.0
  9
$PLINEWID
 40
0.0
  9
$SPLFRAME
 70
     0
  9
$SPLINETYPE
 70
     6
  9
$SPLINESEGS
 70
     8
  9
$HANDSEED
  5
A9A
  9
$SURFTAB1
 70
     6
  9
$SURFTAB2
 70
     6
  9
$SURFTYPE
 70
     6
  9
$SURFU
 70
     6
  9
$SURFV
 70
     6
  9
$UCSBASE
  2

  9
$UCSNAME
  2

  9
$UCSORG
 10
0.0
 20
0.0
 30
0.0
  9
$UCSXDIR
 10
1.0
 20
0.0
 30
0.0
  9
$UCSYDIR
 10
0.0
 20
1.0
 30
0.0
  9
$UCSORTHOREF
  2

  9
$UCSORTHOVIEW
 70
     0
  9
$UCSORGTOP
 10
0.0
 20
0.0
 30
0.0
  9
$UCSORGBOTTOM
 10
0.0
 20
0.0
 30
0.0
  9
$UCSORGLEFT
 10
0.0
 20
0.0
 30
0.0
  9
$UCSORGRIGHT
 10
0.0
 20
0.0
 30
0.0
  9
$UCSORGFRONT
 10
0.0
 20
0.0
 30
0.0
  9
$UCSORGBACK
 10
0.0
 20
0.0
 30
0.0
  9
$PUCSBASE
  2

  9
$PUCSNAME
  2

  9
$PUCSORG
 10
0.0
 20
0.0
 30
0.0
  9
$PUCSXDIR
 10
1.0
 20
0.0
 30
0.0
  9
$PUCSYDIR
 10
0.0
 20
1.0
 30
0.0
  9
$PUCSORTHOREF
  2

  9
$PUCSORTHOVIEW
 70
     0
  9
$PUCSORGTOP
 10
0.0
 20
0.0
 30
0.0
  9
$PUCSORGBOTTOM
 10
0.0
 20
0.0
 30
0.0
  9
$PUCSORGLEFT
 10
0.0
 20
0.0
 30
0.0
  9
$PUCSORGRIGHT
 10
0.0
 20
0.0
 30
0.0
  9
$PUCSORGFRONT
 10
0.0
 20
0.0
 30
0.0
  9
$PUCSORGBACK
 10
0.0
 20
0.0
 30
0.0
  9
$USERI1
 70
     0
  9
$USERI2
 70
     0
  9
$USERI3
 70
     0
  9
$USERI4
 70
     0
  9
$USERI5
 70
     0
  9
$USERR1
 40
0.0
  9
$USERR2
 40
0.0
  9
$USERR3
 40
0.0
  9
$USERR4
 40
0.0
  9
$USERR5
 40
0.0
  9
$WORLDVIEW
 70
     1
  9
$SHADEDGE
 70
     3
  9
$SHADEDIF
 70
    70
  9
$TILEMODE
 70
     1
  9
$MAXACTVP
 70
    48
  9
$PINSBASE
 10
0.0
 20
0.0
 30
0.0
  9
$PLIMCHECK
 70
     0
  9
$PEXTMIN
 10
-0.2
 20
-0.2
 30
0.0
  9
$PEXTMAX
 10
255.2
 20
195.2
 30
0.0
  9
$PLIMMIN
 10
0.0
 20
0.0
  9
$PLIMMAX
 10
420.0
 20
297.0
  9
$UNITMODE
 70
     0
  9
$VISRETAIN
 70
     1
  9
$PLINEGEN
 70
     0
  9
$PSLTSCALE
 70
     1
  9
$TREEDEPTH
 70
  3020
  9
$CMLSTYLE
  2
STANDARD
  9
$CMLJUST
 70
     0
  9
$CMLSCALE
 40
20.0
  9
$PROXYGRAPHICS
 70
     1
  9
$MEASUREMENT
 70
     0
  9
$CELWEIGHT
370
    -1
  9
$ENDCAPS
280
     0
  9
$JOINSTYLE
280
     0
  9
$LWDISPLAY
290
     0
  9
$INSUNITS
 70
     0
  9
$HYPERLINKBASE
  1

  9
$STYLESHEET
  1
AutoCad LT 98.ctb
  9
$XEDIT
290
     1
  9
$CEPSNTYPE
380
     0
  9
$PSTYLEMODE
290
     1
  9
$FINGERPRINTGUID
  2
{B2B3F262-929B-41A1-AA12-D3B2FE53CD75}
  9
$VERSIONGUID
  2
{3BBBDE0B-3F93-4724-A815-28C351714C14}
  9
$EXTNAMES
290
     1
  9
$PSVPSCALE
 40
0.0
  9
$OLESTARTUP
290
     0
  9
$SORTENTS
280
   127
  9
$INDEXCTL
280
     0
  9
$HIDETEXT
280
     0
  9
$XCLIPFRAME
290
     0
  9
$HALOGAP
280
     0
  9
$OBSCOLOR
 70
   257
  9
$OBSLTYPE
280
     0
  9
$INTERSECTIONDISPLAY
280
     0
  9
$INTERSECTIONCOLOR
 70
   257
  9
$DIMASSOC
280
     1
  9
$PROJECTNAME
  1

  0
ENDSEC
  0
SECTION
  2
CLASSES
  0
CLASS
  1
HATCH
  2
AcDbHatch
  3
ObjectDBX Classes
 90
        0
 91
       12
280
     0
281
     1
  0
CLASS
  1
ACDBDICTIONARYWDFLT
  2
AcDbDictionaryWithDefault
  3
ObjectDBX Classes
 90
        0
 91
        1
280
     0
281
     0
  0
CLASS
  1
TABLESTYLE
  2
AcDbTableStyle
  3
ObjectDBX Classes
 90
     2047
 91
        1
280
     0
281
     0
  0
CLASS
  1
DICTIONARYVAR
  2
AcDbDictionaryVar
  3
ObjectDBX Classes
 90
        0
 91
        1
280
     0
281
     0
  0
ENDSEC
  0
SECTION
  2
TABLES
  0
TABLE
  2
VPORT
  5
8
330
0
100
AcDbSymbolTable
 70
     2
  0
VPORT
  5
A99
330
8
100
AcDbSymbolTableRecord
100
AcDbViewportTableRecord
  2
*Active
 70
     0
 10
0.0
 20
0.0
 11
1.0
 21
1.0
 12
127.5001757913795
 22
97.50086190498384
 13
0.0
 23
0.0
 14
10.0
 24
10.0
 15
10.0
 25
10.0
 16
0.0
 26
0.0
 36
1.0
 17
0.0
 27
0.0
 37
0.0
 40
196.9242214315943
 41
1.530456852791878
 42
50.0
 43
0.0
 44
0.0
 50
0.0
 51
0.0
 71
     0
 72
   100
 73
     1
 74
     1
 75
     0
 76
     0
 77
     0
 78
     0
281
     0
 65
     1
110
0.0
120
0.0
130
0.0
111
1.0
121
0.0
131
0.0
112
0.0
122
1.0
132
0.0
 79
     0
146
0.0
  0
ENDTAB
  0
TABLE
  2
LTYPE
  5
5
330
0
100
AcDbSymbolTable
 70
    12
  0
LTYPE
  5
12
330
5
100
AcDbSymbolTableRecord
100
AcDbLinetypeTableRecord
  2
BYBLOCK
 70
     0
  3

 72
    65
 73
     0
 40
0.0
  0
LTYPE
  5
13
330
5
100
AcDbSymbolTableRecord
100
AcDbLinetypeTableRecord
  2
BYLAYER
 70
     0
  3

 72
    65
 73
     0
 40
0.0
  0
LTYPE
  5
14
330
5
100
AcDbSymbolTableRecord
100
AcDbLinetypeTableRecord
  2
CONTINUOUS
 70
     0
  3
Solid line
 72
    65
 73
     0
 40
0.0
  0
LTYPE
  5
22
330
5
100
AcDbSymbolTableRecord
100
AcDbLinetypeTableRecord
  2
CENTER2
 70
     0
  3
Center (.5x) ___ _ ___ _ ___ _ ___ _ ___ _ ___
 72
    65
 73
     4
 40
28.575
 49
19.05
 74
     0
 49
-3.174999999999999
 74
     0
 49
3.174999999999999
 74
     0
 49
-3.174999999999999
 74
     0
  0
LTYPE
  5
24
330
5
100
AcDbSymbolTableRecord
100
AcDbLinetypeTableRecord
  2
PHANTOM2
 70
     0
  3
Phantom (.5x) ___ _ _ ___ _ _ ___ _ _ ___ _ _
 72
    65
 73
     6
 40
31.75
 49
15.875
 74
     0
 49
-3.174999999999999
 74
     0
 49
3.174999999999999
 74
     0
 49
-3.174999999999999
 74
     0
 49
3.174999999999999
 74
     0
 49
-3.174999999999999
 74
     0
  0
ENDTAB
  0
TABLE
  2
LAYER
  5
2
102
{ACAD_XDICTIONARY
360
9A4
102
}
330
0
100
AcDbSymbolTable
 70
    16
  0
LAYER
  5
E
330
2
100
AcDbSymbolTableRecord
100
AcDbLayerTableRecord
  2
0
 70
     0
 62
     7
  6
CONTINUOUS
370
    -3
390
986
  0
LAYER
  5
25
330
2
100
AcDbSymbolTableRecord
100
AcDbLayerTableRecord
  2
外形線
 70
     0
 62
     7
  6
CONTINUOUS
370
    -3
390
986
  0
LAYER
  5
26
330
2
100
AcDbSymbolTableRecord
100
AcDbLayerTableRecord
  2
寸法線
 70
     0
 62
     2
  6
CONTINUOUS
370
    -3
390
986
  0
LAYER
  5
27
330
2
100
AcDbSymbolTableRecord
100
AcDbLayerTableRecord
  2
中心線
 70
     0
 62
     4
  6
CENTER2
370
    -3
390
986
  0
LAYER
  5
29
330
2
100
AcDbSymbolTableRecord
100
AcDbLayerTableRecord
  2
想像線
 70
     0
 62
     1
  6
PHANTOM2
370
    -3
390
986
  0
LAYER
  5
2A
330
2
100
AcDbSymbolTableRecord
100
AcDbLayerTableRecord
  2
ﾊｯﾁﾝｸ
 70
     0
 62
     6
  6
CONTINUOUS
370
    -3
390
986
  0
LAYER
  5
2B
330
2
100
AcDbSymbolTableRecord
100
AcDbLayerTableRecord
  2
文字
 70
     0
 62
     6
  6
CONTINUOUS
370
    -3
390
986
  0
LAYER
  5
2C
330
2
100
AcDbSymbolTableRecord
100
AcDbLayerTableRecord
  2
目盛
 70
     0
 62
    70
  6
CONTINUOUS
370
    -3
390
986
  0
LAYER
  5
2D
330
2
100
AcDbSymbolTableRecord
100
AcDbLayerTableRecord
  2
針
 70
     0
 62
     5
  6
CONTINUOUS
370
    -3
390
986
  0
LAYER
  5
53
330
2
100
AcDbSymbolTableRecord
100
AcDbLayerTableRecord
  2
DEFPOINTS
 70
     0
 62
     7
  6
CONTINUOUS
290
     0
370
    -3
390
986
  0
LAYER
  5
A5
330
2
100
AcDbSymbolTableRecord
100
AcDbLayerTableRecord
  2
C
 70
     0
 62
     7
  6
CONTINUOUS
370
    -3
390
986
  0
LAYER
  5
348
330
2
100
AcDbSymbolTableRecord
100
AcDbLayerTableRecord
  2
ROGO
 70
     0
 62
     6
  6
CONTINUOUS
370
    -3
390
986
  0
ENDTAB
  0
TABLE
  2
STYLE
  5
3
330
0
100
AcDbSymbolTable
 70
     6
  0
STYLE
  5
F
330
3
100
AcDbSymbolTableRecord
100
AcDbTextStyleTableRecord
  2
STANDARD
 70
     0
 40
0.0
 41
1.0
 50
0.0
 71
     0
 42
2.5
  3
txt
  4

  0
STYLE
  5
3F
330
3
100
AcDbSymbolTableRecord
100
AcDbTextStyleTableRecord
  2
STYLE3
 70
     0
 40
0.0
 41
1.0
 50
0.0
 71
     0
 42
3.0
  3
romans.shx
  4
bigfont.shx
  0
ENDTAB
  0
TABLE
  2
VIEW
  5
6
330
0
100
AcDbSymbolTable
 70
     0
  0
ENDTAB
  0
TABLE
  2
UCS
  5
7
330
0
100
AcDbSymbolTable
 70
     0
  0
ENDTAB
  0
TABLE
  2
APPID
  5
9
330
0
100
AcDbSymbolTable
 70
     2
  0
APPID
  5
10
330
9
100
AcDbSymbolTableRecord
100
AcDbRegAppTableRecord
  2
ACAD
 70
     0
  0
APPID
  5
9A3
330
9
100
AcDbSymbolTableRecord
100
AcDbRegAppTableRecord
  2
ACAD_PSEXT
 70
     0
  0
ENDTAB
  0
TABLE
  2
DIMSTYLE
  5
A
330
0
100
AcDbSymbolTable
 70
     4
100
AcDbDimStyleTable
 71
     1
340
8F
  0
DIMSTYLE
105
1D
330
A
100
AcDbSymbolTableRecord
100
AcDbDimStyleTableRecord
  2
STANDARD
 70
     0
 41
2.5
 42
0.625
 43
3.75
 44
1.25
 73
     0
 74
     0
 77
     1
 78
     8
140
2.5
141
2.5
143
0.0394
147
0.625
171
     4
172
     1
273
     8
274
     4
277
     6
340
F
  0
DIMSTYLE
105
8F
102
{ACAD_REACTORS
330
856
330
86E
330
87A
330
88A
330
897
330
8A4
330
A00
102
}
330
A
100
AcDbSymbolTableRecord
100
AcDbDimStyleTableRecord
  2
STYLE3
 70
     0
 41
2.5
 42
0.0
 43
3.75
 44
1.25
 73
     0
 74
     0
 77
     1
 78
     8
140
2.5
141
2.5
143
0.0394
147
0.625
171
     4
172
     1
173
     1
176
     2
177
     2
178
     6
271
     1
273
     8
274
     4
340
3F
341
45
343
45
344
45
  0
ENDTAB
  0
TABLE
  2
BLOCK_RECORD
  5
1
330
0
100
AcDbSymbolTable
 70
    14
  0
BLOCK_RECORD
  5
18
330
1
100
AcDbSymbolTableRecord
100
AcDbBlockTableRecord
  2
*MODEL_SPACE
340
98D
  0
BLOCK_RECORD
  5
15
330
1
100
AcDbSymbolTableRecord
100
AcDbBlockTableRecord
  2
*PAPER_SPACE
340
98E
  0
BLOCK_RECORD
  5
45
330
1
100
AcDbSymbolTableRecord
100
AcDbBlockTableRecord
  2
_OPEN
340
0
102
{BLKREFS
331
62D
331
644
331
699
331
6BB
331
7DB
331
7EF
331
7F0
331
7FB
331
7FD
331
800
331
8B1
331
8B2
331
8BC
331
8BD
331
8C6
331
8C7
331
8DE
331
8DF
331
8E9
331
8EA
331
A05
331
A06
331
A1F
331
A20
102
}
  0
BLOCK_RECORD
  5
84A
330
1
100
AcDbSymbolTableRecord
100
AcDbBlockTableRecord
  2
*D1
340
0
  0
BLOCK_RECORD
  5
862
330
1
100
AcDbSymbolTableRecord
100
AcDbBlockTableRecord
  2
*D2
340
0
  0
BLOCK_RECORD
  5
86F
330
1
100
AcDbSymbolTableRecord
100
AcDbBlockTableRecord
  2
*D3
340
0
  0
BLOCK_RECORD
  5
87C
330
1
100
AcDbSymbolTableRecord
100
AcDbBlockTableRecord
  2
*D4
340
0
  0
BLOCK_RECORD
  5
88B
330
1
100
AcDbSymbolTableRecord
100
AcDbBlockTableRecord
  2
*D5
340
0
  0
BLOCK_RECORD
  5
898
330
1
100
AcDbSymbolTableRecord
100
AcDbBlockTableRecord
  2
*D6
340
0
  0
BLOCK_RECORD
  5
A01
330
1
100
AcDbSymbolTableRecord
100
AcDbBlockTableRecord
  2
*D8
340
0
  0
ENDTAB
  0
ENDSEC
  0
SECTION
  2
BLOCKS
  0
BLOCK
  5
19
330
18
100
AcDbEntity
  8
0
100
AcDbBlockBegin
  2
*MODEL_SPACE
 70
     0
 10
0.0
 20
0.0
 30
0.0
  3
*MODEL_SPACE
  1

  0
ENDBLK
  5
1A
330
18
100
AcDbEntity
  8
0
100
AcDbBlockEnd
  0
BLOCK
  5
16
330
15
100
AcDbEntity
 67
     1
  8
0
100
AcDbBlockBegin
  2
*PAPER_SPACE
 70
     0
 10
0.0
 20
0.0
 30
0.0
  3
*PAPER_SPACE
  1

  0
ENDBLK
  5
17
330
15
100
AcDbEntity
 67
     1
  8
0
100
AcDbBlockEnd
  0
BLOCK
  5
46
330
45
100
AcDbEntity
  8
0
100
AcDbBlockBegin
  2
_OPEN
 70
     0
 10
0.0
 20
0.0
 30
0.0
  3
_OPEN
  1

  0
LINE
  5
47
330
45
100
AcDbEntity
  8
0
  6
ByBlock
 62
     0
100
AcDbLine
 10
-1.0
 20
0.1666666666666666
 30
0.0
 11
0.0
 21
0.0
 31
0.0
  0
LINE
  5
48
330
45
100
AcDbEntity
  8
0
  6
ByBlock
 62
     0
100
AcDbLine
 10
0.0
 20
0.0
 30
0.0
 11
-1.0
 21
-0.1666666666666666
 31
0.0
  0
LINE
  5
49
330
45
100
AcDbEntity
  8
0
  6
ByBlock
 62
     0
100
AcDbLine
 10
0.0
 20
0.0
 30
0.0
 11
-1.0
 21
0.0
 31
0.0
  0
ENDBLK
  5
4A
330
45
100
AcDbEntity
  8
0
100
AcDbBlockEnd
  0
BLOCK
  5
8AD
330
84A
100
AcDbEntity
  8
0
100
AcDbBlockBegin
  2
*D1
 70
     1
 10
0.0
 20
0.0
 30
0.0
  3
*D1
  1

  0
LINE
  5
8AE
330
84A
100
AcDbEntity
  8
0
  6
ByBlock
 62
     2
100
AcDbLine
 10
92.15702736131504
 20
47.62264016755347
 30
0.0
 11
92.15702736131504
 21
29.43238392382358
 31
0.0
  0
LINE
  5
8AF
330
84A
100
AcDbEntity
  8
0
  6
ByBlock
 62
     2
100
AcDbLine
 10
212.157027361315
 20
45.39375674288741
 30
0.0
 11
212.157027361315
 21
29.43238392382358
 31
0.0
  0
LINE
  5
8B0
330
84A
100
AcDbEntity
  8
0
  6
ByBlock
 62
     2
100
AcDbLine
 10
94.65702736131504
 20
30.68238392382358
 30
0.0
 11
209.657027361315
 21
30.68238392382358
 31
0.0
  0
INSERT
  5
8B1
330
84A
100
AcDbEntity
  8
0
  6
ByBlock
 62
     2
100
AcDbBlockReference
  2
_OPEN
 10
92.15702736131504
 20
30.68238392382358
 30
0.0
 41
2.5
 42
2.5
 43
2.5
 50
180.0
  0
INSERT
  5
8B2
330
84A
100
AcDbEntity
  8
0
  6
ByBlock
 62
     2
100
AcDbBlockReference
  2
_OPEN
 10
212.157027361315
 20
30.68238392382358
 30
0.0
 41
2.5
 42
2.5
 43
2.5
  0
MTEXT
  5
8B3
330
84A
100
AcDbEntity
  8
0
  6
ByBlock
 62
     6
100
AcDbMText
 10
152.157027361315
 20
32.55738392382358
 30
0.0
 40
2.5
 41
0.0
 71
     5
 72
     1
  1
\A1;120
  7
STYLE3
 73
     1
 44
1.0
  0
POINT
  5
8B4
330
84A
100
AcDbEntity
  8
DEFPOINTS
  6
ByBlock
 62
     0
100
AcDbPoint
 10
92.15702736131504
 20
47.62264016755347
 30
0.0
  0
POINT
  5
8B5
330
84A
100
AcDbEntity
  8
DEFPOINTS
  6
ByBlock
 62
     0
100
AcDbPoint
 10
212.157027361315
 20
45.39375674288741
 30
0.0
  0
POINT
  5
8B6
330
84A
100
AcDbEntity
  8
DEFPOINTS
  6
ByBlock
 62
     0
100
AcDbPoint
 10
212.157027361315
 20
30.68238392382358
 30
0.0
  0
ENDBLK
  5
8B7
330
84A
100
AcDbEntity
  8
0
100
AcDbBlockEnd
  0
BLOCK
  5
8B8
330
862
100
AcDbEntity
  8
0
100
AcDbBlockBegin
  2
*D2
 70
     1
 10
0.0
 20
0.0
 30
0.0
  3
*D2
  1

  0
LINE
  5
8B9
330
862
100
AcDbEntity
  8
0
  6
ByBlock
 62
     2
100
AcDbLine
 10
92.15702736131504
 20
170.95987707584
 30
0.0
 11
56.96955328210754
 21
170.95987707584
 31
0.0
  0
LINE
  5
8BA
330
862
100
AcDbEntity
  8
0
  6
ByBlock
 62
     2
100
AcDbLine
 10
61.40627914244475
 20
127.95987707584
 30
0.0
 11
56.96955328210754
 21
127.95987707584
 31
0.0
  0
LINE
  5
8BB
330
862
100
AcDbEntity
  8
0
  6
ByBlock
 62
     2
100
AcDbLine
 10
58.21955328210754
 20
168.45987707584
 30
0.0
 11
58.21955328210754
 21
130.45987707584
 31
0.0
  0
INSERT
  5
8BC
330
862
100
AcDbEntity
  8
0
  6
ByBlock
 62
     2
100
AcDbBlockReference
  2
_OPEN
 10
58.21955328210754
 20
170.95987707584
 30
0.0
 41
2.5
 42
2.5
 43
2.5
 50
90.0
  0
INSERT
  5
8BD
330
862
100
AcDbEntity
  8
0
  6
ByBlock
 62
     2
100
AcDbBlockReference
  2
_OPEN
 10
58.21955328210754
 20
127.95987707584
 30
0.0
 41
2.5
 42
2.5
 43
2.5
 50
270.0
  0
MTEXT
  5
8BE
330
862
100
AcDbEntity
  8
0
  6
ByBlock
 62
     6
100
AcDbMText
 10
56.34455328210754
 20
149.45987707584
 30
0.0
 40
2.5
 41
0.0
 71
     5
 72
     1
  1
\A1;43
  7
STYLE3
 11
0.0000000000000001
 21
1.0
 31
0.0
 73
     1
 44
1.0
  0
POINT
  5
8BF
330
862
100
AcDbEntity
  8
DEFPOINTS
  6
ByBlock
 62
     0
100
AcDbPoint
 10
92.15702736131504
 20
170.95987707584
 30
0.0
  0
POINT
  5
8C0
330
862
100
AcDbEntity
  8
DEFPOINTS
  6
ByBlock
 62
     0
100
AcDbPoint
 10
61.40627914244475
 20
127.95987707584
 30
0.0
  0
POINT
  5
8C1
330
862
100
AcDbEntity
  8
DEFPOINTS
  6
ByBlock
 62
     0
100
AcDbPoint
 10
58.21955328210754
 20
127.95987707584
 30
0.0
  0
ENDBLK
  5
8C2
330
862
100
AcDbEntity
  8
0
100
AcDbBlockEnd
  0
BLOCK
  5
8C3
330
86F
100
AcDbEntity
  8
0
100
AcDbBlockBegin
  2
*D3
 70
     1
 10
0.0
 20
0.0
 30
0.0
  3
*D3
  1

  0
LINE
  5
8C4
330
86F
100
AcDbEntity
  8
0
  6
ByBlock
 62
     2
100
AcDbLine
 10
87.15702736131504
 20
64.25987707584005
 30
0.0
 11
56.96955328210754
 21
64.25987707584005
 31
0.0
  0
LINE
  5
8C5
330
86F
100
AcDbEntity
  8
0
  6
ByBlock
 62
     2
100
AcDbLine
 10
58.21955328210754
 20
125.45987707584
 30
0.0
 11
58.21955328210754
 21
66.75987707584005
 31
0.0
  0
INSERT
  5
8C6
330
86F
100
AcDbEntity
  8
0
  6
ByBlock
 62
     2
100
AcDbBlockReference
  2
_OPEN
 10
58.21955328210754
 20
127.95987707584
 30
0.0
 41
2.5
 42
2.5
 43
2.5
 50
90.0
  0
INSERT
  5
8C7
330
86F
100
AcDbEntity
  8
0
  6
ByBlock
 62
     2
100
AcDbBlockReference
  2
_OPEN
 10
58.21955328210754
 20
64.25987707584005
 30
0.0
 41
2.5
 42
2.5
 43
2.5
 50
270.0
  0
MTEXT
  5
8C8
330
86F
100
AcDbEntity
  8
0
  6
ByBlock
 62
     6
100
AcDbMText
 10
56.34455328210754
 20
96.10987707584005
 30
0.0
 40
2.5
 41
0.0
 71
     5
 72
     1
  1
\A1;63.7
  7
STYLE3
 11
0.0000000000000001
 21
1.0
 31
0.0
 73
     1
 44
1.0
  0
POINT
  5
8C9
330
86F
100
AcDbEntity
  8
DEFPOINTS
  6
ByBlock
 62
     0
100
AcDbPoint
 10
61.40627914244475
 20
127.95987707584
 30
0.0
  0
POINT
  5
8CA
330
86F
100
AcDbEntity
  8
DEFPOINTS
  6
ByBlock
 62
     0
100
AcDbPoint
 10
87.15702736131504
 20
64.25987707584005
 30
0.0
  0
POINT
  5
8CB
330
86F
100
AcDbEntity
  8
DEFPOINTS
  6
ByBlock
 62
     0
100
AcDbPoint
 10
58.21955328210754
 20
64.25987707584005
 30
0.0
  0
ENDBLK
  5
8CC
330
86F
100
AcDbEntity
  8
0
100
AcDbBlockEnd
  0
BLOCK
  5
8CD
330
87C
100
AcDbEntity
  8
0
100
AcDbBlockBegin
  2
*D4
 70
     1
 10
0.0
 20
0.0
 30
0.0
  3
*D4
  1

  0
LINE
  5
A1A
330
87C
100
AcDbEntity
  8
外形線
 62
     2
370
    -2
100
AcDbLine
 10
77.7457348686363
 20
64.25987707584005
 30
0.0
 11
79.25454818562833
 21
64.25987707584005
 31
0.0
  0
LINE
  5
A1B
330
87C
100
AcDbEntity
  8
外形線
 62
     2
370
    -2
100
AcDbLine
 10
87.15702736131504
 20
67.75987707584005
 30
0.0
 11
76.75454818562833
 21
67.75987707584005
 31
0.0
  0
LINE
  5
A1C
330
87C
100
AcDbEntity
  8
外形線
 62
     2
370
    -2
100
AcDbLine
 10
78.00454818562833
 20
70.25987707584005
 30
0.0
 11
78.00454818562833
 21
72.75987707584005
 31
0.0
  0
LINE
  5
A1D
330
87C
100
AcDbEntity
  8
外形線
 62
     2
370
    -2
100
AcDbLine
 10
78.00454818562833
 20
61.75987707584005
 30
0.0
 11
78.00454818562833
 21
52.77178183774481
 31
0.0
  0
LINE
  5
A1E
330
87C
100
AcDbEntity
  8
外形線
 62
     2
370
    -2
100
AcDbLine
 10
78.00454818562833
 20
67.75987707584005
 30
0.0
 11
78.00454818562833
 21
64.25987707584005
 31
0.0
  0
INSERT
  5
A1F
330
87C
100
AcDbEntity
  8
外形線
 62
     2
370
    -2
100
AcDbBlockReference
  2
_OPEN
 10
78.00454818562833
 20
67.75987707584005
 30
0.0
 41
2.5
 42
2.5
 43
2.5
 50
270.0
  0
INSERT
  5
A20
330
87C
100
AcDbEntity
  8
外形線
 62
     2
370
    -2
100
AcDbBlockReference
  2
_OPEN
 10
78.00454818562833
 20
64.25987707584005
 30
0.0
 41
2.5
 42
2.5
 43
2.5
 50
90.0
  0
MTEXT
  5
A21
330
87C
100
AcDbEntity
  8
外形線
 62
     6
100
AcDbMText
 10
76.12954818562832
 20
56.01582945679243
 30
0.0
 40
2.5
 41
0.0
 71
     5
 72
     1
  1
\A1;3.5
  7
STYLE3
 11
0.0000000000000001
 21
1.0
 31
0.0
 73
     1
 44
1.0
  0
POINT
  5
A22
330
87C
100
AcDbEntity
  8
DEFPOINTS
 62
     0
100
AcDbPoint
 10
77.7457348686363
 20
64.25987707584005
 30
0.0
  0
POINT
  5
A23
330
87C
100
AcDbEntity
  8
DEFPOINTS
 62
     0
100
AcDbPoint
 10
87.15702736131504
 20
67.75987707584005
 30
0.0
  0
POINT
  5
A24
330
87C
100
AcDbEntity
  8
DEFPOINTS
 62
     0
100
AcDbPoint
 10
78.00454818562833
 20
67.75987707584005
 30
0.0
  0
ENDBLK
  5
8D9
330
87C
100
AcDbEntity
  8
0
100
AcDbBlockEnd
  0
BLOCK
  5
8DA
330
88B
100
AcDbEntity
  8
0
100
AcDbBlockBegin
  2
*D5
 70
     1
 10
0.0
 20
0.0
 30
0.0
  3
*D5
  1

  0
LINE
  5
8DB
330
88B
100
AcDbEntity
  8
0
  6
ByBlock
 62
     2
100
AcDbLine
 10
66.76906888648819
 20
64.25987707584005
 30
0.0
 11
65.14056300080994
 21
64.25987707584005
 31
0.0
  0
LINE
  5
8DC
330
88B
100
AcDbEntity
  8
0
  6
ByBlock
 62
     2
100
AcDbLine
 10
87.15702736131504
 20
88.95987707584003
 30
0.0
 11
65.14056300080994
 21
88.95987707584003
 31
0.0
  0
LINE
  5
8DD
330
88B
100
AcDbEntity
  8
0
  6
ByBlock
 62
     2
100
AcDbLine
 10
66.39056300080994
 20
66.75987707584005
 30
0.0
 11
66.39056300080994
 21
86.45987707584003
 31
0.0
  0
INSERT
  5
8DE
330
88B
100
AcDbEntity
  8
0
  6
ByBlock
 62
     2
100
AcDbBlockReference
  2
_OPEN
 10
66.39056300080994
 20
64.25987707584005
 30
0.0
 41
2.5
 42
2.5
 43
2.5
 50
270.0
  0
INSERT
  5
8DF
330
88B
100
AcDbEntity
  8
0
  6
ByBlock
 62
     2
100
AcDbBlockReference
  2
_OPEN
 10
66.39056300080994
 20
88.95987707584003
 30
0.0
 41
2.5
 42
2.5
 43
2.5
 50
90.0
  0
MTEXT
  5
8E0
330
88B
100
AcDbEntity
  8
0
  6
ByBlock
 62
     6
100
AcDbMText
 10
64.51556300080994
 20
76.60987707584005
 30
0.0
 40
2.5
 41
0.0
 71
     5
 72
     1
  1
\A1;24.7
  7
STYLE3
 11
0.0000000000000001
 21
1.0
 31
0.0
 73
     1
 44
1.0
  0
POINT
  5
8E1
330
88B
100
AcDbEntity
  8
DEFPOINTS
  6
ByBlock
 62
     0
100
AcDbPoint
 10
66.76906888648819
 20
64.25987707584005
 30
0.0
  0
POINT
  5
8E2
330
88B
100
AcDbEntity
  8
DEFPOINTS
  6
ByBlock
 62
     0
100
AcDbPoint
 10
87.15702736131504
 20
88.95987707584003
 30
0.0
  0
POINT
  5
8E3
330
88B
100
AcDbEntity
  8
DEFPOINTS
  6
ByBlock
 62
     0
100
AcDbPoint
 10
66.39056300080994
 20
88.95987707584003
 30
0.0
  0
ENDBLK
  5
8E4
330
88B
100
AcDbEntity
  8
0
100
AcDbBlockEnd
  0
BLOCK
  5
8E5
330
898
100
AcDbEntity
  8
0
100
AcDbBlockBegin
  2
*D6
 70
     1
 10
0.0
 20
0.0
 30
0.0
  3
*D6
  1

  0
LINE
  5
8E6
330
898
100
AcDbEntity
  8
0
  6
ByBlock
 62
     2
100
AcDbLine
 10
56.96955328210754
 20
64.25987707584005
 30
0.0
 11
50.76759397502883
 21
64.25987707584005
 31
0.0
  0
LINE
  5
8E7
330
898
100
AcDbEntity
  8
0
  6
ByBlock
 62
     2
100
AcDbLine
 10
56.96955328210754
 20
170.95987707584
 30
0.0
 11
50.76759397502883
 21
170.95987707584
 31
0.0
  0
LINE
  5
8E8
330
898
100
AcDbEntity
  8
0
  6
ByBlock
 62
     2
100
AcDbLine
 10
52.01759397502883
 20
66.75987707584005
 30
0.0
 11
52.01759397502883
 21
168.45987707584
 31
0.0
  0
INSERT
  5
8E9
330
898
100
AcDbEntity
  8
0
  6
ByBlock
 62
     2
100
AcDbBlockReference
  2
_OPEN
 10
52.01759397502883
 20
64.25987707584005
 30
0.0
 41
2.5
 42
2.5
 43
2.5
 50
270.0
  0
INSERT
  5
8EA
330
898
100
AcDbEntity
  8
0
  6
ByBlock
 62
     2
100
AcDbBlockReference
  2
_OPEN
 10
52.01759397502883
 20
170.95987707584
 30
0.0
 41
2.5
 42
2.5
 43
2.5
 50
90.0
  0
MTEXT
  5
8EB
330
898
100
AcDbEntity
  8
0
  6
ByBlock
 62
     6
100
AcDbMText
 10
50.14259397502883
 20
117.60987707584
 30
0.0
 40
2.5
 41
0.0
 71
     5
 72
     1
  1
\A1;106.7
  7
STYLE3
 11
0.0000000000000001
 21
1.0
 31
0.0
 73
     1
 44
1.0
  0
POINT
  5
8EC
330
898
100
AcDbEntity
  8
DEFPOINTS
  6
ByBlock
 62
     0
100
AcDbPoint
 10
56.96955328210754
 20
64.25987707584005
 30
0.0
  0
POINT
  5
8ED
330
898
100
AcDbEntity
  8
DEFPOINTS
  6
ByBlock
 62
     0
100
AcDbPoint
 10
56.96955328210754
 20
170.95987707584
 30
0.0
  0
POINT
  5
8EE
330
898
100
AcDbEntity
  8
DEFPOINTS
  6
ByBlock
 62
     0
100
AcDbPoint
 10
52.01759397502883
 20
170.95987707584
 30
0.0
  0
ENDBLK
  5
8EF
330
898
100
AcDbEntity
  8
0
100
AcDbBlockEnd
  0
BLOCK
  5
A0B
330
A01
100
AcDbEntity
  8
0
100
AcDbBlockBegin
  2
*D8
 70
     1
 10
0.0
 20
0.0
 30
0.0
  3
*D8
  1

  0
LINE
  5
A02
330
A01
100
AcDbEntity
  8
文字
 62
     2
370
    -2
100
AcDbLine
 10
87.15702736131504
 20
64.25987707584005
 30
0.0
 11
71.32546314250134
 21
64.25987707584005
 31
0.0
  0
LINE
  5
A03
330
A01
100
AcDbEntity
  8
文字
 62
     2
370
    -2
100
AcDbLine
 10
89.45702736131503
 20
73.25987707584009
 30
0.0
 11
71.32546314250134
 21
73.25987707584009
 31
0.0
  0
LINE
  5
A04
330
A01
100
AcDbEntity
  8
文字
 62
     2
370
    -2
100
AcDbLine
 10
72.57546314250134
 20
66.75987707584005
 30
0.0
 11
72.57546314250134
 21
70.75987707584009
 31
0.0
  0
INSERT
  5
A05
330
A01
100
AcDbEntity
  8
文字
 62
     2
370
    -2
100
AcDbBlockReference
  2
_OPEN
 10
72.57546314250134
 20
64.25987707584005
 30
0.0
 41
2.5
 42
2.5
 43
2.5
 50
270.0
  0
INSERT
  5
A06
330
A01
100
AcDbEntity
  8
文字
 62
     2
370
    -2
100
AcDbBlockReference
  2
_OPEN
 10
72.57546314250134
 20
73.25987707584009
 30
0.0
 41
2.5
 42
2.5
 43
2.5
 50
90.0
  0
MTEXT
  5
A07
330
A01
100
AcDbEntity
  8
文字
 62
     6
100
AcDbMText
 10
70.70046314250133
 20
68.75987707584008
 30
0.0
 40
2.5
 41
0.0
 71
     5
 72
     1
  1
\A1;9
  7
STYLE3
 11
0.0000000000000001
 21
1.0
 31
0.0
 73
     1
 44
1.0
  0
POINT
  5
A08
330
A01
100
AcDbEntity
  8
DEFPOINTS
 62
     0
100
AcDbPoint
 10
87.15702736131504
 20
64.25987707584005
 30
0.0
  0
POINT
  5
A09
330
A01
100
AcDbEntity
  8
DEFPOINTS
 62
     0
100
AcDbPoint
 10
89.45702736131503
 20
73.25987707584009
 30
0.0
  0
POINT
  5
A0A
330
A01
100
AcDbEntity
  8
DEFPOINTS
 62
     0
100
AcDbPoint
 10
72.57546314250134
 20
73.25987707584009
 30
0.0
  0
ENDBLK
  5
A0C
330
A01
100
AcDbEntity
  8
0
100
AcDbBlockEnd
  0
ENDSEC
  0
SECTION
  2
ENTITIES
  0
LWPOLYLINE
  5
26C
330
18
100
AcDbEntity
  8
C
100
AcDbPolyline
 90
        5
 70
     0
 43
0.4
 10
0.0
 20
195.0
 10
255.0
 20
195.0
 10
255.0
 20
0.0
 10
0.0
 20
0.0
 10
0.0
 20
195.0
  0
ARC
  5
2FF
330
18
100
AcDbEntity
  8
外形線
100
AcDbCircle
 10
210.157027361315
 20
89.60987707584004
 30
0.0
 40
15.0
100
AcDbArc
 50
16.45897725956903
 51
92.74855930925273
  0
ARC
  5
300
330
18
100
AcDbEntity
  8
外形線
100
AcDbCircle
 10
210.157027361315
 20
89.60987707584004
 30
0.0
 40
13.0
100
AcDbArc
 50
332.7406161232482
 51
92.74855930925273
  0
ARC
  5
301
330
18
100
AcDbEntity
  8
外形線
100
AcDbCircle
 10
210.157027361315
 20
63.60987707584005
 30
0.0
 40
15.0
100
AcDbArc
 50
267.2514406907473
 51
343.541022740431
  0
ARC
  5
302
330
18
100
AcDbEntity
  8
外形線
100
AcDbCircle
 10
210.157027361315
 20
63.60987707584005
 30
0.0
 40
13.0
100
AcDbArc
 50
267.2514406907473
 51
27.25938387675181
  0
ARC
  5
303
330
18
100
AcDbEntity
  8
外形線
100
AcDbCircle
 10
203.307027361315
 20
76.60987707584005
 30
0.0
 40
14.85
100
AcDbArc
 50
270.0
 51
90.0
  0
ARC
  5
304
330
18
100
AcDbEntity
  8
外形線
100
AcDbCircle
 10
205.807027361315
 20
76.60987707584005
 30
0.0
 40
39.35
100
AcDbArc
 50
262.9300034118231
 51
76.8126261810889
  0
ARC
  5
305
330
18
100
AcDbEntity
  8
外形線
100
AcDbCircle
 10
223.9096442352078
 20
153.8673541399861
 30
0.0
 40
40.0
100
AcDbArc
 50
225.3586908109113
 51
256.8126261810889
  0
ARC
  5
306
330
18
100
AcDbEntity
  8
外形線
100
AcDbCircle
 10
199.807027361315
 20
76.60987707584005
 30
0.0
 40
12.35
100
AcDbArc
 50
270.0
 51
90.0
  0
LINE
  5
307
330
18
100
AcDbEntity
  8
中心線
100
AcDbLine
 10
92.15702736131504
 20
173.5622865950942
 30
0.0
 11
92.15702736131504
 21
47.62264016755347
 31
0.0
  0
LINE
  5
308
330
18
100
AcDbEntity
  8
外形線
100
AcDbLine
 10
94.68488978094718
 20
58.09959235676511
 30
0.0
 11
209.5676193627915
 21
50.62291106008117
 31
0.0
  0
LINE
  5
309
330
18
100
AcDbEntity
  8
外形線
100
AcDbLine
 10
94.68488978094718
 20
56.09536129751333
 30
0.0
 11
209.4377321713217
 21
48.62713318729771
 31
0.0
  0
LINE
  5
30A
330
18
100
AcDbEntity
  8
外形線
100
AcDbLine
 10
94.68488978094717
 20
61.75987707584005
 30
0.0
 11
203.307027361315
 21
61.75987707584005
 31
0.0
  0
LINE
  5
30B
330
18
100
AcDbEntity
  8
外形線
100
AcDbLine
 10
87.15702736131504
 20
64.25987707584005
 30
0.0
 11
199.807027361315
 21
64.25987707584005
 31
0.0
  0
LINE
  5
30C
330
18
100
AcDbEntity
  8
外形線
100
AcDbLine
 10
200.9637578647744
 20
37.55907374756163
 30
0.0
 11
109.159985118856
 21
48.94502164906549
 31
0.0
  0
ARC
  5
30D
330
18
100
AcDbEntity
  8
外形線
100
AcDbCircle
 10
112.157027361315
 20
73.10987707584004
 30
0.0
 40
24.35
100
AcDbArc
 50
231.5395312991792
 51
262.9300034118231
  0
LINE
  5
30E
330
18
100
AcDbEntity
  8
外形線
100
AcDbLine
 10
87.15702736131504
 20
54.25987707584005
 30
0.0
 11
96.38997310251333
 21
54.25987707584005
 31
0.0
  0
LINE
  5
30F
330
18
100
AcDbEntity
  8
外形線
100
AcDbLine
 10
87.15702736131504
 20
64.25987707584005
 30
0.0
 11
87.15702736131504
 21
54.25987707584005
 31
0.0
  0
ARC
  5
310
330
18
100
AcDbEntity
  8
外形線
100
AcDbCircle
 10
96.38997310251333
 20
53.25987707584005
 30
0.0
 40
1.0
100
AcDbArc
 50
51.53953129917781
 51
90.0
  0
LINE
  5
311
330
18
100
AcDbEntity
  8
外形線
100
AcDbLine
 10
94.68488978094718
 20
97.12439285416676
 30
0.0
 11
209.4377321713217
 21
104.5926209643823
 31
0.0
  0
LINE
  5
312
330
18
100
AcDbEntity
  8
外形線
100
AcDbLine
 10
94.68488978094718
 20
95.12016179491501
 30
0.0
 11
209.5676193627915
 21
102.5968430915989
 31
0.0
  0
LINE
  5
313
330
18
100
AcDbEntity
  8
外形線
100
AcDbLine
 10
94.68488978094717
 20
91.45987707584003
 30
0.0
 11
203.307027361315
 21
91.45987707584003
 31
0.0
  0
LINE
  5
314
330
18
100
AcDbEntity
  8
外形線
100
AcDbLine
 10
87.15702736131504
 20
88.95987707584003
 30
0.0
 11
199.807027361315
 21
88.95987707584001
 31
0.0
  0
ARC
  5
315
330
18
100
AcDbEntity
  8
外形線
100
AcDbCircle
 10
144.157027361315
 20
73.10987707584004
 30
0.0
 40
73.5
100
AcDbArc
 50
45.35869081091124
 51
111.0148462464114
  0
ARC
  5
316
330
18
100
AcDbEntity
  8
外形線
100
AcDbCircle
 10
144.157027361315
 20
73.10987707584004
 30
0.0
 40
69.0
100
AcDbArc
 50
42.85550999712329
 51
110.4400988727516
  0
LINE
  5
317
330
18
100
AcDbEntity
  8
外形線
100
AcDbLine
 10
115.8277457907187
 20
104.4619912663931
 30
0.0
 11
191.9131606075672
 21
112.5046029292009
 31
0.0
  0
ARC
  5
318
330
18
100
AcDbEntity
  8
外形線
100
AcDbCircle
 10
116.1854596052009
 20
145.9219049096061
 30
0.0
 40
4.5
100
AcDbArc
 50
250.9875119056596
 51
291.0148462464115
  0
LINE
  5
31A
330
18
100
AcDbEntity
  8
中心線
100
AcDbLine
 10
61.40627914244475
 20
127.95987707584
 30
0.0
 11
122.9077755801853
 21
127.95987707584
 31
0.0
  0
LINE
  5
31B
330
18
100
AcDbEntity
  8
外形線
100
AcDbLine
 10
87.15702736131504
 20
100.6057183426602
 30
0.0
 11
87.15702736131504
 21
88.95987707584003
 31
0.0
  0
ARC
  5
31C
330
18
100
AcDbEntity
  8
外形線
100
AcDbCircle
 10
84.15702736131505
 20
100.6057183426602
 30
0.0
 40
3.0
100
AcDbArc
 50
0.0
 51
30.32021370564653
  0
ARC
  5
31D
330
18
100
AcDbEntity
  8
外形線
100
AcDbCircle
 10
115.3547085324583
 20
108.9370595063531
 30
0.0
 40
4.5
100
AcDbArc
 50
174.8553979629983
 51
276.0340452117911
  0
ARC
  5
31E
330
18
100
AcDbEntity
  8
外形線
100
AcDbCircle
 10
121.6318261602585
 20
133.5488157731064
 30
0.0
 40
4.5
100
AcDbArc
 50
110.4400988727514
 51
156.5286030573146
  0
ARC
  5
31F
330
18
100
AcDbEntity
  8
外形線
100
AcDbCircle
 10
191.4401233493068
 20
116.9796711691607
 30
0.0
 40
4.5
100
AcDbArc
 50
276.0340452117919
 51
42.85550999712327
  0
ARC
  5
320
330
18
100
AcDbEntity
  8
外形線
100
AcDbCircle
 10
222.1570273613151
 20
76.60987707584005
 30
0.0
 40
15.0
100
AcDbArc
 50
291.0401973448459
 51
68.95980265515409
  0
ARC
  5
321
330
18
100
AcDbEntity
  8
外形線
100
AcDbCircle
 10
210.157027361315
 20
89.60987707584004
 30
0.0
 40
15.0
100
AcDbArc
 50
319.4583981264955
 51
345.2362094243778
  0
ARC
  5
322
330
18
100
AcDbEntity
  8
外形線
100
AcDbCircle
 10
222.1570273613151
 20
76.60987707584005
 30
0.0
 40
13.0
100
AcDbArc
 50
302.7226086673266
 51
57.27739133267333
  0
ARC
  5
323
330
18
100
AcDbEntity
  8
外形線
100
AcDbCircle
 10
219.0464487531229
 20
85.02968195784896
 30
0.0
 40
3.0
100
AcDbArc
 50
208.1445578697152
 51
332.740616123248
  0
ARC
  5
324
330
18
100
AcDbEntity
  8
外形線
100
AcDbCircle
 10
210.157027361315
 20
63.60987707584005
 30
0.0
 40
15.0
100
AcDbArc
 50
14.76379057562227
 51
40.54160187350457
  0
ARC
  5
325
330
18
100
AcDbEntity
  8
外形線
100
AcDbCircle
 10
227.5627507106416
 20
68.19690167646169
 30
0.0
 40
3.0
100
AcDbArc
 50
194.7637905756223
 51
302.7226086673264
  0
ARC
  5
326
330
18
100
AcDbEntity
  8
外形線
100
AcDbCircle
 10
229.3374841399919
 20
57.94330158783063
 30
0.0
 40
5.0
100
AcDbArc
 50
111.040197344846
 51
163.5410227404312
  0
ARC
  5
327
330
18
100
AcDbEntity
  8
外形線
100
AcDbCircle
 10
225.3557115148857
 20
76.60987707584005
 30
0.0
 40
5.0
100
AcDbArc
 50
139.4583981264954
 51
220.5416018735046
  0
ARC
  5
328
330
18
100
AcDbEntity
  8
外形線
100
AcDbCircle
 10
219.0464487531229
 20
68.19007219383113
 30
0.0
 40
3.0
100
AcDbArc
 50
27.259383876752
 51
151.8554421302847
  0
ARC
  5
329
330
18
100
AcDbEntity
  8
外形線
100
AcDbCircle
 10
229.3374841399919
 20
95.27645256384946
 30
0.0
 40
5.0
100
AcDbArc
 50
196.4589772595688
 51
248.959802655154
  0
ARC
  5
32A
330
18
100
AcDbEntity
  8
外形線
100
AcDbCircle
 10
227.5627507106416
 20
85.0228524752184
 30
0.0
 40
3.0
100
AcDbArc
 50
57.27739133267333
 51
165.2362094243777
  0
LINE
  5
333
330
18
100
AcDbEntity
  8
中心線
100
AcDbLine
 10
17.14820704684973
 20
173.8066897365254
 30
0.0
 11
17.14820704684973
 21
35.26866992651759
 31
0.0
  0
LINE
  5
335
330
18
100
AcDbEntity
  8
外形線
100
AcDbLine
 10
22.64820704684973
 20
54.25987707584005
 30
0.0
 11
11.64820704684973
 21
54.25987707584005
 31
0.0
  0
LINE
  5
336
330
18
100
AcDbEntity
  8
外形線
100
AcDbLine
 10
22.64820704684973
 20
64.25987707584005
 30
0.0
 11
11.64820704684973
 21
64.25987707584005
 31
0.0
  0
LINE
  5
337
330
18
100
AcDbEntity
  8
外形線
100
AcDbLine
 10
22.64820704684973
 20
88.95987707584003
 30
0.0
 11
11.64820704684973
 21
88.95987707584003
 31
0.0
  0
LINE
  5
338
330
18
100
AcDbEntity
  8
中心線
100
AcDbLine
 10
5.491302243762334
 20
127.95987707584
 30
0.0
 11
36.52416858071536
 21
127.9598770758401
 31
0.0
  0
LINE
  5
33A
330
18
100
AcDbEntity
  8
外形線
100
AcDbLine
 10
22.64820704684973
 20
102.9598770758401
 30
0.0
 11
22.64820704684973
 21
54.25987707584005
 31
0.0
  0
LINE
  5
33B
330
18
100
AcDbEntity
  8
外形線
100
AcDbLine
 10
11.64820704684973
 20
103.0600778798626
 30
0.0
 11
11.64820704684973
 21
54.25987707584005
 31
0.0
  0
LINE
  5
33C
330
18
100
AcDbEntity
  8
外形線
100
AcDbLine
 10
18.89820704684973
 20
54.22075693421561
 30
0.0
 11
18.89820704684973
 21
39.00987707584005
 31
0.0
  0
LINE
  5
33D
330
18
100
AcDbEntity
  8
外形線
100
AcDbLine
 10
15.39820704684973
 20
54.22075693421557
 30
0.0
 11
15.39820704684973
 21
39.00987707584005
 31
0.0
  0
ARC
  5
33F
330
18
100
AcDbEntity
  8
外形線
100
AcDbCircle
 10
17.14820704684973
 20
39.00987707584005
 30
0.0
 40
1.75
100
AcDbArc
 50
180.0
 51
0.0
  0
ARC
  5
5CB
330
18
100
AcDbEntity
  8
外形線
100
AcDbCircle
 10
112.7663531740903
 20
154.2266174255741
 30
0.0
 40
2.0
100
AcDbArc
 50
109.8197641089327
 51
142.2522235389741
  0
LINE
  5
5CC
330
18
100
AcDbEntity
  8
外形線
100
AcDbLine
 10
110.3759939527199
 20
153.8965866080265
 30
0.0
 11
125.1191189225284
 21
159.2101837175139
 31
0.0
  0
LINE
  5
5CF
330
18
100
AcDbEntity
  8
0
  6
ByBlock
 62
     2
100
AcDbLine
 10
31.64820704684985
 20
127.9598770758401
 30
0.0
 11
31.64820704684985
 21
178.2418920501499
 31
0.0
  0
LINE
  5
5D0
330
18
100
AcDbEntity
  8
0
  6
ByBlock
 62
     2
100
AcDbLine
 10
10.94820704684974
 20
152.6946703840527
 30
0.0
 11
10.94820704684974
 21
178.2418920501499
 31
0.0
  0
LINE
  5
5D1
330
18
100
AcDbEntity
  8
外形線
  6
Continuous
100
AcDbLine
 10
20.84820704684978
 20
157.45987707584
 30
0.0
 11
20.84820704684978
 21
153.190017780957
 31
0.0
  0
LINE
  5
5D2
330
18
100
AcDbEntity
  8
外形線
  6
Continuous
100
AcDbLine
 10
13.44820704684969
 20
157.45987707584
 30
0.0
 11
13.44820704684969
 21
153.190017780957
 31
0.0
  0
LINE
  5
5D3
330
18
100
AcDbEntity
  8
外形線
  6
Continuous
100
AcDbLine
 10
88.45702736131512
 20
157.4598770758399
 30
0.0
 11
88.45702736131512
 21
154.0993108876118
 31
0.0
  0
LINE
  5
5D4
330
18
100
AcDbEntity
  8
外形線
  6
Continuous
100
AcDbLine
 10
95.85702736131509
 20
157.4598770758399
 30
0.0
 11
95.85702736131509
 21
154.0993108876118
 31
0.0
  0
LINE
  5
5E6
330
18
100
AcDbEntity
  8
0
  6
ByBlock
 62
     2
100
AcDbLine
 10
44.18810905344003
 20
151.85987707584
 30
0.0
 11
44.18810905344003
 21
104.0598770758401
 31
0.0
  0
LINE
  5
5E7
330
18
100
AcDbEntity
  8
外形線
100
AcDbLine
 10
10.94820704684974
 20
152.6946703840527
 30
0.0
 11
10.94820704684974
 21
103.2250837676274
 31
0.0
  0
LINE
  5
5E8
330
18
100
AcDbEntity
  8
外形線
  6
Continuous
100
AcDbLine
 10
22.14820704684985
 20
152.9598770758401
 30
0.0
 11
22.14820704684985
 21
102.9598770758401
 31
0.0
  0
LINE
  5
5E9
330
18
100
AcDbEntity
  8
外形線
  6
Continuous
100
AcDbLine
 10
23.64820704684985
 20
154.35987707584
 30
0.0
 11
23.64820704684985
 21
101.5598770758401
 31
0.0
  0
LINE
  5
5EA
330
18
100
AcDbEntity
  8
外形線
  6
Continuous
100
AcDbLine
 10
27.4482070468498
 20
154.35987707584
 30
0.0
 11
27.4482070468498
 21
101.5598770758401
 31
0.0
  0
LINE
  5
5EB
330
18
100
AcDbEntity
  8
外形線
  6
Continuous
100
AcDbLine
 10
28.64820704684985
 20
152.9598770758401
 30
0.0
 11
28.64820704684985
 21
102.9598770758401
 31
0.0
  0
ARC
  5
5EC
330
18
100
AcDbEntity
  8
外形線
  6
Continuous
100
AcDbCircle
 10
-74.01845961981655
 20
127.9598770758401
 30
0.0
 40
105.6666666666664
100
AcDbArc
 50
346.3144531747381
 51
13.68554682526192
  0
LINE
  5
5F0
330
18
100
AcDbEntity
  8
外形線
  6
Continuous
 62
     4
100
AcDbLine
 10
27.4482070468498
 20
106.5598770758401
 30
0.0
 11
23.64820704684985
 21
106.5598770758401
 31
0.0
  0
LINE
  5
5F1
330
18
100
AcDbEntity
  8
外形線
  6
Continuous
 62
     4
100
AcDbLine
 10
27.4482070468498
 20
102.5598770758401
 30
0.0
 11
23.64820704684985
 21
102.5598770758401
 31
0.0
  0
LINE
  5
5F2
330
18
100
AcDbEntity
  8
外形線
  6
Continuous
 62
     4
100
AcDbLine
 10
27.4482070468498
 20
103.5598770758401
 30
0.0
 11
23.64820704684985
 21
103.5598770758401
 31
0.0
  0
LINE
  5
5F3
330
18
100
AcDbEntity
  8
外形線
  6
Continuous
 62
     4
100
AcDbLine
 10
27.4482070468498
 20
104.5598770758401
 30
0.0
 11
23.64820704684985
 21
104.5598770758401
 31
0.0
  0
LINE
  5
5F4
330
18
100
AcDbEntity
  8
外形線
  6
Continuous
 62
     4
100
AcDbLine
 10
27.4482070468498
 20
105.5598770758401
 30
0.0
 11
23.64820704684985
 21
105.5598770758401
 31
0.0
  0
LINE
  5
5F5
330
18
100
AcDbEntity
  8
外形線
  6
Continuous
100
AcDbLine
 10
27.4482070468498
 20
101.5598770758401
 30
0.0
 11
23.64820704684985
 21
101.5598770758401
 31
0.0
  0
LINE
  5
5F6
330
18
100
AcDbEntity
  8
外形線
100
AcDbLine
 10
15.14820704684973
 20
88.95987707584003
 30
0.0
 11
15.14820704684973
 21
72.95987707583998
 31
0.0
  0
LINE
  5
5F7
330
18
100
AcDbEntity
  8
外形線
100
AcDbLine
 10
19.14820704684973
 20
88.95987707584003
 30
0.0
 11
19.14820704684973
 21
72.95987707584001
 31
0.0
  0
LINE
  5
5F8
330
18
100
AcDbEntity
  8
外形線
100
AcDbLine
 10
14.44820704684969
 20
72.95987707583998
 30
0.0
 11
19.84820704684978
 21
72.95987707584001
 31
0.0
  0
LINE
  5
5F9
330
18
100
AcDbEntity
  8
外形線
100
AcDbLine
 10
14.14820704684973
 20
70.75987707583999
 30
0.0
 11
20.14820704684973
 21
70.75987707584002
 31
0.0
  0
LINE
  5
5FA
330
18
100
AcDbEntity
  8
外形線
100
AcDbLine
 10
14.39820704684973
 20
64.25987707584005
 30
0.0
 11
19.89820704684973
 21
64.25987707584005
 31
0.0
  0
LINE
  5
5FB
330
18
100
AcDbEntity
  8
外形線
100
AcDbLine
 10
13.14820704684973
 20
64.75987707584
 30
0.0
 11
21.14820704684973
 21
64.75987707584002
 31
0.0
  0
LINE
  5
5FC
330
18
100
AcDbEntity
  8
外形線
100
AcDbLine
 10
13.14820704684973
 20
70.75987707583999
 30
0.0
 11
21.14820704684973
 21
70.75987707583999
 31
0.0
  0
LINE
  5
5FD
330
18
100
AcDbEntity
  8
外形線
100
AcDbLine
 10
12.14820704684973
 20
67.75987707584
 30
0.0
 11
22.14820704684973
 21
67.75987707584
 31
0.0
  0
LINE
  5
5FE
330
18
100
AcDbEntity
  8
外形線
100
AcDbLine
 10
12.14820704684973
 20
65.75987707583999
 30
0.0
 11
22.14820704684973
 21
65.75987707584002
 31
0.0
  0
LINE
  5
5FF
330
18
100
AcDbEntity
  8
外形線
100
AcDbLine
 10
12.14820704684973
 20
69.75987707584
 30
0.0
 11
22.14820704684973
 21
69.75987707584
 31
0.0
  0
LINE
  5
600
330
18
100
AcDbEntity
  8
外形線
100
AcDbLine
 10
22.14820704684973
 20
64.25987707584005
 30
0.0
 11
12.14820704684973
 21
64.25987707584005
 31
0.0
  0
LINE
  5
601
330
18
100
AcDbEntity
  8
外形線
100
AcDbLine
 10
12.14820704684973
 20
67.75987707584
 30
0.0
 11
12.14820704684973
 21
69.75987707584
 31
0.0
  0
LINE
  5
602
330
18
100
AcDbEntity
  8
外形線
100
AcDbLine
 10
14.19820704684974
 20
64.45987707584004
 30
0.0
 11
14.39820704684973
 21
64.25987707584005
 31
0.0
  0
LINE
  5
603
330
18
100
AcDbEntity
  8
外形線
100
AcDbLine
 10
14.19820704684974
 20
64.75987707584
 30
0.0
 11
14.19820704684974
 21
64.45987707584004
 31
0.0
  0
LINE
  5
604
330
18
100
AcDbEntity
  8
外形線
100
AcDbLine
 10
12.14820704684973
 20
65.75987707583999
 30
0.0
 11
13.14820704684973
 21
64.75987707584
 31
0.0
  0
LINE
  5
605
330
18
100
AcDbEntity
  8
外形線
100
AcDbLine
 10
12.14820704684973
 20
67.75987707584
 30
0.0
 11
12.14820704684973
 21
65.75987707583999
 31
0.0
  0
LINE
  5
606
330
18
100
AcDbEntity
  8
外形線
100
AcDbLine
 10
14.14820704684973
 20
72.65987707584
 30
0.0
 11
14.44820704684969
 21
72.95987707583998
 31
0.0
  0
LINE
  5
607
330
18
100
AcDbEntity
  8
外形線
100
AcDbLine
 10
14.14820704684973
 20
72.65987707584
 30
0.0
 11
14.14820704684973
 21
70.75987707583999
 31
0.0
  0
LINE
  5
608
330
18
100
AcDbEntity
  8
外形線
100
AcDbLine
 10
12.14820704684973
 20
69.75987707584
 30
0.0
 11
13.14820704684973
 21
70.75987707583999
 31
0.0
  0
LINE
  5
609
330
18
100
AcDbEntity
  8
外形線
100
AcDbLine
 10
22.14820704684973
 20
67.75987707584002
 30
0.0
 11
22.14820704684973
 21
69.75987707584
 31
0.0
  0
LINE
  5
60A
330
18
100
AcDbEntity
  8
外形線
100
AcDbLine
 10
22.14820704684973
 20
67.75987707584
 30
0.0
 11
22.14820704684973
 21
65.75987707584002
 31
0.0
  0
LINE
  5
60B
330
18
100
AcDbEntity
  8
外形線
 48
0.5
100
AcDbLine
 10
19.89820704684973
 20
64.25987707584005
 30
0.0
 11
20.09820704684972
 21
64.45987707584004
 31
0.0
  0
LINE
  5
60C
330
18
100
AcDbEntity
  8
外形線
100
AcDbLine
 10
20.09820704684972
 20
64.75987707584
 30
0.0
 11
20.09820704684972
 21
64.45987707584004
 31
0.0
  0
LINE
  5
60D
330
18
100
AcDbEntity
  8
外形線
 48
0.5
100
AcDbLine
 10
21.14820704684973
 20
64.75987707584002
 30
0.0
 11
22.14820704684973
 21
65.75987707584002
 31
0.0
  0
LINE
  5
60E
330
18
100
AcDbEntity
  8
外形線
100
AcDbLine
 10
20.14820704684973
 20
72.65987707584002
 30
0.0
 11
20.14820704684973
 21
70.75987707584002
 31
0.0
  0
LINE
  5
60F
330
18
100
AcDbEntity
  8
外形線
 48
0.5
100
AcDbLine
 10
19.84820704684978
 20
72.95987707584001
 30
0.0
 11
20.14820704684973
 21
72.65987707584002
 31
0.0
  0
LINE
  5
610
330
18
100
AcDbEntity
  8
外形線
 48
0.5
100
AcDbLine
 10
21.14820704684973
 20
70.75987707583999
 30
0.0
 11
22.14820704684973
 21
69.75987707584
 31
0.0
  0
ARC
  5
612
330
18
100
AcDbEntity
  8
外形線
100
AcDbCircle
 10
17.14820704684973
 20
127.9598770758401
 30
0.0
 40
25.5
100
AcDbArc
 50
255.9282220339266
 51
281.3077294341376
  0
LINE
  5
613
330
18
100
AcDbEntity
  8
外形線
  6
CENTER2
100
AcDbLine
 10
22.14820704684985
 20
102.9598770758401
 30
0.0
 11
23.64820704684985
 21
102.9598770758401
 31
0.0
  0
LINE
  5
62A
330
18
100
AcDbEntity
  8
0
  6
ByBlock
 62
     2
100
AcDbLine
 10
27.4482070468498
 20
101.5598770758401
 30
0.0
 11
45.43810905344003
 21
101.5598770758401
 31
0.0
  0
POINT
  5
62B
330
18
100
AcDbEntity
  8
DEFPOINTS
  6
ByBlock
 62
     0
100
AcDbPoint
 10
27.4482070468498
 20
101.5598770758401
 30
0.0
  0
LINE
  5
62C
330
18
100
AcDbEntity
  8
外形線
  6
Continuous
100
AcDbLine
 10
27.4482070468498
 20
102.4598770758401
 30
0.0
 11
28.64820704684985
 21
102.9598770758401
 31
0.0
  0
INSERT
  5
62D
330
18
100
AcDbEntity
  8
0
  6
ByBlock
 62
     2
100
AcDbBlockReference
  2
_OPEN
 10
44.18810905344003
 20
101.5598770758401
 30
0.0
 41
2.5
 42
2.5
 43
2.5
 50
270.0
  0
POINT
  5
62E
330
18
100
AcDbEntity
  8
DEFPOINTS
  6
ByBlock
 62
     0
100
AcDbPoint
 10
44.18810905344003
 20
101.5598770758401
 30
0.0
  0
LINE
  5
62F
330
18
100
AcDbEntity
  8
外形線
  6
Continuous
100
AcDbLine
 10
27.4482070468498
 20
154.35987707584
 30
0.0
 11
23.64820704684985
 21
154.35987707584
 31
0.0
  0
LINE
  5
630
330
18
100
AcDbEntity
  8
外形線
  6
Continuous
 62
     4
100
AcDbLine
 10
27.4482070468498
 20
153.35987707584
 30
0.0
 11
23.64820704684985
 21
153.35987707584
 31
0.0
  0
LINE
  5
631
330
18
100
AcDbEntity
  8
外形線
  6
Continuous
 62
     4
100
AcDbLine
 10
27.4482070468498
 20
152.3598770758401
 30
0.0
 11
23.64820704684985
 21
152.3598770758401
 31
0.0
  0
LINE
  5
632
330
18
100
AcDbEntity
  8
外形線
  6
Continuous
 62
     4
100
AcDbLine
 10
27.4482070468498
 20
151.3598770758401
 30
0.0
 11
23.64820704684985
 21
151.3598770758401
 31
0.0
  0
LINE
  5
633
330
18
100
AcDbEntity
  8
外形線
  6
Continuous
 62
     4
100
AcDbLine
 10
27.4482070468498
 20
150.3598770758401
 30
0.0
 11
23.64820704684985
 21
150.3598770758401
 31
0.0
  0
LINE
  5
634
330
18
100
AcDbEntity
  8
外形線
  6
Continuous
 62
     4
100
AcDbLine
 10
27.4482070468498
 20
149.3598770758401
 30
0.0
 11
23.64820704684985
 21
149.3598770758401
 31
0.0
  0
LINE
  5
635
330
18
100
AcDbEntity
  8
外形線
  6
Continuous
 62
     4
100
AcDbLine
 10
23.64820704684985
 20
129.9598770758401
 30
0.0
 11
27.4482070468498
 21
129.9598770758401
 31
0.0
  0
LINE
  5
636
330
18
100
AcDbEntity
  8
外形線
  6
Continuous
 62
     4
100
AcDbLine
 10
23.64820704684985
 20
130.9598770758401
 30
0.0
 11
27.4482070468498
 21
130.9598770758401
 31
0.0
  0
LINE
  5
637
330
18
100
AcDbEntity
  8
外形線
  6
Continuous
 62
     4
100
AcDbLine
 10
23.64820704684985
 20
128.9598770758401
 30
0.0
 11
27.4482070468498
 21
128.9598770758401
 31
0.0
  0
LINE
  5
638
330
18
100
AcDbEntity
  8
外形線
  6
Continuous
 62
     4
100
AcDbLine
 10
23.64820704684985
 20
127.9598770758401
 30
0.0
 11
27.4482070468498
 21
127.9598770758401
 31
0.0
  0
LINE
  5
639
330
18
100
AcDbEntity
  8
外形線
  6
Continuous
 62
     4
100
AcDbLine
 10
23.64820704684985
 20
126.9598770758401
 30
0.0
 11
27.4482070468498
 21
126.9598770758401
 31
0.0
  0
LINE
  5
63A
330
18
100
AcDbEntity
  8
外形線
  6
Continuous
 62
     4
100
AcDbLine
 10
23.64820704684985
 20
125.9598770758401
 30
0.0
 11
27.4482070468498
 21
125.9598770758401
 31
0.0
  0
ARC
  5
63B
330
18
100
AcDbEntity
  8
外形線
100
AcDbCircle
 10
17.14820704684973
 20
127.9598770758401
 30
0.0
 40
25.5
100
AcDbArc
 50
78.69227056586237
 51
104.0717779660734
  0
POINT
  5
63C
330
18
100
AcDbEntity
  8
DEFPOINTS
  6
ByBlock
 62
     0
100
AcDbPoint
 10
10.94820704684974
 20
152.6946703840527
 30
0.0
  0
LINE
  5
63D
330
18
100
AcDbEntity
  8
外形線
  6
CENTER2
100
AcDbLine
 10
22.14820704684985
 20
152.9598770758401
 30
0.0
 11
23.64820704684985
 21
152.9598770758401
 31
0.0
  0
MTEXT
  5
63E
330
18
100
AcDbEntity
  8
0
  6
ByBlock
 62
     6
100
AcDbMText
 10
42.31310905344003
 20
127.9598770758401
 30
0.0
 40
2.5
 41
0.0
 71
     5
 72
     1
  1
\A1;φ53
  7
STYLE3
 11
0.0000000000000001
 21
1.0
 31
0.0
 73
     1
 44
1.0
  0
POINT
  5
63F
330
18
100
AcDbEntity
  8
DEFPOINTS
  6
ByBlock
 62
     0
100
AcDbPoint
 10
31.64820704684985
 20
127.9598770758401
 30
0.0
  0
POINT
  5
640
330
18
100
AcDbEntity
  8
DEFPOINTS
  6
ByBlock
 62
     0
100
AcDbPoint
 10
31.64820704684985
 20
127.9598770758401
 30
0.0
  0
LINE
  5
641
330
18
100
AcDbEntity
  8
0
  6
ByBlock
 62
     2
100
AcDbLine
 10
27.4482070468498
 20
154.35987707584
 30
0.0
 11
45.43810905344003
 21
154.35987707584
 31
0.0
  0
POINT
  5
642
330
18
100
AcDbEntity
  8
DEFPOINTS
  6
ByBlock
 62
     0
100
AcDbPoint
 10
27.4482070468498
 20
154.35987707584
 30
0.0
  0
LINE
  5
643
330
18
100
AcDbEntity
  8
外形線
  6
Continuous
100
AcDbLine
 10
27.4482070468498
 20
153.4598770758401
 30
0.0
 11
28.64820704684985
 21
152.9598770758401
 31
0.0
  0
INSERT
  5
644
330
18
100
AcDbEntity
  8
0
  6
ByBlock
 62
     2
100
AcDbBlockReference
  2
_OPEN
 10
44.18810905344003
 20
154.35987707584
 30
0.0
 41
2.5
 42
2.5
 43
2.5
 50
90.0
  0
MTEXT
  5
66D
330
18
100
AcDbEntity
  8
0
  6
ByBlock
 62
     6
100
AcDbMText
 10
103.9935762885429
 20
77.46432483045727
 30
0.0
 40
2.5
 41
0.0
 71
     5
 72
     1
  1
\A1;2-φ10
  7
STYLE3
 73
     1
 44
1.0
  0
LINE
  5
66E
330
18
100
AcDbEntity
  8
0
  6
ByBlock
 62
     2
100
AcDbLine
 10
97.15702736131504
 20
75.58932483045726
 30
0.0
 11
110.8770427545493
 21
75.58932483045726
 31
0.0
  0
LINE
  5
66F
330
18
100
AcDbEntity
  8
目盛
100
AcDbLine
 10
105.6760881640419
 20
146.5672679464638
 30
0.0
 11
104.0890679828522
 21
144.3829220616514
 31
0.0
  0
LINE
  5
670
330
18
100
AcDbEntity
  8
目盛
100
AcDbLine
 10
105.6760881640419
 20
109.3524862052162
 30
0.0
 11
104.0890679828522
 21
111.5368320900285
 31
0.0
  0
CIRCLE
  5
671
330
18
100
AcDbEntity
  8
外形線
100
AcDbCircle
 10
92.15702736131504
 20
127.95987707584
 30
0.0
 40
26.4
  0
CIRCLE
  5
672
330
18
100
AcDbEntity
  8
外形線
100
AcDbCircle
 10
92.15702736131504
 20
127.95987707584
 30
0.0
 40
23.0
  0
CIRCLE
  5
673
330
18
100
AcDbEntity
  8
外形線
100
AcDbCircle
 10
92.15702736131504
 20
127.95987707584
 30
0.0
 40
15.5
  0
LINE
  5
67B
330
18
100
AcDbEntity
  8
目盛
100
AcDbLine
 10
104.4810436458318
 20
108.5403347892935
 30
0.0
 11
103.5701380943675
 21
109.9756922626469
 31
0.0
  0
LINE
  5
67C
330
18
100
AcDbEntity
  8
目盛
100
AcDbLine
 10
79.83301107679801
 20
108.5403347892938
 30
0.0
 11
80.74391662826229
 21
109.9756922626472
 31
0.0
  0
LINE
  5
67D
330
18
100
AcDbEntity
  8
目盛
100
AcDbLine
 10
78.63796655858812
 20
109.3524862052162
 30
0.0
 11
80.22498673977777
 21
111.5368320900286
 31
0.0
  0
TEXT
  5
67E
330
18
100
AcDbEntity
  8
文字
100
AcDbText
 10
89.84377989416623
 20
108.2769898024816
 30
0.0
 40
2.5
  1
50
  7
STYLE3
100
AcDbText
  0
INSERT
  5
699
330
18
100
AcDbEntity
  8
0
  6
ByBlock
 62
     2
100
AcDbBlockReference
  2
_OPEN
 10
87.15702736131504
 20
75.58932483045726
 30
0.0
 41
2.5
 42
2.5
 43
2.5
 50
180.0
  0
LINE
  5
69F
330
18
100
AcDbEntity
  8
0
  6
ByBlock
 62
     2
100
AcDbLine
 10
87.15702736131504
 20
69.75987707584005
 30
0.0
 11
87.15702736131504
 21
76.83932483045726
 31
0.0
  0
LINE
  5
6AA
330
18
100
AcDbEntity
  8
0
  6
ByBlock
 62
     2
100
AcDbLine
 10
97.15702736131504
 20
69.75987707584005
 30
0.0
 11
97.15702736131504
 21
76.83932483045726
 31
0.0
  0
INSERT
  5
6BB
330
18
100
AcDbEntity
  8
0
  6
ByBlock
 62
     2
100
AcDbBlockReference
  2
_OPEN
 10
97.15702736131504
 20
75.58932483045726
 30
0.0
 41
2.5
 42
2.5
 43
2.5
  0
LINE
  5
6BD
330
18
100
AcDbEntity
  8
0
  6
ByBlock
 62
     2
100
AcDbLine
 10
89.65702736131504
 20
75.58932483045726
 30
0.0
 11
94.65702736131504
 21
75.58932483045726
 31
0.0
  0
POINT
  5
6C0
330
18
100
AcDbEntity
  8
DEFPOINTS
  6
ByBlock
 62
     0
100
AcDbPoint
 10
97.15702736131504
 20
75.58932483045726
 30
0.0
  0
LINE
  5
6C4
330
18
100
AcDbEntity
  8
目盛
100
AcDbLine
 10
82.36410365531815
 20
107.1488548691217
 30
0.0
 11
83.08792845097883
 21
108.6870608583138
 31
0.0
  0
LINE
  5
6C5
330
18
100
AcDbEntity
  8
目盛
100
AcDbLine
 10
81.07669285697552
 20
107.8048234348312
 30
0.0
 11
81.89567410294836
 21
109.2945447909057
 31
0.0
  0
LINE
  5
6C6
330
18
100
AcDbEntity
  8
目盛
100
AcDbLine
 10
83.69016264956718
 20
106.5750179004103
 30
0.0
 11
84.3159743891312
 21
108.1556379264203
 31
0.0
  0
LINE
  5
6C7
330
18
100
AcDbEntity
  8
目盛
100
AcDbLine
 10
87.84725712584332
 20
105.3672703090803
 30
0.0
 11
88.165805360639
 21
107.037158635319
 31
0.0
  0
LINE
  5
6C8
330
18
100
AcDbEntity
  8
目盛
100
AcDbLine
 10
86.43715995652332
 20
105.6824643698816
 30
0.0
 11
86.85993276470355
 21
107.3290557438002
 31
0.0
  0
LINE
  5
6C9
330
18
100
AcDbEntity
  8
目盛
100
AcDbLine
 10
85.04963649069123
 20
106.0855772010515
 30
0.0
 11
85.88398237550359
 21
108.6534297950484
 31
0.0
  0
LINE
  5
6CC
330
18
100
AcDbEntity
  8
目盛
100
AcDbLine
 10
89.27436298933589
 20
105.1412389456071
 30
0.0
 11
89.48742948639523
 21
106.8278339378417
 31
0.0
  0
LINE
  5
6CD
330
18
100
AcDbEntity
  8
目盛
100
AcDbLine
 10
92.15702736131509
 20
104.9598770758401
 30
0.0
 11
92.15702736131509
 21
107.6598770758401
 31
0.0
  0
LINE
  5
6CE
330
18
100
AcDbEntity
  8
目盛
100
AcDbLine
 10
90.71284541214067
 20
105.0052623219898
 30
0.0
 11
90.81958929534057
 21
106.7019077603179
 31
0.0
  0
LINE
  5
6CF
330
18
100
AcDbEntity
  8
目盛
100
AcDbLine
 10
96.4667975967866
 20
105.3672703090801
 30
0.0
 11
96.14824936199084
 21
107.0371586353189
 31
0.0
  0
LINE
  5
6D0
330
18
100
AcDbEntity
  8
目盛
100
AcDbLine
 10
95.03969173329398
 20
105.1412389456071
 30
0.0
 11
94.82662523623464
 21
106.8278339378416
 31
0.0
  0
LINE
  5
6D1
330
18
100
AcDbEntity
  8
目盛
100
AcDbLine
 10
93.60120931048919
 20
105.0052623219898
 30
0.0
 11
93.49446542728935
 21
106.7019077603179
 31
0.0
  0
LINE
  5
6D2
330
18
100
AcDbEntity
  8
目盛
100
AcDbLine
 10
100.6238920730625
 20
106.5750179004102
 30
0.0
 11
99.99808033349859
 21
108.1556379264202
 31
0.0
  0
LINE
  5
6D3
330
18
100
AcDbEntity
  8
目盛
100
AcDbLine
 10
99.26441823193892
 20
106.0855772010515
 30
0.0
 11
98.43007234712656
 21
108.6534297950484
 31
0.0
  0
LINE
  5
6D4
330
18
100
AcDbEntity
  8
目盛
100
AcDbLine
 10
97.87689476610655
 20
105.6824643698814
 30
0.0
 11
97.45412195792637
 21
107.3290557438001
 31
0.0
  0
LINE
  5
6D5
330
18
100
AcDbEntity
  8
目盛
100
AcDbLine
 10
103.2373618656543
 20
107.8048234348309
 30
0.0
 11
102.4183806196814
 21
109.2945447909055
 31
0.0
  0
LINE
  5
6D6
330
18
100
AcDbEntity
  8
目盛
100
AcDbLine
 10
101.9499510673116
 20
107.1488548691215
 30
0.0
 11
101.2261262716509
 21
108.6870608583136
 31
0.0
  0
LINE
  5
6D7
330
18
100
AcDbEntity
  8
目盛
100
AcDbLine
 10
72.00197372030607
 20
116.8795425715008
 30
0.0
 11
73.49169507638066
 21
117.6985238174736
 31
0.0
  0
LINE
  5
6D8
330
18
100
AcDbEntity
  8
目盛
100
AcDbLine
 10
71.34600515459664
 20
118.1669533698435
 30
0.0
 11
72.88421114378877
 21
118.8907781655041
 31
0.0
  0
LINE
  5
6D9
330
18
100
AcDbEntity
  8
目盛
100
AcDbLine
 10
70.28272748652648
 20
120.8524862052162
 30
0.0
 11
72.8505800805234
 21
121.6868320900286
 31
0.0
  0
LINE
  5
6DA
330
18
100
AcDbEntity
  8
目盛
100
AcDbLine
 10
71.34600515459664
 20
137.7528007818369
 30
0.0
 11
72.88421114378889
 21
137.0289759861762
 31
0.0
  0
LINE
  5
6DB
330
18
100
AcDbEntity
  8
目盛
100
AcDbLine
 10
72.00197372030624
 20
139.0402115801796
 30
0.0
 11
73.49169507638078
 21
138.2212303342067
 31
0.0
  0
LINE
  5
6DC
330
18
100
AcDbEntity
  8
目盛
100
AcDbLine
 10
70.28272748652653
 20
135.0672679464638
 30
0.0
 11
72.85058008052345
 21
134.2329220616515
 31
0.0
  0
LINE
  5
6DD
330
18
100
AcDbEntity
  8
目盛
100
AcDbLine
 10
70.77216818588528
 20
119.4930123640925
 30
0.0
 11
72.3527882118953
 21
120.1188241036565
 31
0.0
  0
LINE
  5
6E2
330
18
100
AcDbEntity
  8
目盛
100
AcDbLine
 10
69.56442059455508
 20
123.6501068403686
 30
0.0
 11
71.23430892079392
 21
123.9686550751643
 31
0.0
  0
LINE
  5
6E3
330
18
100
AcDbEntity
  8
目盛
100
AcDbLine
 10
69.33838923108209
 20
125.0772127038611
 30
0.0
 11
71.0249842233166
 21
125.2902792009205
 31
0.0
  0
LINE
  5
6E4
330
18
100
AcDbEntity
  8
目盛
100
AcDbLine
 10
69.20241260746479
 20
126.5156951266659
 30
0.0
 11
70.8990580457928
 21
126.6224390098658
 31
0.0
  0
LINE
  5
6E5
330
18
100
AcDbEntity
  8
目盛
100
AcDbLine
 10
69.87961465535642
 20
122.2400096710486
 30
0.0
 11
71.5262060292751
 21
122.6627824792288
 31
0.0
  0
POINT
  5
6E6
330
18
100
AcDbEntity
  8
DEFPOINTS
  6
ByBlock
 62
     0
100
AcDbPoint
 10
65.75702736131507
 20
127.95987707584
 30
0.0
  0
POINT
  5
6E7
330
18
100
AcDbEntity
  8
DEFPOINTS
  6
ByBlock
 62
     0
100
AcDbPoint
 10
65.75702736131507
 20
127.95987707584
 30
0.0
  0
LINE
  5
6E8
330
18
100
AcDbEntity
  8
目盛
100
AcDbLine
 10
69.33838923108209
 20
130.8425414478192
 30
0.0
 11
71.02498422331672
 21
130.6294749507599
 31
0.0
  0
LINE
  5
6E9
330
18
100
AcDbEntity
  8
目盛
100
AcDbLine
 10
69.56442059455532
 20
132.2696473113118
 30
0.0
 11
71.23430892079404
 21
131.9510990765161
 31
0.0
  0
LINE
  5
6EA
330
18
100
AcDbEntity
  8
目盛
100
AcDbLine
 10
69.1570273613151
 20
127.95987707584
 30
0.0
 11
71.85702736131509
 21
127.95987707584
 31
0.0
  0
LINE
  5
6EB
330
18
100
AcDbEntity
  8
目盛
100
AcDbLine
 10
69.20241260746485
 20
129.4040590250145
 30
0.0
 11
70.89905804579291
 21
129.2973151418145
 31
0.0
  0
LINE
  5
6ED
330
18
100
AcDbEntity
  8
目盛
100
AcDbLine
 10
69.87961465535665
 20
133.6797444806318
 30
0.0
 11
71.52620602927527
 21
133.2569716724516
 31
0.0
  0
LINE
  5
6EE
330
18
100
AcDbEntity
  8
目盛
100
AcDbLine
 10
70.77216818588533
 20
136.4267417875878
 30
0.0
 11
72.3527882118953
 21
135.8009300480238
 31
0.0
  0
HATCH
  5
6EF
330
18
100
AcDbEntity
  8
針
100
AcDbHatch
 10
0.0
 20
0.0
 30
0.0
210
0.0
220
0.0
230
1.0
  2
SOLID
 70
     1
 71
     0
 91
        2
 92
        7
 72
     1
 73
     1
 93
        5
 10
92.24702736131495
 20
149.9598770758401
 42
0.0
 10
92.15702736131504
 20
149.9598770758401
 42
0.0
 10
92.06702736131502
 20
149.9598770758401
 42
0.0
 10
91.89158042882002
 20
143.4576039390297
 42
-0.0085634322047721
 10
92.42247429380995
 20
143.4576039390296
 42
0.0
 97
        0
 92
        7
 72
     1
 73
     1
 93
        6
 10
92.42247429380995
 20
143.4576039390296
 42
0.0085634322047721
 10
91.89158042882002
 20
143.4576039390297
 42
0.0
 10
91.55702736131491
 20
131.0586671623087
 42
-0.1293106770632391
 10
91.16880887606248
 20
129.5826599403679
 42
-0.2805221108582334
 10
93.14524584656755
 20
129.5826599403679
 42
-0.1293106770632486
 10
92.75702736131506
 20
131.0586671623088
 42
0.0
 97
        0
 75
     0
 76
     1
 47
0.0423559757596284
 98
        2
 10
92.11646459885065
 20
144.085857951189
 10
92.24363071624214
 20
139.6808364477097
450
        0
451
        0
460
0.0
461
0.0
452
        0
462
0.0
453
        0
470

  0
LINE
  5
6F0
330
18
100
AcDbEntity
  8
針
100
AcDbLine
 10
92.06702736131502
 20
149.9598770758401
 30
0.0
 11
91.55702736131491
 21
131.0586671623092
 31
0.0
  0
LINE
  5
6F1
330
18
100
AcDbEntity
  8
針
100
AcDbLine
 10
92.24702736131495
 20
149.9598770758401
 30
0.0
 11
92.75702736131506
 21
131.0586671623091
 31
0.0
  0
TEXT
  5
6F2
330
18
100
AcDbEntity
  8
文字
100
AcDbText
 10
87.45320028849596
 20
132.4917366002983
 30
0.0
 40
1.3
  1
MODEL  H
  7
STYLE3
100
AcDbText
  0
TEXT
  5
6F3
330
18
100
AcDbEntity
  8
文字
100
AcDbText
 10
72.9700540195339
 20
132.4692643148076
 30
0.0
 40
2.5
  1
80
  7
STYLE3
100
AcDbText
  0
ARC
  5
6F4
330
18
100
AcDbEntity
  8
針
100
AcDbCircle
 10
88.31216694796939
 20
119.3501990254042
 30
0.0
 40
0.5
100
AcDbArc
 50
293.7682212975196
 51
359.2065408792653
  0
CIRCLE
  5
6F5
330
18
100
AcDbEntity
  8
針
 62
     4
100
AcDbCircle
 10
88.957027361315
 20
117.8859056643261
 30
0.0
 40
0.4
  0
LINE
  5
6F6
330
18
100
AcDbEntity
  8
針
100
AcDbLine
 10
88.81211900367663
 20
119.3432750096557
 30
0.0
 11
88.85702736131491
 21
122.5859056643261
 31
0.0
  0
HATCH
  5
6F7
330
18
100
AcDbEntity
  8
針
100
AcDbHatch
 10
0.0
 20
0.0
 30
0.0
210
0.0
220
0.0
230
1.0
  2
SOLID
 70
     1
 71
     0
 91
        1
 92
        7
 72
     1
 73
     1
 93
        7
 10
89.05702736131507
 20
122.5859056643262
 42
0.0
 10
88.95702736131495
 20
122.5859056643261
 42
0.0
 10
88.85702736131491
 20
122.5859056643261
 42
0.0
 10
88.81211900367663
 20
119.3432750096557
 42
-0.2935495917910092
 10
88.51368582713979
 20
118.8926073500675
 42
-0.2104432563350663
 10
89.40036821587284
 20
118.8926076493643
 42
-0.2935491884945053
 10
89.10193571895337
 20
119.3432750096556
 42
0.0
 97
        0
 75
     0
 76
     1
 47
0.0140573597042523
 98
        1
 10
89.0156290772124
 20
120.7804657096264
450
        0
451
        0
460
0.0
461
0.0
452
        0
462
0.0
453
        0
470

  0
CIRCLE
  5
6F8
330
18
100
AcDbEntity
  8
針
100
AcDbCircle
 10
88.957027361315
 20
117.8859056643261
 30
0.0
 40
0.75
  0
CIRCLE
  5
6F9
330
18
100
AcDbEntity
  8
針
100
AcDbCircle
 10
88.957027361315
 20
117.8859056643261
 30
0.0
 40
1.1
  0
HATCH
  5
6FA
330
18
100
AcDbEntity
  8
針
100
AcDbHatch
 10
0.0
 20
0.0
 30
0.0
210
0.0
220
0.0
230
1.0
  2
SOLID
 70
     1
 71
     0
 91
        4
 92
        7
 72
     1
 73
     1
 93
        4
 10
87.86910991161681
 20
118.0484960165687
 42
0.0
 10
88.21526546379351
 20
117.9967627226734
 42
-0.4142135623730951
 10
89.06788441966211
 20
118.6276675618475
 42
0.0
 10
89.11961771355748
 20
118.9738231140242
 42
0.4142135623730996
 97
        0
 92
        7
 72
     1
 73
     1
 93
        5
 10
88.21526546379351
 20
117.9967627226734
 42
0.0
 10
87.86910991161681
 20
118.0484960165687
 42
0.3173569687788799
 10
88.43940199294536
 20
116.9153058611011
 42
0.0
 10
88.84178000315456
 20
117.1147675848218
 42
0.0
 10
88.84617030296766
 20
117.1441437668046
 42
-0.4142135623730839
 97
        0
 92
        7
 72
     1
 73
     1
 93
        4
 10
89.11961771355748
 20
118.9738231140242
 42
0.0
 10
89.06788441966211
 20
118.6276675618475
 42
-0.4142135623730951
 10
89.69878925883643
 20
117.7750486059789
 42
0.0
 10
90.04494481101307
 20
117.7233153120835
 42
0.4142135623730996
 97
        0
 92
        7
 72
     1
 73
     1
 93
        4
 10
89.69878925883643
 20
117.7750486059789
 42
-0.1036385141593389
 10
89.59189742872764
 20
117.4866062810266
 42
0.0
 10
90.04289906660574
 20
117.7101710927449
 42
0.003023315109616
 10
90.04494481101307
 20
117.7233153120835
 42
0.0
 97
        0
 75
     0
 76
     1
 47
0.0223982890607777
 98
        4
 10
88.45297186031592
 20
118.7376608523947
 10
88.12561687305333
 20
117.6080216512917
 10
89.3844072105071
 20
118.7571093232014
 10
89.77027866723648
 20
117.7021948764882
450
        0
451
        0
460
0.0
461
0.0
452
        0
462
0.0
453
        0
470

  0
HATCH
  5
6FB
330
18
100
AcDbEntity
  8
針
100
AcDbHatch
 10
0.0
 20
0.0
 30
0.0
210
0.0
220
0.0
230
1.0
  2
SOLID
 70
     1
 71
     0
 91
        2
 92
        7
 72
     1
 73
     1
 93
        5
 10
89.30970165095919
 20
116.8439743588054
 42
0.31735696877887
 10
90.05690020109131
 20
117.869180344525
 42
0.0
 10
89.69556952380861
 20
118.1358883946171
 42
0.0
 10
89.66743506962449
 20
118.1263654072653
 42
-0.4142135623731173
 10
89.19748710425421
 20
117.1754979560166
 42
0.0
 97
        0
 92
        7
 72
     1
 73
     1
 93
        4
 10
89.30970165095919
 20
116.8439743588054
 42
0.0
 10
89.19748710425421
 20
117.1754979560166
 42
-0.4142135623730728
 10
88.24661965300549
 20
117.6454459213868
 42
0.0
 10
87.91509605579438
 20
117.5332313746818
 42
0.4142135623730844
 97
        0
 75
     0
 76
     1
 47
0.0161501285364394
 98
        2
 10
89.61857437314108
 20
117.1895758619225
 10
88.93977930222389
 20
116.9768663199718
450
        0
451
        0
460
0.0
461
0.0
452
        0
462
0.0
453
        0
470

  0
TEXT
  5
6FC
330
18
100
AcDbEntity
  8
文字
100
AcDbText
 10
88.43907573846298
 20
113.9630129539571
 30
0.0
 40
1.0
  1
5
  7
STYLE3
100
AcDbText
  0
TEXT
  5
6FD
330
18
100
AcDbEntity
  8
文字
100
AcDbText
 10
88.47065092218462
 20
120.9136795928009
 30
0.0
 40
1.0
  1
0
  7
STYLE3
100
AcDbText
  0
LINE
  5
6FE
330
18
100
AcDbEntity
  8
中心線
 48
0.2
100
AcDbLine
 10
81.99775217438526
 20
117.8859056643261
 30
0.0
 11
96.52573962236544
 21
117.8859056643261
 31
0.0
  0
CIRCLE
  5
6FF
330
18
100
AcDbEntity
  8
外形線
100
AcDbCircle
 10
88.957027361315
 20
117.8859056643261
 30
0.0
 40
4.75
  0
TEXT
  5
700
330
18
100
AcDbEntity
  8
文字
100
AcDbText
 10
72.86437325059512
 20
120.7347331900033
 30
0.0
 40
2.5
  1
70
  7
STYLE3
100
AcDbText
  0
TEXT
  5
701
330
18
100
AcDbEntity
  8
文字
100
AcDbText
 10
78.59871035205401
 20
112.1494825872294
 30
0.0
 40
2.5
  1
60
  7
STYLE3
100
AcDbText
  0
LINE
  5
702
330
18
100
AcDbEntity
  8
目盛
100
AcDbLine
 10
73.54963649069128
 20
114.4408162731131
 30
0.0
 11
75.73398237550367
 21
116.0278364543028
 31
0.0
  0
LINE
  5
703
330
18
100
AcDbEntity
  8
目盛
100
AcDbLine
 10
76.41244392495497
 20
111.1935986451477
 30
0.0
 11
77.57617400503381
 21
112.4328453117641
 31
0.0
  0
LINE
  5
704
330
18
100
AcDbEntity
  8
目盛
100
AcDbLine
 10
75.39074893062246
 20
112.2152936394803
 30
0.0
 11
76.62999559723886
 21
113.3790237195591
 31
0.0
  0
LINE
  5
705
330
18
100
AcDbEntity
  8
目盛
100
AcDbLine
 10
74.43522277747177
 20
113.2991253116203
 30
0.0
 11
75.74509529019059
 21
114.382746094193
 31
0.0
  0
LINE
  5
706
330
18
100
AcDbEntity
  8
目盛
100
AcDbLine
 10
77.49627559709501
 20
110.238072491997
 30
0.0
 11
78.57989637966778
 21
111.5479450047158
 31
0.0
  0
LINE
  5
707
330
18
100
AcDbEntity
  8
目盛
100
AcDbLine
 10
72.73748507476859
 20
115.6358607913233
 30
0.0
 11
74.1728425481221
 21
116.5467663427875
 31
0.0
  0
TEXT
  5
708
330
18
100
AcDbEntity
  8
文字
100
AcDbText
 10
86.33558416909068
 20
114.4377509394885
 30
0.0
 40
1.0
  1
4
  7
STYLE3
100
AcDbText
  0
LINE
  5
709
330
18
100
AcDbEntity
  8
目盛
100
AcDbLine
 10
86.16504741292567
 20
114.0430749410451
 30
0.0
 11
86.45894003907187
 21
114.4475834382326
 31
0.0
  0
LINE
  5
70A
330
18
100
AcDbEntity
  8
目盛
100
AcDbLine
 10
84.4395089089129
 20
116.4180749410451
 30
0.0
 11
84.91503716706052
 21
116.5725834382326
 31
0.0
  0
LINE
  5
70B
330
18
100
AcDbEntity
  8
目盛
100
AcDbLine
 10
84.4395089089129
 20
119.3537363876071
 30
0.0
 11
84.91503716706063
 21
119.1992278904196
 31
0.0
  0
TEXT
  5
70C
330
18
100
AcDbEntity
  8
文字
100
AcDbText
 10
86.53053714748763
 20
120.2379555241165
 30
0.0
 40
1.0
  1
1
  7
STYLE3
100
AcDbText
  0
TEXT
  5
70D
330
18
100
AcDbEntity
  8
文字
100
AcDbText
 10
85.17025480054224
 20
118.435787517955
 30
0.0
 40
1.0
  1
2
  7
STYLE3
100
AcDbText
  0
TEXT
  5
70E
330
18
100
AcDbEntity
  8
文字
100
AcDbText
 10
85.14101179650868
 20
116.1729457683158
 30
0.0
 40
1.0
  1
3
  7
STYLE3
100
AcDbText
  0
LINE
  5
70F
330
18
100
AcDbEntity
  8
目盛
100
AcDbLine
 10
86.16504741292567
 20
121.7287363876071
 30
0.0
 11
86.458940039072
 21
121.3242278904196
 31
0.0
  0
LINE
  5
710
330
18
100
AcDbEntity
  8
針
100
AcDbLine
 10
89.10193571895337
 20
119.3432750096557
 30
0.0
 11
89.05702736131496
 21
122.5859056643261
 31
0.0
  0
LINE
  5
711
330
18
100
AcDbEntity
  8
中心線
 48
0.2
100
AcDbLine
 10
88.957027361315
 20
125.7491130830478
 30
0.0
 11
88.957027361315
 21
110.0595190610123
 31
0.0
  0
TEXT
  5
712
330
18
100
AcDbEntity
  8
文字
100
AcDbText
 10
90.55146472414799
 20
114.5602947105801
 30
0.0
 40
1.0
  1
6
  7
STYLE3
100
AcDbText
  0
TEXT
  5
713
330
18
100
AcDbEntity
  8
文字
100
AcDbText
 10
92.18635304471774
 20
112.9909417350027
 30
0.0
 40
1.0
  1
S
  7
STYLE3
100
AcDbText
  0
LINE
  5
714
330
18
100
AcDbEntity
  8
目盛
100
AcDbLine
 10
91.74900730970433
 20
114.0430749410451
 30
0.0
 11
91.45511468355801
 21
114.4475834382326
 31
0.0
  0
LINE
  5
715
330
18
100
AcDbEntity
  8
目盛
100
AcDbLine
 10
88.957027361315
 20
113.1359056643261
 30
0.0
 11
88.957027361315
 21
113.6359056643261
 31
0.0
  0
TEXT
  5
716
330
18
100
AcDbEntity
  8
文字
100
AcDbText
 10
96.0702343687309
 20
113.5276773575514
 30
0.0
 40
1.0
  1
K
 50
11.14538657471254
  7
STYLE3
100
AcDbText
  0
TEXT
  5
717
330
18
100
AcDbEntity
  8
文字
100
AcDbText
 10
95.04344206726205
 20
113.3549258533904
 30
0.0
 40
1.0
  1
C
 50
5.687207778684769
  7
STYLE3
100
AcDbText
  0
TEXT
  5
718
330
18
100
AcDbEntity
  8
文字
100
AcDbText
 10
94.02117939396907
 20
113.1729337915523
 30
0.0
 40
1.0
  1
O
 50
1.760930144340787
  7
STYLE3
100
AcDbText
  0
TEXT
  5
719
330
18
100
AcDbEntity
  8
文字
100
AcDbText
 10
93.06932093190573
 20
113.0597788589157
 30
0.0
 40
1.0
  1
H
 50
1.589821613340259
  7
STYLE3
100
AcDbText
  0
ARC
  5
71A
330
18
100
AcDbEntity
  8
針
100
AcDbCircle
 10
89.60188777466049
 20
119.3501990254042
 30
0.0
 40
0.5
100
AcDbArc
 50
180.7934591207347
 51
246.2317787024804
  0
TEXT
  5
71B
330
18
100
AcDbEntity
  8
文字
100
AcDbText
 10
91.99136124584766
 20
116.1644144498692
 30
0.0
 40
1.0
  1
7
  7
STYLE3
100
AcDbText
  0
TEXT
  5
71C
330
18
100
AcDbEntity
  8
文字
100
AcDbText
 10
92.05154817779362
 20
118.4680418349438
 30
0.0
 40
1.0
  1
8
  7
STYLE3
100
AcDbText
  0
TEXT
  5
71D
330
18
100
AcDbEntity
  8
文字
100
AcDbText
 10
90.55415065994646
 20
120.1873496123426
 30
0.0
 40
1.0
  1
9
  7
STYLE3
100
AcDbText
  0
LINE
  5
71E
330
18
100
AcDbEntity
  8
目盛
100
AcDbLine
 10
93.47454581371687
 20
119.3537363876071
 30
0.0
 11
92.99901755556936
 21
119.1992278904196
 31
0.0
  0
LINE
  5
71F
330
18
100
AcDbEntity
  8
目盛
100
AcDbLine
 10
93.47454581371687
 20
116.4180749410451
 30
0.0
 11
92.99901755556936
 21
116.5725834382326
 31
0.0
  0
TEXT
  5
720
330
18
100
AcDbEntity
  8
文字
100
AcDbText
 10
99.45657527640889
 20
115.0156751933315
 30
0.0
 40
1.0
  1
O
 50
27.73777743938884
  7
STYLE3
100
AcDbText
  0
TEXT
  5
721
330
18
100
AcDbEntity
  8
文字
100
AcDbText
 10
98.53227337674253
 20
114.535517492052
 30
0.0
 40
1.0
  1
R
 50
26.06198672177309
  7
STYLE3
100
AcDbText
  0
TEXT
  5
722
330
18
100
AcDbEntity
  8
文字
100
AcDbText
 10
100.7463346161597
 20
112.0874479693638
 30
0.0
 40
2.5
  1
40
  7
STYLE3
100
AcDbText
  0
TEXT
  5
723
330
18
100
AcDbEntity
  8
文字
100
AcDbText
 10
97.64628673805532
 20
114.0736534128986
 30
0.0
 40
1.0
  1
P
 50
23.24053280085741
  7
STYLE3
100
AcDbText
  0
TEXT
  5
724
330
18
100
AcDbEntity
  8
文字
100
AcDbText
 10
101.3938906303907
 20
116.1411968454334
 30
0.0
 40
1.0
  1
F
 50
35.29154926473689
  7
STYLE3
100
AcDbText
  0
TEXT
  5
725
330
18
100
AcDbEntity
  8
文字
100
AcDbText
 10
100.408434183338
 20
115.5906945797572
 30
0.0
 40
1.0
  1
O
 50
27.6495577688412
  7
STYLE3
100
AcDbText
  0
TEXT
  5
726
330
18
100
AcDbEntity
  8
文字
100
AcDbText
 10
96.12492767203798
 20
127.4376282350771
 30
0.0
 40
1.0
  1
0.01×10mm
  7
STYLE3
100
AcDbText
  0
CIRCLE
  5
727
330
18
100
AcDbEntity
  8
針
100
AcDbCircle
 10
92.15702736131499
 20
127.95987707584
 30
0.0
 40
1.5
  0
CIRCLE
  5
728
330
18
100
AcDbEntity
  8
針
100
AcDbCircle
 10
92.15702736131499
 20
127.95987707584
 30
0.0
 40
1.9
  0
LINE
  5
729
330
18
100
AcDbEntity
  8
文字
100
AcDbLine
 10
89.05702736131496
 20
122.5859056643261
 30
0.0
 11
88.85702736131491
 21
122.5859056643261
 31
0.0
  0
LINE
  5
72A
330
18
100
AcDbEntity
  8
目盛
100
AcDbLine
 10
91.74900730970421
 20
121.7287363876071
 30
0.0
 11
91.45511468355801
 21
121.3242278904196
 31
0.0
  0
LINE
  5
72B
330
18
100
AcDbEntity
  8
目盛
100
AcDbLine
 10
88.957027361315
 20
122.6359056643261
 30
0.0
 11
88.957027361315
 21
122.1359056643261
 31
0.0
  0
ARC
  5
72C
330
18
100
AcDbEntity
  8
針
100
AcDbCircle
 10
95.75702736131507
 20
131.0586671623092
 30
0.0
 40
3.0
100
AcDbArc
 50
180.0
 51
209.4722791770395
  0
CIRCLE
  5
72D
330
18
100
AcDbEntity
  8
針
100
AcDbCircle
 10
92.15702736131504
 20
127.95987707584
 30
0.0
 40
0.0000000000000568
  0
CIRCLE
  5
72E
330
18
100
AcDbEntity
  8
針
100
AcDbCircle
 10
92.15702736131499
 20
127.95987707584
 30
0.0
 40
0.475
  0
ARC
  5
72F
330
18
100
AcDbEntity
  8
針
100
AcDbCircle
 10
88.5570273613149
 20
131.0586671623092
 30
0.0
 40
3.0
100
AcDbArc
 50
330.5277208229603
 51
0.0
  0
POINT
  5
730
330
18
100
AcDbEntity
  8
DEFPOINTS
  6
ByBlock
 62
     0
100
AcDbPoint
 10
92.15702736131499
 20
127.95987707584
 30
0.0
  0
POINT
  5
731
330
18
100
AcDbEntity
  8
DEFPOINTS
  6
ByBlock
 62
     0
100
AcDbPoint
 10
92.15702736131499
 20
127.95987707584
 30
0.0
  0
TEXT
  5
732
330
18
100
AcDbEntity
  8
文字
100
AcDbText
 10
97.28242090141884
 20
125.4671365330424
 30
0.0
 40
1.0
  1
JEWELED
  7
STYLE3
100
AcDbText
  0
TEXT
  5
733
330
18
100
AcDbEntity
  8
文字
100
AcDbText
 10
86.17709101439471
 20
134.7847159133187
 30
0.0
 40
1.0
  1
MADE  IN  JAPAN
  7
STYLE3
100
AcDbText
  0
HATCH
  5
734
330
18
100
AcDbEntity
  8
ROGO
 62
     4
100
AcDbHatch
 10
0.0
 20
0.0
 30
0.0
210
0.0
220
0.0
230
1.0
  2
SOLID
 70
     1
 71
     1
 91
        1
 92
        7
 72
     0
 73
     1
 93
        4
 10
85.52125269773904
 20
137.1334242699206
 10
85.42820166231706
 20
136.9277540636294
 10
97.60749423090011
 20
136.9277540636293
 10
97.71004803828624
 20
137.1334242699206
 97
        4
330
736
330
74C
330
73D
330
77F
 75
     0
 76
     1
 47
0.0514683685270805
 98
        1
 10
93.21748795862731
 20
137.0790278057158
450
        0
451
        0
460
0.0
461
0.0
452
        0
462
0.0
453
        0
470

  0
HATCH
  5
735
330
18
100
AcDbEntity
  8
ROGO
 62
     4
100
AcDbHatch
 10
0.0
 20
0.0
 30
0.0
210
0.0
220
0.0
230
1.0
  2
SOLID
 70
     1
 71
     1
 91
        1
 92
        1
 93
       12
 72
     1
 10
88.05477355266395
 20
138.9796328485353
 11
89.83085670114787
 21
138.9796328485354
 72
     1
 10
89.83085670114787
 20
138.9796328485353
 11
89.68202250541333
 21
138.6788305178432
 72
     1
 10
89.68202250541333
 20
138.6788305178432
 11
88.74855808319535
 21
138.6788305178432
 72
     1
 10
88.74855808319535
 20
138.6788305178432
 11
88.63218823711889
 21
138.4436404746591
 72
     1
 10
88.63218823711889
 20
138.4436404746591
 11
89.56565265933681
 21
138.4436404746591
 72
     1
 10
89.56565265933681
 20
138.4436404746591
 11
89.44632628371294
 21
138.2024751179779
 72
     1
 10
89.44632628371294
 20
138.2024751179779
 11
88.51286186149502
 21
138.2024751179779
 72
     1
 10
88.51286186149502
 20
138.2024751179779
 11
88.39648708887864
 21
137.9672751179779
 72
     1
 10
88.39648708887869
 20
137.9672751179779
 11
89.32995151109663
 21
137.9672751179779
 72
     1
 10
89.32995151109663
 20
137.9672751179779
 11
89.1811248018878
 21
137.6664879179778
 72
     1
 10
89.1811248018878
 20
137.6664879179778
 11
87.40504165340388
 21
137.6664879179778
 72
     1
 10
87.40504165340388
 20
137.6664879179778
 11
88.05477355266395
 21
138.9796328485353
 97
       12
330
737
330
77B
330
73B
330
747
330
73A
330
772
330
738
330
74B
330
739
330
771
330
73C
330
748
 75
     0
 76
     1
 98
        1
 10
15.40464457395501
 20
48.18153680042406
450
        0
451
        0
460
0.0
461
0.0
452
        0
462
0.0
453
        0
470

  0
LINE
  5
736
102
{ACAD_REACTORS
330
734
102
}
330
18
100
AcDbEntity
  8
ROGO
 62
     4
100
AcDbLine
 10
85.50698925082235
 20
137.1334242699206
 30
0.0
 11
97.71004803828629
 21
137.1334242699206
 31
0.0
  0
LINE
  5
737
102
{ACAD_REACTORS
330
735
102
}
330
18
100
AcDbEntity
  8
ROGO
 62
     4
100
AcDbLine
 10
88.05477355266395
 20
138.9796328485353
 30
0.0
 11
89.83085670114787
 21
138.9796328485354
 31
0.0
  0
LINE
  5
738
102
{ACAD_REACTORS
330
735
102
}
330
18
100
AcDbEntity
  8
ROGO
 62
     4
100
AcDbLine
 10
88.51286186149502
 20
138.2024751179779
 30
0.0
 11
89.44632628371294
 21
138.2024751179779
 31
0.0
  0
LINE
  5
739
102
{ACAD_REACTORS
330
735
102
}
330
18
100
AcDbEntity
  8
ROGO
 62
     4
100
AcDbLine
 10
88.39648708887869
 20
137.9672751179779
 30
0.0
 11
89.32995151109663
 21
137.9672751179779
 31
0.0
  0
LINE
  5
73A
102
{ACAD_REACTORS
330
735
102
}
330
18
100
AcDbEntity
  8
ROGO
 62
     4
100
AcDbLine
 10
88.63218823711889
 20
138.4436404746591
 30
0.0
 11
89.56565265933681
 21
138.4436404746591
 31
0.0
  0
LINE
  5
73B
102
{ACAD_REACTORS
330
735
102
}
330
18
100
AcDbEntity
  8
ROGO
 62
     4
100
AcDbLine
 10
88.74855808319535
 20
138.6788305178432
 30
0.0
 11
89.68202250541333
 21
138.6788305178432
 31
0.0
  0
LINE
  5
73C
102
{ACAD_REACTORS
330
735
102
}
330
18
100
AcDbEntity
  8
ROGO
 62
     4
100
AcDbLine
 10
87.40504165340388
 20
137.6664879179778
 30
0.0
 11
89.1811248018878
 21
137.6664879179778
 31
0.0
  0
LINE
  5
73D
102
{ACAD_REACTORS
330
734
330
77D
330
746
102
}
330
18
100
AcDbEntity
  8
ROGO
 62
     4
100
AcDbLine
 10
84.47440070638055
 20
136.9277540636294
 30
0.0
 11
98.36357797340435
 21
136.9277540636294
 31
0.0
  0
LINE
  5
73E
330
18
100
AcDbEntity
  8
目盛
100
AcDbLine
 10
76.41244392495531
 20
144.7261555065325
 30
0.0
 11
77.57617400503403
 21
143.4869088399161
 31
0.0
  0
LINE
  5
73F
330
18
100
AcDbEntity
  8
目盛
100
AcDbLine
 10
77.49627559709529
 20
145.6816816596832
 30
0.0
 11
78.57989637966801
 21
144.3718091469644
 31
0.0
  0
LINE
  5
740
330
18
100
AcDbEntity
  8
目盛
100
AcDbLine
 10
78.63796655858817
 20
146.5672679464638
 30
0.0
 11
80.22498673977782
 21
144.3829220616515
 31
0.0
  0
TEXT
  5
741
330
18
100
AcDbEntity
  8
文字
100
AcDbText
 10
79.16450269752056
 20
141.3698520893969
 30
0.0
 40
2.5
  1
90
  7
STYLE3
100
AcDbText
  0
LINE
  5
742
330
18
100
AcDbEntity
  8
目盛
100
AcDbLine
 10
75.39074893062269
 20
143.7044605122
 30
0.0
 11
76.62999559723909
 21
142.5407304321212
 31
0.0
  0
LINE
  5
743
330
18
100
AcDbEntity
  8
目盛
100
AcDbLine
 10
72.73748507476881
 20
140.283893360357
 30
0.0
 11
74.17284254812222
 21
139.3729878088928
 31
0.0
  0
LINE
  5
744
330
18
100
AcDbEntity
  8
目盛
100
AcDbLine
 10
73.54963649069128
 20
141.4789378785669
 30
0.0
 11
75.73398237550356
 21
139.8919176973772
 31
0.0
  0
LINE
  5
745
330
18
100
AcDbEntity
  8
目盛
100
AcDbLine
 10
74.435222777472
 20
142.62062884006
 30
0.0
 11
75.74509529019081
 21
141.5370080574872
 31
0.0
  0
HATCH
  5
746
330
18
100
AcDbEntity
  8
ROGO
 62
     4
100
AcDbHatch
 10
0.0
 20
0.0
 30
0.0
210
0.0
220
0.0
230
1.0
  2
SOLID
 70
     1
 71
     1
 91
        2
 92
        5
 93
        6
 72
     1
 10
84.47440070638057
 20
136.9277540636294
 11
85.42820166231704
 21
136.9277540636294
 72
     1
 10
85.42820166231704
 20
136.9277540636294
 11
85.7624258131455
 21
137.6664879179778
 72
     1
 10
85.7624258131455
 20
137.6664879179778
 11
86.6540340813176
 21
137.6664879179778
 72
     4
 94
        3
 73
     0
 74
     0
 95
       18
 96
       14
 40
0.108740278791501
 40
0.108740278791501
 40
0.108740278791501
 40
0.108740278791501
 40
0.6623149649549278
 40
1.384304701649787
 40
2.097394834876493
 40
2.774073369849618
 40
3.428974823686337
 40
4.005208313035923
 40
4.455173659284313
 40
4.720999734343524
 40
5.086034088486724
 40
5.569973738255373
 40
6.060470601257719
 40
6.060470601257719
 40
6.060470601257719
 40
6.060470601257719
 10
86.65403408131766
 20
137.6664879179778
 10
86.71678399821235
 20
137.666955197609
 10
86.86137435526593
 20
137.6680319182176
 10
87.06365513337317
 20
137.7760947547129
 10
87.25547510646618
 20
137.9137589350547
 10
87.40997304554758
 20
138.0857559658565
 10
87.50622991642371
 20
138.2824051033772
 10
87.52113980147077
 20
138.4708752389489
 10
87.51203768295988
 20
138.6199527731054
 10
87.44699847441683
 20
138.7238635154082
 10
87.37938228049211
 20
138.829322292581
 10
87.25539704494492
 20
138.9206746023724
 10
87.15380909709443
 20
138.9607004936877
 10
87.10214955945838
 20
138.9796328485354
 72
     1
 10
87.10214955945842
 20
138.9796328485354
 11
85.48965124647322
 21
138.9796328485353
 72
     1
 10
85.48965124647322
 20
138.9796328485353
 11
84.47440070638057
 21
136.9277540636294
 97
        6
330
749
330
752
330
74A
330
73D
330
74C
330
751
 92
       20
 93
        4
 72
     1
 10
85.9687903054557
 20
138.1226142524366
 11
86.12678810181307
 21
138.471835937322
 72
     1
 10
86.12678810181307
 20
138.471835937322
 11
86.53277510091051
 21
138.471835937322
 72
     4
 94
        3
 73
     0
 74
     0
 95
       15
 96
       11
 40
0.0
 40
0.0
 40
0.0
 40
0.0
 40
0.1539705029175028
 40
0.2241725832587281
 40
0.3038566179396687
 40
0.3581410872474193
 40
0.443992538467216
 40
0.4954152125469665
 40
0.5836396705646186
 40
0.6130478420065743
 40
0.6130478420065743
 40
0.6130478420065743
 40
0.6130478420065743
 10
86.53277510091049
 20
138.471835937322
 10
86.59060343596967
 20
138.4721008219644
 10
86.67479831102776
 20
138.4724864794341
 10
86.72083906739244
 20
138.3683371755046
 10
86.70020140515891
 20
138.3012812708672
 10
86.67425818173484
 20
138.2324357566194
 10
86.62841063019248
 20
138.18565419135
 10
86.56687650059728
 20
138.1405956577131
 10
86.50872380754156
 20
138.1351411204535
 10
86.47090200856894
 20
138.1251196269994
 10
86.46144655429969
 20
138.1226142524366
 72
     1
 10
86.46144655429971
 20
138.1226142524366
 11
85.9687903054557
 21
138.1226142524366
 97
        4
330
750
330
74E
330
74F
330
74D
 75
     0
 76
     1
 47
0.0514683685270805
 98
        2
 10
85.49826979978012
 20
138.3414440916464
 10
85.49826979978012
 20
138.3414440916464
450
        0
451
        0
460
0.0
461
0.0
452
        0
462
0.0
453
        0
470

  0
LINE
  5
747
102
{ACAD_REACTORS
330
735
102
}
330
18
100
AcDbEntity
  8
ROGO
 62
     4
100
AcDbLine
 10
88.74855808319535
 20
138.6788305178432
 30
0.0
 11
88.63218823711889
 21
138.4436404746591
 31
0.0
  0
LINE
  5
748
102
{ACAD_REACTORS
330
735
102
}
330
18
100
AcDbEntity
  8
ROGO
 62
     4
100
AcDbLine
 10
88.05477355266395
 20
138.9796328485353
 30
0.0
 11
87.40504165340388
 21
137.6664879179778
 31
0.0
  0
SPLINE
  5
749
102
{ACAD_REACTORS
330
746
102
}
330
18
100
AcDbEntity
  8
ROGO
 62
     4
100
AcDbSpline
210
0.0
220
0.0
230
1.0
 70
     8
 71
     3
 72
    18
 73
    14
 74
     0
 42
0.0000000001
 43
0.0000000001
 40
0.1087402787915014
 40
0.1087402787915014
 40
0.1087402787915014
 40
0.1087402787915014
 40
0.5992371417938475
 40
1.083176791562496
 40
1.448211145705696
 40
1.714037220764907
 40
2.164002567013297
 40
2.740236056362883
 40
3.395137510199602
 40
4.071816045172726
 40
4.784906178399433
 40
5.506895915094292
 40
6.060470601257719
 40
6.060470601257719
 40
6.060470601257719
 40
6.060470601257719
 10
87.10214955945838
 20
138.9796328485354
 30
0.0
 10
87.15380909709443
 20
138.9607004936877
 30
0.0
 10
87.25539704494492
 20
138.9206746023724
 30
0.0
 10
87.37938228049211
 20
138.829322292581
 30
0.0
 10
87.44699847441683
 20
138.7238635154082
 30
0.0
 10
87.51203768295988
 20
138.6199527731054
 30
0.0
 10
87.52113980147077
 20
138.4708752389489
 30
0.0
 10
87.50622991642371
 20
138.2824051033772
 30
0.0
 10
87.40997304554758
 20
138.0857559658565
 30
0.0
 10
87.25547510646618
 20
137.9137589350547
 30
0.0
 10
87.06365513337317
 20
137.7760947547129
 30
0.0
 10
86.86137435526593
 20
137.6680319182176
 30
0.0
 10
86.71678399821235
 20
137.666955197609
 30
0.0
 10
86.65403408131766
 20
137.6664879179778
 30
0.0
  0
LINE
  5
74A
102
{ACAD_REACTORS
330
746
102
}
330
18
100
AcDbEntity
  8
ROGO
 62
     4
100
AcDbLine
 10
85.48965124647322
 20
138.9796328485353
 30
0.0
 11
84.47440070638055
 21
136.9277540636293
 31
0.0
  0
LINE
  5
74B
102
{ACAD_REACTORS
330
735
102
}
330
18
100
AcDbEntity
  8
ROGO
 62
     4
100
AcDbLine
 10
88.51286186149502
 20
138.2024751179779
 30
0.0
 11
88.39648708887864
 21
137.9672751179779
 31
0.0
  0
LINE
  5
74C
102
{ACAD_REACTORS
330
734
330
746
102
}
330
18
100
AcDbEntity
  8
ROGO
 62
     4
100
AcDbLine
 10
85.7624258131455
 20
137.6664879179778
 30
0.0
 11
85.42820166231706
 21
136.9277540636294
 31
0.0
  0
LINE
  5
74D
102
{ACAD_REACTORS
330
746
102
}
330
18
100
AcDbEntity
  8
ROGO
 62
     4
100
AcDbLine
 10
86.46144655429976
 20
138.1226142524366
 30
0.0
 11
85.96879030545569
 21
138.1226142524366
 31
0.0
  0
LINE
  5
74E
102
{ACAD_REACTORS
330
746
102
}
330
18
100
AcDbEntity
  8
ROGO
 62
     4
100
AcDbLine
 10
86.53277510091056
 20
138.471835937322
 30
0.0
 11
86.12678810181307
 21
138.471835937322
 31
0.0
  0
SPLINE
  5
74F
102
{ACAD_REACTORS
330
746
102
}
330
18
100
AcDbEntity
  8
ROGO
 62
     4
100
AcDbSpline
210
0.0
220
0.0
230
1.0
 70
     8
 71
     3
 72
    15
 73
    11
 74
     9
 42
0.0000000001
 43
0.0000000001
 44
0.0000000001
 40
0.0
 40
0.0
 40
0.0
 40
0.0
 40
0.1539705029175028
 40
0.2241725832587281
 40
0.3038566179396687
 40
0.3581410872474193
 40
0.443992538467216
 40
0.4954152125469665
 40
0.5836396705646186
 40
0.6130478420065743
 40
0.6130478420065743
 40
0.6130478420065743
 40
0.6130478420065743
 10
86.53277510091049
 20
138.471835937322
 30
0.0
 10
86.59060343596971
 20
138.4721008219644
 30
0.0
 10
86.67479831102779
 20
138.4724864794341
 30
0.0
 10
86.72083906739242
 20
138.3683371755046
 30
0.0
 10
86.70020140515886
 20
138.3012812708672
 30
0.0
 10
86.67425818173486
 20
138.2324357566194
 30
0.0
 10
86.62841063019246
 20
138.1856541913501
 30
0.0
 10
86.5668765005973
 20
138.1405956577131
 30
0.0
 10
86.50872380754156
 20
138.1351411204535
 30
0.0
 10
86.47090200856895
 20
138.1251196269994
 30
0.0
 10
86.46144655429969
 20
138.1226142524366
 30
0.0
 11
86.53277510091049
 21
138.471835937322
 31
0.0
 11
86.68256517183932
 21
138.4362009766821
 31
0.0
 11
86.71109667251432
 21
138.3720582798767
 31
0.0
 11
86.69683112725346
 21
138.2936615988153
 31
0.0
 11
86.67543260428562
 21
138.2437726539194
 31
0.0
 11
86.61836960293555
 21
138.179629957114
 31
0.0
 11
86.5755725569997
 21
138.1511219886021
 31
0.0
 11
86.4899780549747
 21
138.1297412445645
 31
0.0
 11
86.46144655429969
 21
138.1226142524366
 31
0.0
  0
LINE
  5
750
102
{ACAD_REACTORS
330
746
102
}
330
18
100
AcDbEntity
  8
ROGO
 62
     4
100
AcDbLine
 10
86.12678810181307
 20
138.471835937322
 30
0.0
 11
85.96879030545569
 21
138.1226142524366
 31
0.0
  0
LINE
  5
751
102
{ACAD_REACTORS
330
746
102
}
330
18
100
AcDbEntity
  8
ROGO
 62
     4
100
AcDbLine
 10
86.65403408162678
 20
137.6664879179778
 30
0.0
 11
85.7624258131455
 21
137.6664879179778
 31
0.0
  0
LINE
  5
752
102
{ACAD_REACTORS
330
746
102
}
330
18
100
AcDbEntity
  8
ROGO
 62
     4
100
AcDbLine
 10
85.48965124647322
 20
138.9796328485353
 30
0.0
 11
87.10214955945838
 21
138.9796328485353
 31
0.0
  0
LINE
  5
753
330
18
100
AcDbEntity
  8
目盛
100
AcDbLine
 10
79.8330110767983
 20
147.3794193623865
 30
0.0
 11
80.74391662826252
 21
145.944061889033
 31
0.0
  0
LINE
  5
754
330
18
100
AcDbEntity
  8
目盛
100
AcDbLine
 10
87.84725712584355
 20
150.5524838425999
 30
0.0
 11
88.16580536063924
 21
148.8825955163611
 31
0.0
  0
LINE
  5
755
330
18
100
AcDbEntity
  8
目盛
100
AcDbLine
 10
81.07669285697573
 20
148.114930716849
 30
0.0
 11
81.89567410294865
 21
146.6252093607744
 31
0.0
  0
LINE
  5
756
330
18
100
AcDbEntity
  8
目盛
100
AcDbLine
 10
82.36410365531851
 20
148.7708992825585
 30
0.0
 11
83.08792845097912
 21
147.2326932933663
 31
0.0
  0
LINE
  5
757
330
18
100
AcDbEntity
  8
目盛
100
AcDbLine
 10
83.69016264956758
 20
149.3447362512698
 30
0.0
 11
84.31597438913156
 21
147.7641162252599
 31
0.0
  0
LINE
  5
758
330
18
100
AcDbEntity
  8
目盛
100
AcDbLine
 10
85.04963649069129
 20
149.8341769506285
 30
0.0
 11
85.88398237550364
 21
147.2663243566316
 31
0.0
  0
LINE
  5
759
330
18
100
AcDbEntity
  8
目盛
100
AcDbLine
 10
86.4371599565236
 20
150.2372897817986
 30
0.0
 11
86.85993276470378
 21
148.5906984078799
 31
0.0
  0
HATCH
  5
75A
330
18
100
AcDbEntity
  8
ROGO
 62
     4
100
AcDbHatch
 10
0.0
 20
0.0
 30
0.0
210
0.0
220
0.0
230
1.0
  2
SOLID
 70
     1
 71
     1
 91
        1
 92
        5
 93
        8
 72
     4
 94
        3
 73
     0
 74
     0
 95
       26
 96
       22
 40
0.0
 40
0.0
 40
0.0
 40
0.0
 40
0.2382195346591896
 40
0.397689067266058
 40
0.5126795869787176
 40
0.5985392873135238
 40
0.7099038249250041
 40
0.7911890807494602
 40
0.9379713068544059
 40
1.057449928673177
 40
1.138714535893296
 40
1.218398644003487
 40
1.36093802187034
 40
1.461730374800238
 40
1.51601484410804
 40
1.593124329220486
 40
1.648806818593696
 40
1.729472362005543
 40
1.775122082164332
 40
1.874460993765135
 40
1.919820003751196
 40
1.919820003751196
 40
1.919820003751196
 40
1.919820003751196
 10
97.04056379134152
 20
138.9796328485353
 10
96.95970840058288
 20
138.9748088772702
 10
96.82472658651693
 20
138.9667556307736
 10
96.6765173758052
 20
138.8767201269152
 10
96.56793063139497
 20
138.8243774415727
 10
96.49048669697078
 20
138.7532220201531
 10
96.43371997910321
 20
138.6797236676317
 10
96.36215487440564
 20
138.5921509195064
 10
96.30379557649973
 20
138.4901759980417
 10
96.27407673396659
 20
138.3777818569785
 10
96.24775206531291
 20
138.2882030744196
 10
96.22822925033984
 20
138.1883792115272
 10
96.23319640715283
 20
138.0805343234049
 10
96.24030960303736
 20
137.9803735124011
 10
96.27206829296131
 20
137.9088736894744
 10
96.30823581535139
 20
137.8579707425451
 10
96.35252245120625
 20
137.8019067898463
 10
96.4009817155237
 20
137.7647758155161
 10
96.44106148263432
 20
137.6975105603755
 10
96.51121976289676
 20
137.6889270286993
 10
96.55581515697258
 20
137.6718432388223
 10
96.569794645434
 20
137.6664879179778
 72
     1
 10
96.56979464543402
 20
137.6664879179778
 11
97.7008236604386
 21
137.6664879179778
 72
     1
 10
97.7008236604386
 20
137.6664879179778
 11
97.94444038111741
 21
138.1550577963185
 72
     1
 10
97.94444038111741
 20
138.1550577963185
 11
97.10475936024527
 21
138.1550577963185
 72
     4
 94
        3
 73
     0
 74
     0
 95
       16
 96
       12
 40
0.0
 40
0.0
 40
0.0
 40
0.0
 40
0.0719416665231652
 40
0.1446253590759511
 40
0.1879779149910863
 40
0.229544093610429
 40
0.2751936323958108
 40
0.3070718656052417
 40
0.3373215422371831
 40
0.3986635435213285
 40
0.5242542460842448
 40
0.5242542460842448
 40
0.5242542460842448
 40
0.5242542460842448
 10
97.10475936024529
 20
138.1550577963184
 10
97.07943162157357
 20
138.162509588407
 10
97.02851490700448
 20
138.1774900324063
 10
97.02425358915689
 20
138.2501097215436
 10
97.03005901821871
 20
138.3018571925028
 10
97.05437216809594
 20
138.3395323732189
 10
97.08386823595652
 20
138.3669460242546
 10
97.09485093020811
 20
138.4026480184367
 10
97.12713355933226
 20
138.4296074907532
 10
97.18437931072333
 20
138.474922597729
 10
97.24768320193465
 20
138.4845737030145
 10
97.29021390955608
 20
138.4910577963185
 72
     1
 10
97.29021390955606
 20
138.4910577963185
 11
98.11198083290726
 21
138.4910577963185
 72
     1
 10
98.11198083290726
 20
138.4910577963185
 11
98.35560013344782
 21
138.9796328485354
 72
     1
 10
98.35560013344782
 20
138.9796328485354
 11
97.04056379134149
 21
138.9796328485353
 97
        8
330
78E
330
75B
330
75C
330
787
330
786
330
788
330
785
330
780
 75
     0
 76
     1
 47
0.0514683685270805
 98
        1
 10
97.26748122102641
 20
138.7391915453562
450
        0
451
        0
460
0.0
461
0.0
452
        0
462
0.0
453
        0
470

  0
SPLINE
  5
75B
102
{ACAD_REACTORS
330
75A
102
}
330
18
100
AcDbEntity
  8
ROGO
 62
     4
100
AcDbSpline
210
0.0
220
0.0
230
1.0
 70
     8
 71
     3
 72
    26
 73
    22
 74
    20
 42
0.0000000001
 43
0.0000000001
 44
0.0000000001
 40
0.0
 40
0.0
 40
0.0
 40
0.0
 40
0.2382195346591896
 40
0.397689067266058
 40
0.5126795869787176
 40
0.5985392873135238
 40
0.7099038249250041
 40
0.7911890807494602
 40
0.9379713068544059
 40
1.057449928673177
 40
1.138714535893296
 40
1.218398644003487
 40
1.36093802187034
 40
1.461730374800238
 40
1.51601484410804
 40
1.593124329220486
 40
1.648806818593696
 40
1.729472362005543
 40
1.775122082164332
 40
1.874460993765135
 40
1.919820003751196
 40
1.919820003751196
 40
1.919820003751196
 40
1.919820003751196
 10
97.04056379134152
 20
138.9796328485353
 30
0.0
 10
96.95970840058288
 20
138.9748088772702
 30
0.0
 10
96.82472658651697
 20
138.9667556307735
 30
0.0
 10
96.67651737580516
 20
138.8767201269152
 30
0.0
 10
96.56793063139499
 20
138.8243774415727
 30
0.0
 10
96.49048669697076
 20
138.7532220201531
 30
0.0
 10
96.43371997910323
 20
138.6797236676317
 30
0.0
 10
96.36215487440566
 20
138.5921509195064
 30
0.0
 10
96.30379557649975
 20
138.4901759980418
 30
0.0
 10
96.2740767339666
 20
138.3777818569785
 30
0.0
 10
96.24775206531289
 20
138.2882030744196
 30
0.0
 10
96.22822925033986
 20
138.1883792115272
 30
0.0
 10
96.23319640715283
 20
138.0805343234049
 30
0.0
 10
96.24030960303734
 20
137.9803735124011
 30
0.0
 10
96.27206829296129
 20
137.9088736894744
 30
0.0
 10
96.30823581535137
 20
137.8579707425451
 30
0.0
 10
96.35252245120625
 20
137.8019067898463
 30
0.0
 10
96.40098171552374
 20
137.7647758155161
 30
0.0
 10
96.44106148263432
 20
137.6975105603755
 30
0.0
 10
96.51121976289678
 20
137.6889270286994
 30
0.0
 10
96.55581515697257
 20
137.6718432388223
 30
0.0
 10
96.569794645434
 20
137.6664879179778
 30
0.0
 11
97.04056379134152
 21
138.9796328485353
 31
0.0
 11
96.8051792183877
 21
138.9429906664416
 31
0.0
 11
96.6625217150127
 21
138.8717209775082
 31
0.0
 11
96.5626616677269
 21
138.8147052728308
 31
0.0
 11
96.49846609882315
 21
138.7576893358069
 31
0.0
 11
96.42713755221235
 21
138.6721656626175
 31
0.0
 11
96.37720752856939
 21
138.6080229658122
 31
0.0
 11
96.30587857180518
 21
138.4797373398549
 31
0.0
 11
96.27021450357643
 21
138.3657056981536
 31
0.0
 11
96.24881598060859
 21
138.2873090170923
 31
0.0
 11
96.23455002519433
 21
138.2089123360309
 31
0.0
 11
96.23455002519433
 21
138.0663729581641
 31
0.0
 11
96.24881598060859
 21
137.9665953007188
 31
0.0
 11
96.27021450357643
 21
137.9167063558229
 31
0.0
 11
96.31301154951223
 21
137.8525636590175
 31
0.0
 11
96.34867602789444
 21
137.8098017062496
 31
0.0
 11
96.40573861909098
 21
137.7527860015722
 31
0.0
 11
96.43427011976605
 21
137.7171510409323
 31
0.0
 11
96.5269975994982
 21
137.6815163126388
 31
0.0
 11
96.569794645434
 21
137.6664879179778
 31
0.0
  0
LINE
  5
75C
102
{ACAD_REACTORS
330
75A
102
}
330
18
100
AcDbEntity
  8
ROGO
 62
     4
100
AcDbLine
 10
96.56979464543395
 20
137.6664879179778
 30
0.0
 11
97.70082366043864
 21
137.6664879179778
 31
0.0
  0
HATCH
  5
75D
330
18
100
AcDbEntity
  8
ROGO
 62
     4
100
AcDbHatch
 10
0.0
 20
0.0
 30
0.0
210
0.0
220
0.0
230
1.0
  2
SOLID
 70
     1
 71
     1
 91
        2
 92
        5
 93
        6
 72
     4
 94
        3
 73
     0
 74
     0
 95
       38
 96
       34
 40
0.0
 40
0.0
 40
0.0
 40
0.0
 40
0.1807680148264315
 40
0.2375392910068956
 40
0.3104865209606157
 40
0.3712759982447458
 40
0.422566754387306
 40
0.490692583720658
 40
0.5255021974951946
 40
0.5647069597052371
 40
0.622487401681883
 40
0.6879401044674746
 40
0.7303986317551266
 40
0.7765228362185534
 40
0.8277951442290254
 40
0.9056034697002209
 40
0.9795294930264187
 40
1.013897332332996
 40
1.053089255536027
 40
1.099518741889647
 40
1.132570569820733
 40
1.160277520290299
 40
1.19983678629386
 40
1.243305643169139
 40
1.286774258016964
 40
1.324809356515675
 40
1.411916492917645
 40
1.446284332224223
 40
1.5150200516612
 40
1.575779369908399
 40
1.69209852953623
 40
1.835624328519098
 40
2.042896467983898
 40
2.042896467983898
 40
2.042896467983898
 40
2.042896467983898
 10
94.85375568256273
 20
138.9851100677077
 10
94.79350028493707
 20
138.9808534486068
 10
94.71432131931596
 20
138.9752600128195
 10
94.6137825468063
 20
138.9477153866147
 10
94.5589777923654
 20
138.9149008671568
 10
94.50194249104823
 20
138.8907806224562
 10
94.45331458466313
 20
138.855063323207
 10
94.40412848396727
 20
138.8366585430136
 10
94.3696868705914
 20
138.803471434641
 10
94.32982351245858
 20
138.783199316466
 10
94.29807961262326
 20
138.7378244224516
 10
94.26259893609142
 20
138.6954005407931
 10
94.22143688768437
 20
138.6644329992157
 10
94.18765464212492
 20
138.6319080202534
 10
94.15666412920064
 20
138.5817122050694
 10
94.13832255662953
 20
138.5150168303838
 10
94.0866207422202
 20
138.4729077760987
 10
94.07883606773703
 20
138.4222801284225
 10
94.0502382175414
 20
138.3924106682319
 10
94.03780287208542
 20
138.3538534862468
 10
94.03306689396163
 20
138.3185282969261
 10
94.02738259091917
 20
138.2855370154978
 10
94.01251353068664
 20
138.25083164476
 10
94.01736684324806
 20
138.207961365825
 10
94.01598428020594
 20
138.1664486517985
 10
94.01679792017915
 20
138.110405195187
 10
94.01386138083319
 20
138.0558399982676
 10
94.03727913134821
 20
137.9964601220991
 10
94.05113697895103
 20
137.9435311774326
 10
94.08908894889464
 20
137.8702446351811
 10
94.15455530171261
 20
137.7856878114722
 10
94.27904504773005
 20
137.6830518481795
 10
94.39874557828943
 20
137.6726399074622
 10
94.4694717210196
 20
137.6664879179778
 72
     1
 10
94.46947172101962
 20
137.6664879179778
 11
95.21992554420499
 21
137.6664879179778
 72
     4
 94
        3
 73
     0
 74
     0
 95
       11
 96
        7
 40
0.1647869275458135
 40
0.1647869275458135
 40
0.1647869275458135
 40
0.1647869275458135
 40
0.2545010798212315
 40
0.5111620267764023
 40
0.7602998271033902
 40
0.8850764140209603
 40
0.8850764140209603
 40
0.8850764140209603
 40
0.8850764140209603
 10
95.21992554420496
 20
137.6664879179778
 10
95.23039744452489
 20
137.6662861023349
 10
95.27082813935345
 20
137.6655069174281
 10
95.33992468144981
 20
137.6754334480127
 10
95.41262344858791
 20
137.684945842386
 10
95.45596446002212
 20
137.69187343217
 10
95.46994300282296
 20
137.6957643648865
 72
     4
 94
        3
 73
     0
 74
     0
 95
        9
 96
        5
 40
0.0
 40
0.0
 40
0.0
 40
0.0
 40
0.1135793343552172
 40
0.2662938392177403
 40
0.2662938392177403
 40
0.2662938392177403
 40
0.2662938392177403
 10
95.46994300282296
 20
137.6957643648865
 10
95.50642797114097
 20
137.7069267046097
 10
95.5919692568184
 20
137.7330975068636
 10
95.66264595405517
 20
137.7884098246381
 10
95.70317770971104
 20
137.820130397846
 72
     4
 94
        3
 73
     0
 74
     0
 95
       25
 96
       21
 40
0.0
 40
0.0
 40
0.0
 40
0.0
 40
0.165525918914855
 40
0.3412380755365305
 40
0.5940540902285263
 40
0.7697671103696209
 40
0.9377330196075423
 40
1.11479469302833
 40
1.274661249598185
 40
1.574522170874768
 40
1.815540668866877
 40
2.15849091873445
 40
2.536227739636605
 40
2.738070817316548
 40
2.925680654369045
 40
3.162706124480894
 40
3.395643218188267
 40
3.648478129958861
 40
3.928509979727306
 40
4.337226830236035
 40
4.337226830236035
 40
4.337226830236035
 40
4.337226830236035
 10
95.70317770971104
 20
137.820130397846
 10
95.71807036710476
 20
137.8324371417916
 10
95.74631766640868
 20
137.8617072650133
 10
95.7964189030484
 20
137.909147613352
 10
95.84056906285502
 20
137.964419383806
 10
95.89503146357225
 20
138.0092152166794
 10
95.92338441911124
 20
138.0639814430269
 10
95.96425296641536
 20
138.107053913526
 10
95.99853498533269
 20
138.1735750955165
 10
96.02762158403272
 20
138.2499868606607
 10
96.05535163953021
 20
138.3495881443642
 10
96.06597808286688
 20
138.4619531974097
 10
96.05024962521964
 20
138.5706663298408
 10
96.01225364754487
 20
138.6519258253776
 10
95.98431948677569
 20
138.7196472400437
 10
95.94192589813326
 20
138.7837913437209
 10
95.89356054327266
 20
138.853555150055
 10
95.82542232251331
 20
138.91126111237
 10
95.73637266389216
 20
138.9808638017455
 10
95.65342955617365
 20
138.9835286782515
 10
95.60420950574808
 20
138.9851100677077
 72
     1
 10
95.60420950574807
 20
138.9851100677076
 11
94.85375568256271
 21
138.9851100677077
 97
        6
330
75E
330
77C
330
75F
330
776
330
775
330
774
 92
       20
 93
        1
 72
     3
 10
95.02621407719345
 20
138.3074140754886
 11
0.1782847090673272
 21
0.1567790921840611
 40
0.6788083417438791
 50
0.0
 51
360.0
 73
     1
 97
        1
330
773
 75
     0
 76
     1
 47
0.088756267210375
 98
        2
 10
95.0786453529621
 20
138.6209013458127
 10
95.0786453529621
 20
138.6209013458127
450
        0
451
        0
460
0.0
461
0.0
452
        0
462
0.0
453
        0
470

  0
SPLINE
  5
75E
102
{ACAD_REACTORS
330
75D
102
}
330
18
100
AcDbEntity
  8
ROGO
 62
     4
100
AcDbSpline
210
0.0
220
0.0
230
1.0
 70
     8
 71
     3
 72
    25
 73
    21
 74
     0
 42
0.0000000001
 43
0.0000000001
 40
0.0
 40
0.0
 40
0.0
 40
0.0
 40
0.4087168505087288
 40
0.6887487002771746
 40
0.9415836120477687
 40
1.17452070575514
 40
1.41154617586699
 40
1.599156012919487
 40
1.80099909059943
 40
2.178735911501585
 40
2.521686161369157
 40
2.762704659361267
 40
3.06256558063785
 40
3.222432137207705
 40
3.399493810628493
 40
3.567459719866414
 40
3.743172740007509
 40
3.995988754699505
 40
4.17170091132118
 40
4.337226830236035
 40
4.337226830236035
 40
4.337226830236035
 40
4.337226830236035
 10
95.60420950574808
 20
138.9851100677077
 30
0.0
 10
95.65342955617365
 20
138.9835286782515
 30
0.0
 10
95.73637266389216
 20
138.9808638017455
 30
0.0
 10
95.82542232251331
 20
138.91126111237
 30
0.0
 10
95.89356054327266
 20
138.853555150055
 30
0.0
 10
95.94192589813326
 20
138.7837913437209
 30
0.0
 10
95.98431948677569
 20
138.7196472400437
 30
0.0
 10
96.01225364754487
 20
138.6519258253776
 30
0.0
 10
96.05024962521964
 20
138.5706663298408
 30
0.0
 10
96.06597808286688
 20
138.4619531974097
 30
0.0
 10
96.05535163953021
 20
138.3495881443642
 30
0.0
 10
96.02762158403272
 20
138.2499868606607
 30
0.0
 10
95.99853498533269
 20
138.1735750955165
 30
0.0
 10
95.96425296641536
 20
138.107053913526
 30
0.0
 10
95.92338441911124
 20
138.0639814430269
 30
0.0
 10
95.89503146357225
 20
138.0092152166794
 30
0.0
 10
95.84056906285502
 20
137.964419383806
 30
0.0
 10
95.7964189030484
 20
137.909147613352
 30
0.0
 10
95.74631766640868
 20
137.8617072650133
 30
0.0
 10
95.71807036710476
 20
137.8324371417916
 30
0.0
 10
95.70317770971104
 20
137.820130397846
 30
0.0
  0
SPLINE
  5
75F
102
{ACAD_REACTORS
330
75D
102
}
330
18
100
AcDbEntity
  8
ROGO
 62
     4
100
AcDbSpline
210
0.0
220
0.0
230
1.0
 70
     8
 71
     3
 72
    38
 73
    34
 74
    32
 42
0.0000000001
 43
0.0000000001
 44
0.0000000001
 40
0.0
 40
0.0
 40
0.0
 40
0.0
 40
0.1807680148264315
 40
0.2375392910068956
 40
0.3104865209606157
 40
0.3712759982447458
 40
0.422566754387306
 40
0.490692583720658
 40
0.5255021974951946
 40
0.5647069597052371
 40
0.622487401681883
 40
0.6879401044674746
 40
0.7303986317551266
 40
0.7765228362185534
 40
0.8277951442290254
 40
0.9056034697002209
 40
0.9795294930264187
 40
1.013897332332996
 40
1.053089255536027
 40
1.099518741889647
 40
1.132570569820733
 40
1.160277520290299
 40
1.19983678629386
 40
1.243305643169139
 40
1.286774258016964
 40
1.324809356515675
 40
1.411916492917645
 40
1.446284332224223
 40
1.5150200516612
 40
1.575779369908399
 40
1.69209852953623
 40
1.835624328519098
 40
2.042896467983898
 40
2.042896467983898
 40
2.042896467983898
 40
2.042896467983898
 10
94.85375568256273
 20
138.9851100677077
 30
0.0
 10
94.79350028493707
 20
138.9808534486068
 30
0.0
 10
94.71432131931594
 20
138.9752600128196
 30
0.0
 10
94.61378254680637
 20
138.9477153866147
 30
0.0
 10
94.55897779236536
 20
138.9149008671568
 30
0.0
 10
94.50194249104818
 20
138.8907806224562
 30
0.0
 10
94.45331458466315
 20
138.855063323207
 30
0.0
 10
94.40412848396727
 20
138.8366585430136
 30
0.0
 10
94.36968687059144
 20
138.803471434641
 30
0.0
 10
94.32982351245852
 20
138.783199316466
 30
0.0
 10
94.29807961262325
 20
138.7378244224516
 30
0.0
 10
94.26259893609147
 20
138.6954005407932
 30
0.0
 10
94.22143688768436
 20
138.6644329992157
 30
0.0
 10
94.18765464212496
 20
138.6319080202534
 30
0.0
 10
94.15666412920062
 20
138.5817122050694
 30
0.0
 10
94.13832255662951
 20
138.5150168303838
 30
0.0
 10
94.08662074222016
 20
138.4729077760987
 30
0.0
 10
94.07883606773703
 20
138.4222801284225
 30
0.0
 10
94.0502382175414
 20
138.3924106682319
 30
0.0
 10
94.03780287208546
 20
138.3538534862468
 30
0.0
 10
94.03306689396163
 20
138.3185282969261
 30
0.0
 10
94.02738259091918
 20
138.2855370154978
 30
0.0
 10
94.01251353068667
 20
138.25083164476
 30
0.0
 10
94.01736684324809
 20
138.207961365825
 30
0.0
 10
94.01598428020593
 20
138.1664486517985
 30
0.0
 10
94.01679792017915
 20
138.1104051951871
 30
0.0
 10
94.01386138083317
 20
138.0558399982676
 30
0.0
 10
94.03727913134821
 20
137.9964601220991
 30
0.0
 10
94.05113697895107
 20
137.9435311774326
 30
0.0
 10
94.08908894889464
 20
137.8702446351811
 30
0.0
 10
94.15455530171259
 20
137.7856878114723
 30
0.0
 10
94.27904504773005
 20
137.6830518481794
 30
0.0
 10
94.39874557828941
 20
137.6726399074622
 30
0.0
 10
94.4694717210196
 20
137.6664879179778
 30
0.0
 11
94.85375568256273
 21
138.9851100677077
 31
0.0
 11
94.67429904561544
 21
138.9633755182563
 31
0.0
 11
94.61991825948729
 21
138.947074969209
 31
0.0
 11
94.55466157247929
 21
138.9144733870593
 31
0.0
 11
94.50028078635114
 21
138.8873055632863
 31
0.0
 11
94.45677632834582
 21
138.8601374974858
 31
0.0
 11
94.39695759177778
 21
138.8275361573636
 31
0.0
 11
94.3697669850921
 21
138.8058018499398
 31
0.0
 11
94.33713842796663
 21
138.7840673004883
 31
0.0
 11
94.29907192040122
 21
138.7405986856405
 31
0.0
 11
94.25556746239591
 21
138.6916965544435
 31
0.0
 11
94.22293890527033
 21
138.6645284886431
 31
0.0
 11
94.19031077538789
 21
138.6319271485209
 31
0.0
 11
94.16312016870227
 21
138.5884585336731
 31
0.0
 11
94.13049203881991
 21
138.5178218530248
 31
0.0
 11
94.08698715357145
 21
138.4580524471022
 31
0.0
 11
94.0761112526917
 21
138.4254508649526
 31
0.0
 11
94.05435902368902
 21
138.3928495248303
 31
0.0
 11
94.03804474512629
 21
138.3493806679551
 31
0.0
 11
94.03260636744329
 21
138.3167793278329
 31
0.0
 11
94.02716841700339
 21
138.2896112620325
 31
0.0
 11
94.0162925161236
 21
138.2515764055612
 31
0.0
 11
94.0162925161236
 21
138.2081075486859
 31
0.0
 11
94.0162925161236
 21
138.1646389338381
 31
0.0
 11
94.0162925161236
 21
138.1266038353394
 31
0.0
 11
94.02173046656356
 21
138.0396666056437
 31
0.0
 11
94.03260636744329
 21
138.0070650234941
 31
0.0
 11
94.05435902368902
 21
137.9418621012223
 31
0.0
 11
94.0815492031316
 21
137.8875262116488
 31
0.0
 11
94.15224426782248
 21
137.795155465604
 31
0.0
 11
94.26644379051879
 21
137.7082179938809
 31
0.0
 11
94.4694717210196
 21
137.6664879179778
 31
0.0
  0
HATCH
  5
760
330
18
100
AcDbEntity
  8
ROGO
 62
     4
100
AcDbHatch
 10
0.0
 20
0.0
 30
0.0
210
0.0
220
0.0
230
1.0
  2
SOLID
 70
     1
 71
     1
 91
        2
 92
        7
 72
     0
 73
     1
 93
        8
 10
91.39575444911699
 20
138.9796328485354
 10
90.34535096634554
 20
138.9796328485353
 10
89.39841663624644
 20
137.6664879179778
 10
90.12566388793805
 20
137.6664879179778
 10
90.30595432551896
 20
137.9165025880687
 10
91.13583131430329
 20
137.9165025880687
 10
91.2468977373722
 20
137.6664879179778
 10
91.9791054595003
 20
137.6664879179779
 97
        8
330
77A
330
765
330
76C
330
76D
330
76F
330
769
330
76B
330
761
 92
       22
 72
     0
 73
     1
 93
        3
 10
91.01868620870272
 20
138.1802005997647
 10
90.49611208666405
 20
138.1802005997647
 10
90.81947882297729
 20
138.6286238715837
 97
        3
330
76E
330
770
330
76A
 75
     0
 76
     1
 47
0.0128389261915577
 98
        2
 10
91.31349955662125
 20
138.6645909317263
 10
91.31349955662125
 20
138.6645909317263
450
        0
451
        0
460
0.0
461
0.0
452
        0
462
0.0
453
        0
470

  0
LINE
  5
761
102
{ACAD_REACTORS
330
760
102
}
330
18
100
AcDbEntity
  8
ROGO
 62
     4
100
AcDbLine
 10
91.39575444911702
 20
138.9796328485353
 30
0.0
 11
91.97910545950032
 21
137.6664879179778
 31
0.0
  0
HATCH
  5
762
330
18
100
AcDbEntity
  8
ROGO
 62
     4
100
AcDbHatch
 10
0.0
 20
0.0
 30
0.0
210
0.0
220
0.0
230
1.0
  2
SOLID
 70
     1
 71
     1
 91
        1
 92
        5
 93
        8
 72
     1
 10
93.88091106197938
 20
138.4910577963184
 11
94.12453036252001
 21
138.9796328485354
 72
     1
 10
94.12453036252001
 20
138.9796328485354
 11
92.80949402041381
 21
138.9796328485354
 72
     4
 94
        3
 73
     0
 74
     0
 95
       26
 96
       22
 40
0.0
 40
0.0
 40
0.0
 40
0.0
 40
0.2382195346591896
 40
0.397689067266058
 40
0.5126795869787669
 40
0.5985392873135731
 40
0.7099038249249733
 40
0.7911890807494741
 40
0.9379713068543702
 40
1.057449928673087
 40
1.138714535893316
 40
1.218398644003506
 40
1.36093802187036
 40
1.461730374800257
 40
1.516014844108008
 40
1.593124329220501
 40
1.648806818593631
 40
1.729472362005518
 40
1.775122082164342
 40
1.874460993765092
 40
1.919820003751207
 40
1.919820003751207
 40
1.919820003751207
 40
1.919820003751207
 10
92.8094940204137
 20
138.9796328485353
 10
92.72863862965506
 20
138.9748088772702
 10
92.59365681558916
 20
138.9667556307735
 10
92.4454476048773
 20
138.8767201269152
 10
92.33686086046715
 20
138.8243774415728
 10
92.25941692604289
 20
138.7532220201531
 10
92.20265020817539
 20
138.6797236676318
 10
92.13108510347785
 20
138.5921509195064
 10
92.07272580557196
 20
138.4901759980419
 10
92.04300696303874
 20
138.3777818569785
 10
92.01668229438508
 20
138.2882030744196
 10
91.99715947941205
 20
138.1883792115272
 10
92.00212663622494
 20
138.0805343234049
 10
92.00923983210953
 20
137.9803735124011
 10
92.04099852203354
 20
137.9088736894745
 10
92.07716604442344
 20
137.8579707425451
 10
92.12145268027843
 20
137.8019067898464
 10
92.16991194459581
 20
137.7647758155161
 10
92.2099917117065
 20
137.6975105603756
 10
92.28014999196892
 20
137.6889270286993
 10
92.32474538604469
 20
137.6718432388223
 10
92.33872487450616
 20
137.6664879179778
 72
     1
 10
92.33872487450616
 20
137.6664879179778
 11
93.46975388951072
 21
137.6664879179778
 72
     1
 10
93.46975388951072
 20
137.6664879179778
 11
93.71337061018953
 21
138.1550577963185
 72
     1
 10
93.71337061018953
 20
138.1550577963185
 11
92.87368958931747
 21
138.1550577963185
 72
     4
 94
        3
 73
     0
 74
     0
 95
       16
 96
       12
 40
0.0
 40
0.0
 40
0.0
 40
0.0
 40
0.0719416665231651
 40
0.1446253590759065
 40
0.1879779149910977
 40
0.2295440936104405
 40
0.2751936323958134
 40
0.3070718656052443
 40
0.3373215422372259
 40
0.3986635435212919
 40
0.5242542460842631
 40
0.5242542460842631
 40
0.5242542460842631
 40
0.5242542460842631
 10
92.87368958931745
 20
138.1550577963185
 10
92.84836185064568
 20
138.162509588407
 10
92.79744513607671
 20
138.1774900324064
 10
92.79318381822902
 20
138.2501097215437
 10
92.79898924729081
 20
138.3018571925028
 10
92.82330239716804
 20
138.3395323732189
 10
92.85279846502863
 20
138.3669460242546
 10
92.86378115928028
 20
138.4026480184367
 10
92.89606378840437
 20
138.4296074907533
 10
92.95330953979544
 20
138.474922597729
 10
93.01661343100681
 20
138.4845737030145
 10
93.05914413862826
 20
138.4910577963185
 72
     1
 10
93.05914413862824
 20
138.4910577963185
 11
93.88091106197938
 21
138.4910577963184
 97
        8
330
779
330
763
330
768
330
777
330
767
330
766
330
778
330
764
 75
     0
 76
     1
 47
0.0514683685270805
 98
        1
 10
93.26941091762064
 20
138.6873113921884
450
        0
451
        0
460
0.0
461
0.0
452
        0
462
0.0
453
        0
470

  0
SPLINE
  5
763
102
{ACAD_REACTORS
330
762
102
}
330
18
100
AcDbEntity
  8
ROGO
 62
     4
100
AcDbSpline
210
0.0
220
0.0
230
1.0
 70
     8
 71
     3
 72
    26
 73
    22
 74
    20
 42
0.0000000001
 43
0.0000000001
 44
0.0000000001
 40
0.0
 40
0.0
 40
0.0
 40
0.0
 40
0.2382195346591896
 40
0.397689067266058
 40
0.5126795869787669
 40
0.5985392873135731
 40
0.7099038249249733
 40
0.7911890807494741
 40
0.9379713068543702
 40
1.057449928673087
 40
1.138714535893316
 40
1.218398644003506
 40
1.36093802187036
 40
1.461730374800257
 40
1.516014844108008
 40
1.593124329220501
 40
1.648806818593631
 40
1.729472362005518
 40
1.775122082164342
 40
1.874460993765092
 40
1.919820003751207
 40
1.919820003751207
 40
1.919820003751207
 40
1.919820003751207
 10
92.8094940204137
 20
138.9796328485353
 30
0.0
 10
92.72863862965504
 20
138.9748088772702
 30
0.0
 10
92.59365681558909
 20
138.9667556307735
 30
0.0
 10
92.44544760487732
 20
138.8767201269152
 30
0.0
 10
92.33686086046709
 20
138.8243774415728
 30
0.0
 10
92.25941692604292
 20
138.7532220201531
 30
0.0
 10
92.20265020817535
 20
138.6797236676318
 30
0.0
 10
92.13108510347785
 20
138.5921509195064
 30
0.0
 10
92.07272580557196
 20
138.4901759980418
 30
0.0
 10
92.04300696303874
 20
138.3777818569785
 30
0.0
 10
92.01668229438507
 20
138.2882030744196
 30
0.0
 10
91.99715947941204
 20
138.1883792115272
 30
0.0
 10
92.00212663622499
 20
138.0805343234049
 30
0.0
 10
92.0092398321095
 20
137.9803735124011
 30
0.0
 10
92.04099852203352
 20
137.9088736894745
 30
0.0
 10
92.07716604442344
 20
137.8579707425451
 30
0.0
 10
92.12145268027843
 20
137.8019067898464
 30
0.0
 10
92.16991194459584
 20
137.7647758155161
 30
0.0
 10
92.20999171170646
 20
137.6975105603755
 30
0.0
 10
92.28014999196892
 20
137.6889270286993
 30
0.0
 10
92.32474538604471
 20
137.6718432388223
 30
0.0
 10
92.33872487450616
 20
137.6664879179778
 30
0.0
 11
92.8094940204137
 21
138.9796328485353
 31
0.0
 11
92.57410944745988
 21
138.9429906664416
 31
0.0
 11
92.43145194408487
 21
138.8717209775082
 31
0.0
 11
92.331591896799
 21
138.8147052728308
 31
0.0
 11
92.26739632789525
 21
138.7576893358069
 31
0.0
 11
92.19606778128451
 21
138.6721656626176
 31
0.0
 11
92.14613775764155
 21
138.6080229658122
 31
0.0
 11
92.07480880087734
 21
138.479737339855
 31
0.0
 11
92.03914473264859
 21
138.3657056981537
 31
0.0
 11
92.01774620968075
 21
138.2873090170923
 31
0.0
 11
92.00348025426649
 21
138.2089123360309
 31
0.0
 11
92.00348025426649
 21
138.0663729581641
 31
0.0
 11
92.01774620968075
 21
137.9665953007188
 31
0.0
 11
92.03914473264859
 21
137.916706355823
 31
0.0
 11
92.08194177858439
 21
137.8525636590175
 31
0.0
 11
92.11760625696655
 21
137.8098017062497
 31
0.0
 11
92.17466884816309
 21
137.7527860015722
 31
0.0
 11
92.20320034883821
 21
137.7171510409323
 31
0.0
 11
92.2959278285703
 21
137.6815163126388
 31
0.0
 11
92.33872487450616
 21
137.6664879179778
 31
0.0
  0
LINE
  5
764
102
{ACAD_REACTORS
330
762
102
}
330
18
100
AcDbEntity
  8
ROGO
 62
     4
100
AcDbLine
 10
94.12453036251998
 20
138.9796328485353
 30
0.0
 11
93.88091106197936
 21
138.4910577963185
 31
0.0
  0
LINE
  5
765
102
{ACAD_REACTORS
330
760
102
}
330
18
100
AcDbEntity
  8
ROGO
 62
     4
100
AcDbLine
 10
90.34535096634556
 20
138.9796328485353
 30
0.0
 11
89.39841663624646
 21
137.6664879179778
 31
0.0
  0
SPLINE
  5
766
102
{ACAD_REACTORS
330
762
102
}
330
18
100
AcDbEntity
  8
ROGO
 62
     4
100
AcDbSpline
210
0.0
220
0.0
230
1.0
 70
     8
 71
     3
 72
    16
 73
    12
 74
    10
 42
0.0000000001
 43
0.0000000001
 44
0.0000000001
 40
0.0
 40
0.0
 40
0.0
 40
0.0
 40
0.1255907025629711
 40
0.1869327038470372
 40
0.2171823804790188
 40
0.2490606136884497
 40
0.2947101524738226
 40
0.3362763310931653
 40
0.3796288870083566
 40
0.452312579561098
 40
0.5242542460842631
 40
0.5242542460842631
 40
0.5242542460842631
 40
0.5242542460842631
 10
93.05914413862826
 20
138.4910577963185
 30
0.0
 10
93.01661343100684
 20
138.4845737030145
 30
0.0
 10
92.95330953979549
 20
138.474922597729
 30
0.0
 10
92.89606378840433
 20
138.4296074907533
 30
0.0
 10
92.86378115928028
 20
138.4026480184367
 30
0.0
 10
92.85279846502866
 20
138.3669460242546
 30
0.0
 10
92.82330239716804
 20
138.3395323732189
 30
0.0
 10
92.7989892472908
 20
138.3018571925028
 30
0.0
 10
92.79318381822903
 20
138.2501097215437
 30
0.0
 10
92.79744513607671
 20
138.1774900324064
 30
0.0
 10
92.84836185064573
 20
138.162509588407
 30
0.0
 10
92.87368958931745
 20
138.1550577963185
 30
0.0
 11
93.05914413862826
 21
138.4910577963185
 31
0.0
 11
92.9378855683745
 21
138.4583563634711
 31
0.0
 11
92.88795554473159
 21
138.4227216351775
 31
0.0
 11
92.86655702176375
 21
138.4013406587935
 31
0.0
 11
92.85229106634949
 21
138.3728326902816
 31
0.0
 11
92.82375956567449
 21
138.3371979619882
 31
0.0
 11
92.80236104270654
 21
138.3015630013483
 31
0.0
 11
92.79522806499944
 21
138.2588012809268
 31
0.0
 11
92.8094940204137
 21
138.187531359647
 31
0.0
 11
92.87368958931745
 21
138.1550577963185
 31
0.0
  0
LINE
  5
767
102
{ACAD_REACTORS
330
762
102
}
330
18
100
AcDbEntity
  8
ROGO
 62
     4
100
AcDbLine
 10
92.8736895893174
 20
138.1550577963185
 30
0.0
 11
93.71337061018953
 21
138.1550577963185
 31
0.0
  0
LINE
  5
768
102
{ACAD_REACTORS
330
762
102
}
330
18
100
AcDbEntity
  8
ROGO
 62
     4
100
AcDbLine
 10
92.33872487450611
 20
137.6664879179778
 30
0.0
 11
93.46975388951074
 21
137.6664879179778
 31
0.0
  0
LINE
  5
769
102
{ACAD_REACTORS
330
760
102
}
330
18
100
AcDbEntity
  8
ROGO
 62
     4
100
AcDbLine
 10
91.13583131430329
 20
137.9165025880687
 30
0.0
 11
91.2468977373722
 21
137.6664879179778
 31
0.0
  0
LINE
  5
76A
102
{ACAD_REACTORS
330
760
102
}
330
18
100
AcDbEntity
  8
ROGO
 62
     4
100
AcDbLine
 10
90.81947882297731
 20
138.6286238715836
 30
0.0
 11
91.01868620870272
 21
138.1802005997647
 31
0.0
  0
LINE
  5
76B
102
{ACAD_REACTORS
330
760
102
}
330
18
100
AcDbEntity
  8
ROGO
 62
     4
100
AcDbLine
 10
91.97910545950032
 20
137.6664879179779
 30
0.0
 11
91.2468977373722
 21
137.6664879179778
 31
0.0
  0
LINE
  5
76C
102
{ACAD_REACTORS
330
760
102
}
330
18
100
AcDbEntity
  8
ROGO
 62
     4
100
AcDbLine
 10
89.39841663624646
 20
137.6664879179778
 30
0.0
 11
90.125663887938
 21
137.6664879179778
 31
0.0
  0
LINE
  5
76D
102
{ACAD_REACTORS
330
760
102
}
330
18
100
AcDbEntity
  8
ROGO
 62
     4
100
AcDbLine
 10
90.30595432551894
 20
137.9165025880687
 30
0.0
 11
90.12566388793805
 21
137.6664879179779
 31
0.0
  0
LINE
  5
76E
102
{ACAD_REACTORS
330
760
102
}
330
18
100
AcDbEntity
  8
ROGO
 62
     4
100
AcDbLine
 10
90.49611208666403
 20
138.1802005997647
 30
0.0
 11
91.01868620870272
 21
138.1802005997647
 31
0.0
  0
LINE
  5
76F
102
{ACAD_REACTORS
330
760
102
}
330
18
100
AcDbEntity
  8
ROGO
 62
     4
100
AcDbLine
 10
90.30595432551894
 20
137.9165025880687
 30
0.0
 11
91.13583131430329
 21
137.9165025880687
 31
0.0
  0
LINE
  5
770
102
{ACAD_REACTORS
330
760
102
}
330
18
100
AcDbEntity
  8
ROGO
 62
     4
100
AcDbLine
 10
90.81947882297725
 20
138.6286238715836
 30
0.0
 11
90.49611208666403
 21
138.1802005997647
 31
0.0
  0
LINE
  5
771
102
{ACAD_REACTORS
330
735
102
}
330
18
100
AcDbEntity
  8
ROGO
 62
     4
100
AcDbLine
 10
89.32995151109663
 20
137.9672751179779
 30
0.0
 11
89.1811248018878
 21
137.6664879179778
 31
0.0
  0
LINE
  5
772
102
{ACAD_REACTORS
330
735
102
}
330
18
100
AcDbEntity
  8
ROGO
 62
     4
100
AcDbLine
 10
89.56565265933681
 20
138.4436404746591
 30
0.0
 11
89.44632628371294
 21
138.2024751179779
 31
0.0
  0
ELLIPSE
  5
773
102
{ACAD_REACTORS
330
75D
102
}
330
18
100
AcDbEntity
  8
ROGO
 62
     4
100
AcDbEllipse
 10
95.02621407719345
 20
138.3074140754886
 30
0.0
 11
0.1782847090673272
 21
0.1567790921840611
 31
0.0
210
0.0
220
0.0
230
0.9999999999999998
 40
0.6788083417438792
 41
0.0
 42
6.283185307179586
  0
SPLINE
  5
774
102
{ACAD_REACTORS
330
75D
102
}
330
18
100
AcDbEntity
  8
ROGO
 62
     4
100
AcDbSpline
210
0.0
220
0.0
230
1.0
 70
     8
 71
     3
 72
     9
 73
     5
 74
     3
 42
0.0000000001
 43
0.0000000001
 44
0.0000000001
 40
0.0
 40
0.0
 40
0.0
 40
0.0
 40
0.1135793343552172
 40
0.2662938392177403
 40
0.2662938392177403
 40
0.2662938392177403
 40
0.2662938392177403
 10
95.46994300282296
 20
137.6957643648865
 30
0.0
 10
95.50642797114097
 20
137.7069267046097
 30
0.0
 10
95.59196925681842
 20
137.7330975068636
 30
0.0
 10
95.66264595405518
 20
137.7884098246381
 30
0.0
 10
95.70317770971104
 20
137.820130397846
 30
0.0
 11
95.46994300282296
 21
137.6957643648865
 31
0.0
 11
95.57669376704764
 21
137.7345527591562
 31
0.0
 11
95.70317770971104
 21
137.820130397846
 31
0.0
  0
SPLINE
  5
775
102
{ACAD_REACTORS
330
75D
102
}
330
18
100
AcDbEntity
  8
ROGO
 62
     4
100
AcDbSpline
210
0.0
220
0.0
230
1.0
 70
     8
 71
     3
 72
    11
 73
     7
 74
     0
 42
0.0000000001
 43
0.0000000001
 40
0.1647869275458134
 40
0.1647869275458134
 40
0.1647869275458134
 40
0.1647869275458134
 40
0.2895635144633836
 40
0.5387013147903714
 40
0.7953622617455423
 40
0.8850764140209602
 40
0.8850764140209602
 40
0.8850764140209602
 40
0.8850764140209602
 10
95.46994300282296
 20
137.6957643648865
 30
0.0
 10
95.45596446002212
 20
137.69187343217
 30
0.0
 10
95.41262344858791
 20
137.684945842386
 30
0.0
 10
95.33992468144981
 20
137.6754334480127
 30
0.0
 10
95.27082813935345
 20
137.6655069174281
 30
0.0
 10
95.23039744452489
 20
137.6662861023349
 30
0.0
 10
95.21992554420496
 20
137.6664879179778
 30
0.0
  0
LINE
  5
776
102
{ACAD_REACTORS
330
75D
102
}
330
18
100
AcDbEntity
  8
ROGO
 62
     4
100
AcDbLine
 10
94.4694717210196
 20
137.6664879179778
 30
0.0
 11
95.21992554420496
 21
137.6664879179778
 31
0.0
  0
LINE
  5
777
102
{ACAD_REACTORS
330
762
102
}
330
18
100
AcDbEntity
  8
ROGO
 62
     4
100
AcDbLine
 10
93.71337061018953
 20
138.1550577963185
 30
0.0
 11
93.46975388951074
 21
137.6664879179778
 31
0.0
  0
LINE
  5
778
102
{ACAD_REACTORS
330
762
102
}
330
18
100
AcDbEntity
  8
ROGO
 62
     4
100
AcDbLine
 10
93.0591441386282
 20
138.4910577963185
 30
0.0
 11
93.88091106197936
 21
138.4910577963185
 31
0.0
  0
LINE
  5
779
102
{ACAD_REACTORS
330
762
102
}
330
18
100
AcDbEntity
  8
ROGO
 62
     4
100
AcDbLine
 10
92.80949402041409
 20
138.9796328485354
 30
0.0
 11
94.12453036251998
 21
138.9796328485354
 31
0.0
  0
LINE
  5
77A
102
{ACAD_REACTORS
330
760
102
}
330
18
100
AcDbEntity
  8
ROGO
 62
     4
100
AcDbLine
 10
90.34535096634556
 20
138.9796328485353
 30
0.0
 11
91.39575444911702
 21
138.9796328485354
 31
0.0
  0
LINE
  5
77B
102
{ACAD_REACTORS
330
735
102
}
330
18
100
AcDbEntity
  8
ROGO
 62
     4
100
AcDbLine
 10
89.83085670114787
 20
138.9796328485353
 30
0.0
 11
89.68202250541333
 21
138.6788305178432
 31
0.0
  0
LINE
  5
77C
102
{ACAD_REACTORS
330
75D
102
}
330
18
100
AcDbEntity
  8
ROGO
 62
     4
100
AcDbLine
 10
94.85375568256273
 20
138.9851100677077
 30
0.0
 11
95.60420950574808
 21
138.9851100677077
 31
0.0
  0
HATCH
  5
77D
330
18
100
AcDbEntity
  8
ROGO
 62
     4
100
AcDbHatch
 10
0.0
 20
0.0
 30
0.0
210
0.0
220
0.0
230
1.0
  2
SOLID
 70
     1
 71
     1
 91
        1
 92
        7
 72
     0
 73
     1
 93
       11
 10
97.60749423090011
 20
136.9277540636294
 10
98.36357797340433
 20
136.9277540636294
 10
98.63062726257
 20
137.4633176257489
 10
98.89767655173571
 20
136.9277540636293
 10
99.65374375173563
 20
136.9277540636294
 10
99.14217723590077
 20
137.9536934560823
 10
100.385085981232
 20
138.9796328485353
 10
99.62901878123197
 20
138.9796328485353
 10
99.27500569815316
 20
138.7556094397137
 10
99.38671100507415
 20
138.9796328485353
 10
98.63062726256998
 20
138.9796328485353
 97
       11
330
78A
330
78B
330
78C
330
78D
330
77F
330
73D
330
782
330
784
330
781
330
783
330
77E
 75
     0
 76
     1
 47
0.0514683685270805
 98
        1
 10
98.56555601616612
 20
138.0993368650938
450
        0
451
        0
460
0.0
461
0.0
452
        0
462
0.0
453
        0
470

  0
LINE
  5
77E
102
{ACAD_REACTORS
330
77D
102
}
330
18
100
AcDbEntity
  8
ROGO
 62
     4
100
AcDbLine
 10
99.14217723590077
 20
137.9536934560823
 30
0.0
 11
100.385085981232
 21
138.9796328485353
 31
0.0
  0
LINE
  5
77F
102
{ACAD_REACTORS
330
734
330
77D
102
}
330
18
100
AcDbEntity
  8
ROGO
 62
     4
100
AcDbLine
 10
98.63062726256998
 20
138.9796328485353
 30
0.0
 11
97.60749423090011
 21
136.9277540636294
 31
0.0
  0
LINE
  5
780
102
{ACAD_REACTORS
330
75A
102
}
330
18
100
AcDbEntity
  8
ROGO
 62
     4
100
AcDbLine
 10
98.35560013344782
 20
138.9796328485353
 30
0.0
 11
98.11198083290726
 21
138.4910577963185
 31
0.0
  0
LINE
  5
781
102
{ACAD_REACTORS
330
77D
102
}
330
18
100
AcDbEntity
  8
ROGO
 62
     4
100
AcDbLine
 10
98.89767655173569
 20
136.9277540636294
 30
0.0
 11
99.65374375173565
 21
136.9277540636294
 31
0.0
  0
LINE
  5
782
102
{ACAD_REACTORS
330
77D
102
}
330
18
100
AcDbEntity
  8
ROGO
 62
     4
100
AcDbLine
 10
98.63062726256998
 20
137.4633176257489
 30
0.0
 11
98.36357797340435
 21
136.9277540636294
 31
0.0
  0
LINE
  5
783
102
{ACAD_REACTORS
330
77D
102
}
330
18
100
AcDbEntity
  8
ROGO
 62
     4
100
AcDbLine
 10
99.14217723590077
 20
137.9536934560823
 30
0.0
 11
99.65374375173565
 21
136.9277540636294
 31
0.0
  0
LINE
  5
784
102
{ACAD_REACTORS
330
77D
102
}
330
18
100
AcDbEntity
  8
ROGO
 62
     4
100
AcDbLine
 10
98.63062726256998
 20
137.4633176257489
 30
0.0
 11
98.89767655173569
 21
136.9277540636294
 31
0.0
  0
LINE
  5
785
102
{ACAD_REACTORS
330
75A
102
}
330
18
100
AcDbEntity
  8
ROGO
 62
     4
100
AcDbLine
 10
97.29021390955603
 20
138.4910577963185
 30
0.0
 11
98.11198083290726
 21
138.4910577963185
 31
0.0
  0
LINE
  5
786
102
{ACAD_REACTORS
330
75A
102
}
330
18
100
AcDbEntity
  8
ROGO
 62
     4
100
AcDbLine
 10
97.10475936024529
 20
138.1550577963185
 30
0.0
 11
97.94444038111743
 21
138.1550577963185
 31
0.0
  0
LINE
  5
787
102
{ACAD_REACTORS
330
75A
102
}
330
18
100
AcDbEntity
  8
ROGO
 62
     4
100
AcDbLine
 10
97.94444038111743
 20
138.1550577963185
 30
0.0
 11
97.70082366043858
 21
137.6664879179778
 31
0.0
  0
SPLINE
  5
788
102
{ACAD_REACTORS
330
75A
102
}
330
18
100
AcDbEntity
  8
ROGO
 62
     4
100
AcDbSpline
210
0.0
220
0.0
230
1.0
 70
     8
 71
     3
 72
    16
 73
    12
 74
    10
 42
0.0000000001
 43
0.0000000001
 44
0.0000000001
 40
0.0
 40
0.0
 40
0.0
 40
0.0
 40
0.1255907025629163
 40
0.1869327038470616
 40
0.217182380479003
 40
0.2490606136884339
 40
0.2947101524738157
 40
0.3362763310931585
 40
0.3796288870082937
 40
0.4523125795610796
 40
0.5242542460842448
 40
0.5242542460842448
 40
0.5242542460842448
 40
0.5242542460842448
 10
97.29021390955608
 20
138.4910577963185
 30
0.0
 10
97.24768320193465
 20
138.4845737030145
 30
0.0
 10
97.18437931072328
 20
138.4749225977289
 30
0.0
 10
97.12713355933225
 20
138.4296074907532
 30
0.0
 10
97.09485093020809
 20
138.4026480184367
 30
0.0
 10
97.08386823595649
 20
138.3669460242546
 30
0.0
 10
97.05437216809595
 20
138.3395323732188
 30
0.0
 10
97.03005901821869
 20
138.3018571925028
 30
0.0
 10
97.02425358915693
 20
138.2501097215436
 30
0.0
 10
97.02851490700446
 20
138.1774900324063
 30
0.0
 10
97.07943162157356
 20
138.162509588407
 30
0.0
 10
97.10475936024529
 20
138.1550577963184
 30
0.0
 11
97.29021390955608
 21
138.4910577963185
 31
0.0
 11
97.16895533930239
 21
138.4583563634711
 31
0.0
 11
97.11902531565943
 21
138.4227216351775
 31
0.0
 11
97.09762679269159
 21
138.4013406587935
 31
0.0
 11
97.08336083727733
 21
138.3728326902816
 31
0.0
 11
97.05482933660238
 21
138.3371979619881
 31
0.0
 11
97.03343081363442
 21
138.3015630013482
 31
0.0
 11
97.02629783592733
 21
138.2588012809268
 31
0.0
 11
97.04056379134152
 21
138.187531359647
 31
0.0
 11
97.10475936024529
 21
138.1550577963184
 31
0.0
  0
TEXT
  5
789
330
18
100
AcDbEntity
  8
文字
100
AcDbText
 10
100.3569279866004
 20
140.7793901715742
 30
0.0
 40
2.5
  1
10
  7
STYLE3
100
AcDbText
  0
LINE
  5
78A
102
{ACAD_REACTORS
330
77D
102
}
330
18
100
AcDbEntity
  8
ROGO
 62
     4
100
AcDbLine
 10
99.62901878123199
 20
138.9796328485353
 30
0.0
 11
100.385085981232
 21
138.9796328485353
 31
0.0
  0
LINE
  5
78B
102
{ACAD_REACTORS
330
77D
102
}
330
18
100
AcDbEntity
  8
ROGO
 62
     4
100
AcDbLine
 10
99.27500569815316
 20
138.7556094397137
 30
0.0
 11
99.62901878123199
 21
138.9796328485353
 31
0.0
  0
LINE
  5
78C
102
{ACAD_REACTORS
330
77D
102
}
330
18
100
AcDbEntity
  8
ROGO
 62
     4
100
AcDbLine
 10
99.38671100507418
 20
138.9796328485353
 30
0.0
 11
99.27500569815316
 21
138.7556094397137
 31
0.0
  0
LINE
  5
78D
102
{ACAD_REACTORS
330
77D
102
}
330
18
100
AcDbEntity
  8
ROGO
 62
     4
100
AcDbLine
 10
98.63062726256998
 20
138.9796328485353
 30
0.0
 11
99.38671100507418
 21
138.9796328485353
 31
0.0
  0
LINE
  5
78E
102
{ACAD_REACTORS
330
75A
102
}
330
18
100
AcDbEntity
  8
ROGO
 62
     4
100
AcDbLine
 10
97.04056379134186
 20
138.9796328485353
 30
0.0
 11
98.35560013344782
 21
138.9796328485353
 31
0.0
  0
LINE
  5
78F
330
18
100
AcDbEntity
  8
目盛
100
AcDbLine
 10
89.27436298933617
 20
150.778515206073
 30
0.0
 11
89.48742948639551
 21
149.0919202138385
 31
0.0
  0
LINE
  5
790
330
18
100
AcDbEntity
  8
目盛
100
AcDbLine
 10
90.71284541214101
 20
150.9144918296902
 30
0.0
 11
90.8195892953408
 21
149.2178463913622
 31
0.0
  0
LINE
  5
791
330
18
100
AcDbEntity
  8
目盛
100
AcDbLine
 10
92.15702736131504
 20
150.95987707584
 30
0.0
 11
92.15702736131504
 21
148.25987707584
 31
0.0
  0
LINE
  5
792
330
18
100
AcDbEntity
  8
目盛
100
AcDbLine
 10
93.60120931048948
 20
150.9144918296903
 30
0.0
 11
93.49446542728959
 21
149.2178463913622
 31
0.0
  0
LINE
  5
793
330
18
100
AcDbEntity
  8
目盛
100
AcDbLine
 10
95.03969173329426
 20
150.778515206073
 30
0.0
 11
94.82662523623492
 21
149.0919202138384
 31
0.0
  0
LINE
  5
794
330
18
100
AcDbEntity
  8
目盛
100
AcDbLine
 10
96.46679759678683
 20
150.5524838425998
 30
0.0
 11
96.14824936199113
 21
148.8825955163611
 31
0.0
  0
TEXT
  5
795
330
18
100
AcDbEntity
  8
文字
100
AcDbText
 10
90.94271683886608
 20
144.70088493951
 30
0.0
 40
2.5
  1
0
  7
STYLE3
100
AcDbText
  0
LINE
  5
796
330
18
100
AcDbEntity
  8
針
100
AcDbLine
 10
92.15702736131493
 20
149.9598770758401
 30
0.0
 11
92.06702736131502
 21
149.9598770758401
 31
0.0
  0
LINE
  5
797
330
18
100
AcDbEntity
  8
針
100
AcDbLine
 10
92.15702736131504
 20
149.9598770758401
 30
0.0
 11
92.24702736131495
 21
149.9598770758401
 31
0.0
  0
LINE
  5
798
330
18
100
AcDbEntity
  8
目盛
100
AcDbLine
 10
99.26441823193886
 20
149.8341769506285
 30
0.0
 11
98.43007234712651
 21
147.2663243566316
 31
0.0
  0
LINE
  5
799
330
18
100
AcDbEntity
  8
目盛
100
AcDbLine
 10
100.6238920730628
 20
149.3447362512697
 30
0.0
 11
99.99808033349882
 21
147.7641162252597
 31
0.0
  0
LINE
  5
79A
330
18
100
AcDbEntity
  8
目盛
100
AcDbLine
 10
97.87689476610683
 20
150.2372897817985
 30
0.0
 11
97.4541219579266
 21
148.5906984078798
 31
0.0
  0
LINE
  5
79B
330
18
100
AcDbEntity
  8
目盛
100
AcDbLine
 10
101.9499510673119
 20
148.7708992825584
 30
0.0
 11
101.2261262716512
 21
147.2326932933662
 31
0.0
  0
LINE
  5
79C
330
18
100
AcDbEntity
  8
目盛
100
AcDbLine
 10
103.2373618656545
 20
148.1149307168488
 30
0.0
 11
102.4183806196816
 21
146.6252093607743
 31
0.0
  0
LINE
  5
79D
330
18
100
AcDbEntity
  8
目盛
100
AcDbLine
 10
104.4810436458321
 20
147.3794193623862
 30
0.0
 11
103.5701380943678
 21
145.9440618890328
 31
0.0
  0
TEXT
  5
7AF
330
18
100
AcDbEntity
  8
文字
100
AcDbText
 10
107.311631797176
 20
131.1890441628017
 30
0.0
 40
2.5
  1
20
  7
STYLE3
100
AcDbText
  0
LINE
  5
7B1
330
18
100
AcDbEntity
  8
目盛
100
AcDbLine
 10
114.0313272361035
 20
120.8524862052163
 30
0.0
 11
111.4634746421066
 21
121.6868320900286
 31
0.0
  0
TEXT
  5
7B2
330
18
100
AcDbEntity
  8
文字
100
AcDbText
 10
106.5438997545352
 20
120.7110480048043
 30
0.0
 40
2.5
  1
30
  7
STYLE3
100
AcDbText
  0
LINE
  5
7B3
330
18
100
AcDbEntity
  8
目盛
100
AcDbLine
 10
113.5418865367447
 20
119.4930123640922
 30
0.0
 11
111.9612665107347
 21
120.1188241036562
 31
0.0
  0
LINE
  5
7B4
330
18
100
AcDbEntity
  8
目盛
100
AcDbLine
 10
110.7644182319388
 20
114.4408162731131
 30
0.0
 11
108.5800723471264
 21
116.0278364543028
 31
0.0
  0
LINE
  5
7B5
330
18
100
AcDbEntity
  8
目盛
100
AcDbLine
 10
109.8788319451581
 20
113.29912531162
 30
0.0
 11
108.5689594324392
 21
114.3827460941928
 31
0.0
  0
LINE
  5
7B6
330
18
100
AcDbEntity
  8
目盛
100
AcDbLine
 10
108.9233057920074
 20
112.21529363948
 30
0.0
 11
107.684059125391
 21
113.3790237195588
 31
0.0
  0
LINE
  5
7B7
330
18
100
AcDbEntity
  8
目盛
100
AcDbLine
 10
107.9016107976747
 20
111.1935986451475
 30
0.0
 11
106.737880717596
 21
112.4328453117639
 31
0.0
  0
LINE
  5
7B8
330
18
100
AcDbEntity
  8
目盛
100
AcDbLine
 10
106.8177791255347
 20
110.2380724919968
 30
0.0
 11
105.734158342962
 21
111.5479450047156
 31
0.0
  0
LINE
  5
7B9
330
18
100
AcDbEntity
  8
目盛
100
AcDbLine
 10
112.9680495680334
 20
118.1669533698432
 30
0.0
 11
111.4298435788411
 21
118.8907781655039
 31
0.0
  0
LINE
  5
7BA
330
18
100
AcDbEntity
  8
目盛
100
AcDbLine
 10
112.3120810023238
 20
116.8795425715005
 30
0.0
 11
110.8223596462492
 21
117.6985238174734
 31
0.0
  0
LINE
  5
7BB
330
18
100
AcDbEntity
  8
目盛
100
AcDbLine
 10
111.5765696478613
 20
115.635860791323
 30
0.0
 11
110.1412121745078
 21
116.5467663427873
 31
0.0
  0
LINE
  5
7BC
330
18
100
AcDbEntity
  8
目盛
100
AcDbLine
 10
114.749634128075
 20
132.2696473113115
 30
0.0
 11
113.0797458018362
 21
131.9510990765158
 31
0.0
  0
LINE
  5
7BD
330
18
100
AcDbEntity
  8
目盛
100
AcDbLine
 10
114.975665491548
 20
130.8425414478189
 30
0.0
 11
113.2890704993135
 21
130.6294749507595
 31
0.0
  0
LINE
  5
7BE
330
18
100
AcDbEntity
  8
目盛
100
AcDbLine
 10
115.1116421151653
 20
129.4040590250141
 30
0.0
 11
113.4149966768373
 21
129.2973151418143
 31
0.0
  0
LINE
  5
7BF
330
18
100
AcDbEntity
  8
目盛
100
AcDbLine
 10
114.975665491548
 20
125.0772127038608
 30
0.0
 11
113.2890704993134
 21
125.2902792009201
 31
0.0
  0
LINE
  5
7C0
330
18
100
AcDbEntity
  8
目盛
100
AcDbLine
 10
114.7496341280748
 20
123.6501068403683
 30
0.0
 11
113.0797458018361
 21
123.9686550751639
 31
0.0
  0
LINE
  5
7C1
330
18
100
AcDbEntity
  8
目盛
100
AcDbLine
 10
114.4344400672735
 20
122.2400096710482
 30
0.0
 11
112.7878486933548
 21
122.6627824792285
 31
0.0
  0
LINE
  5
7C2
330
18
100
AcDbEntity
  8
目盛
100
AcDbLine
 10
115.157027361315
 20
127.95987707584
 30
0.0
 11
112.457027361315
 21
127.95987707584
 31
0.0
  0
LINE
  5
7C3
330
18
100
AcDbEntity
  8
目盛
100
AcDbLine
 10
115.1116421151653
 20
126.5156951266656
 30
0.0
 11
113.4149966768372
 21
126.6224390098655
 31
0.0
  0
LINE
  5
7C5
330
18
100
AcDbEntity
  8
目盛
100
AcDbLine
 10
107.901610797675
 20
144.7261555065323
 30
0.0
 11
106.7378807175963
 21
143.4869088399159
 31
0.0
  0
LINE
  5
7C6
330
18
100
AcDbEntity
  8
目盛
100
AcDbLine
 10
106.8177791255351
 20
145.681681659683
 30
0.0
 11
105.7341583429623
 21
144.3718091469642
 31
0.0
  0
LINE
  5
7C7
330
18
100
AcDbEntity
  8
目盛
100
AcDbLine
 10
113.5418865367448
 20
136.4267417875875
 30
0.0
 11
111.9612665107348
 21
135.8009300480235
 31
0.0
  0
LINE
  5
7C8
330
18
100
AcDbEntity
  8
目盛
100
AcDbLine
 10
114.0313272361036
 20
135.0672679464638
 30
0.0
 11
111.4634746421067
 21
134.2329220616515
 31
0.0
  0
LINE
  5
7C9
330
18
100
AcDbEntity
  8
目盛
100
AcDbLine
 10
114.4344400672737
 20
133.6797444806315
 30
0.0
 11
112.787848693355
 21
133.2569716724513
 31
0.0
  0
LINE
  5
7CA
330
18
100
AcDbEntity
  8
目盛
100
AcDbLine
 10
112.3120810023241
 20
139.0402115801793
 30
0.0
 11
110.8223596462495
 21
138.2212303342064
 31
0.0
  0
LINE
  5
7CB
330
18
100
AcDbEntity
  8
目盛
100
AcDbLine
 10
112.9680495680335
 20
137.7528007818366
 30
0.0
 11
111.4298435788413
 21
137.0289759861759
 31
0.0
  0
LINE
  5
7CC
330
18
100
AcDbEntity
  8
目盛
100
AcDbLine
 10
109.8788319451583
 20
142.6206288400598
 30
0.0
 11
108.5689594324394
 21
141.537008057487
 31
0.0
  0
LINE
  5
7CD
330
18
100
AcDbEntity
  8
目盛
100
AcDbLine
 10
110.7644182319388
 20
141.4789378785668
 30
0.0
 11
108.5800723471264
 21
139.8919176973772
 31
0.0
  0
LINE
  5
7CE
330
18
100
AcDbEntity
  8
目盛
100
AcDbLine
 10
108.9233057920075
 20
143.7044605121998
 30
0.0
 11
107.6840591253913
 21
142.540730432121
 31
0.0
  0
LINE
  5
7CF
330
18
100
AcDbEntity
  8
目盛
100
AcDbLine
 10
111.5765696478615
 20
140.2838933603567
 30
0.0
 11
110.1412121745081
 21
139.3729878088925
 31
0.0
  0
ARC
  5
7D1
330
18
100
AcDbEntity
  8
外形線
100
AcDbCircle
 10
114.2698809784262
 20
153.1740576851128
 30
0.0
 40
2.0
100
AcDbArc
 50
109.819764108933
 51
163.8903520418817
  0
LINE
  5
7D2
330
18
100
AcDbEntity
  8
外形線
100
AcDbLine
 10
106.8711129160508
 20
149.8791764781457
 30
0.0
 11
111.1849265098437
 21
155.4509906144386
 31
0.0
  0
LINE
  5
7D3
330
18
100
AcDbEntity
  8
外形線
100
AcDbLine
 10
110.4135473998001
 20
147.0297348646226
 30
0.0
 11
112.6316094332003
 21
154.7095371813778
 31
0.0
  0
ARC
  5
7D4
330
18
100
AcDbEntity
  8
外形線
100
AcDbCircle
 10
111.0541188642278
 20
152.0150588765295
 30
0.0
 40
2.0
100
AcDbArc
 50
109.8197641089328
 51
142.2522235389748
  0
LINE
  5
7D5
330
18
100
AcDbEntity
  8
0
  6
ByBlock
 62
     2
100
AcDbLine
 10
13.44820704684974
 20
182.8689954771602
 30
0.0
 11
29.14820704684985
 21
182.8689954771602
 31
0.0
  0
MTEXT
  5
7D6
330
18
100
AcDbEntity
  8
0
  6
ByBlock
 62
     6
100
AcDbMText
 10
24.39820704684979
 20
178.8668920501499
 30
0.0
 40
2.5
 41
0.0
 71
     5
 72
     1
  1
\A1;14.5
  7
STYLE3
 73
     1
 44
1.0
  0
LINE
  5
7D7
330
18
100
AcDbEntity
  8
0
  6
ByBlock
 62
     2
100
AcDbLine
 10
19.64820704684973
 20
176.9918920501499
 30
0.0
 11
29.14820704684985
 21
176.9918920501499
 31
0.0
  0
LINE
  5
7D8
330
18
100
AcDbEntity
  8
0
  6
ByBlock
 62
     2
100
AcDbLine
 10
19.64820704684973
 20
176.9918920501499
 30
0.0
 11
28.51725466589733
 21
176.9918920501499
 31
0.0
  0
LINE
  5
7D9
330
18
100
AcDbEntity
  8
0
  6
ByBlock
 62
     2
100
AcDbLine
 10
10.94820704684974
 20
178.2418920501499
 30
0.0
 11
10.94820704684974
 21
184.1189954771602
 31
0.0
  0
MTEXT
  5
7DA
330
18
100
AcDbEntity
  8
0
  6
ByBlock
 62
     6
100
AcDbMText
 10
14.06319772286127
 20
178.8668920501499
 30
0.0
 40
2.5
 41
0.0
 71
     5
 72
     1
  1
\A1;6.2
  7
STYLE3
 73
     1
 44
1.0
  0
INSERT
  5
7DB
330
18
100
AcDbEntity
  8
0
  6
ByBlock
 62
     2
100
AcDbBlockReference
  2
_OPEN
 10
10.94820704684974
 20
176.9918920501499
 30
0.0
 41
2.5
 42
2.5
 43
2.5
  0
LINE
  5
7DC
330
18
100
AcDbEntity
  8
0
  6
ByBlock
 62
     2
100
AcDbLine
 10
8.448207046849745
 20
176.9918920501499
 30
0.0
 11
5.948207046849745
 21
176.9918920501499
 31
0.0
  0
LINE
  5
7DD
330
18
100
AcDbEntity
  8
外形線
  6
Continuous
100
AcDbLine
 10
20.84820704684978
 20
169.95987707584
 30
0.0
 11
20.84820704684978
 21
163.45987707584
 31
0.0
  0
LINE
  5
7DE
330
18
100
AcDbEntity
  8
外形線
  6
Continuous
100
AcDbLine
 10
13.44820704684969
 20
169.95987707584
 30
0.0
 11
13.44820704684969
 21
163.45987707584
 31
0.0
  0
LINE
  5
7DF
330
18
100
AcDbEntity
  8
外形線
  6
Continuous
100
AcDbLine
 10
13.14820704684973
 20
157.45987707584
 30
0.0
 11
21.14820704684973
 21
157.45987707584
 31
0.0
  0
LINE
  5
7E0
330
18
100
AcDbEntity
  8
外形線
  6
Continuous
100
AcDbLine
 10
13.14820704684973
 20
163.45987707584
 30
0.0
 11
21.14820704684973
 21
163.45987707584
 31
0.0
  0
LINE
  5
7E1
330
18
100
AcDbEntity
  8
ﾊｯﾁﾝｸ
  6
Continuous
100
AcDbLine
 10
17.14820704684951
 20
160.5824905340244
 30
0.0
 11
14.27082050503395
 21
163.45987707584
 31
0.0
  0
LINE
  5
7E2
330
18
100
AcDbEntity
  8
ﾊｯﾁﾝｸ
  6
Continuous
100
AcDbLine
 10
17.14820704684951
 20
158.8147235810581
 30
0.0
 11
13.1482070468495
 21
162.8147235810581
 31
0.0
  0
LINE
  5
7E3
330
18
100
AcDbEntity
  8
ﾊｯﾁﾝｸ
  6
Continuous
100
AcDbLine
 10
13.1482070468495
 20
157.9230700132387
 30
0.0
 11
17.14820704684951
 21
161.9230700132387
 31
0.0
  0
LINE
  5
7E4
330
18
100
AcDbEntity
  8
ﾊｯﾁﾝｸ
  6
Continuous
100
AcDbLine
 10
13.1482070468495
 20
159.6908369662051
 30
0.0
 11
16.91724715648445
 21
163.45987707584
 31
0.0
  0
LINE
  5
7E5
330
18
100
AcDbEntity
  8
ﾊｯﾁﾝｸ
  6
Continuous
100
AcDbLine
 10
13.1482070468495
 20
161.4586039191714
 30
0.0
 11
15.14948020351801
 21
163.45987707584
 31
0.0
  0
LINE
  5
7E6
330
18
100
AcDbEntity
  8
外形線
  6
Continuous
100
AcDbLine
 10
13.14820704684973
 20
163.45987707584
 30
0.0
 11
13.14820704684973
 21
157.45987707584
 31
0.0
  0
LINE
  5
7E7
330
18
100
AcDbEntity
  8
ﾊｯﾁﾝｸ
  6
Continuous
100
AcDbLine
 10
16.73528659910118
 20
157.45987707584
 30
0.0
 11
13.1482070468495
 21
161.0469566280917
 31
0.0
  0
LINE
  5
7E8
330
18
100
AcDbEntity
  8
ﾊｯﾁﾝｸ
  6
Continuous
100
AcDbLine
 10
14.96751964613486
 20
157.45987707584
 30
0.0
 11
13.1482070468495
 21
159.2791896751253
 31
0.0
  0
LINE
  5
7E9
330
18
100
AcDbEntity
  8
ﾊｯﾁﾝｸ
  6
Continuous
100
AcDbLine
 10
13.19975269316848
 20
157.45987707584
 30
0.0
 11
13.1482070468495
 21
157.511422722159
 31
0.0
  0
LINE
  5
7EA
330
18
100
AcDbEntity
  8
ﾊｯﾁﾝｸ
  6
Continuous
100
AcDbLine
 10
16.22054801538354
 20
157.45987707584
 30
0.0
 11
17.14820704684951
 21
158.387536107306
 31
0.0
  0
LINE
  5
7EB
330
18
100
AcDbEntity
  8
ﾊｯﾁﾝｸ
  6
Continuous
100
AcDbLine
 10
14.4527810624171
 20
157.45987707584
 30
0.0
 11
17.14820704684951
 21
160.1553030602723
 31
0.0
  0
LINE
  5
7EC
330
18
100
AcDbEntity
  8
ﾊｯﾁﾝｸ
  6
Continuous
100
AcDbLine
 10
13.1482070468495
 20
163.2263708721378
 30
0.0
 11
13.38171325055168
 21
163.45987707584
 31
0.0
  0
LINE
  5
7ED
330
18
100
AcDbEntity
  8
ﾊｯﾁﾝｸ
  6
Continuous
100
AcDbLine
 10
17.14820704684951
 20
162.3502574869908
 30
0.0
 11
16.03858745800033
 21
163.4598770758399
 31
0.0
  0
LINE
  5
7EE
330
18
100
AcDbEntity
  8
外形線
  6
Continuous
100
AcDbLine
 10
21.14820704684973
 20
163.45987707584
 30
0.0
 11
21.14820704684973
 21
157.45987707584
 31
0.0
  0
INSERT
  5
7EF
330
18
100
AcDbEntity
  8
0
  6
ByBlock
 62
     2
100
AcDbBlockReference
  2
_OPEN
 10
17.14820704684973
 20
176.9918920501499
 30
0.0
 41
2.5
 42
2.5
 43
2.5
 50
180.0
  0
INSERT
  5
7F0
330
18
100
AcDbEntity
  8
0
  6
ByBlock
 62
     2
100
AcDbBlockReference
  2
_OPEN
 10
17.14820704684973
 20
176.9918920501499
 30
0.0
 41
2.5
 42
2.5
 43
2.5
 50
180.0
  0
LINE
  5
7F1
330
18
100
AcDbEntity
  8
外形線
  6
Continuous
100
AcDbLine
 10
13.44820704684969
 20
169.95987707584
 30
0.0
 11
20.84820704684978
 21
169.95987707584
 31
0.0
  0
ARC
  5
7F2
330
18
100
AcDbEntity
  8
外形線
  6
Continuous
100
AcDbCircle
 10
17.14820704684973
 20
163.6148770758402
 30
0.0
 40
7.344999999999885
100
AcDbArc
 50
59.75198538337818
 51
120.2480146166212
  0
LINE
  5
7F3
330
18
100
AcDbEntity
  8
0
  6
ByBlock
 62
     2
100
AcDbLine
 10
17.14820704684973
 20
172.7658666018057
 30
0.0
 11
17.14820704684973
 21
178.2418920501499
 31
0.0
  0
POINT
  5
7F4
330
18
100
AcDbEntity
  8
DEFPOINTS
  6
ByBlock
 62
     0
100
AcDbPoint
 10
17.14820704684973
 20
172.7658666018057
 30
0.0
  0
POINT
  5
7F5
330
18
100
AcDbEntity
  8
DEFPOINTS
  6
ByBlock
 62
     0
100
AcDbPoint
 10
17.14820704684973
 20
172.7658666018057
 30
0.0
  0
POINT
  5
7F6
330
18
100
AcDbEntity
  8
DEFPOINTS
  6
ByBlock
 62
     0
100
AcDbPoint
 10
17.14820704684973
 20
170.9598770758401
 30
0.0
  0
LINE
  5
7F7
330
18
100
AcDbEntity
  8
0
  6
ByBlock
 62
     2
100
AcDbLine
 10
10.94820704684974
 20
176.9918920501499
 30
0.0
 11
17.14820704684973
 21
176.9918920501499
 31
0.0
  0
POINT
  5
7F8
330
18
100
AcDbEntity
  8
DEFPOINTS
  6
ByBlock
 62
     0
100
AcDbPoint
 10
10.94820704684974
 20
178.2418920501499
 30
0.0
  0
POINT
  5
7F9
330
18
100
AcDbEntity
  8
DEFPOINTS
  6
ByBlock
 62
     0
100
AcDbPoint
 10
17.14820704684973
 20
176.9918920501499
 30
0.0
  0
MTEXT
  5
7FA
330
18
100
AcDbEntity
  8
0
  6
ByBlock
 62
     6
100
AcDbMText
 10
21.29820704684982
 20
184.7439954771602
 30
0.0
 40
2.5
 41
0.0
 71
     5
 72
     1
  1
\A1;20.7
  7
STYLE3
 73
     1
 44
1.0
  0
INSERT
  5
7FB
330
18
100
AcDbEntity
  8
0
  6
ByBlock
 62
     2
100
AcDbBlockReference
  2
_OPEN
 10
10.94820704684974
 20
182.8689954771602
 30
0.0
 41
2.5
 42
2.5
 43
2.5
 50
180.0
  0
LINE
  5
7FC
330
18
100
AcDbEntity
  8
0
  6
ByBlock
 62
     2
100
AcDbLine
 10
31.64820704684985
 20
178.2418920501499
 30
0.0
 11
31.64820704684985
 21
184.1189954771602
 31
0.0
  0
INSERT
  5
7FD
330
18
100
AcDbEntity
  8
0
  6
ByBlock
 62
     2
100
AcDbBlockReference
  2
_OPEN
 10
31.64820704684985
 20
176.9918920501499
 30
0.0
 41
2.5
 42
2.5
 43
2.5
  0
POINT
  5
7FE
330
18
100
AcDbEntity
  8
DEFPOINTS
  6
ByBlock
 62
     0
100
AcDbPoint
 10
31.64820704684985
 20
178.2418920501499
 30
0.0
  0
POINT
  5
7FF
330
18
100
AcDbEntity
  8
DEFPOINTS
  6
ByBlock
 62
     0
100
AcDbPoint
 10
31.64820704684985
 20
176.9918920501499
 30
0.0
  0
INSERT
  5
800
330
18
100
AcDbEntity
  8
0
  6
ByBlock
 62
     2
100
AcDbBlockReference
  2
_OPEN
 10
31.64820704684985
 20
182.8689954771602
 30
0.0
 41
2.5
 42
2.5
 43
2.5
  0
POINT
  5
801
330
18
100
AcDbEntity
  8
DEFPOINTS
  6
ByBlock
 62
     0
100
AcDbPoint
 10
31.64820704684985
 20
182.8689954771602
 30
0.0
  0
LINE
  5
80A
330
18
100
AcDbEntity
  8
ﾊｯﾁﾝｸ
  6
Continuous
100
AcDbLine
 10
92.15702736131516
 20
158.814723581058
 30
0.0
 11
88.15702736131516
 21
162.814723581058
 31
0.0
  0
LINE
  5
80B
330
18
100
AcDbEntity
  8
ﾊｯﾁﾝｸ
  6
Continuous
100
AcDbLine
 10
91.74410691356683
 20
157.4598770758399
 30
0.0
 11
88.15702736131516
 21
161.0469566280916
 31
0.0
  0
LINE
  5
80C
330
18
100
AcDbEntity
  8
ﾊｯﾁﾝｸ
  6
Continuous
100
AcDbLine
 10
89.97633996060045
 20
157.4598770758399
 30
0.0
 11
88.15702736131516
 21
159.2791896751252
 31
0.0
  0
LINE
  5
80D
330
18
100
AcDbEntity
  8
ﾊｯﾁﾝｸ
  6
Continuous
100
AcDbLine
 10
88.15702736131516
 20
157.9230700132387
 30
0.0
 11
92.15702736131522
 21
161.9230700132387
 31
0.0
  0
LINE
  5
80E
330
18
100
AcDbEntity
  8
ﾊｯﾁﾝｸ
  6
Continuous
100
AcDbLine
 10
88.15702736131516
 20
159.6908369662051
 30
0.0
 11
91.92606747095004
 21
163.4598770758399
 31
0.0
  0
LINE
  5
80F
330
18
100
AcDbEntity
  8
ﾊｯﾁﾝｸ
  6
Continuous
100
AcDbLine
 10
88.15702736131516
 20
161.4586039191714
 30
0.0
 11
90.15830051798365
 21
163.4598770758399
 31
0.0
  0
ARC
  5
810
330
18
100
AcDbEntity
  8
外形線
  6
Continuous
100
AcDbCircle
 10
92.15702736131504
 20
163.6148770758401
 30
0.0
 40
7.344999999999885
100
AcDbArc
 50
59.75198538337817
 51
120.2480146166212
  0
LINE
  5
811
330
18
100
AcDbEntity
  8
外形線
  6
Continuous
100
AcDbLine
 10
88.15702736131504
 20
157.4598770758399
 30
0.0
 11
96.15702736131504
 21
157.4598770758399
 31
0.0
  0
LINE
  5
812
330
18
100
AcDbEntity
  8
外形線
  6
Continuous
100
AcDbLine
 10
88.15702736131516
 20
163.4598770758399
 30
0.0
 11
96.15702736131504
 21
163.4598770758399
 31
0.0
  0
LINE
  5
813
330
18
100
AcDbEntity
  8
外形線
  6
Continuous
100
AcDbLine
 10
88.45702736131512
 20
169.9598770758399
 30
0.0
 11
95.85702736131509
 21
169.9598770758399
 31
0.0
  0
LINE
  5
814
330
18
100
AcDbEntity
  8
外形線
  6
Continuous
100
AcDbLine
 10
88.45702736131512
 20
169.9598770758399
 30
0.0
 11
88.45702736131512
 21
163.4598770758399
 31
0.0
  0
LINE
  5
815
330
18
100
AcDbEntity
  8
外形線
  6
Continuous
100
AcDbLine
 10
88.15702736131516
 20
163.4598770758399
 30
0.0
 11
88.15702736131516
 21
157.4598770758399
 31
0.0
  0
LINE
  5
816
330
18
100
AcDbEntity
  8
ﾊｯﾁﾝｸ
  6
Continuous
100
AcDbLine
 10
88.20857300763407
 20
157.4598770758399
 30
0.0
 11
88.15702736131511
 21
157.5114227221589
 31
0.0
  0
LINE
  5
817
330
18
100
AcDbEntity
  8
ﾊｯﾁﾝｸ
  6
Continuous
100
AcDbLine
 10
88.15702736131516
 20
163.2263708721378
 30
0.0
 11
88.39053356501727
 21
163.4598770758399
 31
0.0
  0
LINE
  5
818
330
18
100
AcDbEntity
  8
外形線
  6
Continuous
100
AcDbLine
 10
95.85702736131509
 20
169.9598770758399
 30
0.0
 11
95.85702736131509
 21
163.4598770758399
 31
0.0
  0
LINE
  5
819
330
18
100
AcDbEntity
  8
ﾊｯﾁﾝｸ
  6
Continuous
100
AcDbLine
 10
92.15702736131516
 20
160.5824905340243
 30
0.0
 11
89.27964081949955
 21
163.4598770758399
 31
0.0
  0
LINE
  5
81A
330
18
100
AcDbEntity
  8
外形線
  6
Continuous
100
AcDbLine
 10
96.15702736131504
 20
163.4598770758399
 30
0.0
 11
96.15702736131504
 21
157.4598770758399
 31
0.0
  0
LINE
  5
81B
330
18
100
AcDbEntity
  8
ﾊｯﾁﾝｸ
  6
Continuous
100
AcDbLine
 10
91.22936832984914
 20
157.4598770758399
 30
0.0
 11
92.15702736131516
 21
158.387536107306
 31
0.0
  0
LINE
  5
81C
330
18
100
AcDbEntity
  8
ﾊｯﾁﾝｸ
  6
Continuous
100
AcDbLine
 10
89.46160137688275
 20
157.4598770758399
 30
0.0
 11
92.15702736131516
 21
160.1553030602723
 31
0.0
  0
LINE
  5
81D
330
18
100
AcDbEntity
  8
ﾊｯﾁﾝｸ
  6
Continuous
100
AcDbLine
 10
92.15702736131516
 20
162.3502574869907
 30
0.0
 11
91.04740777246593
 21
163.4598770758399
 31
0.0
  0
POINT
  5
81E
330
18
100
AcDbEntity
  8
DEFPOINTS
  6
ByBlock
 62
     0
100
AcDbPoint
 10
92.15702736131504
 20
170.95987707584
 30
0.0
  0
POINT
  5
81F
330
18
100
AcDbEntity
  8
DEFPOINTS
  6
ByBlock
 62
     0
100
AcDbPoint
 10
92.15702736131504
 20
170.9598770758401
 30
0.0
  0
LINE
  5
820
330
18
100
AcDbEntity
  8
外形線
100
AcDbLine
 10
112.0882282625823
 20
156.1081451570711
 30
0.0
 11
124.6105252388973
 21
160.6213295161366
 31
0.0
  0
LINE
  5
821
330
18
100
AcDbEntity
  8
外形線
100
AcDbLine
 10
124.6105252388973
 20
160.6213295161366
 30
0.0
 11
125.1191189225284
 21
159.2101837175139
 31
0.0
  0
LINE
  5
836
330
18
100
AcDbEntity
  8
外形線
100
AcDbLine
 10
94.15702736131505
 20
88.95987707584003
 30
0.0
 11
94.15702736131503
 21
73.25987707584006
 31
0.0
  0
LINE
  5
837
330
18
100
AcDbEntity
  8
外形線
100
AcDbLine
 10
90.15702736131505
 20
88.95987707584003
 30
0.0
 11
90.15702736131505
 21
73.25987707584008
 31
0.0
  0
LINE
  5
845
330
18
100
AcDbEntity
  8
想像線
100
AcDbLine
 10
212.157027361315
 20
97.05611077680762
 30
0.0
 11
212.157027361315
 21
45.39375674288741
 31
0.0
  0
DIMENSION
  5
856
330
18
100
AcDbEntity
  8
外形線
100
AcDbDimension
  2
*D1
 10
212.157027361315
 20
30.68238392382358
 30
0.0
 11
152.157027361315
 21
32.55738392382358
 31
0.0
 70
    32
 71
     5
 42
-1.0
  3
STYLE3
100
AcDbAlignedDimension
 13
92.15702736131504
 23
47.62264016755347
 33
0.0
 14
212.157027361315
 24
45.39375674288741
 34
0.0
100
AcDbRotatedDimension
1001
ACAD
1000
DSTYLE
1002
{
1070
   271
1070
     2
1002
}
  0
DIMENSION
  5
86E
330
18
100
AcDbEntity
  8
外形線
100
AcDbDimension
  2
*D2
 10
58.21955328210754
 20
127.95987707584
 30
0.0
 11
56.34455328210754
 21
149.45987707584
 31
0.0
 70
    32
 71
     5
 42
-1.0
  3
STYLE3
100
AcDbAlignedDimension
 13
92.15702736131504
 23
170.95987707584
 33
0.0
 14
61.40627914244475
 24
127.95987707584
 34
0.0
 50
90.0
100
AcDbRotatedDimension
1001
ACAD
1000
DSTYLE
1002
{
1070
   271
1070
     2
1002
}
  0
DIMENSION
  5
87A
330
18
100
AcDbEntity
  8
外形線
100
AcDbDimension
  2
*D3
 10
58.21955328210754
 20
64.25987707584005
 30
0.0
 11
56.34455328210754
 21
96.10987707584005
 31
0.0
 70
    32
 71
     5
 42
-1.0
  3
STYLE3
100
AcDbAlignedDimension
 13
61.40627914244475
 23
127.95987707584
 33
0.0
 14
87.15702736131504
 24
64.25987707584005
 34
0.0
 50
90.0
100
AcDbRotatedDimension
1001
ACAD
1000
DSTYLE
1002
{
1070
    75
1070
     1
1070
   271
1070
     2
1070
   279
1070
     1
1002
}
  0
DIMENSION
  5
88A
330
18
100
AcDbEntity
  8
外形線
100
AcDbDimension
  2
*D4
 10
78.00454818562833
 20
67.75987707584005
 30
0.0
 11
78.00454818562832
 21
56.01582945679243
 31
0.0
 70
   160
 71
     5
 42
3.5
  3
STYLE3
100
AcDbAlignedDimension
 13
77.7457348686363
 23
64.25987707584005
 33
0.0
 14
87.15702736131504
 24
67.75987707584005
 34
0.0
 50
90.0
100
AcDbRotatedDimension
1001
ACAD
1000
DSTYLE
1002
{
1070
   271
1070
     2
1002
}
  0
DIMENSION
  5
897
330
18
100
AcDbEntity
  8
外形線
100
AcDbDimension
  2
*D5
 10
66.39056300080994
 20
88.95987707584003
 30
0.0
 11
64.51556300080994
 21
76.60987707584005
 31
0.0
 70
    32
 71
     5
 42
-1.0
  3
STYLE3
100
AcDbAlignedDimension
 13
66.76906888648819
 23
64.25987707584005
 33
0.0
 14
87.15702736131504
 24
88.95987707584003
 34
0.0
 50
90.0
100
AcDbRotatedDimension
1001
ACAD
1000
DSTYLE
1002
{
1070
   271
1070
     2
1002
}
  0
DIMENSION
  5
8A4
330
18
100
AcDbEntity
  8
外形線
100
AcDbDimension
  2
*D6
 10
52.01759397502883
 20
170.95987707584
 30
0.0
 11
50.14259397502883
 21
117.60987707584
 31
0.0
 70
    32
 71
     5
 42
-1.0
  3
STYLE3
100
AcDbAlignedDimension
 13
56.96955328210754
 23
64.25987707584005
 33
0.0
 14
56.96955328210754
 24
170.95987707584
 34
0.0
 50
90.0
100
AcDbRotatedDimension
1001
ACAD
1000
DSTYLE
1002
{
1070
   271
1070
     2
1002
}
  0
LINE
  5
9CA
330
18
100
AcDbEntity
  8
寸法線
100
AcDbLine
 10
89.15702736131498
 20
64.55987707584012
 30
0.0
 11
95.15702736131499
 21
64.55987707584012
 31
0.0
  0
LINE
  5
9CB
330
18
100
AcDbEntity
  8
寸法線
100
AcDbLine
 10
87.15702736131504
 20
65.75987707584005
 30
0.0
 11
97.15702736131504
 21
65.75987707584005
 31
0.0
  0
LINE
  5
9CC
330
18
100
AcDbEntity
  8
寸法線
100
AcDbLine
 10
89.15702736131505
 20
72.9598770758401
 30
0.0
 11
95.15702736131505
 21
72.95987707584007
 31
0.0
  0
LINE
  5
9CD
330
18
100
AcDbEntity
  8
寸法線
100
AcDbLine
 10
87.15702736131504
 20
69.75987707584005
 30
0.0
 11
97.15702736131504
 21
69.75987707584005
 31
0.0
  0
LINE
  5
9CE
330
18
100
AcDbEntity
  8
外形線
100
AcDbLine
 10
88.15702736131504
 20
64.75987707584005
 30
0.0
 11
96.15702736131504
 21
64.75987707584005
 31
0.0
  0
LINE
  5
9CF
330
18
100
AcDbEntity
  8
外形線
100
AcDbLine
 10
94.85702736131504
 20
64.25987707584011
 30
0.0
 11
89.45702736131506
 21
64.25987707584001
 31
0.0
  0
ARC
  5
9D1
330
18
100
AcDbEntity
  8
外形線
100
AcDbCircle
 10
92.15702736131499
 20
59.9598770758401
 30
0.0
 40
6.0
100
AcDbArc
 50
251.8051276612345
 51
288.1948723387655
  0
LINE
  5
9D2
330
18
100
AcDbEntity
  8
外形線
100
AcDbLine
 10
95.15702736131505
 20
71.05987707584006
 30
0.0
 11
89.15702736131505
 21
71.05987707584006
 31
0.0
  0
LINE
  5
9D3
330
18
100
AcDbEntity
  8
外形線
100
AcDbLine
 10
94.85702736131504
 20
73.25987707584006
 30
0.0
 11
89.45702736131503
 21
73.25987707584009
 31
0.0
  0
LINE
  5
9D4
330
18
100
AcDbEntity
  8
外形線
100
AcDbLine
 10
87.15702736131504
 20
67.75987707584005
 30
0.0
 11
97.15702736131504
 21
67.75987707584005
 31
0.0
  0
LINE
  5
9D5
330
18
100
AcDbEntity
  8
外形線
100
AcDbLine
 10
88.15702736131504
 20
70.75987707584005
 30
0.0
 11
96.15702736131504
 21
70.75987707584005
 31
0.0
  0
LINE
  5
9D6
330
18
100
AcDbEntity
  8
外形線
100
AcDbLine
 10
89.15702736131505
 20
72.9598770758401
 30
0.0
 11
89.15702736131505
 21
71.05987707584006
 31
0.0
  0
LINE
  5
9D8
330
18
100
AcDbEntity
  8
外形線
100
AcDbLine
 10
87.15702736131504
 20
67.75987707584005
 30
0.0
 11
87.15702736131504
 21
65.75987707584005
 31
0.0
  0
LINE
  5
9D9
330
18
100
AcDbEntity
  8
外形線
100
AcDbLine
 10
87.15702736131504
 20
65.75987707584005
 30
0.0
 11
88.15702736131504
 21
64.75987707584005
 31
0.0
  0
LINE
  5
9DA
330
18
100
AcDbEntity
  8
外形線
100
AcDbLine
 10
89.15702736131498
 20
64.55987707584012
 30
0.0
 11
89.15702736131498
 21
64.75987707584005
 31
0.0
  0
LINE
  5
9DB
330
18
100
AcDbEntity
  8
外形線
100
AcDbLine
 10
89.45702736131494
 20
64.25987707584011
 30
0.0
 11
89.15702736131498
 21
64.55987707584012
 31
0.0
  0
LINE
  5
9DC
330
18
100
AcDbEntity
  8
外形線
100
AcDbLine
 10
87.15702736131504
 20
69.75987707584005
 30
0.0
 11
88.15702736131504
 21
70.75987707584005
 31
0.0
  0
LINE
  5
9DD
330
18
100
AcDbEntity
  8
外形線
100
AcDbLine
 10
87.15702736131504
 20
67.75987707584005
 30
0.0
 11
87.15702736131504
 21
69.75987707584005
 31
0.0
  0
LINE
  5
9DE
330
18
100
AcDbEntity
  8
外形線
100
AcDbLine
 10
89.30702736131504
 20
71.05987707584006
 30
0.0
 11
89.30702736131504
 21
70.75987707584005
 31
0.0
  0
LINE
  5
9DF
330
18
100
AcDbEntity
  8
外形線
100
AcDbLine
 10
89.15702736131505
 20
72.9598770758401
 30
0.0
 11
89.45702736131503
 21
73.25987707584009
 31
0.0
  0
LINE
  5
9E0
330
18
100
AcDbEntity
  8
外形線
100
AcDbLine
 10
95.15702736131505
 20
72.95987707584007
 30
0.0
 11
95.15702736131505
 21
71.05987707584005
 31
0.0
  0
LINE
  5
9E2
330
18
100
AcDbEntity
  8
外形線
100
AcDbLine
 10
97.15702736131504
 20
67.75987707584005
 30
0.0
 11
97.15702736131504
 21
65.75987707584005
 31
0.0
  0
LINE
  5
9E3
330
18
100
AcDbEntity
  8
外形線
100
AcDbLine
 10
96.15702736131504
 20
64.75987707584005
 30
0.0
 11
97.15702736131504
 21
65.75987707584005
 31
0.0
  0
LINE
  5
9E4
330
18
100
AcDbEntity
  8
外形線
100
AcDbLine
 10
95.15702736131499
 20
64.55987707584012
 30
0.0
 11
95.15702736131499
 21
64.75987707584005
 31
0.0
  0
LINE
  5
9E5
330
18
100
AcDbEntity
  8
外形線
100
AcDbLine
 10
95.15702736131499
 20
64.55987707584012
 30
0.0
 11
94.85702736131504
 21
64.25987707584011
 31
0.0
  0
LINE
  5
9E6
330
18
100
AcDbEntity
  8
外形線
100
AcDbLine
 10
96.15702736131504
 20
70.75987707584005
 30
0.0
 11
97.15702736131504
 21
69.75987707584005
 31
0.0
  0
LINE
  5
9E7
330
18
100
AcDbEntity
  8
外形線
100
AcDbLine
 10
95.00702736131504
 20
71.05987707584006
 30
0.0
 11
95.00702736131504
 21
70.75987707584005
 31
0.0
  0
LINE
  5
9E8
330
18
100
AcDbEntity
  8
外形線
100
AcDbLine
 10
97.15702736131504
 20
67.75987707584005
 30
0.0
 11
97.15702736131504
 21
69.75987707584005
 31
0.0
  0
LINE
  5
9E9
330
18
100
AcDbEntity
  8
外形線
100
AcDbLine
 10
94.85702736131504
 20
73.25987707584006
 30
0.0
 11
95.15702736131505
 21
72.95987707584007
 31
0.0
  0
DIMENSION
  5
A00
330
18
100
AcDbEntity
  8
文字
100
AcDbDimension
  2
*D8
 10
72.57546314250134
 20
73.25987707584009
 30
0.0
 11
70.70046314250133
 21
68.75987707584008
 31
0.0
 70
    32
 71
     5
 42
9.000000000000042
  3
STYLE3
100
AcDbAlignedDimension
 13
87.15702736131504
 23
64.25987707584005
 33
0.0
 14
89.45702736131503
 24
73.25987707584009
 34
0.0
 50
90.0
100
AcDbRotatedDimension
1001
ACAD
1000
DSTYLE
1002
{
1070
   271
1070
     2
1070
   341
1005
0
1002
}
  0
ARC
  5
A41
330
18
100
AcDbEntity
  8
外形線
100
AcDbCircle
 10
17.14820704684967
 20
59.9598770758401
 30
0.0
 40
6.0
100
AcDbArc
 50
251.8051276612341
 51
288.1948723387651
  0
LINE
  5
A7C
330
18
100
AcDbEntity
  8
外形線
100
AcDbLine
 10
83.30384349488971
 20
182.7548042384393
 30
0.0
 11
183.3038434948897
 21
182.7548042384393
 31
0.0
  0
LINE
  5
A7D
330
18
100
AcDbEntity
  8
外形線
100
AcDbLine
 10
83.30384349488971
 20
181.7548042384393
 30
0.0
 11
183.3038434948897
 21
181.7548042384393
 31
0.0
  0
TEXT
  5
A7E
330
18
100
AcDbEntity
  8
文字
100
AcDbText
 10
84.20265949488973
 20
185.1370762384393
 30
0.0
 40
4.0
  1
Model No.H Dial Thickness Gauge
  7
STYLE3
100
AcDbText
  0
LINE
  5
A83
330
18
100
AcDbEntity
  8
外形線
100
AcDbLine
 10
113.8183604948897
 20
20.80646359373333
 30
0.0
 11
254.6097784948897
 21
20.80646359373333
 31
0.0
  0
LINE
  5
A84
330
18
100
AcDbEntity
  8
外形線
100
AcDbLine
 10
113.8183604948897
 20
10.02625759373333
 30
0.0
 11
254.6097784948897
 21
10.02625759373333
 31
0.0
  0
TEXT
  5
A85
330
18
100
AcDbEntity
  8
0
  6
Continuous
100
AcDbText
 10
115.2758274948897
 20
11.92424759373333
 30
0.0
 40
2.1
  1
Design and specifications are subject to change without notice for future improvement.
  7
STYLE3
100
AcDbText
  0
TEXT
  5
A86
330
18
100
AcDbEntity
  8
0
  6
Continuous
100
AcDbText
 10
115.5673214948897
 20
15.85339559373333
 30
0.0
 40
3.5
  1
仕様及び外観は予告なく変更される場合がございますのでご了承下さい。
  7
STYLE3
100
AcDbText
  0
TEXT
  5
A87
330
18
100
AcDbEntity
  8
0
  6
Continuous
100
AcDbText
 10
114.9843364948897
 20
2.15961959373333
 30
0.0
 40
2.1
  1
3RD Angle Projection
  7
STYLE3
100
AcDbText
  0
TEXT
  5
A88
330
18
100
AcDbEntity
  8
0
  6
Continuous
100
AcDbText
 10
117.6077794948897
 20
5.65590259373333
 30
0.0
 40
3.0
  1
三　　角　　法
  7
STYLE3
100
AcDbText
  0
LINE
  5
A89
330
18
100
AcDbEntity
  8
外形線
100
AcDbLine
 10
113.8183604948897
 20
0.4114795937333301
 30
0.0
 11
113.8183604948897
 21
20.80646359373333
 31
0.0
  0
LINE
  5
A8A
330
18
100
AcDbEntity
  8
外形線
100
AcDbLine
 10
215.8411274948897
 20
10.02625759373333
 30
0.0
 11
215.8411274948897
 21
0.4114795937333301
 31
0.0
  0
LINE
  5
A8B
330
18
100
AcDbEntity
  8
外形線
100
AcDbLine
 10
186.1087774948897
 20
10.02625759373333
 30
0.0
 11
186.1087774948897
 21
0.4114795937333301
 31
0.0
  0
LINE
  5
A8C
330
18
100
AcDbEntity
  8
外形線
100
AcDbLine
 10
166.5787054948897
 20
10.02625759373333
 30
0.0
 11
166.5787054948897
 21
0.4114795937333301
 31
0.0
  0
LINE
  5
A8D
330
18
100
AcDbEntity
  8
外形線
100
AcDbLine
 10
149.0890884948897
 20
10.02625759373333
 30
0.0
 11
149.0890884948897
 21
0.4114795937333301
 31
0.0
  0
TEXT
  5
A8E
330
18
100
AcDbEntity
  8
0
  6
Continuous
100
AcDbText
 10
150.5465574948897
 20
5.661857593733329
 30
0.0
 40
3.0
  1
単位
  7
STYLE3
100
AcDbText
  0
TEXT
  5
A8F
330
18
100
AcDbEntity
  8
0
  6
Continuous
100
AcDbText
 10
150.7182784948897
 20
2.159620593733329
 30
0.0
 40
2.1
  1
Unit
  7
STYLE3
100
AcDbText
  0
TEXT
  5
A90
330
18
100
AcDbEntity
  8
0
  6
Continuous
100
AcDbText
 10
167.8644534948897
 20
5.370499593733329
 30
0.0
 40
3.0
  1
尺 度
  7
STYLE3
100
AcDbText
  0
TEXT
  5
A91
330
18
100
AcDbEntity
  8
0
  6
Continuous
100
AcDbText
 10
158.5886054948897
 20
3.907763593733329
 30
0.0
 40
2.399999999999999
  1
mm
  7
STYLE3
100
AcDbText
  0
TEXT
  5
A92
330
18
100
AcDbEntity
  8
0
  6
Continuous
100
AcDbText
 10
168.3276684948897
 20
2.45097759373333
 30
0.0
 40
2.1
  1
Scale
  7
STYLE3
100
AcDbText
  0
TEXT
  5
A93
330
18
100
AcDbEntity
  8
0
  6
Continuous
100
AcDbText
 10
177.9469574948897
 20
4.19912059373333
 30
0.0
 40
2.399999999999999
  1
1/1
  7
STYLE3
100
AcDbText
  0
TEXT
  5
A94
330
18
100
AcDbEntity
  8
0
  6
Continuous
100
AcDbText
 10
188.0407284948897
 20
2.15962159373333
 30
0.0
 40
2.1
  1
Date
  7
STYLE3
100
AcDbText
  0
TEXT
  5
A95
330
18
100
AcDbEntity
  8
0
  6
Continuous
100
AcDbText
 10
187.6573674948897
 20
5.492704593733329
 30
0.0
 40
3.0
  1
日 付
  7
STYLE3
100
AcDbText
  0
TEXT
  5
A96
330
18
100
AcDbEntity
  8
0
  6
Continuous
100
AcDbText
 10
196.7855364948897
 20
3.90776259373333
 30
0.0
 40
2.1
  1
2010.06.10
  7
STYLE3
100
AcDbText
  0
TEXT
  5
A97
330
18
100
AcDbEntity
  8
0
  6
Continuous
100
AcDbText
 10
217.1900904948897
 20
5.947259593733329
 30
0.0
 40
3.0
  1
株式会社　尾崎製作所
  7
STYLE3
100
AcDbText
  0
TEXT
  5
A98
330
18
100
AcDbEntity
  8
0
  6
Continuous
100
AcDbText
 10
218.0645694948897
 20
2.159620593733329
 30
0.0
 40
2.1
  1
OZAKI MFG. CO., LTD.
  7
STYLE3
100
AcDbText
  0
VIEWPORT
  5
177
330
15
100
AcDbEntity
 67
     1
  8
0
100
AcDbViewport
 10
127.5041203589828
 20
97.49391214526822
 30
0.0
 40
418.3086347473814
 41
243.0346063651093
 68
     1
 69
     1
 12
127.5041203589828
 22
97.49391214526822
 13
0.0
 23
0.0
 14
10.0
 24
10.0
 15
10.0
 25
10.0
 16
0.0
 26
0.0
 36
1.0
 17
0.0
 27
0.0
 37
0.0
 42
50.0
 43
0.0
 44
0.0
 45
243.0346063651093
 50
0.0
 51
0.0
 72
   100
 90
    32800
  1

281
     0
 71
     1
 74
     0
110
0.0
120
0.0
130
0.0
111
1.0
121
0.0
131
0.0
112
0.0
122
1.0
132
0.0
 79
     0
146
0.0
170
     0
  0
ENDSEC
  0
SECTION
  2
OBJECTS
  0
DICTIONARY
  5
C
330
0
100
AcDbDictionary
281
     1
  3
ACAD_COLOR
350
988
  3
ACAD_GROUP
350
D
  3
ACAD_LAYOUT
350
98B
  3
ACAD_MATERIAL
350
987
  3
ACAD_MLINESTYLE
350
1B
  3
ACAD_PLOTSETTINGS
350
98C
  3
ACAD_PLOTSTYLENAME
350
985
  3
ACAD_TABLESTYLE
350
989
  3
AcDbVariableDictionary
350
995
  0
DICTIONARY
  5
9A4
330
2
100
AcDbDictionary
280
     1
281
     1
  3
ACAD_LAYERSTATES
360
9A5
  0
DICTIONARY
  5
988
102
{ACAD_REACTORS
330
C
102
}
330
C
100
AcDbDictionary
281
     1
  0
DICTIONARY
  5
D
102
{ACAD_REACTORS
330
C
102
}
330
C
100
AcDbDictionary
281
     1
  0
DICTIONARY
  5
98B
102
{ACAD_REACTORS
330
C
102
}
330
C
100
AcDbDictionary
281
     1
  3
Model
350
98D
  3
レイアウト1
350
98E
  0
DICTIONARY
  5
987
102
{ACAD_REACTORS
330
C
102
}
330
C
100
AcDbDictionary
281
     1
  0
DICTIONARY
  5
1B
102
{ACAD_REACTORS
330
C
102
}
330
C
100
AcDbDictionary
281
     1
  3
STANDARD
350
1C
  0
DICTIONARY
  5
98C
102
{ACAD_REACTORS
330
C
102
}
330
C
100
AcDbDictionary
281
     1
  0
ACDBDICTIONARYWDFLT
  5
985
102
{ACAD_REACTORS
330
C
102
}
330
C
100
AcDbDictionary
281
     1
  3
Normal
350
986
100
AcDbDictionaryWithDefault
340
986
  0
DICTIONARY
  5
989
102
{ACAD_REACTORS
330
C
102
}
330
C
100
AcDbDictionary
281
     1
  3
Standard
350
98A
  0
DICTIONARY
  5
995
102
{ACAD_REACTORS
330
C
102
}
330
C
100
AcDbDictionary
281
     1
  3
CTABLESTYLE
350
996
  0
DICTIONARY
  5
9A5
102
{ACAD_REACTORS
330
9A4
102
}
330
9A4
100
AcDbDictionary
281
     1
  0
LAYOUT
  5
98D
102
{ACAD_REACTORS
330
98B
102
}
330
98B
100
AcDbPlotSettings
  1

  2
A4 EPSON LP-6100.pc3
  4
A4
  6

 40
3.174999952316284
 41
3.174999952316284
 42
3.175003051757812
 43
3.17498779296875
 44
210.0
 45
297.0
 46
1.399999999999999
 47
25.0
 48
0.0
 49
0.0
140
0.0
141
0.0
142
1.0
143
1.0
 70
 28336
 72
     1
 73
     1
 74
     1
  7
AutoCad LT 98.ctb
 75
    16
147
1.0
 76
     1
 77
     2
 78
   300
148
0.2192243692990132
149
0.2135970551063337
100
AcDbLayout
  1
Model
 70
     1
 71
     0
 10
0.0
 20
0.0
 11
12.0
 21
9.0
 12
0.0
 22
0.0
 32
0.0
 14
0.0
 24
0.0
 34
0.0
 15
0.0
 25
0.0
 35
0.0
146
0.0
 13
0.0
 23
0.0
 33
0.0
 16
1.0
 26
0.0
 36
0.0
 17
0.0
 27
1.0
 37
0.0
 76
     0
330
18
  0
LAYOUT
  5
98E
102
{ACAD_REACTORS
330
98B
102
}
330
98B
100
AcDbPlotSettings
  1

  2
WIDR Printer
  4

  6

 40
0.0
 41
0.0
 42
0.0
 43
0.0
 44
0.0
 45
0.0
 46
0.0
 47
0.0
 48
0.0
 49
0.0
140
0.0
141
0.0
142
1.0
143
1.0
 70
   688
 72
     0
 73
     0
 74
     5
  7
AutoCad LT 98.ctb
 75
    16
147
1.0
 76
     0
 77
     2
 78
   300
148
0.0
149
0.0
100
AcDbLayout
  1
レイアウト1
 70
     1
 71
     1
 10
0.0
 20
0.0
 11
420.0
 21
297.0
 12
0.0
 22
0.0
 32
0.0
 14
-0.2
 24
-0.2
 34
0.0
 15
255.2
 25
195.2
 35
0.0
146
0.0
 13
0.0
 23
0.0
 33
0.0
 16
1.0
 26
0.0
 36
0.0
 17
0.0
 27
1.0
 37
0.0
 76
     0
330
15
331
177
  0
MLINESTYLE
  5
1C
102
{ACAD_REACTORS
330
1B
102
}
330
1B
100
AcDbMlineStyle
  2
STANDARD
 70
     0
  3

 62
   256
 51
90.0
 52
90.0
 71
     2
 49
0.5
 62
   256
  6
BYLAYER
 49
-0.5
 62
   256
  6
BYLAYER
  0
ACDBPLACEHOLDER
  5
986
102
{ACAD_REACTORS
330
985
102
}
330
985
  0
ACAD_PROXY_OBJECT
  5
98A
102
{ACAD_REACTORS
330
989
102
}
330
989
100
AcDbProxyObject
 90
      499
 91
      502
 95
       25
 70
     0
 93
     1841
310
4214DD185B99185C9928B81E85EB51B8AE3F2E07A17AD46E2B8FC02B5E8DC0F42B1CFD028000000C1008070000C3001FDFF8000000C1003FBFF000000182007F7FE00000030400FEFFC00000060801FDFF8000000C1003FBFF00000018200000000000000681FA0B0000001820100E000186003FBFF000000182007F7FE000
310
00030400FEFFC00000060801FDFF8000000C1003FBFF000000182007F7FE000000304000AD7A3703D0AC73F4160000003040201C00030C007F7FE00000030400FEFFC00000060801FDFF8000000C1003FBFF000000182007F7FE00000030400FEFFC000000608000
340
F
340
F
340
F
 94
        0
  0
DICTIONARYVAR
  5
996
102
{ACAD_REACTORS
330
995
102
}
330
995
100
DictionaryVariables
280
     0
  1
STANDARD
  0
ENDSEC
  0
EOF
