  0
SECTION
  2
HEADER
  9
$ACADVER
  1
AC1018
  9
$ACADMAINTVER
 70
   104
  9
$DWGCODEPAGE
  3
ANSI_932
  9
$LASTSAVEDBY
  1
S-chikara
  9
$INSBASE
 10
0.0
 20
0.0
 30
0.0
  9
$EXTMIN
 10
389.35892944653
 20
-1.103353913928458
 30
-0.0000000000000128
  9
$EXTMAX
 10
767.7298703479789
 20
282.2251590586855
 30
0.0000000000000025
  9
$LIMMIN
 10
0.0
 20
0.0
  9
$LIMMAX
 10
420.0
 20
297.0
  9
$ORTHOMODE
 70
     0
  9
$REGENMODE
 70
     1
  9
$FILLMODE
 70
     1
  9
$QTEXTMODE
 70
     0
  9
$MIRRTEXT
 70
     1
  9
$LTSCALE
 40
1.0
  9
$ATTMODE
 70
     1
  9
$TEXTSIZE
 40
3.0
  9
$TRACEWID
 40
1.0
  9
$TEXTSTYLE
  7
STYLE3
  9
$CLAYER
  8
寸法線
  9
$CELTYPE
  6
BYLAYER
  9
$CECOLOR
 62
   256
  9
$CELTSCALE
 40
1.0
  9
$DISPSILH
 70
     0
  9
$DIMSCALE
 40
1.0
  9
$DIMASZ
 40
2.5
  9
$DIMEXO
 40
0.0
  9
$DIMDLI
 40
3.75
  9
$DIMRND
 40
0.0
  9
$DIMDLE
 40
0.0
  9
$DIMEXE
 40
1.25
  9
$DIMTP
 40
0.0
  9
$DIMTM
 40
0.0
  9
$DIMTXT
 40
2.5
  9
$DIMCEN
 40
2.5
  9
$DIMTSZ
 40
0.0
  9
$DIMTOL
 70
     0
  9
$DIMLIM
 70
     0
  9
$DIMTIH
 70
     0
  9
$DIMTOH
 70
     0
  9
$DIMSE1
 70
     0
  9
$DIMSE2
 70
     0
  9
$DIMTAD
 70
     1
  9
$DIMZIN
 70
     8
  9
$DIMBLK
  1

  9
$DIMASO
 70
     1
  9
$DIMSHO
 70
     1
  9
$DIMPOST
  1

  9
$DIMAPOST
  1

  9
$DIMALT
 70
     0
  9
$DIMALTD
 70
     4
  9
$DIMALTF
 40
0.0394
  9
$DIMLFAC
 40
1.0
  9
$DIMTOFL
 70
     1
  9
$DIMTVP
 40
0.0
  9
$DIMTIX
 70
     0
  9
$DIMSOXD
 70
     0
  9
$DIMSAH
 70
     1
  9
$DIMBLK1
  1
OPEN
  9
$DIMBLK2
  1
OPEN
  9
$DIMSTYLE
  2
STYLE3
  9
$DIMCLRD
 70
     2
  9
$DIMCLRE
 70
     2
  9
$DIMCLRT
 70
     6
  9
$DIMTFAC
 40
1.0
  9
$DIMGAP
 40
0.625
  9
$DIMJUST
 70
     0
  9
$DIMSD1
 70
     0
  9
$DIMSD2
 70
     0
  9
$DIMTOLJ
 70
     1
  9
$DIMTZIN
 70
     0
  9
$DIMALTZ
 70
     0
  9
$DIMALTTZ
 70
     0
  9
$DIMUPT
 70
     0
  9
$DIMDEC
 70
     2
  9
$DIMTDEC
 70
     4
  9
$DIMALTU
 70
     8
  9
$DIMALTTD
 70
     4
  9
$DIMTXSTY
  7
STYLE3
  9
$DIMAUNIT
 70
     0
  9
$DIMADEC
 70
     0
  9
$DIMALTRND
 40
0.0
  9
$DIMAZIN
 70
     0
  9
$DIMDSEP
 70
    46
  9
$DIMATFIT
 70
     3
  9
$DIMFRAC
 70
     0
  9
$DIMLDRBLK
  1

  9
$DIMLUNIT
 70
     2
  9
$DIMLWD
 70
    -2
  9
$DIMLWE
 70
    -2
  9
$DIMTMOVE
 70
     0
  9
$LUNITS
 70
     2
  9
$LUPREC
 70
     4
  9
$SKETCHINC
 40
1.0
  9
$FILLETRAD
 40
0.0
  9
$AUNITS
 70
     0
  9
$AUPREC
 70
     0
  9
$MENU
  1
.
  9
$ELEVATION
 40
0.0
  9
$PELEVATION
 40
0.0
  9
$THICKNESS
 40
0.0
  9
$LIMCHECK
 70
     0
  9
$CHAMFERA
 40
0.5
  9
$CHAMFERB
 40
0.5
  9
$CHAMFERC
 40
20.0
  9
$CHAMFERD
 40
0.0
  9
$SKPOLY
 70
     0
  9
$TDCREATE
 40
2451682.620335069
  9
$TDUCREATE
 40
2451682.245335069
  9
$TDUPDATE
 40
2457107.415491007
  9
$TDUUPDATE
 40
2457107.040491007
  9
$TDINDWG
 40
1.8186823380
  9
$TDUSRTIMER
 40
1.8186823148
  9
$USRTIMER
 70
     1
  9
$ANGBASE
 50
0.0
  9
$ANGDIR
 70
     0
  9
$PDMODE
 70
     0
  9
$PDSIZE
 40
0.0
  9
$PLINEWID
 40
0.0
  9
$SPLFRAME
 70
     0
  9
$SPLINETYPE
 70
     6
  9
$SPLINESEGS
 70
     8
  9
$HANDSEED
  5
2CCC
  9
$SURFTAB1
 70
     6
  9
$SURFTAB2
 70
     6
  9
$SURFTYPE
 70
     6
  9
$SURFU
 70
     6
  9
$SURFV
 70
     6
  9
$UCSBASE
  2

  9
$UCSNAME
  2

  9
$UCSORG
 10
0.0
 20
0.0
 30
0.0
  9
$UCSXDIR
 10
1.0
 20
0.0
 30
0.0
  9
$UCSYDIR
 10
0.0
 20
1.0
 30
0.0
  9
$UCSORTHOREF
  2

  9
$UCSORTHOVIEW
 70
     0
  9
$UCSORGTOP
 10
0.0
 20
0.0
 30
0.0
  9
$UCSORGBOTTOM
 10
0.0
 20
0.0
 30
0.0
  9
$UCSORGLEFT
 10
0.0
 20
0.0
 30
0.0
  9
$UCSORGRIGHT
 10
0.0
 20
0.0
 30
0.0
  9
$UCSORGFRONT
 10
0.0
 20
0.0
 30
0.0
  9
$UCSORGBACK
 10
0.0
 20
0.0
 30
0.0
  9
$PUCSBASE
  2

  9
$PUCSNAME
  2

  9
$PUCSORG
 10
0.0
 20
0.0
 30
0.0
  9
$PUCSXDIR
 10
1.0
 20
0.0
 30
0.0
  9
$PUCSYDIR
 10
0.0
 20
1.0
 30
0.0
  9
$PUCSORTHOREF
  2

  9
$PUCSORTHOVIEW
 70
     0
  9
$PUCSORGTOP
 10
0.0
 20
0.0
 30
0.0
  9
$PUCSORGBOTTOM
 10
0.0
 20
0.0
 30
0.0
  9
$PUCSORGLEFT
 10
0.0
 20
0.0
 30
0.0
  9
$PUCSORGRIGHT
 10
0.0
 20
0.0
 30
0.0
  9
$PUCSORGFRONT
 10
0.0
 20
0.0
 30
0.0
  9
$PUCSORGBACK
 10
0.0
 20
0.0
 30
0.0
  9
$USERI1
 70
     0
  9
$USERI2
 70
     0
  9
$USERI3
 70
     0
  9
$USERI4
 70
     0
  9
$USERI5
 70
     0
  9
$USERR1
 40
0.0
  9
$USERR2
 40
0.0
  9
$USERR3
 40
0.0
  9
$USERR4
 40
0.0
  9
$USERR5
 40
0.0
  9
$WORLDVIEW
 70
     1
  9
$SHADEDGE
 70
     3
  9
$SHADEDIF
 70
    70
  9
$TILEMODE
 70
     1
  9
$MAXACTVP
 70
    48
  9
$PINSBASE
 10
0.0
 20
0.0
 30
0.0
  9
$PLIMCHECK
 70
     0
  9
$PEXTMIN
 10
1.000000000000000E+20
 20
1.000000000000000E+20
 30
1.000000000000000E+20
  9
$PEXTMAX
 10
-1.000000000000000E+20
 20
-1.000000000000000E+20
 30
-1.000000000000000E+20
  9
$PLIMMIN
 10
0.0
 20
0.0
  9
$PLIMMAX
 10
420.0
 20
297.0
  9
$UNITMODE
 70
     0
  9
$VISRETAIN
 70
     1
  9
$PLINEGEN
 70
     0
  9
$PSLTSCALE
 70
     1
  9
$TREEDEPTH
 70
  3020
  9
$CMLSTYLE
  2
STANDARD
  9
$CMLJUST
 70
     0
  9
$CMLSCALE
 40
20.0
  9
$PROXYGRAPHICS
 70
     1
  9
$MEASUREMENT
 70
     1
  9
$CELWEIGHT
370
    -1
  9
$ENDCAPS
280
     0
  9
$JOINSTYLE
280
     0
  9
$LWDISPLAY
290
     0
  9
$INSUNITS
 70
     0
  9
$HYPERLINKBASE
  1

  9
$STYLESHEET
  1
AUTOCAD LT 98.CTB
  9
$XEDIT
290
     1
  9
$CEPSNTYPE
380
     0
  9
$PSTYLEMODE
290
     1
  9
$FINGERPRINTGUID
  2
{CAA1D288-70EC-4861-8F7F-288FB2300E95}
  9
$VERSIONGUID
  2
{4AD08476-AC89-4EDA-9545-718406B3F39C}
  9
$EXTNAMES
290
     1
  9
$PSVPSCALE
 40
0.0
  9
$OLESTARTUP
290
     0
  9
$SORTENTS
280
   127
  9
$INDEXCTL
280
     0
  9
$HIDETEXT
280
     0
  9
$XCLIPFRAME
290
     0
  9
$HALOGAP
280
     0
  9
$OBSCOLOR
 70
   257
  9
$OBSLTYPE
280
     0
  9
$INTERSECTIONDISPLAY
280
     0
  9
$INTERSECTIONCOLOR
 70
   257
  9
$DIMASSOC
280
     1
  9
$PROJECTNAME
  1

  0
ENDSEC
  0
SECTION
  2
CLASSES
  0
CLASS
  1
OLE2FRAME
  2
AcDbOle2Frame
  3
ObjectDBX Classes
 90
        0
 91
        0
280
     0
281
     1
  0
CLASS
  1
RASTERVARIABLES
  2
AcDbRasterVariables
  3
ISM
 90
        0
 91
        1
280
     0
281
     0
  0
CLASS
  1
HATCH
  2
AcDbHatch
  3
ObjectDBX Classes
 90
        0
 91
        8
280
     0
281
     1
  0
CLASS
  1
LWPOLYLINE
  2
AcDbPolyline
  3
ObjectDBX Classes
 90
        0
 91
        2
280
     0
281
     1
  0
CLASS
  1
ACDBDICTIONARYWDFLT
  2
AcDbDictionaryWithDefault
  3
ObjectDBX Classes
 90
        0
 91
        1
280
     0
281
     0
  0
CLASS
  1
TABLESTYLE
  2
AcDbTableStyle
  3
ObjectDBX Classes
 90
     4095
 91
        2
280
     0
281
     0
  0
CLASS
  1
SORTENTSTABLE
  2
AcDbSortentsTable
  3
ObjectDBX Classes
 90
        0
 91
        1
280
     0
281
     0
  0
CLASS
  1
DICTIONARYVAR
  2
AcDbDictionaryVar
  3
ObjectDBX Classes
 90
        0
 91
        5
280
     0
281
     0
  0
CLASS
  1
MATERIAL
  2
AcDbMaterial
  3
ObjectDBX Classes
 90
     1153
 91
        3
280
     0
281
     0
  0
CLASS
  1
VISUALSTYLE
  2
AcDbVisualStyle
  3
ObjectDBX Classes
 90
     4095
 91
       24
280
     0
281
     0
  0
CLASS
  1
SCALE
  2
AcDbScale
  3
ObjectDBX Classes
 90
     1153
 91
       17
280
     0
281
     0
  0
CLASS
  1
MLEADERSTYLE
  2
AcDbMLeaderStyle
  3
ACDB_MLEADERSTYLE_CLASS
 90
     4095
 91
        1
280
     0
281
     0
  0
CLASS
  1
ACDBSECTIONVIEWSTYLE
  2
AcDbSectionViewStyle
  3
ObjectDBX Classes
 90
     1025
 91
        1
280
     0
281
     0
  0
CLASS
  1
ACDBDETAILVIEWSTYLE
  2
AcDbDetailViewStyle
  3
ObjectDBX Classes
 90
     1025
 91
        1
280
     0
281
     0
  0
CLASS
  1
CELLSTYLEMAP
  2
AcDbCellStyleMap
  3
ObjectDBX Classes
 90
     1152
 91
        1
280
     0
281
     0
  0
ENDSEC
  0
SECTION
  2
TABLES
  0
TABLE
  2
VPORT
  5
8
330
0
100
AcDbSymbolTable
 70
     1
  0
VPORT
  5
2C11
330
8
100
AcDbSymbolTableRecord
100
AcDbViewportTableRecord
  2
*Active
 70
     0
 10
0.0
 20
0.0
 11
1.0
 21
1.0
 12
578.5443998972543
 22
140.5609025723784
 13
0.0
 23
0.0
 14
10.0
 24
10.0
 15
10.0
 25
10.0
 16
0.0
 26
0.0
 36
1.0
 17
0.0
 27
0.0
 37
0.0
 40
285.4722343822427
 41
2.422979797979798
 42
50.0
 43
0.0
 44
0.0
 50
0.0
 51
0.0
 71
     0
 72
   100
 73
     1
 74
     1
 75
     0
 76
     0
 77
     0
 78
     0
281
     0
 65
     1
110
0.0
120
0.0
130
0.0
111
1.0
121
0.0
131
0.0
112
0.0
122
1.0
132
0.0
 79
     0
146
0.0
1001
ACAD_NAV_VCDISPLAY
1070
     3
  0
ENDTAB
  0
TABLE
  2
LTYPE
  5
5
330
0
100
AcDbSymbolTable
 70
     4
  0
LTYPE
  5
12
330
5
100
AcDbSymbolTableRecord
100
AcDbLinetypeTableRecord
  2
BYBLOCK
 70
     0
  3

 72
    65
 73
     0
 40
0.0
  0
LTYPE
  5
13
330
5
100
AcDbSymbolTableRecord
100
AcDbLinetypeTableRecord
  2
BYLAYER
 70
     0
  3

 72
    65
 73
     0
 40
0.0
  0
LTYPE
  5
14
330
5
100
AcDbSymbolTableRecord
100
AcDbLinetypeTableRecord
  2
CONTINUOUS
 70
     0
  3
Solid line
 72
    65
 73
     0
 40
0.0
  0
LTYPE
  5
22
330
5
100
AcDbSymbolTableRecord
100
AcDbLinetypeTableRecord
  2
CENTER2
 70
     0
  3
Center (.5x) ___ _ ___ _ ___ _ ___ _ ___ _ ___
 72
    65
 73
     4
 40
28.575
 49
19.05
 74
     0
 49
-3.174999999999998
 74
     0
 49
3.174999999999998
 74
     0
 49
-3.174999999999998
 74
     0
  0
LTYPE
  5
23
330
5
100
AcDbSymbolTableRecord
100
AcDbLinetypeTableRecord
  2
HIDDEN2
 70
     0
  3
Hidden (.5x) _ _ _ _ _ _ _ _ _ _ _ _ _ _ _ _ _
 72
    65
 73
     2
 40
4.762499999999998
 49
3.174999999999998
 74
     0
 49
-1.587499999999999
 74
     0
  0
ENDTAB
  0
TABLE
  2
LAYER
  5
2
102
{ACAD_XDICTIONARY
360
25E1
102
}
330
0
100
AcDbSymbolTable
 70
     9
  0
LAYER
  5
E
102
{ACAD_XDICTIONARY
360
2C7C
102
}
330
2
100
AcDbSymbolTableRecord
100
AcDbLayerTableRecord
  2
0
 70
     0
 62
     7
  6
CONTINUOUS
370
    -3
390
13A5
  0
LAYER
  5
25
102
{ACAD_XDICTIONARY
360
2C7E
102
}
330
2
100
AcDbSymbolTableRecord
100
AcDbLayerTableRecord
  2
外形線
 70
     0
 62
     7
  6
CONTINUOUS
370
    -3
390
13A5
  0
LAYER
  5
26
102
{ACAD_XDICTIONARY
360
2C80
102
}
330
2
100
AcDbSymbolTableRecord
100
AcDbLayerTableRecord
  2
寸法線
 70
     0
 62
     2
  6
CONTINUOUS
370
    -3
390
13A5
  0
LAYER
  5
27
102
{ACAD_XDICTIONARY
360
2C82
102
}
330
2
100
AcDbSymbolTableRecord
100
AcDbLayerTableRecord
  2
中心線
 70
     0
 62
     4
  6
CENTER2
370
    -3
390
13A5
  0
LAYER
  5
2B
102
{ACAD_XDICTIONARY
360
2C84
102
}
330
2
100
AcDbSymbolTableRecord
100
AcDbLayerTableRecord
  2
文字
 70
     0
 62
     6
  6
CONTINUOUS
370
    -3
390
13A5
  0
LAYER
  5
2D
102
{ACAD_XDICTIONARY
360
2C86
102
}
330
2
100
AcDbSymbolTableRecord
100
AcDbLayerTableRecord
  2
針
 70
     0
 62
     5
  6
CONTINUOUS
370
    -3
390
13A5
  0
LAYER
  5
53
330
2
100
AcDbSymbolTableRecord
100
AcDbLayerTableRecord
  2
DEFPOINTS
 70
     0
 62
     7
  6
CONTINUOUS
290
     0
370
    -3
390
13A5
  0
LAYER
  5
A5
102
{ACAD_XDICTIONARY
360
2C88
102
}
330
2
100
AcDbSymbolTableRecord
100
AcDbLayerTableRecord
  2
C
 70
     0
 62
     7
  6
CONTINUOUS
370
    -3
390
13A5
  0
LAYER
  5
1FE
102
{ACAD_XDICTIONARY
360
2C8A
102
}
330
2
100
AcDbSymbolTableRecord
100
AcDbLayerTableRecord
  2
隠れ線2
 70
     0
 62
     1
  6
HIDDEN2
370
    -3
390
13A5
  0
ENDTAB
  0
TABLE
  2
STYLE
  5
3
330
0
100
AcDbSymbolTable
 70
     3
  0
STYLE
  5
F
330
3
100
AcDbSymbolTableRecord
100
AcDbTextStyleTableRecord
  2
STANDARD
 70
     0
 40
0.0
 41
1.0
 50
0.0
 71
     0
 42
2.5
  3
txt
  4

  0
STYLE
  5
3F
330
3
100
AcDbSymbolTableRecord
100
AcDbTextStyleTableRecord
  2
STYLE3
 70
     0
 40
0.0
 41
1.0
 50
0.0
 71
     0
 42
3.0
  3
romans.shx
  4
bigfont.shx
  0
STYLE
  5
E7F
330
3
100
AcDbSymbolTableRecord
100
AcDbTextStyleTableRecord
  2
STYLE4
 70
     0
 40
0.0
 41
1.0
 50
0.0
 71
     0
 42
5.0
  3
romans.shx
  4
bigfont.shx
  0
ENDTAB
  0
TABLE
  2
VIEW
  5
6
330
0
100
AcDbSymbolTable
 70
     0
  0
ENDTAB
  0
TABLE
  2
UCS
  5
7
330
0
100
AcDbSymbolTable
 70
     0
  0
ENDTAB
  0
TABLE
  2
APPID
  5
9
330
0
100
AcDbSymbolTable
 70
     5
  0
APPID
  5
10
330
9
100
AcDbSymbolTableRecord
100
AcDbRegAppTableRecord
  2
ACAD
 70
     0
  0
APPID
  5
13EF
330
9
100
AcDbSymbolTableRecord
100
AcDbRegAppTableRecord
  2
ACAD_PSEXT
 70
     0
  0
APPID
  5
2C69
330
9
100
AcDbSymbolTableRecord
100
AcDbRegAppTableRecord
  2
ACAD_NAV_VCDISPLAY
 70
     0
  0
APPID
  5
2C7A
330
9
100
AcDbSymbolTableRecord
100
AcDbRegAppTableRecord
  2
ACAD_EXEMPT_FROM_CAD_STANDARDS
 70
     0
  0
APPID
  5
2CC7
330
9
100
AcDbSymbolTableRecord
100
AcDbRegAppTableRecord
  2
ACAD_MLEADERVER
 70
     0
  0
ENDTAB
  0
TABLE
  2
DIMSTYLE
  5
A
330
0
100
AcDbSymbolTable
 70
     2
100
AcDbDimStyleTable
 71
     1
340
8F
  0
DIMSTYLE
105
1D
330
A
100
AcDbSymbolTableRecord
100
AcDbDimStyleTableRecord
  2
STANDARD
 70
     0
 41
2.5
 42
0.625
 43
3.75
 44
1.25
 73
     0
 74
     0
 77
     1
 78
     8
140
2.5
141
2.5
143
0.0394
147
0.625
171
     4
172
     1
273
     8
274
     4
277
     6
340
F
  0
DIMSTYLE
105
8F
102
{ACAD_REACTORS
330
228A
330
228B
330
23D4
330
244A
330
2515
330
254E
102
}
330
A
100
AcDbSymbolTableRecord
100
AcDbDimStyleTableRecord
  2
STYLE3
 70
     0
 41
2.5
 42
0.0
 43
3.75
 44
1.25
 73
     0
 74
     0
 77
     1
 78
     8
140
2.5
141
2.5
143
0.0394
147
0.625
171
     4
172
     1
173
     1
176
     2
177
     2
178
     6
271
     1
273
     8
274
     4
340
3F
341
45
343
45
344
45
  0
ENDTAB
  0
TABLE
  2
BLOCK_RECORD
  5
1
330
0
100
AcDbSymbolTable
 70
     8
  0
BLOCK_RECORD
  5
18
102
{ACAD_XDICTIONARY
360
1D64
102
}
330
1
100
AcDbSymbolTableRecord
100
AcDbBlockTableRecord
  2
*MODEL_SPACE
340
13AC
  0
BLOCK_RECORD
  5
15
330
1
100
AcDbSymbolTableRecord
100
AcDbBlockTableRecord
  2
*PAPER_SPACE
340
13AD
  0
BLOCK_RECORD
  5
45
330
1
100
AcDbSymbolTableRecord
100
AcDbBlockTableRecord
  2
_OPEN
340
0
102
{BLKREFS
331
2274
331
2275
331
22FC
331
22FD
331
2585
331
2586
331
2590
331
2591
331
259D
331
259E
331
25B6
331
25B7
331
25BF
331
25C0
331
25C7
331
25C8
102
}
  0
BLOCK_RECORD
  5
247B
330
1
100
AcDbSymbolTableRecord
100
AcDbBlockTableRecord
  2
*D1
340
0
  0
BLOCK_RECORD
  5
2486
330
1
100
AcDbSymbolTableRecord
100
AcDbBlockTableRecord
  2
*D2
340
0
  0
BLOCK_RECORD
  5
2491
330
1
100
AcDbSymbolTableRecord
100
AcDbBlockTableRecord
  2
*D3
340
0
  0
BLOCK_RECORD
  5
249D
330
1
100
AcDbSymbolTableRecord
100
AcDbBlockTableRecord
  2
*D4
340
0
  0
BLOCK_RECORD
  5
2516
330
1
100
AcDbSymbolTableRecord
100
AcDbBlockTableRecord
  2
*D5
340
0
  0
BLOCK_RECORD
  5
254F
330
1
100
AcDbSymbolTableRecord
100
AcDbBlockTableRecord
  2
*D6
340
0
  0
ENDTAB
  0
ENDSEC
  0
SECTION
  2
BLOCKS
  0
BLOCK
  5
19
330
18
100
AcDbEntity
  8
0
100
AcDbBlockBegin
  2
*MODEL_SPACE
 70
     0
 10
0.0
 20
0.0
 30
0.0
  3
*MODEL_SPACE
  1

  0
ENDBLK
  5
1A
330
18
100
AcDbEntity
  8
0
100
AcDbBlockEnd
  0
BLOCK
  5
16
330
15
100
AcDbEntity
 67
     1
  8
0
100
AcDbBlockBegin
  2
*PAPER_SPACE
 70
     0
 10
0.0
 20
0.0
 30
0.0
  3
*PAPER_SPACE
  1

  0
ENDBLK
  5
17
330
15
100
AcDbEntity
 67
     1
  8
0
100
AcDbBlockEnd
  0
BLOCK
  5
46
330
45
100
AcDbEntity
  8
0
100
AcDbBlockBegin
  2
_OPEN
 70
     0
 10
0.0
 20
0.0
 30
0.0
  3
_OPEN
  1

  0
LINE
  5
47
330
45
100
AcDbEntity
  8
0
  6
ByBlock
 62
     0
100
AcDbLine
 10
-1.0
 20
0.1666666666666666
 30
0.0
 11
0.0
 21
0.0
 31
0.0
  0
LINE
  5
48
330
45
100
AcDbEntity
  8
0
  6
ByBlock
 62
     0
100
AcDbLine
 10
0.0
 20
0.0
 30
0.0
 11
-1.0
 21
-0.1666666666666666
 31
0.0
  0
LINE
  5
49
330
45
100
AcDbEntity
  8
0
  6
ByBlock
 62
     0
100
AcDbLine
 10
0.0
 20
0.0
 30
0.0
 11
-1.0
 21
0.0
 31
0.0
  0
ENDBLK
  5
4A
330
45
100
AcDbEntity
  8
0
100
AcDbBlockEnd
  0
BLOCK
  5
2484
330
247B
100
AcDbEntity
  8
0
100
AcDbBlockBegin
  2
*D1
 70
     1
 10
0.0
 20
0.0
 30
0.0
  3
*D1
  1

  0
LINE
  5
25B4
330
247B
100
AcDbEntity
  8
寸法線
 62
     2
440
 16777216
370
    -2
100
AcDbLine
 10
514.518332624066
 20
97.02197500412196
 30
0.0
 11
480.0132913180152
 21
97.02197500412196
 31
0.0
  0
LINE
  5
25B5
330
247B
100
AcDbEntity
  8
寸法線
 62
     2
440
 16777216
370
    -2
100
AcDbLine
 10
481.2632913180151
 20
133.5219750041219
 30
0.0
 11
481.2632913180151
 21
99.52197500412196
 31
0.0
  0
INSERT
  5
25B6
330
247B
100
AcDbEntity
  8
寸法線
 62
     2
440
 16777216
370
    -2
100
AcDbBlockReference
  2
_OPEN
 10
481.2632913180151
 20
136.0219750041219
 30
0.0
 41
2.5
 42
2.5
 43
2.5
 50
90.0
  0
INSERT
  5
25B7
330
247B
100
AcDbEntity
  8
寸法線
 62
     2
440
 16777216
370
    -2
100
AcDbBlockReference
  2
_OPEN
 10
481.2632913180151
 20
97.02197500412196
 30
0.0
 41
2.5
 42
2.5
 43
2.5
 50
270.0
  0
MTEXT
  5
25B8
330
247B
100
AcDbEntity
  8
寸法線
 62
     6
440
 16777216
100
AcDbMText
 10
479.3882913180151
 20
116.521975004122
 30
0.0
 40
2.5
 41
0.0
 71
     5
 72
     1
  1
\A1;40
  7
STYLE3
 11
0.0000000000000001
 21
1.0
 31
0.0
 73
     1
 44
1.0
  0
POINT
  5
25B9
330
247B
100
AcDbEntity
  8
DEFPOINTS
 62
     0
440
 16777216
100
AcDbPoint
 10
509.518332624066
 20
136.0219750041219
 30
0.0
  0
POINT
  5
25BA
330
247B
100
AcDbEntity
  8
DEFPOINTS
 62
     0
440
 16777216
100
AcDbPoint
 10
514.518332624066
 20
97.02197500412196
 30
0.0
  0
POINT
  5
25BB
330
247B
100
AcDbEntity
  8
DEFPOINTS
 62
     0
440
 16777216
100
AcDbPoint
 10
481.2632913180151
 20
97.02197500412196
 30
0.0
  0
ENDBLK
  5
2485
330
247B
100
AcDbEntity
  8
0
100
AcDbBlockEnd
  0
BLOCK
  5
248F
330
2486
100
AcDbEntity
  8
0
100
AcDbBlockBegin
  2
*D2
 70
     1
 10
0.0
 20
0.0
 30
0.0
  3
*D2
  1

  0
LINE
  5
25C5
330
2486
100
AcDbEntity
  8
寸法線
 62
     2
440
 16777216
370
    -2
100
AcDbLine
 10
536.518332624066
 20
46.02197500412193
 30
0.0
 11
480.0808588855828
 21
46.02197500412195
 31
0.0
  0
LINE
  5
25C6
330
2486
100
AcDbEntity
  8
寸法線
 62
     2
440
 16777216
370
    -2
100
AcDbLine
 10
481.3308588855826
 20
94.52197500412195
 30
0.0
 11
481.3308588855826
 21
48.52197500412195
 31
0.0
  0
INSERT
  5
25C7
330
2486
100
AcDbEntity
  8
寸法線
 62
     2
440
 16777216
370
    -2
100
AcDbBlockReference
  2
_OPEN
 10
481.3308588855826
 20
97.02197500412196
 30
0.0
 41
2.5
 42
2.5
 43
2.5
 50
90.0
  0
INSERT
  5
25C8
330
2486
100
AcDbEntity
  8
寸法線
 62
     2
440
 16777216
370
    -2
100
AcDbBlockReference
  2
_OPEN
 10
481.3308588855826
 20
46.02197500412195
 30
0.0
 41
2.5
 42
2.5
 43
2.5
 50
270.0
  0
MTEXT
  5
25C9
330
2486
100
AcDbEntity
  8
寸法線
 62
     6
440
 16777216
100
AcDbMText
 10
479.4558588855826
 20
71.52197500412203
 30
0.0
 40
2.5
 41
0.0
 71
     5
 72
     1
  1
\A1;50
  7
STYLE3
 11
0.0000000000000001
 21
1.0
 31
0.0
 73
     1
 44
1.0
  0
POINT
  5
25CA
330
2486
100
AcDbEntity
  8
DEFPOINTS
 62
     0
440
 16777216
100
AcDbPoint
 10
514.518332624066
 20
97.02197500412196
 30
0.0
  0
POINT
  5
25CB
330
2486
100
AcDbEntity
  8
DEFPOINTS
 62
     0
440
 16777216
100
AcDbPoint
 10
536.518332624066
 20
46.02197500412193
 30
0.0
  0
POINT
  5
25CC
330
2486
100
AcDbEntity
  8
DEFPOINTS
 62
     0
440
 16777216
100
AcDbPoint
 10
481.3308588855826
 20
46.02197500412195
 30
0.0
  0
ENDBLK
  5
2490
330
2486
100
AcDbEntity
  8
0
100
AcDbBlockEnd
  0
BLOCK
  5
249B
330
2491
100
AcDbEntity
  8
0
100
AcDbBlockBegin
  2
*D3
 70
     1
 10
0.0
 20
0.0
 30
0.0
  3
*D3
  1

  0
LINE
  5
25BC
330
2491
100
AcDbEntity
  8
針
 62
     2
440
 16777216
370
    -2
100
AcDbLine
 10
492.5246735047572
 20
193.121975004122
 30
0.0
 11
480.0132913180152
 21
193.121975004122
 31
0.0
  0
LINE
  5
25BD
330
2491
100
AcDbEntity
  8
針
 62
     2
440
 16777216
370
    -2
100
AcDbLine
 10
509.518332624066
 20
136.0219750041219
 30
0.0
 11
480.0132913180152
 21
136.0219750041219
 31
0.0
  0
LINE
  5
25BE
330
2491
100
AcDbEntity
  8
針
 62
     2
440
 16777216
370
    -2
100
AcDbLine
 10
481.2632913180151
 20
190.621975004122
 30
0.0
 11
481.2632913180151
 21
138.5219750041219
 31
0.0
  0
INSERT
  5
25BF
330
2491
100
AcDbEntity
  8
針
 62
     2
440
 16777216
370
    -2
100
AcDbBlockReference
  2
_OPEN
 10
481.2632913180151
 20
193.121975004122
 30
0.0
 41
2.5
 42
2.5
 43
2.5
 50
90.0
  0
INSERT
  5
25C0
330
2491
100
AcDbEntity
  8
針
 62
     2
440
 16777216
370
    -2
100
AcDbBlockReference
  2
_OPEN
 10
481.2632913180151
 20
136.0219750041219
 30
0.0
 41
2.5
 42
2.5
 43
2.5
 50
270.0
  0
MTEXT
  5
25C1
330
2491
100
AcDbEntity
  8
針
 62
     6
440
 16777216
100
AcDbMText
 10
479.3882913180151
 20
164.571975004122
 30
0.0
 40
2.5
 41
0.0
 71
     5
 72
     1
  1
\A1;57
  7
STYLE3
 11
0.0000000000000001
 21
1.0
 31
0.0
 73
     1
 44
1.0
  0
POINT
  5
25C2
330
2491
100
AcDbEntity
  8
DEFPOINTS
 62
     0
440
 16777216
100
AcDbPoint
 10
492.5246735047572
 20
193.121975004122
 30
0.0
  0
POINT
  5
25C3
330
2491
100
AcDbEntity
  8
DEFPOINTS
 62
     0
440
 16777216
100
AcDbPoint
 10
509.518332624066
 20
136.0219750041219
 30
0.0
  0
POINT
  5
25C4
330
2491
100
AcDbEntity
  8
DEFPOINTS
 62
     0
440
 16777216
100
AcDbPoint
 10
481.2632913180151
 20
136.0219750041219
 30
0.0
  0
ENDBLK
  5
249C
330
2491
100
AcDbEntity
  8
0
100
AcDbBlockEnd
  0
BLOCK
  5
24A9
330
249D
100
AcDbEntity
  8
0
100
AcDbBlockBegin
  2
*D4
 70
     1
 10
0.0
 20
0.0
 30
0.0
  3
*D4
  1

  0
LINE
  5
258B
330
249D
100
AcDbEntity
  8
文字
 62
     2
440
 16777216
370
    -2
100
AcDbLine
 10
521.518332624066
 20
129.6036770288978
 30
0.0
 11
521.518332624066
 21
132.1034457328705
 31
0.0
  0
LINE
  5
258C
330
249D
100
AcDbEntity
  8
文字
 62
     2
440
 16777216
370
    -2
100
AcDbLine
 10
525.518332624066
 20
129.6036770288978
 30
0.0
 11
525.518332624066
 21
132.1034457328705
 31
0.0
  0
LINE
  5
258D
330
249D
100
AcDbEntity
  8
文字
 62
     2
440
 16777216
370
    -2
100
AcDbLine
 10
519.018332624066
 20
130.8534457328705
 30
0.0
 11
516.518332624066
 21
130.8534457328705
 31
0.0
  0
LINE
  5
258E
330
249D
100
AcDbEntity
  8
文字
 62
     2
440
 16777216
370
    -2
100
AcDbLine
 10
528.018332624066
 20
130.8534457328705
 30
0.0
 11
535.8159516716851
 21
130.8534457328705
 31
0.0
  0
LINE
  5
258F
330
249D
100
AcDbEntity
  8
文字
 62
     2
440
 16777216
370
    -2
100
AcDbLine
 10
521.518332624066
 20
130.8534457328705
 30
0.0
 11
525.518332624066
 21
130.8534457328705
 31
0.0
  0
INSERT
  5
2590
330
249D
100
AcDbEntity
  8
文字
 62
     2
440
 16777216
370
    -2
100
AcDbBlockReference
  2
_OPEN
 10
521.518332624066
 20
130.8534457328705
 30
0.0
 41
2.5
 42
2.5
 43
2.5
  0
INSERT
  5
2591
330
249D
100
AcDbEntity
  8
文字
 62
     2
440
 16777216
370
    -2
100
AcDbBlockReference
  2
_OPEN
 10
525.518332624066
 20
130.8534457328705
 30
0.0
 41
2.5
 42
2.5
 43
2.5
 50
180.0
  0
MTEXT
  5
2592
330
249D
100
AcDbEntity
  8
文字
 62
     6
440
 16777216
100
AcDbMText
 10
533.1671421478755
 20
132.7284457328705
 30
0.0
 40
2.5
 41
0.0
 71
     5
 72
     1
  1
\A1;%%C4
  7
STYLE3
 73
     1
 44
1.0
  0
POINT
  5
2593
330
249D
100
AcDbEntity
  8
DEFPOINTS
 62
     0
440
 16777216
100
AcDbPoint
 10
521.518332624066
 20
129.6036770288978
 30
0.0
  0
POINT
  5
2594
330
249D
100
AcDbEntity
  8
DEFPOINTS
 62
     0
440
 16777216
100
AcDbPoint
 10
525.518332624066
 20
129.6036770288978
 30
0.0
  0
POINT
  5
2595
330
249D
100
AcDbEntity
  8
DEFPOINTS
 62
     0
440
 16777216
100
AcDbPoint
 10
525.518332624066
 20
130.8534457328705
 30
0.0
  0
ENDBLK
  5
24AA
330
249D
100
AcDbEntity
  8
0
100
AcDbBlockEnd
  0
BLOCK
  5
2520
330
2516
100
AcDbEntity
  8
0
100
AcDbBlockBegin
  2
*D5
 70
     1
 10
0.0
 20
0.0
 30
0.0
  3
*D5
  1

  0
LINE
  5
259A
330
2516
100
AcDbEntity
  8
寸法線
 62
     2
440
 16777216
370
    -2
100
AcDbLine
 10
523.5182757675235
 20
261.0219750042834
 30
0.0
 11
469.9736836369154
 21
261.0219750042834
 31
0.0
  0
LINE
  5
259B
330
2516
100
AcDbEntity
  8
寸法線
 62
     2
440
 16777216
370
    -2
100
AcDbLine
 10
493.9549439817533
 20
46.02197500412195
 30
0.0
 11
469.9736836369154
 21
46.02197500412195
 31
0.0
  0
LINE
  5
259C
330
2516
100
AcDbEntity
  8
寸法線
 62
     2
440
 16777216
370
    -2
100
AcDbLine
 10
471.2236836369156
 20
258.5219750042834
 30
0.0
 11
471.2236836369156
 21
48.52197500412195
 31
0.0
  0
INSERT
  5
259D
330
2516
100
AcDbEntity
  8
寸法線
 62
     2
440
 16777216
370
    -2
100
AcDbBlockReference
  2
_OPEN
 10
471.2236836369156
 20
261.0219750042834
 30
0.0
 41
2.5
 42
2.5
 43
2.5
 50
90.0
  0
INSERT
  5
259E
330
2516
100
AcDbEntity
  8
寸法線
 62
     2
440
 16777216
370
    -2
100
AcDbBlockReference
  2
_OPEN
 10
471.2236836369156
 20
46.02197500412195
 30
0.0
 41
2.5
 42
2.5
 43
2.5
 50
270.0
  0
MTEXT
  5
259F
330
2516
100
AcDbEntity
  8
寸法線
 62
     6
440
 16777216
100
AcDbMText
 10
469.3486836369155
 20
153.5219750042027
 30
0.0
 40
2.5
 41
0.0
 71
     5
 72
     1
  1
\A1;215
  7
STYLE3
 11
0.0000000000000001
 21
1.0
 31
0.0
 73
     1
 44
1.0
  0
POINT
  5
25A0
330
2516
100
AcDbEntity
  8
DEFPOINTS
 62
     0
440
 16777216
100
AcDbPoint
 10
523.5182757675235
 20
261.0219750042834
 30
0.0
  0
POINT
  5
25A1
330
2516
100
AcDbEntity
  8
DEFPOINTS
 62
     0
440
 16777216
100
AcDbPoint
 10
493.9549439817533
 20
46.02197500412195
 30
0.0
  0
POINT
  5
25A2
330
2516
100
AcDbEntity
  8
DEFPOINTS
 62
     0
440
 16777216
100
AcDbPoint
 10
471.2236836369156
 20
46.02197500412195
 30
0.0
  0
ENDBLK
  5
2521
330
2516
100
AcDbEntity
  8
0
100
AcDbBlockEnd
  0
BLOCK
  5
2559
330
254F
100
AcDbEntity
  8
0
100
AcDbBlockBegin
  2
*D6
 70
     1
 10
0.0
 20
0.0
 30
0.0
  3
*D6
  1

  0
LINE
  5
2581
330
254F
100
AcDbEntity
  8
寸法線
 62
     2
440
 16777216
370
    -2
100
AcDbLine
 10
518.5183326240657
 20
107.5219750041219
 30
0.0
 11
518.5183326240657
 21
119.7473058730131
 31
0.0
  0
LINE
  5
2582
330
254F
100
AcDbEntity
  8
寸法線
 62
     2
440
 16777216
370
    -2
100
AcDbLine
 10
528.5183326240658
 20
107.5219750041219
 30
0.0
 11
528.5183326240658
 21
119.7473058730131
 31
0.0
  0
LINE
  5
2583
330
254F
100
AcDbEntity
  8
寸法線
 62
     2
440
 16777216
370
    -2
100
AcDbLine
 10
521.0183326240658
 20
118.4973058730131
 30
0.0
 11
526.0183326240658
 21
118.4973058730131
 31
0.0
  0
LINE
  5
2584
330
254F
100
AcDbEntity
  8
寸法線
 62
     2
440
 16777216
370
    -2
100
AcDbLine
 10
528.5183326240658
 20
118.4973058730131
 30
0.0
 11
541.8125672513192
 21
118.4973058730131
 31
0.0
  0
INSERT
  5
2585
330
254F
100
AcDbEntity
  8
寸法線
 62
     2
440
 16777216
370
    -2
100
AcDbBlockReference
  2
_OPEN
 10
518.5183326240657
 20
118.4973058730131
 30
0.0
 41
2.5
 42
2.5
 43
2.5
 50
180.0
  0
INSERT
  5
2586
330
254F
100
AcDbEntity
  8
寸法線
 62
     2
440
 16777216
370
    -2
100
AcDbBlockReference
  2
_OPEN
 10
528.5183326240658
 20
118.4973058730131
 30
0.0
 41
2.5
 42
2.5
 43
2.5
  0
MTEXT
  5
2587
330
254F
100
AcDbEntity
  8
寸法線
 62
     6
440
 16777216
100
AcDbMText
 10
538.0328053465574
 20
120.3723058730131
 30
0.0
 40
2.5
 41
0.0
 71
     5
 72
     1
  1
\A1;%%C10
  7
STYLE3
 73
     1
 44
1.0
  0
POINT
  5
2588
330
254F
100
AcDbEntity
  8
DEFPOINTS
 62
     0
440
 16777216
100
AcDbPoint
 10
518.5183326240657
 20
107.5219750041219
 30
0.0
  0
POINT
  5
2589
330
254F
100
AcDbEntity
  8
DEFPOINTS
 62
     0
440
 16777216
100
AcDbPoint
 10
528.5183326240658
 20
107.5219750041219
 30
0.0
  0
POINT
  5
258A
330
254F
100
AcDbEntity
  8
DEFPOINTS
 62
     0
440
 16777216
100
AcDbPoint
 10
528.5183326240658
 20
118.4973058730131
 30
0.0
  0
ENDBLK
  5
255A
330
254F
100
AcDbEntity
  8
0
100
AcDbBlockEnd
  0
ENDSEC
  0
SECTION
  2
ENTITIES
  0
LWPOLYLINE
  5
2162
330
18
100
AcDbEntity
  8
C
100
AcDbPolyline
 90
        5
 70
     0
 43
0.8
 10
389.7888375759396
 20
281.8032220992023
 10
767.2888375759395
 20
281.8032220992023
 10
767.2888375759395
 20
-0.6967779007977697
 10
389.7888375759396
 20
-0.6967779007977697
 10
389.7888375759396
 20
281.8032220992023
  0
LINE
  5
2183
330
18
100
AcDbEntity
  8
外形線
100
AcDbLine
 10
509.518332624066
 20
136.0219750041219
 30
0.0
 11
677.9624298327238
 21
136.0219750041219
 31
0.0
  0
LINE
  5
2184
330
18
100
AcDbEntity
  8
外形線
100
AcDbLine
 10
514.518332624066
 20
97.02197500412196
 30
0.0
 11
677.9624298327237
 21
97.02197500412196
 31
0.0
  0
LINE
  5
2185
330
18
100
AcDbEntity
  8
外形線
100
AcDbLine
 10
514.518332624066
 20
59.02197500412193
 30
0.0
 11
556.5246147032634
 21
59.02197500412193
 31
0.0
  0
LINE
  5
2186
330
18
100
AcDbEntity
  8
外形線
100
AcDbLine
 10
514.518332624066
 20
97.02197500412196
 30
0.0
 11
514.518332624066
 21
59.02197500412193
 31
0.0
  0
LINE
  5
2187
330
18
100
AcDbEntity
  8
中心線
100
AcDbLine
 10
514.518332624066
 20
116.5219750041219
 30
0.0
 11
761.2810750009828
 21
116.5219750041219
 31
0.0
  0
LINE
  5
2188
330
18
100
AcDbEntity
  8
外形線
100
AcDbLine
 10
509.518332624066
 20
157.0219750041219
 30
0.0
 11
519.518332624066
 21
157.0219750041219
 31
0.0
  0
LINE
  5
2189
330
18
100
AcDbEntity
  8
外形線
100
AcDbLine
 10
519.518332624066
 20
157.0219750041219
 30
0.0
 11
524.0552402006102
 21
157.0219750041219
 31
0.0
  0
LINE
  5
218A
330
18
100
AcDbEntity
  8
中心線
 48
0.8
100
AcDbLine
 10
523.518332624066
 20
264.2479299866721
 30
0.0
 11
523.518332624066
 21
39.40196091570204
 31
0.0
  0
LINE
  5
218B
330
18
100
AcDbEntity
  8
外形線
100
AcDbLine
 10
509.518332624066
 20
157.0219750041219
 30
0.0
 11
509.518332624066
 21
136.0219750041219
 31
0.0
  0
LINE
  5
218C
330
18
100
AcDbEntity
  8
外形線
100
AcDbLine
 10
556.518332624066
 20
173.0219750041219
 30
0.0
 11
556.518332624066
 21
136.0219750041219
 31
0.0
  0
LINE
  5
218D
330
18
100
AcDbEntity
  8
外形線
100
AcDbLine
 10
554.518332624066
 20
173.0219750041219
 30
0.0
 11
588.4925129803498
 21
177.8243871617662
 31
0.0
  0
ARC
  5
218E
330
18
100
AcDbEntity
  8
外形線
100
AcDbCircle
 10
524.0552402006102
 20
194.0219750041219
 30
0.0
 40
37.0
100
AcDbArc
 50
270.0
 51
275.3705793458421
  0
ARC
  5
218F
330
18
100
AcDbEntity
  8
外形線
100
AcDbCircle
 10
524.0552402006102
 20
194.0219750041219
 30
0.0
 40
37.0
100
AcDbArc
 50
275.3705793458421
 51
325.4192215705267
  0
LINE
  5
2190
330
18
100
AcDbEntity
  8
中心線
 48
0.5
100
AcDbLine
 10
580.518332624066
 20
169.5441693413115
 30
0.0
 11
580.518332624066
 21
144.4997806669323
 31
0.0
  0
LINE
  5
2191
330
18
100
AcDbEntity
  8
中心線
 48
0.5
100
AcDbLine
 10
567.9961382868762
 20
157.0219750041219
 30
0.0
 11
593.0405269612556
 21
157.0219750041219
 31
0.0
  0
CIRCLE
  5
2192
330
18
100
AcDbEntity
  8
外形線
100
AcDbCircle
 10
580.518332624066
 20
157.0219750041219
 30
0.0
 40
10.0
  0
LINE
  5
2193
330
18
100
AcDbEntity
  8
外形線
100
AcDbLine
 10
559.518332624066
 20
168.96175247962
 30
0.0
 11
559.518332624066
 21
141.0219750041219
 31
0.0
  0
LINE
  5
2194
330
18
100
AcDbEntity
  8
外形線
100
AcDbLine
 10
561.518332624066
 20
139.0219750041219
 30
0.0
 11
670.518332624066
 21
139.0219750041219
 31
0.0
  0
ARC
  5
2195
330
18
100
AcDbEntity
  8
外形線
100
AcDbCircle
 10
561.518332624066
 20
141.0219750041219
 30
0.0
 40
2.0
100
AcDbArc
 50
180.0
 51
270.0
  0
ARC
  5
2196
330
18
100
AcDbEntity
  8
外形線
100
AcDbCircle
 10
609.518332624066
 20
167.0219750041219
 30
0.0
 40
12.0
100
AcDbArc
 50
82.98712852603946
 51
263.9202899073735
  0
ARC
  5
2197
330
18
100
AcDbEntity
  8
外形線
100
AcDbCircle
 10
609.518332624066
 20
167.0219750041219
 30
0.0
 40
18.0
100
AcDbArc
 50
86.25427745882729
 51
139.7860492824207
  0
ARC
  5
2198
330
18
100
AcDbEntity
  8
外形線
100
AcDbCircle
 10
609.518332624066
 20
167.0219750041219
 30
0.0
 40
21.0
100
AcDbArc
 50
86.25427745882729
 51
139.7860492824207
  0
ARC
  5
2199
330
18
100
AcDbEntity
  8
外形線
100
AcDbCircle
 10
670.518332624066
 20
160.0219750041219
 30
0.0
 40
11.5
100
AcDbArc
 50
263.9202899073735
 51
82.98712852603946
  0
LINE
  5
219A
330
18
100
AcDbEntity
  8
外形線
100
AcDbLine
 10
610.9834404091563
 20
178.9321999884816
 30
0.0
 11
671.9223942514441
 21
171.4359406141333
 31
0.0
  0
LINE
  5
219B
330
18
100
AcDbEntity
  8
外形線
100
AcDbLine
 10
608.2473892952089
 20
155.0894688526534
 30
0.0
 11
669.3003452672447
 21
148.5866566089646
 31
0.0
  0
ARC
  5
219C
330
18
100
AcDbEntity
  8
外形線
100
AcDbCircle
 10
670.518332624066
 20
160.0219750041219
 30
0.0
 40
21.0
100
AcDbArc
 50
270.0
 51
86.25427745882729
  0
LINE
  5
219D
330
18
100
AcDbEntity
  8
外形線
100
AcDbLine
 10
610.6942480207918
 20
184.9835234613052
 30
0.0
 11
671.8902339202462
 21
180.9771148708357
 31
0.0
  0
ARC
  5
219E
330
18
100
AcDbEntity
  8
外形線
100
AcDbCircle
 10
670.518332624066
 20
160.0219750041219
 30
0.0
 40
24.0
100
AcDbArc
 50
306.2512186576715
 51
59.3240795652052
  0
LINE
  5
219F
330
18
100
AcDbEntity
  8
外形線
100
AcDbLine
 10
610.8902339202463
 20
187.9771148708357
 30
0.0
 11
667.3599500193196
 21
184.2801280120503
 31
0.0
  0
ARC
  5
21A0
330
18
100
AcDbEntity
  8
外形線
100
AcDbCircle
 10
686.518332624066
 20
116.5219750041219
 30
0.0
 40
67.0
100
AcDbArc
 50
267.3832786311273
 51
92.61672136887268
  0
ARC
  5
21A1
330
18
100
AcDbEntity
  8
外形線
100
AcDbCircle
 10
686.518332624066
 20
116.5219750041219
 30
0.0
 40
70.0
100
AcDbArc
 50
265.2779090194039
 51
103.8228017762846
  0
ARC
  5
21A2
330
18
100
AcDbEntity
  8
外形線
100
AcDbCircle
 10
673.518332624066
 20
116.5219750041219
 30
0.0
 40
20.0
100
AcDbArc
 50
0.0
 51
77.16143185901559
  0
ARC
  5
21A3
330
18
100
AcDbEntity
  8
外形線
100
AcDbCircle
 10
673.518332624066
 20
116.5219750041219
 30
0.0
 40
23.0
100
AcDbArc
 50
0.0
 51
60.20692812192425
  0
ARC
  5
21A4
330
18
100
AcDbEntity
  8
外形線
100
AcDbCircle
 10
686.188492849903
 20
138.6515262840647
 30
0.0
 40
2.5
100
AcDbArc
 50
126.2512186576715
 51
240.2069281219243
  0
ARC
  5
21A5
330
18
100
AcDbEntity
  8
外形線
100
AcDbCircle
 10
683.527960993979
 20
181.9536773930554
 30
0.0
 40
1.5
100
AcDbArc
 50
92.61672136887268
 51
239.3240795652052
  0
ARC
  5
21A6
330
18
100
AcDbEntity
  8
外形線
100
AcDbCircle
 10
667.8825790845312
 20
192.2630384374651
 30
0.0
 40
8.0
100
AcDbArc
 50
266.2542774588274
 51
283.8228017762846
  0
LINE
  5
21A7
330
18
100
AcDbEntity
  8
外形線
100
AcDbLine
 10
560.518332624066
 20
92.02197500412195
 30
0.0
 11
560.518332624066
 21
61.5433853362029
 31
0.0
  0
LINE
  5
21A8
330
18
100
AcDbEntity
  8
外形線
100
AcDbLine
 10
562.518332624066
 20
94.02197500412192
 30
0.0
 11
670.518332624066
 21
94.02197500412192
 31
0.0
  0
ARC
  5
21A9
330
18
100
AcDbEntity
  8
外形線
100
AcDbCircle
 10
562.518332624066
 20
92.02197500412195
 30
0.0
 40
2.0
100
AcDbArc
 50
90.0
 51
180.0
  0
LINE
  5
21AA
330
18
100
AcDbEntity
  8
外形線
100
AcDbLine
 10
558.3536870912934
 20
56.87036895377161
 30
0.0
 11
680.7557389770273
 21
46.7595745690802
 31
0.0
  0
LINE
  5
21AB
330
18
100
AcDbEntity
  8
外形線
100
AcDbLine
 10
562.3536870912934
 20
59.55017389520174
 30
0.0
 11
661.7494286039471
 21
51.3397730917368
 31
0.0
  0
ARC
  5
21AC
330
18
100
AcDbEntity
  8
外形線
100
AcDbCircle
 10
562.518332624066
 20
61.5433853362029
 30
0.0
 40
2.0
100
AcDbArc
 50
180.0
 51
265.2779090194039
  0
ARC
  5
21AD
330
18
100
AcDbEntity
  8
外形線
100
AcDbCircle
 10
558.518332624066
 20
58.86358039477284
 30
0.0
 40
2.0
100
AcDbArc
 50
180.0
 51
265.2779090194039
  0
LINE
  5
21AE
330
18
100
AcDbEntity
  8
外形線
100
AcDbLine
 10
556.518332624066
 20
58.86358039477284
 30
0.0
 11
556.518332624066
 21
59.02197500412193
 31
0.0
  0
LINE
  5
21AF
330
18
100
AcDbEntity
  8
中心線
100
AcDbLine
 10
705.1729939973265
 20
142.5219750041219
 30
0.0
 11
735.8636712508054
 21
142.5219750041219
 31
0.0
  0
LINE
  5
21B0
330
18
100
AcDbEntity
  8
中心線
100
AcDbLine
 10
720.518332624066
 20
157.2383016108963
 30
0.0
 11
720.518332624066
 21
126.8456093854309
 31
0.0
  0
CIRCLE
  5
21B1
330
18
100
AcDbEntity
  8
外形線
100
AcDbCircle
 10
720.518332624066
 20
142.5219750041219
 30
0.0
 40
12.0
  0
LINE
  5
21B2
330
18
100
AcDbEntity
  8
中心線
100
AcDbLine
 10
705.1729939973265
 20
90.52197500412193
 30
0.0
 11
735.8636712508054
 21
90.52197500412193
 31
0.0
  0
CIRCLE
  5
21B3
330
18
100
AcDbEntity
  8
外形線
100
AcDbCircle
 10
720.518332624066
 20
90.52197500412193
 30
0.0
 40
12.0
  0
LINE
  5
21B4
330
18
100
AcDbEntity
  8
中心線
100
AcDbLine
 10
720.518332624066
 20
75.80564839734757
 30
0.0
 11
720.518332624066
 21
106.1983406228129
 31
0.0
  0
ARC
  5
21B5
330
18
100
AcDbEntity
  8
外形線
100
AcDbCircle
 10
673.518332624066
 20
116.5219750041219
 30
0.0
 40
20.0
100
AcDbArc
 50
282.8385681409844
 51
0.0
  0
ARC
  5
21B6
330
18
100
AcDbEntity
  8
外形線
100
AcDbCircle
 10
673.518332624066
 20
116.5219750041219
 30
0.0
 40
23.0
100
AcDbArc
 50
299.7930718780758
 51
0.0
  0
ARC
  5
21B7
330
18
100
AcDbEntity
  8
外形線
100
AcDbCircle
 10
686.188492849903
 20
94.39242372417915
 30
0.0
 40
2.5
100
AcDbArc
 50
119.7930718780757
 51
233.7487813423285
  0
ARC
  5
21B8
330
18
100
AcDbEntity
  8
外形線
100
AcDbCircle
 10
670.518332624066
 20
73.02197500412193
 30
0.0
 40
21.0
100
AcDbArc
 50
273.7457225411727
 51
90.0
  0
ARC
  5
21B9
330
18
100
AcDbEntity
  8
外形線
100
AcDbCircle
 10
670.518332624066
 20
73.02197500412193
 30
0.0
 40
24.0
100
AcDbArc
 50
300.6759204347948
 51
53.74878134232853
  0
ARC
  5
21BA
330
18
100
AcDbEntity
  8
外形線
100
AcDbCircle
 10
683.527960993979
 20
51.09027261518838
 30
0.0
 40
1.5
100
AcDbArc
 50
120.6759204347948
 51
267.3832786311273
  0
ARC
  5
21BB
330
18
100
AcDbEntity
  8
外形線
100
AcDbCircle
 10
578.518332624066
 20
77.02197500412193
 30
0.0
 40
7.0
100
AcDbArc
 50
90.89561113612594
 51
263.7368385449375
  0
ARC
  5
21BC
330
18
100
AcDbEntity
  8
外形線
100
AcDbCircle
 10
610.518332624066
 20
75.52197500412193
 30
0.0
 40
9.0
100
AcDbArc
 50
263.7368385449375
 51
90.89561113612594
  0
ARC
  5
21BD
330
18
100
AcDbEntity
  8
外形線
100
AcDbCircle
 10
636.518332624066
 20
74.02197500412192
 30
0.0
 40
9.0
100
AcDbArc
 50
91.6379142061695
 51
265.0889317105966
  0
ARC
  5
21BE
330
18
100
AcDbEntity
  8
外形線
100
AcDbCircle
 10
671.518332624066
 20
73.02197500412193
 30
0.0
 40
11.0
100
AcDbArc
 50
265.0889317105966
 51
91.6379142061695
  0
LINE
  5
21BF
330
18
100
AcDbEntity
  8
外形線
100
AcDbLine
 10
578.4089175379307
 20
84.02111983323683
 30
0.0
 11
610.3776560847492
 21
84.52087549869828
 31
0.0
  0
LINE
  5
21C0
330
18
100
AcDbEntity
  8
外形線
100
AcDbLine
 10
577.7546661024057
 20
70.06375587537241
 30
0.0
 11
609.5364756676457
 21
66.57569326715827
 31
0.0
  0
LINE
  5
21C1
330
18
100
AcDbEntity
  8
外形線
100
AcDbLine
 10
636.2610847034077
 20
83.01829778108572
 30
0.0
 11
671.2039184988172
 21
84.01748062041098
 31
0.0
  0
LINE
  5
21C2
330
18
100
AcDbEntity
  8
外形線
100
AcDbLine
 10
635.7478480814287
 20
65.05501601182372
 30
0.0
 11
670.5766292941762
 21
62.0623584579797
 31
0.0
  0
ARC
  5
21C3
330
18
100
AcDbEntity
  8
外形線
100
AcDbCircle
 10
587.3728060867641
 20
185.745640627756
 30
0.0
 40
8.0
100
AcDbArc
 50
278.0457261530008
 51
319.7860492824209
  0
LINE
  5
21C4
330
18
100
AcDbEntity
  8
外形線
100
AcDbLine
 10
561.2384059006696
 20
170.9420658461175
 30
0.0
 11
588.9124030654444
 21
174.85391711202
 31
0.0
  0
ARC
  5
21C5
330
18
100
AcDbEntity
  8
外形線
100
AcDbCircle
 10
561.518332624066
 20
168.96175247962
 30
0.0
 40
2.0
100
AcDbArc
 50
98.04572615300077
 51
180.0
  0
ARC
  5
21C6
330
18
100
AcDbEntity
  8
外形線
100
AcDbCircle
 10
587.3728060867641
 20
185.745640627756
 30
0.0
 40
11.0
100
AcDbArc
 50
278.0457261530008
 51
319.7860492824209
  0
ARC
  5
21C7
330
18
100
AcDbEntity
  8
外形線
100
AcDbCircle
 10
656.6727489380371
 20
193.2312342126689
 30
0.0
 40
141.982250353568
100
AcDbArc
 50
272.049089463432
 51
276.1527102232159
  0
LINE
  5
21C8
330
18
100
AcDbEntity
  8
外形線
100
AcDbLine
 10
444.8608609721414
 20
46.52197500412193
 30
0.0
 11
424.8608609721414
 21
46.52197500412193
 31
0.0
  0
LINE
  5
21C9
330
18
100
AcDbEntity
  8
外形線
100
AcDbLine
 10
447.8608609721415
 20
59.02197500412193
 30
0.0
 11
421.8608609721415
 21
59.02197500412193
 31
0.0
  0
LINE
  5
21CA
330
18
100
AcDbEntity
  8
外形線
100
AcDbLine
 10
444.8608609721414
 20
136.0219750041219
 30
0.0
 11
435.6108609721415
 21
136.0219750041219
 31
0.0
  0
LINE
  5
21CB
330
18
100
AcDbEntity
  8
外形線
100
AcDbLine
 10
441.8608609721415
 20
157.0219750041219
 30
0.0
 11
435.6108609721415
 21
157.0219750041219
 31
0.0
  0
LINE
  5
21CC
330
18
100
AcDbEntity
  8
外形線
100
AcDbLine
 10
444.8608609721414
 20
97.02197500412196
 30
0.0
 11
424.8608609721414
 21
97.02197500412196
 31
0.0
  0
LINE
  5
21CD
330
18
100
AcDbEntity
  8
外形線
100
AcDbLine
 10
444.8608609721414
 20
163.121975004122
 30
0.0
 11
444.8608609721414
 21
59.02197500412193
 31
0.0
  0
LINE
  5
21CE
330
18
100
AcDbEntity
  8
外形線
100
AcDbLine
 10
423.8608609721413
 20
188.0219750041218
 30
0.0
 11
423.8608609721413
 21
136.0219750041219
 31
0.0
  0
LINE
  5
21CF
330
18
100
AcDbEntity
  8
中心線
100
AcDbLine
 10
434.8608609721416
 20
254.3587101447287
 30
0.0
 11
434.8608609721416
 21
40.7055907681812
 31
0.0
  0
LINE
  5
21D0
330
18
100
AcDbEntity
  8
外形線
100
AcDbLine
 10
441.8608609721415
 20
157.0219750041219
 30
0.0
 11
441.8608609721415
 21
136.0219750041219
 31
0.0
  0
LINE
  5
21D1
330
18
100
AcDbEntity
  8
外形線
100
AcDbLine
 10
427.8608609721414
 20
159.5219750041218
 30
0.0
 11
427.8608609721414
 21
136.0219750041219
 31
0.0
  0
LINE
  5
21D2
330
18
100
AcDbEntity
  8
外形線
100
AcDbLine
 10
434.1108609721414
 20
136.0219750041219
 30
0.0
 11
422.3608609721415
 21
136.0219750041219
 31
0.0
  0
LINE
  5
21D3
330
18
100
AcDbEntity
  8
外形線
100
AcDbLine
 10
434.1108609721414
 20
157.0219750041219
 30
0.0
 11
427.8608609721414
 21
157.0219750041219
 31
0.0
  0
LINE
  5
21D4
330
18
100
AcDbEntity
  8
外形線
100
AcDbLine
 10
443.8608609721415
 20
163.121975004122
 30
0.0
 11
443.8608609721415
 21
150.3934826023273
 31
0.0
  0
LINE
  5
21D5
330
18
100
AcDbEntity
  8
外形線
100
AcDbLine
 10
425.8608609721415
 20
59.02197500412193
 30
0.0
 11
425.8608609721415
 21
97.02197500412196
 31
0.0
  0
LINE
  5
21D6
330
18
100
AcDbEntity
  8
外形線
100
AcDbLine
 10
424.8608609721414
 20
46.52197500412193
 30
0.0
 11
425.6979838321823
 21
55.18485214408116
 31
0.0
  0
LINE
  5
21D7
330
18
100
AcDbEntity
  8
外形線
100
AcDbLine
 10
443.8608609721415
 20
59.02197500412193
 30
0.0
 11
443.8608609721415
 21
97.02197500412196
 31
0.0
  0
LINE
  5
21D8
330
18
100
AcDbEntity
  8
外形線
100
AcDbLine
 10
444.8608609721414
 20
46.52197500412193
 30
0.0
 11
444.0237381121006
 21
55.18485214408122
 31
0.0
  0
LINE
  5
21D9
330
18
100
AcDbEntity
  8
中心線
 48
0.3
100
AcDbLine
 10
510.1745331810191
 20
147.0219750041219
 30
0.0
 11
520.8019864393138
 21
147.0219750041219
 31
0.0
  0
CIRCLE
  5
21DA
330
18
100
AcDbEntity
  8
外形線
100
AcDbCircle
 10
515.518332624066
 20
147.0219750041219
 30
0.0
 40
3.9
  0
LINE
  5
21DB
330
18
100
AcDbEntity
  8
中心線
 48
0.5
100
AcDbLine
 10
421.0530046205827
 20
147.0219750041219
 30
0.0
 11
446.0033465726564
 21
147.0219750041219
 31
0.0
  0
LINE
  5
21DC
330
18
100
AcDbEntity
  8
隠れ線2
 48
0.5
100
AcDbLine
 10
427.8608609721414
 20
149.5219750041219
 30
0.0
 11
434.1108609721414
 21
149.5219750041219
 31
0.0
  0
LINE
  5
21DD
330
18
100
AcDbEntity
  8
隠れ線2
 48
0.5
100
AcDbLine
 10
427.8608609721414
 20
144.521975004122
 30
0.0
 11
434.1108609721414
 21
144.5219750041219
 31
0.0
  0
LINE
  5
21DE
330
18
100
AcDbEntity
  8
隠れ線2
 48
0.5
100
AcDbLine
 10
435.6108609721415
 20
149.5219750041219
 30
0.0
 11
441.8608609721415
 21
149.5219750041219
 31
0.0
  0
LINE
  5
21DF
330
18
100
AcDbEntity
  8
隠れ線2
 48
0.5
100
AcDbLine
 10
435.6108609721415
 20
144.5219750041219
 30
0.0
 11
441.8608609721415
 21
144.5219750041219
 31
0.0
  0
LINE
  5
21E0
330
18
100
AcDbEntity
  8
隠れ線2
 48
0.5
100
AcDbLine
 10
427.8608609721414
 20
149.0219750041219
 30
0.0
 11
434.1108609721414
 21
149.0219750041219
 31
0.0
  0
LINE
  5
21E1
330
18
100
AcDbEntity
  8
隠れ線2
 48
0.5
100
AcDbLine
 10
427.8608609721414
 20
145.0219750041219
 30
0.0
 11
434.1108609721414
 21
145.0219750041219
 31
0.0
  0
LINE
  5
21E2
330
18
100
AcDbEntity
  8
中心線
 48
0.4
100
AcDbLine
 10
516.4075116008823
 20
89.02197500412192
 30
0.0
 11
530.6291536472497
 21
89.02197500412192
 31
0.0
  0
CIRCLE
  5
21E3
330
18
100
AcDbEntity
  8
外形線
100
AcDbCircle
 10
523.518332624066
 20
89.02197500412192
 30
0.0
 40
5.0
  0
LINE
  5
21E4
330
18
100
AcDbEntity
  8
中心線
100
AcDbLine
 10
516.1953360616478
 20
61.52197500412193
 30
0.0
 11
530.4169781080152
 21
61.52197500412193
 31
0.0
  0
CIRCLE
  5
21E5
330
18
100
AcDbEntity
  8
外形線
100
AcDbCircle
 10
523.518332624066
 20
61.52197500412193
 30
0.0
 40
0.75
  0
LINE
  5
21E6
330
18
100
AcDbEntity
  8
中心線
 48
0.3
100
AcDbLine
 10
515.518332624066
 20
152.474678097394
 30
0.0
 11
515.518332624066
 21
141.2025974187235
 31
0.0
  0
LINE
  5
21E7
330
18
100
AcDbEntity
  8
隠れ線2
100
AcDbLine
 10
528.518332624066
 20
97.02197500412188
 30
0.0
 11
528.518332624066
 21
59.02197500412193
 31
0.0
  0
LINE
  5
21E8
330
18
100
AcDbEntity
  8
隠れ線2
100
AcDbLine
 10
518.518332624066
 20
97.02197500412188
 30
0.0
 11
518.518332624066
 21
59.02197500412193
 31
0.0
  0
LINE
  5
21E9
330
18
100
AcDbEntity
  8
隠れ線2
100
AcDbLine
 10
439.8608609721414
 20
97.02197500412188
 30
0.0
 11
439.8608609721414
 21
59.02197500412193
 31
0.0
  0
LINE
  5
21EA
330
18
100
AcDbEntity
  8
隠れ線2
100
AcDbLine
 10
429.8608609721415
 20
97.02197500412188
 30
0.0
 11
429.8608609721415
 21
59.02197500412193
 31
0.0
  0
ARC
  5
21EE
330
18
100
AcDbEntity
  8
隠れ線2
100
AcDbCircle
 10
491.3942628571298
 20
173.0219750041219
 30
0.0
 40
62.5
100
AcDbArc
 50
323.7009369134413
 51
359.1875238508171
  0
LINE
  5
21EF
330
18
100
AcDbEntity
  8
外形線
100
AcDbLine
 10
526.018332624066
 20
114.021975004122
 30
0.0
 11
526.018332624066
 21
108.5219750041219
 31
0.0
  0
LINE
  5
21F0
330
18
100
AcDbEntity
  8
外形線
100
AcDbLine
 10
521.018332624066
 20
114.0219750041219
 30
0.0
 11
521.018332624066
 21
108.5219750041219
 31
0.0
  0
LINE
  5
21F1
330
18
100
AcDbEntity
  8
外形線
100
AcDbLine
 10
514.518332624066
 20
98.52197500412195
 30
0.0
 11
532.518332624066
 21
98.52197500412195
 31
0.0
  0
LINE
  5
21F2
330
18
100
AcDbEntity
  8
外形線
100
AcDbLine
 10
513.518332624066
 20
101.0219750041219
 30
0.0
 11
533.518332624066
 21
101.0219750041219
 31
0.0
  0
LINE
  5
21F3
330
18
100
AcDbEntity
  8
外形線
100
AcDbLine
 10
513.518332624066
 20
103.5219750041219
 30
0.0
 11
533.518332624066
 21
103.5219750041219
 31
0.0
  0
LINE
  5
21F4
330
18
100
AcDbEntity
  8
外形線
100
AcDbLine
 10
530.018332624066
 20
98.52197500412195
 30
0.0
 11
530.018332624066
 21
97.02197500412196
 31
0.0
  0
LINE
  5
21F5
330
18
100
AcDbEntity
  8
外形線
100
AcDbLine
 10
517.018332624066
 20
98.52197500412195
 30
0.0
 11
517.018332624066
 21
97.02197500412196
 31
0.0
  0
LINE
  5
21F6
330
18
100
AcDbEntity
  8
外形線
100
AcDbLine
 10
533.518332624066
 20
103.5219750041219
 30
0.0
 11
533.518332624066
 21
101.0219750041219
 31
0.0
  0
LINE
  5
21F7
330
18
100
AcDbEntity
  8
外形線
100
AcDbLine
 10
513.518332624066
 20
103.5219750041219
 30
0.0
 11
513.518332624066
 21
101.0219750041219
 31
0.0
  0
LINE
  5
21F8
330
18
100
AcDbEntity
  8
外形線
100
AcDbLine
 10
533.518332624066
 20
101.0219750041219
 30
0.0
 11
532.518332624066
 21
98.52197500412195
 31
0.0
  0
LINE
  5
21F9
330
18
100
AcDbEntity
  8
外形線
100
AcDbLine
 10
513.518332624066
 20
101.0219750041219
 30
0.0
 11
514.518332624066
 21
98.52197500412195
 31
0.0
  0
LINE
  5
21FA
330
18
100
AcDbEntity
  8
外形線
100
AcDbLine
 10
528.5183326240658
 20
108.5219750041219
 30
0.0
 11
528.518332624066
 21
103.521975004122
 31
0.0
  0
LINE
  5
21FB
330
18
100
AcDbEntity
  8
外形線
100
AcDbLine
 10
518.5183326240657
 20
108.5219750041219
 30
0.0
 11
518.518332624066
 21
103.521975004122
 31
0.0
  0
LINE
  5
21FC
330
18
100
AcDbEntity
  8
外形線
100
AcDbLine
 10
437.3608609721416
 20
114.021975004122
 30
0.0
 11
437.3608609721414
 21
107.5219750041219
 31
0.0
  0
LINE
  5
21FD
330
18
100
AcDbEntity
  8
外形線
100
AcDbLine
 10
432.3608609721416
 20
114.0219750041219
 30
0.0
 11
432.3608609721416
 21
107.5219750041219
 31
0.0
  0
LINE
  5
21FE
330
18
100
AcDbEntity
  8
外形線
100
AcDbLine
 10
424.8608609721414
 20
101.0219750041219
 30
0.0
 11
425.8608609721415
 21
98.52197500412195
 31
0.0
  0
LINE
  5
21FF
330
18
100
AcDbEntity
  8
外形線
100
AcDbLine
 10
444.8608609721414
 20
101.0219750041219
 30
0.0
 11
443.8608609721415
 21
98.52197500412195
 31
0.0
  0
LINE
  5
2200
330
18
100
AcDbEntity
  8
外形線
100
AcDbLine
 10
425.8608609721415
 20
98.52197500412195
 30
0.0
 11
443.8608609721415
 21
98.52197500412195
 31
0.0
  0
LINE
  5
2201
330
18
100
AcDbEntity
  8
外形線
100
AcDbLine
 10
428.3608609721414
 20
98.52197500412195
 30
0.0
 11
428.3608609721414
 21
97.02197500412196
 31
0.0
  0
LINE
  5
2202
330
18
100
AcDbEntity
  8
外形線
100
AcDbLine
 10
441.3608609721414
 20
98.52197500412195
 30
0.0
 11
441.3608609721414
 21
97.02197500412196
 31
0.0
  0
LINE
  5
2203
330
18
100
AcDbEntity
  8
外形線
100
AcDbLine
 10
424.8608609721414
 20
101.0219750041219
 30
0.0
 11
444.8608609721414
 21
101.0219750041219
 31
0.0
  0
LINE
  5
2204
330
18
100
AcDbEntity
  8
外形線
100
AcDbLine
 10
424.8608609721414
 20
103.521975004122
 30
0.0
 11
444.8608609721414
 21
103.521975004122
 31
0.0
  0
LINE
  5
2205
330
18
100
AcDbEntity
  8
外形線
100
AcDbLine
 10
424.8608609721414
 20
103.521975004122
 30
0.0
 11
424.8608609721414
 21
101.0219750041219
 31
0.0
  0
LINE
  5
2206
330
18
100
AcDbEntity
  8
外形線
100
AcDbLine
 10
444.8608609721414
 20
103.521975004122
 30
0.0
 11
444.8608609721414
 21
101.0219750041219
 31
0.0
  0
LINE
  5
2207
330
18
100
AcDbEntity
  8
外形線
100
AcDbLine
 10
536.518332624066
 20
46.02197500412193
 30
0.0
 11
556.518332624066
 21
46.02197500412193
 31
0.0
  0
LINE
  5
2208
330
18
100
AcDbEntity
  8
外形線
100
AcDbLine
 10
556.518332624066
 20
58.86358039477284
 30
0.0
 11
556.518332624066
 21
46.02197500412193
 31
0.0
  0
LINE
  5
2209
330
18
100
AcDbEntity
  8
外形線
100
AcDbLine
 10
536.518332624066
 20
59.02197500412193
 30
0.0
 11
536.518332624066
 21
46.02197500412193
 31
0.0
  0
LINE
  5
220A
330
18
100
AcDbEntity
  8
外形線
100
AcDbLine
 10
514.518332624066
 20
57.02197500412193
 30
0.0
 11
530.518332624066
 21
57.02197500412193
 31
0.0
  0
LINE
  5
220B
330
18
100
AcDbEntity
  8
外形線
100
AcDbLine
 10
516.018332624066
 20
50.07235252303769
 30
0.0
 11
531.018332624066
 21
50.07235252303769
 31
0.0
  0
LINE
  5
220C
330
18
100
AcDbEntity
  8
外形線
100
AcDbLine
 10
515.518332624066
 20
49.57235252303769
 30
0.0
 11
531.518332624066
 21
49.57235252303769
 31
0.0
  0
LINE
  5
220D
330
18
100
AcDbEntity
  8
外形線
100
AcDbLine
 10
516.018332624066
 20
47.07235252303769
 30
0.0
 11
531.018332624066
 21
47.07235252303769
 31
0.0
  0
LINE
  5
220E
330
18
100
AcDbEntity
  8
外形線
100
AcDbLine
 10
515.518332624066
 20
47.57235252303769
 30
0.0
 11
531.518332624066
 21
47.57235252303769
 31
0.0
  0
LINE
  5
220F
330
18
100
AcDbEntity
  8
外形線
100
AcDbLine
 10
514.518332624066
 20
55.02197500412194
 30
0.0
 11
532.518332624066
 21
55.02197500412194
 31
0.0
  0
LINE
  5
2210
330
18
100
AcDbEntity
  8
外形線
100
AcDbLine
 10
514.018332624066
 20
55.52197500412193
 30
0.0
 11
533.018332624066
 21
55.52197500412193
 31
0.0
  0
LINE
  5
2211
330
18
100
AcDbEntity
  8
外形線
100
AcDbLine
 10
514.018332624066
 20
56.52197500412193
 30
0.0
 11
533.018332624066
 21
56.52197500412193
 31
0.0
  0
LINE
  5
2212
330
18
100
AcDbEntity
  8
外形線
100
AcDbLine
 10
515.518332624066
 20
49.57235252303769
 30
0.0
 11
515.518332624066
 21
47.57235252303769
 31
0.0
  0
LINE
  5
2213
330
18
100
AcDbEntity
  8
外形線
 62
     4
100
AcDbLine
 10
516.4046209546293
 20
49.57235252303769
 30
0.0
 11
516.4046209546293
 21
47.57235252303769
 31
0.0
  0
LINE
  5
2214
330
18
100
AcDbEntity
  8
外形線
 62
     4
100
AcDbLine
 10
517.4046209546292
 20
49.57235252303769
 30
0.0
 11
517.4046209546292
 21
47.57235252303769
 31
0.0
  0
LINE
  5
2215
330
18
100
AcDbEntity
  8
外形線
 62
     4
100
AcDbLine
 10
518.4046209546293
 20
49.57235252303769
 30
0.0
 11
518.4046209546293
 21
47.57235252303769
 31
0.0
  0
LINE
  5
2216
330
18
100
AcDbEntity
  8
外形線
 62
     4
100
AcDbLine
 10
519.4046209546293
 20
49.57235252303769
 30
0.0
 11
519.4046209546293
 21
47.57235252303769
 31
0.0
  0
LINE
  5
2217
330
18
100
AcDbEntity
  8
外形線
 62
     4
100
AcDbLine
 10
520.4046209546293
 20
49.57235252303769
 30
0.0
 11
520.4046209546293
 21
47.57235252303769
 31
0.0
  0
LINE
  5
2218
330
18
100
AcDbEntity
  8
外形線
 62
     4
100
AcDbLine
 10
521.4046209546292
 20
49.57235252303769
 30
0.0
 11
521.4046209546292
 21
47.57235252303769
 31
0.0
  0
LINE
  5
2219
330
18
100
AcDbEntity
  8
外形線
 62
     4
100
AcDbLine
 10
522.4046209546293
 20
49.57235252303769
 30
0.0
 11
522.4046209546293
 21
47.57235252303769
 31
0.0
  0
LINE
  5
221A
330
18
100
AcDbEntity
  8
外形線
100
AcDbLine
 10
516.018332624066
 20
47.07235252303769
 30
0.0
 11
515.518332624066
 21
47.57235252303769
 31
0.0
  0
LINE
  5
221B
330
18
100
AcDbEntity
  8
外形線
100
AcDbLine
 10
515.518332624066
 20
49.57235252303769
 30
0.0
 11
516.018332624066
 21
50.07235252303769
 31
0.0
  0
LINE
  5
221C
330
18
100
AcDbEntity
  8
外形線
100
AcDbLine
 10
514.018332624066
 20
56.52197500412193
 30
0.0
 11
514.518332624066
 21
57.02197500412193
 31
0.0
  0
LINE
  5
221D
330
18
100
AcDbEntity
  8
外形線
100
AcDbLine
 10
514.518332624066
 20
55.02197500412194
 30
0.0
 11
514.018332624066
 21
55.52197500412193
 31
0.0
  0
LINE
  5
221E
330
18
100
AcDbEntity
  8
外形線
100
AcDbLine
 10
514.018332624066
 20
56.52197500412193
 30
0.0
 11
514.018332624066
 21
55.52197500412193
 31
0.0
  0
LINE
  5
221F
330
18
100
AcDbEntity
  8
外形線
 62
     4
100
AcDbLine
 10
515.018332624066
 20
56.52197500412193
 30
0.0
 11
515.018332624066
 21
55.52197500412193
 31
0.0
  0
LINE
  5
2220
330
18
100
AcDbEntity
  8
外形線
100
AcDbLine
 10
525.518332624066
 20
55.02197500412194
 30
0.0
 11
525.518332624066
 21
50.07235252303769
 31
0.0
  0
LINE
  5
2221
330
18
100
AcDbEntity
  8
外形線
100
AcDbLine
 10
521.518332624066
 20
55.02197500412194
 30
0.0
 11
521.518332624066
 21
50.07235252303769
 31
0.0
  0
LINE
  5
2222
330
18
100
AcDbEntity
  8
中心線
100
AcDbLine
 10
522.268332624066
 20
55.02197500412194
 30
0.0
 11
522.268332624066
 21
50.07235252303769
 31
0.0
  0
LINE
  5
2223
330
18
100
AcDbEntity
  8
中心線
100
AcDbLine
 10
524.768332624066
 20
55.02197500412194
 30
0.0
 11
524.768332624066
 21
50.07235252303769
 31
0.0
  0
ARC
  5
2224
330
18
100
AcDbEntity
  8
外形線
100
AcDbCircle
 10
516.518332624066
 20
59.02197500412193
 30
0.0
 40
2.0
100
AcDbArc
 50
270.0
 51
0.0
  0
LINE
  5
2225
330
18
100
AcDbEntity
  8
外形線
100
AcDbLine
 10
518.518332624066
 20
59.02197500412193
 30
0.0
 11
518.518332624066
 21
59.02197500412193
 31
0.0
  0
LINE
  5
2226
330
18
100
AcDbEntity
  8
外形線
 62
     4
100
AcDbLine
 10
516.018332624066
 20
56.52197500412193
 30
0.0
 11
516.018332624066
 21
55.52197500412193
 31
0.0
  0
LINE
  5
2227
330
18
100
AcDbEntity
  8
外形線
 62
     4
100
AcDbLine
 10
517.018332624066
 20
56.52197500412193
 30
0.0
 11
517.018332624066
 21
55.52197500412193
 31
0.0
  0
LINE
  5
2228
330
18
100
AcDbEntity
  8
外形線
 62
     4
100
AcDbLine
 10
518.018332624066
 20
56.52197500412193
 30
0.0
 11
518.018332624066
 21
55.52197500412193
 31
0.0
  0
LINE
  5
2229
330
18
100
AcDbEntity
  8
外形線
 62
     4
100
AcDbLine
 10
519.018332624066
 20
56.52197500412193
 30
0.0
 11
519.018332624066
 21
55.52197500412193
 31
0.0
  0
LINE
  5
222A
330
18
100
AcDbEntity
  8
外形線
 62
     4
100
AcDbLine
 10
520.018332624066
 20
56.52197500412193
 30
0.0
 11
520.018332624066
 21
55.52197500412193
 31
0.0
  0
LINE
  5
222B
330
18
100
AcDbEntity
  8
外形線
 62
     4
100
AcDbLine
 10
521.018332624066
 20
56.52197500412193
 30
0.0
 11
521.018332624066
 21
55.52197500412193
 31
0.0
  0
LINE
  5
222C
330
18
100
AcDbEntity
  8
外形線
 62
     4
100
AcDbLine
 10
522.018332624066
 20
56.52197500412193
 30
0.0
 11
522.018332624066
 21
55.52197500412193
 31
0.0
  0
LINE
  5
222D
330
18
100
AcDbEntity
  8
外形線
100
AcDbLine
 10
531.518332624066
 20
49.57235252303769
 30
0.0
 11
531.518332624066
 21
47.57235252303769
 31
0.0
  0
LINE
  5
222E
330
18
100
AcDbEntity
  8
外形線
100
AcDbLine
 10
531.518332624066
 20
47.57235252303769
 30
0.0
 11
531.018332624066
 21
47.07235252303769
 31
0.0
  0
LINE
  5
222F
330
18
100
AcDbEntity
  8
外形線
100
AcDbLine
 10
531.018332624066
 20
50.07235252303769
 30
0.0
 11
531.518332624066
 21
49.57235252303769
 31
0.0
  0
LINE
  5
2230
330
18
100
AcDbEntity
  8
外形線
100
AcDbLine
 10
532.518332624066
 20
57.02197500412193
 30
0.0
 11
530.518332624066
 21
57.02197500412193
 31
0.0
  0
ARC
  5
2231
330
18
100
AcDbEntity
  8
外形線
100
AcDbCircle
 10
530.518332624066
 20
59.02197500412193
 30
0.0
 40
2.0
100
AcDbArc
 50
180.0
 51
270.0
  0
LINE
  5
2232
330
18
100
AcDbEntity
  8
外形線
100
AcDbLine
 10
532.518332624066
 20
57.02197500412193
 30
0.0
 11
533.018332624066
 21
56.52197500412193
 31
0.0
  0
LINE
  5
2233
330
18
100
AcDbEntity
  8
外形線
100
AcDbLine
 10
533.018332624066
 20
55.52197500412193
 30
0.0
 11
532.518332624066
 21
55.02197500412194
 31
0.0
  0
LINE
  5
2234
330
18
100
AcDbEntity
  8
外形線
100
AcDbLine
 10
533.018332624066
 20
56.52197500412193
 30
0.0
 11
533.018332624066
 21
55.52197500412193
 31
0.0
  0
LINE
  5
2235
330
18
100
AcDbEntity
  8
外形線
100
AcDbLine
 10
446.9525340589454
 20
56.02197500412193
 30
0.0
 11
444.3608609721414
 21
56.02197500412193
 31
0.0
  0
LINE
  5
2236
330
18
100
AcDbEntity
  8
外形線
100
AcDbLine
 10
444.8608609721414
 20
56.02197500412193
 30
0.0
 11
444.8608609721414
 21
46.52197500412193
 31
0.0
  0
LINE
  5
2237
330
18
100
AcDbEntity
  8
外形線
100
AcDbLine
 10
424.8608609721414
 20
56.02197500412193
 30
0.0
 11
424.8608609721414
 21
46.52197500412193
 31
0.0
  0
LINE
  5
2238
330
18
100
AcDbEntity
  8
外形線
100
AcDbLine
 10
467.3608609721415
 20
46.02197500412193
 30
0.0
 11
461.9525340589454
 21
46.02197500412193
 31
0.0
  0
LINE
  5
2239
330
18
100
AcDbEntity
  8
外形線
100
AcDbLine
 10
447.8608609721415
 20
59.02197500412193
 30
0.0
 11
467.3608609721415
 21
46.02197500412193
 31
0.0
  0
LINE
  5
223A
330
18
100
AcDbEntity
  8
外形線
100
AcDbLine
 10
446.9525340589454
 20
56.02197500412193
 30
0.0
 11
461.9525340589454
 21
46.02197500412193
 31
0.0
  0
LINE
  5
223B
330
18
100
AcDbEntity
  8
外形線
100
AcDbLine
 10
422.7691878853375
 20
56.02197500412193
 30
0.0
 11
407.7691878853375
 21
46.02197500412193
 31
0.0
  0
LINE
  5
223C
330
18
100
AcDbEntity
  8
外形線
100
AcDbLine
 10
421.8608609721415
 20
59.02197500412193
 30
0.0
 11
402.3608609721414
 21
46.02197500412193
 31
0.0
  0
LINE
  5
223D
330
18
100
AcDbEntity
  8
外形線
100
AcDbLine
 10
407.7691878853375
 20
46.02197500412193
 30
0.0
 11
402.3608609721414
 21
46.02197500412193
 31
0.0
  0
LINE
  5
223E
330
18
100
AcDbEntity
  8
中心線
100
AcDbLine
 10
436.1108609721415
 20
55.02197500412194
 30
0.0
 11
436.1108609721415
 21
50.07235252303769
 31
0.0
  0
LINE
  5
223F
330
18
100
AcDbEntity
  8
中心線
100
AcDbLine
 10
433.6108609721414
 20
55.02197500412194
 30
0.0
 11
433.6108609721414
 21
50.07235252303769
 31
0.0
  0
LINE
  5
2240
330
18
100
AcDbEntity
  8
外形線
100
AcDbLine
 10
432.8608609721414
 20
55.02197500412194
 30
0.0
 11
432.8608609721414
 21
50.07235252303769
 31
0.0
  0
LINE
  5
2241
330
18
100
AcDbEntity
  8
外形線
100
AcDbLine
 10
436.8608609721414
 20
55.02197500412194
 30
0.0
 11
436.8608609721414
 21
50.07235252303769
 31
0.0
  0
LINE
  5
2242
330
18
100
AcDbEntity
  8
外形線
100
AcDbLine
 10
426.8608609721415
 20
47.57235252303769
 30
0.0
 11
442.8608609721415
 21
47.57235252303769
 31
0.0
  0
LINE
  5
2243
330
18
100
AcDbEntity
  8
外形線
100
AcDbLine
 10
427.3608609721414
 20
47.07235252303769
 30
0.0
 11
442.3608609721415
 21
47.07235252303769
 31
0.0
  0
LINE
  5
2244
330
18
100
AcDbEntity
  8
外形線
100
AcDbLine
 10
426.8608609721415
 20
49.57235252303769
 30
0.0
 11
442.8608609721415
 21
49.57235252303769
 31
0.0
  0
LINE
  5
2245
330
18
100
AcDbEntity
  8
外形線
100
AcDbLine
 10
427.3608609721414
 20
50.07235252303769
 30
0.0
 11
442.3608609721415
 21
50.07235252303769
 31
0.0
  0
LINE
  5
2246
330
18
100
AcDbEntity
  8
外形線
 62
     4
100
AcDbLine
 10
427.7471493027048
 20
49.57235252303769
 30
0.0
 11
427.7471493027048
 21
47.57235252303769
 31
0.0
  0
LINE
  5
2247
330
18
100
AcDbEntity
  8
外形線
100
AcDbLine
 10
426.8608609721415
 20
49.57235252303769
 30
0.0
 11
426.8608609721415
 21
47.57235252303769
 31
0.0
  0
LINE
  5
2248
330
18
100
AcDbEntity
  8
外形線
 62
     4
100
AcDbLine
 10
428.7471493027048
 20
49.57235252303769
 30
0.0
 11
428.7471493027048
 21
47.57235252303769
 31
0.0
  0
LINE
  5
2249
330
18
100
AcDbEntity
  8
外形線
100
AcDbLine
 10
427.3608609721414
 20
47.07235252303769
 30
0.0
 11
426.8608609721415
 21
47.57235252303769
 31
0.0
  0
LINE
  5
224A
330
18
100
AcDbEntity
  8
外形線
100
AcDbLine
 10
426.8608609721415
 20
49.57235252303769
 30
0.0
 11
427.3608609721414
 21
50.07235252303769
 31
0.0
  0
LINE
  5
224B
330
18
100
AcDbEntity
  8
外形線
 62
     4
100
AcDbLine
 10
433.7471493027048
 20
49.57235252303769
 30
0.0
 11
433.7471493027048
 21
47.57235252303769
 31
0.0
  0
LINE
  5
224C
330
18
100
AcDbEntity
  8
外形線
 62
     4
100
AcDbLine
 10
431.7471493027048
 20
49.57235252303769
 30
0.0
 11
431.7471493027048
 21
47.57235252303769
 31
0.0
  0
LINE
  5
224D
330
18
100
AcDbEntity
  8
外形線
 62
     4
100
AcDbLine
 10
430.7471493027048
 20
49.57235252303769
 30
0.0
 11
430.7471493027048
 21
47.57235252303769
 31
0.0
  0
LINE
  5
224E
330
18
100
AcDbEntity
  8
外形線
 62
     4
100
AcDbLine
 10
429.7471493027048
 20
49.57235252303769
 30
0.0
 11
429.7471493027048
 21
47.57235252303769
 31
0.0
  0
LINE
  5
224F
330
18
100
AcDbEntity
  8
外形線
 62
     4
100
AcDbLine
 10
432.7471493027048
 20
49.57235252303769
 30
0.0
 11
432.7471493027048
 21
47.57235252303769
 31
0.0
  0
LINE
  5
2250
330
18
100
AcDbEntity
  8
外形線
100
AcDbLine
 10
442.8608609721415
 20
49.57235252303769
 30
0.0
 11
442.8608609721415
 21
47.57235252303769
 31
0.0
  0
LINE
  5
2251
330
18
100
AcDbEntity
  8
外形線
100
AcDbLine
 10
442.8608609721415
 20
47.57235252303769
 30
0.0
 11
442.3608609721415
 21
47.07235252303769
 31
0.0
  0
LINE
  5
2252
330
18
100
AcDbEntity
  8
外形線
100
AcDbLine
 10
442.3608609721415
 20
50.07235252303769
 30
0.0
 11
442.8608609721415
 21
49.57235252303769
 31
0.0
  0
ARC
  5
2253
330
18
100
AcDbEntity
  8
外形線
100
AcDbCircle
 10
427.8608609721414
 20
59.02197500412193
 30
0.0
 40
2.0
100
AcDbArc
 50
270.0
 51
0.0
  0
LINE
  5
2254
330
18
100
AcDbEntity
  8
外形線
100
AcDbLine
 10
425.8608609721415
 20
57.02197500412193
 30
0.0
 11
441.8608609721415
 21
57.02197500412193
 31
0.0
  0
LINE
  5
2255
330
18
100
AcDbEntity
  8
外形線
100
AcDbLine
 10
425.8608609721415
 20
55.02197500412194
 30
0.0
 11
443.8608609721415
 21
55.02197500412194
 31
0.0
  0
LINE
  5
2256
330
18
100
AcDbEntity
  8
外形線
100
AcDbLine
 10
425.3608609721415
 20
55.52197500412193
 30
0.0
 11
444.3608609721414
 21
55.52197500412193
 31
0.0
  0
LINE
  5
2257
330
18
100
AcDbEntity
  8
外形線
100
AcDbLine
 10
425.3608609721415
 20
56.52197500412193
 30
0.0
 11
444.3608609721414
 21
56.52197500412193
 31
0.0
  0
LINE
  5
2258
330
18
100
AcDbEntity
  8
外形線
 62
     4
100
AcDbLine
 10
428.3608609721414
 20
56.52197500412193
 30
0.0
 11
428.3608609721414
 21
55.52197500412193
 31
0.0
  0
LINE
  5
2259
330
18
100
AcDbEntity
  8
外形線
100
AcDbLine
 10
425.3608609721415
 20
56.52197500412193
 30
0.0
 11
425.8608609721415
 21
57.02197500412193
 31
0.0
  0
LINE
  5
225A
330
18
100
AcDbEntity
  8
外形線
100
AcDbLine
 10
425.8608609721415
 20
55.02197500412194
 30
0.0
 11
425.3608609721415
 21
55.52197500412193
 31
0.0
  0
LINE
  5
225B
330
18
100
AcDbEntity
  8
外形線
100
AcDbLine
 10
425.3608609721415
 20
56.52197500412193
 30
0.0
 11
425.3608609721415
 21
55.52197500412193
 31
0.0
  0
LINE
  5
225C
330
18
100
AcDbEntity
  8
外形線
 62
     4
100
AcDbLine
 10
426.3608609721415
 20
56.52197500412193
 30
0.0
 11
426.3608609721415
 21
55.52197500412193
 31
0.0
  0
LINE
  5
225D
330
18
100
AcDbEntity
  8
外形線
 62
     4
100
AcDbLine
 10
427.3608609721414
 20
56.52197500412193
 30
0.0
 11
427.3608609721414
 21
55.52197500412193
 31
0.0
  0
LINE
  5
225E
330
18
100
AcDbEntity
  8
外形線
 62
     4
100
AcDbLine
 10
432.3608609721414
 20
56.52197500412193
 30
0.0
 11
432.3608609721414
 21
55.52197500412193
 31
0.0
  0
LINE
  5
225F
330
18
100
AcDbEntity
  8
外形線
100
AcDbLine
 10
429.8608609721415
 20
59.02197500412193
 30
0.0
 11
429.8608609721415
 21
59.02197500412193
 31
0.0
  0
LINE
  5
2260
330
18
100
AcDbEntity
  8
外形線
 62
     4
100
AcDbLine
 10
429.3608609721415
 20
56.52197500412193
 30
0.0
 11
429.3608609721415
 21
55.52197500412193
 31
0.0
  0
LINE
  5
2261
330
18
100
AcDbEntity
  8
外形線
 62
     4
100
AcDbLine
 10
430.3608609721415
 20
56.52197500412193
 30
0.0
 11
430.3608609721415
 21
55.52197500412193
 31
0.0
  0
LINE
  5
2262
330
18
100
AcDbEntity
  8
外形線
 62
     4
100
AcDbLine
 10
431.3608609721415
 20
56.52197500412193
 30
0.0
 11
431.3608609721415
 21
55.52197500412193
 31
0.0
  0
LINE
  5
2263
330
18
100
AcDbEntity
  8
外形線
 62
     4
100
AcDbLine
 10
433.3608609721415
 20
56.52197500412193
 30
0.0
 11
433.3608609721415
 21
55.52197500412193
 31
0.0
  0
ARC
  5
2264
330
18
100
AcDbEntity
  8
外形線
100
AcDbCircle
 10
441.8608609721415
 20
59.02197500412193
 30
0.0
 40
2.0
100
AcDbArc
 50
180.0
 51
270.0
  0
LINE
  5
2265
330
18
100
AcDbEntity
  8
外形線
100
AcDbLine
 10
443.8608609721415
 20
57.02197500412193
 30
0.0
 11
441.8608609721415
 21
57.02197500412193
 31
0.0
  0
LINE
  5
2266
330
18
100
AcDbEntity
  8
外形線
100
AcDbLine
 10
443.8608609721415
 20
57.02197500412193
 30
0.0
 11
444.3608609721414
 21
56.52197500412193
 31
0.0
  0
LINE
  5
2267
330
18
100
AcDbEntity
  8
外形線
100
AcDbLine
 10
444.3608609721414
 20
55.52197500412193
 30
0.0
 11
443.8608609721415
 21
55.02197500412194
 31
0.0
  0
LINE
  5
2268
330
18
100
AcDbEntity
  8
外形線
100
AcDbLine
 10
444.3608609721414
 20
56.52197500412193
 30
0.0
 11
444.3608609721414
 21
55.52197500412193
 31
0.0
  0
CIRCLE
  5
2269
330
18
100
AcDbEntity
  8
外形線
100
AcDbCircle
 10
523.518332624066
 20
89.02197500412192
 30
0.0
 40
4.5
  0
LINE
  5
226F
330
18
100
AcDbEntity
  8
外形線
100
AcDbLine
 10
443.5953819161206
 20
150.9219750041219
 30
0.0
 11
441.8608609721415
 21
150.9219750041219
 31
0.0
  0
LINE
  5
2270
330
18
100
AcDbEntity
  8
外形線
100
AcDbLine
 10
443.5953819161206
 20
143.1219750041219
 30
0.0
 11
441.8608609721415
 21
143.1219750041219
 31
0.0
  0
LINE
  5
2271
330
18
100
AcDbEntity
  8
0
  6
ByBlock
 62
     2
100
AcDbLine
 10
533.518332624066
 20
103.5219750041219
 30
0.0
 11
533.518332624066
 21
126.3247711676379
 31
0.0
  0
LINE
  5
2272
330
18
100
AcDbEntity
  8
0
  6
ByBlock
 62
     2
100
AcDbLine
 10
513.518332624066
 20
103.5219750041219
 30
0.0
 11
513.518332624066
 21
126.3247711676379
 31
0.0
  0
LINE
  5
2273
330
18
100
AcDbEntity
  8
0
  6
ByBlock
 62
     2
100
AcDbLine
 10
531.018332624066
 20
125.0747711676379
 30
0.0
 11
516.018332624066
 21
125.0747711676379
 31
0.0
  0
INSERT
  5
2274
330
18
100
AcDbEntity
  8
0
  6
ByBlock
 62
     2
100
AcDbBlockReference
  2
_OPEN
 10
533.518332624066
 20
125.0747711676379
 30
0.0
 41
2.5
 42
2.5
 43
2.5
  0
INSERT
  5
2275
330
18
100
AcDbEntity
  8
0
  6
ByBlock
 62
     2
100
AcDbBlockReference
  2
_OPEN
 10
513.518332624066
 20
125.0747711676379
 30
0.0
 41
2.5
 42
2.5
 43
2.5
 50
180.0
  0
MTEXT
  5
2276
330
18
100
AcDbEntity
  8
0
  6
ByBlock
 62
     6
100
AcDbMText
 10
539.3474290706941
 20
127.0947785288102
 30
0.0
 40
2.5
 41
0.0
 71
     5
 72
     1
  1
\A1;\U+03C620
  7
STYLE3
 73
     1
 44
1.0
  0
POINT
  5
2277
330
18
100
AcDbEntity
  8
DEFPOINTS
  6
ByBlock
 62
     0
100
AcDbPoint
 10
533.518332624066
 20
103.5219750041219
 30
0.0
  0
POINT
  5
2278
330
18
100
AcDbEntity
  8
DEFPOINTS
  6
ByBlock
 62
     0
100
AcDbPoint
 10
513.518332624066
 20
103.5219750041219
 30
0.0
  0
POINT
  5
2279
330
18
100
AcDbEntity
  8
DEFPOINTS
  6
ByBlock
 62
     0
100
AcDbPoint
 10
513.518332624066
 20
125.0747711676379
 30
0.0
  0
POINT
  5
2280
330
18
100
AcDbEntity
  8
DEFPOINTS
  6
ByBlock
 62
     0
100
AcDbPoint
 10
528.518332624066
 20
106.021975004122
 30
0.0
  0
POINT
  5
2281
330
18
100
AcDbEntity
  8
DEFPOINTS
  6
ByBlock
 62
     0
100
AcDbPoint
 10
518.518332624066
 20
106.021975004122
 30
0.0
  0
LINE
  5
2283
330
18
100
AcDbEntity
  8
外形線
100
AcDbLine
 10
443.5953819161206
 20
150.9219750041219
 30
0.0
 11
443.5953819161206
 21
143.1219750041219
 31
0.0
  0
ARC
  5
2284
330
18
100
AcDbEntity
  8
外形線
100
AcDbCircle
 10
436.4903819161206
 20
147.0219750041219
 30
0.0
 40
8.10499999999992
100
AcDbArc
 50
331.2372108178173
 51
358.2324223062157
  0
LINE
  5
2285
330
18
100
AcDbEntity
  8
外形線
100
AcDbLine
 10
443.8608609721415
 20
143.6504674059165
 30
0.0
 11
443.8608609721415
 21
136.0219750041219
 31
0.0
  0
LINE
  5
2286
330
18
100
AcDbEntity
  8
外形線
100
AcDbLine
 10
444.0953819161206
 20
147.2719750041219
 30
0.0
 11
444.5915253539324
 21
147.2719750041219
 31
0.0
  0
LINE
  5
2287
330
18
100
AcDbEntity
  8
外形線
100
AcDbLine
 10
444.0953819161206
 20
146.7719750041219
 30
0.0
 11
444.5915253539324
 21
146.7719750041219
 31
0.0
  0
LINE
  5
2288
330
18
100
AcDbEntity
  8
外形線
100
AcDbLine
 10
444.0953819161206
 20
146.7719750041219
 30
0.0
 11
444.0953819161206
 21
147.2719750041219
 31
0.0
  0
ARC
  5
2289
330
18
100
AcDbEntity
  8
外形線
100
AcDbCircle
 10
436.4903819161206
 20
147.0219750041219
 30
0.0
 40
8.10499999999992
100
AcDbArc
 50
1.767577693784264
 51
28.76278918218268
  0
DIMENSION
  5
228A
330
18
100
AcDbEntity
  8
寸法線
100
AcDbDimension
  2
*D1
 10
481.2632913180151
 20
97.02197500412196
 30
0.0
 11
479.3882913180151
 21
116.521975004122
 31
0.0
 70
    32
  1
40
 71
     5
 42
39.0
  3
STYLE3
100
AcDbAlignedDimension
 13
509.518332624066
 23
136.0219750041219
 33
0.0
 14
514.518332624066
 24
97.02197500412196
 34
0.0
 50
90.0
100
AcDbRotatedDimension
1001
ACAD
1000
DSTYLE
1002
{
1070
    75
1070
     1
1070
   271
1070
     2
1070
   279
1070
     1
1002
}
  0
DIMENSION
  5
228B
330
18
100
AcDbEntity
  8
寸法線
100
AcDbDimension
  2
*D2
 10
481.3308588855826
 20
46.02197500412195
 30
0.0
 11
479.4558588855826
 21
71.52197500412203
 31
0.0
 70
    32
  1
50
 71
     5
 42
50.99999999999999
  3
STYLE3
100
AcDbAlignedDimension
 13
514.518332624066
 23
97.02197500412196
 33
0.0
 14
536.518332624066
 24
46.02197500412193
 34
0.0
 50
90.0
100
AcDbRotatedDimension
1001
ACAD
1000
DSTYLE
1002
{
1070
    75
1070
     1
1070
   271
1070
     2
1070
   279
1070
     1
1002
}
  0
LINE
  5
228C
330
18
100
AcDbEntity
  8
外形線
100
AcDbLine
 10
447.7639664664354
 20
93.52197500412191
 30
0.0
 11
447.7639664664354
 21
84.52197500412195
 31
0.0
  0
LINE
  5
228D
330
18
100
AcDbEntity
  8
外形線
100
AcDbLine
 10
448.2639664664354
 20
94.02197500412192
 30
0.0
 11
448.2639664664354
 21
84.02197500412192
 31
0.0
  0
LINE
  5
228E
330
18
100
AcDbEntity
  8
外形線
100
AcDbLine
 10
450.2639664664354
 20
94.02197500412192
 30
0.0
 11
450.2639664664354
 21
84.02197500412192
 31
0.0
  0
LINE
  5
228F
330
18
100
AcDbEntity
  8
外形線
100
AcDbLine
 10
450.7639664664353
 20
93.52197500412191
 30
0.0
 11
450.7639664664353
 21
84.52197500412195
 31
0.0
  0
LINE
  5
2290
330
18
100
AcDbEntity
  8
外形線
100
AcDbLine
 10
448.2639664664354
 20
84.02197500412192
 30
0.0
 11
450.2639664664354
 21
84.02197500412192
 31
0.0
  0
LINE
  5
2291
330
18
100
AcDbEntity
  8
外形線
100
AcDbLine
 10
448.2639664664354
 20
84.02197500412192
 30
0.0
 11
447.7639664664354
 21
84.52197500412195
 31
0.0
  0
LINE
  5
2292
330
18
100
AcDbEntity
  8
外形線
100
AcDbLine
 10
450.7639664664353
 20
84.52197500412195
 30
0.0
 11
450.2639664664354
 21
84.02197500412192
 31
0.0
  0
LINE
  5
2293
330
18
100
AcDbEntity
  8
中心線
 48
0.4
100
AcDbLine
 10
439.9209916973876
 20
89.02197500412192
 30
0.0
 11
452.7561457926521
 21
89.02197500412192
 31
0.0
  0
LINE
  5
2294
330
18
100
AcDbEntity
  8
中心線
 48
0.4
100
AcDbLine
 10
449.52887136654
 20
94.02197500412192
 30
0.0
 11
450.2639664664354
 21
93.5975676503174
 31
0.0
  0
LINE
  5
2295
330
18
100
AcDbEntity
  8
中心線
 48
0.4
100
AcDbLine
 10
448.2639664664354
 20
93.02471593945515
 30
0.0
 11
449.9912698347467
 21
94.02197500412192
 31
0.0
  0
LINE
  5
2296
330
18
100
AcDbEntity
  8
外形線
100
AcDbLine
 10
447.7639664664354
 20
93.52197500412191
 30
0.0
 11
448.2639664664354
 21
94.02197500412192
 31
0.0
  0
LINE
  5
2297
330
18
100
AcDbEntity
  8
外形線
100
AcDbLine
 10
450.2639664664354
 20
94.02197500412192
 30
0.0
 11
450.7639664664353
 21
93.52197500412191
 31
0.0
  0
LINE
  5
2298
330
18
100
AcDbEntity
  8
中心線
 48
0.4
100
AcDbLine
 10
448.2639664664354
 20
93.59756765031738
 30
0.0
 11
450.2639664664354
 21
92.44286711193813
 31
0.0
  0
LINE
  5
2299
330
18
100
AcDbEntity
  8
中心線
 48
0.4
100
AcDbLine
 10
448.2639664664354
 20
92.44286711193813
 30
0.0
 11
450.2639664664354
 21
91.28816657355889
 31
0.0
  0
LINE
  5
229A
330
18
100
AcDbEntity
  8
中心線
 48
0.4
100
AcDbLine
 10
448.2639664664354
 20
91.28816657355883
 30
0.0
 11
450.2639664664354
 21
90.13346603517959
 31
0.0
  0
LINE
  5
229B
330
18
100
AcDbEntity
  8
中心線
 48
0.4
100
AcDbLine
 10
448.2639664664354
 20
90.13346603517955
 30
0.0
 11
450.2639664664354
 21
88.97876549680034
 31
0.0
  0
LINE
  5
229C
330
18
100
AcDbEntity
  8
中心線
 48
0.4
100
AcDbLine
 10
448.2639664664354
 20
91.87001540107592
 30
0.0
 11
450.2639664664354
 21
93.02471593945515
 31
0.0
  0
LINE
  5
229D
330
18
100
AcDbEntity
  8
中心線
 48
0.4
100
AcDbLine
 10
448.2639664664354
 20
90.71531486269662
 30
0.0
 11
450.2639664664354
 21
91.87001540107587
 31
0.0
  0
LINE
  5
229E
330
18
100
AcDbEntity
  8
中心線
 48
0.4
100
AcDbLine
 10
448.2639664664354
 20
89.56061432431736
 30
0.0
 11
450.2639664664354
 21
90.71531486269662
 31
0.0
  0
LINE
  5
229F
330
18
100
AcDbEntity
  8
中心線
 48
0.4
100
AcDbLine
 10
444.8608609721414
 20
88.22197500412192
 30
0.0
 11
447.7639664664354
 21
88.22197500412192
 31
0.0
  0
LINE
  5
22A0
330
18
100
AcDbEntity
  8
中心線
 48
0.4
100
AcDbLine
 10
444.8608609721414
 20
89.82197500412196
 30
0.0
 11
447.7639664664354
 21
89.82197500412191
 31
0.0
  0
LINE
  5
22A1
330
18
100
AcDbEntity
  8
外形線
100
AcDbLine
 10
444.8608609721414
 20
87.72197500412193
 30
0.0
 11
447.7639664664354
 21
87.72197500412195
 31
0.0
  0
LINE
  5
22A2
330
18
100
AcDbEntity
  8
外形線
100
AcDbLine
 10
444.8608609721414
 20
90.32197500412195
 30
0.0
 11
447.7639664664354
 21
90.32197500412195
 31
0.0
  0
LINE
  5
22A3
330
18
100
AcDbEntity
  8
中心線
 48
0.4
100
AcDbLine
 10
449.3310157969024
 20
89.02197500412192
 30
0.0
 11
450.2639664664354
 21
89.56061432431736
 31
0.0
  0
LINE
  5
22A4
330
18
100
AcDbEntity
  8
外形線
100
AcDbLine
 10
448.2639664664354
 20
94.02197500412192
 30
0.0
 11
450.2639664664354
 21
94.02197500412192
 31
0.0
  0
LINE
  5
22B7
330
18
100
AcDbEntity
  8
外形線
100
AcDbLine
 10
423.8608609721416
 20
261.0219750042834
 30
0.0
 11
423.8608609721413
 21
160.6219750041219
 31
0.0
  0
LINE
  5
22B8
330
18
100
AcDbEntity
  8
中心線
 48
0.7
100
AcDbLine
 10
418.0427088741721
 20
193.121975004122
 30
0.0
 11
462.8850185564338
 21
193.121975004122
 31
0.0
  0
LINE
  5
22B9
330
18
100
AcDbEntity
  8
中心線
100
AcDbLine
 10
480.4738210947611
 20
193.121975004122
 30
0.0
 11
566.5628441533709
 21
193.121975004122
 31
0.0
  0
LINE
  5
22BA
330
18
100
AcDbEntity
  8
隠れ線2
 48
0.5
100
AcDbLine
 10
519.518332624066
 20
157.0219750041219
 30
0.0
 11
519.5183326240658
 21
136.0219750041219
 31
0.0
  0
LINE
  5
22BB
330
18
100
AcDbEntity
  8
隠れ線2
 48
0.5
100
AcDbLine
 10
527.518332624066
 20
157.0219750041219
 30
0.0
 11
527.518332624066
 21
136.0219750041219
 31
0.0
  0
LINE
  5
22BC
330
18
100
AcDbEntity
  8
外形線
100
AcDbLine
 10
519.518332624066
 20
158.0219750041219
 30
0.0
 11
519.518332624066
 21
157.0219750041219
 31
0.0
  0
LINE
  5
22BD
330
18
100
AcDbEntity
  8
外形線
100
AcDbLine
 10
527.518332624066
 20
158.0219750041219
 30
0.0
 11
527.518332624066
 21
157.0219750041219
 31
0.0
  0
LINE
  5
22C9
330
18
100
AcDbEntity
  8
外形線
100
AcDbLine
 10
434.1108609721414
 20
157.0219750041219
 30
0.0
 11
434.1108609721414
 21
136.0219750041219
 31
0.0
  0
LINE
  5
22CA
330
18
100
AcDbEntity
  8
外形線
100
AcDbLine
 10
435.6108609721415
 20
157.0219750041219
 30
0.0
 11
435.6108609721415
 21
136.0219750041219
 31
0.0
  0
LINE
  5
22CB
330
18
100
AcDbEntity
  8
外形線
100
AcDbLine
 10
435.6108609721415
 20
141.821975004122
 30
0.0
 11
434.1108609721414
 21
141.8219750041221
 31
0.0
  0
LINE
  5
22CC
330
18
100
AcDbEntity
  8
外形線
100
AcDbLine
 10
435.6108609721415
 20
139.0219750041219
 30
0.0
 11
434.1108609721414
 21
139.0219750041219
 31
0.0
  0
LINE
  5
22CD
330
18
100
AcDbEntity
  8
外形線
100
AcDbLine
 10
435.6108609721415
 20
137.521975004122
 30
0.0
 11
434.1108609721414
 21
137.521975004122
 31
0.0
  0
LINE
  5
22CE
330
18
100
AcDbEntity
  8
外形線
100
AcDbLine
 10
434.1108609721414
 20
149.5219750041219
 30
0.0
 11
435.6108609721415
 21
149.5219750041219
 31
0.0
  0
LINE
  5
22CF
330
18
100
AcDbEntity
  8
寸法線
 48
0.5
100
AcDbLine
 10
434.1108609721414
 20
149.0219750041219
 30
0.0
 11
435.6108609721415
 21
149.0219750041219
 31
0.0
  0
LINE
  5
22D0
330
18
100
AcDbEntity
  8
寸法線
 48
0.5
100
AcDbLine
 10
434.1108609721414
 20
145.0219750041219
 30
0.0
 11
435.6108609721415
 21
145.0219750041219
 31
0.0
  0
LINE
  5
22D1
330
18
100
AcDbEntity
  8
外形線
100
AcDbLine
 10
434.1108609721414
 20
144.5219750041219
 30
0.0
 11
435.6108609721415
 21
144.5219750041219
 31
0.0
  0
LINE
  5
22D2
330
18
100
AcDbEntity
  8
隠れ線2
 48
0.5
100
AcDbLine
 10
441.8608609721415
 20
149.0219750041219
 30
0.0
 11
435.6108609721415
 21
149.0219750041219
 31
0.0
  0
LINE
  5
22D3
330
18
100
AcDbEntity
  8
隠れ線2
 48
0.5
100
AcDbLine
 10
441.8608609721415
 20
145.0219750041219
 30
0.0
 11
435.6108609721415
 21
145.0219750041219
 31
0.0
  0
ARC
  5
22D4
330
18
100
AcDbEntity
  8
隠れ線2
100
AcDbCircle
 10
515.018332624066
 20
137.5219750041219
 30
0.0
 40
1.5
100
AcDbArc
 50
180.0
 51
270.0
  0
LINE
  5
22D5
330
18
100
AcDbEntity
  8
中心線
 48
0.3
100
AcDbLine
 10
538.518332624066
 20
159.657789586083
 30
0.0
 11
538.518332624066
 21
151.3216634312086
 31
0.0
  0
LINE
  5
22D6
330
18
100
AcDbEntity
  8
中心線
 48
0.3
100
AcDbLine
 10
538.518332624066
 20
146.4458159903821
 30
0.0
 11
538.518332624066
 21
137.1659779447724
 31
0.0
  0
LINE
  5
22D7
330
18
100
AcDbEntity
  8
隠れ線2
100
AcDbLine
 10
530.518332624066
 20
136.0219750041219
 30
0.0
 11
542.018332624066
 21
136.0219750041218
 31
0.0
  0
ARC
  5
22D8
330
18
100
AcDbEntity
  8
隠れ線2
100
AcDbCircle
 10
542.018332624066
 20
137.5219750041218
 30
0.0
 40
1.5
100
AcDbArc
 50
270.0
 51
0.0
  0
CIRCLE
  5
22D9
330
18
100
AcDbEntity
  8
隠れ線2
 48
0.5
100
AcDbCircle
 10
538.518332624066
 20
142.0219750041218
 30
0.0
 40
1.649999999999999
  0
LINE
  5
22DA
330
18
100
AcDbEntity
  8
中心線
 48
0.3
100
AcDbLine
 10
534.2314063397386
 20
142.0219750041219
 30
0.0
 11
542.8053726214783
 21
142.0219750041218
 31
0.0
  0
CIRCLE
  5
22DB
330
18
100
AcDbEntity
  8
隠れ線2
 48
0.5
100
AcDbCircle
 10
538.518332624066
 20
156.0219750041219
 30
0.0
 40
1.649999999999999
  0
LINE
  5
22DC
330
18
100
AcDbEntity
  8
中心線
 48
0.3
100
AcDbLine
 10
534.2314063397386
 20
156.0219750041219
 30
0.0
 11
542.8053726214783
 21
156.0219750041218
 31
0.0
  0
LINE
  5
22DD
330
18
100
AcDbEntity
  8
中心線
 48
0.5
100
AcDbLine
 10
433.4191907574276
 20
142.0219750041219
 30
0.0
 11
418.5052683862221
 21
142.0219750041219
 31
0.0
  0
LINE
  5
22DE
330
18
100
AcDbEntity
  8
外形線
 48
0.5
100
AcDbLine
 10
422.3608609721415
 20
144.7719750041219
 30
0.0
 11
420.8608609721413
 21
144.7719750041219
 31
0.0
  0
ARC
  5
22DF
330
18
100
AcDbEntity
  8
外形線
 48
0.5
100
AcDbCircle
 10
420.8608609721413
 20
144.2719750041219
 30
0.0
 40
0.5
100
AcDbArc
 50
90.0
 51
180.0
  0
LINE
  5
22E0
330
18
100
AcDbEntity
  8
外形線
 48
0.5
100
AcDbLine
 10
422.3608609721415
 20
139.2719750041219
 30
0.0
 11
420.8608609721413
 21
139.2719750041219
 31
0.0
  0
ARC
  5
22E1
330
18
100
AcDbEntity
  8
外形線
 48
0.5
100
AcDbCircle
 10
420.8608609721413
 20
139.7719750041219
 30
0.0
 40
0.5
100
AcDbArc
 50
180.0
 51
270.0
  0
LINE
  5
22E2
330
18
100
AcDbEntity
  8
外形線
100
AcDbLine
 10
420.3608609721412
 20
144.2719750041219
 30
0.0
 11
420.3608609721412
 21
139.7719750041219
 31
0.0
  0
LINE
  5
22E3
330
18
100
AcDbEntity
  8
中心線
 48
0.5
100
AcDbLine
 10
418.1334367703086
 20
156.0219750041219
 30
0.0
 11
432.8679708158849
 21
156.0219750041219
 31
0.0
  0
LINE
  5
22E4
330
18
100
AcDbEntity
  8
外形線
 48
0.5
100
AcDbLine
 10
422.3608609721415
 20
158.7719750041219
 30
0.0
 11
420.8608609721413
 21
158.7719750041219
 31
0.0
  0
ARC
  5
22E5
330
18
100
AcDbEntity
  8
外形線
 48
0.5
100
AcDbCircle
 10
420.8608609721413
 20
158.2719750041219
 30
0.0
 40
0.5
100
AcDbArc
 50
90.0
 51
180.0
  0
LINE
  5
22E6
330
18
100
AcDbEntity
  8
外形線
 48
0.5
100
AcDbLine
 10
422.3608609721415
 20
154.2719750041219
 30
0.0
 11
420.8608609721413
 21
154.2719750041219
 31
0.0
  0
ARC
  5
22E7
330
18
100
AcDbEntity
  8
外形線
 48
0.5
100
AcDbCircle
 10
420.8608609721413
 20
153.7719750041219
 30
0.0
 40
0.5
100
AcDbArc
 50
90.0
 51
180.0
  0
LINE
  5
22E8
330
18
100
AcDbEntity
  8
外形線
100
AcDbLine
 10
420.3608609721412
 20
158.2719750041219
 30
0.0
 11
420.3608609721412
 21
153.7719750041219
 31
0.0
  0
LINE
  5
22E9
330
18
100
AcDbEntity
  8
外形線
100
AcDbLine
 10
422.3608609721415
 20
136.0219750041219
 30
0.0
 11
422.3608609721413
 21
261.0219750042835
 31
0.0
  0
LINE
  5
22EA
330
18
100
AcDbEntity
  8
外形線
100
AcDbLine
 10
420.3608609721412
 20
153.7719750041219
 30
0.0
 11
420.3608609721412
 21
149.2719750041219
 31
0.0
  0
ARC
  5
22EB
330
18
100
AcDbEntity
  8
外形線
 48
0.5
100
AcDbCircle
 10
420.8608609721413
 20
149.2719750041219
 30
0.0
 40
0.5
100
AcDbArc
 50
180.0
 51
270.0
  0
LINE
  5
22EC
330
18
100
AcDbEntity
  8
外形線
 48
0.5
100
AcDbLine
 10
422.3608609721415
 20
148.7719750041219
 30
0.0
 11
420.8608609721413
 21
148.7719750041219
 31
0.0
  0
LINE
  5
22ED
330
18
100
AcDbEntity
  8
中心線
 48
0.5
100
AcDbLine
 10
433.4191907574276
 20
151.5219750041219
 30
0.0
 11
418.5052683862221
 21
151.5219750041219
 31
0.0
  0
LINE
  5
22EE
330
18
100
AcDbEntity
  8
中心線
 48
0.3
100
AcDbLine
 10
523.518332624066
 20
155.157789586083
 30
0.0
 11
523.518332624066
 21
146.8216634312085
 31
0.0
  0
LINE
  5
22EF
330
18
100
AcDbEntity
  8
中心線
 48
0.3
100
AcDbLine
 10
519.2314063397386
 20
151.5219750041219
 30
0.0
 11
527.8053726214785
 21
151.5219750041219
 31
0.0
  0
CIRCLE
  5
22F0
330
18
100
AcDbEntity
  8
隠れ線2
 48
0.5
100
AcDbCircle
 10
523.518332624066
 20
151.5219750041219
 30
0.0
 40
1.649999999999999
  0
LINE
  5
22F1
330
18
100
AcDbEntity
  8
外形線
100
AcDbLine
 10
529.4246075358297
 20
236.121975004122
 30
0.0
 11
529.518332624066
 21
236.0429975502278
 31
0.0
  0
LINE
  5
22F2
330
18
100
AcDbEntity
  8
外形線
100
AcDbLine
 10
513.5183326240661
 20
158.5219750041219
 30
0.0
 11
513.5183326240661
 21
157.0219750041219
 31
0.0
  0
LINE
  5
22F3
330
18
100
AcDbEntity
  8
隠れ線2
 48
0.6
100
AcDbLine
 10
513.5183326240661
 20
157.0219750041219
 30
0.0
 11
513.5183326240661
 21
152.5973205310856
 31
0.0
  0
LINE
  5
22F4
330
18
100
AcDbEntity
  8
隠れ線2
 48
0.6
100
AcDbLine
 10
513.5183326240661
 20
152.5973205293957
 30
0.0
 11
513.518332624066
 21
137.5219750041219
 31
0.0
  0
LINE
  5
22F5
330
18
100
AcDbEntity
  8
隠れ線2
 48
0.6
100
AcDbLine
 10
543.518332624066
 20
159.1845047786924
 30
0.0
 11
543.518332624066
 21
137.5219750041218
 31
0.0
  0
LINE
  5
22F6
330
18
100
AcDbEntity
  8
外形線
100
AcDbLine
 10
424.8608609721414
 20
136.0219750041219
 30
0.0
 11
424.8608609721414
 21
59.02197500412193
 31
0.0
  0
LINE
  5
22F7
330
18
100
AcDbEntity
  8
外形線
100
AcDbLine
 10
521.018332624066
 20
114.0219750041219
 30
0.0
 11
526.018332624066
 21
114.0219750041219
 31
0.0
  0
LINE
  5
22F8
330
18
100
AcDbEntity
  8
外形線
100
AcDbLine
 10
518.518332624066
 20
105.5219750041219
 30
0.0
 11
528.518332624066
 21
105.5219750041219
 31
0.0
  0
LINE
  5
22F9
330
18
100
AcDbEntity
  8
0
  6
ByBlock
 62
     2
100
AcDbLine
 10
500.8187338595202
 20
97.02197500412196
 30
0.0
 11
490.738940029689
 21
97.02197500412196
 31
0.0
  0
LINE
  5
22FA
330
18
100
AcDbEntity
  8
0
  6
ByBlock
 62
     2
100
AcDbLine
 10
513.518332624066
 20
103.5219750041219
 30
0.0
 11
490.738940029689
 21
103.521975004122
 31
0.0
  0
LINE
  5
22FB
330
18
100
AcDbEntity
  8
0
  6
ByBlock
 62
     2
100
AcDbLine
 10
491.988940029689
 20
99.52197500412196
 30
0.0
 11
491.988940029689
 21
101.021975004122
 31
0.0
  0
INSERT
  5
22FC
330
18
100
AcDbEntity
  8
0
  6
ByBlock
 62
     2
100
AcDbBlockReference
  2
_OPEN
 10
491.988940029689
 20
97.02197500412196
 30
0.0
 41
2.5
 42
2.5
 43
2.5
 50
270.0
  0
INSERT
  5
22FD
330
18
100
AcDbEntity
  8
0
  6
ByBlock
 62
     2
100
AcDbBlockReference
  2
_OPEN
 10
491.988940029689
 20
103.521975004122
 30
0.0
 41
2.5
 42
2.5
 43
2.5
 50
90.0
  0
MTEXT
  5
22FE
330
18
100
AcDbEntity
  8
0
  6
ByBlock
 62
     6
100
AcDbMText
 10
489.7089094124456
 20
100.2719750041219
 30
0.0
 40
2.5
 41
0.0
 71
     5
 72
     1
  1
\A1;6.5
  7
STYLE3
 11
0.0000000000000001
 21
1.0
 31
0.0
 73
     1
 44
1.0
  0
POINT
  5
22FF
330
18
100
AcDbEntity
  8
DEFPOINTS
  6
ByBlock
 62
     0
100
AcDbPoint
 10
500.8187338595202
 20
97.02197500412196
 30
0.0
  0
POINT
  5
2300
330
18
100
AcDbEntity
  8
DEFPOINTS
  6
ByBlock
 62
     0
100
AcDbPoint
 10
513.518332624066
 20
103.5219750041219
 30
0.0
  0
POINT
  5
2301
330
18
100
AcDbEntity
  8
DEFPOINTS
  6
ByBlock
 62
     0
100
AcDbPoint
 10
491.988940029689
 20
103.521975004122
 30
0.0
  0
LINE
  5
230B
330
18
100
AcDbEntity
  8
外形線
100
AcDbLine
 10
425.3608609721415
 20
56.02197500412193
 30
0.0
 11
422.7691878853375
 21
56.02197500412193
 31
0.0
  0
LINE
  5
2311
330
18
100
AcDbEntity
  8
外形線
100
AcDbLine
 10
518.5183326240657
 20
108.5219750041219
 30
0.0
 11
528.5183326240658
 21
108.5219750041219
 31
0.0
  0
LINE
  5
2312
330
18
100
AcDbEntity
  8
外形線
100
AcDbLine
 10
429.8608609721415
 20
107.5219750041219
 30
0.0
 11
439.8608609721413
 21
107.5219750041219
 31
0.0
  0
LINE
  5
2313
330
18
100
AcDbEntity
  8
外形線
100
AcDbLine
 10
429.8608609721415
 20
105.5219750041219
 30
0.0
 11
439.8608609721414
 21
105.5219750041219
 31
0.0
  0
LINE
  5
2314
330
18
100
AcDbEntity
  8
外形線
100
AcDbLine
 10
429.8608609721415
 20
107.5219750041219
 30
0.0
 11
429.8608609721417
 21
103.521975004122
 31
0.0
  0
POINT
  5
2315
330
18
100
AcDbEntity
  8
DEFPOINTS
  6
ByBlock
 62
     0
100
AcDbPoint
 10
429.8608609721415
 20
106.021975004122
 30
0.0
  0
LINE
  5
2316
330
18
100
AcDbEntity
  8
外形線
100
AcDbLine
 10
439.8608609721413
 20
107.5219750041219
 30
0.0
 11
439.8608609721414
 21
103.521975004122
 31
0.0
  0
POINT
  5
2317
330
18
100
AcDbEntity
  8
DEFPOINTS
  6
ByBlock
 62
     0
100
AcDbPoint
 10
439.8608609721414
 20
106.021975004122
 30
0.0
  0
LINE
  5
2318
330
18
100
AcDbEntity
  8
外形線
100
AcDbLine
 10
432.3608609721416
 20
114.0219750041219
 30
0.0
 11
437.3608609721414
 21
114.0219750041219
 31
0.0
  0
TEXT
  5
2319
330
18
100
AcDbEntity
  8
文字
100
AcDbText
 10
518.6313266863005
 20
212.4651945749337
 30
0.0
 40
2.0
  1
JA-205
 51
10.0
  7
STYLE3
100
AcDbText
  0
CIRCLE
  5
231A
330
18
100
AcDbEntity
  8
外形線
100
AcDbCircle
 10
523.518332624066
 20
193.121975004122
 30
0.0
 40
30.0
  0
LINE
  5
231B
330
18
100
AcDbEntity
  8
外形線
100
AcDbLine
 10
527.518332624066
 20
158.021975004122
 30
0.0
 11
527.518332624066
 21
157.1826762782827
 31
0.0
  0
LINE
  5
231C
330
18
100
AcDbEntity
  8
外形線
100
AcDbLine
 10
519.518332624066
 20
158.021975004122
 30
0.0
 11
519.518332624066
 21
157.0219750041219
 31
0.0
  0
LINE
  5
231D
330
18
100
AcDbEntity
  8
外形線
100
AcDbLine
 10
545.518332624066
 20
203.121975004122
 30
0.0
 11
545.518332624066
 21
183.121975004122
 31
0.0
  0
LINE
  5
231E
330
18
100
AcDbEntity
  8
外形線
100
AcDbLine
 10
501.518332624066
 20
203.121975004122
 30
0.0
 11
501.5183326240657
 21
183.121975004122
 31
0.0
  0
ARC
  5
231F
330
18
100
AcDbEntity
  8
外形線
100
AcDbCircle
 10
544.018332624066
 20
183.121975004122
 30
0.0
 40
1.5
100
AcDbArc
 50
270.0
 51
0.0
  0
LINE
  5
2320
330
18
100
AcDbEntity
  8
隠れ線2
100
AcDbLine
 10
527.268332624066
 20
139.0219750041221
 30
0.0
 11
527.268332624066
 21
141.821975004122
 31
0.0
  0
LINE
  5
2321
330
18
100
AcDbEntity
  8
隠れ線2
100
AcDbLine
 10
519.768332624066
 20
139.021975004122
 30
0.0
 11
519.768332624066
 21
141.821975004122
 31
0.0
  0
LINE
  5
2322
330
18
100
AcDbEntity
  8
隠れ線2
 48
0.6
100
AcDbLine
 10
519.768332624066
 20
137.521975004122
 30
0.0
 11
527.268332624066
 21
137.521975004122
 31
0.0
  0
LINE
  5
2323
330
18
100
AcDbEntity
  8
隠れ線2
 48
0.6
100
AcDbLine
 10
519.768332624066
 20
139.021975004122
 30
0.0
 11
527.268332624066
 21
139.0219750041221
 31
0.0
  0
LINE
  5
2324
330
18
100
AcDbEntity
  8
隠れ線2
 48
0.6
100
AcDbLine
 10
519.768332624066
 20
137.021975004122
 30
0.0
 11
527.268332624066
 21
137.021975004122
 31
0.0
  0
LINE
  5
2325
330
18
100
AcDbEntity
  8
隠れ線2
100
AcDbLine
 10
519.768332624066
 20
137.521975004122
 30
0.0
 11
519.768332624066
 21
137.021975004122
 31
0.0
  0
LINE
  5
2326
330
18
100
AcDbEntity
  8
隠れ線2
100
AcDbLine
 10
520.518332624066
 20
139.021975004122
 30
0.0
 11
520.518332624066
 21
137.521975004122
 31
0.0
  0
LINE
  5
2327
330
18
100
AcDbEntity
  8
隠れ線2
100
AcDbLine
 10
527.268332624066
 20
137.521975004122
 30
0.0
 11
527.268332624066
 21
137.021975004122
 31
0.0
  0
LINE
  5
2328
330
18
100
AcDbEntity
  8
隠れ線2
100
AcDbLine
 10
526.518332624066
 20
139.021975004122
 30
0.0
 11
526.518332624066
 21
137.521975004122
 31
0.0
  0
TEXT
  5
2329
330
18
100
AcDbEntity
  8
寸法線
100
AcDbText
 10
513.5770004837336
 20
178.2324676012748
 30
0.0
 40
1.199999999999999
  1
MODE
  7
STYLE4
100
AcDbText
  0
LINE
  5
232A
330
18
100
AcDbEntity
  8
外形線
100
AcDbLine
 10
503.0183326240658
 20
181.621975004122
 30
0.0
 11
544.018332624066
 21
181.621975004122
 31
0.0
  0
LINE
  5
232B
330
18
100
AcDbEntity
  8
隠れ線2
 48
0.6
100
AcDbLine
 10
519.5183326240658
 20
141.821975004122
 30
0.0
 11
527.518332624066
 21
141.821975004122
 31
0.0
  0
LINE
  5
232C
330
18
100
AcDbEntity
  8
外形線
100
AcDbLine
 10
518.518332624066
 20
158.021975004122
 30
0.0
 11
528.518332624066
 21
158.0219750041221
 31
0.0
  0
POINT
  5
232D
330
18
100
AcDbEntity
  8
DEFPOINTS
  6
ByBlock
 62
     0
100
AcDbPoint
 10
517.518332624066
 20
162.121975004122
 30
0.0
  0
LINE
  5
232E
330
18
100
AcDbEntity
  8
外形線
100
AcDbLine
 10
517.518332624066
 20
163.7280980907239
 30
0.0
 11
517.518332624066
 21
160.0219750041219
 31
0.0
  0
ARC
  5
232F
330
18
100
AcDbEntity
  8
外形線
100
AcDbCircle
 10
503.0183326240658
 20
183.121975004122
 30
0.0
 40
1.5
100
AcDbArc
 50
180.0
 51
270.0
  0
LINE
  5
2330
330
18
100
AcDbEntity
  8
外形線
100
AcDbLine
 10
529.518332624066
 20
163.7280980907239
 30
0.0
 11
529.518332624066
 21
160.0219750041221
 31
0.0
  0
TEXT
  5
2331
330
18
100
AcDbEntity
  8
寸法線
100
AcDbText
 10
527.7826880439206
 20
178.2324676012748
 30
0.0
 40
1.199999999999999
  1
ON/OFF
  7
STYLE4
100
AcDbText
  0
LINE
  5
2332
330
18
100
AcDbEntity
  8
外形線
100
AcDbLine
 10
494.518332624066
 20
193.121975004122
 30
0.0
 11
501.518332624066
 21
193.121975004122
 31
0.0
  0
ARC
  5
2334
330
18
100
AcDbEntity
  8
外形線
100
AcDbCircle
 10
544.018332624066
 20
203.121975004122
 30
0.0
 40
1.5
100
AcDbArc
 50
0.0
 51
90.0
  0
LINE
  5
2335
330
18
100
AcDbEntity
  8
外形線
100
AcDbLine
 10
529.518332624066
 20
232.121975004122
 30
0.0
 11
529.518332624066
 21
223.5357876556131
 31
0.0
  0
LINE
  5
2336
330
18
100
AcDbEntity
  8
外形線
100
AcDbLine
 10
517.518332624066
 20
232.121975004122
 30
0.0
 11
517.518332624066
 21
223.5357876556131
 31
0.0
  0
LINE
  5
2337
102
{ACAD_REACTORS
330
233B
102
}
330
18
100
AcDbEntity
  8
外形線
 62
     0
100
AcDbLine
 10
518.729931015062
 20
209.8781345500639
 30
0.0
 11
519.9300995579136
 21
209.8781345500639
 31
0.0
  0
LINE
  5
2338
102
{ACAD_REACTORS
330
233B
102
}
330
18
100
AcDbEntity
  8
外形線
 62
     0
100
AcDbLine
 10
518.5803126415351
 20
209.5757473516843
 30
0.0
 11
519.7804811843866
 21
209.5757473516843
 31
0.0
  0
LINE
  5
2339
102
{ACAD_REACTORS
330
233B
102
}
330
18
100
AcDbEntity
  8
外形線
 62
     0
100
AcDbLine
 10
518.4268930157331
 20
209.2656776073799
 30
0.0
 11
519.6270615585846
 21
209.26567760738
 31
0.0
  0
LINE
  5
233A
102
{ACAD_REACTORS
330
233B
102
}
330
18
100
AcDbEntity
  8
外形線
 62
     0
100
AcDbLine
 10
517.8379223329502
 20
210.264880403811
 30
0.0
 11
520.1214578095723
 21
210.2648804038111
 31
0.0
  0
HATCH
  5
233B
330
18
100
AcDbEntity
  8
外形線
 62
     0
100
AcDbHatch
 10
0.0
 20
0.0
 30
0.0
210
0.0
220
0.0
230
1.0
  2
SOLID
 70
     1
 71
     1
 91
        1
 92
        1
 93
       12
 72
     1
 10
517.8379223329502
 20
210.264880403811
 11
520.1214578095723
 21
210.2648804038111
 72
     1
 10
520.1214578095723
 20
210.264880403811
 11
519.9300995579136
 21
209.8781345500639
 72
     1
 10
519.9300995579136
 20
209.8781345500639
 11
518.729931015062
 21
209.8781345500639
 72
     1
 10
518.729931015062
 20
209.8781345500639
 11
518.5803126415351
 21
209.5757473516843
 72
     1
 10
518.5803126415351
 20
209.5757473516843
 11
519.7804811843866
 21
209.5757473516843
 72
     1
 10
519.7804811843866
 20
209.5757473516843
 11
519.6270615585846
 21
209.2656776073799
 72
     1
 10
519.6270615585846
 20
209.26567760738
 11
518.4268930157331
 21
209.2656776073799
 72
     1
 10
518.4268930157331
 20
209.2656776073799
 11
518.2772683080833
 21
208.9632776073798
 72
     1
 10
518.2772683080833
 20
208.9632776073798
 11
519.4774368509349
 21
208.9632776073798
 72
     1
 10
519.4774368509349
 20
208.9632776073798
 11
519.2860882248092
 21
208.5765512073799
 72
     1
 10
519.2860882248092
 20
208.5765512073799
 11
517.0025527481873
 21
208.5765512073799
 72
     1
 10
517.0025527481873
 20
208.5765512073799
 11
517.8379223329502
 21
210.264880403811
 97
       12
330
233A
330
2362
330
2337
330
2346
330
2338
330
236B
330
2339
330
2349
330
2347
330
2348
330
2350
330
2344
 75
     0
 76
     1
 98
        1
 10
424.4306136460386
 20
93.52447119909649
450
        0
451
        0
460
0.0
461
0.0
452
        0
462
0.0
453
        0
470

  0
LINE
  5
233C
102
{ACAD_REACTORS
330
2343
102
}
330
18
100
AcDbEntity
  8
外形線
 62
     0
100
AcDbLine
 10
513.2345858163001
 20
207.6267505375032
 30
0.0
 11
531.0920994453306
 21
207.6267505375032
 31
0.0
  0
LINE
  5
233D
330
18
100
AcDbEntity
  8
外形線
 62
     0
100
AcDbLine
 10
514.5621996591538
 20
207.8911836598777
 30
0.0
 11
530.2518466716073
 21
207.8911836598777
 31
0.0
  0
HATCH
  5
233E
330
18
100
AcDbEntity
  8
外形線
 62
     0
100
AcDbHatch
 10
0.0
 20
0.0
 30
0.0
210
0.0
220
0.0
230
1.0
  2
SOLID
 70
     1
 71
     0
 91
        1
 92
        7
 72
     0
 73
     1
 93
        4
 10
514.5805383766181
 20
207.8911836598777
 10
514.4609013310755
 20
207.6267505375032
 10
530.1199917763966
 20
207.6267505375032
 10
530.2518466716073
 20
207.8911836598777
 97
        0
 75
     0
 76
     1
 47
0.0514683685270805
 98
        1
 10
524.4756979977603
 20
207.8212453487573
450
        0
451
        0
460
0.0
461
0.0
452
        0
462
0.0
453
        0
470

  0
ARC
  5
233F
330
18
100
AcDbEntity
  8
外形線
100
AcDbCircle
 10
523.518332624066
 20
193.121975004122
 30
0.0
 40
31.0
100
AcDbArc
 50
69.21644040415324
 51
110.7835595958467
  0
LINE
  5
2340
330
18
100
AcDbEntity
  8
外形線
100
AcDbLine
 10
503.018332624066
 20
204.621975004122
 30
0.0
 11
544.018332624066
 21
204.621975004122
 31
0.0
  0
LINE
  5
2341
102
{ACAD_REACTORS
330
2343
102
}
330
18
100
AcDbEntity
  8
外形線
 62
     0
100
AcDbLine
 10
514.5399079392765
 20
210.264880403811
 30
0.0
 11
513.2345858163001
 21
207.6267505375032
 31
0.0
  0
SPLINE
  5
2342
102
{ACAD_REACTORS
330
2343
102
}
330
18
100
AcDbEntity
  8
外形線
 62
     0
100
AcDbSpline
210
0.0
220
0.0
230
1.0
 70
     8
 71
     3
 72
    18
 73
    14
 74
     0
 42
0.000000001
 43
0.0000000001
 40
0.1087402787915014
 40
0.1087402787915014
 40
0.1087402787915014
 40
0.1087402787915014
 40
0.5992371417938475
 40
1.083176791562495
 40
1.448211145705696
 40
1.714037220764907
 40
2.164002567013296
 40
2.740236056362883
 40
3.395137510199602
 40
4.071816045172726
 40
4.784906178399433
 40
5.506895915094291
 40
6.060470601257718
 40
6.060470601257718
 40
6.060470601257718
 40
6.060470601257718
 10
516.6131200559716
 20
210.2648804038111
 30
0.0
 10
516.6795394615036
 20
210.2405388047211
 30
0.0
 10
516.8101525373115
 20
210.1890769444587
 30
0.0
 10
516.9695621258721
 20
210.0716239747268
 30
0.0
 10
517.0564972323468
 20
209.9360341183619
 30
0.0
 10
517.1401190719022
 20
209.8024345925439
 30
0.0
 10
517.1518217957019
 20
209.6107634771999
 30
0.0
 10
517.1326519434985
 20
209.3684447314648
 30
0.0
 10
517.0088931095148
 20
209.1156101260811
 30
0.0
 10
516.8102529021246
 20
208.8944710864787
 30
0.0
 10
516.5636272224335
 20
208.7174742831823
 30
0.0
 10
516.3035519362956
 20
208.5785363505453
 30
0.0
 10
516.1176500486552
 20
208.5771519954771
 30
0.0
 10
516.0369715840763
 20
208.5765512073799
 30
0.0
  0
HATCH
  5
2343
330
18
100
AcDbEntity
  8
外形線
 62
     0
100
AcDbHatch
 10
0.0
 20
0.0
 30
0.0
210
0.0
220
0.0
230
1.0
  2
SOLID
 70
     1
 71
     1
 91
        2
 92
        5
 93
        6
 72
     1
 10
513.2345858163001
 20
207.6267505375032
 11
514.4609013310755
 21
207.6267505375032
 72
     1
 10
514.4609013310755
 20
207.6267505375032
 11
514.8906180964265
 21
208.5765512073799
 72
     1
 10
514.8906180964265
 20
208.5765512073799
 11
516.0369715840763
 21
208.5765512073799
 72
     4
 94
        3
 73
     0
 74
     0
 95
       18
 96
       14
 40
0.108740278791501
 40
0.108740278791501
 40
0.108740278791501
 40
0.108740278791501
 40
0.6623149649549278
 40
1.384304701649786
 40
2.097394834876493
 40
2.774073369849617
 40
3.428974823686336
 40
4.005208313035923
 40
4.455173659284312
 40
4.720999734343523
 40
5.086034088486723
 40
5.569973738255372
 40
6.060470601257718
 40
6.060470601257718
 40
6.060470601257718
 40
6.060470601257718
 10
516.0369715840763
 20
208.5765512073799
 10
516.1176500486552
 20
208.5771519954771
 10
516.3035519362956
 20
208.5785363505453
 10
516.5636272224335
 20
208.7174742831823
 10
516.8102529021246
 20
208.8944710864787
 10
517.0088931095148
 20
209.1156101260811
 10
517.1326519434985
 20
209.3684447314648
 10
517.1518217957019
 20
209.6107634771999
 10
517.1401190719022
 20
209.8024345925439
 10
517.0564972323468
 20
209.9360341183619
 10
516.9695621258721
 20
210.0716239747268
 10
516.8101525373115
 20
210.1890769444587
 10
516.6795394615036
 20
210.2405388047211
 10
516.6131200559716
 20
210.2648804038111
 72
     1
 10
516.6131200559717
 20
210.264880403811
 11
514.5399079392765
 21
210.264880403811
 72
     1
 10
514.5399079392765
 20
210.264880403811
 11
513.2345858163001
 21
207.6267505375032
 97
        6
330
2342
330
2352
330
2341
330
233C
330
234F
330
234A
 92
       20
 93
        4
 72
     1
 10
515.1559438722538
 20
209.162999351684
 11
515.3590838961418
 21
209.6119986608224
 72
     1
 10
515.3590838961418
 20
209.6119986608224
 11
515.8810671806958
 21
209.6119986608224
 72
     4
 94
        3
 73
     0
 74
     0
 95
       15
 96
       11
 40
0.0
 40
0.0
 40
0.0
 40
0.0
 40
0.1979620751796092
 40
0.2882218927612139
 40
0.3906727944937835
 40
0.4604671121752043
 40
0.5708475494578219
 40
0.636962416131753
 40
0.750393862154481
 40
0.7882043682942359
 40
0.7882043682942359
 40
0.7882043682942359
 40
0.7882043682942359
 10
515.8810671806958
 20
209.6119986608224
 10
515.9554178972005
 20
209.6123392267913
 10
516.0636684508467
 20
209.6128350721095
 10
516.1228637090296
 20
209.4789288242
 10
516.0963295718723
 20
209.3927140896663
 10
516.0629739988985
 20
209.3041984284905
 10
516.0040271469155
 20
209.2440507017157
 10
515.9249118374358
 20
209.186118301325
 10
515.8501440892214
 20
209.1791053248488
 10
515.8015160619709
 20
209.1662205475505
 10
515.7893590493389
 20
209.162999351684
 72
     1
 10
515.7893590493388
 20
209.1629993516839
 11
515.1559438722538
 21
209.162999351684
 97
        4
330
234B
330
234D
330
234C
330
234E
 75
     0
 76
     1
 47
0.0514683685270805
 98
        2
 10
514.5509889363853
 20
209.4443520020966
 10
514.5509889363853
 20
209.4443520020966
450
        0
451
        0
460
0.0
461
0.0
452
        0
462
0.0
453
        0
470

  0
LINE
  5
2344
102
{ACAD_REACTORS
330
233B
102
}
330
18
100
AcDbEntity
  8
外形線
 62
     0
100
AcDbLine
 10
517.8379223329502
 20
210.264880403811
 30
0.0
 11
517.0025527481873
 21
208.5765512073799
 31
0.0
  0
ARC
  5
2345
330
18
100
AcDbEntity
  8
外形線
100
AcDbCircle
 10
503.018332624066
 20
203.121975004122
 30
0.0
 40
1.5
100
AcDbArc
 50
90.0
 51
180.0
  0
LINE
  5
2346
102
{ACAD_REACTORS
330
233B
102
}
330
18
100
AcDbEntity
  8
外形線
 62
     0
100
AcDbLine
 10
518.729931015062
 20
209.8781345500639
 30
0.0
 11
518.5803126415351
 21
209.5757473516843
 31
0.0
  0
LINE
  5
2347
102
{ACAD_REACTORS
330
233B
102
}
330
18
100
AcDbEntity
  8
外形線
 62
     0
100
AcDbLine
 10
518.2772683080833
 20
208.9632776073798
 30
0.0
 11
519.4774368509349
 21
208.9632776073798
 31
0.0
  0
LINE
  5
2348
102
{ACAD_REACTORS
330
233B
102
}
330
18
100
AcDbEntity
  8
外形線
 62
     0
100
AcDbLine
 10
519.4774368509349
 20
208.9632776073798
 30
0.0
 11
519.2860882248092
 21
208.5765512073799
 31
0.0
  0
LINE
  5
2349
102
{ACAD_REACTORS
330
233B
102
}
330
18
100
AcDbEntity
  8
外形線
 62
     0
100
AcDbLine
 10
518.4268930157331
 20
209.2656776073799
 30
0.0
 11
518.2772683080833
 21
208.9632776073798
 31
0.0
  0
LINE
  5
234A
102
{ACAD_REACTORS
330
2343
102
}
330
18
100
AcDbEntity
  8
外形線
 62
     0
100
AcDbLine
 10
516.0369715844738
 20
208.5765512073799
 30
0.0
 11
514.8906180964265
 21
208.5765512073799
 31
0.0
  0
LINE
  5
234B
102
{ACAD_REACTORS
330
2343
102
}
330
18
100
AcDbEntity
  8
外形線
 62
     0
100
AcDbLine
 10
515.3590838961418
 20
209.6119986608224
 30
0.0
 11
515.1559438722538
 21
209.162999351684
 31
0.0
  0
SPLINE
  5
234C
102
{ACAD_REACTORS
330
2343
102
}
330
18
100
AcDbEntity
  8
外形線
 62
     0
100
AcDbSpline
210
0.0
220
0.0
230
1.0
 70
  1064
 71
     3
 72
    15
 73
    11
 74
     9
 42
0.000000001
 43
0.0000000001
 44
0.0000000001
 40
0.0
 40
0.0
 40
0.0
 40
0.0
 40
0.1979620751796092
 40
0.2882218927612139
 40
0.3906727944937835
 40
0.4604671121752043
 40
0.5708475494578219
 40
0.636962416131753
 40
0.750393862154481
 40
0.7882043682942359
 40
0.7882043682942359
 40
0.7882043682942359
 40
0.7882043682942359
 10
515.8810671806958
 20
209.6119986608224
 30
0.0
 10
515.9554178972005
 20
209.6123392267913
 30
0.0
 10
516.0636684508467
 20
209.6128350721095
 30
0.0
 10
516.1228637090296
 20
209.4789288242
 30
0.0
 10
516.0963295718723
 20
209.3927140896663
 30
0.0
 10
516.0629739988985
 20
209.3041984284905
 30
0.0
 10
516.0040271469155
 20
209.2440507017157
 30
0.0
 10
515.9249118374358
 20
209.186118301325
 30
0.0
 10
515.8501440892214
 20
209.1791053248488
 30
0.0
 10
515.8015160619709
 20
209.1662205475505
 30
0.0
 10
515.7893590493389
 20
209.162999351684
 30
0.0
 11
515.8810671806958
 21
209.6119986608224
 31
0.0
 11
516.0736544147471
 21
209.5661822828568
 31
0.0
 11
516.1103377727576
 21
209.4837131012498
 31
0.0
 11
516.0919963574224
 21
209.3829173684566
 31
0.0
 11
516.0644839707495
 21
209.3187744393048
 31
0.0
 11
515.991117254728
 21
209.2363052576978
 31
0.0
 11
515.9360924813819
 21
209.1996521553254
 31
0.0
 11
515.8260424073497
 21
209.1721626272771
 31
0.0
 11
515.7893590493389
 21
209.162999351684
 31
0.0
  0
LINE
  5
234D
102
{ACAD_REACTORS
330
2343
102
}
330
18
100
AcDbEntity
  8
外形線
 62
     0
100
AcDbLine
 10
515.8810671806958
 20
209.6119986608224
 30
0.0
 11
515.3590838961418
 21
209.6119986608224
 31
0.0
  0
LINE
  5
234E
102
{ACAD_REACTORS
330
2343
102
}
330
18
100
AcDbEntity
  8
外形線
 62
     0
100
AcDbLine
 10
515.7893590493391
 20
209.1629993516839
 30
0.0
 11
515.1559438722538
 21
209.162999351684
 31
0.0
  0
LINE
  5
234F
102
{ACAD_REACTORS
330
2343
102
}
330
18
100
AcDbEntity
  8
外形線
 62
     0
100
AcDbLine
 10
514.8906180964265
 20
208.5765512073799
 30
0.0
 11
514.4609013310755
 21
207.6267505375032
 31
0.0
  0
LINE
  5
2350
102
{ACAD_REACTORS
330
233B
102
}
330
18
100
AcDbEntity
  8
外形線
 62
     0
100
AcDbLine
 10
517.0025527481873
 20
208.5765512073799
 30
0.0
 11
519.2860882248092
 21
208.5765512073799
 31
0.0
  0
LINE
  5
2351
330
18
100
AcDbEntity
  8
外形線
100
AcDbLine
 10
512.518332624066
 20
222.1047284965008
 30
0.0
 11
512.518332624066
 21
221.0325464780277
 31
0.0
  0
LINE
  5
2352
102
{ACAD_REACTORS
330
2343
102
}
330
18
100
AcDbEntity
  8
外形線
 62
     0
100
AcDbLine
 10
514.5399079392765
 20
210.264880403811
 30
0.0
 11
516.6131200559716
 21
210.264880403811
 31
0.0
  0
LINE
  5
2353
330
18
100
AcDbEntity
  8
外形線
 62
     0
100
AcDbLine
 10
532.4075562003347
 20
210.264880403811
 30
0.0
 11
532.1703882526468
 21
209.7892434482468
 31
0.0
  0
LINE
  5
2354
330
18
100
AcDbEntity
  8
外形線
 62
     0
100
AcDbLine
 10
532.0931556399689
 20
208.9458154706571
 30
0.0
 11
533.6911811696806
 21
210.264880403811
 31
0.0
  0
LINE
  5
2355
330
18
100
AcDbEntity
  8
外形線
 62
     0
100
AcDbLine
 10
532.1703882526468
 20
209.7892434482468
 30
0.0
 11
532.7190947696806
 21
210.264880403811
 31
0.0
  0
SPLINE
  5
2356
330
18
100
AcDbEntity
  8
外形線
 62
     0
100
AcDbSpline
210
0.0
220
0.0
230
1.0
 70
  1064
 71
     3
 72
    26
 73
    22
 74
    20
 42
0.000000001
 43
0.0000000001
 44
0.0000000001
 40
0.0
 40
0.0
 40
0.0
 40
0.0
 40
0.306282258847545
 40
0.5113145150564867
 40
0.659159468972717
 40
0.7695505122603965
 40
0.9127334891894133
 40
1.017243103820833
 40
1.20596310881299
 40
1.359578479722731
 40
1.464061546148727
 40
1.566512542290331
 40
1.749777456690543
 40
1.87936762474326
 40
1.949161942424681
 40
2.048302708997917
 40
2.119894481049069
 40
2.223607322578678
 40
2.282299819925741
 40
2.410021277698006
 40
2.468340004823087
 40
2.468340004823087
 40
2.468340004823087
 40
2.468340004823087
 10
529.39108121125
 20
210.264880403811
 30
0.0
 10
529.2871242802745
 20
210.2586781550416
 30
0.0
 10
529.1135762336183
 20
210.2483239809743
 30
0.0
 10
528.9230215341317
 20
210.1325640474421
 30
0.0
 10
528.7834100056044
 20
210.0652663091448
 30
0.0
 10
528.683839232773
 20
209.9737807673196
 30
0.0
 10
528.6108534526578
 20
209.8792828855063
 30
0.0
 10
528.5188411751893
 20
209.7666893522025
 30
0.0
 10
528.4438077921675
 20
209.6355787388908
 30
0.0
 10
528.4055978517679
 20
209.491071986095
 30
0.0
 10
528.3717518492132
 20
209.3758992656621
 30
0.0
 10
528.3466510871051
 20
209.2475542990862
 30
0.0
 10
528.3530374315787
 20
209.108896585786
 30
0.0
 10
528.3621829691445
 20
208.9801184002098
 30
0.0
 10
528.4030155704754
 20
208.8881900564469
 30
0.0
 10
528.4495166706911
 20
208.8227434103949
 30
0.0
 10
528.506456631076
 20
208.7506611854965
 30
0.0
 10
528.5687613994842
 20
208.7029213613577
 30
0.0
 10
528.6202925286263
 20
208.6164374618912
 30
0.0
 10
528.7104960318209
 20
208.6054014925931
 30
0.0
 10
528.7678329670613
 20
208.5834366198943
 30
0.0
 10
528.7858065950831
 20
208.5765512073799
 30
0.0
 11
529.39108121125
 21
210.264880403811
 31
0.0
 11
529.0884439031665
 21
210.2177690268333
 31
0.0
 11
528.9050271131128
 21
210.1261365696332
 31
0.0
 11
528.7766356237454
 21
210.0528306636194
 31
0.0
 11
528.6940984637261
 21
209.9795244588745
 31
0.0
 11
528.6023903323695
 21
209.8695654504881
 31
0.0
 11
528.5381945876856
 21
209.7870962688813
 31
0.0
 11
528.4464859289888
 21
209.6221576069361
 31
0.0
 11
528.4006321269806
 21
209.4755454961774
 31
0.0
 11
528.3731197403076
 21
209.3747497633841
 31
0.0
 11
528.3547777976322
 21
209.273954030591
 31
0.0
 11
528.3547777976322
 21
209.0906891161908
 31
0.0
 11
528.3731197403076
 21
208.9624035566183
 31
0.0
 11
528.4006321269806
 21
208.8982606274665
 31
0.0
 11
528.4556569003266
 21
208.8157914458594
 31
0.0
 11
528.5015112296751
 21
208.7608117923008
 31
0.0
 11
528.5748774183564
 21
208.6875058862869
 31
0.0
 11
528.6115607763672
 21
208.6416895083213
 31
0.0
 11
528.7307818217369
 21
208.5958734290868
 31
0.0
 11
528.7858065950831
 21
208.5765512073799
 31
0.0
  0
LINE
  5
2357
330
18
100
AcDbEntity
  8
外形線
 62
     0
100
AcDbLine
 10
531.0818422225294
 20
210.264880403811
 30
0.0
 11
530.7686174075487
 21
209.6367124795321
 31
0.0
  0
LINE
  5
2358
330
18
100
AcDbEntity
  8
外形線
 62
     0
100
AcDbLine
 10
531.4354485314009
 20
210.264880403811
 30
0.0
 11
530.1199917763966
 21
207.6267505375032
 31
0.0
  0
HATCH
  5
2359
330
18
100
AcDbEntity
  8
外形線
 62
     0
100
AcDbHatch
 10
0.0
 20
0.0
 30
0.0
210
0.0
220
0.0
230
1.0
  2
SOLID
 70
     1
 71
     0
 91
        1
 92
        5
 93
        8
 72
     4
 94
        3
 73
     0
 74
     0
 95
       26
 96
       22
 40
0.0
 40
0.0
 40
0.0
 40
0.0
 40
0.3062822588475449
 40
0.5113145150563467
 40
0.6591594689727182
 40
0.7695505122602936
 40
0.9127334891893319
 40
1.017243103820774
 40
1.205963108812881
 40
1.359578479722683
 40
1.464061546148625
 40
1.566512542290256
 40
1.749777456690439
 40
1.879367624743214
 40
1.949161942424609
 40
2.04830270899782
 40
2.119894481049016
 40
2.223607322578585
 40
2.282299819925648
 40
2.41002127769804
 40
2.468340004822994
 40
2.468340004822994
 40
2.468340004822994
 40
2.468340004822994
 10
529.39108121125
 20
210.264880403811
 10
529.2871242802744
 20
210.2586781550415
 10
529.1135762336183
 20
210.2483239809743
 10
528.9230215341317
 20
210.1325640474422
 10
528.7834100056044
 20
210.0652663091449
 10
528.6838392327731
 20
209.9737807673197
 10
528.6108534526578
 20
209.8792828855063
 10
528.5188411751893
 20
209.7666893522025
 10
528.4438077921675
 20
209.6355787388907
 10
528.4055978517677
 20
209.491071986095
 10
528.3717518492131
 20
209.3758992656622
 10
528.3466510871051
 20
209.2475542990862
 10
528.3530374315788
 20
209.1088965857861
 10
528.3621829691445
 20
208.9801184002098
 10
528.4030155704754
 20
208.8881900564469
 10
528.4495166706911
 20
208.822743410395
 10
528.5064566310759
 20
208.7506611854965
 10
528.568761399484
 20
208.7029213613577
 10
528.6202925286263
 20
208.6164374618912
 10
528.710496031821
 20
208.6054014925932
 10
528.7678329670613
 20
208.5834366198943
 10
528.7858065950831
 20
208.5765512073799
 72
     1
 10
528.7858065950831
 20
208.57655120738
 11
530.2399867572319
 21
208.5765512073799
 72
     1
 10
530.2399867572319
 20
208.5765512073799
 11
530.5532082552474
 21
209.2047124795321
 72
     1
 10
530.5532082552474
 20
209.2047124795321
 11
529.473618371269
 21
209.2047124795321
 72
     4
 94
        3
 73
     0
 74
     0
 95
       16
 96
       12
 40
0.0
 40
0.0
 40
0.0
 40
0.0
 40
0.0924964283868937
 40
0.185946890240525
 40
0.2416858907028844
 40
0.2951281203562444
 40
0.3538203845089212
 40
0.3948066843497379
 40
0.4336991257335824
 40
0.5125674130988857
 40
0.6740411735369252
 40
0.6740411735369252
 40
0.6740411735369252
 40
0.6740411735369252
 10
529.4736183712691
 20
209.2047124795321
 10
529.4410541358339
 20
209.2142933550746
 10
529.375589788531
 20
209.2335539259309
 10
529.3701109512981
 20
209.3269220976788
 10
529.3775750743776
 20
209.3934545603406
 10
529.4088348385055
 20
209.4418940784041
 10
529.4467583543264
 20
209.4771402011641
 10
529.4608789612211
 20
209.5230427651128
 10
529.5023851986667
 20
209.5577049438054
 10
529.5759868790263
 20
209.6159672242029
 10
529.6573775962981
 20
209.6283757881413
 10
529.7120599346686
 20
209.6367124795321
 72
     1
 10
529.7120599346686
 20
209.6367124795321
 11
530.7686174075487
 21
209.6367124795321
 72
     1
 10
530.7686174075487
 20
209.6367124795321
 11
531.0818422225294
 21
210.264880403811
 72
     1
 10
531.0818422225294
 20
210.264880403811
 11
529.3910812112501
 21
210.264880403811
 97
        0
 75
     0
 76
     1
 47
0.0514683685270805
 98
        1
 10
529.6828321922734
 20
209.9557415854379
450
        0
451
        0
460
0.0
461
0.0
452
        0
462
0.0
453
        0
470

  0
HATCH
  5
235A
330
18
100
AcDbEntity
  8
外形線
 62
     0
100
AcDbHatch
 10
0.0
 20
0.0
 30
0.0
210
0.0
220
0.0
230
1.0
  2
SOLID
 70
     1
 71
     1
 91
        2
 92
        5
 93
        6
 72
     4
 94
        3
 73
     0
 74
     0
 95
       38
 96
       34
 40
0.0
 40
0.0
 40
0.0
 40
0.0
 40
0.2324160190625675
 40
0.3054076598661302
 40
0.3991969555208097
 40
0.4773548548861035
 40
0.5433001127835883
 40
0.6308904647836915
 40
0.675645682493768
 40
0.7260518053353007
 40
0.8003409450195629
 40
0.8844944200296193
 40
0.9390839551137005
 40
0.9983865037095323
 40
1.064308042580182
 40
1.164347318186034
 40
1.259395062462562
 40
1.303582284428243
 40
1.353971899974905
 40
1.413666953858192
 40
1.456162161198095
 40
1.491785383230488
 40
1.542647296663556
 40
1.598535826931747
 40
1.654424046021954
 40
1.703326315520154
 40
1.815321205179848
 40
1.859508427145403
 40
1.947882923564483
 40
2.026002047025153
 40
2.175555252260892
 40
2.360088422381734
 40
2.626581173122246
 40
2.626581173122246
 40
2.626581173122246
 40
2.626581173122246
 10
526.5794707856771
 20
210.2719225427468
 10
526.5019995601583
 20
210.2664497467599
 10
526.4001980329312
 20
210.259258186462
 10
526.2709338968473
 20
210.2238436670559
 10
526.2004706411377
 20
210.18165357061
 10
526.1271395394441
 20
210.1506418274237
 10
526.0646179455204
 20
210.1047195855315
 10
526.0013786731972
 20
210.081056296712
 10
525.957096598857
 20
210.0383871573752
 10
525.905843709829
 20
210.0123230054362
 10
525.8650301243262
 20
209.9539838559891
 10
525.8194121116426
 20
209.8994388652853
 10
525.7664894779765
 20
209.8596234546857
 10
525.7230551622572
 20
209.8178056245913
 10
525.6832102170688
 20
209.7532681479262
 10
525.6596281951918
 20
209.6675169519018
 10
525.5931544338079
 20
209.6133767392497
 10
525.5831455666156
 20
209.5482840493802
 10
525.5463769020782
 20
209.5098804577065
 10
525.5303886007777
 20
209.4603069380115
 10
525.5242994860473
 20
209.4148888374563
 10
525.5169910964209
 20
209.3724714756199
 10
525.4978737332653
 20
209.3278502846712
 10
525.5041137065584
 20
209.2727313546121
 10
525.5023361255041
 20
209.2193578651493
 10
525.5033822340411
 20
209.1473019923632
 10
525.4996066834534
 20
209.077146739181
 10
525.5297152198301
 20
209.0008011841074
 10
525.5475324524621
 20
208.9327496838218
 10
525.5963278423895
 20
208.8385241294985
 10
525.680498867441
 20
208.7298082133012
 10
525.8405571123211
 20
208.5978476890678
 10
525.9944577944687
 20
208.5844609081455
 10
526.0853914065503
 20
208.5765512073799
 72
     1
 10
526.0853914065503
 20
208.5765512073799
 11
527.0502606077887
 21
208.5765512073799
 72
     4
 94
        3
 73
     0
 74
     0
 95
       11
 96
        7
 40
0.1647869275458134
 40
0.1647869275458134
 40
0.1647869275458134
 40
0.1647869275458134
 40
0.2545010798212313
 40
0.5111620267764021
 40
0.76029982710339
 40
0.8850764140209602
 40
0.8850764140209602
 40
0.8850764140209602
 40
0.8850764140209602
 10
527.0502606077887
 20
208.5765512073799
 10
527.0637244796286
 20
208.5762917301246
 10
527.115706801551
 20
208.5752899209588
 10
527.2045452128178
 20
208.588052603139
 10
527.2980150562809
 20
208.6002828244762
 10
527.3537392138393
 20
208.609189725627
 10
527.3717116260118
 20
208.6141923534052
 72
     4
 94
        3
 73
     0
 74
     0
 95
        9
 96
        5
 40
0.0
 40
0.0
 40
0.0
 40
0.0
 40
0.1460305727424193
 40
0.3423777932799505
 40
0.3423777932799505
 40
0.3423777932799505
 40
0.3423777932799505
 10
527.3717116260118
 20
208.6141923534052
 10
527.418620870992
 20
208.6285439330494
 10
527.5286025240056
 20
208.6621921073759
 10
527.6194725633104
 20
208.7333079445145
 10
527.6715848205822
 20
208.7740915386389
 72
     4
 94
        3
 73
     0
 74
     0
 95
       25
 96
       21
 40
0.0
 40
0.0
 40
0.0
 40
0.0
 40
0.1655259189148541
 40
0.3412380755365301
 40
0.5940540902285259
 40
0.7697671103696213
 40
0.9377330196075416
 40
1.11479469302833
 40
1.274661249598184
 40
1.574522170874767
 40
1.815540668866877
 40
2.158490918734449
 40
2.536227739636604
 40
2.738070817316548
 40
2.925680654369045
 40
3.162706124480894
 40
3.395643218188266
 40
3.64847812995886
 40
3.928509979727305
 40
4.337226830236034
 40
4.337226830236034
 40
4.337226830236034
 40
4.337226830236034
 10
527.6715848205822
 20
208.7740915386389
 10
527.6907325229456
 20
208.7899144951405
 10
527.7270504791935
 20
208.8275475107113
 10
527.791466354873
 20
208.8885422442895
 10
527.8482308460532
 20
208.959605949159
 10
527.9182539326893
 20
209.0172005914248
 10
527.9547077326681
 20
209.0876143110145
 10
528.0072530077733
 20
209.1429932016561
 10
528.0513298892386
 20
209.228520435644
 10
528.0887269447099
 20
209.3267641336864
 10
528.1243798732067
 20
209.4548229270195
 10
528.1380424432111
 20
209.5992922809352
 10
528.1178201405218
 20
209.7390663083464
 10
528.0689681692257
 20
209.8435428026082
 10
528.0330528196652
 20
209.9306131928932
 10
527.9785467771249
 20
210.0130841833352
 10
527.9163627494471
 20
210.1027805057649
 10
527.8287564656136
 20
210.1769738858841
 10
527.7142640473864
 20
210.2664630579384
 10
527.6076229088912
 20
210.2698893277318
 10
527.5443399869154
 20
210.2719225427468
 72
     1
 10
527.5443399869154
 20
210.2719225427468
 11
526.5794707856771
 21
210.2719225427468
 97
        6
330
235B
330
2384
330
2360
330
237C
330
237A
330
237B
 92
       20
 93
        1
 72
     3
 10
526.8012030073451
 20
209.4005991241795
 11
0.2292231973722778
 21
0.2015731185223643
 40
0.6788083417438794
 50
0.0
 51
360.0
 73
     1
 97
        1
330
237D
 75
     0
 76
     1
 47
0.0139753528786224
 98
        2
 10
526.0397288793272
 20
209.1893552533051
 10
526.0397288793272
 20
209.1893552533051
450
        0
451
        0
460
0.0
461
0.0
452
        1
462
1.0
453
        2
463
0.0
 63
     5
421
      255
463
1.0
 63
    51
421
 16777113
470
LINEAR
  0
SPLINE
  5
235B
102
{ACAD_REACTORS
330
235A
102
}
330
18
100
AcDbEntity
  8
外形線
 62
     0
100
AcDbSpline
210
0.0
220
0.0
230
1.0
 70
     8
 71
     3
 72
    25
 73
    21
 74
     0
 42
0.000000001
 43
0.0000000001
 40
0.0
 40
0.0
 40
0.0
 40
0.0
 40
0.4087168505087288
 40
0.6887487002771746
 40
0.9415836120477687
 40
1.174520705755139
 40
1.41154617586699
 40
1.599156012919486
 40
1.80099909059943
 40
2.178735911501584
 40
2.521686161369157
 40
2.762704659361267
 40
3.06256558063785
 40
3.222432137207704
 40
3.399493810628493
 40
3.567459719866413
 40
3.743172740007508
 40
3.995988754699504
 40
4.17170091132118
 40
4.337226830236034
 40
4.337226830236034
 40
4.337226830236034
 40
4.337226830236034
 10
527.5443399869154
 20
210.2719225427468
 30
0.0
 10
527.6076229088912
 20
210.2698893277318
 30
0.0
 10
527.7142640473864
 20
210.2664630579384
 30
0.0
 10
527.8287564656136
 20
210.1769738858841
 30
0.0
 10
527.9163627494471
 20
210.1027805057649
 30
0.0
 10
527.9785467771249
 20
210.0130841833352
 30
0.0
 10
528.0330528196652
 20
209.9306131928932
 30
0.0
 10
528.0689681692257
 20
209.8435428026082
 30
0.0
 10
528.1178201405218
 20
209.7390663083464
 30
0.0
 10
528.1380424432111
 20
209.5992922809352
 30
0.0
 10
528.1243798732067
 20
209.4548229270195
 30
0.0
 10
528.0887269447099
 20
209.3267641336864
 30
0.0
 10
528.0513298892386
 20
209.228520435644
 30
0.0
 10
528.0072530077733
 20
209.1429932016561
 30
0.0
 10
527.9547077326681
 20
209.0876143110145
 30
0.0
 10
527.9182539326893
 20
209.0172005914248
 30
0.0
 10
527.8482308460532
 20
208.959605949159
 30
0.0
 10
527.791466354873
 20
208.8885422442895
 30
0.0
 10
527.7270504791935
 20
208.8275475107113
 30
0.0
 10
527.6907325229456
 20
208.7899144951405
 30
0.0
 10
527.6715848205822
 20
208.7740915386389
 30
0.0
  0
LINE
  5
235C
330
18
100
AcDbEntity
  8
外形線
 62
     0
100
AcDbLine
 10
525.6418953741937
 20
210.264880403811
 30
0.0
 11
525.3286705592129
 21
209.6367124795321
 31
0.0
  0
SPLINE
  5
235D
330
18
100
AcDbEntity
  8
外形線
 62
     0
100
AcDbSpline
210
0.0
220
0.0
230
1.0
 70
  1064
 71
     3
 72
    26
 73
    22
 74
    20
 42
0.000000001
 43
0.0000000001
 44
0.0000000001
 40
0.0
 40
0.0
 40
0.0
 40
0.0
 40
0.306282258847545
 40
0.5113145150563849
 40
0.659159468972714
 40
0.7695505122603934
 40
0.91273348918925
 40
1.01724310382083
 40
1.205963108812857
 40
1.359578479722632
 40
1.46406154614871
 40
1.566512542290334
 40
1.749777456690546
 40
1.879367624743279
 40
1.9491619424247
 40
2.048302708997936
 40
2.119894481049161
 40
2.22360732257869
 40
2.282299819925753
 40
2.410021277697977
 40
2.468340004822988
 40
2.468340004822988
 40
2.468340004822988
 40
2.468340004822988
 10
523.9511343629142
 20
210.264880403811
 30
0.0
 10
523.8471774319386
 20
210.2586781550416
 30
0.0
 10
523.6736293852824
 20
210.2483239809743
 30
0.0
 10
523.4830746857961
 20
210.1325640474421
 30
0.0
 10
523.3434631572684
 20
210.0652663091448
 30
0.0
 10
523.2438923844374
 20
209.9737807673198
 30
0.0
 10
523.170906604322
 20
209.8792828855063
 30
0.0
 10
523.0788943268534
 20
209.7666893522025
 30
0.0
 10
523.003860943832
 20
209.6355787388907
 30
0.0
 10
522.965651003432
 20
209.4910719860951
 30
0.0
 10
522.9318050008775
 20
209.3758992656622
 30
0.0
 10
522.9067042387692
 20
209.2475542990862
 30
0.0
 10
522.9130905832428
 20
209.108896585786
 30
0.0
 10
522.9222361208088
 20
208.9801184002098
 30
0.0
 10
522.9630687221394
 20
208.8881900564469
 30
0.0
 10
523.0095698223554
 20
208.8227434103949
 30
0.0
 10
523.0665097827401
 20
208.7506611854966
 30
0.0
 10
523.1288145511483
 20
208.7029213613576
 30
0.0
 10
523.1803456802907
 20
208.6164374618912
 30
0.0
 10
523.2705491834852
 20
208.6054014925934
 30
0.0
 10
523.3278861187253
 20
208.5834366198943
 30
0.0
 10
523.3458597467472
 20
208.5765512073799
 30
0.0
 11
523.9511343629142
 21
210.264880403811
 31
0.0
 11
523.6484970548307
 21
210.2177690268333
 31
0.0
 11
523.4650802647771
 21
210.1261365696332
 31
0.0
 11
523.3366887754096
 21
210.0528306636194
 31
0.0
 11
523.2541516153903
 21
209.9795244588745
 31
0.0
 11
523.1624434840338
 21
209.8695654504882
 31
0.0
 11
523.0982477393498
 21
209.7870962688813
 31
0.0
 11
523.0065390806531
 21
209.6221576069362
 31
0.0
 11
522.9606852786447
 21
209.4755454961775
 31
0.0
 11
522.9331728919718
 21
209.3747497633841
 31
0.0
 11
522.9148309492963
 21
209.273954030591
 31
0.0
 11
522.9148309492963
 21
209.0906891161908
 31
0.0
 11
522.9331728919718
 21
208.9624035566183
 31
0.0
 11
522.9606852786447
 21
208.8982606274665
 31
0.0
 11
523.0157100519908
 21
208.8157914458594
 31
0.0
 11
523.0615643813393
 21
208.7608117923008
 31
0.0
 11
523.1349305700206
 21
208.6875058862869
 31
0.0
 11
523.1716139280314
 21
208.6416895083213
 31
0.0
 11
523.2908349734011
 21
208.5958734290869
 31
0.0
 11
523.3458597467472
 21
208.5765512073799
 31
0.0
  0
HATCH
  5
235E
330
18
100
AcDbEntity
  8
外形線
 62
     0
100
AcDbHatch
 10
0.0
 20
0.0
 30
0.0
210
0.0
220
0.0
230
1.0
  2
SOLID
 70
     1
 71
     0
 91
        1
 92
        5
 93
        8
 72
     1
 10
525.3286705592129
 20
209.6367124795322
 11
525.6418953741937
 21
210.2648804038111
 72
     1
 10
525.6418953741938
 20
210.2648804038111
 11
523.9511343629145
 21
210.2648804038111
 72
     4
 94
        3
 73
     0
 74
     0
 95
       26
 96
       22
 40
0.0
 40
0.0
 40
0.0
 40
0.0
 40
0.3062822588475449
 40
0.5113145150563467
 40
0.6591594689727182
 40
0.7695505122602936
 40
0.9127334891892447
 40
1.017243103820776
 40
1.205963108812784
 40
1.359578479722586
 40
1.464061546148638
 40
1.566512542290269
 40
1.749777456690452
 40
1.879367624743225
 40
1.94916194242462
 40
2.048302708997832
 40
2.119894481049029
 40
2.223607322578598
 40
2.282299819925661
 40
2.410021277698011
 40
2.468340004823004
 40
2.468340004823004
 40
2.468340004823004
 40
2.468340004823004
 10
523.9511343629142
 20
210.264880403811
 10
523.8471774319386
 20
210.2586781550415
 10
523.6736293852827
 20
210.2483239809743
 10
523.4830746857959
 20
210.1325640474422
 10
523.3434631572686
 20
210.0652663091449
 10
523.2438923844374
 20
209.9737807673196
 10
523.170906604322
 20
209.8792828855064
 10
523.0788943268537
 20
209.7666893522024
 10
523.0038609438317
 20
209.6355787388908
 10
522.9656510034319
 20
209.4910719860951
 10
522.9318050008774
 20
209.3758992656622
 10
522.9067042387693
 20
209.2475542990862
 10
522.913090583243
 20
209.1088965857861
 10
522.9222361208087
 20
208.9801184002098
 10
522.9630687221396
 20
208.8881900564469
 10
523.0095698223554
 20
208.8227434103949
 10
523.0665097827401
 20
208.7506611854965
 10
523.1288145511483
 20
208.7029213613577
 10
523.1803456802906
 20
208.6164374618912
 10
523.2705491834852
 20
208.6054014925933
 10
523.3278861187255
 20
208.5834366198943
 10
523.3458597467472
 20
208.5765512073799
 72
     1
 10
523.3458597467472
 20
208.5765512073799
 11
524.8000399088961
 21
208.5765512073799
 72
     1
 10
524.8000399088961
 20
208.5765512073799
 11
525.1132614069116
 21
209.2047124795321
 72
     1
 10
525.1132614069116
 20
209.2047124795321
 11
524.0336715229333
 21
209.2047124795321
 72
     4
 94
        3
 73
     0
 74
     0
 95
       16
 96
       12
 40
0.0
 40
0.0
 40
0.0
 40
0.0
 40
0.092496428386945
 40
0.1859468902404647
 40
0.2416858907028242
 40
0.2951281203562815
 40
0.3538203845089407
 40
0.3948066843496557
 40
0.4336991257336609
 40
0.512567413098898
 40
0.6740411735369377
 40
0.6740411735369377
 40
0.6740411735369377
 40
0.6740411735369377
 10
524.0336715229333
 20
209.2047124795321
 10
524.0011072874981
 20
209.2142933550746
 10
523.9356429401953
 20
209.2335539259309
 10
523.9301641029623
 20
209.3269220976788
 10
523.9376282260421
 20
209.3934545603406
 10
523.9688879901696
 20
209.4418940784042
 10
524.0068115059906
 20
209.4771402011641
 10
524.0209321128852
 20
209.5230427651129
 10
524.0624383503309
 20
209.5577049438054
 10
524.1360400306906
 20
209.6159672242029
 10
524.2174307479623
 20
209.6283757881413
 10
524.2721130863327
 20
209.6367124795321
 72
     1
 10
524.2721130863327
 20
209.6367124795321
 11
525.328670559213
 21
209.6367124795322
 97
        0
 75
     0
 76
     1
 47
0.0514683685270805
 98
        1
 10
524.5424560878944
 20
209.8890385313648
450
        0
451
        0
460
0.0
461
0.0
452
        0
462
0.0
453
        0
470

  0
LINE
  5
235F
330
18
100
AcDbEntity
  8
外形線
 62
     0
100
AcDbLine
 10
522.1334691998183
 20
210.264880403811
 30
0.0
 11
522.8834919274541
 21
208.5765512073799
 31
0.0
  0
SPLINE
  5
2360
102
{ACAD_REACTORS
330
235A
102
}
330
18
100
AcDbEntity
  8
外形線
 62
     0
100
AcDbSpline
210
0.0
220
0.0
230
1.0
 70
  1064
 71
     3
 72
    38
 73
    34
 74
    32
 42
0.000000001
 43
0.0000000001
 44
0.0000000001
 40
0.0
 40
0.0
 40
0.0
 40
0.0
 40
0.2324160190625675
 40
0.3054076598661302
 40
0.3991969555208097
 40
0.4773548548861035
 40
0.5433001127835883
 40
0.6308904647836915
 40
0.675645682493768
 40
0.7260518053353007
 40
0.8003409450195629
 40
0.8844944200296193
 40
0.9390839551137005
 40
0.9983865037095323
 40
1.064308042580182
 40
1.164347318186034
 40
1.259395062462562
 40
1.303582284428243
 40
1.353971899974905
 40
1.413666953858192
 40
1.456162161198095
 40
1.491785383230488
 40
1.542647296663556
 40
1.598535826931747
 40
1.654424046021954
 40
1.703326315520154
 40
1.815321205179848
 40
1.859508427145403
 40
1.947882923564483
 40
2.026002047025153
 40
2.175555252260892
 40
2.360088422381734
 40
2.626581173122246
 40
2.626581173122246
 40
2.626581173122246
 40
2.626581173122246
 10
526.5794707856771
 20
210.2719225427468
 30
0.0
 10
526.5019995601583
 20
210.2664497467599
 30
0.0
 10
526.4001980329312
 20
210.259258186462
 30
0.0
 10
526.2709338968473
 20
210.2238436670559
 30
0.0
 10
526.2004706411377
 20
210.18165357061
 30
0.0
 10
526.1271395394441
 20
210.1506418274237
 30
0.0
 10
526.0646179455204
 20
210.1047195855315
 30
0.0
 10
526.0013786731972
 20
210.081056296712
 30
0.0
 10
525.957096598857
 20
210.0383871573752
 30
0.0
 10
525.905843709829
 20
210.0123230054362
 30
0.0
 10
525.8650301243262
 20
209.9539838559891
 30
0.0
 10
525.8194121116426
 20
209.8994388652853
 30
0.0
 10
525.7664894779765
 20
209.8596234546857
 30
0.0
 10
525.7230551622572
 20
209.8178056245913
 30
0.0
 10
525.6832102170688
 20
209.7532681479262
 30
0.0
 10
525.6596281951918
 20
209.6675169519018
 30
0.0
 10
525.5931544338079
 20
209.6133767392497
 30
0.0
 10
525.5831455666156
 20
209.5482840493802
 30
0.0
 10
525.5463769020782
 20
209.5098804577065
 30
0.0
 10
525.5303886007777
 20
209.4603069380115
 30
0.0
 10
525.5242994860473
 20
209.4148888374563
 30
0.0
 10
525.5169910964209
 20
209.3724714756199
 30
0.0
 10
525.4978737332653
 20
209.3278502846712
 30
0.0
 10
525.5041137065584
 20
209.2727313546121
 30
0.0
 10
525.5023361255041
 20
209.2193578651493
 30
0.0
 10
525.5033822340411
 20
209.1473019923632
 30
0.0
 10
525.4996066834534
 20
209.077146739181
 30
0.0
 10
525.5297152198301
 20
209.0008011841074
 30
0.0
 10
525.5475324524621
 20
208.9327496838218
 30
0.0
 10
525.5963278423895
 20
208.8385241294985
 30
0.0
 10
525.680498867441
 20
208.7298082133012
 30
0.0
 10
525.8405571123211
 20
208.5978476890678
 30
0.0
 10
525.9944577944687
 20
208.5844609081455
 30
0.0
 10
526.0853914065503
 20
208.5765512073799
 30
0.0
 11
526.5794707856771
 21
210.2719225427468
 31
0.0
 11
526.3487408238877
 21
210.2439781220236
 31
0.0
 11
526.2788226702943
 21
210.2230202732485
 31
0.0
 11
526.1949212155697
 21
210.1811039533418
 31
0.0
 11
526.1250030619764
 21
210.1461738942051
 31
0.0
 11
526.0690687588269
 21
210.1112435238902
 31
0.0
 11
525.9921589546678
 21
210.0693275151618
 31
0.0
 11
525.957199603215
 21
210.0413834056166
 31
0.0
 11
525.9152486011965
 21
210.0134389848934
 31
0.0
 11
525.8663059486123
 21
209.9575507658034
 31
0.0
 11
525.8103716454627
 21
209.8946765971215
 31
0.0
 11
525.7684206434442
 21
209.8597462268066
 31
0.0
 11
525.7264701907381
 21
209.8178302180782
 31
0.0
 11
525.6915108392852
 21
209.7619419989881
 31
0.0
 11
525.6495603865793
 21
209.6711234095831
 31
0.0
 11
525.5936255341168
 21
209.5942770305398
 31
0.0
 11
525.5796422329858
 21
209.5523607106331
 31
0.0
 11
525.5516750814109
 21
209.5104447019046
 31
0.0
 11
525.5306995804017
 21
209.4545561716364
 31
0.0
 11
525.5237073805236
 21
209.4126401629079
 31
0.0
 11
525.5167157299579
 21
209.377709792593
 31
0.0
 11
525.5027324288269
 21
209.3288078342728
 31
0.0
 11
525.5027324288269
 21
209.2729193040046
 31
0.0
 11
525.5027324288269
 21
209.2170310849144
 31
0.0
 11
525.5027324288269
 21
209.1681288154162
 31
0.0
 11
525.5097240793925
 21
209.056352377236
 31
0.0
 11
525.5237073805236
 21
209.0144360573294
 31
0.0
 11
525.5516750814109
 21
208.9306037286942
 31
0.0
 11
525.5866338835515
 21
208.8607432992426
 31
0.0
 11
525.6775275381539
 21
208.7419809114707
 31
0.0
 11
525.8243554959063
 21
208.6302041621124
 31
0.0
 11
526.0853914065503
 21
208.5765512073799
 31
0.0
  0
HATCH
  5
2361
330
18
100
AcDbEntity
  8
外形線
 62
     0
100
AcDbHatch
 10
0.0
 20
0.0
 30
0.0
210
0.0
220
0.0
230
1.0
  2
SOLID
 70
     1
 71
     0
 91
        1
 92
        7
 72
     0
 73
     1
 93
       11
 10
532.1703882526467
 20
209.7892434482465
 10
532.4075562003347
 20
210.264880403811
 10
531.4354485314009
 20
210.264880403811
 10
530.1199917763966
 20
207.6267505375032
 10
531.0920994453306
 20
207.6267505375032
 10
531.4354485314009
 20
208.3153322602284
 10
531.7787976174709
 20
207.6267505375032
 10
532.750884017471
 20
207.6267505375033
 10
532.0931556399689
 20
208.9458154706571
 10
533.6911811696806
 20
210.264880403811
 10
532.7190947696806
 20
210.264880403811
 97
        0
 75
     0
 76
     1
 47
0.015942268611278
 98
        1
 10
531.9601994131906
 20
209.4090203280172
450
        0
451
        0
460
0.0
461
0.0
452
        0
462
0.0
453
        0
470

  0
LINE
  5
2362
102
{ACAD_REACTORS
330
233B
102
}
330
18
100
AcDbEntity
  8
外形線
 62
     0
100
AcDbLine
 10
520.1214578095723
 20
210.264880403811
 30
0.0
 11
519.9300995579136
 21
209.8781345500639
 31
0.0
  0
LINE
  5
2363
330
18
100
AcDbEntity
  8
外形線
 62
     0
100
AcDbLine
 10
520.7829504362551
 20
210.264880403811
 30
0.0
 11
519.5654634404132
 21
208.5765512073799
 31
0.0
  0
HATCH
  5
2364
330
18
100
AcDbEntity
  8
外形線
 62
     0
100
AcDbHatch
 10
0.0
 20
0.0
 30
0.0
210
0.0
220
0.0
230
1.0
  2
SOLID
 70
     1
 71
     0
 91
        2
 92
        7
 72
     0
 73
     1
 93
        8
 10
522.1334691998183
 20
210.264880403811
 10
520.7829504362551
 20
210.264880403811
 10
519.5654634404132
 20
208.57655120738
 10
520.5004956211596
 20
208.5765512073799
 10
520.7322976123351
 20
208.8979986403538
 10
521.7992823122007
 20
208.8979986403538
 10
521.9420819990037
 20
208.5765512073799
 10
522.883491927454
 20
208.57655120738
 97
        0
 92
       22
 72
     0
 73
     1
 93
        3
 10
521.6486671764284
 20
209.2370389411059
 10
520.9767861623788
 20
209.237038941106
 10
521.3925433947816
 20
209.8135831477303
 97
        0
 75
     0
 76
     1
 47
0.0128389261915577
 98
        2
 10
522.0277129094666
 20
209.8598265107708
 10
522.0277129094666
 20
209.8598265107708
450
        0
451
        0
460
0.0
461
0.0
452
        0
462
0.0
453
        0
470

  0
LINE
  5
2365
330
18
100
AcDbEntity
  8
外形線
 62
     0
100
AcDbLine
 10
531.7787976174709
 20
207.6267505375032
 30
0.0
 11
532.750884017471
 21
207.6267505375032
 31
0.0
  0
LINE
  5
2366
330
18
100
AcDbEntity
  8
外形線
 62
     0
100
AcDbLine
 10
523.3458597467472
 20
208.5765512073799
 30
0.0
 11
524.8000399088961
 21
208.5765512073799
 31
0.0
  0
LINE
  5
2367
330
18
100
AcDbEntity
  8
外形線
 62
     0
100
AcDbLine
 10
524.2721130863327
 20
209.6367124795321
 30
0.0
 11
525.3286705592129
 21
209.6367124795322
 31
0.0
  0
LINE
  5
2368
330
18
100
AcDbEntity
  8
外形線
 62
     0
100
AcDbLine
 10
524.033671522933
 20
209.2047124795321
 30
0.0
 11
525.1132614069116
 21
209.2047124795321
 31
0.0
  0
SPLINE
  5
2369
330
18
100
AcDbEntity
  8
外形線
 62
     0
100
AcDbSpline
210
0.0
220
0.0
230
1.0
 70
  1064
 71
     3
 72
    16
 73
    12
 74
    10
 42
0.000000001
 43
0.0000000001
 44
0.0000000001
 40
0.0
 40
0.0
 40
0.0
 40
0.0
 40
0.1614737604380397
 40
0.2403420478031513
 40
0.2792344891872368
 40
0.3202207890278755
 40
0.3789130531806723
 40
0.432355282834037
 40
0.4880942832963311
 40
0.5815447451499067
 40
0.6740411735368516
 40
0.6740411735368516
 40
0.6740411735368516
 40
0.6740411735368516
 10
524.2721130863327
 20
209.6367124795321
 30
0.0
 10
524.2174307479622
 20
209.6283757881413
 30
0.0
 10
524.1360400306905
 20
209.6159672242029
 30
0.0
 10
524.0624383503309
 20
209.5577049438054
 30
0.0
 10
524.0209321128852
 20
209.523042765113
 30
0.0
 10
524.0068115059907
 20
209.4771402011641
 30
0.0
 10
523.9688879901694
 20
209.4418940784043
 30
0.0
 10
523.9376282260422
 20
209.3934545603405
 30
0.0
 10
523.930164102962
 20
209.3269220976788
 30
0.0
 10
523.9356429401953
 20
209.2335539259309
 30
0.0
 10
524.0011072874982
 20
209.2142933550745
 30
0.0
 10
524.0336715229333
 20
209.2047124795321
 30
0.0
 11
524.2721130863327
 21
209.6367124795321
 31
0.0
 11
524.1162092102922
 21
209.5946677801569
 31
0.0
 11
524.0520134656086
 21
209.5488517009224
 31
0.0
 11
524.0245010789355
 21
209.521361874143
 31
0.0
 11
524.0061591362603
 21
209.4847087717705
 31
0.0
 11
523.9694757782493
 21
209.438892692536
 31
0.0
 11
523.9419633915765
 21
209.3930763145704
 31
0.0
 11
523.9327924202386
 21
209.3380969597428
 31
0.0
 11
523.9511343629142
 21
209.2464642038117
 31
0.0
 11
524.0336715229333
 21
209.2047124795321
 31
0.0
  0
LINE
  5
236A
330
18
100
AcDbEntity
  8
外形線
 62
     0
100
AcDbLine
 10
525.1132614069116
 20
209.2047124795321
 30
0.0
 11
524.8000399088961
 21
208.5765512073799
 31
0.0
  0
LINE
  5
236B
102
{ACAD_REACTORS
330
233B
102
}
330
18
100
AcDbEntity
  8
外形線
 62
     0
100
AcDbLine
 10
519.7804811843866
 20
209.5757473516843
 30
0.0
 11
519.6270615585846
 21
209.2656776073799
 31
0.0
  0
LINE
  5
236C
330
18
100
AcDbEntity
  8
外形線
 62
     0
100
AcDbLine
 10
521.3925433947816
 20
209.8135831477302
 30
0.0
 11
520.9767861623788
 21
209.2370389411059
 31
0.0
  0
LINE
  5
236D
330
18
100
AcDbEntity
  8
外形線
 62
     0
100
AcDbLine
 10
520.7322976123351
 20
208.8979986403538
 30
0.0
 11
521.7992823122007
 21
208.8979986403538
 31
0.0
  0
LINE
  5
236E
330
18
100
AcDbEntity
  8
外形線
 62
     0
100
AcDbLine
 10
520.9767861623788
 20
209.2370389411059
 30
0.0
 11
521.6486671764284
 21
209.2370389411059
 31
0.0
  0
LINE
  5
236F
330
18
100
AcDbEntity
  8
外形線
 62
     0
100
AcDbLine
 10
520.7322976123351
 20
208.8979986403538
 30
0.0
 11
520.5004956211596
 21
208.5765512073801
 31
0.0
  0
LINE
  5
2370
330
18
100
AcDbEntity
  8
外形線
 62
     0
100
AcDbLine
 10
519.5654634404132
 20
208.5765512073799
 30
0.0
 11
520.5004956211596
 21
208.5765512073799
 31
0.0
  0
LINE
  5
2371
330
18
100
AcDbEntity
  8
外形線
 62
     0
100
AcDbLine
 10
521.3925433947816
 20
209.8135831477302
 30
0.0
 11
521.6486671764284
 21
209.2370389411059
 31
0.0
  0
LINE
  5
2372
330
18
100
AcDbEntity
  8
外形線
 62
     0
100
AcDbLine
 10
521.7992823122007
 20
208.8979986403538
 30
0.0
 11
521.9420819990037
 21
208.5765512073799
 31
0.0
  0
LINE
  5
2373
330
18
100
AcDbEntity
  8
外形線
 62
     0
100
AcDbLine
 10
522.8834919274541
 20
208.5765512073801
 30
0.0
 11
521.9420819990037
 21
208.5765512073799
 31
0.0
  0
LINE
  5
2374
330
18
100
AcDbEntity
  8
外形線
 62
     0
100
AcDbLine
 10
528.785806595083
 20
208.5765512073799
 30
0.0
 11
530.2399867572319
 21
208.5765512073799
 31
0.0
  0
SPLINE
  5
2375
330
18
100
AcDbEntity
  8
外形線
 62
     0
100
AcDbSpline
210
0.0
220
0.0
230
1.0
 70
  1064
 71
     3
 72
    16
 73
    12
 74
    10
 42
0.000000001
 43
0.0000000001
 44
0.0000000001
 40
0.0
 40
0.0
 40
0.0
 40
0.0
 40
0.1614737604380397
 40
0.2403420478032934
 40
0.2792344891871578
 40
0.3202207890279491
 40
0.3789130531806926
 40
0.4323552828340184
 40
0.4880942832963311
 40
0.5815447451500125
 40
0.6740411735369191
 40
0.6740411735369191
 40
0.6740411735369191
 40
0.6740411735369191
 10
529.7120599346686
 20
209.6367124795321
 30
0.0
 10
529.6573775962982
 20
209.6283757881413
 30
0.0
 10
529.5759868790266
 20
209.6159672242029
 30
0.0
 10
529.5023851986666
 20
209.5577049438054
 30
0.0
 10
529.4608789612213
 20
209.5230427651129
 30
0.0
 10
529.4467583543263
 20
209.4771402011643
 30
0.0
 10
529.4088348385055
 20
209.4418940784041
 30
0.0
 10
529.3775750743782
 20
209.3934545603405
 30
0.0
 10
529.3701109512978
 20
209.3269220976788
 30
0.0
 10
529.375589788531
 20
209.2335539259308
 30
0.0
 10
529.4410541358342
 20
209.2142933550745
 30
0.0
 10
529.4736183712691
 20
209.2047124795321
 30
0.0
 11
529.7120599346686
 21
209.6367124795321
 31
0.0
 11
529.5561560586281
 21
209.5946677801569
 31
0.0
 11
529.4919603139444
 21
209.5488517009223
 31
0.0
 11
529.4644479272715
 21
209.521361874143
 31
0.0
 11
529.446105984596
 21
209.4847087717705
 31
0.0
 11
529.4094226265853
 21
209.4388926925359
 31
0.0
 11
529.3819102399123
 21
209.3930763145704
 31
0.0
 11
529.3727392685743
 21
209.3380969597428
 31
0.0
 11
529.39108121125
 21
209.2464642038116
 31
0.0
 11
529.4736183712691
 21
209.2047124795321
 31
0.0
  0
LINE
  5
2376
330
18
100
AcDbEntity
  8
外形線
 62
     0
100
AcDbLine
 10
530.5532082552474
 20
209.2047124795321
 30
0.0
 11
530.2399867572319
 21
208.5765512073799
 31
0.0
  0
LINE
  5
2377
330
18
100
AcDbEntity
  8
外形線
 62
     0
100
AcDbLine
 10
529.473618371269
 20
209.2047124795321
 30
0.0
 11
530.5532082552474
 21
209.2047124795321
 31
0.0
  0
LINE
  5
2378
330
18
100
AcDbEntity
  8
外形線
 62
     0
100
AcDbLine
 10
529.7120599346685
 20
209.6367124795321
 30
0.0
 11
530.7686174075487
 21
209.6367124795321
 31
0.0
  0
LINE
  5
2379
330
18
100
AcDbEntity
  8
外形線
 62
     0
100
AcDbLine
 10
531.4354485314009
 20
208.3153322602284
 30
0.0
 11
531.0920994453306
 21
207.6267505375032
 31
0.0
  0
SPLINE
  5
237A
102
{ACAD_REACTORS
330
235A
102
}
330
18
100
AcDbEntity
  8
外形線
 62
     0
100
AcDbSpline
210
0.0
220
0.0
230
1.0
 70
     8
 71
     3
 72
    11
 73
     7
 74
     0
 42
0.000000001
 43
0.0000000001
 40
0.1647869275458134
 40
0.1647869275458134
 40
0.1647869275458134
 40
0.1647869275458134
 40
0.2895635144633836
 40
0.5387013147903714
 40
0.7953622617455423
 40
0.8850764140209602
 40
0.8850764140209602
 40
0.8850764140209602
 40
0.8850764140209602
 10
527.3717116260118
 20
208.6141923534052
 30
0.0
 10
527.3537392138393
 20
208.609189725627
 30
0.0
 10
527.2980150562809
 20
208.6002828244762
 30
0.0
 10
527.2045452128178
 20
208.588052603139
 30
0.0
 10
527.115706801551
 20
208.5752899209588
 30
0.0
 10
527.0637244796286
 20
208.5762917301246
 30
0.0
 10
527.0502606077887
 20
208.5765512073799
 30
0.0
  0
SPLINE
  5
237B
102
{ACAD_REACTORS
330
235A
102
}
330
18
100
AcDbEntity
  8
外形線
 62
     0
100
AcDbSpline
210
0.0
220
0.0
230
1.0
 70
  1064
 71
     3
 72
     9
 73
     5
 74
     3
 42
0.000000001
 43
0.0000000001
 44
0.0000000001
 40
0.0
 40
0.0
 40
0.0
 40
0.0
 40
0.1460305727424193
 40
0.3423777932799505
 40
0.3423777932799505
 40
0.3423777932799505
 40
0.3423777932799505
 10
527.3717116260118
 20
208.6141923534052
 30
0.0
 10
527.418620870992
 20
208.6285439330494
 30
0.0
 10
527.5286025240056
 20
208.6621921073759
 30
0.0
 10
527.6194725633104
 20
208.7333079445145
 30
0.0
 10
527.6715848205822
 20
208.7740915386389
 30
0.0
 11
527.3717116260118
 21
208.6141923534052
 31
0.0
 11
527.5089626085863
 21
208.6640631460378
 31
0.0
 11
527.6715848205822
 21
208.7740915386389
 31
0.0
  0
LINE
  5
237C
102
{ACAD_REACTORS
330
235A
102
}
330
18
100
AcDbEntity
  8
外形線
 62
     0
100
AcDbLine
 10
526.0853914065503
 20
208.5765512073799
 30
0.0
 11
527.0502606077887
 21
208.5765512073799
 31
0.0
  0
ELLIPSE
  5
237D
102
{ACAD_REACTORS
330
235A
102
}
330
18
100
AcDbEntity
  8
外形線
 62
     0
100
AcDbEllipse
 10
526.8012030073451
 20
209.4005991241795
 30
0.0
 11
0.2292231973722778
 21
0.2015731185223643
 31
0.0
210
0.0
220
0.0
230
0.9999999999999998
 40
0.6788083417438792
 41
0.0
 42
6.283185307179585
  0
LINE
  5
237E
330
18
100
AcDbEntity
  8
外形線
 62
     0
100
AcDbLine
 10
531.4354485314009
 20
208.3153322602284
 30
0.0
 11
531.7787976174709
 21
207.6267505375032
 31
0.0
  0
LINE
  5
237F
330
18
100
AcDbEntity
  8
外形線
 62
     0
100
AcDbLine
 10
532.0931556399689
 20
208.9458154706571
 30
0.0
 11
532.750884017471
 21
207.6267505375032
 31
0.0
  0
LINE
  5
2380
330
18
100
AcDbEntity
  8
外形線
 62
     0
100
AcDbLine
 10
531.4354485314009
 20
210.264880403811
 30
0.0
 11
532.4075562003347
 21
210.264880403811
 31
0.0
  0
LINE
  5
2381
330
18
100
AcDbEntity
  8
外形線
 62
     0
100
AcDbLine
 10
523.9511343629146
 20
210.2648804038111
 30
0.0
 11
525.6418953741937
 21
210.2648804038111
 31
0.0
  0
LINE
  5
2382
330
18
100
AcDbEntity
  8
外形線
 62
     0
100
AcDbLine
 10
520.7829504362551
 20
210.264880403811
 30
0.0
 11
522.1334691998183
 21
210.264880403811
 31
0.0
  0
LINE
  5
2383
330
18
100
AcDbEntity
  8
外形線
 62
     0
100
AcDbLine
 10
529.3910812112503
 20
210.264880403811
 30
0.0
 11
531.0818422225294
 21
210.264880403811
 31
0.0
  0
LINE
  5
2384
102
{ACAD_REACTORS
330
235A
102
}
330
18
100
AcDbEntity
  8
外形線
 62
     0
100
AcDbLine
 10
526.5794707856771
 20
210.2719225427468
 30
0.0
 11
527.5443399869154
 21
210.2719225427468
 31
0.0
  0
LINE
  5
2385
330
18
100
AcDbEntity
  8
外形線
100
AcDbLine
 10
534.518332624066
 20
222.1047284965008
 30
0.0
 11
534.518332624066
 21
221.0325464780277
 31
0.0
  0
LINE
  5
2386
330
18
100
AcDbEntity
  8
外形線
 62
     0
100
AcDbLine
 10
532.7190947696806
 20
210.264880403811
 30
0.0
 11
533.6911811696806
 21
210.264880403811
 31
0.0
  0
LINE
  5
2387
330
18
100
AcDbEntity
  8
外形線
100
AcDbLine
 10
507.518332624066
 20
179.621975004122
 30
0.0
 11
507.518332624066
 21
169.4787941690482
 31
0.0
  0
LINE
  5
2388
330
18
100
AcDbEntity
  8
外形線
100
AcDbLine
 10
539.518332624066
 20
179.621975004122
 30
0.0
 11
539.518332624066
 21
169.4787941690482
 31
0.0
  0
LINE
  5
2389
330
18
100
AcDbEntity
  8
外形線
100
AcDbLine
 10
508.518332624066
 20
180.621975004122
 30
0.0
 11
538.518332624066
 21
180.621975004122
 31
0.0
  0
ARC
  5
238A
330
18
100
AcDbEntity
  8
外形線
100
AcDbCircle
 10
523.518332624066
 20
193.121975004122
 30
0.0
 40
29.0
100
AcDbArc
 50
0.0
 51
180.0
  0
ARC
  5
238B
330
18
100
AcDbEntity
  8
外形線
100
AcDbCircle
 10
523.518332624066
 20
193.121975004122
 30
0.0
 40
29.0
100
AcDbArc
 50
237.6076345141539
 51
302.3923654858462
  0
ARC
  5
238C
330
18
100
AcDbEntity
  8
外形線
100
AcDbCircle
 10
508.518332624066
 20
179.621975004122
 30
0.0
 40
1.0
100
AcDbArc
 50
90.0
 51
180.0
  0
ARC
  5
238D
330
18
100
AcDbEntity
  8
外形線
100
AcDbCircle
 10
538.518332624066
 20
179.621975004122
 30
0.0
 40
1.0
100
AcDbArc
 50
0.0
 51
90.0
  0
ARC
  5
238E
330
18
100
AcDbEntity
  8
外形線
100
AcDbCircle
 10
538.518332624066
 20
169.4787941690482
 30
0.0
 40
1.0
100
AcDbArc
 50
302.3923654858426
 51
0.0
  0
ARC
  5
238F
330
18
100
AcDbEntity
  8
外形線
100
AcDbCircle
 10
508.518332624066
 20
169.4787941690482
 30
0.0
 40
1.0
100
AcDbArc
 50
180.0
 51
237.6076345141539
  0
ELLIPSE
  5
2390
330
18
100
AcDbEntity
  8
外形線
100
AcDbEllipse
 10
531.3671145116747
 20
173.2136915309427
 30
0.0
 11
-4.089143464216689
 21
0.0
 31
0.0
210
0.0
220
0.0
230
1.0
 40
0.6358299782710266
 41
0.0
 42
6.283185307179585
  0
ELLIPSE
  5
2391
330
18
100
AcDbEntity
  8
外形線
100
AcDbEllipse
 10
516.1909188146657
 20
173.2136915309427
 30
0.0
 11
-4.089143464216689
 21
0.0
 31
0.0
210
0.0
220
0.0
230
1.0
 40
0.6358299782710266
 41
0.0
 42
6.283185307179585
  0
TEXT
  5
2392
330
18
100
AcDbEntity
  8
寸法線
100
AcDbText
 10
529.6728289327639
 20
167.0792438386835
 30
0.0
 40
1.199999999999999
  1
SET
  7
STYLE4
100
AcDbText
  0
ELLIPSE
  5
2393
330
18
100
AcDbEntity
  8
外形線
100
AcDbEllipse
 10
531.3671145116747
 20
173.2136915309427
 30
0.0
 11
-5.473687379191061
 21
0.0
 31
0.0
210
0.0
220
0.0
230
1.0
 40
0.7307688077339824
 41
0.0
 42
6.283185307179585
  0
ELLIPSE
  5
2394
330
18
100
AcDbEntity
  8
外形線
100
AcDbEllipse
 10
516.1909188146657
 20
173.2136915309427
 30
0.0
 11
-5.473687379191061
 21
0.0
 31
0.0
210
0.0
220
0.0
230
1.0
 40
0.7307688077339824
 41
0.0
 42
6.283185307179585
  0
LINE
  5
2395
330
18
100
AcDbEntity
  8
外形線
100
AcDbLine
 10
517.518332624066
 20
160.0219750041219
 30
0.0
 11
529.518332624066
 21
160.0219750041221
 31
0.0
  0
LINE
  5
2396
330
18
100
AcDbEntity
  8
外形線
100
AcDbLine
 10
517.518332624066
 20
160.0219750041219
 30
0.0
 11
518.518332624066
 21
158.021975004122
 31
0.0
  0
LINE
  5
2397
330
18
100
AcDbEntity
  8
外形線
100
AcDbLine
 10
529.518332624066
 20
160.0219750041221
 30
0.0
 11
528.518332624066
 21
158.0219750041221
 31
0.0
  0
LINE
  5
2398
330
18
100
AcDbEntity
  8
外形線
100
AcDbLine
 10
517.518332624066
 20
160.521975004122
 30
0.0
 11
529.518332624066
 21
160.5219750041221
 31
0.0
  0
LINE
  5
2399
330
18
100
AcDbEntity
  8
中心線
 48
0.3
100
AcDbLine
 10
509.2213307170996
 20
173.2136915309427
 30
0.0
 11
523.1605069122316
 21
173.2136915309427
 31
0.0
  0
LINE
  5
239A
330
18
100
AcDbEntity
  8
中心線
 48
0.3
100
AcDbLine
 10
516.1909188146657
 20
178.5313015147332
 30
0.0
 11
516.1909188146657
 21
167.9324527744929
 31
0.0
  0
LINE
  5
239B
330
18
100
AcDbEntity
  8
中心線
 48
0.3
100
AcDbLine
 10
531.3671145116747
 20
178.5313015147332
 30
0.0
 11
531.3671145116747
 21
167.9324527744929
 31
0.0
  0
LINE
  5
239C
330
18
100
AcDbEntity
  8
中心線
 48
0.3
100
AcDbLine
 10
524.3975264141084
 20
173.2136915309427
 30
0.0
 11
538.3367026092408
 21
173.2136915309427
 31
0.0
  0
LINE
  5
239D
330
18
100
AcDbEntity
  8
外形線
100
AcDbLine
 10
518.518332624066
 20
240.121975004122
 30
0.0
 11
528.518332624066
 21
240.121975004122
 31
0.0
  0
LINE
  5
239E
330
18
100
AcDbEntity
  8
外形線
100
AcDbLine
 10
518.518332624066
 20
240.121975004122
 30
0.0
 11
528.518332624066
 21
240.121975004122
 31
0.0
  0
LINE
  5
239F
330
18
100
AcDbEntity
  8
隠れ線2
 48
0.6
100
AcDbLine
 10
519.768332624066
 20
137.021975004122
 30
0.0
 11
527.268332624066
 21
137.021975004122
 31
0.0
  0
LINE
  5
23A0
330
18
100
AcDbEntity
  8
隠れ線2
100
AcDbLine
 10
525.518332624066
 20
137.021975004122
 30
0.0
 11
525.518332624066
 21
136.0219750041219
 31
0.0
  0
LINE
  5
23A1
330
18
100
AcDbEntity
  8
外形線
100
AcDbLine
 10
525.518332624066
 20
136.0219750041219
 30
0.0
 11
525.5183326240661
 21
114.021975004122
 31
0.0
  0
LINE
  5
23A2
330
18
100
AcDbEntity
  8
隠れ線2
100
AcDbLine
 10
521.518332624066
 20
137.021975004122
 30
0.0
 11
521.518332624066
 21
136.0219750041219
 31
0.0
  0
LINE
  5
23A3
330
18
100
AcDbEntity
  8
外形線
100
AcDbLine
 10
521.518332624066
 20
136.0219750041219
 30
0.0
 11
521.5183326240661
 21
114.0219750041219
 31
0.0
  0
LINE
  5
23A4
330
18
100
AcDbEntity
  8
外形線
100
AcDbLine
 10
521.0183326240661
 20
114.0219750041219
 30
0.0
 11
526.0183326240661
 21
114.0219750041219
 31
0.0
  0
CIRCLE
  5
23A5
330
18
100
AcDbEntity
  8
外形線
100
AcDbCircle
 10
549.518332624066
 20
237.621975004122
 30
0.0
 40
1.149999999999999
  0
LINE
  5
23A6
330
18
100
AcDbEntity
  8
中心線
 48
0.2
100
AcDbLine
 10
549.5183326240658
 20
240.5561722776094
 30
0.0
 11
549.518332624066
 21
234.6877777306346
 31
0.0
  0
LINE
  5
23A7
330
18
100
AcDbEntity
  8
外形線
100
AcDbLine
 10
517.518332624066
 20
232.121975004122
 30
0.0
 11
517.518332624066
 21
224.1357876556131
 31
0.0
  0
LINE
  5
23A8
330
18
100
AcDbEntity
  8
外形線
100
AcDbLine
 10
515.518332624066
 20
240.121975004122
 30
0.0
 11
544.1357566186041
 21
240.121975004122
 31
0.0
  0
LINE
  5
23A9
330
18
100
AcDbEntity
  8
隠れ線2
 48
0.7
100
AcDbLine
 10
544.1357566186041
 20
240.121975004122
 30
0.0
 11
553.518332624066
 21
240.121975004122
 31
0.0
  0
LINE
  5
23AA
330
18
100
AcDbEntity
  8
外形線
100
AcDbLine
 10
515.518332624066
 20
232.121975004122
 30
0.0
 11
553.518332624066
 21
232.121975004122
 31
0.0
  0
LINE
  5
23AB
330
18
100
AcDbEntity
  8
外形線
100
AcDbLine
 10
515.518332624066
 20
240.121975004122
 30
0.0
 11
515.518332624066
 21
232.121975004122
 31
0.0
  0
LINE
  5
23AC
330
18
100
AcDbEntity
  8
隠れ線2
 48
0.7
100
AcDbLine
 10
553.518332624066
 20
240.121975004122
 30
0.0
 11
553.518332624066
 21
235.5414102870146
 31
0.0
  0
LINE
  5
23AD
330
18
100
AcDbEntity
  8
外形線
100
AcDbLine
 10
553.518332624066
 20
235.5414102870146
 30
0.0
 11
553.518332624066
 21
232.121975004122
 31
0.0
  0
LINE
  5
23AE
330
18
100
AcDbEntity
  8
外形線
100
AcDbLine
 10
540.518332624066
 20
240.1219750041219
 30
0.0
 11
540.518332624066
 21
232.1219750041219
 31
0.0
  0
LINE
  5
23AF
330
18
100
AcDbEntity
  8
外形線
100
AcDbLine
 10
543.518332624066
 20
240.121975004122
 30
0.0
 11
543.518332624066
 21
232.121975004122
 31
0.0
  0
LINE
  5
23B0
330
18
100
AcDbEntity
  8
中心線
 48
0.3
100
AcDbLine
 10
533.518332624066
 20
241.3579335590473
 30
0.0
 11
533.518332624066
 21
230.8860164491968
 31
0.0
  0
LINE
  5
23B1
330
18
100
AcDbEntity
  8
中心線
 48
0.3
100
AcDbLine
 10
528.2823740691408
 20
236.121975004122
 30
0.0
 11
538.7542911789911
 21
236.121975004122
 31
0.0
  0
CIRCLE
  5
23B2
330
18
100
AcDbEntity
  8
外形線
100
AcDbCircle
 10
533.518332624066
 20
236.121975004122
 30
0.0
 40
2.75
  0
LWPOLYLINE
  5
23B3
330
18
100
AcDbEntity
  8
外形線
100
AcDbPolyline
 90
        6
 70
     1
 43
0.0
 10
535.0810370925519
 20
235.2195025145142
 10
535.0812489605258
 20
237.0240805276343
 10
533.5185444920401
 20
237.926553017242
 10
531.9556281555801
 20
237.0244474937297
 10
531.9554162876061
 20
235.2198694806097
 10
533.5181207560919
 20
234.3173969910019
  0
CIRCLE
  5
23B4
330
18
100
AcDbEntity
  8
外形線
100
AcDbCircle
 10
533.518332624066
 20
236.121975004122
 30
0.0
 40
3.0
  0
LINE
  5
23B5
330
18
100
AcDbEntity
  8
中心線
 48
0.2
100
AcDbLine
 10
546.4248120452373
 20
237.621975004122
 30
0.0
 11
552.6118532028946
 21
237.621975004122
 31
0.0
  0
CIRCLE
  5
23B6
330
18
100
AcDbEntity
  8
外形線
100
AcDbCircle
 10
549.518332624066
 20
237.621975004122
 30
0.0
 40
1.0
  0
LINE
  5
23B7
330
18
100
AcDbEntity
  8
外形線
100
AcDbLine
 10
520.018332624066
 20
246.0219750041221
 30
0.0
 11
527.018332624066
 21
246.021975004122
 31
0.0
  0
LINE
  5
23B8
330
18
100
AcDbEntity
  8
外形線
100
AcDbLine
 10
519.518332624066
 20
241.621975004122
 30
0.0
 11
527.518332624066
 21
241.621975004122
 31
0.0
  0
LINE
  5
23B9
330
18
100
AcDbEntity
  8
外形線
100
AcDbLine
 10
519.518332624066
 20
241.621975004122
 30
0.0
 11
519.518332624066
 21
240.121975004122
 31
0.0
  0
LINE
  5
23BA
330
18
100
AcDbEntity
  8
外形線
100
AcDbLine
 10
527.518332624066
 20
241.621975004122
 30
0.0
 11
527.518332624066
 21
240.121975004122
 31
0.0
  0
LINE
  5
23BB
330
18
100
AcDbEntity
  8
外形線
100
AcDbLine
 10
520.518332624066
 20
243.121975004122
 30
0.0
 11
520.518332624066
 21
241.621975004122
 31
0.0
  0
LINE
  5
23BC
330
18
100
AcDbEntity
  8
外形線
100
AcDbLine
 10
526.518332624066
 20
243.121975004122
 30
0.0
 11
526.518332624066
 21
241.621975004122
 31
0.0
  0
LINE
  5
23BD
330
18
100
AcDbEntity
  8
外形線
100
AcDbLine
 10
519.518332624066
 20
243.121975004122
 30
0.0
 11
527.518332624066
 21
243.121975004122
 31
0.0
  0
LINE
  5
23BE
330
18
100
AcDbEntity
  8
外形線
100
AcDbLine
 10
519.518332624066
 20
245.5219750041221
 30
0.0
 11
519.518332624066
 21
243.121975004122
 31
0.0
  0
LINE
  5
23BF
330
18
100
AcDbEntity
  8
外形線
100
AcDbLine
 10
527.518332624066
 20
245.521975004122
 30
0.0
 11
527.518332624066
 21
243.121975004122
 31
0.0
  0
LINE
  5
23C0
330
18
100
AcDbEntity
  8
外形線
100
AcDbLine
 10
521.518332624066
 20
248.3544603606062
 30
0.0
 11
521.518332624066
 21
247.9062896223663
 31
0.0
  0
LINE
  5
23C1
330
18
100
AcDbEntity
  8
外形線
100
AcDbLine
 10
521.518332624066
 20
246.3275238582325
 30
0.0
 11
521.518332624066
 21
246.021975004122
 31
0.0
  0
LINE
  5
23C2
330
18
100
AcDbEntity
  8
外形線
100
AcDbLine
 10
525.518332624066
 20
248.3544603606062
 30
0.0
 11
525.518332624066
 21
248.0714777147526
 31
0.0
  0
LINE
  5
23C3
330
18
100
AcDbEntity
  8
外形線
100
AcDbLine
 10
525.518332624066
 20
246.5681600499978
 30
0.0
 11
525.518332624066
 21
246.021975004122
 31
0.0
  0
LINE
  5
23C4
330
18
100
AcDbEntity
  8
外形線
100
AcDbLine
 10
519.518332624066
 20
245.5219750041221
 30
0.0
 11
520.018332624066
 21
246.0219750041221
 31
0.0
  0
LINE
  5
23C5
330
18
100
AcDbEntity
  8
外形線
100
AcDbLine
 10
527.018332624066
 20
246.021975004122
 30
0.0
 11
527.518332624066
 21
245.521975004122
 31
0.0
  0
LINE
  5
23C6
330
18
100
AcDbEntity
  8
外形線
100
AcDbLine
 10
519.518332624066
 20
245.5219750041221
 30
0.0
 11
527.518332624066
 21
245.521975004122
 31
0.0
  0
LINE
  5
23D1
330
18
100
AcDbEntity
  8
外形線
100
AcDbLine
 10
545.518332624066
 20
193.121975004122
 30
0.0
 11
552.518332624066
 21
193.121975004122
 31
0.0
  0
LINE
  5
23D2
330
18
100
AcDbEntity
  8
外形線
100
AcDbLine
 10
517.518332624066
 20
232.121975004122
 30
0.0
 11
517.518332624066
 21
240.121975004122
 31
0.0
  0
LINE
  5
23D3
330
18
100
AcDbEntity
  8
隠れ線2
 48
0.7
100
AcDbLine
 10
529.518332624066
 20
232.121975004122
 30
0.0
 11
529.518332624066
 21
240.121975004122
 31
0.0
  0
DIMENSION
  5
23D4
330
18
100
AcDbEntity
  8
針
100
AcDbDimension
  2
*D3
 10
481.2632913180151
 20
136.0219750041219
 30
0.0
 11
479.3882913180151
 21
164.571975004122
 31
0.0
 70
    32
 71
     5
 42
57.10000000000005
  3
STYLE3
100
AcDbAlignedDimension
 13
492.5246735047572
 23
193.121975004122
 33
0.0
 14
509.518332624066
 24
136.0219750041219
 34
0.0
 50
90.0
100
AcDbRotatedDimension
1001
ACAD
1000
DSTYLE
1002
{
1070
   271
1070
     0
1070
   341
1005
0
1002
}
  0
LINE
  5
23D5
330
18
100
AcDbEntity
  8
外形線
100
AcDbLine
 10
457.3608609721413
 20
193.121975004122
 30
0.0
 11
456.3608609721415
 21
193.121975004122
 31
0.0
  0
LINE
  5
23D6
330
18
100
AcDbEntity
  8
外形線
100
AcDbLine
 10
441.3608609721414
 20
222.521975004122
 30
0.0
 11
425.3608609721416
 21
222.5219750041219
 31
0.0
  0
LINE
  5
23D7
330
18
100
AcDbEntity
  8
外形線
100
AcDbLine
 10
441.3608609721416
 20
163.7219750041219
 30
0.0
 11
425.3608609721415
 21
163.721975004122
 31
0.0
  0
LINE
  5
23D8
330
18
100
AcDbEntity
  8
外形線
100
AcDbLine
 10
425.3608609721416
 20
222.5219750041219
 30
0.0
 11
425.3608609721415
 21
163.721975004122
 31
0.0
  0
LINE
  5
23D9
330
18
100
AcDbEntity
  8
外形線
100
AcDbLine
 10
456.3608609721415
 20
223.121975004122
 30
0.0
 11
456.3608609721415
 21
163.121975004122
 31
0.0
  0
LINE
  5
23DA
330
18
100
AcDbEntity
  8
外形線
100
AcDbLine
 10
426.8608609721415
 20
222.5219750041219
 30
0.0
 11
426.8608609721415
 21
163.721975004122
 31
0.0
  0
LINE
  5
23DB
330
18
100
AcDbEntity
  8
外形線
100
AcDbLine
 10
427.8608609721414
 20
222.5219750041219
 30
0.0
 11
427.8608609721413
 21
163.721975004122
 31
0.0
  0
LINE
  5
23DC
330
18
100
AcDbEntity
  8
外形線
100
AcDbLine
 10
443.3608609721416
 20
224.121975004122
 30
0.0
 11
443.3608609721415
 21
219.621975004122
 31
0.0
  0
LINE
  5
23DD
330
18
100
AcDbEntity
  8
外形線
100
AcDbLine
 10
448.8608609721416
 20
224.121975004122
 30
0.0
 11
448.8608609721414
 21
219.621975004122
 31
0.0
  0
LINE
  5
23DE
330
18
100
AcDbEntity
  8
外形線
100
AcDbLine
 10
456.3608609721415
 20
223.1219750041219
 30
0.0
 11
448.8608609721416
 21
223.121975004122
 31
0.0
  0
LINE
  5
23DF
330
18
100
AcDbEntity
  8
外形線
100
AcDbLine
 10
456.3608609721415
 20
163.121975004122
 30
0.0
 11
443.3608609721413
 21
163.121975004122
 31
0.0
  0
LINE
  5
23E0
330
18
100
AcDbEntity
  8
外形線
100
AcDbLine
 10
448.8608609721416
 20
224.121975004122
 30
0.0
 11
443.3608609721416
 21
224.121975004122
 31
0.0
  0
LINE
  5
23E1
330
18
100
AcDbEntity
  8
外形線
100
AcDbLine
 10
448.8608609721416
 20
220.621975004122
 30
0.0
 11
443.3608609721416
 21
220.621975004122
 31
0.0
  0
LINE
  5
23E2
330
18
100
AcDbEntity
  8
外形線
100
AcDbLine
 10
448.8608609721414
 20
219.621975004122
 30
0.0
 11
443.3608609721415
 21
219.621975004122
 31
0.0
  0
LINE
  5
23E3
330
18
100
AcDbEntity
  8
外形線
100
AcDbLine
 10
443.3608609721415
 20
219.621975004122
 30
0.0
 11
443.3608609721415
 21
163.1219750041219
 31
0.0
  0
LINE
  5
23E4
330
18
100
AcDbEntity
  8
外形線
100
AcDbLine
 10
444.3608609721413
 20
165.621975004122
 30
0.0
 11
444.3608609721413
 21
163.1219750041219
 31
0.0
  0
LINE
  5
23E5
330
18
100
AcDbEntity
  8
外形線
100
AcDbLine
 10
449.8608609721413
 20
165.6219750041219
 30
0.0
 11
449.8608609721413
 21
163.1219750041219
 31
0.0
  0
LINE
  5
23E6
330
18
100
AcDbEntity
  8
外形線
100
AcDbLine
 10
449.8608609721413
 20
165.6219750041219
 30
0.0
 11
444.3608609721413
 21
165.621975004122
 31
0.0
  0
LINE
  5
23E7
330
18
100
AcDbEntity
  8
外形線
100
AcDbLine
 10
457.3608609721416
 20
193.121975004122
 30
0.0
 11
457.3608609721416
 21
181.621975004122
 31
0.0
  0
LINE
  5
23E8
330
18
100
AcDbEntity
  8
外形線
100
AcDbLine
 10
458.9608609721416
 20
181.621975004122
 30
0.0
 11
457.3608609721416
 21
181.621975004122
 31
0.0
  0
ARC
  5
23E9
330
18
100
AcDbEntity
  8
外形線
100
AcDbCircle
 10
277.743606731815
 20
197.6327816619237
 30
0.0
 40
181.9206400838717
100
AcDbArc
 50
352.8920187336257
 51
354.9508749822956
  0
LINE
  5
23EA
330
18
100
AcDbEntity
  8
外形線
100
AcDbLine
 10
458.9583229076601
 20
175.121975004122
 30
0.0
 11
457.9583229076602
 21
175.121975004122
 31
0.0
  0
LINE
  5
23EB
330
18
100
AcDbEntity
  8
外形線
100
AcDbLine
 10
458.9583229076602
 20
171.121975004122
 30
0.0
 11
456.9583229076601
 21
171.121975004122
 31
0.0
  0
LINE
  5
23EC
330
18
100
AcDbEntity
  8
外形線
100
AcDbLine
 10
457.3608609721416
 20
193.121975004122
 30
0.0
 11
456.3608609721415
 21
193.121975004122
 31
0.0
  0
LINE
  5
23ED
330
18
100
AcDbEntity
  8
外形線
100
AcDbLine
 10
458.9583229076602
 20
175.121975004122
 30
0.0
 11
458.9583229076602
 21
171.121975004122
 31
0.0
  0
LINE
  5
23EE
330
18
100
AcDbEntity
  8
外形線
100
AcDbLine
 10
457.9583229076602
 20
175.121975004122
 30
0.0
 11
456.9583229076601
 21
171.121975004122
 31
0.0
  0
ARC
  5
23EF
330
18
100
AcDbEntity
  8
外形線
100
AcDbCircle
 10
277.743606731815
 20
197.6327816619237
 30
0.0
 40
181.9206400838717
100
AcDbArc
 50
349.0645749835886
 51
351.620601274743
  0
LINE
  5
23F0
330
18
100
AcDbEntity
  8
外形線
100
AcDbLine
 10
441.3608609721414
 20
222.521975004122
 30
0.0
 11
441.3608609721416
 21
163.7219750041219
 31
0.0
  0
LINE
  5
23F1
330
18
100
AcDbEntity
  8
外形線
100
AcDbLine
 10
443.3608609721413
 20
163.121975004122
 30
0.0
 11
441.3608609721416
 21
163.7219750041219
 31
0.0
  0
LINE
  5
23F2
330
18
100
AcDbEntity
  8
外形線
100
AcDbLine
 10
441.3608609721414
 20
222.521975004122
 30
0.0
 11
443.3608609721416
 21
223.121975004122
 31
0.0
  0
LINE
  5
23F3
330
18
100
AcDbEntity
  8
外形線
100
AcDbLine
 10
428.8608609721416
 20
232.121975004122
 30
0.0
 11
428.8608609721416
 21
222.5219750041219
 31
0.0
  0
LINE
  5
23F4
330
18
100
AcDbEntity
  8
外形線
100
AcDbLine
 10
440.8608609721416
 20
232.121975004122
 30
0.0
 11
440.8608609721416
 21
222.521975004122
 31
0.0
  0
LINE
  5
23F5
330
18
100
AcDbEntity
  8
外形線
100
AcDbLine
 10
439.8608609721414
 20
158.021975004122
 30
0.0
 11
429.8608609721417
 21
158.0219750041221
 31
0.0
  0
POINT
  5
23F6
330
18
100
AcDbEntity
  8
DEFPOINTS
  6
ByBlock
 62
     0
100
AcDbPoint
 10
440.8608609721416
 20
162.121975004122
 30
0.0
  0
LINE
  5
23F7
330
18
100
AcDbEntity
  8
外形線
100
AcDbLine
 10
440.8608609721416
 20
163.7280980907239
 30
0.0
 11
440.8608609721416
 21
160.021975004122
 31
0.0
  0
LINE
  5
23F8
330
18
100
AcDbEntity
  8
外形線
100
AcDbLine
 10
428.8608609721416
 20
163.7280980907239
 30
0.0
 11
428.8608609721416
 21
160.0219750041221
 31
0.0
  0
LINE
  5
23F9
330
18
100
AcDbEntity
  8
外形線
100
AcDbLine
 10
440.8608609721416
 20
160.021975004122
 30
0.0
 11
428.8608609721416
 21
160.0219750041221
 31
0.0
  0
LINE
  5
23FA
330
18
100
AcDbEntity
  8
外形線
100
AcDbLine
 10
440.8608609721416
 20
160.021975004122
 30
0.0
 11
439.8608609721414
 21
158.021975004122
 31
0.0
  0
LINE
  5
23FB
330
18
100
AcDbEntity
  8
外形線
100
AcDbLine
 10
428.8608609721416
 20
160.0219750041221
 30
0.0
 11
429.8608609721417
 21
158.0219750041221
 31
0.0
  0
LINE
  5
23FC
330
18
100
AcDbEntity
  8
外形線
100
AcDbLine
 10
440.8608609721416
 20
160.521975004122
 30
0.0
 11
428.8608609721416
 21
160.5219750041221
 31
0.0
  0
LINE
  5
23FD
330
18
100
AcDbEntity
  8
隠れ線2
100
AcDbLine
 10
432.8608609721416
 20
137.021975004122
 30
0.0
 11
432.8608609721416
 21
136.0219750041219
 31
0.0
  0
LINE
  5
23FE
330
18
100
AcDbEntity
  8
外形線
100
AcDbLine
 10
432.8608609721416
 20
136.0219750041219
 30
0.0
 11
432.8608609721414
 21
114.0219750041219
 31
0.0
  0
LINE
  5
23FF
330
18
100
AcDbEntity
  8
隠れ線2
100
AcDbLine
 10
436.8608609721416
 20
137.021975004122
 30
0.0
 11
436.8608609721416
 21
136.0219750041219
 31
0.0
  0
LINE
  5
2400
330
18
100
AcDbEntity
  8
外形線
100
AcDbLine
 10
436.8608609721416
 20
136.0219750041219
 30
0.0
 11
436.8608609721416
 21
114.021975004122
 31
0.0
  0
LINE
  5
2401
330
18
100
AcDbEntity
  8
外形線
100
AcDbLine
 10
430.8608609721416
 20
158.021975004122
 30
0.0
 11
430.8608609721416
 21
157.0219750041219
 31
0.0
  0
LINE
  5
2402
330
18
100
AcDbEntity
  8
隠れ線2
100
AcDbLine
 10
430.8608609721416
 20
157.0219750041219
 30
0.0
 11
430.8608609721416
 21
141.821975004122
 31
0.0
  0
LINE
  5
2403
330
18
100
AcDbEntity
  8
外形線
100
AcDbLine
 10
438.8608609721416
 20
158.021975004122
 30
0.0
 11
438.8608609721416
 21
157.0219750041219
 31
0.0
  0
LINE
  5
2404
330
18
100
AcDbEntity
  8
隠れ線2
100
AcDbLine
 10
438.8608609721416
 20
157.0219750041219
 30
0.0
 11
438.8608609721416
 21
141.821975004122
 31
0.0
  0
LINE
  5
2405
330
18
100
AcDbEntity
  8
隠れ線2
100
AcDbLine
 10
431.1108609721416
 20
139.0219750041221
 30
0.0
 11
431.1108609721416
 21
141.821975004122
 31
0.0
  0
LINE
  5
2406
330
18
100
AcDbEntity
  8
隠れ線2
100
AcDbLine
 10
438.6108609721416
 20
139.021975004122
 30
0.0
 11
438.6108609721416
 21
141.821975004122
 31
0.0
  0
LINE
  5
2407
330
18
100
AcDbEntity
  8
隠れ線2
100
AcDbLine
 10
438.6108609721416
 20
137.521975004122
 30
0.0
 11
431.1108609721416
 21
137.521975004122
 31
0.0
  0
LINE
  5
2408
330
18
100
AcDbEntity
  8
隠れ線2
100
AcDbLine
 10
438.6108609721416
 20
139.021975004122
 30
0.0
 11
431.1108609721416
 21
139.0219750041221
 31
0.0
  0
LINE
  5
2409
330
18
100
AcDbEntity
  8
隠れ線2
100
AcDbLine
 10
438.6108609721416
 20
137.021975004122
 30
0.0
 11
431.1108609721416
 21
137.021975004122
 31
0.0
  0
LINE
  5
240A
330
18
100
AcDbEntity
  8
隠れ線2
100
AcDbLine
 10
438.6108609721416
 20
137.521975004122
 30
0.0
 11
438.6108609721416
 21
137.021975004122
 31
0.0
  0
LINE
  5
240B
330
18
100
AcDbEntity
  8
隠れ線2
100
AcDbLine
 10
437.8608609721417
 20
139.021975004122
 30
0.0
 11
437.8608609721417
 21
137.521975004122
 31
0.0
  0
LINE
  5
240C
330
18
100
AcDbEntity
  8
隠れ線2
100
AcDbLine
 10
431.1108609721416
 20
137.521975004122
 30
0.0
 11
431.1108609721416
 21
137.021975004122
 31
0.0
  0
LINE
  5
240D
330
18
100
AcDbEntity
  8
隠れ線2
100
AcDbLine
 10
431.8608609721414
 20
139.021975004122
 30
0.0
 11
431.8608609721414
 21
137.521975004122
 31
0.0
  0
LINE
  5
240E
330
18
100
AcDbEntity
  8
隠れ線2
100
AcDbLine
 10
438.8608609721416
 20
141.821975004122
 30
0.0
 11
430.8608609721416
 21
141.821975004122
 31
0.0
  0
LINE
  5
240F
330
18
100
AcDbEntity
  8
隠れ線2
100
AcDbLine
 10
438.6108609721416
 20
137.021975004122
 30
0.0
 11
431.1108609721416
 21
137.021975004122
 31
0.0
  0
LINE
  5
2410
330
18
100
AcDbEntity
  8
外形線
100
AcDbLine
 10
436.8608609721412
 20
248.3544603606061
 30
0.0
 11
436.8608609721412
 21
246.0219750041221
 31
0.0
  0
LINE
  5
2411
330
18
100
AcDbEntity
  8
外形線
100
AcDbLine
 10
432.8608609721412
 20
248.3544603606061
 30
0.0
 11
432.8608609721412
 21
246.0219750041221
 31
0.0
  0
LINE
  5
2412
330
18
100
AcDbEntity
  8
外形線
100
AcDbLine
 10
438.8608609721415
 20
248.3544603606061
 30
0.0
 11
438.8608609721415
 21
230.071094411711
 31
0.0
  0
LINE
  5
2413
330
18
100
AcDbEntity
  8
外形線
100
AcDbLine
 10
430.8608609721415
 20
248.354460360606
 30
0.0
 11
430.8608609721415
 21
230.071094411711
 31
0.0
  0
LINE
  5
2415
330
18
100
AcDbEntity
  8
外形線
100
AcDbLine
 10
436.8608609721412
 20
248.3544603606061
 30
0.0
 11
432.8608609721412
 21
248.354460360606
 31
0.0
  0
LINE
  5
2420
330
18
100
AcDbEntity
  8
外形線
100
AcDbLine
 10
432.7108609721413
 20
248.3544603606061
 30
0.0
 11
432.7108609721413
 21
230.071094411711
 31
0.0
  0
LINE
  5
2421
330
18
100
AcDbEntity
  8
外形線
100
AcDbLine
 10
437.0108609721413
 20
248.354460360606
 30
0.0
 11
437.0108609721413
 21
246.0219750041221
 31
0.0
  0
LINE
  5
2422
330
18
100
AcDbEntity
  8
外形線
100
AcDbLine
 10
441.8608609721415
 20
240.121975004122
 30
0.0
 11
441.8608609721415
 21
236.0235337274203
 31
0.0
  0
LINE
  5
2423
330
18
100
AcDbEntity
  8
外形線
100
AcDbLine
 10
441.8608609721415
 20
236.0235337274203
 30
0.0
 11
441.8608609721415
 21
232.121975004122
 31
0.0
  0
LINE
  5
2424
330
18
100
AcDbEntity
  8
外形線
100
AcDbLine
 10
427.8608609721413
 20
240.121975004122
 30
0.0
 11
427.8608609721413
 21
236.0282241519686
 31
0.0
  0
LINE
  5
2425
330
18
100
AcDbEntity
  8
外形線
100
AcDbLine
 10
427.8608609721413
 20
236.0282241519686
 30
0.0
 11
427.8608609721413
 21
232.121975004122
 31
0.0
  0
LINE
  5
2426
330
18
100
AcDbEntity
  8
外形線
100
AcDbLine
 10
441.8608609721415
 20
232.121975004122
 30
0.0
 11
438.8608609721415
 21
232.121975004122
 31
0.0
  0
LINE
  5
2427
330
18
100
AcDbEntity
  8
外形線
100
AcDbLine
 10
427.8608609721413
 20
232.121975004122
 30
0.0
 11
430.8608609721415
 21
232.121975004122
 31
0.0
  0
LINE
  5
2428
330
18
100
AcDbEntity
  8
外形線
100
AcDbLine
 10
432.7108609721413
 20
232.121975004122
 30
0.0
 11
437.0108609721413
 21
232.121975004122
 31
0.0
  0
LINE
  5
2429
330
18
100
AcDbEntity
  8
中心線
 48
0.5
100
AcDbLine
 10
445.2563699766342
 20
237.621975004122
 30
0.0
 11
424.4101062254186
 21
237.621975004122
 31
0.0
  0
LINE
  5
242A
330
18
100
AcDbEntity
  8
外形線
100
AcDbLine
 10
440.3608609721414
 20
240.121975004122
 30
0.0
 11
441.8608609721415
 21
240.121975004122
 31
0.0
  0
LINE
  5
242B
330
18
100
AcDbEntity
  8
外形線
100
AcDbLine
 10
440.3608609721414
 20
240.121975004122
 30
0.0
 11
438.8608609721413
 21
240.121975004122
 31
0.0
  0
LINE
  5
242C
330
18
100
AcDbEntity
  8
外形線
100
AcDbLine
 10
437.0108609721413
 20
240.121975004122
 30
0.0
 11
432.7108609721413
 21
240.121975004122
 31
0.0
  0
LINE
  5
242D
330
18
100
AcDbEntity
  8
外形線
100
AcDbLine
 10
430.8608609721415
 20
240.121975004122
 30
0.0
 11
427.8608609721413
 21
240.121975004122
 31
0.0
  0
LINE
  5
242E
330
18
100
AcDbEntity
  8
外形線
100
AcDbLine
 10
437.0108609721413
 20
230.071094411711
 30
0.0
 11
438.8608609721415
 21
230.071094411711
 31
0.0
  0
LINE
  5
242F
330
18
100
AcDbEntity
  8
外形線
100
AcDbLine
 10
432.7108609721413
 20
230.071094411711
 30
0.0
 11
430.8608609721415
 21
230.071094411711
 31
0.0
  0
LINE
  5
2430
330
18
100
AcDbEntity
  8
外形線
100
AcDbLine
 10
432.7108609721413
 20
246.0219750041221
 30
0.0
 11
437.0108609721414
 21
246.021975004122
 31
0.0
  0
LINE
  5
2431
330
18
100
AcDbEntity
  8
外形線
100
AcDbLine
 10
432.7108609721413
 20
241.621975004122
 30
0.0
 11
437.0108609721414
 21
241.621975004122
 31
0.0
  0
LINE
  5
2432
330
18
100
AcDbEntity
  8
外形線
100
AcDbLine
 10
430.8608609721416
 20
241.621975004122
 30
0.0
 11
430.8608609721416
 21
240.121975004122
 31
0.0
  0
LINE
  5
2433
330
18
100
AcDbEntity
  8
外形線
100
AcDbLine
 10
438.8608609721416
 20
241.621975004122
 30
0.0
 11
438.8608609721416
 21
240.121975004122
 31
0.0
  0
LINE
  5
2434
330
18
100
AcDbEntity
  8
外形線
100
AcDbLine
 10
432.7108609721413
 20
243.121975004122
 30
0.0
 11
437.0108609721414
 21
243.121975004122
 31
0.0
  0
LINE
  5
2435
330
18
100
AcDbEntity
  8
外形線
100
AcDbLine
 10
430.8608609721416
 20
245.5219750041221
 30
0.0
 11
430.8608609721416
 21
243.121975004122
 31
0.0
  0
LINE
  5
2436
330
18
100
AcDbEntity
  8
外形線
100
AcDbLine
 10
438.8608609721416
 20
245.521975004122
 30
0.0
 11
438.8608609721416
 21
243.121975004122
 31
0.0
  0
LINE
  5
2437
330
18
100
AcDbEntity
  8
外形線
100
AcDbLine
 10
432.7108609721413
 20
245.5219750041221
 30
0.0
 11
437.0108609721414
 21
245.521975004122
 31
0.0
  0
LINE
  5
2438
330
18
100
AcDbEntity
  8
外形線
100
AcDbLine
 10
439.8608609721413
 20
240.121975004122
 30
0.0
 11
439.8608609721413
 21
232.121975004122
 31
0.0
  0
LINE
  5
2439
330
18
100
AcDbEntity
  8
外形線
100
AcDbLine
 10
429.8608609721415
 20
232.121975004122
 30
0.0
 11
429.8608609721415
 21
240.121975004122
 31
0.0
  0
LINE
  5
243A
330
18
100
AcDbEntity
  8
外形線
100
AcDbLine
 10
429.3608609721415
 20
245.2502096188019
 30
0.0
 11
429.3608609721415
 21
240.121975004122
 31
0.0
  0
LINE
  5
243B
330
18
100
AcDbEntity
  8
外形線
100
AcDbLine
 10
441.8608609721415
 20
240.121975004122
 30
0.0
 11
441.8608609721415
 21
236.0282241519686
 31
0.0
  0
ARC
  5
243C
330
18
100
AcDbEntity
  8
外形線
100
AcDbCircle
 10
429.5608609721415
 20
245.2502096188019
 30
0.0
 40
0.2
100
AcDbArc
 50
90.0
 51
180.0
  0
LINE
  5
243D
330
18
100
AcDbEntity
  8
外形線
100
AcDbLine
 10
429.5608609721415
 20
245.4502096188019
 30
0.0
 11
430.8608609721416
 21
245.4502096188019
 31
0.0
  0
LINE
  5
243E
330
18
100
AcDbEntity
  8
外形線
100
AcDbLine
 10
440.3608609721414
 20
245.2502096188019
 30
0.0
 11
440.3608609721414
 21
240.121975004122
 31
0.0
  0
ARC
  5
243F
330
18
100
AcDbEntity
  8
外形線
100
AcDbCircle
 10
440.1608609721415
 20
245.2502096188019
 30
0.0
 40
0.2
100
AcDbArc
 50
0.0
 51
90.0
  0
LINE
  5
2440
330
18
100
AcDbEntity
  8
外形線
100
AcDbLine
 10
440.1608609721415
 20
245.4502096188019
 30
0.0
 11
438.8608609721415
 21
245.4502096188019
 31
0.0
  0
LINE
  5
2441
330
18
100
AcDbEntity
  8
外形線
100
AcDbLine
 10
435.6108609721415
 20
137.021975004122
 30
0.0
 11
434.1108609721414
 21
137.021975004122
 31
0.0
  0
LINE
  5
2446
330
18
100
AcDbEntity
  8
文字
100
AcDbLine
 10
441.8608609721415
 20
157.0219750041219
 30
0.0
 11
441.8608609721415
 21
163.5719750041219
 31
0.0
  0
LINE
  5
2447
330
18
100
AcDbEntity
  8
文字
100
AcDbLine
 10
427.8608609721414
 20
159.5219750041218
 30
0.0
 11
427.8608609721413
 21
163.721975004122
 31
0.0
  0
LINE
  5
2448
330
18
100
AcDbEntity
  8
隠れ線2
100
AcDbLine
 10
430.8608609721413
 20
141.821975004122
 30
0.0
 11
430.8608609721413
 21
136.0219750041219
 31
0.0
  0
LINE
  5
2449
330
18
100
AcDbEntity
  8
隠れ線2
100
AcDbLine
 10
438.8608609721416
 20
141.821975004122
 30
0.0
 11
438.8608609721416
 21
136.0219750041219
 31
0.0
  0
DIMENSION
  5
244A
330
18
100
AcDbEntity
  8
文字
100
AcDbDimension
  2
*D4
 10
525.518332624066
 20
130.8534457328705
 30
0.0
 11
533.1671421478755
 21
132.7284457328705
 31
0.0
 70
    32
  1
%%C<>
 71
     5
 42
4.0
  3
STYLE3
100
AcDbAlignedDimension
 13
521.518332624066
 23
129.6036770288978
 33
0.0
 14
525.518332624066
 24
129.6036770288978
 34
0.0
100
AcDbRotatedDimension
1001
ACAD
1000
DSTYLE
1002
{
1070
   271
1070
     2
1070
   341
1005
0
1002
}
  0
ARC
  5
244B
330
18
100
AcDbEntity
  8
外形線
100
AcDbCircle
 10
523.5182757675235
 20
194.0219750041219
 30
0.0
 40
36.0
100
AcDbArc
 50
156.9846675240295
 51
244.2285382594509
  0
ARC
  5
244C
330
18
100
AcDbEntity
  8
隠れ線2
100
AcDbCircle
 10
503.5172452034982
 20
152.5969757384983
 30
0.0
 40
10.00108742651118
100
AcDbArc
 50
0.0019753013733644
 51
26.26042140759354
  0
ARC
  5
244D
330
18
100
AcDbEntity
  8
外形線
100
AcDbCircle
 10
503.5182757675235
 20
152.5973446497059
 30
0.0
 40
10.0
100
AcDbArc
 50
26.26113839665596
 51
64.22853825945082
  0
ARC
  5
244E
330
18
100
AcDbEntity
  8
外形線
100
AcDbCircle
 10
523.5182757675235
 20
194.0219750041219
 30
0.0
 40
36.0
100
AcDbArc
 50
310.705706831043
 51
23.01533247597043
  0
ARC
  5
244F
330
18
100
AcDbEntity
  8
外形線
100
AcDbCircle
 10
553.5182757675235
 20
159.1507834557965
 30
0.0
 40
10.0
100
AcDbArc
 50
130.705706831043
 51
156.9794088682914
  0
ARC
  5
2450
330
18
100
AcDbEntity
  8
隠れ線2
100
AcDbCircle
 10
553.5182757675235
 20
159.1507834557965
 30
0.0
 40
10.0
100
AcDbArc
 50
156.9794088682914
 51
180.0
  0
LINE
  5
2451
330
18
100
AcDbEntity
  8
外形線
100
AcDbLine
 10
515.0182757675235
 20
136.0219750041219
 30
0.0
 11
530.5182757675233
 21
136.0219750041218
 31
0.0
  0
LINE
  5
2452
330
18
100
AcDbEntity
  8
外形線
100
AcDbLine
 10
530.5182757675233
 20
136.0219750041218
 30
0.0
 11
542.0182757675235
 21
136.0219750041218
 31
0.0
  0
ARC
  5
2453
330
18
100
AcDbEntity
  8
外形線
100
AcDbCircle
 10
523.5182757675235
 20
251.0219750042834
 30
0.0
 40
10.0
100
AcDbArc
 50
23.01533247597043
 51
156.9846675240295
  0
LINE
  5
2454
330
18
100
AcDbEntity
  8
外形線
100
AcDbLine
 10
490.3838664078973
 20
208.0971629740467
 30
0.0
 11
514.3142731676273
 21
254.9317494403737
 31
0.0
  0
LINE
  5
245A
330
18
100
AcDbEntity
  8
外形線
100
AcDbLine
 10
423.8608609721417
 20
261.0219750042835
 30
0.0
 11
422.3608609721413
 21
261.0219750042835
 31
0.0
  0
LINE
  5
245B
330
18
100
AcDbEntity
  8
外形線
100
AcDbLine
 10
541.3662826188604
 20
246.1712270500589
 30
0.0
 11
546.0275303029141
 21
235.9898488923329
 31
0.0
  0
LINE
  5
245C
330
18
100
AcDbEntity
  8
外形線
100
AcDbLine
 10
552.1227808514542
 20
234.4628752545065
 30
0.0
 11
561.3764605142598
 21
241.6144678301551
 31
0.0
  0
ARC
  5
245D
330
18
100
AcDbEntity
  8
外形線
100
AcDbCircle
 10
549.6767720057698
 20
237.627846143288
 30
0.0
 40
4.0
100
AcDbArc
 50
204.1733862924493
 51
307.6982020679206
  0
LINE
  5
245E
330
18
100
AcDbEntity
  8
外形線
100
AcDbLine
 10
540.8704084132206
 20
246.2501324016992
 30
0.0
 11
540.561143602363
 21
244.7803623571557
 31
0.0
  0
LINE
  5
245F
330
18
100
AcDbEntity
  8
外形線
100
AcDbLine
 10
541.3648042343195
 20
246.1714641794728
 30
0.0
 11
541.0555778452336
 21
244.701876733035
 31
0.0
  0
LINE
  5
2460
330
18
100
AcDbEntity
  8
外形線
100
AcDbLine
 10
561.8518278708189
 20
241.4453675051092
 30
0.0
 11
561.5418471559917
 21
239.972195152339
 31
0.0
  0
LINE
  5
2461
330
18
100
AcDbEntity
  8
外形線
100
AcDbLine
 10
561.3768355879593
 20
241.6162503546091
 30
0.0
 11
561.0658577108599
 21
240.1383390235118
 31
0.0
  0
LINE
  5
2462
330
18
100
AcDbEntity
  8
外形線
100
AcDbLine
 10
540.8680832362689
 20
246.2390820807067
 30
0.0
 11
539.4430108628287
 21
244.9531787522498
 31
0.0
  0
LINE
  5
2463
330
18
100
AcDbEntity
  8
外形線
100
AcDbLine
 10
562.8985889017286
 20
239.5203958281149
 30
0.0
 11
561.8518278708189
 21
241.4453675051092
 31
0.0
  0
ARC
  5
2464
330
18
100
AcDbEntity
  8
隠れ線2
 48
0.7
100
AcDbCircle
 10
509.4533183864498
 20
47.21441587260545
 30
0.0
 40
200.0
100
AcDbArc
 50
78.11733186598484
 51
80.60009829598881
  0
ARC
  5
2465
330
18
100
AcDbEntity
  8
外形線
100
AcDbCircle
 10
530.0441362696211
 20
145.0715475437414
 30
0.0
 40
100.0
100
AcDbArc
 50
62.4754966842061
 51
72.60833947687067
  0
ARC
  5
2466
330
18
100
AcDbEntity
  8
隠れ線2
 48
0.7
100
AcDbCircle
 10
530.0441362696211
 20
145.0715475437414
 30
0.0
 40
100.0
100
AcDbArc
 50
72.60833947687067
 51
78.11733186598484
  0
ARC
  5
2467
330
18
100
AcDbEntity
  8
外形線
100
AcDbCircle
 10
530.0441362696211
 20
145.0715475437414
 30
0.0
 40
101.5
100
AcDbArc
 50
62.4970962852101
 51
78.11733186598484
  0
ARC
  5
2468
330
18
100
AcDbEntity
  8
外形線
100
AcDbCircle
 10
582.5219043213052
 20
247.3818910575156
 30
0.0
 40
13.5
100
AcDbArc
 50
243.0815349963824
 51
291.2536071919793
  0
ARC
  5
2469
330
18
100
AcDbEntity
  8
外形線
100
AcDbCircle
 10
582.5219043213052
 20
247.3818910575156
 30
0.0
 40
15.0
100
AcDbArc
 50
245.3127360061077
 51
291.196854021203
  0
LINE
  5
246A
330
18
100
AcDbEntity
  8
外形線
100
AcDbLine
 10
587.9466005155428
 20
233.3938348619618
 30
0.0
 11
587.4156099648404
 21
234.8000928921328
 31
0.0
  0
ARC
  5
246B
330
18
100
AcDbEntity
  8
外形線
100
AcDbCircle
 10
509.4533183864498
 20
47.21441587260545
 30
0.0
 40
200.0
100
AcDbArc
 50
80.60009829598881
 51
85.39706625457625
  0
ARC
  5
246C
330
18
100
AcDbEntity
  8
外形線
100
AcDbCircle
 10
509.4533183864498
 20
47.21441587260545
 30
0.0
 40
201.5
100
AcDbArc
 50
78.11733186598484
 51
85.41140345185967
  0
ARC
  5
246D
330
18
100
AcDbEntity
  8
外形線
100
AcDbCircle
 10
525.1303936386094
 20
216.5716878873233
 30
0.0
 40
30.0
100
AcDbArc
 50
89.28776205876138
 51
93.99438276890336
  0
ARC
  5
246E
330
18
100
AcDbEntity
  8
外形線
100
AcDbCircle
 10
524.2888376300218
 20
226.5378027616439
 30
0.0
 40
20.0
100
AcDbArc
 50
93.57816699833547
 51
170.1082967648249
  0
ARC
  5
246F
330
18
100
AcDbEntity
  8
外形線
100
AcDbCircle
 10
524.4068889460439
 20
226.4726518593178
 30
0.0
 40
21.62740357469704
100
AcDbArc
 50
86.90808359977543
 51
170.1601663291238
  0
LINE
  5
2470
330
18
100
AcDbEntity
  8
外形線
100
AcDbLine
 10
503.0976390587476
 20
230.1686570843632
 30
0.0
 11
504.5861533866566
 21
229.9735317390589
 31
0.0
  0
LINE
  5
2471
330
18
100
AcDbEntity
  8
外形線
100
AcDbLine
 10
437.0108609721413
 20
248.3544603606061
 30
0.0
 11
437.0108609721413
 21
230.0710944117111
 31
0.0
  0
LINE
  5
2474
330
18
100
AcDbEntity
  8
外形線
100
AcDbLine
 10
514.5183326240661
 20
159.5219750041219
 30
0.0
 11
517.768332624066
 21
159.5219750041219
 31
0.0
  0
LINE
  5
2475
330
18
100
AcDbEntity
  8
隠れ線2
100
AcDbLine
 10
517.768332624066
 20
159.5219750041219
 30
0.0
 11
529.2683326240656
 21
159.5219750041218
 31
0.0
  0
LINE
  5
2476
330
18
100
AcDbEntity
  8
外形線
100
AcDbLine
 10
529.2683326240656
 20
159.5219750041218
 30
0.0
 11
537.424982157731
 21
159.5219750041218
 31
0.0
  0
LINE
  5
2477
330
18
100
AcDbEntity
  8
隠れ線2
100
AcDbLine
 10
537.424982157731
 20
159.5219750041218
 30
0.0
 11
542.518332624066
 21
159.5219750041218
 31
0.0
  0
LINE
  5
2478
330
18
100
AcDbEntity
  8
外形線
100
AcDbLine
 10
427.8608609721414
 20
159.5219750041218
 30
0.0
 11
423.8608609721413
 21
159.5219750041219
 31
0.0
  0
ARC
  5
2479
330
18
100
AcDbEntity
  8
隠れ線2
100
AcDbCircle
 10
542.518332624066
 20
158.5219750041218
 30
0.0
 40
1.0
100
AcDbArc
 50
0.0
 51
90.0
  0
ARC
  5
247A
330
18
100
AcDbEntity
  8
外形線
100
AcDbCircle
 10
514.5183326240661
 20
158.5219750041219
 30
0.0
 40
1.0
100
AcDbArc
 50
90.0
 51
180.0
  0
LINE
  5
2501
330
18
100
AcDbEntity
  8
外形線
100
AcDbLine
 10
556.6527988402347
 20
208.0971629740467
 30
0.0
 11
544.3771801664344
 21
232.121975004122
 31
0.0
  0
LINE
  5
2502
330
18
100
AcDbEntity
  8
外形線
100
AcDbLine
 10
536.8556543278157
 20
246.8424749849369
 30
0.0
 11
532.7223920805047
 21
254.9317494403737
 31
0.0
  0
LINE
  5
2503
330
18
100
AcDbEntity
  8
隠れ線2
 48
0.7
100
AcDbLine
 10
537.6891492315312
 20
245.2112286158614
 30
0.0
 11
536.8556543278157
 21
246.8424749849369
 31
0.0
  0
LINE
  5
2504
330
18
100
AcDbEntity
  8
外形線
100
AcDbLine
 10
540.289533225952
 20
240.121975004122
 30
0.0
 11
537.6891492315312
 21
245.2112286158614
 31
0.0
  0
LINE
  5
2505
330
18
100
AcDbEntity
  8
隠れ線2
 48
0.7
100
AcDbLine
 10
544.3771801664344
 20
232.121975004122
 30
0.0
 11
540.289533225952
 21
240.121975004122
 31
0.0
  0
DIMENSION
  5
2515
330
18
100
AcDbEntity
  8
寸法線
100
AcDbDimension
  2
*D5
 10
471.2236836369156
 20
46.02197500412195
 30
0.0
 11
469.3486836369155
 21
153.5219750042027
 31
0.0
 70
    32
 71
     5
 42
215.0000000001615
  3
STYLE3
100
AcDbAlignedDimension
 13
523.5182757675235
 23
261.0219750042834
 33
0.0
 14
493.9549439817533
 24
46.02197500412195
 34
0.0
 50
90.0
100
AcDbRotatedDimension
1001
ACAD
1000
DSTYLE
1002
{
1070
   271
1070
     2
1070
   341
1005
0
1002
}
  0
LINE
  5
254D
330
18
100
AcDbEntity
  8
寸法線
100
AcDbLine
 10
533.518332624066
 20
125.0747711676379
 30
0.0
 11
544.2756666568315
 21
125.0747711676379
 31
0.0
  0
DIMENSION
  5
254E
330
18
100
AcDbEntity
  8
寸法線
100
AcDbDimension
  2
*D6
 10
528.5183326240658
 20
118.4973058730131
 30
0.0
 11
538.0328053465574
 21
118.4973058730131
 31
0.0
 70
   160
  1
%%C<>
 71
     5
 42
10.0
  3
STYLE3
100
AcDbAlignedDimension
 13
518.5183326240657
 23
107.5219750041219
 33
0.0
 14
528.5183326240658
 24
107.5219750041219
 34
0.0
100
AcDbRotatedDimension
1001
ACAD
1000
DSTYLE
1002
{
1070
   271
1070
     2
1070
   341
1005
0
1002
}
  0
LINE
  5
2BAF
330
18
100
AcDbEntity
  8
外形線
100
AcDbLine
 10
519.2683326240661
 20
248.3544603606061
 30
0.0
 11
527.7683326240661
 21
248.354460360606
 31
0.0
  0
LINE
  5
2BB0
330
18
100
AcDbEntity
  8
外形線
100
AcDbLine
 10
519.2683326240661
 20
250.3544603606062
 30
0.0
 11
527.7683326240661
 21
250.354460360606
 31
0.0
  0
LINE
  5
2BB1
330
18
100
AcDbEntity
  8
外形線
100
AcDbLine
 10
519.2683326240661
 20
250.3544603606061
 30
0.0
 11
519.2683326240661
 21
248.3544603606061
 31
0.0
  0
LINE
  5
2BB2
330
18
100
AcDbEntity
  8
外形線
100
AcDbLine
 10
527.7683326240661
 20
250.354460360606
 30
0.0
 11
527.7683326240661
 21
248.3544603606059
 31
0.0
  0
LINE
  5
2BB3
330
18
100
AcDbEntity
  8
外形線
100
AcDbLine
 10
522.6181081271771
 20
250.3544603606061
 30
0.0
 11
522.6181081271771
 21
248.3544603606061
 31
0.0
  0
LINE
  5
2BB4
330
18
100
AcDbEntity
  8
外形線
100
AcDbLine
 10
521.7090883573706
 20
250.3544603606061
 30
0.0
 11
521.7090883573706
 21
248.3544603606061
 31
0.0
  0
LINE
  5
2BB5
330
18
100
AcDbEntity
  8
外形線
100
AcDbLine
 10
520.8649984565505
 20
250.3544603606061
 30
0.0
 11
520.8649984565505
 21
248.3544603606061
 31
0.0
  0
LINE
  5
2BB6
330
18
100
AcDbEntity
  8
外形線
100
AcDbLine
 10
520.0209093577297
 20
250.3544603606061
 30
0.0
 11
520.0209093577297
 21
248.3544603606061
 31
0.0
  0
LINE
  5
2BB7
330
18
100
AcDbEntity
  8
外形線
100
AcDbLine
 10
523.518332624066
 20
250.3544603606061
 30
0.0
 11
523.518332624066
 21
248.3544603606061
 31
0.0
  0
LINE
  5
2BB8
330
18
100
AcDbEntity
  8
外形線
100
AcDbLine
 10
430.6108609721416
 20
248.3544603606061
 30
0.0
 11
439.1108609721416
 21
248.3544603606059
 31
0.0
  0
LINE
  5
2BB9
330
18
100
AcDbEntity
  8
外形線
100
AcDbLine
 10
430.6108609721414
 20
250.3544603606061
 30
0.0
 11
439.1108609721414
 21
250.3544603606059
 31
0.0
  0
LINE
  5
2BBA
330
18
100
AcDbEntity
  8
外形線
100
AcDbLine
 10
430.6108609721414
 20
250.354460360606
 30
0.0
 11
430.6108609721416
 21
248.354460360606
 31
0.0
  0
LINE
  5
2BBB
330
18
100
AcDbEntity
  8
外形線
100
AcDbLine
 10
439.1108609721414
 20
250.3544603606059
 30
0.0
 11
439.1108609721416
 21
248.3544603606059
 31
0.0
  0
LINE
  5
2BBC
330
18
100
AcDbEntity
  8
外形線
100
AcDbLine
 10
433.9606364752525
 20
250.354460360606
 30
0.0
 11
433.9606364752525
 21
248.3544603606061
 31
0.0
  0
LINE
  5
2BBD
330
18
100
AcDbEntity
  8
外形線
100
AcDbLine
 10
433.0516167054461
 20
250.354460360606
 30
0.0
 11
433.0516167054461
 21
248.3544603606061
 31
0.0
  0
LINE
  5
2BBE
330
18
100
AcDbEntity
  8
外形線
100
AcDbLine
 10
432.2075268046258
 20
250.354460360606
 30
0.0
 11
432.2075268046258
 21
248.3544603606061
 31
0.0
  0
LINE
  5
2BBF
330
18
100
AcDbEntity
  8
外形線
100
AcDbLine
 10
431.363437705805
 20
250.354460360606
 30
0.0
 11
431.363437705805
 21
248.3544603606061
 31
0.0
  0
LINE
  5
2BC0
330
18
100
AcDbEntity
  8
外形線
100
AcDbLine
 10
434.8608609721413
 20
250.354460360606
 30
0.0
 11
434.8608609721413
 21
248.3544603606061
 31
0.0
  0
TEXT
  5
2BF7
330
18
100
AcDbEntity
  8
文字
100
AcDbText
 10
578.2466901875358
 20
268.0003534879747
 30
0.0
 40
4.0
  1
Model No.JA-205 Digital Thickness Gauge
  7
STYLE3
100
AcDbText
  0
LINE
  5
2BF8
330
18
100
AcDbEntity
  8
外形線
100
AcDbLine
 10
577.0935721875359
 20
266.1342814879747
 30
0.0
 11
702.093572187536
 21
266.1342814879747
 31
0.0
  0
LINE
  5
2BF9
330
18
100
AcDbEntity
  8
外形線
100
AcDbLine
 10
577.0935721875359
 20
265.1342814879747
 30
0.0
 11
702.093572187536
 21
265.1342814879747
 31
0.0
  0
LINE
  5
2BFB
330
18
100
AcDbEntity
  8
外形線
100
AcDbLine
 10
625.959860234363
 20
20.40319341530231
 30
0.0
 11
766.7512782343631
 21
20.40319341530231
 31
0.0
  0
LINE
  5
2BFC
330
18
100
AcDbEntity
  8
外形線
100
AcDbLine
 10
625.959860234363
 20
9.622987415302306
 30
0.0
 11
766.7512782343631
 21
9.622987415302306
 31
0.0
  0
TEXT
  5
2BFD
330
18
100
AcDbEntity
  8
0
  6
Continuous
100
AcDbText
 10
627.417327234363
 20
11.5209774153023
 30
0.0
 40
2.1
  1
Design and specifications are subject to change without notice for future improvement.
  7
STYLE3
100
AcDbText
  0
TEXT
  5
2BFE
330
18
100
AcDbEntity
  8
0
  6
Continuous
100
AcDbText
 10
627.7088212343629
 20
15.45012541530231
 30
0.0
 40
3.5
  1
仕様及び外観は予告なく変更される場合がございますのでご了承下さい。
  7
STYLE3
100
AcDbText
  0
TEXT
  5
2BFF
330
18
100
AcDbEntity
  8
0
  6
Continuous
100
AcDbText
 10
627.1258362343631
 20
1.756349415302306
 30
0.0
 40
2.1
  1
3RD Angle Projection
  7
STYLE3
100
AcDbText
  0
TEXT
  5
2C00
330
18
100
AcDbEntity
  8
0
  6
Continuous
100
AcDbText
 10
629.749279234363
 20
5.252632415302306
 30
0.0
 40
3.0
  1
三　　角　　法
  7
STYLE3
100
AcDbText
  0
LINE
  5
2C01
330
18
100
AcDbEntity
  8
外形線
100
AcDbLine
 10
625.959860234363
 20
0.0082094153023071
 30
0.0
 11
625.959860234363
 21
20.40319341530231
 31
0.0
  0
LINE
  5
2C02
330
18
100
AcDbEntity
  8
外形線
100
AcDbLine
 10
727.9826272343631
 20
9.622987415302306
 30
0.0
 11
727.9826272343631
 21
0.0082094153023071
 31
0.0
  0
LINE
  5
2C03
330
18
100
AcDbEntity
  8
外形線
100
AcDbLine
 10
698.2502772343631
 20
9.622987415302306
 30
0.0
 11
698.2502772343631
 21
0.0082094153023071
 31
0.0
  0
LINE
  5
2C04
330
18
100
AcDbEntity
  8
外形線
100
AcDbLine
 10
678.7202052343631
 20
9.622987415302306
 30
0.0
 11
678.7202052343631
 21
0.0082094153023071
 31
0.0
  0
LINE
  5
2C05
330
18
100
AcDbEntity
  8
外形線
100
AcDbLine
 10
661.230588234363
 20
9.622987415302306
 30
0.0
 11
661.230588234363
 21
0.0082094153023071
 31
0.0
  0
TEXT
  5
2C06
330
18
100
AcDbEntity
  8
0
  6
Continuous
100
AcDbText
 10
662.6880572343631
 20
5.258587415302306
 30
0.0
 40
3.0
  1
単位
  7
STYLE3
100
AcDbText
  0
TEXT
  5
2C07
330
18
100
AcDbEntity
  8
0
  6
Continuous
100
AcDbText
 10
662.859778234363
 20
1.756350415302307
 30
0.0
 40
2.1
  1
Unit
  7
STYLE3
100
AcDbText
  0
TEXT
  5
2C08
330
18
100
AcDbEntity
  8
0
  6
Continuous
100
AcDbText
 10
680.0059532343631
 20
4.967229415302305
 30
0.0
 40
3.0
  1
尺 度
  7
STYLE3
100
AcDbText
  0
TEXT
  5
2C09
330
18
100
AcDbEntity
  8
0
  6
Continuous
100
AcDbText
 10
670.730105234363
 20
3.504493415302306
 30
0.0
 40
2.399999999999999
  1
mm
  7
STYLE3
100
AcDbText
  0
TEXT
  5
2C0A
330
18
100
AcDbEntity
  8
0
  6
Continuous
100
AcDbText
 10
680.4691682343631
 20
2.047707415302307
 30
0.0
 40
2.1
  1
Scale
  7
STYLE3
100
AcDbText
  0
TEXT
  5
2C0B
330
18
100
AcDbEntity
  8
0
  6
Continuous
100
AcDbText
 10
690.0884572343629
 20
3.795850415302306
 30
0.0
 40
2.399999999999999
  1
1/1
  7
STYLE3
100
AcDbText
  0
TEXT
  5
2C0C
330
18
100
AcDbEntity
  8
0
  6
Continuous
100
AcDbText
 10
700.1822282343629
 20
1.756351415302305
 30
0.0
 40
2.1
  1
Date
  7
STYLE3
100
AcDbText
  0
TEXT
  5
2C0D
330
18
100
AcDbEntity
  8
0
  6
Continuous
100
AcDbText
 10
699.7988672343629
 20
5.089434415302306
 30
0.0
 40
3.0
  1
日 付
  7
STYLE3
100
AcDbText
  0
TEXT
  5
2C0E
330
18
100
AcDbEntity
  8
0
  6
Continuous
100
AcDbText
 10
708.9270362343629
 20
3.504492415302306
 30
0.0
 40
2.1
  1
2015.03.25
  7
STYLE3
100
AcDbText
  0
TEXT
  5
2C0F
330
18
100
AcDbEntity
  8
0
  6
Continuous
100
AcDbText
 10
729.3315902343628
 20
5.543989415302306
 30
0.0
 40
3.0
  1
株式会社　尾崎製作所
  7
STYLE3
100
AcDbText
  0
TEXT
  5
2C10
330
18
100
AcDbEntity
  8
0
  6
Continuous
100
AcDbText
 10
730.2060692343631
 20
1.756350415302307
 30
0.0
 40
2.1
  1
OZAKI MFG. CO., LTD.
  7
STYLE3
100
AcDbText
  0
LINE
  5
2C78
330
18
100
AcDbEntity
  8
外形線
100
AcDbLine
 10
513.6101922706377
 20
148.9301153575501
 30
0.0
 11
517.4264729774943
 21
145.1138346506937
 31
0.0
  0
LINE
  5
2C79
330
18
100
AcDbEntity
  8
外形線
100
AcDbLine
 10
517.4264729774943
 20
148.9301153575501
 30
0.0
 11
513.6101922706378
 21
145.1138346506937
 31
0.0
  0
ENDSEC
  0
SECTION
  2
OBJECTS
  0
DICTIONARY
  5
C
330
0
100
AcDbDictionary
281
     1
  3
ACAD_CIP_PREVIOUS_PRODUCT_INFO
350
2C61
  3
ACAD_COLOR
350
13A7
  3
ACAD_DETAILVIEWSTYLE
350
2C5D
  3
ACAD_GROUP
350
D
  3
ACAD_IMAGE_VARS
350
311
  3
ACAD_LAYOUT
350
13AA
  3
ACAD_MATERIAL
350
13A6
  3
ACAD_MLEADERSTYLE
350
2C59
  3
ACAD_MLINESTYLE
350
1B
  3
ACAD_PLOTSETTINGS
350
13AB
  3
ACAD_PLOTSTYLENAME
350
13A4
  3
ACAD_SCALELIST
350
2C47
  3
ACAD_SECTIONVIEWSTYLE
350
2C5B
  3
ACAD_TABLESTYLE
350
13A8
  3
ACAD_VISUALSTYLE
350
2C2E
  3
ACDB_RECOMPOSE_DATA
350
2C92
  3
AcDbVariableDictionary
350
1D6F
  0
DICTIONARY
  5
25E1
330
2
100
AcDbDictionary
280
     1
281
     1
  3
ACAD_LAYERSTATES
360
25E2
  0
DICTIONARY
  5
2C7C
330
E
100
AcDbDictionary
280
     1
281
     1
  3
ADSK_XREC_LAYER_RECONCILED
360
2C7D
  0
DICTIONARY
  5
2C7E
330
25
100
AcDbDictionary
280
     1
281
     1
  3
ADSK_XREC_LAYER_RECONCILED
360
2C7F
  0
DICTIONARY
  5
2C80
330
26
100
AcDbDictionary
280
     1
281
     1
  3
ADSK_XREC_LAYER_RECONCILED
360
2C81
  0
DICTIONARY
  5
2C82
330
27
100
AcDbDictionary
280
     1
281
     1
  3
ADSK_XREC_LAYER_RECONCILED
360
2C83
  0
DICTIONARY
  5
2C84
330
2B
100
AcDbDictionary
280
     1
281
     1
  3
ADSK_XREC_LAYER_RECONCILED
360
2C85
  0
DICTIONARY
  5
2C86
330
2D
100
AcDbDictionary
280
     1
281
     1
  3
ADSK_XREC_LAYER_RECONCILED
360
2C87
  0
DICTIONARY
  5
2C88
330
A5
100
AcDbDictionary
280
     1
281
     1
  3
ADSK_XREC_LAYER_RECONCILED
360
2C89
  0
DICTIONARY
  5
2C8A
330
1FE
100
AcDbDictionary
280
     1
281
     1
  3
ADSK_XREC_LAYER_RECONCILED
360
2C8B
  0
DICTIONARY
  5
1D64
330
18
100
AcDbDictionary
280
     1
281
     1
  3
ACAD_SORTENTS
360
1D65
  0
XRECORD
  5
2C61
102
{ACAD_REACTORS
330
C
102
}
330
C
100
AcDbXrecord
280
     1
300
ACDLT
300
2015
300
ACDLT_F_S
  0
DICTIONARY
  5
13A7
102
{ACAD_REACTORS
330
C
102
}
330
C
100
AcDbDictionary
281
     1
  0
DICTIONARY
  5
2C5D
102
{ACAD_REACTORS
330
C
102
}
330
C
100
AcDbDictionary
281
     1
  3
Metric50
350
2C5E
  0
DICTIONARY
  5
D
102
{ACAD_REACTORS
330
C
102
}
330
C
100
AcDbDictionary
281
     1
  0
RASTERVARIABLES
  5
311
102
{ACAD_REACTORS
330
C
102
}
330
C
100
AcDbRasterVariables
 90
        0
 70
     1
 71
     1
 72
     0
  0
DICTIONARY
  5
13AA
102
{ACAD_REACTORS
330
C
102
}
330
C
100
AcDbDictionary
281
     1
  3
Model
350
13AC
  3
レイアウト1
350
13AD
  0
DICTIONARY
  5
13A6
102
{ACAD_REACTORS
330
C
102
}
330
C
100
AcDbDictionary
281
     1
  3
ByBlock
350
2C1E
  3
ByLayer
350
2C16
  3
Global
350
2C26
  0
DICTIONARY
  5
2C59
102
{ACAD_REACTORS
330
C
102
}
330
C
100
AcDbDictionary
281
     1
  3
Standard
350
2C5A
  0
DICTIONARY
  5
1B
102
{ACAD_REACTORS
330
C
102
}
330
C
100
AcDbDictionary
281
     1
  3
STANDARD
350
1C
  0
DICTIONARY
  5
13AB
102
{ACAD_REACTORS
330
C
102
}
330
C
100
AcDbDictionary
281
     1
  0
ACDBDICTIONARYWDFLT
  5
13A4
102
{ACAD_REACTORS
330
C
102
}
330
C
100
AcDbDictionary
281
     1
  3
Normal
350
13A5
100
AcDbDictionaryWithDefault
340
13A5
  0
DICTIONARY
  5
2C47
102
{ACAD_REACTORS
330
C
102
}
330
C
100
AcDbDictionary
281
     1
  3
A0
350
2C48
  3
A1
350
2C49
  3
A2
350
2C4A
  3
A3
350
2C4B
  3
A4
350
2C4C
  3
A5
350
2C4D
  3
A6
350
2C4E
  3
A7
350
2C4F
  3
A8
350
2C50
  3
A9
350
2C51
  3
B0
350
2C52
  3
B1
350
2C53
  3
B2
350
2C54
  3
B3
350
2C55
  3
B4
350
2C56
  3
B5
350
2C57
  3
B6
350
2C58
  0
DICTIONARY
  5
2C5B
102
{ACAD_REACTORS
330
C
102
}
330
C
100
AcDbDictionary
281
     1
  3
Metric50
350
2C5C
  0
DICTIONARY
  5
13A8
102
{ACAD_REACTORS
330
C
102
}
330
C
100
AcDbDictionary
281
     1
  3
Standard
350
13A9
  0
DICTIONARY
  5
2C2E
102
{ACAD_REACTORS
330
C
102
}
330
C
100
AcDbDictionary
281
     1
  3
2dWireframe
350
2C34
  3
Basic
350
2C33
  3
Brighten
350
2C3A
  3
ColorChange
350
2C3E
  3
Conceptual
350
2C37
  3
Dim
350
2C39
  3
EdgeColorOff
350
2C46
  3
Facepattern
350
2C3D
  3
Flat
350
2C2F
  3
FlatWithEdges
350
2C30
  3
Gouraud
350
2C31
  3
GouraudWithEdges
350
2C32
  3
Hidden
350
2C36
  3
JitterOff
350
2C44
  3
Linepattern
350
2C3C
  3
OverhangOff
350
2C45
  3
Realistic
350
2C38
  3
Shaded
350
2C43
  3
Shaded with edges
350
2C42
  3
Shades of Gray
350
2C3F
  3
Sketchy
350
2C40
  3
Thicken
350
2C3B
  3
Wireframe
350
2C35
  3
X-Ray
350
2C41
  0
XRECORD
  5
2C92
102
{ACAD_REACTORS
330
C
102
}
330
C
100
AcDbXrecord
280
     1
 90
        1
330
13A9
  0
DICTIONARY
  5
1D6F
102
{ACAD_REACTORS
330
C
102
}
330
C
100
AcDbDictionary
281
     1
  3
CANNOSCALE
350
2C8F
  3
CMLEADERSTYLE
350
2C8C
  3
CTABLESTYLE
350
1D70
  3
CVIEWDETAILSTYLE
350
2C8D
  3
CVIEWSECTIONSTYLE
350
2C8E
  0
DICTIONARY
  5
25E2
102
{ACAD_REACTORS
330
25E1
102
}
330
25E1
100
AcDbDictionary
281
     1
  0
XRECORD
  5
2C7D
102
{ACAD_REACTORS
330
2C7C
102
}
330
2C7C
100
AcDbXrecord
280
     1
290
     1
  0
XRECORD
  5
2C7F
102
{ACAD_REACTORS
330
2C7E
102
}
330
2C7E
100
AcDbXrecord
280
     1
290
     1
  0
XRECORD
  5
2C81
102
{ACAD_REACTORS
330
2C80
102
}
330
2C80
100
AcDbXrecord
280
     1
290
     1
  0
XRECORD
  5
2C83
102
{ACAD_REACTORS
330
2C82
102
}
330
2C82
100
AcDbXrecord
280
     1
290
     1
  0
XRECORD
  5
2C85
102
{ACAD_REACTORS
330
2C84
102
}
330
2C84
100
AcDbXrecord
280
     1
290
     1
  0
XRECORD
  5
2C87
102
{ACAD_REACTORS
330
2C86
102
}
330
2C86
100
AcDbXrecord
280
     1
290
     1
  0
XRECORD
  5
2C89
102
{ACAD_REACTORS
330
2C88
102
}
330
2C88
100
AcDbXrecord
280
     1
290
     1
  0
XRECORD
  5
2C8B
102
{ACAD_REACTORS
330
2C8A
102
}
330
2C8A
100
AcDbXrecord
280
     1
290
     1
  0
SORTENTSTABLE
  5
1D65
102
{ACAD_REACTORS
330
1D64
102
}
330
1D64
100
AcDbSortentsTable
330
18
331
24DF
  5
24DF
331
240F
  5
240F
331
24DB
  5
24DB
331
24D7
  5
24D7
331
2375
  5
2375
331
240B
  5
240B
331
2407
  5
2407
331
24D3
  5
24D3
331
2371
  5
2371
331
23BC
  5
23BC
331
2403
  5
2403
331
2452
  5
2452
331
230B
  5
230B
331
226D
  5
226D
331
237D
  5
237D
331
2379
  5
2379
331
23B8
  5
23B8
331
2307
  5
2307
331
2366
  5
2366
331
2269
  5
2269
331
22BC
  5
22BC
331
2303
  5
2303
331
2362
  5
2362
331
2265
  5
2265
331
21F6
  5
21F6
331
2261
  5
2261
331
22B8
  5
22B8
331
21F2
  5
21F2
331
2164
  5
2164
331
2160
  5
2160
331
21B7
  5
21B7
331
21EE
  5
21EE
331
222D
  5
222D
331
2229
  5
2229
331
21B3
  5
21B3
331
21EA
  5
21EA
331
228D
  5
228D
331
2289
  5
2289
331
215F
  5
215F
331
2146
  5
2146
331
215B
  5
215B
331
23FF
  5
23FF
331
2446
  5
2446
331
2157
  5
2157
331
2442
  5
2442
331
2385
  5
2385
331
23B4
  5
23B4
331
23FB
  5
23FB
331
2153
  5
2153
331
24EA
  5
24EA
331
23F7
  5
23F7
331
243E
  5
243E
331
2505
  5
2502
331
233E
  5
233E
331
2381
  5
2381
331
22F7
  5
22F7
331
23B0
  5
23B0
331
23AC
  5
23AC
331
23F3
  5
23F3
331
243A
  5
243A
331
22F3
  5
22F3
331
233A
  5
233A
331
225D
  5
225D
331
235D
  5
235D
331
2501
  5
2501
331
2359
  5
2359
331
23A8
  5
23A8
331
22EF
  5
22EF
331
2336
  5
2336
331
2259
  5
2259
331
22A4
  5
22A4
331
22EB
  5
22EB
331
2332
  5
2332
331
2255
  5
2255
331
2251
  5
2251
331
21E6
  5
21E6
331
2225
  5
2225
331
22A0
  5
22A0
331
21AF
  5
21AF
331
21AB
  5
21AB
331
21E2
  5
21E2
331
2221
  5
2221
331
21A7
  5
21A7
331
21DE
  5
21DE
331
221D
  5
221D
331
2219
  5
2219
331
21A3
  5
21A3
331
21DA
  5
21DA
331
214F
  5
214F
331
217E
  5
217E
331
217A
  5
217A
331
2475
  5
2475
331
214B
  5
214B
331
23EF
  5
23EF
331
2436
  5
2436
331
2176
  5
2176
331
2432
  5
2432
331
2471
  5
2471
331
2355
  5
2355
331
23A4
  5
23A4
331
23EB
  5
23EB
331
2172
  5
2172
331
23E7
  5
23E7
331
242E
  5
242E
331
246D
  5
246D
331
232E
  5
232E
331
2351
  5
2351
331
22E7
  5
22E7
331
23A0
  5
23A0
331
239C
  5
239C
331
23E3
  5
23E3
331
242A
  5
242A
331
232A
  5
232A
331
234D
  5
234D
331
2469
  5
2469
331
224D
  5
224D
331
229C
  5
229C
331
22E3
  5
22E3
331
2398
  5
2398
331
22DF
  5
22DF
331
2326
  5
2326
331
2249
  5
2249
331
2298
  5
2298
331
2349
  5
2349
331
2294
  5
2294
331
22DB
  5
22DB
331
2322
  5
2322
331
2245
  5
2245
331
2241
  5
2241
331
21D6
  5
21D6
331
2215
  5
2215
331
2290
  5
2290
331
219F
  5
219F
331
219B
  5
219B
331
21D2
  5
21D2
331
2211
  5
2211
331
2197
  5
2197
331
21CE
  5
21CE
331
220D
  5
220D
331
2209
  5
2209
331
2193
  5
2193
331
21CA
  5
21CA
331
244C
  5
244C
331
2448
  5
2448
331
216E
  5
216E
331
216A
  5
216A
331
2465
  5
2465
331
23DF
  5
23DF
331
2426
  5
2426
331
24E6
  5
24E6
331
2422
  5
2422
331
2461
  5
2461
331
236D
  5
236D
331
2394
  5
2394
331
23DB
  5
23DB
331
24E2
  5
24E2
331
245D
  5
245D
331
2369
  5
2369
331
2390
  5
2390
331
22D7
  5
22D7
331
231E
  5
231E
331
23C3
  5
23C3
331
2412
  5
2412
331
231A
  5
231A
331
2345
  5
2345
331
223D
  5
223D
331
2284
  5
2284
331
22D3
  5
22D3
331
238C
  5
238C
331
2388
  5
2388
331
22CF
  5
22CF
331
2316
  5
2316
331
2239
  5
2239
331
2280
  5
2280
331
2341
  5
2341
331
22CB
  5
22CB
331
2312
  5
2312
331
2235
  5
2235
331
2231
  5
2231
331
21C6
  5
21C6
331
2205
  5
2205
331
2278
  5
2278
331
218F
  5
218F
331
21C2
  5
21C2
331
2201
  5
2201
331
218B
  5
218B
331
2187
  5
2187
331
21BE
  5
21BE
331
21FD
  5
21FD
331
21F9
  5
21F9
331
2183
  5
2183
331
21BA
  5
21BA
331
22FF
  5
22FF
331
22FB
  5
22FB
331
247A
  5
247A
331
23D4
  5
23D4
331
2277
  5
2277
331
2273
  5
2273
331
24DE
  5
24DE
331
240E
  5
240E
331
24DA
  5
24DA
331
240A
  5
240A
331
24D6
  5
24D6
331
2374
  5
2374
331
2406
  5
2406
331
24D2
  5
24D2
331
2370
  5
2370
331
23BF
  5
23BF
331
23BB
  5
23BB
331
2402
  5
2402
331
2451
  5
2451
331
230A
  5
230A
331
226C
  5
226C
331
237C
  5
237C
331
2378
  5
2378
331
2306
  5
2306
331
2365
  5
2365
331
2268
  5
2268
331
2264
  5
2264
331
22BB
  5
22BB
331
2302
  5
2302
331
2361
  5
2361
331
21F5
  5
21F5
331
2260
  5
2260
331
2167
  5
2167
331
21F1
  5
21F1
331
2163
  5
2163
331
222C
  5
222C
331
21B6
  5
21B6
331
21ED
  5
21ED
331
2228
  5
2228
331
21B2
  5
21B2
331
21E9
  5
21E9
331
228C
  5
228C
331
2288
  5
2288
331
215E
  5
215E
331
2445
  5
2445
331
23B7
  5
23B7
331
23FE
  5
23FE
331
215A
  5
215A
331
2156
  5
2156
331
2441
  5
2441
331
2384
  5
2384
331
23B3
  5
23B3
331
23FA
  5
23FA
331
2152
  5
2152
331
24E9
  5
24E9
331
23F6
  5
23F6
331
243D
  5
243D
331
2504
  5
2503
331
233D
  5
233D
331
2380
  5
2380
331
22B7
  5
22B7
331
22F6
  5
22F6
331
23AF
  5
23AF
331
23AB
  5
23AB
331
23F2
  5
23F2
331
2439
  5
2439
331
22F2
  5
22F2
331
2339
  5
2339
331
225C
  5
225C
331
235C
  5
235C
331
2358
  5
2358
331
22EE
  5
22EE
331
2335
  5
2335
331
2258
  5
2258
331
22A3
  5
22A3
331
22EA
  5
22EA
331
2331
  5
2331
331
2254
  5
2254
331
2250
  5
2250
331
21E5
  5
21E5
331
2224
  5
2224
331
21AE
  5
21AE
331
21AA
  5
21AA
331
21E1
  5
21E1
331
2220
  5
2220
331
21A6
  5
21A6
331
21DD
  5
21DD
331
221C
  5
221C
331
2218
  5
2218
331
21A2
  5
21A2
331
21D9
  5
21D9
331
214E
  5
214E
331
217D
  5
217D
331
2179
  5
2179
331
2474
  5
2474
331
214A
  5
214A
331
23A7
  5
23A7
331
23EE
  5
23EE
331
2435
  5
2435
331
2175
  5
2175
331
2431
  5
2431
331
2470
  5
2470
331
2354
  5
2354
331
23A3
  5
23A3
331
23EA
  5
23EA
331
2171
  5
2171
331
23E6
  5
23E6
331
242D
  5
242D
331
246C
  5
246C
331
232D
  5
232D
331
2350
  5
2350
331
229F
  5
229F
331
22E6
  5
22E6
331
239F
  5
239F
331
239B
  5
239B
331
23E2
  5
23E2
331
2429
  5
2429
331
22E2
  5
22E2
331
2329
  5
2329
331
224C
  5
224C
331
229B
  5
229B
331
234C
  5
234C
331
2468
  5
2468
331
2348
  5
2348
331
22DE
  5
22DE
331
2325
  5
2325
331
2248
  5
2248
331
2297
  5
2297
331
2293
  5
2293
331
22DA
  5
22DA
331
2321
  5
2321
331
2244
  5
2244
331
2240
  5
2240
331
21D5
  5
21D5
331
2214
  5
2214
331
219E
  5
219E
331
219A
  5
219A
331
21D1
  5
21D1
331
2210
  5
2210
331
2196
  5
2196
331
21CD
  5
21CD
331
220C
  5
220C
331
2208
  5
2208
331
2192
  5
2192
331
21C9
  5
21C9
331
244F
  5
244F
331
244B
  5
244B
331
216D
  5
216D
331
2169
  5
2169
331
2464
  5
2464
331
2397
  5
2397
331
23DE
  5
23DE
331
2425
  5
2425
331
24E5
  5
24E5
331
2421
  5
2421
331
2460
  5
2460
331
236C
  5
236C
331
2393
  5
2393
331
23DA
  5
23DA
331
24E1
  5
24E1
331
23C6
  5
23C6
331
2415
  5
2415
331
245C
  5
245C
331
231D
  5
231D
331
2368
  5
2368
331
2287
  5
2287
331
22D6
  5
22D6
331
238F
  5
238F
331
238B
  5
238B
331
23C2
  5
23C2
331
2411
  5
2411
331
2319
  5
2319
331
2344
  5
2344
331
223C
  5
223C
331
2283
  5
2283
331
22D2
  5
22D2
331
22CE
  5
22CE
331
2315
  5
2315
331
2238
  5
2238
331
2340
  5
2340
331
22CA
  5
22CA
331
2311
  5
2311
331
2234
  5
2234
331
2230
  5
2230
331
21C5
  5
21C5
331
2204
  5
2204
331
218E
  5
218E
331
218A
  5
218A
331
21C1
  5
21C1
331
2200
  5
2200
331
2186
  5
2186
331
21BD
  5
21BD
331
21FC
  5
21FC
331
21F8
  5
21F8
331
2182
  5
2182
331
21B9
  5
21B9
331
23D7
  5
23D7
331
22FE
  5
22FE
331
22FA
  5
22FA
331
2479
  5
2479
331
23D3
  5
23D3
331
2276
  5
2276
331
2272
  5
2272
331
24DD
  5
24DD
331
24D9
  5
24D9
331
2377
  5
2377
331
240D
  5
240D
331
2409
  5
2409
331
24D5
  5
24D5
331
2373
  5
2373
331
24D1
  5
24D1
331
23BE
  5
23BE
331
2405
  5
2405
331
2454
  5
2454
331
237F
  5
237F
331
226F
  5
226F
331
23BA
  5
23BA
331
2401
  5
2401
331
2450
  5
2450
331
2309
  5
2309
331
226B
  5
226B
331
237B
  5
237B
331
2305
  5
2305
331
2364
  5
2364
331
2267
  5
2267
331
2263
  5
2263
331
22BA
  5
22BA
331
2301
  5
2301
331
2360
  5
2360
331
21F4
  5
21F4
331
2166
  5
2166
331
21F0
  5
21F0
331
222F
  5
222F
331
2162
  5
2162
331
222B
  5
222B
331
21B5
  5
21B5
331
21EC
  5
21EC
331
21E8
  5
21E8
331
21B1
  5
21B1
331
228F
  5
228F
331
228B
  5
228B
331
215D
  5
215D
331
2444
  5
2444
331
2387
  5
2387
331
23B6
  5
23B6
331
23FD
  5
23FD
331
2159
  5
2159
331
2155
  5
2155
331
23F9
  5
23F9
331
2440
  5
2440
331
2383
  5
2383
331
23B2
  5
23B2
331
2151
  5
2151
331
24E8
  5
24E8
331
23F5
  5
23F5
331
243C
  5
243C
331
2503
  5
2504
331
233C
  5
233C
331
235F
  5
235F
331
225F
  5
225F
331
22F5
  5
22F5
331
23AE
  5
23AE
331
23AA
  5
23AA
331
23F1
  5
23F1
331
2438
  5
2438
331
22F1
  5
22F1
331
2338
  5
2338
331
225B
  5
225B
331
235B
  5
235B
331
22ED
  5
22ED
331
2334
  5
2334
331
2257
  5
2257
331
2253
  5
2253
331
2227
  5
2227
331
22A2
  5
22A2
331
22E9
  5
22E9
331
2330
  5
2330
331
21E4
  5
21E4
331
2223
  5
2223
331
21AD
  5
21AD
331
21A9
  5
21A9
331
21E0
  5
21E0
331
221F
  5
221F
331
221B
  5
221B
331
21A5
  5
21A5
331
21DC
  5
21DC
331
21A1
  5
21A1
331
21D8
  5
21D8
331
2477
  5
2477
331
214D
  5
214D
331
217C
  5
217C
331
2178
  5
2178
331
2434
  5
2434
331
2357
  5
2357
331
23A6
  5
23A6
331
23ED
  5
23ED
331
2149
  5
2149
331
2174
  5
2174
331
2430
  5
2430
331
246F
  5
246F
331
2353
  5
2353
331
23A2
  5
23A2
331
23E9
  5
23E9
331
2170
  5
2170
331
23E5
  5
23E5
331
242C
  5
242C
331
246B
  5
246B
331
232C
  5
232C
331
234F
  5
234F
331
224F
  5
224F
331
229E
  5
229E
331
22E5
  5
22E5
331
239E
  5
239E
331
239A
  5
239A
331
23E1
  5
23E1
331
2428
  5
2428
331
22E1
  5
22E1
331
2328
  5
2328
331
224B
  5
224B
331
229A
  5
229A
331
234B
  5
234B
331
2296
  5
2296
331
22DD
  5
22DD
331
2324
  5
2324
331
2247
  5
2247
331
2292
  5
2292
331
22D9
  5
22D9
331
2320
  5
2320
331
2217
  5
2217
331
2243
  5
2243
331
21D4
  5
21D4
331
2213
  5
2213
331
219D
  5
219D
331
2199
  5
2199
331
21D0
  5
21D0
331
220F
  5
220F
331
2195
  5
2195
331
21CC
  5
21CC
331
220B
  5
220B
331
2191
  5
2191
331
21C8
  5
21C8
331
244E
  5
244E
331
244A
  5
244A
331
2467
  5
2467
331
216C
  5
216C
331
2168
  5
2168
331
2463
  5
2463
331
236F
  5
236F
331
2396
  5
2396
331
23DD
  5
23DD
331
2424
  5
2424
331
24E4
  5
24E4
331
2420
  5
2420
331
245F
  5
245F
331
236B
  5
236B
331
2392
  5
2392
331
23D9
  5
23D9
331
24E0
  5
24E0
331
23C5
  5
23C5
331
245B
  5
245B
331
231C
  5
231C
331
2347
  5
2347
331
223F
  5
223F
331
2286
  5
2286
331
22D5
  5
22D5
331
238E
  5
238E
331
238A
  5
238A
331
23C1
  5
23C1
331
2410
  5
2410
331
22D1
  5
22D1
331
2318
  5
2318
331
223B
  5
223B
331
2343
  5
2343
331
22CD
  5
22CD
331
2314
  5
2314
331
2237
  5
2237
331
22C9
  5
22C9
331
2207
  5
2207
331
2233
  5
2233
331
21C4
  5
21C4
331
2203
  5
2203
331
218D
  5
218D
331
2189
  5
2189
331
21C0
  5
21C0
331
21FF
  5
21FF
331
2185
  5
2185
331
21BC
  5
21BC
331
21FB
  5
21FB
331
22FD
  5
22FD
331
2181
  5
2181
331
23D6
  5
23D6
331
21B8
  5
21B8
331
22F9
  5
22F9
331
2478
  5
2478
331
23D2
  5
23D2
331
2275
  5
2275
331
2271
  5
2271
331
24DC
  5
24DC
331
24D8
  5
24D8
331
24CF
  5
24CF
331
2376
  5
2376
331
240C
  5
240C
331
2408
  5
2408
331
24D4
  5
24D4
331
2372
  5
2372
331
24D0
  5
24D0
331
23BD
  5
23BD
331
2404
  5
2404
331
2453
  5
2453
331
226E
  5
226E
331
237E
  5
237E
331
237A
  5
237A
331
23B9
  5
23B9
331
2308
  5
2308
331
2367
  5
2367
331
2400
  5
2400
331
226A
  5
226A
331
22BD
  5
22BD
331
2304
  5
2304
331
2363
  5
2363
331
2266
  5
2266
331
21F7
  5
21F7
331
2262
  5
2262
331
22B9
  5
22B9
331
2300
  5
2300
331
21F3
  5
21F3
331
2165
  5
2165
331
2161
  5
2161
331
21EF
  5
21EF
331
222E
  5
222E
331
222A
  5
222A
331
21B4
  5
21B4
331
21EB
  5
21EB
331
21B0
  5
21B0
331
228E
  5
228E
331
228A
  5
228A
331
2147
  5
2147
331
215C
  5
215C
331
2447
  5
2447
331
2158
  5
2158
331
2443
  5
2443
331
2386
  5
2386
331
23B5
  5
23B5
331
23FC
  5
23FC
331
2154
  5
2154
331
23F8
  5
23F8
331
243F
  5
243F
331
24EB
  5
24EB
331
233F
  5
233F
331
2382
  5
2382
331
23B1
  5
23B1
331
2150
  5
2150
331
23AD
  5
23AD
331
23F4
  5
23F4
331
243B
  5
243B
331
233B
  5
233B
331
235E
  5
235E
331
2502
  5
2505
331
225E
  5
225E
331
22F4
  5
22F4
331
23A9
  5
23A9
331
23F0
  5
23F0
331
22F0
  5
22F0
331
2337
  5
2337
331
225A
  5
225A
331
235A
  5
235A
331
22EC
  5
22EC
331
2256
  5
2256
331
2252
  5
2252
331
21E7
  5
21E7
331
2226
  5
2226
331
22A1
  5
22A1
331
22E8
  5
22E8
331
21AC
  5
21AC
331
21E3
  5
21E3
331
2222
  5
2222
331
21A8
  5
21A8
331
21DF
  5
21DF
331
221E
  5
221E
331
221A
  5
221A
331
21A4
  5
21A4
331
21DB
  5
21DB
331
21A0
  5
21A0
331
217F
  5
217F
331
217B
  5
217B
331
2476
  5
2476
331
214C
  5
214C
331
2437
  5
2437
331
2177
  5
2177
331
2433
  5
2433
331
2356
  5
2356
331
23A5
  5
23A5
331
23EC
  5
23EC
331
2148
  5
2148
331
2173
  5
2173
331
23E8
  5
23E8
331
242F
  5
242F
331
246E
  5
246E
331
2352
  5
2352
331
23A1
  5
23A1
331
232F
  5
232F
331
23E4
  5
23E4
331
242B
  5
242B
331
246A
  5
246A
331
232B
  5
232B
331
234E
  5
234E
331
224E
  5
224E
331
229D
  5
229D
331
22E4
  5
22E4
331
239D
  5
239D
331
2399
  5
2399
331
23E0
  5
23E0
331
22E0
  5
22E0
331
2327
  5
2327
331
224A
  5
224A
331
2299
  5
2299
331
234A
  5
234A
331
2295
  5
2295
331
22DC
  5
22DC
331
2323
  5
2323
331
2246
  5
2246
331
2242
  5
2242
331
21D7
  5
21D7
331
2216
  5
2216
331
2291
  5
2291
331
22D8
  5
22D8
331
21D3
  5
21D3
331
2212
  5
2212
331
219C
  5
219C
331
2198
  5
2198
331
21CF
  5
21CF
331
220E
  5
220E
331
220A
  5
220A
331
2194
  5
2194
331
21CB
  5
21CB
331
2190
  5
2190
331
244D
  5
244D
331
2449
  5
2449
331
216F
  5
216F
331
2466
  5
2466
331
2427
  5
2427
331
216B
  5
216B
331
24E7
  5
24E7
331
2423
  5
2423
331
2462
  5
2462
331
236E
  5
236E
331
2395
  5
2395
331
23DC
  5
23DC
331
24E3
  5
24E3
331
245E
  5
245E
331
236A
  5
236A
331
2391
  5
2391
331
231F
  5
231F
331
23D8
  5
23D8
331
23C4
  5
23C4
331
2413
  5
2413
331
245A
  5
245A
331
231B
  5
231B
331
2346
  5
2346
331
223E
  5
223E
331
2285
  5
2285
331
22D4
  5
22D4
331
238D
  5
238D
331
2389
  5
2389
331
23C0
  5
23C0
331
22D0
  5
22D0
331
2317
  5
2317
331
223A
  5
223A
331
2281
  5
2281
331
2342
  5
2342
331
22CC
  5
22CC
331
2313
  5
2313
331
2236
  5
2236
331
2279
  5
2279
331
2206
  5
2206
331
21C7
  5
21C7
331
2232
  5
2232
331
21C3
  5
21C3
331
2202
  5
2202
331
218C
  5
218C
331
2188
  5
2188
331
21BF
  5
21BF
331
21FE
  5
21FE
331
2184
  5
2184
331
21BB
  5
21BB
331
21FA
  5
21FA
331
22FC
  5
22FC
331
2180
  5
2180
331
23D5
  5
23D5
331
23D1
  5
23D1
331
22F8
  5
22F8
331
2274
  5
2274
331
2270
  5
2270
  0
ACDBDETAILVIEWSTYLE
  5
2C5E
102
{ACAD_XDICTIONARY
360
2CCA
102
}
102
{ACAD_REACTORS
330
2C5D
102
}
330
2C5D
100
AcDbModelDocViewStyle
 70
     0
  3
Metric50
290
     0
100
AcDbDetailViewStyle
 70
     0
 71
     0
 90
        3
 71
     1
340
F
 62
   256
 40
5.0
340
0
 62
   256
 40
5.0
300

 40
0.0
280
     1
 71
     2
340
14
 90
       25
 62
   256
 71
     3
340
F
 62
   256
 40
5.0
 90
        0
 40
15.0
 90
        1
300
%<\AcVar ViewDetailId>% (%<\AcVar ViewScale \f "%sn">%)
 71
     4
340
14
 90
       25
 62
   256
340
14
 90
       25
 62
   256
280
     0
  0
LAYOUT
  5
13AC
102
{ACAD_REACTORS
330
13AA
102
}
330
13AA
100
AcDbPlotSettings
  1

  2
A4 EPSON LP-6100.pc3
  4
A4
  6

 40
5.873749732971191
 41
5.873747825622557
 42
5.873748779296875
 43
5.873748779296875
 44
209.9733276367186
 45
297.0106506347656
 46
0.9
 47
25.0
 48
0.0
 49
0.0
140
0.0
141
0.0
142
1.0
143
1.0
 70
 28336
 72
     1
 73
     1
 74
     1
  7
AutoCAD LT 98.ctb
 75
    16
147
1.0
 76
     1
 77
     2
 78
   300
148
-389.3821852704768
149
1.112459635539379
100
AcDbLayout
  1
Model
 70
     1
 71
     0
 10
0.0
 20
0.0
 11
12.0
 21
9.0
 12
0.0
 22
0.0
 32
0.0
 14
0.0
 24
0.0
 34
0.0
 15
0.0
 25
0.0
 35
0.0
146
0.0
 13
0.0
 23
0.0
 33
0.0
 16
1.0
 26
0.0
 36
0.0
 17
0.0
 27
1.0
 37
0.0
 76
     0
330
18
331
2C11
1001
ACAD_PSEXT
1000
A4 EPSON LP-6100.pc3
1000
EPSON LP-6100
1000
\\SATO-MATE2
1000

1070
     0
  0
LAYOUT
  5
13AD
102
{ACAD_REACTORS
330
13AA
102
}
330
13AA
100
AcDbPlotSettings
  1

  2
Mytalk FAX
  4

  6

 40
0.0
 41
0.0
 42
0.0
 43
0.0
 44
0.0
 45
0.0
 46
0.0
 47
0.0
 48
0.0
 49
0.0
140
0.0
141
0.0
142
1.0
143
1.0
 70
   688
 72
     0
 73
     0
 74
     5
  7
AutoCAD LT 98.ctb
 75
    16
147
1.0
 76
     0
 77
     2
 78
   300
148
0.0
149
0.0
100
AcDbLayout
  1
レイアウト1
 70
     1
 71
     1
 10
0.0
 20
0.0
 11
420.0
 21
297.0
 12
0.0
 22
0.0
 32
0.0
 14
1.000000000000000E+20
 24
1.000000000000000E+20
 34
1.000000000000000E+20
 15
-1.000000000000000E+20
 25
-1.000000000000000E+20
 35
-1.000000000000000E+20
146
0.0
 13
0.0
 23
0.0
 33
0.0
 16
1.0
 26
0.0
 36
0.0
 17
0.0
 27
1.0
 37
0.0
 76
     0
330
15
  0
MATERIAL
  5
2C1E
102
{ACAD_XDICTIONARY
360
2C1F
102
}
102
{ACAD_REACTORS
330
13A6
102
}
330
13A6
100
AcDbMaterial
  1
ByBlock
 72
     0
 43
0.0208333333333333
 43
0.0
 43
0.0
 43
0.0
 43
0.0
 43
0.0208333333333333
 43
0.0
 43
0.0
 43
0.0
 43
0.0
 43
1.0
 43
0.0
 43
0.0
 43
0.0
 43
0.0
 43
1.0
 77
     0
 47
0.0208333333333333
 47
0.0
 47
0.0
 47
0.0
 47
0.0
 47
0.0208333333333333
 47
0.0
 47
0.0
 47
0.0
 47
0.0
 47
1.0
 47
0.0
 47
0.0
 47
0.0
 47
0.0
 47
1.0
171
     0
 49
0.0208333333333333
 49
0.0
 49
0.0
 49
0.0
 49
0.0
 49
0.0208333333333333
 49
0.0
 49
0.0
 49
0.0
 49
0.0
 49
1.0
 49
0.0
 49
0.0
 49
0.0
 49
0.0
 49
1.0
175
     0
142
0.0208333333333333
142
0.0
142
0.0
142
0.0
142
0.0
142
0.0208333333333333
142
0.0
142
0.0
142
0.0
142
0.0
142
1.0
142
0.0
142
0.0
142
0.0
142
0.0
142
1.0
179
     0
144
0.0208333333333333
144
0.0
144
0.0
144
0.0
144
0.0
144
0.0208333333333333
144
0.0
144
0.0
144
0.0
144
0.0
144
1.0
144
0.0
144
0.0
144
0.0
144
0.0
144
1.0
147
0.0208333333333333
147
0.0
147
0.0
147
0.0
147
0.0
147
0.0208333333333333
147
0.0
147
0.0
147
0.0
147
0.0
147
1.0
147
0.0
147
0.0
147
0.0
147
0.0
147
1.0
  0
MATERIAL
  5
2C16
102
{ACAD_XDICTIONARY
360
2C17
102
}
102
{ACAD_REACTORS
330
13A6
102
}
330
13A6
100
AcDbMaterial
  1
ByLayer
 72
     0
 43
0.0208333333333333
 43
0.0
 43
0.0
 43
0.0
 43
0.0
 43
0.0208333333333333
 43
0.0
 43
0.0
 43
0.0
 43
0.0
 43
1.0
 43
0.0
 43
0.0
 43
0.0
 43
0.0
 43
1.0
 77
     0
 47
0.0208333333333333
 47
0.0
 47
0.0
 47
0.0
 47
0.0
 47
0.0208333333333333
 47
0.0
 47
0.0
 47
0.0
 47
0.0
 47
1.0
 47
0.0
 47
0.0
 47
0.0
 47
0.0
 47
1.0
171
     0
 49
0.0208333333333333
 49
0.0
 49
0.0
 49
0.0
 49
0.0
 49
0.0208333333333333
 49
0.0
 49
0.0
 49
0.0
 49
0.0
 49
1.0
 49
0.0
 49
0.0
 49
0.0
 49
0.0
 49
1.0
175
     0
142
0.0208333333333333
142
0.0
142
0.0
142
0.0
142
0.0
142
0.0208333333333333
142
0.0
142
0.0
142
0.0
142
0.0
142
1.0
142
0.0
142
0.0
142
0.0
142
0.0
142
1.0
179
     0
144
0.0208333333333333
144
0.0
144
0.0
144
0.0
144
0.0
144
0.0208333333333333
144
0.0
144
0.0
144
0.0
144
0.0
144
1.0
144
0.0
144
0.0
144
0.0
144
0.0
144
1.0
147
0.0208333333333333
147
0.0
147
0.0
147
0.0
147
0.0
147
0.0208333333333333
147
0.0
147
0.0
147
0.0
147
0.0
147
1.0
147
0.0
147
0.0
147
0.0
147
0.0
147
1.0
  0
MATERIAL
  5
2C26
102
{ACAD_XDICTIONARY
360
2C27
102
}
102
{ACAD_REACTORS
330
13A6
102
}
330
13A6
100
AcDbMaterial
  1
Global
 72
     0
 43
0.0208333333333333
 43
0.0
 43
0.0
 43
0.0
 43
0.0
 43
0.0208333333333333
 43
0.0
 43
0.0
 43
0.0
 43
0.0
 43
1.0
 43
0.0
 43
0.0
 43
0.0
 43
0.0
 43
1.0
 77
     0
 47
0.0208333333333333
 47
0.0
 47
0.0
 47
0.0
 47
0.0
 47
0.0208333333333333
 47
0.0
 47
0.0
 47
0.0
 47
0.0
 47
1.0
 47
0.0
 47
0.0
 47
0.0
 47
0.0
 47
1.0
171
     0
 49
0.0208333333333333
 49
0.0
 49
0.0
 49
0.0
 49
0.0
 49
0.0208333333333333
 49
0.0
 49
0.0
 49
0.0
 49
0.0
 49
1.0
 49
0.0
 49
0.0
 49
0.0
 49
0.0
 49
1.0
175
     0
142
0.0208333333333333
142
0.0
142
0.0
142
0.0
142
0.0
142
0.0208333333333333
142
0.0
142
0.0
142
0.0
142
0.0
142
1.0
142
0.0
142
0.0
142
0.0
142
0.0
142
1.0
179
     0
144
0.0208333333333333
144
0.0
144
0.0
144
0.0
144
0.0
144
0.0208333333333333
144
0.0
144
0.0
144
0.0
144
0.0
144
1.0
144
0.0
144
0.0
144
0.0
144
0.0
144
1.0
147
0.0208333333333333
147
0.0
147
0.0
147
0.0
147
0.0
147
0.0208333333333333
147
0.0
147
0.0
147
0.0
147
0.0
147
1.0
147
0.0
147
0.0
147
0.0
147
0.0
147
1.0
  0
MLEADERSTYLE
  5
2C5A
102
{ACAD_REACTORS
330
2C59
102
}
330
2C59
100
AcDbMLeaderStyle
170
     2
171
     1
172
     0
 90
        2
 40
0.0
 41
0.0
173
     1
 91
-1056964608
340
12
 92
       -2
290
     1
 42
2.0
291
     1
 43
0.36
  3
Standard
 44
4.0
300

342
F
174
     1
178
     6
175
     1
176
     0
 93
-1056964608
 45
4.0
292
     0
297
     0
 46
4.0
 94
-1056964608
 47
1.0
 49
1.0
140
1.0
293
     1
141
0.0
294
     1
177
     0
142
1.0
295
     0
296
     0
143
0.125
1001
ACAD_MLEADERVER
1070
     2
  0
MLINESTYLE
  5
1C
102
{ACAD_REACTORS
330
1B
102
}
330
1B
100
AcDbMlineStyle
  2
STANDARD
 70
     0
  3

 62
   256
 51
90.0
 52
90.0
 71
     2
 49
0.5
 62
   256
  6
BYLAYER
 49
-0.5
 62
   256
  6
BYLAYER
  0
ACDBPLACEHOLDER
  5
13A5
102
{ACAD_REACTORS
330
13A4
102
}
330
13A4
  0
SCALE
  5
2C48
102
{ACAD_REACTORS
330
2C47
102
}
330
2C47
100
AcDbScale
 70
     0
300
1:1
140
1.0
141
1.0
290
     1
  0
SCALE
  5
2C49
102
{ACAD_REACTORS
330
2C47
102
}
330
2C47
100
AcDbScale
 70
     0
300
1:2
140
1.0
141
2.0
290
     0
  0
SCALE
  5
2C4A
102
{ACAD_REACTORS
330
2C47
102
}
330
2C47
100
AcDbScale
 70
     0
300
1:4
140
1.0
141
4.0
290
     0
  0
SCALE
  5
2C4B
102
{ACAD_REACTORS
330
2C47
102
}
330
2C47
100
AcDbScale
 70
     0
300
1:5
140
1.0
141
5.0
290
     0
  0
SCALE
  5
2C4C
102
{ACAD_REACTORS
330
2C47
102
}
330
2C47
100
AcDbScale
 70
     0
300
1:8
140
1.0
141
8.0
290
     0
  0
SCALE
  5
2C4D
102
{ACAD_REACTORS
330
2C47
102
}
330
2C47
100
AcDbScale
 70
     0
300
1:10
140
1.0
141
10.0
290
     0
  0
SCALE
  5
2C4E
102
{ACAD_REACTORS
330
2C47
102
}
330
2C47
100
AcDbScale
 70
     0
300
1:16
140
1.0
141
16.0
290
     0
  0
SCALE
  5
2C4F
102
{ACAD_REACTORS
330
2C47
102
}
330
2C47
100
AcDbScale
 70
     0
300
1:20
140
1.0
141
20.0
290
     0
  0
SCALE
  5
2C50
102
{ACAD_REACTORS
330
2C47
102
}
330
2C47
100
AcDbScale
 70
     0
300
1:30
140
1.0
141
30.0
290
     0
  0
SCALE
  5
2C51
102
{ACAD_REACTORS
330
2C47
102
}
330
2C47
100
AcDbScale
 70
     0
300
1:40
140
1.0
141
40.0
290
     0
  0
SCALE
  5
2C52
102
{ACAD_REACTORS
330
2C47
102
}
330
2C47
100
AcDbScale
 70
     0
300
1:50
140
1.0
141
50.0
290
     0
  0
SCALE
  5
2C53
102
{ACAD_REACTORS
330
2C47
102
}
330
2C47
100
AcDbScale
 70
     0
300
1:100
140
1.0
141
100.0
290
     0
  0
SCALE
  5
2C54
102
{ACAD_REACTORS
330
2C47
102
}
330
2C47
100
AcDbScale
 70
     0
300
2:1
140
2.0
141
1.0
290
     0
  0
SCALE
  5
2C55
102
{ACAD_REACTORS
330
2C47
102
}
330
2C47
100
AcDbScale
 70
     0
300
4:1
140
4.0
141
1.0
290
     0
  0
SCALE
  5
2C56
102
{ACAD_REACTORS
330
2C47
102
}
330
2C47
100
AcDbScale
 70
     0
300
8:1
140
8.0
141
1.0
290
     0
  0
SCALE
  5
2C57
102
{ACAD_REACTORS
330
2C47
102
}
330
2C47
100
AcDbScale
 70
     0
300
10:1
140
10.0
141
1.0
290
     0
  0
SCALE
  5
2C58
102
{ACAD_REACTORS
330
2C47
102
}
330
2C47
100
AcDbScale
 70
     0
300
100:1
140
100.0
141
1.0
290
     0
  0
ACDBSECTIONVIEWSTYLE
  5
2C5C
102
{ACAD_XDICTIONARY
360
2CC8
102
}
102
{ACAD_REACTORS
330
2C5B
102
}
330
2C5B
100
AcDbModelDocViewStyle
 70
     0
  3
Metric50
290
     0
100
AcDbSectionViewStyle
 70
     0
 71
     0
 90
      102
 71
     1
340
F
 62
   256
 40
5.0
340
0
340
0
 62
   256
 40
5.0
300
I, O, Q, S, X, Z
 40
10.0
 90
        0
 40
2.5
 90
        0
 71
     2
340
14
 90
       25
 62
   256
340
14
 90
       50
 62
   256
 40
5.0
 40
2.5
 40
5.0
 71
     3
340
F
 62
   256
 40
5.0
 90
        0
 40
15.0
 90
        1
300
%<\AcVar ViewSectionStartId>%-%<\AcVar ViewSectionEndId>% (%<\AcVar ViewScale \f "%sn">%)
 71
     4
 62
   256
 62
   257
300
ANSI31
 40
1.0
 90
        0
290
     0
290
     0
 90
        6
 40
0.0
 40
1.570796326794896
 40
0.2617993877991494
 40
1.308996938995747
 40
-0.2617993877991494
 40
1.832595714594046
  0
TABLESTYLE
  5
13A9
102
{ACAD_XDICTIONARY
360
2C90
102
}
102
{ACAD_REACTORS
330
13A8
102
}
330
13A8
100
AcDbTableStyle
  3
Standard
 70
     0
 71
     0
 40
1.5
 41
1.5
280
     0
281
     0
  7
STANDARD
140
4.5
170
     2
 62
     0
 63
     7
283
     0
274
    -2
284
     1
 64
     0
275
    -2
285
     1
 65
     0
276
    -2
286
     1
 66
     0
277
    -2
287
     1
 67
     0
278
    -2
288
     1
 68
     0
279
    -2
289
     1
 69
     0
  7
STANDARD
140
6.0
170
     5
 62
     0
 63
     7
283
     0
274
    -2
284
     1
 64
     0
275
    -2
285
     1
 65
     0
276
    -2
286
     1
 66
     0
277
    -2
287
     1
 67
     0
278
    -2
288
     1
 68
     0
279
    -2
289
     1
 69
     0
  7
STANDARD
140
4.5
170
     5
 62
     0
 63
     7
283
     0
274
    -2
284
     1
 64
     0
275
    -2
285
     1
 65
     0
276
    -2
286
     1
 66
     0
277
    -2
287
     1
 67
     0
278
    -2
288
     1
 68
     0
279
    -2
289
     1
 69
     0
  0
VISUALSTYLE
  5
2C34
102
{ACAD_XDICTIONARY
360
2CA1
102
}
102
{ACAD_REACTORS
330
2C2E
102
}
330
2C2E
100
AcDbVisualStyle
  2
2dWireframe
 70
     4
 71
     0
 72
     2
 73
     0
 90
        0
 40
-0.6
 41
-30.0
 62
     5
 63
     7
421
 16777215
 74
     1
 91
        4
 64
     7
 65
   257
 75
     1
175
     1
 42
1.0
 92
        0
 66
   257
 43
1.0
 76
     1
 77
     6
 78
     2
 67
     7
 79
     5
170
     0
171
     0
290
     0
174
     0
 93
        1
 44
0.0
173
     0
291
     0
 45
0.0
1001
ACAD
1000
AcDbSavedByObjectVersion
1070
     0
  0
VISUALSTYLE
  5
2C33
102
{ACAD_XDICTIONARY
360
2C9F
102
}
102
{ACAD_REACTORS
330
2C2E
102
}
330
2C2E
100
AcDbVisualStyle
  2
Basic
 70
     7
 71
     1
 72
     0
 73
     1
 90
        0
 40
-0.6
 41
-30.0
 62
     5
 63
     7
421
 16777215
 74
     0
 91
        4
 64
     7
 65
   257
 75
     1
175
     1
 42
1.0
 92
        8
 66
     7
 43
1.0
 76
     1
 77
     6
 78
     2
 67
     7
 79
     5
170
     0
171
     0
290
     0
174
     0
 93
        1
 44
0.0
173
     0
291
     1
 45
0.0
1001
ACAD
1000
AcDbSavedByObjectVersion
1070
     0
  0
VISUALSTYLE
  5
2C3A
102
{ACAD_XDICTIONARY
360
2CAD
102
}
102
{ACAD_REACTORS
330
2C2E
102
}
330
2C2E
100
AcDbVisualStyle
  2
Brighten
 70
    12
 71
     2
 72
     2
 73
     0
 90
        0
 40
-0.6
 41
-30.0
 62
     5
 63
     7
421
 16777215
 74
     1
 91
        4
 64
     7
 65
   257
 75
     1
175
     1
 42
1.0
 92
        8
 66
     7
 43
1.0
 76
     1
 77
     6
 78
     2
 67
     7
 79
     5
170
     0
171
     0
290
     0
174
     0
 93
        1
 44
50.0
173
     0
291
     1
 45
0.0
1001
ACAD
1000
AcDbSavedByObjectVersion
1070
     0
  0
VISUALSTYLE
  5
2C3E
102
{ACAD_XDICTIONARY
360
2CB5
102
}
102
{ACAD_REACTORS
330
2C2E
102
}
330
2C2E
100
AcDbVisualStyle
  2
ColorChange
 70
    16
 71
     2
 72
     2
 73
     3
 90
        0
 40
-0.6
 41
-30.0
 62
     5
 63
     8
421
  8421504
 74
     1
 91
        4
 64
     7
 65
   257
 75
     1
175
     1
 42
1.0
 92
        8
 66
     8
424
  8421504
 43
1.0
 76
     1
 77
     6
 78
     2
 67
     7
 79
     5
170
     0
171
     0
290
     0
174
     0
 93
        1
 44
0.0
173
     0
291
     1
 45
0.0
1001
ACAD
1000
AcDbSavedByObjectVersion
1070
     0
  0
VISUALSTYLE
  5
2C37
102
{ACAD_XDICTIONARY
360
2CA7
102
}
102
{ACAD_REACTORS
330
2C2E
102
}
330
2C2E
100
AcDbVisualStyle
  2
Conceptual
 70
     9
 71
     3
 72
     2
 73
     0
 90
        0
 40
-0.6
 41
-30.0
 62
     5
 63
     7
421
 16777215
 74
     2
 91
        2
 64
     7
 65
   257
 75
     1
175
     1
 42
179.0
 92
        8
 66
     7
 43
1.0
 76
     1
 77
     6
 78
     2
 67
     7
 79
     3
170
     0
171
     0
290
     0
174
     0
 93
        1
 44
0.0
173
     0
291
     0
 45
0.0
1001
ACAD
1000
AcDbSavedByObjectVersion
1070
     0
  0
VISUALSTYLE
  5
2C39
102
{ACAD_XDICTIONARY
360
2CAB
102
}
102
{ACAD_REACTORS
330
2C2E
102
}
330
2C2E
100
AcDbVisualStyle
  2
Dim
 70
    11
 71
     2
 72
     2
 73
     0
 90
        0
 40
-0.6
 41
-30.0
 62
     5
 63
     7
421
 16777215
 74
     1
 91
        4
 64
     7
 65
   257
 75
     1
175
     1
 42
1.0
 92
        8
 66
     7
 43
1.0
 76
     1
 77
     6
 78
     2
 67
     7
 79
     5
170
     0
171
     0
290
     0
174
     0
 93
        1
 44
-50.0
173
     0
291
     1
 45
0.0
1001
ACAD
1000
AcDbSavedByObjectVersion
1070
     0
  0
VISUALSTYLE
  5
2C46
102
{ACAD_XDICTIONARY
360
2CC5
102
}
102
{ACAD_REACTORS
330
2C2E
102
}
330
2C2E
100
AcDbVisualStyle
  2
EdgeColorOff
 70
    22
 71
     2
 72
     2
 73
     0
 90
        0
 40
-0.6
 41
-30.0
 62
     5
 63
     7
421
 16777215
 74
     1
 91
        4
 64
     7
 65
   257
 75
     1
175
     1
 42
1.0
 92
        8
 66
     7
 43
1.0
 76
     1
 77
     6
 78
     2
 67
     7
 79
     5
170
     0
171
     0
290
     0
174
     0
 93
        1
 44
0.0
173
     0
291
     1
 45
0.0
1001
ACAD
1000
AcDbSavedByObjectVersion
1070
     0
  0
VISUALSTYLE
  5
2C3D
102
{ACAD_XDICTIONARY
360
2CB3
102
}
102
{ACAD_REACTORS
330
2C2E
102
}
330
2C2E
100
AcDbVisualStyle
  2
Facepattern
 70
    15
 71
     2
 72
     2
 73
     0
 90
        0
 40
-0.6
 41
-30.0
 62
     5
 63
     7
421
 16777215
 74
     1
 91
        4
 64
     7
 65
   257
 75
     1
175
     1
 42
1.0
 92
        8
 66
     7
 43
1.0
 76
     1
 77
     6
 78
     2
 67
     7
 79
     5
170
     0
171
     0
290
     0
174
     0
 93
        1
 44
0.0
173
     0
291
     1
 45
0.0
1001
ACAD
1000
AcDbSavedByObjectVersion
1070
     0
  0
VISUALSTYLE
  5
2C2F
102
{ACAD_XDICTIONARY
360
2C97
102
}
102
{ACAD_REACTORS
330
2C2E
102
}
330
2C2E
100
AcDbVisualStyle
  2
Flat
 70
     0
 71
     2
 72
     1
 73
     1
 90
        2
 40
-0.6
 41
30.0
 62
     5
 63
     7
421
 16777215
 74
     0
 91
        0
 64
     7
 65
   257
 75
     1
175
     1
 42
1.0
 92
        8
 66
     7
 43
1.0
 76
     1
 77
     6
 78
     2
 67
     7
 79
     5
170
     0
171
     0
290
     0
174
     0
 93
       13
 44
0.0
173
     0
291
     1
 45
0.0
1001
ACAD
1000
AcDbSavedByObjectVersion
1070
     0
  0
VISUALSTYLE
  5
2C30
102
{ACAD_XDICTIONARY
360
2C99
102
}
102
{ACAD_REACTORS
330
2C2E
102
}
330
2C2E
100
AcDbVisualStyle
  2
FlatWithEdges
 70
     1
 71
     2
 72
     1
 73
     1
 90
        2
 40
-0.6
 41
30.0
 62
     5
 63
     7
421
 16777215
 74
     1
 91
        0
 64
     7
 65
   257
 75
     1
175
     1
 42
1.0
 92
        0
 66
   257
 43
1.0
 76
     1
 77
     6
 78
     2
 67
     7
 79
     5
170
     0
171
     0
290
     0
174
     0
 93
       13
 44
0.0
173
     0
291
     1
 45
0.0
1001
ACAD
1000
AcDbSavedByObjectVersion
1070
     0
  0
VISUALSTYLE
  5
2C31
102
{ACAD_XDICTIONARY
360
2C9B
102
}
102
{ACAD_REACTORS
330
2C2E
102
}
330
2C2E
100
AcDbVisualStyle
  2
Gouraud
 70
     2
 71
     2
 72
     2
 73
     1
 90
        2
 40
-0.6
 41
30.0
 62
     5
 63
     7
421
 16777215
 74
     0
 91
        0
 64
     7
 65
   257
 75
     1
175
     1
 42
1.0
 92
        0
 66
     7
 43
1.0
 76
     1
 77
     6
 78
     2
 67
     7
 79
     5
170
     0
171
     0
290
     0
174
     0
 93
       13
 44
0.0
173
     0
291
     1
 45
0.0
1001
ACAD
1000
AcDbSavedByObjectVersion
1070
     0
  0
VISUALSTYLE
  5
2C32
102
{ACAD_XDICTIONARY
360
2C9D
102
}
102
{ACAD_REACTORS
330
2C2E
102
}
330
2C2E
100
AcDbVisualStyle
  2
GouraudWithEdges
 70
     3
 71
     2
 72
     2
 73
     1
 90
        2
 40
-0.6
 41
30.0
 62
     5
 63
     7
421
 16777215
 74
     1
 91
        0
 64
     7
 65
   257
 75
     1
175
     1
 42
1.0
 92
        0
 66
   257
 43
1.0
 76
     1
 77
     6
 78
     2
 67
     7
 79
     5
170
     0
171
     0
290
     0
174
     0
 93
       13
 44
0.0
173
     0
291
     1
 45
0.0
1001
ACAD
1000
AcDbSavedByObjectVersion
1070
     0
  0
VISUALSTYLE
  5
2C36
102
{ACAD_XDICTIONARY
360
2CA5
102
}
102
{ACAD_REACTORS
330
2C2E
102
}
330
2C2E
100
AcDbVisualStyle
  2
Hidden
 70
     6
 71
     1
 72
     2
 73
     2
 90
        0
 40
-0.6
 41
-30.0
 62
     5
 63
     7
421
 16777215
 74
     2
 91
        2
 64
     7
 65
   257
 75
     2
175
     1
 42
40.0
 92
        0
 66
   257
 43
1.0
 76
     1
 77
     6
 78
     2
 67
     7
 79
     3
170
     0
171
     0
290
     0
174
     0
 93
        1
 44
0.0
173
     0
291
     0
 45
0.0
1001
ACAD
1000
AcDbSavedByObjectVersion
1070
     0
  0
VISUALSTYLE
  5
2C44
102
{ACAD_XDICTIONARY
360
2CC1
102
}
102
{ACAD_REACTORS
330
2C2E
102
}
330
2C2E
100
AcDbVisualStyle
  2
JitterOff
 70
    20
 71
     2
 72
     2
 73
     0
 90
        0
 40
-0.6
 41
-30.0
 62
     5
 63
     7
421
 16777215
 74
     1
 91
        4
 64
     7
 65
   257
 75
     1
175
     1
 42
1.0
 92
       10
 66
     7
 43
1.0
 76
     1
 77
     6
 78
     2
 67
     7
 79
     5
170
     0
171
     0
290
     0
174
     0
 93
        1
 44
0.0
173
     0
291
     1
 45
0.0
1001
ACAD
1000
AcDbSavedByObjectVersion
1070
     0
  0
VISUALSTYLE
  5
2C3C
102
{ACAD_XDICTIONARY
360
2CB1
102
}
102
{ACAD_REACTORS
330
2C2E
102
}
330
2C2E
100
AcDbVisualStyle
  2
Linepattern
 70
    14
 71
     2
 72
     2
 73
     0
 90
        0
 40
-0.6
 41
-30.0
 62
     5
 63
     7
421
 16777215
 74
     1
 91
        4
 64
     7
 65
   257
 75
     7
175
     7
 42
1.0
 92
        8
 66
     7
 43
1.0
 76
     1
 77
     6
 78
     2
 67
     7
 79
     5
170
     0
171
     0
290
     0
174
     0
 93
        1
 44
0.0
173
     0
291
     1
 45
0.0
1001
ACAD
1000
AcDbSavedByObjectVersion
1070
     0
  0
VISUALSTYLE
  5
2C45
102
{ACAD_XDICTIONARY
360
2CC3
102
}
102
{ACAD_REACTORS
330
2C2E
102
}
330
2C2E
100
AcDbVisualStyle
  2
OverhangOff
 70
    21
 71
     2
 72
     2
 73
     0
 90
        0
 40
-0.6
 41
-30.0
 62
     5
 63
     7
421
 16777215
 74
     1
 91
        4
 64
     7
 65
   257
 75
     1
175
     1
 42
1.0
 92
        9
 66
     7
 43
1.0
 76
     1
 77
     6
 78
     2
 67
     7
 79
     5
170
     0
171
     0
290
     0
174
     0
 93
        1
 44
0.0
173
     0
291
     1
 45
0.0
1001
ACAD
1000
AcDbSavedByObjectVersion
1070
     0
  0
VISUALSTYLE
  5
2C38
102
{ACAD_XDICTIONARY
360
2CA9
102
}
102
{ACAD_REACTORS
330
2C2E
102
}
330
2C2E
100
AcDbVisualStyle
  2
Realistic
 70
     8
 71
     2
 72
     3
 73
     0
 90
        2
 40
-0.6
 41
30.0
 62
     5
 63
     7
421
 16777215
 74
     0
 91
        0
 64
     7
 65
   257
 75
     1
175
     1
 42
1.0
 92
        8
 66
   257
 43
1.0
 76
     1
 77
     6
 78
     2
 67
     7
 79
     3
170
     0
171
     0
290
     0
174
     0
 93
       13
 44
0.0
173
     0
291
     0
 45
0.0
1001
ACAD
1000
AcDbSavedByObjectVersion
1070
     0
  0
VISUALSTYLE
  5
2C43
102
{ACAD_XDICTIONARY
360
2CBF
102
}
102
{ACAD_REACTORS
330
2C2E
102
}
330
2C2E
100
AcDbVisualStyle
  2
Shaded
 70
    27
 71
     2
 72
     2
 73
     1
 90
        2
 40
-0.6
 41
30.0
 62
     5
 63
     7
421
 16777215
 74
     0
 91
        4
 64
     7
 65
   257
 75
     1
175
     1
 42
1.0
 92
        8
 66
   257
 43
1.0
 76
     1
 77
     6
 78
     2
 67
     8
425
  7895160
 79
     3
170
     0
171
     0
290
     0
174
     0
 93
        5
 44
0.0
173
     0
291
     0
 45
0.0
1001
ACAD
1000
AcDbSavedByObjectVersion
1070
     0
  0
VISUALSTYLE
  5
2C42
102
{ACAD_XDICTIONARY
360
2CBD
102
}
102
{ACAD_REACTORS
330
2C2E
102
}
330
2C2E
100
AcDbVisualStyle
  2
Shaded with edges
 70
    26
 71
     2
 72
     2
 73
     1
 90
        2
 40
-0.6
 41
30.0
 62
     5
 63
     7
421
 16777215
 74
     1
 91
       10
 64
     7
 65
   257
 75
     2
175
     1
 42
1.0
 92
        8
 66
   257
 43
1.0
 76
     1
 77
     6
 78
     2
 67
     7
 79
     3
170
     0
171
     0
290
     0
174
     0
 93
        5
 44
0.0
173
     0
291
     0
 45
0.0
1001
ACAD
1000
AcDbSavedByObjectVersion
1070
     0
  0
VISUALSTYLE
  5
2C3F
102
{ACAD_XDICTIONARY
360
2CB7
102
}
102
{ACAD_REACTORS
330
2C2E
102
}
330
2C2E
100
AcDbVisualStyle
  2
Shades of Gray
 70
    23
 71
     2
 72
     2
 73
     3
 90
        0
 40
-0.6
 41
-30.0
 62
     5
 63
     7
421
 16777215
 74
     2
 91
        2
 64
     7
 65
     7
 75
     1
175
     1
 42
40.0
 92
        8
 66
     7
 43
1.0
 76
     1
 77
     6
 78
     2
 67
     7
 79
     3
170
     0
171
     0
290
     0
174
     0
 93
        1
 44
0.0
173
     0
291
     0
 45
0.0
1001
ACAD
1000
AcDbSavedByObjectVersion
1070
     0
  0
VISUALSTYLE
  5
2C40
102
{ACAD_XDICTIONARY
360
2CB9
102
}
102
{ACAD_REACTORS
330
2C2E
102
}
330
2C2E
100
AcDbVisualStyle
  2
Sketchy
 70
    24
 71
     1
 72
     2
 73
     2
 90
        0
 40
-0.6
 41
-30.0
 62
     5
 63
     7
421
 16777215
 74
     2
 91
        2
 64
     7
 65
     7
 75
     1
175
     1
 42
40.0
 92
       11
 66
     7
 43
1.0
 76
     1
 77
     6
 78
     2
 67
     7
 79
     6
170
     0
171
     0
290
     0
174
     0
 93
        1
 44
0.0
173
     0
291
     0
 45
0.0
1001
ACAD
1000
AcDbSavedByObjectVersion
1070
     0
  0
VISUALSTYLE
  5
2C3B
102
{ACAD_XDICTIONARY
360
2CAF
102
}
102
{ACAD_REACTORS
330
2C2E
102
}
330
2C2E
100
AcDbVisualStyle
  2
Thicken
 70
    13
 71
     2
 72
     2
 73
     0
 90
        0
 40
-0.6
 41
-30.0
 62
     5
 63
     7
421
 16777215
 74
     1
 91
        4
 64
     7
 65
   257
 75
     1
175
     1
 42
1.0
 92
       12
 66
     7
 43
1.0
 76
     1
 77
     6
 78
     2
 67
     7
 79
     5
170
     0
171
     0
290
     0
174
     0
 93
        1
 44
0.0
173
     0
291
     1
 45
0.0
1001
ACAD
1000
AcDbSavedByObjectVersion
1070
     0
  0
VISUALSTYLE
  5
2C35
102
{ACAD_XDICTIONARY
360
2CA3
102
}
102
{ACAD_REACTORS
330
2C2E
102
}
330
2C2E
100
AcDbVisualStyle
  2
Wireframe
 70
     5
 71
     0
 72
     2
 73
     0
 90
        0
 40
-0.6
 41
-30.0
 62
     5
 63
     7
421
 16777215
 74
     1
 91
        4
 64
     7
 65
   257
 75
     1
175
     1
 42
1.0
 92
        0
 66
   257
 43
1.0
 76
     1
 77
     6
 78
     2
 67
     7
 79
     3
170
     0
171
     0
290
     0
174
     0
 93
        1
 44
0.0
173
     0
291
     0
 45
0.0
1001
ACAD
1000
AcDbSavedByObjectVersion
1070
     0
  0
VISUALSTYLE
  5
2C41
102
{ACAD_XDICTIONARY
360
2CBB
102
}
102
{ACAD_REACTORS
330
2C2E
102
}
330
2C2E
100
AcDbVisualStyle
  2
X-Ray
 70
    25
 71
     2
 72
     2
 73
     1
 90
        1
 40
0.5
 41
-30.0
 62
     5
 63
     7
421
 16777215
 74
     1
 91
        0
 64
     7
 65
   257
 75
     1
175
     1
 42
1.0
 92
        8
 66
     7
 43
1.0
 76
     1
 77
     6
 78
     2
 67
     7
 79
     3
170
     0
171
     0
290
     0
174
     0
 93
       13
 44
0.0
173
     0
291
     0
 45
0.0
1001
ACAD
1000
AcDbSavedByObjectVersion
1070
     0
  0
DICTIONARYVAR
  5
2C8F
102
{ACAD_REACTORS
330
1D6F
102
}
330
1D6F
100
DictionaryVariables
280
     0
  1
1:1
  0
DICTIONARYVAR
  5
2C8C
102
{ACAD_REACTORS
330
1D6F
102
}
330
1D6F
100
DictionaryVariables
280
     0
  1
STANDARD
  0
DICTIONARYVAR
  5
1D70
102
{ACAD_REACTORS
330
1D6F
102
}
330
1D6F
100
DictionaryVariables
280
     0
  1
STANDARD
  0
DICTIONARYVAR
  5
2C8D
102
{ACAD_REACTORS
330
1D6F
102
}
330
1D6F
100
DictionaryVariables
280
     0
  1
Metric50
  0
DICTIONARYVAR
  5
2C8E
102
{ACAD_REACTORS
330
1D6F
102
}
330
1D6F
100
DictionaryVariables
280
     0
  1
Metric50
  0
DICTIONARY
  5
2CCA
330
2C5E
100
AcDbDictionary
280
     1
281
     1
  3
ACAD_XREC_ROUNDTRIP
360
2CCB
  0
DICTIONARY
  5
2C1F
330
2C1E
100
AcDbDictionary
280
     1
281
     1
  3
ACAD_XREC_ROUNDTRIP
360
2C95
  3
BUMPTILE
360
2C21
  3
DIFFUSETILE
360
2C20
  3
OPACITYTILE
360
2C24
  3
REFLECTIONTILE
360
2C23
  3
REFRACTIONTILE
360
2C25
  3
SPECULARTILE
360
2C22
  0
DICTIONARY
  5
2C17
330
2C16
100
AcDbDictionary
280
     1
281
     1
  3
ACAD_XREC_ROUNDTRIP
360
2C94
  3
BUMPTILE
360
2C19
  3
DIFFUSETILE
360
2C18
  3
OPACITYTILE
360
2C1C
  3
REFLECTIONTILE
360
2C1B
  3
REFRACTIONTILE
360
2C1D
  3
SPECULARTILE
360
2C1A
  0
DICTIONARY
  5
2C27
330
2C26
100
AcDbDictionary
280
     1
281
     1
  3
ACAD_XREC_ROUNDTRIP
360
2C96
  3
BUMPTILE
360
2C29
  3
DIFFUSETILE
360
2C28
  3
OPACITYTILE
360
2C2C
  3
REFLECTIONTILE
360
2C2B
  3
REFRACTIONTILE
360
2C2D
  3
SPECULARTILE
360
2C2A
  0
DICTIONARY
  5
2CC8
330
2C5C
100
AcDbDictionary
280
     1
281
     1
  3
ACAD_XREC_ROUNDTRIP
360
2CC9
  0
DICTIONARY
  5
2C90
330
13A9
100
AcDbDictionary
280
     1
281
     1
  3
ACAD_ROUNDTRIP_2008_TABLESTYLE_CELLSTYLEMAP
360
2C91
  3
ACAD_XREC_ROUNDTRIP
360
2C93
  0
DICTIONARY
  5
2CA1
330
2C34
100
AcDbDictionary
280
     1
281
     1
  3
ACAD_XREC_ROUNDTRIP
360
2CA2
  0
DICTIONARY
  5
2C9F
330
2C33
100
AcDbDictionary
280
     1
281
     1
  3
ACAD_XREC_ROUNDTRIP
360
2CA0
  0
DICTIONARY
  5
2CAD
330
2C3A
100
AcDbDictionary
280
     1
281
     1
  3
ACAD_XREC_ROUNDTRIP
360
2CAE
  0
DICTIONARY
  5
2CB5
330
2C3E
100
AcDbDictionary
280
     1
281
     1
  3
ACAD_XREC_ROUNDTRIP
360
2CB6
  0
DICTIONARY
  5
2CA7
330
2C37
100
AcDbDictionary
280
     1
281
     1
  3
ACAD_XREC_ROUNDTRIP
360
2CA8
  0
DICTIONARY
  5
2CAB
330
2C39
100
AcDbDictionary
280
     1
281
     1
  3
ACAD_XREC_ROUNDTRIP
360
2CAC
  0
DICTIONARY
  5
2CC5
330
2C46
100
AcDbDictionary
280
     1
281
     1
  3
ACAD_XREC_ROUNDTRIP
360
2CC6
  0
DICTIONARY
  5
2CB3
330
2C3D
100
AcDbDictionary
280
     1
281
     1
  3
ACAD_XREC_ROUNDTRIP
360
2CB4
  0
DICTIONARY
  5
2C97
330
2C2F
100
AcDbDictionary
280
     1
281
     1
  3
ACAD_XREC_ROUNDTRIP
360
2C98
  0
DICTIONARY
  5
2C99
330
2C30
100
AcDbDictionary
280
     1
281
     1
  3
ACAD_XREC_ROUNDTRIP
360
2C9A
  0
DICTIONARY
  5
2C9B
330
2C31
100
AcDbDictionary
280
     1
281
     1
  3
ACAD_XREC_ROUNDTRIP
360
2C9C
  0
DICTIONARY
  5
2C9D
330
2C32
100
AcDbDictionary
280
     1
281
     1
  3
ACAD_XREC_ROUNDTRIP
360
2C9E
  0
DICTIONARY
  5
2CA5
330
2C36
100
AcDbDictionary
280
     1
281
     1
  3
ACAD_XREC_ROUNDTRIP
360
2CA6
  0
DICTIONARY
  5
2CC1
330
2C44
100
AcDbDictionary
280
     1
281
     1
  3
ACAD_XREC_ROUNDTRIP
360
2CC2
  0
DICTIONARY
  5
2CB1
330
2C3C
100
AcDbDictionary
280
     1
281
     1
  3
ACAD_XREC_ROUNDTRIP
360
2CB2
  0
DICTIONARY
  5
2CC3
330
2C45
100
AcDbDictionary
280
     1
281
     1
  3
ACAD_XREC_ROUNDTRIP
360
2CC4
  0
DICTIONARY
  5
2CA9
330
2C38
100
AcDbDictionary
280
     1
281
     1
  3
ACAD_XREC_ROUNDTRIP
360
2CAA
  0
DICTIONARY
  5
2CBF
330
2C43
100
AcDbDictionary
280
     1
281
     1
  3
ACAD_XREC_ROUNDTRIP
360
2CC0
  0
DICTIONARY
  5
2CBD
330
2C42
100
AcDbDictionary
280
     1
281
     1
  3
ACAD_XREC_ROUNDTRIP
360
2CBE
  0
DICTIONARY
  5
2CB7
330
2C3F
100
AcDbDictionary
280
     1
281
     1
  3
ACAD_XREC_ROUNDTRIP
360
2CB8
  0
DICTIONARY
  5
2CB9
330
2C40
100
AcDbDictionary
280
     1
281
     1
  3
ACAD_XREC_ROUNDTRIP
360
2CBA
  0
DICTIONARY
  5
2CAF
330
2C3B
100
AcDbDictionary
280
     1
281
     1
  3
ACAD_XREC_ROUNDTRIP
360
2CB0
  0
DICTIONARY
  5
2CA3
330
2C35
100
AcDbDictionary
280
     1
281
     1
  3
ACAD_XREC_ROUNDTRIP
360
2CA4
  0
DICTIONARY
  5
2CBB
330
2C41
100
AcDbDictionary
280
     1
281
     1
  3
ACAD_XREC_ROUNDTRIP
360
2CBC
  0
XRECORD
  5
2CCB
102
{ACAD_REACTORS
330
2CCA
102
}
330
2CCA
100
AcDbXrecord
280
     1
102
DISPLAYNAME
  1
Metric50
102
FLAGS
 90
        0
  0
XRECORD
  5
2C95
102
{ACAD_REACTORS
330
2C1F
102
}
330
2C1F
100
AcDbXrecord
280
     1
102
MATERIAL
148
0.0
149
0.0
149
0.0
 93
        0
 94
      127
282
     0
 72
     0
 77
     0
171
     0
175
     0
179
     0
273
     0
  0
XRECORD
  5
2C21
102
{ACAD_REACTORS
330
2C1F
102
}
330
2C1F
100
AcDbXrecord
280
     1
270
     1
271
     1
  0
XRECORD
  5
2C20
102
{ACAD_REACTORS
330
2C1F
102
}
330
2C1F
100
AcDbXrecord
280
     1
270
     1
271
     1
  0
XRECORD
  5
2C24
102
{ACAD_REACTORS
330
2C1F
102
}
330
2C1F
100
AcDbXrecord
280
     1
270
     1
271
     1
  0
XRECORD
  5
2C23
102
{ACAD_REACTORS
330
2C1F
102
}
330
2C1F
100
AcDbXrecord
280
     1
270
     1
271
     1
  0
XRECORD
  5
2C25
102
{ACAD_REACTORS
330
2C1F
102
}
330
2C1F
100
AcDbXrecord
280
     1
270
     1
271
     1
  0
XRECORD
  5
2C22
102
{ACAD_REACTORS
330
2C1F
102
}
330
2C1F
100
AcDbXrecord
280
     1
270
     1
271
     1
  0
XRECORD
  5
2C94
102
{ACAD_REACTORS
330
2C17
102
}
330
2C17
100
AcDbXrecord
280
     1
102
MATERIAL
148
0.0
149
0.0
149
0.0
 93
        0
 94
      127
282
     0
 72
     0
 77
     0
171
     0
175
     0
179
     0
273
     0
  0
XRECORD
  5
2C19
102
{ACAD_REACTORS
330
2C17
102
}
330
2C17
100
AcDbXrecord
280
     1
270
     1
271
     1
  0
XRECORD
  5
2C18
102
{ACAD_REACTORS
330
2C17
102
}
330
2C17
100
AcDbXrecord
280
     1
270
     1
271
     1
  0
XRECORD
  5
2C1C
102
{ACAD_REACTORS
330
2C17
102
}
330
2C17
100
AcDbXrecord
280
     1
270
     1
271
     1
  0
XRECORD
  5
2C1B
102
{ACAD_REACTORS
330
2C17
102
}
330
2C17
100
AcDbXrecord
280
     1
270
     1
271
     1
  0
XRECORD
  5
2C1D
102
{ACAD_REACTORS
330
2C17
102
}
330
2C17
100
AcDbXrecord
280
     1
270
     1
271
     1
  0
XRECORD
  5
2C1A
102
{ACAD_REACTORS
330
2C17
102
}
330
2C17
100
AcDbXrecord
280
     1
270
     1
271
     1
  0
XRECORD
  5
2C96
102
{ACAD_REACTORS
330
2C27
102
}
330
2C27
100
AcDbXrecord
280
     1
102
MATERIAL
148
0.0
149
0.0
149
0.0
 93
        0
 94
      127
282
     0
 72
     0
 77
     0
171
     0
175
     0
179
     0
273
     0
  0
XRECORD
  5
2C29
102
{ACAD_REACTORS
330
2C27
102
}
330
2C27
100
AcDbXrecord
280
     1
270
     1
271
     1
  0
XRECORD
  5
2C28
102
{ACAD_REACTORS
330
2C27
102
}
330
2C27
100
AcDbXrecord
280
     1
270
     1
271
     1
  0
XRECORD
  5
2C2C
102
{ACAD_REACTORS
330
2C27
102
}
330
2C27
100
AcDbXrecord
280
     1
270
     1
271
     1
  0
XRECORD
  5
2C2B
102
{ACAD_REACTORS
330
2C27
102
}
330
2C27
100
AcDbXrecord
280
     1
270
     1
271
     1
  0
XRECORD
  5
2C2D
102
{ACAD_REACTORS
330
2C27
102
}
330
2C27
100
AcDbXrecord
280
     1
270
     1
271
     1
  0
XRECORD
  5
2C2A
102
{ACAD_REACTORS
330
2C27
102
}
330
2C27
100
AcDbXrecord
280
     1
270
     1
271
     1
  0
XRECORD
  5
2CC9
102
{ACAD_REACTORS
330
2CC8
102
}
330
2CC8
100
AcDbXrecord
280
     1
102
DISPLAYNAME
  1
Metric50
102
FLAGS
 90
        0
  0
CELLSTYLEMAP
  5
2C91
102
{ACAD_REACTORS
330
2C90
102
}
330
2C90
100
AcDbCellStyleMap
 90
        3
300
CELLSTYLE
  1
TABLEFORMAT_BEGIN
 90
        5
170
     1
 91
        0
 92
    32768
 62
   257
 93
        1
300
CONTENTFORMAT
  1
CONTENTFORMAT_BEGIN
 90
        0
 91
        0
 92
        4
 93
        0
300

 40
0.0
140
1.0
 94
        5
 62
     0
340
F
144
6.0
309
CONTENTFORMAT_END
171
     1
301
MARGIN
  1
CELLMARGIN_BEGIN
 40
1.5
 40
1.5
 40
1.5
 40
1.5
 40
0.18
 40
0.18
309
CELLMARGIN_END
 94
        6
 95
        1
302
GRIDFORMAT
  1
GRIDFORMAT_BEGIN
 90
        0
 91
        1
 62
     0
 92
       -2
340
0
 93
        0
 40
0.045
309
GRIDFORMAT_END
 95
        2
302
GRIDFORMAT
  1
GRIDFORMAT_BEGIN
 90
        0
 91
        1
 62
     0
 92
       -2
340
0
 93
        0
 40
0.045
309
GRIDFORMAT_END
 95
        4
302
GRIDFORMAT
  1
GRIDFORMAT_BEGIN
 90
        0
 91
        1
 62
     0
 92
       -2
340
0
 93
        0
 40
0.045
309
GRIDFORMAT_END
 95
        8
302
GRIDFORMAT
  1
GRIDFORMAT_BEGIN
 90
        0
 91
        1
 62
     0
 92
       -2
340
0
 93
        0
 40
0.045
309
GRIDFORMAT_END
 95
       16
302
GRIDFORMAT
  1
GRIDFORMAT_BEGIN
 90
        0
 91
        1
 62
     0
 92
       -2
340
0
 93
        0
 40
0.045
309
GRIDFORMAT_END
 95
       32
302
GRIDFORMAT
  1
GRIDFORMAT_BEGIN
 90
        0
 91
        1
 62
     0
 92
       -2
340
0
 93
        0
 40
0.045
309
GRIDFORMAT_END
309
TABLEFORMAT_END
  1
CELLSTYLE_BEGIN
 90
        1
 91
        1
300
_TITLE
309
CELLSTYLE_END
300
CELLSTYLE
  1
TABLEFORMAT_BEGIN
 90
        5
170
     1
 91
        0
 92
        0
 62
   257
 93
        1
300
CONTENTFORMAT
  1
CONTENTFORMAT_BEGIN
 90
        0
 91
        0
 92
        4
 93
        0
300

 40
0.0
140
1.0
 94
        5
 62
     0
340
F
144
4.5
309
CONTENTFORMAT_END
171
     1
301
MARGIN
  1
CELLMARGIN_BEGIN
 40
1.5
 40
1.5
 40
1.5
 40
1.5
 40
0.18
 40
0.18
309
CELLMARGIN_END
 94
        6
 95
        1
302
GRIDFORMAT
  1
GRIDFORMAT_BEGIN
 90
        0
 91
        1
 62
     0
 92
       -2
340
0
 93
        0
 40
0.045
309
GRIDFORMAT_END
 95
        2
302
GRIDFORMAT
  1
GRIDFORMAT_BEGIN
 90
        0
 91
        1
 62
     0
 92
       -2
340
0
 93
        0
 40
0.045
309
GRIDFORMAT_END
 95
        4
302
GRIDFORMAT
  1
GRIDFORMAT_BEGIN
 90
        0
 91
        1
 62
     0
 92
       -2
340
0
 93
        0
 40
0.045
309
GRIDFORMAT_END
 95
        8
302
GRIDFORMAT
  1
GRIDFORMAT_BEGIN
 90
        0
 91
        1
 62
     0
 92
       -2
340
0
 93
        0
 40
0.045
309
GRIDFORMAT_END
 95
       16
302
GRIDFORMAT
  1
GRIDFORMAT_BEGIN
 90
        0
 91
        1
 62
     0
 92
       -2
340
0
 93
        0
 40
0.045
309
GRIDFORMAT_END
 95
       32
302
GRIDFORMAT
  1
GRIDFORMAT_BEGIN
 90
        0
 91
        1
 62
     0
 92
       -2
340
0
 93
        0
 40
0.045
309
GRIDFORMAT_END
309
TABLEFORMAT_END
  1
CELLSTYLE_BEGIN
 90
        2
 91
        1
300
_HEADER
309
CELLSTYLE_END
300
CELLSTYLE
  1
TABLEFORMAT_BEGIN
 90
        5
170
     1
 91
        0
 92
        0
 62
   257
 93
        1
300
CONTENTFORMAT
  1
CONTENTFORMAT_BEGIN
 90
        0
 91
        0
 92
        4
 93
        0
300

 40
0.0
140
1.0
 94
        2
 62
     0
340
F
144
4.5
309
CONTENTFORMAT_END
171
     1
301
MARGIN
  1
CELLMARGIN_BEGIN
 40
1.5
 40
1.5
 40
1.5
 40
1.5
 40
0.18
 40
0.18
309
CELLMARGIN_END
 94
        6
 95
        1
302
GRIDFORMAT
  1
GRIDFORMAT_BEGIN
 90
        0
 91
        1
 62
     0
 92
       -2
340
0
 93
        0
 40
0.045
309
GRIDFORMAT_END
 95
        2
302
GRIDFORMAT
  1
GRIDFORMAT_BEGIN
 90
        0
 91
        1
 62
     0
 92
       -2
340
0
 93
        0
 40
0.045
309
GRIDFORMAT_END
 95
        4
302
GRIDFORMAT
  1
GRIDFORMAT_BEGIN
 90
        0
 91
        1
 62
     0
 92
       -2
340
0
 93
        0
 40
0.045
309
GRIDFORMAT_END
 95
        8
302
GRIDFORMAT
  1
GRIDFORMAT_BEGIN
 90
        0
 91
        1
 62
     0
 92
       -2
340
0
 93
        0
 40
0.045
309
GRIDFORMAT_END
 95
       16
302
GRIDFORMAT
  1
GRIDFORMAT_BEGIN
 90
        0
 91
        1
 62
     0
 92
       -2
340
0
 93
        0
 40
0.045
309
GRIDFORMAT_END
 95
       32
302
GRIDFORMAT
  1
GRIDFORMAT_BEGIN
 90
        0
 91
        1
 62
     0
 92
       -2
340
0
 93
        0
 40
0.045
309
GRIDFORMAT_END
309
TABLEFORMAT_END
  1
CELLSTYLE_BEGIN
 90
        3
 91
        2
300
_DATA
309
CELLSTYLE_END
  0
XRECORD
  5
2C93
102
{ACAD_REACTORS
330
2C90
102
}
330
2C90
100
AcDbXrecord
280
     1
102
ACAD_ROUNDTRIP_PRE2007_TABLESTYLE
 90
        4
 91
        0
  1

 92
        4
 93
        0
  2

 94
        4
 95
        0
  3

  0
XRECORD
  5
2CA2
102
{ACAD_REACTORS
330
2CA1
102
}
330
2CA1
100
AcDbXrecord
280
     1
102
RTVSPost2010Prop28
280
     1
102
RTVSPost2010PropOp28
 70
     1
102
RTVSPost2010Prop29
280
     1
102
RTVSPost2010PropOp29
 70
     1
102
RTVSPost2010Prop30
280
     0
102
RTVSPost2010PropOp30
 70
     1
102
RTVSPost2010Prop31
280
     0
102
RTVSPost2010PropOp31
 70
     1
102
RTVSPost2010Prop32
280
     0
102
RTVSPost2010PropOp32
 70
     1
102
RTVSPost2010Prop33
280
     0
102
RTVSPost2010PropOp33
 70
     1
102
RTVSPost2010Prop34
280
     0
102
RTVSPost2010PropOp34
 70
     1
102
RTVSPost2010Prop35
280
     0
102
RTVSPost2010PropOp35
 70
     1
102
RTVSPost2010Prop36
280
     0
102
RTVSPost2010PropOp36
 70
     1
102
RTVSPost2010Prop37
 90
       50
102
RTVSPost2010PropOp37
 70
     1
102
RTVSPost2010Prop38
140
0.0
102
RTVSPost2010PropOp38
 70
     1
102
RTVSPost2010Prop39
140
1.0
102
RTVSPost2010PropOp39
 70
     1
102
RTVSPost2010Prop40
 90
        0
102
RTVSPost2010PropOp40
 70
     1
102
RTVSPost2010Prop41ColorIndex
 90
       18
102
RTVSPost2010Prop41ColorRGB
 90
        0
102
RTVSPost2010PropOp41
 70
     1
102
RTVSPost2010Prop42
 90
       50
102
RTVSPost2010PropOp42
 70
     1
102
RTVSPost2010Prop43
 90
        3
102
RTVSPost2010PropOp43
 70
     1
102
RTVSPost2010Prop44ColorIndex
 90
        5
102
RTVSPost2010Prop44ColorRGB
 90
      255
102
RTVSPost2010PropOp44
 70
     1
102
RTVSPost2010Prop45
280
     0
102
RTVSPost2010PropOp45
 70
     1
102
RTVSPost2010Prop46
 90
       50
102
RTVSPost2010PropOp46
 70
     1
102
RTVSPost2010Prop47
 90
       50
102
RTVSPost2010PropOp47
 70
     1
102
RTVSPost2010Prop48
 90
       50
102
RTVSPost2010PropOp48
 70
     1
102
RTVSPost2010Prop49
280
     0
102
RTVSPost2010PropOp49
 70
     1
102
RTVSPost2010Prop50
 90
       50
102
RTVSPost2010PropOp50
 70
     1
102
RTVSPost2010Prop51ColorIndex
 90
      256
102
RTVSPost2010Prop51ColorRGB
 90
-16777216
102
RTVSPost2010PropOp51
 70
     0
102
RTVSPost2010Prop52
140
1.0
102
RTVSPost2010PropOp52
 70
     0
102
RTVSPost2010Prop53
 90
        2
102
RTVSPost2010PropOp53
 70
     1
102
RTVSPost2010Prop54
  1
strokes_ogs.tif
102
RTVSPost2010PropOp54
 70
     1
102
RTVSPost2010Prop55
280
     0
102
RTVSPost2010PropOp55
 70
     1
102
RTVSPost2010Prop56
140
1.0
102
RTVSPost2010PropOp56
 70
     1
102
RTVSPost2010Prop57
140
1.0
102
RTVSPost2010PropOp57
 70
     1
102
RTVSPropertyOp0
 70
     1
102
RTVSPropertyOp1
 70
     1
102
RTVSPropertyOp2
 70
     1
102
RTVSPropertyOp3
 70
     1
102
RTVSPropertyOp4
 70
     1
102
RTVSPropertyOp5
 70
     1
102
RTVSPropertyOp6
 70
     1
102
RTVSPropertyOp7
 70
     1
102
RTVSPropertyOp8
 70
     1
102
RTVSPropertyOp9
 70
     1
102
RTVSPropertyOp10
 70
     1
102
RTVSPropertyOp11
 70
     1
102
RTVSPropertyOp12
 70
     1
102
RTVSPropertyOp13
 70
     1
102
RTVSPropertyOp14
 70
     1
102
RTVSPropertyOp15
 70
     1
102
RTVSPropertyOp16
 70
     1
102
RTVSPropertyOp17
 70
     1
102
RTVSPropertyOp18
 70
     1
102
RTVSPropertyOp19
 70
     1
102
RTVSPropertyOp20
 70
     1
102
RTVSPropertyOp21
 70
     1
102
RTVSPropertyOp22
 70
     1
102
RTVSPropertyOp23
 70
     1
102
RTVSPropertyOp24
 70
     1
102
RTVSPropertyOp25
 70
     1
102
RTVSPropertyOp26
 70
     1
102
RTVSPropertyOp27
 70
     1
102
RTVSPropertyOp28
 70
     1
102
RTVSPropertyOp29
 70
     1
102
RTVSPropertyOp30
 70
     1
102
RTVSPropertyOp31
 70
     1
102
RTVSPropertyOp32
 70
     1
102
RTVSPropertyOp33
 70
     1
102
RTVSPropertyOp34
 70
     1
102
RTVSPropertyOp35
 70
     1
102
RTVSPropertyOp36
 70
     1
102
RTVSPropertyOp37
 70
     1
102
RTVSPropertyOp38
 70
     1
102
RTVSPropertyOp39
 70
     1
102
RTVSPropertyOp40
 70
     1
102
RTVSPropertyOp41
 70
     1
102
RTVSPropertyOp42
 70
     1
102
RTVSPropertyOp43
 70
     1
102
RTVSPropertyOp44
 70
     1
102
RTVSPropertyOp45
 70
     1
102
RTVSPropertyOp46
 70
     1
102
RTVSPropertyOp47
 70
     1
102
RTVSPropertyOp48
 70
     1
102
RTVSPropertyOp49
 70
     1
102
RTVSPropertyOp50
 70
     1
102
RTVSPropertyOp51
 70
     0
102
RTVSPropertyOp52
 70
     0
102
RTVSPropertyOp53
 70
     1
102
RTVSPropertyOp54
 70
     1
102
RTVSPropertyOp55
 70
     1
102
RTVSPropertyOp56
 70
     1
102
RTVSPropertyOp57
 70
     1
102
RTVSPropertyOp58
 70
     1
102
RTVSPropertyOp59
 70
     1
102
RTVSPropertyOp60
 70
     1
102
RTVSPropertyOp61
 70
     1
102
RTVSPropertyOp62
 70
     1
  0
XRECORD
  5
2CA0
102
{ACAD_REACTORS
330
2C9F
102
}
330
2C9F
100
AcDbXrecord
280
     1
102
RTVSPost2010Prop28
280
     0
102
RTVSPost2010PropOp28
 70
     1
102
RTVSPost2010Prop29
280
     1
102
RTVSPost2010PropOp29
 70
     1
102
RTVSPost2010Prop30
280
     1
102
RTVSPost2010PropOp30
 70
     1
102
RTVSPost2010Prop31
280
     0
102
RTVSPost2010PropOp31
 70
     1
102
RTVSPost2010Prop32
280
     0
102
RTVSPost2010PropOp32
 70
     1
102
RTVSPost2010Prop33
280
     0
102
RTVSPost2010PropOp33
 70
     1
102
RTVSPost2010Prop34
280
     0
102
RTVSPost2010PropOp34
 70
     1
102
RTVSPost2010Prop35
280
     0
102
RTVSPost2010PropOp35
 70
     1
102
RTVSPost2010Prop36
280
     0
102
RTVSPost2010PropOp36
 70
     1
102
RTVSPost2010Prop37
 90
       50
102
RTVSPost2010PropOp37
 70
     1
102
RTVSPost2010Prop38
140
0.0
102
RTVSPost2010PropOp38
 70
     1
102
RTVSPost2010Prop39
140
1.0
102
RTVSPost2010PropOp39
 70
     1
102
RTVSPost2010Prop40
 90
        0
102
RTVSPost2010PropOp40
 70
     1
102
RTVSPost2010Prop41ColorIndex
 90
       18
102
RTVSPost2010Prop41ColorRGB
 90
        0
102
RTVSPost2010PropOp41
 70
     1
102
RTVSPost2010Prop42
 90
       50
102
RTVSPost2010PropOp42
 70
     1
102
RTVSPost2010Prop43
 90
        3
102
RTVSPost2010PropOp43
 70
     1
102
RTVSPost2010Prop44ColorIndex
 90
        5
102
RTVSPost2010Prop44ColorRGB
 90
      255
102
RTVSPost2010PropOp44
 70
     1
102
RTVSPost2010Prop45
280
     0
102
RTVSPost2010PropOp45
 70
     1
102
RTVSPost2010Prop46
 90
       50
102
RTVSPost2010PropOp46
 70
     1
102
RTVSPost2010Prop47
 90
       50
102
RTVSPost2010PropOp47
 70
     1
102
RTVSPost2010Prop48
 90
       50
102
RTVSPost2010PropOp48
 70
     1
102
RTVSPost2010Prop49
280
     0
102
RTVSPost2010PropOp49
 70
     1
102
RTVSPost2010Prop50
 90
       50
102
RTVSPost2010PropOp50
 70
     1
102
RTVSPost2010Prop51ColorIndex
 90
      256
102
RTVSPost2010Prop51ColorRGB
 90
-16777216
102
RTVSPost2010PropOp51
 70
     0
102
RTVSPost2010Prop52
140
1.0
102
RTVSPost2010PropOp52
 70
     0
102
RTVSPost2010Prop53
 90
        2
102
RTVSPost2010PropOp53
 70
     1
102
RTVSPost2010Prop54
  1
strokes_ogs.tif
102
RTVSPost2010PropOp54
 70
     1
102
RTVSPost2010Prop55
280
     0
102
RTVSPost2010PropOp55
 70
     1
102
RTVSPost2010Prop56
140
1.0
102
RTVSPost2010PropOp56
 70
     1
102
RTVSPost2010Prop57
140
1.0
102
RTVSPost2010PropOp57
 70
     1
102
RTVSPropertyOp0
 70
     1
102
RTVSPropertyOp1
 70
     1
102
RTVSPropertyOp2
 70
     1
102
RTVSPropertyOp3
 70
     1
102
RTVSPropertyOp4
 70
     1
102
RTVSPropertyOp5
 70
     1
102
RTVSPropertyOp6
 70
     1
102
RTVSPropertyOp7
 70
     1
102
RTVSPropertyOp8
 70
     1
102
RTVSPropertyOp9
 70
     1
102
RTVSPropertyOp10
 70
     1
102
RTVSPropertyOp11
 70
     1
102
RTVSPropertyOp12
 70
     1
102
RTVSPropertyOp13
 70
     1
102
RTVSPropertyOp14
 70
     1
102
RTVSPropertyOp15
 70
     1
102
RTVSPropertyOp16
 70
     1
102
RTVSPropertyOp17
 70
     1
102
RTVSPropertyOp18
 70
     1
102
RTVSPropertyOp19
 70
     1
102
RTVSPropertyOp20
 70
     1
102
RTVSPropertyOp21
 70
     1
102
RTVSPropertyOp22
 70
     1
102
RTVSPropertyOp23
 70
     1
102
RTVSPropertyOp24
 70
     1
102
RTVSPropertyOp25
 70
     1
102
RTVSPropertyOp26
 70
     1
102
RTVSPropertyOp27
 70
     1
102
RTVSPropertyOp28
 70
     1
102
RTVSPropertyOp29
 70
     1
102
RTVSPropertyOp30
 70
     1
102
RTVSPropertyOp31
 70
     1
102
RTVSPropertyOp32
 70
     1
102
RTVSPropertyOp33
 70
     1
102
RTVSPropertyOp34
 70
     1
102
RTVSPropertyOp35
 70
     1
102
RTVSPropertyOp36
 70
     1
102
RTVSPropertyOp37
 70
     1
102
RTVSPropertyOp38
 70
     1
102
RTVSPropertyOp39
 70
     1
102
RTVSPropertyOp40
 70
     1
102
RTVSPropertyOp41
 70
     1
102
RTVSPropertyOp42
 70
     1
102
RTVSPropertyOp43
 70
     1
102
RTVSPropertyOp44
 70
     1
102
RTVSPropertyOp45
 70
     1
102
RTVSPropertyOp46
 70
     1
102
RTVSPropertyOp47
 70
     1
102
RTVSPropertyOp48
 70
     1
102
RTVSPropertyOp49
 70
     1
102
RTVSPropertyOp50
 70
     1
102
RTVSPropertyOp51
 70
     0
102
RTVSPropertyOp52
 70
     0
102
RTVSPropertyOp53
 70
     1
102
RTVSPropertyOp54
 70
     1
102
RTVSPropertyOp55
 70
     1
102
RTVSPropertyOp56
 70
     1
102
RTVSPropertyOp57
 70
     1
102
RTVSPropertyOp58
 70
     1
102
RTVSPropertyOp59
 70
     1
102
RTVSPropertyOp60
 70
     1
102
RTVSPropertyOp61
 70
     1
102
RTVSPropertyOp62
 70
     1
  0
XRECORD
  5
2CAE
102
{ACAD_REACTORS
330
2CAD
102
}
330
2CAD
100
AcDbXrecord
280
     1
102
RTVSPost2010Prop28
280
     0
102
RTVSPost2010PropOp28
 70
     1
102
RTVSPost2010Prop29
280
     1
102
RTVSPost2010PropOp29
 70
     1
102
RTVSPost2010Prop30
280
     1
102
RTVSPost2010PropOp30
 70
     1
102
RTVSPost2010Prop31
280
     0
102
RTVSPost2010PropOp31
 70
     1
102
RTVSPost2010Prop32
280
     0
102
RTVSPost2010PropOp32
 70
     1
102
RTVSPost2010Prop33
280
     0
102
RTVSPost2010PropOp33
 70
     1
102
RTVSPost2010Prop34
280
     0
102
RTVSPost2010PropOp34
 70
     1
102
RTVSPost2010Prop35
280
     0
102
RTVSPost2010PropOp35
 70
     1
102
RTVSPost2010Prop36
280
     0
102
RTVSPost2010PropOp36
 70
     1
102
RTVSPost2010Prop37
 90
       50
102
RTVSPost2010PropOp37
 70
     1
102
RTVSPost2010Prop38
140
0.0
102
RTVSPost2010PropOp38
 70
     1
102
RTVSPost2010Prop39
140
1.0
102
RTVSPost2010PropOp39
 70
     1
102
RTVSPost2010Prop40
 90
        0
102
RTVSPost2010PropOp40
 70
     1
102
RTVSPost2010Prop41ColorIndex
 90
       18
102
RTVSPost2010Prop41ColorRGB
 90
        0
102
RTVSPost2010PropOp41
 70
     1
102
RTVSPost2010Prop42
 90
       50
102
RTVSPost2010PropOp42
 70
     1
102
RTVSPost2010Prop43
 90
        3
102
RTVSPost2010PropOp43
 70
     1
102
RTVSPost2010Prop44ColorIndex
 90
        5
102
RTVSPost2010Prop44ColorRGB
 90
      255
102
RTVSPost2010PropOp44
 70
     1
102
RTVSPost2010Prop45
280
     0
102
RTVSPost2010PropOp45
 70
     1
102
RTVSPost2010Prop46
 90
       50
102
RTVSPost2010PropOp46
 70
     1
102
RTVSPost2010Prop47
 90
       50
102
RTVSPost2010PropOp47
 70
     1
102
RTVSPost2010Prop48
 90
       50
102
RTVSPost2010PropOp48
 70
     1
102
RTVSPost2010Prop49
280
     0
102
RTVSPost2010PropOp49
 70
     1
102
RTVSPost2010Prop50
 90
       50
102
RTVSPost2010PropOp50
 70
     1
102
RTVSPost2010Prop51ColorIndex
 90
      256
102
RTVSPost2010Prop51ColorRGB
 90
-16777216
102
RTVSPost2010PropOp51
 70
     0
102
RTVSPost2010Prop52
140
1.0
102
RTVSPost2010PropOp52
 70
     0
102
RTVSPost2010Prop53
 90
        2
102
RTVSPost2010PropOp53
 70
     1
102
RTVSPost2010Prop54
  1
strokes_ogs.tif
102
RTVSPost2010PropOp54
 70
     1
102
RTVSPost2010Prop55
280
     0
102
RTVSPost2010PropOp55
 70
     1
102
RTVSPost2010Prop56
140
1.0
102
RTVSPost2010PropOp56
 70
     1
102
RTVSPost2010Prop57
140
1.0
102
RTVSPost2010PropOp57
 70
     1
102
RTVSPropertyOp0
 70
     1
102
RTVSPropertyOp1
 70
     1
102
RTVSPropertyOp2
 70
     1
102
RTVSPropertyOp3
 70
     1
102
RTVSPropertyOp4
 70
     1
102
RTVSPropertyOp5
 70
     1
102
RTVSPropertyOp6
 70
     1
102
RTVSPropertyOp7
 70
     1
102
RTVSPropertyOp8
 70
     1
102
RTVSPropertyOp9
 70
     1
102
RTVSPropertyOp10
 70
     1
102
RTVSPropertyOp11
 70
     1
102
RTVSPropertyOp12
 70
     1
102
RTVSPropertyOp13
 70
     1
102
RTVSPropertyOp14
 70
     1
102
RTVSPropertyOp15
 70
     1
102
RTVSPropertyOp16
 70
     1
102
RTVSPropertyOp17
 70
     1
102
RTVSPropertyOp18
 70
     1
102
RTVSPropertyOp19
 70
     1
102
RTVSPropertyOp20
 70
     1
102
RTVSPropertyOp21
 70
     1
102
RTVSPropertyOp22
 70
     1
102
RTVSPropertyOp23
 70
     1
102
RTVSPropertyOp24
 70
     1
102
RTVSPropertyOp25
 70
     1
102
RTVSPropertyOp26
 70
     1
102
RTVSPropertyOp27
 70
     1
102
RTVSPropertyOp28
 70
     1
102
RTVSPropertyOp29
 70
     1
102
RTVSPropertyOp30
 70
     1
102
RTVSPropertyOp31
 70
     1
102
RTVSPropertyOp32
 70
     1
102
RTVSPropertyOp33
 70
     1
102
RTVSPropertyOp34
 70
     1
102
RTVSPropertyOp35
 70
     1
102
RTVSPropertyOp36
 70
     1
102
RTVSPropertyOp37
 70
     1
102
RTVSPropertyOp38
 70
     1
102
RTVSPropertyOp39
 70
     1
102
RTVSPropertyOp40
 70
     1
102
RTVSPropertyOp41
 70
     1
102
RTVSPropertyOp42
 70
     1
102
RTVSPropertyOp43
 70
     1
102
RTVSPropertyOp44
 70
     1
102
RTVSPropertyOp45
 70
     1
102
RTVSPropertyOp46
 70
     1
102
RTVSPropertyOp47
 70
     1
102
RTVSPropertyOp48
 70
     1
102
RTVSPropertyOp49
 70
     1
102
RTVSPropertyOp50
 70
     1
102
RTVSPropertyOp51
 70
     0
102
RTVSPropertyOp52
 70
     0
102
RTVSPropertyOp53
 70
     1
102
RTVSPropertyOp54
 70
     1
102
RTVSPropertyOp55
 70
     1
102
RTVSPropertyOp56
 70
     1
102
RTVSPropertyOp57
 70
     1
102
RTVSPropertyOp58
 70
     1
102
RTVSPropertyOp59
 70
     1
102
RTVSPropertyOp60
 70
     1
102
RTVSPropertyOp61
 70
     1
102
RTVSPropertyOp62
 70
     1
  0
XRECORD
  5
2CB6
102
{ACAD_REACTORS
330
2CB5
102
}
330
2CB5
100
AcDbXrecord
280
     1
102
RTVSPost2010Prop28
280
     0
102
RTVSPost2010PropOp28
 70
     1
102
RTVSPost2010Prop29
280
     1
102
RTVSPost2010PropOp29
 70
     1
102
RTVSPost2010Prop30
280
     1
102
RTVSPost2010PropOp30
 70
     1
102
RTVSPost2010Prop31
280
     0
102
RTVSPost2010PropOp31
 70
     1
102
RTVSPost2010Prop32
280
     0
102
RTVSPost2010PropOp32
 70
     1
102
RTVSPost2010Prop33
280
     0
102
RTVSPost2010PropOp33
 70
     1
102
RTVSPost2010Prop34
280
     0
102
RTVSPost2010PropOp34
 70
     1
102
RTVSPost2010Prop35
280
     0
102
RTVSPost2010PropOp35
 70
     1
102
RTVSPost2010Prop36
280
     0
102
RTVSPost2010PropOp36
 70
     1
102
RTVSPost2010Prop37
 90
       50
102
RTVSPost2010PropOp37
 70
     1
102
RTVSPost2010Prop38
140
0.0
102
RTVSPost2010PropOp38
 70
     1
102
RTVSPost2010Prop39
140
1.0
102
RTVSPost2010PropOp39
 70
     1
102
RTVSPost2010Prop40
 90
        0
102
RTVSPost2010PropOp40
 70
     1
102
RTVSPost2010Prop41ColorIndex
 90
       18
102
RTVSPost2010Prop41ColorRGB
 90
        0
102
RTVSPost2010PropOp41
 70
     1
102
RTVSPost2010Prop42
 90
       50
102
RTVSPost2010PropOp42
 70
     1
102
RTVSPost2010Prop43
 90
        3
102
RTVSPost2010PropOp43
 70
     1
102
RTVSPost2010Prop44ColorIndex
 90
        5
102
RTVSPost2010Prop44ColorRGB
 90
      255
102
RTVSPost2010PropOp44
 70
     1
102
RTVSPost2010Prop45
280
     0
102
RTVSPost2010PropOp45
 70
     1
102
RTVSPost2010Prop46
 90
       50
102
RTVSPost2010PropOp46
 70
     1
102
RTVSPost2010Prop47
 90
       50
102
RTVSPost2010PropOp47
 70
     1
102
RTVSPost2010Prop48
 90
       50
102
RTVSPost2010PropOp48
 70
     1
102
RTVSPost2010Prop49
280
     0
102
RTVSPost2010PropOp49
 70
     1
102
RTVSPost2010Prop50
 90
       50
102
RTVSPost2010PropOp50
 70
     1
102
RTVSPost2010Prop51ColorIndex
 90
      256
102
RTVSPost2010Prop51ColorRGB
 90
-16777216
102
RTVSPost2010PropOp51
 70
     0
102
RTVSPost2010Prop52
140
1.0
102
RTVSPost2010PropOp52
 70
     0
102
RTVSPost2010Prop53
 90
        2
102
RTVSPost2010PropOp53
 70
     1
102
RTVSPost2010Prop54
  1
strokes_ogs.tif
102
RTVSPost2010PropOp54
 70
     1
102
RTVSPost2010Prop55
280
     0
102
RTVSPost2010PropOp55
 70
     1
102
RTVSPost2010Prop56
140
1.0
102
RTVSPost2010PropOp56
 70
     1
102
RTVSPost2010Prop57
140
1.0
102
RTVSPost2010PropOp57
 70
     1
102
RTVSPropertyOp0
 70
     1
102
RTVSPropertyOp1
 70
     1
102
RTVSPropertyOp2
 70
     1
102
RTVSPropertyOp3
 70
     1
102
RTVSPropertyOp4
 70
     1
102
RTVSPropertyOp5
 70
     1
102
RTVSPropertyOp6
 70
     1
102
RTVSPropertyOp7
 70
     1
102
RTVSPropertyOp8
 70
     1
102
RTVSPropertyOp9
 70
     1
102
RTVSPropertyOp10
 70
     1
102
RTVSPropertyOp11
 70
     1
102
RTVSPropertyOp12
 70
     1
102
RTVSPropertyOp13
 70
     1
102
RTVSPropertyOp14
 70
     1
102
RTVSPropertyOp15
 70
     1
102
RTVSPropertyOp16
 70
     1
102
RTVSPropertyOp17
 70
     1
102
RTVSPropertyOp18
 70
     1
102
RTVSPropertyOp19
 70
     1
102
RTVSPropertyOp20
 70
     1
102
RTVSPropertyOp21
 70
     1
102
RTVSPropertyOp22
 70
     1
102
RTVSPropertyOp23
 70
     1
102
RTVSPropertyOp24
 70
     1
102
RTVSPropertyOp25
 70
     1
102
RTVSPropertyOp26
 70
     1
102
RTVSPropertyOp27
 70
     1
102
RTVSPropertyOp28
 70
     1
102
RTVSPropertyOp29
 70
     1
102
RTVSPropertyOp30
 70
     1
102
RTVSPropertyOp31
 70
     1
102
RTVSPropertyOp32
 70
     1
102
RTVSPropertyOp33
 70
     1
102
RTVSPropertyOp34
 70
     1
102
RTVSPropertyOp35
 70
     1
102
RTVSPropertyOp36
 70
     1
102
RTVSPropertyOp37
 70
     1
102
RTVSPropertyOp38
 70
     1
102
RTVSPropertyOp39
 70
     1
102
RTVSPropertyOp40
 70
     1
102
RTVSPropertyOp41
 70
     1
102
RTVSPropertyOp42
 70
     1
102
RTVSPropertyOp43
 70
     1
102
RTVSPropertyOp44
 70
     1
102
RTVSPropertyOp45
 70
     1
102
RTVSPropertyOp46
 70
     1
102
RTVSPropertyOp47
 70
     1
102
RTVSPropertyOp48
 70
     1
102
RTVSPropertyOp49
 70
     1
102
RTVSPropertyOp50
 70
     1
102
RTVSPropertyOp51
 70
     0
102
RTVSPropertyOp52
 70
     0
102
RTVSPropertyOp53
 70
     1
102
RTVSPropertyOp54
 70
     1
102
RTVSPropertyOp55
 70
     1
102
RTVSPropertyOp56
 70
     1
102
RTVSPropertyOp57
 70
     1
102
RTVSPropertyOp58
 70
     1
102
RTVSPropertyOp59
 70
     1
102
RTVSPropertyOp60
 70
     1
102
RTVSPropertyOp61
 70
     1
102
RTVSPropertyOp62
 70
     1
  0
XRECORD
  5
2CA8
102
{ACAD_REACTORS
330
2CA7
102
}
330
2CA7
100
AcDbXrecord
280
     1
102
RTVSPost2010Prop28
280
     0
102
RTVSPost2010PropOp28
 70
     1
102
RTVSPost2010Prop29
280
     1
102
RTVSPost2010PropOp29
 70
     1
102
RTVSPost2010Prop30
280
     1
102
RTVSPost2010PropOp30
 70
     1
102
RTVSPost2010Prop31
280
     0
102
RTVSPost2010PropOp31
 70
     1
102
RTVSPost2010Prop32
280
     0
102
RTVSPost2010PropOp32
 70
     1
102
RTVSPost2010Prop33
280
     0
102
RTVSPost2010PropOp33
 70
     1
102
RTVSPost2010Prop34
280
     0
102
RTVSPost2010PropOp34
 70
     1
102
RTVSPost2010Prop35
280
     0
102
RTVSPost2010PropOp35
 70
     1
102
RTVSPost2010Prop36
280
     0
102
RTVSPost2010PropOp36
 70
     1
102
RTVSPost2010Prop37
 90
       50
102
RTVSPost2010PropOp37
 70
     1
102
RTVSPost2010Prop38
140
0.0
102
RTVSPost2010PropOp38
 70
     1
102
RTVSPost2010Prop39
140
1.0
102
RTVSPost2010PropOp39
 70
     1
102
RTVSPost2010Prop40
 90
        0
102
RTVSPost2010PropOp40
 70
     1
102
RTVSPost2010Prop41ColorIndex
 90
       18
102
RTVSPost2010Prop41ColorRGB
 90
        0
102
RTVSPost2010PropOp41
 70
     1
102
RTVSPost2010Prop42
 90
       50
102
RTVSPost2010PropOp42
 70
     1
102
RTVSPost2010Prop43
 90
        3
102
RTVSPost2010PropOp43
 70
     1
102
RTVSPost2010Prop44ColorIndex
 90
        5
102
RTVSPost2010Prop44ColorRGB
 90
      255
102
RTVSPost2010PropOp44
 70
     1
102
RTVSPost2010Prop45
280
     0
102
RTVSPost2010PropOp45
 70
     1
102
RTVSPost2010Prop46
 90
       50
102
RTVSPost2010PropOp46
 70
     1
102
RTVSPost2010Prop47
 90
       50
102
RTVSPost2010PropOp47
 70
     1
102
RTVSPost2010Prop48
 90
       50
102
RTVSPost2010PropOp48
 70
     1
102
RTVSPost2010Prop49
280
     0
102
RTVSPost2010PropOp49
 70
     1
102
RTVSPost2010Prop50
 90
       50
102
RTVSPost2010PropOp50
 70
     1
102
RTVSPost2010Prop51ColorIndex
 90
      256
102
RTVSPost2010Prop51ColorRGB
 90
-16777216
102
RTVSPost2010PropOp51
 70
     0
102
RTVSPost2010Prop52
140
1.0
102
RTVSPost2010PropOp52
 70
     0
102
RTVSPost2010Prop53
 90
        2
102
RTVSPost2010PropOp53
 70
     1
102
RTVSPost2010Prop54
  1
strokes_ogs.tif
102
RTVSPost2010PropOp54
 70
     1
102
RTVSPost2010Prop55
280
     0
102
RTVSPost2010PropOp55
 70
     1
102
RTVSPost2010Prop56
140
1.0
102
RTVSPost2010PropOp56
 70
     1
102
RTVSPost2010Prop57
140
1.0
102
RTVSPost2010PropOp57
 70
     1
102
RTVSPropertyOp0
 70
     1
102
RTVSPropertyOp1
 70
     1
102
RTVSPropertyOp2
 70
     1
102
RTVSPropertyOp3
 70
     1
102
RTVSPropertyOp4
 70
     1
102
RTVSPropertyOp5
 70
     1
102
RTVSPropertyOp6
 70
     1
102
RTVSPropertyOp7
 70
     1
102
RTVSPropertyOp8
 70
     1
102
RTVSPropertyOp9
 70
     1
102
RTVSPropertyOp10
 70
     1
102
RTVSPropertyOp11
 70
     1
102
RTVSPropertyOp12
 70
     1
102
RTVSPropertyOp13
 70
     1
102
RTVSPropertyOp14
 70
     1
102
RTVSPropertyOp15
 70
     1
102
RTVSPropertyOp16
 70
     1
102
RTVSPropertyOp17
 70
     1
102
RTVSPropertyOp18
 70
     1
102
RTVSPropertyOp19
 70
     1
102
RTVSPropertyOp20
 70
     1
102
RTVSPropertyOp21
 70
     1
102
RTVSPropertyOp22
 70
     1
102
RTVSPropertyOp23
 70
     1
102
RTVSPropertyOp24
 70
     1
102
RTVSPropertyOp25
 70
     1
102
RTVSPropertyOp26
 70
     1
102
RTVSPropertyOp27
 70
     1
102
RTVSPropertyOp28
 70
     1
102
RTVSPropertyOp29
 70
     1
102
RTVSPropertyOp30
 70
     1
102
RTVSPropertyOp31
 70
     1
102
RTVSPropertyOp32
 70
     1
102
RTVSPropertyOp33
 70
     1
102
RTVSPropertyOp34
 70
     1
102
RTVSPropertyOp35
 70
     1
102
RTVSPropertyOp36
 70
     1
102
RTVSPropertyOp37
 70
     1
102
RTVSPropertyOp38
 70
     1
102
RTVSPropertyOp39
 70
     1
102
RTVSPropertyOp40
 70
     1
102
RTVSPropertyOp41
 70
     1
102
RTVSPropertyOp42
 70
     1
102
RTVSPropertyOp43
 70
     1
102
RTVSPropertyOp44
 70
     1
102
RTVSPropertyOp45
 70
     1
102
RTVSPropertyOp46
 70
     1
102
RTVSPropertyOp47
 70
     1
102
RTVSPropertyOp48
 70
     1
102
RTVSPropertyOp49
 70
     1
102
RTVSPropertyOp50
 70
     1
102
RTVSPropertyOp51
 70
     0
102
RTVSPropertyOp52
 70
     0
102
RTVSPropertyOp53
 70
     1
102
RTVSPropertyOp54
 70
     1
102
RTVSPropertyOp55
 70
     1
102
RTVSPropertyOp56
 70
     1
102
RTVSPropertyOp57
 70
     1
102
RTVSPropertyOp58
 70
     1
102
RTVSPropertyOp59
 70
     1
102
RTVSPropertyOp60
 70
     1
102
RTVSPropertyOp61
 70
     1
102
RTVSPropertyOp62
 70
     1
  0
XRECORD
  5
2CAC
102
{ACAD_REACTORS
330
2CAB
102
}
330
2CAB
100
AcDbXrecord
280
     1
102
RTVSPost2010Prop28
280
     0
102
RTVSPost2010PropOp28
 70
     1
102
RTVSPost2010Prop29
280
     1
102
RTVSPost2010PropOp29
 70
     1
102
RTVSPost2010Prop30
280
     1
102
RTVSPost2010PropOp30
 70
     1
102
RTVSPost2010Prop31
280
     0
102
RTVSPost2010PropOp31
 70
     1
102
RTVSPost2010Prop32
280
     0
102
RTVSPost2010PropOp32
 70
     1
102
RTVSPost2010Prop33
280
     0
102
RTVSPost2010PropOp33
 70
     1
102
RTVSPost2010Prop34
280
     0
102
RTVSPost2010PropOp34
 70
     1
102
RTVSPost2010Prop35
280
     0
102
RTVSPost2010PropOp35
 70
     1
102
RTVSPost2010Prop36
280
     0
102
RTVSPost2010PropOp36
 70
     1
102
RTVSPost2010Prop37
 90
       50
102
RTVSPost2010PropOp37
 70
     1
102
RTVSPost2010Prop38
140
0.0
102
RTVSPost2010PropOp38
 70
     1
102
RTVSPost2010Prop39
140
1.0
102
RTVSPost2010PropOp39
 70
     1
102
RTVSPost2010Prop40
 90
        0
102
RTVSPost2010PropOp40
 70
     1
102
RTVSPost2010Prop41ColorIndex
 90
       18
102
RTVSPost2010Prop41ColorRGB
 90
        0
102
RTVSPost2010PropOp41
 70
     1
102
RTVSPost2010Prop42
 90
       50
102
RTVSPost2010PropOp42
 70
     1
102
RTVSPost2010Prop43
 90
        3
102
RTVSPost2010PropOp43
 70
     1
102
RTVSPost2010Prop44ColorIndex
 90
        5
102
RTVSPost2010Prop44ColorRGB
 90
      255
102
RTVSPost2010PropOp44
 70
     1
102
RTVSPost2010Prop45
280
     0
102
RTVSPost2010PropOp45
 70
     1
102
RTVSPost2010Prop46
 90
       50
102
RTVSPost2010PropOp46
 70
     1
102
RTVSPost2010Prop47
 90
       50
102
RTVSPost2010PropOp47
 70
     1
102
RTVSPost2010Prop48
 90
       50
102
RTVSPost2010PropOp48
 70
     1
102
RTVSPost2010Prop49
280
     0
102
RTVSPost2010PropOp49
 70
     1
102
RTVSPost2010Prop50
 90
       50
102
RTVSPost2010PropOp50
 70
     1
102
RTVSPost2010Prop51ColorIndex
 90
      256
102
RTVSPost2010Prop51ColorRGB
 90
-16777216
102
RTVSPost2010PropOp51
 70
     0
102
RTVSPost2010Prop52
140
1.0
102
RTVSPost2010PropOp52
 70
     0
102
RTVSPost2010Prop53
 90
        2
102
RTVSPost2010PropOp53
 70
     1
102
RTVSPost2010Prop54
  1
strokes_ogs.tif
102
RTVSPost2010PropOp54
 70
     1
102
RTVSPost2010Prop55
280
     0
102
RTVSPost2010PropOp55
 70
     1
102
RTVSPost2010Prop56
140
1.0
102
RTVSPost2010PropOp56
 70
     1
102
RTVSPost2010Prop57
140
1.0
102
RTVSPost2010PropOp57
 70
     1
102
RTVSPropertyOp0
 70
     1
102
RTVSPropertyOp1
 70
     1
102
RTVSPropertyOp2
 70
     1
102
RTVSPropertyOp3
 70
     1
102
RTVSPropertyOp4
 70
     1
102
RTVSPropertyOp5
 70
     1
102
RTVSPropertyOp6
 70
     1
102
RTVSPropertyOp7
 70
     1
102
RTVSPropertyOp8
 70
     1
102
RTVSPropertyOp9
 70
     1
102
RTVSPropertyOp10
 70
     1
102
RTVSPropertyOp11
 70
     1
102
RTVSPropertyOp12
 70
     1
102
RTVSPropertyOp13
 70
     1
102
RTVSPropertyOp14
 70
     1
102
RTVSPropertyOp15
 70
     1
102
RTVSPropertyOp16
 70
     1
102
RTVSPropertyOp17
 70
     1
102
RTVSPropertyOp18
 70
     1
102
RTVSPropertyOp19
 70
     1
102
RTVSPropertyOp20
 70
     1
102
RTVSPropertyOp21
 70
     1
102
RTVSPropertyOp22
 70
     1
102
RTVSPropertyOp23
 70
     1
102
RTVSPropertyOp24
 70
     1
102
RTVSPropertyOp25
 70
     1
102
RTVSPropertyOp26
 70
     1
102
RTVSPropertyOp27
 70
     1
102
RTVSPropertyOp28
 70
     1
102
RTVSPropertyOp29
 70
     1
102
RTVSPropertyOp30
 70
     1
102
RTVSPropertyOp31
 70
     1
102
RTVSPropertyOp32
 70
     1
102
RTVSPropertyOp33
 70
     1
102
RTVSPropertyOp34
 70
     1
102
RTVSPropertyOp35
 70
     1
102
RTVSPropertyOp36
 70
     1
102
RTVSPropertyOp37
 70
     1
102
RTVSPropertyOp38
 70
     1
102
RTVSPropertyOp39
 70
     1
102
RTVSPropertyOp40
 70
     1
102
RTVSPropertyOp41
 70
     1
102
RTVSPropertyOp42
 70
     1
102
RTVSPropertyOp43
 70
     1
102
RTVSPropertyOp44
 70
     1
102
RTVSPropertyOp45
 70
     1
102
RTVSPropertyOp46
 70
     1
102
RTVSPropertyOp47
 70
     1
102
RTVSPropertyOp48
 70
     1
102
RTVSPropertyOp49
 70
     1
102
RTVSPropertyOp50
 70
     1
102
RTVSPropertyOp51
 70
     0
102
RTVSPropertyOp52
 70
     0
102
RTVSPropertyOp53
 70
     1
102
RTVSPropertyOp54
 70
     1
102
RTVSPropertyOp55
 70
     1
102
RTVSPropertyOp56
 70
     1
102
RTVSPropertyOp57
 70
     1
102
RTVSPropertyOp58
 70
     1
102
RTVSPropertyOp59
 70
     1
102
RTVSPropertyOp60
 70
     1
102
RTVSPropertyOp61
 70
     1
102
RTVSPropertyOp62
 70
     1
  0
XRECORD
  5
2CC6
102
{ACAD_REACTORS
330
2CC5
102
}
330
2CC5
100
AcDbXrecord
280
     1
102
RTVSPost2010Prop28
280
     0
102
RTVSPost2010PropOp28
 70
     1
102
RTVSPost2010Prop29
280
     1
102
RTVSPost2010PropOp29
 70
     1
102
RTVSPost2010Prop30
280
     1
102
RTVSPost2010PropOp30
 70
     1
102
RTVSPost2010Prop31
280
     0
102
RTVSPost2010PropOp31
 70
     1
102
RTVSPost2010Prop32
280
     0
102
RTVSPost2010PropOp32
 70
     1
102
RTVSPost2010Prop33
280
     0
102
RTVSPost2010PropOp33
 70
     1
102
RTVSPost2010Prop34
280
     0
102
RTVSPost2010PropOp34
 70
     1
102
RTVSPost2010Prop35
280
     0
102
RTVSPost2010PropOp35
 70
     1
102
RTVSPost2010Prop36
280
     0
102
RTVSPost2010PropOp36
 70
     1
102
RTVSPost2010Prop37
 90
       50
102
RTVSPost2010PropOp37
 70
     0
102
RTVSPost2010Prop38
140
0.0
102
RTVSPost2010PropOp38
 70
     0
102
RTVSPost2010Prop39
140
1.0
102
RTVSPost2010PropOp39
 70
     0
102
RTVSPost2010Prop40
 90
        0
102
RTVSPost2010PropOp40
 70
     0
102
RTVSPost2010Prop41ColorIndex
 90
       18
102
RTVSPost2010Prop41ColorRGB
 90
        0
102
RTVSPost2010PropOp41
 70
     0
102
RTVSPost2010Prop42
 90
       50
102
RTVSPost2010PropOp42
 70
     0
102
RTVSPost2010Prop43
 90
        3
102
RTVSPost2010PropOp43
 70
     0
102
RTVSPost2010Prop44ColorIndex
 90
        5
102
RTVSPost2010Prop44ColorRGB
 90
      255
102
RTVSPost2010PropOp44
 70
     0
102
RTVSPost2010Prop45
280
     0
102
RTVSPost2010PropOp45
 70
     1
102
RTVSPost2010Prop46
 90
       50
102
RTVSPost2010PropOp46
 70
     0
102
RTVSPost2010Prop47
 90
       50
102
RTVSPost2010PropOp47
 70
     0
102
RTVSPost2010Prop48
 90
       50
102
RTVSPost2010PropOp48
 70
     0
102
RTVSPost2010Prop49
280
     0
102
RTVSPost2010PropOp49
 70
     1
102
RTVSPost2010Prop50
 90
       50
102
RTVSPost2010PropOp50
 70
     0
102
RTVSPost2010Prop51ColorIndex
 90
      256
102
RTVSPost2010Prop51ColorRGB
 90
-16777216
102
RTVSPost2010PropOp51
 70
     0
102
RTVSPost2010Prop52
140
1.0
102
RTVSPost2010PropOp52
 70
     0
102
RTVSPost2010Prop53
 90
        2
102
RTVSPost2010PropOp53
 70
     0
102
RTVSPost2010Prop54
  1
strokes_ogs.tif
102
RTVSPost2010PropOp54
 70
     0
102
RTVSPost2010Prop55
280
     0
102
RTVSPost2010PropOp55
 70
     1
102
RTVSPost2010Prop56
140
1.0
102
RTVSPost2010PropOp56
 70
     0
102
RTVSPost2010Prop57
140
1.0
102
RTVSPost2010PropOp57
 70
     0
102
RTVSPropertyOp0
 70
     0
102
RTVSPropertyOp1
 70
     0
102
RTVSPropertyOp2
 70
     0
102
RTVSPropertyOp3
 70
     0
102
RTVSPropertyOp4
 70
     0
102
RTVSPropertyOp5
 70
     0
102
RTVSPropertyOp6
 70
     0
102
RTVSPropertyOp7
 70
     0
102
RTVSPropertyOp8
 70
     0
102
RTVSPropertyOp9
 70
     0
102
RTVSPropertyOp10
 70
     0
102
RTVSPropertyOp11
 70
     0
102
RTVSPropertyOp12
 70
     0
102
RTVSPropertyOp13
 70
     0
102
RTVSPropertyOp14
 70
     2
102
RTVSPropertyOp15
 70
     0
102
RTVSPropertyOp16
 70
     0
102
RTVSPropertyOp17
 70
     0
102
RTVSPropertyOp18
 70
     0
102
RTVSPropertyOp19
 70
     0
102
RTVSPropertyOp20
 70
     0
102
RTVSPropertyOp21
 70
     0
102
RTVSPropertyOp22
 70
     0
102
RTVSPropertyOp23
 70
     0
102
RTVSPropertyOp24
 70
     0
102
RTVSPropertyOp25
 70
     0
102
RTVSPropertyOp26
 70
     0
102
RTVSPropertyOp27
 70
     0
102
RTVSPropertyOp28
 70
     1
102
RTVSPropertyOp29
 70
     1
102
RTVSPropertyOp30
 70
     1
102
RTVSPropertyOp31
 70
     1
102
RTVSPropertyOp32
 70
     1
102
RTVSPropertyOp33
 70
     1
102
RTVSPropertyOp34
 70
     1
102
RTVSPropertyOp35
 70
     1
102
RTVSPropertyOp36
 70
     1
102
RTVSPropertyOp37
 70
     0
102
RTVSPropertyOp38
 70
     0
102
RTVSPropertyOp39
 70
     0
102
RTVSPropertyOp40
 70
     0
102
RTVSPropertyOp41
 70
     0
102
RTVSPropertyOp42
 70
     0
102
RTVSPropertyOp43
 70
     0
102
RTVSPropertyOp44
 70
     0
102
RTVSPropertyOp45
 70
     1
102
RTVSPropertyOp46
 70
     0
102
RTVSPropertyOp47
 70
     0
102
RTVSPropertyOp48
 70
     0
102
RTVSPropertyOp49
 70
     1
102
RTVSPropertyOp50
 70
     0
102
RTVSPropertyOp51
 70
     0
102
RTVSPropertyOp52
 70
     0
102
RTVSPropertyOp53
 70
     0
102
RTVSPropertyOp54
 70
     0
102
RTVSPropertyOp55
 70
     1
102
RTVSPropertyOp56
 70
     0
102
RTVSPropertyOp57
 70
     0
102
RTVSPropertyOp58
 70
     0
102
RTVSPropertyOp59
 70
     0
102
RTVSPropertyOp60
 70
     0
102
RTVSPropertyOp61
 70
     0
102
RTVSPropertyOp62
 70
     0
  0
XRECORD
  5
2CB4
102
{ACAD_REACTORS
330
2CB3
102
}
330
2CB3
100
AcDbXrecord
280
     1
102
RTVSPost2010Prop28
280
     0
102
RTVSPost2010PropOp28
 70
     1
102
RTVSPost2010Prop29
280
     1
102
RTVSPost2010PropOp29
 70
     1
102
RTVSPost2010Prop30
280
     1
102
RTVSPost2010PropOp30
 70
     1
102
RTVSPost2010Prop31
280
     0
102
RTVSPost2010PropOp31
 70
     1
102
RTVSPost2010Prop32
280
     0
102
RTVSPost2010PropOp32
 70
     1
102
RTVSPost2010Prop33
280
     0
102
RTVSPost2010PropOp33
 70
     1
102
RTVSPost2010Prop34
280
     0
102
RTVSPost2010PropOp34
 70
     1
102
RTVSPost2010Prop35
280
     0
102
RTVSPost2010PropOp35
 70
     1
102
RTVSPost2010Prop36
280
     0
102
RTVSPost2010PropOp36
 70
     1
102
RTVSPost2010Prop37
 90
       50
102
RTVSPost2010PropOp37
 70
     1
102
RTVSPost2010Prop38
140
0.0
102
RTVSPost2010PropOp38
 70
     1
102
RTVSPost2010Prop39
140
1.0
102
RTVSPost2010PropOp39
 70
     1
102
RTVSPost2010Prop40
 90
        0
102
RTVSPost2010PropOp40
 70
     1
102
RTVSPost2010Prop41ColorIndex
 90
       18
102
RTVSPost2010Prop41ColorRGB
 90
        0
102
RTVSPost2010PropOp41
 70
     1
102
RTVSPost2010Prop42
 90
       50
102
RTVSPost2010PropOp42
 70
     1
102
RTVSPost2010Prop43
 90
        3
102
RTVSPost2010PropOp43
 70
     1
102
RTVSPost2010Prop44ColorIndex
 90
        5
102
RTVSPost2010Prop44ColorRGB
 90
      255
102
RTVSPost2010PropOp44
 70
     1
102
RTVSPost2010Prop45
280
     0
102
RTVSPost2010PropOp45
 70
     1
102
RTVSPost2010Prop46
 90
       50
102
RTVSPost2010PropOp46
 70
     1
102
RTVSPost2010Prop47
 90
       50
102
RTVSPost2010PropOp47
 70
     1
102
RTVSPost2010Prop48
 90
       50
102
RTVSPost2010PropOp48
 70
     1
102
RTVSPost2010Prop49
280
     0
102
RTVSPost2010PropOp49
 70
     1
102
RTVSPost2010Prop50
 90
       50
102
RTVSPost2010PropOp50
 70
     1
102
RTVSPost2010Prop51ColorIndex
 90
      256
102
RTVSPost2010Prop51ColorRGB
 90
-16777216
102
RTVSPost2010PropOp51
 70
     0
102
RTVSPost2010Prop52
140
1.0
102
RTVSPost2010PropOp52
 70
     0
102
RTVSPost2010Prop53
 90
        2
102
RTVSPost2010PropOp53
 70
     1
102
RTVSPost2010Prop54
  1
strokes_ogs.tif
102
RTVSPost2010PropOp54
 70
     1
102
RTVSPost2010Prop55
280
     0
102
RTVSPost2010PropOp55
 70
     1
102
RTVSPost2010Prop56
140
1.0
102
RTVSPost2010PropOp56
 70
     1
102
RTVSPost2010Prop57
140
1.0
102
RTVSPost2010PropOp57
 70
     1
102
RTVSPropertyOp0
 70
     1
102
RTVSPropertyOp1
 70
     1
102
RTVSPropertyOp2
 70
     1
102
RTVSPropertyOp3
 70
     1
102
RTVSPropertyOp4
 70
     1
102
RTVSPropertyOp5
 70
     1
102
RTVSPropertyOp6
 70
     1
102
RTVSPropertyOp7
 70
     1
102
RTVSPropertyOp8
 70
     1
102
RTVSPropertyOp9
 70
     1
102
RTVSPropertyOp10
 70
     1
102
RTVSPropertyOp11
 70
     1
102
RTVSPropertyOp12
 70
     1
102
RTVSPropertyOp13
 70
     1
102
RTVSPropertyOp14
 70
     1
102
RTVSPropertyOp15
 70
     1
102
RTVSPropertyOp16
 70
     1
102
RTVSPropertyOp17
 70
     1
102
RTVSPropertyOp18
 70
     1
102
RTVSPropertyOp19
 70
     1
102
RTVSPropertyOp20
 70
     1
102
RTVSPropertyOp21
 70
     1
102
RTVSPropertyOp22
 70
     1
102
RTVSPropertyOp23
 70
     1
102
RTVSPropertyOp24
 70
     1
102
RTVSPropertyOp25
 70
     1
102
RTVSPropertyOp26
 70
     1
102
RTVSPropertyOp27
 70
     1
102
RTVSPropertyOp28
 70
     1
102
RTVSPropertyOp29
 70
     1
102
RTVSPropertyOp30
 70
     1
102
RTVSPropertyOp31
 70
     1
102
RTVSPropertyOp32
 70
     1
102
RTVSPropertyOp33
 70
     1
102
RTVSPropertyOp34
 70
     1
102
RTVSPropertyOp35
 70
     1
102
RTVSPropertyOp36
 70
     1
102
RTVSPropertyOp37
 70
     1
102
RTVSPropertyOp38
 70
     1
102
RTVSPropertyOp39
 70
     1
102
RTVSPropertyOp40
 70
     1
102
RTVSPropertyOp41
 70
     1
102
RTVSPropertyOp42
 70
     1
102
RTVSPropertyOp43
 70
     1
102
RTVSPropertyOp44
 70
     1
102
RTVSPropertyOp45
 70
     1
102
RTVSPropertyOp46
 70
     1
102
RTVSPropertyOp47
 70
     1
102
RTVSPropertyOp48
 70
     1
102
RTVSPropertyOp49
 70
     1
102
RTVSPropertyOp50
 70
     1
102
RTVSPropertyOp51
 70
     0
102
RTVSPropertyOp52
 70
     0
102
RTVSPropertyOp53
 70
     1
102
RTVSPropertyOp54
 70
     1
102
RTVSPropertyOp55
 70
     1
102
RTVSPropertyOp56
 70
     1
102
RTVSPropertyOp57
 70
     1
102
RTVSPropertyOp58
 70
     1
102
RTVSPropertyOp59
 70
     1
102
RTVSPropertyOp60
 70
     1
102
RTVSPropertyOp61
 70
     1
102
RTVSPropertyOp62
 70
     1
  0
XRECORD
  5
2C98
102
{ACAD_REACTORS
330
2C97
102
}
330
2C97
100
AcDbXrecord
280
     1
102
RTVSPost2010Prop28
280
     0
102
RTVSPost2010PropOp28
 70
     1
102
RTVSPost2010Prop29
280
     1
102
RTVSPost2010PropOp29
 70
     1
102
RTVSPost2010Prop30
280
     1
102
RTVSPost2010PropOp30
 70
     1
102
RTVSPost2010Prop31
280
     0
102
RTVSPost2010PropOp31
 70
     1
102
RTVSPost2010Prop32
280
     0
102
RTVSPost2010PropOp32
 70
     1
102
RTVSPost2010Prop33
280
     0
102
RTVSPost2010PropOp33
 70
     1
102
RTVSPost2010Prop34
280
     0
102
RTVSPost2010PropOp34
 70
     1
102
RTVSPost2010Prop35
280
     0
102
RTVSPost2010PropOp35
 70
     1
102
RTVSPost2010Prop36
280
     0
102
RTVSPost2010PropOp36
 70
     1
102
RTVSPost2010Prop37
 90
       50
102
RTVSPost2010PropOp37
 70
     1
102
RTVSPost2010Prop38
140
0.0
102
RTVSPost2010PropOp38
 70
     1
102
RTVSPost2010Prop39
140
1.0
102
RTVSPost2010PropOp39
 70
     1
102
RTVSPost2010Prop40
 90
        0
102
RTVSPost2010PropOp40
 70
     1
102
RTVSPost2010Prop41ColorIndex
 90
       18
102
RTVSPost2010Prop41ColorRGB
 90
        0
102
RTVSPost2010PropOp41
 70
     1
102
RTVSPost2010Prop42
 90
       50
102
RTVSPost2010PropOp42
 70
     1
102
RTVSPost2010Prop43
 90
        3
102
RTVSPost2010PropOp43
 70
     1
102
RTVSPost2010Prop44ColorIndex
 90
        5
102
RTVSPost2010Prop44ColorRGB
 90
      255
102
RTVSPost2010PropOp44
 70
     1
102
RTVSPost2010Prop45
280
     0
102
RTVSPost2010PropOp45
 70
     1
102
RTVSPost2010Prop46
 90
       50
102
RTVSPost2010PropOp46
 70
     1
102
RTVSPost2010Prop47
 90
       50
102
RTVSPost2010PropOp47
 70
     1
102
RTVSPost2010Prop48
 90
       50
102
RTVSPost2010PropOp48
 70
     1
102
RTVSPost2010Prop49
280
     0
102
RTVSPost2010PropOp49
 70
     1
102
RTVSPost2010Prop50
 90
       50
102
RTVSPost2010PropOp50
 70
     1
102
RTVSPost2010Prop51ColorIndex
 90
      256
102
RTVSPost2010Prop51ColorRGB
 90
-16777216
102
RTVSPost2010PropOp51
 70
     0
102
RTVSPost2010Prop52
140
1.0
102
RTVSPost2010PropOp52
 70
     0
102
RTVSPost2010Prop53
 90
        2
102
RTVSPost2010PropOp53
 70
     1
102
RTVSPost2010Prop54
  1
strokes_ogs.tif
102
RTVSPost2010PropOp54
 70
     1
102
RTVSPost2010Prop55
280
     0
102
RTVSPost2010PropOp55
 70
     1
102
RTVSPost2010Prop56
140
1.0
102
RTVSPost2010PropOp56
 70
     1
102
RTVSPost2010Prop57
140
1.0
102
RTVSPost2010PropOp57
 70
     1
102
RTVSPropertyOp0
 70
     1
102
RTVSPropertyOp1
 70
     1
102
RTVSPropertyOp2
 70
     1
102
RTVSPropertyOp3
 70
     1
102
RTVSPropertyOp4
 70
     1
102
RTVSPropertyOp5
 70
     1
102
RTVSPropertyOp6
 70
     1
102
RTVSPropertyOp7
 70
     1
102
RTVSPropertyOp8
 70
     1
102
RTVSPropertyOp9
 70
     1
102
RTVSPropertyOp10
 70
     1
102
RTVSPropertyOp11
 70
     1
102
RTVSPropertyOp12
 70
     1
102
RTVSPropertyOp13
 70
     1
102
RTVSPropertyOp14
 70
     1
102
RTVSPropertyOp15
 70
     1
102
RTVSPropertyOp16
 70
     1
102
RTVSPropertyOp17
 70
     1
102
RTVSPropertyOp18
 70
     1
102
RTVSPropertyOp19
 70
     1
102
RTVSPropertyOp20
 70
     1
102
RTVSPropertyOp21
 70
     1
102
RTVSPropertyOp22
 70
     1
102
RTVSPropertyOp23
 70
     1
102
RTVSPropertyOp24
 70
     1
102
RTVSPropertyOp25
 70
     1
102
RTVSPropertyOp26
 70
     1
102
RTVSPropertyOp27
 70
     1
102
RTVSPropertyOp28
 70
     1
102
RTVSPropertyOp29
 70
     1
102
RTVSPropertyOp30
 70
     1
102
RTVSPropertyOp31
 70
     1
102
RTVSPropertyOp32
 70
     1
102
RTVSPropertyOp33
 70
     1
102
RTVSPropertyOp34
 70
     1
102
RTVSPropertyOp35
 70
     1
102
RTVSPropertyOp36
 70
     1
102
RTVSPropertyOp37
 70
     1
102
RTVSPropertyOp38
 70
     1
102
RTVSPropertyOp39
 70
     1
102
RTVSPropertyOp40
 70
     1
102
RTVSPropertyOp41
 70
     1
102
RTVSPropertyOp42
 70
     1
102
RTVSPropertyOp43
 70
     1
102
RTVSPropertyOp44
 70
     1
102
RTVSPropertyOp45
 70
     1
102
RTVSPropertyOp46
 70
     1
102
RTVSPropertyOp47
 70
     1
102
RTVSPropertyOp48
 70
     1
102
RTVSPropertyOp49
 70
     1
102
RTVSPropertyOp50
 70
     1
102
RTVSPropertyOp51
 70
     0
102
RTVSPropertyOp52
 70
     0
102
RTVSPropertyOp53
 70
     1
102
RTVSPropertyOp54
 70
     1
102
RTVSPropertyOp55
 70
     1
102
RTVSPropertyOp56
 70
     1
102
RTVSPropertyOp57
 70
     1
102
RTVSPropertyOp58
 70
     1
102
RTVSPropertyOp59
 70
     1
102
RTVSPropertyOp60
 70
     1
102
RTVSPropertyOp61
 70
     1
102
RTVSPropertyOp62
 70
     1
  0
XRECORD
  5
2C9A
102
{ACAD_REACTORS
330
2C99
102
}
330
2C99
100
AcDbXrecord
280
     1
102
RTVSPost2010Prop28
280
     0
102
RTVSPost2010PropOp28
 70
     1
102
RTVSPost2010Prop29
280
     1
102
RTVSPost2010PropOp29
 70
     1
102
RTVSPost2010Prop30
280
     1
102
RTVSPost2010PropOp30
 70
     1
102
RTVSPost2010Prop31
280
     0
102
RTVSPost2010PropOp31
 70
     1
102
RTVSPost2010Prop32
280
     0
102
RTVSPost2010PropOp32
 70
     1
102
RTVSPost2010Prop33
280
     0
102
RTVSPost2010PropOp33
 70
     1
102
RTVSPost2010Prop34
280
     0
102
RTVSPost2010PropOp34
 70
     1
102
RTVSPost2010Prop35
280
     0
102
RTVSPost2010PropOp35
 70
     1
102
RTVSPost2010Prop36
280
     0
102
RTVSPost2010PropOp36
 70
     1
102
RTVSPost2010Prop37
 90
       50
102
RTVSPost2010PropOp37
 70
     1
102
RTVSPost2010Prop38
140
0.0
102
RTVSPost2010PropOp38
 70
     1
102
RTVSPost2010Prop39
140
1.0
102
RTVSPost2010PropOp39
 70
     1
102
RTVSPost2010Prop40
 90
        0
102
RTVSPost2010PropOp40
 70
     1
102
RTVSPost2010Prop41ColorIndex
 90
       18
102
RTVSPost2010Prop41ColorRGB
 90
        0
102
RTVSPost2010PropOp41
 70
     1
102
RTVSPost2010Prop42
 90
       50
102
RTVSPost2010PropOp42
 70
     1
102
RTVSPost2010Prop43
 90
        3
102
RTVSPost2010PropOp43
 70
     1
102
RTVSPost2010Prop44ColorIndex
 90
        5
102
RTVSPost2010Prop44ColorRGB
 90
      255
102
RTVSPost2010PropOp44
 70
     1
102
RTVSPost2010Prop45
280
     0
102
RTVSPost2010PropOp45
 70
     1
102
RTVSPost2010Prop46
 90
       50
102
RTVSPost2010PropOp46
 70
     1
102
RTVSPost2010Prop47
 90
       50
102
RTVSPost2010PropOp47
 70
     1
102
RTVSPost2010Prop48
 90
       50
102
RTVSPost2010PropOp48
 70
     1
102
RTVSPost2010Prop49
280
     0
102
RTVSPost2010PropOp49
 70
     1
102
RTVSPost2010Prop50
 90
       50
102
RTVSPost2010PropOp50
 70
     1
102
RTVSPost2010Prop51ColorIndex
 90
      256
102
RTVSPost2010Prop51ColorRGB
 90
-16777216
102
RTVSPost2010PropOp51
 70
     0
102
RTVSPost2010Prop52
140
1.0
102
RTVSPost2010PropOp52
 70
     0
102
RTVSPost2010Prop53
 90
        2
102
RTVSPost2010PropOp53
 70
     1
102
RTVSPost2010Prop54
  1
strokes_ogs.tif
102
RTVSPost2010PropOp54
 70
     1
102
RTVSPost2010Prop55
280
     0
102
RTVSPost2010PropOp55
 70
     1
102
RTVSPost2010Prop56
140
1.0
102
RTVSPost2010PropOp56
 70
     1
102
RTVSPost2010Prop57
140
1.0
102
RTVSPost2010PropOp57
 70
     1
102
RTVSPropertyOp0
 70
     1
102
RTVSPropertyOp1
 70
     1
102
RTVSPropertyOp2
 70
     1
102
RTVSPropertyOp3
 70
     1
102
RTVSPropertyOp4
 70
     1
102
RTVSPropertyOp5
 70
     1
102
RTVSPropertyOp6
 70
     1
102
RTVSPropertyOp7
 70
     1
102
RTVSPropertyOp8
 70
     1
102
RTVSPropertyOp9
 70
     1
102
RTVSPropertyOp10
 70
     1
102
RTVSPropertyOp11
 70
     1
102
RTVSPropertyOp12
 70
     1
102
RTVSPropertyOp13
 70
     1
102
RTVSPropertyOp14
 70
     1
102
RTVSPropertyOp15
 70
     1
102
RTVSPropertyOp16
 70
     1
102
RTVSPropertyOp17
 70
     1
102
RTVSPropertyOp18
 70
     1
102
RTVSPropertyOp19
 70
     1
102
RTVSPropertyOp20
 70
     1
102
RTVSPropertyOp21
 70
     1
102
RTVSPropertyOp22
 70
     1
102
RTVSPropertyOp23
 70
     1
102
RTVSPropertyOp24
 70
     1
102
RTVSPropertyOp25
 70
     1
102
RTVSPropertyOp26
 70
     1
102
RTVSPropertyOp27
 70
     1
102
RTVSPropertyOp28
 70
     1
102
RTVSPropertyOp29
 70
     1
102
RTVSPropertyOp30
 70
     1
102
RTVSPropertyOp31
 70
     1
102
RTVSPropertyOp32
 70
     1
102
RTVSPropertyOp33
 70
     1
102
RTVSPropertyOp34
 70
     1
102
RTVSPropertyOp35
 70
     1
102
RTVSPropertyOp36
 70
     1
102
RTVSPropertyOp37
 70
     1
102
RTVSPropertyOp38
 70
     1
102
RTVSPropertyOp39
 70
     1
102
RTVSPropertyOp40
 70
     1
102
RTVSPropertyOp41
 70
     1
102
RTVSPropertyOp42
 70
     1
102
RTVSPropertyOp43
 70
     1
102
RTVSPropertyOp44
 70
     1
102
RTVSPropertyOp45
 70
     1
102
RTVSPropertyOp46
 70
     1
102
RTVSPropertyOp47
 70
     1
102
RTVSPropertyOp48
 70
     1
102
RTVSPropertyOp49
 70
     1
102
RTVSPropertyOp50
 70
     1
102
RTVSPropertyOp51
 70
     0
102
RTVSPropertyOp52
 70
     0
102
RTVSPropertyOp53
 70
     1
102
RTVSPropertyOp54
 70
     1
102
RTVSPropertyOp55
 70
     1
102
RTVSPropertyOp56
 70
     1
102
RTVSPropertyOp57
 70
     1
102
RTVSPropertyOp58
 70
     1
102
RTVSPropertyOp59
 70
     1
102
RTVSPropertyOp60
 70
     1
102
RTVSPropertyOp61
 70
     1
102
RTVSPropertyOp62
 70
     1
  0
XRECORD
  5
2C9C
102
{ACAD_REACTORS
330
2C9B
102
}
330
2C9B
100
AcDbXrecord
280
     1
102
RTVSPost2010Prop28
280
     0
102
RTVSPost2010PropOp28
 70
     1
102
RTVSPost2010Prop29
280
     1
102
RTVSPost2010PropOp29
 70
     1
102
RTVSPost2010Prop30
280
     1
102
RTVSPost2010PropOp30
 70
     1
102
RTVSPost2010Prop31
280
     0
102
RTVSPost2010PropOp31
 70
     1
102
RTVSPost2010Prop32
280
     0
102
RTVSPost2010PropOp32
 70
     1
102
RTVSPost2010Prop33
280
     0
102
RTVSPost2010PropOp33
 70
     1
102
RTVSPost2010Prop34
280
     0
102
RTVSPost2010PropOp34
 70
     1
102
RTVSPost2010Prop35
280
     0
102
RTVSPost2010PropOp35
 70
     1
102
RTVSPost2010Prop36
280
     0
102
RTVSPost2010PropOp36
 70
     1
102
RTVSPost2010Prop37
 90
       50
102
RTVSPost2010PropOp37
 70
     1
102
RTVSPost2010Prop38
140
0.0
102
RTVSPost2010PropOp38
 70
     1
102
RTVSPost2010Prop39
140
1.0
102
RTVSPost2010PropOp39
 70
     1
102
RTVSPost2010Prop40
 90
        0
102
RTVSPost2010PropOp40
 70
     1
102
RTVSPost2010Prop41ColorIndex
 90
       18
102
RTVSPost2010Prop41ColorRGB
 90
        0
102
RTVSPost2010PropOp41
 70
     1
102
RTVSPost2010Prop42
 90
       50
102
RTVSPost2010PropOp42
 70
     1
102
RTVSPost2010Prop43
 90
        3
102
RTVSPost2010PropOp43
 70
     1
102
RTVSPost2010Prop44ColorIndex
 90
        5
102
RTVSPost2010Prop44ColorRGB
 90
      255
102
RTVSPost2010PropOp44
 70
     1
102
RTVSPost2010Prop45
280
     0
102
RTVSPost2010PropOp45
 70
     1
102
RTVSPost2010Prop46
 90
       50
102
RTVSPost2010PropOp46
 70
     1
102
RTVSPost2010Prop47
 90
       50
102
RTVSPost2010PropOp47
 70
     1
102
RTVSPost2010Prop48
 90
       50
102
RTVSPost2010PropOp48
 70
     1
102
RTVSPost2010Prop49
280
     0
102
RTVSPost2010PropOp49
 70
     1
102
RTVSPost2010Prop50
 90
       50
102
RTVSPost2010PropOp50
 70
     1
102
RTVSPost2010Prop51ColorIndex
 90
      256
102
RTVSPost2010Prop51ColorRGB
 90
-16777216
102
RTVSPost2010PropOp51
 70
     0
102
RTVSPost2010Prop52
140
1.0
102
RTVSPost2010PropOp52
 70
     0
102
RTVSPost2010Prop53
 90
        2
102
RTVSPost2010PropOp53
 70
     1
102
RTVSPost2010Prop54
  1
strokes_ogs.tif
102
RTVSPost2010PropOp54
 70
     1
102
RTVSPost2010Prop55
280
     0
102
RTVSPost2010PropOp55
 70
     1
102
RTVSPost2010Prop56
140
1.0
102
RTVSPost2010PropOp56
 70
     1
102
RTVSPost2010Prop57
140
1.0
102
RTVSPost2010PropOp57
 70
     1
102
RTVSPropertyOp0
 70
     1
102
RTVSPropertyOp1
 70
     1
102
RTVSPropertyOp2
 70
     1
102
RTVSPropertyOp3
 70
     1
102
RTVSPropertyOp4
 70
     1
102
RTVSPropertyOp5
 70
     1
102
RTVSPropertyOp6
 70
     1
102
RTVSPropertyOp7
 70
     1
102
RTVSPropertyOp8
 70
     1
102
RTVSPropertyOp9
 70
     1
102
RTVSPropertyOp10
 70
     1
102
RTVSPropertyOp11
 70
     1
102
RTVSPropertyOp12
 70
     1
102
RTVSPropertyOp13
 70
     1
102
RTVSPropertyOp14
 70
     1
102
RTVSPropertyOp15
 70
     1
102
RTVSPropertyOp16
 70
     1
102
RTVSPropertyOp17
 70
     1
102
RTVSPropertyOp18
 70
     1
102
RTVSPropertyOp19
 70
     1
102
RTVSPropertyOp20
 70
     1
102
RTVSPropertyOp21
 70
     1
102
RTVSPropertyOp22
 70
     1
102
RTVSPropertyOp23
 70
     1
102
RTVSPropertyOp24
 70
     1
102
RTVSPropertyOp25
 70
     1
102
RTVSPropertyOp26
 70
     1
102
RTVSPropertyOp27
 70
     1
102
RTVSPropertyOp28
 70
     1
102
RTVSPropertyOp29
 70
     1
102
RTVSPropertyOp30
 70
     1
102
RTVSPropertyOp31
 70
     1
102
RTVSPropertyOp32
 70
     1
102
RTVSPropertyOp33
 70
     1
102
RTVSPropertyOp34
 70
     1
102
RTVSPropertyOp35
 70
     1
102
RTVSPropertyOp36
 70
     1
102
RTVSPropertyOp37
 70
     1
102
RTVSPropertyOp38
 70
     1
102
RTVSPropertyOp39
 70
     1
102
RTVSPropertyOp40
 70
     1
102
RTVSPropertyOp41
 70
     1
102
RTVSPropertyOp42
 70
     1
102
RTVSPropertyOp43
 70
     1
102
RTVSPropertyOp44
 70
     1
102
RTVSPropertyOp45
 70
     1
102
RTVSPropertyOp46
 70
     1
102
RTVSPropertyOp47
 70
     1
102
RTVSPropertyOp48
 70
     1
102
RTVSPropertyOp49
 70
     1
102
RTVSPropertyOp50
 70
     1
102
RTVSPropertyOp51
 70
     0
102
RTVSPropertyOp52
 70
     0
102
RTVSPropertyOp53
 70
     1
102
RTVSPropertyOp54
 70
     1
102
RTVSPropertyOp55
 70
     1
102
RTVSPropertyOp56
 70
     1
102
RTVSPropertyOp57
 70
     1
102
RTVSPropertyOp58
 70
     1
102
RTVSPropertyOp59
 70
     1
102
RTVSPropertyOp60
 70
     1
102
RTVSPropertyOp61
 70
     1
102
RTVSPropertyOp62
 70
     1
  0
XRECORD
  5
2C9E
102
{ACAD_REACTORS
330
2C9D
102
}
330
2C9D
100
AcDbXrecord
280
     1
102
RTVSPost2010Prop28
280
     0
102
RTVSPost2010PropOp28
 70
     1
102
RTVSPost2010Prop29
280
     1
102
RTVSPost2010PropOp29
 70
     1
102
RTVSPost2010Prop30
280
     1
102
RTVSPost2010PropOp30
 70
     1
102
RTVSPost2010Prop31
280
     0
102
RTVSPost2010PropOp31
 70
     1
102
RTVSPost2010Prop32
280
     0
102
RTVSPost2010PropOp32
 70
     1
102
RTVSPost2010Prop33
280
     0
102
RTVSPost2010PropOp33
 70
     1
102
RTVSPost2010Prop34
280
     0
102
RTVSPost2010PropOp34
 70
     1
102
RTVSPost2010Prop35
280
     0
102
RTVSPost2010PropOp35
 70
     1
102
RTVSPost2010Prop36
280
     0
102
RTVSPost2010PropOp36
 70
     1
102
RTVSPost2010Prop37
 90
       50
102
RTVSPost2010PropOp37
 70
     1
102
RTVSPost2010Prop38
140
0.0
102
RTVSPost2010PropOp38
 70
     1
102
RTVSPost2010Prop39
140
1.0
102
RTVSPost2010PropOp39
 70
     1
102
RTVSPost2010Prop40
 90
        0
102
RTVSPost2010PropOp40
 70
     1
102
RTVSPost2010Prop41ColorIndex
 90
       18
102
RTVSPost2010Prop41ColorRGB
 90
        0
102
RTVSPost2010PropOp41
 70
     1
102
RTVSPost2010Prop42
 90
       50
102
RTVSPost2010PropOp42
 70
     1
102
RTVSPost2010Prop43
 90
        3
102
RTVSPost2010PropOp43
 70
     1
102
RTVSPost2010Prop44ColorIndex
 90
        5
102
RTVSPost2010Prop44ColorRGB
 90
      255
102
RTVSPost2010PropOp44
 70
     1
102
RTVSPost2010Prop45
280
     0
102
RTVSPost2010PropOp45
 70
     1
102
RTVSPost2010Prop46
 90
       50
102
RTVSPost2010PropOp46
 70
     1
102
RTVSPost2010Prop47
 90
       50
102
RTVSPost2010PropOp47
 70
     1
102
RTVSPost2010Prop48
 90
       50
102
RTVSPost2010PropOp48
 70
     1
102
RTVSPost2010Prop49
280
     0
102
RTVSPost2010PropOp49
 70
     1
102
RTVSPost2010Prop50
 90
       50
102
RTVSPost2010PropOp50
 70
     1
102
RTVSPost2010Prop51ColorIndex
 90
      256
102
RTVSPost2010Prop51ColorRGB
 90
-16777216
102
RTVSPost2010PropOp51
 70
     0
102
RTVSPost2010Prop52
140
1.0
102
RTVSPost2010PropOp52
 70
     0
102
RTVSPost2010Prop53
 90
        2
102
RTVSPost2010PropOp53
 70
     1
102
RTVSPost2010Prop54
  1
strokes_ogs.tif
102
RTVSPost2010PropOp54
 70
     1
102
RTVSPost2010Prop55
280
     0
102
RTVSPost2010PropOp55
 70
     1
102
RTVSPost2010Prop56
140
1.0
102
RTVSPost2010PropOp56
 70
     1
102
RTVSPost2010Prop57
140
1.0
102
RTVSPost2010PropOp57
 70
     1
102
RTVSPropertyOp0
 70
     1
102
RTVSPropertyOp1
 70
     1
102
RTVSPropertyOp2
 70
     1
102
RTVSPropertyOp3
 70
     1
102
RTVSPropertyOp4
 70
     1
102
RTVSPropertyOp5
 70
     1
102
RTVSPropertyOp6
 70
     1
102
RTVSPropertyOp7
 70
     1
102
RTVSPropertyOp8
 70
     1
102
RTVSPropertyOp9
 70
     1
102
RTVSPropertyOp10
 70
     1
102
RTVSPropertyOp11
 70
     1
102
RTVSPropertyOp12
 70
     1
102
RTVSPropertyOp13
 70
     1
102
RTVSPropertyOp14
 70
     1
102
RTVSPropertyOp15
 70
     1
102
RTVSPropertyOp16
 70
     1
102
RTVSPropertyOp17
 70
     1
102
RTVSPropertyOp18
 70
     1
102
RTVSPropertyOp19
 70
     1
102
RTVSPropertyOp20
 70
     1
102
RTVSPropertyOp21
 70
     1
102
RTVSPropertyOp22
 70
     1
102
RTVSPropertyOp23
 70
     1
102
RTVSPropertyOp24
 70
     1
102
RTVSPropertyOp25
 70
     1
102
RTVSPropertyOp26
 70
     1
102
RTVSPropertyOp27
 70
     1
102
RTVSPropertyOp28
 70
     1
102
RTVSPropertyOp29
 70
     1
102
RTVSPropertyOp30
 70
     1
102
RTVSPropertyOp31
 70
     1
102
RTVSPropertyOp32
 70
     1
102
RTVSPropertyOp33
 70
     1
102
RTVSPropertyOp34
 70
     1
102
RTVSPropertyOp35
 70
     1
102
RTVSPropertyOp36
 70
     1
102
RTVSPropertyOp37
 70
     1
102
RTVSPropertyOp38
 70
     1
102
RTVSPropertyOp39
 70
     1
102
RTVSPropertyOp40
 70
     1
102
RTVSPropertyOp41
 70
     1
102
RTVSPropertyOp42
 70
     1
102
RTVSPropertyOp43
 70
     1
102
RTVSPropertyOp44
 70
     1
102
RTVSPropertyOp45
 70
     1
102
RTVSPropertyOp46
 70
     1
102
RTVSPropertyOp47
 70
     1
102
RTVSPropertyOp48
 70
     1
102
RTVSPropertyOp49
 70
     1
102
RTVSPropertyOp50
 70
     1
102
RTVSPropertyOp51
 70
     0
102
RTVSPropertyOp52
 70
     0
102
RTVSPropertyOp53
 70
     1
102
RTVSPropertyOp54
 70
     1
102
RTVSPropertyOp55
 70
     1
102
RTVSPropertyOp56
 70
     1
102
RTVSPropertyOp57
 70
     1
102
RTVSPropertyOp58
 70
     1
102
RTVSPropertyOp59
 70
     1
102
RTVSPropertyOp60
 70
     1
102
RTVSPropertyOp61
 70
     1
102
RTVSPropertyOp62
 70
     1
  0
XRECORD
  5
2CA6
102
{ACAD_REACTORS
330
2CA5
102
}
330
2CA5
100
AcDbXrecord
280
     1
102
RTVSPost2010Prop28
280
     0
102
RTVSPost2010PropOp28
 70
     1
102
RTVSPost2010Prop29
280
     1
102
RTVSPost2010PropOp29
 70
     1
102
RTVSPost2010Prop30
280
     1
102
RTVSPost2010PropOp30
 70
     1
102
RTVSPost2010Prop31
280
     0
102
RTVSPost2010PropOp31
 70
     1
102
RTVSPost2010Prop32
280
     0
102
RTVSPost2010PropOp32
 70
     1
102
RTVSPost2010Prop33
280
     0
102
RTVSPost2010PropOp33
 70
     1
102
RTVSPost2010Prop34
280
     0
102
RTVSPost2010PropOp34
 70
     1
102
RTVSPost2010Prop35
280
     0
102
RTVSPost2010PropOp35
 70
     1
102
RTVSPost2010Prop36
280
     0
102
RTVSPost2010PropOp36
 70
     1
102
RTVSPost2010Prop37
 90
       50
102
RTVSPost2010PropOp37
 70
     1
102
RTVSPost2010Prop38
140
0.0
102
RTVSPost2010PropOp38
 70
     1
102
RTVSPost2010Prop39
140
1.0
102
RTVSPost2010PropOp39
 70
     1
102
RTVSPost2010Prop40
 90
        0
102
RTVSPost2010PropOp40
 70
     1
102
RTVSPost2010Prop41ColorIndex
 90
       18
102
RTVSPost2010Prop41ColorRGB
 90
        0
102
RTVSPost2010PropOp41
 70
     1
102
RTVSPost2010Prop42
 90
       50
102
RTVSPost2010PropOp42
 70
     1
102
RTVSPost2010Prop43
 90
        3
102
RTVSPost2010PropOp43
 70
     1
102
RTVSPost2010Prop44ColorIndex
 90
        5
102
RTVSPost2010Prop44ColorRGB
 90
      255
102
RTVSPost2010PropOp44
 70
     1
102
RTVSPost2010Prop45
280
     0
102
RTVSPost2010PropOp45
 70
     1
102
RTVSPost2010Prop46
 90
       50
102
RTVSPost2010PropOp46
 70
     1
102
RTVSPost2010Prop47
 90
       50
102
RTVSPost2010PropOp47
 70
     1
102
RTVSPost2010Prop48
 90
       50
102
RTVSPost2010PropOp48
 70
     1
102
RTVSPost2010Prop49
280
     0
102
RTVSPost2010PropOp49
 70
     1
102
RTVSPost2010Prop50
 90
       50
102
RTVSPost2010PropOp50
 70
     1
102
RTVSPost2010Prop51ColorIndex
 90
      256
102
RTVSPost2010Prop51ColorRGB
 90
-16777216
102
RTVSPost2010PropOp51
 70
     0
102
RTVSPost2010Prop52
140
1.0
102
RTVSPost2010PropOp52
 70
     0
102
RTVSPost2010Prop53
 90
        2
102
RTVSPost2010PropOp53
 70
     1
102
RTVSPost2010Prop54
  1
strokes_ogs.tif
102
RTVSPost2010PropOp54
 70
     1
102
RTVSPost2010Prop55
280
     0
102
RTVSPost2010PropOp55
 70
     1
102
RTVSPost2010Prop56
140
1.0
102
RTVSPost2010PropOp56
 70
     1
102
RTVSPost2010Prop57
140
1.0
102
RTVSPost2010PropOp57
 70
     1
102
RTVSPropertyOp0
 70
     1
102
RTVSPropertyOp1
 70
     1
102
RTVSPropertyOp2
 70
     1
102
RTVSPropertyOp3
 70
     1
102
RTVSPropertyOp4
 70
     1
102
RTVSPropertyOp5
 70
     1
102
RTVSPropertyOp6
 70
     1
102
RTVSPropertyOp7
 70
     1
102
RTVSPropertyOp8
 70
     1
102
RTVSPropertyOp9
 70
     1
102
RTVSPropertyOp10
 70
     1
102
RTVSPropertyOp11
 70
     1
102
RTVSPropertyOp12
 70
     1
102
RTVSPropertyOp13
 70
     1
102
RTVSPropertyOp14
 70
     1
102
RTVSPropertyOp15
 70
     1
102
RTVSPropertyOp16
 70
     1
102
RTVSPropertyOp17
 70
     1
102
RTVSPropertyOp18
 70
     1
102
RTVSPropertyOp19
 70
     1
102
RTVSPropertyOp20
 70
     1
102
RTVSPropertyOp21
 70
     1
102
RTVSPropertyOp22
 70
     1
102
RTVSPropertyOp23
 70
     1
102
RTVSPropertyOp24
 70
     1
102
RTVSPropertyOp25
 70
     1
102
RTVSPropertyOp26
 70
     1
102
RTVSPropertyOp27
 70
     1
102
RTVSPropertyOp28
 70
     1
102
RTVSPropertyOp29
 70
     1
102
RTVSPropertyOp30
 70
     1
102
RTVSPropertyOp31
 70
     1
102
RTVSPropertyOp32
 70
     1
102
RTVSPropertyOp33
 70
     1
102
RTVSPropertyOp34
 70
     1
102
RTVSPropertyOp35
 70
     1
102
RTVSPropertyOp36
 70
     1
102
RTVSPropertyOp37
 70
     1
102
RTVSPropertyOp38
 70
     1
102
RTVSPropertyOp39
 70
     1
102
RTVSPropertyOp40
 70
     1
102
RTVSPropertyOp41
 70
     1
102
RTVSPropertyOp42
 70
     1
102
RTVSPropertyOp43
 70
     1
102
RTVSPropertyOp44
 70
     1
102
RTVSPropertyOp45
 70
     1
102
RTVSPropertyOp46
 70
     1
102
RTVSPropertyOp47
 70
     1
102
RTVSPropertyOp48
 70
     1
102
RTVSPropertyOp49
 70
     1
102
RTVSPropertyOp50
 70
     1
102
RTVSPropertyOp51
 70
     0
102
RTVSPropertyOp52
 70
     0
102
RTVSPropertyOp53
 70
     1
102
RTVSPropertyOp54
 70
     1
102
RTVSPropertyOp55
 70
     1
102
RTVSPropertyOp56
 70
     1
102
RTVSPropertyOp57
 70
     1
102
RTVSPropertyOp58
 70
     1
102
RTVSPropertyOp59
 70
     1
102
RTVSPropertyOp60
 70
     1
102
RTVSPropertyOp61
 70
     1
102
RTVSPropertyOp62
 70
     1
  0
XRECORD
  5
2CC2
102
{ACAD_REACTORS
330
2CC1
102
}
330
2CC1
100
AcDbXrecord
280
     1
102
RTVSPost2010Prop28
280
     0
102
RTVSPost2010PropOp28
 70
     1
102
RTVSPost2010Prop29
280
     1
102
RTVSPost2010PropOp29
 70
     1
102
RTVSPost2010Prop30
280
     1
102
RTVSPost2010PropOp30
 70
     1
102
RTVSPost2010Prop31
280
     0
102
RTVSPost2010PropOp31
 70
     1
102
RTVSPost2010Prop32
280
     0
102
RTVSPost2010PropOp32
 70
     1
102
RTVSPost2010Prop33
280
     0
102
RTVSPost2010PropOp33
 70
     1
102
RTVSPost2010Prop34
280
     0
102
RTVSPost2010PropOp34
 70
     1
102
RTVSPost2010Prop35
280
     0
102
RTVSPost2010PropOp35
 70
     1
102
RTVSPost2010Prop36
280
     0
102
RTVSPost2010PropOp36
 70
     1
102
RTVSPost2010Prop37
 90
       50
102
RTVSPost2010PropOp37
 70
     0
102
RTVSPost2010Prop38
140
0.0
102
RTVSPost2010PropOp38
 70
     0
102
RTVSPost2010Prop39
140
1.0
102
RTVSPost2010PropOp39
 70
     0
102
RTVSPost2010Prop40
 90
        0
102
RTVSPost2010PropOp40
 70
     0
102
RTVSPost2010Prop41ColorIndex
 90
       18
102
RTVSPost2010Prop41ColorRGB
 90
        0
102
RTVSPost2010PropOp41
 70
     0
102
RTVSPost2010Prop42
 90
       50
102
RTVSPost2010PropOp42
 70
     0
102
RTVSPost2010Prop43
 90
        3
102
RTVSPost2010PropOp43
 70
     0
102
RTVSPost2010Prop44ColorIndex
 90
        5
102
RTVSPost2010Prop44ColorRGB
 90
      255
102
RTVSPost2010PropOp44
 70
     0
102
RTVSPost2010Prop45
280
     0
102
RTVSPost2010PropOp45
 70
     1
102
RTVSPost2010Prop46
 90
       50
102
RTVSPost2010PropOp46
 70
     0
102
RTVSPost2010Prop47
 90
       50
102
RTVSPost2010PropOp47
 70
     0
102
RTVSPost2010Prop48
 90
       50
102
RTVSPost2010PropOp48
 70
     0
102
RTVSPost2010Prop49
280
     0
102
RTVSPost2010PropOp49
 70
     1
102
RTVSPost2010Prop50
 90
       50
102
RTVSPost2010PropOp50
 70
     0
102
RTVSPost2010Prop51ColorIndex
 90
      256
102
RTVSPost2010Prop51ColorRGB
 90
-16777216
102
RTVSPost2010PropOp51
 70
     0
102
RTVSPost2010Prop52
140
1.0
102
RTVSPost2010PropOp52
 70
     0
102
RTVSPost2010Prop53
 90
        2
102
RTVSPost2010PropOp53
 70
     0
102
RTVSPost2010Prop54
  1
strokes_ogs.tif
102
RTVSPost2010PropOp54
 70
     0
102
RTVSPost2010Prop55
280
     0
102
RTVSPost2010PropOp55
 70
     1
102
RTVSPost2010Prop56
140
1.0
102
RTVSPost2010PropOp56
 70
     0
102
RTVSPost2010Prop57
140
1.0
102
RTVSPost2010PropOp57
 70
     0
102
RTVSPropertyOp0
 70
     0
102
RTVSPropertyOp1
 70
     0
102
RTVSPropertyOp2
 70
     0
102
RTVSPropertyOp3
 70
     0
102
RTVSPropertyOp4
 70
     0
102
RTVSPropertyOp5
 70
     0
102
RTVSPropertyOp6
 70
     0
102
RTVSPropertyOp7
 70
     0
102
RTVSPropertyOp8
 70
     0
102
RTVSPropertyOp9
 70
     0
102
RTVSPropertyOp10
 70
     0
102
RTVSPropertyOp11
 70
     0
102
RTVSPropertyOp12
 70
     0
102
RTVSPropertyOp13
 70
     0
102
RTVSPropertyOp14
 70
     2
102
RTVSPropertyOp15
 70
     0
102
RTVSPropertyOp16
 70
     0
102
RTVSPropertyOp17
 70
     0
102
RTVSPropertyOp18
 70
     0
102
RTVSPropertyOp19
 70
     0
102
RTVSPropertyOp20
 70
     0
102
RTVSPropertyOp21
 70
     0
102
RTVSPropertyOp22
 70
     0
102
RTVSPropertyOp23
 70
     0
102
RTVSPropertyOp24
 70
     0
102
RTVSPropertyOp25
 70
     0
102
RTVSPropertyOp26
 70
     0
102
RTVSPropertyOp27
 70
     0
102
RTVSPropertyOp28
 70
     1
102
RTVSPropertyOp29
 70
     1
102
RTVSPropertyOp30
 70
     1
102
RTVSPropertyOp31
 70
     1
102
RTVSPropertyOp32
 70
     1
102
RTVSPropertyOp33
 70
     1
102
RTVSPropertyOp34
 70
     1
102
RTVSPropertyOp35
 70
     1
102
RTVSPropertyOp36
 70
     1
102
RTVSPropertyOp37
 70
     0
102
RTVSPropertyOp38
 70
     0
102
RTVSPropertyOp39
 70
     0
102
RTVSPropertyOp40
 70
     0
102
RTVSPropertyOp41
 70
     0
102
RTVSPropertyOp42
 70
     0
102
RTVSPropertyOp43
 70
     0
102
RTVSPropertyOp44
 70
     0
102
RTVSPropertyOp45
 70
     1
102
RTVSPropertyOp46
 70
     0
102
RTVSPropertyOp47
 70
     0
102
RTVSPropertyOp48
 70
     0
102
RTVSPropertyOp49
 70
     1
102
RTVSPropertyOp50
 70
     0
102
RTVSPropertyOp51
 70
     0
102
RTVSPropertyOp52
 70
     0
102
RTVSPropertyOp53
 70
     0
102
RTVSPropertyOp54
 70
     0
102
RTVSPropertyOp55
 70
     1
102
RTVSPropertyOp56
 70
     0
102
RTVSPropertyOp57
 70
     0
102
RTVSPropertyOp58
 70
     0
102
RTVSPropertyOp59
 70
     0
102
RTVSPropertyOp60
 70
     0
102
RTVSPropertyOp61
 70
     0
102
RTVSPropertyOp62
 70
     0
  0
XRECORD
  5
2CB2
102
{ACAD_REACTORS
330
2CB1
102
}
330
2CB1
100
AcDbXrecord
280
     1
102
RTVSPost2010Prop28
280
     0
102
RTVSPost2010PropOp28
 70
     1
102
RTVSPost2010Prop29
280
     1
102
RTVSPost2010PropOp29
 70
     1
102
RTVSPost2010Prop30
280
     1
102
RTVSPost2010PropOp30
 70
     1
102
RTVSPost2010Prop31
280
     0
102
RTVSPost2010PropOp31
 70
     1
102
RTVSPost2010Prop32
280
     0
102
RTVSPost2010PropOp32
 70
     1
102
RTVSPost2010Prop33
280
     0
102
RTVSPost2010PropOp33
 70
     1
102
RTVSPost2010Prop34
280
     0
102
RTVSPost2010PropOp34
 70
     1
102
RTVSPost2010Prop35
280
     0
102
RTVSPost2010PropOp35
 70
     1
102
RTVSPost2010Prop36
280
     0
102
RTVSPost2010PropOp36
 70
     1
102
RTVSPost2010Prop37
 90
       50
102
RTVSPost2010PropOp37
 70
     1
102
RTVSPost2010Prop38
140
0.0
102
RTVSPost2010PropOp38
 70
     1
102
RTVSPost2010Prop39
140
1.0
102
RTVSPost2010PropOp39
 70
     1
102
RTVSPost2010Prop40
 90
        0
102
RTVSPost2010PropOp40
 70
     1
102
RTVSPost2010Prop41ColorIndex
 90
       18
102
RTVSPost2010Prop41ColorRGB
 90
        0
102
RTVSPost2010PropOp41
 70
     1
102
RTVSPost2010Prop42
 90
       50
102
RTVSPost2010PropOp42
 70
     1
102
RTVSPost2010Prop43
 90
        3
102
RTVSPost2010PropOp43
 70
     1
102
RTVSPost2010Prop44ColorIndex
 90
        5
102
RTVSPost2010Prop44ColorRGB
 90
      255
102
RTVSPost2010PropOp44
 70
     1
102
RTVSPost2010Prop45
280
     0
102
RTVSPost2010PropOp45
 70
     1
102
RTVSPost2010Prop46
 90
       50
102
RTVSPost2010PropOp46
 70
     1
102
RTVSPost2010Prop47
 90
       50
102
RTVSPost2010PropOp47
 70
     1
102
RTVSPost2010Prop48
 90
       50
102
RTVSPost2010PropOp48
 70
     1
102
RTVSPost2010Prop49
280
     0
102
RTVSPost2010PropOp49
 70
     1
102
RTVSPost2010Prop50
 90
       50
102
RTVSPost2010PropOp50
 70
     1
102
RTVSPost2010Prop51ColorIndex
 90
      256
102
RTVSPost2010Prop51ColorRGB
 90
-16777216
102
RTVSPost2010PropOp51
 70
     0
102
RTVSPost2010Prop52
140
1.0
102
RTVSPost2010PropOp52
 70
     0
102
RTVSPost2010Prop53
 90
        2
102
RTVSPost2010PropOp53
 70
     1
102
RTVSPost2010Prop54
  1
strokes_ogs.tif
102
RTVSPost2010PropOp54
 70
     1
102
RTVSPost2010Prop55
280
     0
102
RTVSPost2010PropOp55
 70
     1
102
RTVSPost2010Prop56
140
1.0
102
RTVSPost2010PropOp56
 70
     1
102
RTVSPost2010Prop57
140
1.0
102
RTVSPost2010PropOp57
 70
     1
102
RTVSPropertyOp0
 70
     1
102
RTVSPropertyOp1
 70
     1
102
RTVSPropertyOp2
 70
     1
102
RTVSPropertyOp3
 70
     1
102
RTVSPropertyOp4
 70
     1
102
RTVSPropertyOp5
 70
     1
102
RTVSPropertyOp6
 70
     1
102
RTVSPropertyOp7
 70
     1
102
RTVSPropertyOp8
 70
     1
102
RTVSPropertyOp9
 70
     1
102
RTVSPropertyOp10
 70
     1
102
RTVSPropertyOp11
 70
     1
102
RTVSPropertyOp12
 70
     1
102
RTVSPropertyOp13
 70
     1
102
RTVSPropertyOp14
 70
     1
102
RTVSPropertyOp15
 70
     1
102
RTVSPropertyOp16
 70
     1
102
RTVSPropertyOp17
 70
     1
102
RTVSPropertyOp18
 70
     1
102
RTVSPropertyOp19
 70
     1
102
RTVSPropertyOp20
 70
     1
102
RTVSPropertyOp21
 70
     1
102
RTVSPropertyOp22
 70
     1
102
RTVSPropertyOp23
 70
     1
102
RTVSPropertyOp24
 70
     1
102
RTVSPropertyOp25
 70
     1
102
RTVSPropertyOp26
 70
     1
102
RTVSPropertyOp27
 70
     1
102
RTVSPropertyOp28
 70
     1
102
RTVSPropertyOp29
 70
     1
102
RTVSPropertyOp30
 70
     1
102
RTVSPropertyOp31
 70
     1
102
RTVSPropertyOp32
 70
     1
102
RTVSPropertyOp33
 70
     1
102
RTVSPropertyOp34
 70
     1
102
RTVSPropertyOp35
 70
     1
102
RTVSPropertyOp36
 70
     1
102
RTVSPropertyOp37
 70
     1
102
RTVSPropertyOp38
 70
     1
102
RTVSPropertyOp39
 70
     1
102
RTVSPropertyOp40
 70
     1
102
RTVSPropertyOp41
 70
     1
102
RTVSPropertyOp42
 70
     1
102
RTVSPropertyOp43
 70
     1
102
RTVSPropertyOp44
 70
     1
102
RTVSPropertyOp45
 70
     1
102
RTVSPropertyOp46
 70
     1
102
RTVSPropertyOp47
 70
     1
102
RTVSPropertyOp48
 70
     1
102
RTVSPropertyOp49
 70
     1
102
RTVSPropertyOp50
 70
     1
102
RTVSPropertyOp51
 70
     0
102
RTVSPropertyOp52
 70
     0
102
RTVSPropertyOp53
 70
     1
102
RTVSPropertyOp54
 70
     1
102
RTVSPropertyOp55
 70
     1
102
RTVSPropertyOp56
 70
     1
102
RTVSPropertyOp57
 70
     1
102
RTVSPropertyOp58
 70
     1
102
RTVSPropertyOp59
 70
     1
102
RTVSPropertyOp60
 70
     1
102
RTVSPropertyOp61
 70
     1
102
RTVSPropertyOp62
 70
     1
  0
XRECORD
  5
2CC4
102
{ACAD_REACTORS
330
2CC3
102
}
330
2CC3
100
AcDbXrecord
280
     1
102
RTVSPost2010Prop28
280
     0
102
RTVSPost2010PropOp28
 70
     1
102
RTVSPost2010Prop29
280
     1
102
RTVSPost2010PropOp29
 70
     1
102
RTVSPost2010Prop30
280
     1
102
RTVSPost2010PropOp30
 70
     1
102
RTVSPost2010Prop31
280
     0
102
RTVSPost2010PropOp31
 70
     1
102
RTVSPost2010Prop32
280
     0
102
RTVSPost2010PropOp32
 70
     1
102
RTVSPost2010Prop33
280
     0
102
RTVSPost2010PropOp33
 70
     1
102
RTVSPost2010Prop34
280
     0
102
RTVSPost2010PropOp34
 70
     1
102
RTVSPost2010Prop35
280
     0
102
RTVSPost2010PropOp35
 70
     1
102
RTVSPost2010Prop36
280
     0
102
RTVSPost2010PropOp36
 70
     1
102
RTVSPost2010Prop37
 90
       50
102
RTVSPost2010PropOp37
 70
     0
102
RTVSPost2010Prop38
140
0.0
102
RTVSPost2010PropOp38
 70
     0
102
RTVSPost2010Prop39
140
1.0
102
RTVSPost2010PropOp39
 70
     0
102
RTVSPost2010Prop40
 90
        0
102
RTVSPost2010PropOp40
 70
     0
102
RTVSPost2010Prop41ColorIndex
 90
       18
102
RTVSPost2010Prop41ColorRGB
 90
        0
102
RTVSPost2010PropOp41
 70
     0
102
RTVSPost2010Prop42
 90
       50
102
RTVSPost2010PropOp42
 70
     0
102
RTVSPost2010Prop43
 90
        3
102
RTVSPost2010PropOp43
 70
     0
102
RTVSPost2010Prop44ColorIndex
 90
        5
102
RTVSPost2010Prop44ColorRGB
 90
      255
102
RTVSPost2010PropOp44
 70
     0
102
RTVSPost2010Prop45
280
     0
102
RTVSPost2010PropOp45
 70
     1
102
RTVSPost2010Prop46
 90
       50
102
RTVSPost2010PropOp46
 70
     0
102
RTVSPost2010Prop47
 90
       50
102
RTVSPost2010PropOp47
 70
     0
102
RTVSPost2010Prop48
 90
       50
102
RTVSPost2010PropOp48
 70
     0
102
RTVSPost2010Prop49
280
     0
102
RTVSPost2010PropOp49
 70
     1
102
RTVSPost2010Prop50
 90
       50
102
RTVSPost2010PropOp50
 70
     0
102
RTVSPost2010Prop51ColorIndex
 90
      256
102
RTVSPost2010Prop51ColorRGB
 90
-16777216
102
RTVSPost2010PropOp51
 70
     0
102
RTVSPost2010Prop52
140
1.0
102
RTVSPost2010PropOp52
 70
     0
102
RTVSPost2010Prop53
 90
        2
102
RTVSPost2010PropOp53
 70
     0
102
RTVSPost2010Prop54
  1
strokes_ogs.tif
102
RTVSPost2010PropOp54
 70
     0
102
RTVSPost2010Prop55
280
     0
102
RTVSPost2010PropOp55
 70
     1
102
RTVSPost2010Prop56
140
1.0
102
RTVSPost2010PropOp56
 70
     0
102
RTVSPost2010Prop57
140
1.0
102
RTVSPost2010PropOp57
 70
     0
102
RTVSPropertyOp0
 70
     0
102
RTVSPropertyOp1
 70
     0
102
RTVSPropertyOp2
 70
     0
102
RTVSPropertyOp3
 70
     0
102
RTVSPropertyOp4
 70
     0
102
RTVSPropertyOp5
 70
     0
102
RTVSPropertyOp6
 70
     0
102
RTVSPropertyOp7
 70
     0
102
RTVSPropertyOp8
 70
     0
102
RTVSPropertyOp9
 70
     0
102
RTVSPropertyOp10
 70
     0
102
RTVSPropertyOp11
 70
     0
102
RTVSPropertyOp12
 70
     0
102
RTVSPropertyOp13
 70
     0
102
RTVSPropertyOp14
 70
     2
102
RTVSPropertyOp15
 70
     0
102
RTVSPropertyOp16
 70
     0
102
RTVSPropertyOp17
 70
     0
102
RTVSPropertyOp18
 70
     0
102
RTVSPropertyOp19
 70
     0
102
RTVSPropertyOp20
 70
     0
102
RTVSPropertyOp21
 70
     0
102
RTVSPropertyOp22
 70
     0
102
RTVSPropertyOp23
 70
     0
102
RTVSPropertyOp24
 70
     0
102
RTVSPropertyOp25
 70
     0
102
RTVSPropertyOp26
 70
     0
102
RTVSPropertyOp27
 70
     0
102
RTVSPropertyOp28
 70
     1
102
RTVSPropertyOp29
 70
     1
102
RTVSPropertyOp30
 70
     1
102
RTVSPropertyOp31
 70
     1
102
RTVSPropertyOp32
 70
     1
102
RTVSPropertyOp33
 70
     1
102
RTVSPropertyOp34
 70
     1
102
RTVSPropertyOp35
 70
     1
102
RTVSPropertyOp36
 70
     1
102
RTVSPropertyOp37
 70
     0
102
RTVSPropertyOp38
 70
     0
102
RTVSPropertyOp39
 70
     0
102
RTVSPropertyOp40
 70
     0
102
RTVSPropertyOp41
 70
     0
102
RTVSPropertyOp42
 70
     0
102
RTVSPropertyOp43
 70
     0
102
RTVSPropertyOp44
 70
     0
102
RTVSPropertyOp45
 70
     1
102
RTVSPropertyOp46
 70
     0
102
RTVSPropertyOp47
 70
     0
102
RTVSPropertyOp48
 70
     0
102
RTVSPropertyOp49
 70
     1
102
RTVSPropertyOp50
 70
     0
102
RTVSPropertyOp51
 70
     0
102
RTVSPropertyOp52
 70
     0
102
RTVSPropertyOp53
 70
     0
102
RTVSPropertyOp54
 70
     0
102
RTVSPropertyOp55
 70
     1
102
RTVSPropertyOp56
 70
     0
102
RTVSPropertyOp57
 70
     0
102
RTVSPropertyOp58
 70
     0
102
RTVSPropertyOp59
 70
     0
102
RTVSPropertyOp60
 70
     0
102
RTVSPropertyOp61
 70
     0
102
RTVSPropertyOp62
 70
     0
  0
XRECORD
  5
2CAA
102
{ACAD_REACTORS
330
2CA9
102
}
330
2CA9
100
AcDbXrecord
280
     1
102
RTVSPost2010Prop28
280
     0
102
RTVSPost2010PropOp28
 70
     1
102
RTVSPost2010Prop29
280
     1
102
RTVSPost2010PropOp29
 70
     1
102
RTVSPost2010Prop30
280
     1
102
RTVSPost2010PropOp30
 70
     1
102
RTVSPost2010Prop31
280
     0
102
RTVSPost2010PropOp31
 70
     1
102
RTVSPost2010Prop32
280
     0
102
RTVSPost2010PropOp32
 70
     1
102
RTVSPost2010Prop33
280
     0
102
RTVSPost2010PropOp33
 70
     1
102
RTVSPost2010Prop34
280
     0
102
RTVSPost2010PropOp34
 70
     1
102
RTVSPost2010Prop35
280
     0
102
RTVSPost2010PropOp35
 70
     1
102
RTVSPost2010Prop36
280
     0
102
RTVSPost2010PropOp36
 70
     1
102
RTVSPost2010Prop37
 90
       50
102
RTVSPost2010PropOp37
 70
     1
102
RTVSPost2010Prop38
140
0.0
102
RTVSPost2010PropOp38
 70
     1
102
RTVSPost2010Prop39
140
1.0
102
RTVSPost2010PropOp39
 70
     1
102
RTVSPost2010Prop40
 90
        0
102
RTVSPost2010PropOp40
 70
     1
102
RTVSPost2010Prop41ColorIndex
 90
       18
102
RTVSPost2010Prop41ColorRGB
 90
        0
102
RTVSPost2010PropOp41
 70
     1
102
RTVSPost2010Prop42
 90
       50
102
RTVSPost2010PropOp42
 70
     1
102
RTVSPost2010Prop43
 90
        3
102
RTVSPost2010PropOp43
 70
     1
102
RTVSPost2010Prop44ColorIndex
 90
        5
102
RTVSPost2010Prop44ColorRGB
 90
      255
102
RTVSPost2010PropOp44
 70
     1
102
RTVSPost2010Prop45
280
     0
102
RTVSPost2010PropOp45
 70
     1
102
RTVSPost2010Prop46
 90
       50
102
RTVSPost2010PropOp46
 70
     1
102
RTVSPost2010Prop47
 90
       50
102
RTVSPost2010PropOp47
 70
     1
102
RTVSPost2010Prop48
 90
       50
102
RTVSPost2010PropOp48
 70
     1
102
RTVSPost2010Prop49
280
     0
102
RTVSPost2010PropOp49
 70
     1
102
RTVSPost2010Prop50
 90
       50
102
RTVSPost2010PropOp50
 70
     1
102
RTVSPost2010Prop51ColorIndex
 90
      256
102
RTVSPost2010Prop51ColorRGB
 90
-16777216
102
RTVSPost2010PropOp51
 70
     0
102
RTVSPost2010Prop52
140
1.0
102
RTVSPost2010PropOp52
 70
     0
102
RTVSPost2010Prop53
 90
        2
102
RTVSPost2010PropOp53
 70
     1
102
RTVSPost2010Prop54
  1
strokes_ogs.tif
102
RTVSPost2010PropOp54
 70
     1
102
RTVSPost2010Prop55
280
     0
102
RTVSPost2010PropOp55
 70
     1
102
RTVSPost2010Prop56
140
1.0
102
RTVSPost2010PropOp56
 70
     1
102
RTVSPost2010Prop57
140
1.0
102
RTVSPost2010PropOp57
 70
     1
102
RTVSPropertyOp0
 70
     1
102
RTVSPropertyOp1
 70
     1
102
RTVSPropertyOp2
 70
     1
102
RTVSPropertyOp3
 70
     1
102
RTVSPropertyOp4
 70
     1
102
RTVSPropertyOp5
 70
     1
102
RTVSPropertyOp6
 70
     1
102
RTVSPropertyOp7
 70
     1
102
RTVSPropertyOp8
 70
     1
102
RTVSPropertyOp9
 70
     1
102
RTVSPropertyOp10
 70
     1
102
RTVSPropertyOp11
 70
     1
102
RTVSPropertyOp12
 70
     1
102
RTVSPropertyOp13
 70
     1
102
RTVSPropertyOp14
 70
     1
102
RTVSPropertyOp15
 70
     1
102
RTVSPropertyOp16
 70
     1
102
RTVSPropertyOp17
 70
     1
102
RTVSPropertyOp18
 70
     1
102
RTVSPropertyOp19
 70
     1
102
RTVSPropertyOp20
 70
     1
102
RTVSPropertyOp21
 70
     1
102
RTVSPropertyOp22
 70
     1
102
RTVSPropertyOp23
 70
     1
102
RTVSPropertyOp24
 70
     1
102
RTVSPropertyOp25
 70
     1
102
RTVSPropertyOp26
 70
     1
102
RTVSPropertyOp27
 70
     1
102
RTVSPropertyOp28
 70
     1
102
RTVSPropertyOp29
 70
     1
102
RTVSPropertyOp30
 70
     1
102
RTVSPropertyOp31
 70
     1
102
RTVSPropertyOp32
 70
     1
102
RTVSPropertyOp33
 70
     1
102
RTVSPropertyOp34
 70
     1
102
RTVSPropertyOp35
 70
     1
102
RTVSPropertyOp36
 70
     1
102
RTVSPropertyOp37
 70
     1
102
RTVSPropertyOp38
 70
     1
102
RTVSPropertyOp39
 70
     1
102
RTVSPropertyOp40
 70
     1
102
RTVSPropertyOp41
 70
     1
102
RTVSPropertyOp42
 70
     1
102
RTVSPropertyOp43
 70
     1
102
RTVSPropertyOp44
 70
     1
102
RTVSPropertyOp45
 70
     1
102
RTVSPropertyOp46
 70
     1
102
RTVSPropertyOp47
 70
     1
102
RTVSPropertyOp48
 70
     1
102
RTVSPropertyOp49
 70
     1
102
RTVSPropertyOp50
 70
     1
102
RTVSPropertyOp51
 70
     0
102
RTVSPropertyOp52
 70
     0
102
RTVSPropertyOp53
 70
     1
102
RTVSPropertyOp54
 70
     1
102
RTVSPropertyOp55
 70
     1
102
RTVSPropertyOp56
 70
     1
102
RTVSPropertyOp57
 70
     1
102
RTVSPropertyOp58
 70
     1
102
RTVSPropertyOp59
 70
     1
102
RTVSPropertyOp60
 70
     1
102
RTVSPropertyOp61
 70
     1
102
RTVSPropertyOp62
 70
     1
  0
XRECORD
  5
2CC0
102
{ACAD_REACTORS
330
2CBF
102
}
330
2CBF
100
AcDbXrecord
280
     1
102
RTVSPost2010Prop28
280
     0
102
RTVSPost2010PropOp28
 70
     1
102
RTVSPost2010Prop29
280
     1
102
RTVSPost2010PropOp29
 70
     1
102
RTVSPost2010Prop30
280
     1
102
RTVSPost2010PropOp30
 70
     1
102
RTVSPost2010Prop31
280
     0
102
RTVSPost2010PropOp31
 70
     1
102
RTVSPost2010Prop32
280
     0
102
RTVSPost2010PropOp32
 70
     1
102
RTVSPost2010Prop33
280
     0
102
RTVSPost2010PropOp33
 70
     1
102
RTVSPost2010Prop34
280
     0
102
RTVSPost2010PropOp34
 70
     1
102
RTVSPost2010Prop35
280
     0
102
RTVSPost2010PropOp35
 70
     1
102
RTVSPost2010Prop36
280
     0
102
RTVSPost2010PropOp36
 70
     1
102
RTVSPost2010Prop37
 90
       50
102
RTVSPost2010PropOp37
 70
     1
102
RTVSPost2010Prop38
140
0.0
102
RTVSPost2010PropOp38
 70
     1
102
RTVSPost2010Prop39
140
1.0
102
RTVSPost2010PropOp39
 70
     1
102
RTVSPost2010Prop40
 90
        0
102
RTVSPost2010PropOp40
 70
     1
102
RTVSPost2010Prop41ColorIndex
 90
       18
102
RTVSPost2010Prop41ColorRGB
 90
        0
102
RTVSPost2010PropOp41
 70
     1
102
RTVSPost2010Prop42
 90
       50
102
RTVSPost2010PropOp42
 70
     1
102
RTVSPost2010Prop43
 90
        3
102
RTVSPost2010PropOp43
 70
     1
102
RTVSPost2010Prop44ColorIndex
 90
        5
102
RTVSPost2010Prop44ColorRGB
 90
      255
102
RTVSPost2010PropOp44
 70
     1
102
RTVSPost2010Prop45
280
     0
102
RTVSPost2010PropOp45
 70
     1
102
RTVSPost2010Prop46
 90
       50
102
RTVSPost2010PropOp46
 70
     1
102
RTVSPost2010Prop47
 90
       50
102
RTVSPost2010PropOp47
 70
     1
102
RTVSPost2010Prop48
 90
       50
102
RTVSPost2010PropOp48
 70
     1
102
RTVSPost2010Prop49
280
     0
102
RTVSPost2010PropOp49
 70
     1
102
RTVSPost2010Prop50
 90
       50
102
RTVSPost2010PropOp50
 70
     1
102
RTVSPost2010Prop51ColorIndex
 90
      256
102
RTVSPost2010Prop51ColorRGB
 90
-16777216
102
RTVSPost2010PropOp51
 70
     0
102
RTVSPost2010Prop52
140
1.0
102
RTVSPost2010PropOp52
 70
     0
102
RTVSPost2010Prop53
 90
        2
102
RTVSPost2010PropOp53
 70
     1
102
RTVSPost2010Prop54
  1
strokes_ogs.tif
102
RTVSPost2010PropOp54
 70
     1
102
RTVSPost2010Prop55
280
     0
102
RTVSPost2010PropOp55
 70
     1
102
RTVSPost2010Prop56
140
1.0
102
RTVSPost2010PropOp56
 70
     1
102
RTVSPost2010Prop57
140
1.0
102
RTVSPost2010PropOp57
 70
     1
102
RTVSPropertyOp0
 70
     1
102
RTVSPropertyOp1
 70
     1
102
RTVSPropertyOp2
 70
     1
102
RTVSPropertyOp3
 70
     1
102
RTVSPropertyOp4
 70
     1
102
RTVSPropertyOp5
 70
     1
102
RTVSPropertyOp6
 70
     1
102
RTVSPropertyOp7
 70
     1
102
RTVSPropertyOp8
 70
     1
102
RTVSPropertyOp9
 70
     1
102
RTVSPropertyOp10
 70
     1
102
RTVSPropertyOp11
 70
     1
102
RTVSPropertyOp12
 70
     1
102
RTVSPropertyOp13
 70
     1
102
RTVSPropertyOp14
 70
     1
102
RTVSPropertyOp15
 70
     1
102
RTVSPropertyOp16
 70
     1
102
RTVSPropertyOp17
 70
     1
102
RTVSPropertyOp18
 70
     1
102
RTVSPropertyOp19
 70
     1
102
RTVSPropertyOp20
 70
     1
102
RTVSPropertyOp21
 70
     1
102
RTVSPropertyOp22
 70
     1
102
RTVSPropertyOp23
 70
     1
102
RTVSPropertyOp24
 70
     1
102
RTVSPropertyOp25
 70
     1
102
RTVSPropertyOp26
 70
     1
102
RTVSPropertyOp27
 70
     1
102
RTVSPropertyOp28
 70
     1
102
RTVSPropertyOp29
 70
     1
102
RTVSPropertyOp30
 70
     1
102
RTVSPropertyOp31
 70
     1
102
RTVSPropertyOp32
 70
     1
102
RTVSPropertyOp33
 70
     1
102
RTVSPropertyOp34
 70
     1
102
RTVSPropertyOp35
 70
     1
102
RTVSPropertyOp36
 70
     1
102
RTVSPropertyOp37
 70
     1
102
RTVSPropertyOp38
 70
     1
102
RTVSPropertyOp39
 70
     1
102
RTVSPropertyOp40
 70
     1
102
RTVSPropertyOp41
 70
     1
102
RTVSPropertyOp42
 70
     1
102
RTVSPropertyOp43
 70
     1
102
RTVSPropertyOp44
 70
     1
102
RTVSPropertyOp45
 70
     1
102
RTVSPropertyOp46
 70
     1
102
RTVSPropertyOp47
 70
     1
102
RTVSPropertyOp48
 70
     1
102
RTVSPropertyOp49
 70
     1
102
RTVSPropertyOp50
 70
     1
102
RTVSPropertyOp51
 70
     0
102
RTVSPropertyOp52
 70
     0
102
RTVSPropertyOp53
 70
     1
102
RTVSPropertyOp54
 70
     1
102
RTVSPropertyOp55
 70
     1
102
RTVSPropertyOp56
 70
     1
102
RTVSPropertyOp57
 70
     1
102
RTVSPropertyOp58
 70
     1
102
RTVSPropertyOp59
 70
     1
102
RTVSPropertyOp60
 70
     1
102
RTVSPropertyOp61
 70
     1
102
RTVSPropertyOp62
 70
     1
  0
XRECORD
  5
2CBE
102
{ACAD_REACTORS
330
2CBD
102
}
330
2CBD
100
AcDbXrecord
280
     1
102
RTVSPost2010Prop28
280
     0
102
RTVSPost2010PropOp28
 70
     1
102
RTVSPost2010Prop29
280
     1
102
RTVSPost2010PropOp29
 70
     1
102
RTVSPost2010Prop30
280
     1
102
RTVSPost2010PropOp30
 70
     1
102
RTVSPost2010Prop31
280
     0
102
RTVSPost2010PropOp31
 70
     1
102
RTVSPost2010Prop32
280
     0
102
RTVSPost2010PropOp32
 70
     1
102
RTVSPost2010Prop33
280
     0
102
RTVSPost2010PropOp33
 70
     1
102
RTVSPost2010Prop34
280
     0
102
RTVSPost2010PropOp34
 70
     1
102
RTVSPost2010Prop35
280
     0
102
RTVSPost2010PropOp35
 70
     1
102
RTVSPost2010Prop36
280
     0
102
RTVSPost2010PropOp36
 70
     1
102
RTVSPost2010Prop37
 90
       50
102
RTVSPost2010PropOp37
 70
     1
102
RTVSPost2010Prop38
140
0.0
102
RTVSPost2010PropOp38
 70
     1
102
RTVSPost2010Prop39
140
1.0
102
RTVSPost2010PropOp39
 70
     1
102
RTVSPost2010Prop40
 90
        0
102
RTVSPost2010PropOp40
 70
     1
102
RTVSPost2010Prop41ColorIndex
 90
       18
102
RTVSPost2010Prop41ColorRGB
 90
        0
102
RTVSPost2010PropOp41
 70
     1
102
RTVSPost2010Prop42
 90
       50
102
RTVSPost2010PropOp42
 70
     1
102
RTVSPost2010Prop43
 90
        3
102
RTVSPost2010PropOp43
 70
     1
102
RTVSPost2010Prop44ColorIndex
 90
        5
102
RTVSPost2010Prop44ColorRGB
 90
      255
102
RTVSPost2010PropOp44
 70
     1
102
RTVSPost2010Prop45
280
     0
102
RTVSPost2010PropOp45
 70
     1
102
RTVSPost2010Prop46
 90
       50
102
RTVSPost2010PropOp46
 70
     1
102
RTVSPost2010Prop47
 90
       50
102
RTVSPost2010PropOp47
 70
     1
102
RTVSPost2010Prop48
 90
       50
102
RTVSPost2010PropOp48
 70
     1
102
RTVSPost2010Prop49
280
     0
102
RTVSPost2010PropOp49
 70
     1
102
RTVSPost2010Prop50
 90
       50
102
RTVSPost2010PropOp50
 70
     1
102
RTVSPost2010Prop51ColorIndex
 90
      256
102
RTVSPost2010Prop51ColorRGB
 90
-16777216
102
RTVSPost2010PropOp51
 70
     0
102
RTVSPost2010Prop52
140
1.0
102
RTVSPost2010PropOp52
 70
     0
102
RTVSPost2010Prop53
 90
        2
102
RTVSPost2010PropOp53
 70
     1
102
RTVSPost2010Prop54
  1
strokes_ogs.tif
102
RTVSPost2010PropOp54
 70
     1
102
RTVSPost2010Prop55
280
     0
102
RTVSPost2010PropOp55
 70
     1
102
RTVSPost2010Prop56
140
1.0
102
RTVSPost2010PropOp56
 70
     1
102
RTVSPost2010Prop57
140
1.0
102
RTVSPost2010PropOp57
 70
     1
102
RTVSPropertyOp0
 70
     1
102
RTVSPropertyOp1
 70
     1
102
RTVSPropertyOp2
 70
     1
102
RTVSPropertyOp3
 70
     1
102
RTVSPropertyOp4
 70
     1
102
RTVSPropertyOp5
 70
     1
102
RTVSPropertyOp6
 70
     1
102
RTVSPropertyOp7
 70
     1
102
RTVSPropertyOp8
 70
     1
102
RTVSPropertyOp9
 70
     1
102
RTVSPropertyOp10
 70
     1
102
RTVSPropertyOp11
 70
     1
102
RTVSPropertyOp12
 70
     1
102
RTVSPropertyOp13
 70
     1
102
RTVSPropertyOp14
 70
     1
102
RTVSPropertyOp15
 70
     1
102
RTVSPropertyOp16
 70
     1
102
RTVSPropertyOp17
 70
     1
102
RTVSPropertyOp18
 70
     1
102
RTVSPropertyOp19
 70
     1
102
RTVSPropertyOp20
 70
     1
102
RTVSPropertyOp21
 70
     1
102
RTVSPropertyOp22
 70
     1
102
RTVSPropertyOp23
 70
     1
102
RTVSPropertyOp24
 70
     1
102
RTVSPropertyOp25
 70
     1
102
RTVSPropertyOp26
 70
     1
102
RTVSPropertyOp27
 70
     1
102
RTVSPropertyOp28
 70
     1
102
RTVSPropertyOp29
 70
     1
102
RTVSPropertyOp30
 70
     1
102
RTVSPropertyOp31
 70
     1
102
RTVSPropertyOp32
 70
     1
102
RTVSPropertyOp33
 70
     1
102
RTVSPropertyOp34
 70
     1
102
RTVSPropertyOp35
 70
     1
102
RTVSPropertyOp36
 70
     1
102
RTVSPropertyOp37
 70
     1
102
RTVSPropertyOp38
 70
     1
102
RTVSPropertyOp39
 70
     1
102
RTVSPropertyOp40
 70
     1
102
RTVSPropertyOp41
 70
     1
102
RTVSPropertyOp42
 70
     1
102
RTVSPropertyOp43
 70
     1
102
RTVSPropertyOp44
 70
     1
102
RTVSPropertyOp45
 70
     1
102
RTVSPropertyOp46
 70
     1
102
RTVSPropertyOp47
 70
     1
102
RTVSPropertyOp48
 70
     1
102
RTVSPropertyOp49
 70
     1
102
RTVSPropertyOp50
 70
     1
102
RTVSPropertyOp51
 70
     0
102
RTVSPropertyOp52
 70
     0
102
RTVSPropertyOp53
 70
     1
102
RTVSPropertyOp54
 70
     1
102
RTVSPropertyOp55
 70
     1
102
RTVSPropertyOp56
 70
     1
102
RTVSPropertyOp57
 70
     1
102
RTVSPropertyOp58
 70
     1
102
RTVSPropertyOp59
 70
     1
102
RTVSPropertyOp60
 70
     1
102
RTVSPropertyOp61
 70
     1
102
RTVSPropertyOp62
 70
     1
  0
XRECORD
  5
2CB8
102
{ACAD_REACTORS
330
2CB7
102
}
330
2CB7
100
AcDbXrecord
280
     1
102
RTVSPost2010Prop28
280
     0
102
RTVSPost2010PropOp28
 70
     1
102
RTVSPost2010Prop29
280
     1
102
RTVSPost2010PropOp29
 70
     1
102
RTVSPost2010Prop30
280
     1
102
RTVSPost2010PropOp30
 70
     1
102
RTVSPost2010Prop31
280
     0
102
RTVSPost2010PropOp31
 70
     1
102
RTVSPost2010Prop32
280
     0
102
RTVSPost2010PropOp32
 70
     1
102
RTVSPost2010Prop33
280
     0
102
RTVSPost2010PropOp33
 70
     1
102
RTVSPost2010Prop34
280
     0
102
RTVSPost2010PropOp34
 70
     1
102
RTVSPost2010Prop35
280
     0
102
RTVSPost2010PropOp35
 70
     1
102
RTVSPost2010Prop36
280
     0
102
RTVSPost2010PropOp36
 70
     1
102
RTVSPost2010Prop37
 90
       50
102
RTVSPost2010PropOp37
 70
     1
102
RTVSPost2010Prop38
140
0.0
102
RTVSPost2010PropOp38
 70
     1
102
RTVSPost2010Prop39
140
1.0
102
RTVSPost2010PropOp39
 70
     1
102
RTVSPost2010Prop40
 90
        0
102
RTVSPost2010PropOp40
 70
     1
102
RTVSPost2010Prop41ColorIndex
 90
       18
102
RTVSPost2010Prop41ColorRGB
 90
        0
102
RTVSPost2010PropOp41
 70
     1
102
RTVSPost2010Prop42
 90
       50
102
RTVSPost2010PropOp42
 70
     1
102
RTVSPost2010Prop43
 90
        3
102
RTVSPost2010PropOp43
 70
     1
102
RTVSPost2010Prop44ColorIndex
 90
        5
102
RTVSPost2010Prop44ColorRGB
 90
      255
102
RTVSPost2010PropOp44
 70
     1
102
RTVSPost2010Prop45
280
     0
102
RTVSPost2010PropOp45
 70
     1
102
RTVSPost2010Prop46
 90
       50
102
RTVSPost2010PropOp46
 70
     1
102
RTVSPost2010Prop47
 90
       50
102
RTVSPost2010PropOp47
 70
     1
102
RTVSPost2010Prop48
 90
       50
102
RTVSPost2010PropOp48
 70
     1
102
RTVSPost2010Prop49
280
     0
102
RTVSPost2010PropOp49
 70
     1
102
RTVSPost2010Prop50
 90
       50
102
RTVSPost2010PropOp50
 70
     1
102
RTVSPost2010Prop51ColorIndex
 90
      256
102
RTVSPost2010Prop51ColorRGB
 90
-16777216
102
RTVSPost2010PropOp51
 70
     0
102
RTVSPost2010Prop52
140
1.0
102
RTVSPost2010PropOp52
 70
     0
102
RTVSPost2010Prop53
 90
        2
102
RTVSPost2010PropOp53
 70
     1
102
RTVSPost2010Prop54
  1
strokes_ogs.tif
102
RTVSPost2010PropOp54
 70
     1
102
RTVSPost2010Prop55
280
     0
102
RTVSPost2010PropOp55
 70
     1
102
RTVSPost2010Prop56
140
1.0
102
RTVSPost2010PropOp56
 70
     1
102
RTVSPost2010Prop57
140
1.0
102
RTVSPost2010PropOp57
 70
     1
102
RTVSPropertyOp0
 70
     1
102
RTVSPropertyOp1
 70
     1
102
RTVSPropertyOp2
 70
     1
102
RTVSPropertyOp3
 70
     1
102
RTVSPropertyOp4
 70
     1
102
RTVSPropertyOp5
 70
     1
102
RTVSPropertyOp6
 70
     1
102
RTVSPropertyOp7
 70
     1
102
RTVSPropertyOp8
 70
     1
102
RTVSPropertyOp9
 70
     1
102
RTVSPropertyOp10
 70
     1
102
RTVSPropertyOp11
 70
     1
102
RTVSPropertyOp12
 70
     1
102
RTVSPropertyOp13
 70
     1
102
RTVSPropertyOp14
 70
     1
102
RTVSPropertyOp15
 70
     1
102
RTVSPropertyOp16
 70
     1
102
RTVSPropertyOp17
 70
     1
102
RTVSPropertyOp18
 70
     1
102
RTVSPropertyOp19
 70
     1
102
RTVSPropertyOp20
 70
     1
102
RTVSPropertyOp21
 70
     1
102
RTVSPropertyOp22
 70
     1
102
RTVSPropertyOp23
 70
     1
102
RTVSPropertyOp24
 70
     1
102
RTVSPropertyOp25
 70
     1
102
RTVSPropertyOp26
 70
     1
102
RTVSPropertyOp27
 70
     1
102
RTVSPropertyOp28
 70
     1
102
RTVSPropertyOp29
 70
     1
102
RTVSPropertyOp30
 70
     1
102
RTVSPropertyOp31
 70
     1
102
RTVSPropertyOp32
 70
     1
102
RTVSPropertyOp33
 70
     1
102
RTVSPropertyOp34
 70
     1
102
RTVSPropertyOp35
 70
     1
102
RTVSPropertyOp36
 70
     1
102
RTVSPropertyOp37
 70
     1
102
RTVSPropertyOp38
 70
     1
102
RTVSPropertyOp39
 70
     1
102
RTVSPropertyOp40
 70
     1
102
RTVSPropertyOp41
 70
     1
102
RTVSPropertyOp42
 70
     1
102
RTVSPropertyOp43
 70
     1
102
RTVSPropertyOp44
 70
     1
102
RTVSPropertyOp45
 70
     1
102
RTVSPropertyOp46
 70
     1
102
RTVSPropertyOp47
 70
     1
102
RTVSPropertyOp48
 70
     1
102
RTVSPropertyOp49
 70
     1
102
RTVSPropertyOp50
 70
     1
102
RTVSPropertyOp51
 70
     0
102
RTVSPropertyOp52
 70
     0
102
RTVSPropertyOp53
 70
     1
102
RTVSPropertyOp54
 70
     1
102
RTVSPropertyOp55
 70
     1
102
RTVSPropertyOp56
 70
     1
102
RTVSPropertyOp57
 70
     1
102
RTVSPropertyOp58
 70
     1
102
RTVSPropertyOp59
 70
     1
102
RTVSPropertyOp60
 70
     1
102
RTVSPropertyOp61
 70
     1
102
RTVSPropertyOp62
 70
     1
  0
XRECORD
  5
2CBA
102
{ACAD_REACTORS
330
2CB9
102
}
330
2CB9
100
AcDbXrecord
280
     1
102
RTVSPost2010Prop28
280
     0
102
RTVSPost2010PropOp28
 70
     1
102
RTVSPost2010Prop29
280
     1
102
RTVSPost2010PropOp29
 70
     1
102
RTVSPost2010Prop30
280
     1
102
RTVSPost2010PropOp30
 70
     1
102
RTVSPost2010Prop31
280
     0
102
RTVSPost2010PropOp31
 70
     1
102
RTVSPost2010Prop32
280
     0
102
RTVSPost2010PropOp32
 70
     1
102
RTVSPost2010Prop33
280
     0
102
RTVSPost2010PropOp33
 70
     1
102
RTVSPost2010Prop34
280
     0
102
RTVSPost2010PropOp34
 70
     1
102
RTVSPost2010Prop35
280
     0
102
RTVSPost2010PropOp35
 70
     1
102
RTVSPost2010Prop36
280
     0
102
RTVSPost2010PropOp36
 70
     1
102
RTVSPost2010Prop37
 90
       50
102
RTVSPost2010PropOp37
 70
     1
102
RTVSPost2010Prop38
140
0.0
102
RTVSPost2010PropOp38
 70
     1
102
RTVSPost2010Prop39
140
1.0
102
RTVSPost2010PropOp39
 70
     1
102
RTVSPost2010Prop40
 90
        0
102
RTVSPost2010PropOp40
 70
     1
102
RTVSPost2010Prop41ColorIndex
 90
       18
102
RTVSPost2010Prop41ColorRGB
 90
        0
102
RTVSPost2010PropOp41
 70
     1
102
RTVSPost2010Prop42
 90
       50
102
RTVSPost2010PropOp42
 70
     1
102
RTVSPost2010Prop43
 90
        3
102
RTVSPost2010PropOp43
 70
     1
102
RTVSPost2010Prop44ColorIndex
 90
        5
102
RTVSPost2010Prop44ColorRGB
 90
      255
102
RTVSPost2010PropOp44
 70
     1
102
RTVSPost2010Prop45
280
     0
102
RTVSPost2010PropOp45
 70
     1
102
RTVSPost2010Prop46
 90
       50
102
RTVSPost2010PropOp46
 70
     1
102
RTVSPost2010Prop47
 90
       50
102
RTVSPost2010PropOp47
 70
     1
102
RTVSPost2010Prop48
 90
       50
102
RTVSPost2010PropOp48
 70
     1
102
RTVSPost2010Prop49
280
     0
102
RTVSPost2010PropOp49
 70
     1
102
RTVSPost2010Prop50
 90
       50
102
RTVSPost2010PropOp50
 70
     1
102
RTVSPost2010Prop51ColorIndex
 90
      256
102
RTVSPost2010Prop51ColorRGB
 90
-16777216
102
RTVSPost2010PropOp51
 70
     0
102
RTVSPost2010Prop52
140
1.0
102
RTVSPost2010PropOp52
 70
     0
102
RTVSPost2010Prop53
 90
        2
102
RTVSPost2010PropOp53
 70
     1
102
RTVSPost2010Prop54
  1
strokes_ogs.tif
102
RTVSPost2010PropOp54
 70
     1
102
RTVSPost2010Prop55
280
     0
102
RTVSPost2010PropOp55
 70
     1
102
RTVSPost2010Prop56
140
1.0
102
RTVSPost2010PropOp56
 70
     1
102
RTVSPost2010Prop57
140
1.0
102
RTVSPost2010PropOp57
 70
     1
102
RTVSPropertyOp0
 70
     1
102
RTVSPropertyOp1
 70
     1
102
RTVSPropertyOp2
 70
     1
102
RTVSPropertyOp3
 70
     1
102
RTVSPropertyOp4
 70
     1
102
RTVSPropertyOp5
 70
     1
102
RTVSPropertyOp6
 70
     1
102
RTVSPropertyOp7
 70
     1
102
RTVSPropertyOp8
 70
     1
102
RTVSPropertyOp9
 70
     1
102
RTVSPropertyOp10
 70
     1
102
RTVSPropertyOp11
 70
     1
102
RTVSPropertyOp12
 70
     1
102
RTVSPropertyOp13
 70
     1
102
RTVSPropertyOp14
 70
     1
102
RTVSPropertyOp15
 70
     1
102
RTVSPropertyOp16
 70
     1
102
RTVSPropertyOp17
 70
     1
102
RTVSPropertyOp18
 70
     1
102
RTVSPropertyOp19
 70
     1
102
RTVSPropertyOp20
 70
     1
102
RTVSPropertyOp21
 70
     1
102
RTVSPropertyOp22
 70
     1
102
RTVSPropertyOp23
 70
     1
102
RTVSPropertyOp24
 70
     1
102
RTVSPropertyOp25
 70
     1
102
RTVSPropertyOp26
 70
     1
102
RTVSPropertyOp27
 70
     1
102
RTVSPropertyOp28
 70
     1
102
RTVSPropertyOp29
 70
     1
102
RTVSPropertyOp30
 70
     1
102
RTVSPropertyOp31
 70
     1
102
RTVSPropertyOp32
 70
     1
102
RTVSPropertyOp33
 70
     1
102
RTVSPropertyOp34
 70
     1
102
RTVSPropertyOp35
 70
     1
102
RTVSPropertyOp36
 70
     1
102
RTVSPropertyOp37
 70
     1
102
RTVSPropertyOp38
 70
     1
102
RTVSPropertyOp39
 70
     1
102
RTVSPropertyOp40
 70
     1
102
RTVSPropertyOp41
 70
     1
102
RTVSPropertyOp42
 70
     1
102
RTVSPropertyOp43
 70
     1
102
RTVSPropertyOp44
 70
     1
102
RTVSPropertyOp45
 70
     1
102
RTVSPropertyOp46
 70
     1
102
RTVSPropertyOp47
 70
     1
102
RTVSPropertyOp48
 70
     1
102
RTVSPropertyOp49
 70
     1
102
RTVSPropertyOp50
 70
     1
102
RTVSPropertyOp51
 70
     0
102
RTVSPropertyOp52
 70
     0
102
RTVSPropertyOp53
 70
     1
102
RTVSPropertyOp54
 70
     1
102
RTVSPropertyOp55
 70
     1
102
RTVSPropertyOp56
 70
     1
102
RTVSPropertyOp57
 70
     1
102
RTVSPropertyOp58
 70
     1
102
RTVSPropertyOp59
 70
     1
102
RTVSPropertyOp60
 70
     1
102
RTVSPropertyOp61
 70
     1
102
RTVSPropertyOp62
 70
     1
  0
XRECORD
  5
2CB0
102
{ACAD_REACTORS
330
2CAF
102
}
330
2CAF
100
AcDbXrecord
280
     1
102
RTVSPost2010Prop28
280
     0
102
RTVSPost2010PropOp28
 70
     1
102
RTVSPost2010Prop29
280
     1
102
RTVSPost2010PropOp29
 70
     1
102
RTVSPost2010Prop30
280
     1
102
RTVSPost2010PropOp30
 70
     1
102
RTVSPost2010Prop31
280
     0
102
RTVSPost2010PropOp31
 70
     1
102
RTVSPost2010Prop32
280
     0
102
RTVSPost2010PropOp32
 70
     1
102
RTVSPost2010Prop33
280
     0
102
RTVSPost2010PropOp33
 70
     1
102
RTVSPost2010Prop34
280
     0
102
RTVSPost2010PropOp34
 70
     1
102
RTVSPost2010Prop35
280
     0
102
RTVSPost2010PropOp35
 70
     1
102
RTVSPost2010Prop36
280
     0
102
RTVSPost2010PropOp36
 70
     1
102
RTVSPost2010Prop37
 90
       50
102
RTVSPost2010PropOp37
 70
     1
102
RTVSPost2010Prop38
140
0.0
102
RTVSPost2010PropOp38
 70
     1
102
RTVSPost2010Prop39
140
1.0
102
RTVSPost2010PropOp39
 70
     1
102
RTVSPost2010Prop40
 90
        0
102
RTVSPost2010PropOp40
 70
     1
102
RTVSPost2010Prop41ColorIndex
 90
       18
102
RTVSPost2010Prop41ColorRGB
 90
        0
102
RTVSPost2010PropOp41
 70
     1
102
RTVSPost2010Prop42
 90
       50
102
RTVSPost2010PropOp42
 70
     1
102
RTVSPost2010Prop43
 90
        3
102
RTVSPost2010PropOp43
 70
     1
102
RTVSPost2010Prop44ColorIndex
 90
        5
102
RTVSPost2010Prop44ColorRGB
 90
      255
102
RTVSPost2010PropOp44
 70
     1
102
RTVSPost2010Prop45
280
     0
102
RTVSPost2010PropOp45
 70
     1
102
RTVSPost2010Prop46
 90
       50
102
RTVSPost2010PropOp46
 70
     1
102
RTVSPost2010Prop47
 90
       50
102
RTVSPost2010PropOp47
 70
     1
102
RTVSPost2010Prop48
 90
       50
102
RTVSPost2010PropOp48
 70
     1
102
RTVSPost2010Prop49
280
     0
102
RTVSPost2010PropOp49
 70
     1
102
RTVSPost2010Prop50
 90
       50
102
RTVSPost2010PropOp50
 70
     1
102
RTVSPost2010Prop51ColorIndex
 90
      256
102
RTVSPost2010Prop51ColorRGB
 90
-16777216
102
RTVSPost2010PropOp51
 70
     0
102
RTVSPost2010Prop52
140
1.0
102
RTVSPost2010PropOp52
 70
     0
102
RTVSPost2010Prop53
 90
        2
102
RTVSPost2010PropOp53
 70
     1
102
RTVSPost2010Prop54
  1
strokes_ogs.tif
102
RTVSPost2010PropOp54
 70
     1
102
RTVSPost2010Prop55
280
     0
102
RTVSPost2010PropOp55
 70
     1
102
RTVSPost2010Prop56
140
1.0
102
RTVSPost2010PropOp56
 70
     1
102
RTVSPost2010Prop57
140
1.0
102
RTVSPost2010PropOp57
 70
     1
102
RTVSPropertyOp0
 70
     1
102
RTVSPropertyOp1
 70
     1
102
RTVSPropertyOp2
 70
     1
102
RTVSPropertyOp3
 70
     1
102
RTVSPropertyOp4
 70
     1
102
RTVSPropertyOp5
 70
     1
102
RTVSPropertyOp6
 70
     1
102
RTVSPropertyOp7
 70
     1
102
RTVSPropertyOp8
 70
     1
102
RTVSPropertyOp9
 70
     1
102
RTVSPropertyOp10
 70
     1
102
RTVSPropertyOp11
 70
     1
102
RTVSPropertyOp12
 70
     1
102
RTVSPropertyOp13
 70
     1
102
RTVSPropertyOp14
 70
     1
102
RTVSPropertyOp15
 70
     1
102
RTVSPropertyOp16
 70
     1
102
RTVSPropertyOp17
 70
     1
102
RTVSPropertyOp18
 70
     1
102
RTVSPropertyOp19
 70
     1
102
RTVSPropertyOp20
 70
     1
102
RTVSPropertyOp21
 70
     1
102
RTVSPropertyOp22
 70
     1
102
RTVSPropertyOp23
 70
     1
102
RTVSPropertyOp24
 70
     1
102
RTVSPropertyOp25
 70
     1
102
RTVSPropertyOp26
 70
     1
102
RTVSPropertyOp27
 70
     1
102
RTVSPropertyOp28
 70
     1
102
RTVSPropertyOp29
 70
     1
102
RTVSPropertyOp30
 70
     1
102
RTVSPropertyOp31
 70
     1
102
RTVSPropertyOp32
 70
     1
102
RTVSPropertyOp33
 70
     1
102
RTVSPropertyOp34
 70
     1
102
RTVSPropertyOp35
 70
     1
102
RTVSPropertyOp36
 70
     1
102
RTVSPropertyOp37
 70
     1
102
RTVSPropertyOp38
 70
     1
102
RTVSPropertyOp39
 70
     1
102
RTVSPropertyOp40
 70
     1
102
RTVSPropertyOp41
 70
     1
102
RTVSPropertyOp42
 70
     1
102
RTVSPropertyOp43
 70
     1
102
RTVSPropertyOp44
 70
     1
102
RTVSPropertyOp45
 70
     1
102
RTVSPropertyOp46
 70
     1
102
RTVSPropertyOp47
 70
     1
102
RTVSPropertyOp48
 70
     1
102
RTVSPropertyOp49
 70
     1
102
RTVSPropertyOp50
 70
     1
102
RTVSPropertyOp51
 70
     0
102
RTVSPropertyOp52
 70
     0
102
RTVSPropertyOp53
 70
     1
102
RTVSPropertyOp54
 70
     1
102
RTVSPropertyOp55
 70
     1
102
RTVSPropertyOp56
 70
     1
102
RTVSPropertyOp57
 70
     1
102
RTVSPropertyOp58
 70
     1
102
RTVSPropertyOp59
 70
     1
102
RTVSPropertyOp60
 70
     1
102
RTVSPropertyOp61
 70
     1
102
RTVSPropertyOp62
 70
     1
  0
XRECORD
  5
2CA4
102
{ACAD_REACTORS
330
2CA3
102
}
330
2CA3
100
AcDbXrecord
280
     1
102
RTVSPost2010Prop28
280
     0
102
RTVSPost2010PropOp28
 70
     1
102
RTVSPost2010Prop29
280
     1
102
RTVSPost2010PropOp29
 70
     1
102
RTVSPost2010Prop30
280
     1
102
RTVSPost2010PropOp30
 70
     1
102
RTVSPost2010Prop31
280
     0
102
RTVSPost2010PropOp31
 70
     1
102
RTVSPost2010Prop32
280
     0
102
RTVSPost2010PropOp32
 70
     1
102
RTVSPost2010Prop33
280
     0
102
RTVSPost2010PropOp33
 70
     1
102
RTVSPost2010Prop34
280
     0
102
RTVSPost2010PropOp34
 70
     1
102
RTVSPost2010Prop35
280
     0
102
RTVSPost2010PropOp35
 70
     1
102
RTVSPost2010Prop36
280
     0
102
RTVSPost2010PropOp36
 70
     1
102
RTVSPost2010Prop37
 90
       50
102
RTVSPost2010PropOp37
 70
     1
102
RTVSPost2010Prop38
140
0.0
102
RTVSPost2010PropOp38
 70
     1
102
RTVSPost2010Prop39
140
1.0
102
RTVSPost2010PropOp39
 70
     1
102
RTVSPost2010Prop40
 90
        0
102
RTVSPost2010PropOp40
 70
     1
102
RTVSPost2010Prop41ColorIndex
 90
       18
102
RTVSPost2010Prop41ColorRGB
 90
        0
102
RTVSPost2010PropOp41
 70
     1
102
RTVSPost2010Prop42
 90
       50
102
RTVSPost2010PropOp42
 70
     1
102
RTVSPost2010Prop43
 90
        3
102
RTVSPost2010PropOp43
 70
     1
102
RTVSPost2010Prop44ColorIndex
 90
        5
102
RTVSPost2010Prop44ColorRGB
 90
      255
102
RTVSPost2010PropOp44
 70
     1
102
RTVSPost2010Prop45
280
     0
102
RTVSPost2010PropOp45
 70
     1
102
RTVSPost2010Prop46
 90
       50
102
RTVSPost2010PropOp46
 70
     1
102
RTVSPost2010Prop47
 90
       50
102
RTVSPost2010PropOp47
 70
     1
102
RTVSPost2010Prop48
 90
       50
102
RTVSPost2010PropOp48
 70
     1
102
RTVSPost2010Prop49
280
     0
102
RTVSPost2010PropOp49
 70
     1
102
RTVSPost2010Prop50
 90
       50
102
RTVSPost2010PropOp50
 70
     1
102
RTVSPost2010Prop51ColorIndex
 90
      256
102
RTVSPost2010Prop51ColorRGB
 90
-16777216
102
RTVSPost2010PropOp51
 70
     0
102
RTVSPost2010Prop52
140
1.0
102
RTVSPost2010PropOp52
 70
     0
102
RTVSPost2010Prop53
 90
        2
102
RTVSPost2010PropOp53
 70
     1
102
RTVSPost2010Prop54
  1
strokes_ogs.tif
102
RTVSPost2010PropOp54
 70
     1
102
RTVSPost2010Prop55
280
     0
102
RTVSPost2010PropOp55
 70
     1
102
RTVSPost2010Prop56
140
1.0
102
RTVSPost2010PropOp56
 70
     1
102
RTVSPost2010Prop57
140
1.0
102
RTVSPost2010PropOp57
 70
     1
102
RTVSPropertyOp0
 70
     1
102
RTVSPropertyOp1
 70
     1
102
RTVSPropertyOp2
 70
     1
102
RTVSPropertyOp3
 70
     1
102
RTVSPropertyOp4
 70
     1
102
RTVSPropertyOp5
 70
     1
102
RTVSPropertyOp6
 70
     1
102
RTVSPropertyOp7
 70
     1
102
RTVSPropertyOp8
 70
     1
102
RTVSPropertyOp9
 70
     1
102
RTVSPropertyOp10
 70
     1
102
RTVSPropertyOp11
 70
     1
102
RTVSPropertyOp12
 70
     1
102
RTVSPropertyOp13
 70
     1
102
RTVSPropertyOp14
 70
     1
102
RTVSPropertyOp15
 70
     1
102
RTVSPropertyOp16
 70
     1
102
RTVSPropertyOp17
 70
     1
102
RTVSPropertyOp18
 70
     1
102
RTVSPropertyOp19
 70
     1
102
RTVSPropertyOp20
 70
     1
102
RTVSPropertyOp21
 70
     1
102
RTVSPropertyOp22
 70
     1
102
RTVSPropertyOp23
 70
     1
102
RTVSPropertyOp24
 70
     1
102
RTVSPropertyOp25
 70
     1
102
RTVSPropertyOp26
 70
     1
102
RTVSPropertyOp27
 70
     1
102
RTVSPropertyOp28
 70
     1
102
RTVSPropertyOp29
 70
     1
102
RTVSPropertyOp30
 70
     1
102
RTVSPropertyOp31
 70
     1
102
RTVSPropertyOp32
 70
     1
102
RTVSPropertyOp33
 70
     1
102
RTVSPropertyOp34
 70
     1
102
RTVSPropertyOp35
 70
     1
102
RTVSPropertyOp36
 70
     1
102
RTVSPropertyOp37
 70
     1
102
RTVSPropertyOp38
 70
     1
102
RTVSPropertyOp39
 70
     1
102
RTVSPropertyOp40
 70
     1
102
RTVSPropertyOp41
 70
     1
102
RTVSPropertyOp42
 70
     1
102
RTVSPropertyOp43
 70
     1
102
RTVSPropertyOp44
 70
     1
102
RTVSPropertyOp45
 70
     1
102
RTVSPropertyOp46
 70
     1
102
RTVSPropertyOp47
 70
     1
102
RTVSPropertyOp48
 70
     1
102
RTVSPropertyOp49
 70
     1
102
RTVSPropertyOp50
 70
     1
102
RTVSPropertyOp51
 70
     0
102
RTVSPropertyOp52
 70
     0
102
RTVSPropertyOp53
 70
     1
102
RTVSPropertyOp54
 70
     1
102
RTVSPropertyOp55
 70
     1
102
RTVSPropertyOp56
 70
     1
102
RTVSPropertyOp57
 70
     1
102
RTVSPropertyOp58
 70
     1
102
RTVSPropertyOp59
 70
     1
102
RTVSPropertyOp60
 70
     1
102
RTVSPropertyOp61
 70
     1
102
RTVSPropertyOp62
 70
     1
  0
XRECORD
  5
2CBC
102
{ACAD_REACTORS
330
2CBB
102
}
330
2CBB
100
AcDbXrecord
280
     1
102
RTVSPost2010Prop28
280
     0
102
RTVSPost2010PropOp28
 70
     1
102
RTVSPost2010Prop29
280
     1
102
RTVSPost2010PropOp29
 70
     1
102
RTVSPost2010Prop30
280
     1
102
RTVSPost2010PropOp30
 70
     1
102
RTVSPost2010Prop31
280
     0
102
RTVSPost2010PropOp31
 70
     1
102
RTVSPost2010Prop32
280
     0
102
RTVSPost2010PropOp32
 70
     1
102
RTVSPost2010Prop33
280
     0
102
RTVSPost2010PropOp33
 70
     1
102
RTVSPost2010Prop34
280
     0
102
RTVSPost2010PropOp34
 70
     1
102
RTVSPost2010Prop35
280
     0
102
RTVSPost2010PropOp35
 70
     1
102
RTVSPost2010Prop36
280
     0
102
RTVSPost2010PropOp36
 70
     1
102
RTVSPost2010Prop37
 90
       50
102
RTVSPost2010PropOp37
 70
     1
102
RTVSPost2010Prop38
140
0.0
102
RTVSPost2010PropOp38
 70
     1
102
RTVSPost2010Prop39
140
1.0
102
RTVSPost2010PropOp39
 70
     1
102
RTVSPost2010Prop40
 90
        0
102
RTVSPost2010PropOp40
 70
     1
102
RTVSPost2010Prop41ColorIndex
 90
       18
102
RTVSPost2010Prop41ColorRGB
 90
        0
102
RTVSPost2010PropOp41
 70
     1
102
RTVSPost2010Prop42
 90
       50
102
RTVSPost2010PropOp42
 70
     1
102
RTVSPost2010Prop43
 90
        3
102
RTVSPost2010PropOp43
 70
     1
102
RTVSPost2010Prop44ColorIndex
 90
        5
102
RTVSPost2010Prop44ColorRGB
 90
      255
102
RTVSPost2010PropOp44
 70
     1
102
RTVSPost2010Prop45
280
     0
102
RTVSPost2010PropOp45
 70
     1
102
RTVSPost2010Prop46
 90
       50
102
RTVSPost2010PropOp46
 70
     1
102
RTVSPost2010Prop47
 90
       50
102
RTVSPost2010PropOp47
 70
     1
102
RTVSPost2010Prop48
 90
       50
102
RTVSPost2010PropOp48
 70
     1
102
RTVSPost2010Prop49
280
     0
102
RTVSPost2010PropOp49
 70
     1
102
RTVSPost2010Prop50
 90
       50
102
RTVSPost2010PropOp50
 70
     1
102
RTVSPost2010Prop51ColorIndex
 90
      256
102
RTVSPost2010Prop51ColorRGB
 90
-16777216
102
RTVSPost2010PropOp51
 70
     0
102
RTVSPost2010Prop52
140
1.0
102
RTVSPost2010PropOp52
 70
     0
102
RTVSPost2010Prop53
 90
        2
102
RTVSPost2010PropOp53
 70
     1
102
RTVSPost2010Prop54
  1
strokes_ogs.tif
102
RTVSPost2010PropOp54
 70
     1
102
RTVSPost2010Prop55
280
     0
102
RTVSPost2010PropOp55
 70
     1
102
RTVSPost2010Prop56
140
1.0
102
RTVSPost2010PropOp56
 70
     1
102
RTVSPost2010Prop57
140
1.0
102
RTVSPost2010PropOp57
 70
     1
102
RTVSPropertyOp0
 70
     1
102
RTVSPropertyOp1
 70
     1
102
RTVSPropertyOp2
 70
     1
102
RTVSPropertyOp3
 70
     1
102
RTVSPropertyOp4
 70
     1
102
RTVSPropertyOp5
 70
     1
102
RTVSPropertyOp6
 70
     1
102
RTVSPropertyOp7
 70
     1
102
RTVSPropertyOp8
 70
     1
102
RTVSPropertyOp9
 70
     1
102
RTVSPropertyOp10
 70
     1
102
RTVSPropertyOp11
 70
     1
102
RTVSPropertyOp12
 70
     1
102
RTVSPropertyOp13
 70
     1
102
RTVSPropertyOp14
 70
     1
102
RTVSPropertyOp15
 70
     1
102
RTVSPropertyOp16
 70
     1
102
RTVSPropertyOp17
 70
     1
102
RTVSPropertyOp18
 70
     1
102
RTVSPropertyOp19
 70
     1
102
RTVSPropertyOp20
 70
     1
102
RTVSPropertyOp21
 70
     1
102
RTVSPropertyOp22
 70
     1
102
RTVSPropertyOp23
 70
     1
102
RTVSPropertyOp24
 70
     1
102
RTVSPropertyOp25
 70
     1
102
RTVSPropertyOp26
 70
     1
102
RTVSPropertyOp27
 70
     1
102
RTVSPropertyOp28
 70
     1
102
RTVSPropertyOp29
 70
     1
102
RTVSPropertyOp30
 70
     1
102
RTVSPropertyOp31
 70
     1
102
RTVSPropertyOp32
 70
     1
102
RTVSPropertyOp33
 70
     1
102
RTVSPropertyOp34
 70
     1
102
RTVSPropertyOp35
 70
     1
102
RTVSPropertyOp36
 70
     1
102
RTVSPropertyOp37
 70
     1
102
RTVSPropertyOp38
 70
     1
102
RTVSPropertyOp39
 70
     1
102
RTVSPropertyOp40
 70
     1
102
RTVSPropertyOp41
 70
     1
102
RTVSPropertyOp42
 70
     1
102
RTVSPropertyOp43
 70
     1
102
RTVSPropertyOp44
 70
     1
102
RTVSPropertyOp45
 70
     1
102
RTVSPropertyOp46
 70
     1
102
RTVSPropertyOp47
 70
     1
102
RTVSPropertyOp48
 70
     1
102
RTVSPropertyOp49
 70
     1
102
RTVSPropertyOp50
 70
     1
102
RTVSPropertyOp51
 70
     0
102
RTVSPropertyOp52
 70
     0
102
RTVSPropertyOp53
 70
     1
102
RTVSPropertyOp54
 70
     1
102
RTVSPropertyOp55
 70
     1
102
RTVSPropertyOp56
 70
     1
102
RTVSPropertyOp57
 70
     1
102
RTVSPropertyOp58
 70
     1
102
RTVSPropertyOp59
 70
     1
102
RTVSPropertyOp60
 70
     1
102
RTVSPropertyOp61
 70
     1
102
RTVSPropertyOp62
 70
     1
  0
ENDSEC
  0
EOF
