  0
SECTION
  2
HEADER
  9
$ACADVER
  1
AC1018
  9
$ACADMAINTVER
 70
     0
  9
$DWGCODEPAGE
  3
ANSI_932
  9
$INSBASE
 10
0.0
 20
0.0
 30
0.0
  9
$EXTMIN
 10
-0.419321933835704
 20
-0.414775081745006
 30
-1.000045764259152
  9
$EXTMAX
 10
377.9311260837986
 20
282.9184289279536
 30
0.0000457828865983
  9
$LIMMIN
 10
0.0
 20
0.0
  9
$LIMMAX
 10
420.0
 20
297.0
  9
$ORTHOMODE
 70
     1
  9
$REGENMODE
 70
     1
  9
$FILLMODE
 70
     1
  9
$QTEXTMODE
 70
     0
  9
$MIRRTEXT
 70
     1
  9
$LTSCALE
 40
1.0
  9
$ATTMODE
 70
     1
  9
$TEXTSIZE
 40
1.5
  9
$TRACEWID
 40
1.0
  9
$TEXTSTYLE
  7
STYLE3
  9
$CLAYER
  8
外形線
  9
$CELTYPE
  6
BYLAYER
  9
$CECOLOR
 62
   256
  9
$CELTSCALE
 40
1.0
  9
$DISPSILH
 70
     0
  9
$DIMSCALE
 40
1.0
  9
$DIMASZ
 40
2.5
  9
$DIMEXO
 40
0.0
  9
$DIMDLI
 40
3.75
  9
$DIMRND
 40
0.0
  9
$DIMDLE
 40
0.0
  9
$DIMEXE
 40
1.25
  9
$DIMTP
 40
0.0
  9
$DIMTM
 40
0.0
  9
$DIMTXT
 40
2.5
  9
$DIMCEN
 40
2.5
  9
$DIMTSZ
 40
0.0
  9
$DIMTOL
 70
     0
  9
$DIMLIM
 70
     0
  9
$DIMTIH
 70
     0
  9
$DIMTOH
 70
     0
  9
$DIMSE1
 70
     0
  9
$DIMSE2
 70
     0
  9
$DIMTAD
 70
     1
  9
$DIMZIN
 70
     8
  9
$DIMBLK
  1

  9
$DIMASO
 70
     1
  9
$DIMSHO
 70
     1
  9
$DIMPOST
  1

  9
$DIMAPOST
  1

  9
$DIMALT
 70
     0
  9
$DIMALTD
 70
     4
  9
$DIMALTF
 40
0.0394
  9
$DIMLFAC
 40
1.0
  9
$DIMTOFL
 70
     1
  9
$DIMTVP
 40
0.0
  9
$DIMTIX
 70
     0
  9
$DIMSOXD
 70
     0
  9
$DIMSAH
 70
     1
  9
$DIMBLK1
  1
OPEN
  9
$DIMBLK2
  1
OPEN
  9
$DIMSTYLE
  2
STYLE3
  9
$DIMCLRD
 70
     2
  9
$DIMCLRE
 70
     2
  9
$DIMCLRT
 70
     6
  9
$DIMTFAC
 40
1.0
  9
$DIMGAP
 40
0.625
  9
$DIMJUST
 70
     0
  9
$DIMSD1
 70
     0
  9
$DIMSD2
 70
     0
  9
$DIMTOLJ
 70
     1
  9
$DIMTZIN
 70
     0
  9
$DIMALTZ
 70
     0
  9
$DIMALTTZ
 70
     0
  9
$DIMUPT
 70
     0
  9
$DIMDEC
 70
     2
  9
$DIMTDEC
 70
     4
  9
$DIMALTU
 70
     8
  9
$DIMALTTD
 70
     4
  9
$DIMTXSTY
  7
STYLE3
  9
$DIMAUNIT
 70
     0
  9
$DIMADEC
 70
     0
  9
$DIMALTRND
 40
0.0
  9
$DIMAZIN
 70
     0
  9
$DIMDSEP
 70
    46
  9
$DIMATFIT
 70
     3
  9
$DIMFRAC
 70
     0
  9
$DIMLDRBLK
  1

  9
$DIMLUNIT
 70
     2
  9
$DIMLWD
 70
    -2
  9
$DIMLWE
 70
    -2
  9
$DIMTMOVE
 70
     0
  9
$LUNITS
 70
     2
  9
$LUPREC
 70
     4
  9
$SKETCHINC
 40
1.0
  9
$FILLETRAD
 40
3.0
  9
$AUNITS
 70
     0
  9
$AUPREC
 70
     0
  9
$MENU
  1
.
  9
$ELEVATION
 40
0.0
  9
$PELEVATION
 40
0.0
  9
$THICKNESS
 40
0.0
  9
$LIMCHECK
 70
     0
  9
$CHAMFERA
 40
0.5
  9
$CHAMFERB
 40
0.5
  9
$CHAMFERC
 40
20.0
  9
$CHAMFERD
 40
0.0
  9
$SKPOLY
 70
     0
  9
$TDCREATE
 40
2451943.647429745
  9
$TDUCREATE
 40
2451943.272429745
  9
$TDUPDATE
 40
2455358.660983611
  9
$TDUUPDATE
 40
2455358.285983611
  9
$TDINDWG
 40
1.0350600463
  9
$TDUSRTIMER
 40
1.0350600463
  9
$USRTIMER
 70
     1
  9
$ANGBASE
 50
0.0
  9
$ANGDIR
 70
     0
  9
$PDMODE
 70
     0
  9
$PDSIZE
 40
0.0
  9
$PLINEWID
 40
0.0
  9
$SPLFRAME
 70
     0
  9
$SPLINETYPE
 70
     6
  9
$SPLINESEGS
 70
     8
  9
$HANDSEED
  5
EFB
  9
$SURFTAB1
 70
     6
  9
$SURFTAB2
 70
     6
  9
$SURFTYPE
 70
     6
  9
$SURFU
 70
     6
  9
$SURFV
 70
     6
  9
$UCSBASE
  2

  9
$UCSNAME
  2

  9
$UCSORG
 10
0.0
 20
0.0
 30
0.0
  9
$UCSXDIR
 10
1.0
 20
0.0
 30
0.0
  9
$UCSYDIR
 10
0.0
 20
1.0
 30
0.0
  9
$UCSORTHOREF
  2

  9
$UCSORTHOVIEW
 70
     0
  9
$UCSORGTOP
 10
0.0
 20
0.0
 30
0.0
  9
$UCSORGBOTTOM
 10
0.0
 20
0.0
 30
0.0
  9
$UCSORGLEFT
 10
0.0
 20
0.0
 30
0.0
  9
$UCSORGRIGHT
 10
0.0
 20
0.0
 30
0.0
  9
$UCSORGFRONT
 10
0.0
 20
0.0
 30
0.0
  9
$UCSORGBACK
 10
0.0
 20
0.0
 30
0.0
  9
$PUCSBASE
  2

  9
$PUCSNAME
  2

  9
$PUCSORG
 10
0.0
 20
0.0
 30
0.0
  9
$PUCSXDIR
 10
1.0
 20
0.0
 30
0.0
  9
$PUCSYDIR
 10
0.0
 20
1.0
 30
0.0
  9
$PUCSORTHOREF
  2

  9
$PUCSORTHOVIEW
 70
     0
  9
$PUCSORGTOP
 10
0.0
 20
0.0
 30
0.0
  9
$PUCSORGBOTTOM
 10
0.0
 20
0.0
 30
0.0
  9
$PUCSORGLEFT
 10
0.0
 20
0.0
 30
0.0
  9
$PUCSORGRIGHT
 10
0.0
 20
0.0
 30
0.0
  9
$PUCSORGFRONT
 10
0.0
 20
0.0
 30
0.0
  9
$PUCSORGBACK
 10
0.0
 20
0.0
 30
0.0
  9
$USERI1
 70
     0
  9
$USERI2
 70
     0
  9
$USERI3
 70
     0
  9
$USERI4
 70
     0
  9
$USERI5
 70
     0
  9
$USERR1
 40
0.0
  9
$USERR2
 40
0.0
  9
$USERR3
 40
0.0
  9
$USERR4
 40
0.0
  9
$USERR5
 40
0.0
  9
$WORLDVIEW
 70
     1
  9
$SHADEDGE
 70
     3
  9
$SHADEDIF
 70
    70
  9
$TILEMODE
 70
     1
  9
$MAXACTVP
 70
    48
  9
$PINSBASE
 10
0.0
 20
0.0
 30
0.0
  9
$PLIMCHECK
 70
     0
  9
$PEXTMIN
 10
1.000000000000000E+20
 20
1.000000000000000E+20
 30
1.000000000000000E+20
  9
$PEXTMAX
 10
-1.000000000000000E+20
 20
-1.000000000000000E+20
 30
-1.000000000000000E+20
  9
$PLIMMIN
 10
0.0
 20
0.0
  9
$PLIMMAX
 10
420.0
 20
297.0
  9
$UNITMODE
 70
     0
  9
$VISRETAIN
 70
     1
  9
$PLINEGEN
 70
     0
  9
$PSLTSCALE
 70
     1
  9
$TREEDEPTH
 70
  3020
  9
$CMLSTYLE
  2
STANDARD
  9
$CMLJUST
 70
     0
  9
$CMLSCALE
 40
20.0
  9
$PROXYGRAPHICS
 70
     1
  9
$MEASUREMENT
 70
     1
  9
$CELWEIGHT
370
    -1
  9
$ENDCAPS
280
     0
  9
$JOINSTYLE
280
     0
  9
$LWDISPLAY
290
     0
  9
$INSUNITS
 70
     0
  9
$HYPERLINKBASE
  1

  9
$STYLESHEET
  1
AutoCad LT 98.ctb
  9
$XEDIT
290
     1
  9
$CEPSNTYPE
380
     0
  9
$PSTYLEMODE
290
     1
  9
$FINGERPRINTGUID
  2
{14C81CD7-5EA2-47E2-AC93-A3662B0873AB}
  9
$VERSIONGUID
  2
{D032E9E1-7FFA-42DE-B507-C1FB721300A6}
  9
$EXTNAMES
290
     1
  9
$PSVPSCALE
 40
0.0
  9
$OLESTARTUP
290
     0
  9
$SORTENTS
280
    96
  9
$INDEXCTL
280
     0
  9
$HIDETEXT
280
     0
  9
$XCLIPFRAME
290
     0
  9
$HALOGAP
280
     0
  9
$OBSCOLOR
 70
   257
  9
$OBSLTYPE
280
     0
  9
$INTERSECTIONDISPLAY
280
     0
  9
$INTERSECTIONCOLOR
 70
   257
  9
$DIMASSOC
280
     1
  9
$PROJECTNAME
  1

  0
ENDSEC
  0
SECTION
  2
CLASSES
  0
CLASS
  1
LWPOLYLINE
  2
AcDbPolyline
  3
ObjectDBX Classes
 90
        0
 91
        6
280
     0
281
     1
  0
CLASS
  1
HATCH
  2
AcDbHatch
  3
ObjectDBX Classes
 90
        0
 91
       13
280
     0
281
     1
  0
CLASS
  1
DICTIONARYVAR
  2
AcDbDictionaryVar
  3
ObjectDBX Classes
 90
        0
 91
        2
280
     0
281
     0
  0
CLASS
  1
ACDBDICTIONARYWDFLT
  2
AcDbDictionaryWithDefault
  3
ObjectDBX Classes
 90
        0
 91
        1
280
     0
281
     0
  0
CLASS
  1
TABLESTYLE
  2
AcDbTableStyle
  3
ObjectDBX Classes
 90
     2047
 91
        1
280
     0
281
     0
  0
CLASS
  1
SORTENTSTABLE
  2
AcDbSortentsTable
  3
ObjectDBX Classes
 90
        0
 91
        1
280
     0
281
     0
  0
ENDSEC
  0
SECTION
  2
TABLES
  0
TABLE
  2
VPORT
  5
8
330
0
100
AcDbSymbolTable
 70
     2
  0
VPORT
  5
EFA
330
8
100
AcDbSymbolTableRecord
100
AcDbViewportTableRecord
  2
*Active
 70
     0
 10
0.0
 20
0.0
 11
1.0
 21
1.0
 12
188.7559020749814
 22
141.2518269231043
 13
0.0
 23
0.0
 14
10.0
 24
10.0
 15
10.0
 25
10.0
 16
0.0
 26
0.0
 36
1.0
 17
0.0
 27
0.0
 37
0.0
 40
285.4878291352477
 41
1.530456852791878
 42
50.0
 43
0.0
 44
0.0
 50
0.0
 51
0.0
 71
     0
 72
   100
 73
     1
 74
     1
 75
     0
 76
     0
 77
     0
 78
     0
281
     0
 65
     1
110
0.0
120
0.0
130
0.0
111
1.0
121
0.0
131
0.0
112
0.0
122
1.0
132
0.0
 79
     0
146
0.0
  0
ENDTAB
  0
TABLE
  2
LTYPE
  5
5
330
0
100
AcDbSymbolTable
 70
    12
  0
LTYPE
  5
12
330
5
100
AcDbSymbolTableRecord
100
AcDbLinetypeTableRecord
  2
BYBLOCK
 70
     0
  3

 72
    65
 73
     0
 40
0.0
  0
LTYPE
  5
13
330
5
100
AcDbSymbolTableRecord
100
AcDbLinetypeTableRecord
  2
BYLAYER
 70
     0
  3

 72
    65
 73
     0
 40
0.0
  0
LTYPE
  5
14
330
5
100
AcDbSymbolTableRecord
100
AcDbLinetypeTableRecord
  2
CONTINUOUS
 70
     0
  3
Solid line
 72
    65
 73
     0
 40
0.0
  0
LTYPE
  5
22
330
5
100
AcDbSymbolTableRecord
100
AcDbLinetypeTableRecord
  2
CENTER2
 70
     0
  3
Center (.5x) ___ _ ___ _ ___ _ ___ _ ___ _ ___
 72
    65
 73
     4
 40
28.575
 49
19.05
 74
     0
 49
-3.174999999999999
 74
     0
 49
3.174999999999999
 74
     0
 49
-3.174999999999999
 74
     0
  0
LTYPE
  5
23
330
5
100
AcDbSymbolTableRecord
100
AcDbLinetypeTableRecord
  2
HIDDEN2
 70
     0
  3
Hidden (.5x) _ _ _ _ _ _ _ _ _ _ _ _ _ _ _ _ _
 72
    65
 73
     2
 40
4.762499999999999
 49
3.174999999999999
 74
     0
 49
-1.587499999999999
 74
     0
  0
LTYPE
  5
24
330
5
100
AcDbSymbolTableRecord
100
AcDbLinetypeTableRecord
  2
PHANTOM2
 70
     0
  3
Phantom (.5x) ___ _ _ ___ _ _ ___ _ _ ___ _ _
 72
    65
 73
     6
 40
31.75
 49
15.875
 74
     0
 49
-3.174999999999999
 74
     0
 49
3.174999999999999
 74
     0
 49
-3.174999999999999
 74
     0
 49
3.174999999999999
 74
     0
 49
-3.174999999999999
 74
     0
  0
ENDTAB
  0
TABLE
  2
LAYER
  5
2
102
{ACAD_XDICTIONARY
360
AEA
102
}
330
0
100
AcDbSymbolTable
 70
    16
  0
LAYER
  5
E
330
2
100
AcDbSymbolTableRecord
100
AcDbLayerTableRecord
  2
0
 70
     0
 62
     7
  6
CONTINUOUS
370
    -3
390
9FB
  0
LAYER
  5
25
330
2
100
AcDbSymbolTableRecord
100
AcDbLayerTableRecord
  2
外形線
 70
     0
 62
     7
  6
CONTINUOUS
370
    -3
390
9FB
  0
LAYER
  5
26
330
2
100
AcDbSymbolTableRecord
100
AcDbLayerTableRecord
  2
寸法線
 70
     0
 62
     2
  6
CONTINUOUS
370
    -3
390
9FB
  0
LAYER
  5
27
330
2
100
AcDbSymbolTableRecord
100
AcDbLayerTableRecord
  2
中心線
 70
     0
 62
     4
  6
CENTER2
370
    -3
390
9FB
  0
LAYER
  5
28
330
2
100
AcDbSymbolTableRecord
100
AcDbLayerTableRecord
  2
隠れ線
 70
     0
 62
     6
  6
HIDDEN2
370
    -3
390
9FB
  0
LAYER
  5
29
330
2
100
AcDbSymbolTableRecord
100
AcDbLayerTableRecord
  2
想像線
 70
     0
 62
     1
  6
PHANTOM2
370
    -3
390
9FB
  0
LAYER
  5
2B
330
2
100
AcDbSymbolTableRecord
100
AcDbLayerTableRecord
  2
文字
 70
     0
 62
     6
  6
CONTINUOUS
370
    -3
390
9FB
  0
LAYER
  5
2C
330
2
100
AcDbSymbolTableRecord
100
AcDbLayerTableRecord
  2
目盛
 70
     0
 62
    72
  6
CONTINUOUS
370
    -3
390
9FB
  0
LAYER
  5
2D
330
2
100
AcDbSymbolTableRecord
100
AcDbLayerTableRecord
  2
針
 70
     0
 62
     5
  6
CONTINUOUS
370
    -3
390
9FB
  0
LAYER
  5
53
330
2
100
AcDbSymbolTableRecord
100
AcDbLayerTableRecord
  2
DEFPOINTS
 70
     0
 62
     7
  6
CONTINUOUS
290
     0
370
    -3
390
9FB
  0
LAYER
  5
A5
330
2
100
AcDbSymbolTableRecord
100
AcDbLayerTableRecord
  2
C
 70
     0
 62
     7
  6
CONTINUOUS
370
    -3
390
9FB
  0
LAYER
  5
1FE
330
2
100
AcDbSymbolTableRecord
100
AcDbLayerTableRecord
  2
隠れ線2
 70
     0
 62
     1
  6
HIDDEN2
370
    -3
390
9FB
  0
LAYER
  5
5D3
330
2
100
AcDbSymbolTableRecord
100
AcDbLayerTableRecord
  2
ROGO
 70
     0
 62
     6
  6
CONTINUOUS
370
    -3
390
9FB
  0
ENDTAB
  0
TABLE
  2
STYLE
  5
3
330
0
100
AcDbSymbolTable
 70
     6
  0
STYLE
  5
F
330
3
100
AcDbSymbolTableRecord
100
AcDbTextStyleTableRecord
  2
STANDARD
 70
     0
 40
0.0
 41
1.0
 50
0.0
 71
     0
 42
2.5
  3
txt
  4

  0
STYLE
  5
3F
330
3
100
AcDbSymbolTableRecord
100
AcDbTextStyleTableRecord
  2
STYLE3
 70
     0
 40
0.0
 41
1.0
 50
0.0
 71
     0
 42
1.5
  3
romans.shx
  4
bigfont.shx
  0
ENDTAB
  0
TABLE
  2
VIEW
  5
6
330
0
100
AcDbSymbolTable
 70
     0
  0
ENDTAB
  0
TABLE
  2
UCS
  5
7
330
0
100
AcDbSymbolTable
 70
     0
  0
ENDTAB
  0
TABLE
  2
APPID
  5
9
330
0
100
AcDbSymbolTable
 70
     2
  0
APPID
  5
10
330
9
100
AcDbSymbolTableRecord
100
AcDbRegAppTableRecord
  2
ACAD
 70
     0
  0
APPID
  5
AE9
330
9
100
AcDbSymbolTableRecord
100
AcDbRegAppTableRecord
  2
ACAD_PSEXT
 70
     0
  0
ENDTAB
  0
TABLE
  2
DIMSTYLE
  5
A
330
0
100
AcDbSymbolTable
 70
     5
100
AcDbDimStyleTable
 71
     1
340
8F
  0
DIMSTYLE
105
1D
330
A
100
AcDbSymbolTableRecord
100
AcDbDimStyleTableRecord
  2
STANDARD
 70
     0
 41
2.5
 42
0.625
 43
3.75
 44
1.25
 73
     0
 74
     0
 77
     1
 78
     8
140
2.5
141
2.5
143
0.0394
147
0.625
171
     4
172
     1
273
     8
274
     4
277
     6
340
F
  0
DIMSTYLE
105
8F
102
{ACAD_REACTORS
330
689
330
851
330
85E
330
86B
330
87C
330
889
330
896
330
8A2
330
8AE
330
8BA
330
8C7
330
915
330
922
330
2E1
330
30B
330
CC8
330
CED
102
}
330
A
100
AcDbSymbolTableRecord
100
AcDbDimStyleTableRecord
  2
STYLE3
 70
     0
 41
2.5
 42
0.0
 43
3.75
 44
1.25
 73
     0
 74
     0
 77
     1
 78
     8
140
2.5
141
2.5
143
0.0394
147
0.625
171
     4
172
     1
173
     1
176
     2
177
     2
178
     6
271
     1
273
     8
274
     4
340
3F
341
45
343
45
344
45
  0
ENDTAB
  0
TABLE
  2
BLOCK_RECORD
  5
1
330
0
100
AcDbSymbolTable
 70
    38
  0
BLOCK_RECORD
  5
18
102
{ACAD_XDICTIONARY
360
A0A
102
}
330
1
100
AcDbSymbolTableRecord
100
AcDbBlockTableRecord
  2
*MODEL_SPACE
340
A02
  0
BLOCK_RECORD
  5
15
330
1
100
AcDbSymbolTableRecord
100
AcDbBlockTableRecord
  2
*PAPER_SPACE
340
A03
  0
BLOCK_RECORD
  5
45
330
1
100
AcDbSymbolTableRecord
100
AcDbBlockTableRecord
  2
_OPEN
340
0
102
{BLKREFS
331
8E3
331
8E4
331
2C4
331
2C5
331
2D8
331
2D9
331
2EC
331
2F4
331
CB1
331
CB2
331
CC0
331
CC1
331
E75
331
E76
331
E7E
331
E7F
331
E87
331
E88
331
E8F
331
E90
331
E98
331
E99
331
EA1
331
EA2
331
EAC
331
EB3
331
EB4
331
EBE
331
EC8
331
EC9
331
ED1
331
ED2
331
EDA
331
EDB
331
EE3
331
EE4
331
EEC
331
EED
331
EF4
331
EF5
102
}
  0
BLOCK_RECORD
  5
5D4
330
1
100
AcDbSymbolTableRecord
100
AcDbBlockTableRecord
  2
ROGO
340
0
102
{BLKREFS
331
629
102
}
  0
BLOCK_RECORD
  5
67D
330
1
100
AcDbSymbolTableRecord
100
AcDbBlockTableRecord
  2
*D8
340
0
  0
BLOCK_RECORD
  5
843
330
1
100
AcDbSymbolTableRecord
100
AcDbBlockTableRecord
  2
*D13
340
0
  0
BLOCK_RECORD
  5
852
330
1
100
AcDbSymbolTableRecord
100
AcDbBlockTableRecord
  2
*D14
340
0
  0
BLOCK_RECORD
  5
85F
330
1
100
AcDbSymbolTableRecord
100
AcDbBlockTableRecord
  2
*D15
340
0
  0
BLOCK_RECORD
  5
870
330
1
100
AcDbSymbolTableRecord
100
AcDbBlockTableRecord
  2
*D16
340
0
  0
BLOCK_RECORD
  5
87D
330
1
100
AcDbSymbolTableRecord
100
AcDbBlockTableRecord
  2
*D17
340
0
  0
BLOCK_RECORD
  5
88A
330
1
100
AcDbSymbolTableRecord
100
AcDbBlockTableRecord
  2
*D18
340
0
  0
BLOCK_RECORD
  5
897
330
1
100
AcDbSymbolTableRecord
100
AcDbBlockTableRecord
  2
*D19
340
0
  0
BLOCK_RECORD
  5
8A3
330
1
100
AcDbSymbolTableRecord
100
AcDbBlockTableRecord
  2
*D20
340
0
  0
BLOCK_RECORD
  5
8AF
330
1
100
AcDbSymbolTableRecord
100
AcDbBlockTableRecord
  2
*D21
340
0
  0
BLOCK_RECORD
  5
8BB
330
1
100
AcDbSymbolTableRecord
100
AcDbBlockTableRecord
  2
*D22
340
0
  0
BLOCK_RECORD
  5
909
330
1
100
AcDbSymbolTableRecord
100
AcDbBlockTableRecord
  2
*D23
340
0
  0
BLOCK_RECORD
  5
916
330
1
100
AcDbSymbolTableRecord
100
AcDbBlockTableRecord
  2
*D24
340
0
  0
BLOCK_RECORD
  5
CC9
330
1
100
AcDbSymbolTableRecord
100
AcDbBlockTableRecord
  2
*D31
340
0
  0
BLOCK_RECORD
  5
CEE
330
1
100
AcDbSymbolTableRecord
100
AcDbBlockTableRecord
  2
*D32
340
0
  0
BLOCK_RECORD
  5
CFC
330
1
100
AcDbSymbolTableRecord
100
AcDbBlockTableRecord
  2
_None
340
0
  0
ENDTAB
  0
ENDSEC
  0
SECTION
  2
BLOCKS
  0
BLOCK
  5
19
330
18
100
AcDbEntity
  8
0
100
AcDbBlockBegin
  2
*MODEL_SPACE
 70
     0
 10
0.0
 20
0.0
 30
0.0
  3
*MODEL_SPACE
  1

  0
ENDBLK
  5
1A
330
18
100
AcDbEntity
  8
0
100
AcDbBlockEnd
  0
BLOCK
  5
16
330
15
100
AcDbEntity
 67
     1
  8
0
100
AcDbBlockBegin
  2
*PAPER_SPACE
 70
     0
 10
0.0
 20
0.0
 30
0.0
  3
*PAPER_SPACE
  1

  0
ENDBLK
  5
17
330
15
100
AcDbEntity
 67
     1
  8
0
100
AcDbBlockEnd
  0
BLOCK
  5
46
330
45
100
AcDbEntity
  8
0
100
AcDbBlockBegin
  2
_OPEN
 70
     0
 10
0.0
 20
0.0
 30
0.0
  3
_OPEN
  1

  0
LINE
  5
47
330
45
100
AcDbEntity
  8
0
  6
ByBlock
 62
     0
100
AcDbLine
 10
-1.0
 20
0.1666666666666666
 30
0.0
 11
0.0
 21
0.0
 31
0.0
  0
LINE
  5
48
330
45
100
AcDbEntity
  8
0
  6
ByBlock
 62
     0
100
AcDbLine
 10
0.0
 20
0.0
 30
0.0
 11
-1.0
 21
-0.1666666666666666
 31
0.0
  0
LINE
  5
49
330
45
100
AcDbEntity
  8
0
  6
ByBlock
 62
     0
100
AcDbLine
 10
0.0
 20
0.0
 30
0.0
 11
-1.0
 21
0.0
 31
0.0
  0
ENDBLK
  5
4A
330
45
100
AcDbEntity
  8
0
100
AcDbBlockEnd
  0
BLOCK
  5
627
330
5D4
100
AcDbEntity
  8
0
100
AcDbBlockBegin
  2
ROGO
 70
     0
 10
0.0
 20
0.0
 30
0.0
  3
ROGO
  1

  0
HATCH
  5
5D5
330
5D4
100
AcDbEntity
  8
ROGO
 62
     4
100
AcDbHatch
 10
0.0
 20
0.0
 30
0.0
210
0.0
220
0.0
230
1.0
  2
SOLID
 70
     1
 71
     1
 91
        1
 92
        7
 72
     0
 73
     1
 93
       11
 10
38.38165352405156
 20
4.949786840425588
 10
36.55777800832078
 20
4.949786840425588
 10
35.70378540756275
 20
4.409370842614521
 10
35.97325427788326
 20
4.949786840425588
 10
34.14933885635003
 20
4.949786840425645
 10
31.68121527448045
 20
0.0
 10
33.50513069601385
 20
0.0
 10
34.14933885635003
 20
1.291950329371957
 10
34.79354701668632
 20
0.0
 10
36.61742253241704
 20
0.0
 10
35.38336074148237
 20
2.474893420212765
 97
       11
330
623
330
626
330
625
330
624
330
5DA
330
5D7
330
620
330
61F
330
621
330
61E
330
622
 75
     0
 76
     1
 47
0.0514683685270805
 98
        1
 10
33.99236623130548
 20
2.826231829978155
450
        0
451
        0
460
0.0
461
0.0
452
        0
462
0.0
453
        0
470

  0
HATCH
  5
5D6
330
5D4
100
AcDbEntity
  8
ROGO
 62
     4
100
AcDbHatch
 10
0.0
 20
0.0
 30
0.0
210
0.0
220
0.0
230
1.0
  2
SOLID
 70
     1
 71
     1
 91
        1
 92
        5
 93
        8
 72
     1
 10
33.48588559853425
 20
4.949786840425645
 11
30.31359802057352
 21
4.949786840425645
 72
     4
 94
        3
 73
     0
 74
     0
 95
       26
 96
       22
 40
0.0
 40
0.0
 40
0.0
 40
0.0
 40
0.7089867102952115
 40
1.183598414482279
 40
1.525832104103439
 40
1.781366926528389
 40
2.112809002752968
 40
2.354729406992515
 40
2.791581270399936
 40
3.147172406765291
 40
3.389031356825354
 40
3.626186440486682
 40
4.050410779375985
 40
4.350388020238963
 40
4.511948940797758
 40
4.741441456013356
 40
4.907163150576407
 40
5.147239172635527
 40
5.28310143501293
 40
5.578752957634333
 40
5.713750011164293
 40
5.713750011164293
 40
5.713750011164293
 40
5.713750011164293
 10
30.31359802057318
 20
4.949786840425645
 10
30.11854899911117
 20
4.938149881331241
 10
29.7929297608427
 20
4.91872287919773
 10
29.43540181805798
 20
4.70152849352172
 10
29.17345591634097
 20
4.575261222274434
 10
28.98663641691252
 20
4.403611624277345
 10
28.84969696652098
 20
4.226310128312206
 10
28.67705908163674
 20
4.015056695877603
 10
28.53627781964582
 20
3.769060622409767
 10
28.46458648155834
 20
3.497930064177694
 10
28.40108297470425
 20
3.28183743611737
 10
28.35398771091377
 20
3.041030402807223
 10
28.36597007927202
 20
2.780874095348053
 10
28.38312937914947
 20
2.539254235598093
 10
28.45974148051295
 20
2.366773831190926
 10
28.5469890936244
 20
2.243979668736869
 10
28.65382260102928
 20
2.108735512341411
 10
28.77072182070049
 20
2.019163745498303
 10
28.86740701734601
 20
1.85689847078413
 10
29.03665119246222
 20
1.836192251465718
 10
29.14422952328943
 20
1.794980695042454
 10
29.17795251342483
 20
1.782061951090668
 72
     1
 10
29.1779525134246
 20
1.782061951090668
 11
31.90635566072177
 21
1.782061951090724
 72
     1
 10
31.90635566072177
 20
1.782061951090668
 11
32.49403698331935
 21
2.960648509043437
 72
     1
 10
32.49403698331941
 20
2.960648509043437
 11
30.46845823186379
 21
2.960648509043437
 72
     4
 94
        3
 73
     0
 74
     0
 95
       16
 96
       12
 40
0.0
 40
0.0
 40
0.0
 40
0.0
 40
0.2141121027475241
 40
0.4304326162973471
 40
0.5594580803306056
 40
0.6831669452691567
 40
0.8190286678446897
 40
0.9139043619204622
 40
1.003933161420314
 40
1.186498641432482
 40
1.560280494298353
 40
1.560280494298353
 40
1.560280494298353
 40
1.560280494298353
 10
30.46845823186391
 20
2.960648509043437
 10
30.40735963846879
 20
2.978624611086559
 10
30.2845322640714
 20
3.014762225606943
 10
30.27425260468789
 20
3.189944104912854
 10
30.28825715338957
 20
3.314775529002304
 10
30.34690823463126
 20
3.405660095425673
 10
30.41806216907168
 20
3.471790575521367
 10
30.44455593462857
 20
3.557915185941965
 10
30.52243194464864
 20
3.622950041937542
 10
30.66052697686496
 20
3.732264550099898
 10
30.81323617682881
 20
3.755546097864453
 10
30.9158338246271
 20
3.771187801431096
 72
     1
 10
30.91583382462705
 20
3.77118780143121
 11
32.89819805248612
 21
3.77118780143121
 72
     1
 10
32.89819805248612
 20
3.77118780143121
 11
33.48588559853425
 21
4.949786840425701
 97
        8
330
5D8
330
5FC
330
608
330
601
330
61C
330
61B
330
61D
330
5D9
 75
     0
 76
     1
 47
0.0514683685270805
 98
        1
 10
30.86099532083267
 20
4.369765638819899
450
        0
451
        0
460
0.0
461
0.0
452
        0
462
0.0
453
        0
470

  0
LINE
  5
5D7
102
{ACAD_REACTORS
330
5DB
330
5D5
330
5E0
102
}
330
5D4
100
AcDbEntity
  8
ROGO
 62
     4
100
AcDbLine
 10
0.0000000000000568
 20
0.0
 30
0.0
 11
33.50513069601385
 21
0.0
 31
0.0
  0
LINE
  5
5D8
102
{ACAD_REACTORS
330
5D6
102
}
330
5D4
100
AcDbEntity
  8
ROGO
 62
     4
100
AcDbLine
 10
30.31359802057415
 20
4.949786840425645
 30
0.0
 11
33.48588559853425
 21
4.949786840425645
 31
0.0
  0
LINE
  5
5D9
102
{ACAD_REACTORS
330
5D6
102
}
330
5D4
100
AcDbEntity
  8
ROGO
 62
     4
100
AcDbLine
 10
33.48588559853425
 20
4.949786840425645
 30
0.0
 11
32.89819805248607
 21
3.77118780143121
 31
0.0
  0
LINE
  5
5DA
102
{ACAD_REACTORS
330
5DB
330
5D5
102
}
330
5D4
100
AcDbEntity
  8
ROGO
 62
     4
100
AcDbLine
 10
34.14933885635003
 20
4.949786840425645
 30
0.0
 11
31.6812152744804
 21
0.0
 31
0.0
  0
HATCH
  5
5DB
330
5D4
100
AcDbEntity
  8
ROGO
 62
     4
100
AcDbHatch
 10
0.0
 20
0.0
 30
0.0
210
0.0
220
0.0
230
1.0
  2
SOLID
 70
     1
 71
     1
 91
        1
 92
        7
 72
     0
 73
     1
 93
        4
 10
31.9286078056424
 20
0.4961422127159381
 10
2.525341286638024
 20
0.4961422127159381
 10
2.30087247590319
 20
-0.0000000000000568
 10
31.68121527448045
 20
-0.0000000000000568
 97
        4
330
5DF
330
5E9
330
5D7
330
5DA
 75
     0
 76
     1
 47
0.0514683685270805
 98
        1
 10
21.09111831761885
 20
0.3649205710345882
450
        0
451
        0
460
0.0
461
0.0
452
        0
462
0.0
453
        0
470

  0
HATCH
  5
5DC
330
5D4
100
AcDbEntity
  8
ROGO
 62
     4
100
AcDbHatch
 10
0.0
 20
0.0
 30
0.0
210
0.0
220
0.0
230
1.0
  2
SOLID
 70
     1
 71
     1
 91
        2
 92
        7
 72
     0
 73
     1
 93
        8
 10
15.99342784516449
 20
4.949786840425645
 10
14.16260675403379
 20
4.949786840425645
 10
11.87829877231911
 20
1.782061951090668
 10
13.63265136986962
 20
1.782061951090668
 10
14.06756947612285
 20
2.38517717067981
 10
16.08846512307536
 20
2.385177170679696
 10
16.52338322932866
 20
1.782061951090668
 10
18.27773582687916
 20
1.782061951090668
 97
        8
330
5DE
330
5E6
330
5EB
330
5E7
330
5DD
330
5FF
330
605
330
5FE
 92
       22
 72
     0
 73
     1
 93
        3
 10
15.62974388152605
 20
3.021300979620718
 10
14.52629071767222
 20
3.021300979620718
 10
15.07801729959914
 20
3.786398348131172
 97
        3
330
60A
330
609
330
60B
 75
     0
 76
     1
 47
0.0514683685270805
 98
        2
 10
16.20617981601185
 20
3.326837253266262
 10
16.20617981601185
 20
3.326837253266262
450
        0
451
        0
460
0.0
461
0.0
452
        0
462
0.0
453
        0
470

  0
LINE
  5
5DD
102
{ACAD_REACTORS
330
5DC
102
}
330
5D4
100
AcDbEntity
  8
ROGO
 62
     4
100
AcDbLine
 10
14.06756947612285
 20
2.385177170679753
 30
0.0
 11
16.08846512307542
 21
2.385177170679753
 31
0.0
  0
LINE
  5
5DE
102
{ACAD_REACTORS
330
5DC
102
}
330
5D4
100
AcDbEntity
  8
ROGO
 62
     4
100
AcDbLine
 10
14.16260675403379
 20
4.949786840425645
 30
0.0
 11
15.99342784516443
 21
4.949786840425645
 31
0.0
  0
LINE
  5
5DF
102
{ACAD_REACTORS
330
5DB
102
}
330
5D4
100
AcDbEntity
  8
ROGO
 62
     4
100
AcDbLine
 10
2.490933298034235
 20
0.4961422127159381
 30
0.0
 11
31.92860780564246
 21
0.4961422127159381
 31
0.0
  0
HATCH
  5
5E0
330
5D4
100
AcDbEntity
  8
ROGO
 62
     4
100
AcDbHatch
 10
0.0
 20
0.0
 30
0.0
210
0.0
220
0.0
230
1.0
  2
SOLID
 70
     1
 71
     1
 91
        2
 92
        5
 93
        6
 72
     4
 94
        3
 73
     0
 74
     0
 95
       18
 96
       14
 40
0.108740278791501
 40
0.108740278791501
 40
0.108740278791501
 40
0.108740278791501
 40
0.6623149649549278
 40
1.384304701649787
 40
2.097394834876493
 40
2.774073369849618
 40
3.428974823686337
 40
4.005208313035923
 40
4.455173659284313
 40
4.720999734343524
 40
5.086034088486724
 40
5.569973738255373
 40
6.060470601257719
 40
6.060470601257719
 40
6.060470601257719
 40
6.060470601257719
 10
5.257971706506339
 20
1.782061951090668
 10
5.409344543521854
 20
1.783189178773909
 10
5.758142655701249
 20
1.785786572703102
 10
6.246108485316483
 20
2.046468641233957
 10
6.708839512865949
 20
2.378558603499755
 10
7.081537876611037
 20
2.793470364329778
 10
7.313740186156906
 20
3.267850878540173
 10
7.349707589953482
 20
3.722501028309523
 10
7.327750373593119
 20
4.082123644518105
 10
7.170855034099304
 20
4.33278953599904
 10
7.007743182975218
 20
4.587189781908875
 10
6.708651203549891
 20
4.807560723981168
 10
6.463588634008544
 20
4.904115955004613
 10
6.338969333173452
 20
4.949786840425758
 72
     1
 10
6.338969333173679
 20
4.949786840425645
 11
2.449108495127859
 21
4.949786840425645
 72
     1
 10
2.449108495127859
 20
4.949786840425645
 11
0.0
 21
-0.0000000000000568
 72
     1
 10
-0.0000000000000568
 20
0.0
 11
2.300872475903247
 21
0.0
 72
     1
 10
2.300872475903304
 20
0.0
 11
3.107127853020472
 21
1.782061951090724
 72
     1
 10
3.107127853020472
 20
1.782061951090668
 11
5.257971706506168
 21
1.782061951090668
 97
        6
330
5E2
330
5EC
330
5E3
330
5D7
330
5E9
330
5E8
 92
       20
 93
        4
 72
     1
 10
3.604944905315051
 20
2.882384321244217
 11
3.98608604239348
 21
3.724818539558043
 72
     1
 10
3.98608604239348
 20
3.724818539557986
 11
4.965456325034381
 21
3.724818539557986
 72
     4
 94
        3
 73
     0
 74
     0
 95
       15
 96
       11
 40
0.0
 40
0.0
 40
0.0
 40
0.0
 40
0.458245544397197
 40
0.6671803073175111
 40
0.9043351724393449
 40
1.065896092998139
 40
1.321406364485703
 40
1.474450037341961
 40
1.737022829061231
 40
1.824547148828933
 40
1.824547148828933
 40
1.824547148828933
 40
1.824547148828933
 10
4.965456325033528
 20
3.724818539557986
 10
5.104956735089615
 20
3.72545752589923
 10
5.308061659054601
 20
3.726387854865265
 10
5.419126665259284
 20
3.475146476562713
 10
5.369342033880457
 20
3.313386222112512
 10
5.306758694724408
 20
3.147308857819552
 10
5.196159760245848
 20
3.034456783979635
 10
5.047719790425048
 20
2.925761212639713
 10
4.907436925306626
 20
2.912603127013085
 10
4.816198668830168
 20
2.888428084712359
 10
4.793389093792598
 20
2.88238432124416
 72
     1
 10
4.793389093792541
 20
2.882384321244217
 11
3.604944905315051
 21
2.882384321244217
 97
        4
330
5EF
330
5ED
330
5F1
330
5EE
 75
     0
 76
     1
 47
0.0514683685270805
 98
        2
 10
2.469899197802817
 20
3.410271770727717
 10
2.469899197802817
 20
3.410271770727717
450
        0
451
        0
460
0.0
461
0.0
452
        0
462
0.0
453
        0
470

  0
HATCH
  5
5E1
330
5D4
100
AcDbEntity
  8
ROGO
 62
     4
100
AcDbHatch
 10
0.0
 20
0.0
 30
0.0
210
0.0
220
0.0
230
1.0
  2
SOLID
 70
     1
 71
     1
 91
        1
 92
        1
 93
       12
 72
     1
 10
8.637002599138838
 20
4.949786840425645
 11
12.92148229673961
 21
4.949786840425701
 72
     1
 10
12.92148229673961
 20
4.949786840425645
 11
12.56244669050807
 21
4.224155565819216
 72
     1
 10
12.56244669050812
 20
4.224155565819273
 11
10.31063242784853
 21
4.224155565819273
 72
     1
 10
10.31063242784847
 20
4.224155565819273
 11
10.02991119959222
 21
3.656802080167153
 72
     1
 10
10.02991119959228
 20
3.656802080167153
 11
12.28172546225187
 21
3.656802080167153
 72
     1
 10
12.28172546225181
 20
3.656802080167153
 11
11.99387214064069
 21
3.075034230307551
 72
     1
 10
11.99387214064069
 20
3.075034230307551
 11
9.742057877981153
 21
3.075034230307494
 72
     1
 10
9.742057877981153
 20
3.075034230307551
 11
9.461324765337508
 21
2.507656725636252
 72
     1
 10
9.461324765337565
 20
2.507656725636138
 11
11.71313902799716
 21
2.507656725636138
 72
     1
 10
11.71313902799716
 20
2.507656725636138
 11
11.3541214816563
 21
1.782061951090668
 72
     1
 10
11.35412148165636
 20
1.782061951090668
 11
7.06964178405559
 21
1.782061951090668
 72
     1
 10
7.06964178405559
 20
1.782061951090668
 11
8.637002599138838
 21
4.949786840425645
 97
       12
330
5F0
330
5F2
330
5F4
330
5F3
330
5F5
330
5F8
330
5F7
330
5F9
330
5F6
330
5E5
330
5EA
330
5E4
 75
     0
 76
     1
 98
        1
 10
-166.6183073243049
 20
-214.0842147101267
450
        0
451
        0
460
0.0
461
0.0
452
        0
462
0.0
453
        0
470

  0
SPLINE
  5
5E2
102
{ACAD_REACTORS
330
5E0
102
}
330
5D4
100
AcDbEntity
  8
ROGO
 62
     4
100
AcDbSpline
210
0.0
220
0.0
230
1.0
 70
     8
 71
     3
 72
    18
 73
    14
 74
     0
 42
0.0000000001
 43
0.0000000001
 40
0.1087402787915014
 40
0.1087402787915014
 40
0.1087402787915014
 40
0.1087402787915014
 40
0.5992371417938475
 40
1.083176791562496
 40
1.448211145705696
 40
1.714037220764907
 40
2.164002567013297
 40
2.740236056362883
 40
3.395137510199602
 40
4.071816045172726
 40
4.784906178399433
 40
5.506895915094292
 40
6.060470601257719
 40
6.060470601257719
 40
6.060470601257719
 40
6.060470601257719
 10
6.338969333173452
 20
4.949786840425758
 30
0.0
 10
6.463588634008544
 20
4.904115955004613
 30
0.0
 10
6.708651203549891
 20
4.807560723981168
 30
0.0
 10
7.007743182975218
 20
4.587189781908875
 30
0.0
 10
7.170855034099304
 20
4.33278953599904
 30
0.0
 10
7.327750373593119
 20
4.082123644518105
 30
0.0
 10
7.349707589953482
 20
3.722501028309523
 30
0.0
 10
7.313740186156906
 20
3.267850878540173
 30
0.0
 10
7.081537876611037
 20
2.793470364329778
 30
0.0
 10
6.708839512865949
 20
2.378558603499755
 30
0.0
 10
6.246108485316483
 20
2.046468641233957
 30
0.0
 10
5.758142655701249
 20
1.785786572703102
 30
0.0
 10
5.409344543521854
 20
1.783189178773909
 30
0.0
 10
5.257971706506339
 20
1.782061951090668
 30
0.0
  0
LINE
  5
5E3
102
{ACAD_REACTORS
330
5E0
102
}
330
5D4
100
AcDbEntity
  8
ROGO
 62
     4
100
AcDbLine
 10
2.449108495127859
 20
4.949786840425645
 30
0.0
 11
0.0
 21
0.0
 31
0.0
  0
LINE
  5
5E4
102
{ACAD_REACTORS
330
5E1
102
}
330
5D4
100
AcDbEntity
  8
ROGO
 62
     4
100
AcDbLine
 10
8.637002599138952
 20
4.949786840425645
 30
0.0
 11
7.06964178405559
 21
1.782061951090668
 31
0.0
  0
LINE
  5
5E5
102
{ACAD_REACTORS
330
5E1
102
}
330
5D4
100
AcDbEntity
  8
ROGO
 62
     4
100
AcDbLine
 10
11.71313902799716
 20
2.507656725636195
 30
0.0
 11
11.35412148165636
 21
1.782061951090668
 31
0.0
  0
LINE
  5
5E6
102
{ACAD_REACTORS
330
5DC
102
}
330
5D4
100
AcDbEntity
  8
ROGO
 62
     4
100
AcDbLine
 10
14.16260675403384
 20
4.949786840425645
 30
0.0
 11
11.87829877231911
 21
1.782061951090668
 31
0.0
  0
LINE
  5
5E7
102
{ACAD_REACTORS
330
5DC
102
}
330
5D4
100
AcDbEntity
  8
ROGO
 62
     4
100
AcDbLine
 10
14.06756947612285
 20
2.385177170679753
 30
0.0
 11
13.63265136986962
 21
1.782061951090781
 31
0.0
  0
LINE
  5
5E8
102
{ACAD_REACTORS
330
5E0
102
}
330
5D4
100
AcDbEntity
  8
ROGO
 62
     4
100
AcDbLine
 10
5.257971707251897
 20
1.782061951090668
 30
0.0
 11
3.107127853020358
 21
1.782061951090668
 31
0.0
  0
LINE
  5
5E9
102
{ACAD_REACTORS
330
5DB
330
5E0
102
}
330
5D4
100
AcDbEntity
  8
ROGO
 62
     4
100
AcDbLine
 10
3.107127853020472
 20
1.782061951090668
 30
0.0
 11
2.300872475903304
 21
0.0
 31
0.0
  0
LINE
  5
5EA
102
{ACAD_REACTORS
330
5E1
102
}
330
5D4
100
AcDbEntity
  8
ROGO
 62
     4
100
AcDbLine
 10
7.06964178405559
 20
1.782061951090668
 30
0.0
 11
11.35412148165636
 21
1.782061951090668
 31
0.0
  0
LINE
  5
5EB
102
{ACAD_REACTORS
330
5DC
102
}
330
5D4
100
AcDbEntity
  8
ROGO
 62
     4
100
AcDbLine
 10
11.87829877231917
 20
1.782061951090668
 30
0.0
 11
13.63265136986962
 21
1.782061951090668
 31
0.0
  0
LINE
  5
5EC
102
{ACAD_REACTORS
330
5E0
102
}
330
5D4
100
AcDbEntity
  8
ROGO
 62
     4
100
AcDbLine
 10
2.449108495127859
 20
4.949786840425645
 30
0.0
 11
6.338969333173452
 21
4.949786840425645
 31
0.0
  0
LINE
  5
5ED
102
{ACAD_REACTORS
330
5E0
102
}
330
5D4
100
AcDbEntity
  8
ROGO
 62
     4
100
AcDbLine
 10
4.965456325033528
 20
3.724818539557986
 30
0.0
 11
3.986086042393537
 21
3.724818539557986
 31
0.0
  0
LINE
  5
5EE
102
{ACAD_REACTORS
330
5E0
102
}
330
5D4
100
AcDbEntity
  8
ROGO
 62
     4
100
AcDbLine
 10
4.793389093792598
 20
2.88238432124416
 30
0.0
 11
3.604944905315107
 21
2.882384321244217
 31
0.0
  0
LINE
  5
5EF
102
{ACAD_REACTORS
330
5E0
102
}
330
5D4
100
AcDbEntity
  8
ROGO
 62
     4
100
AcDbLine
 10
3.986086042393537
 20
3.724818539557986
 30
0.0
 11
3.604944905315051
 21
2.882384321244217
 31
0.0
  0
LINE
  5
5F0
102
{ACAD_REACTORS
330
5E1
102
}
330
5D4
100
AcDbEntity
  8
ROGO
 62
     4
100
AcDbLine
 10
8.637002599138838
 20
4.949786840425645
 30
0.0
 11
12.92148229673961
 21
4.949786840425758
 31
0.0
  0
SPLINE
  5
5F1
102
{ACAD_REACTORS
330
5E0
102
}
330
5D4
100
AcDbEntity
  8
ROGO
 62
     4
100
AcDbSpline
210
0.0
220
0.0
230
1.0
 70
     8
 71
     3
 72
    15
 73
    11
 74
     9
 42
0.0000000001
 43
0.0000000001
 44
0.0000000001
 40
0.0
 40
0.0
 40
0.0
 40
0.0
 40
0.3714260192954959
 40
0.5407758541881006
 40
0.7329991907503102
 40
0.8639506649775173
 40
1.071051779626874
 40
1.195099689928134
 40
1.407925254728536
 40
1.478867154939799
 40
1.478867154939799
 40
1.478867154939799
 40
1.478867154939799
 10
4.965456325033528
 20
3.724818539557986
 30
0.0
 10
5.104956735089532
 20
3.725457525899206
 30
0.0
 10
5.308061659054509
 20
3.726387854865235
 30
0.0
 10
5.419126665259303
 20
3.475146476562761
 30
0.0
 10
5.369342033880415
 20
3.31338622211255
 30
0.0
 10
5.306758694724477
 20
3.147308857819524
 30
0.0
 10
5.19615976024584
 20
3.034456783979611
 30
0.0
 10
5.047719790425087
 20
2.925761212639771
 30
0.0
 10
4.907436925306584
 20
2.912603127013052
 30
0.0
 10
4.816198668830153
 20
2.888428084712352
 30
0.0
 10
4.793389093792598
 20
2.88238432124416
 30
0.0
 11
4.965456325033528
 21
3.724818539557986
 31
0.0
 11
5.326797807465993
 21
3.63885563544693
 31
0.0
 11
5.395624897846573
 21
3.484122968540759
 31
0.0
 11
5.361211847366689
 21
3.295005139989939
 31
0.0
 11
5.309591776936599
 21
3.174657074234517
 31
0.0
 11
5.171937596175325
 21
3.019924407328176
 31
0.0
 11
5.068697455314975
 21
2.951154084039387
 31
0.0
 11
4.862216184173178
 21
2.899576902066371
 31
0.0
 11
4.793389093792598
 21
2.88238432124416
 31
0.0
  0
LINE
  5
5F2
102
{ACAD_REACTORS
330
5E1
102
}
330
5D4
100
AcDbEntity
  8
ROGO
 62
     4
100
AcDbLine
 10
12.92148229673961
 20
4.949786840425645
 30
0.0
 11
12.56244669050807
 21
4.224155565819273
 31
0.0
  0
LINE
  5
5F3
102
{ACAD_REACTORS
330
5E1
102
}
330
5D4
100
AcDbEntity
  8
ROGO
 62
     4
100
AcDbLine
 10
10.31063242784847
 20
4.224155565819273
 30
0.0
 11
10.02991119959222
 21
3.656802080167153
 31
0.0
  0
LINE
  5
5F4
102
{ACAD_REACTORS
330
5E1
102
}
330
5D4
100
AcDbEntity
  8
ROGO
 62
     4
100
AcDbLine
 10
10.31063242784847
 20
4.224155565819273
 30
0.0
 11
12.56244669050807
 21
4.224155565819273
 31
0.0
  0
LINE
  5
5F5
102
{ACAD_REACTORS
330
5E1
102
}
330
5D4
100
AcDbEntity
  8
ROGO
 62
     4
100
AcDbLine
 10
10.02991119959222
 20
3.656802080167153
 30
0.0
 11
12.28172546225187
 21
3.656802080167153
 31
0.0
  0
LINE
  5
5F6
102
{ACAD_REACTORS
330
5E1
102
}
330
5D4
100
AcDbEntity
  8
ROGO
 62
     4
100
AcDbLine
 10
9.461324765337565
 20
2.507656725636195
 30
0.0
 11
11.71313902799716
 21
2.507656725636195
 31
0.0
  0
LINE
  5
5F7
102
{ACAD_REACTORS
330
5E1
102
}
330
5D4
100
AcDbEntity
  8
ROGO
 62
     4
100
AcDbLine
 10
9.742057877981153
 20
3.075034230307551
 30
0.0
 11
11.99387214064069
 21
3.075034230307608
 31
0.0
  0
LINE
  5
5F8
102
{ACAD_REACTORS
330
5E1
102
}
330
5D4
100
AcDbEntity
  8
ROGO
 62
     4
100
AcDbLine
 10
12.28172546225187
 20
3.656802080167153
 30
0.0
 11
11.99387214064069
 21
3.075034230307551
 31
0.0
  0
LINE
  5
5F9
102
{ACAD_REACTORS
330
5E1
102
}
330
5D4
100
AcDbEntity
  8
ROGO
 62
     4
100
AcDbLine
 10
9.742057877981153
 20
3.075034230307551
 30
0.0
 11
9.461324765337508
 21
2.507656725636195
 31
0.0
  0
HATCH
  5
5FA
330
5D4
100
AcDbEntity
  8
ROGO
 62
     4
100
AcDbHatch
 10
0.0
 20
0.0
 30
0.0
210
0.0
220
0.0
230
1.0
  2
SOLID
 70
     1
 71
     1
 91
        2
 92
        7
 72
     1
 73
     1
 93
        4
 10
26.16568830176476
 20
4.949786840425645
 42
0.0
 10
24.88477496917216
 20
4.949786840425645
 42
0.9597396185052668
 10
24.88477496917204
 20
1.782061951090668
 42
0.0
 10
26.25774038752116
 20
1.782061951090668
 42
0.9713627655772736
 97
        4
330
61A
330
602
330
607
330
603
 92
       22
 72
     1
 73
     1
 93
        8
 10
25.9709322672415
 20
3.347576112203057
 42
0.0
 10
25.92877650574593
 20
3.045974519724552
 42
-0.3696060376523694
 10
25.58588379175427
 20
2.870057733155022
 42
0.0
 10
25.47108749766136
 20
2.886103156372541
 42
-0.3541938351274232
 10
25.17427477727125
 20
3.157453445413239
 42
0.0
 10
25.21643053876682
 20
3.459055037891914
 42
-0.3439742752229287
 10
25.58698051573322
 20
3.668449396631842
 42
0.0
 10
25.69536003945933
 20
3.653300864703851
 42
-0.3460733018205655
 97
        8
330
612
330
618
330
614
330
617
330
613
330
616
330
611
330
615
 75
     0
 76
     1
 47
0.0514683685270805
 98
        2
 10
26.4770758482868
 20
3.660574202124962
 10
26.4770758482868
 20
3.660574202124962
450
        0
451
        0
460
0.0
461
0.0
452
        0
462
0.0
453
        0
470

  0
HATCH
  5
5FB
330
5D4
100
AcDbEntity
  8
ROGO
 62
     4
100
AcDbHatch
 10
0.0
 20
0.0
 30
0.0
210
0.0
220
0.0
230
1.0
  2
SOLID
 70
     1
 71
     1
 91
        1
 92
        5
 93
        8
 72
     1
 10
23.27919423493069
 20
4.949786840425645
 11
20.10690665697018
 21
4.949786840425701
 72
     4
 94
        3
 73
     0
 74
     0
 95
       26
 96
       22
 40
0.0
 40
0.0
 40
0.0
 40
0.0
 40
0.7089867102952115
 40
1.183598414482279
 40
1.525832104103439
 40
1.781366926528389
 40
2.112809002752968
 40
2.354729406992515
 40
2.791581270399936
 40
3.147172406765291
 40
3.389031356825354
 40
3.626186440486682
 40
4.050410779375985
 40
4.350388020238963
 40
4.511948940797758
 40
4.741441456013356
 40
4.907163150576407
 40
5.147239172635527
 40
5.28310143501293
 40
5.578752957634333
 40
5.713750011164293
 40
5.713750011164293
 40
5.713750011164293
 40
5.713750011164293
 10
20.10690665696961
 20
4.949786840425645
 10
19.9118576355076
 20
4.938149881331241
 10
19.58623839723913
 20
4.91872287919773
 10
19.22871045445441
 20
4.701528493521777
 10
18.9667645527374
 20
4.575261222274434
 10
18.77994505330895
 20
4.403611624277402
 10
18.64300560291741
 20
4.226310128312206
 10
18.47036771803317
 20
4.01505669587766
 10
18.32958645604225
 20
3.769060622409824
 10
18.25789511795477
 20
3.497930064177751
 10
18.19439161110068
 20
3.281837436117484
 10
18.14729634731026
 20
3.041030402807223
 10
18.15927871566845
 20
2.780874095348053
 10
18.1764380155459
 20
2.53925423559815
 10
18.25305011690938
 20
2.366773831190926
 10
18.34029773002083
 20
2.243979668736869
 10
18.44713123742571
 20
2.108735512341468
 10
18.56403045709697
 20
2.019163745498303
 10
18.66071565374244
 20
1.85689847078413
 10
18.82995982885865
 20
1.836192251465718
 10
18.93753815968586
 20
1.794980695042511
 10
18.97126114982126
 20
1.782061951090668
 72
     1
 10
18.97126114982103
 20
1.782061951090668
 11
21.6996642971182
 21
1.782061951090724
 72
     1
 10
21.6996642971182
 20
1.782061951090781
 11
22.28734561971584
 21
2.960648509043551
 72
     1
 10
22.28734561971584
 20
2.960648509043494
 11
20.26176686826005
 21
2.960648509043494
 72
     4
 94
        3
 73
     0
 74
     0
 95
       16
 96
       12
 40
0.0
 40
0.0
 40
0.0
 40
0.0
 40
0.2141121027475241
 40
0.4304326162973471
 40
0.5594580803306056
 40
0.6831669452691567
 40
0.8190286678446897
 40
0.9139043619204622
 40
1.003933161420314
 40
1.186498641432482
 40
1.560280494298353
 40
1.560280494298353
 40
1.560280494298353
 40
1.560280494298353
 10
20.26176686826034
 20
2.960648509043494
 10
20.20066827486522
 20
2.978624611086615
 10
20.07784090046783
 20
3.014762225607
 10
20.06756124108432
 20
3.18994410491291
 10
20.081565789786
 20
3.314775529002361
 10
20.14021687102769
 20
3.40566009542573
 10
20.21137080546811
 20
3.471790575521481
 10
20.237864571025
 20
3.557915185942079
 10
20.31574058104508
 20
3.622950041937542
 10
20.45383561326139
 20
3.732264550099955
 10
20.60654481322524
 20
3.755546097864453
 10
20.70914246102353
 20
3.77118780143121
 72
     1
 10
20.70914246102353
 20
3.77118780143121
 11
22.69150668888256
 21
3.771187801431267
 72
     1
 10
22.69150668888256
 20
3.77118780143121
 11
23.27919423493069
 21
4.949786840425645
 97
        8
330
610
330
5FD
330
604
330
600
330
60F
330
60C
330
60E
330
60D
 75
     0
 76
     1
 47
0.0514683685270805
 98
        1
 10
21.21637307488407
 20
4.244614142874524
450
        0
451
        0
460
0.0
461
0.0
452
        0
462
0.0
453
        0
470

  0
SPLINE
  5
5FC
102
{ACAD_REACTORS
330
5D6
102
}
330
5D4
100
AcDbEntity
  8
ROGO
 62
     4
100
AcDbSpline
210
0.0
220
0.0
230
1.0
 70
     8
 71
     3
 72
    26
 73
    22
 74
    20
 42
0.0000000001
 43
0.0000000001
 44
0.0000000001
 40
0.0
 40
0.0
 40
0.0
 40
0.0
 40
0.5746615864749196
 40
0.9593530213456462
 40
1.236746873962384
 40
1.443867888111121
 40
1.712514714041724
 40
1.90860070730817
 40
2.262686307552686
 40
2.55090689560158
 40
2.746943077840944
 40
2.939166591537864
 40
3.283017086994854
 40
3.526160427536374
 40
3.657111901763582
 40
3.843124602654698
 40
3.97744854769916
 40
4.172039596738211
 40
4.282161298747791
 40
4.521798474686698
 40
4.631218890929293
 40
4.631218890929293
 40
4.631218890929293
 40
4.631218890929293
 10
30.31359802057318
 20
4.949786840425645
 30
0.0
 10
30.11854899911117
 20
4.938149881331216
 30
0.0
 10
29.79292976084273
 20
4.918722879197668
 30
0.0
 10
29.43540181805795
 20
4.701528493521752
 30
0.0
 10
29.17345591634098
 20
4.575261222274342
 30
0.0
 10
28.98663641691248
 20
4.403611624277403
 30
0.0
 10
28.84969696652104
 20
4.226310128312151
 30
0.0
 10
28.67705908163667
 20
4.015056695877607
 30
0.0
 10
28.53627781964588
 20
3.769060622409776
 30
0.0
 10
28.46458648155826
 20
3.49793006417775
 30
0.0
 10
28.40108297470428
 20
3.28183743611741
 30
0.0
 10
28.35398771091379
 20
3.041030402807234
 30
0.0
 10
28.36597007927193
 20
2.780874095348088
 30
0.0
 10
28.38312937914937
 20
2.539254235598058
 30
0.0
 10
28.45974148051292
 20
2.366773831190866
 30
0.0
 10
28.54698909362438
 20
2.243979668736892
 30
0.0
 10
28.65382260102934
 20
2.108735512341419
 30
0.0
 10
28.77072182070049
 20
2.019163745498228
 30
0.0
 10
28.86740701734603
 20
1.85689847078413
 30
0.0
 10
29.03665119246222
 20
1.836192251465618
 30
0.0
 10
29.14422952328949
 20
1.794980695042471
 30
0.0
 10
29.17795251342483
 20
1.782061951090668
 30
0.0
 11
30.31359802057318
 21
4.949786840425645
 31
0.0
 11
29.74577526699892
 21
4.861394196539322
 31
0.0
 11
29.40163981509602
 21
4.689468948810883
 31
0.0
 11
29.1607454934744
 21
4.551928862726811
 31
0.0
 11
29.00588528218367
 21
4.414388216149177
 31
0.0
 11
28.83381805094274
 21
4.208077806776145
 31
0.0
 11
28.7133708901319
 21
4.053345139869975
 31
0.0
 11
28.54130266946999
 21
3.743879245563732
 31
0.0
 11
28.45526954855979
 21
3.468798512902026
 31
0.0
 11
28.4036494781297
 21
3.279680684351205
 31
0.0
 11
28.36923543822883
 21
3.090562855800612
 31
0.0
 11
28.36923543822883
 21
2.746712360343622
 31
0.0
 11
28.4036494781297
 21
2.506016789326224
 31
0.0
 11
28.45526954855979
 21
2.385668723570802
 31
0.0
 11
28.55850968942019
 21
2.230936056664518
 31
0.0
 11
28.64454379975138
 21
2.127780571731193
 31
0.0
 11
28.78219699109144
 21
1.99024048564712
 31
0.0
 11
28.85102408147219
 21
1.904277581536064
 31
0.0
 11
29.07471237256442
 21
1.818315237918568
 31
0.0
 11
29.17795251342483
 21
1.782061951090668
 31
0.0
  0
SPLINE
  5
5FD
102
{ACAD_REACTORS
330
5FB
102
}
330
5D4
100
AcDbEntity
  8
ROGO
 62
     4
100
AcDbSpline
210
0.0
220
0.0
230
1.0
 70
     8
 71
     3
 72
    26
 73
    22
 74
    20
 42
0.0000000001
 43
0.0000000001
 44
0.0000000001
 40
0.0
 40
0.0
 40
0.0
 40
0.0
 40
0.5746615864749109
 40
0.9593530213456375
 40
1.236746873962375
 40
1.44386788811115
 40
1.71251471404171
 40
1.9086007073082
 40
2.262686307552666
 40
2.550906895601598
 40
2.746943077840867
 40
2.939166591537899
 40
3.28301708699489
 40
3.526160427536353
 40
3.657111901763635
 40
3.843124602654719
 40
3.977448547699138
 40
4.172039596738189
 40
4.282161298747769
 40
4.521798474686655
 40
4.631218890929288
 40
4.631218890929288
 40
4.631218890929288
 40
4.631218890929288
 10
20.10690665696961
 20
4.949786840425645
 30
0.0
 10
19.91185763550759
 20
4.938149881331241
 30
0.0
 10
19.58623839723914
 20
4.918722879197736
 30
0.0
 10
19.22871045445439
 20
4.701528493521801
 30
0.0
 10
18.96676455273739
 20
4.575261222274411
 30
0.0
 10
18.77994505330897
 20
4.4036116242774
 30
0.0
 10
18.64300560291743
 20
4.226310128312206
 30
0.0
 10
18.47036771803315
 20
4.015056695877609
 30
0.0
 10
18.32958645604223
 20
3.769060622409829
 30
0.0
 10
18.25789511795483
 20
3.497930064177774
 30
0.0
 10
18.19439161110065
 20
3.281837436117467
 30
0.0
 10
18.14729634731024
 20
3.041030402807263
 30
0.0
 10
18.15927871566836
 20
2.780874095348114
 30
0.0
 10
18.17643801554578
 20
2.539254235598062
 30
0.0
 10
18.25305011690943
 20
2.366773831190911
 30
0.0
 10
18.3402977300208
 20
2.243979668736876
 30
0.0
 10
18.44713123742579
 20
2.10873551234148
 30
0.0
 10
18.56403045709692
 20
2.019163745498289
 30
0.0
 10
18.66071565374245
 20
1.856898470784175
 30
0.0
 10
18.82995982885869
 20
1.836192251465799
 30
0.0
 10
18.93753815968592
 20
1.794980695042517
 30
0.0
 10
18.97126114982126
 20
1.782061951090668
 30
0.0
 11
20.10690665696961
 21
4.949786840425645
 31
0.0
 11
19.53908390339535
 21
4.861394196539379
 31
0.0
 11
19.19494845149245
 21
4.68946894881094
 31
0.0
 11
18.95405412987082
 21
4.551928862726867
 31
0.0
 11
18.7991939185801
 21
4.414388216149177
 31
0.0
 11
18.62712668733917
 21
4.208077806776202
 31
0.0
 11
18.50667952652833
 21
4.053345139869975
 31
0.0
 11
18.33461130586641
 21
3.743879245563789
 31
0.0
 11
18.24857818495627
 21
3.468798512902026
 31
0.0
 11
18.19695811452612
 21
3.279680684351319
 31
0.0
 11
18.16254407462526
 21
3.090562855800612
 31
0.0
 11
18.16254407462526
 21
2.746712360343622
 31
0.0
 11
18.19695811452612
 21
2.506016789326281
 31
0.0
 11
18.24857818495627
 21
2.385668723570802
 31
0.0
 11
18.35181832581662
 21
2.230936056664518
 31
0.0
 11
18.43785243614781
 21
2.12778057173125
 31
0.0
 11
18.57550562748787
 21
1.990240485647177
 31
0.0
 11
18.64433271786862
 21
1.904277581536121
 31
0.0
 11
18.86802100896085
 21
1.818315237918682
 31
0.0
 11
18.97126114982126
 21
1.782061951090668
 31
0.0
  0
LINE
  5
5FE
102
{ACAD_REACTORS
330
5DC
102
}
330
5D4
100
AcDbEntity
  8
ROGO
 62
     4
100
AcDbLine
 10
15.99342784516443
 20
4.949786840425645
 30
0.0
 11
18.27773582687916
 21
1.782061951090668
 31
0.0
  0
LINE
  5
5FF
102
{ACAD_REACTORS
330
5DC
102
}
330
5D4
100
AcDbEntity
  8
ROGO
 62
     4
100
AcDbLine
 10
16.08846512307542
 20
2.385177170679753
 30
0.0
 11
16.52338322932866
 21
1.782061951090781
 31
0.0
  0
LINE
  5
600
102
{ACAD_REACTORS
330
5FB
102
}
330
5D4
100
AcDbEntity
  8
ROGO
 62
     4
100
AcDbLine
 10
22.28734561971584
 20
2.960648509043494
 30
0.0
 11
21.69966429711815
 21
1.782061951090668
 31
0.0
  0
LINE
  5
601
102
{ACAD_REACTORS
330
5D6
102
}
330
5D4
100
AcDbEntity
  8
ROGO
 62
     4
100
AcDbLine
 10
32.49403698331935
 20
2.960648509043494
 30
0.0
 11
31.90635566072177
 21
1.782061951090611
 31
0.0
  0
ARC
  5
602
102
{ACAD_REACTORS
330
5FA
102
}
330
5D4
100
AcDbEntity
  8
ROGO
 62
     4
100
AcDbCircle
 10
24.94987936318324
 20
3.365924395758156
 30
0.0
 40
1.585199932421021
100
AcDbArc
 50
92.3538081120337
 51
270.0
  0
ARC
  5
603
102
{ACAD_REACTORS
330
5FA
102
}
330
5D4
100
AcDbEntity
  8
ROGO
 62
     4
100
AcDbCircle
 10
26.16568830176476
 20
3.364586908004639
 30
0.0
 40
1.585199932421021
100
AcDbArc
 50
273.3290215232082
 51
90.0000000000006
  0
LINE
  5
604
102
{ACAD_REACTORS
330
5FB
102
}
330
5D4
100
AcDbEntity
  8
ROGO
 62
     4
100
AcDbLine
 10
18.97126114982109
 20
1.782061951090668
 30
0.0
 11
21.6996642971182
 21
1.782061951090668
 31
0.0
  0
LINE
  5
605
102
{ACAD_REACTORS
330
5DC
102
}
330
5D4
100
AcDbEntity
  8
ROGO
 62
     4
100
AcDbLine
 10
18.27773582687911
 20
1.782061951090668
 30
0.0
 11
16.52338322932866
 21
1.782061951090668
 31
0.0
  0
LINE
  5
606
330
5D4
100
AcDbEntity
  8
ROGO
 62
     4
100
AcDbLine
 10
24.8847749691733
 20
1.782061951090668
 30
0.0
 11
26.25774038752019
 21
1.782061951090668
 31
0.0
  0
LINE
  5
607
102
{ACAD_REACTORS
330
5FA
102
}
330
5D4
100
AcDbEntity
  8
ROGO
 62
     4
100
AcDbLine
 10
24.8847749691721
 20
1.782061951090668
 30
0.0
 11
26.25774038752121
 21
1.782061951090668
 31
0.0
  0
LINE
  5
608
102
{ACAD_REACTORS
330
5D6
102
}
330
5D4
100
AcDbEntity
  8
ROGO
 62
     4
100
AcDbLine
 10
29.1779525134246
 20
1.782061951090668
 30
0.0
 11
31.90635566072177
 21
1.782061951090668
 31
0.0
  0
LINE
  5
609
102
{ACAD_REACTORS
330
5DC
102
}
330
5D4
100
AcDbEntity
  8
ROGO
 62
     4
100
AcDbLine
 10
15.07801729959914
 20
3.786398348131228
 30
0.0
 11
14.52629071767222
 21
3.021300979620718
 31
0.0
  0
LINE
  5
60A
102
{ACAD_REACTORS
330
5DC
102
}
330
5D4
100
AcDbEntity
  8
ROGO
 62
     4
100
AcDbLine
 10
14.52629071767222
 20
3.021300979620775
 30
0.0
 11
15.62974388152599
 21
3.021300979620775
 31
0.0
  0
LINE
  5
60B
102
{ACAD_REACTORS
330
5DC
102
}
330
5D4
100
AcDbEntity
  8
ROGO
 62
     4
100
AcDbLine
 10
15.07801729959914
 20
3.786398348131228
 30
0.0
 11
15.62974388152599
 21
3.021300979620718
 31
0.0
  0
SPLINE
  5
60C
102
{ACAD_REACTORS
330
5FB
102
}
330
5D4
100
AcDbEntity
  8
ROGO
 62
     4
100
AcDbSpline
210
0.0
220
0.0
230
1.0
 70
     8
 71
     3
 72
    16
 73
    12
 74
    10
 42
0.0000000001
 43
0.0000000001
 44
0.0000000001
 40
0.0
 40
0.0
 40
0.0
 40
0.0
 40
0.3029648785292891
 40
0.4509413735127203
 40
0.5239132529538693
 40
0.6008137308948465
 40
0.7109349953737907
 40
0.8112058912231434
 40
0.9157860995406091
 40
1.091122375522293
 40
1.264668647774888
 40
1.264668647774888
 40
1.264668647774888
 40
1.264668647774888
 10
20.70914246102353
 20
3.77118780143121
 30
0.0
 10
20.60654481322523
 20
3.75554609786451
 30
0.0
 10
20.45383561326141
 20
3.732264550100005
 30
0.0
 10
20.31574058104511
 20
3.622950041937553
 30
0.0
 10
20.237864571025
 20
3.557915185941986
 30
0.0
 10
20.21137080546809
 20
3.471790575521536
 30
0.0
 10
20.14021687102763
 20
3.405660095425645
 30
0.0
 10
20.08156578978607
 20
3.314775529002434
 30
0.0
 10
20.06756124108431
 20
3.189944104912836
 30
0.0
 10
20.07784090046788
 20
3.014762225607029
 30
0.0
 10
20.2006682748652
 20
2.978624611086606
 30
0.0
 10
20.26176686826034
 20
2.960648509043494
 30
0.0
 11
20.70914246102353
 21
3.77118780143121
 31
0.0
 11
20.41662806897176
 21
3.692301503097155
 31
0.0
 11
20.29618090816098
 21
3.606339159479716
 31
0.0
 11
20.24456083773083
 21
3.554761417013025
 31
0.0
 11
20.21014679782997
 21
3.48599109372418
 31
0.0
 11
20.14131970744944
 21
3.400028750106798
 31
0.0
 11
20.08969963701918
 21
3.314065845995742
 31
0.0
 11
20.07249261706875
 21
3.210910921556092
 31
0.0
 11
20.10690665696961
 21
3.038985113333978
 31
0.0
 11
20.26176686826034
 21
2.960648509043494
 31
0.0
  0
LINE
  5
60D
102
{ACAD_REACTORS
330
5FB
102
}
330
5D4
100
AcDbEntity
  8
ROGO
 62
     4
100
AcDbLine
 10
23.27919423493069
 20
4.949786840425645
 30
0.0
 11
22.69150668888256
 21
3.77118780143121
 31
0.0
  0
LINE
  5
60E
102
{ACAD_REACTORS
330
5FB
102
}
330
5D4
100
AcDbEntity
  8
ROGO
 62
     4
100
AcDbLine
 10
20.70914246102342
 20
3.77118780143121
 30
0.0
 11
22.69150668888256
 21
3.771187801431267
 31
0.0
  0
LINE
  5
60F
102
{ACAD_REACTORS
330
5FB
102
}
330
5D4
100
AcDbEntity
  8
ROGO
 62
     4
100
AcDbLine
 10
20.26176686826017
 20
2.960648509043494
 30
0.0
 11
22.28734561971584
 21
2.960648509043494
 31
0.0
  0
LINE
  5
610
102
{ACAD_REACTORS
330
5FB
102
}
330
5D4
100
AcDbEntity
  8
ROGO
 62
     4
100
AcDbLine
 10
20.10690665697052
 20
4.949786840425758
 30
0.0
 11
23.27919423493069
 21
4.949786840425758
 31
0.0
  0
LINE
  5
611
102
{ACAD_REACTORS
330
5FA
102
}
330
5D4
100
AcDbEntity
  8
ROGO
 62
     4
100
AcDbLine
 10
25.58056374536529
 20
3.669346287921371
 30
0.0
 11
25.69536003945927
 21
3.653300864703908
 31
0.0
  0
LINE
  5
612
102
{ACAD_REACTORS
330
5FA
102
}
330
5D4
100
AcDbEntity
  8
ROGO
 62
     4
100
AcDbLine
 10
25.97093226724161
 20
3.347576112203455
 30
0.0
 11
25.92877650574604
 21
3.04597451972495
 31
0.0
  0
LINE
  5
613
102
{ACAD_REACTORS
330
5FA
102
}
330
5D4
100
AcDbEntity
  8
ROGO
 62
     4
100
AcDbLine
 10
25.17427477727125
 20
3.157453445413295
 30
0.0
 11
25.21643053876682
 21
3.45905503789163
 31
0.0
  0
LINE
  5
614
102
{ACAD_REACTORS
330
5FA
102
}
330
5D4
100
AcDbEntity
  8
ROGO
 62
     4
100
AcDbLine
 10
25.4710874976596
 20
2.886103156372769
 30
0.0
 11
25.58588379175365
 21
2.870057733155078
 31
0.0
  0
ARC
  5
615
102
{ACAD_REACTORS
330
5FA
102
}
330
5D4
100
AcDbEntity
  8
ROGO
 62
     4
100
AcDbCircle
 10
25.6387443480632
 20
3.325209828916854
 30
0.0
 40
0.3329400310507254
100
AcDbArc
 50
3.851923331663601
 51
80.20940670206341
  0
ARC
  5
616
102
{ACAD_REACTORS
330
5FA
102
}
330
5D4
100
AcDbEntity
  8
ROGO
 62
     4
100
AcDbCircle
 10
25.53588647264388
 20
3.326301951055086
 30
0.0
 40
0.3459414339941871
100
AcDbArc
 50
82.57970078354313
 51
157.4341870372611
  0
ARC
  5
617
102
{ACAD_REACTORS
330
5FA
102
}
330
5D4
100
AcDbEntity
  8
ROGO
 62
     4
100
AcDbCircle
 10
25.49018017588719
 20
3.204994782556525
 30
0.0
 40
0.3194626732688521
100
AcDbArc
 50
188.5583509056651
 51
266.5736774635929
  0
ARC
  5
618
102
{ACAD_REACTORS
330
5FA
102
}
330
5D4
100
AcDbEntity
  8
ROGO
 62
     4
100
AcDbCircle
 10
25.6545957362211
 20
3.158263540113921
 30
0.0
 40
0.2962835103026008
100
AcDbArc
 50
256.5902863289752
 51
337.7287536965499
  0
LINE
  5
619
330
5D4
100
AcDbEntity
  8
ROGO
 62
     4
100
AcDbLine
 10
24.88477496917261
 20
4.949786840425645
 30
0.0
 11
25.78248633299404
 21
4.949786840425645
 31
0.0
  0
LINE
  5
61A
102
{ACAD_REACTORS
330
5FA
102
}
330
5D4
100
AcDbEntity
  8
ROGO
 62
     4
100
AcDbLine
 10
24.88477496917216
 20
4.949786840425645
 30
0.0
 11
26.16568830176476
 21
4.949786840425645
 31
0.0
  0
SPLINE
  5
61B
102
{ACAD_REACTORS
330
5D6
102
}
330
5D4
100
AcDbEntity
  8
ROGO
 62
     4
100
AcDbSpline
210
0.0
220
0.0
230
1.0
 70
     8
 71
     3
 72
    16
 73
    12
 74
    10
 42
0.0000000001
 43
0.0000000001
 44
0.0000000001
 40
0.0
 40
0.0
 40
0.0
 40
0.0
 40
0.3029648785292594
 40
0.4509413735127369
 40
0.5239132529538859
 40
0.6008137308948632
 40
0.710934995373763
 40
0.811205891223145
 40
0.9157860995407135
 40
1.091122375522274
 40
1.264668647774946
 40
1.264668647774946
 40
1.264668647774946
 40
1.264668647774946
 10
30.9158338246271
 20
3.771187801431096
 30
0.0
 10
30.81323617682881
 20
3.755546097864422
 30
0.0
 10
30.660526976865
 20
3.732264550099954
 30
0.0
 10
30.5224319446486
 20
3.62295004193761
 30
0.0
 10
30.44455593462858
 20
3.557915185941908
 30
0.0
 10
30.41806216907167
 20
3.4717905755215
 30
0.0
 10
30.34690823463119
 20
3.405660095425618
 30
0.0
 10
30.28825715338954
 20
3.314775529002425
 30
0.0
 10
30.27425260468793
 20
3.189944104912787
 30
0.0
 10
30.28453226407141
 20
3.014762225606994
 30
0.0
 10
30.40735963846873
 20
2.978624611086564
 30
0.0
 10
30.46845823186391
 20
2.960648509043437
 30
0.0
 11
30.9158338246271
 21
3.771187801431096
 31
0.0
 11
30.62331943257533
 21
3.692301503097155
 31
0.0
 11
30.50287227176449
 21
3.606339159479716
 31
0.0
 11
30.4512522013344
 21
3.554761417012969
 31
0.0
 11
30.41683816143353
 21
3.485991093724123
 31
0.0
 11
30.34801107105301
 21
3.400028750106798
 31
0.0
 11
30.29639100062269
 21
3.314065845995742
 31
0.0
 11
30.27918398067232
 21
3.210910921555978
 31
0.0
 11
30.31359802057313
 21
3.038985113333978
 31
0.0
 11
30.46845823186391
 21
2.960648509043437
 31
0.0
  0
LINE
  5
61C
102
{ACAD_REACTORS
330
5D6
102
}
330
5D4
100
AcDbEntity
  8
ROGO
 62
     4
100
AcDbLine
 10
30.46845823186379
 20
2.960648509043494
 30
0.0
 11
32.49403698331941
 21
2.960648509043494
 31
0.0
  0
LINE
  5
61D
102
{ACAD_REACTORS
330
5D6
102
}
330
5D4
100
AcDbEntity
  8
ROGO
 62
     4
100
AcDbLine
 10
30.91583382462699
 20
3.77118780143121
 30
0.0
 11
32.89819805248607
 21
3.77118780143121
 31
0.0
  0
LINE
  5
61E
102
{ACAD_REACTORS
330
5D5
102
}
330
5D4
100
AcDbEntity
  8
ROGO
 62
     4
100
AcDbLine
 10
35.38336074148231
 20
2.474893420212765
 30
0.0
 11
36.6174225324171
 21
0.0
 31
0.0
  0
LINE
  5
61F
102
{ACAD_REACTORS
330
5D5
102
}
330
5D4
100
AcDbEntity
  8
ROGO
 62
     4
100
AcDbLine
 10
34.14933885635003
 20
1.291950329372127
 30
0.0
 11
34.79354701668626
 21
0.0
 31
0.0
  0
LINE
  5
620
102
{ACAD_REACTORS
330
5D5
102
}
330
5D4
100
AcDbEntity
  8
ROGO
 62
     4
100
AcDbLine
 10
34.14933885635008
 20
1.29195032937207
 30
0.0
 11
33.50513069601385
 21
0.0
 31
0.0
  0
LINE
  5
621
102
{ACAD_REACTORS
330
5D5
102
}
330
5D4
100
AcDbEntity
  8
ROGO
 62
     4
100
AcDbLine
 10
34.79354701668626
 20
0.0
 30
0.0
 11
36.6174225324171
 21
0.0
 31
0.0
  0
LINE
  5
622
102
{ACAD_REACTORS
330
5D5
102
}
330
5D4
100
AcDbEntity
  8
ROGO
 62
     4
100
AcDbLine
 10
35.38336074148231
 20
2.474893420212765
 30
0.0
 11
38.38165352405161
 21
4.949786840425645
 31
0.0
  0
LINE
  5
623
102
{ACAD_REACTORS
330
5D5
102
}
330
5D4
100
AcDbEntity
  8
ROGO
 62
     4
100
AcDbLine
 10
36.55777800832078
 20
4.949786840425645
 30
0.0
 11
38.38165352405156
 21
4.949786840425645
 31
0.0
  0
LINE
  5
624
102
{ACAD_REACTORS
330
5D5
102
}
330
5D4
100
AcDbEntity
  8
ROGO
 62
     4
100
AcDbLine
 10
34.14933885635003
 20
4.949786840425645
 30
0.0
 11
35.97325427788326
 21
4.949786840425588
 31
0.0
  0
LINE
  5
625
102
{ACAD_REACTORS
330
5D5
102
}
330
5D4
100
AcDbEntity
  8
ROGO
 62
     4
100
AcDbLine
 10
35.97325427788326
 20
4.949786840425588
 30
0.0
 11
35.70378540756269
 21
4.409370842614521
 31
0.0
  0
LINE
  5
626
102
{ACAD_REACTORS
330
5D5
102
}
330
5D4
100
AcDbEntity
  8
ROGO
 62
     4
100
AcDbLine
 10
35.70378540756269
 20
4.409370842614521
 30
0.0
 11
36.55777800832078
 21
4.949786840425645
 31
0.0
  0
ENDBLK
  5
628
330
5D4
100
AcDbEntity
  8
0
100
AcDbBlockEnd
  0
BLOCK
  5
68A
330
67D
100
AcDbEntity
  8
0
100
AcDbBlockBegin
  2
*D8
 70
     1
 10
0.0
 20
0.0
 30
0.0
  3
*D8
  1

  0
LINE
  5
ECE
330
67D
100
AcDbEntity
  8
外形線
 62
     2
370
    -2
100
AcDbLine
 10
52.01235845805252
 20
227.3410337283945
 30
0.0
 11
70.21354062105742
 21
227.3410337283944
 31
0.0
  0
LINE
  5
ECF
330
67D
100
AcDbEntity
  8
外形線
 62
     2
370
    -2
100
AcDbLine
 10
52.01235845805252
 20
161.3410337283944
 30
0.0
 11
70.2135406210574
 21
161.3410337283944
 31
0.0
  0
LINE
  5
ED0
330
67D
100
AcDbEntity
  8
外形線
 62
     2
370
    -2
100
AcDbLine
 10
68.96354062105742
 20
224.8410337283945
 30
0.0
 11
68.9635406210574
 21
163.8410337283944
 31
0.0
  0
INSERT
  5
ED1
330
67D
100
AcDbEntity
  8
外形線
 62
     2
370
    -2
100
AcDbBlockReference
  2
_OPEN
 10
68.96354062105742
 20
227.3410337283944
 30
0.0
 41
2.5
 42
2.5
 43
2.5
 50
90.0
  0
INSERT
  5
ED2
330
67D
100
AcDbEntity
  8
外形線
 62
     2
370
    -2
100
AcDbBlockReference
  2
_OPEN
 10
68.9635406210574
 20
161.3410337283944
 30
0.0
 41
2.5
 42
2.5
 43
2.5
 50
270.0
  0
MTEXT
  5
ED3
330
67D
100
AcDbEntity
  8
外形線
 62
     6
100
AcDbMText
 10
67.08854062105737
 20
194.3410337283944
 30
0.0
 40
2.5
 41
0.0
 71
     5
 72
     1
  1
\A1;φ66
  7
STYLE3
 11
0.0000000000000001
 21
1.0
 31
0.0
 73
     1
 44
1.0
  0
POINT
  5
ED4
330
67D
100
AcDbEntity
  8
DEFPOINTS
 62
     0
100
AcDbPoint
 10
52.01235845805252
 20
227.3410337283945
 30
0.0
  0
POINT
  5
ED5
330
67D
100
AcDbEntity
  8
DEFPOINTS
 62
     0
100
AcDbPoint
 10
52.01235845805252
 20
161.3410337283944
 30
0.0
  0
POINT
  5
ED6
330
67D
100
AcDbEntity
  8
DEFPOINTS
 62
     0
100
AcDbPoint
 10
68.9635406210574
 20
161.3410337283944
 30
0.0
  0
ENDBLK
  5
694
330
67D
100
AcDbEntity
  8
0
100
AcDbBlockEnd
  0
BLOCK
  5
844
330
843
100
AcDbEntity
  8
0
100
AcDbBlockBegin
  2
*D13
 70
     1
 10
0.0
 20
0.0
 30
0.0
  3
*D13
  1

  0
LINE
  5
EC3
330
843
100
AcDbEntity
  8
寸法線
 62
     2
370
    -2
100
AcDbLine
 10
41.01235845805251
 20
233.8410337283944
 30
0.0
 11
41.01235845805251
 21
248.3066801809482
 31
0.0
  0
LINE
  5
EC4
330
843
100
AcDbEntity
  8
寸法線
 62
     2
370
    -2
100
AcDbLine
 10
45.01235845805251
 20
233.8410337283944
 30
0.0
 11
45.01235845805251
 21
248.3066801809482
 31
0.0
  0
LINE
  5
EC5
330
843
100
AcDbEntity
  8
寸法線
 62
     2
370
    -2
100
AcDbLine
 10
38.51235845805252
 20
247.0566801809482
 30
0.0
 11
36.01235845805252
 21
247.0566801809482
 31
0.0
  0
LINE
  5
EC6
330
843
100
AcDbEntity
  8
寸法線
 62
     2
370
    -2
100
AcDbLine
 10
47.51235845805251
 20
247.0566801809482
 30
0.0
 11
50.01235845805251
 21
247.0566801809482
 31
0.0
  0
LINE
  5
EC7
330
843
100
AcDbEntity
  8
寸法線
 62
     2
370
    -2
100
AcDbLine
 10
41.01235845805251
 20
247.0566801809482
 30
0.0
 11
45.01235845805251
 21
247.0566801809482
 31
0.0
  0
INSERT
  5
EC8
330
843
100
AcDbEntity
  8
寸法線
 62
     2
370
    -2
100
AcDbBlockReference
  2
_OPEN
 10
41.01235845805251
 20
247.0566801809482
 30
0.0
 41
2.5
 42
2.5
 43
2.5
  0
INSERT
  5
EC9
330
843
100
AcDbEntity
  8
寸法線
 62
     2
370
    -2
100
AcDbBlockReference
  2
_OPEN
 10
45.01235845805251
 20
247.0566801809482
 30
0.0
 41
2.5
 42
2.5
 43
2.5
 50
180.0
  0
MTEXT
  5
ECA
330
843
100
AcDbEntity
  8
寸法線
 62
     6
100
AcDbMText
 10
43.01235845805251
 20
248.9316801809482
 30
0.0
 40
2.5
 41
0.0
 71
     5
 72
     1
  1
\A1;4
  7
STYLE3
 73
     1
 44
1.0
  0
POINT
  5
ECB
330
843
100
AcDbEntity
  8
DEFPOINTS
 62
     0
100
AcDbPoint
 10
41.01235845805251
 20
233.8410337283944
 30
0.0
  0
POINT
  5
ECC
330
843
100
AcDbEntity
  8
DEFPOINTS
 62
     0
100
AcDbPoint
 10
45.01235845805251
 20
233.8410337283944
 30
0.0
  0
POINT
  5
ECD
330
843
100
AcDbEntity
  8
DEFPOINTS
 62
     0
100
AcDbPoint
 10
45.01235845805251
 20
247.0566801809482
 30
0.0
  0
ENDBLK
  5
850
330
843
100
AcDbEntity
  8
0
100
AcDbBlockEnd
  0
BLOCK
  5
988
330
852
100
AcDbEntity
  8
0
100
AcDbBlockBegin
  2
*D14
 70
     1
 10
0.0
 20
0.0
 30
0.0
  3
*D14
  1

  0
LINE
  5
E95
330
852
100
AcDbEntity
  8
寸法線
 62
     2
370
    -2
100
AcDbLine
 10
41.01235845805251
 20
233.8410337283944
 30
0.0
 11
24.70213521109342
 21
233.8410337283944
 31
0.0
  0
LINE
  5
E96
330
852
100
AcDbEntity
  8
寸法線
 62
     2
370
    -2
100
AcDbLine
 10
43.01235845805251
 20
65.34103372839442
 30
0.0
 11
24.70213521109338
 21
65.34103372839443
 31
0.0
  0
LINE
  5
E97
330
852
100
AcDbEntity
  8
寸法線
 62
     2
370
    -2
100
AcDbLine
 10
25.95213521109342
 20
231.3410337283944
 30
0.0
 11
25.95213521109338
 21
67.84103372839443
 31
0.0
  0
INSERT
  5
E98
330
852
100
AcDbEntity
  8
寸法線
 62
     2
370
    -2
100
AcDbBlockReference
  2
_OPEN
 10
25.95213521109342
 20
233.8410337283944
 30
0.0
 41
2.5
 42
2.5
 43
2.5
 50
90.0
  0
INSERT
  5
E99
330
852
100
AcDbEntity
  8
寸法線
 62
     2
370
    -2
100
AcDbBlockReference
  2
_OPEN
 10
25.95213521109338
 20
65.34103372839443
 30
0.0
 41
2.5
 42
2.5
 43
2.5
 50
270.0
  0
MTEXT
  5
E9A
330
852
100
AcDbEntity
  8
寸法線
 62
     6
100
AcDbMText
 10
24.07713521109338
 20
149.5910337283944
 30
0.0
 40
2.5
 41
0.0
 71
     5
 72
     1
  1
\A1;166.5
  7
STYLE3
 11
0.0000000000000001
 21
1.0
 31
0.0
 73
     1
 44
1.0
  0
POINT
  5
E9B
330
852
100
AcDbEntity
  8
DEFPOINTS
 62
     0
100
AcDbPoint
 10
41.01235845805251
 20
233.8410337283944
 30
0.0
  0
POINT
  5
E9C
330
852
100
AcDbEntity
  8
DEFPOINTS
 62
     0
100
AcDbPoint
 10
43.01235845805251
 20
65.34103372839442
 30
0.0
  0
POINT
  5
E9D
330
852
100
AcDbEntity
  8
DEFPOINTS
 62
     0
100
AcDbPoint
 10
25.95213521109338
 20
65.34103372839443
 30
0.0
  0
ENDBLK
  5
992
330
852
100
AcDbEntity
  8
0
100
AcDbBlockEnd
  0
BLOCK
  5
9B5
330
85F
100
AcDbEntity
  8
0
100
AcDbBlockBegin
  2
*D15
 70
     1
 10
0.0
 20
0.0
 30
0.0
  3
*D15
  1

  0
LINE
  5
E9E
330
85F
100
AcDbEntity
  8
寸法線
 62
     2
370
    -2
100
AcDbLine
 10
35.51235845805252
 20
80.34103372839449
 30
0.0
 11
35.51235845805252
 21
54.34419898091824
 31
0.0
  0
LINE
  5
E9F
330
85F
100
AcDbEntity
  8
寸法線
 62
     2
370
    -2
100
AcDbLine
 10
50.51235845805251
 20
80.34103372839448
 30
0.0
 11
50.51235845805251
 21
54.34419898091824
 31
0.0
  0
LINE
  5
EA0
330
85F
100
AcDbEntity
  8
寸法線
 62
     2
370
    -2
100
AcDbLine
 10
38.01235845805252
 20
55.59419898091824
 30
0.0
 11
48.01235845805251
 21
55.59419898091824
 31
0.0
  0
INSERT
  5
EA1
330
85F
100
AcDbEntity
  8
寸法線
 62
     2
370
    -2
100
AcDbBlockReference
  2
_OPEN
 10
35.51235845805252
 20
55.59419898091824
 30
0.0
 41
2.5
 42
2.5
 43
2.5
 50
180.0
  0
INSERT
  5
EA2
330
85F
100
AcDbEntity
  8
寸法線
 62
     2
370
    -2
100
AcDbBlockReference
  2
_OPEN
 10
50.51235845805251
 20
55.59419898091824
 30
0.0
 41
2.5
 42
2.5
 43
2.5
  0
MTEXT
  5
EA3
330
85F
100
AcDbEntity
  8
寸法線
 62
     6
100
AcDbMText
 10
43.01235845805251
 20
57.46919898091824
 30
0.0
 40
2.5
 41
0.0
 71
     5
 72
     1
  1
\A1;15
  7
STYLE3
 73
     1
 44
1.0
  0
POINT
  5
EA4
330
85F
100
AcDbEntity
  8
DEFPOINTS
 62
     0
100
AcDbPoint
 10
35.51235845805252
 20
80.34103372839449
 30
0.0
  0
POINT
  5
EA5
330
85F
100
AcDbEntity
  8
DEFPOINTS
 62
     0
100
AcDbPoint
 10
50.51235845805251
 20
80.34103372839448
 30
0.0
  0
POINT
  5
EA6
330
85F
100
AcDbEntity
  8
DEFPOINTS
 62
     0
100
AcDbPoint
 10
50.51235845805251
 20
55.59419898091824
 30
0.0
  0
ENDBLK
  5
9BF
330
85F
100
AcDbEntity
  8
0
100
AcDbBlockEnd
  0
BLOCK
  5
9AA
330
870
100
AcDbEntity
  8
0
100
AcDbBlockBegin
  2
*D16
 70
     1
 10
0.0
 20
0.0
 30
0.0
  3
*D16
  1

  0
LINE
  5
E7B
330
870
100
AcDbEntity
  8
寸法線
 62
     2
370
    -2
100
AcDbLine
 10
154.1814599223409
 20
74.63764881895542
 30
0.0
 11
154.1814599223409
 21
54.52752306541913
 31
0.0
  0
LINE
  5
E7C
330
870
100
AcDbEntity
  8
寸法線
 62
     2
370
    -2
100
AcDbLine
 10
294.1814599223409
 20
74.63764881895542
 30
0.0
 11
294.1814599223409
 21
54.52752306541913
 31
0.0
  0
LINE
  5
E7D
330
870
100
AcDbEntity
  8
寸法線
 62
     2
370
    -2
100
AcDbLine
 10
156.6814599223409
 20
55.77752306541913
 30
0.0
 11
291.6814599223409
 21
55.77752306541913
 31
0.0
  0
INSERT
  5
E7E
330
870
100
AcDbEntity
  8
寸法線
 62
     2
370
    -2
100
AcDbBlockReference
  2
_OPEN
 10
154.1814599223409
 20
55.77752306541913
 30
0.0
 41
2.5
 42
2.5
 43
2.5
 50
180.0
  0
INSERT
  5
E7F
330
870
100
AcDbEntity
  8
寸法線
 62
     2
370
    -2
100
AcDbBlockReference
  2
_OPEN
 10
294.1814599223409
 20
55.77752306541913
 30
0.0
 41
2.5
 42
2.5
 43
2.5
  0
MTEXT
  5
E80
330
870
100
AcDbEntity
  8
寸法線
 62
     6
100
AcDbMText
 10
224.1814599223409
 20
57.65252306541913
 30
0.0
 40
2.5
 41
0.0
 71
     5
 72
     1
  1
\A1;140
  7
STYLE3
 73
     1
 44
1.0
  0
POINT
  5
E81
330
870
100
AcDbEntity
  8
DEFPOINTS
 62
     0
100
AcDbPoint
 10
154.1814599223409
 20
74.63764881895542
 30
0.0
  0
POINT
  5
E82
330
870
100
AcDbEntity
  8
DEFPOINTS
 62
     0
100
AcDbPoint
 10
294.1814599223409
 20
74.63764881895542
 30
0.0
  0
POINT
  5
E83
330
870
100
AcDbEntity
  8
DEFPOINTS
 62
     0
100
AcDbPoint
 10
294.1814599223409
 20
55.77752306541913
 30
0.0
  0
ENDBLK
  5
9B4
330
870
100
AcDbEntity
  8
0
100
AcDbBlockEnd
  0
BLOCK
  5
99F
330
87D
100
AcDbEntity
  8
0
100
AcDbBlockBegin
  2
*D17
 70
     1
 10
0.0
 20
0.0
 30
0.0
  3
*D17
  1

  0
LINE
  5
E72
330
87D
100
AcDbEntity
  8
寸法線
 62
     2
370
    -2
100
AcDbLine
 10
350.1814599223409
 20
130.3410337283944
 30
0.0
 11
350.1814599223409
 21
45.51622344970747
 31
0.0
  0
LINE
  5
E73
330
87D
100
AcDbEntity
  8
寸法線
 62
     2
370
    -2
100
AcDbLine
 10
154.1814599223409
 20
54.52752306541913
 30
0.0
 11
154.1814599223409
 21
45.51622344970747
 31
0.0
  0
LINE
  5
E74
330
87D
100
AcDbEntity
  8
寸法線
 62
     2
370
    -2
100
AcDbLine
 10
347.6814599223409
 20
46.76622344970747
 30
0.0
 11
156.6814599223409
 21
46.76622344970747
 31
0.0
  0
INSERT
  5
E75
330
87D
100
AcDbEntity
  8
寸法線
 62
     2
370
    -2
100
AcDbBlockReference
  2
_OPEN
 10
350.1814599223409
 20
46.76622344970747
 30
0.0
 41
2.5
 42
2.5
 43
2.5
  0
INSERT
  5
E76
330
87D
100
AcDbEntity
  8
寸法線
 62
     2
370
    -2
100
AcDbBlockReference
  2
_OPEN
 10
154.1814599223409
 20
46.76622344970747
 30
0.0
 41
2.5
 42
2.5
 43
2.5
 50
180.0
  0
MTEXT
  5
E77
330
87D
100
AcDbEntity
  8
寸法線
 62
     6
100
AcDbMText
 10
252.1814599223409
 20
48.64122344970747
 30
0.0
 40
2.5
 41
0.0
 71
     5
 72
     1
  1
\A1;196
  7
STYLE3
 73
     1
 44
1.0
  0
POINT
  5
E78
330
87D
100
AcDbEntity
  8
DEFPOINTS
 62
     0
100
AcDbPoint
 10
350.1814599223409
 20
130.3410337283944
 30
0.0
  0
POINT
  5
E79
330
87D
100
AcDbEntity
  8
DEFPOINTS
 62
     0
100
AcDbPoint
 10
154.1814599223409
 20
54.52752306541913
 30
0.0
  0
POINT
  5
E7A
330
87D
100
AcDbEntity
  8
DEFPOINTS
 62
     0
100
AcDbPoint
 10
154.1814599223409
 20
46.76622344970747
 30
0.0
  0
ENDBLK
  5
9A9
330
87D
100
AcDbEntity
  8
0
100
AcDbBlockEnd
  0
BLOCK
  5
88B
330
88A
100
AcDbEntity
  8
0
100
AcDbBlockBegin
  2
*D18
 70
     1
 10
0.0
 20
0.0
 30
0.0
  3
*D18
  1

  0
LINE
  5
EE9
330
88A
100
AcDbEntity
  8
寸法線
 62
     2
370
    -2
100
AcDbLine
 10
150.1814599223409
 20
233.8410337283944
 30
0.0
 11
114.6679976057329
 21
233.8410337283944
 31
0.0
  0
LINE
  5
EEA
330
88A
100
AcDbEntity
  8
寸法線
 62
     2
370
    -2
100
AcDbLine
 10
122.4607833323383
 20
194.3410337283944
 30
0.0
 11
114.6679976057329
 21
194.3410337283944
 31
0.0
  0
LINE
  5
EEB
330
88A
100
AcDbEntity
  8
寸法線
 62
     2
370
    -2
100
AcDbLine
 10
115.9179976057329
 20
231.3410337283944
 30
0.0
 11
115.9179976057329
 21
196.8410337283944
 31
0.0
  0
INSERT
  5
EEC
330
88A
100
AcDbEntity
  8
寸法線
 62
     2
370
    -2
100
AcDbBlockReference
  2
_OPEN
 10
115.9179976057329
 20
233.8410337283944
 30
0.0
 41
2.5
 42
2.5
 43
2.5
 50
90.0
  0
INSERT
  5
EED
330
88A
100
AcDbEntity
  8
寸法線
 62
     2
370
    -2
100
AcDbBlockReference
  2
_OPEN
 10
115.9179976057329
 20
194.3410337283944
 30
0.0
 41
2.5
 42
2.5
 43
2.5
 50
270.0
  0
MTEXT
  5
EEE
330
88A
100
AcDbEntity
  8
寸法線
 62
     6
100
AcDbMText
 10
114.0429976057329
 20
214.0910337283945
 30
0.0
 40
2.5
 41
0.0
 71
     5
 72
     1
  1
\A1;39.5
  7
STYLE3
 11
0.0000000000000001
 21
1.0
 31
0.0
 73
     1
 44
1.0
  0
POINT
  5
EEF
330
88A
100
AcDbEntity
  8
DEFPOINTS
 62
     0
100
AcDbPoint
 10
150.1814599223409
 20
233.8410337283944
 30
0.0
  0
POINT
  5
EF0
330
88A
100
AcDbEntity
  8
DEFPOINTS
 62
     0
100
AcDbPoint
 10
122.4607833323383
 20
194.3410337283944
 30
0.0
  0
POINT
  5
EF1
330
88A
100
AcDbEntity
  8
DEFPOINTS
 62
     0
100
AcDbPoint
 10
115.9179976057329
 20
194.3410337283944
 30
0.0
  0
ENDBLK
  5
895
330
88A
100
AcDbEntity
  8
0
100
AcDbBlockEnd
  0
BLOCK
  5
898
330
897
100
AcDbEntity
  8
0
100
AcDbBlockBegin
  2
*D19
 70
     1
 10
0.0
 20
0.0
 30
0.0
  3
*D19
  1

  0
LINE
  5
EF2
330
897
100
AcDbEntity
  8
寸法線
 62
     2
370
    -2
100
AcDbLine
 10
140.6814599223409
 20
157.3410337283944
 30
0.0
 11
114.6679976057329
 21
157.3410337283944
 31
0.0
  0
LINE
  5
EF3
330
897
100
AcDbEntity
  8
寸法線
 62
     2
370
    -2
100
AcDbLine
 10
115.9179976057329
 20
191.8410337283944
 30
0.0
 11
115.9179976057329
 21
159.8410337283945
 31
0.0
  0
INSERT
  5
EF4
330
897
100
AcDbEntity
  8
寸法線
 62
     2
370
    -2
100
AcDbBlockReference
  2
_OPEN
 10
115.9179976057329
 20
194.3410337283944
 30
0.0
 41
2.5
 42
2.5
 43
2.5
 50
90.0
  0
INSERT
  5
EF5
330
897
100
AcDbEntity
  8
寸法線
 62
     2
370
    -2
100
AcDbBlockReference
  2
_OPEN
 10
115.9179976057329
 20
157.3410337283944
 30
0.0
 41
2.5
 42
2.5
 43
2.5
 50
270.0
  0
MTEXT
  5
EF6
330
897
100
AcDbEntity
  8
寸法線
 62
     6
100
AcDbMText
 10
114.0429976057329
 20
175.8410337283945
 30
0.0
 40
2.5
 41
0.0
 71
     5
 72
     1
  1
\A1;37
  7
STYLE3
 11
0.0000000000000001
 21
1.0
 31
0.0
 73
     1
 44
1.0
  0
POINT
  5
EF7
330
897
100
AcDbEntity
  8
DEFPOINTS
 62
     0
100
AcDbPoint
 10
122.4607833323383
 20
194.3410337283944
 30
0.0
  0
POINT
  5
EF8
330
897
100
AcDbEntity
  8
DEFPOINTS
 62
     0
100
AcDbPoint
 10
140.6814599223409
 20
157.3410337283944
 30
0.0
  0
POINT
  5
EF9
330
897
100
AcDbEntity
  8
DEFPOINTS
 62
     0
100
AcDbPoint
 10
115.9179976057329
 20
157.3410337283944
 30
0.0
  0
ENDBLK
  5
8A1
330
897
100
AcDbEntity
  8
0
100
AcDbBlockEnd
  0
BLOCK
  5
8A4
330
8A3
100
AcDbEntity
  8
0
100
AcDbBlockBegin
  2
*D20
 70
     1
 10
0.0
 20
0.0
 30
0.0
  3
*D20
  1

  0
LINE
  5
E8D
330
8A3
100
AcDbEntity
  8
寸法線
 62
     2
370
    -2
100
AcDbLine
 10
146.1814599223409
 20
106.3410337283944
 30
0.0
 11
114.6679976057329
 21
106.3410337283944
 31
0.0
  0
LINE
  5
E8E
330
8A3
100
AcDbEntity
  8
寸法線
 62
     2
370
    -2
100
AcDbLine
 10
115.9179976057329
 20
154.8410337283945
 30
0.0
 11
115.9179976057329
 21
108.8410337283945
 31
0.0
  0
INSERT
  5
E8F
330
8A3
100
AcDbEntity
  8
寸法線
 62
     2
370
    -2
100
AcDbBlockReference
  2
_OPEN
 10
115.9179976057329
 20
157.3410337283944
 30
0.0
 41
2.5
 42
2.5
 43
2.5
 50
90.0
  0
INSERT
  5
E90
330
8A3
100
AcDbEntity
  8
寸法線
 62
     2
370
    -2
100
AcDbBlockReference
  2
_OPEN
 10
115.9179976057329
 20
106.3410337283944
 30
0.0
 41
2.5
 42
2.5
 43
2.5
 50
270.0
  0
MTEXT
  5
E91
330
8A3
100
AcDbEntity
  8
寸法線
 62
     6
100
AcDbMText
 10
114.0429976057329
 20
131.8410337283945
 30
0.0
 40
2.5
 41
0.0
 71
     5
 72
     1
  1
\A1;51
  7
STYLE3
 11
0.0000000000000001
 21
1.0
 31
0.0
 73
     1
 44
1.0
  0
POINT
  5
E92
330
8A3
100
AcDbEntity
  8
DEFPOINTS
 62
     0
100
AcDbPoint
 10
140.6814599223409
 20
157.3410337283944
 30
0.0
  0
POINT
  5
E93
330
8A3
100
AcDbEntity
  8
DEFPOINTS
 62
     0
100
AcDbPoint
 10
146.1814599223409
 20
106.3410337283944
 30
0.0
  0
POINT
  5
E94
330
8A3
100
AcDbEntity
  8
DEFPOINTS
 62
     0
100
AcDbPoint
 10
115.9179976057329
 20
106.3410337283944
 30
0.0
  0
ENDBLK
  5
8AD
330
8A3
100
AcDbEntity
  8
0
100
AcDbBlockEnd
  0
BLOCK
  5
8B0
330
8AF
100
AcDbEntity
  8
0
100
AcDbBlockBegin
  2
*D21
 70
     1
 10
0.0
 20
0.0
 30
0.0
  3
*D21
  1

  0
LINE
  5
EB1
330
8AF
100
AcDbEntity
  8
寸法線
 62
     2
370
    -2
100
AcDbLine
 10
146.1814599223409
 20
80.34103372839448
 30
0.0
 11
114.6679976057329
 21
80.34103372839448
 31
0.0
  0
LINE
  5
EB2
330
8AF
100
AcDbEntity
  8
寸法線
 62
     2
370
    -2
100
AcDbLine
 10
115.9179976057329
 20
103.8410337283945
 30
0.0
 11
115.9179976057329
 21
82.84103372839448
 31
0.0
  0
INSERT
  5
EB3
330
8AF
100
AcDbEntity
  8
寸法線
 62
     2
370
    -2
100
AcDbBlockReference
  2
_OPEN
 10
115.9179976057329
 20
106.3410337283944
 30
0.0
 41
2.5
 42
2.5
 43
2.5
 50
90.0
  0
INSERT
  5
EB4
330
8AF
100
AcDbEntity
  8
寸法線
 62
     2
370
    -2
100
AcDbBlockReference
  2
_OPEN
 10
115.9179976057329
 20
80.34103372839448
 30
0.0
 41
2.5
 42
2.5
 43
2.5
 50
270.0
  0
MTEXT
  5
EB5
330
8AF
100
AcDbEntity
  8
寸法線
 62
     6
100
AcDbMText
 10
114.0429976057329
 20
93.3410337283945
 30
0.0
 40
2.5
 41
0.0
 71
     5
 72
     1
  1
\A1;26
  7
STYLE3
 11
0.0000000000000001
 21
1.0
 31
0.0
 73
     1
 44
1.0
  0
POINT
  5
EB6
330
8AF
100
AcDbEntity
  8
DEFPOINTS
 62
     0
100
AcDbPoint
 10
146.1814599223409
 20
106.3410337283944
 30
0.0
  0
POINT
  5
EB7
330
8AF
100
AcDbEntity
  8
DEFPOINTS
 62
     0
100
AcDbPoint
 10
146.1814599223409
 20
80.34103372839448
 30
0.0
  0
POINT
  5
EB8
330
8AF
100
AcDbEntity
  8
DEFPOINTS
 62
     0
100
AcDbPoint
 10
115.9179976057329
 20
80.34103372839448
 30
0.0
  0
ENDBLK
  5
8B9
330
8AF
100
AcDbEntity
  8
0
100
AcDbBlockEnd
  0
BLOCK
  5
8BC
330
8BB
100
AcDbEntity
  8
0
100
AcDbBlockBegin
  2
*D22
 70
     1
 10
0.0
 20
0.0
 30
0.0
  3
*D22
  1

  0
LINE
  5
E84
330
8BB
100
AcDbEntity
  8
寸法線
 62
     2
370
    -2
100
AcDbLine
 10
115.9179976057329
 20
233.8410337283944
 30
0.0
 11
106.9935606792448
 21
233.8410337283944
 31
0.0
  0
LINE
  5
E85
330
8BB
100
AcDbEntity
  8
寸法線
 62
     2
370
    -2
100
AcDbLine
 10
114.6679976057329
 20
80.34103372839449
 30
0.0
 11
106.9935606792447
 21
80.34103372839449
 31
0.0
  0
LINE
  5
E86
330
8BB
100
AcDbEntity
  8
寸法線
 62
     2
370
    -2
100
AcDbLine
 10
108.2435606792448
 20
231.3410337283944
 30
0.0
 11
108.2435606792447
 21
82.84103372839449
 31
0.0
  0
INSERT
  5
E87
330
8BB
100
AcDbEntity
  8
寸法線
 62
     2
370
    -2
100
AcDbBlockReference
  2
_OPEN
 10
108.2435606792448
 20
233.8410337283944
 30
0.0
 41
2.5
 42
2.5
 43
2.5
 50
90.0
  0
INSERT
  5
E88
330
8BB
100
AcDbEntity
  8
寸法線
 62
     2
370
    -2
100
AcDbBlockReference
  2
_OPEN
 10
108.2435606792447
 20
80.34103372839449
 30
0.0
 41
2.5
 42
2.5
 43
2.5
 50
270.0
  0
MTEXT
  5
E89
330
8BB
100
AcDbEntity
  8
寸法線
 62
     6
100
AcDbMText
 10
106.3685606792447
 20
157.0910337283945
 30
0.0
 40
2.5
 41
0.0
 71
     5
 72
     1
  1
\A1;153.5
  7
STYLE3
 11
0.0000000000000001
 21
1.0
 31
0.0
 73
     1
 44
1.0
  0
POINT
  5
E8A
330
8BB
100
AcDbEntity
  8
DEFPOINTS
 62
     0
100
AcDbPoint
 10
115.9179976057329
 20
233.8410337283944
 30
0.0
  0
POINT
  5
E8B
330
8BB
100
AcDbEntity
  8
DEFPOINTS
 62
     0
100
AcDbPoint
 10
114.6679976057329
 20
80.34103372839449
 30
0.0
  0
POINT
  5
E8C
330
8BB
100
AcDbEntity
  8
DEFPOINTS
 62
     0
100
AcDbPoint
 10
108.2435606792447
 20
80.34103372839449
 30
0.0
  0
ENDBLK
  5
8C6
330
8BB
100
AcDbEntity
  8
0
100
AcDbBlockEnd
  0
BLOCK
  5
90A
330
909
100
AcDbEntity
  8
0
100
AcDbBlockBegin
  2
*D23
 70
     1
 10
0.0
 20
0.0
 30
0.0
  3
*D23
  1

  0
LINE
  5
EE0
330
909
100
AcDbEntity
  8
寸法線
 62
     2
370
    -2
100
AcDbLine
 10
150.1814599223409
 20
233.8410337283944
 30
0.0
 11
150.1814599223409
 21
241.8961059820924
 31
0.0
  0
LINE
  5
EE1
330
909
100
AcDbEntity
  8
寸法線
 62
     2
370
    -2
100
AcDbLine
 10
158.1814599223408
 20
233.8410337283944
 30
0.0
 11
158.1814599223408
 21
241.8961059820924
 31
0.0
  0
LINE
  5
EE2
330
909
100
AcDbEntity
  8
寸法線
 62
     2
370
    -2
100
AcDbLine
 10
152.6814599223409
 20
240.6461059820924
 30
0.0
 11
155.6814599223408
 21
240.6461059820924
 31
0.0
  0
INSERT
  5
EE3
330
909
100
AcDbEntity
  8
寸法線
 62
     2
370
    -2
100
AcDbBlockReference
  2
_OPEN
 10
150.1814599223409
 20
240.6461059820924
 30
0.0
 41
2.5
 42
2.5
 43
2.5
 50
180.0
  0
INSERT
  5
EE4
330
909
100
AcDbEntity
  8
寸法線
 62
     2
370
    -2
100
AcDbBlockReference
  2
_OPEN
 10
158.1814599223408
 20
240.6461059820924
 30
0.0
 41
2.5
 42
2.5
 43
2.5
  0
MTEXT
  5
EE5
330
909
100
AcDbEntity
  8
寸法線
 62
     6
100
AcDbMText
 10
154.1814599223409
 20
242.5211059820924
 30
0.0
 40
2.5
 41
0.0
 71
     5
 72
     1
  1
\A1;8
  7
STYLE3
 73
     1
 44
1.0
  0
POINT
  5
EE6
330
909
100
AcDbEntity
  8
DEFPOINTS
 62
     0
100
AcDbPoint
 10
150.1814599223409
 20
233.8410337283944
 30
0.0
  0
POINT
  5
EE7
330
909
100
AcDbEntity
  8
DEFPOINTS
 62
     0
100
AcDbPoint
 10
158.1814599223408
 20
233.8410337283944
 30
0.0
  0
POINT
  5
EE8
330
909
100
AcDbEntity
  8
DEFPOINTS
 62
     0
100
AcDbPoint
 10
158.1814599223408
 20
240.6461059820924
 30
0.0
  0
ENDBLK
  5
914
330
909
100
AcDbEntity
  8
0
100
AcDbBlockEnd
  0
BLOCK
  5
994
330
916
100
AcDbEntity
  8
0
100
AcDbBlockBegin
  2
*D24
 70
     1
 10
0.0
 20
0.0
 30
0.0
  3
*D24
  1

  0
LINE
  5
ED7
330
916
100
AcDbEntity
  8
寸法線
 62
     2
370
    -2
100
AcDbLine
 10
130.5814599223408
 20
194.3410337283944
 30
0.0
 11
130.5814599223408
 21
248.3520543943212
 31
0.0
  0
LINE
  5
ED8
330
916
100
AcDbEntity
  8
寸法線
 62
     2
370
    -2
100
AcDbLine
 10
188.5814599223408
 20
194.3410337283944
 30
0.0
 11
188.5814599223408
 21
248.3520543943212
 31
0.0
  0
LINE
  5
ED9
330
916
100
AcDbEntity
  8
寸法線
 62
     2
370
    -2
100
AcDbLine
 10
133.0814599223408
 20
247.1020543943212
 30
0.0
 11
186.0814599223408
 21
247.1020543943212
 31
0.0
  0
INSERT
  5
EDA
330
916
100
AcDbEntity
  8
寸法線
 62
     2
370
    -2
100
AcDbBlockReference
  2
_OPEN
 10
130.5814599223408
 20
247.1020543943212
 30
0.0
 41
2.5
 42
2.5
 43
2.5
 50
180.0
  0
INSERT
  5
EDB
330
916
100
AcDbEntity
  8
寸法線
 62
     2
370
    -2
100
AcDbBlockReference
  2
_OPEN
 10
188.5814599223408
 20
247.1020543943212
 30
0.0
 41
2.5
 42
2.5
 43
2.5
  0
MTEXT
  5
EDC
330
916
100
AcDbEntity
  8
寸法線
 62
     6
100
AcDbMText
 10
159.5814599223408
 20
248.9770543943212
 30
0.0
 40
2.5
 41
0.0
 71
     5
 72
     1
  1
\A1;φ58
  7
STYLE3
 73
     1
 44
1.0
  0
POINT
  5
EDD
330
916
100
AcDbEntity
  8
DEFPOINTS
 62
     0
100
AcDbPoint
 10
130.5814599223408
 20
194.3410337283944
 30
0.0
  0
POINT
  5
EDE
330
916
100
AcDbEntity
  8
DEFPOINTS
 62
     0
100
AcDbPoint
 10
188.5814599223408
 20
194.3410337283944
 30
0.0
  0
POINT
  5
EDF
330
916
100
AcDbEntity
  8
DEFPOINTS
 62
     0
100
AcDbPoint
 10
188.5814599223408
 20
247.1020543943212
 30
0.0
  0
ENDBLK
  5
99E
330
916
100
AcDbEntity
  8
0
100
AcDbBlockEnd
  0
BLOCK
  5
CD5
330
CC9
100
AcDbEntity
  8
0
100
AcDbBlockBegin
  2
*D31
 70
     1
 10
0.0
 20
0.0
 30
0.0
  3
*D31
  1

  0
LINE
  5
EB9
330
CC9
100
AcDbEntity
  8
外形線
 62
     2
370
    -2
100
AcDbLine
 10
145.1814599223409
 20
111.8410337283944
 30
0.0
 11
129.7195861457275
 21
111.8410337283944
 31
0.0
  0
LINE
  5
EBA
330
CC9
100
AcDbEntity
  8
外形線
 62
     2
370
    -2
100
AcDbLine
 10
145.4314599223408
 20
109.3410337283944
 30
0.0
 11
129.7195861457275
 21
109.3410337283944
 31
0.0
  0
LINE
  5
EBB
330
CC9
100
AcDbEntity
  8
外形線
 62
     2
370
    -2
100
AcDbLine
 10
130.9695861457275
 20
109.3410337283944
 30
0.0
 11
130.9695861457275
 21
104.3410337283944
 31
0.0
  0
LINE
  5
EBC
330
CC9
100
AcDbEntity
  8
外形線
 62
     2
370
    -2
100
AcDbLine
 10
130.9695861457275
 20
114.3410337283944
 30
0.0
 11
130.9695861457275
 21
123.3291289664897
 31
0.0
  0
LINE
  5
EBD
330
CC9
100
AcDbEntity
  8
外形線
 62
     2
370
    -2
100
AcDbLine
 10
130.9695861457275
 20
109.3410337283944
 30
0.0
 11
130.9695861457275
 21
111.8410337283944
 31
0.0
  0
INSERT
  5
EBE
330
CC9
100
AcDbEntity
  8
外形線
 62
     2
370
    -2
100
AcDbBlockReference
  2
_OPEN
 10
130.9695861457275
 20
111.8410337283944
 30
0.0
 41
2.5
 42
2.5
 43
2.5
 50
270.0
  0
MTEXT
  5
EBF
330
CC9
100
AcDbEntity
  8
外形線
 62
     6
100
AcDbMText
 10
129.0945861457275
 20
120.0850813474421
 30
0.0
 40
2.5
 41
0.0
 71
     5
 72
     1
  1
\A1;2.5
  7
STYLE3
 11
0.0000000000000001
 21
1.0
 31
0.0
 73
     1
 44
1.0
  0
POINT
  5
EC0
330
CC9
100
AcDbEntity
  8
DEFPOINTS
 62
     0
100
AcDbPoint
 10
145.1814599223409
 20
111.8410337283944
 30
0.0
  0
POINT
  5
EC1
330
CC9
100
AcDbEntity
  8
DEFPOINTS
 62
     0
100
AcDbPoint
 10
145.4314599223408
 20
109.3410337283944
 30
0.0
  0
POINT
  5
EC2
330
CC9
100
AcDbEntity
  8
DEFPOINTS
 62
     0
100
AcDbPoint
 10
130.9695861457275
 20
109.3410337283944
 30
0.0
  0
ENDBLK
  5
CD6
330
CC9
100
AcDbEntity
  8
0
100
AcDbBlockEnd
  0
BLOCK
  5
CFA
330
CEE
100
AcDbEntity
  8
0
100
AcDbBlockBegin
  2
*D32
 70
     1
 10
0.0
 20
0.0
 30
0.0
  3
*D32
  1

  0
LINE
  5
EA7
330
CEE
100
AcDbEntity
  8
外形線
 62
     2
370
    -2
100
AcDbLine
 10
145.4314599223408
 20
109.3410337283944
 30
0.0
 11
129.7195861457274
 21
109.3410337283944
 31
0.0
  0
LINE
  5
EA8
330
CEE
100
AcDbEntity
  8
外形線
 62
     2
370
    -2
100
AcDbLine
 10
145.4314599223408
 20
106.8410337283945
 30
0.0
 11
129.7195861457274
 21
106.8410337283945
 31
0.0
  0
LINE
  5
EA9
330
CEE
100
AcDbEntity
  8
外形線
 62
     2
370
    -2
100
AcDbLine
 10
130.9695861457274
 20
109.3410337283944
 30
0.0
 11
130.9695861457274
 21
111.8410337283944
 31
0.0
  0
LINE
  5
EAA
330
CEE
100
AcDbEntity
  8
外形線
 62
     2
370
    -2
100
AcDbLine
 10
130.9695861457274
 20
104.3410337283944
 30
0.0
 11
130.9695861457274
 21
95.35293849029924
 31
0.0
  0
LINE
  5
EAB
330
CEE
100
AcDbEntity
  8
外形線
 62
     2
370
    -2
100
AcDbLine
 10
130.9695861457274
 20
109.3410337283944
 30
0.0
 11
130.9695861457274
 21
106.8410337283945
 31
0.0
  0
INSERT
  5
EAC
330
CEE
100
AcDbEntity
  8
外形線
 62
     2
370
    -2
100
AcDbBlockReference
  2
_OPEN
 10
130.9695861457274
 20
106.8410337283945
 30
0.0
 41
2.5
 42
2.5
 43
2.5
 50
90.0
  0
MTEXT
  5
EAD
330
CEE
100
AcDbEntity
  8
外形線
 62
     6
100
AcDbMText
 10
129.0945861457274
 20
98.59698610934687
 30
0.0
 40
2.5
 41
0.0
 71
     5
 72
     1
  1
\A1;2.5
  7
STYLE3
 11
0.0000000000000001
 21
1.0
 31
0.0
 73
     1
 44
1.0
  0
POINT
  5
EAE
330
CEE
100
AcDbEntity
  8
DEFPOINTS
 62
     0
100
AcDbPoint
 10
145.4314599223408
 20
109.3410337283944
 30
0.0
  0
POINT
  5
EAF
330
CEE
100
AcDbEntity
  8
DEFPOINTS
 62
     0
100
AcDbPoint
 10
145.4314599223408
 20
106.8410337283945
 30
0.0
  0
POINT
  5
EB0
330
CEE
100
AcDbEntity
  8
DEFPOINTS
 62
     0
100
AcDbPoint
 10
130.9695861457274
 20
106.8410337283945
 30
0.0
  0
ENDBLK
  5
CFB
330
CEE
100
AcDbEntity
  8
0
100
AcDbBlockEnd
  0
BLOCK
  5
CFD
330
CFC
100
AcDbEntity
  8
0
100
AcDbBlockBegin
  2
_None
 70
     0
 10
0.0
 20
0.0
 30
0.0
  3
_None
  1

  0
ENDBLK
  5
CFE
330
CFC
100
AcDbEntity
  8
0
100
AcDbBlockEnd
  0
ENDSEC
  0
SECTION
  2
ENTITIES
  0
LWPOLYLINE
  5
1A0
330
18
100
AcDbEntity
  8
C
100
AcDbPolyline
 90
        5
 70
     0
 43
0.8
 10
0.0
 20
282.5
 10
377.4999999999999
 20
282.5
 10
377.4999999999999
 20
0.0
 10
0.0
 20
0.0
 10
0.0
 20
282.5
  0
LINE
  5
224
330
18
100
AcDbEntity
  8
中心線
100
AcDbLine
 10
122.4607833323383
 20
194.3410337283944
 30
0.0
 11
197.6191712468418
 21
194.3410337283944
 31
0.0
  0
LINE
  5
225
330
18
100
AcDbEntity
  8
中心線
100
AcDbLine
 10
154.1814599223409
 20
236.1940157060459
 30
0.0
 11
154.1814599223409
 21
74.63764881895542
 31
0.0
  0
LINE
  5
226
330
18
100
AcDbEntity
  8
中心線
100
AcDbLine
 10
159.5814599223409
 20
232.3143764942571
 30
0.0
 11
159.5814599223408
 21
155.104618351586
 31
0.0
  0
ARC
  5
227
330
18
100
AcDbEntity
  8
外形線
100
AcDbCircle
 10
159.5814599223408
 20
194.3410337283944
 30
0.0
 40
34.0
100
AcDbArc
 50
0.0
 51
233.7086221615604
  0
LINE
  5
22A
330
18
100
AcDbEntity
  8
外形線
100
AcDbLine
 10
140.6814599223409
 20
164.5183913236711
 30
0.0
 11
140.6814599223409
 21
157.3410337283944
 31
0.0
  0
ARC
  5
22B
330
18
100
AcDbEntity
  8
外形線
100
AcDbCircle
 10
137.6814599223409
 20
164.5183913236711
 30
0.0
 40
3.0
100
AcDbArc
 50
0.0
 51
53.70862216156065
  0
LINE
  5
22C
330
18
100
AcDbEntity
  8
外形線
100
AcDbLine
 10
140.6814599223409
 20
157.3410337283944
 30
0.0
 11
150.1814599223409
 21
157.3410337283944
 31
0.0
  0
LINE
  5
22D
330
18
100
AcDbEntity
  8
外形線
100
AcDbLine
 10
199.4688012726991
 20
191.3410337283944
 30
0.0
 11
204.2023802579395
 21
191.3410337283944
 31
0.0
  0
ARC
  5
22E
330
18
100
AcDbEntity
  8
外形線
100
AcDbCircle
 10
199.4688012726991
 20
197.3410337283944
 30
0.0
 40
6.0
100
AcDbArc
 50
184.3012223046703
 51
270.0
  0
LINE
  5
22F
330
18
100
AcDbEntity
  8
外形線
100
AcDbLine
 10
193.5814599223408
 20
194.3410337283944
 30
0.0
 11
193.5814599223408
 21
157.3410337283944
 31
0.0
  0
LINE
  5
230
330
18
100
AcDbEntity
  8
外形線
100
AcDbLine
 10
204.5814599223409
 20
177.3410337283944
 30
0.0
 11
204.5814599223409
 21
157.3410337283944
 31
0.0
  0
ARC
  5
233
330
18
100
AcDbEntity
  8
隠れ線2
100
AcDbCircle
 10
219.5814599223409
 20
167.3410337283944
 30
0.0
 40
10.0
100
AcDbArc
 50
0.0000000000001628
 51
90.0
  0
LINE
  5
235
330
18
100
AcDbEntity
  8
隠れ線2
100
AcDbLine
 10
219.5814599223409
 20
177.3410337283944
 30
0.0
 11
211.1141397311223
 21
177.3410337283944
 31
0.0
  0
LINE
  5
236
330
18
100
AcDbEntity
  8
外形線
100
AcDbLine
 10
232.5814599223409
 20
164.3410337283945
 30
0.0
 11
276.1814599223409
 21
164.3410337283945
 31
0.0
  0
ARC
  5
237
330
18
100
AcDbEntity
  8
外形線
100
AcDbCircle
 10
232.5814599223409
 20
167.3410337283945
 30
0.0
 40
3.0
100
AcDbArc
 50
180.0
 51
270.0
  0
LINE
  5
238
330
18
100
AcDbEntity
  8
外形線
100
AcDbLine
 10
146.1814599223409
 20
106.3410337283944
 30
0.0
 11
276.1814599223409
 21
106.3410337283944
 31
0.0
  0
LINE
  5
23A
330
18
100
AcDbEntity
  8
外形線
100
AcDbLine
 10
146.1814599223409
 20
80.34103372839448
 30
0.0
 11
161.1814599223408
 21
80.34103372839448
 31
0.0
  0
LINE
  5
23B
330
18
100
AcDbEntity
  8
外形線
100
AcDbLine
 10
146.1814599223409
 20
106.3410337283944
 30
0.0
 11
146.1814599223409
 21
80.34103372839448
 31
0.0
  0
LINE
  5
23C
330
18
100
AcDbEntity
  8
外形線
100
AcDbLine
 10
161.1814599223408
 20
97.34103372839449
 30
0.0
 11
161.1814599223408
 21
80.34103372839448
 31
0.0
  0
ARC
  5
240
330
18
100
AcDbEntity
  8
外形線
100
AcDbCircle
 10
276.1814599223409
 20
131.8410337283944
 30
0.0
 40
25.5
100
AcDbArc
 50
270.0
 51
90.0
  0
ARC
  5
242
330
18
100
AcDbEntity
  8
外形線
100
AcDbCircle
 10
273.6000208417471
 20
138.5793313222905
 30
0.0
 40
65.0
100
AcDbArc
 50
39.82812646872761
 51
120.848895479111
  0
LINE
  5
245
330
18
100
AcDbEntity
  8
外形線
100
AcDbLine
 10
159.2967673979384
 20
99.3410337283945
 30
0.0
 11
276.1814599223409
 21
99.34103372839445
 31
0.0
  0
ARC
  5
246
330
18
100
AcDbEntity
  8
外形線
100
AcDbCircle
 10
276.1814599223409
 20
131.8410337283944
 30
0.0
 40
32.5
100
AcDbArc
 50
270.0
 51
90.0
  0
LINE
  5
248
330
18
100
AcDbEntity
  8
外形線
100
AcDbLine
 10
249.3776056208158
 20
167.3410337283945
 30
0.0
 11
283.6687507955934
 21
167.3410337283945
 31
0.0
  0
ARC
  5
250
330
18
100
AcDbEntity
  8
外形線
100
AcDbCircle
 10
249.2117309303796
 20
182.3401165532565
 30
0.0
 40
15.0
100
AcDbArc
 50
126.5940894961944
 51
270.6336075600339
  0
ARC
  5
255
330
18
100
AcDbEntity
  8
外形線
100
AcDbCircle
 10
313.1814599223409
 20
169.3410337283944
 30
0.0
 40
15.0
100
AcDbArc
 50
222.4541502044009
 51
46.44078068752378
  0
ARC
  5
259
330
18
100
AcDbEntity
  8
外形線
100
AcDbCircle
 10
283.6687507955934
 20
142.3410337283944
 30
0.0
 40
25.0
100
AcDbArc
 50
42.45415020440087
 51
90.0
  0
ARC
  5
25A
330
18
100
AcDbEntity
  8
外形線
100
AcDbCircle
 10
273.6000208417471
 20
138.5793313222905
 30
0.0
 40
74.0
100
AcDbArc
 50
10.88387749691108
 51
124.0321765521032
  0
ARC
  5
25B
330
18
100
AcDbEntity
  8
外形線
100
AcDbCircle
 10
204.2023802579395
 20
241.3410337283945
 30
0.0
 40
50.0
100
AcDbArc
 50
270.0
 51
279.6531857189954
  0
ARC
  5
25C
330
18
100
AcDbEntity
  8
外形線
100
AcDbCircle
 10
285.1814599223409
 20
130.3410337283944
 30
0.0
 40
65.0
100
AcDbArc
 50
262.8721398897438
 51
19.98086811265856
  0
LINE
  5
25D
330
18
100
AcDbEntity
  8
外形線
100
AcDbLine
 10
161.1814599223408
 20
80.34103372839448
 30
0.0
 11
277.1160009517426
 21
65.84337197547817
 31
0.0
  0
CIRCLE
  5
25F
330
18
100
AcDbEntity
  8
外形線
100
AcDbCircle
 10
159.5814599223408
 20
194.3410337283944
 30
0.0
 40
33.0
  0
CIRCLE
  5
261
330
18
100
AcDbEntity
  8
外形線
100
AcDbCircle
 10
159.5814599223408
 20
194.3410337283944
 30
0.0
 40
29.0
  0
LINE
  5
262
330
18
100
AcDbEntity
  8
中心線
100
AcDbLine
 10
43.01235845805251
 20
237.4324857125473
 30
0.0
 11
43.01235845805251
 21
62.0428764499054
 31
0.0
  0
LINE
  5
263
330
18
100
AcDbEntity
  8
外形線
100
AcDbLine
 10
41.01235845805251
 20
228.3410337283945
 30
0.0
 11
35.01235845805252
 21
228.3410337283945
 31
0.0
  0
LINE
  5
264
330
18
100
AcDbEntity
  8
外形線
100
AcDbLine
 10
50.51235845805251
 20
157.3410337283944
 30
0.0
 11
35.01235845805252
 21
157.3410337283944
 31
0.0
  0
LINE
  5
266
330
18
100
AcDbEntity
  8
外形線
100
AcDbLine
 10
50.51235845805251
 20
80.34103372839448
 30
0.0
 11
35.51235845805252
 21
80.34103372839449
 31
0.0
  0
LINE
  5
269
330
18
100
AcDbEntity
  8
外形線
100
AcDbLine
 10
50.51235845805251
 20
106.3410337283944
 30
0.0
 11
50.51235845805251
 21
80.34103372839448
 31
0.0
  0
LINE
  5
26A
330
18
100
AcDbEntity
  8
外形線
100
AcDbLine
 10
35.51235845805252
 20
106.3410337283944
 30
0.0
 11
35.51235845805252
 21
80.34103372839449
 31
0.0
  0
LINE
  5
26B
330
18
100
AcDbEntity
  8
外形線
100
AcDbLine
 10
145.4314599223408
 20
106.8410337283945
 30
0.0
 11
162.9314599223409
 21
106.8410337283944
 31
0.0
  0
LINE
  5
26C
330
18
100
AcDbEntity
  8
外形線
100
AcDbLine
 10
145.4314599223408
 20
109.3410337283944
 30
0.0
 11
162.9314599223409
 21
109.3410337283944
 31
0.0
  0
ARC
  5
270
330
18
100
AcDbEntity
  8
外形線
100
AcDbCircle
 10
145.4314599223408
 20
108.0910337283945
 30
0.0
 40
1.249999999999992
100
AcDbArc
 50
90.0
 51
270.0
  0
ARC
  5
271
330
18
100
AcDbEntity
  8
外形線
100
AcDbCircle
 10
162.9314599223409
 20
108.0910337283945
 30
0.0
 40
1.249999999999992
100
AcDbArc
 50
270.0
 51
90.0
  0
ARC
  5
27A
330
18
100
AcDbEntity
  8
外形線
100
AcDbCircle
 10
163.1814599223408
 20
97.34103372839449
 30
0.0
 40
2.0
100
AcDbArc
 50
89.99999999999998
 51
180.0
  0
ARC
  5
27B
330
18
100
AcDbEntity
  8
外形線
100
AcDbCircle
 10
159.2967673979384
 20
97.34103372839449
 30
0.0
 40
2.0
100
AcDbArc
 50
89.99999999999998
 51
180.0
  0
LINE
  5
27C
330
18
100
AcDbEntity
  8
外形線
100
AcDbLine
 10
159.6814599223409
 20
106.8410337283944
 30
0.0
 11
159.6814599223409
 21
106.3410337283944
 31
0.0
  0
LINE
  5
27D
330
18
100
AcDbEntity
  8
外形線
100
AcDbLine
 10
148.6814599223408
 20
106.8410337283945
 30
0.0
 11
148.6814599223408
 21
106.3410337283944
 31
0.0
  0
LINE
  5
27E
330
18
100
AcDbEntity
  8
外形線
100
AcDbLine
 10
158.1814599223408
 20
233.8410337283944
 30
0.0
 11
158.1814599223408
 21
228.3121979710283
 31
0.0
  0
LINE
  5
27F
330
18
100
AcDbEntity
  8
外形線
100
AcDbLine
 10
150.1814599223409
 20
233.8410337283944
 30
0.0
 11
150.1814599223409
 21
227.0157946303505
 31
0.0
  0
LINE
  5
280
330
18
100
AcDbEntity
  8
外形線
100
AcDbLine
 10
150.1814599223409
 20
233.8410337283944
 30
0.0
 11
158.1814599223408
 21
233.8410337283944
 31
0.0
  0
LINE
  5
282
330
18
100
AcDbEntity
  8
外形線
100
AcDbLine
 10
158.1814599223408
 20
161.3707440724026
 30
0.0
 11
158.1814599223408
 21
119.5119345181087
 31
0.0
  0
LINE
  5
283
330
18
100
AcDbEntity
  8
外形線
100
AcDbLine
 10
150.1814599223409
 20
162.7081394567664
 30
0.0
 11
150.1814599223409
 21
119.5119345181087
 31
0.0
  0
LINE
  5
284
330
18
100
AcDbEntity
  8
外形線
100
AcDbLine
 10
158.1814599223408
 20
157.3410337283944
 30
0.0
 11
205.0268848766753
 21
157.3410337283944
 31
0.0
  0
LINE
  5
293
330
18
100
AcDbEntity
  8
外形線
100
AcDbLine
 10
145.4314599223408
 20
109.3410337283944
 30
0.0
 11
162.9314599223409
 21
109.3410337283944
 31
0.0
  0
LINE
  5
294
330
18
100
AcDbEntity
  8
外形線
100
AcDbLine
 10
145.1814599223409
 20
111.8410337283944
 30
0.0
 11
163.1814599223408
 21
111.8410337283945
 31
0.0
  0
ARC
  5
295
330
18
100
AcDbEntity
  8
外形線
100
AcDbCircle
 10
162.9314599223409
 20
110.5910337283944
 30
0.0
 40
1.249999999999992
100
AcDbArc
 50
270.0
 51
90.00000000000003
  0
ARC
  5
296
330
18
100
AcDbEntity
  8
外形線
100
AcDbCircle
 10
145.4314599223408
 20
110.5910337283944
 30
0.0
 40
1.249999999999992
100
AcDbArc
 50
90.00000000000003
 51
270.0
  0
LINE
  5
297
330
18
100
AcDbEntity
  8
外形線
100
AcDbLine
 10
163.1814599223408
 20
113.8410337283944
 30
0.0
 11
163.1814599223408
 21
111.8410337283945
 31
0.0
  0
LINE
  5
298
330
18
100
AcDbEntity
  8
外形線
100
AcDbLine
 10
145.1814599223409
 20
113.8410337283944
 30
0.0
 11
145.1814599223409
 21
111.8410337283944
 31
0.0
  0
LINE
  5
299
330
18
100
AcDbEntity
  8
外形線
100
AcDbLine
 10
145.1814599223409
 20
113.8410337283944
 30
0.0
 11
163.1814599223408
 21
113.8410337283944
 31
0.0
  0
LINE
  5
29A
330
18
100
AcDbEntity
  8
外形線
100
AcDbLine
 10
148.6814599223408
 20
117.0119345181087
 30
0.0
 11
159.6814599223409
 21
117.0119345181088
 31
0.0
  0
LINE
  5
29B
330
18
100
AcDbEntity
  8
外形線
100
AcDbLine
 10
148.6814599223408
 20
119.5119345181087
 30
0.0
 11
159.6814599223409
 21
119.5119345181087
 31
0.0
  0
LINE
  5
29C
330
18
100
AcDbEntity
  8
外形線
100
AcDbLine
 10
157.1814599223408
 20
117.0119345181088
 30
0.0
 11
157.1814599223408
 21
116.2655474764665
 31
0.0
  0
LINE
  5
29D
330
18
100
AcDbEntity
  8
外形線
100
AcDbLine
 10
151.1814599223409
 20
117.0119345181088
 30
0.0
 11
151.1814599223409
 21
113.8410337283944
 31
0.0
  0
LINE
  5
29E
330
18
100
AcDbEntity
  8
外形線
100
AcDbLine
 10
159.6814599223409
 20
119.5119345181087
 30
0.0
 11
159.6814599223409
 21
117.0119345181088
 31
0.0
  0
LINE
  5
29F
330
18
100
AcDbEntity
  8
外形線
100
AcDbLine
 10
148.6814599223408
 20
119.5119345181087
 30
0.0
 11
148.6814599223408
 21
117.0119345181087
 31
0.0
  0
LINE
  5
2A0
330
18
100
AcDbEntity
  8
外形線
100
AcDbLine
 10
45.01235845805251
 20
233.8410337283944
 30
0.0
 11
45.01235845805251
 21
119.3410337283944
 31
0.0
  0
LINE
  5
2A1
330
18
100
AcDbEntity
  8
外形線
100
AcDbLine
 10
41.01235845805251
 20
233.8410337283944
 30
0.0
 11
41.01235845805251
 21
227.0157946303505
 31
0.0
  0
LINE
  5
2A2
330
18
100
AcDbEntity
  8
外形線
100
AcDbLine
 10
45.01235845805251
 20
233.8410337283944
 30
0.0
 11
41.01235845805251
 21
233.8410337283944
 31
0.0
  0
LINE
  5
2A3
330
18
100
AcDbEntity
  8
外形線
100
AcDbLine
 10
50.51235845805251
 20
106.3410337283944
 30
0.0
 11
35.51235845805252
 21
106.3410337283944
 31
0.0
  0
LINE
  5
2A4
330
18
100
AcDbEntity
  8
外形線
100
AcDbLine
 10
34.01235845805252
 20
111.8410337283944
 30
0.0
 11
52.01235845805252
 21
111.8410337283945
 31
0.0
  0
LINE
  5
2A5
330
18
100
AcDbEntity
  8
外形線
100
AcDbLine
 10
34.01235845805252
 20
113.8410337283944
 30
0.0
 11
52.01235845805252
 21
113.8410337283944
 31
0.0
  0
ARC
  5
2A6
330
18
100
AcDbEntity
  8
外形線
100
AcDbCircle
 10
34.26235845805252
 20
110.5910337283944
 30
0.0
 40
1.249999999999992
100
AcDbArc
 50
90.00000000000003
 51
270.0
  0
ARC
  5
2A7
330
18
100
AcDbEntity
  8
外形線
100
AcDbCircle
 10
34.26235845805252
 20
108.0910337283945
 30
0.0
 40
1.249999999999992
100
AcDbArc
 50
90.0
 51
270.0
  0
LINE
  5
2A8
330
18
100
AcDbEntity
  8
外形線
100
AcDbLine
 10
34.01235845805252
 20
113.8410337283944
 30
0.0
 11
34.01235845805252
 21
111.8410337283944
 31
0.0
  0
LINE
  5
2A9
330
18
100
AcDbEntity
  8
外形線
100
AcDbLine
 10
40.01235845805251
 20
116.8410337283944
 30
0.0
 11
40.01235845805251
 21
113.8410337283944
 31
0.0
  0
LINE
  5
2AA
330
18
100
AcDbEntity
  8
外形線
100
AcDbLine
 10
46.01235845805251
 20
116.8410337283944
 30
0.0
 11
46.01235845805251
 21
113.8410337283944
 31
0.0
  0
LINE
  5
2AB
330
18
100
AcDbEntity
  8
外形線
100
AcDbLine
 10
34.26235845805252
 20
109.3410337283944
 30
0.0
 11
51.76235845805251
 21
109.3410337283944
 31
0.0
  0
LINE
  5
2AC
330
18
100
AcDbEntity
  8
外形線
100
AcDbLine
 10
34.26235845805252
 20
109.3410337283944
 30
0.0
 11
51.76235845805251
 21
109.3410337283944
 31
0.0
  0
LINE
  5
2AD
330
18
100
AcDbEntity
  8
外形線
100
AcDbLine
 10
34.26235845805252
 20
106.8410337283945
 30
0.0
 11
51.76235845805251
 21
106.8410337283944
 31
0.0
  0
LINE
  5
2AE
330
18
100
AcDbEntity
  8
外形線
100
AcDbLine
 10
37.51235845805252
 20
106.8410337283945
 30
0.0
 11
37.51235845805252
 21
106.3410337283944
 31
0.0
  0
LINE
  5
2AF
330
18
100
AcDbEntity
  8
外形線
100
AcDbLine
 10
48.51235845805252
 20
106.8410337283944
 30
0.0
 11
48.51235845805252
 21
106.3410337283944
 31
0.0
  0
ARC
  5
2B0
330
18
100
AcDbEntity
  8
外形線
100
AcDbCircle
 10
51.76235845805251
 20
110.5910337283944
 30
0.0
 40
1.249999999999992
100
AcDbArc
 50
270.0
 51
90.00000000000003
  0
ARC
  5
2B1
330
18
100
AcDbEntity
  8
外形線
100
AcDbCircle
 10
51.76235845805251
 20
108.0910337283945
 30
0.0
 40
1.249999999999992
100
AcDbArc
 50
270.0
 51
90.0
  0
LINE
  5
2B2
330
18
100
AcDbEntity
  8
外形線
100
AcDbLine
 10
52.01235845805252
 20
113.8410337283944
 30
0.0
 11
52.01235845805252
 21
111.8410337283945
 31
0.0
  0
LINE
  5
2B3
330
18
100
AcDbEntity
  8
外形線
100
AcDbLine
 10
37.51235845805252
 20
116.8410337283944
 30
0.0
 11
48.51235845805252
 21
116.8410337283944
 31
0.0
  0
LINE
  5
2B4
330
18
100
AcDbEntity
  8
外形線
100
AcDbLine
 10
37.51235845805252
 20
119.3410337283944
 30
0.0
 11
48.51235845805252
 21
119.3410337283944
 31
0.0
  0
LINE
  5
2B5
330
18
100
AcDbEntity
  8
外形線
100
AcDbLine
 10
37.51235845805252
 20
119.3410337283944
 30
0.0
 11
37.51235845805252
 21
116.8410337283944
 31
0.0
  0
LINE
  5
2B6
330
18
100
AcDbEntity
  8
外形線
100
AcDbLine
 10
48.51235845805252
 20
119.3410337283944
 30
0.0
 11
48.51235845805252
 21
116.8410337283944
 31
0.0
  0
LINE
  5
42F
330
18
100
AcDbEntity
  8
中心線
 48
0.5
100
AcDbLine
 10
219.5814599223409
 20
175.5170234965812
 30
0.0
 11
219.5814599223408
 21
159.1650439602076
 31
0.0
  0
LINE
  5
430
330
18
100
AcDbEntity
  8
中心線
 48
0.5
100
AcDbLine
 10
211.4054701541541
 20
167.3410337283944
 30
0.0
 11
233.7727984978553
 21
167.3410337283944
 31
0.0
  0
CIRCLE
  5
4B2
330
18
100
AcDbEntity
  8
外形線
100
AcDbCircle
 10
219.5814599223409
 20
167.3410337283944
 30
0.0
 40
7.0
  0
LINE
  5
4B5
330
18
100
AcDbEntity
  8
外形線
100
AcDbLine
 10
211.1141397311223
 20
177.3410337283944
 30
0.0
 11
204.5814599223409
 21
177.3410337283944
 31
0.0
  0
LINE
  5
4B6
330
18
100
AcDbEntity
  8
外形線
100
AcDbLine
 10
224.1453510198518
 20
157.3410337283944
 30
0.0
 11
276.1814599223409
 21
157.3410337283944
 31
0.0
  0
LINE
  5
4B7
330
18
100
AcDbEntity
  8
隠れ線2
100
AcDbLine
 10
205.0268848766753
 20
157.3410337283944
 30
0.0
 11
224.1453510198518
 21
157.3410337283944
 31
0.0
  0
ARC
  5
4B8
330
18
100
AcDbEntity
  8
外形線
100
AcDbCircle
 10
204.2023802579395
 20
241.3410337283945
 30
0.0
 40
50.0
100
AcDbArc
 50
297.4749946155278
 51
304.0321765521031
  0
ARC
  5
4B9
330
18
100
AcDbEntity
  8
隠れ線2
100
AcDbCircle
 10
204.2023802579395
 20
241.3410337283945
 30
0.0
 40
50.0
100
AcDbArc
 50
279.6531857189954
 51
297.4749946155278
  0
LINE
  5
4D2
330
18
100
AcDbEntity
  8
外形線
100
AcDbLine
 10
157.1814599223408
 20
114.2522190543746
 30
0.0
 11
157.1814599223408
 21
113.8410337283944
 31
0.0
  0
LINE
  5
4D4
330
18
100
AcDbEntity
  8
外形線
100
AcDbLine
 10
35.01235845805252
 20
228.3410337283945
 30
0.0
 11
35.01235845805252
 21
157.3410337283944
 31
0.0
  0
LINE
  5
4D5
330
18
100
AcDbEntity
  8
外形線
100
AcDbLine
 10
41.01235845805251
 20
157.3410337283944
 30
0.0
 11
41.01235845805251
 21
119.3410337283944
 31
0.0
  0
LINE
  5
4D6
330
18
100
AcDbEntity
  8
外形線
100
AcDbLine
 10
52.01235845805252
 20
227.3410337283945
 30
0.0
 11
45.01235845805251
 21
227.3410337283944
 31
0.0
  0
LINE
  5
4D7
330
18
100
AcDbEntity
  8
外形線
100
AcDbLine
 10
52.01235845805252
 20
161.3410337283944
 30
0.0
 11
45.01235845805251
 21
161.3410337283944
 31
0.0
  0
LINE
  5
4D8
330
18
100
AcDbEntity
  8
外形線
100
AcDbLine
 10
54.01235845805252
 20
225.3410337283945
 30
0.0
 11
54.01235845805252
 21
163.3410337283944
 31
0.0
  0
LINE
  5
4D9
330
18
100
AcDbEntity
  8
外形線
100
AcDbLine
 10
52.01235845805252
 20
227.3410337283945
 30
0.0
 11
52.01235845805252
 21
161.3410337283944
 31
0.0
  0
LINE
  5
4DA
330
18
100
AcDbEntity
  8
外形線
100
AcDbLine
 10
52.01235845805252
 20
161.3410337283944
 30
0.0
 11
54.01235845805252
 21
163.3410337283944
 31
0.0
  0
LINE
  5
4DB
330
18
100
AcDbEntity
  8
外形線
100
AcDbLine
 10
54.01235845805252
 20
225.3410337283945
 30
0.0
 11
52.01235845805252
 21
227.3410337283945
 31
0.0
  0
LINE
  5
4DC
330
18
100
AcDbEntity
  8
外形線
100
AcDbLine
 10
35.51235845805252
 20
157.3410337283944
 30
0.0
 11
35.51235845805252
 21
113.8410337283944
 31
0.0
  0
LINE
  5
4DD
330
18
100
AcDbEntity
  8
外形線
100
AcDbLine
 10
50.51235845805251
 20
161.3410337283944
 30
0.0
 11
50.51235845805252
 21
135.3618952214247
 31
0.0
  0
LINE
  5
4DF
330
18
100
AcDbEntity
  8
中心線
 48
0.7
100
AcDbLine
 10
31.1978934571622
 20
194.3410337283944
 30
0.0
 11
57.33836536012734
 21
194.3410337283944
 31
0.0
  0
LINE
  5
4EC
330
18
100
AcDbEntity
  8
目盛
100
AcDbLine
 10
159.5814599223409
 20
223.3410337283944
 30
0.0
 11
159.5814599223409
 21
219.3410337283944
 31
0.0
  0
LINE
  5
4ED
330
18
100
AcDbEntity
  8
目盛
100
AcDbLine
 10
161.402384988691
 20
223.2838088528144
 30
0.0
 11
161.1983158002207
 21
220.0402219854224
 31
0.0
  0
LINE
  5
4EE
330
18
100
AcDbEntity
  8
目盛
100
AcDbLine
 10
163.2161236957057
 20
223.1123600665143
 30
0.0
 11
162.8087906866217
 21
219.8879872872423
 31
0.0
  0
LINE
  5
4EF
330
18
100
AcDbEntity
  8
目盛
100
AcDbLine
 10
165.0155180453269
 20
222.8273639995264
 30
0.0
 11
164.4065287729233
 21
219.6349304346582
 31
0.0
  0
LINE
  5
4F0
330
18
100
AcDbEntity
  8
目盛
100
AcDbLine
 10
166.7934666501216
 20
222.4299454011247
 30
0.0
 11
165.9852245168359
 21
219.2820501274567
 31
0.0
  0
LINE
  5
4F1
330
18
100
AcDbEntity
  8
目盛
100
AcDbLine
 10
168.5429527592143
 20
221.9216727009539
 30
0.0
 11
167.3068847817146
 21
218.1174466357733
 31
0.0
  0
LINE
  5
4F2
330
18
100
AcDbEntity
  8
目盛
100
AcDbLine
 10
170.2570719501965
 20
221.3045518191537
 30
0.0
 11
169.0606671539713
 21
218.2827782400169
 31
0.0
  0
LINE
  5
4F3
330
18
100
AcDbEntity
  8
目盛
100
AcDbLine
 10
171.929059377728
 20
220.581018249909
 30
0.0
 11
170.5452766801415
 21
217.6403303293944
 31
0.0
  0
LINE
  5
4F4
330
18
100
AcDbEntity
  8
目盛
100
AcDbLine
 10
173.5523164712906
 20
219.7539274496665
 30
0.0
 11
171.98661703046
 21
216.9059307395239
 31
0.0
  0
LINE
  5
4F5
330
18
100
AcDbEntity
  8
目盛
100
AcDbLine
 10
175.1204369767318
 20
218.8265435679529
 30
0.0
 11
173.3789998930501
 21
216.0824778100713
 31
0.0
  0
LINE
  5
4FA
330
18
100
AcDbEntity
  8
目盛
100
AcDbLine
 10
160.4609611765285
 20
222.3272174186349
 30
0.0
 11
160.4138450379113
 21
220.8279575780863
 31
0.0
  0
LINE
  5
4FB
330
18
100
AcDbEntity
  8
目盛
100
AcDbLine
 10
162.2164926952593
 20
222.2167687372807
 30
0.0
 11
162.0753302252815
 21
220.7234257903761
 31
0.0
  0
LINE
  5
4FC
330
18
100
AcDbEntity
  8
目盛
100
AcDbLine
 10
163.9616249434673
 20
221.9963072650583
 30
0.0
 11
163.726973245907
 21
220.5147747541656
 31
0.0
  0
LINE
  5
4FD
330
18
100
AcDbEntity
  8
目盛
100
AcDbLine
 10
165.6894706814441
 20
221.6667030626794
 30
0.0
 11
165.3622558193493
 21
220.2028279197713
 31
0.0
  0
LINE
  5
4FE
330
18
100
AcDbEntity
  8
目盛
100
AcDbLine
 10
167.3932108914393
 20
221.2292569273488
 30
0.0
 11
166.9747242323805
 21
219.7888163988334
 31
0.0
  0
LINE
  5
4FF
330
18
100
AcDbEntity
  8
目盛
100
AcDbLine
 10
169.0661216892091
 20
220.6856952591127
 30
0.0
 11
168.5580148088411
 21
219.2743741056814
 31
0.0
  0
LINE
  5
500
330
18
100
AcDbEntity
  8
目盛
100
AcDbLine
 10
170.7016008601148
 20
220.0381632475459
 30
0.0
 11
170.1058790241626
 21
218.66153130902
 31
0.0
  0
LINE
  5
501
330
18
100
AcDbEntity
  8
目盛
100
AcDbLine
 10
172.2931939150482
 20
219.2892164056687
 30
0.0
 11
171.6122081654389
 21
217.9527066193862
 31
0.0
  0
LINE
  5
502
330
18
100
AcDbEntity
  8
目盛
100
AcDbLine
 10
173.8346195633513
 20
218.4418104845049
 30
0.0
 11
173.0710574397258
 21
217.1506974439989
 31
0.0
  0
LINE
  5
503
330
18
100
AcDbEntity
  8
目盛
100
AcDbLine
 10
175.3197945022006
 20
217.4992898080822
 30
0.0
 11
174.4766694354224
 21
216.2586689466703
 31
0.0
  0
LINE
  5
505
330
18
100
AcDbEntity
  8
目盛
100
AcDbLine
 10
176.7428574246243
 20
216.4653740749137
 30
0.0
 11
175.8234968441447
 21
215.2801415563502
 31
0.0
  0
LINE
  5
506
330
18
100
AcDbEntity
  8
目盛
100
AcDbLine
 10
178.0667556250529
 20
216.6859177688923
 30
0.0
 11
175.9951276583696
 21
214.181749729871
 31
0.0
  0
LINE
  5
507
330
18
100
AcDbEntity
  8
目盛
100
AcDbLine
 10
176.6272322388225
 20
217.8025265652679
 30
0.0
 11
174.2760912296527
 21
214.5664585877681
 31
0.0
  0
LINE
  5
508
330
18
100
AcDbEntity
  8
目盛
100
AcDbLine
 10
181.7058002688602
 20
211.5024312306778
 30
0.0
 11
180.5205677502966
 21
210.5830706501983
 31
0.0
  0
LINE
  5
509
330
18
100
AcDbEntity
  8
目盛
100
AcDbLine
 10
180.5845698719938
 20
212.8577659574567
 30
0.0
 11
179.4594032675481
 21
211.8657981594712
 31
0.0
  0
LINE
  5
50A
330
18
100
AcDbEntity
  8
目盛
100
AcDbLine
 10
179.3804497955642
 20
214.1400236016178
 30
0.0
 11
178.3197896237844
 21
213.0793634298379
 31
0.0
  0
LINE
  5
50B
330
18
100
AcDbEntity
  8
目盛
100
AcDbLine
 10
178.0981921514031
 20
215.3441436780473
 30
0.0
 11
177.1062243534177
 21
214.2189770736016
 31
0.0
  0
LINE
  5
50C
330
18
100
AcDbEntity
  8
目盛
100
AcDbLine
 10
184.0669697618992
 20
209.8800107827853
 30
0.0
 11
181.3229040040177
 21
208.1385736991036
 31
0.0
  0
LINE
  5
50D
330
18
100
AcDbEntity
  8
目盛
100
AcDbLine
 10
181.9263439628387
 20
212.8263294311064
 30
0.0
 11
179.4221759238174
 21
210.7547014644232
 31
0.0
  0
LINE
  5
50E
330
18
100
AcDbEntity
  8
目盛
100
AcDbLine
 10
180.7215501175618
 20
214.1928998003264
 30
0.0
 11
178.3524020784422
 21
211.9681217060582
 31
0.0
  0
LINE
  5
50F
330
18
100
AcDbEntity
  8
目盛
100
AcDbLine
 10
179.4333259942729
 20
215.4811239236154
 30
0.0
 11
177.2085479000046
 21
213.1119758844957
 31
0.0
  0
LINE
  5
510
330
18
100
AcDbEntity
  8
目盛
100
AcDbLine
 10
183.0429527592143
 20
211.3868060448762
 30
0.0
 11
179.8068847817146
 21
209.0356650357062
 31
0.0
  0
LINE
  5
511
330
18
100
AcDbEntity
  8
目盛
100
AcDbLine
 10
182.7397160020285
 20
210.0793683082541
 30
0.0
 11
181.4990951406167
 21
209.2362432414759
 31
0.0
  0
LINE
  5
512
330
18
100
AcDbEntity
  8
目盛
100
AcDbLine
 10
186.5449780131001
 20
205.0166457562501
 30
0.0
 11
183.5232044339633
 21
203.8202409600249
 31
0.0
  0
LINE
  5
513
330
18
100
AcDbEntity
  8
目盛
100
AcDbLine
 10
185.2785894414924
 20
205.4611746661683
 30
0.0
 11
183.9019575029664
 21
204.8654528302161
 31
0.0
  0
LINE
  5
514
330
18
100
AcDbEntity
  8
目盛
100
AcDbLine
 10
184.5296425996151
 20
207.0527677211017
 30
0.0
 11
183.1931328133327
 21
206.3717819714924
 31
0.0
  0
LINE
  5
515
330
18
100
AcDbEntity
  8
目盛
100
AcDbLine
 10
183.6822366784513
 20
208.5941933694048
 30
0.0
 11
182.3911236379453
 21
207.8306312457793
 31
0.0
  0
LINE
  5
516
330
18
100
AcDbEntity
  8
目盛
100
AcDbLine
 10
185.8214444438555
 20
206.6886331837815
 30
0.0
 11
182.8807565233409
 21
205.304850486195
 31
0.0
  0
LINE
  5
517
330
18
100
AcDbEntity
  8
目盛
100
AcDbLine
 10
184.9943536436129
 20
208.3118902773442
 30
0.0
 11
182.1463569334703
 21
206.7461908365136
 31
0.0
  0
LINE
  5
518
330
18
100
AcDbEntity
  8
目盛
100
AcDbLine
 10
185.9261214530592
 20
203.8256954952625
 30
0.0
 11
184.5148002996278
 21
203.3175886148947
 31
0.0
  0
LINE
  5
519
330
18
100
AcDbEntity
  8
目盛
100
AcDbLine
 10
186.4696831212952
 20
202.1527846974929
 30
0.0
 11
185.0292425927799
 21
201.734298038434
 31
0.0
  0
LINE
  5
51A
330
18
100
AcDbEntity
  8
目盛
100
AcDbLine
 10
187.6703715950712
 20
201.5530404561753
 30
0.0
 11
184.5224763214031
 21
200.7447983228894
 31
0.0
  0
LINE
  5
51B
330
18
100
AcDbEntity
  8
目盛
100
AcDbLine
 10
187.1620988949003
 20
203.3025265652679
 30
0.0
 11
183.3578728297197
 21
202.0664585877681
 31
0.0
  0
LINE
  5
51C
330
18
100
AcDbEntity
  8
目盛
100
AcDbLine
 10
187.5676436125813
 20
195.220534982582
 30
0.0
 11
186.0683837720328
 21
195.1734188439648
 31
0.0
  0
LINE
  5
51D
330
18
100
AcDbEntity
  8
目盛
100
AcDbLine
 10
187.4571949312271
 20
196.9760665013128
 30
0.0
 11
185.9638519843225
 21
196.834904031335
 31
0.0
  0
LINE
  5
51E
330
18
100
AcDbEntity
  8
目盛
100
AcDbLine
 10
187.2367334590047
 20
198.7211987495209
 30
0.0
 11
185.7552009481121
 21
198.4865470519605
 31
0.0
  0
LINE
  5
51F
330
18
100
AcDbEntity
  8
目盛
100
AcDbLine
 10
186.9071292566258
 20
200.4490444874976
 30
0.0
 11
185.4432541137177
 21
200.1218296254028
 31
0.0
  0
LINE
  5
520
330
18
100
AcDbEntity
  8
目盛
100
AcDbLine
 10
188.5242350467607
 20
192.5201086620444
 30
0.0
 11
185.2806481793689
 21
192.7241778505146
 31
0.0
  0
LINE
  5
521
330
18
100
AcDbEntity
  8
目盛
100
AcDbLine
 10
188.5242350467607
 20
196.1619587947445
 30
0.0
 11
185.2806481793689
 21
195.9578896062743
 31
0.0
  0
LINE
  5
522
330
18
100
AcDbEntity
  8
目盛
100
AcDbLine
 10
188.3527862604608
 20
197.9756975017592
 30
0.0
 11
185.1284134811886
 21
197.5683644926753
 31
0.0
  0
LINE
  5
523
330
18
100
AcDbEntity
  8
目盛
100
AcDbLine
 10
188.0677901934729
 20
199.7750918513805
 30
0.0
 11
184.8753566286046
 21
199.1661025789768
 31
0.0
  0
LINE
  5
524
330
18
100
AcDbEntity
  8
目盛
100
AcDbLine
 10
188.5814599223408
 20
194.3410337283944
 30
0.0
 11
184.5814599223409
 21
194.3410337283944
 31
0.0
  0
LINE
  5
525
330
18
100
AcDbEntity
  8
目盛
100
AcDbLine
 10
187.5676436125814
 20
193.4615324742068
 30
0.0
 11
186.0683837720328
 21
193.508648612824
 31
0.0
  0
LINE
  5
526
330
18
100
AcDbEntity
  8
目盛
100
AcDbLine
 10
187.6703715950712
 20
187.1290270006136
 30
0.0
 11
184.5224763214031
 21
187.9372691338994
 31
0.0
  0
LINE
  5
527
330
18
100
AcDbEntity
  8
目盛
100
AcDbLine
 10
186.9071292566258
 20
188.2330229692912
 30
0.0
 11
185.4432541137176
 21
188.560237831386
 31
0.0
  0
LINE
  5
528
330
18
100
AcDbEntity
  8
目盛
100
AcDbLine
 10
187.2367334590046
 20
189.9608687072679
 30
0.0
 11
185.755200948112
 21
190.1955204048283
 31
0.0
  0
LINE
  5
529
330
18
100
AcDbEntity
  8
目盛
100
AcDbLine
 10
187.4571949312271
 20
191.706000955476
 30
0.0
 11
185.9638519843225
 21
191.8471634254538
 31
0.0
  0
LINE
  5
52A
330
18
100
AcDbEntity
  8
目盛
100
AcDbLine
 10
188.0677901934729
 20
188.9069756054084
 30
0.0
 11
184.8753566286046
 21
189.515964877812
 31
0.0
  0
LINE
  5
52B
330
18
100
AcDbEntity
  8
目盛
100
AcDbLine
 10
188.3527862604608
 20
190.7063699550296
 30
0.0
 11
185.1284134811886
 21
191.1137029641136
 31
0.0
  0
LINE
  5
52C
330
18
100
AcDbEntity
  8
目盛
100
AcDbLine
 10
186.4696831212952
 20
186.529282759296
 30
0.0
 11
185.0292425927798
 21
186.9477694183548
 31
0.0
  0
LINE
  5
52D
330
18
100
AcDbEntity
  8
目盛
100
AcDbLine
 10
185.9261214530592
 20
184.8563719615262
 30
0.0
 11
184.5148002996279
 21
185.3644788418941
 31
0.0
  0
LINE
  5
52E
330
18
100
AcDbEntity
  8
目盛
100
AcDbLine
 10
186.5449780131002
 20
183.6654217005387
 30
0.0
 11
183.5232044339633
 21
184.8618264967639
 31
0.0
  0
LINE
  5
52F
330
18
100
AcDbEntity
  8
目盛
100
AcDbLine
 10
187.1620988949003
 20
185.3795408915209
 30
0.0
 11
183.3578728297197
 21
186.6156088690207
 31
0.0
  0
LINE
  5
530
330
18
100
AcDbEntity
  8
目盛
100
AcDbLine
 10
182.7397160020286
 20
178.6026991485347
 30
0.0
 11
181.4990951406167
 21
179.4458242153129
 31
0.0
  0
LINE
  5
531
330
18
100
AcDbEntity
  8
目盛
100
AcDbLine
 10
183.6822366784513
 20
180.0878740873839
 30
0.0
 11
182.3911236379453
 21
180.8514362110095
 31
0.0
  0
LINE
  5
532
330
18
100
AcDbEntity
  8
目盛
100
AcDbLine
 10
184.5296425996151
 20
181.6292997356871
 30
0.0
 11
183.1931328133326
 21
182.3102854852964
 31
0.0
  0
LINE
  5
533
330
18
100
AcDbEntity
  8
目盛
100
AcDbLine
 10
185.2785894414924
 20
183.2208927906205
 30
0.0
 11
183.9019575029663
 21
183.8166146265727
 31
0.0
  0
LINE
  5
534
330
18
100
AcDbEntity
  8
目盛
100
AcDbLine
 10
181.9263439628387
 20
175.8557380256824
 30
0.0
 11
179.4221759238174
 21
177.9273659923656
 31
0.0
  0
LINE
  5
535
330
18
100
AcDbEntity
  8
目盛
100
AcDbLine
 10
184.0669697618993
 20
178.8020566740035
 30
0.0
 11
181.3229040040178
 21
180.5434937576853
 31
0.0
  0
LINE
  5
536
330
18
100
AcDbEntity
  8
目盛
100
AcDbLine
 10
184.9943536436129
 20
180.3701771794446
 30
0.0
 11
182.1463569334703
 21
181.9358766202752
 31
0.0
  0
LINE
  5
537
330
18
100
AcDbEntity
  8
目盛
100
AcDbLine
 10
185.8214444438555
 20
181.9934342730072
 30
0.0
 11
182.8807565233409
 21
183.3772169705937
 31
0.0
  0
LINE
  5
538
330
18
100
AcDbEntity
  8
目盛
100
AcDbLine
 10
183.0429527592143
 20
177.2952614119127
 30
0.0
 11
179.8068847817146
 21
179.6464024210825
 31
0.0
  0
LINE
  5
539
330
18
100
AcDbEntity
  8
目盛
100
AcDbLine
 10
181.7058002688602
 20
177.179636226111
 30
0.0
 11
180.5205677502966
 21
178.0989968065905
 31
0.0
  0
LINE
  5
53A
330
18
100
AcDbEntity
  8
目盛
100
AcDbLine
 10
178.0667556250529
 20
171.9961496878965
 30
0.0
 11
175.9951276583696
 21
174.5003177269178
 31
0.0
  0
LINE
  5
53B
330
18
100
AcDbEntity
  8
目盛
100
AcDbLine
 10
178.0981921514031
 20
173.3379237787415
 30
0.0
 11
177.1062243534176
 21
174.4630903831872
 31
0.0
  0
LINE
  5
53C
330
18
100
AcDbEntity
  8
目盛
100
AcDbLine
 10
179.3804497955641
 20
174.542043855171
 30
0.0
 11
178.3197896237844
 21
175.6027040269509
 31
0.0
  0
LINE
  5
53D
330
18
100
AcDbEntity
  8
目盛
100
AcDbLine
 10
180.5845698719937
 20
175.8243014993321
 30
0.0
 11
179.459403267548
 21
176.8162692973176
 31
0.0
  0
LINE
  5
53E
330
18
100
AcDbEntity
  8
目盛
100
AcDbLine
 10
179.4333259942729
 20
173.2009435331734
 30
0.0
 11
177.2085479000046
 21
175.5700915722931
 31
0.0
  0
LINE
  5
53F
330
18
100
AcDbEntity
  8
目盛
100
AcDbLine
 10
180.7215501175618
 20
174.4891676564624
 30
0.0
 11
178.3524020784422
 21
176.7139457507306
 31
0.0
  0
LINE
  5
540
330
18
100
AcDbEntity
  8
目盛
100
AcDbLine
 10
176.7428574246242
 20
172.2166933818751
 30
0.0
 11
175.8234968441447
 21
173.4019259004386
 31
0.0
  0
LINE
  5
541
330
18
100
AcDbEntity
  8
目盛
100
AcDbLine
 10
175.3197945022005
 20
171.1827776487067
 30
0.0
 11
174.4766694354223
 21
172.4233985101185
 31
0.0
  0
LINE
  5
542
330
18
100
AcDbEntity
  8
目盛
100
AcDbLine
 10
175.1204369767318
 20
169.855523888836
 30
0.0
 11
173.37899989305
 21
172.5995896467175
 31
0.0
  0
LINE
  5
543
330
18
100
AcDbEntity
  8
目盛
100
AcDbLine
 10
176.6272322388225
 20
170.8795408915209
 30
0.0
 11
174.2760912296527
 21
174.1156088690208
 31
0.0
  0
LINE
  5
544
330
18
100
AcDbEntity
  8
目盛
100
AcDbLine
 10
169.066121689209
 20
167.9963721976761
 30
0.0
 11
168.5580148088411
 21
169.4076933511075
 31
0.0
  0
LINE
  5
545
330
18
100
AcDbEntity
  8
目盛
100
AcDbLine
 10
170.7016008601147
 20
168.6439042092429
 30
0.0
 11
170.1058790241625
 21
170.0205361477689
 31
0.0
  0
LINE
  5
546
330
18
100
AcDbEntity
  8
目盛
100
AcDbLine
 10
172.2931939150481
 20
169.3928510511201
 30
0.0
 11
171.6122081654388
 21
170.7293608374027
 31
0.0
  0
LINE
  5
547
330
18
100
AcDbEntity
  8
目盛
100
AcDbLine
 10
173.8346195633512
 20
170.240256972284
 30
0.0
 11
173.0710574397257
 21
171.5313700127899
 31
0.0
  0
LINE
  5
548
330
18
100
AcDbEntity
  8
目盛
100
AcDbLine
 10
166.7934666501216
 20
166.2521220556641
 30
0.0
 11
165.9852245168359
 21
169.4000173293322
 31
0.0
  0
LINE
  5
549
330
18
100
AcDbEntity
  8
目盛
100
AcDbLine
 10
170.2570719501965
 20
167.3775156376351
 30
0.0
 11
169.0606671539713
 21
170.399289216772
 31
0.0
  0
LINE
  5
54A
330
18
100
AcDbEntity
  8
目盛
100
AcDbLine
 10
171.9290593777279
 20
168.1010492068798
 30
0.0
 11
170.5452766801415
 21
171.0417371273944
 31
0.0
  0
LINE
  5
54B
330
18
100
AcDbEntity
  8
目盛
100
AcDbLine
 10
173.5523164712906
 20
168.9281400071223
 30
0.0
 11
171.98661703046
 21
171.7761367172649
 31
0.0
  0
LINE
  5
54C
330
18
100
AcDbEntity
  8
目盛
100
AcDbLine
 10
168.5429527592143
 20
166.7603947558349
 30
0.0
 11
167.3068847817145
 21
170.5646208210156
 31
0.0
  0
LINE
  5
54D
330
18
100
AcDbEntity
  8
目盛
100
AcDbLine
 10
167.3932108914392
 20
167.45281052944
 30
0.0
 11
166.9747242323804
 21
168.8932510579554
 31
0.0
  0
LINE
  5
54E
330
18
100
AcDbEntity
  8
目盛
100
AcDbLine
 10
161.402384988691
 20
165.3982586039745
 30
0.0
 11
161.1983158002206
 21
168.6418454713664
 31
0.0
  0
LINE
  5
54F
330
18
100
AcDbEntity
  8
目盛
100
AcDbLine
 10
162.2164926952592
 20
166.4652987195082
 30
0.0
 11
162.0753302252815
 21
167.9586416664128
 31
0.0
  0
LINE
  5
550
330
18
100
AcDbEntity
  8
目盛
100
AcDbLine
 10
163.9616249434673
 20
166.6857601917306
 30
0.0
 11
163.7269732459069
 21
168.1672927026233
 31
0.0
  0
LINE
  5
551
330
18
100
AcDbEntity
  8
目盛
100
AcDbLine
 10
165.689470681444
 20
167.0153643941095
 30
0.0
 11
165.3622558193492
 21
168.4792395370176
 31
0.0
  0
LINE
  5
552
330
18
100
AcDbEntity
  8
目盛
100
AcDbLine
 10
163.2161236957057
 20
165.5697073902745
 30
0.0
 11
162.8087906866217
 21
168.7940801695466
 31
0.0
  0
LINE
  5
553
330
18
100
AcDbEntity
  8
目盛
100
AcDbLine
 10
165.0155180453269
 20
165.8547034572624
 30
0.0
 11
164.4065287729232
 21
169.0471370221307
 31
0.0
  0
LINE
  5
554
330
18
100
AcDbEntity
  8
目盛
100
AcDbLine
 10
160.4609611765284
 20
166.3548500381539
 30
0.0
 11
160.4138450379112
 21
167.8541098787025
 31
0.0
  0
LINE
  5
555
330
18
100
AcDbEntity
  8
目盛
100
AcDbLine
 10
158.7019586681532
 20
166.3548500381539
 30
0.0
 11
158.7490748067704
 21
167.8541098787025
 31
0.0
  0
LINE
  5
556
330
18
100
AcDbEntity
  8
目盛
100
AcDbLine
 10
157.7605348559907
 20
165.3982586039745
 30
0.0
 11
157.964604044461
 21
168.6418454713664
 31
0.0
  0
LINE
  5
557
330
18
100
AcDbEntity
  8
目盛
100
AcDbLine
 10
159.5814599223408
 20
165.3410337283944
 30
0.0
 11
159.5814599223408
 21
169.3410337283944
 31
0.0
  0
LINE
  5
558
330
18
100
AcDbEntity
  8
目盛
100
AcDbLine
 10
151.7697089532424
 20
167.45281052944
 30
0.0
 11
152.1881956123012
 21
168.8932510579554
 31
0.0
  0
LINE
  5
559
330
18
100
AcDbEntity
  8
目盛
100
AcDbLine
 10
153.4734491632376
 20
167.0153643941095
 30
0.0
 11
153.8006640253323
 21
168.4792395370176
 31
0.0
  0
LINE
  5
55A
330
18
100
AcDbEntity
  8
目盛
100
AcDbLine
 10
155.2012949012144
 20
166.6857601917305
 30
0.0
 11
155.4359465987747
 21
168.1672927026232
 31
0.0
  0
LINE
  5
55B
330
18
100
AcDbEntity
  8
目盛
100
AcDbLine
 10
156.9464271494224
 20
166.4652987195082
 30
0.0
 11
157.0875896194002
 21
167.9586416664128
 31
0.0
  0
LINE
  5
55C
330
18
100
AcDbEntity
  8
目盛
100
AcDbLine
 10
148.9058478944852
 20
167.3775156376351
 30
0.0
 11
150.1022526907104
 21
170.3992892167719
 31
0.0
  0
LINE
  5
55D
330
18
100
AcDbEntity
  8
目盛
100
AcDbLine
 10
152.36945319456
 20
166.2521220556641
 30
0.0
 11
153.1776953278458
 21
169.4000173293322
 31
0.0
  0
LINE
  5
55E
330
18
100
AcDbEntity
  8
目盛
100
AcDbLine
 10
154.1474017993548
 20
165.8547034572624
 30
0.0
 11
154.7563910717584
 21
169.0471370221307
 31
0.0
  0
LINE
  5
55F
330
18
100
AcDbEntity
  8
目盛
100
AcDbLine
 10
155.9467961489759
 20
165.5697073902745
 30
0.0
 11
156.35412915806
 21
168.7940801695466
 31
0.0
  0
LINE
  5
560
330
18
100
AcDbEntity
  8
目盛
100
AcDbLine
 10
150.6199670854673
 20
166.7603947558349
 30
0.0
 11
151.8560350629671
 21
170.5646208210156
 31
0.0
  0
LINE
  5
561
330
18
100
AcDbEntity
  8
目盛
100
AcDbLine
 10
150.0967981554726
 20
167.9963721976761
 30
0.0
 11
150.6049050358406
 21
169.4076933511075
 31
0.0
  0
LINE
  5
562
330
18
100
AcDbEntity
  8
目盛
100
AcDbLine
 10
144.0424828679499
 20
169.855523888836
 30
0.0
 11
145.7839199516316
 21
172.5995896467175
 31
0.0
  0
LINE
  5
563
330
18
100
AcDbEntity
  8
目盛
100
AcDbLine
 10
145.3283002813304
 20
170.240256972284
 30
0.0
 11
146.0918624049559
 21
171.5313700127899
 31
0.0
  0
LINE
  5
564
330
18
100
AcDbEntity
  8
目盛
100
AcDbLine
 10
146.8697259296335
 20
169.3928510511202
 30
0.0
 11
147.5507116792428
 21
170.7293608374027
 31
0.0
  0
LINE
  5
565
330
18
100
AcDbEntity
  8
目盛
100
AcDbLine
 10
148.4613189845669
 20
168.643904209243
 30
0.0
 11
149.0570408205191
 21
170.0205361477689
 31
0.0
  0
LINE
  5
566
330
18
100
AcDbEntity
  8
目盛
100
AcDbLine
 10
145.6106033733911
 20
168.9281400071223
 30
0.0
 11
147.1763028142217
 21
171.7761367172649
 31
0.0
  0
LINE
  5
567
330
18
100
AcDbEntity
  8
目盛
100
AcDbLine
 10
147.2338604669537
 20
168.1010492068798
 30
0.0
 11
148.6176431645402
 21
171.0417371273944
 31
0.0
  0
LINE
  5
568
330
18
100
AcDbEntity
  8
目盛
100
AcDbLine
 10
143.8431253424811
 20
171.1827776487067
 30
0.0
 11
144.6862504092593
 21
172.4233985101185
 31
0.0
  0
LINE
  5
569
330
18
100
AcDbEntity
  8
目盛
100
AcDbLine
 10
142.4200624200575
 20
172.2166933818751
 30
0.0
 11
143.3394230005369
 21
173.4019259004386
 31
0.0
  0
LINE
  5
56A
330
18
100
AcDbEntity
  8
目盛
100
AcDbLine
 10
141.0961642196288
 20
171.9961496878965
 30
0.0
 11
143.1677921863121
 21
174.5003177269179
 31
0.0
  0
LINE
  5
56B
330
18
100
AcDbEntity
  8
目盛
100
AcDbLine
 10
142.5356876058591
 20
170.8795408915209
 30
0.0
 11
144.886828615029
 21
174.1156088690208
 31
0.0
  0
LINE
  5
56C
330
18
100
AcDbEntity
  8
目盛
100
AcDbLine
 10
137.4571195758216
 20
177.1796362261111
 30
0.0
 11
138.6423520943851
 21
178.0989968065905
 31
0.0
  0
LINE
  5
56D
330
18
100
AcDbEntity
  8
目盛
100
AcDbLine
 10
138.578349972688
 20
175.8243014993322
 30
0.0
 11
139.7035165771336
 21
176.8162692973176
 31
0.0
  0
LINE
  5
56E
330
18
100
AcDbEntity
  8
目盛
100
AcDbLine
 10
139.7824700491175
 20
174.5420438551711
 30
0.0
 11
140.8431302208973
 21
175.6027040269509
 31
0.0
  0
LINE
  5
56F
330
18
100
AcDbEntity
  8
目盛
100
AcDbLine
 10
141.0647276932786
 20
173.3379237787415
 30
0.0
 11
142.056695491264
 21
174.4630903831872
 31
0.0
  0
LINE
  5
570
330
18
100
AcDbEntity
  8
目盛
100
AcDbLine
 10
135.0959500827824
 20
178.8020566740035
 30
0.0
 11
137.840015840664
 21
180.5434937576853
 31
0.0
  0
LINE
  5
571
330
18
100
AcDbEntity
  8
目盛
100
AcDbLine
 10
137.236575881843
 20
175.8557380256824
 30
0.0
 11
139.7407439208643
 21
177.9273659923657
 31
0.0
  0
LINE
  5
572
330
18
100
AcDbEntity
  8
目盛
100
AcDbLine
 10
138.4413697271199
 20
174.4891676564625
 30
0.0
 11
140.8105177662395
 21
176.7139457507307
 31
0.0
  0
LINE
  5
573
330
18
100
AcDbEntity
  8
目盛
100
AcDbLine
 10
139.7295938504088
 20
173.2009435331735
 30
0.0
 11
141.9543719446771
 21
175.5700915722931
 31
0.0
  0
LINE
  5
574
330
18
100
AcDbEntity
  8
目盛
100
AcDbLine
 10
136.1199670854674
 20
177.2952614119127
 30
0.0
 11
139.3560350629672
 21
179.6464024210826
 31
0.0
  0
LINE
  5
575
330
18
100
AcDbEntity
  8
目盛
100
AcDbLine
 10
136.4232038426531
 20
178.6026991485348
 30
0.0
 11
137.6638247040649
 21
179.445824215313
 31
0.0
  0
LINE
  5
576
330
18
100
AcDbEntity
  8
目盛
100
AcDbLine
 10
132.6179418315815
 20
183.6654217005388
 30
0.0
 11
135.6397154107184
 21
184.861826496764
 31
0.0
  0
LINE
  5
577
330
18
100
AcDbEntity
  8
目盛
100
AcDbLine
 10
133.8843304031894
 20
183.2208927906206
 30
0.0
 11
135.2609623417153
 21
183.8166146265727
 31
0.0
  0
LINE
  5
578
330
18
100
AcDbEntity
  8
目盛
100
AcDbLine
 10
134.6332772450666
 20
181.6292997356872
 30
0.0
 11
135.9697870313491
 21
182.3102854852964
 31
0.0
  0
LINE
  5
579
330
18
100
AcDbEntity
  8
目盛
100
AcDbLine
 10
135.4806831662304
 20
180.0878740873841
 30
0.0
 11
136.7717962067364
 21
180.8514362110095
 31
0.0
  0
LINE
  5
57A
330
18
100
AcDbEntity
  8
目盛
100
AcDbLine
 10
133.3414754008263
 20
181.9934342730073
 30
0.0
 11
136.2821633213409
 21
183.3772169705938
 31
0.0
  0
LINE
  5
57B
330
18
100
AcDbEntity
  8
目盛
100
AcDbLine
 10
134.1685662010688
 20
180.3701771794447
 30
0.0
 11
137.0165629112113
 21
181.9358766202753
 31
0.0
  0
LINE
  5
57C
330
18
100
AcDbEntity
  8
目盛
100
AcDbLine
 10
133.2367983916226
 20
184.8563719615263
 30
0.0
 11
134.6481195450538
 21
185.3644788418942
 31
0.0
  0
LINE
  5
57D
330
18
100
AcDbEntity
  8
目盛
100
AcDbLine
 10
132.6932367233864
 20
186.529282759296
 30
0.0
 11
134.1336772519019
 21
186.9477694183549
 31
0.0
  0
LINE
  5
57E
330
18
100
AcDbEntity
  8
目盛
100
AcDbLine
 10
131.4925482496105
 20
187.1290270006137
 30
0.0
 11
134.6404435232785
 21
187.9372691338995
 31
0.0
  0
LINE
  5
57F
330
18
100
AcDbEntity
  8
目盛
100
AcDbLine
 10
132.0008209497814
 20
185.379540891521
 30
0.0
 11
135.805047014962
 21
186.6156088690208
 31
0.0
  0
LINE
  5
580
330
18
100
AcDbEntity
  8
目盛
100
AcDbLine
 10
131.5952762321004
 20
193.4615324742068
 30
0.0
 11
133.094536072649
 21
193.508648612824
 31
0.0
  0
LINE
  5
581
330
18
100
AcDbEntity
  8
目盛
100
AcDbLine
 10
131.7057249134546
 20
191.7060009554761
 30
0.0
 11
133.1990678603592
 21
191.8471634254539
 31
0.0
  0
LINE
  5
582
330
18
100
AcDbEntity
  8
目盛
100
AcDbLine
 10
131.926186385677
 20
189.960868707268
 30
0.0
 11
133.4077188965697
 21
190.1955204048283
 31
0.0
  0
LINE
  5
583
330
18
100
AcDbEntity
  8
目盛
100
AcDbLine
 10
132.2557905880559
 20
188.2330229692913
 30
0.0
 11
133.719665730964
 21
188.5602378313861
 31
0.0
  0
LINE
  5
584
330
18
100
AcDbEntity
  8
目盛
100
AcDbLine
 10
130.638684797921
 20
196.1619587947445
 30
0.0
 11
133.8822716653129
 21
195.9578896062743
 31
0.0
  0
LINE
  5
585
330
18
100
AcDbEntity
  8
目盛
100
AcDbLine
 10
130.638684797921
 20
192.5201086620444
 30
0.0
 11
133.8822716653129
 21
192.7241778505146
 31
0.0
  0
LINE
  5
586
330
18
100
AcDbEntity
  8
目盛
100
AcDbLine
 10
130.810133584221
 20
190.7063699550296
 30
0.0
 11
134.034506363493
 21
191.1137029641136
 31
0.0
  0
LINE
  5
587
330
18
100
AcDbEntity
  8
目盛
100
AcDbLine
 10
131.0951296512089
 20
188.9069756054084
 30
0.0
 11
134.2875632160771
 21
189.5159648778121
 31
0.0
  0
LINE
  5
588
330
18
100
AcDbEntity
  8
目盛
100
AcDbLine
 10
130.5814599223408
 20
194.3410337283945
 30
0.0
 11
134.5814599223408
 21
194.3410337283945
 31
0.0
  0
LINE
  5
589
330
18
100
AcDbEntity
  8
目盛
100
AcDbLine
 10
131.5952762321004
 20
195.2205349825821
 30
0.0
 11
133.0945360726489
 21
195.1734188439649
 31
0.0
  0
LINE
  5
58A
330
18
100
AcDbEntity
  8
目盛
100
AcDbLine
 10
131.4925482496105
 20
201.5530404561753
 30
0.0
 11
134.6404435232786
 21
200.7447983228896
 31
0.0
  0
LINE
  5
58B
330
18
100
AcDbEntity
  8
目盛
100
AcDbLine
 10
132.2557905880559
 20
200.4490444874977
 30
0.0
 11
133.719665730964
 21
200.1218296254029
 31
0.0
  0
LINE
  5
58C
330
18
100
AcDbEntity
  8
目盛
100
AcDbLine
 10
131.926186385677
 20
198.7211987495209
 30
0.0
 11
133.4077188965697
 21
198.4865470519606
 31
0.0
  0
LINE
  5
58D
330
18
100
AcDbEntity
  8
目盛
100
AcDbLine
 10
131.7057249134546
 20
196.9760665013129
 30
0.0
 11
133.1990678603592
 21
196.8349040313351
 31
0.0
  0
LINE
  5
58E
330
18
100
AcDbEntity
  8
目盛
100
AcDbLine
 10
131.0951296512089
 20
199.7750918513805
 30
0.0
 11
134.2875632160771
 21
199.1661025789769
 31
0.0
  0
LINE
  5
58F
330
18
100
AcDbEntity
  8
目盛
100
AcDbLine
 10
130.810133584221
 20
197.9756975017593
 30
0.0
 11
134.034506363493
 21
197.5683644926753
 31
0.0
  0
LINE
  5
590
330
18
100
AcDbEntity
  8
目盛
100
AcDbLine
 10
132.6932367233864
 20
202.1527846974929
 30
0.0
 11
134.1336772519019
 21
201.7342980384341
 31
0.0
  0
LINE
  5
591
330
18
100
AcDbEntity
  8
目盛
100
AcDbLine
 10
133.2367983916225
 20
203.8256954952627
 30
0.0
 11
134.6481195450538
 21
203.3175886148947
 31
0.0
  0
LINE
  5
592
330
18
100
AcDbEntity
  8
目盛
100
AcDbLine
 10
132.6179418315815
 20
205.0166457562501
 30
0.0
 11
135.6397154107184
 21
203.820240960025
 31
0.0
  0
LINE
  5
593
330
18
100
AcDbEntity
  8
目盛
100
AcDbLine
 10
132.0008209497814
 20
203.302526565268
 30
0.0
 11
135.805047014962
 21
202.0664585877682
 31
0.0
  0
LINE
  5
594
330
18
100
AcDbEntity
  8
目盛
100
AcDbLine
 10
136.4232038426531
 20
210.0793683082541
 30
0.0
 11
137.6638247040649
 21
209.236243241476
 31
0.0
  0
LINE
  5
595
330
18
100
AcDbEntity
  8
目盛
100
AcDbLine
 10
135.4806831662304
 20
208.5941933694049
 30
0.0
 11
136.7717962067363
 21
207.8306312457793
 31
0.0
  0
LINE
  5
596
330
18
100
AcDbEntity
  8
目盛
100
AcDbLine
 10
134.6332772450665
 20
207.0527677211018
 30
0.0
 11
135.9697870313491
 21
206.3717819714924
 31
0.0
  0
LINE
  5
597
330
18
100
AcDbEntity
  8
目盛
100
AcDbLine
 10
133.8843304031894
 20
205.4611746661684
 30
0.0
 11
135.2609623417153
 21
204.8654528302162
 31
0.0
  0
LINE
  5
598
330
18
100
AcDbEntity
  8
目盛
100
AcDbLine
 10
137.2365758818429
 20
212.8263294311065
 30
0.0
 11
139.7407439208642
 21
210.7547014644232
 31
0.0
  0
LINE
  5
599
330
18
100
AcDbEntity
  8
目盛
100
AcDbLine
 10
135.0959500827824
 20
209.8800107827854
 30
0.0
 11
137.8400158406639
 21
208.1385736991036
 31
0.0
  0
LINE
  5
59A
330
18
100
AcDbEntity
  8
目盛
100
AcDbLine
 10
134.1685662010688
 20
208.3118902773442
 30
0.0
 11
137.0165629112113
 21
206.7461908365137
 31
0.0
  0
LINE
  5
59B
330
18
100
AcDbEntity
  8
目盛
100
AcDbLine
 10
133.3414754008262
 20
206.6886331837816
 30
0.0
 11
136.2821633213408
 21
205.3048504861951
 31
0.0
  0
LINE
  5
59C
330
18
100
AcDbEntity
  8
目盛
100
AcDbLine
 10
136.1199670854673
 20
211.3868060448762
 30
0.0
 11
139.3560350629672
 21
209.0356650357063
 31
0.0
  0
LINE
  5
59D
330
18
100
AcDbEntity
  8
目盛
100
AcDbLine
 10
137.4571195758215
 20
211.5024312306779
 30
0.0
 11
138.6423520943851
 21
210.5830706501984
 31
0.0
  0
LINE
  5
59E
330
18
100
AcDbEntity
  8
目盛
100
AcDbLine
 10
141.0961642196288
 20
216.6859177688924
 30
0.0
 11
143.1677921863121
 21
214.1817497298711
 31
0.0
  0
LINE
  5
59F
330
18
100
AcDbEntity
  8
目盛
100
AcDbLine
 10
141.0647276932786
 20
215.3441436780473
 30
0.0
 11
142.056695491264
 21
214.2189770736017
 31
0.0
  0
LINE
  5
5A0
330
18
100
AcDbEntity
  8
目盛
100
AcDbLine
 10
139.7824700491176
 20
214.1400236016178
 30
0.0
 11
140.8431302208973
 21
213.079363429838
 31
0.0
  0
LINE
  5
5A1
330
18
100
AcDbEntity
  8
目盛
100
AcDbLine
 10
138.578349972688
 20
212.8577659574567
 30
0.0
 11
139.7035165771336
 21
211.8657981594712
 31
0.0
  0
LINE
  5
5A2
330
18
100
AcDbEntity
  8
目盛
100
AcDbLine
 10
139.7295938504089
 20
215.4811239236154
 30
0.0
 11
141.9543719446771
 21
213.1119758844958
 31
0.0
  0
LINE
  5
5A3
330
18
100
AcDbEntity
  8
目盛
100
AcDbLine
 10
138.4413697271199
 20
214.1928998003265
 30
0.0
 11
140.8105177662395
 21
211.9681217060582
 31
0.0
  0
LINE
  5
5A4
330
18
100
AcDbEntity
  8
目盛
100
AcDbLine
 10
142.4200624200575
 20
216.4653740749138
 30
0.0
 11
143.3394230005369
 21
215.2801415563503
 31
0.0
  0
LINE
  5
5A5
330
18
100
AcDbEntity
  8
目盛
100
AcDbLine
 10
143.8431253424812
 20
217.4992898080822
 30
0.0
 11
144.6862504092594
 21
216.2586689466704
 31
0.0
  0
LINE
  5
5A6
330
18
100
AcDbEntity
  8
目盛
100
AcDbLine
 10
144.0424828679499
 20
218.8265435679529
 30
0.0
 11
145.7839199516318
 21
216.0824778100714
 31
0.0
  0
LINE
  5
5A7
330
18
100
AcDbEntity
  8
目盛
100
AcDbLine
 10
142.5356876058591
 20
217.802526565268
 30
0.0
 11
144.886828615029
 21
214.5664585877681
 31
0.0
  0
LINE
  5
5A8
330
18
100
AcDbEntity
  8
目盛
100
AcDbLine
 10
150.0967981554727
 20
220.6856952591128
 30
0.0
 11
150.6049050358407
 21
219.2743741056814
 31
0.0
  0
LINE
  5
5A9
330
18
100
AcDbEntity
  8
目盛
100
AcDbLine
 10
148.461318984567
 20
220.038163247546
 30
0.0
 11
149.0570408205192
 21
218.66153130902
 31
0.0
  0
LINE
  5
5AA
330
18
100
AcDbEntity
  8
目盛
100
AcDbLine
 10
146.8697259296336
 20
219.2892164056687
 30
0.0
 11
147.5507116792429
 21
217.9527066193862
 31
0.0
  0
LINE
  5
5AB
330
18
100
AcDbEntity
  8
目盛
100
AcDbLine
 10
145.3283002813305
 20
218.4418104845049
 30
0.0
 11
146.0918624049561
 21
217.150697443999
 31
0.0
  0
LINE
  5
5AC
330
18
100
AcDbEntity
  8
目盛
100
AcDbLine
 10
152.3694531945601
 20
222.4299454011248
 30
0.0
 11
153.1776953278458
 21
219.2820501274567
 31
0.0
  0
LINE
  5
5AD
330
18
100
AcDbEntity
  8
目盛
100
AcDbLine
 10
148.9058478944853
 20
221.3045518191537
 30
0.0
 11
150.1022526907104
 21
218.282778240017
 31
0.0
  0
LINE
  5
5AE
330
18
100
AcDbEntity
  8
目盛
100
AcDbLine
 10
147.2338604669538
 20
220.581018249909
 30
0.0
 11
148.6176431645402
 21
217.6403303293945
 31
0.0
  0
LINE
  5
5AF
330
18
100
AcDbEntity
  8
目盛
100
AcDbLine
 10
145.6106033733911
 20
219.7539274496666
 30
0.0
 11
147.1763028142217
 21
216.905930739524
 31
0.0
  0
LINE
  5
5B0
330
18
100
AcDbEntity
  8
目盛
100
AcDbLine
 10
150.6199670854674
 20
221.9216727009539
 30
0.0
 11
151.8560350629672
 21
218.1174466357733
 31
0.0
  0
LINE
  5
5B1
330
18
100
AcDbEntity
  8
目盛
100
AcDbLine
 10
151.7697089532425
 20
221.2292569273489
 30
0.0
 11
152.1881956123013
 21
219.7888163988335
 31
0.0
  0
LINE
  5
5B2
330
18
100
AcDbEntity
  8
目盛
100
AcDbLine
 10
157.7605348559908
 20
223.2838088528144
 30
0.0
 11
157.9646040444611
 21
220.0402219854225
 31
0.0
  0
LINE
  5
5B3
330
18
100
AcDbEntity
  8
目盛
100
AcDbLine
 10
156.9464271494225
 20
222.2167687372807
 30
0.0
 11
157.0875896194003
 21
220.7234257903761
 31
0.0
  0
LINE
  5
5B4
330
18
100
AcDbEntity
  8
目盛
100
AcDbLine
 10
155.2012949012145
 20
221.9963072650583
 30
0.0
 11
155.4359465987747
 21
220.5147747541656
 31
0.0
  0
LINE
  5
5B5
330
18
100
AcDbEntity
  8
目盛
100
AcDbLine
 10
153.4734491632377
 20
221.6667030626794
 30
0.0
 11
153.8006640253325
 21
220.2028279197713
 31
0.0
  0
LINE
  5
5B6
330
18
100
AcDbEntity
  8
目盛
100
AcDbLine
 10
155.9467961489761
 20
223.1123600665143
 30
0.0
 11
156.35412915806
 21
219.8879872872423
 31
0.0
  0
LINE
  5
5B7
330
18
100
AcDbEntity
  8
目盛
100
AcDbLine
 10
154.1474017993549
 20
222.8273639995265
 30
0.0
 11
154.7563910717585
 21
219.6349304346582
 31
0.0
  0
LINE
  5
5B8
330
18
100
AcDbEntity
  8
目盛
100
AcDbLine
 10
158.7019586681533
 20
222.327217418635
 30
0.0
 11
158.7490748067705
 21
220.8279575780864
 31
0.0
  0
TEXT
  5
5BC
330
18
100
AcDbEntity
  8
文字
100
AcDbText
 10
158.1377128268747
 20
214.8446411047617
 30
0.0
 40
3.0
  1
0
  7
STYLE3
100
AcDbText
  0
TEXT
  5
5BD
330
18
100
AcDbEntity
  8
文字
100
AcDbText
 10
171.4709817516165
 20
210.1922086030039
 30
0.0
 40
3.0
  1
1
  7
STYLE3
100
AcDbText
  0
TEXT
  5
5BE
330
18
100
AcDbEntity
  8
文字
100
AcDbText
 10
179.4074520260518
 20
199.618499811025
 30
0.0
 40
3.0
  1
2
  7
STYLE3
100
AcDbText
  0
TEXT
  5
5BF
330
18
100
AcDbEntity
  8
文字
100
AcDbText
 10
178.9841720963355
 20
186.0841522142615
 30
0.0
 40
3.0
  1
3
  7
STYLE3
100
AcDbText
  0
TEXT
  5
5C0
330
18
100
AcDbEntity
  8
文字
100
AcDbText
 10
171.0477029582099
 20
175.0874954927947
 30
0.0
 40
3.0
  1
4
  7
STYLE3
100
AcDbText
  0
TEXT
  5
5C1
330
18
100
AcDbEntity
  8
文字
100
AcDbText
 10
158.2435328093037
 20
170.6465372856179
 30
0.0
 40
3.0
  1
5
  7
STYLE3
100
AcDbText
  0
TEXT
  5
5C2
330
18
100
AcDbEntity
  8
文字
100
AcDbText
 10
145.9684591636134
 20
174.7702840509233
 30
0.0
 40
3.0
  1
6
  7
STYLE3
100
AcDbText
  0
TEXT
  5
5C3
330
18
100
AcDbEntity
  8
文字
100
AcDbText
 10
137.2912535574136
 20
185.2382556956119
 30
0.0
 40
3.0
  1
7
  7
STYLE3
100
AcDbText
  0
TEXT
  5
5C4
330
18
100
AcDbEntity
  8
文字
100
AcDbText
 10
136.973795882746
 20
199.6184998110249
 30
0.0
 40
3.0
  1
8
  7
STYLE3
100
AcDbText
  0
TEXT
  5
5C5
330
18
100
AcDbEntity
  8
文字
100
AcDbText
 10
145.3335426779682
 20
210.6151571921656
 30
0.0
 40
3.0
  1
9
  7
STYLE3
100
AcDbText
  0
TEXT
  5
5CB
330
18
100
AcDbEntity
  8
文字
100
AcDbText
 10
154.6638108598309
 20
179.8553809453975
 30
0.0
 40
1.5
  1
0.05mm
  7
STYLE3
100
AcDbText
  0
TEXT
  5
5CC
330
18
100
AcDbEntity
  8
文字
100
AcDbText
 10
156.5951613281773
 20
182.3685326120119
 30
0.0
 40
2.0
  1
J-B
  7
STYLE3
100
AcDbText
  0
TEXT
  5
5D2
330
18
100
AcDbEntity
  8
文字
100
AcDbText
 10
151.3927375522811
 20
203.8394008334034
 30
0.0
 40
1.5
  1
MADE IN JAPAN
  7
STYLE3
100
AcDbText
  0
INSERT
  5
629
330
18
100
AcDbEntity
  8
文字
100
AcDbBlockReference
  2
ROGO
 10
149.68323679196
 20
206.3410337283944
 30
0.0
 41
0.5
 42
0.5
 43
0.5
  0
LINE
  5
65B
330
18
100
AcDbEntity
  8
中心線
100
AcDbLine
 10
193.4926489305578
 20
171.9851331547697
 30
0.0
 11
223.2862360229995
 21
204.3537534696171
 31
0.0
  0
LINE
  5
65C
330
18
100
AcDbEntity
  8
想像線
100
AcDbLine
 10
197.1063475519788
 20
178.052412564692
 30
0.0
 11
218.2541544735434
 21
201.0276518303054
 31
0.0
  0
LINE
  5
65D
330
18
100
AcDbEntity
  8
想像線
100
AcDbLine
 10
199.2401094545306
 20
176.0884726106155
 30
0.0
 11
220.3879163760953
 21
199.0637118762289
 31
0.0
  0
LINE
  5
65E
330
18
100
AcDbEntity
  8
外形線
100
AcDbLine
 10
200.5779575588138
 20
177.0990174147991
 30
0.0
 11
219.6779889384448
 21
197.8494099241326
 31
0.0
  0
LINE
  5
65F
330
18
100
AcDbEntity
  8
外形線
100
AcDbLine
 10
198.0027276764237
 20
179.4692897731674
 30
0.0
 11
217.1027590560546
 21
200.2196822825009
 31
0.0
  0
LINE
  5
660
330
18
100
AcDbEntity
  8
中心線
100
AcDbLine
 10
194.4333751322986
 20
177.3181566392792
 30
0.0
 11
198.8746552613738
 21
173.2303493341126
 31
0.0
  0
CIRCLE
  5
661
330
18
100
AcDbEntity
  8
外形線
100
AcDbCircle
 10
196.5814599223408
 20
175.3410337283944
 30
0.0
 40
1.0
  0
CIRCLE
  5
662
330
18
100
AcDbEntity
  8
外形線
100
AcDbCircle
 10
196.5814599223408
 20
175.3410337283944
 30
0.0
 40
2.0
  0
LINE
  5
663
330
18
100
AcDbEntity
  8
外形線
100
AcDbLine
 10
198.0027276764237
 20
179.4692897731674
 30
0.0
 11
200.5779575588138
 21
177.0990174147991
 31
0.0
  0
LINE
  5
664
330
18
100
AcDbEntity
  8
中心線
100
AcDbLine
 10
218.9511719024854
 20
203.9547888797904
 30
0.0
 11
223.3924520315607
 21
199.8669815746238
 31
0.0
  0
CIRCLE
  5
665
330
18
100
AcDbEntity
  8
外形線
100
AcDbCircle
 10
221.0992566925277
 20
201.9776659689055
 30
0.0
 40
2.0
  0
LINE
  5
666
330
18
100
AcDbEntity
  8
外形線
100
AcDbLine
 10
217.1027590560546
 20
200.2196822825009
 30
0.0
 11
219.6779889384448
 21
197.8494099241326
 31
0.0
  0
CIRCLE
  5
667
330
18
100
AcDbEntity
  8
外形線
100
AcDbCircle
 10
221.0992566925277
 20
201.9776659689055
 30
0.0
 40
1.0
  0
CIRCLE
  5
668
330
18
100
AcDbEntity
  8
外形線
100
AcDbCircle
 10
219.5814599223409
 20
167.3410337283944
 30
0.0
 40
5.0
  0
LINE
  5
66A
330
18
100
AcDbEntity
  8
外形線
100
AcDbLine
 10
46.31235845805252
 20
116.0705889678727
 30
0.0
 11
46.31235845805252
 21
114.0708524256947
 31
0.0
  0
LINE
  5
66B
330
18
100
AcDbEntity
  8
外形線
100
AcDbLine
 10
39.71235845805252
 20
116.0705889678727
 30
0.0
 11
39.71235845805258
 21
114.0708524256947
 31
0.0
  0
LINE
  5
66C
330
18
100
AcDbEntity
  8
外形線
100
AcDbLine
 10
50.31235845805253
 20
129.976031642629
 30
0.0
 11
50.31235845805253
 21
114.0708524256947
 31
0.0
  0
LINE
  5
66D
330
18
100
AcDbEntity
  8
外形線
100
AcDbLine
 10
35.71235845805251
 20
132.3618952214248
 30
0.0
 11
35.71235845805251
 21
114.0708524256947
 31
0.0
  0
LINE
  5
66F
330
18
100
AcDbEntity
  8
外形線
100
AcDbLine
 10
50.31235845805253
 20
116.8410337283944
 30
0.0
 11
46.31235845805252
 21
116.8410337283944
 31
0.0
  0
LINE
  5
670
330
18
100
AcDbEntity
  8
外形線
100
AcDbLine
 10
39.71235845805251
 20
116.8410337283944
 30
0.0
 11
35.71235845805251
 21
116.8410337283944
 31
0.0
  0
DIMENSION
  5
689
330
18
100
AcDbEntity
  8
外形線
100
AcDbDimension
  2
*D8
 10
68.9635406210574
 20
161.3410337283944
 30
0.0
 11
67.08854062105737
 21
194.3410337283944
 31
0.0
 70
    32
  1
φ66
 71
     5
 42
66.00000000000003
  3
STYLE3
100
AcDbAlignedDimension
 13
52.01235845805252
 23
227.3410337283945
 33
0.0
 14
52.01235845805252
 24
161.3410337283944
 34
0.0
 50
90.0
100
AcDbRotatedDimension
1001
ACAD
1000
DSTYLE
1002
{
1070
   271
1070
     2
1002
}
  0
LINE
  5
7AE
330
18
100
AcDbEntity
  8
外形線
100
AcDbLine
 10
46.51235845805252
 20
80.34103372839449
 30
0.0
 11
46.51235845805252
 21
68.84103372839442
 31
0.0
  0
LINE
  5
7AF
330
18
100
AcDbEntity
  8
外形線
100
AcDbLine
 10
39.51235845805252
 20
80.34103372839449
 30
0.0
 11
39.51235845805252
 21
68.84103372839442
 31
0.0
  0
ARC
  5
7B0
330
18
100
AcDbEntity
  8
外形線
100
AcDbCircle
 10
43.01235845805251
 20
68.84103372839442
 30
0.0
 40
3.5
100
AcDbArc
 50
180.0
 51
0.0
  0
LINE
  5
7B2
330
18
100
AcDbEntity
  8
寸法線
100
AcDbLine
 10
45.01235845805251
 20
226.7324864683803
 30
0.0
 11
52.01235845805252
 21
226.7324864683802
 31
0.0
  0
LINE
  5
7B3
330
18
100
AcDbEntity
  8
寸法線
100
AcDbLine
 10
45.01235845805251
 20
225.2386946629675
 30
0.0
 11
52.01235845805252
 21
225.2386946629674
 31
0.0
  0
LINE
  5
7B4
330
18
100
AcDbEntity
  8
寸法線
100
AcDbLine
 10
45.01235845805251
 20
223.4129492713406
 30
0.0
 11
52.01235845805252
 21
223.4129492713405
 31
0.0
  0
LINE
  5
7B5
330
18
100
AcDbEntity
  8
寸法線
100
AcDbLine
 10
45.01235845805251
 20
221.5872038797138
 30
0.0
 11
52.01235845805252
 21
221.5872038797138
 31
0.0
  0
LINE
  5
7B6
330
18
100
AcDbEntity
  8
寸法線
100
AcDbLine
 10
45.01235845805251
 20
219.0975506482091
 30
0.0
 11
52.01235845805252
 21
219.097550648209
 31
0.0
  0
LINE
  5
7B7
330
18
100
AcDbEntity
  8
寸法線
100
AcDbLine
 10
45.01235845805251
 20
216.1099677048334
 30
0.0
 11
52.01235845805252
 21
216.1099677048333
 31
0.0
  0
LINE
  5
7B8
330
18
100
AcDbEntity
  8
寸法線
100
AcDbLine
 10
45.01235845805251
 20
212.1265226679159
 30
0.0
 11
52.01235845805252
 21
212.1265226679158
 31
0.0
  0
LINE
  5
7B9
330
18
100
AcDbEntity
  8
寸法線
100
AcDbLine
 10
45.01235845805251
 20
207.9771015053414
 30
0.0
 11
52.01235845805252
 21
207.9771015053413
 31
0.0
  0
LINE
  5
7BA
330
18
100
AcDbEntity
  8
寸法線
100
AcDbLine
 10
45.01235845805251
 20
203.6617028822099
 30
0.0
 11
52.01235845805252
 21
203.6617028822098
 31
0.0
  0
LINE
  5
7BB
330
18
100
AcDbEntity
  8
寸法線
100
AcDbLine
 10
45.01235845805251
 20
199.1803274659714
 30
0.0
 11
52.01235845805252
 21
199.1803274659713
 31
0.0
  0
LINE
  5
7BC
330
18
100
AcDbEntity
  8
外形線
100
AcDbLine
 10
45.01235845805251
 20
227.0157946303506
 30
0.0
 11
41.01235845805251
 21
227.0157946303505
 31
0.0
  0
LINE
  5
7C0
330
18
100
AcDbEntity
  8
外形線
100
AcDbLine
 10
51.51235845805252
 20
241.6087373488757
 30
0.0
 11
51.51235845805253
 21
227.3410337283945
 31
0.0
  0
LINE
  5
7C1
330
18
100
AcDbEntity
  8
外形線
100
AcDbLine
 10
53.11235845805251
 20
241.6087373488757
 30
0.0
 11
53.11235845805251
 21
226.2410337283945
 31
0.0
  0
LINE
  5
7C2
330
18
100
AcDbEntity
  8
中心線
 48
0.7
100
AcDbLine
 10
48.41278619077022
 20
238.6087373488757
 30
0.0
 11
73.95911327077522
 21
238.6087373488757
 31
0.0
  0
LINE
  5
7C3
330
18
100
AcDbEntity
  8
外形線
100
AcDbLine
 10
51.51235845805252
 20
241.6087373488757
 30
0.0
 11
68.11235845805249
 21
241.6087373488757
 31
0.0
  0
LINE
  5
7C4
330
18
100
AcDbEntity
  8
外形線
100
AcDbLine
 10
53.11235845805249
 20
235.6087373488757
 30
0.0
 11
68.11235845805249
 21
235.6087373488757
 31
0.0
  0
LINE
  5
7C5
330
18
100
AcDbEntity
  8
外形線
100
AcDbLine
 10
54.61235845805251
 20
241.6087373488757
 30
0.0
 11
54.61235845805251
 21
235.6087373488757
 31
0.0
  0
ARC
  5
7C7
330
18
100
AcDbEntity
  8
外形線
100
AcDbCircle
 10
68.11235845805251
 20
238.6087373488757
 30
0.0
 40
3.0
100
AcDbArc
 50
270.0
 51
90.0
  0
LINE
  5
7C8
330
18
100
AcDbEntity
  8
中心線
 48
0.3
100
AcDbLine
 10
46.32227472256071
 20
167.3410337283944
 30
0.0
 11
59.22899450457137
 21
167.3410337283944
 31
0.0
  0
LINE
  5
7CA
330
18
100
AcDbEntity
  8
外形線
100
AcDbLine
 10
222.7457183516151
 20
171.2123989388553
 30
0.0
 11
215.71009471188
 21
164.1767752991201
 31
0.0
  0
LINE
  5
7CB
330
18
100
AcDbEntity
  8
外形線
100
AcDbLine
 10
223.4528251328017
 20
170.5052921576687
 30
0.0
 11
216.4172014930666
 21
163.4696685179336
 31
0.0
  0
LINE
  5
7CC
330
18
100
AcDbEntity
  8
外形線
100
AcDbLine
 10
54.11235845805251
 20
173.3410337283944
 30
0.0
 11
54.11235845805251
 21
160.3410337283944
 31
0.0
  0
LINE
  5
7CD
330
18
100
AcDbEntity
  8
外形線
100
AcDbLine
 10
57.11235845805251
 20
171.8410337283944
 30
0.0
 11
57.11235845805251
 21
167.8410337283944
 31
0.0
  0
LINE
  5
7CF
330
18
100
AcDbEntity
  8
外形線
100
AcDbLine
 10
53.1123584580525
 20
160.3410337283944
 30
0.0
 11
54.11235845805252
 21
160.3410337283944
 31
0.0
  0
LINE
  5
7D1
330
18
100
AcDbEntity
  8
外形線
100
AcDbLine
 10
54.11235845805251
 20
172.3410337283944
 30
0.0
 11
56.61235845805251
 21
172.3410337283944
 31
0.0
  0
LINE
  5
7D2
330
18
100
AcDbEntity
  8
外形線
100
AcDbLine
 10
54.11235845805251
 20
162.3410337283944
 30
0.0
 11
56.61235845805251
 21
162.3410337283944
 31
0.0
  0
LINE
  5
7D3
330
18
100
AcDbEntity
  8
外形線
100
AcDbLine
 10
56.61235845805251
 20
172.3410337283945
 30
0.0
 11
56.61235845805249
 21
167.8410337283944
 31
0.0
  0
LINE
  5
7D4
330
18
100
AcDbEntity
  8
外形線
100
AcDbLine
 10
55.9123584580525
 20
167.8410337283944
 30
0.0
 11
55.9123584580525
 21
166.8410337283944
 31
0.0
  0
LINE
  5
7D5
330
18
100
AcDbEntity
  8
外形線
100
AcDbLine
 10
55.9123584580525
 20
167.8410337283944
 30
0.0
 11
57.11235845805251
 21
167.8410337283944
 31
0.0
  0
LINE
  5
7D6
330
18
100
AcDbEntity
  8
外形線
100
AcDbLine
 10
55.9123584580525
 20
166.8410337283944
 30
0.0
 11
57.11235845805251
 21
166.8410337283944
 31
0.0
  0
LINE
  5
7D7
330
18
100
AcDbEntity
  8
外形線
100
AcDbLine
 10
56.61235845805249
 20
166.8410337283944
 30
0.0
 11
56.61235845805251
 21
162.3410337283944
 31
0.0
  0
LINE
  5
7D8
330
18
100
AcDbEntity
  8
外形線
100
AcDbLine
 10
57.11235845805251
 20
166.8410337283944
 30
0.0
 11
57.11235845805251
 21
162.8410337283944
 31
0.0
  0
LINE
  5
7D9
330
18
100
AcDbEntity
  8
外形線
100
AcDbLine
 10
56.61235845805251
 20
162.3410337283944
 30
0.0
 11
57.11235845805251
 21
162.8410337283944
 31
0.0
  0
LINE
  5
7DA
330
18
100
AcDbEntity
  8
外形線
100
AcDbLine
 10
56.61235845805251
 20
172.3410337283944
 30
0.0
 11
57.11235845805251
 21
171.8410337283944
 31
0.0
  0
LINE
  5
7E4
330
18
100
AcDbEntity
  8
中心線
100
AcDbLine
 10
150.8333335719593
 20
98.34103372839448
 30
0.0
 11
157.2115542031614
 21
98.34103372839448
 31
0.0
  0
CIRCLE
  5
7E6
330
18
100
AcDbEntity
  8
寸法線
100
AcDbCircle
 10
154.1814599223409
 20
98.34103372839448
 30
0.0
 40
1.5
  0
CIRCLE
  5
7E8
330
18
100
AcDbEntity
  8
外形線
100
AcDbCircle
 10
154.1814599223409
 20
98.34103372839448
 30
0.0
 40
0.8
  0
LINE
  5
7E9
330
18
100
AcDbEntity
  8
中心線
100
AcDbLine
 10
45.64235715446523
 20
98.34103372839448
 30
0.0
 11
52.71698804507048
 21
98.34103372839448
 31
0.0
  0
LINE
  5
7EA
330
18
100
AcDbEntity
  8
外形線
100
AcDbLine
 10
51.51235845805253
 20
161.3410337283944
 30
0.0
 11
51.51235845805254
 21
129.976031642629
 31
0.0
  0
LINE
  5
7EB
330
18
100
AcDbEntity
  8
外形線
100
AcDbLine
 10
53.11235845805252
 20
162.4410337283944
 30
0.0
 11
53.11235845805249
 21
129.976031642629
 31
0.0
  0
LINE
  5
7EC
330
18
100
AcDbEntity
  8
外形線
100
AcDbLine
 10
51.51235845805254
 20
135.3618952214247
 30
0.0
 11
45.01235845805253
 21
135.3618952214248
 31
0.0
  0
LINE
  5
7ED
330
18
100
AcDbEntity
  8
外形線
100
AcDbLine
 10
53.11235845805248
 20
129.976031642629
 30
0.0
 11
50.31235845805253
 21
129.976031642629
 31
0.0
  0
ARC
  5
7EF
330
18
100
AcDbEntity
  8
外形線
100
AcDbCircle
 10
38.71235845805251
 20
132.3618952214248
 30
0.0
 40
3.0
100
AcDbArc
 50
89.99999999999991
 51
180.0
  0
LINE
  5
7F0
330
18
100
AcDbEntity
  8
外形線
100
AcDbLine
 10
41.01235845805253
 20
135.3618952214248
 30
0.0
 11
38.71235845805251
 21
135.3618952214248
 31
0.0
  0
LINE
  5
7F1
330
18
100
AcDbEntity
  8
隠れ線
 48
0.5
100
AcDbLine
 10
41.01235845805251
 20
135.3618952214248
 30
0.0
 11
45.01235845805251
 21
135.3618952214248
 31
0.0
  0
LINE
  5
7F2
330
18
100
AcDbEntity
  8
中心線
100
AcDbLine
 10
59.06196382649707
 20
201.9776659689055
 30
0.0
 11
51.21268178519824
 21
201.9776659689055
 31
0.0
  0
LINE
  5
7F3
330
18
100
AcDbEntity
  8
中心線
100
AcDbLine
 10
50.52097786346826
 20
175.3410337283944
 30
0.0
 11
58.90578678635313
 21
175.3410337283944
 31
0.0
  0
LINE
  5
7F5
330
18
100
AcDbEntity
  8
外形線
100
AcDbLine
 10
55.5123584580525
 20
203.4776659689055
 30
0.0
 11
55.5123584580525
 21
200.4776659689055
 31
0.0
  0
LINE
  5
7F6
330
18
100
AcDbEntity
  8
外形線
100
AcDbLine
 10
55.01235845805251
 20
203.9776659689055
 30
0.0
 11
55.01235845805249
 21
199.9776659689055
 31
0.0
  0
LINE
  5
7F7
330
18
100
AcDbEntity
  8
外形線
100
AcDbLine
 10
56.31235845805251
 20
203.2276659689055
 30
0.0
 11
56.3123584580525
 21
200.7276659689055
 31
0.0
  0
LINE
  5
7F8
330
18
100
AcDbEntity
  8
外形線
100
AcDbLine
 10
56.31235845805249
 20
202.7276659689055
 30
0.0
 11
55.51235845805249
 21
202.7276659689055
 31
0.0
  0
LINE
  5
7F9
330
18
100
AcDbEntity
  8
外形線
100
AcDbLine
 10
56.31235845805249
 20
201.2276659689055
 30
0.0
 11
55.51235845805249
 21
201.2276659689055
 31
0.0
  0
LINE
  5
7FA
330
18
100
AcDbEntity
  8
外形線
100
AcDbLine
 10
55.01235845805251
 20
203.9776659689055
 30
0.0
 11
54.01235845805252
 21
203.9776659689055
 31
0.0
  0
LINE
  5
7FB
330
18
100
AcDbEntity
  8
外形線
100
AcDbLine
 10
55.01235845805251
 20
199.9776659689055
 30
0.0
 11
54.01235845805252
 21
199.9776659689055
 31
0.0
  0
LINE
  5
7FC
330
18
100
AcDbEntity
  8
外形線
100
AcDbLine
 10
57.37360795765207
 20
203.2276659689055
 30
0.0
 11
56.31235845805249
 21
203.2276659689055
 31
0.0
  0
LINE
  5
7FD
330
18
100
AcDbEntity
  8
外形線
100
AcDbLine
 10
57.37360795765209
 20
200.7276659689055
 30
0.0
 11
56.31235845805249
 21
200.7276659689055
 31
0.0
  0
ARC
  5
7FF
330
18
100
AcDbEntity
  8
外形線
100
AcDbCircle
 10
55.8123584580525
 20
201.9776659689055
 30
0.0
 40
2.0
100
AcDbArc
 50
321.3178125465105
 51
38.68218745349063
  0
LINE
  5
800
330
18
100
AcDbEntity
  8
外形線
100
AcDbLine
 10
57.37360795765212
 20
203.2276659689055
 30
0.0
 11
57.37360795765211
 21
200.7276659689055
 31
0.0
  0
LINE
  5
801
330
18
100
AcDbEntity
  8
外形線
100
AcDbLine
 10
55.01235845805251
 20
203.9776659689055
 30
0.0
 11
55.5123584580525
 21
203.4776659689055
 31
0.0
  0
LINE
  5
802
330
18
100
AcDbEntity
  8
外形線
100
AcDbLine
 10
55.01235845805251
 20
199.9776659689055
 30
0.0
 11
55.5123584580525
 21
200.4776659689055
 31
0.0
  0
LINE
  5
803
330
18
100
AcDbEntity
  8
外形線
100
AcDbLine
 10
55.5123584580525
 20
176.8410337283944
 30
0.0
 11
55.5123584580525
 21
173.8410337283944
 31
0.0
  0
LINE
  5
804
330
18
100
AcDbEntity
  8
外形線
100
AcDbLine
 10
57.37360795765212
 20
176.5910337283945
 30
0.0
 11
57.37360795765211
 21
174.0910337283944
 31
0.0
  0
ARC
  5
805
330
18
100
AcDbEntity
  8
外形線
100
AcDbCircle
 10
55.8123584580525
 20
175.3410337283944
 30
0.0
 40
2.0
100
AcDbArc
 50
321.3178125465105
 51
38.68218745349063
  0
LINE
  5
806
330
18
100
AcDbEntity
  8
外形線
100
AcDbLine
 10
56.31235845805251
 20
176.5910337283945
 30
0.0
 11
56.3123584580525
 21
174.0910337283944
 31
0.0
  0
LINE
  5
807
330
18
100
AcDbEntity
  8
外形線
100
AcDbLine
 10
55.01235845805251
 20
177.3410337283944
 30
0.0
 11
55.01235845805249
 21
173.3410337283944
 31
0.0
  0
LINE
  5
808
330
18
100
AcDbEntity
  8
外形線
100
AcDbLine
 10
55.01235845805251
 20
173.3410337283944
 30
0.0
 11
55.5123584580525
 21
173.8410337283944
 31
0.0
  0
LINE
  5
809
330
18
100
AcDbEntity
  8
外形線
100
AcDbLine
 10
55.01235845805251
 20
173.3410337283944
 30
0.0
 11
54.01235845805252
 21
173.3410337283944
 31
0.0
  0
LINE
  5
80A
330
18
100
AcDbEntity
  8
外形線
100
AcDbLine
 10
57.37360795765209
 20
174.0910337283944
 30
0.0
 11
56.31235845805249
 21
174.0910337283944
 31
0.0
  0
LINE
  5
80B
330
18
100
AcDbEntity
  8
外形線
100
AcDbLine
 10
55.01235845805251
 20
177.3410337283944
 30
0.0
 11
55.5123584580525
 21
176.8410337283944
 31
0.0
  0
LINE
  5
80C
330
18
100
AcDbEntity
  8
外形線
100
AcDbLine
 10
55.01235845805251
 20
177.3410337283944
 30
0.0
 11
54.01235845805252
 21
177.3410337283944
 31
0.0
  0
LINE
  5
80D
330
18
100
AcDbEntity
  8
外形線
100
AcDbLine
 10
57.37360795765207
 20
176.5910337283945
 30
0.0
 11
56.31235845805249
 21
176.5910337283944
 31
0.0
  0
LINE
  5
80E
330
18
100
AcDbEntity
  8
外形線
100
AcDbLine
 10
56.31235845805249
 20
176.0910337283944
 30
0.0
 11
55.51235845805249
 21
176.0910337283944
 31
0.0
  0
LINE
  5
80F
330
18
100
AcDbEntity
  8
外形線
100
AcDbLine
 10
56.31235845805249
 20
174.5910337283944
 30
0.0
 11
55.51235845805249
 21
174.5910337283944
 31
0.0
  0
HATCH
  5
82D
330
18
100
AcDbEntity
  8
針
100
AcDbHatch
 10
0.0
 20
0.0
 30
0.0
210
0.0
220
0.0
230
1.0
  2
SOLID
 70
     1
 71
     0
 91
        1
 92
        7
 72
     1
 73
     1
 93
        7
 10
158.9814599223407
 20
197.515935301663
 42
-0.1415000153291329
 10
158.5196056968128
 20
195.9166179386886
 42
-0.3055181981730818
 10
160.6433141478686
 20
195.9166179386888
 42
-0.1415000153295667
 10
160.1814599223408
 20
197.5159353016683
 42
0.0
 10
159.6814599223409
 20
220.8410337283944
 42
0.0
 10
159.5814599223409
 20
220.8410337283944
 42
0.0
 10
159.4814599223409
 20
220.8410337283945
 42
0.0
 97
        0
 75
     0
 76
     1
 47
0.070338108143851
 98
        1
 10
159.3809965614734
 20
202.7166967552624
450
        0
451
        0
460
0.0
461
0.0
452
        0
462
0.0
453
        0
470

  0
LINE
  5
82E
330
18
100
AcDbEntity
  8
針
100
AcDbLine
 10
158.9814599223408
 20
197.5159353016685
 30
0.0
 11
159.4814599223409
 21
220.8410337283945
 31
0.0
  0
LINE
  5
82F
330
18
100
AcDbEntity
  8
針
100
AcDbLine
 10
160.1814599223408
 20
197.5159353016686
 30
0.0
 11
159.6814599223409
 21
220.8410337283944
 31
0.0
  0
CIRCLE
  5
832
330
18
100
AcDbEntity
  8
針
100
AcDbCircle
 10
159.5814599223409
 20
194.3410337283944
 30
0.0
 40
1.7
  0
CIRCLE
  5
833
330
18
100
AcDbEntity
  8
針
100
AcDbCircle
 10
159.5814599223409
 20
194.3410337283944
 30
0.0
 40
1.9
  0
ARC
  5
834
330
18
100
AcDbEntity
  8
針
100
AcDbCircle
 10
155.9814599223407
 20
197.5159353016686
 30
0.0
 40
3.0
100
AcDbArc
 50
327.7844584318137
 51
0.0
  0
ARC
  5
835
330
18
100
AcDbEntity
  8
針
100
AcDbCircle
 10
163.1814599223408
 20
197.5159353016686
 30
0.0
 40
3.0
100
AcDbArc
 50
180.0
 51
212.2155415681862
  0
CIRCLE
  5
836
330
18
100
AcDbEntity
  8
針
100
AcDbCircle
 10
159.5814599223409
 20
194.3410337283944
 30
0.0
 40
0.475
  0
LINE
  5
83A
330
18
100
AcDbEntity
  8
針
100
AcDbLine
 10
159.5814599223409
 20
220.8410337283944
 30
0.0
 11
159.4814599223409
 21
220.8410337283945
 31
0.0
  0
LINE
  5
83B
330
18
100
AcDbEntity
  8
針
100
AcDbLine
 10
159.5814599223409
 20
220.8410337283944
 30
0.0
 11
159.6814599223409
 21
220.8410337283944
 31
0.0
  0
DIMENSION
  5
851
330
18
100
AcDbEntity
  8
寸法線
100
AcDbDimension
  2
*D13
 10
45.01235845805251
 20
247.0566801809482
 30
0.0
 11
43.01235845805251
 21
248.9316801809482
 31
0.0
 70
    32
 71
     5
 42
4.0
  3
STYLE3
100
AcDbAlignedDimension
 13
41.01235845805251
 23
233.8410337283944
 33
0.0
 14
45.01235845805251
 24
233.8410337283944
 34
0.0
100
AcDbRotatedDimension
1001
ACAD
1000
DSTYLE
1002
{
1070
   271
1070
     2
1002
}
  0
DIMENSION
  5
85E
330
18
100
AcDbEntity
  8
寸法線
100
AcDbDimension
  2
*D14
 10
25.95213521109338
 20
65.34103372839443
 30
0.0
 11
24.07713521109338
 21
149.5910337283944
 31
0.0
 70
    32
  1
166.5
 71
     5
 42
168.4999999999999
  3
STYLE3
100
AcDbAlignedDimension
 13
41.01235845805251
 23
233.8410337283944
 33
0.0
 14
43.01235845805251
 24
65.34103372839442
 34
0.0
 50
90.0
100
AcDbRotatedDimension
1001
ACAD
1000
DSTYLE
1002
{
1070
   271
1070
     2
1002
}
  0
DIMENSION
  5
86B
330
18
100
AcDbEntity
  8
寸法線
100
AcDbDimension
  2
*D15
 10
50.51235845805251
 20
55.59419898091824
 30
0.0
 11
43.01235845805251
 21
57.46919898091824
 31
0.0
 70
    32
 71
     5
 42
15.0
  3
STYLE3
100
AcDbAlignedDimension
 13
35.51235845805252
 23
80.34103372839449
 33
0.0
 14
50.51235845805251
 24
80.34103372839448
 34
0.0
100
AcDbRotatedDimension
1001
ACAD
1000
DSTYLE
1002
{
1070
   271
1070
     2
1002
}
  0
LINE
  5
86C
330
18
100
AcDbEntity
  8
隠れ線
100
AcDbLine
 10
39.01235845805252
 20
106.3410337283944
 30
0.0
 11
39.01235845805251
 21
80.34103372839449
 31
0.0
  0
LINE
  5
86D
330
18
100
AcDbEntity
  8
隠れ線
100
AcDbLine
 10
47.0123584580525
 20
106.3410337283944
 30
0.0
 11
47.01235845805251
 21
80.34103372839449
 31
0.0
  0
LINE
  5
86F
330
18
100
AcDbEntity
  8
想像線
100
AcDbLine
 10
294.1814599223409
 20
169.2274741878629
 30
0.0
 11
294.1814599223409
 21
74.63764881895542
 31
0.0
  0
DIMENSION
  5
87C
330
18
100
AcDbEntity
  8
寸法線
100
AcDbDimension
  2
*D16
 10
294.1814599223409
 20
55.77752306541913
 30
0.0
 11
224.1814599223409
 21
57.65252306541913
 31
0.0
 70
    32
 71
     5
 42
140.0
  3
STYLE3
100
AcDbAlignedDimension
 13
154.1814599223409
 23
74.63764881895542
 33
0.0
 14
294.1814599223409
 24
74.63764881895542
 34
0.0
100
AcDbRotatedDimension
1001
ACAD
1000
DSTYLE
1002
{
1070
   271
1070
     2
1002
}
  0
DIMENSION
  5
889
330
18
100
AcDbEntity
  8
寸法線
100
AcDbDimension
  2
*D17
 10
154.1814599223409
 20
46.76622344970747
 30
0.0
 11
252.1814599223409
 21
48.64122344970747
 31
0.0
 70
    32
 71
     5
 42
196.0
  3
STYLE3
100
AcDbAlignedDimension
 13
350.1814599223409
 23
130.3410337283944
 33
0.0
 14
154.1814599223409
 24
54.52752306541913
 34
0.0
100
AcDbRotatedDimension
1001
ACAD
1000
DSTYLE
1002
{
1070
   271
1070
     2
1002
}
  0
DIMENSION
  5
896
330
18
100
AcDbEntity
  8
寸法線
100
AcDbDimension
  2
*D18
 10
115.9179976057329
 20
194.3410337283944
 30
0.0
 11
114.0429976057329
 21
214.0910337283945
 31
0.0
 70
    32
 71
     5
 42
39.49999999999997
  3
STYLE3
100
AcDbAlignedDimension
 13
150.1814599223409
 23
233.8410337283944
 33
0.0
 14
122.4607833323383
 24
194.3410337283944
 34
0.0
 50
90.0
100
AcDbRotatedDimension
1001
ACAD
1000
DSTYLE
1002
{
1070
   271
1070
     2
1002
}
  0
DIMENSION
  5
8A2
330
18
100
AcDbEntity
  8
寸法線
100
AcDbDimension
  2
*D19
 10
115.9179976057329
 20
157.3410337283944
 30
0.0
 11
114.0429976057329
 21
175.8410337283945
 31
0.0
 70
    32
 71
     5
 42
36.99999999999997
  3
STYLE3
100
AcDbAlignedDimension
 13
122.4607833323383
 23
194.3410337283944
 33
0.0
 14
140.6814599223409
 24
157.3410337283944
 34
0.0
 50
90.0
100
AcDbRotatedDimension
1001
ACAD
1000
DSTYLE
1002
{
1070
    75
1070
     1
1070
   271
1070
     2
1070
   279
1070
     1
1002
}
  0
DIMENSION
  5
8AE
330
18
100
AcDbEntity
  8
寸法線
100
AcDbDimension
  2
*D20
 10
115.9179976057329
 20
106.3410337283944
 30
0.0
 11
114.0429976057329
 21
131.8410337283945
 31
0.0
 70
    32
 71
     5
 42
51.0
  3
STYLE3
100
AcDbAlignedDimension
 13
140.6814599223409
 23
157.3410337283944
 33
0.0
 14
146.1814599223409
 24
106.3410337283944
 34
0.0
 50
90.0
100
AcDbRotatedDimension
1001
ACAD
1000
DSTYLE
1002
{
1070
    75
1070
     1
1070
   271
1070
     2
1070
   279
1070
     1
1002
}
  0
DIMENSION
  5
8BA
330
18
100
AcDbEntity
  8
寸法線
100
AcDbDimension
  2
*D21
 10
115.9179976057329
 20
80.34103372839448
 30
0.0
 11
114.0429976057329
 21
93.3410337283945
 31
0.0
 70
    32
 71
     5
 42
26.0
  3
STYLE3
100
AcDbAlignedDimension
 13
146.1814599223409
 23
106.3410337283944
 33
0.0
 14
146.1814599223409
 24
80.34103372839448
 34
0.0
 50
90.0
100
AcDbRotatedDimension
1001
ACAD
1000
DSTYLE
1002
{
1070
    75
1070
     1
1070
   271
1070
     2
1070
   279
1070
     1
1002
}
  0
DIMENSION
  5
8C7
330
18
100
AcDbEntity
  8
寸法線
100
AcDbDimension
  2
*D22
 10
108.2435606792447
 20
80.34103372839449
 30
0.0
 11
106.3685606792447
 21
157.0910337283945
 31
0.0
 70
    32
 71
     5
 42
153.4999999999999
  3
STYLE3
100
AcDbAlignedDimension
 13
115.9179976057329
 23
233.8410337283944
 33
0.0
 14
114.6679976057329
 24
80.34103372839449
 34
0.0
 50
90.0
100
AcDbRotatedDimension
1001
ACAD
1000
DSTYLE
1002
{
1070
   271
1070
     2
1002
}
  0
LINE
  5
8E0
330
18
100
AcDbEntity
  8
0
  6
ByBlock
 62
     2
100
AcDbLine
 10
144.1814599223409
 20
108.0910337283945
 30
0.0
 11
144.1814599223409
 21
67.37652397303691
 31
0.0
  0
LINE
  5
8E1
330
18
100
AcDbEntity
  8
0
  6
ByBlock
 62
     2
100
AcDbLine
 10
164.1814599223408
 20
108.0910337283945
 30
0.0
 11
164.1814599223408
 21
67.37652397303691
 31
0.0
  0
LINE
  5
8E2
330
18
100
AcDbEntity
  8
0
  6
ByBlock
 62
     2
100
AcDbLine
 10
146.6814599223408
 20
68.62652397303691
 30
0.0
 11
161.6814599223409
 21
68.62652397303691
 31
0.0
  0
INSERT
  5
8E3
330
18
100
AcDbEntity
  8
0
  6
ByBlock
 62
     2
100
AcDbBlockReference
  2
_OPEN
 10
144.1814599223409
 20
68.62652397303691
 30
0.0
 41
2.5
 42
2.5
 43
2.5
 50
180.0
  0
INSERT
  5
8E4
330
18
100
AcDbEntity
  8
0
  6
ByBlock
 62
     2
100
AcDbBlockReference
  2
_OPEN
 10
164.1814599223408
 20
68.62652397303691
 30
0.0
 41
2.5
 42
2.5
 43
2.5
  0
MTEXT
  5
8E5
330
18
100
AcDbEntity
  8
0
  6
ByBlock
 62
     6
100
AcDbMText
 10
155.2519617309996
 20
70.65432506105628
 30
0.0
 40
2.5
 41
0.0
 71
     5
 72
     1
  1
\A1;2-φ20
  7
STYLE3
 73
     1
 44
1.0
  0
POINT
  5
8E6
330
18
100
AcDbEntity
  8
DEFPOINTS
  6
ByBlock
 62
     0
100
AcDbPoint
 10
144.1814599223409
 20
108.0910337283945
 30
0.0
  0
POINT
  5
8E7
330
18
100
AcDbEntity
  8
DEFPOINTS
  6
ByBlock
 62
     0
100
AcDbPoint
 10
164.1814599223408
 20
108.0910337283945
 30
0.0
  0
POINT
  5
8E8
330
18
100
AcDbEntity
  8
DEFPOINTS
  6
ByBlock
 62
     0
100
AcDbPoint
 10
164.1814599223408
 20
68.62652397303691
 30
0.0
  0
POINT
  5
900
330
18
100
AcDbEntity
  8
DEFPOINTS
  6
ByBlock
 62
     0
100
AcDbPoint
 10
145.4314599223408
 20
111.8410337283944
 30
0.0
  0
POINT
  5
901
330
18
100
AcDbEntity
  8
DEFPOINTS
  6
ByBlock
 62
     0
100
AcDbPoint
 10
145.4314599223408
 20
106.8410337283945
 30
0.0
  0
DIMENSION
  5
915
330
18
100
AcDbEntity
  8
寸法線
100
AcDbDimension
  2
*D23
 10
158.1814599223408
 20
240.6461059820924
 30
0.0
 11
154.1814599223409
 21
242.5211059820924
 31
0.0
 70
    32
 71
     5
 42
8.0
  3
STYLE3
100
AcDbAlignedDimension
 13
150.1814599223409
 23
233.8410337283944
 33
0.0
 14
158.1814599223408
 24
233.8410337283944
 34
0.0
100
AcDbRotatedDimension
1001
ACAD
1000
DSTYLE
1002
{
1070
   271
1070
     2
1002
}
  0
DIMENSION
  5
922
330
18
100
AcDbEntity
  8
寸法線
100
AcDbDimension
  2
*D24
 10
188.5814599223408
 20
247.1020543943212
 30
0.0
 11
159.5814599223408
 21
248.9770543943212
 31
0.0
 70
    32
  1
φ<>
 71
     5
 42
58.0
  3
STYLE3
100
AcDbAlignedDimension
 13
130.5814599223408
 23
194.3410337283944
 33
0.0
 14
188.5814599223408
 24
194.3410337283944
 34
0.0
100
AcDbRotatedDimension
1001
ACAD
1000
DSTYLE
1002
{
1070
   271
1070
     2
1002
}
  0
LINE
  5
92E
330
18
100
AcDbEntity
  8
隠れ線
100
AcDbLine
 10
150.1814599223409
 20
106.3410337283944
 30
0.0
 11
150.1814599223409
 21
80.34103372839449
 31
0.0
  0
LINE
  5
92F
330
18
100
AcDbEntity
  8
隠れ線
100
AcDbLine
 10
158.1814599223408
 20
106.3410337283944
 30
0.0
 11
158.1814599223408
 21
80.34103372839449
 31
0.0
  0
LINE
  5
9C0
330
18
100
AcDbEntity
  8
外形線
100
AcDbLine
 10
150.1814599223409
 20
227.8410337283944
 30
0.0
 11
153.7719849030295
 21
227.8410337283944
 31
0.0
  0
TEXT
  5
9C1
330
18
100
AcDbEntity
  8
文字
100
AcDbText
 10
153.2663857073354
 20
228.328541645496
 30
0.0
 40
2.0
  1
0
  7
STYLE3
100
AcDbText
  0
LINE
  5
9E4
330
18
100
AcDbEntity
  8
外形線
100
AcDbLine
 10
53.11235845805251
 20
162.4410337283944
 30
0.0
 11
53.1123584580525
 21
160.3410337283944
 31
0.0
  0
LINE
  5
9E6
330
18
100
AcDbEntity
  8
外形線
100
AcDbLine
 10
199.2814599223408
 20
180.3410337283944
 30
0.0
 11
199.2814599223408
 21
157.3410337283944
 31
0.0
  0
LINE
  5
9E7
330
18
100
AcDbEntity
  8
外形線
100
AcDbLine
 10
211.2884807051599
 20
180.3410337283944
 30
0.0
 11
199.2814599223408
 21
180.3410337283944
 31
0.0
  0
ARC
  5
9E8
330
18
100
AcDbEntity
  8
外形線
100
AcDbCircle
 10
219.5814599223409
 20
167.3410337283944
 30
0.0
 40
13.0
100
AcDbArc
 50
0.0
 51
50.32843985957253
  0
LINE
  5
9E9
330
18
100
AcDbEntity
  8
隠れ線2
100
AcDbLine
 10
211.2884807051599
 20
180.3410337283944
 30
0.0
 11
219.5814599223409
 21
180.3410337283944
 31
0.0
  0
LINE
  5
9EA
330
18
100
AcDbEntity
  8
外形線
100
AcDbLine
 10
199.2814599223408
 20
180.3410337283944
 30
0.0
 11
204.5814599223409
 21
177.3410337283944
 31
0.0
  0
LINE
  5
9EB
330
18
100
AcDbEntity
  8
外形線
100
AcDbLine
 10
232.5814599223408
 20
167.3410337283944
 30
0.0
 11
232.5814599223408
 21
167.3410337283945
 31
0.0
  0
ARC
  5
9F5
330
18
100
AcDbEntity
  8
外形線
100
AcDbCircle
 10
235.5814599223409
 20
167.3410337283945
 30
0.0
 40
3.0
100
AcDbArc
 50
180.0
 51
270.0
  0
ARC
  5
9F7
330
18
100
AcDbEntity
  8
隠れ線2
100
AcDbCircle
 10
219.5814599223409
 20
167.3410337283944
 30
0.0
 40
13.0
100
AcDbArc
 50
50.32843985957253
 51
90.0
  0
LINE
  5
B28
102
{ACAD_REACTORS
330
C84
102
}
330
18
100
AcDbEntity
  8
外形線
100
AcDbLine
 10
197.3141658143612
 20
136.2889595094687
 30
0.0
 11
198.6764029388592
 21
133.9946907127445
 31
0.0
  0
ARC
  5
B2A
102
{ACAD_REACTORS
330
C84
102
}
330
18
100
AcDbEntity
  8
外形線
100
AcDbCircle
 10
219.5814599223409
 20
167.3410337283944
 30
0.0
 40
10.0
100
AcDbArc
 50
332.0338861207421
 51
15.41384454870978
  0
ARC
  5
B2B
102
{ACAD_REACTORS
330
C84
102
}
330
18
100
AcDbEntity
  8
外形線
100
AcDbCircle
 10
311.1559521134464
 20
175.1943693217048
 30
0.0
 40
100.0
100
AcDbArc
 50
139.2583557244446
 51
177.7769124971462
  0
ARC
  5
B30
102
{ACAD_REACTORS
330
C84
102
}
330
18
100
AcDbEntity
  8
外形線
100
AcDbCircle
 10
237.7455463139748
 20
238.6015835828355
 30
0.0
 40
3.0
100
AcDbArc
 50
331.5060410625424
 51
325.3938229975629
  0
ARC
  5
B31
102
{ACAD_REACTORS
330
C84
102
}
330
18
100
AcDbEntity
  8
外形線
100
AcDbCircle
 10
316.9948318182445
 20
189.9422499759852
 30
0.0
 40
90.0
100
AcDbArc
 50
148.348109973133
 51
192.8011021997416
  0
ARC
  5
B32
102
{ACAD_REACTORS
330
C84
102
}
330
18
100
AcDbEntity
  8
外形線
100
AcDbCircle
 10
161.2939875321273
 20
181.5780651029508
 30
0.0
 40
50.0
100
AcDbArc
 50
302.7003533678568
 51
357.9929916142152
  0
ARC
  5
B33
102
{ACAD_REACTORS
330
C84
102
}
330
18
100
AcDbEntity
  8
外形線
100
AcDbCircle
 10
156.1803705258184
 20
216.3390118839692
 30
0.0
 40
90.0
100
AcDbArc
 50
297.1964082064677
 51
323.3784022946931
  0
LINE
  5
B38
102
{ACAD_REACTORS
330
C84
102
}
330
18
100
AcDbEntity
  8
外形線
100
AcDbLine
 10
190.947034665809
 20
129.4053276766873
 30
0.0
 11
198.6764029388592
 21
133.9946907127445
 31
0.0
  0
LINE
  5
B39
102
{ACAD_REACTORS
330
C84
102
}
330
18
100
AcDbEntity
  8
隠れ線2
 48
0.8
100
AcDbLine
 10
189.9163088437424
 20
131.1200779399048
 30
0.0
 11
197.6518741480409
 21
135.7131205038535
 31
0.0
  0
LINE
  5
B47
102
{ACAD_REACTORS
330
C84
102
}
330
18
100
AcDbEntity
  8
外形線
 48
0.5
100
AcDbLine
 10
187.3474427700404
 20
135.4465414974372
 30
0.0
 11
190.9377175563509
 21
129.3998296102292
 31
0.0
  0
ARC
  5
B48
102
{ACAD_REACTORS
330
C84
102
}
330
18
100
AcDbEntity
  8
外形線
100
AcDbCircle
 10
189.926999584831
 20
136.978170251172
 30
0.0
 40
3.0
100
AcDbArc
 50
122.7003533678568
 51
210.7
  0
LINE
  5
B49
102
{ACAD_REACTORS
330
C84
102
}
330
18
100
AcDbEntity
  8
外形線
100
AcDbLine
 10
189.9163088437424
 20
131.1200779399048
 30
0.0
 11
166.6508225360781
 21
119.1632421062083
 31
0.0
  0
LINE
  5
B4A
102
{ACAD_REACTORS
330
C84
102
}
330
18
100
AcDbEntity
  8
外形線
100
AcDbLine
 10
190.8401446841032
 20
129.3461994732985
 30
0.0
 11
167.5650183901955
 21
117.3844093596258
 31
0.0
  0
ARC
  5
B4B
102
{ACAD_REACTORS
330
C84
102
}
330
18
100
AcDbEntity
  8
外形線
100
AcDbCircle
 10
189.9259488299857
 20
131.125032219881
 30
0.0
 40
2.0
100
AcDbArc
 50
297.199999999997
 51
300.7000000000001
  0
ARC
  5
B4C
102
{ACAD_REACTORS
330
C84
102
}
330
18
100
AcDbEntity
  8
外形線
100
AcDbCircle
 10
153.8520805784347
 20
144.0669005583647
 30
0.0
 40
30.0
100
AcDbArc
 50
270.9299999999988
 51
297.199999999997
  0
ARC
  5
B4D
102
{ACAD_REACTORS
330
C84
102
}
330
18
100
AcDbEntity
  8
外形線
100
AcDbCircle
 10
153.8520805784347
 20
144.0669005583647
 30
0.0
 40
28.0
100
AcDbArc
 50
270.9299999999988
 51
297.199999999997
  0
LINE
  5
B50
102
{ACAD_REACTORS
330
C84
102
}
330
18
100
AcDbEntity
  8
外形線
100
AcDbLine
 10
154.3065443592628
 20
116.0705889678727
 30
0.0
 11
154.3390060578934
 21
114.0708524256947
 31
0.0
  0
LINE
  5
B57
102
{ACAD_REACTORS
330
C84
102
}
330
18
100
AcDbEntity
  8
中心線
 48
0.3
100
AcDbLine
 10
179.0508258947378
 20
118.7899814161591
 30
0.0
 11
174.4798466241508
 21
127.6841451490721
 31
0.0
  0
LINE
  5
B58
102
{ACAD_REACTORS
330
C84
102
}
330
18
100
AcDbEntity
  8
隠れ線2
 48
0.3
100
AcDbLine
 10
180.1575082183643
 20
123.8560700686179
 30
0.0
 11
179.243312364247
 21
125.6349028152007
 31
0.0
  0
LINE
  5
C39
330
18
100
AcDbEntity
  8
外形線
100
AcDbLine
 10
35.71235845805251
 20
116.0705889678727
 30
0.0
 11
40.01235845805251
 21
116.0705889678727
 31
0.0
  0
LINE
  5
C3A
330
18
100
AcDbEntity
  8
外形線
100
AcDbLine
 10
35.71235845805251
 20
114.0708524256947
 30
0.0
 11
40.01235845805251
 21
114.0708524256947
 31
0.0
  0
LINE
  5
C3B
330
18
100
AcDbEntity
  8
外形線
100
AcDbLine
 10
46.01235845805251
 20
116.0705889678727
 30
0.0
 11
50.31235845805253
 21
116.0705889678727
 31
0.0
  0
LINE
  5
C3C
330
18
100
AcDbEntity
  8
外形線
100
AcDbLine
 10
46.01235845805251
 20
114.0708524256947
 30
0.0
 11
50.31235845805253
 21
114.0708524256947
 31
0.0
  0
POINT
  5
C81
102
{ACAD_REACTORS
330
C84
102
}
330
18
100
AcDbEntity
  8
外形線
100
AcDbPoint
 10
219.5814599223409
 20
167.3410337283944
 30
0.0
  0
LINE
  5
C95
330
18
100
AcDbEntity
  8
中心線
 48
0.3
100
AcDbLine
 10
232.6700840494919
 20
238.6015835828355
 30
0.0
 11
242.6700840494919
 21
238.6015835828355
 31
0.0
  0
LINE
  5
C96
330
18
100
AcDbEntity
  8
中心線
 48
0.3
100
AcDbLine
 10
237.6700840494919
 20
243.6015835828355
 30
0.0
 11
237.6700840494919
 21
233.6015835828355
 31
0.0
  0
HATCH
  5
CA7
102
{ACAD_REACTORS
330
CA9
102
}
330
18
100
AcDbEntity
  8
寸法線
100
AcDbHatch
 10
0.0
 20
0.0
 30
0.0
210
0.0
220
0.0
230
1.0
  2
ANSI37
 70
     0
 71
     1
 91
        1
 92
        7
 72
     1
 73
     1
 93
        2
 10
130.4659934221502
 20
109.3246428267694
 42
1.0
 10
131.4659934221502
 20
109.3246428267694
 42
1.0
 97
        1
330
CA8
 75
     0
 76
     1
 52
0.0
 41
0.25
 77
     0
 78
     2
 53
45.0
 43
46.67401239080462
 44
34.15263232997444
 45
-0.0220970869120796
 46
0.0220970869120796
 79
     0
 53
135.0
 43
46.67401239080462
 44
34.15263232997444
 45
-0.0220970869120796
 46
-0.0220970869120796
 79
     0
 47
0.0058502203752427
 98
        1
 10
131.1515107546484
 20
109.4415212069635
  0
CIRCLE
  5
CA8
102
{ACAD_REACTORS
330
CA7
330
CA9
102
}
330
18
100
AcDbEntity
  8
寸法線
100
AcDbCircle
 10
130.9659934221502
 20
109.3246428267694
 30
0.0
 40
0.5
  0
DIMENSION
  5
CC8
330
18
100
AcDbEntity
  8
外形線
100
AcDbDimension
  2
*D31
 10
130.9695861457275
 20
109.3410337283944
 30
0.0
 11
130.9695861457274
 21
120.0850813474421
 31
0.0
 70
   160
 71
     5
 42
2.5
  3
STYLE3
100
AcDbAlignedDimension
 13
145.1814599223409
 23
111.8410337283944
 33
0.0
 14
145.4314599223408
 24
109.3410337283944
 34
0.0
 50
90.0
100
AcDbRotatedDimension
1001
ACAD
1000
DSTYLE
1002
{
1070
   344
1005
CFC
1070
   271
1070
     2
1070
   341
1005
0
1002
}
  0
DIMENSION
  5
CED
330
18
100
AcDbEntity
  8
外形線
100
AcDbDimension
  2
*D32
 10
130.9695861457274
 20
106.8410337283945
 30
0.0
 11
129.0945861457274
 21
98.59698610934687
 31
0.0
 70
    32
 71
     5
 42
2.499999999999971
  3
STYLE3
100
AcDbAlignedDimension
 13
145.4314599223408
 23
109.3410337283944
 33
0.0
 14
145.4314599223408
 24
106.8410337283945
 34
0.0
 50
90.0
100
AcDbRotatedDimension
1001
ACAD
1000
DSTYLE
1002
{
1070
   343
1005
CFC
1070
   271
1070
     2
1070
   341
1005
0
1002
}
  0
LINE
  5
D46
330
18
100
AcDbEntity
  8
外形線
100
AcDbLine
 10
107.6692379248623
 20
269.6357093932773
 30
0.0
 11
215.6692379248623
 21
269.6357093932773
 31
0.0
  0
LINE
  5
D47
330
18
100
AcDbEntity
  8
外形線
100
AcDbLine
 10
107.6692379248623
 20
268.6357093932774
 30
0.0
 11
215.6692379248623
 21
268.6357093932774
 31
0.0
  0
TEXT
  5
D48
330
18
100
AcDbEntity
  8
文字
100
AcDbText
 10
108.5382809248623
 20
271.7926603932773
 30
0.0
 40
4.0
  1
Model No.J-B Dial Thickness Gauge
  7
STYLE3
100
AcDbText
  0
LINE
  5
D4C
330
18
100
AcDbEntity
  8
外形線
100
AcDbLine
 10
236.6038529248623
 20
20.89298839327733
 30
0.0
 11
377.3952709248623
 21
20.89298839327733
 31
0.0
  0
LINE
  5
D4D
330
18
100
AcDbEntity
  8
外形線
100
AcDbLine
 10
236.6038529248623
 20
10.11278239327733
 30
0.0
 11
377.3952709248623
 21
10.11278239327733
 31
0.0
  0
TEXT
  5
D4E
330
18
100
AcDbEntity
  8
0
  6
Continuous
100
AcDbText
 10
238.0613199248623
 20
12.01077239327733
 30
0.0
 40
2.1
  1
Design and specifications are subject to change without notice for future improvement.
  7
STYLE3
100
AcDbText
  0
TEXT
  5
D4F
330
18
100
AcDbEntity
  8
0
  6
Continuous
100
AcDbText
 10
238.3528139248623
 20
15.93992039327733
 30
0.0
 40
3.5
  1
仕様及び外観は予告なく変更される場合がございますのでご了承下さい。
  7
STYLE3
100
AcDbText
  0
TEXT
  5
D50
330
18
100
AcDbEntity
  8
0
  6
Continuous
100
AcDbText
 10
237.7698289248623
 20
2.246144393277329
 30
0.0
 40
2.1
  1
3RD Angle Projection
  7
STYLE3
100
AcDbText
  0
TEXT
  5
D51
330
18
100
AcDbEntity
  8
0
  6
Continuous
100
AcDbText
 10
240.3932719248623
 20
5.742427393277329
 30
0.0
 40
3.0
  1
三　　角　　法
  7
STYLE3
100
AcDbText
  0
LINE
  5
D52
330
18
100
AcDbEntity
  8
外形線
100
AcDbLine
 10
236.6038529248623
 20
0.4980043932773293
 30
0.0
 11
236.6038529248623
 21
20.89298839327733
 31
0.0
  0
LINE
  5
D53
330
18
100
AcDbEntity
  8
外形線
100
AcDbLine
 10
338.6266199248623
 20
10.11278239327733
 30
0.0
 11
338.6266199248623
 21
0.4980043932773293
 31
0.0
  0
LINE
  5
D54
330
18
100
AcDbEntity
  8
外形線
100
AcDbLine
 10
308.8942699248623
 20
10.11278239327733
 30
0.0
 11
308.8942699248623
 21
0.4980043932773293
 31
0.0
  0
LINE
  5
D55
330
18
100
AcDbEntity
  8
外形線
100
AcDbLine
 10
289.3641979248623
 20
10.11278239327733
 30
0.0
 11
289.3641979248623
 21
0.4980043932773293
 31
0.0
  0
LINE
  5
D56
330
18
100
AcDbEntity
  8
外形線
100
AcDbLine
 10
271.8745809248623
 20
10.11278239327733
 30
0.0
 11
271.8745809248623
 21
0.4980043932773293
 31
0.0
  0
TEXT
  5
D57
330
18
100
AcDbEntity
  8
0
  6
Continuous
100
AcDbText
 10
273.3320499248623
 20
5.748382393277328
 30
0.0
 40
3.0
  1
単位
  7
STYLE3
100
AcDbText
  0
TEXT
  5
D58
330
18
100
AcDbEntity
  8
0
  6
Continuous
100
AcDbText
 10
273.5037709248623
 20
2.246145393277329
 30
0.0
 40
2.1
  1
Unit
  7
STYLE3
100
AcDbText
  0
TEXT
  5
D59
330
18
100
AcDbEntity
  8
0
  6
Continuous
100
AcDbText
 10
290.6499459248623
 20
5.457024393277329
 30
0.0
 40
3.0
  1
尺 度
  7
STYLE3
100
AcDbText
  0
TEXT
  5
D5A
330
18
100
AcDbEntity
  8
0
  6
Continuous
100
AcDbText
 10
281.3740979248623
 20
3.994288393277328
 30
0.0
 40
2.399999999999999
  1
mm
  7
STYLE3
100
AcDbText
  0
TEXT
  5
D5B
330
18
100
AcDbEntity
  8
0
  6
Continuous
100
AcDbText
 10
291.1131609248623
 20
2.537502393277329
 30
0.0
 40
2.1
  1
Scale
  7
STYLE3
100
AcDbText
  0
TEXT
  5
D5C
330
18
100
AcDbEntity
  8
0
  6
Continuous
100
AcDbText
 10
300.7324499248623
 20
4.285645393277329
 30
0.0
 40
2.399999999999999
  1
1/1
  7
STYLE3
100
AcDbText
  0
TEXT
  5
D5D
330
18
100
AcDbEntity
  8
0
  6
Continuous
100
AcDbText
 10
310.8262209248623
 20
2.246146393277329
 30
0.0
 40
2.1
  1
Date
  7
STYLE3
100
AcDbText
  0
TEXT
  5
D5E
330
18
100
AcDbEntity
  8
0
  6
Continuous
100
AcDbText
 10
310.4428599248623
 20
5.579229393277328
 30
0.0
 40
3.0
  1
日 付
  7
STYLE3
100
AcDbText
  0
TEXT
  5
D5F
330
18
100
AcDbEntity
  8
0
  6
Continuous
100
AcDbText
 10
319.5710289248623
 20
3.994287393277329
 30
0.0
 40
2.1
  1
2010.06.10
  7
STYLE3
100
AcDbText
  0
TEXT
  5
D60
330
18
100
AcDbEntity
  8
0
  6
Continuous
100
AcDbText
 10
339.9755829248623
 20
6.033784393277329
 30
0.0
 40
3.0
  1
株式会社　尾崎製作所
  7
STYLE3
100
AcDbText
  0
TEXT
  5
D61
330
18
100
AcDbEntity
  8
0
  6
Continuous
100
AcDbText
 10
340.8500619248623
 20
2.246145393277329
 30
0.0
 40
2.1
  1
OZAKI MFG. CO., LTD.
  7
STYLE3
100
AcDbText
  0
ENDSEC
  0
SECTION
  2
OBJECTS
  0
DICTIONARY
  5
C
330
0
100
AcDbDictionary
281
     1
  3
ACAD_COLOR
350
9FD
  3
ACAD_GROUP
350
D
  3
ACAD_LAYOUT
350
A00
  3
ACAD_MATERIAL
350
9FC
  3
ACAD_MLINESTYLE
350
1B
  3
ACAD_PLOTSETTINGS
350
A01
  3
ACAD_PLOTSTYLENAME
350
9FA
  3
ACAD_TABLESTYLE
350
9FE
  3
ACDBVARIABLEDICTIONARY
350
905
  0
DICTIONARY
  5
AEA
330
2
100
AcDbDictionary
280
     1
281
     1
  3
ACAD_LAYERSTATES
360
AEB
  0
DICTIONARY
  5
A0A
330
18
100
AcDbDictionary
280
     1
281
     1
  3
ACAD_SORTENTS
360
A0B
  0
DICTIONARY
  5
9FD
102
{ACAD_REACTORS
330
C
102
}
330
C
100
AcDbDictionary
281
     1
  0
DICTIONARY
  5
D
102
{ACAD_REACTORS
330
C
102
}
330
C
100
AcDbDictionary
281
     1
  3
*A1
350
C5E
  3
*A2
350
C5F
  3
*A3
350
C60
  3
*A4
350
C65
  3
*A5
350
C84
  3
*A6
350
CA9
  0
DICTIONARY
  5
A00
102
{ACAD_REACTORS
330
C
102
}
330
C
100
AcDbDictionary
281
     1
  3
Model
350
A02
  3
レイアウト1
350
A03
  0
DICTIONARY
  5
9FC
102
{ACAD_REACTORS
330
C
102
}
330
C
100
AcDbDictionary
281
     1
  0
DICTIONARY
  5
1B
102
{ACAD_REACTORS
330
C
102
}
330
C
100
AcDbDictionary
281
     1
  3
STANDARD
350
1C
  0
DICTIONARY
  5
A01
102
{ACAD_REACTORS
330
C
102
}
330
C
100
AcDbDictionary
281
     1
  0
ACDBDICTIONARYWDFLT
  5
9FA
102
{ACAD_REACTORS
330
C
102
}
330
C
100
AcDbDictionary
281
     1
  3
Normal
350
9FB
100
AcDbDictionaryWithDefault
340
9FB
  0
DICTIONARY
  5
9FE
102
{ACAD_REACTORS
330
C
102
}
330
C
100
AcDbDictionary
281
     1
  3
Standard
350
9FF
  0
DICTIONARY
  5
905
102
{ACAD_REACTORS
330
C
102
}
330
C
100
AcDbDictionary
281
     1
  3
CTABLESTYLE
350
A34
  3
SORTENTS
350
906
  0
DICTIONARY
  5
AEB
102
{ACAD_REACTORS
330
AEA
102
}
330
AEA
100
AcDbDictionary
281
     1
  0
SORTENTSTABLE
  5
A0B
102
{ACAD_REACTORS
330
A0A
102
}
330
A0A
100
AcDbSortentsTable
330
18
331
430
  5
430
331
2A3
  5
2A3
331
225
  5
225
331
25C
  5
25C
331
959
  5
95E
331
82D
  5
833
331
4EF
  5
4F3
331
2AB
  5
2AB
331
264
  5
264
331
1AE
  5
1AE
331
22D
  5
22D
331
7AF
  5
7B4
331
7E6
  5
7EB
331
86C
  5
889
331
661
  5
665
331
565
  5
569
331
922
  5
958
331
835
  5
851
331
2B3
  5
2B3
331
26C
  5
26C
331
235
  5
235
331
7B7
  5
7BB
331
526
  5
52A
331
59C
  5
5A0
331
56D
  5
571
331
969
  5
96E
331
4FF
  5
503
331
1BE
  5
1BE
331
7F6
  5
7FA
331
87C
  5
8AE
331
52E
  5
532
331
5A4
  5
5A8
331
575
  5
579
331
536
  5
53A
331
5AC
  5
5B0
331
5B4
  5
5B8
331
53E
  5
542
331
973
  5
9E4
331
1C6
  5
1C6
331
187
  5
187
331
27C
  5
27C
331
8E3
  5
8E7
331
806
  5
80A
331
4B8
  5
4D2
331
245
  5
245
331
18F
  5
18F
331
284
  5
284
331
7C7
  5
7CC
331
57D
  5
581
331
546
  5
54A
331
80E
  5
82F
331
9EA
  5
A09
331
294
  5
294
331
197
  5
197
331
7CF
  5
7D4
331
507
  5
50B
331
5BC
  5
5C0
331
689
  5
6F7
331
5C4
  5
5D2
331
54E
  5
552
331
4D8
  5
4DC
331
29C
  5
29C
331
19F
  5
19F
331
255
  5
255
331
7D7
  5
7E4
331
50F
  5
513
331
585
  5
589
331
5CC
  5
65C
331
556
  5
55A
331
517
  5
51B
331
58D
  5
591
331
595
  5
599
331
51F
  5
523
331
55E
  5
562
331
700
  5
705
331
25D
  5
25D
331
1A7
  5
1A7
331
226
  5
226
331
2A4
  5
2A4
331
95A
  5
95F
331
4F0
  5
4F4
331
82E
  5
834
331
22E
  5
22E
331
1AF
  5
1AF
331
2AC
  5
2AC
331
7B0
  5
7B5
331
86D
  5
896
331
662
  5
666
331
59D
  5
5A1
331
566
  5
56A
331
962
  5
966
331
836
  5
85E
331
236
  5
236
331
2B4
  5
2B4
331
7B8
  5
7BC
331
7EF
  5
7F3
331
527
  5
52B
331
708
  5
70D
331
66A
  5
66E
331
56E
  5
572
331
96A
  5
96F
331
1BF
  5
1BF
331
7F7
  5
7FB
331
52F
  5
533
331
5A5
  5
5A9
331
576
  5
57A
331
7FF
  5
803
331
537
  5
53B
331
5AD
  5
5B1
331
5B5
  5
5BC
331
53F
  5
543
331
1C7
  5
1C7
331
188
  5
188
331
27D
  5
27D
331
7C0
  5
7C4
331
8E4
  5
8E8
331
807
  5
80B
331
4B9
  5
4D3
331
7C8
  5
7CD
331
190
  5
190
331
246
  5
246
331
791
  5
79A
331
500
  5
505
331
5BD
  5
5C1
331
57E
  5
582
331
9EB
  5
A0C
331
295
  5
295
331
198
  5
198
331
799
  5
7A5
331
80F
  5
832
331
508
  5
50C
331
547
  5
54B
331
5C5
  5
629
331
586
  5
58A
331
54F
  5
553
331
29D
  5
29D
331
4D9
  5
4DD
331
7D8
  5
7E6
331
510
  5
514
331
58E
  5
592
331
557
  5
55B
331
85E
  5
86F
331
518
  5
51C
331
6F9
  5
6FD
331
701
  5
706
331
65B
  5
65F
331
55F
  5
563
331
596
  5
59A
331
1A0
  5
1A0
331
227
  5
227
331
1A8
  5
1A8
331
2A5
  5
2A5
331
95B
  5
960
331
82F
  5
835
331
7E8
  5
7EC
331
520
  5
524
331
4F1
  5
4F5
331
2AD
  5
2AD
331
266
  5
266
331
22F
  5
22F
331
663
  5
667
331
567
  5
56B
331
963
  5
967
331
7B9
  5
7BD
331
7F0
  5
7F5
331
528
  5
52C
331
59E
  5
5A2
331
709
  5
70E
331
237
  5
237
331
2B5
  5
2B5
331
66B
  5
66F
331
56F
  5
573
331
96B
  5
973
331
7F8
  5
7FC
331
530
  5
534
331
5A6
  5
5AA
331
577
  5
57B
331
538
  5
53C
331
5AE
  5
5B2
331
5B6
  5
5BD
331
1C0
  5
1C0
331
800
  5
804
331
7C1
  5
7C5
331
78A
  5
799
331
975
  5
9E6
331
4B2
  5
4B5
331
1C8
  5
1C8
331
189
  5
189
331
27E
  5
27E
331
808
  5
80C
331
896
  5
8C7
331
8E5
  5
8F8
331
501
  5
506
331
540
  5
544
331
9E4
  5
9E9
331
191
  5
191
331
57F
  5
583
331
548
  5
54C
331
7D1
  5
7D5
331
509
  5
50D
331
5BE
  5
5C2
331
79A
  5
7AE
331
4D2
  5
4D6
331
296
  5
296
331
199
  5
199
331
550
  5
554
331
7D9
  5
7E8
331
511
  5
515
331
587
  5
58B
331
4DA
  5
4DF
331
29E
  5
29E
331
58F
  5
593
331
8AE
  5
8E1
331
519
  5
51D
331
558
  5
55C
331
6FA
  5
6FE
331
65C
  5
660
331
597
  5
59B
331
702
  5
707
331
25F
  5
25F
331
1A9
  5
1A9
331
2A6
  5
2A6
331
915
  5
930
331
7E9
  5
7ED
331
86F
  5
8A2
331
521
  5
525
331
560
  5
564
331
7B2
  5
7B6
331
4F2
  5
4FA
331
230
  5
230
331
2AE
  5
2AE
331
664
  5
668
331
568
  5
56C
331
964
  5
968
331
7F1
  5
7F6
331
529
  5
52D
331
59F
  5
5A3
331
7BA
  5
7BE
331
4FA
  5
4FE
331
2B6
  5
2B6
331
66C
  5
670
331
570
  5
574
331
96C
  5
975
331
7F9
  5
7FD
331
531
  5
535
331
5A7
  5
5AB
331
539
  5
53D
331
5AF
  5
5B3
331
5B7
  5
5BE
331
1C1
  5
1C1
331
238
  5
238
331
7C2
  5
7C7
331
801
  5
805
331
27F
  5
27F
331
1C9
  5
1C9
331
18A
  5
18A
331
240
  5
240
331
541
  5
545
331
7CA
  5
7CF
331
809
  5
80D
331
8E6
  5
8F9
331
502
  5
507
331
578
  5
57C
331
192
  5
192
331
248
  5
248
331
5BF
  5
5C3
331
580
  5
584
331
7D2
  5
7D6
331
50A
  5
50E
331
549
  5
54D
331
250
  5
250
331
19A
  5
19A
331
297
  5
297
331
588
  5
58C
331
7DA
  5
7E9
331
512
  5
516
331
551
  5
555
331
7A3
  5
7AF
331
9F5
  5
A0D
331
4DB
  5
4EC
331
29F
  5
29F
331
590
  5
594
331
559
  5
55D
331
51A
  5
51E
331
6FB
  5
6FF
331
65D
  5
661
331
2A7
  5
2A7
331
1AA
  5
1AA
331
561
  5
565
331
522
  5
526
331
598
  5
59C
331
95D
  5
962
331
4F3
  5
4FB
331
2AF
  5
2AF
331
7B3
  5
7B7
331
7EA
  5
7EF
331
665
  5
66A
331
569
  5
56D
331
52A
  5
52E
331
5A0
  5
5A4
331
70B
  5
76C
331
965
  5
969
331
4FB
  5
4FF
331
270
  5
270
331
1BA
  5
1BA
331
7BB
  5
7BF
331
7F2
  5
7F7
331
66D
  5
671
331
571
  5
575
331
532
  5
536
331
5A8
  5
5AC
331
92E
  5
959
331
8C7
  5
8E3
331
7FA
  5
7FF
331
5B0
  5
5B4
331
53A
  5
53E
331
1C2
  5
1C2
331
802
  5
806
331
1CA
  5
1CA
331
18B
  5
18B
331
280
  5
280
331
7C3
  5
7C8
331
579
  5
57D
331
542
  5
546
331
503
  5
508
331
5B8
  5
5BF
331
80A
  5
80E
331
9E6
  5
9EA
331
193
  5
193
331
7CB
  5
7D1
331
8E7
  5
8FA
331
581
  5
585
331
54A
  5
54E
331
50B
  5
50F
331
5C0
  5
5C4
331
4D4
  5
4D8
331
298
  5
298
331
19B
  5
19B
331
7D3
  5
7D7
331
851
  5
86D
331
552
  5
556
331
513
  5
517
331
589
  5
58D
331
6F4
  5
6F9
331
4DC
  5
4ED
331
7A4
  5
7B0
331
591
  5
595
331
51B
  5
51F
331
55A
  5
55E
331
6FC
  5
700
331
65E
  5
662
331
704
  5
708
331
2A0
  5
2A0
331
259
  5
259
331
4EC
  5
4F0
331
261
  5
261
331
22A
  5
22A
331
1AB
  5
1AB
331
2A8
  5
2A8
331
599
  5
59D
331
523
  5
527
331
562
  5
566
331
95E
  5
963
331
832
  5
836
331
4F4
  5
4FC
331
2B0
  5
2B0
331
1B3
  5
1B3
331
269
  5
269
331
7B4
  5
7B8
331
7EB
  5
7F0
331
666
  5
66B
331
56A
  5
56E
331
52B
  5
52F
331
5A1
  5
5A5
331
70C
  5
78A
331
966
  5
96A
331
83A
  5
86B
331
4FC
  5
500
331
1BB
  5
1BB
331
271
  5
271
331
7BC
  5
7C0
331
7F3
  5
7F8
331
572
  5
576
331
533
  5
537
331
5A9
  5
5AD
331
96E
  5
9C0
331
92F
  5
95A
331
7FB
  5
800
331
889
  5
8BA
331
5B1
  5
5B5
331
53B
  5
53F
331
1C3
  5
1C3
331
184
  5
184
331
23A
  5
23A
331
8E0
  5
8E4
331
4B5
  5
4B8
331
18C
  5
18C
331
242
  5
242
331
7C4
  5
7CA
331
803
  5
807
331
543
  5
547
331
57A
  5
57E
331
8E8
  5
8FB
331
80B
  5
80F
331
9E7
  5
9EB
331
194
  5
194
331
795
  5
7A3
331
7CC
  5
7D2
331
5C1
  5
5C5
331
582
  5
586
331
50C
  5
510
331
54B
  5
54F
331
900
  5
904
331
4D5
  5
4D9
331
299
  5
299
331
19C
  5
19C
331
7D4
  5
7D8
331
58A
  5
58E
331
553
  5
557
331
514
  5
518
331
6F5
  5
6FA
331
4DD
  5
4EE
331
9F7
  5
A0E
331
7A5
  5
7B2
331
592
  5
596
331
55B
  5
55F
331
51C
  5
520
331
6FD
  5
701
331
705
  5
709
331
65F
  5
663
331
2A1
  5
2A1
331
25A
  5
25A
331
4ED
  5
4F1
331
2A9
  5
2A9
331
22B
  5
22B
331
1AC
  5
1AC
331
262
  5
262
331
7E4
  5
7EA
331
563
  5
567
331
95F
  5
964
331
833
  5
83A
331
4F5
  5
4FD
331
2B1
  5
2B1
331
26A
  5
26A
331
233
  5
233
331
7B5
  5
7B9
331
7EC
  5
7F1
331
524
  5
528
331
59A
  5
59E
331
667
  5
66C
331
56B
  5
56F
331
967
  5
96B
331
4FD
  5
501
331
1BC
  5
1BC
331
83B
  5
86C
331
52C
  5
530
331
5A2
  5
5A6
331
70D
  5
791
331
66F
  5
6F4
331
573
  5
577
331
96F
  5
9C1
331
930
  5
95B
331
7FC
  5
801
331
534
  5
538
331
5AA
  5
5AE
331
5B2
  5
5B6
331
53C
  5
540
331
9C0
  5
9E7
331
23B
  5
23B
331
185
  5
185
331
1C4
  5
1C4
331
27A
  5
27A
331
8E1
  5
8E5
331
804
  5
808
331
4B6
  5
4B9
331
282
  5
282
331
18D
  5
18D
331
7C5
  5
7CB
331
57B
  5
57F
331
544
  5
548
331
80C
  5
82D
331
7CD
  5
7D3
331
9E8
  5
9F5
331
195
  5
195
331
796
  5
7A4
331
505
  5
509
331
5C2
  5
5CB
331
54C
  5
550
331
901
  5
907
331
4D6
  5
4DA
331
29A
  5
29A
331
19D
  5
19D
331
7D5
  5
7D9
331
8A2
  5
8E0
331
50D
  5
511
331
583
  5
587
331
554
  5
558
331
42F
  5
42F
331
515
  5
519
331
58B
  5
58F
331
6F6
  5
6FB
331
5D2
  5
65D
331
593
  5
597
331
51D
  5
521
331
55C
  5
560
331
6FE
  5
702
331
706
  5
70B
331
2A2
  5
2A2
331
25B
  5
25B
331
224
  5
224
331
958
  5
95D
331
4EE
  5
4F2
331
263
  5
263
331
22C
  5
22C
331
1AD
  5
1AD
331
2AA
  5
2AA
331
7AE
  5
7B3
331
86B
  5
87C
331
660
  5
664
331
59B
  5
59F
331
564
  5
568
331
960
  5
965
331
8BA
  5
8E2
331
834
  5
83B
331
2B2
  5
2B2
331
26B
  5
26B
331
7B6
  5
7BA
331
7ED
  5
7F2
331
525
  5
529
331
668
  5
66D
331
56C
  5
570
331
968
  5
96C
331
4FE
  5
502
331
1BD
  5
1BD
331
7F5
  5
7F9
331
52D
  5
531
331
5A3
  5
5A7
331
70E
  5
795
331
670
  5
6F5
331
574
  5
578
331
7FD
  5
802
331
535
  5
539
331
5AB
  5
5AF
331
5B3
  5
5B7
331
53D
  5
541
331
629
  5
65E
331
9C1
  5
9E8
331
27B
  5
27B
331
186
  5
186
331
23C
  5
23C
331
8E2
  5
8E6
331
4B7
  5
4D1
331
283
  5
283
331
18E
  5
18E
331
805
  5
809
331
545
  5
549
331
9E9
  5
9F7
331
196
  5
196
331
293
  5
293
331
80D
  5
82E
331
506
  5
50A
331
57C
  5
580
331
5C3
  5
5CC
331
584
  5
588
331
4D7
  5
4DB
331
29B
  5
29B
331
19E
  5
19E
331
7D6
  5
7DA
331
50E
  5
512
331
54D
  5
551
331
58C
  5
590
331
555
  5
559
331
4DF
  5
4EF
331
516
  5
51A
331
5CB
  5
65B
331
6F7
  5
6FC
331
6FF
  5
704
331
55D
  5
561
331
51E
  5
522
331
594
  5
598
331
707
  5
70C
  0
GROUP
  5
C5E
102
{ACAD_REACTORS
330
D
102
}
330
D
100
AcDbGroup
300

 70
     1
 71
     1
  0
GROUP
  5
C5F
102
{ACAD_REACTORS
330
D
102
}
330
D
100
AcDbGroup
300

 70
     1
 71
     1
  0
GROUP
  5
C60
102
{ACAD_REACTORS
330
D
102
}
330
D
100
AcDbGroup
300

 70
     1
 71
     1
  0
GROUP
  5
C65
102
{ACAD_REACTORS
330
D
102
}
330
D
100
AcDbGroup
300

 70
     1
 71
     1
  0
GROUP
  5
C84
102
{ACAD_REACTORS
330
D
102
}
330
D
100
AcDbGroup
300

 70
     1
 71
     1
340
B33
340
B2B
340
B32
340
B4A
340
B49
340
B57
340
B4D
340
B4C
340
B50
340
B58
340
B47
340
B39
340
B38
340
B4B
340
B48
340
B28
340
B30
340
B31
340
B2A
340
C81
  0
GROUP
  5
CA9
102
{ACAD_REACTORS
330
D
102
}
330
D
100
AcDbGroup
300

 70
     1
 71
     1
340
CA7
340
CA8
  0
LAYOUT
  5
A02
102
{ACAD_REACTORS
330
A00
102
}
330
A00
100
AcDbPlotSettings
  1

  2
A4 EPSON LP-6100.pc3
  4
A3
  6

 40
5.873749732971191
 41
5.873747825622558
 42
5.873748779296875
 43
5.873748779296875
 44
297.0106506347656
 45
419.9466552734374
 46
1.5
 47
25.0
 48
0.0
 49
0.0
140
0.0
141
0.0
142
1.0
143
1.0
 70
 28336
 72
     1
 73
     1
 74
     1
  7
AutoCad LT 98.ctb
 75
    16
147
1.0
 76
     1
 77
     2
 78
   300
148
0.4064931246576862
149
0.4056996725115596
100
AcDbLayout
  1
Model
 70
     1
 71
     0
 10
0.0
 20
0.0
 11
12.0
 21
9.0
 12
0.0
 22
0.0
 32
0.0
 14
0.0
 24
0.0
 34
0.0
 15
0.0
 25
0.0
 35
0.0
146
0.0
 13
0.0
 23
0.0
 33
0.0
 16
1.0
 26
0.0
 36
0.0
 17
0.0
 27
1.0
 37
0.0
 76
     0
330
18
  0
LAYOUT
  5
A03
102
{ACAD_REACTORS
330
A00
102
}
330
A00
100
AcDbPlotSettings
  1

  2
WIDR Printer
  4

  6

 40
0.0
 41
0.0
 42
0.0
 43
0.0
 44
0.0
 45
0.0
 46
0.0
 47
0.0
 48
0.0
 49
0.0
140
0.0
141
0.0
142
1.0
143
1.0
 70
   688
 72
     0
 73
     0
 74
     5
  7
AutoCad LT 98.ctb
 75
    16
147
1.0
 76
     0
 77
     2
 78
   300
148
0.0
149
0.0
100
AcDbLayout
  1
レイアウト1
 70
     1
 71
     1
 10
0.0
 20
0.0
 11
420.0
 21
297.0
 12
0.0
 22
0.0
 32
0.0
 14
1.000000000000000E+20
 24
1.000000000000000E+20
 34
1.000000000000000E+20
 15
-1.000000000000000E+20
 25
-1.000000000000000E+20
 35
-1.000000000000000E+20
146
0.0
 13
0.0
 23
0.0
 33
0.0
 16
1.0
 26
0.0
 36
0.0
 17
0.0
 27
1.0
 37
0.0
 76
     0
330
15
  0
MLINESTYLE
  5
1C
102
{ACAD_REACTORS
330
1B
102
}
330
1B
100
AcDbMlineStyle
  2
STANDARD
 70
     0
  3

 62
   256
 51
90.0
 52
90.0
 71
     2
 49
0.5
 62
   256
  6
BYLAYER
 49
-0.5
 62
   256
  6
BYLAYER
  0
ACDBPLACEHOLDER
  5
9FB
102
{ACAD_REACTORS
330
9FA
102
}
330
9FA
  0
ACAD_PROXY_OBJECT
  5
9FF
102
{ACAD_REACTORS
330
9FE
102
}
330
9FE
100
AcDbProxyObject
 90
      499
 91
      504
 95
       25
 70
     0
 93
     1849
310
4214DD185B99185C992420000000000000F83F0000000000003E0FC00000000000004901028000000C1008070000C3001FDFF8000000C1003FBFF000000182007F7FE00000030400FEFFC00000060801FDFF8000000C1003FBFF000000182000000000000000C2020B0000001820100E000186003FBFF000000182007F7FE0
310
0000030400FEFFC00000060801FDFF8000000C1003FBFF000000182007F7FE0000003040000000000000012404160000003040201C00030C007F7FE00000030400FEFFC00000060801FDFF8000000C1003FBFF000000182007F7FE00000030400FEFFC000000608000
340
F
340
F
340
F
 94
        0
  0
DICTIONARYVAR
  5
A34
102
{ACAD_REACTORS
330
905
102
}
330
905
100
DictionaryVariables
280
     0
  1
STANDARD
  0
DICTIONARYVAR
  5
906
102
{ACAD_REACTORS
330
905
102
}
330
905
100
DictionaryVariables
280
     0
  1
96
  0
ENDSEC
  0
EOF
