  0
SECTION
  2
HEADER
  9
$ACADVER
  1
AC1018
  9
$ACADMAINTVER
 70
     0
  9
$DWGCODEPAGE
  3
ANSI_932
  9
$INSBASE
 10
0.0
 20
0.0
 30
0.0
  9
$EXTMIN
 10
-0.4172655283673521
 20
-0.4115439190197776
 30
-0.0000305152498541
  9
$EXTMAX
 10
565.4172681630789
 20
377.9115456806164
 30
1.000030519906466
  9
$LIMMIN
 10
0.0
 20
0.0
  9
$LIMMAX
 10
420.0
 20
297.0
  9
$ORTHOMODE
 70
     0
  9
$REGENMODE
 70
     1
  9
$FILLMODE
 70
     1
  9
$QTEXTMODE
 70
     0
  9
$MIRRTEXT
 70
     1
  9
$LTSCALE
 40
1.0
  9
$ATTMODE
 70
     1
  9
$TEXTSIZE
 40
3.0
  9
$TRACEWID
 40
1.0
  9
$TEXTSTYLE
  7
STYLE3
  9
$CLAYER
  8
寸法線
  9
$CELTYPE
  6
BYLAYER
  9
$CECOLOR
 62
   256
  9
$CELTSCALE
 40
1.0
  9
$DISPSILH
 70
     0
  9
$DIMSCALE
 40
1.0
  9
$DIMASZ
 40
2.5
  9
$DIMEXO
 40
0.0
  9
$DIMDLI
 40
3.75
  9
$DIMRND
 40
0.0
  9
$DIMDLE
 40
0.0
  9
$DIMEXE
 40
1.25
  9
$DIMTP
 40
0.0
  9
$DIMTM
 40
0.0
  9
$DIMTXT
 40
2.5
  9
$DIMCEN
 40
2.5
  9
$DIMTSZ
 40
0.0
  9
$DIMTOL
 70
     0
  9
$DIMLIM
 70
     0
  9
$DIMTIH
 70
     0
  9
$DIMTOH
 70
     0
  9
$DIMSE1
 70
     0
  9
$DIMSE2
 70
     0
  9
$DIMTAD
 70
     1
  9
$DIMZIN
 70
     8
  9
$DIMBLK
  1

  9
$DIMASO
 70
     1
  9
$DIMSHO
 70
     1
  9
$DIMPOST
  1

  9
$DIMAPOST
  1

  9
$DIMALT
 70
     0
  9
$DIMALTD
 70
     4
  9
$DIMALTF
 40
0.0394
  9
$DIMLFAC
 40
1.0
  9
$DIMTOFL
 70
     1
  9
$DIMTVP
 40
0.0
  9
$DIMTIX
 70
     0
  9
$DIMSOXD
 70
     0
  9
$DIMSAH
 70
     1
  9
$DIMBLK1
  1
OPEN
  9
$DIMBLK2
  1
OPEN
  9
$DIMSTYLE
  2
STYLE3
  9
$DIMCLRD
 70
     2
  9
$DIMCLRE
 70
     2
  9
$DIMCLRT
 70
     6
  9
$DIMTFAC
 40
1.0
  9
$DIMGAP
 40
0.625
  9
$DIMJUST
 70
     0
  9
$DIMSD1
 70
     0
  9
$DIMSD2
 70
     0
  9
$DIMTOLJ
 70
     1
  9
$DIMTZIN
 70
     0
  9
$DIMALTZ
 70
     0
  9
$DIMALTTZ
 70
     0
  9
$DIMUPT
 70
     0
  9
$DIMDEC
 70
     2
  9
$DIMTDEC
 70
     4
  9
$DIMALTU
 70
     8
  9
$DIMALTTD
 70
     4
  9
$DIMTXSTY
  7
STYLE3
  9
$DIMAUNIT
 70
     0
  9
$DIMADEC
 70
     0
  9
$DIMALTRND
 40
0.0
  9
$DIMAZIN
 70
     0
  9
$DIMDSEP
 70
    46
  9
$DIMATFIT
 70
     3
  9
$DIMFRAC
 70
     0
  9
$DIMLDRBLK
  1

  9
$DIMLUNIT
 70
     2
  9
$DIMLWD
 70
    -2
  9
$DIMLWE
 70
    -2
  9
$DIMTMOVE
 70
     0
  9
$LUNITS
 70
     2
  9
$LUPREC
 70
     4
  9
$SKETCHINC
 40
1.0
  9
$FILLETRAD
 40
1.5
  9
$AUNITS
 70
     0
  9
$AUPREC
 70
     0
  9
$MENU
  1
.
  9
$ELEVATION
 40
0.0
  9
$PELEVATION
 40
0.0
  9
$THICKNESS
 40
0.0
  9
$LIMCHECK
 70
     0
  9
$CHAMFERA
 40
0.5
  9
$CHAMFERB
 40
0.5
  9
$CHAMFERC
 40
20.0
  9
$CHAMFERD
 40
0.0
  9
$SKPOLY
 70
     0
  9
$TDCREATE
 40
2451674.575721412
  9
$TDUCREATE
 40
2451674.200721412
  9
$TDUPDATE
 40
2455364.428552512
  9
$TDUUPDATE
 40
2455364.053552512
  9
$TDINDWG
 40
0.2400131713
  9
$TDUSRTIMER
 40
0.2400131713
  9
$USRTIMER
 70
     1
  9
$ANGBASE
 50
0.0
  9
$ANGDIR
 70
     0
  9
$PDMODE
 70
     0
  9
$PDSIZE
 40
0.0
  9
$PLINEWID
 40
0.0
  9
$SPLFRAME
 70
     0
  9
$SPLINETYPE
 70
     6
  9
$SPLINESEGS
 70
     8
  9
$HANDSEED
  5
2274
  9
$SURFTAB1
 70
     6
  9
$SURFTAB2
 70
     6
  9
$SURFTYPE
 70
     6
  9
$SURFU
 70
     6
  9
$SURFV
 70
     6
  9
$UCSBASE
  2

  9
$UCSNAME
  2

  9
$UCSORG
 10
0.0
 20
0.0
 30
0.0
  9
$UCSXDIR
 10
1.0
 20
0.0
 30
0.0
  9
$UCSYDIR
 10
0.0
 20
1.0
 30
0.0
  9
$UCSORTHOREF
  2

  9
$UCSORTHOVIEW
 70
     0
  9
$UCSORGTOP
 10
0.0
 20
0.0
 30
0.0
  9
$UCSORGBOTTOM
 10
0.0
 20
0.0
 30
0.0
  9
$UCSORGLEFT
 10
0.0
 20
0.0
 30
0.0
  9
$UCSORGRIGHT
 10
0.0
 20
0.0
 30
0.0
  9
$UCSORGFRONT
 10
0.0
 20
0.0
 30
0.0
  9
$UCSORGBACK
 10
0.0
 20
0.0
 30
0.0
  9
$PUCSBASE
  2

  9
$PUCSNAME
  2

  9
$PUCSORG
 10
0.0
 20
0.0
 30
0.0
  9
$PUCSXDIR
 10
1.0
 20
0.0
 30
0.0
  9
$PUCSYDIR
 10
0.0
 20
1.0
 30
0.0
  9
$PUCSORTHOREF
  2

  9
$PUCSORTHOVIEW
 70
     0
  9
$PUCSORGTOP
 10
0.0
 20
0.0
 30
0.0
  9
$PUCSORGBOTTOM
 10
0.0
 20
0.0
 30
0.0
  9
$PUCSORGLEFT
 10
0.0
 20
0.0
 30
0.0
  9
$PUCSORGRIGHT
 10
0.0
 20
0.0
 30
0.0
  9
$PUCSORGFRONT
 10
0.0
 20
0.0
 30
0.0
  9
$PUCSORGBACK
 10
0.0
 20
0.0
 30
0.0
  9
$USERI1
 70
     0
  9
$USERI2
 70
     0
  9
$USERI3
 70
     0
  9
$USERI4
 70
     0
  9
$USERI5
 70
     0
  9
$USERR1
 40
0.0
  9
$USERR2
 40
0.0
  9
$USERR3
 40
0.0
  9
$USERR4
 40
0.0
  9
$USERR5
 40
0.0
  9
$WORLDVIEW
 70
     1
  9
$SHADEDGE
 70
     3
  9
$SHADEDIF
 70
    70
  9
$TILEMODE
 70
     1
  9
$MAXACTVP
 70
    48
  9
$PINSBASE
 10
0.0
 20
0.0
 30
0.0
  9
$PLIMCHECK
 70
     0
  9
$PEXTMIN
 10
1.000000000000000E+20
 20
1.000000000000000E+20
 30
1.000000000000000E+20
  9
$PEXTMAX
 10
-1.000000000000000E+20
 20
-1.000000000000000E+20
 30
-1.000000000000000E+20
  9
$PLIMMIN
 10
0.0
 20
0.0
  9
$PLIMMAX
 10
420.0
 20
297.0
  9
$UNITMODE
 70
     0
  9
$VISRETAIN
 70
     1
  9
$PLINEGEN
 70
     0
  9
$PSLTSCALE
 70
     1
  9
$TREEDEPTH
 70
  3020
  9
$CMLSTYLE
  2
STANDARD
  9
$CMLJUST
 70
     0
  9
$CMLSCALE
 40
20.0
  9
$PROXYGRAPHICS
 70
     1
  9
$MEASUREMENT
 70
     1
  9
$CELWEIGHT
370
    -1
  9
$ENDCAPS
280
     0
  9
$JOINSTYLE
280
     0
  9
$LWDISPLAY
290
     0
  9
$INSUNITS
 70
     0
  9
$HYPERLINKBASE
  1

  9
$STYLESHEET
  1
monochrome.ctb
  9
$XEDIT
290
     1
  9
$CEPSNTYPE
380
     0
  9
$PSTYLEMODE
290
     1
  9
$FINGERPRINTGUID
  2
{DC0BB98E-D947-4CDC-ABB8-FE7691114F9E}
  9
$VERSIONGUID
  2
{0C1A0726-5C44-4BCB-8E97-0381121692CF}
  9
$EXTNAMES
290
     1
  9
$PSVPSCALE
 40
0.0
  9
$OLESTARTUP
290
     0
  9
$SORTENTS
280
   127
  9
$INDEXCTL
280
     0
  9
$HIDETEXT
280
     0
  9
$XCLIPFRAME
290
     0
  9
$HALOGAP
280
     0
  9
$OBSCOLOR
 70
   257
  9
$OBSLTYPE
280
     0
  9
$INTERSECTIONDISPLAY
280
     0
  9
$INTERSECTIONCOLOR
 70
   257
  9
$DIMASSOC
280
     1
  9
$PROJECTNAME
  1

  0
ENDSEC
  0
SECTION
  2
CLASSES
  0
CLASS
  1
HATCH
  2
AcDbHatch
  3
ObjectDBX Classes
 90
        0
 91
       14
280
     0
281
     1
  0
CLASS
  1
LWPOLYLINE
  2
AcDbPolyline
  3
ObjectDBX Classes
 90
        0
 91
        4
280
     0
281
     1
  0
CLASS
  1
ACDBDICTIONARYWDFLT
  2
AcDbDictionaryWithDefault
  3
ObjectDBX Classes
 90
        0
 91
        1
280
     0
281
     0
  0
CLASS
  1
TABLESTYLE
  2
AcDbTableStyle
  3
ObjectDBX Classes
 90
     2047
 91
        1
280
     0
281
     0
  0
CLASS
  1
DICTIONARYVAR
  2
AcDbDictionaryVar
  3
ObjectDBX Classes
 90
        0
 91
        1
280
     0
281
     0
  0
CLASS
  1
SORTENTSTABLE
  2
AcDbSortentsTable
  3
ObjectDBX Classes
 90
        0
 91
        1
280
     0
281
     0
  0
ENDSEC
  0
SECTION
  2
TABLES
  0
TABLE
  2
VPORT
  5
8
330
0
100
AcDbSymbolTable
 70
     2
  0
VPORT
  5
2273
330
8
100
AcDbSymbolTableRecord
100
AcDbViewportTableRecord
  2
*Active
 70
     0
 10
0.0
 20
0.0
 11
1.0
 21
1.0
 12
282.5000013173557
 22
188.7500008807983
 13
0.0
 23
0.0
 14
10.0
 24
10.0
 15
10.0
 25
10.0
 16
0.0
 26
0.0
 36
1.0
 17
0.0
 27
0.0
 37
0.0
 40
381.2000712695955
 41
1.530456852791878
 42
50.0
 43
0.0
 44
0.0
 50
0.0
 51
0.0
 71
     0
 72
   100
 73
     1
 74
     1
 75
     0
 76
     0
 77
     0
 78
     0
281
     0
 65
     1
110
0.0
120
0.0
130
0.0
111
1.0
121
0.0
131
0.0
112
0.0
122
1.0
132
0.0
 79
     0
146
0.0
  0
ENDTAB
  0
TABLE
  2
LTYPE
  5
5
330
0
100
AcDbSymbolTable
 70
    12
  0
LTYPE
  5
12
330
5
100
AcDbSymbolTableRecord
100
AcDbLinetypeTableRecord
  2
BYBLOCK
 70
     0
  3

 72
    65
 73
     0
 40
0.0
  0
LTYPE
  5
13
330
5
100
AcDbSymbolTableRecord
100
AcDbLinetypeTableRecord
  2
BYLAYER
 70
     0
  3

 72
    65
 73
     0
 40
0.0
  0
LTYPE
  5
14
330
5
100
AcDbSymbolTableRecord
100
AcDbLinetypeTableRecord
  2
CONTINUOUS
 70
     0
  3
Solid line
 72
    65
 73
     0
 40
0.0
  0
LTYPE
  5
22
330
5
100
AcDbSymbolTableRecord
100
AcDbLinetypeTableRecord
  2
CENTER2
 70
     0
  3
Center (.5x) ___ _ ___ _ ___ _ ___ _ ___ _ ___
 72
    65
 73
     4
 40
28.575
 49
19.05
 74
     0
 49
-3.174999999999999
 74
     0
 49
3.174999999999999
 74
     0
 49
-3.174999999999999
 74
     0
  0
LTYPE
  5
23
330
5
100
AcDbSymbolTableRecord
100
AcDbLinetypeTableRecord
  2
HIDDEN2
 70
     0
  3
Hidden (.5x) _ _ _ _ _ _ _ _ _ _ _ _ _ _ _ _ _
 72
    65
 73
     2
 40
4.762499999999999
 49
3.174999999999999
 74
     0
 49
-1.587499999999999
 74
     0
  0
LTYPE
  5
24
330
5
100
AcDbSymbolTableRecord
100
AcDbLinetypeTableRecord
  2
PHANTOM2
 70
     0
  3
Phantom (.5x) ___ _ _ ___ _ _ ___ _ _ ___ _ _
 72
    65
 73
     6
 40
31.75
 49
15.875
 74
     0
 49
-3.174999999999999
 74
     0
 49
3.174999999999999
 74
     0
 49
-3.174999999999999
 74
     0
 49
3.174999999999999
 74
     0
 49
-3.174999999999999
 74
     0
  0
ENDTAB
  0
TABLE
  2
LAYER
  5
2
330
0
100
AcDbSymbolTable
 70
    16
  0
LAYER
  5
E
330
2
100
AcDbSymbolTableRecord
100
AcDbLayerTableRecord
  2
0
 70
     0
 62
     7
  6
CONTINUOUS
370
    -3
390
B29
  0
LAYER
  5
25
330
2
100
AcDbSymbolTableRecord
100
AcDbLayerTableRecord
  2
外形線
 70
     0
 62
     7
  6
CONTINUOUS
370
    -3
390
B29
  0
LAYER
  5
26
330
2
100
AcDbSymbolTableRecord
100
AcDbLayerTableRecord
  2
寸法線
 70
     0
 62
     2
  6
CONTINUOUS
370
    -3
390
B29
  0
LAYER
  5
27
330
2
100
AcDbSymbolTableRecord
100
AcDbLayerTableRecord
  2
中心線
 70
     0
 62
     4
  6
CENTER2
370
    -3
390
B29
  0
LAYER
  5
29
330
2
100
AcDbSymbolTableRecord
100
AcDbLayerTableRecord
  2
想像線
 70
     0
 62
     1
  6
PHANTOM2
370
    -3
390
B29
  0
LAYER
  5
2A
330
2
100
AcDbSymbolTableRecord
100
AcDbLayerTableRecord
  2
ﾊｯﾁﾝｸ
 70
     0
 62
     6
  6
CONTINUOUS
370
    -3
390
B29
  0
LAYER
  5
2B
330
2
100
AcDbSymbolTableRecord
100
AcDbLayerTableRecord
  2
文字
 70
     0
 62
     6
  6
CONTINUOUS
370
    -3
390
B29
  0
LAYER
  5
2C
330
2
100
AcDbSymbolTableRecord
100
AcDbLayerTableRecord
  2
目盛
 70
     0
 62
    72
  6
CONTINUOUS
370
    -3
390
B29
  0
LAYER
  5
2D
330
2
100
AcDbSymbolTableRecord
100
AcDbLayerTableRecord
  2
針
 70
     0
 62
     5
  6
CONTINUOUS
370
    -3
390
B29
  0
LAYER
  5
53
330
2
100
AcDbSymbolTableRecord
100
AcDbLayerTableRecord
  2
DEFPOINTS
 70
     0
 62
     7
  6
CONTINUOUS
290
     0
370
    -3
390
B29
  0
LAYER
  5
A5
330
2
100
AcDbSymbolTableRecord
100
AcDbLayerTableRecord
  2
C
 70
     0
 62
     7
  6
CONTINUOUS
370
    -3
390
B29
  0
LAYER
  5
212
330
2
100
AcDbSymbolTableRecord
100
AcDbLayerTableRecord
  2
隠れ線2
 70
     0
 62
     1
  6
HIDDEN2
370
    -3
390
B29
  0
LAYER
  5
213
330
2
100
AcDbSymbolTableRecord
100
AcDbLayerTableRecord
  2
ROGO
 70
     0
 62
     6
  6
CONTINUOUS
370
    -3
390
B29
  0
ENDTAB
  0
TABLE
  2
STYLE
  5
3
330
0
100
AcDbSymbolTable
 70
     8
  0
STYLE
  5
F
330
3
100
AcDbSymbolTableRecord
100
AcDbTextStyleTableRecord
  2
STANDARD
 70
     0
 40
0.0
 41
1.0
 50
0.0
 71
     0
 42
2.5
  3
txt
  4

  0
STYLE
  5
3F
330
3
100
AcDbSymbolTableRecord
100
AcDbTextStyleTableRecord
  2
STYLE3
 70
     0
 40
0.0
 41
1.0
 50
0.0
 71
     0
 42
3.0
  3
romans.shx
  4
bigfont.shx
  0
ENDTAB
  0
TABLE
  2
VIEW
  5
6
330
0
100
AcDbSymbolTable
 70
     0
  0
ENDTAB
  0
TABLE
  2
UCS
  5
7
330
0
100
AcDbSymbolTable
 70
     0
  0
ENDTAB
  0
TABLE
  2
APPID
  5
9
330
0
100
AcDbSymbolTable
 70
     2
  0
APPID
  5
10
330
9
100
AcDbSymbolTableRecord
100
AcDbRegAppTableRecord
  2
ACAD
 70
     0
  0
APPID
  5
1023
330
9
100
AcDbSymbolTableRecord
100
AcDbRegAppTableRecord
  2
ACAD_PSEXT
 70
     0
  0
ENDTAB
  0
TABLE
  2
DIMSTYLE
  5
A
330
0
100
AcDbSymbolTable
 70
     8
100
AcDbDimStyleTable
 71
     1
340
8F
  0
DIMSTYLE
105
1D
330
A
100
AcDbSymbolTableRecord
100
AcDbDimStyleTableRecord
  2
STANDARD
 70
     0
 41
2.5
 42
0.625
 43
3.75
 44
1.25
 73
     0
 74
     0
 77
     1
 78
     8
140
2.5
141
2.5
143
0.0394
147
0.625
171
     4
172
     1
273
     8
274
     4
277
     6
340
F
  0
DIMSTYLE
105
8F
102
{ACAD_REACTORS
330
9A9
330
9B6
330
9C2
330
9CF
330
9DB
330
9E7
330
A0A
330
A3B
330
A5D
330
A72
330
AA0
330
AB1
102
}
330
A
100
AcDbSymbolTableRecord
100
AcDbDimStyleTableRecord
  2
STYLE3
 70
     0
 41
2.5
 42
0.0
 43
3.75
 44
1.25
 73
     0
 74
     0
 77
     1
 78
     8
140
2.5
141
2.5
143
0.0394
147
0.625
171
     4
172
     1
173
     1
176
     2
177
     2
178
     6
271
     1
273
     8
274
     4
340
3F
341
45
343
45
344
45
  0
ENDTAB
  0
TABLE
  2
BLOCK_RECORD
  5
1
330
0
100
AcDbSymbolTable
 70
    17
  0
BLOCK_RECORD
  5
18
102
{ACAD_XDICTIONARY
360
1DB8
102
}
330
1
100
AcDbSymbolTableRecord
100
AcDbBlockTableRecord
  2
*MODEL_SPACE
340
B30
  0
BLOCK_RECORD
  5
15
330
1
100
AcDbSymbolTableRecord
100
AcDbBlockTableRecord
  2
*PAPER_SPACE
340
B31
  0
BLOCK_RECORD
  5
45
330
1
100
AcDbSymbolTableRecord
100
AcDbBlockTableRecord
  2
_OPEN
340
0
102
{BLKREFS
331
9A2
331
9A3
331
9AF
331
9B0
331
9BB
331
9BC
331
9C8
331
9C9
331
9EB
331
9EC
331
9F5
331
9F6
331
A0F
331
A10
331
A42
331
A43
331
A8D
331
A8E
331
A82
331
A83
331
A99
331
A9A
331
AB6
331
AB7
102
}
  0
BLOCK_RECORD
  5
99D
330
1
100
AcDbSymbolTableRecord
100
AcDbBlockTableRecord
  2
*D3
340
0
  0
BLOCK_RECORD
  5
9AA
330
1
100
AcDbSymbolTableRecord
100
AcDbBlockTableRecord
  2
*D4
340
0
  0
BLOCK_RECORD
  5
9B7
330
1
100
AcDbSymbolTableRecord
100
AcDbBlockTableRecord
  2
*D5
340
0
  0
BLOCK_RECORD
  5
9C3
330
1
100
AcDbSymbolTableRecord
100
AcDbBlockTableRecord
  2
*D6
340
0
  0
BLOCK_RECORD
  5
9D0
330
1
100
AcDbSymbolTableRecord
100
AcDbBlockTableRecord
  2
*D7
340
0
  0
BLOCK_RECORD
  5
9DC
330
1
100
AcDbSymbolTableRecord
100
AcDbBlockTableRecord
  2
*D8
340
0
  0
BLOCK_RECORD
  5
9FE
330
1
100
AcDbSymbolTableRecord
100
AcDbBlockTableRecord
  2
*D9
340
0
  0
BLOCK_RECORD
  5
A2F
330
1
100
AcDbSymbolTableRecord
100
AcDbBlockTableRecord
  2
*D10
340
0
  0
BLOCK_RECORD
  5
A51
330
1
100
AcDbSymbolTableRecord
100
AcDbBlockTableRecord
  2
*D11
340
0
  0
BLOCK_RECORD
  5
A66
330
1
100
AcDbSymbolTableRecord
100
AcDbBlockTableRecord
  2
*D13
340
0
  0
BLOCK_RECORD
  5
A94
330
1
100
AcDbSymbolTableRecord
100
AcDbBlockTableRecord
  2
*D14
340
0
  0
BLOCK_RECORD
  5
AA5
330
1
100
AcDbSymbolTableRecord
100
AcDbBlockTableRecord
  2
*D15
340
0
  0
ENDTAB
  0
ENDSEC
  0
SECTION
  2
BLOCKS
  0
BLOCK
  5
19
330
18
100
AcDbEntity
  8
0
100
AcDbBlockBegin
  2
*MODEL_SPACE
 70
     0
 10
0.0
 20
0.0
 30
0.0
  3
*MODEL_SPACE
  1

  0
ENDBLK
  5
1A
330
18
100
AcDbEntity
  8
0
100
AcDbBlockEnd
  0
BLOCK
  5
16
330
15
100
AcDbEntity
 67
     1
  8
0
100
AcDbBlockBegin
  2
*PAPER_SPACE
 70
     0
 10
0.0
 20
0.0
 30
0.0
  3
*PAPER_SPACE
  1

  0
ENDBLK
  5
17
330
15
100
AcDbEntity
 67
     1
  8
0
100
AcDbBlockEnd
  0
BLOCK
  5
46
330
45
100
AcDbEntity
  8
0
100
AcDbBlockBegin
  2
_OPEN
 70
     0
 10
0.0
 20
0.0
 30
0.0
  3
_OPEN
  1

  0
LINE
  5
47
330
45
100
AcDbEntity
  8
0
  6
ByBlock
 62
     0
100
AcDbLine
 10
-1.0
 20
0.1666666666666666
 30
0.0
 11
0.0
 21
0.0
 31
0.0
  0
LINE
  5
48
330
45
100
AcDbEntity
  8
0
  6
ByBlock
 62
     0
100
AcDbLine
 10
0.0
 20
0.0
 30
0.0
 11
-1.0
 21
-0.1666666666666666
 31
0.0
  0
LINE
  5
49
330
45
100
AcDbEntity
  8
0
  6
ByBlock
 62
     0
100
AcDbLine
 10
0.0
 20
0.0
 30
0.0
 11
-1.0
 21
0.0
 31
0.0
  0
ENDBLK
  5
4A
330
45
100
AcDbEntity
  8
0
100
AcDbBlockEnd
  0
BLOCK
  5
99E
330
99D
100
AcDbEntity
  8
0
100
AcDbBlockBegin
  2
*D3
 70
     1
 10
0.0
 20
0.0
 30
0.0
  3
*D3
  1

  0
LINE
  5
99F
330
99D
100
AcDbEntity
  8
0
  6
ByBlock
 62
     2
100
AcDbLine
 10
14.82360664625449
 20
63.62855537038996
 30
0.0
 11
14.82360664625448
 21
33.99870708865865
 31
0.0
  0
LINE
  5
9A0
330
99D
100
AcDbEntity
  8
0
  6
ByBlock
 62
     2
100
AcDbLine
 10
101.8236066462545
 20
63.62855537038996
 30
0.0
 11
101.8236066462545
 21
33.99870708865865
 31
0.0
  0
LINE
  5
9A1
330
99D
100
AcDbEntity
  8
0
  6
ByBlock
 62
     2
100
AcDbLine
 10
17.32360664625449
 20
35.24870708865865
 30
0.0
 11
99.32360664625448
 21
35.24870708865865
 31
0.0
  0
INSERT
  5
9A2
330
99D
100
AcDbEntity
  8
0
  6
ByBlock
 62
     2
100
AcDbBlockReference
  2
_OPEN
 10
14.82360664625448
 20
35.24870708865865
 30
0.0
 41
2.5
 42
2.5
 43
2.5
 50
180.0
  0
INSERT
  5
9A3
330
99D
100
AcDbEntity
  8
0
  6
ByBlock
 62
     2
100
AcDbBlockReference
  2
_OPEN
 10
101.8236066462545
 20
35.24870708865865
 30
0.0
 41
2.5
 42
2.5
 43
2.5
  0
MTEXT
  5
9A4
330
99D
100
AcDbEntity
  8
0
  6
ByBlock
 62
     6
100
AcDbMText
 10
58.32360664625449
 20
37.12370708865865
 30
0.0
 40
2.5
 41
0.0
 71
     5
 72
     1
  1
\A1;87
  7
STYLE3
 73
     1
 44
1.0
  0
POINT
  5
9A5
330
99D
100
AcDbEntity
  8
DEFPOINTS
  6
ByBlock
 62
     0
100
AcDbPoint
 10
14.82360664625449
 20
63.62855537038996
 30
0.0
  0
POINT
  5
9A6
330
99D
100
AcDbEntity
  8
DEFPOINTS
  6
ByBlock
 62
     0
100
AcDbPoint
 10
101.8236066462545
 20
63.62855537038996
 30
0.0
  0
POINT
  5
9A7
330
99D
100
AcDbEntity
  8
DEFPOINTS
  6
ByBlock
 62
     0
100
AcDbPoint
 10
101.8236066462545
 20
35.24870708865865
 30
0.0
  0
ENDBLK
  5
9A8
330
99D
100
AcDbEntity
  8
0
100
AcDbBlockEnd
  0
BLOCK
  5
9AB
330
9AA
100
AcDbEntity
  8
0
100
AcDbBlockBegin
  2
*D4
 70
     1
 10
0.0
 20
0.0
 30
0.0
  3
*D4
  1

  0
LINE
  5
9AC
330
9AA
100
AcDbEntity
  8
0
  6
ByBlock
 62
     2
100
AcDbLine
 10
132.628609466449
 20
201.3103143586663
 30
0.0
 11
120.7842036175368
 21
201.3103143586663
 31
0.0
  0
LINE
  5
9AD
330
9AA
100
AcDbEntity
  8
0
  6
ByBlock
 62
     2
100
AcDbLine
 10
136.628609466449
 20
147.3103143586663
 30
0.0
 11
120.7842036175368
 21
147.3103143586663
 31
0.0
  0
LINE
  5
9AE
330
9AA
100
AcDbEntity
  8
0
  6
ByBlock
 62
     2
100
AcDbLine
 10
122.0342036175368
 20
198.8103143586663
 30
0.0
 11
122.0342036175368
 21
149.8103143586663
 31
0.0
  0
INSERT
  5
9AF
330
9AA
100
AcDbEntity
  8
0
  6
ByBlock
 62
     2
100
AcDbBlockReference
  2
_OPEN
 10
122.0342036175368
 20
201.3103143586663
 30
0.0
 41
2.5
 42
2.5
 43
2.5
 50
90.0
  0
INSERT
  5
9B0
330
9AA
100
AcDbEntity
  8
0
  6
ByBlock
 62
     2
100
AcDbBlockReference
  2
_OPEN
 10
122.0342036175368
 20
147.3103143586663
 30
0.0
 41
2.5
 42
2.5
 43
2.5
 50
270.0
  0
MTEXT
  5
9B1
330
9AA
100
AcDbEntity
  8
0
  6
ByBlock
 62
     6
100
AcDbMText
 10
120.1592036175368
 20
174.3103143586663
 30
0.0
 40
2.5
 41
0.0
 71
     5
 72
     1
  1
\A1;54
  7
STYLE3
 11
0.0000000000000001
 21
1.0
 31
0.0
 73
     1
 44
1.0
  0
POINT
  5
9B2
330
9AA
100
AcDbEntity
  8
DEFPOINTS
  6
ByBlock
 62
     0
100
AcDbPoint
 10
132.628609466449
 20
201.3103143586663
 30
0.0
  0
POINT
  5
9B3
330
9AA
100
AcDbEntity
  8
DEFPOINTS
  6
ByBlock
 62
     0
100
AcDbPoint
 10
136.628609466449
 20
147.3103143586663
 30
0.0
  0
POINT
  5
9B4
330
9AA
100
AcDbEntity
  8
DEFPOINTS
  6
ByBlock
 62
     0
100
AcDbPoint
 10
122.0342036175368
 20
147.3103143586663
 30
0.0
  0
ENDBLK
  5
9B5
330
9AA
100
AcDbEntity
  8
0
100
AcDbBlockEnd
  0
BLOCK
  5
9B8
330
9B7
100
AcDbEntity
  8
0
100
AcDbBlockBegin
  2
*D5
 70
     1
 10
0.0
 20
0.0
 30
0.0
  3
*D5
  1

  0
LINE
  5
9B9
330
9B7
100
AcDbEntity
  8
0
  6
ByBlock
 62
     2
100
AcDbLine
 10
137.628609466449
 20
140.3103143586663
 30
0.0
 11
120.7842036175368
 21
140.3103143586663
 31
0.0
  0
LINE
  5
9BA
330
9B7
100
AcDbEntity
  8
0
  6
ByBlock
 62
     2
100
AcDbLine
 10
122.0342036175368
 20
144.8103143586663
 30
0.0
 11
122.0342036175368
 21
142.8103143586663
 31
0.0
  0
INSERT
  5
9BB
330
9B7
100
AcDbEntity
  8
0
  6
ByBlock
 62
     2
100
AcDbBlockReference
  2
_OPEN
 10
122.0342036175368
 20
147.3103143586663
 30
0.0
 41
2.5
 42
2.5
 43
2.5
 50
90.0
  0
INSERT
  5
9BC
330
9B7
100
AcDbEntity
  8
0
  6
ByBlock
 62
     2
100
AcDbBlockReference
  2
_OPEN
 10
122.0342036175368
 20
140.3103143586663
 30
0.0
 41
2.5
 42
2.5
 43
2.5
 50
270.0
  0
MTEXT
  5
9BD
330
9B7
100
AcDbEntity
  8
0
  6
ByBlock
 62
     6
100
AcDbMText
 10
120.1592036175368
 20
143.8103143586663
 30
0.0
 40
2.5
 41
0.0
 71
     5
 72
     1
  1
\A1;7
  7
STYLE3
 11
0.0000000000000001
 21
1.0
 31
0.0
 73
     1
 44
1.0
  0
POINT
  5
9BE
330
9B7
100
AcDbEntity
  8
DEFPOINTS
  6
ByBlock
 62
     0
100
AcDbPoint
 10
136.628609466449
 20
147.3103143586663
 30
0.0
  0
POINT
  5
9BF
330
9B7
100
AcDbEntity
  8
DEFPOINTS
  6
ByBlock
 62
     0
100
AcDbPoint
 10
137.628609466449
 20
140.3103143586663
 30
0.0
  0
POINT
  5
9C0
330
9B7
100
AcDbEntity
  8
DEFPOINTS
  6
ByBlock
 62
     0
100
AcDbPoint
 10
122.0342036175368
 20
140.3103143586663
 30
0.0
  0
ENDBLK
  5
9C1
330
9B7
100
AcDbEntity
  8
0
100
AcDbBlockEnd
  0
BLOCK
  5
9C4
330
9C3
100
AcDbEntity
  8
0
100
AcDbBlockBegin
  2
*D6
 70
     1
 10
0.0
 20
0.0
 30
0.0
  3
*D6
  1

  0
LINE
  5
9C5
330
9C3
100
AcDbEntity
  8
0
  6
ByBlock
 62
     2
100
AcDbLine
 10
120.7842036175368
 20
201.3103143586663
 30
0.0
 11
113.0458855874615
 21
201.3103143586663
 31
0.0
  0
LINE
  5
9C6
330
9C3
100
AcDbEntity
  8
0
  6
ByBlock
 62
     2
100
AcDbLine
 10
120.7842036175368
 20
140.3103143586663
 30
0.0
 11
113.0458855874615
 21
140.3103143586663
 31
0.0
  0
LINE
  5
9C7
330
9C3
100
AcDbEntity
  8
0
  6
ByBlock
 62
     2
100
AcDbLine
 10
114.2958855874615
 20
198.8103143586663
 30
0.0
 11
114.2958855874615
 21
142.8103143586663
 31
0.0
  0
INSERT
  5
9C8
330
9C3
100
AcDbEntity
  8
0
  6
ByBlock
 62
     2
100
AcDbBlockReference
  2
_OPEN
 10
114.2958855874615
 20
201.3103143586663
 30
0.0
 41
2.5
 42
2.5
 43
2.5
 50
90.0
  0
INSERT
  5
9C9
330
9C3
100
AcDbEntity
  8
0
  6
ByBlock
 62
     2
100
AcDbBlockReference
  2
_OPEN
 10
114.2958855874615
 20
140.3103143586663
 30
0.0
 41
2.5
 42
2.5
 43
2.5
 50
270.0
  0
MTEXT
  5
9CA
330
9C3
100
AcDbEntity
  8
0
  6
ByBlock
 62
     6
100
AcDbMText
 10
112.4208855874615
 20
170.8103143586663
 30
0.0
 40
2.5
 41
0.0
 71
     5
 72
     1
  1
\A1;61
  7
STYLE3
 11
0.0000000000000001
 21
1.0
 31
0.0
 73
     1
 44
1.0
  0
POINT
  5
9CB
330
9C3
100
AcDbEntity
  8
DEFPOINTS
  6
ByBlock
 62
     0
100
AcDbPoint
 10
120.7842036175368
 20
201.3103143586663
 30
0.0
  0
POINT
  5
9CC
330
9C3
100
AcDbEntity
  8
DEFPOINTS
  6
ByBlock
 62
     0
100
AcDbPoint
 10
120.7842036175368
 20
140.3103143586663
 30
0.0
  0
POINT
  5
9CD
330
9C3
100
AcDbEntity
  8
DEFPOINTS
  6
ByBlock
 62
     0
100
AcDbPoint
 10
114.2958855874615
 20
140.3103143586663
 30
0.0
  0
ENDBLK
  5
9CE
330
9C3
100
AcDbEntity
  8
0
100
AcDbBlockEnd
  0
BLOCK
  5
9E8
330
9D0
100
AcDbEntity
  8
0
100
AcDbBlockBegin
  2
*D7
 70
     1
 10
0.0
 20
0.0
 30
0.0
  3
*D7
  1

  0
LINE
  5
9E9
330
9D0
100
AcDbEntity
  8
0
  6
ByBlock
 62
     2
100
AcDbLine
 10
137.628609466449
 20
99.31031435866634
 30
0.0
 11
113.0458855874615
 21
99.31031435866636
 31
0.0
  0
LINE
  5
9EA
330
9D0
100
AcDbEntity
  8
0
  6
ByBlock
 62
     2
100
AcDbLine
 10
114.2958855874615
 20
137.8103143586663
 30
0.0
 11
114.2958855874615
 21
101.8103143586663
 31
0.0
  0
INSERT
  5
9EB
330
9D0
100
AcDbEntity
  8
0
  6
ByBlock
 62
     2
100
AcDbBlockReference
  2
_OPEN
 10
114.2958855874615
 20
140.3103143586663
 30
0.0
 41
2.5
 42
2.5
 43
2.5
 50
90.0
  0
INSERT
  5
9EC
330
9D0
100
AcDbEntity
  8
0
  6
ByBlock
 62
     2
100
AcDbBlockReference
  2
_OPEN
 10
114.2958855874615
 20
99.31031435866636
 30
0.0
 41
2.5
 42
2.5
 43
2.5
 50
270.0
  0
MTEXT
  5
9ED
330
9D0
100
AcDbEntity
  8
0
  6
ByBlock
 62
     6
100
AcDbMText
 10
112.4208855874615
 20
119.8103143586663
 30
0.0
 40
2.5
 41
0.0
 71
     5
 72
     1
  1
\A1;41
  7
STYLE3
 11
0.0000000000000001
 21
1.0
 31
0.0
 73
     1
 44
1.0
  0
POINT
  5
9EE
330
9D0
100
AcDbEntity
  8
DEFPOINTS
  6
ByBlock
 62
     0
100
AcDbPoint
 10
120.7842036175368
 20
140.3103143586663
 30
0.0
  0
POINT
  5
9EF
330
9D0
100
AcDbEntity
  8
DEFPOINTS
  6
ByBlock
 62
     0
100
AcDbPoint
 10
137.628609466449
 20
99.31031435866634
 30
0.0
  0
POINT
  5
9F0
330
9D0
100
AcDbEntity
  8
DEFPOINTS
  6
ByBlock
 62
     0
100
AcDbPoint
 10
114.2958855874615
 20
99.31031435866636
 30
0.0
  0
ENDBLK
  5
9F1
330
9D0
100
AcDbEntity
  8
0
100
AcDbBlockEnd
  0
BLOCK
  5
9F2
330
9DC
100
AcDbEntity
  8
0
100
AcDbBlockBegin
  2
*D8
 70
     1
 10
0.0
 20
0.0
 30
0.0
  3
*D8
  1

  0
LINE
  5
9F3
330
9DC
100
AcDbEntity
  8
0
  6
ByBlock
 62
     2
100
AcDbLine
 10
191.628609466449
 20
62.31031435866634
 30
0.0
 11
113.0458855874615
 21
62.31031435866636
 31
0.0
  0
LINE
  5
9F4
330
9DC
100
AcDbEntity
  8
0
  6
ByBlock
 62
     2
100
AcDbLine
 10
114.2958855874615
 20
96.81031435866636
 30
0.0
 11
114.2958855874615
 21
64.81031435866637
 31
0.0
  0
INSERT
  5
9F5
330
9DC
100
AcDbEntity
  8
0
  6
ByBlock
 62
     2
100
AcDbBlockReference
  2
_OPEN
 10
114.2958855874615
 20
99.31031435866636
 30
0.0
 41
2.5
 42
2.5
 43
2.5
 50
90.0
  0
INSERT
  5
9F6
330
9DC
100
AcDbEntity
  8
0
  6
ByBlock
 62
     2
100
AcDbBlockReference
  2
_OPEN
 10
114.2958855874615
 20
62.31031435866636
 30
0.0
 41
2.5
 42
2.5
 43
2.5
 50
270.0
  0
MTEXT
  5
9F7
330
9DC
100
AcDbEntity
  8
0
  6
ByBlock
 62
     6
100
AcDbMText
 10
112.4208855874615
 20
80.81031435866636
 30
0.0
 40
2.5
 41
0.0
 71
     5
 72
     1
  1
\A1;37
  7
STYLE3
 11
0.0000000000000001
 21
1.0
 31
0.0
 73
     1
 44
1.0
  0
POINT
  5
9F8
330
9DC
100
AcDbEntity
  8
DEFPOINTS
  6
ByBlock
 62
     0
100
AcDbPoint
 10
137.628609466449
 20
99.31031435866634
 30
0.0
  0
POINT
  5
9F9
330
9DC
100
AcDbEntity
  8
DEFPOINTS
  6
ByBlock
 62
     0
100
AcDbPoint
 10
191.628609466449
 20
62.31031435866634
 30
0.0
  0
POINT
  5
9FA
330
9DC
100
AcDbEntity
  8
DEFPOINTS
  6
ByBlock
 62
     0
100
AcDbPoint
 10
114.2958855874615
 20
62.31031435866636
 30
0.0
  0
ENDBLK
  5
9FB
330
9DC
100
AcDbEntity
  8
0
100
AcDbBlockEnd
  0
BLOCK
  5
A0B
330
9FE
100
AcDbEntity
  8
0
100
AcDbBlockBegin
  2
*D9
 70
     1
 10
0.0
 20
0.0
 30
0.0
  3
*D9
  1

  0
LINE
  5
A0C
330
9FE
100
AcDbEntity
  8
0
  6
ByBlock
 62
     2
100
AcDbLine
 10
146.628609466449
 20
300.8103143586664
 30
0.0
 11
105.1290033917419
 21
300.8103143586664
 31
0.0
  0
LINE
  5
A0D
330
9FE
100
AcDbEntity
  8
0
  6
ByBlock
 62
     2
100
AcDbLine
 10
113.0458855874615
 20
62.31031435866636
 30
0.0
 11
105.1290033917419
 21
62.31031435866636
 31
0.0
  0
LINE
  5
A0E
330
9FE
100
AcDbEntity
  8
0
  6
ByBlock
 62
     2
100
AcDbLine
 10
106.3790033917419
 20
298.3103143586664
 30
0.0
 11
106.3790033917419
 21
64.81031435866637
 31
0.0
  0
INSERT
  5
A0F
330
9FE
100
AcDbEntity
  8
0
  6
ByBlock
 62
     2
100
AcDbBlockReference
  2
_OPEN
 10
106.3790033917419
 20
300.8103143586664
 30
0.0
 41
2.5
 42
2.5
 43
2.5
 50
90.0
  0
INSERT
  5
A10
330
9FE
100
AcDbEntity
  8
0
  6
ByBlock
 62
     2
100
AcDbBlockReference
  2
_OPEN
 10
106.3790033917419
 20
62.31031435866636
 30
0.0
 41
2.5
 42
2.5
 43
2.5
 50
270.0
  0
MTEXT
  5
A11
330
9FE
100
AcDbEntity
  8
0
  6
ByBlock
 62
     6
100
AcDbMText
 10
103.84924148698
 20
181.5603143586664
 30
0.0
 40
2.5
 41
0.0
 71
     5
 72
     1
  1
\A1;(238.5)
  7
STYLE3
 11
0.0000000000000001
 21
1.0
 31
0.0
 73
     1
 44
1.0
  0
POINT
  5
A12
330
9FE
100
AcDbEntity
  8
DEFPOINTS
  6
ByBlock
 62
     0
100
AcDbPoint
 10
146.628609466449
 20
300.8103143586664
 30
0.0
  0
POINT
  5
A13
330
9FE
100
AcDbEntity
  8
DEFPOINTS
  6
ByBlock
 62
     0
100
AcDbPoint
 10
113.0458855874615
 20
62.31031435866636
 30
0.0
  0
POINT
  5
A14
330
9FE
100
AcDbEntity
  8
DEFPOINTS
  6
ByBlock
 62
     0
100
AcDbPoint
 10
106.3790033917419
 20
62.31031435866636
 30
0.0
  0
ENDBLK
  5
A15
330
9FE
100
AcDbEntity
  8
0
100
AcDbBlockEnd
  0
BLOCK
  5
A3E
330
A2F
100
AcDbEntity
  8
0
100
AcDbBlockBegin
  2
*D10
 70
     1
 10
0.0
 20
0.0
 30
0.0
  3
*D10
  1

  0
LINE
  5
A3F
330
A2F
100
AcDbEntity
  8
0
  6
ByBlock
 62
     2
100
AcDbLine
 10
146.628609466449
 20
167.6770466707655
 30
0.0
 11
146.628609466449
 21
161.9688833508637
 31
0.0
  0
LINE
  5
A40
330
A2F
100
AcDbEntity
  8
0
  6
ByBlock
 62
     2
100
AcDbLine
 10
446.6286094664489
 20
163.2188833508637
 30
0.0
 11
446.6286094664489
 21
164.4688833508637
 31
0.0
  0
LINE
  5
A41
330
A2F
100
AcDbEntity
  8
0
  6
ByBlock
 62
     2
100
AcDbLine
 10
149.128609466449
 20
163.2188833508637
 30
0.0
 11
444.128609466449
 21
163.2188833508637
 31
0.0
  0
INSERT
  5
A42
330
A2F
100
AcDbEntity
  8
0
  6
ByBlock
 62
     2
100
AcDbBlockReference
  2
_OPEN
 10
146.628609466449
 20
163.2188833508637
 30
0.0
 41
2.5
 42
2.5
 43
2.5
 50
180.0
  0
INSERT
  5
A43
330
A2F
100
AcDbEntity
  8
0
  6
ByBlock
 62
     2
100
AcDbBlockReference
  2
_OPEN
 10
446.6286094664489
 20
163.2188833508637
 30
0.0
 41
2.5
 42
2.5
 43
2.5
  0
MTEXT
  5
A44
330
A2F
100
AcDbEntity
  8
0
  6
ByBlock
 62
     6
100
AcDbMText
 10
296.628609466449
 20
165.0938833508637
 30
0.0
 40
2.5
 41
0.0
 71
     5
 72
     1
  1
\A1;300
  7
STYLE3
 73
     1
 44
1.0
  0
POINT
  5
A45
330
A2F
100
AcDbEntity
  8
DEFPOINTS
  6
ByBlock
 62
     0
100
AcDbPoint
 10
146.628609466449
 20
167.6770466707655
 30
0.0
  0
POINT
  5
A46
330
A2F
100
AcDbEntity
  8
DEFPOINTS
  6
ByBlock
 62
     0
100
AcDbPoint
 10
446.6286094664489
 20
163.2188833508637
 30
0.0
  0
POINT
  5
A47
330
A2F
100
AcDbEntity
  8
DEFPOINTS
  6
ByBlock
 62
     0
100
AcDbPoint
 10
446.6286094664489
 20
163.2188833508637
 30
0.0
  0
ENDBLK
  5
A48
330
A2F
100
AcDbEntity
  8
0
100
AcDbBlockEnd
  0
BLOCK
  5
A89
330
A51
100
AcDbEntity
  8
0
100
AcDbBlockBegin
  2
*D11
 70
     1
 10
0.0
 20
0.0
 30
0.0
  3
*D11
  1

  0
LINE
  5
A8A
330
A51
100
AcDbEntity
  8
0
  6
ByBlock
 62
     2
100
AcDbLine
 10
136.628609466449
 20
144.8103143586663
 30
0.0
 11
136.628609466449
 21
118.4876466720097
 31
0.0
  0
LINE
  5
A8B
330
A51
100
AcDbEntity
  8
0
  6
ByBlock
 62
     2
100
AcDbLine
 10
156.628609466449
 20
144.8103143586663
 30
0.0
 11
156.628609466449
 21
118.4876466720097
 31
0.0
  0
LINE
  5
A8C
330
A51
100
AcDbEntity
  8
0
  6
ByBlock
 62
     2
100
AcDbLine
 10
139.128609466449
 20
119.7376466720097
 30
0.0
 11
154.128609466449
 21
119.7376466720097
 31
0.0
  0
INSERT
  5
A8D
330
A51
100
AcDbEntity
  8
0
  6
ByBlock
 62
     2
100
AcDbBlockReference
  2
_OPEN
 10
136.628609466449
 20
119.7376466720097
 30
0.0
 41
2.5
 42
2.5
 43
2.5
 50
180.0
  0
INSERT
  5
A8E
330
A51
100
AcDbEntity
  8
0
  6
ByBlock
 62
     2
100
AcDbBlockReference
  2
_OPEN
 10
156.628609466449
 20
119.7376466720097
 30
0.0
 41
2.5
 42
2.5
 43
2.5
  0
MTEXT
  5
A8F
330
A51
100
AcDbEntity
  8
0
  6
ByBlock
 62
     6
100
AcDbMText
 10
146.628609466449
 20
121.6126466720097
 30
0.0
 40
2.5
 41
0.0
 71
     5
 72
     1
  1
\A1;φ20
  7
STYLE3
 73
     1
 44
1.0
  0
POINT
  5
A90
330
A51
100
AcDbEntity
  8
DEFPOINTS
  6
ByBlock
 62
     0
100
AcDbPoint
 10
136.628609466449
 20
144.8103143586663
 30
0.0
  0
POINT
  5
A91
330
A51
100
AcDbEntity
  8
DEFPOINTS
  6
ByBlock
 62
     0
100
AcDbPoint
 10
156.628609466449
 20
144.8103143586663
 30
0.0
  0
POINT
  5
A92
330
A51
100
AcDbEntity
  8
DEFPOINTS
  6
ByBlock
 62
     0
100
AcDbPoint
 10
156.628609466449
 20
119.7376466720097
 30
0.0
  0
ENDBLK
  5
A93
330
A51
100
AcDbEntity
  8
0
100
AcDbBlockEnd
  0
BLOCK
  5
A7E
330
A66
100
AcDbEntity
  8
0
100
AcDbBlockBegin
  2
*D13
 70
     1
 10
0.0
 20
0.0
 30
0.0
  3
*D13
  1

  0
LINE
  5
A7F
330
A66
100
AcDbEntity
  8
0
  6
ByBlock
 62
     2
100
AcDbLine
 10
49.05400658467408
 20
147.6103143586663
 30
0.0
 11
49.05400658467408
 21
134.8855886751661
 31
0.0
  0
LINE
  5
A80
330
A66
100
AcDbEntity
  8
0
  6
ByBlock
 62
     2
100
AcDbLine
 10
59.05400658467411
 20
147.6103143586663
 30
0.0
 11
59.05400658467411
 21
134.8855886751661
 31
0.0
  0
LINE
  5
A81
330
A66
100
AcDbEntity
  8
0
  6
ByBlock
 62
     2
100
AcDbLine
 10
51.55400658467408
 20
136.1355886751661
 30
0.0
 11
56.55400658467411
 21
136.1355886751661
 31
0.0
  0
INSERT
  5
A82
330
A66
100
AcDbEntity
  8
0
  6
ByBlock
 62
     2
100
AcDbBlockReference
  2
_OPEN
 10
49.05400658467408
 20
136.1355886751661
 30
0.0
 41
2.5
 42
2.5
 43
2.5
 50
180.0
  0
INSERT
  5
A83
330
A66
100
AcDbEntity
  8
0
  6
ByBlock
 62
     2
100
AcDbBlockReference
  2
_OPEN
 10
59.05400658467411
 20
136.1355886751661
 30
0.0
 41
2.5
 42
2.5
 43
2.5
  0
MTEXT
  5
A84
330
A66
100
AcDbEntity
  8
0
  6
ByBlock
 62
     6
100
AcDbMText
 10
54.0540065846741
 20
138.0105886751661
 30
0.0
 40
2.5
 41
0.0
 71
     5
 72
     1
  1
\A1;φ10
  7
STYLE3
 73
     1
 44
1.0
  0
POINT
  5
A85
330
A66
100
AcDbEntity
  8
DEFPOINTS
  6
ByBlock
 62
     0
100
AcDbPoint
 10
49.05400658467408
 20
147.6103143586663
 30
0.0
  0
POINT
  5
A86
330
A66
100
AcDbEntity
  8
DEFPOINTS
  6
ByBlock
 62
     0
100
AcDbPoint
 10
59.05400658467411
 20
147.6103143586663
 30
0.0
  0
POINT
  5
A87
330
A66
100
AcDbEntity
  8
DEFPOINTS
  6
ByBlock
 62
     0
100
AcDbPoint
 10
59.05400658467411
 20
136.1355886751661
 30
0.0
  0
ENDBLK
  5
A88
330
A66
100
AcDbEntity
  8
0
100
AcDbBlockEnd
  0
BLOCK
  5
A95
330
A94
100
AcDbEntity
  8
0
100
AcDbBlockBegin
  2
*D14
 70
     1
 10
0.0
 20
0.0
 30
0.0
  3
*D14
  1

  0
LINE
  5
A96
330
A94
100
AcDbEntity
  8
0
  6
ByBlock
 62
     2
100
AcDbLine
 10
249.1334512822072
 20
140.3103143586663
 30
0.0
 11
245.0262956153419
 21
140.3103143586663
 31
0.0
  0
LINE
  5
A97
330
A94
100
AcDbEntity
  8
0
  6
ByBlock
 62
     2
100
AcDbLine
 10
247.2286798148184
 20
192.3103143586663
 30
0.0
 11
245.0262956153419
 21
192.3103143586663
 31
0.0
  0
LINE
  5
A98
330
A94
100
AcDbEntity
  8
0
  6
ByBlock
 62
     2
100
AcDbLine
 10
246.276295615342
 20
142.8103143586663
 30
0.0
 11
246.276295615342
 21
189.8103143586663
 31
0.0
  0
INSERT
  5
A99
330
A94
100
AcDbEntity
  8
0
  6
ByBlock
 62
     2
100
AcDbBlockReference
  2
_OPEN
 10
246.276295615342
 20
140.3103143586663
 30
0.0
 41
2.5
 42
2.5
 43
2.5
 50
270.0
  0
INSERT
  5
A9A
330
A94
100
AcDbEntity
  8
0
  6
ByBlock
 62
     2
100
AcDbBlockReference
  2
_OPEN
 10
246.276295615342
 20
192.3103143586663
 30
0.0
 41
2.5
 42
2.5
 43
2.5
 50
90.0
  0
MTEXT
  5
A9B
330
A94
100
AcDbEntity
  8
0
  6
ByBlock
 62
     6
100
AcDbMText
 10
244.4012956153419
 20
166.3103143586663
 30
0.0
 40
2.5
 41
0.0
 71
     5
 72
     1
  1
\A1;52
  7
STYLE3
 11
0.0000000000000001
 21
1.0
 31
0.0
 73
     1
 44
1.0
  0
POINT
  5
A9C
330
A94
100
AcDbEntity
  8
DEFPOINTS
  6
ByBlock
 62
     0
100
AcDbPoint
 10
249.1334512822072
 20
140.3103143586663
 30
0.0
  0
POINT
  5
A9D
330
A94
100
AcDbEntity
  8
DEFPOINTS
  6
ByBlock
 62
     0
100
AcDbPoint
 10
247.2286798148184
 20
192.3103143586663
 30
0.0
  0
POINT
  5
A9E
330
A94
100
AcDbEntity
  8
DEFPOINTS
  6
ByBlock
 62
     0
100
AcDbPoint
 10
246.276295615342
 20
192.3103143586663
 30
0.0
  0
ENDBLK
  5
A9F
330
A94
100
AcDbEntity
  8
0
100
AcDbBlockEnd
  0
BLOCK
  5
AB2
330
AA5
100
AcDbEntity
  8
0
100
AcDbBlockBegin
  2
*D15
 70
     1
 10
0.0
 20
0.0
 30
0.0
  3
*D15
  1

  0
LINE
  5
AB3
330
AA5
100
AcDbEntity
  8
0
  6
ByBlock
 62
     2
100
AcDbLine
 10
45.05400658467411
 20
61.31031435866638
 30
0.0
 11
45.05400658467411
 21
43.43852359979428
 31
0.0
  0
LINE
  5
AB4
330
AA5
100
AcDbEntity
  8
0
  6
ByBlock
 62
     2
100
AcDbLine
 10
63.05400658467411
 20
61.31031435866638
 30
0.0
 11
63.05400658467411
 21
43.43852359979428
 31
0.0
  0
LINE
  5
AB5
330
AA5
100
AcDbEntity
  8
0
  6
ByBlock
 62
     2
100
AcDbLine
 10
47.55400658467411
 20
44.68852359979428
 30
0.0
 11
60.55400658467411
 21
44.68852359979428
 31
0.0
  0
INSERT
  5
AB6
330
AA5
100
AcDbEntity
  8
0
  6
ByBlock
 62
     2
100
AcDbBlockReference
  2
_OPEN
 10
45.05400658467411
 20
44.68852359979428
 30
0.0
 41
2.5
 42
2.5
 43
2.5
 50
180.0
  0
INSERT
  5
AB7
330
AA5
100
AcDbEntity
  8
0
  6
ByBlock
 62
     2
100
AcDbBlockReference
  2
_OPEN
 10
63.05400658467411
 20
44.68852359979428
 30
0.0
 41
2.5
 42
2.5
 43
2.5
  0
MTEXT
  5
AB8
330
AA5
100
AcDbEntity
  8
0
  6
ByBlock
 62
     6
100
AcDbMText
 10
54.05400658467411
 20
46.56352359979428
 30
0.0
 40
2.5
 41
0.0
 71
     5
 72
     1
  1
\A1;18
  7
STYLE3
 73
     1
 44
1.0
  0
POINT
  5
AB9
330
AA5
100
AcDbEntity
  8
DEFPOINTS
  6
ByBlock
 62
     0
100
AcDbPoint
 10
45.05400658467411
 20
61.31031435866638
 30
0.0
  0
POINT
  5
ABA
330
AA5
100
AcDbEntity
  8
DEFPOINTS
  6
ByBlock
 62
     0
100
AcDbPoint
 10
63.05400658467411
 20
61.31031435866638
 30
0.0
  0
POINT
  5
ABB
330
AA5
100
AcDbEntity
  8
DEFPOINTS
  6
ByBlock
 62
     0
100
AcDbPoint
 10
63.05400658467411
 20
44.68852359979428
 30
0.0
  0
ENDBLK
  5
ABC
330
AA5
100
AcDbEntity
  8
0
100
AcDbBlockEnd
  0
ENDSEC
  0
SECTION
  2
ENTITIES
  0
LWPOLYLINE
  5
1A0
330
18
100
AcDbEntity
  8
C
100
AcDbPolyline
 90
        5
 70
     0
 43
0.8
 38
1.0
 10
0.0
 20
377.5
 10
565.0
 20
377.5
 10
565.0
 20
0.0
 10
0.0
 20
0.0
 10
0.0
 20
377.5
  0
ARC
  5
5AC
330
18
100
AcDbEntity
  8
外形線
100
AcDbCircle
 10
278.628609466449
 20
220.3103143586663
 30
0.0
 40
15.0
100
AcDbArc
 50
270.0
 51
90.0
  0
ARC
  5
5AD
330
18
100
AcDbEntity
  8
外形線
100
AcDbCircle
 10
310.628609466449
 20
218.3103143586663
 30
0.0
 40
45.0
100
AcDbArc
 50
89.99999999999998
 51
131.173697316247
  0
ARC
  5
5AE
330
18
100
AcDbEntity
  8
外形線
100
AcDbCircle
 10
310.628609466449
 20
218.3103143586663
 30
0.0
 40
50.0
100
AcDbArc
 50
89.99999999999998
 51
131.173697316247
  0
LINE
  5
5AF
330
18
100
AcDbEntity
  8
外形線
100
AcDbLine
 10
262.628609466449
 20
124.2103143586663
 30
0.0
 11
302.628609466449
 21
124.2103143586663
 31
0.0
  0
LINE
  5
5B0
330
18
100
AcDbEntity
  8
外形線
100
AcDbLine
 10
261.4316019851523
 20
100.2701647327312
 30
0.0
 11
301.2321007382694
 21
96.28013979507535
 31
0.0
  0
LINE
  5
5B1
330
18
100
AcDbEntity
  8
外形線
100
AcDbLine
 10
229.982138546548
 20
226.9537676649317
 30
0.0
 11
299.3137430395925
 21
309.8581018002473
 31
0.0
  0
LINE
  5
5B2
330
18
100
AcDbEntity
  8
外形線
100
AcDbLine
 10
242.627336498036
 20
217.1507595160172
 30
0.0
 11
305.6363420153365
 21
304.9565977257901
 31
0.0
  0
LINE
  5
5B3
330
18
100
AcDbEntity
  8
中心線
100
AcDbLine
 10
170.4655024612057
 20
116.8184697089285
 30
0.0
 11
452.9663156316666
 21
102.6934290504055
 31
0.0
  0
LINE
  5
5B4
330
18
100
AcDbEntity
  8
外形線
100
AcDbLine
 10
189.2384349356905
 20
96.49041456104823
 30
0.0
 11
428.2384349356905
 21
73.06578010791112
 31
0.0
  0
LINE
  5
5B5
330
18
100
AcDbEntity
  8
外形線
100
AcDbLine
 10
189.628609466449
 20
135.3103143586663
 30
0.0
 11
428.628609466449
 21
135.3103143586663
 31
0.0
  0
LINE
  5
5B6
330
18
100
AcDbEntity
  8
外形線
100
AcDbLine
 10
210.628609466449
 20
89.36998367417213
 30
0.0
 11
429.0187839972075
 21
67.96533929534439
 31
0.0
  0
LINE
  5
5B7
330
18
100
AcDbEntity
  8
中心線
100
AcDbLine
 10
239.8883915809558
 20
220.3103143586663
 30
0.0
 11
297.3599395528615
 21
220.3103143586663
 31
0.0
  0
LINE
  5
5B8
330
18
100
AcDbEntity
  8
外形線
100
AcDbLine
 10
189.628609466449
 20
197.3103143586663
 30
0.0
 11
204.4239725114183
 21
197.3103143586663
 31
0.0
  0
LINE
  5
5BA
330
18
100
AcDbEntity
  8
外形線
100
AcDbLine
 10
137.628609466449
 20
140.3103143586663
 30
0.0
 11
434.628609466449
 21
140.3103143586663
 31
0.0
  0
LINE
  5
5BB
330
18
100
AcDbEntity
  8
外形線
100
AcDbLine
 10
153.628609466449
 20
192.3103143586663
 30
0.0
 11
199.9085181609761
 21
192.3103143586663
 31
0.0
  0
LINE
  5
5BC
330
18
100
AcDbEntity
  8
中心線
100
AcDbLine
 10
146.628609466449
 20
304.7375401089145
 30
0.0
 11
146.628609466449
 21
73.67023471580239
 31
0.0
  0
LINE
  5
5BD
330
18
100
AcDbEntity
  8
外形線
100
AcDbLine
 10
47.55400658467411
 20
165.6947636175693
 30
0.0
 11
47.55400658467411
 21
150.2665351402413
 31
0.0
  0
LINE
  5
5BE
330
18
100
AcDbEntity
  8
外形線
100
AcDbLine
 10
64.05400658467411
 20
226.5603143586663
 30
0.0
 11
64.05400658467411
 21
160.5556750026915
 31
0.0
  0
LINE
  5
5BF
330
18
100
AcDbEntity
  8
外形線
100
AcDbLine
 10
66.05400658467411
 20
311.4073497630187
 30
0.0
 11
66.05400658467411
 21
160.5556750026916
 31
0.0
  0
LINE
  5
5C0
330
18
100
AcDbEntity
  8
外形線
100
AcDbLine
 10
176.9567329408447
 20
166.8956124938544
 30
0.0
 11
183.3446271641508
 21
160.5556750026916
 31
0.0
  0
LINE
  5
5C1
330
18
100
AcDbEntity
  8
隠れ線2
100
AcDbLine
 10
181.9231448927407
 20
161.9664855813412
 30
0.0
 11
189.3396961860497
 21
168.6947636175693
 31
0.0
  0
LINE
  5
5C2
330
18
100
AcDbEntity
  8
外形線
100
AcDbLine
 10
178.2926221296139
 20
155.9725078177691
 30
0.0
 11
235.2750803863502
 21
207.6668610524012
 31
0.0
  0
LINE
  5
5C3
330
18
100
AcDbEntity
  8
外形線
100
AcDbLine
 10
51.55400658467411
 20
178.6103143586663
 30
0.0
 11
51.55400658467411
 21
158.8103143586663
 31
0.0
  0
LINE
  5
5C4
330
18
100
AcDbEntity
  8
外形線
100
AcDbLine
 10
56.55400658467406
 20
178.6103143586664
 30
0.0
 11
56.55400658467406
 21
158.8103143586663
 31
0.0
  0
LINE
  5
5C5
330
18
100
AcDbEntity
  8
外形線
100
AcDbLine
 10
45.05400658467411
 20
303.3103143586664
 30
0.0
 11
45.05400658467411
 21
147.3103143586663
 31
0.0
  0
LINE
  5
5C6
330
18
100
AcDbEntity
  8
中心線
100
AcDbLine
 10
54.05400658467411
 20
303.5396675807738
 30
0.0
 11
54.05400658467411
 21
56.81650465223595
 31
0.0
  0
LINE
  5
5C7
330
18
100
AcDbEntity
  8
外形線
100
AcDbLine
 10
144.128609466449
 20
178.6103143586663
 30
0.0
 11
144.128609466449
 21
158.8103143586663
 31
0.0
  0
LINE
  5
5C8
330
18
100
AcDbEntity
  8
外形線
100
AcDbLine
 10
149.128609466449
 20
178.6103143586664
 30
0.0
 11
149.128609466449
 21
158.8103143586663
 31
0.0
  0
LINE
  5
5C9
330
18
100
AcDbEntity
  8
外形線
100
AcDbLine
 10
51.9571086687493
 20
69.84452865379632
 30
0.0
 11
51.68656153838018
 21
83.58040304379176
 31
0.0
  0
LINE
  5
5CA
330
18
100
AcDbEntity
  8
外形線
100
AcDbLine
 10
56.15090450059892
 20
69.84452865379632
 30
0.0
 11
56.42145163096805
 21
83.58040304379176
 31
0.0
  0
LINE
  5
5CB
330
18
100
AcDbEntity
  8
外形線
100
AcDbLine
 10
63.05400658467411
 20
90.31031435866635
 30
0.0
 11
63.05400658467411
 21
61.31031435866638
 31
0.0
  0
LINE
  5
5CC
330
18
100
AcDbEntity
  8
外形線
100
AcDbLine
 10
45.05400658467411
 20
90.31031435866635
 30
0.0
 11
45.05400658467411
 21
61.31031435866638
 31
0.0
  0
LINE
  5
5CD
330
18
100
AcDbEntity
  8
外形線
100
AcDbLine
 10
42.89375923505332
 20
89.67942610976022
 30
0.0
 11
11.88220446437074
 21
62.13326596951486
 31
0.0
  0
LINE
  5
5CE
330
18
100
AcDbEntity
  8
外形線
100
AcDbLine
 10
41.56556135535669
 20
91.17471551063529
 30
0.0
 11
10.55400658467411
 21
63.62855537038996
 31
0.0
  0
LINE
  5
5CF
330
18
100
AcDbEntity
  8
外形線
100
AcDbLine
 10
66.54245181399153
 20
91.17471551063529
 30
0.0
 11
97.55400658467412
 21
63.62855537038996
 31
0.0
  0
LINE
  5
5D0
330
18
100
AcDbEntity
  8
外形線
100
AcDbLine
 10
65.2142539342949
 20
89.67942610976022
 30
0.0
 11
96.22580870497749
 21
62.13326596951486
 31
0.0
  0
LINE
  5
5D1
330
18
100
AcDbEntity
  8
外形線
100
AcDbLine
 10
10.55400658467411
 20
63.62855537038996
 30
0.0
 11
11.88220446437074
 21
62.13326596951486
 31
0.0
  0
LINE
  5
5D2
330
18
100
AcDbEntity
  8
外形線
100
AcDbLine
 10
63.05400658467411
 20
67.96533929534439
 30
0.0
 11
45.05400658467411
 21
67.96533929534439
 31
0.0
  0
LINE
  5
5D3
330
18
100
AcDbEntity
  8
外形線
100
AcDbLine
 10
63.05400658467411
 20
61.31031435866638
 30
0.0
 11
45.05400658467411
 21
61.31031435866638
 31
0.0
  0
ARC
  5
5D4
330
18
100
AcDbEntity
  8
外形線
100
AcDbCircle
 10
54.05400658467411
 20
70.07484823840804
 30
0.0
 40
2.109508943063662
100
AcDbArc
 50
270.0
 51
353.7318588147518
  0
ARC
  5
5D5
330
18
100
AcDbEntity
  8
外形線
100
AcDbCircle
 10
54.05400658467411
 20
70.07484823840804
 30
0.0
 40
2.109508943063662
100
AcDbArc
 50
186.2681411852482
 51
270.0
  0
LINE
  5
5D6
330
18
100
AcDbEntity
  8
外形線
100
AcDbLine
 10
97.55400658467412
 20
63.62855537038996
 30
0.0
 11
96.22580870497749
 21
62.13326596951486
 31
0.0
  0
LINE
  5
5D7
330
18
100
AcDbEntity
  8
外形線
100
AcDbLine
 10
45.05400658467411
 20
142.3103143586663
 30
0.0
 11
45.05400658467411
 21
97.31031435866634
 31
0.0
  0
LINE
  5
5D8
330
18
100
AcDbEntity
  8
外形線
100
AcDbLine
 10
63.05400658467412
 20
142.3103143586663
 30
0.0
 11
63.05400658467412
 21
99.31031435866634
 31
0.0
  0
LINE
  5
5D9
330
18
100
AcDbEntity
  8
外形線
100
AcDbLine
 10
63.55400658467411
 20
96.81031435866636
 30
0.0
 11
63.55400658467411
 21
95.81031435866634
 31
0.0
  0
LINE
  5
5DA
330
18
100
AcDbEntity
  8
外形線
 62
     4
100
AcDbLine
 10
48.55400658467411
 20
96.81031435866636
 30
0.0
 11
48.55400658467411
 21
95.81031435866634
 31
0.0
  0
LINE
  5
5DB
330
18
100
AcDbEntity
  8
外形線
 62
     4
100
AcDbLine
 10
49.55400658467411
 20
96.81031435866636
 30
0.0
 11
49.55400658467411
 21
95.81031435866634
 31
0.0
  0
LINE
  5
5DC
330
18
100
AcDbEntity
  8
外形線
 62
     4
100
AcDbLine
 10
50.55400658467411
 20
96.81031435866636
 30
0.0
 11
50.55400658467411
 21
95.81031435866634
 31
0.0
  0
LINE
  5
5DD
330
18
100
AcDbEntity
  8
外形線
 62
     4
100
AcDbLine
 10
51.55400658467411
 20
96.81031435866636
 30
0.0
 11
51.55400658467411
 21
95.81031435866634
 31
0.0
  0
LINE
  5
5DE
330
18
100
AcDbEntity
  8
外形線
 62
     4
100
AcDbLine
 10
52.55400658467412
 20
96.81031435866636
 30
0.0
 11
52.55400658467412
 21
95.81031435866634
 31
0.0
  0
LINE
  5
5DF
330
18
100
AcDbEntity
  8
外形線
100
AcDbLine
 10
44.55400658467411
 20
96.81031435866636
 30
0.0
 11
44.55400658467411
 21
95.81031435866634
 31
0.0
  0
LINE
  5
5E0
330
18
100
AcDbEntity
  8
外形線
 62
     4
100
AcDbLine
 10
45.55400658467411
 20
96.81031435866636
 30
0.0
 11
45.55400658467411
 21
95.81031435866634
 31
0.0
  0
LINE
  5
5E1
330
18
100
AcDbEntity
  8
外形線
 62
     4
100
AcDbLine
 10
46.55400658467411
 20
96.81031435866636
 30
0.0
 11
46.55400658467411
 21
95.81031435866634
 31
0.0
  0
LINE
  5
5E2
330
18
100
AcDbEntity
  8
外形線
 62
     4
100
AcDbLine
 10
47.55400658467411
 20
96.81031435866636
 30
0.0
 11
47.55400658467411
 21
95.81031435866634
 31
0.0
  0
LINE
  5
5E3
330
18
100
AcDbEntity
  8
外形線
100
AcDbLine
 10
44.55400658467411
 20
90.31031435866635
 30
0.0
 11
52.05400658467411
 21
90.31031435866635
 31
0.0
  0
LINE
  5
5E4
330
18
100
AcDbEntity
  8
外形線
100
AcDbLine
 10
44.55400658467411
 20
92.31031435866638
 30
0.0
 11
52.05400658467411
 21
92.31031435866634
 31
0.0
  0
LINE
  5
5E5
330
18
100
AcDbEntity
  8
外形線
100
AcDbLine
 10
45.05400658467411
 20
95.31031435866635
 30
0.0
 11
63.05400658467411
 21
95.31031435866635
 31
0.0
  0
LINE
  5
5E6
330
18
100
AcDbEntity
  8
外形線
100
AcDbLine
 10
44.55400658467411
 20
95.81031435866634
 30
0.0
 11
63.55400658467411
 21
95.81031435866634
 31
0.0
  0
LINE
  5
5E7
330
18
100
AcDbEntity
  8
外形線
100
AcDbLine
 10
46.55400658467411
 20
86.58040304379175
 30
0.0
 11
61.55400658467411
 21
86.58040304379175
 31
0.0
  0
LINE
  5
5E8
330
18
100
AcDbEntity
  8
外形線
100
AcDbLine
 10
46.55400658467411
 20
83.58040304379176
 30
0.0
 11
61.55400658467411
 21
83.58040304379176
 31
0.0
  0
LINE
  5
5E9
330
18
100
AcDbEntity
  8
外形線
100
AcDbLine
 10
46.05400658467411
 20
86.08040304379176
 30
0.0
 11
62.05400658467411
 21
86.08040304379176
 31
0.0
  0
LINE
  5
5EA
330
18
100
AcDbEntity
  8
外形線
100
AcDbLine
 10
46.05400658467411
 20
84.08040304379175
 30
0.0
 11
62.05400658467411
 21
84.08040304379175
 31
0.0
  0
LINE
  5
5EB
330
18
100
AcDbEntity
  8
外形線
 62
     4
100
AcDbLine
 10
48.94029491523738
 20
86.08040304379176
 30
0.0
 11
48.94029491523738
 21
84.08040304379175
 31
0.0
  0
LINE
  5
5EC
330
18
100
AcDbEntity
  8
外形線
 62
     4
100
AcDbLine
 10
47.94029491523739
 20
86.08040304379176
 30
0.0
 11
47.94029491523739
 21
84.08040304379175
 31
0.0
  0
LINE
  5
5ED
330
18
100
AcDbEntity
  8
外形線
100
AcDbLine
 10
46.05400658467411
 20
86.08040304379176
 30
0.0
 11
46.05400658467411
 21
84.08040304379175
 31
0.0
  0
LINE
  5
5EE
330
18
100
AcDbEntity
  8
外形線
 62
     4
100
AcDbLine
 10
46.94029491523738
 20
86.08040304379176
 30
0.0
 11
46.94029491523738
 21
84.08040304379175
 31
0.0
  0
LINE
  5
5EF
330
18
100
AcDbEntity
  8
外形線
100
AcDbLine
 10
46.55400658467411
 20
83.58040304379176
 30
0.0
 11
46.05400658467411
 21
84.08040304379175
 31
0.0
  0
LINE
  5
5F0
330
18
100
AcDbEntity
  8
外形線
100
AcDbLine
 10
48.89716875963341
 20
86.58040304379175
 30
0.0
 11
48.82370297404747
 21
90.31031435866635
 31
0.0
  0
LINE
  5
5F1
330
18
100
AcDbEntity
  8
外形線
100
AcDbLine
 10
46.05400658467411
 20
86.08040304379176
 30
0.0
 11
46.55400658467411
 21
86.58040304379175
 31
0.0
  0
ARC
  5
5F2
330
18
100
AcDbEntity
  8
外形線
100
AcDbCircle
 10
44.55400658467411
 20
87.81031435866635
 30
0.0
 40
2.5
100
AcDbArc
 50
90.0
 51
131.6132355973203
  0
ARC
  5
5F3
330
18
100
AcDbEntity
  8
外形線
100
AcDbCircle
 10
44.55400658467411
 20
87.81031435866635
 30
0.0
 40
4.5
100
AcDbArc
 50
90.0
 51
131.6132355973203
  0
LINE
  5
5F4
330
18
100
AcDbEntity
  8
外形線
100
AcDbLine
 10
45.05400658467411
 20
95.31031435866635
 30
0.0
 11
44.55400658467411
 21
95.81031435866634
 31
0.0
  0
LINE
  5
5F5
330
18
100
AcDbEntity
  8
外形線
100
AcDbLine
 10
62.05400658467411
 20
86.08040304379176
 30
0.0
 11
62.05400658467411
 21
84.08040304379175
 31
0.0
  0
LINE
  5
5F6
330
18
100
AcDbEntity
  8
外形線
 62
     4
100
AcDbLine
 10
49.94029491523739
 20
86.08040304379176
 30
0.0
 11
49.94029491523739
 21
84.08040304379175
 31
0.0
  0
LINE
  5
5F7
330
18
100
AcDbEntity
  8
外形線
 62
     4
100
AcDbLine
 10
50.94029491523738
 20
86.08040304379176
 30
0.0
 11
50.94029491523738
 21
84.08040304379175
 31
0.0
  0
LINE
  5
5F8
330
18
100
AcDbEntity
  8
外形線
 62
     4
100
AcDbLine
 10
51.94029491523739
 20
86.08040304379176
 30
0.0
 11
51.94029491523739
 21
84.08040304379175
 31
0.0
  0
LINE
  5
5F9
330
18
100
AcDbEntity
  8
外形線
 62
     4
100
AcDbLine
 10
52.94029491523739
 20
86.08040304379176
 30
0.0
 11
52.94029491523739
 21
84.08040304379175
 31
0.0
  0
LINE
  5
5FA
330
18
100
AcDbEntity
  8
外形線
100
AcDbLine
 10
62.05400658467411
 20
84.08040304379175
 30
0.0
 11
61.55400658467411
 21
83.58040304379176
 31
0.0
  0
LINE
  5
5FB
330
18
100
AcDbEntity
  8
外形線
100
AcDbLine
 10
63.55400658467411
 20
90.31031435866635
 30
0.0
 11
56.05400658467411
 21
90.31031435866635
 31
0.0
  0
LINE
  5
5FC
330
18
100
AcDbEntity
  8
外形線
100
AcDbLine
 10
63.55400658467411
 20
92.31031435866638
 30
0.0
 11
56.05400658467411
 21
92.31031435866634
 31
0.0
  0
LINE
  5
5FD
330
18
100
AcDbEntity
  8
外形線
100
AcDbLine
 10
51.64716875963342
 20
86.58040304379175
 30
0.0
 11
51.57370297404749
 21
90.31031435866635
 31
0.0
  0
LINE
  5
5FE
330
18
100
AcDbEntity
  8
外形線
100
AcDbLine
 10
56.46084440971481
 20
86.58040304379175
 30
0.0
 11
56.53431019530074
 21
90.31031435866635
 31
0.0
  0
LINE
  5
5FF
330
18
100
AcDbEntity
  8
外形線
100
AcDbLine
 10
59.21084440971481
 20
86.58040304379175
 30
0.0
 11
59.28431019530075
 21
90.31031435866635
 31
0.0
  0
LINE
  5
600
330
18
100
AcDbEntity
  8
外形線
100
AcDbLine
 10
56.05400658467411
 20
95.31031435866635
 30
0.0
 11
56.05400658467411
 21
86.58040304379175
 31
0.0
  0
LINE
  5
601
330
18
100
AcDbEntity
  8
外形線
100
AcDbLine
 10
52.05400658467411
 20
95.31031435866635
 30
0.0
 11
52.05400658467411
 21
86.58040304379175
 31
0.0
  0
LINE
  5
602
330
18
100
AcDbEntity
  8
中心線
100
AcDbLine
 10
52.80400658467411
 20
95.31031435866635
 30
0.0
 11
52.80400658467411
 21
86.58040304379175
 31
0.0
  0
LINE
  5
603
330
18
100
AcDbEntity
  8
中心線
100
AcDbLine
 10
55.30400658467411
 20
95.31031435866635
 30
0.0
 11
55.30400658467411
 21
86.58040304379175
 31
0.0
  0
LINE
  5
604
330
18
100
AcDbEntity
  8
外形線
100
AcDbLine
 10
61.55400658467411
 20
86.58040304379175
 30
0.0
 11
62.05400658467411
 21
86.08040304379176
 31
0.0
  0
ARC
  5
605
330
18
100
AcDbEntity
  8
外形線
100
AcDbCircle
 10
63.55400658467411
 20
87.81031435866635
 30
0.0
 40
4.5
100
AcDbArc
 50
48.38676440267968
 51
90.0
  0
LINE
  5
606
330
18
100
AcDbEntity
  8
外形線
100
AcDbLine
 10
63.55400658467411
 20
95.81031435866634
 30
0.0
 11
63.05400658467411
 21
95.31031435866635
 31
0.0
  0
ARC
  5
607
330
18
100
AcDbEntity
  8
外形線
100
AcDbCircle
 10
63.55400658467411
 20
87.81031435866635
 30
0.0
 40
2.5
100
AcDbArc
 50
48.38676440267968
 51
90.0
  0
LINE
  5
608
330
18
100
AcDbEntity
  8
外形線
100
AcDbLine
 10
45.05400658467411
 20
97.31031435866634
 30
0.0
 11
61.05400658467411
 21
97.31031435866634
 31
0.0
  0
LINE
  5
609
330
18
100
AcDbEntity
  8
外形線
100
AcDbLine
 10
44.55400658467411
 20
96.81031435866636
 30
0.0
 11
63.55400658467411
 21
96.81031435866636
 31
0.0
  0
LINE
  5
60A
330
18
100
AcDbEntity
  8
外形線
100
AcDbLine
 10
63.05400658467411
 20
99.31031435866636
 30
0.0
 11
45.05400658467411
 21
99.31031435866636
 31
0.0
  0
LINE
  5
60B
330
18
100
AcDbEntity
  8
外形線
100
AcDbLine
 10
49.05400658467413
 20
99.31031435866636
 30
0.0
 11
49.05400658467411
 21
99.31031435866636
 31
0.0
  0
LINE
  5
60C
330
18
100
AcDbEntity
  8
外形線
100
AcDbLine
 10
44.55400658467411
 20
96.81031435866636
 30
0.0
 11
45.05400658467411
 21
97.31031435866634
 31
0.0
  0
ARC
  5
60D
330
18
100
AcDbEntity
  8
外形線
100
AcDbCircle
 10
47.05400658467411
 20
99.31031435866636
 30
0.0
 40
2.0
100
AcDbArc
 50
270.0
 51
359.9999999999996
  0
ARC
  5
60E
330
18
100
AcDbEntity
  8
外形線
100
AcDbCircle
 10
61.05400658467411
 20
99.31031435866636
 30
0.0
 40
2.0
100
AcDbArc
 50
180.0000000000004
 51
270.0
  0
LINE
  5
60F
330
18
100
AcDbEntity
  8
外形線
100
AcDbLine
 10
63.05400658467411
 20
97.31031435866634
 30
0.0
 11
63.55400658467411
 21
96.81031435866636
 31
0.0
  0
LINE
  5
610
330
18
100
AcDbEntity
  8
外形線
100
AcDbLine
 10
63.05400658467411
 20
97.31031435866634
 30
0.0
 11
61.05400658467411
 21
97.31031435866634
 31
0.0
  0
LINE
  5
611
330
18
100
AcDbEntity
  8
外形線
100
AcDbLine
 10
60.55400658467411
 20
142.3103143586663
 30
0.0
 11
60.55400658467411
 21
140.3103143586663
 31
0.0
  0
LINE
  5
612
330
18
100
AcDbEntity
  8
外形線
100
AcDbLine
 10
47.55400658467411
 20
142.3103143586663
 30
0.0
 11
47.55400658467411
 21
140.3103143586663
 31
0.0
  0
LINE
  5
613
330
18
100
AcDbEntity
  8
外形線
100
AcDbLine
 10
63.05400658467411
 20
140.3103143586663
 30
0.0
 11
45.05400658467411
 21
140.3103143586663
 31
0.0
  0
LINE
  5
614
330
18
100
AcDbEntity
  8
外形線
100
AcDbLine
 10
49.05400658467411
 20
157.3103143586663
 30
0.0
 11
49.55400658467411
 21
156.8103143586663
 31
0.0
  0
LINE
  5
615
330
18
100
AcDbEntity
  8
外形線
100
AcDbLine
 10
49.55400658467411
 20
158.8103143586663
 30
0.0
 11
49.05400658467411
 21
158.3103143586663
 31
0.0
  0
LINE
  5
616
330
18
100
AcDbEntity
  8
外形線
100
AcDbLine
 10
49.05400658467411
 20
158.3103143586663
 30
0.0
 11
59.05400658467413
 21
158.3103143586663
 31
0.0
  0
LINE
  5
617
330
18
100
AcDbEntity
  8
外形線
100
AcDbLine
 10
49.05400658467411
 20
157.3103143586663
 30
0.0
 11
59.05400658467413
 21
157.3103143586663
 31
0.0
  0
LINE
  5
618
330
18
100
AcDbEntity
  8
外形線
100
AcDbLine
 10
50.05400658467408
 20
151.3103143586663
 30
0.0
 11
49.05400658467408
 21
150.3103143586663
 31
0.0
  0
LINE
  5
619
330
18
100
AcDbEntity
  8
外形線
100
AcDbLine
 10
54.0540065846741
 20
149.0103143586663
 30
0.0
 11
49.0540065846741
 21
149.0103143586663
 31
0.0
  0
LINE
  5
61A
330
18
100
AcDbEntity
  8
外形線
100
AcDbLine
 10
54.0540065846741
 20
149.6103143586664
 30
0.0
 11
49.0540065846741
 21
149.6103143586664
 31
0.0
  0
LINE
  5
61B
330
18
100
AcDbEntity
  8
外形線
100
AcDbLine
 10
49.35400658467411
 20
149.3103143586663
 30
0.0
 11
58.75400658467409
 21
149.3103143586663
 31
0.0
  0
LINE
  5
61C
330
18
100
AcDbEntity
  8
外形線
100
AcDbLine
 10
49.05400658467408
 20
150.3103143586663
 30
0.0
 11
59.0540065846741
 21
150.3103143586663
 31
0.0
  0
LINE
  5
61D
330
18
100
AcDbEntity
  8
外形線
100
AcDbLine
 10
54.0540065846741
 20
147.3103143586663
 30
0.0
 11
49.35400658467408
 21
147.3103143586663
 31
0.0
  0
LINE
  5
61E
330
18
100
AcDbEntity
  8
外形線
100
AcDbLine
 10
47.55400658467411
 20
154.875430444088
 30
0.0
 11
50.55400658467411
 21
154.875430444088
 31
0.0
  0
LINE
  5
61F
330
18
100
AcDbEntity
  8
外形線
100
AcDbLine
 10
47.55400658467411
 20
152.8856130798598
 30
0.0
 11
50.55400658467411
 21
152.8856130798598
 31
0.0
  0
LINE
  5
620
330
18
100
AcDbEntity
  8
外形線
100
AcDbLine
 10
54.05400658467411
 20
142.3103143586663
 30
0.0
 11
45.05400658467412
 21
142.3103143586663
 31
0.0
  0
LINE
  5
621
330
18
100
AcDbEntity
  8
外形線
100
AcDbLine
 10
54.05400658467413
 20
144.8103143586663
 30
0.0
 11
44.05400658467411
 21
144.8103143586663
 31
0.0
  0
LINE
  5
622
330
18
100
AcDbEntity
  8
外形線
100
AcDbLine
 10
54.05400658467413
 20
147.3103143586663
 30
0.0
 11
44.05400658467411
 21
147.3103143586663
 31
0.0
  0
LINE
  5
623
330
18
100
AcDbEntity
  8
外形線
100
AcDbLine
 10
49.05400658467408
 20
147.6103143586663
 30
0.0
 11
49.0540065846741
 21
149.0103143586663
 31
0.0
  0
LINE
  5
624
330
18
100
AcDbEntity
  8
外形線
100
AcDbLine
 10
44.05400658467411
 20
144.8103143586663
 30
0.0
 11
45.05400658467412
 21
142.3103143586663
 31
0.0
  0
LINE
  5
625
330
18
100
AcDbEntity
  8
外形線
100
AcDbLine
 10
44.05400658467411
 20
147.3103143586663
 30
0.0
 11
44.05400658467413
 21
144.8103143586663
 31
0.0
  0
ARC
  5
626
330
18
100
AcDbEntity
  8
外形線
100
AcDbCircle
 10
49.35400658467408
 20
147.6103143586663
 30
0.0
 40
0.3
100
AcDbArc
 50
180.0
 51
270.0
  0
LINE
  5
627
330
18
100
AcDbEntity
  8
外形線
100
AcDbLine
 10
49.0540065846741
 20
149.0103143586663
 30
0.0
 11
49.35400658467411
 21
149.3103143586663
 31
0.0
  0
LINE
  5
628
330
18
100
AcDbEntity
  8
外形線
100
AcDbLine
 10
49.0540065846741
 20
149.6103143586664
 30
0.0
 11
49.35400658467411
 21
149.3103143586663
 31
0.0
  0
LINE
  5
629
330
18
100
AcDbEntity
  8
外形線
100
AcDbLine
 10
49.05400658467408
 20
150.3103143586663
 30
0.0
 11
49.0540065846741
 21
149.6103143586664
 31
0.0
  0
LINE
  5
62A
330
18
100
AcDbEntity
  8
外形線
100
AcDbLine
 10
47.55400658467411
 20
150.2665351402413
 30
0.0
 11
49.05400658467413
 21
150.2665351402413
 31
0.0
  0
LINE
  5
62B
330
18
100
AcDbEntity
  8
外形線
100
AcDbLine
 10
49.05400658467411
 20
158.3103143586663
 30
0.0
 11
49.05400658467411
 21
157.3103143586663
 31
0.0
  0
LINE
  5
62C
330
18
100
AcDbEntity
  8
外形線
100
AcDbLine
 10
63.05400658467411
 20
160.5556750026915
 30
0.0
 11
63.05400658467411
 21
147.3103143586663
 31
0.0
  0
LINE
  5
62D
330
18
100
AcDbEntity
  8
外形線
100
AcDbLine
 10
50.55400658467411
 20
156.8103143586663
 30
0.0
 11
50.55400658467411
 21
151.3103143586663
 31
0.0
  0
LINE
  5
62E
330
18
100
AcDbEntity
  8
外形線
100
AcDbLine
 10
60.55400658467411
 20
160.5556750026915
 30
0.0
 11
60.55400658467411
 21
150.2665351402413
 31
0.0
  0
LINE
  5
62F
330
18
100
AcDbEntity
  8
外形線
100
AcDbLine
 10
57.55400658467412
 20
156.8103143586663
 30
0.0
 11
57.55400658467412
 21
151.3103143586663
 31
0.0
  0
LINE
  5
630
330
18
100
AcDbEntity
  8
外形線
100
AcDbLine
 10
57.05400658467411
 20
156.8103143586664
 30
0.0
 11
57.05400658467411
 21
151.3103143586663
 31
0.0
  0
LINE
  5
631
330
18
100
AcDbEntity
  8
外形線
100
AcDbLine
 10
51.05400658467411
 20
156.8103143586664
 30
0.0
 11
51.05400658467411
 21
151.3103143586663
 31
0.0
  0
LINE
  5
632
330
18
100
AcDbEntity
  8
外形線
100
AcDbLine
 10
60.55400658467411
 20
150.2665351402413
 30
0.0
 11
59.0540065846741
 21
150.2665351402413
 31
0.0
  0
LINE
  5
633
330
18
100
AcDbEntity
  8
外形線
100
AcDbLine
 10
60.55400658467411
 20
152.8856130798598
 30
0.0
 11
57.55400658467412
 21
152.8856130798598
 31
0.0
  0
LINE
  5
634
330
18
100
AcDbEntity
  8
外形線
100
AcDbLine
 10
54.05400658467411
 20
142.3103143586663
 30
0.0
 11
63.0540065846741
 21
142.3103143586663
 31
0.0
  0
LINE
  5
635
330
18
100
AcDbEntity
  8
外形線
100
AcDbLine
 10
54.0540065846741
 20
144.8103143586663
 30
0.0
 11
64.05400658467411
 21
144.8103143586663
 31
0.0
  0
LINE
  5
636
330
18
100
AcDbEntity
  8
外形線
100
AcDbLine
 10
54.0540065846741
 20
147.3103143586663
 30
0.0
 11
64.05400658467411
 21
147.3103143586663
 31
0.0
  0
LINE
  5
637
330
18
100
AcDbEntity
  8
外形線
100
AcDbLine
 10
59.05400658467411
 20
147.6103143586663
 30
0.0
 11
59.0540065846741
 21
149.0103143586663
 31
0.0
  0
LINE
  5
638
330
18
100
AcDbEntity
  8
外形線
100
AcDbLine
 10
54.0540065846741
 20
147.3103143586663
 30
0.0
 11
58.75400658467412
 21
147.3103143586663
 31
0.0
  0
ARC
  5
639
330
18
100
AcDbEntity
  8
外形線
100
AcDbCircle
 10
58.75400658467412
 20
147.6103143586663
 30
0.0
 40
0.3
100
AcDbArc
 50
270.0
 51
0.0
  0
LINE
  5
63A
330
18
100
AcDbEntity
  8
外形線
100
AcDbLine
 10
54.0540065846741
 20
149.0103143586663
 30
0.0
 11
59.0540065846741
 21
149.0103143586663
 31
0.0
  0
LINE
  5
63B
330
18
100
AcDbEntity
  8
外形線
100
AcDbLine
 10
54.0540065846741
 20
149.6103143586664
 30
0.0
 11
59.0540065846741
 21
149.6103143586664
 31
0.0
  0
LINE
  5
63C
330
18
100
AcDbEntity
  8
外形線
100
AcDbLine
 10
50.05400658467408
 20
151.3103143586663
 30
0.0
 11
58.05400658467411
 21
151.3103143586663
 31
0.0
  0
LINE
  5
63D
330
18
100
AcDbEntity
  8
外形線
100
AcDbLine
 10
59.0540065846741
 20
149.0103143586663
 30
0.0
 11
58.75400658467409
 21
149.3103143586663
 31
0.0
  0
LINE
  5
63E
330
18
100
AcDbEntity
  8
外形線
100
AcDbLine
 10
59.0540065846741
 20
150.3103143586663
 30
0.0
 11
59.0540065846741
 21
149.6103143586664
 31
0.0
  0
LINE
  5
63F
330
18
100
AcDbEntity
  8
外形線
100
AcDbLine
 10
59.0540065846741
 20
149.6103143586664
 30
0.0
 11
58.75400658467409
 21
149.3103143586663
 31
0.0
  0
LINE
  5
640
330
18
100
AcDbEntity
  8
外形線
100
AcDbLine
 10
59.0540065846741
 20
150.3103143586663
 30
0.0
 11
58.05400658467411
 21
151.3103143586663
 31
0.0
  0
LINE
  5
641
330
18
100
AcDbEntity
  8
外形線
100
AcDbLine
 10
64.05400658467411
 20
144.8103143586663
 30
0.0
 11
63.0540065846741
 21
142.3103143586663
 31
0.0
  0
LINE
  5
642
330
18
100
AcDbEntity
  8
外形線
100
AcDbLine
 10
64.05400658467411
 20
147.3103143586663
 30
0.0
 11
64.0540065846741
 21
144.8103143586663
 31
0.0
  0
LINE
  5
643
330
18
100
AcDbEntity
  8
外形線
100
AcDbLine
 10
60.55400658467411
 20
154.875430444088
 30
0.0
 11
57.55400658467412
 21
154.875430444088
 31
0.0
  0
LINE
  5
644
330
18
100
AcDbEntity
  8
外形線
100
AcDbLine
 10
49.55400658467411
 20
158.8103143586663
 30
0.0
 11
58.55400658467413
 21
158.8103143586663
 31
0.0
  0
LINE
  5
645
330
18
100
AcDbEntity
  8
外形線
100
AcDbLine
 10
49.55400658467411
 20
156.8103143586663
 30
0.0
 11
58.55400658467413
 21
156.8103143586663
 31
0.0
  0
LINE
  5
646
330
18
100
AcDbEntity
  8
外形線
100
AcDbLine
 10
59.05400658467413
 20
158.3103143586663
 30
0.0
 11
59.05400658467413
 21
157.3103143586663
 31
0.0
  0
LINE
  5
647
330
18
100
AcDbEntity
  8
外形線
100
AcDbLine
 10
58.55400658467413
 20
156.8103143586663
 30
0.0
 11
59.05400658467413
 21
157.3103143586663
 31
0.0
  0
LINE
  5
648
330
18
100
AcDbEntity
  8
外形線
100
AcDbLine
 10
59.05400658467413
 20
158.3103143586663
 30
0.0
 11
58.55400658467413
 21
158.8103143586663
 31
0.0
  0
LINE
  5
649
330
18
100
AcDbEntity
  8
外形線
100
AcDbLine
 10
66.05400658467411
 20
160.5556750026916
 30
0.0
 11
60.55400658467411
 21
160.5556750026915
 31
0.0
  0
LINE
  5
64B
330
18
100
AcDbEntity
  8
外形線
100
AcDbLine
 10
180.628609466449
 20
92.31031435866638
 30
0.0
 11
180.628609466449
 21
63.85254531260752
 31
0.0
  0
LINE
  5
64C
330
18
100
AcDbEntity
  8
外形線
100
AcDbLine
 10
202.628609466449
 20
92.31031435866638
 30
0.0
 11
202.628609466449
 21
63.85254531260752
 31
0.0
  0
LINE
  5
64D
330
18
100
AcDbEntity
  8
中心線
100
AcDbLine
 10
191.628609466449
 20
103.2472437314544
 30
0.0
 11
191.628609466449
 21
56.24724373145444
 31
0.0
  0
ARC
  5
64E
330
18
100
AcDbEntity
  8
外形線
100
AcDbCircle
 10
191.628609466449
 20
102.3103143586663
 30
0.0
 40
40.0
100
AcDbArc
 50
269.9999999999999
 51
285.9620141628472
  0
ARC
  5
64F
330
18
100
AcDbEntity
  8
外形線
100
AcDbCircle
 10
191.628609466449
 20
102.3103143586663
 30
0.0
 40
40.0
100
AcDbArc
 50
254.0379858371528
 51
270.0000000000001
  0
LINE
  5
650
330
18
100
AcDbEntity
  8
隠れ線2
100
AcDbLine
 10
196.878609466449
 20
90.31031435866635
 30
0.0
 11
202.628609466449
 21
87.10101203308495
 31
0.0
  0
LINE
  5
651
330
18
100
AcDbEntity
  8
隠れ線2
100
AcDbLine
 10
194.9290912890515
 20
84.31031435866636
 30
0.0
 11
201.1300990861811
 21
75.59873695760065
 31
0.0
  0
LINE
  5
652
330
18
100
AcDbEntity
  8
隠れ線2
100
AcDbLine
 10
180.628609466449
 20
90.31031435866635
 30
0.0
 11
202.628609466449
 21
90.31031435866635
 31
0.0
  0
LINE
  5
653
330
18
100
AcDbEntity
  8
外形線
100
AcDbLine
 10
180.628609466449
 20
92.31031435866636
 30
0.0
 11
210.628609466449
 21
92.31031435866636
 31
0.0
  0
ARC
  5
654
330
18
100
AcDbEntity
  8
外形線
100
AcDbCircle
 10
202.628609466449
 20
115.2103143586663
 30
0.0
 40
9.0
100
AcDbArc
 50
88.85412260463308
 51
265.4210669431324
  0
LINE
  5
655
330
18
100
AcDbEntity
  8
外形線
100
AcDbLine
 10
185.628609466449
 20
131.3103143586663
 30
0.0
 11
185.628609466449
 21
100.4713395585265
 31
0.0
  0
LINE
  5
656
330
18
100
AcDbEntity
  8
外形線
100
AcDbLine
 10
180.628609466449
 20
140.3103143586663
 30
0.0
 11
180.628609466449
 21
92.31031435866636
 31
0.0
  0
LINE
  5
657
330
18
100
AcDbEntity
  8
外形線
100
AcDbLine
 10
137.628609466449
 20
140.3103143586663
 30
0.0
 11
137.628609466449
 21
99.31031435866634
 31
0.0
  0
LINE
  5
658
330
18
100
AcDbEntity
  8
外形線
100
AcDbLine
 10
155.628609466449
 20
97.31031435866634
 30
0.0
 11
153.628609466449
 21
97.31031435866634
 31
0.0
  0
LINE
  5
659
330
18
100
AcDbEntity
  8
外形線
100
AcDbLine
 10
137.128609466449
 20
96.81031435866636
 30
0.0
 11
156.128609466449
 21
96.81031435866636
 31
0.0
  0
LINE
  5
65A
330
18
100
AcDbEntity
  8
外形線
100
AcDbLine
 10
137.128609466449
 20
95.81031435866634
 30
0.0
 11
156.128609466449
 21
95.81031435866636
 31
0.0
  0
LINE
  5
65B
330
18
100
AcDbEntity
  8
外形線
100
AcDbLine
 10
137.628609466449
 20
95.31031435866635
 30
0.0
 11
155.628609466449
 21
95.31031435866635
 31
0.0
  0
LINE
  5
65C
330
18
100
AcDbEntity
  8
外形線
100
AcDbLine
 10
137.628609466449
 20
99.31031435866634
 30
0.0
 11
180.628609466449
 21
99.31031435866636
 31
0.0
  0
LINE
  5
65D
330
18
100
AcDbEntity
  8
外形線
 62
     4
100
AcDbLine
 10
145.128609466449
 20
96.81031435866636
 30
0.0
 11
145.128609466449
 21
95.81031435866634
 31
0.0
  0
LINE
  5
65E
330
18
100
AcDbEntity
  8
外形線
 62
     4
100
AcDbLine
 10
144.128609466449
 20
96.81031435866636
 30
0.0
 11
144.128609466449
 21
95.81031435866634
 31
0.0
  0
LINE
  5
65F
330
18
100
AcDbEntity
  8
外形線
 62
     4
100
AcDbLine
 10
143.128609466449
 20
96.81031435866636
 30
0.0
 11
143.128609466449
 21
95.81031435866634
 31
0.0
  0
LINE
  5
660
330
18
100
AcDbEntity
  8
外形線
 62
     4
100
AcDbLine
 10
142.128609466449
 20
96.81031435866636
 30
0.0
 11
142.128609466449
 21
95.81031435866634
 31
0.0
  0
LINE
  5
661
330
18
100
AcDbEntity
  8
外形線
 62
     4
100
AcDbLine
 10
141.128609466449
 20
96.81031435866636
 30
0.0
 11
141.128609466449
 21
95.81031435866634
 31
0.0
  0
LINE
  5
662
330
18
100
AcDbEntity
  8
外形線
 62
     4
100
AcDbLine
 10
140.128609466449
 20
96.81031435866636
 30
0.0
 11
140.128609466449
 21
95.81031435866634
 31
0.0
  0
LINE
  5
663
330
18
100
AcDbEntity
  8
外形線
 62
     4
100
AcDbLine
 10
139.128609466449
 20
96.81031435866636
 30
0.0
 11
139.128609466449
 21
95.81031435866634
 31
0.0
  0
LINE
  5
664
330
18
100
AcDbEntity
  8
外形線
 62
     4
100
AcDbLine
 10
138.128609466449
 20
96.81031435866636
 30
0.0
 11
138.128609466449
 21
95.81031435866634
 31
0.0
  0
LINE
  5
665
330
18
100
AcDbEntity
  8
外形線
100
AcDbLine
 10
137.128609466449
 20
96.81031435866636
 30
0.0
 11
137.128609466449
 21
95.81031435866634
 31
0.0
  0
LINE
  5
666
330
18
100
AcDbEntity
  8
外形線
 62
     4
100
AcDbLine
 10
145.5148977970122
 20
86.08040304379176
 30
0.0
 11
145.5148977970122
 21
84.08040304379175
 31
0.0
  0
LINE
  5
667
330
18
100
AcDbEntity
  8
外形線
 62
     4
100
AcDbLine
 10
144.5148977970123
 20
86.08040304379176
 30
0.0
 11
144.5148977970123
 21
84.08040304379175
 31
0.0
  0
LINE
  5
668
330
18
100
AcDbEntity
  8
外形線
 62
     4
100
AcDbLine
 10
143.5148977970122
 20
86.08040304379176
 30
0.0
 11
143.5148977970122
 21
84.08040304379175
 31
0.0
  0
LINE
  5
669
330
18
100
AcDbEntity
  8
外形線
 62
     4
100
AcDbLine
 10
142.5148977970122
 20
86.08040304379176
 30
0.0
 11
142.5148977970122
 21
84.08040304379175
 31
0.0
  0
LINE
  5
66A
330
18
100
AcDbEntity
  8
外形線
 62
     4
100
AcDbLine
 10
141.5148977970122
 20
86.08040304379176
 30
0.0
 11
141.5148977970122
 21
84.08040304379175
 31
0.0
  0
LINE
  5
66B
330
18
100
AcDbEntity
  8
外形線
 62
     4
100
AcDbLine
 10
140.5148977970123
 20
86.08040304379176
 30
0.0
 11
140.5148977970123
 21
84.08040304379175
 31
0.0
  0
LINE
  5
66C
330
18
100
AcDbEntity
  8
外形線
100
AcDbLine
 10
154.628609466449
 20
86.08040304379176
 30
0.0
 11
154.628609466449
 21
84.08040304379175
 31
0.0
  0
LINE
  5
66D
330
18
100
AcDbEntity
  8
外形線
 62
     4
100
AcDbLine
 10
139.5148977970123
 20
86.08040304379176
 30
0.0
 11
139.5148977970123
 21
84.08040304379175
 31
0.0
  0
LINE
  5
66E
330
18
100
AcDbEntity
  8
外形線
100
AcDbLine
 10
138.628609466449
 20
86.08040304379176
 30
0.0
 11
138.628609466449
 21
84.08040304379175
 31
0.0
  0
LINE
  5
66F
330
18
100
AcDbEntity
  8
外形線
100
AcDbLine
 10
138.628609466449
 20
84.08040304379175
 30
0.0
 11
154.628609466449
 21
84.08040304379175
 31
0.0
  0
LINE
  5
670
330
18
100
AcDbEntity
  8
外形線
100
AcDbLine
 10
139.128609466449
 20
83.58040304379176
 30
0.0
 11
154.128609466449
 21
83.58040304379176
 31
0.0
  0
LINE
  5
671
330
18
100
AcDbEntity
  8
外形線
100
AcDbLine
 10
139.128609466449
 20
83.58040304379176
 30
0.0
 11
138.628609466449
 21
84.08040304379175
 31
0.0
  0
LINE
  5
672
330
18
100
AcDbEntity
  8
外形線
100
AcDbLine
 10
154.628609466449
 20
84.08040304379175
 30
0.0
 11
154.128609466449
 21
83.58040304379176
 31
0.0
  0
LINE
  5
673
330
18
100
AcDbEntity
  8
外形線
100
AcDbLine
 10
138.628609466449
 20
86.08040304379176
 30
0.0
 11
154.628609466449
 21
86.08040304379176
 31
0.0
  0
LINE
  5
674
330
18
100
AcDbEntity
  8
外形線
100
AcDbLine
 10
139.128609466449
 20
86.58040304379175
 30
0.0
 11
154.128609466449
 21
86.58040304379175
 31
0.0
  0
LINE
  5
675
330
18
100
AcDbEntity
  8
外形線
100
AcDbLine
 10
138.628609466449
 20
86.08040304379176
 30
0.0
 11
139.128609466449
 21
86.58040304379175
 31
0.0
  0
LINE
  5
676
330
18
100
AcDbEntity
  8
外形線
100
AcDbLine
 10
137.628609466449
 20
95.31031435866635
 30
0.0
 11
137.128609466449
 21
95.81031435866634
 31
0.0
  0
LINE
  5
677
330
18
100
AcDbEntity
  8
中心線
100
AcDbLine
 10
147.878609466449
 20
95.31031435866635
 30
0.0
 11
147.878609466449
 21
86.58040304379175
 31
0.0
  0
LINE
  5
678
330
18
100
AcDbEntity
  8
中心線
100
AcDbLine
 10
145.378609466449
 20
95.31031435866635
 30
0.0
 11
145.378609466449
 21
86.58040304379175
 31
0.0
  0
LINE
  5
679
330
18
100
AcDbEntity
  8
外形線
100
AcDbLine
 10
144.628609466449
 20
95.31031435866635
 30
0.0
 11
144.628609466449
 21
86.58040304379175
 31
0.0
  0
LINE
  5
67A
330
18
100
AcDbEntity
  8
外形線
100
AcDbLine
 10
148.628609466449
 20
95.31031435866635
 30
0.0
 11
148.628609466449
 21
86.58040304379175
 31
0.0
  0
LINE
  5
67B
330
18
100
AcDbEntity
  8
外形線
100
AcDbLine
 10
154.128609466449
 20
86.58040304379175
 30
0.0
 11
154.628609466449
 21
86.08040304379176
 31
0.0
  0
LINE
  5
67C
330
18
100
AcDbEntity
  8
外形線
100
AcDbLine
 10
137.628609466449
 20
97.31031435866634
 30
0.0
 11
153.628609466449
 21
97.31031435866634
 31
0.0
  0
LINE
  5
67D
330
18
100
AcDbEntity
  8
外形線
100
AcDbLine
 10
137.128609466449
 20
96.81031435866636
 30
0.0
 11
137.628609466449
 21
97.31031435866634
 31
0.0
  0
LINE
  5
67E
330
18
100
AcDbEntity
  8
外形線
100
AcDbLine
 10
141.628609466449
 20
99.31031435866636
 30
0.0
 11
141.628609466449
 21
99.31031435866634
 31
0.0
  0
ARC
  5
67F
330
18
100
AcDbEntity
  8
外形線
100
AcDbCircle
 10
139.628609466449
 20
99.31031435866636
 30
0.0
 40
2.0
100
AcDbArc
 50
270.0
 51
359.9999999999996
  0
ARC
  5
680
330
18
100
AcDbEntity
  8
外形線
100
AcDbCircle
 10
153.628609466449
 20
99.31031435866636
 30
0.0
 40
2.0
100
AcDbArc
 50
180.0000000000004
 51
270.0
  0
LINE
  5
681
330
18
100
AcDbEntity
  8
外形線
100
AcDbLine
 10
156.128609466449
 20
96.81031435866636
 30
0.0
 11
156.128609466449
 21
95.81031435866636
 31
0.0
  0
LINE
  5
682
330
18
100
AcDbEntity
  8
外形線
100
AcDbLine
 10
180.628609466449
 20
87.10101203308495
 30
0.0
 11
176.5018071684639
 21
84.79768051793049
 31
0.0
  0
LINE
  5
683
330
18
100
AcDbEntity
  8
外形線
100
AcDbLine
 10
176.1159756257131
 20
83.43711665665145
 30
0.0
 11
180.4392366944573
 21
75.69127390848476
 31
0.0
  0
LINE
  5
684
330
18
100
AcDbEntity
  8
外形線
100
AcDbLine
 10
156.128609466449
 20
95.81031435866636
 30
0.0
 11
155.628609466449
 21
95.31031435866635
 31
0.0
  0
ARC
  5
685
330
18
100
AcDbEntity
  8
外形線
100
AcDbCircle
 10
176.989173327728
 20
83.92448281591558
 30
0.0
 40
1.0
100
AcDbArc
 50
119.1676133795778
 51
209.1676133795778
  0
LINE
  5
686
330
18
100
AcDbEntity
  8
隠れ線2
100
AcDbLine
 10
188.3281276438465
 20
84.31031435866636
 30
0.0
 11
182.1271198467169
 21
75.59873695760065
 31
0.0
  0
ARC
  5
687
330
18
100
AcDbEntity
  8
隠れ線2
100
AcDbCircle
 10
181.3124343964722
 20
76.1786400677489
 30
0.0
 40
1.0
100
AcDbArc
 50
226.8567355129944
 51
324.5562717879028
  0
ARC
  5
688
330
18
100
AcDbEntity
  8
外形線
100
AcDbCircle
 10
181.3124343964722
 20
76.1786400677489
 30
0.0
 40
1.0
100
AcDbArc
 50
209.1676133795778
 51
226.8567355129944
  0
LINE
  5
689
330
18
100
AcDbEntity
  8
隠れ線2
100
AcDbLine
 10
186.378609466449
 20
90.31031435866635
 30
0.0
 11
188.3281276438464
 21
84.31031435866634
 31
0.0
  0
LINE
  5
68A
330
18
100
AcDbEntity
  8
隠れ線2
100
AcDbLine
 10
186.378609466449
 20
90.31031435866635
 30
0.0
 11
180.628609466449
 21
87.10101203308495
 31
0.0
  0
LINE
  5
68B
330
18
100
AcDbEntity
  8
隠れ線2
100
AcDbLine
 10
196.878609466449
 20
90.31031435866635
 30
0.0
 11
194.9290912890516
 21
84.31031435866634
 31
0.0
  0
LINE
  5
68C
330
18
100
AcDbEntity
  8
隠れ線2
100
AcDbLine
 10
191.628609466449
 20
84.31031435866636
 30
0.0
 11
194.9290912890516
 21
84.31031435866634
 31
0.0
  0
LINE
  5
68D
330
18
100
AcDbEntity
  8
隠れ線2
100
AcDbLine
 10
191.628609466449
 20
84.31031435866636
 30
0.0
 11
188.3281276438464
 21
84.31031435866634
 31
0.0
  0
LINE
  5
68E
330
18
100
AcDbEntity
  8
外形線
100
AcDbLine
 10
155.628609466449
 20
97.31031435866634
 30
0.0
 11
156.128609466449
 21
96.81031435866636
 31
0.0
  0
ARC
  5
68F
330
18
100
AcDbEntity
  8
外形線
100
AcDbCircle
 10
189.628609466449
 20
100.4713395585265
 30
0.0
 40
4.0
100
AcDbArc
 50
180.0
 51
264.4022606220509
  0
LINE
  5
690
330
18
100
AcDbEntity
  8
外形線
100
AcDbLine
 10
146.628609466449
 20
147.3103143586663
 30
0.0
 11
156.628609466449
 21
147.3103143586663
 31
0.0
  0
LINE
  5
691
330
18
100
AcDbEntity
  8
外形線
100
AcDbLine
 10
146.628609466449
 20
144.8103143586663
 30
0.0
 11
156.628609466449
 21
144.8103143586663
 31
0.0
  0
LINE
  5
692
330
18
100
AcDbEntity
  8
外形線
100
AcDbLine
 10
146.628609466449
 20
142.3103143586663
 30
0.0
 11
155.628609466449
 21
142.3103143586663
 31
0.0
  0
LINE
  5
693
330
18
100
AcDbEntity
  8
外形線
100
AcDbLine
 10
161.4951080405488
 20
152.3683614979596
 30
0.0
 11
136.7452403761657
 21
154.875430444088
 31
0.0
  0
LINE
  5
694
330
18
100
AcDbEntity
  8
外形線
100
AcDbLine
 10
161.2935469902043
 20
150.3785441337313
 30
0.0
 11
136.5436793258211
 21
152.8856130798598
 31
0.0
  0
LINE
  5
695
330
18
100
AcDbEntity
  8
外形線
100
AcDbLine
 10
140.128609466449
 20
142.3103143586663
 30
0.0
 11
140.128609466449
 21
140.3103143586663
 31
0.0
  0
LINE
  5
696
330
18
100
AcDbEntity
  8
外形線
100
AcDbLine
 10
153.128609466449
 20
142.3103143586663
 30
0.0
 11
153.128609466449
 21
140.3103143586663
 31
0.0
  0
CIRCLE
  5
697
330
18
100
AcDbEntity
  8
外形線
100
AcDbCircle
 10
146.628609466449
 20
132.3103143586663
 30
0.0
 40
4.5
  0
CIRCLE
  5
698
330
18
100
AcDbEntity
  8
外形線
100
AcDbCircle
 10
146.628609466449
 20
132.3103143586663
 30
0.0
 40
5.0
  0
LINE
  5
699
330
18
100
AcDbEntity
  8
中心線
 48
0.4
100
AcDbLine
 10
139.6077901969014
 20
132.3103143586663
 30
0.0
 11
153.6494287359966
 21
132.3103143586663
 31
0.0
  0
LINE
  5
69A
330
18
100
AcDbEntity
  8
外形線
100
AcDbLine
 10
136.7452403761657
 20
154.875430444088
 30
0.0
 11
136.5436793258211
 21
152.8856130798598
 31
0.0
  0
LINE
  5
69B
330
18
100
AcDbEntity
  8
外形線
100
AcDbLine
 10
141.628609466449
 20
150.3103143586663
 30
0.0
 11
151.628609466449
 21
150.3103143586663
 31
0.0
  0
LINE
  5
69C
330
18
100
AcDbEntity
  8
外形線
100
AcDbLine
 10
142.628609466449
 20
151.3103143586663
 30
0.0
 11
150.628609466449
 21
151.3103143586663
 31
0.0
  0
LINE
  5
69D
330
18
100
AcDbEntity
  8
外形線
100
AcDbLine
 10
146.628609466449
 20
149.6103143586664
 30
0.0
 11
141.628609466449
 21
149.6103143586664
 31
0.0
  0
LINE
  5
69E
330
18
100
AcDbEntity
  8
外形線
100
AcDbLine
 10
141.928609466449
 20
149.3103143586663
 30
0.0
 11
151.328609466449
 21
149.3103143586663
 31
0.0
  0
LINE
  5
69F
330
18
100
AcDbEntity
  8
外形線
100
AcDbLine
 10
146.628609466449
 20
149.0103143586663
 30
0.0
 11
141.628609466449
 21
149.0103143586663
 31
0.0
  0
LINE
  5
6A0
330
18
100
AcDbEntity
  8
外形線
100
AcDbLine
 10
146.628609466449
 20
147.3103143586663
 30
0.0
 11
141.9286094664489
 21
147.3103143586663
 31
0.0
  0
LINE
  5
6A1
330
18
100
AcDbEntity
  8
外形線
100
AcDbLine
 10
146.628609466449
 20
147.3103143586663
 30
0.0
 11
136.628609466449
 21
147.3103143586663
 31
0.0
  0
LINE
  5
6A2
330
18
100
AcDbEntity
  8
外形線
100
AcDbLine
 10
146.628609466449
 20
144.8103143586663
 30
0.0
 11
136.628609466449
 21
144.8103143586663
 31
0.0
  0
LINE
  5
6A3
330
18
100
AcDbEntity
  8
外形線
100
AcDbLine
 10
146.628609466449
 20
142.3103143586663
 30
0.0
 11
137.628609466449
 21
142.3103143586663
 31
0.0
  0
LINE
  5
6A4
330
18
100
AcDbEntity
  8
外形線
100
AcDbLine
 10
141.628609466449
 20
147.6103143586664
 30
0.0
 11
141.628609466449
 21
149.0103143586663
 31
0.0
  0
LINE
  5
6A5
330
18
100
AcDbEntity
  8
外形線
100
AcDbLine
 10
136.628609466449
 20
144.8103143586663
 30
0.0
 11
137.628609466449
 21
142.3103143586663
 31
0.0
  0
LINE
  5
6A6
330
18
100
AcDbEntity
  8
外形線
100
AcDbLine
 10
136.628609466449
 20
147.3103143586663
 30
0.0
 11
136.628609466449
 21
144.8103143586663
 31
0.0
  0
ARC
  5
6A7
330
18
100
AcDbEntity
  8
外形線
100
AcDbCircle
 10
141.9286094664489
 20
147.6103143586664
 30
0.0
 40
0.3
100
AcDbArc
 50
180.0
 51
270.0
  0
LINE
  5
6A8
330
18
100
AcDbEntity
  8
外形線
100
AcDbLine
 10
143.628609466449
 20
152.1679361782326
 30
0.0
 11
143.628609466449
 21
151.3103143586663
 31
0.0
  0
LINE
  5
6A9
330
18
100
AcDbEntity
  8
外形線
100
AcDbLine
 10
142.628609466449
 20
151.3103143586663
 30
0.0
 11
141.628609466449
 21
150.3103143586663
 31
0.0
  0
LINE
  5
6AA
330
18
100
AcDbEntity
  8
外形線
100
AcDbLine
 10
141.628609466449
 20
150.3103143586663
 30
0.0
 11
141.628609466449
 21
149.6103143586664
 31
0.0
  0
LINE
  5
6AB
330
18
100
AcDbEntity
  8
外形線
100
AcDbLine
 10
141.628609466449
 20
149.6103143586664
 30
0.0
 11
141.928609466449
 21
149.3103143586663
 31
0.0
  0
LINE
  5
6AC
330
18
100
AcDbEntity
  8
外形線
100
AcDbLine
 10
141.628609466449
 20
149.0103143586663
 30
0.0
 11
141.928609466449
 21
149.3103143586663
 31
0.0
  0
LINE
  5
6AD
330
18
100
AcDbEntity
  8
外形線
100
AcDbLine
 10
151.628609466449
 20
147.6103143586664
 30
0.0
 11
151.628609466449
 21
149.0103143586663
 31
0.0
  0
LINE
  5
6AE
330
18
100
AcDbEntity
  8
外形線
100
AcDbLine
 10
146.628609466449
 20
147.3103143586663
 30
0.0
 11
151.328609466449
 21
147.3103143586663
 31
0.0
  0
ARC
  5
6AF
330
18
100
AcDbEntity
  8
外形線
100
AcDbCircle
 10
151.328609466449
 20
147.6103143586664
 30
0.0
 40
0.3
100
AcDbArc
 50
270.0
 51
0.0
  0
LINE
  5
6B0
330
18
100
AcDbEntity
  8
外形線
100
AcDbLine
 10
146.628609466449
 20
149.6103143586664
 30
0.0
 11
151.628609466449
 21
149.6103143586664
 31
0.0
  0
LINE
  5
6B1
330
18
100
AcDbEntity
  8
外形線
100
AcDbLine
 10
146.628609466449
 20
149.0103143586663
 30
0.0
 11
151.628609466449
 21
149.0103143586663
 31
0.0
  0
LINE
  5
6B2
330
18
100
AcDbEntity
  8
外形線
100
AcDbLine
 10
149.628609466449
 20
151.5601586385402
 30
0.0
 11
149.628609466449
 21
151.3103143586663
 31
0.0
  0
LINE
  5
6B3
330
18
100
AcDbEntity
  8
外形線
100
AcDbLine
 10
151.628609466449
 20
150.3103143586663
 30
0.0
 11
150.628609466449
 21
151.3103143586663
 31
0.0
  0
LINE
  5
6B4
330
18
100
AcDbEntity
  8
外形線
100
AcDbLine
 10
151.628609466449
 20
149.6103143586664
 30
0.0
 11
151.328609466449
 21
149.3103143586663
 31
0.0
  0
LINE
  5
6B5
330
18
100
AcDbEntity
  8
外形線
100
AcDbLine
 10
151.628609466449
 20
150.3103143586663
 30
0.0
 11
151.628609466449
 21
149.6103143586664
 31
0.0
  0
LINE
  5
6B6
330
18
100
AcDbEntity
  8
外形線
100
AcDbLine
 10
151.628609466449
 20
149.0103143586663
 30
0.0
 11
151.328609466449
 21
149.3103143586663
 31
0.0
  0
LINE
  5
6B7
330
18
100
AcDbEntity
  8
外形線
100
AcDbLine
 10
141.628609466449
 20
157.3103143586664
 30
0.0
 11
151.628609466449
 21
157.3103143586664
 31
0.0
  0
LINE
  5
6B8
330
18
100
AcDbEntity
  8
外形線
100
AcDbLine
 10
141.628609466449
 20
158.3103143586663
 30
0.0
 11
151.628609466449
 21
158.3103143586663
 31
0.0
  0
LINE
  5
6B9
330
18
100
AcDbEntity
  8
外形線
100
AcDbLine
 10
142.128609466449
 20
158.8103143586663
 30
0.0
 11
151.128609466449
 21
158.8103143586663
 31
0.0
  0
LINE
  5
6BA
330
18
100
AcDbEntity
  8
外形線
100
AcDbLine
 10
142.128609466449
 20
156.8103143586663
 30
0.0
 11
151.128609466449
 21
156.8103143586663
 31
0.0
  0
LINE
  5
6BB
330
18
100
AcDbEntity
  8
外形線
100
AcDbLine
 10
141.628609466449
 20
157.3103143586664
 30
0.0
 11
142.128609466449
 21
156.8103143586663
 31
0.0
  0
LINE
  5
6BC
330
18
100
AcDbEntity
  8
外形線
100
AcDbLine
 10
142.128609466449
 20
158.8103143586663
 30
0.0
 11
141.628609466449
 21
158.3103143586663
 31
0.0
  0
LINE
  5
6BD
330
18
100
AcDbEntity
  8
外形線
100
AcDbLine
 10
141.628609466449
 20
158.3103143586663
 30
0.0
 11
141.628609466449
 21
157.3103143586664
 31
0.0
  0
LINE
  5
6BE
330
18
100
AcDbEntity
  8
外形線
100
AcDbLine
 10
143.628609466449
 20
156.8103143586664
 30
0.0
 11
143.628609466449
 21
154.1781709223402
 31
0.0
  0
LINE
  5
6BF
330
18
100
AcDbEntity
  8
外形線
100
AcDbLine
 10
151.628609466449
 20
158.3103143586663
 30
0.0
 11
151.128609466449
 21
158.8103143586663
 31
0.0
  0
LINE
  5
6C0
330
18
100
AcDbEntity
  8
外形線
100
AcDbLine
 10
151.128609466449
 20
156.8103143586663
 30
0.0
 11
151.628609466449
 21
157.3103143586664
 31
0.0
  0
LINE
  5
6C1
330
18
100
AcDbEntity
  8
外形線
100
AcDbLine
 10
151.628609466449
 20
158.3103143586663
 30
0.0
 11
151.628609466449
 21
157.3103143586664
 31
0.0
  0
LINE
  5
6C2
330
18
100
AcDbEntity
  8
外形線
100
AcDbLine
 10
149.628609466449
 20
156.8103143586664
 30
0.0
 11
149.628609466449
 21
153.5703933826478
 31
0.0
  0
ARC
  5
6C3
330
18
100
AcDbEntity
  8
外形線
100
AcDbCircle
 10
189.628609466449
 20
131.3103143586663
 30
0.0
 40
4.0
100
AcDbArc
 50
90.0
 51
180.0
  0
ARC
  5
6C4
330
18
100
AcDbEntity
  8
外形線
100
AcDbCircle
 10
163.5107185439951
 20
172.2665351402413
 30
0.0
 40
22.0
100
AcDbArc
 50
264.2158816528901
 51
312.2142418625653
  0
ARC
  5
6C5
330
18
100
AcDbEntity
  8
外形線
100
AcDbCircle
 10
163.5107185439951
 20
172.2665351402413
 30
0.0
 40
20.0
100
AcDbArc
 50
264.2158816528901
 51
312.2142418625653
  0
LINE
  5
6C6
330
18
100
AcDbEntity
  8
外形線
100
AcDbLine
 10
156.628609466449
 20
144.8103143586663
 30
0.0
 11
155.628609466449
 21
142.3103143586663
 31
0.0
  0
LINE
  5
6C7
330
18
100
AcDbEntity
  8
外形線
100
AcDbLine
 10
156.628609466449
 20
147.3103143586663
 30
0.0
 11
156.628609466449
 21
144.8103143586663
 31
0.0
  0
LINE
  5
6C8
330
18
100
AcDbEntity
  8
外形線
100
AcDbLine
 10
176.9488127127394
 20
157.4537830289029
 30
0.0
 11
181.9231448927407
 21
161.9664855813412
 31
0.0
  0
LINE
  5
6C9
330
18
100
AcDbEntity
  8
外形線
100
AcDbLine
 10
176.7300288445143
 20
157.258209611436
 30
0.0
 11
178.1524672716644
 21
155.8464500553279
 31
0.0
  0
LINE
  5
6CA
330
18
100
AcDbEntity
  8
中心線
100
AcDbLine
 10
262.628609466449
 20
128.4392746788793
 30
0.0
 11
262.628609466449
 21
95.50590453278049
 31
0.0
  0
ARC
  5
6CB
330
18
100
AcDbEntity
  8
外形線
100
AcDbCircle
 10
227.628609466449
 20
113.9603143586663
 30
0.0
 40
10.0
100
AcDbArc
 50
264.2751895477866
 51
90.0
  0
LINE
  5
6CC
330
18
100
AcDbEntity
  8
中心線
 48
0.9
100
AcDbLine
 10
227.628609466449
 20
127.2538234348217
 30
0.0
 11
227.628609466449
 21
100.2854498292674
 31
0.0
  0
LINE
  5
6CD
330
18
100
AcDbEntity
  8
中心線
 48
0.85
100
AcDbLine
 10
202.628609466449
 20
127.2538234348217
 30
0.0
 11
202.628609466449
 21
102.8696402795956
 31
0.0
  0
ARC
  5
6CE
330
18
100
AcDbEntity
  8
外形線
100
AcDbCircle
 10
262.628609466449
 20
112.2103143586663
 30
0.0
 40
12.0
100
AcDbArc
 50
90.0
 51
264.2751895477765
  0
LINE
  5
6CF
330
18
100
AcDbEntity
  8
外形線
100
AcDbLine
 10
207.1412433071849
 20
83.43711665665145
 30
0.0
 11
202.8179822384406
 21
75.69127390848476
 31
0.0
  0
ARC
  5
6D0
330
18
100
AcDbEntity
  8
外形線
100
AcDbCircle
 10
201.9447845364258
 20
76.1786400677489
 30
0.0
 40
1.0
100
AcDbArc
 50
313.1432644870079
 51
330.8323866204221
  0
ARC
  5
6D1
330
18
100
AcDbEntity
  8
隠れ線2
100
AcDbCircle
 10
201.9447845364258
 20
76.1786400677489
 30
0.0
 40
1.0
100
AcDbArc
 50
215.4437282120972
 51
313.1432644870079
  0
LINE
  5
6D2
330
18
100
AcDbEntity
  8
外形線
100
AcDbLine
 10
202.628609466449
 20
87.10101203308495
 30
0.0
 11
206.7554117644341
 21
84.79768051793049
 31
0.0
  0
ARC
  5
6D3
330
18
100
AcDbEntity
  8
外形線
100
AcDbCircle
 10
206.26804560517
 20
83.92448281591558
 30
0.0
 40
1.0
100
AcDbArc
 50
330.8323866204222
 51
60.83238662042216
  0
LINE
  5
6D4
330
18
100
AcDbEntity
  8
外形線
100
AcDbLine
 10
210.628609466449
 20
92.31031435866636
 30
0.0
 11
210.628609466449
 21
89.36998367417213
 31
0.0
  0
LINE
  5
6D5
330
18
100
AcDbEntity
  8
外形線
100
AcDbLine
 10
201.7308538554764
 20
106.2552021392149
 30
0.0
 11
226.631103232035
 21
104.010189670387
 31
0.0
  0
LINE
  5
6D6
330
18
100
AcDbEntity
  8
外形線
100
AcDbLine
 10
202.628609466449
 20
124.2103143586663
 30
0.0
 11
227.628609466449
 21
123.9603143586663
 31
0.0
  0
LINE
  5
6D7
330
18
100
AcDbEntity
  8
中心線
100
AcDbLine
 10
106.7590166316212
 20
259.8103143586664
 30
0.0
 11
186.8518019426989
 21
259.8103143586664
 31
0.0
  0
ARC
  5
6D8
330
18
100
AcDbEntity
  8
外形線
100
AcDbCircle
 10
146.628609466449
 20
259.3103143586664
 30
0.0
 40
36.0
100
AcDbArc
 50
130.1191668984051
 51
253.8723797868392
  0
LINE
  5
6D9
330
18
100
AcDbEntity
  8
外形線
100
AcDbLine
 10
43.55400658467411
 20
303.3103143586664
 30
0.0
 11
43.55400658467411
 21
201.3103143586663
 31
0.0
  0
LINE
  5
6DA
330
18
100
AcDbEntity
  8
外形線
100
AcDbLine
 10
46.55400658467406
 20
291.0603143586665
 30
0.0
 11
46.55400658467411
 21
228.5603143586664
 31
0.0
  0
LINE
  5
6DB
330
18
100
AcDbEntity
  8
外形線
100
AcDbLine
 10
46.35400658467406
 20
289.6103143586663
 30
0.0
 11
46.35400658467406
 21
230.0103143586663
 31
0.0
  0
LINE
  5
6DC
330
18
100
AcDbEntity
  8
外形線
100
AcDbLine
 10
61.00400658467404
 20
291.7103143586663
 30
0.0
 11
61.00400658467404
 21
227.9103143586664
 31
0.0
  0
LINE
  5
6DD
330
18
100
AcDbEntity
  8
外形線
100
AcDbLine
 10
66.70400658467409
 20
290.7603143586663
 30
0.0
 11
66.70400658467409
 21
228.8603143586664
 31
0.0
  0
LINE
  5
6DE
330
18
100
AcDbEntity
  8
外形線
100
AcDbLine
 10
65.50400658467404
 20
292.8103143586664
 30
0.0
 11
65.5040065846741
 21
226.8103143586665
 31
0.0
  0
LINE
  5
6DF
330
18
100
AcDbEntity
  8
外形線
100
AcDbLine
 10
61.70400658467404
 20
291.7103143586663
 30
0.0
 11
61.70400658467404
 21
227.9103143586664
 31
0.0
  0
ARC
  5
6E0
330
18
100
AcDbEntity
  8
外形線
100
AcDbCircle
 10
-179.2765677396553
 20
259.8103143586663
 30
0.0
 40
247.8305743243293
100
AcDbArc
 50
352.9948638173551
 51
7.005136182644887
  0
LINE
  5
6E1
330
18
100
AcDbEntity
  8
外形線
100
AcDbLine
 10
63.05400658467411
 20
226.5603143586663
 30
0.0
 11
63.05400658467411
 21
168.6947636175693
 31
0.0
  0
LINE
  5
6E2
330
18
100
AcDbEntity
  8
隠れ線2
100
AcDbLine
 10
50.0540065846741
 20
224.3103143586663
 30
0.0
 11
50.05400658467405
 21
206.5603143586664
 31
0.0
  0
LINE
  5
6E3
330
18
100
AcDbEntity
  8
隠れ線2
100
AcDbLine
 10
58.05400658467411
 20
224.3103143586663
 30
0.0
 11
58.05400658467411
 21
206.5603143586664
 31
0.0
  0
LINE
  5
6E4
330
18
100
AcDbEntity
  8
外形線
100
AcDbLine
 10
51.55400658467411
 20
201.3103143586663
 30
0.0
 11
51.55400658467411
 21
178.8103143586663
 31
0.0
  0
LINE
  5
6E5
330
18
100
AcDbEntity
  8
外形線
100
AcDbLine
 10
56.55400658467406
 20
201.3103143586663
 30
0.0
 11
56.55400658467406
 21
178.8103143586664
 31
0.0
  0
ARC
  5
6E6
330
18
100
AcDbEntity
  8
外形線
100
AcDbCircle
 10
50.55400658467411
 20
165.6947636175693
 30
0.0
 40
3.0
100
AcDbArc
 50
90.0
 51
180.0
  0
LINE
  5
6E7
330
18
100
AcDbEntity
  8
外形線
100
AcDbLine
 10
64.05400658467411
 20
168.6947636175693
 30
0.0
 11
56.55400658467406
 21
168.6947636175693
 31
0.0
  0
LINE
  5
6E8
330
18
100
AcDbEntity
  8
隠れ線2
 48
0.5
100
AcDbLine
 10
56.55400658467406
 20
168.6947636175693
 30
0.0
 11
51.55400658467411
 21
168.6947636175693
 31
0.0
  0
LINE
  5
6E9
330
18
100
AcDbEntity
  8
外形線
100
AcDbLine
 10
51.55400658467411
 20
168.6947636175693
 30
0.0
 11
50.55400658467411
 21
168.6947636175693
 31
0.0
  0
LINE
  5
6EA
330
18
100
AcDbEntity
  8
外形線
100
AcDbLine
 10
51.55400658467414
 20
178.8103143586663
 30
0.0
 11
56.55400658467408
 21
178.8103143586664
 31
0.0
  0
LINE
  5
6EB
330
18
100
AcDbEntity
  8
外形線
100
AcDbLine
 10
51.55400658467411
 20
178.6103143586663
 30
0.0
 11
51.75400658467411
 21
178.8103143586663
 31
0.0
  0
LINE
  5
6EC
330
18
100
AcDbEntity
  8
外形線
100
AcDbLine
 10
56.35400658467411
 20
178.8103143586663
 30
0.0
 11
56.55400658467411
 21
178.6103143586663
 31
0.0
  0
LINE
  5
6ED
330
18
100
AcDbEntity
  8
隠れ線2
 48
0.5
100
AcDbLine
 10
45.05400658467411
 20
210.8103143586663
 30
0.0
 11
50.05400658467407
 21
210.8103143586663
 31
0.0
  0
LINE
  5
6EE
330
18
100
AcDbEntity
  8
隠れ線2
 48
0.5
100
AcDbLine
 10
45.05400658467411
 20
211.3103143586663
 30
0.0
 11
50.05400658467407
 21
211.3103143586663
 31
0.0
  0
LINE
  5
6EF
330
18
100
AcDbEntity
  8
外形線
100
AcDbLine
 10
51.55400658467411
 20
192.3103143586663
 30
0.0
 11
45.05400658467411
 21
192.3103143586663
 31
0.0
  0
LINE
  5
6F0
330
18
100
AcDbEntity
  8
中心線
 48
0.5
100
AcDbLine
 10
53.1123363699603
 20
207.3103143586664
 30
0.0
 11
38.19841399875477
 21
207.3103143586663
 31
0.0
  0
LINE
  5
6F1
330
18
100
AcDbEntity
  8
外形線
100
AcDbLine
 10
63.05400658467411
 20
201.3103143586663
 30
0.0
 11
43.55400658467411
 21
201.3103143586663
 31
0.0
  0
LINE
  5
6F2
330
18
100
AcDbEntity
  8
外形線
100
AcDbLine
 10
41.55400658467411
 20
209.5603143586663
 30
0.0
 11
41.55400658467411
 21
205.0603143586663
 31
0.0
  0
ARC
  5
6F3
330
18
100
AcDbEntity
  8
外形線
 48
0.5
100
AcDbCircle
 10
42.05400658467411
 20
205.0603143586663
 30
0.0
 40
0.5
100
AcDbArc
 50
180.0
 51
270.0000000000001
  0
LINE
  5
6F4
330
18
100
AcDbEntity
  8
外形線
 48
0.5
100
AcDbLine
 10
43.55400658467411
 20
204.5603143586663
 30
0.0
 11
42.05400658467411
 21
204.5603143586663
 31
0.0
  0
ARC
  5
6F5
330
18
100
AcDbEntity
  8
外形線
 48
0.5
100
AcDbCircle
 10
42.05400658467411
 20
209.5603143586663
 30
0.0
 40
0.5
100
AcDbArc
 50
90.0000000000001
 51
180.0
  0
LINE
  5
6F6
330
18
100
AcDbEntity
  8
外形線
 48
0.5
100
AcDbLine
 10
43.55400658467411
 20
210.0603143586663
 30
0.0
 11
42.05400658467411
 21
210.0603143586663
 31
0.0
  0
LINE
  5
6F7
330
18
100
AcDbEntity
  8
外形線
100
AcDbLine
 10
63.05400658467411
 20
192.3103143586663
 30
0.0
 11
56.55400658467406
 21
192.3103143586663
 31
0.0
  0
LINE
  5
6F8
330
18
100
AcDbEntity
  8
隠れ線2
100
AcDbLine
 10
50.15400658467408
 20
206.5603143586664
 30
0.0
 11
50.15400658467413
 21
201.8603143586664
 31
0.0
  0
LINE
  5
6F9
330
18
100
AcDbEntity
  8
隠れ線2
100
AcDbLine
 10
57.95400658467404
 20
206.5603143586664
 30
0.0
 11
57.95400658467404
 21
201.8603143586664
 31
0.0
  0
LINE
  5
6FA
330
18
100
AcDbEntity
  8
隠れ線2
100
AcDbLine
 10
57.65400658467402
 20
201.5603143586664
 30
0.0
 11
50.45400658467414
 21
201.5603143586664
 31
0.0
  0
LINE
  5
6FB
330
18
100
AcDbEntity
  8
隠れ線2
100
AcDbLine
 10
57.95400658467404
 20
201.8603143586664
 30
0.0
 11
50.15400658467413
 21
201.8603143586664
 31
0.0
  0
LINE
  5
6FC
330
18
100
AcDbEntity
  8
隠れ線2
100
AcDbLine
 10
50.45400658467414
 20
201.5603143586664
 30
0.0
 11
50.15400658467413
 21
201.8603143586664
 31
0.0
  0
LINE
  5
6FD
330
18
100
AcDbEntity
  8
隠れ線2
100
AcDbLine
 10
51.55400658467411
 20
201.5603143586663
 30
0.0
 11
51.55400658467411
 21
201.3103143586663
 31
0.0
  0
POINT
  5
6FE
330
18
100
AcDbEntity
  8
隠れ線2
100
AcDbPoint
 10
56.55400658467406
 20
201.5603143586664
 30
0.0
  0
LINE
  5
6FF
330
18
100
AcDbEntity
  8
隠れ線2
100
AcDbLine
 10
56.55400658467406
 20
201.5603143586664
 30
0.0
 11
56.55400658467406
 21
201.3103143586663
 31
0.0
  0
LINE
  5
700
330
18
100
AcDbEntity
  8
隠れ線2
100
AcDbLine
 10
57.95400658467404
 20
201.8603143586664
 30
0.0
 11
57.65400658467402
 21
201.5603143586664
 31
0.0
  0
LINE
  5
701
330
18
100
AcDbEntity
  8
隠れ線2
100
AcDbLine
 10
58.05400658467411
 20
206.5603143586664
 30
0.0
 11
50.05400658467405
 21
206.5603143586664
 31
0.0
  0
LINE
  5
702
330
18
100
AcDbEntity
  8
外形線
100
AcDbLine
 10
64.05400658467411
 20
210.3103143586663
 30
0.0
 11
63.05400658467411
 21
210.3103143586664
 31
0.0
  0
LINE
  5
703
330
18
100
AcDbEntity
  8
中心線
 48
0.5
100
AcDbLine
 10
74.43561991159118
 20
217.3103143586664
 30
0.0
 11
59.47067165739804
 21
217.3103143586664
 31
0.0
  0
LINE
  5
704
330
18
100
AcDbEntity
  8
隠れ線2
 48
0.5
100
AcDbLine
 10
45.05400658467411
 20
213.8103143586663
 30
0.0
 11
50.05400658467407
 21
213.8103143586663
 31
0.0
  0
LINE
  5
705
330
18
100
AcDbEntity
  8
隠れ線2
 48
0.5
100
AcDbLine
 10
45.05400658467411
 20
213.3103143586663
 30
0.0
 11
50.05400658467407
 21
213.3103143586663
 31
0.0
  0
LINE
  5
706
330
18
100
AcDbEntity
  8
隠れ線2
 48
0.5
100
AcDbLine
 10
45.05400658467411
 20
222.8103143586663
 30
0.0
 11
50.0540065846741
 21
222.8103143586663
 31
0.0
  0
LINE
  5
707
330
18
100
AcDbEntity
  8
隠れ線2
 48
0.5
100
AcDbLine
 10
45.05400658467411
 20
222.3103143586663
 30
0.0
 11
50.05400658467412
 21
222.3103143586663
 31
0.0
  0
LINE
  5
708
330
18
100
AcDbEntity
  8
隠れ線2
 48
0.5
100
AcDbLine
 10
45.05400658467411
 20
219.8103143586663
 30
0.0
 11
50.05400658467408
 21
219.8103143586663
 31
0.0
  0
LINE
  5
709
330
18
100
AcDbEntity
  8
隠れ線2
 48
0.5
100
AcDbLine
 10
45.05400658467411
 20
220.3103143586663
 30
0.0
 11
50.05400658467408
 21
220.3103143586663
 31
0.0
  0
LINE
  5
70A
330
18
100
AcDbEntity
  8
中心線
 48
0.5
100
AcDbLine
 10
53.00076113925297
 20
216.8103143586663
 30
0.0
 11
38.25748323854111
 21
216.8103143586663
 31
0.0
  0
LINE
  5
70B
330
18
100
AcDbEntity
  8
中心線
 48
0.5
100
AcDbLine
 10
37.82658238284125
 20
221.3103143586664
 30
0.0
 11
52.56111642841756
 21
221.3103143586664
 31
0.0
  0
LINE
  5
70C
330
18
100
AcDbEntity
  8
中心線
 48
0.5
100
AcDbLine
 10
42.01403312531669
 20
212.3103143586663
 30
0.0
 11
52.56111642841756
 21
212.3103143586663
 31
0.0
  0
LINE
  5
70D
330
18
100
AcDbEntity
  8
外形線
100
AcDbLine
 10
61.05400658467411
 20
224.3103143586663
 30
0.0
 11
47.05400658467411
 21
224.3103143586663
 31
0.0
  0
LINE
  5
70E
330
18
100
AcDbEntity
  8
外形線
100
AcDbLine
 10
61.00400658467404
 20
228.5603143586664
 30
0.0
 11
46.55400658467411
 21
228.5603143586664
 31
0.0
  0
LINE
  5
70F
330
18
100
AcDbEntity
  8
外形線
100
AcDbLine
 10
41.55400658467411
 20
223.5603143586664
 30
0.0
 11
41.55400658467411
 21
219.0603143586663
 31
0.0
  0
ARC
  5
710
330
18
100
AcDbEntity
  8
外形線
100
AcDbCircle
 10
47.05400658467411
 20
222.3103143586663
 30
0.0
 40
2.0
100
AcDbArc
 50
90.0
 51
180.0
  0
LINE
  5
711
330
18
100
AcDbEntity
  8
外形線
100
AcDbLine
 10
41.55400658467411
 20
219.0603143586663
 30
0.0
 11
41.55400658467411
 21
214.5603143586663
 31
0.0
  0
ARC
  5
712
330
18
100
AcDbEntity
  8
外形線
 48
0.5
100
AcDbCircle
 10
42.05400658467411
 20
214.5603143586663
 30
0.0
 40
0.5
100
AcDbArc
 50
180.0
 51
270.0000000000001
  0
LINE
  5
713
330
18
100
AcDbEntity
  8
外形線
 48
0.5
100
AcDbLine
 10
43.55400658467411
 20
214.0603143586663
 30
0.0
 11
42.05400658467411
 21
214.0603143586663
 31
0.0
  0
ARC
  5
714
330
18
100
AcDbEntity
  8
外形線
 48
0.5
100
AcDbCircle
 10
42.05400658467411
 20
219.0603143586663
 30
0.0
 40
0.5
100
AcDbArc
 50
90.0000000000001
 51
180.0
  0
LINE
  5
715
330
18
100
AcDbEntity
  8
外形線
 48
0.5
100
AcDbLine
 10
43.55400658467411
 20
219.5603143586663
 30
0.0
 11
42.05400658467411
 21
219.5603143586663
 31
0.0
  0
ARC
  5
716
330
18
100
AcDbEntity
  8
外形線
 48
0.5
100
AcDbCircle
 10
42.05400658467411
 20
223.5603143586664
 30
0.0
 40
0.5
100
AcDbArc
 50
90.0000000000001
 51
180.0
  0
LINE
  5
717
330
18
100
AcDbEntity
  8
外形線
 48
0.5
100
AcDbLine
 10
43.55400658467411
 20
224.0603143586664
 30
0.0
 11
42.05400658467411
 21
224.0603143586664
 31
0.0
  0
POINT
  5
718
330
18
100
AcDbEntity
  8
DEFPOINTS
  6
ByBlock
 62
     0
100
AcDbPoint
 10
46.55400658467411
 20
228.5603143586664
 30
0.0
  0
LINE
  5
719
330
18
100
AcDbEntity
  8
外形線
100
AcDbLine
 10
46.55400658467416
 20
230.0103143586663
 30
0.0
 11
46.35400658467406
 21
230.0103143586663
 31
0.0
  0
ARC
  5
71A
330
18
100
AcDbEntity
  8
外形線
100
AcDbCircle
 10
61.05400658467411
 20
222.3103143586663
 30
0.0
 40
2.0
100
AcDbArc
 50
0.0
 51
90.0
  0
LINE
  5
71B
330
18
100
AcDbEntity
  8
外形線
100
AcDbLine
 10
67.85400658467411
 20
217.8103143586664
 30
0.0
 11
67.85400658467411
 21
217.3103143586664
 31
0.0
  0
LINE
  5
71C
330
18
100
AcDbEntity
  8
外形線
100
AcDbLine
 10
68.55400658467411
 20
212.3103143586664
 30
0.0
 11
69.05400658467411
 21
212.8103143586664
 31
0.0
  0
LINE
  5
71D
330
18
100
AcDbEntity
  8
外形線
100
AcDbLine
 10
68.55400658467411
 20
212.3103143586664
 30
0.0
 11
66.05400658467411
 21
212.3103143586664
 31
0.0
  0
LINE
  5
71E
330
18
100
AcDbEntity
  8
外形線
100
AcDbLine
 10
69.05400658467411
 20
216.8103143586664
 30
0.0
 11
67.85400658467411
 21
216.8103143586663
 31
0.0
  0
LINE
  5
71F
330
18
100
AcDbEntity
  8
外形線
100
AcDbLine
 10
67.85400658467411
 20
216.8103143586663
 30
0.0
 11
67.85400658467411
 21
217.3103143586664
 31
0.0
  0
LINE
  5
720
330
18
100
AcDbEntity
  8
外形線
100
AcDbLine
 10
69.05400658467411
 20
212.8103143586664
 30
0.0
 11
69.05400658467411
 21
216.8103143586664
 31
0.0
  0
LINE
  5
721
330
18
100
AcDbEntity
  8
外形線
100
AcDbLine
 10
68.55400658467411
 20
212.3103143586664
 30
0.0
 11
68.55400658467411
 21
216.8103143586664
 31
0.0
  0
LINE
  5
722
330
18
100
AcDbEntity
  8
外形線
100
AcDbLine
 10
69.05400658467411
 20
217.8103143586663
 30
0.0
 11
67.85400658467411
 21
217.8103143586664
 31
0.0
  0
LINE
  5
723
330
18
100
AcDbEntity
  8
外形線
100
AcDbLine
 10
68.55400658467411
 20
222.3103143586663
 30
0.0
 11
68.55400658467411
 21
217.8103143586663
 31
0.0
  0
LINE
  5
724
330
18
100
AcDbEntity
  8
外形線
100
AcDbLine
 10
68.55400658467411
 20
222.3103143586663
 30
0.0
 11
69.05400658467411
 21
221.8103143586663
 31
0.0
  0
LINE
  5
725
330
18
100
AcDbEntity
  8
外形線
100
AcDbLine
 10
68.55400658467411
 20
222.3103143586663
 30
0.0
 11
66.05400658467411
 21
222.3103143586663
 31
0.0
  0
LINE
  5
726
330
18
100
AcDbEntity
  8
外形線
100
AcDbLine
 10
69.05400658467411
 20
221.8103143586663
 30
0.0
 11
69.05400658467411
 21
217.8103143586663
 31
0.0
  0
LINE
  5
727
330
18
100
AcDbEntity
  8
外形線
100
AcDbLine
 10
50.05400658467412
 20
228.5603143586664
 30
0.0
 11
50.0540065846741
 21
224.3103143586663
 31
0.0
  0
LINE
  5
728
330
18
100
AcDbEntity
  8
外形線
100
AcDbLine
 10
58.05400658467411
 20
228.5603143586664
 30
0.0
 11
58.05400658467411
 21
224.3103143586663
 31
0.0
  0
LINE
  5
729
330
18
100
AcDbEntity
  8
外形線
100
AcDbLine
 10
66.70400658467409
 20
228.8603143586664
 30
0.0
 11
65.50400658467404
 21
227.8103143586664
 31
0.0
  0
LINE
  5
72A
330
18
100
AcDbEntity
  8
外形線
100
AcDbLine
 10
64.05400658467411
 20
224.3103143586663
 30
0.0
 11
63.05400658467411
 21
224.3103143586663
 31
0.0
  0
LINE
  5
72B
330
18
100
AcDbEntity
  8
外形線
100
AcDbLine
 10
61.70400658467404
 20
227.9103143586664
 30
0.0
 11
61.00400658467404
 21
227.9103143586664
 31
0.0
  0
LINE
  5
72C
330
18
100
AcDbEntity
  8
外形線
 62
     4
100
AcDbLine
 10
65.50400658467404
 20
228.7603143586664
 30
0.0
 11
61.70400658467404
 21
228.7603143586664
 31
0.0
  0
LINE
  5
72D
330
18
100
AcDbEntity
  8
外形線
 62
     4
100
AcDbLine
 10
65.50400658467404
 20
227.5603143586664
 30
0.0
 11
61.70400658467404
 21
227.5603143586664
 31
0.0
  0
LINE
  5
72E
330
18
100
AcDbEntity
  8
外形線
100
AcDbLine
 10
61.95400658467409
 20
226.5603143586664
 30
0.0
 11
61.70400658467409
 21
226.8103143586664
 31
0.0
  0
LINE
  5
72F
330
18
100
AcDbEntity
  8
外形線
100
AcDbLine
 10
65.50400658467404
 20
226.8103143586664
 30
0.0
 11
65.25400658467404
 21
226.5603143586664
 31
0.0
  0
POINT
  5
730
330
18
100
AcDbEntity
  8
DEFPOINTS
  6
ByBlock
 62
     0
100
AcDbPoint
 10
65.25400658467404
 20
226.5603143586664
 30
0.0
  0
POINT
  5
731
330
18
100
AcDbEntity
  8
DEFPOINTS
  6
ByBlock
 62
     0
100
AcDbPoint
 10
65.25400658467404
 20
226.5603143586664
 30
0.0
  0
LINE
  5
732
330
18
100
AcDbEntity
  8
外形線
100
AcDbLine
 10
65.25400658467404
 20
226.5603143586664
 30
0.0
 11
61.95400658467409
 21
226.5603143586664
 31
0.0
  0
LINE
  5
733
330
18
100
AcDbEntity
  8
外形線
100
AcDbLine
 10
61.70400658467409
 20
226.8103143586664
 30
0.0
 11
61.70400658467404
 21
227.9103143586664
 31
0.0
  0
LINE
  5
734
330
18
100
AcDbEntity
  8
外形線
 62
     4
100
AcDbLine
 10
65.50400658467404
 20
232.7603143586663
 30
0.0
 11
61.70400658467404
 21
232.7603143586663
 31
0.0
  0
LINE
  5
735
330
18
100
AcDbEntity
  8
外形線
 62
     4
100
AcDbLine
 10
65.50400658467404
 20
231.3603143586663
 30
0.0
 11
61.70400658467404
 21
231.3603143586663
 31
0.0
  0
LINE
  5
736
330
18
100
AcDbEntity
  8
外形線
 62
     4
100
AcDbLine
 10
65.50400658467404
 20
229.9603143586664
 30
0.0
 11
61.70400658467404
 21
229.9603143586664
 31
0.0
  0
LINE
  5
737
330
18
100
AcDbEntity
  8
外形線
 62
     4
100
AcDbLine
 10
65.50400658467404
 20
258.4103143586665
 30
0.0
 11
61.70400658467404
 21
258.4103143586665
 31
0.0
  0
LINE
  5
738
330
18
100
AcDbEntity
  8
外形線
 62
     4
100
AcDbLine
 10
65.50400658467404
 20
257.0103143586664
 30
0.0
 11
61.70400658467404
 21
257.0103143586664
 31
0.0
  0
LINE
  5
739
330
18
100
AcDbEntity
  8
外形線
100
AcDbLine
 10
84.67748196765388
 20
311.4073497630187
 30
0.0
 11
84.67748196765388
 21
303.4073497630186
 31
0.0
  0
ARC
  5
73A
330
18
100
AcDbEntity
  8
外形線
100
AcDbCircle
 10
79.55400658467411
 20
307.4073497630187
 30
0.0
 40
6.5
100
AcDbArc
 50
322.0201275551474
 51
37.97987244485262
  0
LINE
  5
73B
330
18
100
AcDbEntity
  8
外形線
100
AcDbLine
 10
64.05400658467411
 20
311.4073497630187
 30
0.0
 11
64.05400658467411
 21
293.0603143586663
 31
0.0
  0
LINE
  5
73C
330
18
100
AcDbEntity
  8
中心線
100
AcDbLine
 10
71.76842036393193
 20
259.8103143586663
 30
0.0
 11
41.55876794774624
 21
259.8103143586663
 31
0.0
  0
LINE
  5
73D
330
18
100
AcDbEntity
  8
外形線
100
AcDbLine
 10
84.67748196765388
 20
303.4073497630186
 30
0.0
 11
66.05400658467411
 21
303.4073497630186
 31
0.0
  0
LINE
  5
73E
330
18
100
AcDbEntity
  8
外形線
100
AcDbLine
 10
46.35400658467406
 20
268.3103143586663
 30
0.0
 11
45.05400658467411
 21
268.3103143586663
 31
0.0
  0
LINE
  5
73F
330
18
100
AcDbEntity
  8
外形線
 62
     4
100
AcDbLine
 10
65.50400658467404
 20
261.2103143586663
 30
0.0
 11
61.70400658467404
 21
261.2103143586665
 31
0.0
  0
LINE
  5
740
330
18
100
AcDbEntity
  8
外形線
 62
     4
100
AcDbLine
 10
65.50400658467404
 20
262.6103143586664
 30
0.0
 11
61.70400658467404
 21
262.6103143586664
 31
0.0
  0
LINE
  5
741
330
18
100
AcDbEntity
  8
外形線
 62
     4
100
AcDbLine
 10
65.50400658467404
 20
259.8103143586665
 30
0.0
 11
61.70400658467404
 21
259.8103143586663
 31
0.0
  0
POINT
  5
742
330
18
100
AcDbEntity
  8
DEFPOINTS
  6
ByBlock
 62
     0
100
AcDbPoint
 10
68.55400658467406
 20
259.8103143586665
 30
0.0
  0
LINE
  5
743
330
18
100
AcDbEntity
  8
外形線
100
AcDbLine
 10
61.00400658467404
 20
291.0603143586665
 30
0.0
 11
46.55400658467406
 21
291.0603143586665
 31
0.0
  0
LINE
  5
744
330
18
100
AcDbEntity
  8
外形線
100
AcDbLine
 10
46.55400658467411
 20
289.6103143586663
 30
0.0
 11
46.35400658467406
 21
289.6103143586663
 31
0.0
  0
POINT
  5
745
330
18
100
AcDbEntity
  8
DEFPOINTS
  6
ByBlock
 62
     0
100
AcDbPoint
 10
46.55400658467406
 20
291.0603143586665
 30
0.0
  0
POINT
  5
746
330
18
100
AcDbEntity
  8
DEFPOINTS
  6
ByBlock
 62
     0
100
AcDbPoint
 10
46.55400658467406
 20
291.0603143586665
 30
0.0
  0
LINE
  5
747
330
18
100
AcDbEntity
  8
外形線
100
AcDbLine
 10
45.05400658467411
 20
303.3103143586664
 30
0.0
 11
43.55400658467411
 21
303.3103143586664
 31
0.0
  0
LINE
  5
748
330
18
100
AcDbEntity
  8
外形線
100
AcDbLine
 10
50.05400658467412
 20
294.3103143586664
 30
0.0
 11
50.05400658467412
 21
291.0603143586665
 31
0.0
  0
LINE
  5
749
330
18
100
AcDbEntity
  8
外形線
100
AcDbLine
 10
58.05400658467411
 20
294.3103143586664
 30
0.0
 11
58.05400658467417
 21
291.0603143586665
 31
0.0
  0
LINE
  5
74A
330
18
100
AcDbEntity
  8
外形線
 62
     4
100
AcDbLine
 10
65.50400658467404
 20
286.8603143586664
 30
0.0
 11
61.70400658467404
 21
286.8603143586664
 31
0.0
  0
LINE
  5
74B
330
18
100
AcDbEntity
  8
外形線
100
AcDbLine
 10
66.70400658467409
 20
290.7603143586663
 30
0.0
 11
65.50400658467404
 21
291.8103143586663
 31
0.0
  0
LINE
  5
74C
330
18
100
AcDbEntity
  8
外形線
100
AcDbLine
 10
61.95400658467409
 20
293.0603143586663
 30
0.0
 11
61.70400658467409
 21
292.8103143586664
 31
0.0
  0
LINE
  5
74D
330
18
100
AcDbEntity
  8
外形線
100
AcDbLine
 10
65.50400658467404
 20
292.8103143586664
 30
0.0
 11
65.25400658467404
 21
293.0603143586663
 31
0.0
  0
POINT
  5
74E
330
18
100
AcDbEntity
  8
DEFPOINTS
  6
ByBlock
 62
     0
100
AcDbPoint
 10
65.25400658467404
 20
293.0603143586663
 30
0.0
  0
LINE
  5
74F
330
18
100
AcDbEntity
  8
外形線
100
AcDbLine
 10
65.25400658467404
 20
293.0603143586663
 30
0.0
 11
61.95400658467409
 21
293.0603143586663
 31
0.0
  0
LINE
  5
750
330
18
100
AcDbEntity
  8
外形線
100
AcDbLine
 10
61.70400658467404
 20
291.7103143586663
 30
0.0
 11
61.00400658467404
 21
291.7103143586663
 31
0.0
  0
LINE
  5
751
330
18
100
AcDbEntity
  8
外形線
 62
     4
100
AcDbLine
 10
65.50400658467404
 20
292.0603143586664
 30
0.0
 11
61.70400658467404
 21
292.0603143586664
 31
0.0
  0
LINE
  5
752
330
18
100
AcDbEntity
  8
外形線
 62
     4
100
AcDbLine
 10
65.50400658467404
 20
290.8603143586663
 30
0.0
 11
61.70400658467404
 21
290.8603143586664
 31
0.0
  0
LINE
  5
753
330
18
100
AcDbEntity
  8
外形線
 62
     4
100
AcDbLine
 10
65.50400658467404
 20
289.6603143586664
 30
0.0
 11
61.70400658467404
 21
289.6603143586664
 31
0.0
  0
LINE
  5
754
330
18
100
AcDbEntity
  8
外形線
 62
     4
100
AcDbLine
 10
65.50400658467404
 20
288.2603143586664
 30
0.0
 11
61.70400658467404
 21
288.2603143586664
 31
0.0
  0
LINE
  5
755
330
18
100
AcDbEntity
  8
外形線
100
AcDbLine
 10
61.70400658467409
 20
292.8103143586664
 30
0.0
 11
61.70400658467404
 21
291.7103143586663
 31
0.0
  0
LINE
  5
756
330
18
100
AcDbEntity
  8
外形線
100
AcDbLine
 10
50.55400658467417
 20
300.3103143586664
 30
0.0
 11
50.55400658467411
 21
295.3103143586663
 31
0.0
  0
LINE
  5
757
330
18
100
AcDbEntity
  8
ﾊｯﾁﾝｸ
 62
     4
100
AcDbLine
 10
56.97026267037464
 20
295.3103143586665
 30
0.0
 11
54.0835113244265
 21
300.3103143586665
 31
0.0
  0
LINE
  5
758
330
18
100
AcDbEntity
  8
ﾊｯﾁﾝｸ
 62
     4
100
AcDbLine
 10
54.05400658467406
 20
295.9902939555868
 30
0.0
 11
56.54817152729683
 21
300.3103143586664
 31
0.0
  0
LINE
  5
759
330
18
100
AcDbEntity
  8
ﾊｯﾁﾝｸ
 62
     4
100
AcDbLine
 10
54.05400658467411
 20
297.990293955587
 30
0.0
 11
55.39347098891759
 21
300.3103143586664
 31
0.0
  0
LINE
  5
75A
330
18
100
AcDbEntity
  8
外形線
100
AcDbLine
 10
57.55400658467417
 20
300.3103143586664
 30
0.0
 11
57.55400658467412
 21
295.3103143586663
 31
0.0
  0
LINE
  5
75B
330
18
100
AcDbEntity
  8
ﾊｯﾁﾝｸ
 62
     4
100
AcDbLine
 10
57.55400658467412
 20
296.2992402404905
 30
0.0
 11
55.23821186280563
 21
300.3103143586664
 31
0.0
  0
LINE
  5
75C
330
18
100
AcDbEntity
  8
ﾊｯﾁﾝｸ
 62
     4
100
AcDbLine
 10
57.55400658467417
 20
298.2992402404903
 30
0.0
 11
56.39291240118493
 21
300.3103143586664
 31
0.0
  0
LINE
  5
75D
330
18
100
AcDbEntity
  8
ﾊｯﾁﾝｸ
 62
     4
100
AcDbLine
 10
54.81612071972794
 20
295.3103143586665
 30
0.0
 11
57.55400658467422
 21
300.052471782078
 31
0.0
  0
LINE
  5
75E
330
18
100
AcDbEntity
  8
ﾊｯﾁﾝｸ
 62
     4
100
AcDbLine
 10
55.82195577710527
 20
295.2992402404905
 30
0.0
 11
54.05400658467406
 21
298.3614180669816
 31
0.0
  0
LINE
  5
75F
330
18
100
AcDbEntity
  8
外形線
100
AcDbLine
 10
57.55400658467412
 20
294.8103143586664
 30
0.0
 11
50.55400658467411
 21
294.8103143586664
 31
0.0
  0
LINE
  5
760
330
18
100
AcDbEntity
  8
外形線
100
AcDbLine
 10
57.55400658467412
 20
295.3103143586663
 30
0.0
 11
50.55400658467411
 21
295.3103143586663
 31
0.0
  0
ARC
  5
761
330
18
100
AcDbEntity
  8
外形線
100
AcDbCircle
 10
50.55400658467411
 20
294.3103143586664
 30
0.0
 40
0.5
100
AcDbArc
 50
90.0
 51
180.0
  0
LINE
  5
762
330
18
100
AcDbEntity
  8
外形線
100
AcDbLine
 10
51.05400658467411
 20
294.8103143586664
 30
0.0
 11
50.55400658467411
 21
295.3103143586663
 31
0.0
  0
LINE
  5
763
330
18
100
AcDbEntity
  8
ﾊｯﾁﾝｸ
 62
     4
100
AcDbLine
 10
54.66086159361615
 20
295.3103143586665
 30
0.0
 11
54.05400658467411
 21
296.3614180669816
 31
0.0
  0
ARC
  5
764
330
18
100
AcDbEntity
  8
外形線
100
AcDbCircle
 10
57.55400658467412
 20
294.3103143586664
 30
0.0
 40
0.5
100
AcDbArc
 50
0.000000000000007
 51
90.0
  0
LINE
  5
765
330
18
100
AcDbEntity
  8
外形線
100
AcDbLine
 10
57.55400658467412
 20
295.3103143586663
 30
0.0
 11
57.05400658467411
 21
294.8103143586664
 31
0.0
  0
LINE
  5
766
330
18
100
AcDbEntity
  8
ﾊｯﾁﾝｸ
 62
     4
100
AcDbLine
 10
57.12552179648631
 20
295.3103143586665
 30
0.0
 11
57.55400658467412
 21
296.0524717820781
 31
0.0
  0
LINE
  5
767
330
18
100
AcDbEntity
  8
ﾊｯﾁﾝｸ
 62
     4
100
AcDbLine
 10
55.96442761299718
 20
295.2992402404905
 30
0.0
 11
57.55400658467412
 21
298.0524717820781
 31
0.0
  0
LINE
  5
768
330
18
100
AcDbEntity
  8
外形線
100
AcDbLine
 10
57.55400658467417
 20
300.3103143586664
 30
0.0
 11
50.55400658467417
 21
300.3103143586664
 31
0.0
  0
ARC
  5
769
330
18
100
AcDbEntity
  8
外形線
100
AcDbCircle
 10
54.05400658467411
 20
288.3103143586664
 30
0.0
 40
12.49999999999989
100
AcDbArc
 50
73.73979529168789
 51
106.2602047083121
  0
POINT
  5
76A
330
18
100
AcDbEntity
  8
DEFPOINTS
  6
ByBlock
 62
     0
100
AcDbPoint
 10
54.05400658467411
 20
300.8103143586664
 30
0.0
  0
POINT
  5
76B
330
18
100
AcDbEntity
  8
DEFPOINTS
  6
ByBlock
 62
     0
100
AcDbPoint
 10
54.05400658467411
 20
300.8103143586664
 30
0.0
  0
LINE
  5
76C
330
18
100
AcDbEntity
  8
ﾊｯﾁﾝｸ
 62
     4
100
AcDbLine
 10
54.05400658467411
 20
299.9902939555868
 30
0.0
 11
54.23877045053834
 21
300.3103143586664
 31
0.0
  0
LINE
  5
76D
330
18
100
AcDbEntity
  8
外形線
100
AcDbLine
 10
57.55400658467428
 20
300.2992402404903
 30
0.0
 11
57.54761293956423
 21
300.3103143586665
 31
0.0
  0
LINE
  5
76E
330
18
100
AcDbEntity
  8
外形線
100
AcDbLine
 10
84.67748196765388
 20
311.4073497630187
 30
0.0
 11
64.05400658467411
 21
311.4073497630187
 31
0.0
  0
LINE
  5
76F
330
18
100
AcDbEntity
  8
中心線
 48
0.9
100
AcDbLine
 10
88.44110116186925
 20
307.4073497630187
 30
0.0
 11
61.03244384427435
 21
307.4073497630187
 31
0.0
  0
ARC
  5
770
330
18
100
AcDbEntity
  8
外形線
100
AcDbCircle
 10
146.628609466449
 20
259.3103143586664
 30
0.0
 40
36.0
100
AcDbArc
 50
328.1445691759742
 51
49.88083310159491
  0
CIRCLE
  5
771
330
18
100
AcDbEntity
  8
針
100
AcDbCircle
 10
146.6286094664489
 20
259.8103143586664
 30
0.0
 40
1.7
  0
CIRCLE
  5
772
102
{ACAD_REACTORS
330
834
102
}
330
18
100
AcDbEntity
  8
針
100
AcDbCircle
 10
146.6286094664489
 20
259.8103143586664
 30
0.0
 40
1.9
  0
CIRCLE
  5
773
330
18
100
AcDbEntity
  8
外形線
100
AcDbCircle
 10
146.628609466449
 20
259.8103143586664
 30
0.0
 40
33.25
  0
CIRCLE
  5
774
330
18
100
AcDbEntity
  8
外形線
100
AcDbCircle
 10
146.628609466449
 20
259.8103143586664
 30
0.0
 40
15.5
  0
CIRCLE
  5
775
330
18
100
AcDbEntity
  8
外形線
100
AcDbCircle
 10
146.628609466449
 20
259.8103143586664
 30
0.0
 40
29.0
  0
LINE
  5
776
330
18
100
AcDbEntity
  8
外形線
100
AcDbLine
 10
241.6628274624912
 20
240.9211313787656
 30
0.0
 11
189.261062662474
 21
236.0856494257977
 31
0.0
  0
LINE
  5
777
330
18
100
AcDbEntity
  8
外形線
100
AcDbLine
 10
246.2131633567886
 20
246.3622656229125
 30
0.0
 11
180.628609466449
 21
240.3103143586664
 31
0.0
  0
LINE
  5
778
330
18
100
AcDbEntity
  8
想像線
100
AcDbLine
 10
193.1309009712174
 20
228.7714615755161
 30
0.0
 11
236.2138916674857
 21
231.8542457122273
 31
0.0
  0
LINE
  5
779
330
18
100
AcDbEntity
  8
想像線
100
AcDbLine
 10
192.9763552131552
 20
230.7655166399221
 30
0.0
 11
236.0593459094234
 21
233.8483007766333
 31
0.0
  0
LINE
  5
77A
330
18
100
AcDbEntity
  8
外形線
100
AcDbLine
 10
194.7098964054082
 20
228.3831675085786
 30
0.0
 11
233.4986402346754
 21
231.1586787306948
 31
0.0
  0
LINE
  5
77B
330
18
100
AcDbEntity
  8
外形線
100
AcDbLine
 10
194.4780777683149
 20
231.3742501051875
 30
0.0
 11
234.3767664064454
 21
234.2291829318416
 31
0.0
  0
LINE
  5
77C
330
18
100
AcDbEntity
  8
中心線
100
AcDbLine
 10
186.650475106014
 20
229.3103143586663
 30
0.0
 11
242.1525229587794
 21
233.2817385776055
 31
0.0
  0
LINE
  5
77D
330
18
100
AcDbEntity
  8
中心線
100
AcDbLine
 10
187.0064551978501
 20
214.3103143586663
 30
0.0
 11
220.2192357112028
 21
214.3103143586663
 31
0.0
  0
LINE
  5
77E
330
18
100
AcDbEntity
  8
外形線
100
AcDbLine
 10
176.9567329408447
 20
166.8956124938544
 30
0.0
 11
222.6298824348622
 21
217.4698692013156
 31
0.0
  0
ARC
  5
77F
330
18
100
AcDbEntity
  8
外形線
100
AcDbCircle
 10
203.628609466449
 20
214.3103143586663
 30
0.0
 40
12.5
100
AcDbArc
 50
334.4318276592049
 51
301.3983640535766
  0
LINE
  5
780
330
18
100
AcDbEntity
  8
外形線
100
AcDbLine
 10
185.628609466449
 20
232.1025715522321
 30
0.0
 11
185.628609466449
 21
201.3103143586663
 31
0.0
  0
LINE
  5
781
330
18
100
AcDbEntity
  8
外形線
100
AcDbLine
 10
180.628609466449
 20
240.3103143586664
 30
0.0
 11
180.628609466449
 21
192.3103143586663
 31
0.0
  0
CIRCLE
  5
782
330
18
100
AcDbEntity
  8
隠れ線2
 48
0.5
100
AcDbCircle
 10
146.628609466449
 20
212.3103143586663
 30
0.0
 40
1.5
  0
LINE
  5
783
330
18
100
AcDbEntity
  8
隠れ線2
100
AcDbLine
 10
142.628609466449
 20
224.3103143586664
 30
0.0
 11
142.628609466449
 21
206.5603143586664
 31
0.0
  0
LINE
  5
784
330
18
100
AcDbEntity
  8
隠れ線2
100
AcDbLine
 10
150.628609466449
 20
224.539637057239
 30
0.0
 11
150.628609466449
 21
206.5603143586664
 31
0.0
  0
LINE
  5
785
330
18
100
AcDbEntity
  8
外形線
100
AcDbLine
 10
132.628609466449
 20
224.3103143586663
 30
0.0
 11
132.628609466449
 21
201.3103143586663
 31
0.0
  0
LINE
  5
786
330
18
100
AcDbEntity
  8
外形線
100
AcDbLine
 10
144.128609466449
 20
201.3103143586663
 30
0.0
 11
144.128609466449
 21
178.8103143586663
 31
0.0
  0
LINE
  5
787
330
18
100
AcDbEntity
  8
外形線
100
AcDbLine
 10
149.128609466449
 20
201.3103143586663
 30
0.0
 11
149.128609466449
 21
178.8103143586664
 31
0.0
  0
LINE
  5
788
330
18
100
AcDbEntity
  8
外形線
100
AcDbLine
 10
144.128609466449
 20
178.6103143586663
 30
0.0
 11
144.328609466449
 21
178.8103143586663
 31
0.0
  0
LINE
  5
789
330
18
100
AcDbEntity
  8
外形線
100
AcDbLine
 10
144.128609466449
 20
178.8103143586663
 30
0.0
 11
149.128609466449
 21
178.8103143586664
 31
0.0
  0
LINE
  5
78A
330
18
100
AcDbEntity
  8
外形線
100
AcDbLine
 10
148.928609466449
 20
178.8103143586664
 30
0.0
 11
149.128609466449
 21
178.6103143586664
 31
0.0
  0
LINE
  5
78B
330
18
100
AcDbEntity
  8
外形線
100
AcDbLine
 10
132.628609466449
 20
201.3103143586664
 30
0.0
 11
153.628609466449
 21
201.3103143586663
 31
0.0
  0
LINE
  5
78C
330
18
100
AcDbEntity
  8
外形線
100
AcDbLine
 10
153.628609466449
 20
201.3103143586663
 30
0.0
 11
153.628609466449
 21
192.3103143586663
 31
0.0
  0
LINE
  5
78D
330
18
100
AcDbEntity
  8
隠れ線2
100
AcDbLine
 10
142.628609466449
 20
206.5603143586664
 30
0.0
 11
150.628609466449
 21
206.5603143586664
 31
0.0
  0
LINE
  5
78E
330
18
100
AcDbEntity
  8
隠れ線2
100
AcDbLine
 10
142.728609466449
 20
201.8603143586664
 30
0.0
 11
150.528609466449
 21
201.8603143586664
 31
0.0
  0
LINE
  5
78F
330
18
100
AcDbEntity
  8
隠れ線2
100
AcDbLine
 10
143.0286094664491
 20
201.5603143586665
 30
0.0
 11
150.2286094664489
 21
201.5603143586664
 31
0.0
  0
LINE
  5
790
330
18
100
AcDbEntity
  8
隠れ線2
100
AcDbLine
 10
142.728609466449
 20
206.5603143586664
 30
0.0
 11
142.728609466449
 21
201.8603143586664
 31
0.0
  0
LINE
  5
791
330
18
100
AcDbEntity
  8
隠れ線2
100
AcDbLine
 10
142.728609466449
 20
201.8603143586664
 30
0.0
 11
143.0286094664491
 21
201.5603143586665
 31
0.0
  0
LINE
  5
792
330
18
100
AcDbEntity
  8
隠れ線2
100
AcDbLine
 10
144.128609466449
 20
201.5603143586665
 30
0.0
 11
144.128609466449
 21
201.3103143586663
 31
0.0
  0
LINE
  5
793
330
18
100
AcDbEntity
  8
隠れ線2
100
AcDbLine
 10
150.528609466449
 20
206.5603143586664
 30
0.0
 11
150.528609466449
 21
201.8603143586664
 31
0.0
  0
LINE
  5
794
330
18
100
AcDbEntity
  8
隠れ線2
100
AcDbLine
 10
149.128609466449
 20
201.5603143586663
 30
0.0
 11
149.128609466449
 21
201.3103143586663
 31
0.0
  0
LINE
  5
795
330
18
100
AcDbEntity
  8
隠れ線2
100
AcDbLine
 10
150.2286094664489
 20
201.5603143586664
 30
0.0
 11
150.528609466449
 21
201.8603143586664
 31
0.0
  0
LINE
  5
796
330
18
100
AcDbEntity
  8
隠れ線2
100
AcDbLine
 10
189.3396961860497
 20
168.6947636175693
 30
0.0
 11
190.7611784574598
 21
167.2839530389196
 31
0.0
  0
ARC
  5
797
330
18
100
AcDbEntity
  8
外形線
100
AcDbCircle
 10
189.628609466449
 20
201.3103143586663
 30
0.0
 40
4.0
100
AcDbArc
 50
180.0
 51
270.0
  0
TEXT
  5
798
330
18
100
AcDbEntity
  8
文字
100
AcDbText
 10
154.27758510366
 20
246.9613941903095
 30
0.0
 40
1.0
  1
K
 50
26.74010930037497
  7
STYLE3
100
AcDbText
  0
LINE
  5
799
330
18
100
AcDbEntity
  8
目盛
100
AcDbLine
 10
155.5901023033225
 20
232.229675386107
 30
0.0
 11
154.1222715800414
 21
236.747193838509
 31
0.0
  0
ARC
  5
79A
330
18
100
AcDbEntity
  8
外形線
100
AcDbCircle
 10
146.628609466449
 20
259.3103143586664
 30
0.0
 40
35.0
100
AcDbArc
 50
270.0
 51
327.1216504356225
  0
LINE
  5
79B
330
18
100
AcDbEntity
  8
目盛
100
AcDbLine
 10
135.9529974385933
 20
232.8467962679071
 30
0.0
 11
136.9653399584761
 21
235.4036816040999
 31
0.0
  0
LINE
  5
79C
330
18
100
AcDbEntity
  8
目盛
100
AcDbLine
 10
134.2810100110617
 20
233.5703298371517
 30
0.0
 11
135.4519030628657
 21
236.0586042314334
 31
0.0
  0
LINE
  5
79D
330
18
100
AcDbEntity
  8
目盛
100
AcDbLine
 10
132.6577529174991
 20
234.3974206373943
 30
0.0
 11
133.9825755212789
 21
236.807264007515
 31
0.0
  0
LINE
  5
79E
330
18
100
AcDbEntity
  8
目盛
100
AcDbLine
 10
137.6671166295755
 20
232.229675386107
 30
0.0
 11
139.1349473528564
 21
236.7471938385089
 31
0.0
  0
LINE
  5
79F
330
18
100
AcDbEntity
  8
目盛
100
AcDbLine
 10
146.6286094664489
 20
230.8103143586665
 30
0.0
 11
146.6286094664489
 21
235.5603143586665
 31
0.0
  0
LINE
  5
7A0
330
18
100
AcDbEntity
  8
外形線
100
AcDbLine
 10
132.628609466449
 20
224.3103143586663
 30
0.0
 11
146.628609466449
 21
224.3103143586663
 31
0.0
  0
LINE
  5
7A1
330
18
100
AcDbEntity
  8
中心線
 48
0.3
100
AcDbLine
 10
140.9909428239684
 20
221.3103143586664
 30
0.0
 11
151.5380261270693
 21
221.3103143586664
 31
0.0
  0
LINE
  5
7A2
330
18
100
AcDbEntity
  8
中心線
 48
0.3
100
AcDbLine
 10
140.9909428239684
 20
212.3103143586663
 30
0.0
 11
151.5380261270693
 21
212.3103143586663
 31
0.0
  0
CIRCLE
  5
7A3
330
18
100
AcDbEntity
  8
隠れ線2
 48
0.5
100
AcDbCircle
 10
146.628609466449
 20
221.3103143586664
 30
0.0
 40
1.5
  0
LINE
  5
7A4
330
18
100
AcDbEntity
  8
外形線
100
AcDbLine
 10
142.628609466449
 20
226.8017927316683
 30
0.0
 11
142.628609466449
 21
224.3103143586664
 31
0.0
  0
LINE
  5
7A5
330
18
100
AcDbEntity
  8
目盛
100
AcDbLine
 10
142.993945693084
 20
231.0389880205465
 30
0.0
 11
143.3386120853858
 21
233.7673034491615
 31
0.0
  0
LINE
  5
7A6
330
18
100
AcDbEntity
  8
目盛
100
AcDbLine
 10
141.1945513434629
 20
231.3239840875345
 30
0.0
 11
141.7098499585736
 21
234.0252740270384
 31
0.0
  0
LINE
  5
7A7
330
18
100
AcDbEntity
  8
目盛
100
AcDbLine
 10
139.416602738668
 20
231.7214026859362
 30
0.0
 11
140.1004999283715
 21
234.3850063790399
 31
0.0
  0
LINE
  5
7A8
330
18
100
AcDbEntity
  8
外形線
100
AcDbLine
 10
150.628609466449
 20
226.8017927316683
 30
0.0
 11
150.628609466449
 21
224.539637057239
 31
0.0
  0
LINE
  5
7A9
330
18
100
AcDbEntity
  8
目盛
100
AcDbLine
 10
148.449534532799
 20
230.8675392342466
 30
0.0
 11
148.2768606040935
 21
233.6121127374243
 31
0.0
  0
LINE
  5
7AA
330
18
100
AcDbEntity
  8
目盛
100
AcDbLine
 10
144.8076844000989
 20
230.8675392342466
 30
0.0
 11
144.9803583288044
 21
233.6121127374243
 31
0.0
  0
LINE
  5
7AB
330
18
100
AcDbEntity
  8
目盛
100
AcDbLine
 10
153.8406161942298
 20
231.7214026859361
 30
0.0
 11
153.1567190045264
 21
234.3850063790399
 31
0.0
  0
LINE
  5
7AC
330
18
100
AcDbEntity
  8
目盛
100
AcDbLine
 10
152.062667589435
 20
231.3239840875344
 30
0.0
 11
151.5473689743243
 21
234.0252740270384
 31
0.0
  0
LINE
  5
7AD
330
18
100
AcDbEntity
  8
目盛
100
AcDbLine
 10
150.2632732398138
 20
231.0389880205466
 30
0.0
 11
149.918606847512
 21
233.7673034491614
 31
0.0
  0
TEXT
  5
7AE
330
18
100
AcDbEntity
  8
文字
100
AcDbText
 10
131.4639251286616
 20
241.216499558354
 30
0.0
 40
3.0
  1
60
  7
STYLE3
100
AcDbText
  0
LINE
  5
7AF
330
18
100
AcDbEntity
  8
目盛
100
AcDbLine
 10
121.2157157451769
 20
245.8394578097166
 30
0.0
 11
123.6255591152976
 21
247.1642804134964
 31
0.0
  0
LINE
  5
7B0
330
18
100
AcDbEntity
  8
目盛
100
AcDbLine
 10
122.1430996268906
 20
244.2713373042755
 30
0.0
 11
124.4650014220211
 21
245.7448609904678
 31
0.0
  0
LINE
  5
7B1
330
18
100
AcDbEntity
  8
目盛
100
AcDbLine
 10
125.488519271228
 20
239.9584482867344
 30
0.0
 11
127.4931829966368
 21
241.8409528280383
 31
0.0
  0
LINE
  5
7B2
330
18
100
AcDbEntity
  8
目盛
100
AcDbLine
 10
126.7767433945168
 20
238.6702241634454
 30
0.0
 11
128.6592479358208
 21
240.6748878888544
 31
0.0
  0
LINE
  5
7B3
330
18
100
AcDbEntity
  8
目盛
100
AcDbLine
 10
129.5828371499672
 20
236.3488215217929
 30
0.0
 11
132.3748170983565
 21
240.1916522450739
 31
0.0
  0
LINE
  5
7B4
330
18
100
AcDbEntity
  8
目盛
100
AcDbLine
 10
131.089632412058
 20
235.324804519108
 30
0.0
 11
132.5631560982502
 21
237.6467063142385
 31
0.0
  0
LINE
  5
7B5
330
18
100
AcDbEntity
  8
目盛
100
AcDbLine
 10
128.1433137637369
 20
237.4654303181685
 30
0.0
 11
129.8962297355458
 21
239.5843417358019
 31
0.0
  0
LINE
  5
7B6
330
18
100
AcDbEntity
  8
目盛
100
AcDbLine
 10
123.1671166295755
 20
242.7645420421847
 30
0.0
 11
127.0099473528564
 21
245.5565219905739
 31
0.0
  0
LINE
  5
7B7
330
18
100
AcDbEntity
  8
目盛
100
AcDbLine
 10
124.283725425951
 20
241.3250186559544
 30
0.0
 11
126.4026368435844
 21
243.0779346277633
 31
0.0
  0
LINE
  5
7B8
330
18
100
AcDbEntity
  8
目盛
100
AcDbLine
 10
119.0479704938895
 20
250.8488215217929
 30
0.0
 11
123.5654889462916
 21
252.316652245074
 31
0.0
  0
LINE
  5
7B9
330
18
100
AcDbEntity
  8
目盛
100
AcDbLine
 10
120.3886249449344
 20
247.4627149032793
 30
0.0
 11
122.8768993392159
 21
248.6336079550833
 31
0.0
  0
LINE
  5
7BA
330
18
100
AcDbEntity
  8
目盛
100
AcDbLine
 10
118.5396977937187
 20
252.5983076308857
 30
0.0
 11
121.2033014868225
 21
253.282204820589
 31
0.0
  0
LINE
  5
7BB
330
18
100
AcDbEntity
  8
目盛
100
AcDbLine
 10
119.6650913756897
 20
249.1347023308108
 30
0.0
 11
122.2219767118823
 21
250.1470448506936
 31
0.0
  0
LINE
  5
7BC
330
18
100
AcDbEntity
  8
目盛
100
AcDbLine
 10
117.6858343420291
 20
257.9893892923164
 30
0.0
 11
120.4304078452069
 21
258.1620632210219
 31
0.0
  0
LINE
  5
7BD
330
18
100
AcDbEntity
  8
目盛
100
AcDbLine
 10
118.1422791953168
 20
254.3762562356804
 30
0.0
 11
120.843569134821
 21
254.8915548507912
 31
0.0
  0
LINE
  5
7BE
330
18
100
AcDbEntity
  8
目盛
100
AcDbLine
 10
117.8572831283291
 20
256.1756505853016
 30
0.0
 11
120.5855985569439
 21
256.5203169776034
 31
0.0
  0
TEXT
  5
7BF
330
18
100
AcDbEntity
  8
文字
100
AcDbText
 10
123.8851494853584
 20
251.1195955587116
 30
0.0
 40
3.0
  1
70
  7
STYLE3
100
AcDbText
  0
TEXT
  5
7C0
330
18
100
AcDbEntity
  8
文字
100
AcDbText
 10
128.1875927475952
 20
254.9764462883115
 30
0.0
 40
1.5
  1
30
  7
STYLE3
100
AcDbText
  0
TEXT
  5
7C1
330
18
100
AcDbEntity
  8
文字
100
AcDbText
 10
153.3350327445359
 20
246.5189684192977
 30
0.0
 40
1.0
  1
C
 50
21.28193050434719
  7
STYLE3
100
AcDbText
  0
TEXT
  5
7C2
330
18
100
AcDbEntity
  8
文字
100
AcDbText
 10
151.5129289686757
 20
245.703981403816
 30
0.0
 40
1.0
  1
H
 50
17.18454433900268
  7
STYLE3
100
AcDbText
  0
TEXT
  5
7C3
330
18
100
AcDbEntity
  8
文字
100
AcDbText
 10
145.0230468292819
 20
246.4107319934064
 30
0.0
 40
1.0
  1
6
  7
STYLE3
100
AcDbText
  0
TEXT
  5
7C4
330
18
100
AcDbEntity
  8
文字
100
AcDbText
 10
140.8071662742246
 20
246.2881882223149
 30
0.0
 40
1.0
  1
4
  7
STYLE3
100
AcDbText
  0
LINE
  5
7C5
330
18
100
AcDbEntity
  8
中心線
 48
0.2
100
AcDbLine
 10
143.4286094664489
 20
257.5995503658742
 30
0.0
 11
143.4286094664489
 21
241.9099563438387
 31
0.0
  0
TEXT
  5
7C6
330
18
100
AcDbEntity
  8
文字
100
AcDbText
 10
152.3993274152346
 20
246.0688599651478
 30
0.0
 40
1.0
  1
O
 50
17.35565287000321
  7
STYLE3
100
AcDbText
  0
TEXT
  5
7C7
330
18
100
AcDbEntity
  8
文字
100
AcDbText
 10
133.9526879438762
 20
245.3515812756313
 30
0.0
 40
1.5
  1
40
  7
STYLE3
100
AcDbText
  0
CIRCLE
  5
7C8
330
18
100
AcDbEntity
  8
外形線
100
AcDbCircle
 10
143.4286094664489
 20
249.7363429471525
 30
0.0
 40
4.75
  0
TEXT
  5
7C9
330
18
100
AcDbEntity
  8
文字
100
AcDbText
 10
143.7110881604715
 20
236.7450973338023
 30
0.0
 40
3.0
  1
50
  7
STYLE3
100
AcDbText
  0
LINE
  5
7CA
330
18
100
AcDbEntity
  8
目盛
100
AcDbLine
 10
143.4286094664489
 20
244.9863429471525
 30
0.0
 11
143.4286094664489
 21
245.4863429471525
 31
0.0
  0
LINE
  5
7CB
330
18
100
AcDbEntity
  8
目盛
100
AcDbLine
 10
140.6366295180596
 20
245.8935122238715
 30
0.0
 11
140.9305221442058
 21
246.2980207210589
 31
0.0
  0
TEXT
  5
7CC
330
18
100
AcDbEntity
  8
文字
100
AcDbText
 10
142.9106578435969
 20
245.8134502367835
 30
0.0
 40
1.0
  1
5
  7
STYLE3
100
AcDbText
  0
LINE
  5
7CD
330
18
100
AcDbEntity
  8
目盛
100
AcDbLine
 10
146.2205894148383
 20
245.8935122238715
 30
0.0
 11
145.9266967886919
 21
246.298020721059
 31
0.0
  0
TEXT
  5
7CE
330
18
100
AcDbEntity
  8
文字
100
AcDbText
 10
145.1147690149502
 20
241.1060301315026
 30
0.0
 40
1.5
  1
50
  7
STYLE3
100
AcDbText
  0
TEXT
  5
7CF
330
18
100
AcDbEntity
  8
文字
100
AcDbText
 10
150.6809710455552
 20
245.4003091238977
 30
0.0
 40
1.0
  1
S
 50
15.59472272566242
  7
STYLE3
100
AcDbText
  0
HATCH
  5
7D0
330
18
100
AcDbEntity
  8
針
100
AcDbHatch
 10
0.0
 20
0.0
 30
0.0
210
0.0
220
0.0
230
1.0
  2
SOLID
 70
     1
 71
     0
 91
        2
 92
        7
 72
     1
 73
     1
 93
        5
 10
143.7812837560931
 20
248.6944116416318
 42
0.31735696877887
 10
144.5284823062252
 20
249.7196176273513
 42
0.0
 10
144.1671516289425
 20
249.9863256774435
 42
0.0
 10
144.1390171747584
 20
249.9768026900917
 42
-0.4142135623731173
 10
143.6690692093881
 20
249.0259352388429
 42
0.0
 97
        0
 92
        7
 72
     1
 73
     1
 93
        4
 10
143.7812837560931
 20
248.6944116416318
 42
0.0
 10
143.6690692093881
 20
249.0259352388429
 42
-0.4142135623730728
 10
142.7182017581394
 20
249.4958832042132
 42
0.0
 10
142.3866781609283
 20
249.3836686575082
 42
0.4142135623730844
 97
        0
 75
     0
 76
     1
 47
0.0161501285364394
 98
        2
 10
144.090156478275
 20
249.0400131447489
 10
143.4113614073578
 20
248.8273036027982
450
        0
451
        0
460
0.0
461
0.0
452
        0
462
0.0
453
        0
470

  0
HATCH
  5
7D1
330
18
100
AcDbEntity
  8
針
100
AcDbHatch
 10
0.0
 20
0.0
 30
0.0
210
0.0
220
0.0
230
1.0
  2
SOLID
 70
     1
 71
     0
 91
        4
 92
        7
 72
     1
 73
     1
 93
        4
 10
142.3406920167507
 20
249.8989332993951
 42
0.0
 10
142.6868475689274
 20
249.8472000054998
 42
-0.4142135623730951
 10
143.539466524796
 20
250.4781048446739
 42
0.0
 10
143.5911998186914
 20
250.8242603968506
 42
0.4142135623730996
 97
        0
 92
        7
 72
     1
 73
     1
 93
        5
 10
142.6868475689274
 20
249.8472000054998
 42
0.0
 10
142.3406920167507
 20
249.8989332993951
 42
0.3173569687788799
 10
142.9109840980793
 20
248.7657431439275
 42
0.0
 10
143.3133621082885
 20
248.9652048676482
 42
0.0
 10
143.3177524081016
 20
248.994581049631
 42
-0.4142135623730839
 97
        0
 92
        7
 72
     1
 73
     1
 93
        4
 10
143.5911998186914
 20
250.8242603968506
 42
0.0
 10
143.539466524796
 20
250.4781048446739
 42
-0.4142135623730951
 10
144.1703713639703
 20
249.6254858888053
 42
0.0
 10
144.516526916147
 20
249.5737525949099
 42
0.4142135623730996
 97
        0
 92
        7
 72
     1
 73
     1
 93
        4
 10
144.1703713639703
 20
249.6254858888053
 42
-0.1036385141593389
 10
144.0634795338615
 20
249.337043563853
 42
0.0
 10
144.5144811717397
 20
249.5606083755713
 42
0.003023315109616
 10
144.516526916147
 20
249.5737525949099
 42
0.0
 97
        0
 75
     0
 76
     1
 47
0.0223982890607777
 98
        4
 10
142.9245539654498
 20
250.5880981352211
 10
142.5971989781873
 20
249.4584589341181
 10
143.855989315641
 20
250.6075466060277
 10
144.2418607723704
 20
249.5526321593146
450
        0
451
        0
460
0.0
461
0.0
452
        0
462
0.0
453
        0
470

  0
CIRCLE
  5
7D2
330
18
100
AcDbEntity
  8
針
100
AcDbCircle
 10
143.4286094664489
 20
249.7363429471525
 30
0.0
 40
1.1
  0
CIRCLE
  5
7D3
330
18
100
AcDbEntity
  8
針
100
AcDbCircle
 10
143.4286094664489
 20
249.7363429471525
 30
0.0
 40
0.75
  0
LINE
  5
7D4
330
18
100
AcDbEntity
  8
中心線
 48
0.2
100
AcDbLine
 10
136.4693342795192
 20
249.7363429471525
 30
0.0
 11
150.9973217274994
 21
249.7363429471525
 31
0.0
  0
TEXT
  5
7D5
330
18
100
AcDbEntity
  8
文字
100
AcDbText
 10
141.0021192526216
 20
252.0883928069429
 30
0.0
 40
1.0
  1
1
  7
STYLE3
100
AcDbText
  0
LINE
  5
7D6
330
18
100
AcDbEntity
  8
針
100
AcDbLine
 10
143.2837011088105
 20
251.1937122924821
 30
0.0
 11
143.3286094664488
 21
254.4363429471525
 31
0.0
  0
HATCH
  5
7D7
330
18
100
AcDbEntity
  8
針
100
AcDbHatch
 10
0.0
 20
0.0
 30
0.0
210
0.0
220
0.0
230
1.0
  2
SOLID
 70
     1
 71
     0
 91
        1
 92
        7
 72
     1
 73
     1
 93
        7
 10
143.528609466449
 20
254.4363429471526
 42
0.0
 10
143.4286094664489
 20
254.4363429471525
 42
0.0
 10
143.3286094664488
 20
254.4363429471525
 42
0.0
 10
143.2837011088105
 20
251.1937122924821
 42
-0.2935495917910092
 10
142.9852679322737
 20
250.7430446328939
 42
-0.2104432563350663
 10
143.8719503210068
 20
250.7430449321907
 42
-0.2935491884945053
 10
143.5735178240873
 20
251.193712292482
 42
0.0
 97
        0
 75
     0
 76
     1
 47
0.0140573597042523
 98
        1
 10
143.4872111823463
 20
252.6309029924527
450
        0
451
        0
460
0.0
461
0.0
452
        0
462
0.0
453
        0
470

  0
LINE
  5
7D8
330
18
100
AcDbEntity
  8
針
100
AcDbLine
 10
143.5735178240872
 20
251.1937122924821
 30
0.0
 11
143.5286094664489
 21
254.4363429471525
 31
0.0
  0
ARC
  5
7D9
330
18
100
AcDbEntity
  8
針
100
AcDbCircle
 10
142.7837490531033
 20
251.2006363082306
 30
0.0
 40
0.5
100
AcDbArc
 50
293.7682212975196
 51
359.2065408792653
  0
CIRCLE
  5
7DA
330
18
100
AcDbEntity
  8
針
 62
     4
100
AcDbCircle
 10
143.4286094664489
 20
249.7363429471525
 30
0.0
 40
0.4
  0
ARC
  5
7DB
330
18
100
AcDbEntity
  8
針
100
AcDbCircle
 10
144.0734698797944
 20
251.2006363082306
 30
0.0
 40
0.5
100
AcDbArc
 50
180.7934591207347
 51
246.2317787024804
  0
LINE
  5
7DC
330
18
100
AcDbEntity
  8
目盛
100
AcDbLine
 10
138.9110910140468
 20
251.2041736704335
 30
0.0
 11
139.3866192721946
 21
251.049665173246
 31
0.0
  0
LINE
  5
7DD
330
18
100
AcDbEntity
  8
目盛
100
AcDbLine
 10
138.9110910140468
 20
248.2685122238715
 30
0.0
 11
139.3866192721945
 21
248.423020721059
 31
0.0
  0
TEXT
  5
7DE
330
18
100
AcDbEntity
  8
文字
100
AcDbText
 10
139.6418369056762
 20
250.2862248007815
 30
0.0
 40
1.0
  1
2
  7
STYLE3
100
AcDbText
  0
TEXT
  5
7DF
330
18
100
AcDbEntity
  8
文字
100
AcDbText
 10
139.6125939016426
 20
248.0233830511421
 30
0.0
 40
1.0
  1
3
  7
STYLE3
100
AcDbText
  0
LINE
  5
7E0
330
18
100
AcDbEntity
  8
目盛
100
AcDbLine
 10
143.4286094664489
 20
254.4863429471525
 30
0.0
 11
143.4286094664489
 21
253.9863429471525
 31
0.0
  0
LINE
  5
7E1
330
18
100
AcDbEntity
  8
目盛
100
AcDbLine
 10
140.6366295180596
 20
253.5791736704335
 30
0.0
 11
140.9305221442059
 21
253.174665173246
 31
0.0
  0
LINE
  5
7E2
330
18
100
AcDbEntity
  8
文字
100
AcDbLine
 10
143.5286094664489
 20
254.4363429471525
 30
0.0
 11
143.3286094664488
 21
254.4363429471525
 31
0.0
  0
TEXT
  5
7E3
330
18
100
AcDbEntity
  8
文字
100
AcDbText
 10
142.9422330273186
 20
252.7641168756273
 30
0.0
 40
1.0
  1
0
  7
STYLE3
100
AcDbText
  0
TEXT
  5
7E4
330
18
100
AcDbEntity
  8
文字
100
AcDbText
 10
145.0257327650804
 20
252.037786895169
 30
0.0
 40
1.0
  1
9
  7
STYLE3
100
AcDbText
  0
TEXT
  5
7E5
330
18
100
AcDbEntity
  8
文字
100
AcDbText
 10
146.5231302829276
 20
250.3184791177702
 30
0.0
 40
1.0
  1
8
  7
STYLE3
100
AcDbText
  0
LINE
  5
7E6
330
18
100
AcDbEntity
  8
目盛
100
AcDbLine
 10
147.9461279188508
 20
251.2041736704335
 30
0.0
 11
147.4705996607033
 21
251.0496651732459
 31
0.0
  0
TEXT
  5
7E7
330
18
100
AcDbEntity
  8
文字
100
AcDbText
 10
146.4629433509816
 20
248.0148517326956
 30
0.0
 40
1.0
  1
7
  7
STYLE3
100
AcDbText
  0
LINE
  5
7E8
330
18
100
AcDbEntity
  8
目盛
100
AcDbLine
 10
147.9461279188508
 20
248.2685122238715
 30
0.0
 11
147.4705996607033
 21
248.423020721059
 31
0.0
  0
LINE
  5
7E9
330
18
100
AcDbEntity
  8
目盛
100
AcDbLine
 10
146.2205894148381
 20
253.5791736704335
 30
0.0
 11
145.9266967886919
 21
253.174665173246
 31
0.0
  0
ARC
  5
7EA
330
18
100
AcDbEntity
  8
外形線
100
AcDbCircle
 10
189.628609466449
 20
232.1025715522321
 30
0.0
 40
4.0
100
AcDbArc
 50
95.27215693479773
 51
180.0
  0
LINE
  5
7EB
330
18
100
AcDbEntity
  8
目盛
100
AcDbLine
 10
160.5994660153988
 20
234.3974206373942
 30
0.0
 11
159.2746434116189
 21
236.8072640075149
 31
0.0
  0
LINE
  5
7EC
330
18
100
AcDbEntity
  8
目盛
100
AcDbLine
 10
158.9762089218361
 20
233.5703298371517
 30
0.0
 11
157.8053158700321
 21
236.0586042314333
 31
0.0
  0
LINE
  5
7ED
330
18
100
AcDbEntity
  8
目盛
100
AcDbLine
 10
157.3042214943046
 20
232.8467962679071
 30
0.0
 11
156.2918789744218
 21
235.4036816040998
 31
0.0
  0
LINE
  5
7EE
330
18
100
AcDbEntity
  8
中心線
 48
0.2
100
AcDbLine
 10
190.3665129162707
 20
232.9732056712263
 30
0.0
 11
190.9152705377542
 21
225.304125238592
 31
0.0
  0
LINE
  5
7EF
330
18
100
AcDbEntity
  8
外形線
100
AcDbLine
 10
194.4780777683149
 20
231.3742501051875
 30
0.0
 11
194.7098964054082
 21
228.3831675085786
 31
0.0
  0
CIRCLE
  5
7F0
330
18
100
AcDbEntity
  8
外形線
100
AcDbCircle
 10
190.628609466449
 20
229.3103143586663
 30
0.0
 40
1.25
  0
CIRCLE
  5
7F1
330
18
100
AcDbEntity
  8
外形線
100
AcDbCircle
 10
190.628609466449
 20
229.3103143586663
 30
0.0
 40
2.0
  0
POINT
  5
7F2
330
18
100
AcDbEntity
  8
DEFPOINTS
  6
ByBlock
 62
     0
100
AcDbPoint
 10
190.628609466449
 20
229.3103143586663
 30
0.0
  0
LINE
  5
7F3
330
18
100
AcDbEntity
  8
外形線
100
AcDbLine
 10
176.0224863798471
 20
240.3103143586664
 30
0.0
 11
180.628609466449
 21
240.3103143586664
 31
0.0
  0
LINE
  5
7F4
330
18
100
AcDbEntity
  8
目盛
100
AcDbLine
 10
172.041503187721
 20
245.8394578097167
 30
0.0
 11
169.6316598176004
 21
247.1642804134964
 31
0.0
  0
TEXT
  5
7F5
330
18
100
AcDbEntity
  8
文字
100
AcDbText
 10
156.1850138139353
 20
245.3628459004502
 30
0.0
 40
1.5
  1
60
  7
STYLE3
100
AcDbText
  0
LINE
  5
7F6
330
18
100
AcDbEntity
  8
目盛
100
AcDbLine
 10
166.4804755383809
 20
238.6702241634454
 30
0.0
 11
164.597970997077
 21
240.6748878888543
 31
0.0
  0
LINE
  5
7F7
330
18
100
AcDbEntity
  8
目盛
100
AcDbLine
 10
167.76869966167
 20
239.9584482867343
 30
0.0
 11
165.764035936261
 21
241.8409528280383
 31
0.0
  0
LINE
  5
7F8
330
18
100
AcDbEntity
  8
目盛
100
AcDbLine
 10
162.1675865208399
 20
235.3248045191079
 30
0.0
 11
160.6940628346476
 21
237.6467063142384
 31
0.0
  0
LINE
  5
7F9
330
18
100
AcDbEntity
  8
目盛
100
AcDbLine
 10
163.6743817829307
 20
236.3488215217929
 30
0.0
 11
160.8824018345415
 21
240.1916522450739
 31
0.0
  0
LINE
  5
7FA
330
18
100
AcDbEntity
  8
目盛
100
AcDbLine
 10
165.1139051691609
 20
237.4654303181685
 30
0.0
 11
163.360989197352
 21
239.5843417358018
 31
0.0
  0
TEXT
  5
7FB
330
18
100
AcDbEntity
  8
文字
100
AcDbText
 10
156.400722377486
 20
241.7104438322124
 30
0.0
 40
3.0
  1
40
  7
STYLE3
100
AcDbText
  0
LINE
  5
7FC
330
18
100
AcDbEntity
  8
目盛
100
AcDbLine
 10
168.9734935069468
 20
241.3250186559543
 30
0.0
 11
166.8545820893134
 21
243.0779346277632
 31
0.0
  0
LINE
  5
7FD
330
18
100
AcDbEntity
  8
目盛
100
AcDbLine
 10
171.1141193060074
 20
244.2713373042756
 30
0.0
 11
168.7922175108768
 21
245.7448609904678
 31
0.0
  0
LINE
  5
7FE
330
18
100
AcDbEntity
  8
目盛
100
AcDbLine
 10
170.0901023033225
 20
242.7645420421846
 30
0.0
 11
166.2472715800414
 21
245.5565219905739
 31
0.0
  0
TEXT
  5
7FF
330
18
100
AcDbEntity
  8
文字
100
AcDbText
 10
163.1606732996777
 20
251.3823854245731
 30
0.0
 40
3.0
  1
30
  7
STYLE3
100
AcDbText
  0
TEXT
  5
800
330
18
100
AcDbEntity
  8
文字
100
AcDbText
 10
158.7026680376417
 20
250.9098674564254
 30
0.0
 40
1.0
  1
F
 50
50.8862719903993
  7
STYLE3
100
AcDbText
  0
TEXT
  5
801
330
18
100
AcDbEntity
  8
文字
100
AcDbText
 10
157.1392456622437
 20
249.3049686290133
 30
0.0
 40
1.0
  1
O
 50
43.33250016505125
  7
STYLE3
100
AcDbText
  0
TEXT
  5
802
330
18
100
AcDbEntity
  8
文字
100
AcDbText
 10
156.3780511079142
 20
248.594005711356
 30
0.0
 40
1.0
  1
R
 50
41.65670944743552
  7
STYLE3
100
AcDbText
  0
TEXT
  5
803
330
18
100
AcDbEntity
  8
文字
100
AcDbText
 10
155.648843432894
 20
247.9109633127918
 30
0.0
 40
1.0
  1
P
 50
38.83525552651983
  7
STYLE3
100
AcDbText
  0
TEXT
  5
804
330
18
100
AcDbEntity
  8
文字
100
AcDbText
 10
157.9014810050786
 20
250.1147093008331
 30
0.0
 40
1.0
  1
O
 50
43.24428049450362
  7
STYLE3
100
AcDbText
  0
TEXT
  5
805
330
18
100
AcDbEntity
  8
文字
100
AcDbText
 10
162.2353200234899
 20
255.6365398672421
 30
0.0
 40
1.5
  1
70
  7
STYLE3
100
AcDbText
  0
LINE
  5
806
330
18
100
AcDbEntity
  8
目盛
100
AcDbLine
 10
174.7175211391792
 20
252.5983076308855
 30
0.0
 11
172.0539174460755
 21
253.2822048205889
 31
0.0
  0
LINE
  5
807
330
18
100
AcDbEntity
  8
目盛
100
AcDbLine
 10
173.5921275572083
 20
249.1347023308108
 30
0.0
 11
171.0352422210155
 21
250.1470448506936
 31
0.0
  0
LINE
  5
808
330
18
100
AcDbEntity
  8
目盛
100
AcDbLine
 10
172.8685939879635
 20
247.4627149032793
 30
0.0
 11
170.380319593682
 21
248.6336079550833
 31
0.0
  0
LINE
  5
809
330
18
100
AcDbEntity
  8
目盛
100
AcDbLine
 10
174.2092484390084
 20
250.848821521793
 30
0.0
 11
169.6917299866064
 21
252.316652245074
 31
0.0
  0
LINE
  5
80A
330
18
100
AcDbEntity
  8
目盛
100
AcDbLine
 10
175.5713845908689
 20
257.9893892923163
 30
0.0
 11
172.8268110876911
 21
258.1620632210218
 31
0.0
  0
LINE
  5
80B
330
18
100
AcDbEntity
  8
目盛
100
AcDbLine
 10
175.1149397375809
 20
254.3762562356803
 30
0.0
 11
172.413649798077
 21
254.8915548507911
 31
0.0
  0
LINE
  5
80C
330
18
100
AcDbEntity
  8
目盛
100
AcDbLine
 10
175.3999358045689
 20
256.1756505853015
 30
0.0
 11
172.671620375954
 21
256.5203169776033
 31
0.0
  0
LINE
  5
80D
330
18
100
AcDbEntity
  8
中心線
100
AcDbLine
 10
278.628609466449
 20
238.8140388314112
 30
0.0
 11
278.628609466449
 21
201.1087905254251
 31
0.0
  0
ARC
  5
80E
330
18
100
AcDbEntity
  8
外形線
100
AcDbCircle
 10
258.628609466449
 20
220.3103143586663
 30
0.0
 40
15.0
100
AcDbArc
 50
186.2733050120633
 51
270.0
  0
ARC
  5
80F
330
18
100
AcDbEntity
  8
外形線
100
AcDbCircle
 10
232.6286094664491
 20
217.3103143586665
 30
0.0
 40
10.0
100
AcDbArc
 50
285.3459840070462
 51
359.0857792987342
  0
LINE
  5
810
330
18
100
AcDbEntity
  8
中心線
 48
0.5
100
AcDbLine
 10
232.628609466449
 20
225.2665830795364
 30
0.0
 11
232.628609466449
 21
209.3540456377963
 31
0.0
  0
LINE
  5
811
330
18
100
AcDbEntity
  8
中心線
100
AcDbLine
 10
258.628609466449
 20
238.8140388314112
 30
0.0
 11
258.628609466449
 21
201.1087905254251
 31
0.0
  0
LINE
  5
812
330
18
100
AcDbEntity
  8
中心線
100
AcDbLine
 10
203.628609466449
 20
229.9639707782244
 30
0.0
 11
203.628609466449
 21
198.5389140483595
 31
0.0
  0
ARC
  5
813
330
18
100
AcDbEntity
  8
隠れ線2
100
AcDbCircle
 10
203.628609466449
 20
214.3103143586663
 30
0.0
 40
12.5
100
AcDbArc
 50
301.3983640535766
 51
334.4318276592049
  0
LINE
  5
814
330
18
100
AcDbEntity
  8
外形線
100
AcDbLine
 10
258.628609466449
 20
205.3103143586663
 30
0.0
 11
278.628609466449
 21
205.3103143586663
 31
0.0
  0
ARC
  5
815
330
18
100
AcDbEntity
  8
隠れ線2
100
AcDbCircle
 10
258.628609466449
 20
220.3103143586663
 30
0.0
 40
15.0
100
AcDbArc
 50
102.4006510870401
 51
186.2733050120633
  0
LINE
  5
816
330
18
100
AcDbEntity
  8
中心線
 48
0.2
100
AcDbLine
 10
238.2178967053452
 20
236.6818436692502
 30
0.0
 11
238.7666543268288
 21
229.0127632366159
 31
0.0
  0
ARC
  5
817
330
18
100
AcDbEntity
  8
外形線
100
AcDbCircle
 10
232.6286094664491
 20
217.3103143586665
 30
0.0
 40
10.0
100
AcDbArc
 50
105.3459840070462
 51
179.0857792987342
  0
LINE
  5
818
330
18
100
AcDbEntity
  8
外形線
100
AcDbLine
 10
229.0930755605163
 20
213.7747804527336
 30
0.0
 11
236.1641433723817
 21
220.8458482645991
 31
0.0
  0
CIRCLE
  5
819
330
18
100
AcDbEntity
  8
外形線
100
AcDbCircle
 10
232.628609466449
 20
217.3103143586664
 30
0.0
 40
4.5
  0
CIRCLE
  5
81A
330
18
100
AcDbEntity
  8
外形線
100
AcDbCircle
 10
232.628609466449
 20
217.3103143586664
 30
0.0
 40
5.0
  0
LINE
  5
81B
330
18
100
AcDbEntity
  8
中心線
 48
0.5
100
AcDbLine
 10
224.6723407455789
 20
217.3103143586664
 30
0.0
 11
240.5848781873191
 21
217.3103143586663
 31
0.0
  0
LINE
  5
81C
330
18
100
AcDbEntity
  8
隠れ線2
 48
0.5
100
AcDbLine
 10
233.4986402346754
 20
231.1586787306948
 30
0.0
 11
234.6085850435387
 21
231.2381003352327
 31
0.0
  0
LINE
  5
81D
330
18
100
AcDbEntity
  8
隠れ線2
 48
0.5
100
AcDbLine
 10
234.5200780047518
 20
232.3800786796508
 30
0.0
 11
234.6085850435387
 21
231.2381003352327
 31
0.0
  0
LINE
  5
81E
330
18
100
AcDbEntity
  8
外形線
100
AcDbLine
 10
234.3767664064454
 20
234.2291829318416
 30
0.0
 11
234.5200780047518
 21
232.3800786796508
 31
0.0
  0
POINT
  5
81F
330
18
100
AcDbEntity
  8
DEFPOINTS
  6
ByBlock
 62
     0
100
AcDbPoint
 10
238.4799932555235
 20
233.0189523566902
 30
0.0
  0
CIRCLE
  5
820
330
18
100
AcDbEntity
  8
隠れ線2
 48
0.5
100
AcDbCircle
 10
238.4799932555235
 20
233.0189523566903
 30
0.0
 40
2.0
  0
CIRCLE
  5
821
330
18
100
AcDbEntity
  8
隠れ線2
 48
0.5
100
AcDbCircle
 10
238.4799932555235
 20
233.0189523566903
 30
0.0
 40
1.25
  0
ARC
  5
822
330
18
100
AcDbEntity
  8
外形線
100
AcDbCircle
 10
258.628609466449
 20
220.3103143586663
 30
0.0
 40
15.0
100
AcDbArc
 50
90.0
 51
102.4006510870401
  0
ARC
  5
823
330
18
100
AcDbEntity
  8
外形線
100
AcDbCircle
 10
254.669371099316
 20
282.2912774755996
 30
0.0
 40
40.0
100
AcDbArc
 50
279.1551260369707
 51
311.173697316247
  0
ARC
  5
824
330
18
100
AcDbEntity
  8
隠れ線2
100
AcDbCircle
 10
254.669371099316
 20
282.2912774755996
 30
0.0
 40
35.0
100
AcDbArc
 50
275.2721569347977
 51
288.0006790051542
  0
LINE
  5
825
330
18
100
AcDbEntity
  8
外形線
100
AcDbLine
 10
258.628609466449
 20
235.3103143586663
 30
0.0
 11
278.628609466449
 21
235.3103143586663
 31
0.0
  0
LINE
  5
826
330
18
100
AcDbEntity
  8
隠れ線2
100
AcDbLine
 10
257.8854056340967
 20
247.4393460819007
 30
0.0
 11
246.2131633567886
 21
246.3622656229125
 31
0.0
  0
LINE
  5
827
330
18
100
AcDbEntity
  8
隠れ線2
100
AcDbLine
 10
258.3448391390653
 20
242.4604987399437
 30
0.0
 11
241.6628274624912
 21
240.9211313787656
 31
0.0
  0
ARC
  5
828
330
18
100
AcDbEntity
  8
隠れ線2
100
AcDbCircle
 10
254.669371099316
 20
282.2912774755996
 30
0.0
 40
40.0
100
AcDbArc
 50
275.2721569347977
 51
279.1551260369707
  0
ARC
  5
829
330
18
100
AcDbEntity
  8
外形線
100
AcDbCircle
 10
254.669371099316
 20
282.2912774755996
 30
0.0
 40
35.0
100
AcDbArc
 50
288.0006790051542
 51
311.173697316247
  0
LINE
  5
82A
330
18
100
AcDbEntity
  8
目盛
100
AcDbLine
 10
155.5901023033225
 20
287.3909533312258
 30
0.0
 11
154.1222715800414
 21
282.8734348788239
 31
0.0
  0
LINE
  5
82B
102
{ACAD_REACTORS
330
82D
102
}
330
18
100
AcDbEntity
  8
外形線
100
AcDbLine
 10
155.1340650705832
 20
261.2603143586663
 30
0.0
 11
153.9673984039165
 21
260.8356824186891
 31
0.0
  0
LINE
  5
82C
102
{ACAD_REACTORS
330
82D
102
}
330
18
100
AcDbEntity
  8
外形線
100
AcDbLine
 10
155.1340650705832
 20
261.2603143586663
 30
0.0
 11
153.9673984039165
 21
261.6849462986435
 31
0.0
  0
HATCH
  5
82D
330
18
100
AcDbEntity
  8
外形線
100
AcDbHatch
 10
0.0
 20
0.0
 30
0.0
210
0.0
220
0.0
230
1.0
  2
SOLID
 70
     1
 71
     1
 91
        2
 92
        1
 93
        7
 72
     1
 10
155.1340650705832
 20
261.2603143586663
 11
153.9673984039165
 21
260.8356824186891
 72
     1
 10
153.9673984039165
 20
260.8356824186891
 11
153.9673984039165
 21
261.170731025333
 72
     1
 10
153.9673984039165
 20
261.170731025333
 11
152.9673984039165
 21
261.1707310253329
 72
     1
 10
152.9673984039165
 20
261.1707310253329
 11
152.9673984039165
 21
261.3498976919996
 72
     1
 10
152.9673984039165
 20
261.3498976919996
 11
153.9673984039165
 21
261.3498976919996
 72
     1
 10
153.9673984039165
 20
261.3498976919996
 11
153.9673984039165
 21
261.6849462986435
 72
     1
 10
153.9673984039165
 20
261.6849462986435
 11
155.1340650705832
 21
261.2603143586663
 97
        7
330
82B
330
871
330
876
330
874
330
875
330
86E
330
82C
 92
        1
 93
        4
 72
     1
 10
155.1340650705832
 20
262.0103143586663
 11
155.1340650705832
 21
260.5103143586664
 72
     1
 10
155.1340650705832
 20
260.5103143586664
 11
155.3007317372497
 21
260.5103143586664
 72
     1
 10
155.3007317372497
 20
260.5103143586664
 11
155.3007317372497
 21
262.0103143586663
 72
     1
 10
155.3007317372497
 20
262.0103143586663
 11
155.1340650705832
 21
262.0103143586663
 97
        4
330
8E1
330
8EC
330
8E2
330
8E0
 75
     0
 76
     1
 98
        1
 10
247.4636217770635
 20
192.5981635514853
450
        0
451
        0
460
0.0
461
0.0
452
        0
462
0.0
453
        0
470

  0
TEXT
  5
82E
330
18
100
AcDbEntity
  8
文字
100
AcDbText
 10
152.6971447867027
 20
258.7740241242538
 30
0.0
 40
1.0
  1
0.01mm
  7
STYLE3
100
AcDbText
  0
LINE
  5
82F
330
18
100
AcDbEntity
  8
外形線
100
AcDbLine
 10
153.0724042606274
 20
300.9573731821957
 30
0.0
 11
169.8262707254913
 21
286.8397261233722
 31
0.0
  0
TEXT
  5
830
330
18
100
AcDbEntity
  8
文字
100
AcDbText
 10
145.1292522227593
 20
280.0736990996824
 30
0.0
 40
3.0
  1
0
  7
STYLE3
100
AcDbText
  0
LINE
  5
831
330
18
100
AcDbEntity
  8
目盛
100
AcDbLine
 10
129.5828371499673
 20
283.2718071955399
 30
0.0
 11
132.3748170983565
 21
279.428976472259
 31
0.0
  0
LINE
  5
832
330
18
100
AcDbEntity
  8
目盛
100
AcDbLine
 10
128.143313763737
 20
282.1551983991643
 30
0.0
 11
129.8962297355459
 21
280.0362869815308
 31
0.0
  0
TEXT
  5
833
330
18
100
AcDbEntity
  8
文字
100
AcDbText
 10
131.8246669259671
 20
275.5504801531055
 30
0.0
 40
3.0
  1
90
  7
STYLE3
100
AcDbText
  0
HATCH
  5
834
330
18
100
AcDbEntity
  8
針
100
AcDbHatch
 10
0.0
 20
0.0
 30
0.0
210
0.0
220
0.0
230
1.0
  2
SOLID
 70
     1
 71
     1
 91
        1
 92
        7
 72
     1
 73
     1
 93
        7
 10
146.0286094664488
 20
262.9852159319363
 42
-0.1415000153292447
 10
145.5667552409209
 20
261.3858985689605
 42
-0.3055181981731016
 10
147.6904636919768
 20
261.3858985689607
 42
-0.1415000153294649
 10
147.228609466449
 20
262.985215931939
 42
0.0
 10
146.7286094664488
 20
286.8103143586663
 42
0.0
 10
146.6286094664489
 20
286.8103143586665
 42
0.0
 10
146.5286094664489
 20
286.8103143586665
 42
0.0
 97
        7
330
84B
330
84A
330
836
330
86A
330
772
330
86C
330
835
 75
     0
 76
     1
 47
0.070338108143851
 98
        1
 10
146.4281461055814
 20
268.1859773855344
450
        0
451
        0
460
0.0
461
0.0
452
        0
462
0.0
453
        0
470

  0
LINE
  5
835
102
{ACAD_REACTORS
330
834
102
}
330
18
100
AcDbEntity
  8
針
100
AcDbLine
 10
147.228609466449
 20
262.9852159319406
 30
0.0
 11
146.7286094664488
 21
286.8103143586664
 31
0.0
  0
LINE
  5
836
102
{ACAD_REACTORS
330
834
102
}
330
18
100
AcDbEntity
  8
針
100
AcDbLine
 10
146.0286094664489
 20
262.9852159319406
 30
0.0
 11
146.5286094664489
 21
286.8103143586665
 31
0.0
  0
LINE
  5
837
330
18
100
AcDbEntity
  8
目盛
100
AcDbLine
 10
119.6650913756897
 20
270.4859263865221
 30
0.0
 11
122.2219767118823
 21
269.4735838666393
 31
0.0
  0
LINE
  5
838
330
18
100
AcDbEntity
  8
目盛
100
AcDbLine
 10
119.0479704938895
 20
268.7718071955399
 30
0.0
 11
123.5654889462914
 21
267.3039764722589
 31
0.0
  0
POINT
  5
839
330
18
100
AcDbEntity
  8
DEFPOINTS
  6
ByBlock
 62
     0
100
AcDbPoint
 10
113.378609466449
 20
259.8103143586664
 30
0.0
  0
POINT
  5
83A
330
18
100
AcDbEntity
  8
DEFPOINTS
  6
ByBlock
 62
     0
100
AcDbPoint
 10
113.378609466449
 20
259.8103143586664
 30
0.0
  0
POINT
  5
83B
330
18
100
AcDbEntity
  8
DEFPOINTS
  6
ByBlock
 62
     0
100
AcDbPoint
 10
117.628609466449
 20
259.8103143586664
 30
0.0
  0
LINE
  5
83C
330
18
100
AcDbEntity
  8
目盛
100
AcDbLine
 10
117.6858343420291
 20
261.6312394250165
 30
0.0
 11
120.4304078452069
 21
261.4585654963109
 31
0.0
  0
LINE
  5
83D
330
18
100
AcDbEntity
  8
目盛
100
AcDbLine
 10
117.628609466449
 20
259.8103143586664
 30
0.0
 11
122.378609466449
 21
259.8103143586664
 31
0.0
  0
LINE
  5
83E
330
18
100
AcDbEntity
  8
目盛
100
AcDbLine
 10
117.8572831283291
 20
263.4449781320313
 30
0.0
 11
120.5855985569439
 21
263.1003117397294
 31
0.0
  0
LINE
  5
83F
330
18
100
AcDbEntity
  8
目盛
100
AcDbLine
 10
118.1422791953169
 20
265.2443724816524
 30
0.0
 11
120.8435691348209
 21
264.7290738665417
 31
0.0
  0
LINE
  5
840
330
18
100
AcDbEntity
  8
目盛
100
AcDbLine
 10
118.5396977937187
 20
267.0223210864472
 30
0.0
 11
121.2033014868224
 21
266.3384238967438
 31
0.0
  0
TEXT
  5
841
330
18
100
AcDbEntity
  8
文字
100
AcDbText
 10
127.3072904206326
 20
263.0969639535753
 30
0.0
 40
1.5
  1
20
  7
STYLE3
100
AcDbText
  0
TEXT
  5
842
330
18
100
AcDbEntity
  8
文字
100
AcDbText
 10
124.05762858798
 20
265.5159098493497
 30
0.0
 40
3.0
  1
80
  7
STYLE3
100
AcDbText
  0
LINE
  5
843
330
18
100
AcDbEntity
  8
目盛
100
AcDbLine
 10
120.3886249449343
 20
272.1579138140536
 30
0.0
 11
122.8768993392159
 21
270.9870207622496
 31
0.0
  0
LINE
  5
844
330
18
100
AcDbEntity
  8
目盛
100
AcDbLine
 10
121.2157157451769
 20
273.7811709076162
 30
0.0
 11
123.6255591152976
 21
272.4563483038365
 31
0.0
  0
LINE
  5
845
330
18
100
AcDbEntity
  8
目盛
100
AcDbLine
 10
122.1430996268906
 20
275.3492914130573
 30
0.0
 11
124.4650014220211
 21
273.8757677268651
 31
0.0
  0
LINE
  5
846
330
18
100
AcDbEntity
  8
目盛
100
AcDbLine
 10
123.1671166295755
 20
276.8560866751482
 30
0.0
 11
127.0099473528565
 21
274.0641067267589
 31
0.0
  0
LINE
  5
847
330
18
100
AcDbEntity
  8
目盛
100
AcDbLine
 10
126.776743394517
 20
280.9504045538873
 30
0.0
 11
128.659247935821
 21
278.9457408284785
 31
0.0
  0
LINE
  5
848
330
18
100
AcDbEntity
  8
目盛
100
AcDbLine
 10
125.488519271228
 20
279.6621804305984
 30
0.0
 11
127.4931829966369
 21
277.7796758892945
 31
0.0
  0
LINE
  5
849
330
18
100
AcDbEntity
  8
目盛
100
AcDbLine
 10
124.2837254259511
 20
278.2956100613784
 30
0.0
 11
126.4026368435847
 21
276.5426940895695
 31
0.0
  0
LINE
  5
84A
102
{ACAD_REACTORS
330
834
102
}
330
18
100
AcDbEntity
  8
針
100
AcDbLine
 10
146.6286094664489
 20
286.8103143586665
 30
0.0
 11
146.5286094664489
 21
286.8103143586665
 31
0.0
  0
LINE
  5
84B
102
{ACAD_REACTORS
330
834
102
}
330
18
100
AcDbEntity
  8
針
100
AcDbLine
 10
146.6286094664489
 20
286.8103143586665
 30
0.0
 11
146.7286094664488
 21
286.8103143586664
 31
0.0
  0
LINE
  5
84C
102
{ACAD_REACTORS
330
851
102
}
330
18
100
AcDbEntity
  8
ROGO
 62
     4
100
AcDbLine
 10
143.8699987413804
 20
267.8621360692154
 30
0.0
 11
144.5972459930719
 21
267.8621360692154
 31
0.0
  0
LINE
  5
84D
102
{ACAD_REACTORS
330
851
102
}
330
18
100
AcDbEntity
  8
ROGO
 62
     4
100
AcDbLine
 10
144.8169330714795
 20
269.1752809997729
 30
0.0
 11
143.8699987413804
 21
267.8621360692154
 31
0.0
  0
LINE
  5
84E
102
{ACAD_REACTORS
330
84F
102
}
330
18
100
AcDbEntity
  8
ROGO
 62
     4
100
AcDbLine
 10
144.3024388062817
 20
269.1752809997729
 30
0.0
 11
144.1536046105473
 21
268.8744786690808
 31
0.0
  0
HATCH
  5
84F
330
18
100
AcDbEntity
  8
ROGO
 62
     4
100
AcDbHatch
 10
0.0
 20
0.0
 30
0.0
210
0.0
220
0.0
230
1.0
  2
SOLID
 70
     1
 71
     1
 91
        1
 92
        1
 93
       12
 72
     1
 10
142.5263556577979
 20
269.1752809997729
 11
144.3024388062817
 21
269.1752809997729
 72
     1
 10
144.3024388062817
 20
269.1752809997729
 11
144.1536046105473
 21
268.8744786690808
 72
     1
 10
144.1536046105473
 20
268.8744786690808
 11
143.2201401883293
 21
268.8744786690808
 72
     1
 10
143.2201401883293
 20
268.8744786690808
 11
143.1037703422528
 21
268.6392886258967
 72
     1
 10
143.1037703422528
 20
268.6392886258967
 11
144.0372347644708
 21
268.6392886258967
 72
     1
 10
144.0372347644708
 20
268.6392886258967
 11
143.9179083888468
 21
268.3981232692154
 72
     1
 10
143.9179083888468
 20
268.3981232692154
 11
142.984443966629
 21
268.3981232692154
 72
     1
 10
142.984443966629
 20
268.3981232692154
 11
142.8680691940126
 21
268.1629232692155
 72
     1
 10
142.8680691940126
 20
268.1629232692155
 11
143.8015336162306
 21
268.1629232692155
 72
     1
 10
143.8015336162306
 20
268.1629232692155
 11
143.6527069070217
 21
267.8621360692154
 72
     1
 10
143.6527069070217
 20
267.8621360692154
 11
141.8766237585378
 21
267.8621360692154
 72
     1
 10
141.8766237585378
 20
267.8621360692154
 11
142.5263556577979
 21
269.1752809997729
 97
       12
330
850
330
84E
330
863
330
859
330
862
330
857
330
860
330
858
330
861
330
856
330
864
330
85A
 75
     0
 76
     1
 98
        1
 10
69.87622667908894
 20
178.3771849516616
450
        0
451
        0
460
0.0
461
0.0
452
        0
462
0.0
453
        0
470

  0
LINE
  5
850
102
{ACAD_REACTORS
330
84F
102
}
330
18
100
AcDbEntity
  8
ROGO
 62
     4
100
AcDbLine
 10
142.5263556577979
 20
269.1752809997729
 30
0.0
 11
144.3024388062817
 21
269.1752809997729
 31
0.0
  0
HATCH
  5
851
330
18
100
AcDbEntity
  8
ROGO
 62
     4
100
AcDbHatch
 10
0.0
 20
0.0
 30
0.0
210
0.0
220
0.0
230
1.0
  2
SOLID
 70
     1
 71
     1
 91
        2
 92
        7
 72
     0
 73
     1
 93
        8
 10
145.8673365542509
 20
269.1752809997729
 10
144.8169330714795
 20
269.1752809997729
 10
143.8699987413803
 20
267.8621360692154
 10
144.5972459930719
 20
267.8621360692154
 10
144.7775364306528
 20
268.1121507393062
 10
145.6074134194372
 20
268.1121507393062
 10
145.7184798425061
 20
267.8621360692154
 10
146.4506875646342
 20
267.8621360692154
 97
        8
330
887
330
84D
330
84C
330
888
330
88A
330
885
330
88D
330
88C
 92
       22
 72
     0
 73
     1
 93
        3
 10
145.4902683138366
 20
268.3758487510023
 10
144.9676941917979
 20
268.3758487510023
 10
145.2910609281112
 20
268.8242720228212
 97
        3
330
889
330
88B
330
886
 75
     0
 76
     1
 47
0.0128389261915577
 98
        2
 10
145.7850816617552
 20
268.8602390829639
 10
145.7850816617552
 20
268.8602390829639
450
        0
451
        0
460
0.0
461
0.0
452
        0
462
0.0
453
        0
470

  0
TEXT
  5
852
330
18
100
AcDbEntity
  8
文字
100
AcDbText
 10
140.3504529650651
 20
265.2069896945216
 30
0.0
 40
1.0
  1
MADE  IN  JAPAN
  7
STYLE3
100
AcDbText
  0
HATCH
  5
853
330
18
100
AcDbEntity
  8
ROGO
 62
     4
100
AcDbHatch
 10
0.0
 20
0.0
 30
0.0
210
0.0
220
0.0
230
1.0
  2
SOLID
 70
     1
 71
     1
 91
        1
 92
        7
 72
     0
 73
     1
 93
        4
 10
139.992834802873
 20
267.3290724211582
 10
139.899783767451
 20
267.1234022148669
 10
152.079076336034
 20
267.1234022148669
 10
152.1816301434202
 20
267.3290724211582
 97
        4
330
854
330
865
330
855
330
89E
 75
     0
 76
     1
 47
0.0514683685270805
 98
        1
 10
147.6890700637612
 20
267.2746759569534
450
        0
451
        0
460
0.0
461
0.0
452
        0
462
0.0
453
        0
470

  0
LINE
  5
854
102
{ACAD_REACTORS
330
853
102
}
330
18
100
AcDbEntity
  8
ROGO
 62
     4
100
AcDbLine
 10
139.9785713559563
 20
267.3290724211582
 30
0.0
 11
152.1816301434202
 21
267.3290724211582
 31
0.0
  0
LINE
  5
855
102
{ACAD_REACTORS
330
853
330
8A4
330
867
102
}
330
18
100
AcDbEntity
  8
ROGO
 62
     4
100
AcDbLine
 10
138.9459828115144
 20
267.1234022148669
 30
0.0
 11
152.8351600785382
 21
267.1234022148669
 31
0.0
  0
LINE
  5
856
102
{ACAD_REACTORS
330
84F
102
}
330
18
100
AcDbEntity
  8
ROGO
 62
     4
100
AcDbLine
 10
143.8015336162306
 20
268.1629232692155
 30
0.0
 11
143.6527069070217
 21
267.8621360692154
 31
0.0
  0
LINE
  5
857
102
{ACAD_REACTORS
330
84F
102
}
330
18
100
AcDbEntity
  8
ROGO
 62
     4
100
AcDbLine
 10
144.0372347644708
 20
268.6392886258967
 30
0.0
 11
143.9179083888468
 21
268.3981232692154
 31
0.0
  0
LINE
  5
858
102
{ACAD_REACTORS
330
84F
102
}
330
18
100
AcDbEntity
  8
ROGO
 62
     4
100
AcDbLine
 10
142.984443966629
 20
268.3981232692154
 30
0.0
 11
142.8680691940126
 21
268.1629232692155
 31
0.0
  0
LINE
  5
859
102
{ACAD_REACTORS
330
84F
102
}
330
18
100
AcDbEntity
  8
ROGO
 62
     4
100
AcDbLine
 10
143.2201401883293
 20
268.8744786690808
 30
0.0
 11
143.1037703422528
 21
268.6392886258967
 31
0.0
  0
LINE
  5
85A
102
{ACAD_REACTORS
330
84F
102
}
330
18
100
AcDbEntity
  8
ROGO
 62
     4
100
AcDbLine
 10
142.5263556577979
 20
269.1752809997729
 30
0.0
 11
141.8766237585378
 21
267.8621360692154
 31
0.0
  0
LINE
  5
85B
102
{ACAD_REACTORS
330
867
102
}
330
18
100
AcDbEntity
  8
ROGO
 62
     4
100
AcDbLine
 10
140.9330286594337
 20
268.3182624036742
 30
0.0
 11
140.4403724105896
 21
268.3182624036742
 31
0.0
  0
LINE
  5
85C
102
{ACAD_REACTORS
330
867
102
}
330
18
100
AcDbEntity
  8
ROGO
 62
     4
100
AcDbLine
 10
141.0043572060444
 20
268.6674840885595
 30
0.0
 11
140.598370206947
 21
268.6674840885595
 31
0.0
  0
SPLINE
  5
85D
102
{ACAD_REACTORS
330
867
102
}
330
18
100
AcDbEntity
  8
ROGO
 62
     4
100
AcDbSpline
210
0.0
220
0.0
230
1.0
 70
     8
 71
     3
 72
    15
 73
    11
 74
     9
 42
0.0000000001
 43
0.0000000001
 44
0.0000000001
 40
0.0
 40
0.0
 40
0.0
 40
0.0
 40
0.1539705029175028
 40
0.2241725832587281
 40
0.3038566179396687
 40
0.3581410872474193
 40
0.443992538467216
 40
0.4954152125469665
 40
0.5836396705646186
 40
0.6130478420065743
 40
0.6130478420065743
 40
0.6130478420065743
 40
0.6130478420065743
 10
141.0043572060444
 20
268.6674840885595
 30
0.0
 10
141.0621855411036
 20
268.667748973202
 30
0.0
 10
141.1463804161618
 20
268.6681346306717
 30
0.0
 10
141.1924211725263
 20
268.5639853267421
 30
0.0
 10
141.1717835102928
 20
268.4969294221048
 30
0.0
 10
141.1458402868688
 20
268.4280839078569
 30
0.0
 10
141.0999927353264
 20
268.3813023425877
 30
0.0
 10
141.0384586057312
 20
268.3362438089507
 30
0.0
 10
140.9803059126754
 20
268.3307892716911
 30
0.0
 10
140.9424841137029
 20
268.320767778237
 30
0.0
 10
140.9330286594336
 20
268.3182624036742
 30
0.0
 11
141.0043572060444
 21
268.6674840885595
 31
0.0
 11
141.1541472769732
 21
268.6318491279196
 31
0.0
 11
141.1826787776482
 21
268.5677064311142
 31
0.0
 11
141.1684132323874
 21
268.4893097500528
 31
0.0
 11
141.1470147094195
 21
268.439420805157
 31
0.0
 11
141.0899517080695
 21
268.3752781083516
 31
0.0
 11
141.0471546621336
 21
268.3467701398397
 31
0.0
 11
140.9615601601086
 21
268.3253893958021
 31
0.0
 11
140.9330286594336
 21
268.3182624036742
 31
0.0
  0
LINE
  5
85E
102
{ACAD_REACTORS
330
867
102
}
330
18
100
AcDbEntity
  8
ROGO
 62
     4
100
AcDbLine
 10
140.598370206947
 20
268.6674840885595
 30
0.0
 11
140.4403724105896
 21
268.3182624036742
 31
0.0
  0
SPLINE
  5
85F
102
{ACAD_REACTORS
330
867
102
}
330
18
100
AcDbEntity
  8
ROGO
 62
     4
100
AcDbSpline
210
0.0
220
0.0
230
1.0
 70
     8
 71
     3
 72
    18
 73
    14
 74
     0
 42
0.0000000001
 43
0.0000000001
 40
0.1087402787915014
 40
0.1087402787915014
 40
0.1087402787915014
 40
0.1087402787915014
 40
0.5992371417938475
 40
1.083176791562496
 40
1.448211145705696
 40
1.714037220764907
 40
2.164002567013297
 40
2.740236056362883
 40
3.395137510199602
 40
4.071816045172726
 40
4.784906178399433
 40
5.506895915094292
 40
6.060470601257719
 40
6.060470601257719
 40
6.060470601257719
 40
6.060470601257719
 10
141.5737316645923
 20
269.1752809997729
 30
0.0
 10
141.6253912022283
 20
269.1563486449252
 30
0.0
 10
141.7269791500788
 20
269.11632275361
 30
0.0
 10
141.850964385626
 20
269.0249704438186
 30
0.0
 10
141.9185805795507
 20
268.9195116666458
 30
0.0
 10
141.9836197880938
 20
268.815600924343
 30
0.0
 10
141.9927219066047
 20
268.6665233901865
 30
0.0
 10
141.9778120215576
 20
268.4780532546148
 30
0.0
 10
141.8815551506815
 20
268.2814041170941
 30
0.0
 10
141.7270572116001
 20
268.1094070862922
 30
0.0
 10
141.5352372385071
 20
267.9717429059505
 30
0.0
 10
141.3329564603998
 20
267.8636800694552
 30
0.0
 10
141.1883661033463
 20
267.8626033488466
 30
0.0
 10
141.1256161864516
 20
267.8621360692154
 30
0.0
  0
LINE
  5
860
102
{ACAD_REACTORS
330
84F
102
}
330
18
100
AcDbEntity
  8
ROGO
 62
     4
100
AcDbLine
 10
142.984443966629
 20
268.3981232692154
 30
0.0
 11
143.9179083888468
 21
268.3981232692154
 31
0.0
  0
LINE
  5
861
102
{ACAD_REACTORS
330
84F
102
}
330
18
100
AcDbEntity
  8
ROGO
 62
     4
100
AcDbLine
 10
142.8680691940126
 20
268.1629232692155
 30
0.0
 11
143.8015336162306
 21
268.1629232692155
 31
0.0
  0
LINE
  5
862
102
{ACAD_REACTORS
330
84F
102
}
330
18
100
AcDbEntity
  8
ROGO
 62
     4
100
AcDbLine
 10
143.1037703422528
 20
268.6392886258967
 30
0.0
 11
144.0372347644708
 21
268.6392886258967
 31
0.0
  0
LINE
  5
863
102
{ACAD_REACTORS
330
84F
102
}
330
18
100
AcDbEntity
  8
ROGO
 62
     4
100
AcDbLine
 10
143.2201401883293
 20
268.8744786690808
 30
0.0
 11
144.1536046105473
 21
268.8744786690808
 31
0.0
  0
LINE
  5
864
102
{ACAD_REACTORS
330
84F
102
}
330
18
100
AcDbEntity
  8
ROGO
 62
     4
100
AcDbLine
 10
141.8766237585378
 20
267.8621360692154
 30
0.0
 11
143.6527069070217
 21
267.8621360692154
 31
0.0
  0
LINE
  5
865
102
{ACAD_REACTORS
330
853
330
867
102
}
330
18
100
AcDbEntity
  8
ROGO
 62
     4
100
AcDbLine
 10
140.2340079182794
 20
267.8621360692154
 30
0.0
 11
139.899783767451
 21
267.1234022148669
 31
0.0
  0
LINE
  5
866
102
{ACAD_REACTORS
330
867
102
}
330
18
100
AcDbEntity
  8
ROGO
 62
     4
100
AcDbLine
 10
139.9612333516071
 20
269.1752809997729
 30
0.0
 11
138.9459828115144
 21
267.1234022148669
 31
0.0
  0
HATCH
  5
867
330
18
100
AcDbEntity
  8
ROGO
 62
     4
100
AcDbHatch
 10
0.0
 20
0.0
 30
0.0
210
0.0
220
0.0
230
1.0
  2
SOLID
 70
     1
 71
     1
 91
        2
 92
        5
 93
        6
 72
     1
 10
138.9459828115145
 20
267.1234022148669
 11
139.899783767451
 21
267.1234022148669
 72
     1
 10
139.899783767451
 20
267.1234022148669
 11
140.2340079182794
 21
267.8621360692154
 72
     1
 10
140.2340079182794
 20
267.8621360692154
 11
141.1256161864516
 21
267.8621360692154
 72
     4
 94
        3
 73
     0
 74
     0
 95
       18
 96
       14
 40
0.108740278791501
 40
0.108740278791501
 40
0.108740278791501
 40
0.108740278791501
 40
0.6623149649549278
 40
1.384304701649787
 40
2.097394834876493
 40
2.774073369849618
 40
3.428974823686337
 40
4.005208313035923
 40
4.455173659284313
 40
4.720999734343524
 40
5.086034088486724
 40
5.569973738255373
 40
6.060470601257719
 40
6.060470601257719
 40
6.060470601257719
 40
6.060470601257719
 10
141.1256161864516
 20
267.8621360692154
 10
141.1883661033463
 20
267.8626033488466
 10
141.3329564603998
 20
267.8636800694552
 10
141.5352372385071
 20
267.9717429059505
 10
141.7270572116001
 20
268.1094070862922
 10
141.8815551506815
 20
268.2814041170941
 10
141.9778120215576
 20
268.4780532546148
 10
141.9927219066047
 20
268.6665233901865
 10
141.9836197880938
 20
268.815600924343
 10
141.9185805795507
 20
268.9195116666458
 10
141.850964385626
 20
269.0249704438186
 10
141.7269791500788
 20
269.11632275361
 10
141.6253912022283
 20
269.1563486449252
 10
141.5737316645923
 20
269.1752809997729
 72
     1
 10
141.5737316645923
 20
269.1752809997729
 11
139.9612333516071
 21
269.1752809997729
 72
     1
 10
139.9612333516071
 20
269.1752809997729
 11
138.9459828115145
 21
267.1234022148669
 97
        6
330
85F
330
869
330
866
330
855
330
865
330
868
 92
       20
 93
        4
 72
     1
 10
140.4403724105896
 20
268.3182624036742
 11
140.598370206947
 21
268.6674840885595
 72
     1
 10
140.598370206947
 20
268.6674840885595
 11
141.0043572060444
 21
268.6674840885595
 72
     4
 94
        3
 73
     0
 74
     0
 95
       15
 96
       11
 40
0.0
 40
0.0
 40
0.0
 40
0.0
 40
0.1539705029175028
 40
0.2241725832587281
 40
0.3038566179396687
 40
0.3581410872474193
 40
0.443992538467216
 40
0.4954152125469665
 40
0.5836396705646186
 40
0.6130478420065743
 40
0.6130478420065743
 40
0.6130478420065743
 40
0.6130478420065743
 10
141.0043572060444
 20
268.6674840885595
 10
141.0621855411036
 20
268.667748973202
 10
141.1463804161617
 20
268.6681346306717
 10
141.1924211725263
 20
268.5639853267422
 10
141.1717835102928
 20
268.4969294221048
 10
141.1458402868688
 20
268.4280839078569
 10
141.0999927353264
 20
268.3813023425876
 10
141.0384586057312
 20
268.3362438089507
 10
140.9803059126755
 20
268.3307892716912
 10
140.9424841137028
 20
268.320767778237
 10
140.9330286594336
 20
268.3182624036742
 72
     1
 10
140.9330286594337
 20
268.3182624036742
 11
140.4403724105896
 21
268.3182624036742
 97
        4
330
85E
330
85C
330
85D
330
85B
 75
     0
 76
     1
 47
0.0514683685270805
 98
        2
 10
139.969851904914
 20
268.5370922428839
 10
139.969851904914
 20
268.5370922428839
450
        0
451
        0
460
0.0
461
0.0
452
        0
462
0.0
453
        0
470

  0
LINE
  5
868
102
{ACAD_REACTORS
330
867
102
}
330
18
100
AcDbEntity
  8
ROGO
 62
     4
100
AcDbLine
 10
141.1256161867607
 20
267.8621360692154
 30
0.0
 11
140.2340079182794
 21
267.8621360692154
 31
0.0
  0
LINE
  5
869
102
{ACAD_REACTORS
330
867
102
}
330
18
100
AcDbEntity
  8
ROGO
 62
     4
100
AcDbLine
 10
139.9612333516071
 20
269.1752809997729
 30
0.0
 11
141.5737316645923
 21
269.1752809997729
 31
0.0
  0
ARC
  5
86A
102
{ACAD_REACTORS
330
834
102
}
330
18
100
AcDbEntity
  8
針
100
AcDbCircle
 10
143.0286094664488
 20
262.9852159319406
 30
0.0
 40
3.0
100
AcDbArc
 50
327.7844584318137
 51
0.0
  0
CIRCLE
  5
86B
330
18
100
AcDbEntity
  8
針
100
AcDbCircle
 10
146.6286094664489
 20
259.8103143586664
 30
0.0
 40
0.475
  0
ARC
  5
86C
102
{ACAD_REACTORS
330
834
102
}
330
18
100
AcDbEntity
  8
針
100
AcDbCircle
 10
150.228609466449
 20
262.9852159319406
 30
0.0
 40
3.0
100
AcDbArc
 50
180.0
 51
212.2155415681862
  0
TEXT
  5
86D
330
18
100
AcDbEntity
  8
文字
100
AcDbText
 10
143.9754868328799
 20
263.1123075802346
 30
0.0
 40
1.0
  1
NO.207
  7
STYLE3
100
AcDbText
  0
LINE
  5
86E
102
{ACAD_REACTORS
330
82D
102
}
330
18
100
AcDbEntity
  8
外形線
100
AcDbLine
 10
153.9673984039165
 20
261.6849462986435
 30
0.0
 11
153.9673984039165
 21
261.3498976919996
 31
0.0
  0
POINT
  5
86F
330
18
100
AcDbEntity
  8
DEFPOINTS
  6
ByBlock
 62
     0
100
AcDbPoint
 10
153.9673984039165
 20
261.6849462986435
 30
0.0
  0
POINT
  5
870
330
18
100
AcDbEntity
  8
DEFPOINTS
  6
ByBlock
 62
     0
100
AcDbPoint
 10
153.9673984039165
 20
261.6849462986435
 30
0.0
  0
LINE
  5
871
102
{ACAD_REACTORS
330
82D
102
}
330
18
100
AcDbEntity
  8
外形線
100
AcDbLine
 10
153.9673984039165
 20
261.170731025333
 30
0.0
 11
153.9673984039165
 21
260.8356824186891
 31
0.0
  0
POINT
  5
872
330
18
100
AcDbEntity
  8
DEFPOINTS
  6
ByBlock
 62
     0
100
AcDbPoint
 10
153.9673984039165
 20
260.8356824186891
 30
0.0
  0
POINT
  5
873
330
18
100
AcDbEntity
  8
DEFPOINTS
  6
ByBlock
 62
     0
100
AcDbPoint
 10
153.9673984039165
 20
260.8356824186891
 30
0.0
  0
LINE
  5
874
102
{ACAD_REACTORS
330
82D
102
}
330
18
100
AcDbEntity
  8
外形線
100
AcDbLine
 10
152.9673984039165
 20
261.3498976919996
 30
0.0
 11
152.9673984039165
 21
261.1707310253329
 31
0.0
  0
LINE
  5
875
102
{ACAD_REACTORS
330
82D
102
}
330
18
100
AcDbEntity
  8
外形線
100
AcDbLine
 10
152.9673984039165
 20
261.3498976919996
 30
0.0
 11
153.9673984039165
 21
261.3498976919996
 31
0.0
  0
LINE
  5
876
102
{ACAD_REACTORS
330
82D
102
}
330
18
100
AcDbEntity
  8
外形線
100
AcDbLine
 10
152.9673984039165
 20
261.1707310253329
 30
0.0
 11
153.9673984039165
 21
261.170731025333
 31
0.0
  0
HATCH
  5
877
330
18
100
AcDbEntity
  8
ROGO
 62
     4
100
AcDbHatch
 10
0.0
 20
0.0
 30
0.0
210
0.0
220
0.0
230
1.0
  2
SOLID
 70
     1
 71
     1
 91
        2
 92
        5
 93
        6
 72
     4
 94
        3
 73
     0
 74
     0
 95
       38
 96
       34
 40
0.0
 40
0.0
 40
0.0
 40
0.0
 40
0.1807680148264315
 40
0.2375392910068956
 40
0.3104865209606157
 40
0.3712759982447458
 40
0.422566754387306
 40
0.490692583720658
 40
0.5255021974951946
 40
0.5647069597052371
 40
0.622487401681883
 40
0.6879401044674746
 40
0.7303986317551266
 40
0.7765228362185534
 40
0.8277951442290254
 40
0.9056034697002209
 40
0.9795294930264187
 40
1.013897332332996
 40
1.053089255536027
 40
1.099518741889647
 40
1.132570569820733
 40
1.160277520290299
 40
1.19983678629386
 40
1.243305643169139
 40
1.286774258016964
 40
1.324809356515675
 40
1.411916492917645
 40
1.446284332224223
 40
1.5150200516612
 40
1.575779369908399
 40
1.69209852953623
 40
1.835624328519098
 40
2.042896467983898
 40
2.042896467983898
 40
2.042896467983898
 40
2.042896467983898
 10
149.3253377876967
 20
269.1807582189452
 10
149.265082390071
 20
269.1765015998443
 10
149.1859034244499
 20
269.1709081640571
 10
149.0853646519403
 20
269.1433635378523
 10
149.0305598974993
 20
269.1105490183943
 10
148.9735245961821
 20
269.0864287736938
 10
148.924896689797
 20
269.0507114744445
 10
148.8757105891012
 20
269.0323066942512
 10
148.8412689757254
 20
268.9991195858786
 10
148.8014056175924
 20
268.9788474677035
 10
148.7696617177572
 20
268.9334725736892
 10
148.7341810412254
 20
268.8910486920307
 10
148.6930189928183
 20
268.8600811504533
 10
148.6592367472589
 20
268.8275561714909
 10
148.6282462343345
 20
268.777360356307
 10
148.6099046617634
 20
268.7106649816214
 10
148.5582028473541
 20
268.6685559273362
 10
148.550418172871
 20
268.6179282796601
 10
148.5218203226753
 20
268.5880588194694
 10
148.5093849772194
 20
268.5495016374845
 10
148.5046489990955
 20
268.5141764481637
 10
148.4989646960531
 20
268.4811851667354
 10
148.4840956358206
 20
268.4464797959976
 10
148.488948948382
 20
268.4036095170626
 10
148.4875663853399
 20
268.3620968030361
 10
148.488380025313
 20
268.3060533464246
 10
148.4854434859671
 20
268.2514881495051
 10
148.5088612364821
 20
268.1921082733367
 10
148.5227190840849
 20
268.1391793286702
 10
148.5606710540285
 20
268.0658927864187
 10
148.6261374068465
 20
267.9813359627098
 10
148.750627152864
 20
267.878699999417
 10
148.8703276834233
 20
267.8682880586998
 10
148.9410538261535
 20
267.8621360692154
 72
     1
 10
148.9410538261535
 20
267.8621360692154
 11
149.6915076493396
 21
267.8621360692154
 72
     4
 94
        3
 73
     0
 74
     0
 95
       11
 96
        7
 40
0.1647869275458135
 40
0.1647869275458135
 40
0.1647869275458135
 40
0.1647869275458135
 40
0.2545010798212315
 40
0.5111620267764023
 40
0.7602998271033902
 40
0.8850764140209603
 40
0.8850764140209603
 40
0.8850764140209603
 40
0.8850764140209603
 10
149.6915076493389
 20
267.8621360692154
 10
149.7019795496588
 20
267.8619342535724
 10
149.7424102444874
 20
267.8611550686657
 10
149.8115067865837
 20
267.8710815992503
 10
149.8842055537218
 20
267.8805939936236
 10
149.927546565156
 20
267.8875215834075
 10
149.9415251079569
 20
267.891412516124
 72
     4
 94
        3
 73
     0
 74
     0
 95
        9
 96
        5
 40
0.0
 40
0.0
 40
0.0
 40
0.0
 40
0.1135793343552172
 40
0.2662938392177403
 40
0.2662938392177403
 40
0.2662938392177403
 40
0.2662938392177403
 10
149.9415251079569
 20
267.891412516124
 10
149.9780100762749
 20
267.9025748558473
 10
150.0635513619523
 20
267.9287456581012
 10
150.1342280591891
 20
267.9840579758757
 10
150.174759814845
 20
268.0157785490836
 72
     4
 94
        3
 73
     0
 74
     0
 95
       25
 96
       21
 40
0.0
 40
0.0
 40
0.0
 40
0.0
 40
0.165525918914855
 40
0.3412380755365305
 40
0.5940540902285263
 40
0.7697671103696209
 40
0.9377330196075423
 40
1.11479469302833
 40
1.274661249598185
 40
1.574522170874768
 40
1.815540668866877
 40
2.15849091873445
 40
2.536227739636605
 40
2.738070817316548
 40
2.925680654369045
 40
3.162706124480894
 40
3.395643218188267
 40
3.648478129958861
 40
3.928509979727306
 40
4.337226830236035
 40
4.337226830236035
 40
4.337226830236035
 40
4.337226830236035
 10
150.174759814845
 20
268.0157785490836
 10
150.1896524722387
 20
268.0280852930292
 10
150.2178997715426
 20
268.0573554162509
 10
150.2680010081823
 20
268.1047957645895
 10
150.3121511679889
 20
268.1600675350436
 10
150.3666135687062
 20
268.204863367917
 10
150.3949665242451
 20
268.2596295942645
 10
150.4358350715493
 20
268.3027020647635
 10
150.4701170904666
 20
268.3692232467541
 10
150.4992036891666
 20
268.4456350118983
 10
150.5269337446641
 20
268.5452362956017
 10
150.5375601880008
 20
268.6576013486473
 10
150.5218317303535
 20
268.7663144810783
 10
150.4838357526788
 20
268.8475739766152
 10
150.4559015919096
 20
268.9152953912813
 10
150.4135080032672
 20
268.9794394949585
 10
150.3651426484066
 20
269.0492033012926
 10
150.2970044276472
 20
269.1069092636076
 10
150.2079547690261
 20
269.1765119529831
 10
150.1250116613076
 20
269.1791768294891
 10
150.075791610882
 20
269.1807582189452
 72
     1
 10
150.075791610882
 20
269.1807582189453
 11
149.3253377876966
 21
269.1807582189452
 97
        6
330
89B
330
87A
330
87B
330
879
330
89A
330
899
 92
       20
 93
        1
 72
     3
 10
149.4977961823274
 20
268.5030622267262
 11
0.1782847090673272
 21
0.1567790921840611
 40
0.6788083417438791
 50
0.0
 51
360.0
 73
     1
 97
        1
330
878
 75
     0
 76
     1
 47
0.088756267210375
 98
        2
 10
149.550227458096
 20
268.8165494970502
 10
149.550227458096
 20
268.8165494970502
450
        0
451
        0
460
0.0
461
0.0
452
        0
462
0.0
453
        0
470

  0
ELLIPSE
  5
878
102
{ACAD_REACTORS
330
877
102
}
330
18
100
AcDbEntity
  8
ROGO
 62
     4
100
AcDbEllipse
 10
149.4977961823274
 20
268.5030622267262
 30
0.0
 11
0.1782847090673272
 21
0.1567790921840611
 31
0.0
210
0.0
220
0.0
230
0.9999999999999998
 40
0.6788083417438792
 41
0.0
 42
6.283185307179586
  0
LINE
  5
879
102
{ACAD_REACTORS
330
877
102
}
330
18
100
AcDbEntity
  8
ROGO
 62
     4
100
AcDbLine
 10
148.9410538261535
 20
267.8621360692154
 30
0.0
 11
149.6915076493388
 21
267.8621360692154
 31
0.0
  0
LINE
  5
87A
102
{ACAD_REACTORS
330
877
102
}
330
18
100
AcDbEntity
  8
ROGO
 62
     4
100
AcDbLine
 10
149.3253377876966
 20
269.1807582189452
 30
0.0
 11
150.075791610882
 21
269.1807582189452
 31
0.0
  0
SPLINE
  5
87B
102
{ACAD_REACTORS
330
877
102
}
330
18
100
AcDbEntity
  8
ROGO
 62
     4
100
AcDbSpline
210
0.0
220
0.0
230
1.0
 70
     8
 71
     3
 72
    38
 73
    34
 74
    32
 42
0.0000000001
 43
0.0000000001
 44
0.0000000001
 40
0.0
 40
0.0
 40
0.0
 40
0.0
 40
0.1807680148264315
 40
0.2375392910068956
 40
0.3104865209606157
 40
0.3712759982447458
 40
0.422566754387306
 40
0.490692583720658
 40
0.5255021974951946
 40
0.5647069597052371
 40
0.622487401681883
 40
0.6879401044674746
 40
0.7303986317551266
 40
0.7765228362185534
 40
0.8277951442290254
 40
0.9056034697002209
 40
0.9795294930264187
 40
1.013897332332996
 40
1.053089255536027
 40
1.099518741889647
 40
1.132570569820733
 40
1.160277520290299
 40
1.19983678629386
 40
1.243305643169139
 40
1.286774258016964
 40
1.324809356515675
 40
1.411916492917645
 40
1.446284332224223
 40
1.5150200516612
 40
1.575779369908399
 40
1.69209852953623
 40
1.835624328519098
 40
2.042896467983898
 40
2.042896467983898
 40
2.042896467983898
 40
2.042896467983898
 10
149.3253377876967
 20
269.1807582189452
 30
0.0
 10
149.2650823900709
 20
269.1765015998443
 30
0.0
 10
149.1859034244498
 20
269.1709081640571
 30
0.0
 10
149.0853646519403
 20
269.1433635378523
 30
0.0
 10
149.0305598974993
 20
269.1105490183943
 30
0.0
 10
148.9735245961821
 20
269.0864287736938
 30
0.0
 10
148.924896689797
 20
269.0507114744445
 30
0.0
 10
148.8757105891012
 20
269.0323066942511
 30
0.0
 10
148.8412689757254
 20
268.9991195858786
 30
0.0
 10
148.8014056175924
 20
268.9788474677036
 30
0.0
 10
148.7696617177572
 20
268.9334725736891
 30
0.0
 10
148.7341810412254
 20
268.8910486920308
 30
0.0
 10
148.6930189928183
 20
268.8600811504533
 30
0.0
 10
148.6592367472589
 20
268.8275561714909
 30
0.0
 10
148.6282462343345
 20
268.7773603563071
 30
0.0
 10
148.6099046617634
 20
268.7106649816213
 30
0.0
 10
148.5582028473541
 20
268.6685559273363
 30
0.0
 10
148.550418172871
 20
268.6179282796601
 30
0.0
 10
148.5218203226753
 20
268.5880588194694
 30
0.0
 10
148.5093849772194
 20
268.5495016374845
 30
0.0
 10
148.5046489990955
 20
268.5141764481636
 30
0.0
 10
148.4989646960531
 20
268.4811851667354
 30
0.0
 10
148.4840956358206
 20
268.4464797959976
 30
0.0
 10
148.488948948382
 20
268.4036095170626
 30
0.0
 10
148.4875663853399
 20
268.362096803036
 30
0.0
 10
148.4883800253131
 20
268.3060533464246
 30
0.0
 10
148.4854434859671
 20
268.2514881495051
 30
0.0
 10
148.5088612364821
 20
268.1921082733368
 30
0.0
 10
148.522719084085
 20
268.1391793286703
 30
0.0
 10
148.5606710540286
 20
268.0658927864187
 30
0.0
 10
148.6261374068465
 20
267.9813359627098
 30
0.0
 10
148.750627152864
 20
267.8786999994171
 30
0.0
 10
148.8703276834233
 20
267.8682880586997
 30
0.0
 10
148.9410538261535
 20
267.8621360692154
 30
0.0
 11
149.3253377876967
 21
269.1807582189452
 31
0.0
 11
149.1458811507493
 21
269.1590236694938
 31
0.0
 11
149.0915003646212
 21
269.1427231204465
 31
0.0
 11
149.0262436776132
 21
269.1101215382969
 31
0.0
 11
148.971862891485
 21
269.0829537145238
 31
0.0
 11
148.9283584334797
 21
269.0557856487234
 31
0.0
 11
148.8685396969117
 21
269.0231843086012
 31
0.0
 11
148.841349090226
 21
269.0014500011773
 31
0.0
 11
148.8087205331005
 21
268.9797154517259
 31
0.0
 11
148.7706540255351
 21
268.9362468368781
 31
0.0
 11
148.7271495675298
 21
268.8873447056811
 31
0.0
 11
148.6945210104042
 21
268.8601766398806
 31
0.0
 11
148.6618928805218
 21
268.8275752997585
 31
0.0
 11
148.6347022738362
 21
268.7841066849107
 31
0.0
 11
148.6020741439538
 21
268.7134700042624
 31
0.0
 11
148.5585692587054
 21
268.6537005983398
 31
0.0
 11
148.5476933578256
 21
268.6210990161902
 31
0.0
 11
148.5259411288229
 21
268.5884976760679
 31
0.0
 11
148.5096268502602
 21
268.5450288191927
 31
0.0
 11
148.5041884725772
 21
268.5124274790705
 31
0.0
 11
148.4987505221373
 21
268.4852594132701
 31
0.0
 11
148.4878746212575
 21
268.4472245567988
 31
0.0
 11
148.4878746212575
 21
268.4037556999235
 31
0.0
 11
148.4878746212575
 21
268.3602870850756
 31
0.0
 11
148.4878746212575
 21
268.3222519865769
 31
0.0
 11
148.4933125716975
 21
268.2353147568812
 31
0.0
 11
148.5041884725772
 21
268.2027131747316
 31
0.0
 11
148.5259411288229
 21
268.1375102524599
 31
0.0
 11
148.5531313082655
 21
268.0831743628864
 31
0.0
 11
148.6238263729564
 21
267.9908036168415
 31
0.0
 11
148.7380258956527
 21
267.9038661451185
 31
0.0
 11
148.9410538261535
 21
267.8621360692154
 31
0.0
  0
LINE
  5
87C
102
{ACAD_REACTORS
330
882
102
}
330
18
100
AcDbEntity
  8
ROGO
 62
     4
100
AcDbLine
 10
148.5961124676539
 20
269.1752809997729
 30
0.0
 11
148.3524931671133
 21
268.686705947556
 31
0.0
  0
LINE
  5
87D
102
{ACAD_REACTORS
330
882
102
}
330
18
100
AcDbEntity
  8
ROGO
 62
     4
100
AcDbLine
 10
148.1849527153234
 20
268.3507059475561
 30
0.0
 11
147.9413359946446
 21
267.8621360692154
 31
0.0
  0
LINE
  5
87E
102
{ACAD_REACTORS
330
882
102
}
330
18
100
AcDbEntity
  8
ROGO
 62
     4
100
AcDbLine
 10
147.3452716944513
 20
268.3507059475561
 30
0.0
 11
148.1849527153234
 21
268.3507059475561
 31
0.0
  0
SPLINE
  5
87F
102
{ACAD_REACTORS
330
882
102
}
330
18
100
AcDbEntity
  8
ROGO
 62
     4
100
AcDbSpline
210
0.0
220
0.0
230
1.0
 70
     8
 71
     3
 72
    16
 73
    12
 74
    10
 42
0.0000000001
 43
0.0000000001
 44
0.0000000001
 40
0.0
 40
0.0
 40
0.0
 40
0.0
 40
0.1255907025629711
 40
0.1869327038470372
 40
0.2171823804790188
 40
0.2490606136884497
 40
0.2947101524738226
 40
0.3362763310931653
 40
0.3796288870083566
 40
0.452312579561098
 40
0.5242542460842631
 40
0.5242542460842631
 40
0.5242542460842631
 40
0.5242542460842631
 10
147.5307262437622
 20
268.686705947556
 30
0.0
 10
147.4881955361408
 20
268.6802218542521
 30
0.0
 10
147.4248916449294
 20
268.6705707489665
 30
0.0
 10
147.3676458935383
 20
268.6252556419908
 30
0.0
 10
147.3353632644142
 20
268.5982961696744
 30
0.0
 10
147.3243805701626
 20
268.5625941754921
 30
0.0
 10
147.294884502302
 20
268.5351805244565
 30
0.0
 10
147.2705713524247
 20
268.4975053437404
 30
0.0
 10
147.264765923363
 20
268.4457578727812
 30
0.0
 10
147.2690272412106
 20
268.373138183644
 30
0.0
 10
147.3199439557796
 20
268.3581577396446
 30
0.0
 10
147.3452716944514
 20
268.3507059475561
 30
0.0
 11
147.5307262437622
 21
268.686705947556
 31
0.0
 11
147.4094676735084
 21
268.6540045147086
 31
0.0
 11
147.3595376498655
 21
268.6183697864151
 31
0.0
 11
147.3381391268977
 21
268.5969888100311
 31
0.0
 11
147.3238731714834
 21
268.5684808415192
 31
0.0
 11
147.2953416708084
 21
268.5328461132257
 31
0.0
 11
147.2739431478404
 21
268.4972111525858
 31
0.0
 11
147.2668101701333
 21
268.4544494321643
 31
0.0
 11
147.2810761255476
 21
268.3831795108846
 31
0.0
 11
147.3452716944514
 21
268.3507059475561
 31
0.0
  0
SPLINE
  5
880
102
{ACAD_REACTORS
330
882
102
}
330
18
100
AcDbEntity
  8
ROGO
 62
     4
100
AcDbSpline
210
0.0
220
0.0
230
1.0
 70
     8
 71
     3
 72
    26
 73
    22
 74
    20
 42
0.0000000001
 43
0.0000000001
 44
0.0000000001
 40
0.0
 40
0.0
 40
0.0
 40
0.0
 40
0.2382195346591896
 40
0.397689067266058
 40
0.5126795869787669
 40
0.5985392873135731
 40
0.7099038249249733
 40
0.7911890807494741
 40
0.9379713068543702
 40
1.057449928673087
 40
1.138714535893316
 40
1.218398644003506
 40
1.36093802187036
 40
1.461730374800257
 40
1.516014844108008
 40
1.593124329220501
 40
1.648806818593631
 40
1.729472362005518
 40
1.775122082164342
 40
1.874460993765092
 40
1.919820003751207
 40
1.919820003751207
 40
1.919820003751207
 40
1.919820003751207
 10
147.2810761255476
 20
269.1752809997729
 30
0.0
 10
147.2002207347889
 20
269.1704570285078
 30
0.0
 10
147.0652389207231
 20
269.1624037820111
 30
0.0
 10
146.9170297100112
 20
269.0723682781528
 30
0.0
 10
146.808442965601
 20
269.0200255928103
 30
0.0
 10
146.7309990311768
 20
268.9488701713908
 30
0.0
 10
146.6742323133093
 20
268.8753718188693
 30
0.0
 10
146.6026672086118
 20
268.787799070744
 30
0.0
 10
146.5443079107059
 20
268.6858241492795
 30
0.0
 10
146.5145890681726
 20
268.573430008216
 30
0.0
 10
146.488264399519
 20
268.4838512256572
 30
0.0
 10
146.468741584546
 20
268.3840273627648
 30
0.0
 10
146.4737087413589
 20
268.2761824746425
 30
0.0
 10
146.4808219372434
 20
268.1760216636387
 30
0.0
 10
146.5125806271674
 20
268.104521840712
 30
0.0
 10
146.5487481495574
 20
268.0536188937826
 30
0.0
 10
146.5930347854124
 20
267.997554941084
 30
0.0
 10
146.6414940497297
 20
267.9604239667536
 30
0.0
 10
146.6815738168404
 20
267.8931587116131
 30
0.0
 10
146.7517320971028
 20
267.8845751799369
 30
0.0
 10
146.7963274911786
 20
267.8674913900599
 30
0.0
 10
146.8103069796401
 20
267.8621360692154
 30
0.0
 11
147.2810761255476
 21
269.1752809997729
 31
0.0
 11
147.0456915525938
 21
269.1386388176792
 31
0.0
 11
146.9030340492188
 21
269.0673691287458
 31
0.0
 11
146.8031740019329
 21
269.0103534240683
 31
0.0
 11
146.7389784330292
 21
268.9533374870445
 31
0.0
 11
146.6676498864184
 21
268.8678138138552
 31
0.0
 11
146.6177198627755
 21
268.8036711170497
 31
0.0
 11
146.5463909060113
 21
268.6753854910925
 31
0.0
 11
146.5107268377825
 21
268.5613538493913
 31
0.0
 11
146.4893283148147
 21
268.4829571683299
 31
0.0
 11
146.4750623594004
 21
268.4045604872685
 31
0.0
 11
146.4750623594004
 21
268.2620211094016
 31
0.0
 11
146.4893283148147
 21
268.1622434519564
 31
0.0
 11
146.5107268377825
 21
268.1123545070605
 31
0.0
 11
146.5535238837183
 21
268.048211810255
 31
0.0
 11
146.5891883621005
 21
268.0054498574872
 31
0.0
 11
146.646250953297
 21
267.9484341528097
 31
0.0
 11
146.6747824539721
 21
267.9127991921699
 31
0.0
 11
146.7675099337042
 21
267.8771644638763
 31
0.0
 11
146.8103069796401
 21
267.8621360692154
 31
0.0
  0
LINE
  5
881
102
{ACAD_REACTORS
330
882
102
}
330
18
100
AcDbEntity
  8
ROGO
 62
     4
100
AcDbLine
 10
146.81030697964
 20
267.8621360692154
 30
0.0
 11
147.9413359946446
 21
267.8621360692154
 31
0.0
  0
HATCH
  5
882
330
18
100
AcDbEntity
  8
ROGO
 62
     4
100
AcDbHatch
 10
0.0
 20
0.0
 30
0.0
210
0.0
220
0.0
230
1.0
  2
SOLID
 70
     1
 71
     1
 91
        1
 92
        5
 93
        8
 72
     1
 10
148.3524931671132
 20
268.686705947556
 11
148.5961124676539
 21
269.1752809997729
 72
     1
 10
148.5961124676539
 20
269.1752809997729
 11
147.2810761255477
 21
269.175280999773
 72
     4
 94
        3
 73
     0
 74
     0
 95
       26
 96
       22
 40
0.0
 40
0.0
 40
0.0
 40
0.0
 40
0.2382195346591896
 40
0.397689067266058
 40
0.5126795869787669
 40
0.5985392873135731
 40
0.7099038249249733
 40
0.7911890807494741
 40
0.9379713068543702
 40
1.057449928673087
 40
1.138714535893316
 40
1.218398644003506
 40
1.36093802187036
 40
1.461730374800257
 40
1.516014844108008
 40
1.593124329220501
 40
1.648806818593631
 40
1.729472362005518
 40
1.775122082164342
 40
1.874460993765092
 40
1.919820003751207
 40
1.919820003751207
 40
1.919820003751207
 40
1.919820003751207
 10
147.2810761255476
 20
269.1752809997729
 10
147.2002207347889
 20
269.1704570285078
 10
147.065238920723
 20
269.1624037820111
 10
146.9170297100113
 20
269.0723682781527
 10
146.808442965601
 20
269.0200255928103
 10
146.7309990311768
 20
268.9488701713907
 10
146.6742323133093
 20
268.8753718188694
 10
146.6026672086117
 20
268.787799070744
 10
146.5443079107059
 20
268.6858241492795
 10
146.5145890681726
 20
268.5734300082161
 10
146.488264399519
 20
268.4838512256571
 10
146.4687415845459
 20
268.3840273627648
 10
146.4737087413589
 20
268.2761824746425
 10
146.4808219372434
 20
268.1760216636387
 10
146.5125806271674
 20
268.1045218407121
 10
146.5487481495574
 20
268.0536188937826
 10
146.5930347854123
 20
267.997554941084
 10
146.6414940497297
 20
267.9604239667536
 10
146.6815738168404
 20
267.8931587116131
 10
146.7517320971028
 20
267.8845751799368
 10
146.7963274911786
 20
267.8674913900599
 10
146.8103069796401
 20
267.8621360692154
 72
     1
 10
146.8103069796401
 20
267.8621360692154
 11
147.9413359946446
 21
267.8621360692154
 72
     1
 10
147.9413359946446
 20
267.8621360692154
 11
148.1849527153234
 21
268.3507059475561
 72
     1
 10
148.1849527153234
 20
268.3507059475561
 11
147.3452716944513
 21
268.350705947556
 72
     4
 94
        3
 73
     0
 74
     0
 95
       16
 96
       12
 40
0.0
 40
0.0
 40
0.0
 40
0.0
 40
0.0719416665231651
 40
0.1446253590759065
 40
0.1879779149910977
 40
0.2295440936104405
 40
0.2751936323958134
 40
0.3070718656052443
 40
0.3373215422372259
 40
0.3986635435212919
 40
0.5242542460842631
 40
0.5242542460842631
 40
0.5242542460842631
 40
0.5242542460842631
 10
147.3452716944514
 20
268.3507059475561
 10
147.3199439557796
 20
268.3581577396446
 10
147.2690272412106
 20
268.373138183644
 10
147.2647659233629
 20
268.4457578727812
 10
147.2705713524247
 20
268.4975053437404
 10
147.294884502302
 20
268.5351805244565
 10
147.3243805701626
 20
268.5625941754921
 10
147.3353632644142
 20
268.5982961696744
 10
147.3676458935383
 20
268.6252556419908
 10
147.4248916449294
 20
268.6705707489665
 10
147.4881955361408
 20
268.6802218542521
 10
147.5307262437622
 20
268.686705947556
 72
     1
 10
147.5307262437621
 20
268.686705947556
 11
148.3524931671132
 21
268.686705947556
 97
        8
330
883
330
880
330
881
330
87D
330
87E
330
87F
330
884
330
87C
 75
     0
 76
     1
 47
0.0514683685270805
 98
        1
 10
147.7409930227545
 20
268.882959543426
450
        0
451
        0
460
0.0
461
0.0
452
        0
462
0.0
453
        0
470

  0
LINE
  5
883
102
{ACAD_REACTORS
330
882
102
}
330
18
100
AcDbEntity
  8
ROGO
 62
     4
100
AcDbLine
 10
147.281076125548
 20
269.1752809997729
 30
0.0
 11
148.5961124676539
 21
269.1752809997729
 31
0.0
  0
LINE
  5
884
102
{ACAD_REACTORS
330
882
102
}
330
18
100
AcDbEntity
  8
ROGO
 62
     4
100
AcDbLine
 10
147.5307262437621
 20
268.686705947556
 30
0.0
 11
148.3524931671133
 21
268.686705947556
 31
0.0
  0
LINE
  5
885
102
{ACAD_REACTORS
330
851
102
}
330
18
100
AcDbEntity
  8
ROGO
 62
     4
100
AcDbLine
 10
145.6074134194372
 20
268.1121507393062
 30
0.0
 11
145.7184798425061
 21
267.8621360692154
 31
0.0
  0
LINE
  5
886
102
{ACAD_REACTORS
330
851
102
}
330
18
100
AcDbEntity
  8
ROGO
 62
     4
100
AcDbLine
 10
145.2910609281112
 20
268.8242720228211
 30
0.0
 11
145.4902683138366
 21
268.3758487510023
 31
0.0
  0
LINE
  5
887
102
{ACAD_REACTORS
330
851
102
}
330
18
100
AcDbEntity
  8
ROGO
 62
     4
100
AcDbLine
 10
144.8169330714795
 20
269.1752809997729
 30
0.0
 11
145.867336554251
 21
269.1752809997729
 31
0.0
  0
LINE
  5
888
102
{ACAD_REACTORS
330
851
102
}
330
18
100
AcDbEntity
  8
ROGO
 62
     4
100
AcDbLine
 10
144.7775364306528
 20
268.1121507393062
 30
0.0
 11
144.5972459930719
 21
267.8621360692154
 31
0.0
  0
LINE
  5
889
102
{ACAD_REACTORS
330
851
102
}
330
18
100
AcDbEntity
  8
ROGO
 62
     4
100
AcDbLine
 10
144.9676941917979
 20
268.3758487510023
 30
0.0
 11
145.4902683138366
 21
268.3758487510023
 31
0.0
  0
LINE
  5
88A
102
{ACAD_REACTORS
330
851
102
}
330
18
100
AcDbEntity
  8
ROGO
 62
     4
100
AcDbLine
 10
144.7775364306528
 20
268.1121507393062
 30
0.0
 11
145.6074134194372
 21
268.1121507393062
 31
0.0
  0
LINE
  5
88B
102
{ACAD_REACTORS
330
851
102
}
330
18
100
AcDbEntity
  8
ROGO
 62
     4
100
AcDbLine
 10
145.2910609281111
 20
268.8242720228211
 30
0.0
 11
144.9676941917979
 21
268.3758487510023
 31
0.0
  0
LINE
  5
88C
102
{ACAD_REACTORS
330
851
102
}
330
18
100
AcDbEntity
  8
ROGO
 62
     4
100
AcDbLine
 10
145.867336554251
 20
269.1752809997729
 30
0.0
 11
146.4506875646342
 21
267.8621360692154
 31
0.0
  0
LINE
  5
88D
102
{ACAD_REACTORS
330
851
102
}
330
18
100
AcDbEntity
  8
ROGO
 62
     4
100
AcDbLine
 10
146.4506875646342
 20
267.8621360692154
 30
0.0
 11
145.7184798425061
 21
267.8621360692154
 31
0.0
  0
LINE
  5
88E
102
{ACAD_REACTORS
330
8A4
102
}
330
18
100
AcDbEntity
  8
ROGO
 62
     4
100
AcDbLine
 10
153.3692586568696
 20
267.1234022148669
 30
0.0
 11
154.1253258568696
 21
267.1234022148669
 31
0.0
  0
LINE
  5
88F
102
{ACAD_REACTORS
330
8A4
102
}
330
18
100
AcDbEntity
  8
ROGO
 62
     4
100
AcDbLine
 10
154.1006008863659
 20
269.1752809997729
 30
0.0
 11
154.8566680863659
 21
269.1752809997729
 31
0.0
  0
LINE
  5
890
102
{ACAD_REACTORS
330
8A4
102
}
330
18
100
AcDbEntity
  8
ROGO
 62
     4
100
AcDbLine
 10
153.6137593410346
 20
268.1493416073199
 30
0.0
 11
154.8566680863659
 21
269.1752809997729
 31
0.0
  0
LINE
  5
891
102
{ACAD_REACTORS
330
8A4
102
}
330
18
100
AcDbEntity
  8
ROGO
 62
     4
100
AcDbLine
 10
153.6137593410346
 20
268.1493416073199
 30
0.0
 11
154.1253258568696
 21
267.1234022148669
 31
0.0
  0
LINE
  5
892
102
{ACAD_REACTORS
330
8A4
102
}
330
18
100
AcDbEntity
  8
ROGO
 62
     4
100
AcDbLine
 10
153.746587803287
 20
268.9512575909513
 30
0.0
 11
154.1006008863659
 21
269.1752809997729
 31
0.0
  0
LINE
  5
893
102
{ACAD_REACTORS
330
8A4
102
}
330
18
100
AcDbEntity
  8
ROGO
 62
     4
100
AcDbLine
 10
153.8582931102081
 20
269.1752809997729
 30
0.0
 11
153.746587803287
 21
268.9512575909513
 31
0.0
  0
LINE
  5
894
102
{ACAD_REACTORS
330
8A4
102
}
330
18
100
AcDbEntity
  8
ROGO
 62
     4
100
AcDbLine
 10
153.1022093677039
 20
267.6589657769865
 30
0.0
 11
152.8351600785382
 21
267.1234022148669
 31
0.0
  0
LINE
  5
895
102
{ACAD_REACTORS
330
89F
102
}
330
18
100
AcDbEntity
  8
ROGO
 62
     4
100
AcDbLine
 10
152.8271822385817
 20
269.1752809997729
 30
0.0
 11
152.5835629380411
 21
268.686705947556
 31
0.0
  0
LINE
  5
896
102
{ACAD_REACTORS
330
89F
102
}
330
18
100
AcDbEntity
  8
ROGO
 62
     4
100
AcDbLine
 10
152.4160224862513
 20
268.3507059475561
 30
0.0
 11
152.1724057655725
 21
267.8621360692154
 31
0.0
  0
LINE
  5
897
102
{ACAD_REACTORS
330
8A4
102
}
330
18
100
AcDbEntity
  8
ROGO
 62
     4
100
AcDbLine
 10
153.1022093677039
 20
267.6589657769865
 30
0.0
 11
153.3692586568696
 21
267.1234022148669
 31
0.0
  0
LINE
  5
898
102
{ACAD_REACTORS
330
8A4
102
}
330
18
100
AcDbEntity
  8
ROGO
 62
     4
100
AcDbLine
 10
153.1022093677039
 20
269.1752809997729
 30
0.0
 11
153.8582931102081
 21
269.1752809997729
 31
0.0
  0
SPLINE
  5
899
102
{ACAD_REACTORS
330
877
102
}
330
18
100
AcDbEntity
  8
ROGO
 62
     4
100
AcDbSpline
210
0.0
220
0.0
230
1.0
 70
     8
 71
     3
 72
     9
 73
     5
 74
     3
 42
0.0000000001
 43
0.0000000001
 44
0.0000000001
 40
0.0
 40
0.0
 40
0.0
 40
0.0
 40
0.1135793343552172
 40
0.2662938392177403
 40
0.2662938392177403
 40
0.2662938392177403
 40
0.2662938392177403
 10
149.9415251079569
 20
267.891412516124
 30
0.0
 10
149.9780100762749
 20
267.9025748558473
 30
0.0
 10
150.0635513619523
 20
267.9287456581012
 30
0.0
 10
150.1342280591891
 20
267.9840579758757
 30
0.0
 10
150.174759814845
 20
268.0157785490836
 30
0.0
 11
149.9415251079569
 21
267.891412516124
 31
0.0
 11
150.0482758721815
 21
267.9302009103937
 31
0.0
 11
150.174759814845
 21
268.0157785490836
 31
0.0
  0
SPLINE
  5
89A
102
{ACAD_REACTORS
330
877
102
}
330
18
100
AcDbEntity
  8
ROGO
 62
     4
100
AcDbSpline
210
0.0
220
0.0
230
1.0
 70
     8
 71
     3
 72
    11
 73
     7
 74
     0
 42
0.0000000001
 43
0.0000000001
 40
0.1647869275458134
 40
0.1647869275458134
 40
0.1647869275458134
 40
0.1647869275458134
 40
0.2895635144633836
 40
0.5387013147903714
 40
0.7953622617455423
 40
0.8850764140209602
 40
0.8850764140209602
 40
0.8850764140209602
 40
0.8850764140209602
 10
149.9415251079569
 20
267.891412516124
 30
0.0
 10
149.927546565156
 20
267.8875215834075
 30
0.0
 10
149.8842055537218
 20
267.8805939936236
 30
0.0
 10
149.8115067865837
 20
267.8710815992503
 30
0.0
 10
149.7424102444874
 20
267.8611550686657
 30
0.0
 10
149.7019795496588
 20
267.8619342535724
 30
0.0
 10
149.6915076493389
 20
267.8621360692154
 30
0.0
  0
SPLINE
  5
89B
102
{ACAD_REACTORS
330
877
102
}
330
18
100
AcDbEntity
  8
ROGO
 62
     4
100
AcDbSpline
210
0.0
220
0.0
230
1.0
 70
     8
 71
     3
 72
    25
 73
    21
 74
     0
 42
0.0000000001
 43
0.0000000001
 40
0.0
 40
0.0
 40
0.0
 40
0.0
 40
0.4087168505087288
 40
0.6887487002771746
 40
0.9415836120477687
 40
1.17452070575514
 40
1.41154617586699
 40
1.599156012919487
 40
1.80099909059943
 40
2.178735911501585
 40
2.521686161369157
 40
2.762704659361267
 40
3.06256558063785
 40
3.222432137207705
 40
3.399493810628493
 40
3.567459719866414
 40
3.743172740007509
 40
3.995988754699505
 40
4.17170091132118
 40
4.337226830236035
 40
4.337226830236035
 40
4.337226830236035
 40
4.337226830236035
 10
150.075791610882
 20
269.1807582189452
 30
0.0
 10
150.1250116613076
 20
269.1791768294891
 30
0.0
 10
150.2079547690261
 20
269.1765119529831
 30
0.0
 10
150.2970044276472
 20
269.1069092636076
 30
0.0
 10
150.3651426484066
 20
269.0492033012926
 30
0.0
 10
150.4135080032672
 20
268.9794394949585
 30
0.0
 10
150.4559015919096
 20
268.9152953912813
 30
0.0
 10
150.4838357526788
 20
268.8475739766152
 30
0.0
 10
150.5218317303535
 20
268.7663144810783
 30
0.0
 10
150.5375601880008
 20
268.6576013486473
 30
0.0
 10
150.5269337446641
 20
268.5452362956017
 30
0.0
 10
150.4992036891666
 20
268.4456350118983
 30
0.0
 10
150.4701170904666
 20
268.3692232467541
 30
0.0
 10
150.4358350715493
 20
268.3027020647635
 30
0.0
 10
150.3949665242451
 20
268.2596295942645
 30
0.0
 10
150.3666135687062
 20
268.204863367917
 30
0.0
 10
150.3121511679889
 20
268.1600675350436
 30
0.0
 10
150.2680010081823
 20
268.1047957645895
 30
0.0
 10
150.2178997715426
 20
268.0573554162509
 30
0.0
 10
150.1896524722387
 20
268.0280852930292
 30
0.0
 10
150.174759814845
 20
268.0157785490836
 30
0.0
  0
SPLINE
  5
89C
102
{ACAD_REACTORS
330
89F
102
}
330
18
100
AcDbEntity
  8
ROGO
 62
     4
100
AcDbSpline
210
0.0
220
0.0
230
1.0
 70
     8
 71
     3
 72
    26
 73
    22
 74
    20
 42
0.0000000001
 43
0.0000000001
 44
0.0000000001
 40
0.0
 40
0.0
 40
0.0
 40
0.0
 40
0.2382195346591896
 40
0.397689067266058
 40
0.5126795869787176
 40
0.5985392873135238
 40
0.7099038249250041
 40
0.7911890807494602
 40
0.9379713068544059
 40
1.057449928673177
 40
1.138714535893296
 40
1.218398644003487
 40
1.36093802187034
 40
1.461730374800238
 40
1.51601484410804
 40
1.593124329220486
 40
1.648806818593696
 40
1.729472362005543
 40
1.775122082164332
 40
1.874460993765135
 40
1.919820003751196
 40
1.919820003751196
 40
1.919820003751196
 40
1.919820003751196
 10
151.5121458964754
 20
269.1752809997729
 30
0.0
 10
151.4312905057168
 20
269.1704570285078
 30
0.0
 10
151.2963086916508
 20
269.1624037820111
 30
0.0
 10
151.1480994809391
 20
269.0723682781528
 30
0.0
 10
151.0395127365289
 20
269.0200255928102
 30
0.0
 10
150.9620688021047
 20
268.9488701713908
 30
0.0
 10
150.9053020842372
 20
268.8753718188693
 30
0.0
 10
150.8337369795395
 20
268.7877990707439
 30
0.0
 10
150.7753776816337
 20
268.6858241492794
 30
0.0
 10
150.7456588391005
 20
268.573430008216
 30
0.0
 10
150.7193341704468
 20
268.4838512256572
 30
0.0
 10
150.6998113554738
 20
268.3840273627647
 30
0.0
 10
150.7047785122868
 20
268.2761824746425
 30
0.0
 10
150.7118917081712
 20
268.1760216636387
 30
0.0
 10
150.7436503980952
 20
268.1045218407119
 30
0.0
 10
150.7798179204853
 20
268.0536188937827
 30
0.0
 10
150.8241045563402
 20
267.9975549410839
 30
0.0
 10
150.8725638206576
 20
267.9604239667537
 30
0.0
 10
150.9126435877682
 20
267.8931587116131
 30
0.0
 10
150.9828018680307
 20
267.884575179937
 30
0.0
 10
151.0273972621065
 20
267.8674913900599
 30
0.0
 10
151.0413767505679
 20
267.8621360692154
 30
0.0
 11
151.5121458964754
 21
269.1752809997729
 31
0.0
 11
151.2767613235216
 21
269.1386388176792
 31
0.0
 11
151.1341038201466
 21
269.0673691287458
 31
0.0
 11
151.0342437728608
 21
269.0103534240683
 31
0.0
 11
150.970048203957
 21
268.9533374870445
 31
0.0
 11
150.8987196573462
 21
268.8678138138551
 31
0.0
 11
150.8487896337033
 21
268.8036711170497
 31
0.0
 11
150.7774606769391
 21
268.6753854910925
 31
0.0
 11
150.7417966087103
 21
268.5613538493912
 31
0.0
 11
150.7203980857425
 21
268.4829571683299
 31
0.0
 11
150.7061321303282
 21
268.4045604872685
 31
0.0
 11
150.7061321303282
 21
268.2620211094016
 31
0.0
 11
150.7203980857425
 21
268.1622434519564
 31
0.0
 11
150.7417966087103
 21
268.1123545070605
 31
0.0
 11
150.7845936546461
 21
268.048211810255
 31
0.0
 11
150.8202581330283
 21
268.0054498574872
 31
0.0
 11
150.8773207242249
 21
267.9484341528097
 31
0.0
 11
150.9058522249
 21
267.9127991921699
 31
0.0
 11
150.9985797046321
 21
267.8771644638763
 31
0.0
 11
151.0413767505679
 21
267.8621360692154
 31
0.0
  0
SPLINE
  5
89D
102
{ACAD_REACTORS
330
89F
102
}
330
18
100
AcDbEntity
  8
ROGO
 62
     4
100
AcDbSpline
210
0.0
220
0.0
230
1.0
 70
     8
 71
     3
 72
    16
 73
    12
 74
    10
 42
0.0000000001
 43
0.0000000001
 44
0.0000000001
 40
0.0
 40
0.0
 40
0.0
 40
0.0
 40
0.1255907025629163
 40
0.1869327038470616
 40
0.217182380479003
 40
0.2490606136884339
 40
0.2947101524738157
 40
0.3362763310931585
 40
0.3796288870082937
 40
0.4523125795610796
 40
0.5242542460842448
 40
0.5242542460842448
 40
0.5242542460842448
 40
0.5242542460842448
 10
151.76179601469
 20
268.686705947556
 30
0.0
 10
151.7192653070686
 20
268.6802218542521
 30
0.0
 10
151.6559614158572
 20
268.6705707489665
 30
0.0
 10
151.5987156644661
 20
268.6252556419908
 30
0.0
 10
151.566433035342
 20
268.5982961696743
 30
0.0
 10
151.5554503410904
 20
268.5625941754921
 30
0.0
 10
151.5259542732299
 20
268.5351805244565
 30
0.0
 10
151.5016411233526
 20
268.4975053437403
 30
0.0
 10
151.4958356942908
 20
268.4457578727812
 30
0.0
 10
151.5000970121384
 20
268.3731381836438
 30
0.0
 10
151.5510137267075
 20
268.3581577396446
 30
0.0
 10
151.5763414653792
 20
268.350705947556
 30
0.0
 11
151.76179601469
 21
268.686705947556
 31
0.0
 11
151.6405374444363
 21
268.6540045147086
 31
0.0
 11
151.5906074207933
 21
268.618369786415
 31
0.0
 11
151.5692088978255
 21
268.5969888100311
 31
0.0
 11
151.5549429424112
 21
268.5684808415192
 31
0.0
 11
151.5264114417363
 21
268.5328461132257
 31
0.0
 11
151.5050129187683
 21
268.4972111525858
 31
0.0
 11
151.4978799410612
 21
268.4544494321643
 31
0.0
 11
151.5121458964754
 21
268.3831795108845
 31
0.0
 11
151.5763414653792
 21
268.350705947556
 31
0.0
  0
LINE
  5
89E
102
{ACAD_REACTORS
330
853
330
8A4
102
}
330
18
100
AcDbEntity
  8
ROGO
 62
     4
100
AcDbLine
 10
153.1022093677039
 20
269.1752809997729
 30
0.0
 11
152.079076336034
 21
267.1234022148669
 31
0.0
  0
HATCH
  5
89F
330
18
100
AcDbEntity
  8
ROGO
 62
     4
100
AcDbHatch
 10
0.0
 20
0.0
 30
0.0
210
0.0
220
0.0
230
1.0
  2
SOLID
 70
     1
 71
     1
 91
        1
 92
        5
 93
        8
 72
     4
 94
        3
 73
     0
 74
     0
 95
       26
 96
       22
 40
0.0
 40
0.0
 40
0.0
 40
0.0
 40
0.2382195346591896
 40
0.397689067266058
 40
0.5126795869787176
 40
0.5985392873135238
 40
0.7099038249250041
 40
0.7911890807494602
 40
0.9379713068544059
 40
1.057449928673177
 40
1.138714535893296
 40
1.218398644003487
 40
1.36093802187034
 40
1.461730374800238
 40
1.51601484410804
 40
1.593124329220486
 40
1.648806818593696
 40
1.729472362005543
 40
1.775122082164332
 40
1.874460993765135
 40
1.919820003751196
 40
1.919820003751196
 40
1.919820003751196
 40
1.919820003751196
 10
151.5121458964754
 20
269.1752809997729
 10
151.4312905057168
 20
269.1704570285078
 10
151.2963086916509
 20
269.1624037820111
 10
151.1480994809391
 20
269.0723682781528
 10
151.0395127365289
 20
269.0200255928102
 10
150.9620688021047
 20
268.9488701713907
 10
150.9053020842372
 20
268.8753718188693
 10
150.8337369795395
 20
268.7877990707439
 10
150.7753776816337
 20
268.6858241492794
 10
150.7456588391005
 20
268.573430008216
 10
150.7193341704468
 20
268.4838512256572
 10
150.6998113554738
 20
268.3840273627648
 10
150.7047785122867
 20
268.2761824746425
 10
150.7118917081713
 20
268.1760216636386
 10
150.7436503980952
 20
268.104521840712
 10
150.7798179204853
 20
268.0536188937826
 10
150.8241045563401
 20
267.9975549410839
 10
150.8725638206576
 20
267.9604239667536
 10
150.9126435877682
 20
267.8931587116131
 10
150.9828018680306
 20
267.8845751799368
 10
151.0273972621065
 20
267.8674913900599
 10
151.0413767505679
 20
267.8621360692154
 72
     1
 10
151.0413767505679
 20
267.8621360692154
 11
152.1724057655725
 21
267.8621360692154
 72
     1
 10
152.1724057655725
 20
267.8621360692154
 11
152.4160224862513
 21
268.3507059475561
 72
     1
 10
152.4160224862513
 20
268.3507059475561
 11
151.5763414653792
 21
268.350705947556
 72
     4
 94
        3
 73
     0
 74
     0
 95
       16
 96
       12
 40
0.0
 40
0.0
 40
0.0
 40
0.0
 40
0.0719416665231652
 40
0.1446253590759511
 40
0.1879779149910863
 40
0.229544093610429
 40
0.2751936323958108
 40
0.3070718656052417
 40
0.3373215422371831
 40
0.3986635435213285
 40
0.5242542460842448
 40
0.5242542460842448
 40
0.5242542460842448
 40
0.5242542460842448
 10
151.5763414653792
 20
268.350705947556
 10
151.5510137267075
 20
268.3581577396446
 10
151.5000970121384
 20
268.3731381836439
 10
151.4958356942908
 20
268.4457578727812
 10
151.5016411233526
 20
268.4975053437404
 10
151.5259542732299
 20
268.5351805244563
 10
151.5554503410904
 20
268.5625941754922
 10
151.566433035342
 20
268.5982961696743
 10
151.5987156644662
 20
268.6252556419908
 10
151.6559614158571
 20
268.6705707489665
 10
151.7192653070685
 20
268.680221854252
 10
151.76179601469
 20
268.686705947556
 72
     1
 10
151.7617960146901
 20
268.686705947556
 11
152.5835629380411
 21
268.686705947556
 72
     1
 10
152.5835629380411
 20
268.686705947556
 11
152.8271822385817
 21
269.1752809997729
 72
     1
 10
152.8271822385817
 20
269.1752809997729
 11
151.5121458964754
 21
269.1752809997729
 97
        8
330
8A2
330
89C
330
8A3
330
896
330
8A1
330
89D
330
8A0
330
895
 75
     0
 76
     1
 47
0.0514683685270805
 98
        1
 10
151.7390633261603
 20
268.9348396965938
450
        0
451
        0
460
0.0
461
0.0
452
        0
462
0.0
453
        0
470

  0
LINE
  5
8A0
102
{ACAD_REACTORS
330
89F
102
}
330
18
100
AcDbEntity
  8
ROGO
 62
     4
100
AcDbLine
 10
151.7617960146899
 20
268.686705947556
 30
0.0
 11
152.5835629380411
 21
268.686705947556
 31
0.0
  0
LINE
  5
8A1
102
{ACAD_REACTORS
330
89F
102
}
330
18
100
AcDbEntity
  8
ROGO
 62
     4
100
AcDbLine
 10
151.5763414653792
 20
268.3507059475561
 30
0.0
 11
152.4160224862513
 21
268.3507059475561
 31
0.0
  0
LINE
  5
8A2
102
{ACAD_REACTORS
330
89F
102
}
330
18
100
AcDbEntity
  8
ROGO
 62
     4
100
AcDbLine
 10
151.5121458964757
 20
269.1752809997729
 30
0.0
 11
152.8271822385817
 21
269.1752809997729
 31
0.0
  0
LINE
  5
8A3
102
{ACAD_REACTORS
330
89F
102
}
330
18
100
AcDbEntity
  8
ROGO
 62
     4
100
AcDbLine
 10
151.0413767505679
 20
267.8621360692154
 30
0.0
 11
152.1724057655725
 21
267.8621360692154
 31
0.0
  0
HATCH
  5
8A4
330
18
100
AcDbEntity
  8
ROGO
 62
     4
100
AcDbHatch
 10
0.0
 20
0.0
 30
0.0
210
0.0
220
0.0
230
1.0
  2
SOLID
 70
     1
 71
     1
 91
        1
 92
        7
 72
     0
 73
     1
 93
       11
 10
152.079076336034
 20
267.1234022148669
 10
152.8351600785382
 20
267.1234022148669
 10
153.1022093677039
 20
267.6589657769865
 10
153.3692586568696
 20
267.1234022148669
 10
154.1253258568695
 20
267.123402214867
 10
153.6137593410346
 20
268.1493416073199
 10
154.8566680863659
 20
269.1752809997729
 10
154.1006008863659
 20
269.1752809997729
 10
153.7465878032871
 20
268.9512575909513
 10
153.8582931102081
 20
269.1752809997729
 10
153.1022093677039
 20
269.1752809997729
 97
       11
330
88F
330
892
330
893
330
898
330
89E
330
855
330
894
330
897
330
88E
330
891
330
890
 75
     0
 76
     1
 47
0.0514683685270805
 98
        1
 10
153.0371381213
 20
268.2949850163314
450
        0
451
        0
460
0.0
461
0.0
452
        0
462
0.0
453
        0
470

  0
TEXT
  5
8A5
330
18
100
AcDbEntity
  8
文字
100
AcDbText
 10
133.8220500113211
 20
272.5776443452364
 30
0.0
 40
1.5
  1
10
  7
STYLE3
100
AcDbText
  0
TEXT
  5
8A6
330
18
100
AcDbEntity
  8
文字
100
AcDbText
 10
145.8786964546684
 20
277.0270814256165
 30
0.0
 40
1.5
  1
0
  7
STYLE3
100
AcDbText
  0
LINE
  5
8A7
330
18
100
AcDbEntity
  8
目盛
100
AcDbLine
 10
132.6577529174992
 20
285.2232080799386
 30
0.0
 11
133.9825755212789
 21
282.8133647098178
 31
0.0
  0
LINE
  5
8A8
330
18
100
AcDbEntity
  8
外形線
100
AcDbLine
 10
140.1848146722706
 20
300.9573731821957
 30
0.0
 11
123.4309482074067
 21
286.8397261233722
 31
0.0
  0
LINE
  5
8A9
330
18
100
AcDbEntity
  8
目盛
100
AcDbLine
 10
131.0896324120581
 20
284.2958241982249
 30
0.0
 11
132.5631560982504
 21
281.9739224030944
 31
0.0
  0
LINE
  5
8AA
330
18
100
AcDbEntity
  8
外形線
100
AcDbLine
 10
150.628609466449
 20
294.3103143586664
 30
0.0
 11
150.628609466449
 21
292.8188359856644
 31
0.0
  0
LINE
  5
8AB
330
18
100
AcDbEntity
  8
外形線
100
AcDbLine
 10
142.628609466449
 20
294.3103143586664
 30
0.0
 11
142.6286094664489
 21
292.8188359856644
 31
0.0
  0
LINE
  5
8AC
330
18
100
AcDbEntity
  8
目盛
100
AcDbLine
 10
141.194551343463
 20
288.2966446297984
 30
0.0
 11
141.7098499585737
 21
285.5953546902945
 31
0.0
  0
LINE
  5
8AD
330
18
100
AcDbEntity
  8
目盛
100
AcDbLine
 10
142.9939456930842
 20
288.5816406967862
 30
0.0
 11
143.338612085386
 21
285.8533252681714
 31
0.0
  0
LINE
  5
8AE
330
18
100
AcDbEntity
  8
目盛
100
AcDbLine
 10
139.4166027386682
 20
287.8992260313967
 30
0.0
 11
140.1004999283716
 21
285.235622338293
 31
0.0
  0
LINE
  5
8AF
330
18
100
AcDbEntity
  8
目盛
100
AcDbLine
 10
137.6671166295755
 20
287.3909533312258
 30
0.0
 11
139.1349473528565
 21
282.8734348788239
 31
0.0
  0
LINE
  5
8B0
330
18
100
AcDbEntity
  8
目盛
100
AcDbLine
 10
135.9529974385933
 20
286.7738324494257
 30
0.0
 11
136.9653399584762
 21
284.2169471132331
 31
0.0
  0
LINE
  5
8B1
330
18
100
AcDbEntity
  8
目盛
100
AcDbLine
 10
134.2810100110618
 20
286.050298880181
 30
0.0
 11
135.4519030628658
 21
283.5620244858995
 31
0.0
  0
LINE
  5
8B2
330
18
100
AcDbEntity
  8
目盛
100
AcDbLine
 10
153.8406161942298
 20
287.8992260313967
 30
0.0
 11
153.1567190045264
 21
285.235622338293
 31
0.0
  0
LINE
  5
8B3
330
18
100
AcDbEntity
  8
目盛
100
AcDbLine
 10
150.2632732398138
 20
288.5816406967864
 30
0.0
 11
149.918606847512
 21
285.8533252681714
 31
0.0
  0
LINE
  5
8B4
330
18
100
AcDbEntity
  8
目盛
100
AcDbLine
 10
152.062667589435
 20
288.2966446297984
 30
0.0
 11
151.5473689743243
 21
285.5953546902945
 31
0.0
  0
LINE
  5
8B5
330
18
100
AcDbEntity
  8
目盛
100
AcDbLine
 10
144.807684400099
 20
288.7530894830862
 30
0.0
 11
144.9803583288045
 21
286.0085159799084
 31
0.0
  0
LINE
  5
8B6
330
18
100
AcDbEntity
  8
目盛
100
AcDbLine
 10
148.449534532799
 20
288.7530894830863
 30
0.0
 11
148.2768606040935
 21
286.0085159799085
 31
0.0
  0
LINE
  5
8B7
330
18
100
AcDbEntity
  8
目盛
100
AcDbLine
 10
146.628609466449
 20
288.8103143586664
 30
0.0
 11
146.628609466449
 21
284.0603143586664
 31
0.0
  0
ARC
  5
8B8
330
18
100
AcDbEntity
  8
外形線
100
AcDbCircle
 10
146.628609466449
 20
288.3103143586665
 30
0.0
 40
12.49999999999989
100
AcDbArc
 50
73.73979529168789
 51
106.2602047083121
  0
LINE
  5
8B9
330
18
100
AcDbEntity
  8
外形線
100
AcDbLine
 10
143.1286094664489
 20
300.3103143586664
 30
0.0
 11
150.1286094664489
 21
300.3103143586664
 31
0.0
  0
LINE
  5
8BA
330
18
100
AcDbEntity
  8
ﾊｯﾁﾝｸ
 62
     4
100
AcDbLine
 10
144.7181884381259
 20
295.2992402404905
 30
0.0
 11
143.128609466449
 21
298.0524717820781
 31
0.0
  0
LINE
  5
8BB
330
18
100
AcDbEntity
  8
外形線
100
AcDbLine
 10
143.128609466449
 20
295.3103143586664
 30
0.0
 11
150.128609466449
 21
295.3103143586664
 31
0.0
  0
LINE
  5
8BC
330
18
100
AcDbEntity
  8
外形線
100
AcDbLine
 10
143.128609466449
 20
294.8103143586664
 30
0.0
 11
150.128609466449
 21
294.8103143586664
 31
0.0
  0
LINE
  5
8BD
330
18
100
AcDbEntity
  8
ﾊｯﾁﾝｸ
 62
     4
100
AcDbLine
 10
146.628609466449
 20
295.9902939555868
 30
0.0
 11
144.1344445238262
 21
300.3103143586664
 31
0.0
  0
LINE
  5
8BE
330
18
100
AcDbEntity
  8
ﾊｯﾁﾝｸ
 62
     4
100
AcDbLine
 10
143.7123533807485
 20
295.3103143586665
 30
0.0
 11
146.5991047266966
 21
300.3103143586665
 31
0.0
  0
LINE
  5
8BF
330
18
100
AcDbEntity
  8
ﾊｯﾁﾝｸ
 62
     4
100
AcDbLine
 10
145.8664953313952
 20
295.3103143586665
 30
0.0
 11
143.1286094664489
 21
300.0524717820781
 31
0.0
  0
LINE
  5
8C0
330
18
100
AcDbEntity
  8
ﾊｯﾁﾝｸ
 62
     4
100
AcDbLine
 10
143.128609466449
 20
296.2992402404905
 30
0.0
 11
145.4444041883174
 21
300.3103143586664
 31
0.0
  0
LINE
  5
8C1
330
18
100
AcDbEntity
  8
ﾊｯﾁﾝｸ
 62
     4
100
AcDbLine
 10
143.1286094664489
 20
298.2992402404903
 30
0.0
 11
144.2897036499381
 21
300.3103143586664
 31
0.0
  0
ARC
  5
8C2
330
18
100
AcDbEntity
  8
外形線
100
AcDbCircle
 10
146.628609466449
 20
293.3103143586663
 30
0.0
 40
10.0
100
AcDbArc
 50
49.88083310159495
 51
130.1191668984051
  0
LINE
  5
8C3
330
18
100
AcDbEntity
  8
外形線
100
AcDbLine
 10
143.1286094664489
 20
300.3103143586664
 30
0.0
 11
143.128609466449
 21
295.3103143586664
 31
0.0
  0
ARC
  5
8C4
330
18
100
AcDbEntity
  8
外形線
100
AcDbCircle
 10
143.128609466449
 20
294.3103143586664
 30
0.0
 40
0.5
100
AcDbArc
 50
90.0
 51
180.0
  0
LINE
  5
8C5
330
18
100
AcDbEntity
  8
外形線
100
AcDbLine
 10
143.128609466449
 20
295.3103143586664
 30
0.0
 11
143.628609466449
 21
294.8103143586664
 31
0.0
  0
LINE
  5
8C6
330
18
100
AcDbEntity
  8
ﾊｯﾁﾝｸ
 62
     4
100
AcDbLine
 10
143.5570942546368
 20
295.3103143586665
 30
0.0
 11
143.128609466449
 21
296.0524717820781
 31
0.0
  0
LINE
  5
8C7
330
18
100
AcDbEntity
  8
外形線
100
AcDbLine
 10
143.1286094664488
 20
300.2992402404903
 30
0.0
 11
143.1350031115588
 21
300.3103143586665
 31
0.0
  0
LINE
  5
8C8
330
18
100
AcDbEntity
  8
ﾊｯﾁﾝｸ
 62
     4
100
AcDbLine
 10
146.628609466449
 20
297.990293955587
 30
0.0
 11
145.2891450622055
 21
300.3103143586664
 31
0.0
  0
LINE
  5
8C9
330
18
100
AcDbEntity
  8
外形線
100
AcDbLine
 10
150.1286094664489
 20
300.3103143586664
 30
0.0
 11
150.128609466449
 21
295.3103143586664
 31
0.0
  0
LINE
  5
8CA
330
18
100
AcDbEntity
  8
ﾊｯﾁﾝｸ
 62
     4
100
AcDbLine
 10
144.8606602740178
 20
295.2992402404905
 30
0.0
 11
146.628609466449
 21
298.3614180669817
 31
0.0
  0
LINE
  5
8CB
330
18
100
AcDbEntity
  8
ﾊｯﾁﾝｸ
 62
     4
100
AcDbLine
 10
146.021754457507
 20
295.3103143586665
 30
0.0
 11
146.628609466449
 21
296.3614180669816
 31
0.0
  0
LINE
  5
8CC
330
18
100
AcDbEntity
  8
外形線
100
AcDbLine
 10
149.628609466449
 20
294.8103143586664
 30
0.0
 11
150.128609466449
 21
295.3103143586664
 31
0.0
  0
ARC
  5
8CD
330
18
100
AcDbEntity
  8
外形線
100
AcDbCircle
 10
150.128609466449
 20
294.3103143586664
 30
0.0
 40
0.5
100
AcDbArc
 50
0.0
 51
90.0
  0
LINE
  5
8CE
330
18
100
AcDbEntity
  8
ﾊｯﾁﾝｸ
 62
     4
100
AcDbLine
 10
146.628609466449
 20
299.9902939555868
 30
0.0
 11
146.4438456005847
 21
300.3103143586664
 31
0.0
  0
POINT
  5
8CF
330
18
100
AcDbEntity
  8
DEFPOINTS
  6
ByBlock
 62
     0
100
AcDbPoint
 10
146.628609466449
 20
300.8103143586664
 30
0.0
  0
LINE
  5
8D0
330
18
100
AcDbEntity
  8
目盛
100
AcDbLine
 10
163.6743817829307
 20
283.2718071955399
 30
0.0
 11
160.8824018345414
 21
279.4289764722588
 31
0.0
  0
LINE
  5
8D1
330
18
100
AcDbEntity
  8
目盛
100
AcDbLine
 10
165.1139051691609
 20
282.1551983991643
 30
0.0
 11
163.360989197352
 21
280.0362869815308
 31
0.0
  0
LINE
  5
8D2
330
18
100
AcDbEntity
  8
目盛
100
AcDbLine
 10
173.5921275572083
 20
270.485926386522
 30
0.0
 11
171.0352422210156
 21
269.4735838666391
 31
0.0
  0
TEXT
  5
8D3
330
18
100
AcDbEntity
  8
文字
100
AcDbText
 10
163.3156803697815
 20
265.022210358614
 30
0.0
 40
3.0
  1
20
  7
STYLE3
100
AcDbText
  0
LINE
  5
8D4
102
{ACAD_REACTORS
330
8EF
102
}
330
18
100
AcDbEntity
  8
外形線
100
AcDbLine
 10
158.4673984039165
 20
261.3498976919996
 30
0.0
 11
158.4673984039165
 21
261.1707310253329
 31
0.0
  0
LINE
  5
8D5
102
{ACAD_REACTORS
330
8EF
102
}
330
18
100
AcDbEntity
  8
外形線
100
AcDbLine
 10
156.1340650705831
 20
262.0103143586663
 30
0.0
 11
156.3007317372497
 21
262.0103143586663
 31
0.0
  0
POINT
  5
8D6
330
18
100
AcDbEntity
  8
DEFPOINTS
  6
ByBlock
 62
     0
100
AcDbPoint
 10
157.4673984039165
 20
261.6849462986435
 30
0.0
  0
POINT
  5
8D7
330
18
100
AcDbEntity
  8
DEFPOINTS
  6
ByBlock
 62
     0
100
AcDbPoint
 10
157.4673984039165
 20
261.6849462986435
 30
0.0
  0
LINE
  5
8D8
102
{ACAD_REACTORS
330
8EF
102
}
330
18
100
AcDbEntity
  8
外形線
100
AcDbLine
 10
157.4673984039165
 20
261.6849462986435
 30
0.0
 11
157.4673984039165
 21
261.3498976919996
 31
0.0
  0
LINE
  5
8D9
102
{ACAD_REACTORS
330
8EF
102
}
330
18
100
AcDbEntity
  8
外形線
100
AcDbLine
 10
156.3007317372497
 20
261.2603143586663
 30
0.0
 11
157.4673984039165
 21
260.8356824186891
 31
0.0
  0
POINT
  5
8DA
330
18
100
AcDbEntity
  8
DEFPOINTS
  6
ByBlock
 62
     0
100
AcDbPoint
 10
157.4673984039165
 20
260.8356824186891
 30
0.0
  0
POINT
  5
8DB
330
18
100
AcDbEntity
  8
DEFPOINTS
  6
ByBlock
 62
     0
100
AcDbPoint
 10
157.4673984039165
 20
260.8356824186891
 30
0.0
  0
LINE
  5
8DC
102
{ACAD_REACTORS
330
8EF
102
}
330
18
100
AcDbEntity
  8
外形線
100
AcDbLine
 10
157.4673984039165
 20
261.170731025333
 30
0.0
 11
157.4673984039165
 21
260.8356824186891
 31
0.0
  0
LINE
  5
8DD
102
{ACAD_REACTORS
330
8EF
102
}
330
18
100
AcDbEntity
  8
外形線
100
AcDbLine
 10
156.1340650705831
 20
262.0103143586663
 30
0.0
 11
156.1340650705831
 21
260.5103143586664
 31
0.0
  0
LINE
  5
8DE
102
{ACAD_REACTORS
330
8EF
102
}
330
18
100
AcDbEntity
  8
外形線
100
AcDbLine
 10
156.3007317372497
 20
262.0103143586663
 30
0.0
 11
156.3007317372497
 21
260.5103143586664
 31
0.0
  0
LINE
  5
8DF
102
{ACAD_REACTORS
330
8EF
102
}
330
18
100
AcDbEntity
  8
外形線
100
AcDbLine
 10
156.3007317372497
 20
261.2603143586663
 30
0.0
 11
157.4673984039165
 21
261.6849462986435
 31
0.0
  0
LINE
  5
8E0
102
{ACAD_REACTORS
330
82D
102
}
330
18
100
AcDbEntity
  8
外形線
100
AcDbLine
 10
155.3007317372497
 20
262.0103143586663
 30
0.0
 11
155.1340650705832
 21
262.0103143586663
 31
0.0
  0
LINE
  5
8E1
102
{ACAD_REACTORS
330
82D
102
}
330
18
100
AcDbEntity
  8
外形線
100
AcDbLine
 10
155.1340650705832
 20
262.0103143586663
 30
0.0
 11
155.1340650705832
 21
260.5103143586664
 31
0.0
  0
LINE
  5
8E2
102
{ACAD_REACTORS
330
82D
102
}
330
18
100
AcDbEntity
  8
外形線
100
AcDbLine
 10
155.3007317372497
 20
262.0103143586663
 30
0.0
 11
155.3007317372497
 21
260.5103143586664
 31
0.0
  0
LINE
  5
8E3
102
{ACAD_REACTORS
330
8EF
102
}
330
18
100
AcDbEntity
  8
外形線
100
AcDbLine
 10
156.1340650705831
 20
260.5103143586664
 30
0.0
 11
156.3007317372497
 21
260.5103143586664
 31
0.0
  0
POINT
  5
8E4
330
18
100
AcDbEntity
  8
DEFPOINTS
  6
ByBlock
 62
     0
100
AcDbPoint
 10
156.3007317372497
 20
260.5103143586664
 30
0.0
  0
POINT
  5
8E5
330
18
100
AcDbEntity
  8
DEFPOINTS
  6
ByBlock
 62
     0
100
AcDbPoint
 10
156.1340650705831
 20
260.5103143586664
 30
0.0
  0
POINT
  5
8E6
330
18
100
AcDbEntity
  8
DEFPOINTS
  6
ByBlock
 62
     0
100
AcDbPoint
 10
156.3007317372497
 20
260.5103143586664
 30
0.0
  0
POINT
  5
8E7
330
18
100
AcDbEntity
  8
DEFPOINTS
  6
ByBlock
 62
     0
100
AcDbPoint
 10
156.1340650705831
 20
260.5103143586664
 30
0.0
  0
POINT
  5
8E8
330
18
100
AcDbEntity
  8
DEFPOINTS
  6
ByBlock
 62
     0
100
AcDbPoint
 10
155.3007317372497
 20
260.5103143586664
 30
0.0
  0
POINT
  5
8E9
330
18
100
AcDbEntity
  8
DEFPOINTS
  6
ByBlock
 62
     0
100
AcDbPoint
 10
155.1340650705832
 20
260.5103143586664
 30
0.0
  0
POINT
  5
8EA
330
18
100
AcDbEntity
  8
DEFPOINTS
  6
ByBlock
 62
     0
100
AcDbPoint
 10
155.3007317372497
 20
260.5103143586664
 30
0.0
  0
POINT
  5
8EB
330
18
100
AcDbEntity
  8
DEFPOINTS
  6
ByBlock
 62
     0
100
AcDbPoint
 10
155.1340650705832
 20
260.5103143586664
 30
0.0
  0
LINE
  5
8EC
102
{ACAD_REACTORS
330
82D
102
}
330
18
100
AcDbEntity
  8
外形線
100
AcDbLine
 10
155.3007317372497
 20
260.5103143586664
 30
0.0
 11
155.1340650705832
 21
260.5103143586664
 31
0.0
  0
LINE
  5
8ED
102
{ACAD_REACTORS
330
8EF
102
}
330
18
100
AcDbEntity
  8
外形線
100
AcDbLine
 10
158.4673984039165
 20
261.3498976919996
 30
0.0
 11
157.4673984039165
 21
261.3498976919996
 31
0.0
  0
LINE
  5
8EE
102
{ACAD_REACTORS
330
8EF
102
}
330
18
100
AcDbEntity
  8
外形線
100
AcDbLine
 10
158.4673984039165
 20
261.1707310253329
 30
0.0
 11
157.4673984039165
 21
261.170731025333
 31
0.0
  0
HATCH
  5
8EF
330
18
100
AcDbEntity
  8
外形線
100
AcDbHatch
 10
0.0
 20
0.0
 30
0.0
210
0.0
220
0.0
230
1.0
  2
SOLID
 70
     1
 71
     1
 91
        2
 92
        1
 93
        7
 72
     1
 10
156.3007317372497
 20
261.2603143586663
 11
157.4673984039165
 21
260.8356824186891
 72
     1
 10
157.4673984039165
 20
260.8356824186891
 11
157.4673984039165
 21
261.170731025333
 72
     1
 10
157.4673984039165
 20
261.170731025333
 11
158.4673984039165
 21
261.1707310253329
 72
     1
 10
158.4673984039165
 20
261.1707310253329
 11
158.4673984039165
 21
261.3498976919996
 72
     1
 10
158.4673984039165
 20
261.3498976919996
 11
157.4673984039165
 21
261.3498976919996
 72
     1
 10
157.4673984039165
 20
261.3498976919996
 11
157.4673984039165
 21
261.6849462986435
 72
     1
 10
157.4673984039165
 20
261.6849462986435
 11
156.3007317372497
 21
261.2603143586663
 97
        7
330
8D9
330
8DC
330
8EE
330
8D4
330
8ED
330
8D8
330
8DF
 92
        1
 93
        4
 72
     1
 10
156.3007317372497
 20
262.0103143586663
 11
156.3007317372497
 21
260.5103143586664
 72
     1
 10
156.3007317372497
 20
260.5103143586664
 11
156.1340650705831
 21
260.5103143586664
 72
     1
 10
156.1340650705831
 20
260.5103143586664
 11
156.1340650705831
 21
262.0103143586663
 72
     1
 10
156.1340650705831
 20
262.0103143586663
 11
156.3007317372497
 21
262.0103143586663
 97
        4
330
8DE
330
8E3
330
8DD
330
8D5
 75
     0
 76
     1
 98
        1
 10
63.97117503076945
 20
192.5981635514853
450
        0
451
        0
460
0.0
461
0.0
452
        0
462
0.0
453
        0
470

  0
TEXT
  5
8F0
330
18
100
AcDbEntity
  8
文字
100
AcDbText
 10
162.5143284731391
 20
262.3980082932444
 30
0.0
 40
1.5
  1
80
  7
STYLE3
100
AcDbText
  0
LINE
  5
8F1
330
18
100
AcDbEntity
  8
目盛
100
AcDbLine
 10
175.628609466449
 20
259.8103143586663
 30
0.0
 11
170.878609466449
 21
259.8103143586663
 31
0.0
  0
LINE
  5
8F2
330
18
100
AcDbEntity
  8
目盛
100
AcDbLine
 10
175.5713845908688
 20
261.6312394250164
 30
0.0
 11
172.8268110876911
 21
261.4585654963109
 31
0.0
  0
POINT
  5
8F3
330
18
100
AcDbEntity
  8
DEFPOINTS
  6
ByBlock
 62
     0
100
AcDbPoint
 10
175.628609466449
 20
259.8103143586664
 30
0.0
  0
LINE
  5
8F4
330
18
100
AcDbEntity
  8
目盛
100
AcDbLine
 10
175.3999358045688
 20
263.4449781320312
 30
0.0
 11
172.6716203759539
 21
263.1003117397294
 31
0.0
  0
LINE
  5
8F5
330
18
100
AcDbEntity
  8
目盛
100
AcDbLine
 10
174.2092484390084
 20
268.7718071955399
 30
0.0
 11
169.6917299866064
 21
267.3039764722588
 31
0.0
  0
LINE
  5
8F6
330
18
100
AcDbEntity
  8
目盛
100
AcDbLine
 10
175.114939737581
 20
265.2443724816524
 30
0.0
 11
172.413649798077
 21
264.7290738665416
 31
0.0
  0
LINE
  5
8F7
330
18
100
AcDbEntity
  8
目盛
100
AcDbLine
 10
174.7175211391792
 20
267.0223210864472
 30
0.0
 11
172.0539174460755
 21
266.3384238967438
 31
0.0
  0
LINE
  5
8F8
330
18
100
AcDbEntity
  8
目盛
100
AcDbLine
 10
166.480475538381
 20
280.9504045538874
 30
0.0
 11
164.597970997077
 21
278.9457408284785
 31
0.0
  0
LINE
  5
8F9
330
18
100
AcDbEntity
  8
目盛
100
AcDbLine
 10
167.7686996616698
 20
279.6621804305984
 30
0.0
 11
165.764035936261
 21
277.7796758892945
 31
0.0
  0
TEXT
  5
8FA
330
18
100
AcDbEntity
  8
文字
100
AcDbText
 10
156.1589134705538
 20
275.1821349275878
 30
0.0
 40
3.0
  1
10
  7
STYLE3
100
AcDbText
  0
TEXT
  5
8FB
330
18
100
AcDbEntity
  8
文字
100
AcDbText
 10
156.5267606561173
 20
272.4616208261462
 30
0.0
 40
1.5
  1
90
  7
STYLE3
100
AcDbText
  0
LINE
  5
8FC
330
18
100
AcDbEntity
  8
目盛
100
AcDbLine
 10
170.0901023033225
 20
276.8560866751481
 30
0.0
 11
166.2472715800414
 21
274.0641067267589
 31
0.0
  0
LINE
  5
8FD
330
18
100
AcDbEntity
  8
目盛
100
AcDbLine
 10
172.8685939879635
 20
272.1579138140535
 30
0.0
 11
170.380319593682
 21
270.9870207622495
 31
0.0
  0
LINE
  5
8FE
330
18
100
AcDbEntity
  8
目盛
100
AcDbLine
 10
172.0415031877211
 20
273.7811709076161
 30
0.0
 11
169.6316598176004
 21
272.4563483038364
 31
0.0
  0
LINE
  5
8FF
330
18
100
AcDbEntity
  8
目盛
100
AcDbLine
 10
171.1141193060074
 20
275.3492914130573
 30
0.0
 11
168.7922175108768
 21
273.875767726865
 31
0.0
  0
LINE
  5
900
330
18
100
AcDbEntity
  8
目盛
100
AcDbLine
 10
168.9734935069468
 20
278.2956100613784
 30
0.0
 11
166.8545820893134
 21
276.5426940895695
 31
0.0
  0
LINE
  5
901
330
18
100
AcDbEntity
  8
目盛
100
AcDbLine
 10
160.5994660153988
 20
285.2232080799385
 30
0.0
 11
159.2746434116189
 21
282.8133647098178
 31
0.0
  0
LINE
  5
902
330
18
100
AcDbEntity
  8
目盛
100
AcDbLine
 10
157.3042214943046
 20
286.7738324494257
 30
0.0
 11
156.2918789744218
 21
284.216947113233
 31
0.0
  0
LINE
  5
903
330
18
100
AcDbEntity
  8
目盛
100
AcDbLine
 10
158.9762089218361
 20
286.050298880181
 30
0.0
 11
157.8053158700321
 21
283.5620244858994
 31
0.0
  0
LINE
  5
904
330
18
100
AcDbEntity
  8
目盛
100
AcDbLine
 10
162.1675865208399
 20
284.2958241982248
 30
0.0
 11
160.6940628346476
 21
281.9739224030943
 31
0.0
  0
ARC
  5
905
330
18
100
AcDbEntity
  8
外形線
100
AcDbCircle
 10
450.6286094664489
 20
166.3103143586663
 30
0.0
 40
100.0
100
AcDbArc
 50
267.7957724960279
 51
103.1673125617121
  0
ARC
  5
906
330
18
100
AcDbEntity
  8
外形線
100
AcDbCircle
 10
434.628609466449
 20
166.3103143586663
 30
0.0
 40
26.0
100
AcDbArc
 50
270.0
 51
90.0
  0
ARC
  5
907
330
18
100
AcDbEntity
  8
外形線
100
AcDbCircle
 10
434.628609466449
 20
166.3103143586663
 30
0.0
 40
31.0
100
AcDbArc
 50
290.0510425665059
 51
345.09940331217
  0
ARC
  5
908
330
18
100
AcDbEntity
  8
外形線
100
AcDbCircle
 10
450.6286094664489
 20
166.3103143586663
 30
0.0
 40
95.0
100
AcDbArc
 50
267.4806924794616
 51
354.3241056119477
  0
ARC
  5
909
330
18
100
AcDbEntity
  8
外形線
100
AcDbCircle
 10
446.6286094664489
 20
75.39826895213065
 30
0.0
 40
4.0
100
AcDbArc
 50
180.0
 51
267.4806924794623
  0
LINE
  5
90A
330
18
100
AcDbEntity
  8
外形線
100
AcDbLine
 10
432.628609466449
 20
61.31031435866637
 30
0.0
 11
442.6286094664489
 21
61.31031435866637
 31
0.0
  0
ARC
  5
90B
330
18
100
AcDbEntity
  8
外形線
100
AcDbCircle
 10
428.628609466449
 20
63.98441429786612
 30
0.0
 40
4.0
100
AcDbArc
 50
0.0
 51
84.40226062205097
  0
LINE
  5
90C
330
18
100
AcDbEntity
  8
外形線
100
AcDbLine
 10
432.628609466449
 20
61.31031435866637
 30
0.0
 11
432.628609466449
 21
63.98441429786612
 31
0.0
  0
ARC
  5
90D
330
18
100
AcDbEntity
  8
外形線
100
AcDbCircle
 10
446.6286094664489
 20
62.38726590453367
 30
0.0
 40
4.0
100
AcDbArc
 50
87.79577249602828
 51
180.0
  0
LINE
  5
90E
330
18
100
AcDbEntity
  8
外形線
100
AcDbLine
 10
442.6286094664489
 20
61.31031435866637
 30
0.0
 11
442.6286094664489
 21
62.38726590453367
 31
0.0
  0
LINE
  5
90F
330
18
100
AcDbEntity
  8
外形線
100
AcDbLine
 10
351.0325994913867
 20
91.79011485741947
 30
0.0
 11
400.7333476210624
 21
86.30507745093566
 31
0.0
  0
LINE
  5
910
330
18
100
AcDbEntity
  8
外形線
100
AcDbLine
 10
352.628609466449
 20
123.7103143586663
 30
0.0
 11
402.628609466449
 21
124.2103143586663
 31
0.0
  0
ARC
  5
911
330
18
100
AcDbEntity
  8
外形線
100
AcDbCircle
 10
352.628609466449
 20
107.7103143586663
 30
0.0
 40
16.0
100
AcDbArc
 50
90.0
 51
264.2751895477741
  0
ARC
  5
912
330
18
100
AcDbEntity
  8
外形線
100
AcDbCircle
 10
302.628609466449
 20
110.2103143586663
 30
0.0
 40
14.0
100
AcDbArc
 50
264.2751895477765
 51
90.0
  0
LINE
  5
913
330
18
100
AcDbEntity
  8
中心線
100
AcDbLine
 10
352.628609466449
 20
127.9555375086974
 30
0.0
 11
352.628609466449
 21
85.9555375086974
 31
0.0
  0
LINE
  5
914
330
18
100
AcDbEntity
  8
中心線
100
AcDbLine
 10
302.628609466449
 20
128.3263683937958
 30
0.0
 11
302.628609466449
 21
91.19181052428848
 31
0.0
  0
ARC
  5
915
330
18
100
AcDbEntity
  8
外形線
100
AcDbCircle
 10
402.628609466449
 20
105.2103143586663
 30
0.0
 40
19.0
100
AcDbArc
 50
263.1293121524119
 51
91.14587739536696
  0
LINE
  5
916
330
18
100
AcDbEntity
  8
中心線
100
AcDbLine
 10
402.628609466449
 20
128.1973957814692
 30
0.0
 11
402.628609466449
 21
82.6292515578639
 31
0.0
  0
LINE
  5
917
330
18
100
AcDbEntity
  8
外形線
100
AcDbLine
 10
432.628609466449
 20
77.04670510538939
 30
0.0
 11
432.628609466449
 21
131.3103143586663
 31
0.0
  0
LINE
  5
918
330
18
100
AcDbEntity
  8
外形線
100
AcDbLine
 10
442.6286094664489
 20
75.39826895213065
 30
0.0
 11
442.6286094664489
 21
133.4317499131191
 31
0.0
  0
ARC
  5
919
330
18
100
AcDbEntity
  8
外形線
100
AcDbCircle
 10
428.628609466449
 20
77.04670510538939
 30
0.0
 40
4.0
100
AcDbArc
 50
264.4022606220509
 51
0.0
  0
ARC
  5
91A
330
18
100
AcDbEntity
  8
外形線
100
AcDbCircle
 10
428.628609466449
 20
131.3103143586663
 30
0.0
 40
4.0
100
AcDbArc
 50
0.0
 51
90.0
  0
ARC
  5
91B
330
18
100
AcDbEntity
  8
外形線
100
AcDbCircle
 10
446.6286094664489
 20
133.4317499131191
 30
0.0
 40
4.0
100
AcDbArc
 50
110.0510425665058
 51
180.0
  0
ARC
  5
91C
330
18
100
AcDbEntity
  8
外形線
100
AcDbCircle
 10
541.1824608478232
 20
157.3103143586663
 30
0.0
 40
4.0
100
AcDbArc
 50
354.3241056119479
 51
90.00000000000003
  0
LINE
  5
91D
330
18
100
AcDbEntity
  8
中心線
100
AcDbLine
 10
485.628609466449
 20
146.7368024417172
 30
0.0
 11
485.628609466449
 21
95.88382627561543
 31
0.0
  0
CIRCLE
  5
91E
330
18
100
AcDbEntity
  8
外形線
100
AcDbCircle
 10
485.628609466449
 20
121.3103143586663
 30
0.0
 40
17.5
  0
LINE
  5
91F
330
18
100
AcDbEntity
  8
外形線
100
AcDbLine
 10
468.4516785170244
 20
161.3103143586663
 30
0.0
 11
541.1824608478232
 21
161.3103143586663
 31
0.0
  0
LINE
  5
920
330
18
100
AcDbEntity
  8
中心線
100
AcDbLine
 10
460.2021213833981
 20
121.3103143586663
 30
0.0
 11
511.0550975494999
 21
121.3103143586663
 31
0.0
  0
ARC
  5
921
330
18
100
AcDbEntity
  8
外形線
100
AcDbCircle
 10
468.4516785170244
 20
157.3103143586663
 30
0.0
 40
4.0
100
AcDbArc
 50
90.00000000000003
 51
165.0994033121699
  0
ARC
  5
922
330
18
100
AcDbEntity
  8
外形線
100
AcDbCircle
 10
434.628609466449
 20
166.3103143586663
 30
0.0
 40
31.0
100
AcDbArc
 50
14.90059668782996
 51
69.94895743349407
  0
ARC
  5
923
330
18
100
AcDbEntity
  8
外形線
100
AcDbCircle
 10
450.6286094664489
 20
166.3103143586663
 30
0.0
 40
95.0
100
AcDbArc
 50
5.675894388052327
 51
92.51930752053842
  0
ARC
  5
924
330
18
100
AcDbEntity
  8
外形線
100
AcDbCircle
 10
428.628609466449
 20
254.5993006291366
 30
0.0
 40
4.0
100
AcDbArc
 50
359.9999999999996
 51
103.4080195316845
  0
ARC
  5
925
330
18
100
AcDbEntity
  8
外形線
100
AcDbCircle
 10
412.6286094664489
 20
321.7185974073359
 30
0.0
 40
65.0
100
AcDbArc
 50
248.530652115058
 51
283.4080195316837
  0
ARC
  5
926
330
18
100
AcDbEntity
  8
外形線
100
AcDbCircle
 10
446.6286094664489
 20
257.222359765202
 30
0.0
 40
4.0
100
AcDbArc
 50
92.51930752053764
 51
180.0
  0
LINE
  5
927
330
18
100
AcDbEntity
  8
外形線
100
AcDbLine
 10
318.628609466449
 20
248.3103143586663
 30
0.0
 11
393.628609466449
 21
248.3103143586663
 31
0.0
  0
LINE
  5
928
330
18
100
AcDbEntity
  8
外形線
100
AcDbLine
 10
318.628609466449
 20
218.3103143586663
 30
0.0
 11
393.628609466449
 21
218.3103143586662
 31
0.0
  0
LINE
  5
929
330
18
100
AcDbEntity
  8
中心線
100
AcDbLine
 10
299.8883915809559
 20
233.3103143586663
 30
0.0
 11
412.3599395528615
 21
233.3103143586662
 31
0.0
  0
LINE
  5
92A
330
18
100
AcDbEntity
  8
中心線
100
AcDbLine
 10
318.628609466449
 20
251.8140388314112
 30
0.0
 11
318.628609466449
 21
214.1087905254251
 31
0.0
  0
ARC
  5
92B
330
18
100
AcDbEntity
  8
外形線
100
AcDbCircle
 10
318.628609466449
 20
233.3103143586663
 30
0.0
 40
15.0
100
AcDbArc
 50
90.0
 51
270.0
  0
LINE
  5
92C
330
18
100
AcDbEntity
  8
外形線
100
AcDbLine
 10
432.628609466449
 20
254.5993006291365
 30
0.0
 11
432.6286094664489
 21
201.3103143586663
 31
0.0
  0
LINE
  5
92D
330
18
100
AcDbEntity
  8
外形線
100
AcDbLine
 10
442.6286094664489
 20
257.222359765202
 30
0.0
 11
442.6286094664489
 21
199.1888788042135
 31
0.0
  0
ARC
  5
92E
330
18
100
AcDbEntity
  8
外形線
100
AcDbCircle
 10
428.6286094664489
 20
201.3103143586663
 30
0.0
 40
4.0
100
AcDbArc
 50
270.0
 51
0.0
  0
ARC
  5
92F
330
18
100
AcDbEntity
  8
外形線
100
AcDbCircle
 10
446.6286094664489
 20
199.1888788042135
 30
0.0
 40
4.0
100
AcDbArc
 50
180.0
 51
249.9489574334942
  0
LINE
  5
930
330
18
100
AcDbEntity
  8
中心線
100
AcDbLine
 10
393.628609466449
 20
251.8140388314111
 30
0.0
 11
393.628609466449
 21
214.1087905254251
 31
0.0
  0
ARC
  5
931
330
18
100
AcDbEntity
  8
外形線
100
AcDbCircle
 10
393.628609466449
 20
233.3103143586662
 30
0.0
 40
15.0
100
AcDbArc
 50
270.0
 51
90.0
  0
LINE
  5
932
330
18
100
AcDbEntity
  8
外形線
100
AcDbLine
 10
310.628609466449
 20
263.3103143586664
 30
0.0
 11
377.8582846421634
 21
263.3103143586664
 31
0.0
  0
LINE
  5
933
330
18
100
AcDbEntity
  8
外形線
100
AcDbLine
 10
310.628609466449
 20
268.3103143586663
 30
0.0
 11
377.8582846421634
 21
268.3103143586663
 31
0.0
  0
LINE
  5
934
330
18
100
AcDbEntity
  8
中心線
 48
0.5
100
AcDbLine
 10
296.9462322221243
 20
300.2755694273065
 30
0.0
 11
308.0038528328047
 21
314.5391300987308
 31
0.0
  0
CIRCLE
  5
935
330
18
100
AcDbEntity
  8
外形線
100
AcDbCircle
 10
302.4750425274645
 20
307.4073497630187
 30
0.0
 40
4.0
  0
LINE
  5
936
330
18
100
AcDbEntity
  8
中心線
 48
0.5
100
AcDbLine
 10
295.3432621917523
 20
312.9361600683589
 30
0.0
 11
309.6068228631766
 21
301.8785394576784
 31
0.0
  0
ARC
  5
937
330
18
100
AcDbEntity
  8
外形線
100
AcDbCircle
 10
412.6286094664489
 20
321.7185974073359
 30
0.0
 40
60.0
100
AcDbArc
 50
248.530652115058
 51
284.695047087138
  0
ARC
  5
938
330
18
100
AcDbEntity
  8
外形線
100
AcDbCircle
 10
377.8582846421634
 20
233.3103143586663
 30
0.0
 40
30.0
100
AcDbArc
 50
68.53065211505792
 51
90.0
  0
ARC
  5
939
330
18
100
AcDbEntity
  8
外形線
100
AcDbCircle
 10
377.8582846421634
 20
233.3103143586663
 30
0.0
 40
35.0
100
AcDbArc
 50
68.53065211505792
 51
90.0
  0
ARC
  5
93A
330
18
100
AcDbEntity
  8
外形線
100
AcDbCircle
 10
541.1824608478232
 20
175.3103143586663
 30
0.0
 40
4.0
100
AcDbArc
 50
270.0
 51
5.675894388052107
  0
CIRCLE
  5
93B
330
18
100
AcDbEntity
  8
外形線
100
AcDbCircle
 10
485.628609466449
 20
211.3103143586663
 30
0.0
 40
17.5
  0
LINE
  5
93C
330
18
100
AcDbEntity
  8
中心線
100
AcDbLine
 10
485.628609466449
 20
185.8838262756154
 30
0.0
 11
485.628609466449
 21
236.7368024417172
 31
0.0
  0
LINE
  5
93D
330
18
100
AcDbEntity
  8
中心線
100
AcDbLine
 10
460.2021213833981
 20
211.3103143586663
 30
0.0
 11
511.0550975494999
 21
211.3103143586663
 31
0.0
  0
LINE
  5
93E
330
18
100
AcDbEntity
  8
外形線
100
AcDbLine
 10
468.4516785170244
 20
171.3103143586663
 30
0.0
 11
541.1824608478232
 21
171.3103143586663
 31
0.0
  0
ARC
  5
93F
330
18
100
AcDbEntity
  8
外形線
100
AcDbCircle
 10
468.4516785170244
 20
175.3103143586663
 30
0.0
 40
4.0
100
AcDbArc
 50
194.9005966878301
 51
270.0
  0
DIMENSION
  5
9A9
330
18
100
AcDbEntity
  8
文字
100
AcDbDimension
  2
*D3
 10
97.55400658467412
 20
35.24870708865865
 30
0.0
 11
54.05400658467411
 21
37.12370708865865
 31
0.0
 12
-4.269600061580376
 22
0.0
 32
0.0
 70
    32
 71
     5
 42
-1.0
  3
STYLE3
100
AcDbAlignedDimension
 13
10.55400658467411
 23
63.62855537038996
 33
0.0
 14
97.55400658467412
 24
63.62855537038996
 34
0.0
100
AcDbRotatedDimension
1001
ACAD
1000
DSTYLE
1002
{
1070
   271
1070
     2
1002
}
  0
DIMENSION
  5
9B6
330
18
100
AcDbEntity
  8
文字
100
AcDbDimension
  2
*D4
 10
122.0342036175368
 20
147.3103143586663
 30
0.0
 11
120.1592036175368
 21
174.3103143586663
 31
0.0
 70
    32
 71
     5
 42
-1.0
  3
STYLE3
100
AcDbAlignedDimension
 13
132.628609466449
 23
201.3103143586663
 33
0.0
 14
136.628609466449
 24
147.3103143586663
 34
0.0
 50
90.0
100
AcDbRotatedDimension
1001
ACAD
1000
DSTYLE
1002
{
1070
   271
1070
     2
1002
}
  0
DIMENSION
  5
9C2
330
18
100
AcDbEntity
  8
文字
100
AcDbDimension
  2
*D5
 10
122.0342036175368
 20
140.3103143586663
 30
0.0
 11
120.1592036175368
 21
143.8103143586663
 31
0.0
 70
    32
 71
     5
 42
-1.0
  3
STYLE3
100
AcDbAlignedDimension
 13
136.628609466449
 23
147.3103143586663
 33
0.0
 14
137.628609466449
 24
140.3103143586663
 34
0.0
 50
90.0
100
AcDbRotatedDimension
1001
ACAD
1000
DSTYLE
1002
{
1070
    75
1070
     1
1070
   271
1070
     2
1070
   279
1070
     1
1002
}
  0
DIMENSION
  5
9CF
330
18
100
AcDbEntity
  8
文字
100
AcDbDimension
  2
*D6
 10
114.2958855874615
 20
140.3103143586663
 30
0.0
 11
112.4208855874615
 21
170.8103143586663
 31
0.0
 70
    32
 71
     5
 42
-1.0
  3
STYLE3
100
AcDbAlignedDimension
 13
120.7842036175368
 23
201.3103143586663
 33
0.0
 14
120.7842036175368
 24
140.3103143586663
 34
0.0
 50
90.0
100
AcDbRotatedDimension
1001
ACAD
1000
DSTYLE
1002
{
1070
   271
1070
     2
1002
}
  0
DIMENSION
  5
9DB
330
18
100
AcDbEntity
  8
文字
100
AcDbDimension
  2
*D7
 10
114.2958855874615
 20
99.31031435866636
 30
0.0
 11
112.4208855874615
 21
119.8103143586663
 31
0.0
 70
    32
 71
     5
 42
-1.0
  3
STYLE3
100
AcDbAlignedDimension
 13
120.7842036175368
 23
140.3103143586663
 33
0.0
 14
137.628609466449
 24
99.31031435866634
 34
0.0
 50
90.0
100
AcDbRotatedDimension
1001
ACAD
1000
DSTYLE
1002
{
1070
    75
1070
     1
1070
   271
1070
     2
1070
   279
1070
     1
1002
}
  0
DIMENSION
  5
9E7
330
18
100
AcDbEntity
  8
文字
100
AcDbDimension
  2
*D8
 10
114.2958855874615
 20
62.31031435866636
 30
0.0
 11
112.4208855874615
 21
80.81031435866636
 31
0.0
 70
    32
 71
     5
 42
-1.0
  3
STYLE3
100
AcDbAlignedDimension
 13
137.628609466449
 23
99.31031435866634
 33
0.0
 14
191.628609466449
 24
62.31031435866634
 34
0.0
 50
90.0
100
AcDbRotatedDimension
1001
ACAD
1000
DSTYLE
1002
{
1070
    75
1070
     1
1070
   271
1070
     2
1070
   279
1070
     1
1002
}
  0
LINE
  5
9FC
330
18
100
AcDbEntity
  8
外形線
100
AcDbLine
 10
63.05400658467411
 20
95.31031435866635
 30
0.0
 11
63.05400658467411
 21
92.31031435866634
 31
0.0
  0
LINE
  5
9FD
330
18
100
AcDbEntity
  8
外形線
100
AcDbLine
 10
45.05400658467411
 20
95.31031435866635
 30
0.0
 11
45.05400658467411
 21
92.31031435866631
 31
0.0
  0
DIMENSION
  5
A0A
330
18
100
AcDbEntity
  8
文字
100
AcDbDimension
  2
*D9
 10
106.3790033917419
 20
62.31031435866636
 30
0.0
 11
103.84924148698
 21
181.5603143586664
 31
0.0
 70
    32
  1
(238.5)
 71
     5
 42
-1.0
  3
STYLE3
100
AcDbAlignedDimension
 13
146.628609466449
 23
300.8103143586664
 33
0.0
 14
113.0458855874615
 24
62.31031435866636
 34
0.0
 50
90.0
100
AcDbRotatedDimension
1001
ACAD
1000
DSTYLE
1002
{
1070
   271
1070
     2
1002
}
  0
LINE
  5
A2E
330
18
100
AcDbEntity
  8
想像線
100
AcDbLine
 10
446.6286094664489
 20
195.3449783957653
 30
0.0
 11
446.6286094664489
 21
137.2876793012264
 31
0.0
  0
DIMENSION
  5
A3B
330
18
100
AcDbEntity
  8
文字
100
AcDbDimension
  2
*D10
 10
446.6286094664489
 20
163.2188833508637
 30
0.0
 11
296.628609466449
 21
165.0938833508637
 31
0.0
 70
    32
 71
     5
 42
-1.0
  3
STYLE3
100
AcDbAlignedDimension
 13
146.628609466449
 23
167.6770466707655
 33
0.0
 14
446.6286094664489
 24
163.2188833508637
 34
0.0
100
AcDbRotatedDimension
1001
ACAD
1000
DSTYLE
1002
{
1070
   271
1070
     2
1002
}
  0
DIMENSION
  5
A5D
330
18
100
AcDbEntity
  8
文字
100
AcDbDimension
  2
*D11
 10
156.628609466449
 20
119.7376466720097
 30
0.0
 11
146.628609466449
 21
121.6126466720097
 31
0.0
 70
    32
  1
φ20
 71
     5
 42
-1.0
  3
STYLE3
100
AcDbAlignedDimension
 13
136.628609466449
 23
144.8103143586663
 33
0.0
 14
156.628609466449
 24
144.8103143586663
 34
0.0
100
AcDbRotatedDimension
1001
ACAD
1000
DSTYLE
1002
{
1070
   271
1070
     2
1002
}
  0
DIMENSION
  5
A72
330
18
100
AcDbEntity
  8
文字
100
AcDbDimension
  2
*D13
 10
59.05400658467411
 20
136.1355886751661
 30
0.0
 11
54.0540065846741
 21
136.1355886751661
 31
0.0
 70
   160
  1
φ10
 71
     5
 42
-1.0
  3
STYLE3
100
AcDbAlignedDimension
 13
49.05400658467408
 23
147.6103143586663
 33
0.0
 14
59.05400658467411
 24
147.6103143586663
 34
0.0
100
AcDbRotatedDimension
1001
ACAD
1000
DSTYLE
1002
{
1070
   271
1070
     2
1002
}
  0
DIMENSION
  5
AA0
330
18
100
AcDbEntity
  8
文字
100
AcDbDimension
  2
*D14
 10
246.276295615342
 20
192.3103143586663
 30
0.0
 11
244.4012956153419
 21
166.3103143586663
 31
0.0
 70
    32
 71
     5
 42
-1.0
  3
STYLE3
100
AcDbAlignedDimension
 13
249.1334512822072
 23
140.3103143586663
 33
0.0
 14
247.2286798148184
 24
192.3103143586663
 34
0.0
 50
90.0
100
AcDbRotatedDimension
1001
ACAD
1000
DSTYLE
1002
{
1070
   271
1070
     2
1002
}
  0
LINE
  5
AA1
330
18
100
AcDbEntity
  8
隠れ線2
100
AcDbLine
 10
204.4239725114183
 20
197.3103143586663
 30
0.0
 11
223.8591045063323
 21
197.3103143586663
 31
0.0
  0
LINE
  5
AA2
330
18
100
AcDbEntity
  8
隠れ線2
100
AcDbLine
 10
199.9085181609761
 20
192.3103143586663
 30
0.0
 11
218.34762649266
 21
192.3103143586663
 31
0.0
  0
LINE
  5
AA3
330
18
100
AcDbEntity
  8
外形線
100
AcDbLine
 10
223.8591045063323
 20
197.3103143586663
 30
0.0
 11
428.6286094664489
 21
197.3103143586663
 31
0.0
  0
LINE
  5
AA4
330
18
100
AcDbEntity
  8
外形線
100
AcDbLine
 10
218.34762649266
 20
192.3103143586663
 30
0.0
 11
434.628609466449
 21
192.3103143586663
 31
0.0
  0
DIMENSION
  5
AB1
330
18
100
AcDbEntity
  8
文字
100
AcDbDimension
  2
*D15
 10
63.05400658467411
 20
44.68852359979428
 30
0.0
 11
54.05400658467411
 21
46.56352359979428
 31
0.0
 70
    32
 71
     5
 42
-1.0
  3
STYLE3
100
AcDbAlignedDimension
 13
45.05400658467411
 23
61.31031435866638
 33
0.0
 14
63.05400658467411
 24
61.31031435866638
 34
0.0
100
AcDbRotatedDimension
1001
ACAD
1000
DSTYLE
1002
{
1070
   271
1070
     2
1002
}
  0
LINE
  5
ABD
330
18
100
AcDbEntity
  8
中心線
 48
0.4
100
AcDbLine
 10
58.11413730992024
 20
132.3103143586663
 30
0.0
 11
70.94929140518491
 21
132.3103143586663
 31
0.0
  0
LINE
  5
ABE
330
18
100
AcDbEntity
  8
外形線
100
AcDbLine
 10
68.95711207896798
 20
136.8103143586663
 30
0.0
 11
68.95711207896798
 21
127.8103143586663
 31
0.0
  0
LINE
  5
ABF
330
18
100
AcDbEntity
  8
外形線
100
AcDbLine
 10
66.45711207896798
 20
137.3103143586663
 30
0.0
 11
68.45711207896798
 21
137.3103143586663
 31
0.0
  0
LINE
  5
AC0
330
18
100
AcDbEntity
  8
外形線
100
AcDbLine
 10
66.45711207896798
 20
127.3103143586663
 30
0.0
 11
68.45711207896798
 21
127.3103143586663
 31
0.0
  0
LINE
  5
AC1
330
18
100
AcDbEntity
  8
外形線
100
AcDbLine
 10
68.45711207896798
 20
137.3103143586663
 30
0.0
 11
68.95711207896798
 21
136.8103143586663
 31
0.0
  0
LINE
  5
AC2
330
18
100
AcDbEntity
  8
外形線
100
AcDbLine
 10
68.95711207896798
 20
127.8103143586663
 30
0.0
 11
68.45711207896798
 21
127.3103143586663
 31
0.0
  0
LINE
  5
AC3
330
18
100
AcDbEntity
  8
外形線
100
AcDbLine
 10
66.45711207896798
 20
127.3103143586663
 30
0.0
 11
65.95711207896798
 21
127.8103143586663
 31
0.0
  0
LINE
  5
AC4
330
18
100
AcDbEntity
  8
外形線
100
AcDbLine
 10
65.95711207896798
 20
136.8103143586663
 30
0.0
 11
66.45711207896798
 21
137.3103143586663
 31
0.0
  0
LINE
  5
AC5
330
18
100
AcDbEntity
  8
外形線
100
AcDbLine
 10
68.45711207896798
 20
137.3103143586663
 30
0.0
 11
68.45711207896798
 21
127.3103143586663
 31
0.0
  0
LINE
  5
AC6
330
18
100
AcDbEntity
  8
外形線
100
AcDbLine
 10
66.45711207896798
 20
137.3103143586663
 30
0.0
 11
66.45711207896798
 21
127.3103143586663
 31
0.0
  0
LINE
  5
AC7
330
18
100
AcDbEntity
  8
外形線
100
AcDbLine
 10
65.95711207896798
 20
136.8103143586663
 30
0.0
 11
65.95711207896798
 21
127.8103143586663
 31
0.0
  0
LINE
  5
AC8
330
18
100
AcDbEntity
  8
外形線
100
AcDbLine
 10
63.05400658467411
 20
133.6103143586663
 30
0.0
 11
65.95711207896798
 21
133.6103143586663
 31
0.0
  0
LINE
  5
AC9
330
18
100
AcDbEntity
  8
外形線
100
AcDbLine
 10
63.05400658467411
 20
131.0103143586663
 30
0.0
 11
65.95711207896798
 21
131.0103143586663
 31
0.0
  0
LINE
  5
ACA
330
18
100
AcDbEntity
  8
中心線
 48
0.4
100
AcDbLine
 10
63.05400658467411
 20
133.1103143586663
 30
0.0
 11
65.95711207896798
 21
133.1103143586663
 31
0.0
  0
LINE
  5
ACB
330
18
100
AcDbEntity
  8
中心線
 48
0.4
100
AcDbLine
 10
63.05400658467411
 20
131.5103143586663
 30
0.0
 11
65.95711207896798
 21
131.5103143586663
 31
0.0
  0
LINE
  5
ACC
330
18
100
AcDbEntity
  8
中心線
 48
0.4
100
AcDbLine
 10
66.45711207896798
 20
132.8489536788617
 30
0.0
 11
68.45711207896798
 21
134.003654217241
 31
0.0
  0
LINE
  5
ACD
330
18
100
AcDbEntity
  8
中心線
 48
0.4
100
AcDbLine
 10
66.45711207896798
 20
134.003654217241
 30
0.0
 11
68.45711207896798
 21
135.1583547556203
 31
0.0
  0
LINE
  5
ACE
330
18
100
AcDbEntity
  8
中心線
 48
0.4
100
AcDbLine
 10
66.45711207896797
 20
135.1583547556203
 30
0.0
 11
68.45711207896798
 21
136.3130552939995
 31
0.0
  0
LINE
  5
ACF
330
18
100
AcDbEntity
  8
中心線
 48
0.4
100
AcDbLine
 10
66.45711207896798
 20
136.3130552939995
 30
0.0
 11
68.18441544727943
 21
137.3103143586663
 31
0.0
  0
LINE
  5
AD0
330
18
100
AcDbEntity
  8
中心線
 48
0.4
100
AcDbLine
 10
67.52416140943509
 20
132.3103143586663
 30
0.0
 11
68.45711207896798
 21
132.8489536788617
 31
0.0
  0
LINE
  5
AD1
330
18
100
AcDbEntity
  8
中心線
 48
0.4
100
AcDbLine
 10
67.72201697907267
 20
137.3103143586663
 30
0.0
 11
68.45711207896798
 21
136.8859070048618
 31
0.0
  0
LINE
  5
AD2
330
18
100
AcDbEntity
  8
中心線
 48
0.4
100
AcDbLine
 10
66.45711207896798
 20
133.4218053897239
 30
0.0
 11
68.45711207896798
 21
132.2671048513447
 31
0.0
  0
LINE
  5
AD3
330
18
100
AcDbEntity
  8
中心線
 48
0.4
100
AcDbLine
 10
66.45711207896797
 20
134.5765059281032
 30
0.0
 11
68.45711207896798
 21
133.421805389724
 31
0.0
  0
LINE
  5
AD4
330
18
100
AcDbEntity
  8
中心線
 48
0.4
100
AcDbLine
 10
66.45711207896798
 20
135.7312064664825
 30
0.0
 11
68.45711207896798
 21
134.5765059281033
 31
0.0
  0
LINE
  5
AD5
330
18
100
AcDbEntity
  8
中心線
 48
0.4
100
AcDbLine
 10
66.45711207896798
 20
136.8859070048618
 30
0.0
 11
68.45711207896798
 21
135.7312064664825
 31
0.0
  0
LINE
  5
ADC
330
18
100
AcDbEntity
  8
隠れ線2
100
AcDbLine
 10
166.628609466449
 20
230.5875011259762
 30
0.0
 11
166.628609466449
 21
202.8103143586663
 31
0.0
  0
LINE
  5
ADD
330
18
100
AcDbEntity
  8
隠れ線2
100
AcDbLine
 10
136.628609466449
 20
224.3103143586663
 30
0.0
 11
136.628609466449
 21
202.8103143586664
 31
0.0
  0
ARC
  5
ADE
330
18
100
AcDbEntity
  8
隠れ線2
100
AcDbCircle
 10
138.128609466449
 20
202.8103143586664
 30
0.0
 40
1.5
100
AcDbArc
 50
180.0
 51
270.0
  0
ARC
  5
ADF
330
18
100
AcDbEntity
  8
隠れ線2
100
AcDbCircle
 10
165.128609466449
 20
202.8103143586663
 30
0.0
 40
1.5
100
AcDbArc
 50
269.9999999999999
 51
0.0
  0
LINE
  5
AE0
330
18
100
AcDbEntity
  8
中心線
 48
0.3
100
AcDbLine
 10
157.3416831821216
 20
207.3103143586664
 30
0.0
 11
165.9156494638614
 21
207.3103143586663
 31
0.0
  0
LINE
  5
AE1
330
18
100
AcDbEntity
  8
中心線
 48
0.3
100
AcDbLine
 10
157.3416831821217
 20
221.3103143586664
 30
0.0
 11
165.9156494638614
 21
221.3103143586663
 31
0.0
  0
LINE
  5
AE2
330
18
100
AcDbEntity
  8
中心線
 48
0.3
100
AcDbLine
 10
161.628609466449
 20
224.9461289406274
 30
0.0
 11
161.628609466449
 21
216.6100027857531
 31
0.0
  0
CIRCLE
  5
AE3
330
18
100
AcDbEntity
  8
隠れ線2
 48
0.5
100
AcDbCircle
 10
161.628609466449
 20
221.3103143586663
 30
0.0
 40
1.649999999999999
  0
CIRCLE
  5
AE4
330
18
100
AcDbEntity
  8
隠れ線2
 48
0.5
100
AcDbCircle
 10
161.628609466449
 20
207.3103143586663
 30
0.0
 40
1.649999999999999
  0
LINE
  5
AE9
330
18
100
AcDbEntity
  8
中心線
 48
0.3
100
AcDbLine
 10
161.628609466449
 20
211.7341553449265
 30
0.0
 11
161.628609466449
 21
202.4543172993168
 31
0.0
  0
LINE
  5
AEB
330
18
100
AcDbEntity
  8
中心線
 48
0.3
100
AcDbLine
 10
142.3416831821217
 20
216.8103143586664
 30
0.0
 11
150.9156494638615
 21
216.8103143586663
 31
0.0
  0
CIRCLE
  5
AEC
330
18
100
AcDbEntity
  8
隠れ線2
 48
0.5
100
AcDbCircle
 10
146.628609466449
 20
216.8103143586663
 30
0.0
 40
1.649999999999999
  0
LINE
  5
AED
330
18
100
AcDbEntity
  8
隠れ線2
100
AcDbLine
 10
153.628609466449
 20
201.3103143586663
 30
0.0
 11
165.128609466449
 21
201.3103143586663
 31
0.0
  0
LINE
  5
B07
330
18
100
AcDbEntity
  8
外形線
100
AcDbLine
 10
66.05400658467411
 20
166.8956124938544
 30
0.0
 11
64.05400658467411
 21
166.8956124938544
 31
0.0
  0
LINE
  5
225A
330
18
100
AcDbEntity
  8
外形線
100
AcDbLine
 10
202.7463214194982
 20
358.4246224562466
 30
0.0
 11
322.7463214194982
 21
358.4246224562466
 31
0.0
  0
LINE
  5
225B
330
18
100
AcDbEntity
  8
外形線
100
AcDbLine
 10
202.7463214194982
 20
359.4246224562466
 30
0.0
 11
322.7463214194982
 21
359.4246224562466
 31
0.0
  0
TEXT
  5
225C
330
18
100
AcDbEntity
  8
文字
100
AcDbText
 10
203.8961584194982
 20
363.0300164562466
 30
0.0
 40
5.0
  1
Model No.K-1 Dial Sheet Gauge
  7
STYLE3
100
AcDbText
  0
TEXT
  5
225D
330
18
100
AcDbEntity
  8
0
  6
Continuous
100
AcDbText
 10
527.1439461444229
 20
5.975076438544871
 30
0.0
 40
3.0
  1
株式会社　尾崎製作所
  7
STYLE3
100
AcDbText
  0
TEXT
  5
225E
330
18
100
AcDbEntity
  8
0
  6
Continuous
100
AcDbText
 10
528.0184251444228
 20
2.187437438544868
 30
0.0
 40
2.1
  1
OZAKI MFG. CO., LTD.
  7
STYLE3
100
AcDbText
  0
LINE
  5
225F
330
18
100
AcDbEntity
  8
外形線
100
AcDbLine
 10
525.7949831444228
 20
10.05407443854487
 30
0.0
 11
525.7949831444228
 21
0.4392964385448686
 31
0.0
  0
TEXT
  5
2260
330
18
100
AcDbEntity
  8
0
  6
Continuous
100
AcDbText
 10
487.9008131444228
 20
4.226937438544869
 30
0.0
 40
2.399999999999999
  1
1/1
  7
STYLE3
100
AcDbText
  0
TEXT
  5
2261
330
18
100
AcDbEntity
  8
0
  6
Continuous
100
AcDbText
 10
497.6112241444227
 20
5.520521438544868
 30
0.0
 40
3.0
  1
日 付
  7
STYLE3
100
AcDbText
  0
TEXT
  5
2262
330
18
100
AcDbEntity
  8
0
  6
Continuous
100
AcDbText
 10
497.9945851444228
 20
2.187438438544869
 30
0.0
 40
2.1
  1
Date
  7
STYLE3
100
AcDbText
  0
TEXT
  5
2263
330
18
100
AcDbEntity
  8
0
  6
Continuous
100
AcDbText
 10
478.2815241444228
 20
2.47879443854487
 30
0.0
 40
2.1
  1
Scale
  7
STYLE3
100
AcDbText
  0
TEXT
  5
2264
330
18
100
AcDbEntity
  8
0
  6
Continuous
100
AcDbText
 10
477.8183091444228
 20
5.39831643854487
 30
0.0
 40
3.0
  1
尺 度
  7
STYLE3
100
AcDbText
  0
TEXT
  5
2265
330
18
100
AcDbEntity
  8
0
  6
Continuous
100
AcDbText
 10
460.5004131444228
 20
5.689674438544869
 30
0.0
 40
3.0
  1
単位
  7
STYLE3
100
AcDbText
  0
TEXT
  5
2266
330
18
100
AcDbEntity
  8
0
  6
Continuous
100
AcDbText
 10
460.6721341444228
 20
2.187437438544868
 30
0.0
 40
2.1
  1
Unit
  7
STYLE3
100
AcDbText
  0
TEXT
  5
2267
330
18
100
AcDbEntity
  8
0
  6
Continuous
100
AcDbText
 10
468.5424611444227
 20
3.935580438544867
 30
0.0
 40
2.399999999999999
  1
mm
  7
STYLE3
100
AcDbText
  0
LINE
  5
2268
330
18
100
AcDbEntity
  8
外形線
100
AcDbLine
 10
459.0429441444228
 20
10.05407443854487
 30
0.0
 11
459.0429441444228
 21
0.4392964385448686
 31
0.0
  0
LINE
  5
2269
330
18
100
AcDbEntity
  8
外形線
100
AcDbLine
 10
476.5325611444228
 20
10.05407443854487
 30
0.0
 11
476.5325611444228
 21
0.4392964385448686
 31
0.0
  0
LINE
  5
226A
330
18
100
AcDbEntity
  8
外形線
100
AcDbLine
 10
496.0626341444228
 20
10.05407443854487
 30
0.0
 11
496.0626341444228
 21
0.4392964385448686
 31
0.0
  0
TEXT
  5
226B
330
18
100
AcDbEntity
  8
0
  6
Continuous
100
AcDbText
 10
427.5616351444228
 20
5.683719438544869
 30
0.0
 40
3.0
  1
三　　角　　法
  7
STYLE3
100
AcDbText
  0
LINE
  5
226C
330
18
100
AcDbEntity
  8
外形線
100
AcDbLine
 10
423.7722161444227
 20
0.4392964385448686
 30
0.0
 11
423.7722161444227
 21
20.83427943854487
 31
0.0
  0
TEXT
  5
226D
330
18
100
AcDbEntity
  8
0
  6
Continuous
100
AcDbText
 10
424.9381921444228
 20
2.187436438544871
 30
0.0
 40
2.1
  1
3RD Angle Projection
  7
STYLE3
100
AcDbText
  0
TEXT
  5
226E
330
18
100
AcDbEntity
  8
0
  6
Continuous
100
AcDbText
 10
506.7393921444228
 20
3.935578438544869
 30
0.0
 40
2.1
  1
2010.06.16
  7
STYLE3
100
AcDbText
  0
TEXT
  5
226F
330
18
100
AcDbEntity
  8
0
  6
Continuous
100
AcDbText
 10
425.5211781444227
 20
15.88121243854487
 30
0.0
 40
3.5
  1
仕様及び外観は予告なく変更される場合がございますのでご了承下さい。
  7
STYLE3
100
AcDbText
  0
TEXT
  5
2270
330
18
100
AcDbEntity
  8
0
  6
Continuous
100
AcDbText
 10
425.2296841444228
 20
11.95206443854487
 30
0.0
 40
2.1
  1
Design and specifications are subject to change without notice for future improvement.
  7
STYLE3
100
AcDbText
  0
LINE
  5
2271
330
18
100
AcDbEntity
  8
外形線
100
AcDbLine
 10
423.7722161444227
 20
10.05407443854487
 30
0.0
 11
564.5636341444228
 21
10.05407443854487
 31
0.0
  0
LINE
  5
2272
330
18
100
AcDbEntity
  8
外形線
100
AcDbLine
 10
423.7722161444227
 20
20.83427943854487
 30
0.0
 11
564.5636341444228
 21
20.83427943854487
 31
0.0
  0
ENDSEC
  0
SECTION
  2
OBJECTS
  0
DICTIONARY
  5
C
330
0
100
AcDbDictionary
281
     1
  3
ACAD_COLOR
350
B2B
  3
ACAD_GROUP
350
D
  3
ACAD_LAYOUT
350
B2E
  3
ACAD_MATERIAL
350
B2A
  3
ACAD_MLINESTYLE
350
1B
  3
ACAD_PLOTSETTINGS
350
B2F
  3
ACAD_PLOTSTYLENAME
350
B28
  3
ACAD_TABLESTYLE
350
B2C
  3
AcDbVariableDictionary
350
B38
  0
DICTIONARY
  5
1DB8
330
18
100
AcDbDictionary
280
     1
281
     1
  3
ACAD_SORTENTS
360
1DB9
  0
DICTIONARY
  5
B2B
102
{ACAD_REACTORS
330
C
102
}
330
C
100
AcDbDictionary
281
     1
  0
DICTIONARY
  5
D
102
{ACAD_REACTORS
330
C
102
}
330
C
100
AcDbDictionary
281
     1
  3
*A1
350
2212
  3
*A2
350
2227
  0
DICTIONARY
  5
B2E
102
{ACAD_REACTORS
330
C
102
}
330
C
100
AcDbDictionary
281
     1
  3
Model
350
B30
  3
レイアウト1
350
B31
  0
DICTIONARY
  5
B2A
102
{ACAD_REACTORS
330
C
102
}
330
C
100
AcDbDictionary
281
     1
  0
DICTIONARY
  5
1B
102
{ACAD_REACTORS
330
C
102
}
330
C
100
AcDbDictionary
281
     1
  3
STANDARD
350
1C
  0
DICTIONARY
  5
B2F
102
{ACAD_REACTORS
330
C
102
}
330
C
100
AcDbDictionary
281
     1
  0
ACDBDICTIONARYWDFLT
  5
B28
102
{ACAD_REACTORS
330
C
102
}
330
C
100
AcDbDictionary
281
     1
  3
Normal
350
B29
100
AcDbDictionaryWithDefault
340
B29
  0
DICTIONARY
  5
B2C
102
{ACAD_REACTORS
330
C
102
}
330
C
100
AcDbDictionary
281
     1
  3
Standard
350
B2D
  0
DICTIONARY
  5
B38
102
{ACAD_REACTORS
330
C
102
}
330
C
100
AcDbDictionary
281
     1
  3
CTABLESTYLE
350
B39
  0
SORTENTSTABLE
  5
1DB9
102
{ACAD_REACTORS
330
1DB8
102
}
330
1DB8
100
AcDbSortentsTable
330
18
331
1C2
  5
1C2
331
184
  5
184
331
5C0
  5
5C0
331
8BF
  5
8BF
331
889
  5
889
331
84B
  5
84B
331
815
  5
815
331
7B8
  5
7B8
331
782
  5
782
331
744
  5
744
331
763
  5
763
331
7D7
  5
7D7
331
7F6
  5
7F6
331
82C
  5
82C
331
86A
  5
86A
331
8A0
  5
8A0
331
8DE
  5
8DE
331
8FD
  5
8FD
331
5E0
  5
5E0
331
5C1
  5
5C1
331
185
  5
185
331
1C3
  5
1C3
331
8DF
  5
8DF
331
88A
  5
88A
331
84C
  5
84C
331
816
  5
816
331
7D8
  5
7D8
331
783
  5
783
331
745
  5
745
331
764
  5
764
331
7B9
  5
7B9
331
7F7
  5
7F7
331
82D
  5
82D
331
86B
  5
86B
331
8A1
  5
8A1
331
8C0
  5
8C0
331
8FE
  5
8FE
331
5E1
  5
5E1
331
5C2
  5
5C2
331
186
  5
186
331
1C4
  5
1C4
331
600
  5
600
331
8E0
  5
8E0
331
8A2
  5
8A2
331
84D
  5
84D
331
817
  5
817
331
7D9
  5
7D9
331
7BA
  5
7BA
331
746
  5
746
331
765
  5
765
331
784
  5
784
331
7F8
  5
7F8
331
82E
  5
82E
331
86C
  5
86C
331
88B
  5
88B
331
8C1
  5
8C1
331
8FF
  5
8FF
331
5E2
  5
5E2
331
5AC
  5
5AC
331
187
  5
187
331
5C3
  5
5C3
331
601
  5
601
331
620
  5
620
331
8E1
  5
8E1
331
8A3
  5
8A3
331
86D
  5
86D
331
82F
  5
82F
331
7DA
  5
7DA
331
7BB
  5
7BB
331
766
  5
766
331
747
  5
747
331
785
  5
785
331
7F9
  5
7F9
331
84E
  5
84E
331
88C
  5
88C
331
8C2
  5
8C2
331
900
  5
900
331
638
  5
638
331
602
  5
602
331
5AD
  5
5AD
331
1A7
  5
1A7
331
188
  5
188
331
1C6
  5
1C6
331
5C4
  5
5C4
331
5E3
  5
5E3
331
621
  5
621
331
8E2
  5
8E2
331
8A4
  5
8A4
331
86E
  5
86E
331
830
  5
830
331
7DB
  5
7DB
331
7BC
  5
7BC
331
767
  5
767
331
786
  5
786
331
7FA
  5
7FA
331
84F
  5
84F
331
88D
  5
88D
331
8C3
  5
8C3
331
901
  5
901
331
639
  5
639
331
603
  5
603
331
5C5
  5
5C5
331
1A8
  5
1A8
331
189
  5
189
331
1C7
  5
1C7
331
5AE
  5
5AE
331
5E4
  5
5E4
331
622
  5
622
331
658
  5
658
331
902
  5
902
331
8A5
  5
8A5
331
86F
  5
86F
331
831
  5
831
331
7FB
  5
7FB
331
7BD
  5
7BD
331
787
  5
787
331
7DC
  5
7DC
331
850
  5
850
331
88E
  5
88E
331
8C4
  5
8C4
331
8E3
  5
8E3
331
63A
  5
63A
331
604
  5
604
331
5C6
  5
5C6
331
1C8
  5
1C8
331
18A
  5
18A
331
1A9
  5
1A9
331
5AF
  5
5AF
331
5E5
  5
5E5
331
623
  5
623
331
659
  5
659
331
678
  5
678
331
903
  5
903
331
8C5
  5
8C5
331
870
  5
870
331
832
  5
832
331
7FC
  5
7FC
331
7BE
  5
7BE
331
7DD
  5
7DD
331
851
  5
851
331
88F
  5
88F
331
8A6
  5
8A6
331
8E4
  5
8E4
331
698
  5
698
331
65A
  5
65A
331
605
  5
605
331
5C7
  5
5C7
331
1C9
  5
1C9
331
18B
  5
18B
331
1AA
  5
1AA
331
5B0
  5
5B0
331
5E6
  5
5E6
331
624
  5
624
331
63B
  5
63B
331
679
  5
679
331
904
  5
904
331
8C6
  5
8C6
331
8A7
  5
8A7
331
833
  5
833
331
7FD
  5
7FD
331
7BF
  5
7BF
331
7DE
  5
7DE
331
852
  5
852
331
871
  5
871
331
8E5
  5
8E5
331
699
  5
699
331
65B
  5
65B
331
625
  5
625
331
5C8
  5
5C8
331
1CA
  5
1CA
331
18C
  5
18C
331
1AB
  5
1AB
331
5B1
  5
5B1
331
5E7
  5
5E7
331
606
  5
606
331
63C
  5
63C
331
67A
  5
67A
331
6B0
  5
6B0
331
905
  5
905
331
8C7
  5
8C7
331
8A8
  5
8A8
331
853
  5
853
331
7FE
  5
7FE
331
7DF
  5
7DF
331
834
  5
834
331
872
  5
872
331
8E6
  5
8E6
331
69A
  5
69A
331
65C
  5
65C
331
626
  5
626
331
5E8
  5
5E8
331
18D
  5
18D
331
1AC
  5
1AC
331
5B2
  5
5B2
331
5C9
  5
5C9
331
607
  5
607
331
63D
  5
63D
331
67B
  5
67B
331
6B1
  5
6B1
331
6D0
  5
6D0
331
8C8
  5
8C8
331
8A9
  5
8A9
331
854
  5
854
331
835
  5
835
331
7FF
  5
7FF
331
873
  5
873
331
8E7
  5
8E7
331
906
  5
906
331
6F0
  5
6F0
331
6B2
  5
6B2
331
65D
  5
65D
331
627
  5
627
331
5E9
  5
5E9
331
18E
  5
18E
331
1AD
  5
1AD
331
5B3
  5
5B3
331
5CA
  5
5CA
331
608
  5
608
331
63E
  5
63E
331
67C
  5
67C
331
69B
  5
69B
331
6D1
  5
6D1
331
8E8
  5
8E8
331
8AA
  5
8AA
331
855
  5
855
331
836
  5
836
331
874
  5
874
331
8C9
  5
8C9
331
907
  5
907
331
6F1
  5
6F1
331
6B3
  5
6B3
331
67D
  5
67D
331
628
  5
628
331
5EA
  5
5EA
331
1AE
  5
1AE
331
18F
  5
18F
331
5B4
  5
5B4
331
5CB
  5
5CB
331
609
  5
609
331
63F
  5
63F
331
65E
  5
65E
331
69C
  5
69C
331
6D2
  5
6D2
331
710
  5
710
331
8E9
  5
8E9
331
8AB
  5
8AB
331
856
  5
856
331
837
  5
837
331
875
  5
875
331
8CA
  5
8CA
331
6F2
  5
6F2
331
6B4
  5
6B4
331
67E
  5
67E
331
640
  5
640
331
5EB
  5
5EB
331
5B5
  5
5B5
331
1AF
  5
1AF
331
190
  5
190
331
5CC
  5
5CC
331
60A
  5
60A
331
629
  5
629
331
65F
  5
65F
331
69D
  5
69D
331
6D3
  5
6D3
331
711
  5
711
331
8EA
  5
8EA
331
8AC
  5
8AC
331
876
  5
876
331
857
  5
857
331
8CB
  5
8CB
331
712
  5
712
331
6B5
  5
6B5
331
67F
  5
67F
331
641
  5
641
331
60B
  5
60B
331
5B6
  5
5B6
331
1B0
  5
1B0
331
191
  5
191
331
5CD
  5
5CD
331
5EC
  5
5EC
331
62A
  5
62A
331
660
  5
660
331
69E
  5
69E
331
6D4
  5
6D4
331
6F3
  5
6F3
331
8EB
  5
8EB
331
8AD
  5
8AD
331
877
  5
877
331
8CC
  5
8CC
331
713
  5
713
331
6D5
  5
6D5
331
680
  5
680
331
642
  5
642
331
60C
  5
60C
331
5CE
  5
5CE
331
1B1
  5
1B1
331
192
  5
192
331
5B7
  5
5B7
331
5ED
  5
5ED
331
62B
  5
62B
331
661
  5
661
331
69F
  5
69F
331
6B6
  5
6B6
331
6F4
  5
6F4
331
8AE
  5
8AE
331
8CD
  5
8CD
331
8EC
  5
8EC
331
714
  5
714
331
6D6
  5
6D6
331
6A0
  5
6A0
331
643
  5
643
331
60D
  5
60D
331
5CF
  5
5CF
331
193
  5
193
331
1B2
  5
1B2
331
5B8
  5
5B8
331
5EE
  5
5EE
331
62C
  5
62C
331
662
  5
662
331
681
  5
681
331
6B7
  5
6B7
331
6F5
  5
6F5
331
8CE
  5
8CE
331
8AF
  5
8AF
331
8ED
  5
8ED
331
715
  5
715
331
6D7
  5
6D7
331
6A1
  5
6A1
331
663
  5
663
331
60E
  5
60E
331
5D0
  5
5D0
331
194
  5
194
331
1B3
  5
1B3
331
5EF
  5
5EF
331
62D
  5
62D
331
644
  5
644
331
682
  5
682
331
6B8
  5
6B8
331
6F6
  5
6F6
331
8CF
  5
8CF
331
8EE
  5
8EE
331
716
  5
716
331
6D8
  5
6D8
331
6A2
  5
6A2
331
664
  5
664
331
62E
  5
62E
331
5D1
  5
5D1
331
195
  5
195
331
1B4
  5
1B4
331
5BA
  5
5BA
331
5F0
  5
5F0
331
60F
  5
60F
331
645
  5
645
331
683
  5
683
331
6B9
  5
6B9
331
6F7
  5
6F7
331
8EF
  5
8EF
331
6D9
  5
6D9
331
6A3
  5
6A3
331
665
  5
665
331
62F
  5
62F
331
5F1
  5
5F1
331
196
  5
196
331
1B5
  5
1B5
331
5BB
  5
5BB
331
5D2
  5
5D2
331
610
  5
610
331
646
  5
646
331
684
  5
684
331
6BA
  5
6BA
331
6F8
  5
6F8
331
717
  5
717
331
6F9
  5
6F9
331
6A4
  5
6A4
331
666
  5
666
331
630
  5
630
331
5F2
  5
5F2
331
197
  5
197
331
1B6
  5
1B6
331
5BC
  5
5BC
331
5D3
  5
5D3
331
611
  5
611
331
647
  5
647
331
685
  5
685
331
6BB
  5
6BB
331
6DA
  5
6DA
331
718
  5
718
331
6FA
  5
6FA
331
6BC
  5
6BC
331
667
  5
667
331
631
  5
631
331
5F3
  5
5F3
331
1B7
  5
1B7
331
198
  5
198
331
5BD
  5
5BD
331
5D4
  5
5D4
331
612
  5
612
331
648
  5
648
331
686
  5
686
331
6A5
  5
6A5
331
6DB
  5
6DB
331
719
  5
719
331
908
  5
908
331
6FB
  5
6FB
331
6BD
  5
6BD
331
687
  5
687
331
632
  5
632
331
5F4
  5
5F4
331
5BE
  5
5BE
331
1B8
  5
1B8
331
199
  5
199
331
5D5
  5
5D5
331
613
  5
613
331
649
  5
649
331
668
  5
668
331
6A6
  5
6A6
331
6DC
  5
6DC
331
71A
  5
71A
331
909
  5
909
331
928
  5
928
331
6FC
  5
6FC
331
6BE
  5
6BE
331
688
  5
688
331
669
  5
669
331
5F5
  5
5F5
331
5BF
  5
5BF
331
1B9
  5
1B9
331
19A
  5
19A
331
5D6
  5
5D6
331
614
  5
614
331
633
  5
633
331
6A7
  5
6A7
331
6DD
  5
6DD
331
71B
  5
71B
331
929
  5
929
331
90A
  5
90A
331
71C
  5
71C
331
6BF
  5
6BF
331
689
  5
689
331
64B
  5
64B
331
615
  5
615
331
1BA
  5
1BA
331
19B
  5
19B
331
5D7
  5
5D7
331
5F6
  5
5F6
331
634
  5
634
331
66A
  5
66A
331
6A8
  5
6A8
331
6DE
  5
6DE
331
6FD
  5
6FD
331
92A
  5
92A
331
90B
  5
90B
331
970
  5
970
331
71D
  5
71D
331
6DF
  5
6DF
331
68A
  5
68A
331
64C
  5
64C
331
616
  5
616
331
1BB
  5
1BB
331
19C
  5
19C
331
5D8
  5
5D8
331
5F7
  5
5F7
331
635
  5
635
331
66B
  5
66B
331
6A9
  5
6A9
331
6C0
  5
6C0
331
6FE
  5
6FE
331
92B
  5
92B
331
90C
  5
90C
331
971
  5
971
331
71E
  5
71E
331
6E0
  5
6E0
331
6AA
  5
6AA
331
64D
  5
64D
331
617
  5
617
331
5D9
  5
5D9
331
19D
  5
19D
331
1BC
  5
1BC
331
5F8
  5
5F8
331
636
  5
636
331
66C
  5
66C
331
68B
  5
68B
331
6C1
  5
6C1
331
6FF
  5
6FF
331
991
  5
991
331
92C
  5
92C
331
90D
  5
90D
331
972
  5
972
331
71F
  5
71F
331
6E1
  5
6E1
331
6AB
  5
6AB
331
66D
  5
66D
331
618
  5
618
331
5DA
  5
5DA
331
19E
  5
19E
331
1BD
  5
1BD
331
5F9
  5
5F9
331
637
  5
637
331
64E
  5
64E
331
68C
  5
68C
331
6C2
  5
6C2
331
700
  5
700
331
992
  5
992
331
90E
  5
90E
331
92D
  5
92D
331
973
  5
973
331
6E2
  5
6E2
331
6AC
  5
6AC
331
66E
  5
66E
331
64F
  5
64F
331
5DB
  5
5DB
331
19F
  5
19F
331
1BE
  5
1BE
331
5FA
  5
5FA
331
619
  5
619
331
68D
  5
68D
331
6C3
  5
6C3
331
701
  5
701
331
720
  5
720
331
993
  5
993
331
90F
  5
90F
331
92E
  5
92E
331
974
  5
974
331
702
  5
702
331
6AD
  5
6AD
331
66F
  5
66F
331
650
  5
650
331
5FB
  5
5FB
331
1BF
  5
1BF
331
5DC
  5
5DC
331
61A
  5
61A
331
68E
  5
68E
331
6C4
  5
6C4
331
6E3
  5
6E3
331
721
  5
721
331
994
  5
994
331
910
  5
910
331
92F
  5
92F
331
975
  5
975
331
703
  5
703
331
6C5
  5
6C5
331
670
  5
670
331
651
  5
651
331
5FC
  5
5FC
331
5DD
  5
5DD
331
61B
  5
61B
331
68F
  5
68F
331
6AE
  5
6AE
331
6E4
  5
6E4
331
722
  5
722
331
995
  5
995
331
911
  5
911
331
930
  5
930
331
704
  5
704
331
6C6
  5
6C6
331
690
  5
690
331
652
  5
652
331
5FD
  5
5FD
331
5DE
  5
5DE
331
61C
  5
61C
331
671
  5
671
331
6AF
  5
6AF
331
6E5
  5
6E5
331
723
  5
723
331
912
  5
912
331
931
  5
931
331
705
  5
705
331
6C7
  5
6C7
331
691
  5
691
331
653
  5
653
331
5FE
  5
5FE
331
5DF
  5
5DF
331
61D
  5
61D
331
672
  5
672
331
6E6
  5
6E6
331
724
  5
724
331
913
  5
913
331
932
  5
932
331
9B6
  5
9B6
331
725
  5
725
331
6C8
  5
6C8
331
692
  5
692
331
654
  5
654
331
61E
  5
61E
331
5FF
  5
5FF
331
673
  5
673
331
6E7
  5
6E7
331
706
  5
706
331
933
  5
933
331
914
  5
914
331
A72
  5
A72
331
726
  5
726
331
6E8
  5
6E8
331
693
  5
693
331
655
  5
655
331
61F
  5
61F
331
674
  5
674
331
6C9
  5
6C9
331
707
  5
707
331
934
  5
934
331
915
  5
915
331
AB1
  5
AB1
331
AD0
  5
AD0
331
727
  5
727
331
6E9
  5
6E9
331
6CA
  5
6CA
331
656
  5
656
331
675
  5
675
331
694
  5
694
331
708
  5
708
331
935
  5
935
331
916
  5
916
331
AD1
  5
AD1
331
6EA
  5
6EA
331
6CB
  5
6CB
331
676
  5
676
331
657
  5
657
331
695
  5
695
331
709
  5
709
331
936
  5
936
331
917
  5
917
331
99B
  5
99B
331
AD2
  5
AD2
331
6EB
  5
6EB
331
6CC
  5
6CC
331
677
  5
677
331
696
  5
696
331
70A
  5
70A
331
918
  5
918
331
937
  5
937
331
AD3
  5
AD3
331
728
  5
728
331
70B
  5
70B
331
6CD
  5
6CD
331
697
  5
697
331
6EC
  5
6EC
331
9DB
  5
9DB
331
919
  5
919
331
938
  5
938
331
97E
  5
97E
331
AD4
  5
AD4
331
729
  5
729
331
748
  5
748
331
70C
  5
70C
331
6CE
  5
6CE
331
6ED
  5
6ED
331
AD5
  5
AD5
331
97F
  5
97F
331
91A
  5
91A
331
939
  5
939
331
72A
  5
72A
331
749
  5
749
331
768
  5
768
331
70D
  5
70D
331
6CF
  5
6CF
331
6EE
  5
6EE
331
788
  5
788
331
74A
  5
74A
331
980
  5
980
331
91B
  5
91B
331
93A
  5
93A
331
9FC
  5
9FC
331
72B
  5
72B
331
769
  5
769
331
70E
  5
70E
331
6EF
  5
6EF
331
789
  5
789
331
74B
  5
74B
331
72C
  5
72C
331
76A
  5
76A
331
7A0
  5
7A0
331
981
  5
981
331
91C
  5
91C
331
93B
  5
93B
331
9FD
  5
9FD
331
AD7
  5
AD7
331
70F
  5
70F
331
78A
  5
78A
331
74C
  5
74C
331
72D
  5
72D
331
76B
  5
76B
331
7A1
  5
7A1
331
7C0
  5
7C0
331
B07
  5
B07
331
982
  5
982
331
93C
  5
93C
331
91D
  5
91D
331
AD8
  5
AD8
331
7E0
  5
7E0
331
7A2
  5
7A2
331
74D
  5
74D
331
72E
  5
72E
331
76C
  5
76C
331
78B
  5
78B
331
7C1
  5
7C1
331
983
  5
983
331
93D
  5
93D
331
91E
  5
91E
331
964
  5
964
331
A2E
  5
A2E
331
AD9
  5
AD9
331
7E1
  5
7E1
331
7A3
  5
7A3
331
76D
  5
76D
331
72F
  5
72F
331
74E
  5
74E
331
78C
  5
78C
331
7C2
  5
7C2
331
800
  5
800
331
93E
  5
93E
331
91F
  5
91F
331
965
  5
965
331
9C2
  5
9C2
331
7E2
  5
7E2
331
7A4
  5
7A4
331
76E
  5
76E
331
730
  5
730
331
74F
  5
74F
331
78D
  5
78D
331
7C3
  5
7C3
331
801
  5
801
331
818
  5
818
331
93F
  5
93F
331
920
  5
920
331
966
  5
966
331
838
  5
838
331
802
  5
802
331
7A5
  5
7A5
331
76F
  5
76F
331
731
  5
731
331
750
  5
750
331
78E
  5
78E
331
7C4
  5
7C4
331
7E3
  5
7E3
331
819
  5
819
331
ADC
  5
ADC
331
921
  5
921
331
967
  5
967
331
A0A
  5
A0A
331
ABD
  5
ABD
331
839
  5
839
331
803
  5
803
331
7C5
  5
7C5
331
770
  5
770
331
732
  5
732
331
751
  5
751
331
78F
  5
78F
331
7A6
  5
7A6
331
7E4
  5
7E4
331
81A
  5
81A
331
858
  5
858
331
ADD
  5
ADD
331
922
  5
922
331
968
  5
968
331
ABE
  5
ABE
331
83A
  5
83A
331
804
  5
804
331
7C6
  5
7C6
331
790
  5
790
331
733
  5
733
331
752
  5
752
331
771
  5
771
331
7A7
  5
7A7
331
7E5
  5
7E5
331
81B
  5
81B
331
859
  5
859
331
878
  5
878
331
ADE
  5
ADE
331
923
  5
923
331
969
  5
969
331
A3B
  5
A3B
331
AA0
  5
AA0
331
ABF
  5
ABF
331
890
  5
890
331
85A
  5
85A
331
805
  5
805
331
7C7
  5
7C7
331
791
  5
791
331
753
  5
753
331
734
  5
734
331
772
  5
772
331
7A8
  5
7A8
331
7E6
  5
7E6
331
81C
  5
81C
331
83B
  5
83B
331
879
  5
879
331
ADF
  5
ADF
331
924
  5
924
331
96A
  5
96A
331
AA1
  5
AA1
331
AC0
  5
AC0
331
891
  5
891
331
85B
  5
85B
331
81D
  5
81D
331
7C8
  5
7C8
331
792
  5
792
331
754
  5
754
331
735
  5
735
331
773
  5
773
331
7A9
  5
7A9
331
7E7
  5
7E7
331
806
  5
806
331
83C
  5
83C
331
87A
  5
87A
331
8B0
  5
8B0
331
AA2
  5
AA2
331
925
  5
925
331
96B
  5
96B
331
9A9
  5
9A9
331
9E7
  5
9E7
331
AC1
  5
AC1
331
AE0
  5
AE0
331
892
  5
892
331
85C
  5
85C
331
81E
  5
81E
331
7E8
  5
7E8
331
793
  5
793
331
755
  5
755
331
736
  5
736
331
774
  5
774
331
7AA
  5
7AA
331
7C9
  5
7C9
331
807
  5
807
331
83D
  5
83D
331
87B
  5
87B
331
8B1
  5
8B1
331
8D0
  5
8D0
331
AC2
  5
AC2
331
A5D
  5
A5D
331
94D
  5
94D
331
926
  5
926
331
96C
  5
96C
331
AA3
  5
AA3
331
AE1
  5
AE1
331
8F0
  5
8F0
331
8B2
  5
8B2
331
85D
  5
85D
331
81F
  5
81F
331
7E9
  5
7E9
331
7AB
  5
7AB
331
756
  5
756
331
737
  5
737
331
775
  5
775
331
794
  5
794
331
7CA
  5
7CA
331
808
  5
808
331
83E
  5
83E
331
87C
  5
87C
331
893
  5
893
331
8D1
  5
8D1
331
AC3
  5
AC3
331
94E
  5
94E
331
927
  5
927
331
96D
  5
96D
331
AA4
  5
AA4
331
AE2
  5
AE2
331
8F1
  5
8F1
331
8B3
  5
8B3
331
87D
  5
87D
331
820
  5
820
331
7EA
  5
7EA
331
7AC
  5
7AC
331
776
  5
776
331
738
  5
738
331
757
  5
757
331
795
  5
795
331
7CB
  5
7CB
331
809
  5
809
331
83F
  5
83F
331
85E
  5
85E
331
894
  5
894
331
8D2
  5
8D2
331
94F
  5
94F
331
96E
  5
96E
331
AC4
  5
AC4
331
AE3
  5
AE3
331
8F2
  5
8F2
331
8B4
  5
8B4
331
87E
  5
87E
331
840
  5
840
331
7EB
  5
7EB
331
7AD
  5
7AD
331
777
  5
777
331
739
  5
739
331
758
  5
758
331
796
  5
796
331
7CC
  5
7CC
331
80A
  5
80A
331
821
  5
821
331
85F
  5
85F
331
895
  5
895
331
8D3
  5
8D3
331
AC5
  5
AC5
331
96F
  5
96F
331
AE4
  5
AE4
331
8B5
  5
8B5
331
87F
  5
87F
331
841
  5
841
331
80B
  5
80B
331
7AE
  5
7AE
331
778
  5
778
331
73A
  5
73A
331
759
  5
759
331
797
  5
797
331
7CD
  5
7CD
331
7EC
  5
7EC
331
822
  5
822
331
860
  5
860
331
896
  5
896
331
8D4
  5
8D4
331
8F3
  5
8F3
331
AC6
  5
AC6
331
8D5
  5
8D5
331
880
  5
880
331
842
  5
842
331
80C
  5
80C
331
7CE
  5
7CE
331
779
  5
779
331
73B
  5
73B
331
75A
  5
75A
331
798
  5
798
331
7AF
  5
7AF
331
7ED
  5
7ED
331
823
  5
823
331
861
  5
861
331
897
  5
897
331
8B6
  5
8B6
331
8F4
  5
8F4
331
AC7
  5
AC7
331
8D6
  5
8D6
331
898
  5
898
331
843
  5
843
331
80D
  5
80D
331
7CF
  5
7CF
331
799
  5
799
331
73C
  5
73C
331
75B
  5
75B
331
77A
  5
77A
331
7B0
  5
7B0
331
7EE
  5
7EE
331
824
  5
824
331
862
  5
862
331
881
  5
881
331
8B7
  5
8B7
331
8F5
  5
8F5
331
9CF
  5
9CF
331
AC8
  5
AC8
331
8D7
  5
8D7
331
899
  5
899
331
863
  5
863
331
80E
  5
80E
331
7D0
  5
7D0
331
79A
  5
79A
331
75C
  5
75C
331
73D
  5
73D
331
77B
  5
77B
331
7B1
  5
7B1
331
7EF
  5
7EF
331
825
  5
825
331
844
  5
844
331
882
  5
882
331
8B8
  5
8B8
331
8F6
  5
8F6
331
A64
  5
A64
331
AC9
  5
AC9
331
8D8
  5
8D8
331
89A
  5
89A
331
864
  5
864
331
826
  5
826
331
7D1
  5
7D1
331
79B
  5
79B
331
75D
  5
75D
331
73E
  5
73E
331
77C
  5
77C
331
7B2
  5
7B2
331
7F0
  5
7F0
331
80F
  5
80F
331
845
  5
845
331
883
  5
883
331
8B9
  5
8B9
331
8F7
  5
8F7
331
A65
  5
A65
331
ACA
  5
ACA
331
AE9
  5
AE9
331
8D9
  5
8D9
331
89B
  5
89B
331
865
  5
865
331
827
  5
827
331
7F1
  5
7F1
331
79C
  5
79C
331
75E
  5
75E
331
73F
  5
73F
331
77D
  5
77D
331
7B3
  5
7B3
331
7D2
  5
7D2
331
810
  5
810
331
846
  5
846
331
884
  5
884
331
8BA
  5
8BA
331
8F8
  5
8F8
331
ACB
  5
ACB
331
8F9
  5
8F9
331
89C
  5
89C
331
866
  5
866
331
828
  5
828
331
7F2
  5
7F2
331
7B4
  5
7B4
331
75F
  5
75F
331
740
  5
740
331
77E
  5
77E
331
79D
  5
79D
331
7D3
  5
7D3
331
811
  5
811
331
847
  5
847
331
885
  5
885
331
8BB
  5
8BB
331
8DA
  5
8DA
331
ACC
  5
ACC
331
AEB
  5
AEB
331
1A0
  5
1A0
331
8FA
  5
8FA
331
8BC
  5
8BC
331
867
  5
867
331
829
  5
829
331
7F3
  5
7F3
331
7B5
  5
7B5
331
77F
  5
77F
331
741
  5
741
331
760
  5
760
331
79E
  5
79E
331
7D4
  5
7D4
331
812
  5
812
331
848
  5
848
331
886
  5
886
331
89D
  5
89D
331
8DB
  5
8DB
331
ACD
  5
ACD
331
AEC
  5
AEC
331
1C0
  5
1C0
331
8FB
  5
8FB
331
8BD
  5
8BD
331
887
  5
887
331
82A
  5
82A
331
7F4
  5
7F4
331
7B6
  5
7B6
331
780
  5
780
331
742
  5
742
331
761
  5
761
331
79F
  5
79F
331
7D5
  5
7D5
331
813
  5
813
331
849
  5
849
331
868
  5
868
331
89E
  5
89E
331
8DC
  5
8DC
331
ACE
  5
ACE
331
AED
  5
AED
331
1C1
  5
1C1
331
8FC
  5
8FC
331
8BE
  5
8BE
331
888
  5
888
331
84A
  5
84A
331
7F5
  5
7F5
331
7B7
  5
7B7
331
781
  5
781
331
743
  5
743
331
762
  5
762
331
7D6
  5
7D6
331
814
  5
814
331
82B
  5
82B
331
869
  5
869
331
89F
  5
89F
331
8DD
  5
8DD
331
ACF
  5
ACF
  0
GROUP
  5
2212
102
{ACAD_REACTORS
330
D
102
}
330
D
100
AcDbGroup
300

 70
     1
 71
     1
  0
GROUP
  5
2227
102
{ACAD_REACTORS
330
D
102
}
330
D
100
AcDbGroup
300

 70
     1
 71
     1
  0
LAYOUT
  5
B30
102
{ACAD_REACTORS
330
B2E
102
}
330
B2E
100
AcDbPlotSettings
  1

  2
A4 EPSON LP-6100.pc3
  4
A4
  6

 40
5.873749732971191
 41
5.873747825622558
 42
5.873748779296875
 43
5.873748779296875
 44
209.9733276367187
 45
297.0106506347656
 46
1.5
 47
1.5
 48
0.0
 49
0.0
140
0.0
141
0.0
142
1.0
143
1.0
 70
 28336
 72
     1
 73
     0
 74
     1
  7
monochrome.ctb
 75
    16
147
1.0
 76
     1
 77
     2
 78
   300
148
54.82840686841768
149
397.4152503284408
100
AcDbLayout
  1
Model
 70
     1
 71
     0
 10
0.0
 20
0.0
 11
12.0
 21
9.0
 12
0.0
 22
0.0
 32
0.0
 14
0.0
 24
0.0
 34
0.0
 15
0.0
 25
0.0
 35
0.0
146
0.0
 13
0.0
 23
0.0
 33
0.0
 16
1.0
 26
0.0
 36
0.0
 17
0.0
 27
1.0
 37
0.0
 76
     0
330
18
1001
ACAD_PSEXT
1000
A4 EPSON LP-6100.pc3
1000
EPSON LP-6100
1000
USB002
1000

1070
     0
  0
LAYOUT
  5
B31
102
{ACAD_REACTORS
330
B2E
102
}
330
B2E
100
AcDbPlotSettings
  1

  2
\\SATO-MATE2\EPSON LP-6100
  4

  6

 40
0.0
 41
0.0
 42
0.0
 43
0.0
 44
0.0
 45
0.0
 46
0.0
 47
0.0
 48
0.0
 49
0.0
140
0.0
141
0.0
142
1.0
143
1.0
 70
   688
 72
     0
 73
     0
 74
     5
  7
monochrome.ctb
 75
    16
147
1.0
 76
     0
 77
     2
 78
   300
148
0.0
149
0.0
100
AcDbLayout
  1
レイアウト1
 70
     1
 71
     1
 10
0.0
 20
0.0
 11
420.0
 21
297.0
 12
0.0
 22
0.0
 32
0.0
 14
1.000000000000000E+20
 24
1.000000000000000E+20
 34
1.000000000000000E+20
 15
-1.000000000000000E+20
 25
-1.000000000000000E+20
 35
-1.000000000000000E+20
146
0.0
 13
0.0
 23
0.0
 33
0.0
 16
1.0
 26
0.0
 36
0.0
 17
0.0
 27
1.0
 37
0.0
 76
     0
330
15
  0
MLINESTYLE
  5
1C
102
{ACAD_REACTORS
330
1B
102
}
330
1B
100
AcDbMlineStyle
  2
STANDARD
 70
     0
  3

 62
   256
 51
90.0
 52
90.0
 71
     2
 49
0.5
 62
   256
  6
BYLAYER
 49
-0.5
 62
   256
  6
BYLAYER
  0
ACDBPLACEHOLDER
  5
B29
102
{ACAD_REACTORS
330
B28
102
}
330
B28
  0
ACAD_PROXY_OBJECT
  5
B2D
102
{ACAD_REACTORS
330
B2C
102
}
330
B2C
100
AcDbProxyObject
 90
      499
 91
      503
 95
  2555929
 70
     0
 93
     1849
310
4214DD185B99185C992420000000000000F83F0000000000003E0FC00000000000004901028000000C1008070000C3001FDFF8000000C1003FBFF000000182007F7FE00000030400FEFFC00000060801FDFF8000000C1003FBFF000000182000000000000000C2020B0000001820100E000186003FBFF000000182007F7FE0
310
0000030400FEFFC00000060801FDFF8000000C1003FBFF000000182007F7FE0000003040000000000000012404160000003040201C00030C007F7FE00000030400FEFFC00000060801FDFF8000000C1003FBFF000000182007F7FE00000030400FEFFC000000608000
340
F
340
F
340
F
 94
        0
  0
DICTIONARYVAR
  5
B39
102
{ACAD_REACTORS
330
B38
102
}
330
B38
100
DictionaryVariables
280
     0
  1
STANDARD
  0
ENDSEC
  0
EOF
