  0
SECTION
  2
HEADER
  9
$ACADVER
  1
AC1018
  9
$ACADMAINTVER
 70
     0
  9
$DWGCODEPAGE
  3
ANSI_932
  9
$INSBASE
 10
0.0
 20
0.0
 30
0.0
  9
$EXTMIN
 10
255.8176900309641
 20
176.0635400423978
 30
-0.0000457728747811
  9
$EXTMAX
 10
634.1546142674312
 20
459.3857883045838
 30
0.000030519906467
  9
$LIMMIN
 10
0.0
 20
0.0
  9
$LIMMAX
 10
420.0
 20
297.0
  9
$ORTHOMODE
 70
     0
  9
$REGENMODE
 70
     1
  9
$FILLMODE
 70
     1
  9
$QTEXTMODE
 70
     0
  9
$MIRRTEXT
 70
     1
  9
$LTSCALE
 40
1.0
  9
$ATTMODE
 70
     1
  9
$TEXTSIZE
 40
5.0
  9
$TRACEWID
 40
1.0
  9
$TEXTSTYLE
  7
STYLE3
  9
$CLAYER
  8
寸法線
  9
$CELTYPE
  6
BYLAYER
  9
$CECOLOR
 62
   256
  9
$CELTSCALE
 40
1.0
  9
$DISPSILH
 70
     0
  9
$DIMSCALE
 40
1.0
  9
$DIMASZ
 40
2.5
  9
$DIMEXO
 40
0.0
  9
$DIMDLI
 40
3.75
  9
$DIMRND
 40
0.0
  9
$DIMDLE
 40
0.0
  9
$DIMEXE
 40
1.25
  9
$DIMTP
 40
0.0
  9
$DIMTM
 40
0.0
  9
$DIMTXT
 40
2.5
  9
$DIMCEN
 40
2.5
  9
$DIMTSZ
 40
0.0
  9
$DIMTOL
 70
     0
  9
$DIMLIM
 70
     0
  9
$DIMTIH
 70
     0
  9
$DIMTOH
 70
     0
  9
$DIMSE1
 70
     0
  9
$DIMSE2
 70
     0
  9
$DIMTAD
 70
     1
  9
$DIMZIN
 70
     8
  9
$DIMBLK
  1

  9
$DIMASO
 70
     1
  9
$DIMSHO
 70
     1
  9
$DIMPOST
  1

  9
$DIMAPOST
  1

  9
$DIMALT
 70
     0
  9
$DIMALTD
 70
     4
  9
$DIMALTF
 40
0.0394
  9
$DIMLFAC
 40
1.0
  9
$DIMTOFL
 70
     1
  9
$DIMTVP
 40
0.0
  9
$DIMTIX
 70
     0
  9
$DIMSOXD
 70
     0
  9
$DIMSAH
 70
     1
  9
$DIMBLK1
  1
OPEN
  9
$DIMBLK2
  1
OPEN
  9
$DIMSTYLE
  2
STYLE3
  9
$DIMCLRD
 70
     2
  9
$DIMCLRE
 70
     2
  9
$DIMCLRT
 70
     6
  9
$DIMTFAC
 40
1.0
  9
$DIMGAP
 40
0.625
  9
$DIMJUST
 70
     0
  9
$DIMSD1
 70
     0
  9
$DIMSD2
 70
     0
  9
$DIMTOLJ
 70
     1
  9
$DIMTZIN
 70
     0
  9
$DIMALTZ
 70
     0
  9
$DIMALTTZ
 70
     0
  9
$DIMUPT
 70
     0
  9
$DIMDEC
 70
     2
  9
$DIMTDEC
 70
     4
  9
$DIMALTU
 70
     8
  9
$DIMALTTD
 70
     4
  9
$DIMTXSTY
  7
STYLE3
  9
$DIMAUNIT
 70
     0
  9
$DIMADEC
 70
     0
  9
$DIMALTRND
 40
0.0
  9
$DIMAZIN
 70
     0
  9
$DIMDSEP
 70
    46
  9
$DIMATFIT
 70
     3
  9
$DIMFRAC
 70
     0
  9
$DIMLDRBLK
  1

  9
$DIMLUNIT
 70
     2
  9
$DIMLWD
 70
    -2
  9
$DIMLWE
 70
    -2
  9
$DIMTMOVE
 70
     0
  9
$LUNITS
 70
     2
  9
$LUPREC
 70
     4
  9
$SKETCHINC
 40
1.0
  9
$FILLETRAD
 40
22.0
  9
$AUNITS
 70
     0
  9
$AUPREC
 70
     0
  9
$MENU
  1
.
  9
$ELEVATION
 40
0.0
  9
$PELEVATION
 40
0.0
  9
$THICKNESS
 40
0.0
  9
$LIMCHECK
 70
     0
  9
$CHAMFERA
 40
10.0
  9
$CHAMFERB
 40
10.0
  9
$CHAMFERC
 40
20.0
  9
$CHAMFERD
 40
0.0
  9
$SKPOLY
 70
     0
  9
$TDCREATE
 40
2451129.582931018
  9
$TDUCREATE
 40
2451129.207931018
  9
$TDUPDATE
 40
2455376.449183924
  9
$TDUUPDATE
 40
2455376.074183924
  9
$TDINDWG
 40
0.2126735532
  9
$TDUSRTIMER
 40
0.2126735532
  9
$USRTIMER
 70
     1
  9
$ANGBASE
 50
0.0
  9
$ANGDIR
 70
     0
  9
$PDMODE
 70
     0
  9
$PDSIZE
 40
0.0
  9
$PLINEWID
 40
0.0
  9
$SPLFRAME
 70
     0
  9
$SPLINETYPE
 70
     6
  9
$SPLINESEGS
 70
     8
  9
$HANDSEED
  5
C40
  9
$SURFTAB1
 70
     6
  9
$SURFTAB2
 70
     6
  9
$SURFTYPE
 70
     6
  9
$SURFU
 70
     6
  9
$SURFV
 70
     6
  9
$UCSBASE
  2

  9
$UCSNAME
  2

  9
$UCSORG
 10
0.0
 20
0.0
 30
0.0
  9
$UCSXDIR
 10
1.0
 20
0.0
 30
0.0
  9
$UCSYDIR
 10
0.0
 20
1.0
 30
0.0
  9
$UCSORTHOREF
  2

  9
$UCSORTHOVIEW
 70
     0
  9
$UCSORGTOP
 10
0.0
 20
0.0
 30
0.0
  9
$UCSORGBOTTOM
 10
0.0
 20
0.0
 30
0.0
  9
$UCSORGLEFT
 10
0.0
 20
0.0
 30
0.0
  9
$UCSORGRIGHT
 10
0.0
 20
0.0
 30
0.0
  9
$UCSORGFRONT
 10
0.0
 20
0.0
 30
0.0
  9
$UCSORGBACK
 10
0.0
 20
0.0
 30
0.0
  9
$PUCSBASE
  2

  9
$PUCSNAME
  2

  9
$PUCSORG
 10
0.0
 20
0.0
 30
0.0
  9
$PUCSXDIR
 10
1.0
 20
0.0
 30
0.0
  9
$PUCSYDIR
 10
0.0
 20
1.0
 30
0.0
  9
$PUCSORTHOREF
  2

  9
$PUCSORTHOVIEW
 70
     0
  9
$PUCSORGTOP
 10
0.0
 20
0.0
 30
0.0
  9
$PUCSORGBOTTOM
 10
0.0
 20
0.0
 30
0.0
  9
$PUCSORGLEFT
 10
0.0
 20
0.0
 30
0.0
  9
$PUCSORGRIGHT
 10
0.0
 20
0.0
 30
0.0
  9
$PUCSORGFRONT
 10
0.0
 20
0.0
 30
0.0
  9
$PUCSORGBACK
 10
0.0
 20
0.0
 30
0.0
  9
$USERI1
 70
     0
  9
$USERI2
 70
     0
  9
$USERI3
 70
     0
  9
$USERI4
 70
     0
  9
$USERI5
 70
     0
  9
$USERR1
 40
0.0
  9
$USERR2
 40
0.0
  9
$USERR3
 40
0.0
  9
$USERR4
 40
0.0
  9
$USERR5
 40
0.0
  9
$WORLDVIEW
 70
     1
  9
$SHADEDGE
 70
     3
  9
$SHADEDIF
 70
    70
  9
$TILEMODE
 70
     1
  9
$MAXACTVP
 70
    48
  9
$PINSBASE
 10
0.0
 20
0.0
 30
0.0
  9
$PLIMCHECK
 70
     0
  9
$PEXTMIN
 10
1.000000000000000E+20
 20
1.000000000000000E+20
 30
1.000000000000000E+20
  9
$PEXTMAX
 10
-1.000000000000000E+20
 20
-1.000000000000000E+20
 30
-1.000000000000000E+20
  9
$PLIMMIN
 10
0.0
 20
0.0
  9
$PLIMMAX
 10
420.0
 20
297.0
  9
$UNITMODE
 70
     0
  9
$VISRETAIN
 70
     1
  9
$PLINEGEN
 70
     0
  9
$PSLTSCALE
 70
     1
  9
$TREEDEPTH
 70
  3020
  9
$CMLSTYLE
  2
STANDARD
  9
$CMLJUST
 70
     0
  9
$CMLSCALE
 40
20.0
  9
$PROXYGRAPHICS
 70
     1
  9
$MEASUREMENT
 70
     1
  9
$CELWEIGHT
370
    -1
  9
$ENDCAPS
280
     0
  9
$JOINSTYLE
280
     0
  9
$LWDISPLAY
290
     0
  9
$INSUNITS
 70
     0
  9
$HYPERLINKBASE
  1

  9
$STYLESHEET
  1
AutoCad LT 98.ctb
  9
$XEDIT
290
     1
  9
$CEPSNTYPE
380
     0
  9
$PSTYLEMODE
290
     1
  9
$FINGERPRINTGUID
  2
{054769DE-6C8E-4F8E-BFB0-59C2D89B10BD}
  9
$VERSIONGUID
  2
{24AC5B00-266F-4B11-BA1B-B1BBDDBA37D6}
  9
$EXTNAMES
290
     1
  9
$PSVPSCALE
 40
0.0
  9
$OLESTARTUP
290
     0
  9
$SORTENTS
280
   127
  9
$INDEXCTL
280
     0
  9
$HIDETEXT
280
     0
  9
$XCLIPFRAME
290
     0
  9
$HALOGAP
280
     0
  9
$OBSCOLOR
 70
   257
  9
$OBSLTYPE
280
     0
  9
$INTERSECTIONDISPLAY
280
     0
  9
$INTERSECTIONCOLOR
 70
   257
  9
$DIMASSOC
280
     1
  9
$PROJECTNAME
  1

  0
ENDSEC
  0
SECTION
  2
CLASSES
  0
CLASS
  1
HATCH
  2
AcDbHatch
  3
ObjectDBX Classes
 90
        0
 91
       19
280
     0
281
     1
  0
CLASS
  1
ACDBDICTIONARYWDFLT
  2
AcDbDictionaryWithDefault
  3
ObjectDBX Classes
 90
        0
 91
        1
280
     0
281
     0
  0
CLASS
  1
TABLESTYLE
  2
AcDbTableStyle
  3
ObjectDBX Classes
 90
     2047
 91
        1
280
     0
281
     0
  0
CLASS
  1
SORTENTSTABLE
  2
AcDbSortentsTable
  3
ObjectDBX Classes
 90
        0
 91
        1
280
     0
281
     0
  0
CLASS
  1
DICTIONARYVAR
  2
AcDbDictionaryVar
  3
ObjectDBX Classes
 90
        0
 91
        1
280
     0
281
     0
  0
ENDSEC
  0
SECTION
  2
TABLES
  0
TABLE
  2
VPORT
  5
8
330
0
100
AcDbSymbolTable
 70
     2
  0
VPORT
  5
C3F
330
8
100
AcDbSymbolTableRecord
100
AcDbViewportTableRecord
  2
*Active
 70
     0
 10
0.0
 20
0.0
 11
1.0
 21
1.0
 12
444.9861521491976
 22
317.7246641734909
 13
0.0
 23
0.0
 14
10.0
 24
10.0
 15
10.0
 25
10.0
 16
0.0
 26
0.0
 36
1.0
 17
0.0
 27
0.0
 37
0.0
 40
285.4767900740659
 41
1.530456852791878
 42
50.0
 43
0.0
 44
0.0
 50
0.0
 51
0.0
 71
     0
 72
   100
 73
     1
 74
     1
 75
     0
 76
     0
 77
     0
 78
     0
281
     0
 65
     1
110
0.0
120
0.0
130
0.0
111
1.0
121
0.0
131
0.0
112
0.0
122
1.0
132
0.0
 79
     0
146
0.0
  0
ENDTAB
  0
TABLE
  2
LTYPE
  5
5
330
0
100
AcDbSymbolTable
 70
    13
  0
LTYPE
  5
12
330
5
100
AcDbSymbolTableRecord
100
AcDbLinetypeTableRecord
  2
BYBLOCK
 70
     0
  3

 72
    65
 73
     0
 40
0.0
  0
LTYPE
  5
13
330
5
100
AcDbSymbolTableRecord
100
AcDbLinetypeTableRecord
  2
BYLAYER
 70
     0
  3

 72
    65
 73
     0
 40
0.0
  0
LTYPE
  5
14
330
5
100
AcDbSymbolTableRecord
100
AcDbLinetypeTableRecord
  2
CONTINUOUS
 70
     0
  3
Solid line
 72
    65
 73
     0
 40
0.0
  0
LTYPE
  5
22
330
5
100
AcDbSymbolTableRecord
100
AcDbLinetypeTableRecord
  2
CENTER2
 70
     0
  3
Center (.5x) ___ _ ___ _ ___ _ ___ _ ___ _ ___
 72
    65
 73
     4
 40
28.575
 49
19.05
 74
     0
 49
-3.174999999999999
 74
     0
 49
3.174999999999999
 74
     0
 49
-3.174999999999999
 74
     0
  0
LTYPE
  5
23
330
5
100
AcDbSymbolTableRecord
100
AcDbLinetypeTableRecord
  2
HIDDEN2
 70
     0
  3
Hidden (.5x) _ _ _ _ _ _ _ _ _ _ _ _ _ _ _ _ _
 72
    65
 73
     2
 40
4.762499999999999
 49
3.174999999999999
 74
     0
 49
-1.587499999999999
 74
     0
  0
LTYPE
  5
24
330
5
100
AcDbSymbolTableRecord
100
AcDbLinetypeTableRecord
  2
PHANTOM2
 70
     0
  3
Phantom (.5x) ___ _ _ ___ _ _ ___ _ _ ___ _ _
 72
    65
 73
     6
 40
31.75
 49
15.875
 74
     0
 49
-3.174999999999999
 74
     0
 49
3.174999999999999
 74
     0
 49
-3.174999999999999
 74
     0
 49
3.174999999999999
 74
     0
 49
-3.174999999999999
 74
     0
  0
ENDTAB
  0
TABLE
  2
LAYER
  5
2
330
0
100
AcDbSymbolTable
 70
    16
  0
LAYER
  5
E
330
2
100
AcDbSymbolTableRecord
100
AcDbLayerTableRecord
  2
0
 70
     0
 62
     7
  6
CONTINUOUS
370
    -3
390
7B6
  0
LAYER
  5
25
330
2
100
AcDbSymbolTableRecord
100
AcDbLayerTableRecord
  2
外形線
 70
     0
 62
     7
  6
CONTINUOUS
370
    -3
390
7B6
  0
LAYER
  5
26
330
2
100
AcDbSymbolTableRecord
100
AcDbLayerTableRecord
  2
寸法線
 70
     0
 62
     2
  6
CONTINUOUS
370
    -3
390
7B6
  0
LAYER
  5
27
330
2
100
AcDbSymbolTableRecord
100
AcDbLayerTableRecord
  2
中心線
 70
     0
 62
     4
  6
CENTER2
370
    -3
390
7B6
  0
LAYER
  5
29
330
2
100
AcDbSymbolTableRecord
100
AcDbLayerTableRecord
  2
想像線
 70
     0
 62
     1
  6
PHANTOM2
370
    -3
390
7B6
  0
LAYER
  5
2A
330
2
100
AcDbSymbolTableRecord
100
AcDbLayerTableRecord
  2
ﾊｯﾁﾝｸ
 70
     0
 62
     6
  6
CONTINUOUS
370
    -3
390
7B6
  0
LAYER
  5
2B
330
2
100
AcDbSymbolTableRecord
100
AcDbLayerTableRecord
  2
文字
 70
     0
 62
     6
  6
CONTINUOUS
370
    -3
390
7B6
  0
LAYER
  5
2C
330
2
100
AcDbSymbolTableRecord
100
AcDbLayerTableRecord
  2
目盛
 70
     0
 62
    72
  6
CONTINUOUS
370
    -3
390
7B6
  0
LAYER
  5
2D
330
2
100
AcDbSymbolTableRecord
100
AcDbLayerTableRecord
  2
針
 70
     0
 62
     5
  6
CONTINUOUS
370
    -3
390
7B6
  0
LAYER
  5
53
330
2
100
AcDbSymbolTableRecord
100
AcDbLayerTableRecord
  2
DEFPOINTS
 70
     0
 62
     7
  6
CONTINUOUS
290
     0
370
    -3
390
7B6
  0
LAYER
  5
A5
330
2
100
AcDbSymbolTableRecord
100
AcDbLayerTableRecord
  2
C
 70
     0
 62
     7
  6
CONTINUOUS
370
    -3
390
7B6
  0
LAYER
  5
1FE
330
2
100
AcDbSymbolTableRecord
100
AcDbLayerTableRecord
  2
隠れ線2
 70
     0
 62
     1
  6
HIDDEN2
370
    -3
390
7B6
  0
LAYER
  5
276
330
2
100
AcDbSymbolTableRecord
100
AcDbLayerTableRecord
  2
握り
 70
     0
 62
     3
  6
CONTINUOUS
370
    -3
390
7B6
  0
LAYER
  5
277
330
2
100
AcDbSymbolTableRecord
100
AcDbLayerTableRecord
  2
ROGO
 70
     0
 62
     6
  6
CONTINUOUS
370
    -3
390
7B6
  0
ENDTAB
  0
TABLE
  2
STYLE
  5
3
330
0
100
AcDbSymbolTable
 70
     6
  0
STYLE
  5
F
330
3
100
AcDbSymbolTableRecord
100
AcDbTextStyleTableRecord
  2
STANDARD
 70
     0
 40
0.0
 41
1.0
 50
0.0
 71
     0
 42
2.5
  3
txt
  4

  0
STYLE
  5
3F
330
3
100
AcDbSymbolTableRecord
100
AcDbTextStyleTableRecord
  2
STYLE3
 70
     0
 40
0.0
 41
1.0
 50
0.0
 71
     0
 42
5.0
  3
romans.shx
  4
bigfont.shx
  0
ENDTAB
  0
TABLE
  2
VIEW
  5
6
330
0
100
AcDbSymbolTable
 70
     0
  0
ENDTAB
  0
TABLE
  2
UCS
  5
7
330
0
100
AcDbSymbolTable
 70
     0
  0
ENDTAB
  0
TABLE
  2
APPID
  5
9
330
0
100
AcDbSymbolTable
 70
     2
  0
APPID
  5
10
330
9
100
AcDbSymbolTableRecord
100
AcDbRegAppTableRecord
  2
ACAD
 70
     0
  0
APPID
  5
7D9
330
9
100
AcDbSymbolTableRecord
100
AcDbRegAppTableRecord
  2
ACAD_PSEXT
 70
     0
  0
ENDTAB
  0
TABLE
  2
DIMSTYLE
  5
A
330
0
100
AcDbSymbolTable
 70
     4
100
AcDbDimStyleTable
 71
     1
340
8F
  0
DIMSTYLE
105
1D
330
A
100
AcDbSymbolTableRecord
100
AcDbDimStyleTableRecord
  2
STANDARD
 70
     0
 41
2.5
 42
0.625
 43
3.75
 44
1.25
 73
     0
 74
     0
 77
     1
 78
     8
140
2.5
141
2.5
143
0.0394
147
0.625
171
     4
172
     1
273
     8
274
     4
277
     6
340
F
  0
DIMSTYLE
105
8F
102
{ACAD_REACTORS
330
6E8
330
6F5
330
701
330
713
330
720
102
}
330
A
100
AcDbSymbolTableRecord
100
AcDbDimStyleTableRecord
  2
STYLE3
 70
     0
 41
2.5
 42
0.0
 43
3.75
 44
1.25
 73
     0
 74
     0
 77
     1
 78
     8
140
2.5
141
2.5
143
0.0394
147
0.625
171
     4
172
     1
173
     1
176
     2
177
     2
178
     6
271
     1
273
     8
274
     4
340
3F
341
45
343
45
344
45
  0
ENDTAB
  0
TABLE
  2
BLOCK_RECORD
  5
1
330
0
100
AcDbSymbolTable
 70
    13
  0
BLOCK_RECORD
  5
18
102
{ACAD_XDICTIONARY
360
7D4
102
}
330
1
100
AcDbSymbolTableRecord
100
AcDbBlockTableRecord
  2
*MODEL_SPACE
340
7BD
  0
BLOCK_RECORD
  5
15
330
1
100
AcDbSymbolTableRecord
100
AcDbBlockTableRecord
  2
*PAPER_SPACE
340
7BE
  0
BLOCK_RECORD
  5
45
330
1
100
AcDbSymbolTableRecord
100
AcDbBlockTableRecord
  2
_OPEN
340
0
102
{BLKREFS
331
75F
331
760
331
786
331
6E1
331
6E2
331
6EE
331
6EF
331
6FA
331
6FB
331
725
331
726
331
730
331
731
102
}
  0
BLOCK_RECORD
  5
658
330
1
100
AcDbSymbolTableRecord
100
AcDbBlockTableRecord
  2
駒
340
0
102
{BLKREFS
331
685
102
}
  0
BLOCK_RECORD
  5
6DC
330
1
100
AcDbSymbolTableRecord
100
AcDbBlockTableRecord
  2
*D7
340
0
  0
BLOCK_RECORD
  5
6E9
330
1
100
AcDbSymbolTableRecord
100
AcDbBlockTableRecord
  2
*D8
340
0
  0
BLOCK_RECORD
  5
6F6
330
1
100
AcDbSymbolTableRecord
100
AcDbBlockTableRecord
  2
*D9
340
0
  0
BLOCK_RECORD
  5
707
330
1
100
AcDbSymbolTableRecord
100
AcDbBlockTableRecord
  2
*D10
340
0
  0
BLOCK_RECORD
  5
714
330
1
100
AcDbSymbolTableRecord
100
AcDbBlockTableRecord
  2
*D11
340
0
  0
ENDTAB
  0
ENDSEC
  0
SECTION
  2
BLOCKS
  0
BLOCK
  5
19
330
18
100
AcDbEntity
  8
0
100
AcDbBlockBegin
  2
*MODEL_SPACE
 70
     0
 10
0.0
 20
0.0
 30
0.0
  3
*MODEL_SPACE
  1

  0
ENDBLK
  5
1A
330
18
100
AcDbEntity
  8
0
100
AcDbBlockEnd
  0
BLOCK
  5
16
330
15
100
AcDbEntity
 67
     1
  8
0
100
AcDbBlockBegin
  2
*PAPER_SPACE
 70
     0
 10
0.0
 20
0.0
 30
0.0
  3
*PAPER_SPACE
  1

  0
ENDBLK
  5
17
330
15
100
AcDbEntity
 67
     1
  8
0
100
AcDbBlockEnd
  0
BLOCK
  5
46
330
45
100
AcDbEntity
  8
0
100
AcDbBlockBegin
  2
_OPEN
 70
     0
 10
0.0
 20
0.0
 30
0.0
  3
_OPEN
  1

  0
LINE
  5
47
330
45
100
AcDbEntity
  8
0
  6
ByBlock
 62
     0
100
AcDbLine
 10
-1.0
 20
0.1666666666666666
 30
0.0
 11
0.0
 21
0.0
 31
0.0
  0
LINE
  5
48
330
45
100
AcDbEntity
  8
0
  6
ByBlock
 62
     0
100
AcDbLine
 10
0.0
 20
0.0
 30
0.0
 11
-1.0
 21
-0.1666666666666666
 31
0.0
  0
LINE
  5
49
330
45
100
AcDbEntity
  8
0
  6
ByBlock
 62
     0
100
AcDbLine
 10
0.0
 20
0.0
 30
0.0
 11
-1.0
 21
0.0
 31
0.0
  0
ENDBLK
  5
4A
330
45
100
AcDbEntity
  8
0
100
AcDbBlockEnd
  0
BLOCK
  5
683
330
658
100
AcDbEntity
  8
0
100
AcDbBlockBegin
  2
駒
 70
     0
 10
0.0
 20
0.0
 30
0.0
  3
駒
  1

  0
LINE
  5
659
330
658
100
AcDbEntity
  8
外形線
 48
0.5
100
AcDbLine
 10
-3.000000000000056
 20
-3.099999999999909
 30
0.0
 11
3.000000000000056
 21
-3.099999999999965
 31
0.0
  0
LINE
  5
65A
330
658
100
AcDbEntity
  8
外形線
 48
0.5
100
AcDbLine
 10
-1.749999999999943
 20
-13.60000000000002
 30
0.0
 11
1.75000000000017
 21
-13.60000000000002
 31
0.0
  0
LINE
  5
65B
330
658
100
AcDbEntity
  8
外形線
 48
0.5
100
AcDbLine
 10
4.000000000000056
 20
-2.099999999999965
 30
0.0
 11
4.0
 21
0.3047897115198452
 31
0.0
  0
LINE
  5
65C
330
658
100
AcDbEntity
  8
外形線
 48
0.5
100
AcDbLine
 10
-4.000000000000056
 20
-2.099999999999909
 30
0.0
 11
-4.0
 21
0.3047897115198452
 31
0.0
  0
LINE
  5
65D
330
658
100
AcDbEntity
  8
外形線
 48
0.5
100
AcDbLine
 10
-4.000000000000056
 20
-2.100000000000022
 30
0.0
 11
4.0
 21
-2.099999999999965
 31
0.0
  0
LINE
  5
65E
330
658
100
AcDbEntity
  8
外形線
 48
0.5
100
AcDbLine
 10
-4.000000000000056
 20
-2.099999999999909
 30
0.0
 11
-3.000000000000056
 21
-3.099999999999909
 31
0.0
  0
LINE
  5
65F
330
658
100
AcDbEntity
  8
外形線
 48
0.5
100
AcDbLine
 10
3.000000000000056
 20
-3.099999999999965
 30
0.0
 11
4.000000000000056
 21
-2.099999999999965
 31
0.0
  0
LINE
  5
660
330
658
100
AcDbEntity
  8
外形線
 48
0.5
100
AcDbLine
 10
1.750000000000056
 20
-14.66389371443472
 30
0.0
 11
1.75
 21
-3.099999999999909
 31
0.0
  0
LINE
  5
661
330
658
100
AcDbEntity
  8
外形線
 48
0.5
100
AcDbLine
 10
-1.749999999999943
 20
-14.66389371443438
 30
0.0
 11
-1.75
 21
-3.099999999999909
 31
0.0
  0
ARC
  5
662
330
658
100
AcDbEntity
  8
外形線
100
AcDbCircle
 10
0.0000000000000568
 20
-17.00000000000005
 30
0.0
 40
0.6
100
AcDbArc
 50
201.3119739705772
 51
338.6880260293593
  0
LINE
  5
663
330
658
100
AcDbEntity
  8
外形線
100
AcDbLine
 10
0.5589691758630125
 20
-17.21806755933681
 30
0.0
 11
1.750000000000113
 21
-14.66389371443472
 31
0.0
  0
LINE
  5
664
330
658
100
AcDbEntity
  8
外形線
100
AcDbLine
 10
-0.5589691758628419
 20
-17.21806755933681
 30
0.0
 11
-1.75
 21
-14.66389371443432
 31
0.0
  0
LINE
  5
665
330
658
100
AcDbEntity
  8
外形線
100
AcDbLine
 10
-1.749999999999943
 20
-14.66389371443432
 30
0.0
 11
1.750000000000056
 21
-14.66389371443472
 31
0.0
  0
LINE
  5
666
330
658
100
AcDbEntity
  8
外形線
 48
0.5
100
AcDbLine
 10
8.000000000000113
 20
-33.10000000000008
 30
0.0
 11
8.000000000000056
 21
-17.60000000000008
 31
0.0
  0
LINE
  5
667
330
658
100
AcDbEntity
  8
外形線
 48
0.5
100
AcDbLine
 10
-1.999999999999943
 20
-33.10000000000008
 30
0.0
 11
-1.999999999999943
 21
-17.60000000000008
 31
0.0
  0
LINE
  5
668
330
658
100
AcDbEntity
  8
外形線
100
AcDbLine
 10
-1.999999999999943
 20
-17.60000000000008
 30
0.0
 11
8.000000000000056
 21
-17.60000000000008
 31
0.0
  0
LINE
  5
669
330
658
100
AcDbEntity
  8
外形線
100
AcDbLine
 10
-1.999999999999943
 20
-33.10000000000008
 30
0.0
 11
8.000000000000113
 21
-33.10000000000008
 31
0.0
  0
LINE
  5
66A
330
658
100
AcDbEntity
  8
中心線
100
AcDbLine
 10
0.6209118558498972
 20
-30.10000000000008
 30
0.0
 11
5.503202821173317
 21
-30.10000000000008
 31
0.0
  0
LINE
  5
66B
330
658
100
AcDbEntity
  8
中心線
100
AcDbLine
 10
0.6209118558498972
 20
-24.10000000000008
 30
0.0
 11
5.503202821173317
 21
-24.10000000000008
 31
0.0
  0
LINE
  5
66C
330
658
100
AcDbEntity
  8
中心線
 48
0.5
100
AcDbLine
 10
3.000000000000113
 20
-32.82372037323921
 30
0.0
 11
3.000000000000113
 21
-21.4671051874023
 31
0.0
  0
CIRCLE
  5
66D
330
658
100
AcDbEntity
  8
外形線
100
AcDbCircle
 10
3.000000000000056
 20
-24.10000000000008
 30
0.0
 40
1.8
  0
CIRCLE
  5
66E
330
658
100
AcDbEntity
  8
外形線
100
AcDbCircle
 10
3.000000000000113
 20
-30.10000000000008
 30
0.0
 40
1.8
  0
LINE
  5
66F
330
658
100
AcDbEntity
  8
想像線
 48
0.5
100
AcDbLine
 10
10.04573725934364
 20
1.097503022280704
 30
0.0
 11
-11.95426274065636
 21
1.097503022280818
 31
0.0
  0
LINE
  5
670
330
658
100
AcDbEntity
  8
想像線
100
AcDbLine
 10
-8.215488396287184
 20
-7.241271322088266
 30
0.0
 11
-9.693092918088552
 21
-5.763666800287012
 31
0.0
  0
LINE
  5
671
330
658
100
AcDbEntity
  8
想像線
100
AcDbLine
 10
-8.205076049938099
 20
-5.753310287001056
 30
0.0
 11
-9.7305753764727
 21
-7.278809613535656
 31
0.0
  0
CIRCLE
  5
672
330
658
100
AcDbEntity
  8
想像線
100
AcDbCircle
 10
-8.954262740656361
 20
-6.502496977719374
 30
0.0
 40
1.5
  0
LINE
  5
673
330
658
100
AcDbEntity
  8
想像線
 48
0.5
100
AcDbLine
 10
-11.95426274065636
 20
1.097503022280818
 30
0.0
 11
-11.95426274065659
 21
-8.902496977719295
 31
0.0
  0
LINE
  5
674
330
658
100
AcDbEntity
  8
中心線
100
AcDbLine
 10
-8.954262740656361
 20
-8.960192863087229
 30
0.0
 11
-8.954262740656361
 21
0.3667272187971662
 31
0.0
  0
LINE
  5
675
330
658
100
AcDbEntity
  8
想像線
 48
0.5
100
AcDbLine
 10
-5.954262740656361
 20
-8.902496977719295
 30
0.0
 11
-11.95426274065659
 21
-8.902496977719295
 31
0.0
  0
LINE
  5
676
330
658
100
AcDbEntity
  8
想像線
100
AcDbLine
 10
-8.215488396287184
 20
-2.241271322088152
 30
0.0
 11
-9.693092918088552
 21
-0.7636668002868987
 31
0.0
  0
LINE
  5
677
330
658
100
AcDbEntity
  8
想像線
100
AcDbLine
 10
-8.205076049938327
 20
-0.7533102870010567
 30
0.0
 11
-9.7305753764727
 21
-2.278809613535656
 31
0.0
  0
CIRCLE
  5
678
330
658
100
AcDbEntity
  8
想像線
100
AcDbCircle
 10
-8.954262740656361
 20
-1.50249697771926
 30
0.0
 40
1.5
  0
LINE
  5
679
330
658
100
AcDbEntity
  8
中心線
100
AcDbLine
 10
-6.857089929588312
 20
-1.502496977719317
 30
0.0
 11
-11.18269294433895
 21
-1.502496977719317
 31
0.0
  0
LINE
  5
67A
330
658
100
AcDbEntity
  8
中心線
100
AcDbLine
 10
-6.655660376466414
 20
-6.502496977719317
 30
0.0
 11
-11.43659028504186
 21
-6.502496977719317
 31
0.0
  0
LINE
  5
67B
330
658
100
AcDbEntity
  8
想像線
 48
0.5
100
AcDbLine
 10
-5.954262740656361
 20
1.097503022280704
 30
0.0
 11
-5.954262740656588
 21
-33.9024969777193
 31
0.0
  0
LINE
  5
67C
330
658
100
AcDbEntity
  8
想像線
 48
0.5
100
AcDbLine
 10
10.04573725934364
 20
-33.9024969777193
 30
0.0
 11
-5.954262740656588
 21
-33.9024969777193
 31
0.0
  0
LINE
  5
67D
330
658
100
AcDbEntity
  8
想像線
 48
0.5
100
AcDbLine
 10
10.04573725934364
 20
1.097503022280704
 30
0.0
 11
10.04573725934364
 21
-33.9024969777193
 31
0.0
  0
LINE
  5
67E
330
658
100
AcDbEntity
  8
想像線
100
AcDbLine
 10
3.738774344369403
 20
-24.83877434436891
 30
0.0
 11
2.261169822568035
 21
-23.36116982256766
 31
0.0
  0
LINE
  5
67F
330
658
100
AcDbEntity
  8
想像線
100
AcDbLine
 10
3.749186690718261
 20
-23.35081330928182
 30
0.0
 11
2.223687364183888
 21
-24.87631263581642
 31
0.0
  0
LINE
  5
680
330
658
100
AcDbEntity
  8
想像線
100
AcDbLine
 10
3.738774344369119
 20
-30.83877434436903
 30
0.0
 11
2.261169822567751
 21
-29.36116982256777
 31
0.0
  0
LINE
  5
681
330
658
100
AcDbEntity
  8
想像線
100
AcDbLine
 10
3.749186690718204
 20
-29.35081330928182
 30
0.0
 11
2.223687364183604
 21
-30.87631263581642
 31
0.0
  0
POINT
  5
682
330
658
100
AcDbEntity
  8
DEFPOINTS
  6
ByBlock
 62
     0
100
AcDbPoint
 10
-1.819960769388899
 20
-14.43853605192697
 30
0.0
  0
ENDBLK
  5
684
330
658
100
AcDbEntity
  8
0
100
AcDbBlockEnd
  0
BLOCK
  5
6DD
330
6DC
100
AcDbEntity
  8
0
100
AcDbBlockBegin
  2
*D7
 70
     1
 10
0.0
 20
0.0
 30
0.0
  3
*D7
  1

  0
LINE
  5
6DE
330
6DC
100
AcDbEntity
  8
0
  6
ByBlock
 62
     2
100
AcDbLine
 10
603.8461553662447
 20
320.8210448147574
 30
0.0
 11
620.185793121327
 21
320.8210448147574
 31
0.0
  0
LINE
  5
6DF
330
6DC
100
AcDbEntity
  8
0
  6
ByBlock
 62
     2
100
AcDbLine
 10
603.8461553662447
 20
290.8210448147574
 30
0.0
 11
620.185793121327
 21
290.8210448147574
 31
0.0
  0
LINE
  5
6E0
330
6DC
100
AcDbEntity
  8
0
  6
ByBlock
 62
     2
100
AcDbLine
 10
618.935793121327
 20
318.3210448147574
 30
0.0
 11
618.935793121327
 21
293.3210448147574
 31
0.0
  0
INSERT
  5
6E1
330
6DC
100
AcDbEntity
  8
0
  6
ByBlock
 62
     2
100
AcDbBlockReference
  2
_OPEN
 10
618.935793121327
 20
320.8210448147574
 30
0.0
 41
2.5
 42
2.5
 43
2.5
 50
90.0
  0
INSERT
  5
6E2
330
6DC
100
AcDbEntity
  8
0
  6
ByBlock
 62
     2
100
AcDbBlockReference
  2
_OPEN
 10
618.935793121327
 20
290.8210448147574
 30
0.0
 41
2.5
 42
2.5
 43
2.5
 50
270.0
  0
MTEXT
  5
6E3
330
6DC
100
AcDbEntity
  8
0
  6
ByBlock
 62
     6
100
AcDbMText
 10
617.060793121327
 20
305.8210448147574
 30
0.0
 40
2.5
 41
0.0
 71
     5
 72
     1
  1
\A1;30
  7
STYLE3
 11
0.0000000000000001
 21
1.0
 31
0.0
 73
     1
 44
1.0
  0
POINT
  5
6E4
330
6DC
100
AcDbEntity
  8
DEFPOINTS
  6
ByBlock
 62
     0
100
AcDbPoint
 10
603.8461553662447
 20
320.8210448147574
 30
0.0
  0
POINT
  5
6E5
330
6DC
100
AcDbEntity
  8
DEFPOINTS
  6
ByBlock
 62
     0
100
AcDbPoint
 10
603.8461553662447
 20
290.8210448147574
 30
0.0
  0
POINT
  5
6E6
330
6DC
100
AcDbEntity
  8
DEFPOINTS
  6
ByBlock
 62
     0
100
AcDbPoint
 10
618.935793121327
 20
290.8210448147574
 30
0.0
  0
ENDBLK
  5
6E7
330
6DC
100
AcDbEntity
  8
0
100
AcDbBlockEnd
  0
BLOCK
  5
6EA
330
6E9
100
AcDbEntity
  8
0
100
AcDbBlockBegin
  2
*D8
 70
     1
 10
0.0
 20
0.0
 30
0.0
  3
*D8
  1

  0
LINE
  5
6EB
330
6E9
100
AcDbEntity
  8
0
  6
ByBlock
 62
     2
100
AcDbLine
 10
453.8461553662468
 20
271.5145363766529
 30
0.0
 11
453.8461553662468
 21
244.1937987502246
 31
0.0
  0
LINE
  5
6EC
330
6E9
100
AcDbEntity
  8
0
  6
ByBlock
 62
     2
100
AcDbLine
 10
508.8461553662447
 20
292.1210448147574
 30
0.0
 11
508.8461553662447
 21
244.1937987502246
 31
0.0
  0
LINE
  5
6ED
330
6E9
100
AcDbEntity
  8
0
  6
ByBlock
 62
     2
100
AcDbLine
 10
456.3461553662468
 20
245.4437987502246
 30
0.0
 11
506.3461553662447
 21
245.4437987502246
 31
0.0
  0
INSERT
  5
6EE
330
6E9
100
AcDbEntity
  8
0
  6
ByBlock
 62
     2
100
AcDbBlockReference
  2
_OPEN
 10
453.8461553662468
 20
245.4437987502246
 30
0.0
 41
2.5
 42
2.5
 43
2.5
 50
180.0
  0
INSERT
  5
6EF
330
6E9
100
AcDbEntity
  8
0
  6
ByBlock
 62
     2
100
AcDbBlockReference
  2
_OPEN
 10
508.8461553662447
 20
245.4437987502246
 30
0.0
 41
2.5
 42
2.5
 43
2.5
  0
MTEXT
  5
6F0
330
6E9
100
AcDbEntity
  8
0
  6
ByBlock
 62
     6
100
AcDbMText
 10
481.3461553662458
 20
247.3187987502246
 30
0.0
 40
2.5
 41
0.0
 71
     5
 72
     1
  1
\A1;55
  7
STYLE3
 73
     1
 44
1.0
  0
POINT
  5
6F1
330
6E9
100
AcDbEntity
  8
DEFPOINTS
  6
ByBlock
 62
     0
100
AcDbPoint
 10
453.8461553662468
 20
271.5145363766529
 30
0.0
  0
POINT
  5
6F2
330
6E9
100
AcDbEntity
  8
DEFPOINTS
  6
ByBlock
 62
     0
100
AcDbPoint
 10
508.8461553662447
 20
292.1210448147574
 30
0.0
  0
POINT
  5
6F3
330
6E9
100
AcDbEntity
  8
DEFPOINTS
  6
ByBlock
 62
     0
100
AcDbPoint
 10
508.8461553662447
 20
245.4437987502246
 30
0.0
  0
ENDBLK
  5
6F4
330
6E9
100
AcDbEntity
  8
0
100
AcDbBlockEnd
  0
BLOCK
  5
6F7
330
6F6
100
AcDbEntity
  8
0
100
AcDbBlockBegin
  2
*D9
 70
     1
 10
0.0
 20
0.0
 30
0.0
  3
*D9
  1

  0
LINE
  5
6F8
330
6F6
100
AcDbEntity
  8
0
  6
ByBlock
 62
     2
100
AcDbLine
 10
608.8461553662447
 20
292.1210448147574
 30
0.0
 11
608.8461553662447
 21
244.1937987502246
 31
0.0
  0
LINE
  5
6F9
330
6F6
100
AcDbEntity
  8
0
  6
ByBlock
 62
     2
100
AcDbLine
 10
511.3461553662447
 20
245.4437987502246
 30
0.0
 11
606.3461553662447
 21
245.4437987502246
 31
0.0
  0
INSERT
  5
6FA
330
6F6
100
AcDbEntity
  8
0
  6
ByBlock
 62
     2
100
AcDbBlockReference
  2
_OPEN
 10
508.8461553662447
 20
245.4437987502246
 30
0.0
 41
2.5
 42
2.5
 43
2.5
 50
180.0
  0
INSERT
  5
6FB
330
6F6
100
AcDbEntity
  8
0
  6
ByBlock
 62
     2
100
AcDbBlockReference
  2
_OPEN
 10
608.8461553662447
 20
245.4437987502246
 30
0.0
 41
2.5
 42
2.5
 43
2.5
  0
MTEXT
  5
6FC
330
6F6
100
AcDbEntity
  8
0
  6
ByBlock
 62
     6
100
AcDbMText
 10
558.8461553662447
 20
247.3187987502246
 30
0.0
 40
2.5
 41
0.0
 71
     5
 72
     1
  1
\A1;100
  7
STYLE3
 73
     1
 44
1.0
  0
POINT
  5
6FD
330
6F6
100
AcDbEntity
  8
DEFPOINTS
  6
ByBlock
 62
     0
100
AcDbPoint
 10
508.8461553662447
 20
292.1210448147574
 30
0.0
  0
POINT
  5
6FE
330
6F6
100
AcDbEntity
  8
DEFPOINTS
  6
ByBlock
 62
     0
100
AcDbPoint
 10
608.8461553662447
 20
292.1210448147574
 30
0.0
  0
POINT
  5
6FF
330
6F6
100
AcDbEntity
  8
DEFPOINTS
  6
ByBlock
 62
     0
100
AcDbPoint
 10
608.8461553662447
 20
245.4437987502246
 30
0.0
  0
ENDBLK
  5
700
330
6F6
100
AcDbEntity
  8
0
100
AcDbBlockEnd
  0
BLOCK
  5
721
330
707
100
AcDbEntity
  8
0
100
AcDbBlockBegin
  2
*D10
 70
     1
 10
0.0
 20
0.0
 30
0.0
  3
*D10
  1

  0
LINE
  5
722
330
707
100
AcDbEntity
  8
0
  6
ByBlock
 62
     2
100
AcDbLine
 10
293.8461553662469
 20
305.8210448147574
 30
0.0
 11
293.8461553662469
 21
344.4899942388038
 31
0.0
  0
LINE
  5
723
330
707
100
AcDbEntity
  8
0
  6
ByBlock
 62
     2
100
AcDbLine
 10
418.8461553662468
 20
329.7385928221406
 30
0.0
 11
418.8461553662468
 21
344.4899942388038
 31
0.0
  0
LINE
  5
724
330
707
100
AcDbEntity
  8
0
  6
ByBlock
 62
     2
100
AcDbLine
 10
296.3461553662469
 20
343.2399942388038
 30
0.0
 11
416.3461553662468
 21
343.2399942388038
 31
0.0
  0
INSERT
  5
725
330
707
100
AcDbEntity
  8
0
  6
ByBlock
 62
     2
100
AcDbBlockReference
  2
_OPEN
 10
293.8461553662469
 20
343.2399942388038
 30
0.0
 41
2.5
 42
2.5
 43
2.5
 50
180.0
  0
INSERT
  5
726
330
707
100
AcDbEntity
  8
0
  6
ByBlock
 62
     2
100
AcDbBlockReference
  2
_OPEN
 10
418.8461553662468
 20
343.2399942388038
 30
0.0
 41
2.5
 42
2.5
 43
2.5
  0
MTEXT
  5
727
330
707
100
AcDbEntity
  8
0
  6
ByBlock
 62
     6
100
AcDbMText
 10
356.3461553662469
 20
345.1149942388038
 30
0.0
 40
2.5
 41
0.0
 71
     5
 72
     1
  1
\A1;125
  7
STYLE3
 73
     1
 44
1.0
  0
POINT
  5
728
330
707
100
AcDbEntity
  8
DEFPOINTS
  6
ByBlock
 62
     0
100
AcDbPoint
 10
293.8461553662469
 20
305.8210448147574
 30
0.0
  0
POINT
  5
729
330
707
100
AcDbEntity
  8
DEFPOINTS
  6
ByBlock
 62
     0
100
AcDbPoint
 10
418.8461553662468
 20
329.7385928221406
 30
0.0
  0
POINT
  5
72A
330
707
100
AcDbEntity
  8
DEFPOINTS
  6
ByBlock
 62
     0
100
AcDbPoint
 10
418.8461553662468
 20
343.2399942388038
 30
0.0
  0
ENDBLK
  5
72B
330
707
100
AcDbEntity
  8
0
100
AcDbBlockEnd
  0
BLOCK
  5
72C
330
714
100
AcDbEntity
  8
0
100
AcDbBlockBegin
  2
*D11
 70
     1
 10
0.0
 20
0.0
 30
0.0
  3
*D11
  1

  0
LINE
  5
72D
330
714
100
AcDbEntity
  8
0
  6
ByBlock
 62
     2
100
AcDbLine
 10
293.8461553662469
 20
305.8210448147574
 30
0.0
 11
293.8461553662469
 21
228.2487673242675
 31
0.0
  0
LINE
  5
72E
330
714
100
AcDbEntity
  8
0
  6
ByBlock
 62
     2
100
AcDbLine
 10
608.8461553662447
 20
244.1937987502246
 30
0.0
 11
608.8461553662447
 21
228.2487673242675
 31
0.0
  0
LINE
  5
72F
330
714
100
AcDbEntity
  8
0
  6
ByBlock
 62
     2
100
AcDbLine
 10
296.3461553662469
 20
229.4987673242675
 30
0.0
 11
606.3461553662447
 21
229.4987673242675
 31
0.0
  0
INSERT
  5
730
330
714
100
AcDbEntity
  8
0
  6
ByBlock
 62
     2
100
AcDbBlockReference
  2
_OPEN
 10
293.8461553662469
 20
229.4987673242675
 30
0.0
 41
2.5
 42
2.5
 43
2.5
 50
180.0
  0
INSERT
  5
731
330
714
100
AcDbEntity
  8
0
  6
ByBlock
 62
     2
100
AcDbBlockReference
  2
_OPEN
 10
608.8461553662447
 20
229.4987673242675
 30
0.0
 41
2.5
 42
2.5
 43
2.5
  0
MTEXT
  5
732
330
714
100
AcDbEntity
  8
0
  6
ByBlock
 62
     6
100
AcDbMText
 10
451.3461553662458
 20
231.3737673242675
 30
0.0
 40
2.5
 41
0.0
 71
     5
 72
     1
  1
\A1;315
  7
STYLE3
 73
     1
 44
1.0
  0
POINT
  5
733
330
714
100
AcDbEntity
  8
DEFPOINTS
  6
ByBlock
 62
     0
100
AcDbPoint
 10
293.8461553662469
 20
305.8210448147574
 30
0.0
  0
POINT
  5
734
330
714
100
AcDbEntity
  8
DEFPOINTS
  6
ByBlock
 62
     0
100
AcDbPoint
 10
608.8461553662447
 20
244.1937987502246
 30
0.0
  0
POINT
  5
735
330
714
100
AcDbEntity
  8
DEFPOINTS
  6
ByBlock
 62
     0
100
AcDbPoint
 10
608.8461553662447
 20
229.4987673242675
 30
0.0
  0
ENDBLK
  5
736
330
714
100
AcDbEntity
  8
0
100
AcDbBlockEnd
  0
ENDSEC
  0
SECTION
  2
ENTITIES
  0
LWPOLYLINE
  5
1A0
330
18
100
AcDbEntity
  8
C
100
AcDbPolyline
 90
        5
 70
     0
 43
0.8
 10
256.2352605185929
 20
458.9717683211813
 10
633.7352605185929
 20
458.9717683211813
 10
633.7352605185929
 20
176.4717683211813
 10
256.2352605185929
 20
176.4717683211813
 10
256.2352605185929
 20
458.9717683211813
  0
LINE
  5
210
330
18
100
AcDbEntity
  8
中心線
100
AcDbLine
 10
290.3229408112311
 20
313.7928522276208
 30
0.0
 11
601.5303511839943
 21
313.7928522276208
 31
0.0
  0
LINE
  5
211
330
18
100
AcDbEntity
  8
中心線
100
AcDbLine
 10
453.8461553662468
 20
332.6092645455306
 30
0.0
 11
453.8461553662468
 21
279.4863437895163
 31
0.0
  0
ARC
  5
212
330
18
100
AcDbEntity
  8
隠れ線2
100
AcDbCircle
 10
453.8461553662468
 20
313.7928522276208
 30
0.0
 40
13.0
100
AcDbArc
 50
180.0
 51
272.6039053451488
  0
LINE
  5
213
330
18
100
AcDbEntity
  8
隠れ線2
100
AcDbLine
 10
598.8461553662468
 20
321.5428522276208
 30
0.0
 11
598.8461553662468
 21
306.0428522276207
 31
0.0
  0
LINE
  5
214
330
18
100
AcDbEntity
  8
隠れ線2
100
AcDbLine
 10
508.8461553662447
 20
302.0428522276207
 30
0.0
 11
594.8461553662468
 21
302.0428522276207
 31
0.0
  0
LINE
  5
215
330
18
100
AcDbEntity
  8
外形線
100
AcDbLine
 10
505.8781553662469
 20
325.5428522276208
 30
0.0
 11
508.8461553662447
 21
325.5428522276208
 31
0.0
  0
ARC
  5
216
330
18
100
AcDbEntity
  8
隠れ線2
100
AcDbCircle
 10
594.8461553662468
 20
321.5428522276208
 30
0.0
 40
4.0
100
AcDbArc
 50
0.0
 51
90.0
  0
ARC
  5
217
330
18
100
AcDbEntity
  8
隠れ線2
100
AcDbCircle
 10
594.8461553662468
 20
306.0428522276207
 30
0.0
 40
4.0
100
AcDbArc
 50
270.0
 51
0.0
  0
LINE
  5
219
330
18
100
AcDbEntity
  8
隠れ線2
100
AcDbLine
 10
453.8461553662468
 20
300.7928522276208
 30
0.0
 11
481.4460334886653
 21
301.4201221849485
 31
0.0
  0
ARC
  5
21C
330
18
100
AcDbEntity
  8
隠れ線2
100
AcDbCircle
 10
505.8781553662469
 20
332.5428522276208
 30
0.0
 40
7.0
100
AcDbArc
 50
132.3880834881152
 51
166.4435060573691
  0
LINE
  5
21F
330
18
100
AcDbEntity
  8
中心線
100
AcDbLine
 10
464.6203979635109
 20
294.756231673735
 30
0.0
 11
497.4153138260294
 21
398.7684163672377
 31
0.0
  0
LINE
  5
221
330
18
100
AcDbEntity
  8
中心線
100
AcDbLine
 10
455.2842064832079
 20
364.7625000697328
 30
0.0
 11
512.0487964126997
 21
346.864693613752
 31
0.0
  0
ARC
  5
222
330
18
100
AcDbEntity
  8
隠れ線2
100
AcDbCircle
 10
483.8531553662468
 20
355.754745087365
 30
0.0
 40
25.0
100
AcDbArc
 50
313.8075550529582
 51
158.245810213209
  0
ARC
  5
228
330
18
100
AcDbEntity
  8
外形線
100
AcDbCircle
 10
416.7226522072277
 20
381.8009022496239
 30
0.0
 40
47.00805008864922
100
AcDbArc
 50
270.0030509763124
 51
270.2487191653732
  0
ARC
  5
22C
330
18
100
AcDbEntity
  8
外形線
100
AcDbCircle
 10
434.8461553662469
 20
313.7928522276208
 30
0.0
 40
6.0
100
AcDbArc
 50
0.0
 51
93.46117611616085
  0
ARC
  5
22E
330
18
100
AcDbEntity
  8
外形線
100
AcDbCircle
 10
293.8461553662469
 20
314.7928522276207
 30
0.0
 40
1.0
100
AcDbArc
 50
179.9999999999837
 51
354.2608295227318
  0
LINE
  5
22F
330
18
100
AcDbEntity
  8
外形線
100
AcDbLine
 10
295.8361302404601
 20
315.5928522276208
 30
0.0
 11
423.073404202616
 21
319.4104126741312
 31
0.0
  0
LINE
  5
230
330
18
100
AcDbEntity
  8
外形線
100
AcDbLine
 10
293.8461553662469
 20
319.7928522276208
 30
0.0
 11
427.8149677637562
 21
336.1203012385673
 31
0.0
  0
ARC
  5
231
330
18
100
AcDbEntity
  8
外形線
100
AcDbCircle
 10
293.8461553662469
 20
318.3928522276208
 30
0.0
 40
1.399999999999999
100
AcDbArc
 50
90.0
 51
192.680383491825
  0
LINE
  5
232
330
18
100
AcDbEntity
  8
外形線
100
AcDbLine
 10
292.8461553662469
 20
314.7928522276207
 30
0.0
 11
292.4461553662469
 21
318.3928522276208
 31
0.0
  0
ARC
  5
234
330
18
100
AcDbEntity
  8
外形線
100
AcDbCircle
 10
295.8361302404601
 20
314.5928522276208
 30
0.0
 40
1.0
100
AcDbArc
 50
90.0
 51
174.2608295227321
  0
ARC
  5
237
330
18
100
AcDbEntity
  8
外形線
100
AcDbCircle
 10
416.7226522072277
 20
381.8009022496239
 30
0.0
 40
47.00805008864922
100
AcDbArc
 50
283.6485895705382
 51
330.4275369850239
  0
ARC
  5
238
330
18
100
AcDbEntity
  8
外形線
100
AcDbCircle
 10
453.8461553662468
 20
313.7928522276208
 30
0.0
 40
13.0
100
AcDbArc
 50
9.34721332600411
 51
180.0
  0
LINE
  5
24B
330
18
100
AcDbEntity
  8
外形線
100
AcDbLine
 10
477.4871266829651
 20
308.9602054163887
 30
0.0
 11
478.0885382819735
 21
310.8676393178852
 31
0.0
  0
LINE
  5
251
330
18
100
AcDbEntity
  8
隠れ線2
100
AcDbLine
 10
468.3885852046617
 20
313.9260227753446
 30
0.0
 11
478.0885382819735
 21
310.8676393178852
 31
0.0
  0
ARC
  5
252
330
18
100
AcDbEntity
  8
外形線
100
AcDbCircle
 10
469.1403497034224
 20
316.3103151522151
 30
0.0
 40
2.5
100
AcDbArc
 50
189.3472133260037
 51
252.4999999999998
  0
ARC
  5
256
330
18
100
AcDbEntity
  8
外形線
100
AcDbCircle
 10
532.2853771215254
 20
333.2848540837102
 30
0.0
 40
60.0
100
AcDbArc
 50
203.9854219874878
 51
241.5312408926767
  0
ARC
  5
258
330
18
100
AcDbEntity
  8
外形線
100
AcDbCircle
 10
434.8461553662469
 20
313.7928522276208
 30
0.0
 40
6.0
100
AcDbArc
 50
266.5388238838391
 51
0.0
  0
ARC
  5
25B
330
18
100
AcDbEntity
  8
外形線
100
AcDbCircle
 10
484.5461553662468
 20
395.4928522276207
 30
0.0
 40
120.0
100
AcDbArc
 50
241.5594921348727
 51
266.3930423691007
  0
ARC
  5
261
330
18
100
AcDbEntity
  8
外形線
100
AcDbCircle
 10
473.0461553662467
 20
227.7928522276208
 30
0.0
 40
61.0
100
AcDbArc
 50
15.80199237079905
 51
61.51734306476396
  0
ARC
  5
264
330
18
100
AcDbEntity
  8
外形線
100
AcDbCircle
 10
472.6757470653781
 20
213.8813170728702
 30
0.0
 40
62.0
100
AcDbArc
 50
27.51238157511715
 51
86.51714710441982
  0
ARC
  5
26A
330
18
100
AcDbEntity
  8
外形線
100
AcDbCircle
 10
529.4931940086989
 20
243.9162092249705
 30
0.0
 40
2.299999999999999
100
AcDbArc
 50
217.3257203883957
 51
12.24414853808521
  0
ARC
  5
26D
330
18
100
AcDbEntity
  8
外形線
100
AcDbCircle
 10
293.8461553662469
 20
309.1928522276207
 30
0.0
 40
1.399999999999999
100
AcDbArc
 50
167.319616508175
 51
270.0
  0
LINE
  5
26E
330
18
100
AcDbEntity
  8
外形線
100
AcDbLine
 10
292.8461553662469
 20
312.7928522276207
 30
0.0
 11
292.4461553662469
 21
309.1928522276207
 31
0.0
  0
ARC
  5
26F
330
18
100
AcDbEntity
  8
外形線
100
AcDbCircle
 10
295.8361302404601
 20
312.9928522276208
 30
0.0
 40
1.0
100
AcDbArc
 50
185.7391704772678
 51
270.0
  0
ARC
  5
270
330
18
100
AcDbEntity
  8
外形線
100
AcDbCircle
 10
293.8461553662469
 20
312.7928522276207
 30
0.0
 40
1.0
100
AcDbArc
 50
5.739170477268223
 51
180.0000000000162
  0
LINE
  5
271
330
18
100
AcDbEntity
  8
外形線
100
AcDbLine
 10
295.8361302404601
 20
311.9928522276207
 30
0.0
 11
423.0803931324729
 21
308.1483388289442
 31
0.0
  0
LINE
  5
272
330
18
100
AcDbEntity
  8
外形線
100
AcDbLine
 10
293.8461553662469
 20
307.7928522276207
 30
0.0
 11
419.580779801801
 21
292.4689448745375
 31
0.0
  0
ARC
  5
273
330
18
100
AcDbEntity
  8
外形線
100
AcDbCircle
 10
416.9192236733285
 20
270.6305356152762
 30
0.0
 40
22.0
100
AcDbArc
 50
61.55949213487262
 51
83.05134563204431
  0
CIRCLE
  5
274
330
18
100
AcDbEntity
  8
外形線
100
AcDbCircle
 10
453.8461553662468
 20
313.7928522276208
 30
0.0
 40
9.5
  0
CIRCLE
  5
275
330
18
100
AcDbEntity
  8
外形線
100
AcDbCircle
 10
453.8461553662468
 20
313.7928522276208
 30
0.0
 40
8.5
  0
LINE
  5
325
330
18
100
AcDbEntity
  8
隠れ線2
100
AcDbLine
 10
508.8461553662447
 20
325.5428522276208
 30
0.0
 11
594.8461553662468
 21
325.5428522276208
 31
0.0
  0
LINE
  5
326
330
18
100
AcDbEntity
  8
握り
100
AcDbLine
 10
605.1728052823868
 20
327.9928522276207
 30
0.0
 11
608.3461553662447
 21
327.9928522276208
 31
0.0
  0
LINE
  5
327
330
18
100
AcDbEntity
  8
握り
100
AcDbLine
 10
585.1728052823867
 20
327.9928522276208
 30
0.0
 11
592.5195054501026
 21
327.9928522276207
 31
0.0
  0
LINE
  5
328
330
18
100
AcDbEntity
  8
握り
100
AcDbLine
 10
582.5195054501025
 20
327.9928522276208
 30
0.0
 11
582.5195054501025
 21
320.4461522276208
 31
0.0
  0
LINE
  5
329
330
18
100
AcDbEntity
  8
握り
100
AcDbLine
 10
595.1728052823869
 20
327.9928522276207
 30
0.0
 11
602.5195054501025
 21
327.9928522276207
 31
0.0
  0
LINE
  5
32A
330
18
100
AcDbEntity
  8
握り
100
AcDbLine
 10
582.5195054501026
 20
317.7928522276208
 30
0.0
 11
582.5195054501024
 21
309.7928522276208
 31
0.0
  0
LINE
  5
32B
330
18
100
AcDbEntity
  8
握り
100
AcDbLine
 10
565.1728052823869
 20
327.9928522276208
 30
0.0
 11
572.5195054501025
 21
327.9928522276208
 31
0.0
  0
LINE
  5
32C
330
18
100
AcDbEntity
  8
握り
100
AcDbLine
 10
565.172805282387
 20
320.4461522276208
 30
0.0
 11
572.5195054501025
 21
320.4461522276208
 31
0.0
  0
LINE
  5
32D
330
18
100
AcDbEntity
  8
握り
100
AcDbLine
 10
565.1728052823869
 20
327.9928522276208
 30
0.0
 11
565.172805282387
 21
320.4461522276208
 31
0.0
  0
LINE
  5
32E
330
18
100
AcDbEntity
  8
握り
100
AcDbLine
 10
572.5195054501025
 20
327.9928522276208
 30
0.0
 11
572.5195054501027
 21
320.4461522276208
 31
0.0
  0
LINE
  5
32F
330
18
100
AcDbEntity
  8
握り
100
AcDbLine
 10
575.1728052823868
 20
327.9928522276208
 30
0.0
 11
575.172805282387
 21
320.4461522276208
 31
0.0
  0
LINE
  5
330
330
18
100
AcDbEntity
  8
握り
100
AcDbLine
 10
555.172805282387
 20
327.9928522276208
 30
0.0
 11
562.5195054501025
 21
327.9928522276208
 31
0.0
  0
LINE
  5
331
330
18
100
AcDbEntity
  8
握り
100
AcDbLine
 10
555.1728052823868
 20
320.4461522276208
 30
0.0
 11
562.5195054501026
 21
320.4461522276208
 31
0.0
  0
LINE
  5
332
330
18
100
AcDbEntity
  8
握り
100
AcDbLine
 10
552.5195054501025
 20
327.9928522276208
 30
0.0
 11
552.5195054501026
 21
320.4461522276208
 31
0.0
  0
LINE
  5
333
330
18
100
AcDbEntity
  8
握り
100
AcDbLine
 10
555.1728052823868
 20
327.9928522276208
 30
0.0
 11
555.172805282387
 21
320.4461522276208
 31
0.0
  0
LINE
  5
334
330
18
100
AcDbEntity
  8
握り
100
AcDbLine
 10
562.5195054501025
 20
327.9928522276208
 30
0.0
 11
562.5195054501026
 21
320.4461522276208
 31
0.0
  0
LINE
  5
335
330
18
100
AcDbEntity
  8
握り
100
AcDbLine
 10
565.1728052823869
 20
307.1395522276207
 30
0.0
 11
572.5195054501025
 21
307.1395522276208
 31
0.0
  0
LINE
  5
336
330
18
100
AcDbEntity
  8
握り
100
AcDbLine
 10
555.1728052823866
 20
307.1395522276207
 30
0.0
 11
562.5195054501025
 21
307.1395522276207
 31
0.0
  0
LINE
  5
337
330
18
100
AcDbEntity
  8
握り
100
AcDbLine
 10
575.172805282387
 20
327.9928522276208
 30
0.0
 11
582.5195054501024
 21
327.9928522276208
 31
0.0
  0
LINE
  5
338
330
18
100
AcDbEntity
  8
握り
100
AcDbLine
 10
575.172805282387
 20
320.4461522276208
 30
0.0
 11
582.5195054501024
 21
320.4461522276208
 31
0.0
  0
LINE
  5
339
330
18
100
AcDbEntity
  8
握り
100
AcDbLine
 10
575.1728052823868
 20
307.1395522276208
 30
0.0
 11
582.5195054501024
 21
307.1395522276208
 31
0.0
  0
ARC
  5
33A
330
18
100
AcDbEntity
  8
握り
100
AcDbCircle
 10
608.3461553662447
 20
300.0928522276207
 30
0.0
 40
0.5
100
AcDbArc
 50
270.0
 51
0.0
  0
ARC
  5
33B
330
18
100
AcDbEntity
  8
握り
100
AcDbCircle
 10
603.8461553662447
 20
300.2928522276207
 30
0.0
 40
1.5
100
AcDbArc
 50
207.8181392846543
 51
332.1818607153458
  0
LINE
  5
33C
330
18
100
AcDbEntity
  8
握り
100
AcDbLine
 10
605.1728052823868
 20
299.5928522276207
 30
0.0
 11
608.3461553662447
 21
299.5928522276207
 31
0.0
  0
ARC
  5
33D
330
18
100
AcDbEntity
  8
握り
100
AcDbCircle
 10
593.8461553662447
 20
300.2928522276207
 30
0.0
 40
1.5
100
AcDbArc
 50
207.8181392846543
 51
332.1818607153458
  0
ARC
  5
33E
330
18
100
AcDbEntity
  8
握り
100
AcDbCircle
 10
583.8461553662447
 20
300.2928522276207
 30
0.0
 40
1.5
100
AcDbArc
 50
207.8181392846543
 51
332.1818607153458
  0
LINE
  5
33F
330
18
100
AcDbEntity
  8
握り
100
AcDbLine
 10
585.1728052823867
 20
299.5928522276208
 30
0.0
 11
592.5195054501026
 21
299.5928522276207
 31
0.0
  0
LINE
  5
340
330
18
100
AcDbEntity
  8
握り
100
AcDbLine
 10
595.1728052823869
 20
299.5928522276207
 30
0.0
 11
602.5195054501025
 21
299.5928522276207
 31
0.0
  0
ARC
  5
341
330
18
100
AcDbEntity
  8
握り
100
AcDbCircle
 10
573.8461553662447
 20
300.2928522276207
 30
0.0
 40
1.5
100
AcDbArc
 50
207.8181392846543
 51
332.1818607153458
  0
LINE
  5
342
330
18
100
AcDbEntity
  8
握り
100
AcDbLine
 10
565.1728052823869
 20
299.5928522276208
 30
0.0
 11
572.5195054501025
 21
299.5928522276208
 31
0.0
  0
LINE
  5
343
330
18
100
AcDbEntity
  8
握り
100
AcDbLine
 10
555.172805282387
 20
299.5928522276207
 30
0.0
 11
562.5195054501025
 21
299.5928522276208
 31
0.0
  0
ARC
  5
344
330
18
100
AcDbEntity
  8
握り
100
AcDbCircle
 10
553.8461553662447
 20
300.2928522276207
 30
0.0
 40
1.5
100
AcDbArc
 50
207.8181392846543
 51
332.1818607153458
  0
ARC
  5
345
330
18
100
AcDbEntity
  8
握り
100
AcDbCircle
 10
563.8461553662446
 20
300.2928522276207
 30
0.0
 40
1.5
100
AcDbArc
 50
207.8181392846543
 51
332.1818607153458
  0
LINE
  5
346
330
18
100
AcDbEntity
  8
握り
100
AcDbLine
 10
575.172805282387
 20
299.5928522276208
 30
0.0
 11
582.5195054501024
 21
299.5928522276208
 31
0.0
  0
LINE
  5
347
330
18
100
AcDbEntity
  8
握り
100
AcDbLine
 10
608.8461553662447
 20
327.4928522276208
 30
0.0
 11
608.8461553662447
 21
300.0928522276207
 31
0.0
  0
LINE
  5
348
330
18
100
AcDbEntity
  8
握り
100
AcDbLine
 10
585.1728052823869
 20
327.9928522276208
 30
0.0
 11
585.1728052823869
 21
299.5928522276207
 31
0.0
  0
LINE
  5
349
330
18
100
AcDbEntity
  8
握り
100
AcDbLine
 10
592.5195054501025
 20
327.9928522276208
 30
0.0
 11
592.5195054501025
 21
299.5928522276207
 31
0.0
  0
LINE
  5
34A
330
18
100
AcDbEntity
  8
握り
100
AcDbLine
 10
595.1728052823868
 20
327.9928522276208
 30
0.0
 11
595.1728052823868
 21
299.5928522276207
 31
0.0
  0
LINE
  5
34B
330
18
100
AcDbEntity
  8
握り
100
AcDbLine
 10
602.5195054501025
 20
327.9928522276208
 30
0.0
 11
602.5195054501025
 21
299.5928522276207
 31
0.0
  0
LINE
  5
34C
330
18
100
AcDbEntity
  8
握り
100
AcDbLine
 10
605.1728052823868
 20
327.9928522276208
 30
0.0
 11
605.1728052823868
 21
299.5928522276207
 31
0.0
  0
LINE
  5
34D
330
18
100
AcDbEntity
  8
握り
100
AcDbLine
 10
582.5195054501024
 20
307.1395522276208
 30
0.0
 11
582.5195054501025
 21
299.5928522276207
 31
0.0
  0
LINE
  5
34E
330
18
100
AcDbEntity
  8
握り
100
AcDbLine
 10
552.5195054501024
 20
307.1395522276207
 30
0.0
 11
552.5195054501025
 21
299.5928522276207
 31
0.0
  0
LINE
  5
34F
330
18
100
AcDbEntity
  8
握り
100
AcDbLine
 10
555.1728052823867
 20
307.1395522276207
 30
0.0
 11
555.1728052823868
 21
299.5928522276207
 31
0.0
  0
LINE
  5
350
330
18
100
AcDbEntity
  8
握り
100
AcDbLine
 10
562.5195054501025
 20
307.1395522276207
 30
0.0
 11
562.5195054501025
 21
299.5928522276207
 31
0.0
  0
LINE
  5
351
330
18
100
AcDbEntity
  8
握り
100
AcDbLine
 10
565.1728052823869
 20
307.1395522276207
 30
0.0
 11
565.1728052823869
 21
299.5928522276207
 31
0.0
  0
LINE
  5
352
330
18
100
AcDbEntity
  8
握り
100
AcDbLine
 10
572.5195054501027
 20
307.1395522276207
 30
0.0
 11
572.5195054501025
 21
299.5928522276207
 31
0.0
  0
LINE
  5
353
330
18
100
AcDbEntity
  8
握り
100
AcDbLine
 10
575.1728052823868
 20
307.1395522276207
 30
0.0
 11
575.1728052823868
 21
299.5928522276207
 31
0.0
  0
LINE
  5
354
330
18
100
AcDbEntity
  8
握り
100
AcDbLine
 10
535.1728052823869
 20
327.9928522276208
 30
0.0
 11
542.5195054501025
 21
327.9928522276208
 31
0.0
  0
LINE
  5
355
330
18
100
AcDbEntity
  8
握り
100
AcDbLine
 10
535.172805282387
 20
320.4461522276208
 30
0.0
 11
542.5195054501028
 21
320.4461522276208
 31
0.0
  0
LINE
  5
356
330
18
100
AcDbEntity
  8
握り
100
AcDbLine
 10
535.1728052823869
 20
327.9928522276208
 30
0.0
 11
535.1728052823869
 21
320.4461522276208
 31
0.0
  0
LINE
  5
357
330
18
100
AcDbEntity
  8
握り
100
AcDbLine
 10
542.5195054501025
 20
327.9928522276208
 30
0.0
 11
542.5195054501026
 21
320.4461522276208
 31
0.0
  0
LINE
  5
358
330
18
100
AcDbEntity
  8
握り
100
AcDbLine
 10
545.1728052823868
 20
327.9928522276208
 30
0.0
 11
545.1728052823869
 21
320.4461522276208
 31
0.0
  0
LINE
  5
359
330
18
100
AcDbEntity
  8
握り
100
AcDbLine
 10
515.1728052823869
 20
327.9928522276208
 30
0.0
 11
522.5195054501027
 21
327.9928522276208
 31
0.0
  0
LINE
  5
35A
330
18
100
AcDbEntity
  8
握り
100
AcDbLine
 10
525.1728052823868
 20
327.9928522276208
 30
0.0
 11
532.5195054501025
 21
327.9928522276208
 31
0.0
  0
LINE
  5
35B
330
18
100
AcDbEntity
  8
握り
100
AcDbLine
 10
535.1728052823869
 20
307.1395522276207
 30
0.0
 11
542.5195054501026
 21
307.1395522276207
 31
0.0
  0
LINE
  5
35C
330
18
100
AcDbEntity
  8
握り
100
AcDbLine
 10
535.1728052823869
 20
317.7928522276208
 30
0.0
 11
535.1728052823869
 21
309.7928522276208
 31
0.0
  0
LINE
  5
35D
330
18
100
AcDbEntity
  8
握り
100
AcDbLine
 10
509.3461553662447
 20
327.9928522276208
 30
0.0
 11
512.5195054501025
 21
327.9928522276208
 31
0.0
  0
ARC
  5
35E
330
18
100
AcDbEntity
  8
握り
100
AcDbCircle
 10
543.8461553662447
 20
300.2928522276207
 30
0.0
 40
1.5
100
AcDbArc
 50
207.8181392846543
 51
332.1818607153458
  0
ARC
  5
35F
330
18
100
AcDbEntity
  8
握り
100
AcDbCircle
 10
533.8461553662447
 20
300.2928522276207
 30
0.0
 40
1.5
100
AcDbArc
 50
207.8181392846543
 51
332.1818607153458
  0
LINE
  5
360
330
18
100
AcDbEntity
  8
握り
100
AcDbLine
 10
535.1728052823869
 20
299.5928522276208
 30
0.0
 11
542.5195054501025
 21
299.5928522276207
 31
0.0
  0
ARC
  5
361
330
18
100
AcDbEntity
  8
握り
100
AcDbCircle
 10
523.8461553662447
 20
300.2928522276207
 30
0.0
 40
1.5
100
AcDbArc
 50
207.8181392846543
 51
332.1818607153458
  0
ARC
  5
362
330
18
100
AcDbEntity
  8
握り
100
AcDbCircle
 10
513.8461553662446
 20
300.2928522276207
 30
0.0
 40
1.5
100
AcDbArc
 50
207.8181392846543
 51
332.1818607153458
  0
LINE
  5
363
330
18
100
AcDbEntity
  8
握り
100
AcDbLine
 10
515.1728052823869
 20
299.5928522276208
 30
0.0
 11
522.5195054501027
 21
299.5928522276208
 31
0.0
  0
LINE
  5
364
330
18
100
AcDbEntity
  8
握り
100
AcDbLine
 10
525.1728052823868
 20
299.5928522276208
 30
0.0
 11
532.5195054501025
 21
299.5928522276208
 31
0.0
  0
ARC
  5
365
330
18
100
AcDbEntity
  8
握り
100
AcDbCircle
 10
509.3461553662447
 20
300.0928522276208
 30
0.0
 40
0.5
100
AcDbArc
 50
180.0
 51
270.0
  0
LINE
  5
366
330
18
100
AcDbEntity
  8
握り
100
AcDbLine
 10
509.3461553662447
 20
299.5928522276208
 30
0.0
 11
512.5195054501026
 21
299.5928522276208
 31
0.0
  0
LINE
  5
367
330
18
100
AcDbEntity
  8
握り
100
AcDbLine
 10
508.8461553662447
 20
327.4928522276208
 30
0.0
 11
508.8461553662447
 21
300.0928522276208
 31
0.0
  0
LINE
  5
368
330
18
100
AcDbEntity
  8
握り
100
AcDbLine
 10
515.1728052823869
 20
327.9928522276208
 30
0.0
 11
515.1728052823869
 21
299.5928522276207
 31
0.0
  0
LINE
  5
369
330
18
100
AcDbEntity
  8
握り
100
AcDbLine
 10
512.5195054501025
 20
327.9928522276208
 30
0.0
 11
512.5195054501025
 21
299.5928522276207
 31
0.0
  0
LINE
  5
36A
330
18
100
AcDbEntity
  8
握り
100
AcDbLine
 10
522.5195054501025
 20
327.9928522276208
 30
0.0
 11
522.5195054501025
 21
299.5928522276207
 31
0.0
  0
LINE
  5
36B
330
18
100
AcDbEntity
  8
握り
100
AcDbLine
 10
525.1728052823868
 20
327.9928522276208
 30
0.0
 11
525.1728052823868
 21
299.5928522276207
 31
0.0
  0
LINE
  5
36C
330
18
100
AcDbEntity
  8
握り
100
AcDbLine
 10
532.5195054501025
 20
327.9928522276208
 30
0.0
 11
532.5195054501025
 21
299.5928522276207
 31
0.0
  0
LINE
  5
36D
330
18
100
AcDbEntity
  8
握り
100
AcDbLine
 10
535.1728052823869
 20
307.1395522276208
 30
0.0
 11
535.1728052823869
 21
299.5928522276207
 31
0.0
  0
LINE
  5
36E
330
18
100
AcDbEntity
  8
握り
100
AcDbLine
 10
542.5195054501025
 20
307.1395522276207
 30
0.0
 11
542.5195054501025
 21
299.5928522276207
 31
0.0
  0
LINE
  5
36F
330
18
100
AcDbEntity
  8
握り
100
AcDbLine
 10
545.1728052823868
 20
307.1395522276207
 30
0.0
 11
545.1728052823868
 21
299.5928522276207
 31
0.0
  0
LINE
  5
370
330
18
100
AcDbEntity
  8
握り
100
AcDbLine
 10
545.1728052823868
 20
327.9928522276208
 30
0.0
 11
552.5195054501025
 21
327.9928522276208
 31
0.0
  0
LINE
  5
371
330
18
100
AcDbEntity
  8
握り
100
AcDbLine
 10
545.1728052823868
 20
299.5928522276207
 30
0.0
 11
552.5195054501025
 21
299.5928522276207
 31
0.0
  0
LINE
  5
372
330
18
100
AcDbEntity
  8
握り
100
AcDbLine
 10
535.1728052823869
 20
317.7928522276208
 30
0.0
 11
582.5195054501026
 21
317.7928522276208
 31
0.0
  0
LINE
  5
373
330
18
100
AcDbEntity
  8
握り
100
AcDbLine
 10
535.1728052823869
 20
309.7928522276208
 30
0.0
 11
582.5195054501024
 21
309.7928522276208
 31
0.0
  0
LINE
  5
374
330
18
100
AcDbEntity
  8
握り
100
AcDbLine
 10
545.1728052823869
 20
320.4461522276208
 30
0.0
 11
552.5195054501027
 21
320.4461522276208
 31
0.0
  0
LINE
  5
375
330
18
100
AcDbEntity
  8
握り
100
AcDbLine
 10
545.1728052823868
 20
307.1395522276207
 30
0.0
 11
552.5195054501023
 21
307.1395522276207
 31
0.0
  0
ARC
  5
376
330
18
100
AcDbEntity
  8
握り
100
AcDbCircle
 10
608.3461553662447
 20
327.4928522276208
 30
0.0
 40
0.5
100
AcDbArc
 50
0.0
 51
90.0
  0
ARC
  5
377
330
18
100
AcDbEntity
  8
握り
100
AcDbCircle
 10
509.3461553662447
 20
327.4928522276208
 30
0.0
 40
0.5
100
AcDbArc
 50
90.0
 51
180.0
  0
ARC
  5
378
330
18
100
AcDbEntity
  8
握り
100
AcDbCircle
 10
513.8461553662446
 20
327.2928522276207
 30
0.0
 40
1.5
100
AcDbArc
 50
27.81813928465427
 51
152.1818607153457
  0
ARC
  5
379
330
18
100
AcDbEntity
  8
握り
100
AcDbCircle
 10
523.8461553662447
 20
327.2928522276207
 30
0.0
 40
1.5
100
AcDbArc
 50
27.81813928465427
 51
152.1818607153457
  0
ARC
  5
37A
330
18
100
AcDbEntity
  8
握り
100
AcDbCircle
 10
533.8461553662447
 20
327.2928522276207
 30
0.0
 40
1.5
100
AcDbArc
 50
27.81813928465427
 51
152.1818607153457
  0
ARC
  5
37B
330
18
100
AcDbEntity
  8
握り
100
AcDbCircle
 10
543.8461553662447
 20
327.2928522276207
 30
0.0
 40
1.5
100
AcDbArc
 50
27.81813928465427
 51
152.1818607153457
  0
ARC
  5
37C
330
18
100
AcDbEntity
  8
握り
100
AcDbCircle
 10
553.8461553662447
 20
327.2928522276207
 30
0.0
 40
1.5
100
AcDbArc
 50
27.81813928465427
 51
152.1818607153457
  0
ARC
  5
37D
330
18
100
AcDbEntity
  8
握り
100
AcDbCircle
 10
563.8461553662446
 20
327.2928522276207
 30
0.0
 40
1.5
100
AcDbArc
 50
27.81813928465427
 51
152.1818607153457
  0
ARC
  5
37E
330
18
100
AcDbEntity
  8
握り
100
AcDbCircle
 10
573.8461553662447
 20
327.2928522276207
 30
0.0
 40
1.5
100
AcDbArc
 50
27.81813928465427
 51
152.1818607153457
  0
ARC
  5
37F
330
18
100
AcDbEntity
  8
握り
100
AcDbCircle
 10
583.8461553662447
 20
327.2928522276207
 30
0.0
 40
1.5
100
AcDbArc
 50
27.81813928465427
 51
152.1818607153457
  0
ARC
  5
380
330
18
100
AcDbEntity
  8
握り
100
AcDbCircle
 10
593.8461553662447
 20
327.2928522276207
 30
0.0
 40
1.5
100
AcDbArc
 50
27.81813928465427
 51
152.1818607153457
  0
ARC
  5
381
330
18
100
AcDbEntity
  8
握り
100
AcDbCircle
 10
603.8461553662447
 20
327.2928522276207
 30
0.0
 40
1.5
100
AcDbArc
 50
27.81813928465427
 51
152.1818607153457
  0
HATCH
  5
382
330
18
100
AcDbEntity
  8
ROGO
 62
     4
100
AcDbHatch
 10
0.0
 20
0.0
 30
0.0
210
0.0
220
0.0
230
1.0
  2
SOLID
 70
     1
 71
     1
 91
        2
 92
        5
 93
        6
 72
     4
 94
        3
 73
     0
 74
     0
 95
       38
 96
       34
 40
0.0
 40
0.0
 40
0.0
 40
0.0
 40
0.2582400211805774
 40
0.3393418442955424
 40
0.443552172800835
 40
0.530394283206717
 40
0.6036667919818254
 40
0.7009894053152177
 40
0.7507174249931042
 40
0.8067242281503032
 40
0.8892677166883521
 40
0.9827715778106668
 40
1.043426616793024
 40
1.109318337455068
 40
1.182564491755753
 40
1.293719242428883
 40
1.399327847180614
 40
1.448424760475743
 40
1.50441322219426
 40
1.570741059842362
 40
1.617957956886697
 40
1.657539314700464
 40
1.714052551848318
 40
1.776150918813051
 40
1.838248940024221
 40
1.892584795022379
 40
2.017023561310864
 40
2.066120474605993
 40
2.164314359515976
 40
2.251113385583432
 40
2.417283613623161
 40
2.622320469312984
 40
2.918423525691272
 40
2.918423525691272
 40
2.918423525691272
 40
2.918423525691272
 10
553.1512440572442
 20
315.389681086115
 10
553.0651649177788
 20
315.3836002016852
 10
552.9520521097485
 20
315.3756095791321
 10
552.8084252918781
 20
315.336260113125
 10
552.7301327855338
 20
315.2893822281852
 10
552.6486537836521
 20
315.2549247357558
 10
552.5791853459593
 20
315.2039000225427
 10
552.5089194878222
 20
315.1776074794092
 10
552.4597171829996
 20
315.1301973245912
 10
552.4027695285241
 20
315.1012371557698
 10
552.3574211001878
 20
315.0364158786064
 10
552.3067344194283
 20
314.9758103333801
 10
552.2479314931323
 20
314.9315709882693
 10
552.1996711423333
 20
314.8851067326087
 10
552.1553989810127
 20
314.8133984252033
 10
552.1291967344824
 20
314.7181193185095
 10
552.0553369996121
 20
314.6579635266735
 10
552.0442160360647
 20
314.5856383157077
 10
552.0033619643566
 20
314.5429676582923
 10
551.985597185134
 20
314.4878859697425
 10
551.9788315020997
 20
314.4374214135699
 10
551.9707110691821
 20
314.3902910115296
 10
551.9494695545643
 20
314.3407119104754
 10
551.956402858223
 20
314.2794686548541
 10
551.9544277681633
 20
314.2201647776734
 10
551.955590110982
 20
314.1401026967998
 10
551.9513950547731
 20
314.0621524154862
 10
551.9848489840807
 20
313.9773240209601
 10
552.0046459092276
 20
313.9017112428649
 10
552.0588630091471
 20
313.7970161825058
 10
552.1523863703154
 20
313.6762207200643
 10
552.3302288646261
 20
313.5295979153605
 10
552.501229622568
 20
313.5147237143357
 10
552.6022669693255
 20
313.5059351579295
 72
     1
 10
552.6022669693255
 20
313.5059351579295
 11
553.67434385959
 21
313.5059351579295
 72
     4
 94
        3
 73
     0
 74
     0
 95
       11
 96
        7
 40
0.1647869275458135
 40
0.1647869275458135
 40
0.1647869275458135
 40
0.1647869275458135
 40
0.2545010798212315
 40
0.5111620267764023
 40
0.7602998271033902
 40
0.8850764140209603
 40
0.8850764140209603
 40
0.8850764140209603
 40
0.8850764140209603
 10
553.6743438595904
 20
313.5059351579295
 10
553.6893037171902
 20
313.5056468498681
 10
553.7470618526596
 20
313.5045337285728
 10
553.8457711985115
 20
313.5187144865508
 10
553.9496265801375
 20
313.5323036213699
 10
554.0115423107577
 20
313.542200178204
 10
554.031511657616
 20
313.5477586535133
 72
     4
 94
        3
 73
     0
 74
     0
 95
        9
 96
        5
 40
0.0
 40
0.0
 40
0.0
 40
0.0
 40
0.1622561919360204
 40
0.3804197703110171
 40
0.3804197703110171
 40
0.3804197703110171
 40
0.3804197703110171
 10
554.031511657616
 20
313.5477586535133
 10
554.0836330409274
 20
313.5637048531178
 10
554.2058348776095
 20
313.6010917134806
 10
554.3068015879477
 20
313.6801093103013
 10
554.3647040960276
 20
313.725424414884
 72
     4
 94
        3
 73
     0
 74
     0
 95
       25
 96
       21
 40
0.0
 40
0.0
 40
0.0
 40
0.0
 40
0.165525918914855
 40
0.3412380755365305
 40
0.5940540902285263
 40
0.7697671103696209
 40
0.9377330196075423
 40
1.11479469302833
 40
1.274661249598185
 40
1.574522170874768
 40
1.815540668866877
 40
2.15849091873445
 40
2.536227739636605
 40
2.738070817316548
 40
2.925680654369045
 40
3.162706124480894
 40
3.395643218188267
 40
3.648478129958861
 40
3.928509979727306
 40
4.337226830236035
 40
4.337226830236035
 40
4.337226830236035
 40
4.337226830236035
 10
554.3647040960276
 20
313.725424414884
 10
554.3859793208759
 20
313.7430054776635
 10
554.4263326055957
 20
313.7848199394089
 10
554.4979058007952
 20
313.8525918656068
 10
554.5609774576617
 20
313.931551537684
 10
554.6387808872578
 20
313.9955455846461
 10
554.6792851094564
 20
314.0737830508568
 10
554.7376687484623
 20
314.1353151515697
 10
554.7866430612015
 20
314.2303454115563
 10
554.8281953450586
 20
314.3395050760479
 10
554.8678097100549
 20
314.4817926241957
 10
554.882990343393
 20
314.6423141285465
 10
554.8605211181827
 20
314.797618603448
 10
554.8062411500759
 20
314.9137035970721
 10
554.7663352061199
 20
315.0104484751665
 10
554.7057729366307
 20
315.102082908991
 10
554.6366795725441
 20
315.2017454894683
 10
554.5393392571736
 20
315.2841825784898
 10
554.4121254591435
 20
315.3836149918833
 10
554.2936353052598
 20
315.3874219583205
 10
554.2233209475091
 20
315.389681086115
 72
     1
 10
554.2233209475092
 20
315.3896810861151
 11
553.1512440572445
 21
315.389681086115
 97
        6
330
388
330
387
330
389
330
386
330
385
330
384
 92
       20
 93
        1
 72
     3
 10
553.3976131924311
 20
314.4215439543736
 11
0.2546924415247531
 21
0.2239701316915159
 40
0.6788083417438792
 50
0.0
 51
360.0
 73
     1
 97
        1
330
383
 75
     0
 76
     1
 47
0.088756267210375
 98
        2
 10
553.4725150149577
 20
314.8693829119793
 10
553.4725150149577
 20
314.8693829119793
450
        0
451
        0
460
0.0
461
0.0
452
        0
462
0.0
453
        0
470

  0
ELLIPSE
  5
383
102
{ACAD_REACTORS
330
382
102
}
330
18
100
AcDbEntity
  8
ROGO
 62
     4
100
AcDbEllipse
 10
553.3976131924311
 20
314.4215439543736
 30
0.0
 11
0.2546924415247531
 21
0.2239701316915159
 31
0.0
210
0.0
220
0.0
230
1.0
 40
0.6788083417438792
 41
0.0
 42
6.283185307179586
  0
SPLINE
  5
384
102
{ACAD_REACTORS
330
382
102
}
330
18
100
AcDbEntity
  8
ROGO
 62
     4
100
AcDbSpline
210
0.0
220
0.0
230
1.0
 70
     8
 71
     3
 72
     9
 73
     5
 74
     3
 42
0.0000000001
 43
0.0000000001
 44
0.0000000001
 40
0.0
 40
0.0
 40
0.0
 40
0.0
 40
0.1622561919360204
 40
0.3804197703110171
 40
0.3804197703110171
 40
0.3804197703110171
 40
0.3804197703110171
 10
554.031511657616
 20
313.5477586535133
 30
0.0
 10
554.0836330409274
 20
313.5637048531179
 30
0.0
 10
554.2058348776094
 20
313.6010917134806
 30
0.0
 10
554.3068015879478
 20
313.6801093103013
 30
0.0
 10
554.3647040960276
 20
313.725424414884
 30
0.0
 11
554.031511657616
 21
313.5477586535133
 31
0.0
 11
554.1840127493656
 21
313.6031706453272
 31
0.0
 11
554.3647040960276
 21
313.725424414884
 31
0.0
  0
SPLINE
  5
385
102
{ACAD_REACTORS
330
382
102
}
330
18
100
AcDbEntity
  8
ROGO
 62
     4
100
AcDbSpline
210
0.0
220
0.0
230
1.0
 70
     8
 71
     3
 72
    11
 73
     7
 74
     0
 42
0.0000000001
 43
0.0000000001
 40
0.1647869275458134
 40
0.1647869275458134
 40
0.1647869275458134
 40
0.1647869275458134
 40
0.2895635144633836
 40
0.5387013147903714
 40
0.7953622617455423
 40
0.8850764140209602
 40
0.8850764140209602
 40
0.8850764140209602
 40
0.8850764140209602
 10
554.031511657616
 20
313.5477586535133
 30
0.0
 10
554.0115423107577
 20
313.542200178204
 30
0.0
 10
553.9496265801375
 20
313.5323036213699
 30
0.0
 10
553.8457711985115
 20
313.5187144865508
 30
0.0
 10
553.7470618526596
 20
313.5045337285728
 30
0.0
 10
553.6893037171902
 20
313.5056468498681
 30
0.0
 10
553.6743438595904
 20
313.5059351579295
 30
0.0
  0
LINE
  5
386
102
{ACAD_REACTORS
330
382
102
}
330
18
100
AcDbEntity
  8
ROGO
 62
     4
100
AcDbLine
 10
552.6022669693255
 20
313.5059351579295
 30
0.0
 11
553.6743438595903
 21
313.5059351579295
 31
0.0
  0
LINE
  5
387
102
{ACAD_REACTORS
330
382
102
}
330
18
100
AcDbEntity
  8
ROGO
 62
     4
100
AcDbLine
 10
553.1512440572442
 20
315.389681086115
 30
0.0
 11
554.2233209475091
 21
315.389681086115
 31
0.0
  0
SPLINE
  5
388
102
{ACAD_REACTORS
330
382
102
}
330
18
100
AcDbEntity
  8
ROGO
 62
     4
100
AcDbSpline
210
0.0
220
0.0
230
1.0
 70
     8
 71
     3
 72
    25
 73
    21
 74
     0
 42
0.0000000001
 43
0.0000000001
 40
0.0
 40
0.0
 40
0.0
 40
0.0
 40
0.4087168505087288
 40
0.6887487002771746
 40
0.9415836120477687
 40
1.17452070575514
 40
1.41154617586699
 40
1.599156012919487
 40
1.80099909059943
 40
2.178735911501585
 40
2.521686161369157
 40
2.762704659361267
 40
3.06256558063785
 40
3.222432137207705
 40
3.399493810628493
 40
3.567459719866414
 40
3.743172740007509
 40
3.995988754699505
 40
4.17170091132118
 40
4.337226830236035
 40
4.337226830236035
 40
4.337226830236035
 40
4.337226830236035
 10
554.2233209475091
 20
315.389681086115
 30
0.0
 10
554.2936353052598
 20
315.3874219583205
 30
0.0
 10
554.4121254591435
 20
315.3836149918833
 30
0.0
 10
554.5393392571736
 20
315.2841825784898
 30
0.0
 10
554.6366795725441
 20
315.2017454894683
 30
0.0
 10
554.7057729366307
 20
315.102082908991
 30
0.0
 10
554.7663352061199
 20
315.0104484751665
 30
0.0
 10
554.8062411500759
 20
314.9137035970721
 30
0.0
 10
554.8605211181827
 20
314.797618603448
 30
0.0
 10
554.882990343393
 20
314.6423141285465
 30
0.0
 10
554.8678097100549
 20
314.4817926241957
 30
0.0
 10
554.8281953450586
 20
314.3395050760479
 30
0.0
 10
554.7866430612015
 20
314.2303454115563
 30
0.0
 10
554.7376687484623
 20
314.1353151515697
 30
0.0
 10
554.6792851094564
 20
314.0737830508568
 30
0.0
 10
554.6387808872578
 20
313.9955455846461
 30
0.0
 10
554.5609774576617
 20
313.931551537684
 30
0.0
 10
554.4979058007952
 20
313.8525918656068
 30
0.0
 10
554.4263326055957
 20
313.7848199394089
 30
0.0
 10
554.3859793208759
 20
313.7430054776635
 30
0.0
 10
554.3647040960276
 20
313.725424414884
 30
0.0
  0
SPLINE
  5
389
102
{ACAD_REACTORS
330
382
102
}
330
18
100
AcDbEntity
  8
ROGO
 62
     4
100
AcDbSpline
210
0.0
220
0.0
230
1.0
 70
     8
 71
     3
 72
    38
 73
    34
 74
    32
 42
0.0000000001
 43
0.0000000001
 44
0.0000000001
 40
0.0
 40
0.0
 40
0.0
 40
0.0
 40
0.2582400211805774
 40
0.3393418442955424
 40
0.443552172800835
 40
0.530394283206717
 40
0.6036667919818254
 40
0.7009894053152177
 40
0.7507174249931042
 40
0.8067242281503032
 40
0.8892677166883521
 40
0.9827715778106668
 40
1.043426616793024
 40
1.109318337455068
 40
1.182564491755753
 40
1.293719242428883
 40
1.399327847180614
 40
1.448424760475743
 40
1.50441322219426
 40
1.570741059842362
 40
1.617957956886697
 40
1.657539314700464
 40
1.714052551848318
 40
1.776150918813051
 40
1.838248940024221
 40
1.892584795022379
 40
2.017023561310864
 40
2.066120474605993
 40
2.164314359515976
 40
2.251113385583432
 40
2.417283613623161
 40
2.622320469312984
 40
2.918423525691272
 40
2.918423525691272
 40
2.918423525691272
 40
2.918423525691272
 10
553.1512440572442
 20
315.389681086115
 30
0.0
 10
553.065164917779
 20
315.3836002016851
 30
0.0
 10
552.952052109749
 20
315.375609579132
 30
0.0
 10
552.808425291878
 20
315.336260113125
 30
0.0
 10
552.7301327855338
 20
315.2893822281852
 30
0.0
 10
552.6486537836519
 20
315.2549247357558
 30
0.0
 10
552.5791853459593
 20
315.2039000225428
 30
0.0
 10
552.508919487822
 20
315.1776074794092
 30
0.0
 10
552.4597171829998
 20
315.1301973245911
 30
0.0
 10
552.402769528524
 20
315.1012371557698
 30
0.0
 10
552.3574211001879
 20
315.0364158786064
 30
0.0
 10
552.3067344194283
 20
314.9758103333801
 30
0.0
 10
552.2479314931323
 20
314.9315709882693
 30
0.0
 10
552.1996711423333
 20
314.8851067326088
 30
0.0
 10
552.1553989810127
 20
314.8133984252033
 30
0.0
 10
552.1291967344824
 20
314.7181193185094
 30
0.0
 10
552.0553369996121
 20
314.6579635266736
 30
0.0
 10
552.0442160360647
 20
314.5856383157077
 30
0.0
 10
552.0033619643566
 20
314.5429676582923
 30
0.0
 10
551.9855971851338
 20
314.4878859697425
 30
0.0
 10
551.9788315020998
 20
314.4374214135699
 30
0.0
 10
551.9707110691821
 20
314.3902910115295
 30
0.0
 10
551.9494695545642
 20
314.3407119104754
 30
0.0
 10
551.9564028582233
 20
314.2794686548541
 30
0.0
 10
551.9544277681633
 20
314.2201647776734
 30
0.0
 10
551.955590110982
 20
314.1401026967999
 30
0.0
 10
551.9513950547735
 20
314.0621524154862
 30
0.0
 10
551.9848489840805
 20
313.97732402096
 30
0.0
 10
552.0046459092275
 20
313.9017112428649
 30
0.0
 10
552.0588630091472
 20
313.7970161825058
 30
0.0
 10
552.1523863703154
 20
313.6762207200643
 30
0.0
 10
552.3302288646261
 20
313.5295979153605
 30
0.0
 10
552.501229622568
 20
313.5147237143356
 30
0.0
 10
552.6022669693255
 20
313.5059351579295
 30
0.0
 11
553.1512440572442
 21
315.389681086115
 31
0.0
 11
552.8948774330339
 21
315.3586317297559
 31
0.0
 11
552.8171905957079
 21
315.3353452311169
 31
0.0
 11
552.7239667571251
 21
315.2887715423316
 31
0.0
 11
552.6462799197992
 21
315.249960365513
 31
0.0
 11
552.5841306940773
 21
315.2111488429409
 31
0.0
 11
552.4986753561229
 21
315.1645754999093
 31
0.0
 11
552.4598316322863
 21
315.1335264893037
 31
0.0
 11
552.4132194078212
 21
315.1024771329446
 31
0.0
 11
552.3588386827278
 21
315.0403791117334
 31
0.0
 11
552.296689457006
 21
314.9705189243091
 31
0.0
 11
552.2500772325408
 21
314.931707401737
 31
0.0
 11
552.2034656184231
 21
314.8851340587054
 31
0.0
 11
552.1646218945865
 21
314.8230360374942
 31
0.0
 11
552.1180102804688
 21
314.7221264937109
 31
0.0
 11
552.0558604443996
 21
314.6367416281071
 31
0.0
 11
552.0403234431427
 21
314.590167939322
 31
0.0
 11
552.0092488302818
 21
314.5435945962903
 31
0.0
 11
551.9859427180493
 21
314.4814962293256
 31
0.0
 11
551.9781736070736
 21
314.434922886294
 31
0.0
 11
551.9704051064452
 21
314.3961113637218
 31
0.0
 11
551.9548681051884
 21
314.3417758544772
 31
0.0
 11
551.9548681051884
 21
314.2796774875125
 31
0.0
 11
551.9548681051884
 21
314.2175794663013
 31
0.0
 11
551.9548681051884
 21
314.1632436113031
 31
0.0
 11
551.9626366058169
 21
314.0390475688807
 31
0.0
 11
551.9781736070736
 21
313.9924738800956
 31
0.0
 11
552.0092488302818
 21
313.8993268482788
 31
0.0
 11
552.0480919437712
 21
313.821704148888
 31
0.0
 11
552.1490848933297
 21
313.6897459402526
 31
0.0
 11
552.31222706861
 21
313.5655495520767
 31
0.0
 11
552.6022669693255
 21
313.5059351579295
 31
0.0
  0
HATCH
  5
38A
330
18
100
AcDbEntity
  8
ROGO
 62
     4
100
AcDbHatch
 10
0.0
 20
0.0
 30
0.0
210
0.0
220
0.0
230
1.0
  2
SOLID
 70
     1
 71
     1
 91
        2
 92
        7
 72
     0
 73
     1
 93
        8
 10
548.2112422951789
 20
315.3818564872974
 10
546.7106658912198
 20
315.3818564872973
 10
545.3579025625066
 20
313.5059351579296
 10
546.3968272077805
 20
313.5059351579296
 10
546.6543849757531
 20
313.863098972345
 10
547.8399235311594
 20
313.863098972345
 10
547.9985898498293
 20
313.5059351579296
 10
549.0446008814408
 20
313.5059351579296
 97
        8
330
3B1
330
3B7
330
3B2
330
3B3
330
3B5
330
38B
330
3B0
330
38D
 92
       22
 72
     0
 73
     1
 93
        3
 10
547.6725733803013
 20
314.239810417625
 10
546.9260389202462
 20
314.2398104176251
 10
547.3879914006936
 20
314.8804150916522
 97
        3
330
3B4
330
3B6
330
38C
 75
     0
 76
     1
 47
0.0128389261915577
 98
        2
 10
548.0937353058993
 20
314.9317966061417
 10
548.0937353058993
 20
314.9317966061417
450
        0
451
        0
460
0.0
461
0.0
452
        0
462
0.0
453
        0
470

  0
LINE
  5
38B
102
{ACAD_REACTORS
330
38A
102
}
330
18
100
AcDbEntity
  8
ROGO
 62
     4
100
AcDbLine
 10
547.8399235311593
 20
313.863098972345
 30
0.0
 11
547.9985898498292
 21
313.5059351579296
 31
0.0
  0
LINE
  5
38C
102
{ACAD_REACTORS
330
38A
102
}
330
18
100
AcDbEntity
  8
ROGO
 62
     4
100
AcDbLine
 10
547.3879914006937
 20
314.880415091652
 30
0.0
 11
547.6725733803013
 21
314.2398104176251
 31
0.0
  0
LINE
  5
38D
102
{ACAD_REACTORS
330
38A
102
}
330
18
100
AcDbEntity
  8
ROGO
 62
     4
100
AcDbLine
 10
548.2112422951789
 20
315.3818564872974
 30
0.0
 11
549.0446008814409
 21
313.5059351579296
 31
0.0
  0
HATCH
  5
38E
330
18
100
AcDbEntity
  8
ROGO
 62
     4
100
AcDbHatch
 10
0.0
 20
0.0
 30
0.0
210
0.0
220
0.0
230
1.0
  2
SOLID
 70
     1
 71
     1
 91
        2
 92
        5
 93
        6
 72
     1
 10
538.3235940912697
 20
312.4506010802889
 11
539.6861668854647
 21
312.4506010802889
 72
     1
 10
539.6861668854647
 20
312.4506010802889
 11
540.1636299580769
 21
313.5059351579296
 72
     1
 10
540.1636299580769
 20
313.5059351579296
 11
541.4373560554659
 21
313.5059351579296
 72
     4
 94
        3
 73
     0
 74
     0
 95
       18
 96
       14
 40
0.108740278791501
 40
0.108740278791501
 40
0.108740278791501
 40
0.108740278791501
 40
0.6623149649549278
 40
1.384304701649787
 40
2.097394834876493
 40
2.774073369849618
 40
3.428974823686337
 40
4.005208313035923
 40
4.455173659284313
 40
4.720999734343524
 40
5.086034088486724
 40
5.569973738255373
 40
6.060470601257719
 40
6.060470601257719
 40
6.060470601257719
 40
6.060470601257719
 10
541.4373560554657
 20
313.5059351579295
 10
541.5269987938866
 20
313.5066027002598
 10
541.7335564468203
 20
313.5081408725578
 10
542.0225289869736
 20
313.6625163532654
 10
542.2965575199635
 20
313.8591794680392
 10
542.5172688615083
 20
314.1048895120419
 10
542.6547786770457
 20
314.3858168513572
 10
542.6760785128273
 20
314.655059902174
 10
542.6630754863831
 20
314.8680278081118
 10
542.5701623313216
 20
315.0164717256873
 10
542.473567768572
 20
315.1671271216483
 10
542.2964460035046
 20
315.2976304213503
 10
542.1513203637181
 20
315.3548102660864
 10
542.077521024238
 20
315.3818564872974
 72
     1
 10
542.0775210242383
 20
315.3818564872974
 11
539.7739520056879
 21
315.3818564872974
 72
     1
 10
539.7739520056879
 20
315.3818564872974
 11
538.3235940912697
 21
312.4506010802889
 97
        6
330
3C9
330
3CC
330
3CA
330
3CB
330
3C3
330
3C8
 92
       20
 93
        4
 72
     1
 10
540.4584363756627
 20
314.1575442071564
 11
540.6841475133162
 21
314.6564323284212
 72
     1
 10
540.6841475133162
 20
314.6564323284212
 11
541.2641289405974
 21
314.6564323284212
 72
     4
 94
        3
 73
     0
 74
     0
 95
       15
 96
       11
 40
0.0
 40
0.0
 40
0.0
 40
0.0
 40
0.2199578613106558
 40
0.3202465475123651
 40
0.4340808827708152
 40
0.5116301246390283
 40
0.634275054953107
 40
0.7077360179240892
 40
0.8337709579493377
 40
0.875782631437913
 40
0.875782631437913
 40
0.875782631437913
 40
0.875782631437913
 10
541.2641289405983
 20
314.6564323284211
 10
541.3467408478257
 20
314.6568107350532
 10
541.4670192407659
 20
314.6573616742957
 10
541.5327917498578
 20
314.5085769543963
 10
541.503309375239
 20
314.4127828049144
 10
541.4662476274901
 20
314.3144320702747
 10
541.4007511252868
 20
314.2476012627469
 10
541.3128452258651
 20
314.1832319289799
 10
541.2297699500713
 20
314.1754397328951
 10
541.1757388086819
 20
314.1611233136746
 10
541.1622310168685
 20
314.1575442071563
 72
     1
 10
541.1622310168683
 20
314.1575442071563
 11
540.4584363756627
 21
314.1575442071564
 97
        4
330
3C7
330
3C5
330
3C6
330
3C4
 75
     0
 76
     1
 47
0.0514683685270805
 98
        2
 10
539.7862642246978
 20
314.4701582631703
 10
539.7862642246978
 20
314.4701582631703
450
        0
451
        0
460
0.0
461
0.0
452
        0
462
0.0
453
        0
470

  0
HATCH
  5
38F
330
18
100
AcDbEntity
  8
ROGO
 62
     4
100
AcDbHatch
 10
0.0
 20
0.0
 30
0.0
210
0.0
220
0.0
230
1.0
  2
SOLID
 70
     1
 71
     1
 91
        1
 92
        7
 72
     0
 73
     1
 93
       11
 10
557.0851562691549
 20
312.4506010802889
 10
558.1652759013037
 20
312.4506010802889
 10
558.546774885826
 20
313.2156918833167
 10
558.9282738703485
 20
312.4506010802889
 10
560.0083698703484
 20
312.4506010802889
 10
559.2775605620129
 20
313.916228783793
 10
561.0531444839148
 20
315.3818564872974
 10
559.9730484839148
 20
315.3818564872974
 10
559.4673155080878
 20
315.0618230461237
 10
559.6268945179749
 20
315.3818564872974
 10
558.546774885826
 20
315.3818564872974
 97
       11
330
397
330
39C
330
39D
330
39F
330
39E
330
3CB
330
399
330
39B
330
396
330
39A
330
398
 75
     0
 76
     1
 47
0.0514683685270805
 98
        1
 10
558.453815962392
 20
314.1242907966667
450
        0
451
        0
460
0.0
461
0.0
452
        0
462
0.0
453
        0
470

  0
HATCH
  5
390
330
18
100
AcDbEntity
  8
ROGO
 62
     4
100
AcDbHatch
 10
0.0
 20
0.0
 30
0.0
210
0.0
220
0.0
230
1.0
  2
SOLID
 70
     1
 71
     1
 91
        1
 92
        7
 72
     0
 73
     1
 93
        4
 10
539.8190969360675
 20
312.7444156607049
 10
539.6861668854649
 20
312.4506010802889
 10
557.0851562691549
 20
312.4506010802889
 10
557.231661708278
 20
312.7444156607049
 97
        4
330
394
330
3C3
330
3CB
330
39E
 75
     0
 76
     1
 47
0.0514683685270805
 98
        1
 10
550.8137187373365
 20
312.6667064261266
450
        0
451
        0
460
0.0
461
0.0
452
        0
462
0.0
453
        0
470

  0
HATCH
  5
391
330
18
100
AcDbEntity
  8
ROGO
 62
     4
100
AcDbHatch
 10
0.0
 20
0.0
 30
0.0
210
0.0
220
0.0
230
1.0
  2
SOLID
 70
     1
 71
     1
 91
        1
 92
        5
 93
        8
 72
     4
 94
        3
 73
     0
 74
     0
 95
       26
 96
       22
 40
0.0
 40
0.0
 40
0.0
 40
0.0
 40
0.3403136209416859
 40
0.5681272389515052
 40
0.7323994099695983
 40
0.8550561247335963
 40
1.014148321321381
 40
1.13027011535639
 40
1.339959009792003
 40
1.510642755247356
 40
1.626735051276114
 40
1.740569491433573
 40
1.94419717410045
 40
2.088186249714629
 40
2.165735491582895
 40
2.275891898886364
 40
2.355438312276665
 40
2.470674802864995
 40
2.535888688806186
 40
2.677801419664424
 40
2.74260000535881
 40
2.74260000535881
 40
2.74260000535881
 40
2.74260000535881
 10
556.275255641214
 20
315.3818564872974
 10
556.1597479401302
 20
315.3749650997758
 10
555.9669167771787
 20
315.3634604619233
 10
555.755189333305
 20
315.2348383135544
 10
555.6000654127188
 20
315.1600630487794
 10
555.4894312206845
 20
315.0584124467515
 10
555.4083359094449
 20
314.9534148002922
 10
555.3061000455913
 20
314.828310874399
 10
555.2227296200116
 20
314.6826324151636
 10
555.1802741306784
 20
314.522069356502
 10
555.142667461173
 20
314.394099667132
 10
555.1147777254975
 20
314.2514941487143
 10
555.1218736638018
 20
314.0974300228253
 10
555.1320353722079
 20
313.9543431499628
 10
555.1774049292422
 20
313.8522005457817
 10
555.229072818371
 20
313.7794820501685
 10
555.2923394410207
 20
313.6993906891703
 10
555.3615669614742
 20
313.646346440127
 10
555.4188237716322
 20
313.5502532184977
 10
555.5190498862929
 20
313.5379910303887
 10
555.5827575921155
 20
313.5135856162788
 10
555.6027282899175
 20
313.5059351579295
 72
     1
 10
555.6027282899174
 20
313.5059351579295
 11
557.2184840256384
 21
313.5059351579295
 72
     1
 10
557.2184840256384
 20
313.5059351579295
 11
557.5665079123225
 21
314.2038921269876
 72
     1
 10
557.5665079123225
 20
314.2038921269876
 11
556.3669635967908
 21
314.2038921269876
 72
     4
 94
        3
 73
     0
 74
     0
 95
       16
 96
       12
 40
0.0
 40
0.0
 40
0.0
 40
0.0
 40
0.1027738093187964
 40
0.2066076558227444
 40
0.268539878558716
 40
0.3279201337292112
 40
0.3931337605654557
 40
0.4386740937218511
 40
0.4818879174817272
 40
0.569519347887583
 40
0.7489346372632488
 40
0.7489346372632488
 40
0.7489346372632488
 40
0.7489346372632488
 10
556.3669635967908
 20
314.2038921269875
 10
556.330781112974
 20
314.2145375442569
 10
556.2580429493041
 20
314.2359381785417
 10
556.2519553523786
 20
314.339680591595
 10
556.2602488224671
 20
314.413605550108
 10
556.2949818937202
 20
314.4674272368453
 10
556.3371191335213
 20
314.5065895954677
 10
556.3528086967375
 20
314.5575924442994
 10
556.3989267383438
 20
314.59610597618
 10
556.4807063831876
 20
314.6608418432884
 10
556.5711405134898
 20
314.6746291365533
 10
556.6318986672349
 20
314.6838921269876
 72
     1
 10
556.6318986672349
 20
314.6838921269877
 11
557.8058514148792
 21
314.6838921269876
 72
     1
 10
557.8058514148792
 20
314.6838921269876
 11
558.1538789870802
 21
315.3818564872974
 72
     1
 10
558.1538789870802
 20
315.3818564872974
 11
556.275255641214
 21
315.3818564872974
 97
        8
330
3A6
330
3A4
330
3A7
330
3A3
330
3A2
330
3A5
330
3A1
330
3A0
 75
     0
 76
     1
 47
0.0514683685270805
 98
        1
 10
556.5994233979067
 20
315.0383689113273
450
        0
451
        0
460
0.0
461
0.0
452
        0
462
0.0
453
        0
470

  0
HATCH
  5
392
330
18
100
AcDbEntity
  8
ROGO
 62
     4
100
AcDbHatch
 10
0.0
 20
0.0
 30
0.0
210
0.0
220
0.0
230
1.0
  2
SOLID
 70
     1
 71
     1
 91
        1
 92
        5
 93
        8
 72
     1
 10
551.7614660278394
 20
314.6838921269877
 11
552.1094936000403
 21
315.3818564872974
 72
     1
 10
552.1094936000403
 20
315.3818564872974
 11
550.2308702541745
 21
315.3818564872974
 72
     4
 94
        3
 73
     0
 74
     0
 95
       26
 96
       22
 40
0.0
 40
0.0
 40
0.0
 40
0.0
 40
0.3403136209417982
 40
0.5681272389515159
 40
0.7323994099697078
 40
0.8550561247337057
 40
1.014148321321447
 40
1.13027011535643
 40
1.339959009791999
 40
1.510642755247373
 40
1.626735051276186
 40
1.740569491433665
 40
1.944197174100541
 40
2.088186249714737
 40
2.16573549158295
 40
2.275891898886404
 40
2.355438312276705
 40
2.470674802865115
 40
2.535888688806235
 40
2.677801419664453
 40
2.742600005358966
 40
2.742600005358966
 40
2.742600005358966
 40
2.742600005358966
 10
550.2308702541743
 20
315.3818564872974
 10
550.1153625530905
 20
315.3749650997759
 10
549.9225313901392
 20
315.3634604619234
 10
549.710803946265
 20
315.2348383135543
 10
549.5556800256791
 20
315.1600630487793
 10
549.4450458336445
 20
315.0584124467515
 10
549.3639505224052
 20
314.9534148002924
 10
549.2617146585517
 20
314.8283108743988
 10
549.1783442329717
 20
314.6826324151639
 10
549.1358887436385
 20
314.522069356502
 10
549.0982820741334
 20
314.3940996671321
 10
549.0703923384577
 20
314.2514941487143
 10
549.0774882767617
 20
314.0974300228253
 10
549.0876499851682
 20
313.9543431499626
 10
549.1330195422026
 20
313.8522005457819
 10
549.1846874313311
 20
313.7794820501684
 10
549.2479540539809
 20
313.6993906891703
 10
549.3171815744345
 20
313.646346440127
 10
549.3744383845925
 20
313.5502532184976
 10
549.474664499253
 20
313.5379910303888
 10
549.5383722050758
 20
313.5135856162789
 10
549.5583429028778
 20
313.5059351579295
 72
     1
 10
549.5583429028776
 20
313.5059351579296
 11
551.1740986385985
 21
313.5059351579296
 72
     1
 10
551.1740986385985
 20
313.5059351579296
 11
551.5221225252827
 21
314.2038921269876
 72
     1
 10
551.5221225252827
 20
314.2038921269876
 11
550.322578209751
 21
314.2038921269876
 72
     4
 94
        3
 73
     0
 74
     0
 95
       16
 96
       12
 40
0.0
 40
0.0
 40
0.0
 40
0.0
 40
0.1027738093189234
 40
0.2066076558227377
 40
0.2685398785587465
 40
0.3279201337292418
 40
0.3931337605655129
 40
0.4386740937218573
 40
0.4818879174818138
 40
0.5695193478876036
 40
0.7489346372632694
 40
0.7489346372632694
 40
0.7489346372632694
 40
0.7489346372632694
 10
550.322578209751
 20
314.2038921269876
 10
550.2863957259343
 20
314.2145375442569
 10
550.2136575622642
 20
314.2359381785417
 10
550.207569965339
 20
314.339680591595
 10
550.2158634354271
 20
314.4136055501081
 10
550.2505965066805
 20
314.4674272368454
 10
550.2927337464816
 20
314.5065895954678
 10
550.3084233096977
 20
314.5575924442995
 10
550.3545413513038
 20
314.5961059761802
 10
550.436320996148
 20
314.6608418432882
 10
550.5267551264501
 20
314.6746291365532
 10
550.587513280195
 20
314.6838921269876
 72
     1
 10
550.587513280195
 20
314.6838921269876
 11
551.7614660278394
 21
314.6838921269877
 97
        8
330
3A8
330
3AB
330
3AF
330
3A9
330
3AC
330
3AA
330
3AD
330
3AE
 75
     0
 76
     1
 47
0.0514683685270805
 98
        1
 10
550.8878943930413
 20
314.9642544068017
450
        0
451
        0
460
0.0
461
0.0
452
        0
462
0.0
453
        0
470

  0
HATCH
  5
393
330
18
100
AcDbEntity
  8
ROGO
 62
     4
100
AcDbHatch
 10
0.0
 20
0.0
 30
0.0
210
0.0
220
0.0
230
1.0
  2
SOLID
 70
     1
 71
     1
 91
        1
 92
        1
 93
       12
 72
     1
 10
543.4384124431032
 20
315.3818564872974
 11
545.9756740837946
 21
315.3818564872974
 72
     1
 10
545.9756740837946
 20
315.3818564872974
 11
545.7630538041737
 21
314.9521388720229
 72
     1
 10
545.7630538041737
 20
314.9521388720229
 11
544.4295332010052
 21
314.9521388720229
 72
     1
 10
544.4295332010052
 20
314.9521388720229
 11
544.2632905637529
 21
314.6161530960456
 72
     1
 10
544.2632905637529
 20
314.6161530960456
 11
545.5968111669216
 21
314.6161530960456
 72
     1
 10
545.5968111669216
 20
314.6161530960456
 11
545.4263449160304
 21
314.2716311579296
 72
     1
 10
545.4263449160304
 20
314.2716311579296
 11
544.0928243128619
 21
314.2716311579296
 72
     1
 10
544.0928243128619
 20
314.2716311579296
 11
543.9265746376955
 21
313.9356311579295
 72
     1
 10
543.9265746376955
 20
313.9356311579295
 11
545.2600952408642
 21
313.9356311579295
 72
     1
 10
545.2600952408642
 20
313.9356311579295
 11
545.0474856562801
 21
313.5059351579296
 72
     1
 10
545.0474856562801
 20
313.5059351579296
 11
542.5102240155887
 21
313.5059351579296
 72
     1
 10
542.5102240155888
 20
313.5059351579296
 11
543.4384124431032
 21
315.3818564872974
 97
       12
330
395
330
3C1
330
3BE
330
3BF
330
3BD
330
3BA
330
3BB
330
3B8
330
3BC
330
3B9
330
3C0
330
3C2
 75
     0
 76
     1
 98
        1
 10
439.6525139020903
 20
185.6702907042812
450
        0
451
        0
460
0.0
461
0.0
452
        0
462
0.0
453
        0
470

  0
LINE
  5
394
102
{ACAD_REACTORS
330
390
102
}
330
18
100
AcDbEntity
  8
ROGO
 62
     4
100
AcDbLine
 10
539.7987205833295
 20
312.7444156607049
 30
0.0
 11
557.2316617082779
 21
312.7444156607049
 31
0.0
  0
LINE
  5
395
102
{ACAD_REACTORS
330
393
102
}
330
18
100
AcDbEntity
  8
ROGO
 62
     4
100
AcDbLine
 10
543.4384124431032
 20
315.3818564872974
 30
0.0
 11
545.9756740837946
 21
315.3818564872974
 31
0.0
  0
LINE
  5
396
102
{ACAD_REACTORS
330
38F
102
}
330
18
100
AcDbEntity
  8
ROGO
 62
     4
100
AcDbLine
 10
558.9282738703485
 20
312.4506010802889
 30
0.0
 11
560.0083698703484
 21
312.4506010802889
 31
0.0
  0
LINE
  5
397
102
{ACAD_REACTORS
330
38F
102
}
330
18
100
AcDbEntity
  8
ROGO
 62
     4
100
AcDbLine
 10
559.9730484839148
 20
315.3818564872974
 30
0.0
 11
561.0531444839146
 21
315.3818564872974
 31
0.0
  0
LINE
  5
398
102
{ACAD_REACTORS
330
38F
102
}
330
18
100
AcDbEntity
  8
ROGO
 62
     4
100
AcDbLine
 10
559.2775605620129
 20
313.9162287837931
 30
0.0
 11
561.0531444839146
 21
315.3818564872974
 31
0.0
  0
LINE
  5
399
102
{ACAD_REACTORS
330
38F
102
}
330
18
100
AcDbEntity
  8
ROGO
 62
     4
100
AcDbLine
 10
558.5467748858262
 20
313.2156918833168
 30
0.0
 11
558.1652759013037
 21
312.4506010802889
 31
0.0
  0
LINE
  5
39A
102
{ACAD_REACTORS
330
38F
102
}
330
18
100
AcDbEntity
  8
ROGO
 62
     4
100
AcDbLine
 10
559.2775605620129
 20
313.9162287837931
 30
0.0
 11
560.0083698703484
 21
312.4506010802889
 31
0.0
  0
LINE
  5
39B
102
{ACAD_REACTORS
330
38F
102
}
330
18
100
AcDbEntity
  8
ROGO
 62
     4
100
AcDbLine
 10
558.5467748858262
 20
313.2156918833168
 30
0.0
 11
558.9282738703485
 21
312.4506010802889
 31
0.0
  0
LINE
  5
39C
102
{ACAD_REACTORS
330
38F
102
}
330
18
100
AcDbEntity
  8
ROGO
 62
     4
100
AcDbLine
 10
559.4673155080878
 20
315.0618230461237
 30
0.0
 11
559.9730484839148
 21
315.3818564872974
 31
0.0
  0
LINE
  5
39D
102
{ACAD_REACTORS
330
38F
102
}
330
18
100
AcDbEntity
  8
ROGO
 62
     4
100
AcDbLine
 10
559.6268945179749
 20
315.3818564872974
 30
0.0
 11
559.4673155080878
 21
315.0618230461237
 31
0.0
  0
LINE
  5
39E
102
{ACAD_REACTORS
330
390
330
38F
102
}
330
18
100
AcDbEntity
  8
ROGO
 62
     4
100
AcDbLine
 10
558.5467748858262
 20
315.3818564872974
 30
0.0
 11
557.0851562691549
 21
312.4506010802889
 31
0.0
  0
LINE
  5
39F
102
{ACAD_REACTORS
330
38F
102
}
330
18
100
AcDbEntity
  8
ROGO
 62
     4
100
AcDbLine
 10
558.5467748858262
 20
315.3818564872974
 30
0.0
 11
559.6268945179749
 21
315.3818564872974
 31
0.0
  0
LINE
  5
3A0
102
{ACAD_REACTORS
330
391
102
}
330
18
100
AcDbEntity
  8
ROGO
 62
     4
100
AcDbLine
 10
558.1538789870802
 20
315.3818564872974
 30
0.0
 11
557.8058514148792
 21
314.6838921269876
 31
0.0
  0
LINE
  5
3A1
102
{ACAD_REACTORS
330
391
102
}
330
18
100
AcDbEntity
  8
ROGO
 62
     4
100
AcDbLine
 10
556.6318986672347
 20
314.6838921269876
 30
0.0
 11
557.8058514148792
 21
314.6838921269876
 31
0.0
  0
LINE
  5
3A2
102
{ACAD_REACTORS
330
391
102
}
330
18
100
AcDbEntity
  8
ROGO
 62
     4
100
AcDbLine
 10
556.3669635967906
 20
314.2038921269876
 30
0.0
 11
557.5665079123224
 21
314.2038921269876
 31
0.0
  0
LINE
  5
3A3
102
{ACAD_REACTORS
330
391
102
}
330
18
100
AcDbEntity
  8
ROGO
 62
     4
100
AcDbLine
 10
557.5665079123224
 20
314.2038921269876
 30
0.0
 11
557.2184840256384
 21
313.5059351579295
 31
0.0
  0
SPLINE
  5
3A4
102
{ACAD_REACTORS
330
391
102
}
330
18
100
AcDbEntity
  8
ROGO
 62
     4
100
AcDbSpline
210
0.0
220
0.0
230
1.0
 70
     8
 71
     3
 72
    26
 73
    22
 74
    20
 42
0.0000000001
 43
0.0000000001
 44
0.0000000001
 40
0.0
 40
0.0
 40
0.0
 40
0.0
 40
0.3403136209416859
 40
0.5681272389515052
 40
0.7323994099695983
 40
0.8550561247335963
 40
1.014148321321381
 40
1.13027011535639
 40
1.339959009792003
 40
1.510642755247356
 40
1.626735051276114
 40
1.740569491433573
 40
1.94419717410045
 40
2.088186249714629
 40
2.165735491582895
 40
2.275891898886364
 40
2.355438312276665
 40
2.470674802864995
 40
2.535888688806186
 40
2.677801419664424
 40
2.74260000535881
 40
2.74260000535881
 40
2.74260000535881
 40
2.74260000535881
 10
556.275255641214
 20
315.3818564872974
 30
0.0
 10
556.1597479401301
 20
315.3749650997758
 30
0.0
 10
555.9669167771787
 20
315.3634604619233
 30
0.0
 10
555.755189333305
 20
315.2348383135544
 30
0.0
 10
555.6000654127188
 20
315.1600630487793
 30
0.0
 10
555.4894312206844
 20
315.0584124467515
 30
0.0
 10
555.4083359094449
 20
314.9534148002922
 30
0.0
 10
555.3061000455913
 20
314.828310874399
 30
0.0
 10
555.2227296200116
 20
314.6826324151636
 30
0.0
 10
555.1802741306785
 20
314.522069356502
 30
0.0
 10
555.1426674611729
 20
314.394099667132
 30
0.0
 10
555.1147777254977
 20
314.2514941487143
 30
0.0
 10
555.1218736638018
 20
314.0974300228254
 30
0.0
 10
555.1320353722078
 20
313.9543431499627
 30
0.0
 10
555.1774049292423
 20
313.8522005457818
 30
0.0
 10
555.2290728183709
 20
313.7794820501684
 30
0.0
 10
555.2923394410207
 20
313.6993906891703
 30
0.0
 10
555.3615669614742
 20
313.6463464401271
 30
0.0
 10
555.4188237716322
 20
313.5502532184976
 30
0.0
 10
555.5190498862929
 20
313.5379910303888
 30
0.0
 10
555.5827575921154
 20
313.5135856162788
 30
0.0
 10
555.6027282899175
 20
313.5059351579295
 30
0.0
 11
556.275255641214
 21
315.3818564872974
 31
0.0
 11
555.9389919655656
 21
315.3295105128778
 31
0.0
 11
555.7351955321728
 21
315.2276966715444
 31
0.0
 11
555.5925383217645
 21
315.1462456648623
 31
0.0
 11
555.5008303661877
 21
315.0647943262569
 31
0.0
 11
555.3989324424581
 21
314.942617650272
 31
0.0
 11
555.3276038372538
 21
314.8509852262643
 31
0.0
 11
555.2257053275907
 21
314.6677200463253
 31
0.0
 11
555.1747566586924
 21
314.5048177010378
 31
0.0
 11
555.1441873401669
 21
314.3928224423788
 31
0.0
 11
555.1238074038609
 21
314.2808271837196
 31
0.0
 11
555.1238074038609
 21
314.0771995010528
 31
0.0
 11
555.1441873401669
 21
313.9346599904166
 31
0.0
 11
555.1747566586924
 21
313.8633900691368
 31
0.0
 11
555.2358952957436
 21
313.7717576451291
 31
0.0
 11
555.2868445505753
 21
313.7106691411749
 31
0.0
 11
555.3683625379989
 21
313.6292181344929
 31
0.0
 11
555.4091218246776
 21
313.5783110478645
 31
0.0
 11
555.5415896528663
 21
313.5274042931594
 31
0.0
 11
555.6027282899175
 21
313.5059351579295
 31
0.0
  0
SPLINE
  5
3A5
102
{ACAD_REACTORS
330
391
102
}
330
18
100
AcDbEntity
  8
ROGO
 62
     4
100
AcDbSpline
210
0.0
220
0.0
230
1.0
 70
     8
 71
     3
 72
    16
 73
    12
 74
    10
 42
0.0000000001
 43
0.0000000001
 44
0.0000000001
 40
0.0
 40
0.0
 40
0.0
 40
0.0
 40
0.1794152893756658
 40
0.2670467197815217
 40
0.3102605435413978
 40
0.3558008766977931
 40
0.4210145035340376
 40
0.4803947587045328
 40
0.5423269814405045
 40
0.6461608279444525
 40
0.7489346372632488
 40
0.7489346372632488
 40
0.7489346372632488
 40
0.7489346372632488
 10
556.6318986672349
 20
314.6838921269876
 30
0.0
 10
556.5711405134898
 20
314.6746291365533
 30
0.0
 10
556.4807063831876
 20
314.6608418432883
 30
0.0
 10
556.3989267383438
 20
314.59610597618
 30
0.0
 10
556.3528086967376
 20
314.5575924442994
 30
0.0
 10
556.3371191335212
 20
314.5065895954678
 30
0.0
 10
556.2949818937203
 20
314.4674272368452
 30
0.0
 10
556.260248822467
 20
314.413605550108
 30
0.0
 10
556.2519553523789
 20
314.339680591595
 30
0.0
 10
556.2580429493041
 20
314.2359381785417
 30
0.0
 10
556.330781112974
 20
314.2145375442569
 30
0.0
 10
556.3669635967908
 20
314.2038921269875
 30
0.0
 11
556.6318986672349
 21
314.6838921269876
 31
0.0
 11
556.4586721383009
 21
314.6371757943484
 31
0.0
 11
556.3873435330967
 21
314.5862690396433
 31
0.0
 11
556.3567742145712
 21
314.5557247876662
 31
0.0
 11
556.3363942782651
 21
314.5149991183635
 31
0.0
 11
556.2956349915866
 21
314.4640923636585
 31
0.0
 11
556.2650656730609
 21
314.4131852770301
 31
0.0
 11
556.2548757049079
 21
314.3520971049994
 31
0.0
 11
556.275255641214
 21
314.2502829317426
 31
0.0
 11
556.3669635967908
 21
314.2038921269875
 31
0.0
  0
LINE
  5
3A6
102
{ACAD_REACTORS
330
391
102
}
330
18
100
AcDbEntity
  8
ROGO
 62
     4
100
AcDbLine
 10
556.2752556412146
 20
315.3818564872974
 30
0.0
 11
558.1538789870802
 21
315.3818564872974
 31
0.0
  0
LINE
  5
3A7
102
{ACAD_REACTORS
330
391
102
}
330
18
100
AcDbEntity
  8
ROGO
 62
     4
100
AcDbLine
 10
555.6027282899175
 20
313.5059351579295
 30
0.0
 11
557.2184840256384
 21
313.5059351579295
 31
0.0
  0
LINE
  5
3A8
102
{ACAD_REACTORS
330
392
102
}
330
18
100
AcDbEntity
  8
ROGO
 62
     4
100
AcDbLine
 10
550.2308702541748
 20
315.3818564872974
 30
0.0
 11
552.1094936000404
 21
315.3818564872974
 31
0.0
  0
LINE
  5
3A9
102
{ACAD_REACTORS
330
392
102
}
330
18
100
AcDbEntity
  8
ROGO
 62
     4
100
AcDbLine
 10
551.5221225252826
 20
314.2038921269876
 30
0.0
 11
551.1740986385985
 21
313.5059351579295
 31
0.0
  0
SPLINE
  5
3AA
102
{ACAD_REACTORS
330
392
102
}
330
18
100
AcDbEntity
  8
ROGO
 62
     4
100
AcDbSpline
210
0.0
220
0.0
230
1.0
 70
     8
 71
     3
 72
    16
 73
    12
 74
    10
 42
0.0000000001
 43
0.0000000001
 44
0.0000000001
 40
0.0
 40
0.0
 40
0.0
 40
0.0
 40
0.1794152893756658
 40
0.2670467197814556
 40
0.3102605435414121
 40
0.3558008766977565
 40
0.4210145035340276
 40
0.4803947587045229
 40
0.5423269814405317
 40
0.646160827944346
 40
0.7489346372632694
 40
0.7489346372632694
 40
0.7489346372632694
 40
0.7489346372632694
 10
550.587513280195
 20
314.6838921269876
 30
0.0
 10
550.5267551264499
 20
314.6746291365532
 30
0.0
 10
550.4363209961478
 20
314.6608418432882
 30
0.0
 10
550.354541351304
 20
314.5961059761802
 30
0.0
 10
550.3084233096977
 20
314.5575924442995
 30
0.0
 10
550.2927337464816
 20
314.5065895954677
 30
0.0
 10
550.2505965066805
 20
314.4674272368454
 30
0.0
 10
550.2158634354272
 20
314.4136055501081
 30
0.0
 10
550.2075699653388
 20
314.3396805915949
 30
0.0
 10
550.2136575622642
 20
314.2359381785417
 30
0.0
 10
550.2863957259343
 20
314.214537544257
 30
0.0
 10
550.322578209751
 20
314.2038921269876
 30
0.0
 11
550.587513280195
 21
314.6838921269876
 31
0.0
 11
550.414286751261
 21
314.6371757943484
 31
0.0
 11
550.342958146057
 21
314.5862690396433
 31
0.0
 11
550.3123888275314
 21
314.5557247876662
 31
0.0
 11
550.2920088912254
 21
314.5149991183635
 31
0.0
 11
550.2512496045468
 21
314.4640923636586
 31
0.0
 11
550.2206802860212
 21
314.4131852770302
 31
0.0
 11
550.2104903178682
 21
314.3520971049994
 31
0.0
 11
550.2308702541742
 21
314.2502829317427
 31
0.0
 11
550.322578209751
 21
314.2038921269876
 31
0.0
  0
SPLINE
  5
3AB
102
{ACAD_REACTORS
330
392
102
}
330
18
100
AcDbEntity
  8
ROGO
 62
     4
100
AcDbSpline
210
0.0
220
0.0
230
1.0
 70
     8
 71
     3
 72
    26
 73
    22
 74
    20
 42
0.0000000001
 43
0.0000000001
 44
0.0000000001
 40
0.0
 40
0.0
 40
0.0
 40
0.0
 40
0.3403136209417982
 40
0.5681272389515159
 40
0.7323994099697078
 40
0.8550561247337057
 40
1.014148321321447
 40
1.13027011535643
 40
1.339959009791999
 40
1.510642755247373
 40
1.626735051276186
 40
1.740569491433665
 40
1.944197174100541
 40
2.088186249714737
 40
2.16573549158295
 40
2.275891898886404
 40
2.355438312276705
 40
2.470674802865115
 40
2.535888688806235
 40
2.677801419664453
 40
2.742600005358966
 40
2.742600005358966
 40
2.742600005358966
 40
2.742600005358966
 10
550.2308702541743
 20
315.3818564872974
 30
0.0
 10
550.1153625530904
 20
315.3749650997759
 30
0.0
 10
549.922531390139
 20
315.3634604619234
 30
0.0
 10
549.7108039462652
 20
315.2348383135543
 30
0.0
 10
549.5556800256791
 20
315.1600630487794
 30
0.0
 10
549.4450458336447
 20
315.0584124467514
 30
0.0
 10
549.3639505224052
 20
314.9534148002924
 30
0.0
 10
549.2617146585515
 20
314.8283108743988
 30
0.0
 10
549.1783442329717
 20
314.6826324151639
 30
0.0
 10
549.1358887436385
 20
314.5220693565019
 30
0.0
 10
549.0982820741333
 20
314.3940996671322
 30
0.0
 10
549.0703923384577
 20
314.2514941487143
 30
0.0
 10
549.0774882767617
 20
314.0974300228253
 30
0.0
 10
549.0876499851682
 20
313.9543431499627
 30
0.0
 10
549.1330195422026
 20
313.8522005457819
 30
0.0
 10
549.1846874313311
 20
313.7794820501684
 30
0.0
 10
549.2479540539809
 20
313.6993906891703
 30
0.0
 10
549.3171815744346
 20
313.6463464401271
 30
0.0
 10
549.3744383845924
 20
313.5502532184976
 30
0.0
 10
549.474664499253
 20
313.5379910303889
 30
0.0
 10
549.5383722050758
 20
313.5135856162788
 30
0.0
 10
549.5583429028778
 20
313.5059351579295
 30
0.0
 11
550.2308702541743
 21
315.3818564872974
 31
0.0
 11
549.8946065785259
 21
315.3295105128778
 31
0.0
 11
549.6908101451331
 21
315.2276966715444
 31
0.0
 11
549.5481529347247
 21
315.1462456648623
 31
0.0
 11
549.4564449791479
 21
315.0647943262569
 31
0.0
 11
549.3545470554182
 21
314.942617650272
 31
0.0
 11
549.2832184502141
 21
314.8509852262643
 31
0.0
 11
549.1813199405509
 21
314.6677200463254
 31
0.0
 11
549.1303712716527
 21
314.5048177010379
 31
0.0
 11
549.0998019531271
 21
314.3928224423788
 31
0.0
 11
549.079422016821
 21
314.2808271837196
 31
0.0
 11
549.079422016821
 21
314.0771995010528
 31
0.0
 11
549.0998019531271
 21
313.9346599904166
 31
0.0
 11
549.1303712716527
 21
313.8633900691369
 31
0.0
 11
549.1915099087037
 21
313.7717576451291
 31
0.0
 11
549.2424591635354
 21
313.7106691411749
 31
0.0
 11
549.3239771509592
 21
313.6292181344929
 31
0.0
 11
549.3647364376378
 21
313.5783110478645
 31
0.0
 11
549.4972042658265
 21
313.5274042931595
 31
0.0
 11
549.5583429028778
 21
313.5059351579295
 31
0.0
  0
LINE
  5
3AC
102
{ACAD_REACTORS
330
392
102
}
330
18
100
AcDbEntity
  8
ROGO
 62
     4
100
AcDbLine
 10
550.3225782097509
 20
314.2038921269876
 30
0.0
 11
551.5221225252827
 21
314.2038921269876
 31
0.0
  0
LINE
  5
3AD
102
{ACAD_REACTORS
330
392
102
}
330
18
100
AcDbEntity
  8
ROGO
 62
     4
100
AcDbLine
 10
550.5875132801949
 20
314.6838921269876
 30
0.0
 11
551.7614660278394
 21
314.6838921269877
 31
0.0
  0
LINE
  5
3AE
102
{ACAD_REACTORS
330
392
102
}
330
18
100
AcDbEntity
  8
ROGO
 62
     4
100
AcDbLine
 10
552.1094936000403
 20
315.3818564872974
 30
0.0
 11
551.7614660278394
 21
314.6838921269876
 31
0.0
  0
LINE
  5
3AF
102
{ACAD_REACTORS
330
392
102
}
330
18
100
AcDbEntity
  8
ROGO
 62
     4
100
AcDbLine
 10
549.5583429028776
 20
313.5059351579296
 30
0.0
 11
551.1740986385985
 21
313.5059351579296
 31
0.0
  0
LINE
  5
3B0
102
{ACAD_REACTORS
330
38A
102
}
330
18
100
AcDbEntity
  8
ROGO
 62
     4
100
AcDbLine
 10
549.0446008814409
 20
313.5059351579296
 30
0.0
 11
547.9985898498292
 21
313.5059351579296
 31
0.0
  0
LINE
  5
3B1
102
{ACAD_REACTORS
330
38A
102
}
330
18
100
AcDbEntity
  8
ROGO
 62
     4
100
AcDbLine
 10
546.7106658912198
 20
315.3818564872974
 30
0.0
 11
548.2112422951789
 21
315.3818564872974
 31
0.0
  0
LINE
  5
3B2
102
{ACAD_REACTORS
330
38A
102
}
330
18
100
AcDbEntity
  8
ROGO
 62
     4
100
AcDbLine
 10
545.3579025625067
 20
313.5059351579296
 30
0.0
 11
546.3968272077805
 21
313.5059351579296
 31
0.0
  0
LINE
  5
3B3
102
{ACAD_REACTORS
330
38A
102
}
330
18
100
AcDbEntity
  8
ROGO
 62
     4
100
AcDbLine
 10
546.6543849757531
 20
313.863098972345
 30
0.0
 11
546.3968272077805
 21
313.5059351579296
 31
0.0
  0
LINE
  5
3B4
102
{ACAD_REACTORS
330
38A
102
}
330
18
100
AcDbEntity
  8
ROGO
 62
     4
100
AcDbLine
 10
546.9260389202462
 20
314.2398104176251
 30
0.0
 11
547.6725733803013
 21
314.2398104176251
 31
0.0
  0
LINE
  5
3B5
102
{ACAD_REACTORS
330
38A
102
}
330
18
100
AcDbEntity
  8
ROGO
 62
     4
100
AcDbLine
 10
546.6543849757531
 20
313.863098972345
 30
0.0
 11
547.8399235311593
 21
313.863098972345
 31
0.0
  0
LINE
  5
3B6
102
{ACAD_REACTORS
330
38A
102
}
330
18
100
AcDbEntity
  8
ROGO
 62
     4
100
AcDbLine
 10
547.3879914006936
 20
314.880415091652
 30
0.0
 11
546.9260389202461
 21
314.2398104176251
 31
0.0
  0
LINE
  5
3B7
102
{ACAD_REACTORS
330
38A
102
}
330
18
100
AcDbEntity
  8
ROGO
 62
     4
100
AcDbLine
 10
546.7106658912198
 20
315.3818564872974
 30
0.0
 11
545.3579025625067
 21
313.5059351579296
 31
0.0
  0
LINE
  5
3B8
102
{ACAD_REACTORS
330
393
102
}
330
18
100
AcDbEntity
  8
ROGO
 62
     4
100
AcDbLine
 10
544.0928243128619
 20
314.2716311579296
 30
0.0
 11
543.9265746376955
 21
313.9356311579295
 31
0.0
  0
LINE
  5
3B9
102
{ACAD_REACTORS
330
393
102
}
330
18
100
AcDbEntity
  8
ROGO
 62
     4
100
AcDbLine
 10
545.2600952408642
 20
313.9356311579295
 30
0.0
 11
545.0474856562801
 21
313.5059351579296
 31
0.0
  0
LINE
  5
3BA
102
{ACAD_REACTORS
330
393
102
}
330
18
100
AcDbEntity
  8
ROGO
 62
     4
100
AcDbLine
 10
545.5968111669216
 20
314.6161530960456
 30
0.0
 11
545.4263449160304
 21
314.2716311579296
 31
0.0
  0
LINE
  5
3BB
102
{ACAD_REACTORS
330
393
102
}
330
18
100
AcDbEntity
  8
ROGO
 62
     4
100
AcDbLine
 10
544.0928243128619
 20
314.2716311579296
 30
0.0
 11
545.4263449160304
 21
314.2716311579296
 31
0.0
  0
LINE
  5
3BC
102
{ACAD_REACTORS
330
393
102
}
330
18
100
AcDbEntity
  8
ROGO
 62
     4
100
AcDbLine
 10
543.9265746376955
 20
313.9356311579295
 30
0.0
 11
545.2600952408642
 21
313.9356311579295
 31
0.0
  0
LINE
  5
3BD
102
{ACAD_REACTORS
330
393
102
}
330
18
100
AcDbEntity
  8
ROGO
 62
     4
100
AcDbLine
 10
544.2632905637529
 20
314.6161530960456
 30
0.0
 11
545.5968111669216
 21
314.6161530960456
 31
0.0
  0
LINE
  5
3BE
102
{ACAD_REACTORS
330
393
102
}
330
18
100
AcDbEntity
  8
ROGO
 62
     4
100
AcDbLine
 10
544.4295332010052
 20
314.9521388720229
 30
0.0
 11
545.7630538041737
 21
314.9521388720229
 31
0.0
  0
LINE
  5
3BF
102
{ACAD_REACTORS
330
393
102
}
330
18
100
AcDbEntity
  8
ROGO
 62
     4
100
AcDbLine
 10
544.4295332010052
 20
314.9521388720229
 30
0.0
 11
544.2632905637529
 21
314.6161530960456
 31
0.0
  0
LINE
  5
3C0
102
{ACAD_REACTORS
330
393
102
}
330
18
100
AcDbEntity
  8
ROGO
 62
     4
100
AcDbLine
 10
542.5102240155887
 20
313.5059351579296
 30
0.0
 11
545.0474856562801
 21
313.5059351579296
 31
0.0
  0
LINE
  5
3C1
102
{ACAD_REACTORS
330
393
102
}
330
18
100
AcDbEntity
  8
ROGO
 62
     4
100
AcDbLine
 10
545.9756740837946
 20
315.3818564872974
 30
0.0
 11
545.7630538041737
 21
314.9521388720229
 31
0.0
  0
LINE
  5
3C2
102
{ACAD_REACTORS
330
393
102
}
330
18
100
AcDbEntity
  8
ROGO
 62
     4
100
AcDbLine
 10
543.4384124431032
 20
315.3818564872974
 30
0.0
 11
542.5102240155888
 21
313.5059351579296
 31
0.0
  0
LINE
  5
3C3
102
{ACAD_REACTORS
330
390
330
38E
102
}
330
18
100
AcDbEntity
  8
ROGO
 62
     4
100
AcDbLine
 10
540.1636299580768
 20
313.5059351579296
 30
0.0
 11
539.6861668854647
 21
312.4506010802889
 31
0.0
  0
LINE
  5
3C4
102
{ACAD_REACTORS
330
38E
102
}
330
18
100
AcDbEntity
  8
ROGO
 62
     4
100
AcDbLine
 10
541.1622310168686
 20
314.1575442071563
 30
0.0
 11
540.4584363756628
 21
314.1575442071564
 31
0.0
  0
LINE
  5
3C5
102
{ACAD_REACTORS
330
38E
102
}
330
18
100
AcDbEntity
  8
ROGO
 62
     4
100
AcDbLine
 10
541.2641289405983
 20
314.6564323284212
 30
0.0
 11
540.6841475133162
 21
314.6564323284212
 31
0.0
  0
SPLINE
  5
3C6
102
{ACAD_REACTORS
330
38E
102
}
330
18
100
AcDbEntity
  8
ROGO
 62
     4
100
AcDbSpline
210
0.0
220
0.0
230
1.0
 70
     8
 71
     3
 72
    15
 73
    11
 74
     9
 42
0.0000000001
 43
0.0000000001
 44
0.0000000001
 40
0.0
 40
0.0
 40
0.0
 40
0.0
 40
0.2199578613106558
 40
0.3202465475123651
 40
0.4340808827708152
 40
0.5116301246390283
 40
0.634275054953107
 40
0.7077360179240892
 40
0.8337709579493377
 40
0.875782631437913
 40
0.875782631437913
 40
0.875782631437913
 40
0.875782631437913
 10
541.2641289405983
 20
314.6564323284211
 30
0.0
 10
541.3467408478257
 20
314.6568107350532
 30
0.0
 10
541.4670192407657
 20
314.6573616742957
 30
0.0
 10
541.5327917498579
 20
314.5085769543964
 30
0.0
 10
541.503309375239
 20
314.4127828049144
 30
0.0
 10
541.4662476274901
 20
314.3144320702746
 30
0.0
 10
541.4007511252868
 20
314.247601262747
 30
0.0
 10
541.3128452258651
 20
314.1832319289798
 30
0.0
 10
541.2297699500714
 20
314.175439732895
 30
0.0
 10
541.1757388086819
 20
314.1611233136746
 30
0.0
 10
541.1622310168685
 20
314.1575442071563
 30
0.0
 11
541.2641289405983
 21
314.6564323284211
 31
0.0
 11
541.4781147562108
 21
314.6055252417927
 31
0.0
 11
541.5188740428893
 21
314.513892817785
 31
0.0
 11
541.4984946925168
 21
314.4018975591259
 31
0.0
 11
541.4679253739913
 21
314.3306276378461
 31
0.0
 11
541.386406800634
 21
314.2389952138383
 31
0.0
 11
541.3252681635829
 21
314.1982695445357
 31
0.0
 11
541.2029903035471
 21
314.167725624482
 31
0.0
 11
541.1622310168685
 21
314.1575442071563
 31
0.0
  0
LINE
  5
3C7
102
{ACAD_REACTORS
330
38E
102
}
330
18
100
AcDbEntity
  8
ROGO
 62
     4
100
AcDbLine
 10
540.6841475133162
 20
314.6564323284212
 30
0.0
 11
540.4584363756627
 21
314.1575442071564
 31
0.0
  0
LINE
  5
3C8
102
{ACAD_REACTORS
330
38E
102
}
330
18
100
AcDbEntity
  8
ROGO
 62
     4
100
AcDbLine
 10
541.4373560559072
 20
313.5059351579296
 30
0.0
 11
540.1636299580768
 21
313.5059351579296
 31
0.0
  0
SPLINE
  5
3C9
102
{ACAD_REACTORS
330
38E
102
}
330
18
100
AcDbEntity
  8
ROGO
 62
     4
100
AcDbSpline
210
0.0
220
0.0
230
1.0
 70
     8
 71
     3
 72
    18
 73
    14
 74
     0
 42
0.0000000001
 43
0.0000000001
 40
0.1087402787915014
 40
0.1087402787915014
 40
0.1087402787915014
 40
0.1087402787915014
 40
0.5992371417938475
 40
1.083176791562496
 40
1.448211145705696
 40
1.714037220764907
 40
2.164002567013297
 40
2.740236056362883
 40
3.395137510199602
 40
4.071816045172726
 40
4.784906178399433
 40
5.506895915094292
 40
6.060470601257719
 40
6.060470601257719
 40
6.060470601257719
 40
6.060470601257719
 10
542.077521024238
 20
315.3818564872974
 30
0.0
 10
542.1513203637181
 20
315.3548102660864
 30
0.0
 10
542.2964460035046
 20
315.2976304213503
 30
0.0
 10
542.473567768572
 20
315.1671271216483
 30
0.0
 10
542.5701623313216
 20
315.0164717256873
 30
0.0
 10
542.6630754863831
 20
314.8680278081118
 30
0.0
 10
542.6760785128273
 20
314.655059902174
 30
0.0
 10
542.6547786770457
 20
314.3858168513572
 30
0.0
 10
542.5172688615083
 20
314.1048895120419
 30
0.0
 10
542.2965575199635
 20
313.8591794680392
 30
0.0
 10
542.0225289869736
 20
313.6625163532654
 30
0.0
 10
541.7335564468203
 20
313.5081408725578
 30
0.0
 10
541.5269987938866
 20
313.5066027002598
 30
0.0
 10
541.4373560554657
 20
313.5059351579295
 30
0.0
  0
LINE
  5
3CA
102
{ACAD_REACTORS
330
38E
102
}
330
18
100
AcDbEntity
  8
ROGO
 62
     4
100
AcDbLine
 10
539.7739520056878
 20
315.3818564872974
 30
0.0
 11
538.3235940912697
 21
312.4506010802888
 31
0.0
  0
LINE
  5
3CB
102
{ACAD_REACTORS
330
390
330
38F
330
38E
102
}
330
18
100
AcDbEntity
  8
ROGO
 62
     4
100
AcDbLine
 10
538.3235940912697
 20
312.4506010802889
 30
0.0
 11
558.1652759013037
 21
312.4506010802889
 31
0.0
  0
LINE
  5
3CC
102
{ACAD_REACTORS
330
38E
102
}
330
18
100
AcDbEntity
  8
ROGO
 62
     4
100
AcDbLine
 10
539.7739520056878
 20
315.3818564872974
 30
0.0
 11
542.077521024238
 21
315.3818564872974
 31
0.0
  0
TEXT
  5
3CD
330
18
100
AcDbEntity
  8
文字
100
AcDbText
 10
565.6214916980355
 20
312.5044314269253
 30
0.0
 40
3.0
  1
LA-11
  7
STYLE3
100
AcDbText
  0
TEXT
  5
534
330
18
100
AcDbEntity
  8
文字
100
AcDbText
 10
489.0984101858465
 20
353.5859958368515
 30
0.0
 40
1.0
  1
0.1mm
 50
342.5
  7
STYLE3
100
AcDbText
  0
HATCH
  5
535
330
18
100
AcDbEntity
  8
ROGO
 62
     4
100
AcDbHatch
 10
0.0
 20
0.0
 30
0.0
210
0.0
220
0.0
230
1.0
  2
SOLID
 70
     1
 71
     1
 91
        1
 92
        7
 72
     0
 73
     1
 93
       11
 10
491.2504459399056
 20
361.0903739404444
 10
491.9715358213171
 20
360.8630151741625
 10
492.387272324212
 20
361.2934879515533
 10
492.4809146888422
 20
360.7024086341513
 10
493.2019887933869
 20
360.4750548422962
 10
493.0226050610504
 20
361.6073416494627
 10
494.5164941249567
 20
362.2120475705098
 10
493.7954200204119
 20
362.4394013623648
 10
493.3904266040356
 20
362.3322002271895
 10
493.564326986992
 20
362.5122647159205
 10
492.8432371055806
 20
362.7396234822023
 97
       11
330
60A
330
60D
330
60E
330
537
330
5C9
330
591
330
5C8
330
536
330
609
330
60C
330
60B
 75
     0
 76
     1
 47
0.0514683685270805
 98
        1
 10
492.5164674473777
 20
361.9196375822932
450
        0
451
        0
460
0.0
461
0.0
452
        0
462
0.0
453
        0
470

  0
LINE
  5
536
102
{ACAD_REACTORS
330
535
102
}
330
18
100
AcDbEntity
  8
ROGO
 62
     4
100
AcDbLine
 10
492.3872723242121
 20
361.2934879515533
 30
0.0
 11
492.4809146888422
 21
360.7024086341512
 31
0.0
  0
LINE
  5
537
102
{ACAD_REACTORS
330
535
102
}
330
18
100
AcDbEntity
  8
ROGO
 62
     4
100
AcDbLine
 10
492.8432371055806
 20
362.7396234822023
 30
0.0
 11
493.5643269869919
 21
362.5122647159204
 31
0.0
  0
LINE
  5
538
330
18
100
AcDbEntity
  8
目盛
100
AcDbLine
 10
497.2093233475987
 20
374.4794020095603
 30
0.0
 11
495.4672144804657
 21
372.0370554544913
 31
0.0
  0
LINE
  5
539
330
18
100
AcDbEntity
  8
目盛
100
AcDbLine
 10
484.0538656827095
 20
332.7556208568891
 30
0.0
 11
484.0276860762144
 21
335.7555066260816
 31
0.0
  0
CIRCLE
  5
53A
330
18
100
AcDbEntity
  8
外形線
100
AcDbCircle
 10
483.8531553662469
 20
355.754745087365
 30
0.0
 40
23.0
  0
CIRCLE
  5
53B
330
18
100
AcDbEntity
  8
外形線
100
AcDbCircle
 10
483.8531553662469
 20
355.754745087365
 30
0.0
 40
15.5
  0
LINE
  5
53C
330
18
100
AcDbEntity
  8
中心線
 48
0.2
100
AcDbLine
 10
480.1364715698847
 20
354.608560551749
 30
0.0
 11
475.418519655591
 21
339.6451287825757
 31
0.0
  0
LINE
  5
53D
330
18
100
AcDbEntity
  8
目盛
100
AcDbLine
 10
465.3644475720509
 20
342.0738209920842
 30
0.0
 11
467.7760181539025
 21
343.8582893523382
 31
0.0
  0
LINE
  5
53E
330
18
100
AcDbEntity
  8
目盛
100
AcDbLine
 10
464.5418984819554
 20
343.2617327384996
 30
0.0
 11
466.2211382110241
 21
344.3480816384009
 31
0.0
  0
LINE
  5
53F
330
18
100
AcDbEntity
  8
目盛
100
AcDbLine
 10
463.795562100308
 20
344.4989486971416
 30
0.0
 11
465.5397006451723
 21
345.4777136006392
 31
0.0
  0
LINE
  5
540
330
18
100
AcDbEntity
  8
目盛
100
AcDbLine
 10
466.2599631451228
 20
340.9399016028531
 30
0.0
 11
467.7898059469598
 21
342.2281488623759
 31
0.0
  0
LINE
  5
541
330
18
100
AcDbEntity
  8
目盛
100
AcDbLine
 10
470.4969873848953
 20
337.0300881651697
 30
0.0
 11
472.2390962520282
 21
339.4724347202386
 31
0.0
  0
LINE
  5
542
330
18
100
AcDbEntity
  8
目盛
100
AcDbLine
 10
469.3476117953273
 20
337.9056777248345
 30
0.0
 11
470.6089634101899
 21
339.4577705389675
 31
0.0
  0
LINE
  5
543
330
18
100
AcDbEntity
  8
目盛
100
AcDbLine
 10
468.2554829592813
 20
338.8517093989159
 30
0.0
 11
469.6118022990175
 21
340.3215385892159
 31
0.0
  0
LINE
  5
544
330
18
100
AcDbEntity
  8
目盛
100
AcDbLine
 10
467.2249110103269
 20
339.8644496325973
 30
0.0
 11
468.670845302146
 21
341.246214454751
 31
0.0
  0
TEXT
  5
545
330
18
100
AcDbEntity
  8
文字
100
AcDbText
 10
476.9408986881825
 20
337.5919096689881
 30
0.0
 40
2.0
  1
5
 50
342.5
  7
STYLE3
100
AcDbText
  0
LINE
  5
546
330
18
100
AcDbEntity
  8
目盛
100
AcDbLine
 10
477.8390393761614
 20
336.6804060724005
 30
0.0
 11
476.9369219776486
 21
333.8192552201558
 31
0.0
  0
LINE
  5
547
330
18
100
AcDbEntity
  8
目盛
100
AcDbLine
 10
475.5732287794857
 20
334.2968137863788
 30
0.0
 11
476.2932223957258
 21
336.1627208560297
 31
0.0
  0
LINE
  5
548
330
18
100
AcDbEntity
  8
目盛
100
AcDbLine
 10
474.2422126688222
 20
334.8590570042504
 30
0.0
 11
475.0779468164243
 21
336.6760733593038
 31
0.0
  0
LINE
  5
549
330
18
100
AcDbEntity
  8
目盛
100
AcDbLine
 10
472.9491265581632
 20
335.5037659566543
 30
0.0
 11
473.8973029762575
 21
337.2647206636726
 31
0.0
  0
LINE
  5
54A
330
18
100
AcDbEntity
  8
目盛
100
AcDbLine
 10
471.699073667633
 20
336.2283962718948
 30
0.0
 11
472.7559503370776
 21
337.9263396471531
 31
0.0
  0
LINE
  5
54B
330
18
100
AcDbEntity
  8
目盛
100
AcDbLine
 10
482.609342667597
 20
332.7884016698622
 30
0.0
 11
482.7175002935667
 21
334.7854750105146
 31
0.0
  0
LINE
  5
54C
330
18
100
AcDbEntity
  8
目盛
100
AcDbLine
 10
481.1697284129622
 20
332.9118201479799
 30
0.0
 11
481.403069887161
 21
334.8981614470568
 31
0.0
  0
LINE
  5
54D
330
18
100
AcDbEntity
  8
目盛
100
AcDbLine
 10
479.7407044185709
 20
333.1253892148936
 30
0.0
 11
480.0983088488035
 21
335.0931592907607
 31
0.0
  0
LINE
  5
54E
330
18
100
AcDbEntity
  8
目盛
100
AcDbLine
 10
478.3279103892698
 20
333.4282660110666
 30
0.0
 11
478.8083664742243
 21
335.3696989742231
 31
0.0
  0
LINE
  5
54F
330
18
100
AcDbEntity
  8
外形線
  6
Continuous
100
AcDbLine
 10
488.7441650345981
 20
383.5714311664811
 30
0.0
 11
488.1846819914364
 21
381.796977654779
 31
0.0
  0
LINE
  5
550
330
18
100
AcDbEntity
  8
外形線
  6
Continuous
100
AcDbLine
 10
495.8016704701349
 20
381.3462082501495
 30
0.0
 11
495.2421874269732
 21
379.5717547384473
 31
0.0
  0
TEXT
  5
551
330
18
100
AcDbEntity
  8
文字
100
AcDbText
 10
467.8065338128836
 20
366.1271493187621
 30
0.0
 40
2.0
  1
8
 50
342.5
  7
STYLE3
100
AcDbText
  0
TEXT
  5
552
330
18
100
AcDbEntity
  8
文字
100
AcDbText
 10
464.0523321811256
 20
354.571790613939
 30
0.0
 40
2.0
  1
7
 50
342.5
  7
STYLE3
100
AcDbText
  0
LINE
  5
553
330
18
100
AcDbEntity
  8
目盛
100
AcDbLine
 10
462.0417112965043
 20
348.4567379900479
 30
0.0
 11
464.8866822621228
 21
349.4086519592632
 31
0.0
  0
LINE
  5
554
330
18
100
AcDbEntity
  8
目盛
100
AcDbLine
 10
461.6265055418563
 20
349.8406908448071
 30
0.0
 11
463.5592577004991
 21
350.3549564311164
 31
0.0
  0
LINE
  5
555
330
18
100
AcDbEntity
  8
目盛
100
AcDbLine
 10
469.038311881735
 20
373.347937308489
 30
0.0
 11
470.3265591412578
 21
371.8180945066521
 31
0.0
  0
LINE
  5
556
330
18
100
AcDbEntity
  8
目盛
100
AcDbLine
 10
470.1722312709659
 20
374.2434528815611
 30
0.0
 11
471.95669963122
 21
371.8318822997094
 31
0.0
  0
LINE
  5
557
330
18
100
AcDbEntity
  8
目盛
100
AcDbLine
 10
460.886811948744
 20
356.9985577860149
 30
0.0
 11
462.8838852893965
 21
356.8904001600453
 31
0.0
  0
LINE
  5
558
330
18
100
AcDbEntity
  8
目盛
100
AcDbLine
 10
461.2990182196748
 20
351.2479837697871
 30
0.0
 11
463.260247536768
 21
351.6398760582721
 31
0.0
  0
LINE
  5
559
330
18
100
AcDbEntity
  8
目盛
100
AcDbLine
 10
461.0605417728057
 20
352.6730628227443
 30
0.0
 11
463.0425081722353
 21
352.9410351935809
 31
0.0
  0
LINE
  5
55A
330
18
100
AcDbEntity
  8
目盛
100
AcDbLine
 10
460.9120173588351
 20
354.1103038677132
 30
0.0
 11
462.9068989246969
 21
354.2532987563786
 31
0.0
  0
LINE
  5
55B
330
18
100
AcDbEntity
  8
目盛
100
AcDbLine
 10
460.854031135771
 20
355.5540347709024
 30
0.0
 11
463.8539169049634
 21
355.5802143773976
 31
0.0
  0
LINE
  5
55C
330
18
100
AcDbEntity
  8
目盛
100
AcDbLine
 10
461.9176654990376
 20
362.6709784759633
 30
0.0
 11
464.7788163512823
 21
361.7688610774505
 31
0.0
  0
LINE
  5
55D
330
18
100
AcDbEntity
  8
目盛
100
AcDbLine
 10
461.0102304268616
 20
358.4381720406497
 30
0.0
 11
462.9965717259385
 21
358.2048305664511
 31
0.0
  0
LINE
  5
55E
330
18
100
AcDbEntity
  8
目盛
100
AcDbLine
 10
461.2237994937754
 20
359.8671960350411
 30
0.0
 11
463.1915695696426
 21
359.5095916048084
 31
0.0
  0
LINE
  5
55F
330
18
100
AcDbEntity
  8
目盛
100
AcDbLine
 10
461.5266762899485
 20
361.2799900643421
 30
0.0
 11
463.4681092531048
 21
360.7995339793876
 31
0.0
  0
LINE
  5
560
330
18
100
AcDbEntity
  8
目盛
100
AcDbLine
 10
462.3952240652605
 20
364.0346716741262
 30
0.0
 11
464.2611311349115
 21
363.3146780578862
 31
0.0
  0
LINE
  5
561
330
18
100
AcDbEntity
  8
目盛
100
AcDbLine
 10
462.9574672831322
 20
365.3656877847898
 30
0.0
 11
464.7744836381857
 21
364.5299536371876
 31
0.0
  0
LINE
  5
562
330
18
100
AcDbEntity
  8
目盛
100
AcDbLine
 10
463.6021762355361
 20
366.6587738954487
 30
0.0
 11
465.3631309425544
 21
365.7105974773545
 31
0.0
  0
LINE
  5
563
330
18
100
AcDbEntity
  8
目盛
100
AcDbLine
 10
464.3268065507766
 20
367.908826785979
 30
0.0
 11
466.0247499260349
 21
366.8519501165343
 31
0.0
  0
LINE
  5
564
330
18
100
AcDbEntity
  8
目盛
100
AcDbLine
 10
465.1284984440514
 20
369.1109130687167
 30
0.0
 11
467.5708449991204
 21
367.3688042015839
 31
0.0
  0
LINE
  5
565
330
18
100
AcDbEntity
  8
目盛
100
AcDbLine
 10
466.0040880037162
 20
370.2602886582846
 30
0.0
 11
467.5561808178493
 21
368.9989370434221
 31
0.0
  0
LINE
  5
566
330
18
100
AcDbEntity
  8
目盛
100
AcDbLine
 10
466.9501196777978
 20
371.3524174943306
 30
0.0
 11
468.4199488680977
 21
369.9960981545945
 31
0.0
  0
LINE
  5
567
330
18
100
AcDbEntity
  8
目盛
100
AcDbLine
 10
467.9628599114791
 20
372.3829894432851
 30
0.0
 11
469.3446247336328
 21
370.937055151466
 31
0.0
  0
HATCH
  5
568
330
18
100
AcDbEntity
  8
ﾊｯﾁﾝｸ
  6
Continuous
100
AcDbHatch
 10
0.0
 20
0.0
 30
0.0
210
0.0
220
0.0
230
1.0
  2
SOLID
 70
     1
 71
     0
 91
        1
 92
        1
 93
        3
 72
     1
 10
490.7693887548452
 20
377.6902349545742
 11
484.7552760615642
 21
356.9531516340262
 72
     2
 10
483.8531553662469
 20
355.754745087365
 40
1.5
 50
53.02877936551253
 51
91.97122063449128
 73
     1
 72
     1
 10
483.8015591108159
 20
357.2538574335305
 11
490.7693887548449
 21
377.6902349545734
 97
        0
 75
     0
 76
     1
 98
        1
 10
271.1192946748049
 20
437.7768805120444
450
        0
451
        0
460
0.0
461
0.0
452
        0
462
0.0
453
        0
470

  0
LINE
  5
569
330
18
100
AcDbEntity
  8
針
  6
Continuous
100
AcDbLine
 10
490.7693887548449
 20
377.6902349545734
 30
0.0
 11
483.8015591108159
 21
357.2538574335305
 31
0.0
  0
LINE
  5
56A
330
18
100
AcDbEntity
  8
針
  6
Continuous
100
AcDbLine
 10
490.7693887548452
 20
377.6902349545742
 30
0.0
 11
484.7552760615641
 21
356.9531516340262
 31
0.0
  0
LINE
  5
56B
330
18
100
AcDbEntity
  8
目盛
100
AcDbLine
 10
473.9536394084382
 20
344.283878112196
 30
0.0
 11
474.3555678387468
 21
344.5812895055717
 31
0.0
  0
LINE
  5
56C
330
18
100
AcDbEntity
  8
目盛
100
AcDbLine
 10
476.2647623784458
 20
351.6138237114943
 30
0.0
 11
476.4234147066484
 21
351.1396618838912
 31
0.0
  0
LINE
  5
56D
330
18
100
AcDbEntity
  8
中心線
 48
0.2
100
AcDbLine
 10
471.1347807856736
 20
349.2019807583208
 30
0.0
 11
484.9903686750698
 21
344.8333306775879
 31
0.0
  0
CIRCLE
  5
56E
330
18
100
AcDbEntity
  8
外形線
100
AcDbCircle
 10
477.77195949637
 20
347.1092863492649
 30
0.0
 40
4.75
  0
TEXT
  5
56F
330
18
100
AcDbEntity
  8
文字
100
AcDbText
 10
467.5393524763966
 20
344.4182581301084
 30
0.0
 40
2.0
  1
6
 50
342.5
  7
STYLE3
100
AcDbText
  0
LINE
  5
570
330
18
100
AcDbEntity
  8
目盛
100
AcDbLine
 10
463.1283838758388
 20
345.7805861418514
 30
0.0
 11
464.930537918483
 21
346.6479043110265
 31
0.0
  0
LINE
  5
571
330
18
100
AcDbEntity
  8
目盛
100
AcDbLine
 10
462.5429968561946
 20
347.1015870351596
 30
0.0
 11
464.3960541179382
 21
347.8540355614384
 31
0.0
  0
TEXT
  5
572
330
18
100
AcDbEntity
  8
文字
100
AcDbText
 10
474.3360327707127
 20
348.9419783227603
 30
0.0
 40
0.7
  1
20
 50
342.5
  7
STYLE3
100
AcDbText
  0
TEXT
  5
573
330
18
100
AcDbEntity
  8
文字
100
AcDbText
 10
473.6400814710596
 20
346.8319506864895
 30
0.0
 40
0.7
  1
30
 50
342.5
  7
STYLE3
100
AcDbText
  0
LINE
  5
574
330
18
100
AcDbEntity
  8
目盛
100
AcDbLine
 10
473.0221403618151
 20
347.0678353056476
 30
0.0
 11
473.5221213233472
 21
347.0721985733968
 31
0.0
  0
LINE
  5
575
330
18
100
AcDbEntity
  8
目盛
100
AcDbLine
 10
473.9049107841774
 20
349.8676253888918
 30
0.0
 11
474.3119685433557
 21
349.5772739110364
 31
0.0
  0
HATCH
  5
576
330
18
100
AcDbEntity
  8
ﾊｯﾁﾝｸ
100
AcDbHatch
 10
0.0
 20
0.0
 30
0.0
210
0.0
220
0.0
230
1.0
  2
SOLID
 70
     1
 71
     0
 91
        3
 92
        7
 72
     1
 73
     1
 93
        5
 10
479.3897887428194
 20
351.5752832737301
 42
0.0105298176880202
 10
479.2003120440154
 20
351.6394418653189
 42
0.0
 10
479.0499591442632
 20
351.1625833899448
 42
0.0
 10
478.1177711657999
 20
348.2060608426253
 42
-0.0437283108272093
 10
478.3032447365171
 20
348.1292059508031
 42
0.0
 97
        0
 92
        7
 72
     1
 73
     1
 93
        4
 10
479.2003120440154
 20
351.6394418653189
 42
0.0105298176880232
 10
479.0083019625201
 20
351.6955655935318
 42
0.0
 10
477.9217579562178
 20
348.2494882706047
 42
-0.0437283108272093
 10
478.1177711657999
 20
348.2060608426253
 42
0.0
 97
        0
 92
      137
 93
        4
 72
     1
 10
478.0412028129223
 20
349.9369711247049
 11
479.1538725887952
 21
349.5861476919499
 72
     1
 10
479.1538725887952
 20
349.5861476919499
 11
479.6049312880517
 21
351.0167231180722
 72
     1
 10
479.6049312880517
 20
351.0167231180722
 11
478.4922615121787
 21
351.3675465508272
 72
     1
 10
478.4922615121787
 20
351.3675465508272
 11
478.0412028129223
 21
349.9369711247049
 97
        0
 75
     0
 76
     1
 47
0.0128177587452554
 98
        3
 10
478.4201018289312
 20
348.6704194398259
 10
478.7090054597623
 20
349.8426694345253
 10
478.5223030994576
 20
349.847777151045
450
        0
451
        0
460
0.0
461
0.0
452
        0
462
0.0
453
        0
470

  0
LINE
  5
577
330
18
100
AcDbEntity
  8
中心線
 48
0.2
100
AcDbLine
 10
479.0083019625201
 20
351.6955655935318
 30
0.0
 11
477.9217579562178
 21
348.2494882706047
 31
0.0
  0
LINE
  5
578
330
18
100
AcDbEntity
  8
中心線
 48
0.2
100
AcDbLine
 10
479.3897887428194
 20
351.5752832737301
 30
0.0
 11
478.3032447365171
 21
348.1292059508031
 31
0.0
  0
LINE
  5
579
330
18
100
AcDbEntity
  8
目盛
100
AcDbLine
 10
479.2003120440154
 20
351.6394418653189
 30
0.0
 11
479.0499591442632
 21
351.1625833899448
 31
0.0
  0
TEXT
  5
57A
330
18
100
AcDbEntity
  8
文字
100
AcDbText
 10
479.7662827356933
 20
344.7834333237622
 30
0.0
 40
0.7
  1
70
 50
342.5
  7
STYLE3
100
AcDbText
  0
TEXT
  5
57B
330
18
100
AcDbEntity
  8
文字
100
AcDbText
 10
480.3416075213666
 20
346.8878684649587
 30
0.0
 40
0.7
  1
80
 50
342.5
  7
STYLE3
100
AcDbText
  0
TEXT
  5
57C
330
18
100
AcDbEntity
  8
文字
100
AcDbText
 10
476.1101025999771
 20
350.2506441931937
 30
0.0
 40
0.7
  1
10
 50
342.5
  7
STYLE3
100
AcDbText
  0
TEXT
  5
57D
330
18
100
AcDbEntity
  8
文字
100
AcDbText
 10
474.3373051460721
 20
344.72792164458
 30
0.0
 40
0.7
  1
40
 50
342.5
  7
STYLE3
100
AcDbText
  0
TEXT
  5
57E
330
18
100
AcDbEntity
  8
文字
100
AcDbText
 10
475.966911026793
 20
343.5867463878359
 30
0.0
 40
0.7
  1
50
 50
342.5
  7
STYLE3
100
AcDbText
  0
TEXT
  5
57F
330
18
100
AcDbEntity
  8
文字
100
AcDbText
 10
478.1465922684402
 20
343.6121534995879
 30
0.0
 40
0.7
  1
60
 50
342.5
  7
STYLE3
100
AcDbText
  0
TEXT
  5
580
330
18
100
AcDbEntity
  8
文字
100
AcDbText
 10
479.8536298204902
 20
349.0172528220313
 30
0.0
 40
0.7
  1
90
 50
342.5
  7
STYLE3
100
AcDbText
  0
TEXT
  5
581
330
18
100
AcDbEntity
  8
文字
100
AcDbText
 10
478.3427227364451
 20
350.1256322431505
 30
0.0
 40
0.7
  1
0
 50
342.5
  7
STYLE3
100
AcDbText
  0
CIRCLE
  5
582
330
18
100
AcDbEntity
  8
外形線
100
AcDbCircle
 10
477.77195949637
 20
347.1092863492649
 30
0.0
 40
1.149999999999999
  0
LINE
  5
583
330
18
100
AcDbEntity
  8
目盛
100
AcDbLine
 10
481.5902795843018
 20
349.9346945863337
 30
0.0
 11
481.1883511539932
 21
349.6372831929581
 31
0.0
  0
LINE
  5
584
330
18
100
AcDbEntity
  8
目盛
100
AcDbLine
 10
479.2791566142943
 20
342.6047489870354
 30
0.0
 11
479.1205042860917
 21
343.0789108146385
 31
0.0
  0
LINE
  5
585
330
18
100
AcDbEntity
  8
目盛
100
AcDbLine
 10
476.3436069487248
 20
342.5791308332108
 30
0.0
 11
476.4939598484769
 21
343.0559893085849
 31
0.0
  0
LINE
  5
586
330
18
100
AcDbEntity
  8
目盛
100
AcDbLine
 10
482.5217786309248
 20
347.1507373928822
 30
0.0
 11
482.0217976693927
 21
347.1463741251329
 31
0.0
  0
LINE
  5
587
330
18
100
AcDbEntity
  8
目盛
100
AcDbLine
 10
481.6390082085624
 20
344.350947309638
 30
0.0
 11
481.2319504493843
 21
344.6412987874934
 31
0.0
  0
CIRCLE
  5
588
330
18
100
AcDbEntity
  8
外形線
100
AcDbCircle
 10
483.8531553662469
 20
355.754745087365
 30
0.0
 40
1.5
  0
POINT
  5
589
330
18
100
AcDbEntity
  8
DEFPOINTS
  6
ByBlock
 62
     0
100
AcDbPoint
 10
483.8531553662469
 20
355.754745087365
 30
0.0
  0
POINT
  5
58A
330
18
100
AcDbEntity
  8
DEFPOINTS
  6
ByBlock
 62
     0
100
AcDbPoint
 10
483.8531553662469
 20
355.754745087365
 30
0.0
  0
HATCH
  5
58B
330
18
100
AcDbEntity
  8
ROGO
 62
     4
100
AcDbHatch
 10
0.0
 20
0.0
 30
0.0
210
0.0
220
0.0
230
1.0
  2
SOLID
 70
     1
 71
     1
 91
        2
 92
        5
 93
        6
 72
     1
 10
478.7251920298095
 20
365.0395713286994
 11
479.634848169126
 21
364.7527578496766
 72
     1
 10
479.634848169126
 20
364.7527578496766
 11
480.1757449614132
 21
365.3567977081717
 72
     1
 10
480.1757449614132
 20
365.3567977081717
 11
481.0260868801962
 21
365.0886859310465
 72
     4
 94
        3
 73
     0
 74
     0
 95
       18
 96
       14
 40
0.108740278791501
 40
0.108740278791501
 40
0.108740278791501
 40
0.108740278791501
 40
0.6623149649549278
 40
1.384304701649787
 40
2.097394834876493
 40
2.774073369849618
 40
3.428974823686337
 40
4.005208313035923
 40
4.455173659284313
 40
4.720999734343524
 40
5.086034088486724
 40
5.569973738255373
 40
6.060470601257719
 40
6.060470601257719
 40
6.060470601257719
 40
6.060470601257719
 10
481.0260868801964
 20
365.0886859310465
 10
481.0860730532919
 20
365.0702623196228
 10
481.2242951038601
 20
365.0278100474
 10
481.4497088323966
 20
365.0700444032065
 10
481.6740472096402
 20
365.1436556871395
 10
481.8731150176573
 20
365.2612337446003
 10
482.024050363158
 20
365.4198363610892
 10
482.0949442360608
 20
365.5951000351902
 10
482.1310918704459
 20
365.7400148663149
 10
482.1003094376364
 20
365.858673969818
 10
482.0675347932498
 20
365.9795843748665
 10
481.9767581418183
 20
366.1039917005865
 10
481.8919080116104
 20
366.172713156681
 10
481.8483325038
 20
366.2063035869837
 72
     1
 10
481.8483325038
 20
366.2063035869837
 11
480.3104655296532
 21
366.6911911813892
 72
     1
 10
480.3104655296532
 20
366.6911911813892
 11
478.7251920298095
 21
365.0395713286994
 97
        6
330
5BE
330
592
330
599
330
591
330
597
330
590
 92
       20
 93
        4
 72
     1
 10
480.5097181098404
 20
365.7297581253784
 11
480.7654162723649
 21
366.0153059121488
 72
     1
 10
480.7654162723649
 20
366.0153059121488
 11
481.1526129551876
 21
365.8932232669969
 72
     4
 94
        3
 73
     0
 74
     0
 95
       15
 96
       11
 40
0.0
 40
0.0
 40
0.0
 40
0.0
 40
0.1539705029175028
 40
0.2241725832587281
 40
0.3038566179396687
 40
0.3581410872474193
 40
0.443992538467216
 40
0.4954152125469665
 40
0.5836396705646186
 40
0.6130478420065743
 40
0.6130478420065743
 40
0.6130478420065743
 40
0.6130478420065743
 10
481.1526129551876
 20
365.8932232669969
 10
481.2078444709153
 20
365.8760865762424
 10
481.2882585198621
 20
365.8511364970899
 10
481.3008500699265
 20
365.7379628180713
 10
481.2610034822149
 20
365.6802163298927
 10
481.2155587448742
 20
365.622358473713
 10
481.1577656698316
 20
365.591528726575
 10
481.0855301650053
 20
365.5670593089063
 10
481.0284287449189
 20
365.5793440763221
 10
480.9893439329296
 20
365.5811596424417
 10
480.979572725255
 20
365.5816135341889
 72
     1
 10
480.979572725255
 20
365.5816135341889
 11
480.5097181098404
 21
365.7297581253784
 97
        4
330
598
330
58F
330
5BD
330
58E
 75
     0
 76
     1
 47
0.0514683685270805
 98
        2
 10
480.126778129658
 20
366.0799480972045
 10
480.126778129658
 20
366.0799480972045
450
        0
451
        0
460
0.0
461
0.0
452
        0
462
0.0
453
        0
470

  0
HATCH
  5
58C
330
18
100
AcDbEntity
  8
ROGO
 62
     4
100
AcDbHatch
 10
0.0
 20
0.0
 30
0.0
210
0.0
220
0.0
230
1.0
  2
SOLID
 70
     1
 71
     1
 91
        1
 92
        7
 72
     0
 73
     1
 93
        4
 10
479.7854387427096
 20
364.9209280256792
 10
479.6348481691261
 20
364.7527578496767
 10
491.2504459399055
 20
361.0903739404443
 10
491.4100994681905
 20
361.255686577806
 97
        4
330
58D
330
597
330
591
330
5C9
 75
     0
 76
     1
 47
0.0514683685270805
 98
        1
 10
487.1091114357061
 20
362.5547466184079
450
        0
451
        0
460
0.0
461
0.0
452
        0
462
0.0
453
        0
470

  0
LINE
  5
58D
102
{ACAD_REACTORS
330
58C
102
}
330
18
100
AcDbEntity
  8
ROGO
 62
     4
100
AcDbLine
 10
479.7718354516091
 20
364.9252171268879
 30
0.0
 11
491.4100994681906
 21
361.255686577806
 31
0.0
  0
LINE
  5
58E
102
{ACAD_REACTORS
330
58B
102
}
330
18
100
AcDbEntity
  8
ROGO
 62
     4
100
AcDbLine
 10
480.979572725255
 20
365.5816135341889
 30
0.0
 11
480.5097181098404
 21
365.7297581253784
 31
0.0
  0
LINE
  5
58F
102
{ACAD_REACTORS
330
58B
102
}
330
18
100
AcDbEntity
  8
ROGO
 62
     4
100
AcDbLine
 10
481.1526129551877
 20
365.8932232669969
 30
0.0
 11
480.7654162723649
 21
366.0153059121488
 31
0.0
  0
LINE
  5
590
102
{ACAD_REACTORS
330
58B
102
}
330
18
100
AcDbEntity
  8
ROGO
 62
     4
100
AcDbLine
 10
481.0260868804911
 20
365.0886859309535
 30
0.0
 11
480.1757449614132
 21
365.3567977081717
 31
0.0
  0
LINE
  5
591
102
{ACAD_REACTORS
330
58C
330
535
330
58B
102
}
330
18
100
AcDbEntity
  8
ROGO
 62
     4
100
AcDbLine
 10
478.7251920298095
 20
365.0395713286994
 30
0.0
 11
491.971535821317
 21
360.8630151741625
 31
0.0
  0
LINE
  5
592
102
{ACAD_REACTORS
330
58B
102
}
330
18
100
AcDbEntity
  8
ROGO
 62
     4
100
AcDbLine
 10
480.3104655296531
 20
366.6911911813892
 30
0.0
 11
481.8483325038
 21
366.2063035869837
 31
0.0
  0
TEXT
  5
593
330
18
100
AcDbEntity
  8
文字
100
AcDbText
 10
476.8936377696454
 20
372.6467177204072
 30
0.0
 40
2.0
  1
9
 50
342.5
  7
STYLE3
100
AcDbText
  0
LINE
  5
594
330
18
100
AcDbEntity
  8
目盛
100
AcDbLine
 10
473.8789964207335
 20
376.4795165777732
 30
0.0
 11
474.7463145899086
 21
374.677362535129
 31
0.0
  0
LINE
  5
595
330
18
100
AcDbEntity
  8
目盛
100
AcDbLine
 10
471.3601430173816
 20
375.0660019716566
 30
0.0
 11
472.4464919172827
 21
373.3867622425877
 31
0.0
  0
LINE
  5
596
330
18
100
AcDbEntity
  8
目盛
100
AcDbLine
 10
472.5973589760234
 20
375.8123383533038
 30
0.0
 11
473.5761238795211
 21
374.0681998084396
 31
0.0
  0
LINE
  5
597
102
{ACAD_REACTORS
330
58C
330
58B
102
}
330
18
100
AcDbEntity
  8
ROGO
 62
     4
100
AcDbLine
 10
480.1757449614132
 20
365.3567977081717
 30
0.0
 11
479.634848169126
 21
364.7527578496766
 31
0.0
  0
LINE
  5
598
102
{ACAD_REACTORS
330
58B
102
}
330
18
100
AcDbEntity
  8
ROGO
 62
     4
100
AcDbLine
 10
480.7654162723649
 20
366.0153059121488
 30
0.0
 11
480.5097181098404
 21
365.7297581253784
 31
0.0
  0
LINE
  5
599
102
{ACAD_REACTORS
330
58B
102
}
330
18
100
AcDbEntity
  8
ROGO
 62
     4
100
AcDbLine
 10
480.3104655296531
 20
366.6911911813892
 30
0.0
 11
478.7251920298095
 21
365.0395713286993
 31
0.0
  0
LINE
  5
59A
330
18
100
AcDbEntity
  8
目盛
100
AcDbLine
 10
476.5551482689297
 20
377.5661891571076
 30
0.0
 11
477.507062238145
 21
374.7212181914891
 31
0.0
  0
LINE
  5
59B
330
18
100
AcDbEntity
  8
目盛
100
AcDbLine
 10
477.9391011236888
 20
377.9813949117556
 30
0.0
 11
478.4533667099982
 21
376.048642753113
 31
0.0
  0
LINE
  5
59C
330
18
100
AcDbEntity
  8
目盛
100
AcDbLine
 10
475.1999973140415
 20
377.0649035974174
 30
0.0
 11
475.9524458403202
 21
375.2118463356737
 31
0.0
  0
LINE
  5
59D
330
18
100
AcDbEntity
  8
目盛
100
AcDbLine
 10
479.3463940486689
 20
378.3088822339372
 30
0.0
 11
479.738286337154
 21
376.3476529168439
 31
0.0
  0
LINE
  5
59E
330
18
100
AcDbEntity
  8
目盛
100
AcDbLine
 10
480.771473101626
 20
378.5473586808063
 30
0.0
 11
481.0394454724627
 21
376.5653922813766
 31
0.0
  0
LINE
  5
59F
330
18
100
AcDbEntity
  8
目盛
100
AcDbLine
 10
482.2087141465951
 20
378.6958830947767
 30
0.0
 11
482.3517090352605
 21
376.7010015289149
 31
0.0
  0
LINE
  5
5A0
330
18
100
AcDbEntity
  8
目盛
100
AcDbLine
 10
483.6524450497843
 20
378.753869317841
 30
0.0
 11
483.6786246562794
 21
375.7539835486485
 31
0.0
  0
HATCH
  5
5A1
330
18
100
AcDbEntity
  8
ROGO
 62
     4
100
AcDbHatch
 10
0.0
 20
0.0
 30
0.0
210
0.0
220
0.0
230
1.0
  2
SOLID
 70
     1
 71
     1
 91
        1
 92
        5
 93
        8
 72
     1
 10
488.1664349021392
 20
363.7019283807075
 11
488.5456961102889
 21
364.0946329531757
 72
     1
 10
488.5456961102889
 20
364.0946329531757
 11
487.2915236599721
 21
364.4900720078059
 72
     4
 94
        3
 73
     0
 74
     0
 95
       26
 96
       22
 40
0.0
 40
0.0
 40
0.0
 40
0.0
 40
0.2382195346591896
 40
0.397689067266058
 40
0.5126795869787669
 40
0.5985392873135731
 40
0.7099038249249733
 40
0.7911890807494741
 40
0.9379713068543702
 40
1.057449928673087
 40
1.138714535893316
 40
1.218398644003506
 40
1.36093802187036
 40
1.461730374800257
 40
1.516014844108008
 40
1.593124329220501
 40
1.648806818593631
 40
1.729472362005518
 40
1.775122082164342
 40
1.874460993765092
 40
1.919820003751207
 40
1.919820003751207
 40
1.919820003751207
 40
1.919820003751207
 10
487.2915236599721
 20
364.4900720078059
 10
487.2129599071102
 20
364.5097849895627
 10
487.0818038050663
 20
364.5426942861875
 10
486.913379970382
 20
364.5013932691896
 10
486.7940792025674
 20
364.4841258267243
 10
486.6988227616872
 20
364.4395515353965
 10
486.6225819997615
 20
364.3865249920265
 10
486.5279955130896
 20
364.3245254197404
 10
486.4416728111545
 20
364.2448191879237
 10
486.379531877226
 20
364.1465636187311
 10
486.3274887350802
 20
364.0690467959114
 10
486.2788518810133
 20
363.9797137094668
 10
486.2511595593576
 20
363.8753665587524
 10
486.2278245980948
 20
363.7777025162419
 10
486.2366129875913
 20
363.6999619008964
 10
486.2557997554076
 20
363.6405391138305
 10
486.2811779149945
 20
363.5737527235737
 10
486.3162288374724
 20
363.5237683021371
 10
486.3342265384221
 20
363.4475640697002
 10
486.3985565617883
 20
363.4182808082851
 10
486.4359507503502
 20
363.3885776146667
 10
486.4476728494225
 20
363.3792664411461
 72
     1
 10
486.4476728494224
 20
363.3792664411462
 11
487.5263543928205
 21
363.0391594569266
 72
     1
 10
487.5263543928205
 20
363.0391594569266
 11
487.9056115846976
 21
363.4318598707608
 72
     1
 10
487.9056115846976
 20
363.4318598707608
 11
487.1047935618705
 21
363.6843568234708
 72
     4
 94
        3
 73
     0
 74
     0
 95
       16
 96
       12
 40
0.0
 40
0.0
 40
0.0
 40
0.0
 40
0.0719416665231651
 40
0.1446253590759065
 40
0.1879779149910977
 40
0.2295440936104405
 40
0.2751936323958134
 40
0.3070718656052443
 40
0.3373215422372259
 40
0.3986635435212919
 40
0.5242542460842631
 40
0.5242542460842631
 40
0.5242542460842631
 40
0.5242542460842631
 10
487.1047935618704
 20
363.6843568234707
 10
487.0828788652728
 20
363.699079921806
 10
487.0388234379017
 20
363.7286779765404
 10
487.0565965085195
 20
363.7992180080191
 10
487.0776940092493
 20
363.8468247220437
 10
487.112211017752
 20
363.8754450753428
 10
487.1485853615031
 20
363.8927203003492
 10
487.1697955398802
 20
363.9234673375205
 10
487.2086909001676
 20
363.9394714694512
 10
487.2769136591005
 20
363.9654751256586
 10
487.340189796528
 20
363.9556437011444
 10
487.3827018577749
 20
363.9490384603999
 72
     1
 10
487.3827018577749
 20
363.9490384604
 11
488.1664349021392
 21
363.7019283807075
 97
        8
330
5D2
330
5A2
330
5A3
330
5D3
330
5D5
330
5D4
330
5D6
330
5D7
 75
     0
 76
     1
 47
0.0514683685270805
 98
        1
 10
487.6422514435309
 20
364.0729804015403
450
        0
451
        0
460
0.0
461
0.0
452
        0
462
0.0
453
        0
470

  0
SPLINE
  5
5A2
102
{ACAD_REACTORS
330
5A1
102
}
330
18
100
AcDbEntity
  8
ROGO
 62
     4
100
AcDbSpline
210
0.0
220
0.0
230
1.0
 70
     8
 71
     3
 72
    26
 73
    22
 74
    20
 42
0.0000000001
 43
0.0000000001
 44
0.0000000001
 40
0.0
 40
0.0
 40
0.0
 40
0.0
 40
0.2382195346591791
 40
0.39768906726606
 40
0.512679586978755
 40
0.5985392873135868
 40
0.7099038249249566
 40
0.791189080749458
 40
0.9379713068543457
 40
1.057449928673048
 40
1.138714535893311
 40
1.218398644003498
 40
1.360938021870389
 40
1.461730374800258
 40
1.516014844108014
 40
1.59312432922051
 40
1.648806818593623
 40
1.729472362005528
 40
1.775122082164351
 40
1.874460993765127
 40
1.919820003751213
 40
1.919820003751213
 40
1.919820003751213
 40
1.919820003751213
 10
487.2915236599721
 20
364.4900720078059
 30
0.0
 10
487.2129599071101
 20
364.5097849895627
 30
0.0
 10
487.0818038050663
 20
364.5426942861876
 30
0.0
 10
486.913379970382
 20
364.5013932691895
 30
0.0
 10
486.7940792025673
 20
364.4841258267243
 30
0.0
 10
486.6988227616872
 20
364.4395515353965
 30
0.0
 10
486.6225819997613
 20
364.3865249920265
 30
0.0
 10
486.5279955130896
 20
364.3245254197404
 30
0.0
 10
486.4416728111545
 20
364.2448191879238
 30
0.0
 10
486.3795318772262
 20
364.1465636187311
 30
0.0
 10
486.3274887350801
 20
364.0690467959114
 30
0.0
 10
486.2788518810134
 20
363.9797137094669
 30
0.0
 10
486.2511595593576
 20
363.8753665587523
 30
0.0
 10
486.2278245980948
 20
363.7777025162419
 30
0.0
 10
486.2366129875912
 20
363.6999619008964
 30
0.0
 10
486.2557997554077
 20
363.6405391138305
 30
0.0
 10
486.2811779149945
 20
363.5737527235736
 30
0.0
 10
486.3162288374724
 20
363.5237683021371
 30
0.0
 10
486.3342265384219
 20
363.4475640697001
 30
0.0
 10
486.3985565617885
 20
363.4182808082853
 30
0.0
 10
486.4359507503502
 20
363.3885776146666
 30
0.0
 10
486.4476728494225
 20
363.3792664411461
 30
0.0
 11
487.2915236599721
 21
364.4900720078059
 31
0.0
 11
487.0560148861393
 21
364.5259072438317
 31
0.0
 11
486.8985287982281
 21
364.500834072029
 31
0.0
 11
486.7861456253697
 21
364.4764857233769
 31
0.0
 11
486.707776200216
 21
364.4414126376464
 31
0.0
 11
486.6140314917181
 21
364.3812961684715
 31
0.0
 11
486.5471243008934
 21
364.3351364389403
 31
0.0
 11
486.4405204340298
 21
364.2342372938991
 31
0.0
 11
486.3722170316409
 21
364.1362077764374
 31
0.0
 11
486.3282345609084
 21
364.0678741927839
 31
0.0
 11
486.2910545407541
 21
363.9973958047018
 31
0.0
 11
486.2481921231718
 21
363.861453583881
 31
0.0
 11
486.2317940864143
 21
363.762004085141
 31
0.0
 11
486.2372003254284
 21
363.7079894927817
 31
0.0
 11
486.2587285126541
 21
363.633946195657
 31
0.0
 11
486.2798835630313
 21
363.5824388809695
 31
0.0
 11
486.3171601704498
 21
363.5109029848521
 31
0.0
 11
486.3336555069444
 21
363.468337731129
 31
0.0
 11
486.4113757067034
 21
363.4064685957913
 31
0.0
 11
486.4476728494225
 21
363.3792664411461
 31
0.0
  0
LINE
  5
5A3
102
{ACAD_REACTORS
330
5A1
102
}
330
18
100
AcDbEntity
  8
ROGO
 62
     4
100
AcDbLine
 10
486.4476728494225
 20
363.3792664411462
 30
0.0
 11
487.5263543928205
 21
363.0391594569267
 31
0.0
  0
HATCH
  5
5A4
330
18
100
AcDbEntity
  8
ROGO
 62
     4
100
AcDbHatch
 10
0.0
 20
0.0
 30
0.0
210
0.0
220
0.0
230
1.0
  2
SOLID
 70
     1
 71
     1
 91
        2
 92
        7
 72
     0
 73
     1
 93
        8
 10
485.943216266883
 20
364.9151916958834
 10
484.9414286602389
 20
365.2310541149723
 10
483.6434510421695
 20
364.263434180721
 10
484.3370390734929
 20
364.0447467144638
 10
484.5841659811291
 20
364.2289755630894
 10
485.3756337323687
 20
363.9794267396867
 10
485.4063788014511
 20
363.7075851933385
 10
486.1046977175133
 20
363.4874060848528
 97
        8
330
5AB
330
5B1
330
5AC
330
5AD
330
5AF
330
5A5
330
5AA
330
5A7
 92
       22
 72
     0
 73
     1
 93
        3
 10
485.343205980895
 20
364.2661462159577
 10
484.8448181826843
 20
364.4232872851254
 10
485.2880619988829
 20
364.7537179075931
 97
        3
330
5AE
330
5B0
330
5A6
 75
     0
 76
     1
 47
0.0128389261915577
 98
        2
 10
485.7700334501564
 20
364.6394654028375
 10
485.7700334501564
 20
364.6394654028375
450
        0
451
        0
460
0.0
461
0.0
452
        0
462
0.0
453
        0
470

  0
LINE
  5
5A5
102
{ACAD_REACTORS
330
5A4
102
}
330
18
100
AcDbEntity
  8
ROGO
 62
     4
100
AcDbLine
 10
485.3756337323686
 20
363.9794267396868
 30
0.0
 11
485.406378801451
 21
363.7075851933385
 31
0.0
  0
LINE
  5
5A6
102
{ACAD_REACTORS
330
5A4
102
}
330
18
100
AcDbEntity
  8
ROGO
 62
     4
100
AcDbLine
 10
485.288061998883
 20
364.7537179075929
 30
0.0
 11
485.343205980895
 21
364.2661462159576
 31
0.0
  0
LINE
  5
5A7
102
{ACAD_REACTORS
330
5A4
102
}
330
18
100
AcDbEntity
  8
ROGO
 62
     4
100
AcDbLine
 10
485.943216266883
 20
364.9151916958834
 30
0.0
 11
486.1046977175133
 21
363.4874060848527
 31
0.0
  0
HATCH
  5
5A8
330
18
100
AcDbEntity
  8
ROGO
 62
     4
100
AcDbHatch
 10
0.0
 20
0.0
 30
0.0
210
0.0
220
0.0
230
1.0
  2
SOLID
 70
     1
 71
     1
 91
        1
 92
        1
 93
       12
 72
     1
 10
482.7568661538097
 20
365.9198440274799
 11
484.4507467584571
 21
365.385765524329
 72
     1
 10
484.450746758457
 20
365.3857655243289
 11
484.2183480577905
 21
365.1436405485453
 72
     1
 10
484.2183480577905
 20
365.1436405485453
 11
483.3280872154008
 21
365.4243387139371
 72
     1
 10
483.3280872154008
 20
365.4243387139371
 11
483.1463803106706
 21
365.2350270707078
 72
     1
 10
483.1463803106706
 20
365.2350270707078
 11
484.0366411530602
 21
364.954328905316
 72
     1
 10
484.0366411530602
 20
364.954328905316
 11
483.8503177445629
 21
364.7602075498998
 72
     1
 10
483.8503177445629
 20
364.7602075498998
 11
482.9600569021732
 21
365.0409057152915
 72
     1
 10
482.9600569021732
 20
365.0409057152915
 11
482.7783423048461
 21
364.8515860575173
 72
     1
 10
482.7783423048462
 20
364.8515860575173
 11
483.6686031472358
 21
364.5708878921255
 72
     1
 10
483.6686031472358
 20
364.5708878921255
 11
483.4362161364826
 21
364.3287750954976
 72
     1
 10
483.4362161364826
 20
364.3287750954976
 11
481.7423355318352
 21
364.8628535986485
 72
     1
 10
481.7423355318352
 20
364.8628535986485
 11
482.7568661538097
 21
365.9198440274799
 97
       12
330
5A9
330
5BB
330
5B8
330
5B9
330
5B7
330
5B4
330
5B5
330
5B2
330
5B6
330
5B3
330
5BA
330
5BC
 75
     0
 76
     1
 98
        1
 10
386.1656926071569
 20
301.1704758493618
450
        0
451
        0
460
0.0
461
0.0
452
        0
462
0.0
453
        0
470

  0
LINE
  5
5A9
102
{ACAD_REACTORS
330
5A8
102
}
330
18
100
AcDbEntity
  8
ROGO
 62
     4
100
AcDbLine
 10
482.7568661538097
 20
365.9198440274799
 30
0.0
 11
484.4507467584571
 21
365.385765524329
 31
0.0
  0
LINE
  5
5AA
102
{ACAD_REACTORS
330
5A4
102
}
330
18
100
AcDbEntity
  8
ROGO
 62
     4
100
AcDbLine
 10
486.1046977175133
 20
363.4874060848527
 30
0.0
 11
485.406378801451
 21
363.7075851933385
 31
0.0
  0
LINE
  5
5AB
102
{ACAD_REACTORS
330
5A4
102
}
330
18
100
AcDbEntity
  8
ROGO
 62
     4
100
AcDbLine
 10
484.9414286602389
 20
365.2310541149723
 30
0.0
 11
485.943216266883
 21
364.9151916958835
 31
0.0
  0
LINE
  5
5AC
102
{ACAD_REACTORS
330
5A4
102
}
330
18
100
AcDbEntity
  8
ROGO
 62
     4
100
AcDbLine
 10
483.6434510421696
 20
364.263434180721
 30
0.0
 11
484.3370390734929
 21
364.0447467144638
 31
0.0
  0
LINE
  5
5AD
102
{ACAD_REACTORS
330
5A4
102
}
330
18
100
AcDbEntity
  8
ROGO
 62
     4
100
AcDbLine
 10
484.5841659811291
 20
364.2289755630894
 30
0.0
 11
484.337039073493
 21
364.0447467144639
 31
0.0
  0
LINE
  5
5AE
102
{ACAD_REACTORS
330
5A4
102
}
330
18
100
AcDbEntity
  8
ROGO
 62
     4
100
AcDbLine
 10
484.8448181826843
 20
364.4232872851255
 30
0.0
 11
485.343205980895
 21
364.2661462159576
 31
0.0
  0
LINE
  5
5AF
102
{ACAD_REACTORS
330
5A4
102
}
330
18
100
AcDbEntity
  8
ROGO
 62
     4
100
AcDbLine
 10
484.5841659811291
 20
364.2289755630894
 30
0.0
 11
485.3756337323686
 21
363.9794267396868
 31
0.0
  0
LINE
  5
5B0
102
{ACAD_REACTORS
330
5A4
102
}
330
18
100
AcDbEntity
  8
ROGO
 62
     4
100
AcDbLine
 10
485.2880619988829
 20
364.7537179075929
 30
0.0
 11
484.8448181826843
 21
364.4232872851254
 31
0.0
  0
LINE
  5
5B1
102
{ACAD_REACTORS
330
5A4
102
}
330
18
100
AcDbEntity
  8
ROGO
 62
     4
100
AcDbLine
 10
484.9414286602389
 20
365.2310541149723
 30
0.0
 11
483.6434510421696
 21
364.263434180721
 31
0.0
  0
LINE
  5
5B2
102
{ACAD_REACTORS
330
5A8
102
}
330
18
100
AcDbEntity
  8
ROGO
 62
     4
100
AcDbLine
 10
482.9600569021732
 20
365.0409057152915
 30
0.0
 11
482.7783423048461
 21
364.8515860575173
 31
0.0
  0
LINE
  5
5B3
102
{ACAD_REACTORS
330
5A8
102
}
330
18
100
AcDbEntity
  8
ROGO
 62
     4
100
AcDbLine
 10
483.6686031472358
 20
364.5708878921255
 30
0.0
 11
483.4362161364826
 21
364.3287750954976
 31
0.0
  0
LINE
  5
5B4
102
{ACAD_REACTORS
330
5A8
102
}
330
18
100
AcDbEntity
  8
ROGO
 62
     4
100
AcDbLine
 10
484.0366411530602
 20
364.954328905316
 30
0.0
 11
483.8503177445629
 21
364.7602075498998
 31
0.0
  0
LINE
  5
5B5
102
{ACAD_REACTORS
330
5A8
102
}
330
18
100
AcDbEntity
  8
ROGO
 62
     4
100
AcDbLine
 10
482.9600569021732
 20
365.0409057152915
 30
0.0
 11
483.8503177445629
 21
364.7602075498998
 31
0.0
  0
LINE
  5
5B6
102
{ACAD_REACTORS
330
5A8
102
}
330
18
100
AcDbEntity
  8
ROGO
 62
     4
100
AcDbLine
 10
482.7783423048462
 20
364.8515860575173
 30
0.0
 11
483.6686031472358
 21
364.5708878921255
 31
0.0
  0
LINE
  5
5B7
102
{ACAD_REACTORS
330
5A8
102
}
330
18
100
AcDbEntity
  8
ROGO
 62
     4
100
AcDbLine
 10
483.1463803106706
 20
365.2350270707078
 30
0.0
 11
484.0366411530602
 21
364.954328905316
 31
0.0
  0
LINE
  5
5B8
102
{ACAD_REACTORS
330
5A8
102
}
330
18
100
AcDbEntity
  8
ROGO
 62
     4
100
AcDbLine
 10
483.3280872154008
 20
365.4243387139371
 30
0.0
 11
484.2183480577905
 21
365.1436405485453
 31
0.0
  0
LINE
  5
5B9
102
{ACAD_REACTORS
330
5A8
102
}
330
18
100
AcDbEntity
  8
ROGO
 62
     4
100
AcDbLine
 10
483.3280872154008
 20
365.4243387139371
 30
0.0
 11
483.1463803106706
 21
365.2350270707078
 31
0.0
  0
LINE
  5
5BA
102
{ACAD_REACTORS
330
5A8
102
}
330
18
100
AcDbEntity
  8
ROGO
 62
     4
100
AcDbLine
 10
481.7423355318352
 20
364.8628535986485
 30
0.0
 11
483.4362161364826
 21
364.3287750954976
 31
0.0
  0
LINE
  5
5BB
102
{ACAD_REACTORS
330
5A8
102
}
330
18
100
AcDbEntity
  8
ROGO
 62
     4
100
AcDbLine
 10
484.450746758457
 20
365.3857655243289
 30
0.0
 11
484.2183480577905
 21
365.1436405485453
 31
0.0
  0
LINE
  5
5BC
102
{ACAD_REACTORS
330
5A8
102
}
330
18
100
AcDbEntity
  8
ROGO
 62
     4
100
AcDbLine
 10
482.7568661538097
 20
365.9198440274799
 30
0.0
 11
481.7423355318352
 21
364.8628535986485
 31
0.0
  0
SPLINE
  5
5BD
102
{ACAD_REACTORS
330
58B
102
}
330
18
100
AcDbEntity
  8
ROGO
 62
     4
100
AcDbSpline
210
0.0
220
0.0
230
1.0
 70
     8
 71
     3
 72
    15
 73
    11
 74
     9
 42
0.0000000001
 43
0.0000000001
 44
0.0000000001
 40
0.0
 40
0.0
 40
0.0
 40
0.0
 40
0.1539705029174805
 40
0.2241725832587185
 40
0.3038566179396871
 40
0.3581410872474633
 40
0.4439925384672245
 40
0.4954152125470032
 40
0.5836396705646385
 40
0.6130478420065777
 40
0.6130478420065777
 40
0.6130478420065777
 40
0.6130478420065777
 10
481.1526129551876
 20
365.8932232669969
 30
0.0
 10
481.2078444709152
 20
365.8760865762424
 30
0.0
 10
481.288258519862
 20
365.8511364970899
 30
0.0
 10
481.3008500699266
 20
365.7379628180714
 30
0.0
 10
481.2610034822149
 20
365.6802163298926
 30
0.0
 10
481.2155587448741
 20
365.622358473713
 30
0.0
 10
481.1577656698317
 20
365.5915287265751
 30
0.0
 10
481.0855301650053
 20
365.5670593089062
 30
0.0
 10
481.028428744919
 20
365.5793440763221
 30
0.0
 10
480.9893439329295
 20
365.5811596424417
 30
0.0
 10
480.979572725255
 20
365.5816135341889
 30
0.0
 11
481.1526129551876
 21
365.8932232669969
 31
0.0
 11
481.2847546455566
 21
365.8141948579589
 31
0.0
 11
481.2926775404555
 21
365.7444412930274
 31
0.0
 11
481.2554979114715
 21
365.6739627816097
 31
0.0
 11
481.2200878823348
 21
365.6328175091648
 31
0.0
 11
481.1463778497614
 21
365.588802707398
 31
0.0
 11
481.0969890701468
 21
365.5744834945113
 31
0.0
 11
481.0089268289449
 21
365.5798310796677
 31
0.0
 11
480.979572725255
 21
365.5816135341889
 31
0.0
  0
SPLINE
  5
5BE
102
{ACAD_REACTORS
330
58B
102
}
330
18
100
AcDbEntity
  8
ROGO
 62
     4
100
AcDbSpline
210
0.0
220
0.0
230
1.0
 70
     8
 71
     3
 72
    18
 73
    14
 74
     0
 42
0.0000000001
 43
0.0000000001
 40
0.1087402787915014
 40
0.1087402787915014
 40
0.1087402787915014
 40
0.1087402787915014
 40
0.5992371417938475
 40
1.083176791562496
 40
1.448211145705696
 40
1.714037220764907
 40
2.164002567013297
 40
2.740236056362883
 40
3.395137510199602
 40
4.071816045172726
 40
4.784906178399433
 40
5.506895915094292
 40
6.060470601257719
 40
6.060470601257719
 40
6.060470601257719
 40
6.060470601257719
 10
481.8483325038
 20
366.2063035869837
 30
0.0
 10
481.8919080116104
 20
366.172713156681
 30
0.0
 10
481.9767581418183
 20
366.1039917005865
 30
0.0
 10
482.0675347932498
 20
365.9795843748665
 30
0.0
 10
482.1003094376364
 20
365.858673969818
 30
0.0
 10
482.1310918704459
 20
365.7400148663149
 30
0.0
 10
482.0949442360608
 20
365.5951000351902
 30
0.0
 10
482.024050363158
 20
365.4198363610892
 30
0.0
 10
481.8731150176573
 20
365.2612337446003
 30
0.0
 10
481.6740472096402
 20
365.1436556871395
 30
0.0
 10
481.4497088323966
 20
365.0700444032065
 30
0.0
 10
481.2242951038601
 20
365.0278100474
 30
0.0
 10
481.0860730532919
 20
365.0702623196228
 30
0.0
 10
481.0260868801964
 20
365.0886859310465
 30
0.0
  0
HATCH
  5
5BF
330
18
100
AcDbEntity
  8
ROGO
 62
     4
100
AcDbHatch
 10
0.0
 20
0.0
 30
0.0
210
0.0
220
0.0
230
1.0
  2
SOLID
 70
     1
 71
     1
 91
        2
 92
        5
 93
        6
 72
     4
 94
        3
 73
     0
 74
     0
 95
       38
 96
       34
 40
0.0
 40
0.0
 40
0.0
 40
0.0
 40
0.1807680148264315
 40
0.2375392910068956
 40
0.3104865209606157
 40
0.3712759982447458
 40
0.422566754387306
 40
0.490692583720658
 40
0.5255021974951946
 40
0.5647069597052371
 40
0.622487401681883
 40
0.6879401044674746
 40
0.7303986317551266
 40
0.7765228362185534
 40
0.8277951442290254
 40
0.9056034697002209
 40
0.9795294930264187
 40
1.013897332332996
 40
1.053089255536027
 40
1.099518741889647
 40
1.132570569820733
 40
1.160277520290299
 40
1.19983678629386
 40
1.243305643169139
 40
1.286774258016964
 40
1.324809356515675
 40
1.411916492917645
 40
1.446284332224223
 40
1.5150200516612
 40
1.575779369908399
 40
1.69209852953623
 40
1.835624328519098
 40
2.042896467983898
 40
2.042896467983898
 40
2.042896467983898
 40
2.042896467983898
 10
489.2428176904987
 20
363.880574387061
 10
489.1840711063591
 20
363.8946339247891
 10
489.1068748061232
 20
363.913108944427
 10
489.0027064457283
 20
363.917071759482
 10
488.9405707061275
 20
363.9022561035452
 10
488.8789220750033
 20
363.8964030632006
 10
488.8218044173776
 20
363.8769615629394
 10
488.7693603752601
 20
363.8741991578283
 10
488.7265332688159
 20
363.8529048429135
 10
488.6824189649474
 20
363.8455581231607
 10
488.6384997758096
 20
363.8118288923802
 10
488.591904145925
 20
363.7820377625294
 10
488.5433350832829
 20
363.7648811598794
 10
488.5013359332559
 20
363.7440200532803
 10
488.4566855830309
 20
363.7054664804488
 10
488.4191372283983
 20
363.6473733883187
 10
488.3571658947765
 20
363.6227603049048
 10
488.3345174914945
 20
363.5768167559039
 10
488.2982613171005
 20
363.5569292848176
 10
488.2748071491153
 20
363.5238960272828
 10
488.259667877203
 20
363.4916299315274
 10
488.2443259913796
 20
363.4618748900933
 10
488.2197090103393
 20
363.4332470023837
 10
488.2114463552944
 20
363.3909014714461
 10
488.1976446676246
 20
363.3517258371325
 10
488.1815680574316
 20
363.2980315763249
 10
488.162359358916
 20
363.2468748575137
 10
488.1668373913929
 20
363.1832014096873
 10
488.1641378149297
 20
363.1285550428308
 10
488.1782955636985
 20
363.0472480477592
 10
488.2153052068077
 20
362.9469186597218
 10
488.3031699583792
 20
362.8115982131669
 10
488.4141994524293
 20
362.7656735250717
 10
488.4798022346958
 20
362.7385385071241
 72
     1
 10
488.4798022346958
 20
362.7385385071241
 11
489.195522766622
 21
362.512872690232
 72
     4
 94
        3
 73
     0
 74
     0
 95
       11
 96
        7
 40
0.1647869275458135
 40
0.1647869275458135
 40
0.1647869275458135
 40
0.1647869275458135
 40
0.2545010798212315
 40
0.5111620267764023
 40
0.7602998271033902
 40
0.8850764140209603
 40
0.8850764140209603
 40
0.8850764140209603
 40
0.8850764140209603
 10
489.1955227666215
 20
362.5128726902321
 10
489.2054493083288
 20
362.5095312540744
 10
489.2437744418971
 20
362.4966303878081
 10
489.3126579506482
 20
362.4853197573547
 10
489.3848524293215
 20
362.4725309482156
 10
489.4282706530135
 20
362.4661050145257
 10
489.4427722522627
 20
362.4656124341228
 72
     4
 94
        3
 73
     0
 74
     0
 95
        9
 96
        5
 40
0.0
 40
0.0
 40
0.0
 40
0.0
 40
0.1135793343552172
 40
0.2662938392177403
 40
0.2662938392177403
 40
0.2662938392177403
 40
0.2662938392177403
 10
489.4427722522627
 20
362.4656124341228
 10
489.4809251652859
 20
362.4652869051589
 10
489.5703770514407
 20
362.4645236821829
 10
489.6544153503572
 20
362.4960230844807
 10
489.702609733097
 20
362.5140873988467
 72
     4
 94
        3
 73
     0
 74
     0
 95
       25
 96
       21
 40
0.0
 40
0.0
 40
0.0
 40
0.0
 40
0.165525918914855
 40
0.3412380755365305
 40
0.5940540902285263
 40
0.7697671103696209
 40
0.9377330196075423
 40
1.11479469302833
 40
1.274661249598185
 40
1.574522170874768
 40
1.815540668866877
 40
2.15849091873445
 40
2.536227739636605
 40
2.738070817316548
 40
2.925680654369045
 40
3.162706124480894
 40
3.395643218188267
 40
3.648478129958861
 40
3.928509979727306
 40
4.337226830236035
 40
4.337226830236035
 40
4.337226830236035
 40
4.337226830236035
 10
489.702609733097
 20
362.5140873988467
 10
489.7205138221726
 20
362.5213462407078
 10
489.7562554461365
 20
362.5407675266538
 10
489.8183034326492
 20
362.5709464585939
 10
489.8770307303593
 20
362.6103838738708
 10
489.9424428118405
 20
362.6367292592545
 10
489.9859520280215
 20
362.680434839487
 10
490.0378811960159
 20
362.7092243755209
 10
490.0905798437777
 20
362.762357952462
 10
490.1412976869267
 20
362.8264866391996
 10
490.1976949945476
 20
362.9131394832752
 10
490.2416184367964
 20
363.017108505897
 10
490.2593086095333
 20
363.1255197014973
 10
490.2475064031374
 20
363.2144438706446
 10
490.2412293426476
 20
363.2874308958879
 10
490.220086362536
 20
363.361354212822
 10
490.1949378849367
 20
363.4424328801732
 10
490.1473058263388
 20
363.5179575927424
 10
490.0833075898098
 20
363.6111166062089
 10
490.0050046858511
 20
363.6385996176241
 10
489.9585382224244
 20
363.654908570169
 72
     1
 10
489.9585382224244
 20
363.654908570169
 11
489.2428176904988
 21
363.880574387061
 97
        6
330
5C5
330
5C4
330
5C6
330
5C3
330
5C2
330
5C1
 92
       20
 93
        1
 72
     3
 10
489.2035070695958
 20
363.182384992389
 11
0.2171775313574884
 21
0.0959116317593807
 40
0.6788083417438794
 50
0.0
 51
360.0
 73
     1
 97
        1
330
5C0
 75
     0
 76
     1
 47
0.088756267210375
 98
        2
 10
489.3477791063029
 20
363.4655967272417
 10
489.3477791063029
 20
363.4655967272417
450
        0
451
        0
460
0.0
461
0.0
452
        0
462
0.0
453
        0
470

  0
ELLIPSE
  5
5C0
102
{ACAD_REACTORS
330
5BF
102
}
330
18
100
AcDbEntity
  8
ROGO
 62
     4
100
AcDbEllipse
 10
489.2035070695958
 20
363.182384992389
 30
0.0
 11
0.2171775313574883
 21
0.0959116317593806
 31
0.0
210
0.0
220
0.0
230
1.0
 40
0.6788083417438792
 41
0.0
 42
6.283185307179586
  0
SPLINE
  5
5C1
102
{ACAD_REACTORS
330
5BF
102
}
330
18
100
AcDbEntity
  8
ROGO
 62
     4
100
AcDbSpline
210
0.0
220
0.0
230
1.0
 70
     8
 71
     3
 72
     9
 73
     5
 74
     3
 42
0.0000000001
 43
0.0000000001
 44
0.0000000001
 40
0.0
 40
0.0
 40
0.0
 40
0.0
 40
0.1135793343551978
 40
0.2662938392177375
 40
0.2662938392177375
 40
0.2662938392177375
 40
0.2662938392177375
 10
489.4427722522627
 20
362.4656124341228
 30
0.0
 10
489.4809251652859
 20
362.4652869051589
 30
0.0
 10
489.5703770514407
 20
362.4645236821829
 30
0.0
 10
489.6544153503572
 20
362.4960230844807
 30
0.0
 10
489.702609733097
 20
362.5140873988467
 30
0.0
 11
489.4427722522627
 21
362.4656124341228
 31
0.0
 11
489.5562461607195
 21
362.4705050093262
 31
0.0
 11
489.702609733097
 21
362.5140873988467
 31
0.0
  0
SPLINE
  5
5C2
102
{ACAD_REACTORS
330
5BF
102
}
330
18
100
AcDbEntity
  8
ROGO
 62
     4
100
AcDbSpline
210
0.0
220
0.0
230
1.0
 70
     8
 71
     3
 72
    11
 73
     7
 74
     0
 42
0.0000000001
 43
0.0000000001
 40
0.1647869275458134
 40
0.1647869275458134
 40
0.1647869275458134
 40
0.1647869275458134
 40
0.2895635144633836
 40
0.5387013147903714
 40
0.7953622617455423
 40
0.8850764140209602
 40
0.8850764140209602
 40
0.8850764140209602
 40
0.8850764140209602
 10
489.4427722522627
 20
362.4656124341228
 30
0.0
 10
489.4282706530135
 20
362.4661050145257
 30
0.0
 10
489.3848524293215
 20
362.4725309482156
 30
0.0
 10
489.3126579506482
 20
362.4853197573547
 30
0.0
 10
489.2437744418971
 20
362.4966303878081
 30
0.0
 10
489.2054493083288
 20
362.5095312540744
 30
0.0
 10
489.1955227666215
 20
362.5128726902321
 30
0.0
  0
LINE
  5
5C3
102
{ACAD_REACTORS
330
5BF
102
}
330
18
100
AcDbEntity
  8
ROGO
 62
     4
100
AcDbLine
 10
488.4798022346958
 20
362.7385385071241
 30
0.0
 11
489.1955227666215
 21
362.5128726902321
 31
0.0
  0
LINE
  5
5C4
102
{ACAD_REACTORS
330
5BF
102
}
330
18
100
AcDbEntity
  8
ROGO
 62
     4
100
AcDbLine
 10
489.2428176904987
 20
363.880574387061
 30
0.0
 11
489.9585382224244
 21
363.654908570169
 31
0.0
  0
SPLINE
  5
5C5
102
{ACAD_REACTORS
330
5BF
102
}
330
18
100
AcDbEntity
  8
ROGO
 62
     4
100
AcDbSpline
210
0.0
220
0.0
230
1.0
 70
     8
 71
     3
 72
    25
 73
    21
 74
     0
 42
0.0000000001
 43
0.0000000001
 40
0.0
 40
0.0
 40
0.0
 40
0.0
 40
0.4087168505087288
 40
0.6887487002771746
 40
0.9415836120477687
 40
1.17452070575514
 40
1.41154617586699
 40
1.599156012919487
 40
1.80099909059943
 40
2.178735911501585
 40
2.521686161369157
 40
2.762704659361267
 40
3.06256558063785
 40
3.222432137207705
 40
3.399493810628493
 40
3.567459719866414
 40
3.743172740007509
 40
3.995988754699505
 40
4.17170091132118
 40
4.337226830236035
 40
4.337226830236035
 40
4.337226830236035
 40
4.337226830236035
 10
489.9585382224244
 20
363.654908570169
 30
0.0
 10
490.0050046858511
 20
363.6385996176241
 30
0.0
 10
490.0833075898098
 20
363.6111166062089
 30
0.0
 10
490.1473058263388
 20
363.5179575927424
 30
0.0
 10
490.1949378849367
 20
363.4424328801732
 30
0.0
 10
490.220086362536
 20
363.361354212822
 30
0.0
 10
490.2412293426476
 20
363.2874308958879
 30
0.0
 10
490.2475064031374
 20
363.2144438706446
 30
0.0
 10
490.2593086095333
 20
363.1255197014973
 30
0.0
 10
490.2416184367964
 20
363.017108505897
 30
0.0
 10
490.1976949945476
 20
362.9131394832752
 30
0.0
 10
490.1412976869267
 20
362.8264866391996
 30
0.0
 10
490.0905798437777
 20
362.762357952462
 30
0.0
 10
490.0378811960159
 20
362.7092243755209
 30
0.0
 10
489.9859520280215
 20
362.680434839487
 30
0.0
 10
489.9424428118405
 20
362.6367292592545
 30
0.0
 10
489.8770307303593
 20
362.6103838738708
 30
0.0
 10
489.8183034326492
 20
362.5709464585939
 30
0.0
 10
489.7562554461365
 20
362.5407675266538
 30
0.0
 10
489.7205138221726
 20
362.5213462407078
 30
0.0
 10
489.702609733097
 20
362.5140873988467
 30
0.0
  0
SPLINE
  5
5C6
102
{ACAD_REACTORS
330
5BF
102
}
330
18
100
AcDbEntity
  8
ROGO
 62
     4
100
AcDbSpline
210
0.0
220
0.0
230
1.0
 70
     8
 71
     3
 72
    38
 73
    34
 74
    32
 42
0.0000000001
 43
0.0000000001
 44
0.0000000001
 40
0.0
 40
0.0
 40
0.0
 40
0.0
 40
0.1807680148264616
 40
0.2375392910069177
 40
0.3104865209606303
 40
0.3712759982447729
 40
0.4225667543872994
 40
0.4906925837206673
 40
0.5255021974952012
 40
0.5647069597052303
 40
0.6224874016819133
 40
0.6879401044674597
 40
0.7303986317551294
 40
0.7765228362185879
 40
0.8277951442290127
 40
0.9056034697002107
 40
0.979529493026397
 40
1.013897332333014
 40
1.053089255536038
 40
1.099518741889667
 40
1.132570569820774
 40
1.160277520290326
 40
1.199836786293868
 40
1.243305643169169
 40
1.286774258016962
 40
1.324809356515698
 40
1.411916492917668
 40
1.446284332224232
 40
1.515020051661199
 40
1.575779369908415
 40
1.692098529536246
 40
1.835624328519134
 40
2.042896467983919
 40
2.042896467983919
 40
2.042896467983919
 40
2.042896467983919
 10
489.2428176904987
 20
363.880574387061
 30
0.0
 10
489.1840711063592
 20
363.8946339247892
 30
0.0
 10
489.1068748061232
 20
363.9131089444271
 30
0.0
 10
489.0027064457282
 20
363.9170717594819
 30
0.0
 10
488.9405707061275
 20
363.9022561035452
 30
0.0
 10
488.8789220750034
 20
363.8964030632006
 30
0.0
 10
488.8218044173776
 20
363.8769615629394
 30
0.0
 10
488.7693603752601
 20
363.8741991578283
 30
0.0
 10
488.7265332688158
 20
363.8529048429135
 30
0.0
 10
488.6824189649474
 20
363.8455581231607
 30
0.0
 10
488.6384997758094
 20
363.8118288923801
 30
0.0
 10
488.5919041459251
 20
363.7820377625294
 30
0.0
 10
488.5433350832829
 20
363.7648811598794
 30
0.0
 10
488.5013359332558
 20
363.7440200532803
 30
0.0
 10
488.456685583031
 20
363.7054664804487
 30
0.0
 10
488.4191372283983
 20
363.6473733883187
 30
0.0
 10
488.3571658947765
 20
363.6227603049049
 30
0.0
 10
488.3345174914945
 20
363.5768167559039
 30
0.0
 10
488.2982613171005
 20
363.5569292848176
 30
0.0
 10
488.2748071491152
 20
363.5238960272829
 30
0.0
 10
488.259667877203
 20
363.4916299315274
 30
0.0
 10
488.2443259913797
 20
363.4618748900933
 30
0.0
 10
488.2197090103394
 20
363.4332470023837
 30
0.0
 10
488.2114463552944
 20
363.3909014714461
 30
0.0
 10
488.1976446676246
 20
363.3517258371325
 30
0.0
 10
488.1815680574316
 20
363.2980315763249
 30
0.0
 10
488.1623593589159
 20
363.2468748575137
 30
0.0
 10
488.1668373913931
 20
363.1832014096874
 30
0.0
 10
488.1641378149295
 20
363.1285550428307
 30
0.0
 10
488.1782955636987
 20
363.0472480477592
 30
0.0
 10
488.2153052068077
 20
362.9469186597217
 30
0.0
 10
488.3031699583791
 20
362.8115982131669
 30
0.0
 10
488.4141994524294
 20
362.7656735250717
 30
0.0
 10
488.4798022346958
 20
362.7385385071241
 30
0.0
 11
489.2428176904987
 21
363.880574387061
 31
0.0
 11
489.0651311488481
 21
363.9138094303219
 31
0.0
 11
489.0083656016891
 21
363.9146159381593
 31
0.0
 11
488.9363257083145
 21
363.9031463208817
 31
0.0
 11
488.8762923086205
 21
363.8935885246048
 31
0.0
 11
488.8266317746403
 21
363.8807599225584
 31
0.0
 11
488.7597782195566
 21
363.8676553128718
 31
0.0
 11
488.7273104447688
 21
363.8551033085913
 31
0.0
 11
488.6896563316901
 21
363.8441862967196
 31
0.0
 11
488.640280393588
 21
363.8141763615055
 31
0.0
 11
488.5840843000962
 21
363.7806196128817
 31
0.0
 11
488.5447962971396
 21
363.7645205643659
 31
0.0
 11
488.5038748845532
 21
363.7432395815569
 31
0.0
 11
488.4648714774748
 21
363.7099591998734
 31
0.0
 11
488.4125126174061
 21
363.6524032680771
 31
0.0
 11
488.3530482639105
 21
363.6084823438136
 31
0.0
 11
488.3328722480613
 21
363.5806601087657
 31
0.0
 11
488.3023233664985
 21
363.5561086794873
 31
0.0
 11
488.2736928251339
 21
363.5195574920342
 31
0.0
 11
488.2587027401067
 21
363.4901003930517
 31
0.0
 11
488.2453468796473
 21
363.4658249714135
 31
0.0
 11
488.2235370466993
 21
363.4328209305469
 31
0.0
 11
488.2104657093391
 21
363.3913639449153
 31
0.0
 11
488.197394444758
 21
363.3499071901094
 31
0.0
 11
488.1859570700547
 21
363.3136324719478
 31
0.0
 11
488.1650008064043
 21
363.2290837391012
 31
0.0
 11
488.1655698526025
 21
363.1947206111146
 31
0.0
 11
488.1667088327161
 21
363.125994329018
 31
0.0
 11
488.1763014506285
 21
363.0659970254498
 31
0.0
 11
488.2159481131181
 21
362.9566430632447
 31
0.0
 11
488.2987195317396
 21
362.8393888640318
 31
0.0
 11
488.4798022346958
 21
362.7385385071241
 31
0.0
  0
HATCH
  5
5C7
330
18
100
AcDbEntity
  8
ROGO
 62
     4
100
AcDbHatch
 10
0.0
 20
0.0
 30
0.0
210
0.0
220
0.0
230
1.0
  2
SOLID
 70
     1
 71
     1
 91
        1
 92
        5
 93
        8
 72
     4
 94
        3
 73
     0
 74
     0
 95
       26
 96
       22
 40
0.0
 40
0.0
 40
0.0
 40
0.0
 40
0.2382195346591896
 40
0.397689067266058
 40
0.5126795869787176
 40
0.5985392873135238
 40
0.7099038249250041
 40
0.7911890807494602
 40
0.9379713068544059
 40
1.057449928673177
 40
1.138714535893296
 40
1.218398644003487
 40
1.36093802187034
 40
1.461730374800238
 40
1.51601484410804
 40
1.593124329220486
 40
1.648806818593696
 40
1.729472362005543
 40
1.775122082164332
 40
1.874460993765135
 40
1.919820003751196
 40
1.919820003751196
 40
1.919820003751196
 40
1.919820003751196
 10
491.3267666203045
 20
363.2177647895806
 10
491.2482028674425
 20
363.2374777713375
 10
491.1170467653986
 20
363.2703870679622
 10
490.9486229307143
 20
363.2290860509644
 10
490.8293221628997
 20
363.2118186084991
 10
490.7340657220196
 20
363.1672443171713
 10
490.6578249600938
 20
363.1142177738012
 10
490.5632384734218
 20
363.0522182015151
 10
490.4769157714868
 20
362.9725119696984
 10
490.4147748375583
 20
362.8742564005059
 10
490.3627316954124
 20
362.7967395776863
 10
490.3140948413457
 20
362.7074064912416
 10
490.2864025196899
 20
362.6030593405271
 10
490.2630675584271
 20
362.5053952980167
 10
490.2718559479235
 20
362.4276546826712
 10
490.29104271574
 20
362.3682318956052
 10
490.3164208753268
 20
362.3014455053484
 10
490.3514717978048
 20
362.2514610839119
 10
490.3694694987543
 20
362.175256851475
 10
490.4337995221207
 20
362.14597359006
 10
490.4711937106825
 20
362.1162703964415
 10
490.4829158097548
 20
362.1069592229209
 72
     1
 10
490.4829158097548
 20
362.1069592229209
 11
491.5615973531528
 21
361.7668522387015
 72
     1
 10
491.5615973531528
 20
361.7668522387015
 11
491.94085454503
 21
362.1595526525355
 72
     1
 10
491.94085454503
 20
362.1595526525355
 11
491.1400365222026
 21
362.4120496052455
 72
     4
 94
        3
 73
     0
 74
     0
 95
       16
 96
       12
 40
0.0
 40
0.0
 40
0.0
 40
0.0
 40
0.0719416665231652
 40
0.1446253590759511
 40
0.1879779149910863
 40
0.229544093610429
 40
0.2751936323958108
 40
0.3070718656052417
 40
0.3373215422371831
 40
0.3986635435213285
 40
0.5242542460842448
 40
0.5242542460842448
 40
0.5242542460842448
 40
0.5242542460842448
 10
491.1400365222027
 20
362.4120496052455
 10
491.1181218256051
 20
362.4267727035806
 10
491.0740663982338
 20
362.4563707583152
 10
491.0918394688519
 20
362.5269107897938
 10
491.1129369695816
 20
362.5745175038184
 10
491.1474539780843
 20
362.6031378571175
 10
491.1838283218354
 20
362.620413082124
 10
491.2050385002125
 20
362.6511601192953
 10
491.2439338605
 20
362.6671642512259
 10
491.3121566194327
 20
362.6931679074334
 10
491.3754327568603
 20
362.6833364829192
 10
491.4179448181072
 20
362.6767312421747
 72
     1
 10
491.4179448181073
 20
362.6767312421746
 11
492.2016778624715
 21
362.4296211624821
 72
     1
 10
492.2016778624715
 20
362.4296211624821
 11
492.5809390706211
 21
362.8223257349503
 72
     1
 10
492.5809390706211
 20
362.8223257349503
 11
491.3267666203045
 21
363.2177647895806
 97
        8
330
5D0
330
5CE
330
5D1
330
5CD
330
5CC
330
5CF
330
5CB
330
5CA
 75
     0
 76
     1
 47
0.0514683685270805
 98
        1
 10
491.4708795251088
 20
362.9202164559639
450
        0
451
        0
460
0.0
461
0.0
452
        0
462
0.0
453
        0
470

  0
LINE
  5
5C8
102
{ACAD_REACTORS
330
535
102
}
330
18
100
AcDbEntity
  8
ROGO
 62
     4
100
AcDbLine
 10
492.3872723242121
 20
361.2934879515533
 30
0.0
 11
491.971535821317
 21
360.8630151741625
 31
0.0
  0
LINE
  5
5C9
102
{ACAD_REACTORS
330
58C
330
535
102
}
330
18
100
AcDbEntity
  8
ROGO
 62
     4
100
AcDbLine
 10
492.8432371055806
 20
362.7396234822023
 30
0.0
 11
491.2504459399055
 21
361.0903739404443
 31
0.0
  0
LINE
  5
5CA
102
{ACAD_REACTORS
330
5C7
102
}
330
18
100
AcDbEntity
  8
ROGO
 62
     4
100
AcDbLine
 10
492.5809390706211
 20
362.8223257349504
 30
0.0
 11
492.2016778624715
 21
362.4296211624822
 31
0.0
  0
LINE
  5
5CB
102
{ACAD_REACTORS
330
5C7
102
}
330
18
100
AcDbEntity
  8
ROGO
 62
     4
100
AcDbLine
 10
491.4179448181072
 20
362.6767312421747
 30
0.0
 11
492.2016778624715
 21
362.4296211624822
 31
0.0
  0
LINE
  5
5CC
102
{ACAD_REACTORS
330
5C7
102
}
330
18
100
AcDbEntity
  8
ROGO
 62
     4
100
AcDbLine
 10
491.1400365222028
 20
362.4120496052455
 30
0.0
 11
491.9408545450301
 21
362.1595526525355
 31
0.0
  0
LINE
  5
5CD
102
{ACAD_REACTORS
330
5C7
102
}
330
18
100
AcDbEntity
  8
ROGO
 62
     4
100
AcDbLine
 10
491.9408545450301
 20
362.1595526525355
 30
0.0
 11
491.5615973531528
 21
361.7668522387015
 31
0.0
  0
SPLINE
  5
5CE
102
{ACAD_REACTORS
330
5C7
102
}
330
18
100
AcDbEntity
  8
ROGO
 62
     4
100
AcDbSpline
210
0.0
220
0.0
230
1.0
 70
     8
 71
     3
 72
    26
 73
    22
 74
    20
 42
0.0000000001
 43
0.0000000001
 44
0.0000000001
 40
0.0
 40
0.0
 40
0.0
 40
0.0
 40
0.2382195346591791
 40
0.3976890672660511
 40
0.5126795869787462
 40
0.5985392873135492
 40
0.7099038249250148
 40
0.7911890807494694
 40
0.9379713068544376
 40
1.057449928673186
 40
1.138714535893276
 40
1.218398644003513
 40
1.360938021870349
 40
1.461730374800218
 40
1.516014844108025
 40
1.593124329220466
 40
1.648806818593728
 40
1.729472362005556
 40
1.775122082164326
 40
1.874460993765138
 40
1.919820003751189
 40
1.919820003751189
 40
1.919820003751189
 40
1.919820003751189
 10
491.3267666203045
 20
363.2177647895806
 30
0.0
 10
491.2482028674425
 20
363.2374777713375
 30
0.0
 10
491.1170467653986
 20
363.2703870679622
 30
0.0
 10
490.9486229307143
 20
363.2290860509644
 30
0.0
 10
490.8293221628997
 20
363.2118186084992
 30
0.0
 10
490.7340657220195
 20
363.1672443171713
 30
0.0
 10
490.6578249600938
 20
363.1142177738013
 30
0.0
 10
490.5632384734217
 20
363.0522182015151
 30
0.0
 10
490.4769157714869
 20
362.9725119696985
 30
0.0
 10
490.4147748375582
 20
362.8742564005058
 30
0.0
 10
490.3627316954123
 20
362.7967395776862
 30
0.0
 10
490.3140948413458
 20
362.7074064912417
 30
0.0
 10
490.2864025196898
 20
362.6030593405269
 30
0.0
 10
490.2630675584271
 20
362.5053952980167
 30
0.0
 10
490.2718559479234
 20
362.4276546826712
 30
0.0
 10
490.2910427157401
 20
362.3682318956053
 30
0.0
 10
490.316420875327
 20
362.3014455053485
 30
0.0
 10
490.3514717978047
 20
362.2514610839118
 30
0.0
 10
490.3694694987544
 20
362.175256851475
 30
0.0
 10
490.4337995221206
 20
362.1459735900599
 30
0.0
 10
490.4711937106826
 20
362.1162703964415
 30
0.0
 10
490.4829158097548
 20
362.1069592229209
 30
0.0
 11
491.3267666203045
 21
363.2177647895806
 31
0.0
 11
491.0912578464716
 21
363.2536000256065
 31
0.0
 11
490.9337717585604
 21
363.2285268538038
 31
0.0
 11
490.821388585702
 21
363.2041785051517
 31
0.0
 11
490.7430191605484
 21
363.1691054194211
 31
0.0
 11
490.6492744520504
 21
363.1089889502462
 31
0.0
 11
490.5823672612257
 21
363.0628292207151
 31
0.0
 11
490.4757633943621
 21
362.9619300756738
 31
0.0
 11
490.4074599919731
 21
362.863900558212
 31
0.0
 11
490.3634775212407
 21
362.7955669745587
 31
0.0
 11
490.3262975010864
 21
362.7250885864766
 31
0.0
 11
490.2834350835042
 21
362.5891463656558
 31
0.0
 11
490.2670370467466
 21
362.4896968669158
 31
0.0
 11
490.2724432857606
 21
362.4356822745564
 31
0.0
 11
490.2939714729863
 21
362.3616389774318
 31
0.0
 11
490.3151265233637
 21
362.3101316627441
 31
0.0
 11
490.3524031307821
 21
362.2385957666269
 31
0.0
 11
490.3688984672767
 21
362.1960305129038
 31
0.0
 11
490.4466186670357
 21
362.1341613775661
 31
0.0
 11
490.4829158097548
 21
362.1069592229209
 31
0.0
  0
SPLINE
  5
5CF
102
{ACAD_REACTORS
330
5C7
102
}
330
18
100
AcDbEntity
  8
ROGO
 62
     4
100
AcDbSpline
210
0.0
220
0.0
230
1.0
 70
     8
 71
     3
 72
    16
 73
    12
 74
    10
 42
0.0000000001
 43
0.0000000001
 44
0.0000000001
 40
0.0
 40
0.0
 40
0.0
 40
0.0
 40
0.1255907025629486
 40
0.1869327038470769
 40
0.2171823804790157
 40
0.2490606136884587
 40
0.2947101524738173
 40
0.336276331093166
 40
0.3796288870083057
 40
0.4523125795611186
 40
0.5242542460842224
 40
0.5242542460842224
 40
0.5242542460842224
 40
0.5242542460842224
 10
491.4179448181072
 20
362.6767312421747
 30
0.0
 10
491.3754327568604
 20
362.6833364829192
 30
0.0
 10
491.3121566194329
 20
362.6931679074334
 30
0.0
 10
491.2439338604999
 20
362.6671642512258
 30
0.0
 10
491.2050385002125
 20
362.6511601192953
 30
0.0
 10
491.1838283218355
 20
362.620413082124
 30
0.0
 10
491.1474539780844
 20
362.6031378571175
 30
0.0
 10
491.1129369695816
 20
362.5745175038184
 30
0.0
 10
491.091839468852
 20
362.5269107897938
 30
0.0
 10
491.0740663982338
 20
362.4563707583152
 30
0.0
 10
491.1181218256051
 20
362.4267727035806
 30
0.0
 10
491.1400365222027
 20
362.4120496052455
 30
0.0
 11
491.4179448181072
 21
362.6767312421747
 31
0.0
 11
491.2924649537234
 21
362.6820064866692
 31
0.0
 11
491.2341302743623
 21
362.6630352899391
 31
0.0
 11
491.2072927566891
 21
362.6490785502954
 31
0.0
 11
491.1851145617283
 21
362.6261798730228
 31
0.0
 11
491.1471880164428
 21
362.6007740163355
 31
0.0
 11
491.1160642430377
 21
362.5732230102913
 31
0.0
 11
491.0964027039616
 21
362.5345853604465
 31
0.0
 11
491.0885771087997
 21
362.4623241729149
 31
0.0
 11
491.1400365222027
 21
362.4120496052455
 31
0.0
  0
LINE
  5
5D0
102
{ACAD_REACTORS
330
5C7
102
}
330
18
100
AcDbEntity
  8
ROGO
 62
     4
100
AcDbLine
 10
491.3267666203047
 20
363.2177647895805
 30
0.0
 11
492.5809390706211
 21
362.8223257349504
 31
0.0
  0
LINE
  5
5D1
102
{ACAD_REACTORS
330
5C7
102
}
330
18
100
AcDbEntity
  8
ROGO
 62
     4
100
AcDbLine
 10
490.4829158097548
 20
362.1069592229209
 30
0.0
 11
491.5615973531529
 21
361.7668522387014
 31
0.0
  0
LINE
  5
5D2
102
{ACAD_REACTORS
330
5A1
102
}
330
18
100
AcDbEntity
  8
ROGO
 62
     4
100
AcDbLine
 10
487.2915236599725
 20
364.4900720078058
 30
0.0
 11
488.5456961102888
 21
364.0946329531757
 31
0.0
  0
LINE
  5
5D3
102
{ACAD_REACTORS
330
5A1
102
}
330
18
100
AcDbEntity
  8
ROGO
 62
     4
100
AcDbLine
 10
487.9056115846977
 20
363.4318598707608
 30
0.0
 11
487.5263543928205
 21
363.0391594569267
 31
0.0
  0
SPLINE
  5
5D4
102
{ACAD_REACTORS
330
5A1
102
}
330
18
100
AcDbEntity
  8
ROGO
 62
     4
100
AcDbSpline
210
0.0
220
0.0
230
1.0
 70
     8
 71
     3
 72
    16
 73
    12
 74
    10
 42
0.0000000001
 43
0.0000000001
 44
0.0000000001
 40
0.0
 40
0.0
 40
0.0
 40
0.0
 40
0.125590702562951
 40
0.1869327038470617
 40
0.2171823804790268
 40
0.2490606136884697
 40
0.2947101524737967
 40
0.3362763310931831
 40
0.3796288870083227
 40
0.4523125795610792
 40
0.5242542460842633
 40
0.5242542460842633
 40
0.5242542460842633
 40
0.5242542460842633
 10
487.3827018577749
 20
363.9490384603999
 30
0.0
 10
487.340189796528
 20
363.9556437011444
 30
0.0
 10
487.2769136591006
 20
363.9654751256586
 30
0.0
 10
487.2086909001676
 20
363.9394714694513
 30
0.0
 10
487.1697955398802
 20
363.9234673375205
 30
0.0
 10
487.148585361503
 20
363.8927203003492
 30
0.0
 10
487.1122110177521
 20
363.8754450753429
 30
0.0
 10
487.0776940092492
 20
363.8468247220437
 30
0.0
 10
487.0565965085197
 20
363.7992180080192
 30
0.0
 10
487.0388234379015
 20
363.7286779765403
 30
0.0
 10
487.0828788652728
 20
363.6990799218059
 30
0.0
 10
487.1047935618704
 20
363.6843568234707
 30
0.0
 11
487.3827018577749
 21
363.9490384603999
 31
0.0
 11
487.2572219933911
 21
363.9543137048944
 31
0.0
 11
487.19888731403
 21
363.9353425081644
 31
0.0
 11
487.1720497963568
 21
363.9213857685207
 31
0.0
 11
487.149871601396
 21
363.8984870912481
 31
0.0
 11
487.1119450561105
 21
363.8730812345608
 31
0.0
 11
487.0808212827054
 21
363.8455302285166
 31
0.0
 11
487.0611597436293
 21
363.8068925786717
 31
0.0
 11
487.0533341484674
 21
363.7346313911402
 31
0.0
 11
487.1047935618704
 21
363.6843568234707
 31
0.0
  0
LINE
  5
5D5
102
{ACAD_REACTORS
330
5A1
102
}
330
18
100
AcDbEntity
  8
ROGO
 62
     4
100
AcDbLine
 10
487.1047935618704
 20
363.6843568234707
 30
0.0
 11
487.9056115846977
 21
363.4318598707608
 31
0.0
  0
LINE
  5
5D6
102
{ACAD_REACTORS
330
5A1
102
}
330
18
100
AcDbEntity
  8
ROGO
 62
     4
100
AcDbLine
 10
487.3827018577749
 20
363.9490384603999
 30
0.0
 11
488.1664349021391
 21
363.7019283807074
 31
0.0
  0
LINE
  5
5D7
102
{ACAD_REACTORS
330
5A1
102
}
330
18
100
AcDbEntity
  8
ROGO
 62
     4
100
AcDbLine
 10
488.5456961102888
 20
364.0946329531756
 30
0.0
 11
488.1664349021391
 21
363.7019283807074
 31
0.0
  0
TEXT
  5
5D8
330
18
100
AcDbEntity
  8
文字
100
AcDbText
 10
488.0051952129154
 20
372.1881982947691
 30
0.0
 40
2.0
  1
0
 50
342.5
  7
STYLE3
100
AcDbText
  0
LINE
  5
5D9
330
18
100
AcDbEntity
  8
目盛
100
AcDbLine
 10
490.7693887548452
 20
377.6902349545742
 30
0.0
 11
489.8672713563323
 21
374.8290841023296
 31
0.0
  0
LINE
  5
5DA
330
18
100
AcDbEntity
  8
目盛
100
AcDbLine
 10
485.0969680648967
 20
378.7210885048679
 30
0.0
 11
484.9888104389272
 21
376.7240151642155
 31
0.0
  0
LINE
  5
5DB
330
18
100
AcDbEntity
  8
目盛
100
AcDbLine
 10
486.5365823195316
 20
378.5976700267502
 30
0.0
 11
486.3032408453328
 21
376.6113287276732
 31
0.0
  0
LINE
  5
5DC
330
18
100
AcDbEntity
  8
目盛
100
AcDbLine
 10
487.9656063139229
 20
378.3841009598365
 30
0.0
 11
487.6080018836902
 21
376.4163308839694
 31
0.0
  0
LINE
  5
5DD
330
18
100
AcDbEntity
  8
目盛
100
AcDbLine
 10
489.3784003432239
 20
378.0812241636634
 30
0.0
 11
488.8979442582694
 21
376.139791200507
 31
0.0
  0
LINE
  5
5DE
330
18
100
AcDbEntity
  8
目盛
100
AcDbLine
 10
492.1330819530083
 20
377.2126763883512
 30
0.0
 11
491.4130883367682
 21
375.3467693187003
 31
0.0
  0
LINE
  5
5DF
330
18
100
AcDbEntity
  8
目盛
100
AcDbLine
 10
493.4640980636719
 20
376.6504331704796
 30
0.0
 11
492.6283639160697
 21
374.8334168154261
 31
0.0
  0
LINE
  5
5E0
330
18
100
AcDbEntity
  8
目盛
100
AcDbLine
 10
494.7571841743306
 20
376.0057242180757
 30
0.0
 11
493.8090077562365
 21
374.2447695110574
 31
0.0
  0
LINE
  5
5E1
330
18
100
AcDbEntity
  8
目盛
100
AcDbLine
 10
496.007237064861
 20
375.2810939028352
 30
0.0
 11
494.9503603954163
 21
373.5831505275769
 31
0.0
  0
LINE
  5
5E2
330
18
100
AcDbEntity
  8
外形線
  6
Continuous
100
AcDbLine
 10
492.5029875284015
 20
395.4928930508339
 30
0.0
 11
490.5483998316237
 21
389.2937328709704
 31
0.0
  0
LINE
  5
5E3
330
18
100
AcDbEntity
  8
外形線
  6
Continuous
100
AcDbLine
 10
499.5604929639383
 20
393.2676701345023
 30
0.0
 11
497.6059052671605
 21
387.0685099546388
 31
0.0
  0
LINE
  5
5E4
330
18
100
AcDbEntity
  8
外形線
  6
Continuous
100
AcDbLine
 10
488.4580499493735
 20
383.6616429063324
 30
0.0
 11
496.0877855553594
 21
381.2559965102982
 31
0.0
  0
LINE
  5
5E5
330
18
100
AcDbEntity
  8
外形線
  6
Continuous
100
AcDbLine
 10
490.2622847463994
 20
389.3839446108217
 30
0.0
 11
497.892020352385
 21
386.9782982147876
 31
0.0
  0
HATCH
  5
5E6
330
18
100
AcDbEntity
  8
寸法線
  6
Continuous
100
AcDbHatch
 10
0.0
 20
0.0
 30
0.0
210
0.0
220
0.0
230
1.0
  2
ANSI37
 70
     0
 71
     0
 91
        1
 92
        7
 72
     0
 73
     1
 93
        4
 10
494.0771525493921
 20
388.1811214128046
 10
490.2622847463994
 20
389.3839446108217
 10
488.4580499493736
 20
383.6616429063324
 10
492.2729177523666
 20
382.4588197083153
 97
        0
 75
     0
 76
     1
 52
-17.49999999999999
 41
10.0
 77
     0
 78
     2
 53
27.5
 43
263.8672216031699
 44
298.1193092290059
 45
-0.5771857665437925
 46
1.108763541472777
 79
     0
 53
117.5
 43
263.8672216031699
 44
298.1193092290059
 45
-1.108763541472777
 46
-0.5771857665437925
 79
     0
 47
0.1856754751158765
 98
        1
 10
491.7423983560664
 20
386.5853860866478
  0
LINE
  5
5E7
330
18
100
AcDbEntity
  8
外形線
  6
Continuous
100
AcDbLine
 10
490.2622847463994
 20
389.3839446108217
 30
0.0
 11
488.4580499493736
 21
383.6616429063324
 31
0.0
  0
LINE
  5
5E8
330
18
100
AcDbEntity
  8
外形線
  6
Continuous
100
AcDbLine
 10
497.892020352385
 20
386.9782982147876
 30
0.0
 11
496.0877855553594
 21
381.2559965102982
 31
0.0
  0
ARC
  5
5E9
330
18
100
AcDbEntity
  8
外形線
  6
Continuous
100
AcDbCircle
 10
494.1237619483153
 20
388.3289475401708
 30
0.0
 40
7.344999999999885
100
AcDbArc
 50
42.25198538337817
 51
102.7480146166212
  0
LINE
  5
5EA
330
18
100
AcDbEntity
  8
外形線
  6
Continuous
100
AcDbLine
 10
492.5029875284015
 20
395.4928930508339
 30
0.0
 11
499.5604929639383
 21
393.2676701345023
 31
0.0
  0
POINT
  5
5EB
330
18
100
AcDbEntity
  8
DEFPOINTS
  6
ByBlock
 62
     0
100
AcDbPoint
 10
496.3324460456742
 20
395.3339985434165
 30
0.0
  0
LINE
  5
5EC
330
18
100
AcDbEntity
  8
目盛
100
AcDbLine
 10
493.8273143117604
 20
335.029973596957
 30
0.0
 11
492.9599961425853
 21
336.8321276396012
 31
0.0
  0
LINE
  5
5ED
330
18
100
AcDbEntity
  8
目盛
100
AcDbLine
 10
492.5063134184523
 20
334.4445865773129
 30
0.0
 11
491.7538648921737
 21
336.2976438390564
 31
0.0
  0
LINE
  5
5EE
330
18
100
AcDbEntity
  8
目盛
100
AcDbLine
 10
491.151162463564
 20
333.9433010176224
 30
0.0
 11
490.1992484943487
 21
336.788271983241
 31
0.0
  0
LINE
  5
5EF
330
18
100
AcDbEntity
  8
目盛
100
AcDbLine
 10
489.7672096088049
 20
333.5280952629745
 30
0.0
 11
489.2529440224956
 21
335.4608474216171
 31
0.0
  0
LINE
  5
5F0
330
18
100
AcDbEntity
  8
目盛
100
AcDbLine
 10
488.3599166838248
 20
333.200607940793
 30
0.0
 11
487.9680243953398
 21
335.1618372578863
 31
0.0
  0
LINE
  5
5F1
330
18
100
AcDbEntity
  8
目盛
100
AcDbLine
 10
486.9348376308676
 20
332.9621314939239
 30
0.0
 11
486.666865260031
 21
334.9440978933535
 31
0.0
  0
LINE
  5
5F2
330
18
100
AcDbEntity
  8
目盛
100
AcDbLine
 10
485.4975965858987
 20
332.8136070799533
 30
0.0
 11
485.3546016972333
 21
334.8084886458152
 31
0.0
  0
TEXT
  5
5F3
330
18
100
AcDbEntity
  8
文字
100
AcDbText
 10
500.6037362729179
 20
355.3682713095506
 30
0.0
 40
2.0
  1
2
 50
342.5
  7
STYLE3
100
AcDbText
  0
LINE
  5
5F4
330
18
100
AcDbEntity
  8
目盛
100
AcDbLine
 10
499.7434508210147
 20
339.1265007314451
 30
0.0
 11
498.3616859988609
 21
340.5724350232641
 31
0.0
  0
LINE
  5
5F5
330
18
100
AcDbEntity
  8
目盛
100
AcDbLine
 10
498.6679988507589
 20
338.1615528662412
 30
0.0
 11
497.379751591236
 21
339.691395668078
 31
0.0
  0
TEXT
  5
5F6
330
18
100
AcDbEntity
  8
文字
100
AcDbText
 10
497.2763062778922
 20
344.3638276938809
 30
0.0
 40
2.0
  1
3
 50
342.5
  7
STYLE3
100
AcDbText
  0
TEXT
  5
5F7
330
18
100
AcDbEntity
  8
文字
100
AcDbText
 10
487.921383155079
 20
337.7736720972249
 30
0.0
 40
2.0
  1
4
 50
342.5
  7
STYLE3
100
AcDbText
  0
LINE
  5
5F8
330
18
100
AcDbEntity
  8
目盛
100
AcDbLine
 10
497.5340794615276
 20
337.2660372931691
 30
0.0
 11
495.7496111012738
 21
339.6776078750207
 31
0.0
  0
LINE
  5
5F9
330
18
100
AcDbEntity
  8
目盛
100
AcDbLine
 10
496.3461677151123
 20
336.4434882030736
 30
0.0
 11
495.2598188152109
 21
338.1227279321424
 31
0.0
  0
LINE
  5
5FA
330
18
100
AcDbEntity
  8
目盛
100
AcDbLine
 10
495.1089517564703
 20
335.6971518214263
 30
0.0
 11
494.1301868529726
 21
337.4412903662906
 31
0.0
  0
LINE
  5
5FB
330
18
100
AcDbEntity
  8
目盛
100
AcDbLine
 10
503.3795041817171
 20
343.6006633887511
 30
0.0
 11
501.6815608064589
 21
344.6575400581957
 31
0.0
  0
LINE
  5
5FC
330
18
100
AcDbEntity
  8
目盛
100
AcDbLine
 10
502.5778122884422
 20
342.3985771060135
 30
0.0
 11
500.1354657333731
 21
344.1406859731463
 31
0.0
  0
LINE
  5
5FD
330
18
100
AcDbEntity
  8
目盛
100
AcDbLine
 10
501.7022227287774
 20
341.2492015164455
 30
0.0
 11
500.1501299146442
 21
342.5105531313081
 31
0.0
  0
LINE
  5
5FE
330
18
100
AcDbEntity
  8
目盛
100
AcDbLine
 10
500.756191054696
 20
340.1570726803995
 30
0.0
 11
499.2863618643959
 21
341.5133920201356
 31
0.0
  0
LINE
  5
5FF
330
18
100
AcDbEntity
  8
目盛
100
AcDbLine
 10
502.9274943812114
 20
349.7406290972796
 30
0.0
 11
505.7886452334561
 21
348.8385116987668
 31
0.0
  0
LINE
  5
600
330
18
100
AcDbEntity
  8
目盛
100
AcDbLine
 10
506.696080305632
 20
353.0713181340804
 30
0.0
 11
504.7097390065551
 21
353.3046596082791
 31
0.0
  0
LINE
  5
601
330
18
100
AcDbEntity
  8
目盛
100
AcDbLine
 10
506.4825112387183
 20
351.6422941396891
 30
0.0
 11
504.5147411628512
 21
351.9998985699218
 31
0.0
  0
LINE
  5
602
330
18
100
AcDbEntity
  8
目盛
100
AcDbLine
 10
506.1796344425451
 20
350.229500110388
 30
0.0
 11
504.2382014793888
 21
350.7099561953425
 31
0.0
  0
LINE
  5
603
330
18
100
AcDbEntity
  8
目盛
100
AcDbLine
 10
505.3110866672331
 20
347.4748185006039
 30
0.0
 11
503.4451795975821
 21
348.194812116844
 31
0.0
  0
LINE
  5
604
330
18
100
AcDbEntity
  8
目盛
100
AcDbLine
 10
504.7488434493616
 20
346.1438023899404
 30
0.0
 11
502.9318270943081
 21
346.9795365375425
 31
0.0
  0
LINE
  5
605
330
18
100
AcDbEntity
  8
目盛
100
AcDbLine
 10
504.1041344969576
 20
344.8507162792814
 30
0.0
 11
502.3431797899393
 21
345.7988926973757
 31
0.0
  0
LINE
  5
606
330
18
100
AcDbEntity
  8
目盛
100
AcDbLine
 10
506.0798051906375
 20
361.668799329923
 30
0.0
 11
504.1470530319948
 21
361.1545337436136
 31
0.0
  0
LINE
  5
607
330
18
100
AcDbEntity
  8
目盛
100
AcDbLine
 10
506.407292512819
 20
360.2615064049429
 30
0.0
 11
504.4460631957258
 21
359.8696141164579
 31
0.0
  0
LINE
  5
608
330
18
100
AcDbEntity
  8
目盛
100
AcDbLine
 10
503.9107486321857
 20
367.0105414775885
 30
0.0
 11
502.1666100873213
 21
366.0317765740908
 31
0.0
  0
LINE
  5
609
102
{ACAD_REACTORS
330
535
102
}
330
18
100
AcDbEntity
  8
ROGO
 62
     4
100
AcDbLine
 10
492.4809146888422
 20
360.7024086341512
 30
0.0
 11
493.2019887933869
 21
360.4750548422963
 31
0.0
  0
LINE
  5
60A
102
{ACAD_REACTORS
330
535
102
}
330
18
100
AcDbEntity
  8
ROGO
 62
     4
100
AcDbLine
 10
493.7954200204118
 20
362.4394013623648
 30
0.0
 11
494.5164941249565
 21
362.2120475705098
 31
0.0
  0
LINE
  5
60B
102
{ACAD_REACTORS
330
535
102
}
330
18
100
AcDbEntity
  8
ROGO
 62
     4
100
AcDbLine
 10
493.0226050610504
 20
361.6073416494627
 30
0.0
 11
494.5164941249565
 21
362.2120475705098
 31
0.0
  0
LINE
  5
60C
102
{ACAD_REACTORS
330
535
102
}
330
18
100
AcDbEntity
  8
ROGO
 62
     4
100
AcDbLine
 10
493.0226050610504
 20
361.6073416494627
 30
0.0
 11
493.2019887933869
 21
360.4750548422963
 31
0.0
  0
LINE
  5
60D
102
{ACAD_REACTORS
330
535
102
}
330
18
100
AcDbEntity
  8
ROGO
 62
     4
100
AcDbLine
 10
493.3904266040355
 20
362.3322002271894
 30
0.0
 11
493.7954200204118
 21
362.4394013623648
 31
0.0
  0
LINE
  5
60E
102
{ACAD_REACTORS
330
535
102
}
330
18
100
AcDbEntity
  8
ROGO
 62
     4
100
AcDbLine
 10
493.5643269869919
 20
362.5122647159204
 30
0.0
 11
493.3904266040355
 21
362.3322002271894
 31
0.0
  0
TEXT
  5
60F
330
18
100
AcDbEntity
  8
文字
100
AcDbText
 10
496.9933518245357
 20
366.039983342785
 30
0.0
 40
2.0
  1
1
 50
342.5
  7
STYLE3
100
AcDbText
  0
LINE
  5
610
330
18
100
AcDbEntity
  8
目盛
100
AcDbLine
 10
504.5779268566549
 20
365.7289040328785
 30
0.0
 11
502.7757728140108
 21
364.8615858637035
 31
0.0
  0
LINE
  5
611
330
18
100
AcDbEntity
  8
目盛
100
AcDbLine
 10
505.1633138762991
 20
364.4079031395704
 30
0.0
 11
503.3102566145554
 21
363.6554546132917
 31
0.0
  0
LINE
  5
612
330
18
100
AcDbEntity
  8
目盛
100
AcDbLine
 10
505.6645994359894
 20
363.0527521846821
 30
0.0
 11
502.8196284703708
 21
362.1008382154669
 31
0.0
  0
LINE
  5
613
330
18
100
AcDbEntity
  8
目盛
100
AcDbLine
 10
502.3418631604429
 20
369.4356691826458
 30
0.0
 11
499.9302925785912
 21
367.6512008223919
 31
0.0
  0
LINE
  5
614
330
18
100
AcDbEntity
  8
目盛
100
AcDbLine
 10
498.3586989371666
 20
373.6038124498955
 30
0.0
 11
497.0973473223039
 21
372.0517196357624
 31
0.0
  0
LINE
  5
615
330
18
100
AcDbEntity
  8
目盛
100
AcDbLine
 10
499.4508277732126
 20
372.657780775814
 30
0.0
 11
498.0945084334765
 21
371.1879515855141
 31
0.0
  0
LINE
  5
616
330
18
100
AcDbEntity
  8
目盛
100
AcDbLine
 10
500.481399722167
 20
371.6450405421326
 30
0.0
 11
499.0354654303479
 21
370.2632757199789
 31
0.0
  0
LINE
  5
617
330
18
100
AcDbEntity
  8
目盛
100
AcDbLine
 10
501.4463475873709
 20
370.5695885718768
 30
0.0
 11
499.916504785534
 21
369.2813413123541
 31
0.0
  0
LINE
  5
618
330
18
100
AcDbEntity
  8
目盛
100
AcDbLine
 10
503.1644122505383
 20
368.2477574362303
 30
0.0
 11
501.4851725214696
 21
367.1614085363291
 31
0.0
  0
LINE
  5
619
330
18
100
AcDbEntity
  8
目盛
100
AcDbLine
 10
506.6457689596882
 20
358.8364273519857
 30
0.0
 11
504.6638025602584
 21
358.5684549811491
 31
0.0
  0
LINE
  5
61A
330
18
100
AcDbEntity
  8
目盛
100
AcDbLine
 10
506.7942933736585
 20
357.3991863070168
 30
0.0
 11
504.7994118077965
 21
357.2561914183514
 31
0.0
  0
LINE
  5
61B
330
18
100
AcDbEntity
  8
目盛
100
AcDbLine
 10
506.8522795967228
 20
355.9554554038276
 30
0.0
 11
503.8523938275302
 21
355.9292757973326
 31
0.0
  0
LINE
  5
61C
330
18
100
AcDbEntity
  8
目盛
100
AcDbLine
 10
506.8194987837498
 20
354.5109323887152
 30
0.0
 11
504.8224254430973
 21
354.6190900146847
 31
0.0
  0
CIRCLE
  5
61D
330
18
100
AcDbEntity
  8
外形線
100
AcDbCircle
 10
483.8531553662469
 20
355.754745087365
 30
0.0
 40
26.4
  0
INSERT
  5
685
330
18
100
AcDbEntity
  8
外形線
100
AcDbBlockReference
  2
駒
 10
475.9145222593341
 20
330.5766175876118
 30
0.0
 50
342.5
  0
LINE
  5
686
330
18
100
AcDbEntity
  8
外形線
100
AcDbLine
 10
481.4460334886653
 20
301.4201221849485
 30
0.0
 11
508.8461553662447
 21
302.0428522276207
 31
0.0
  0
ARC
  5
688
330
18
100
AcDbEntity
  8
隠れ線2
100
AcDbCircle
 10
416.7226522072277
 20
381.8009022496239
 30
0.0
 40
47.00805008864922
100
AcDbArc
 50
330.4275369850239
 51
339.0856926825187
  0
ARC
  5
689
330
18
100
AcDbEntity
  8
外形線
100
AcDbCircle
 10
505.8781553662469
 20
332.5428522276208
 30
0.0
 40
7.0
100
AcDbArc
 50
166.4435060573691
 51
270.0
  0
ARC
  5
6D7
330
18
100
AcDbEntity
  8
寸法線
100
AcDbCircle
 10
453.8461553662468
 20
313.7928522276208
 30
0.0
 40
160.0
100
AcDbArc
 50
180.0
 51
201.9262341127306
  0
DIMENSION
  5
6E8
330
18
100
AcDbEntity
  8
寸法線
100
AcDbDimension
  2
*D7
 10
618.935793121327
 20
298.7928522276208
 30
0.0
 11
617.060793121327
 21
313.7928522276208
 31
0.0
 12
0.0
 22
7.971807412863313
 32
0.0
 70
    32
 71
     5
 42
-1.0
  3
STYLE3
100
AcDbAlignedDimension
 13
603.8461553662447
 23
328.7928522276208
 33
0.0
 14
603.8461553662447
 24
298.7928522276208
 34
0.0
 50
90.0
100
AcDbRotatedDimension
1001
ACAD
1000
DSTYLE
1002
{
1070
   271
1070
     2
1002
}
  0
DIMENSION
  5
6F5
330
18
100
AcDbEntity
  8
寸法線
100
AcDbDimension
  2
*D8
 10
508.8461553662447
 20
253.4156061630879
 30
0.0
 11
481.3461553662458
 21
255.2906061630879
 31
0.0
 12
0.0
 22
7.971807412863313
 32
0.0
 70
    32
 71
     5
 42
-1.0
  3
STYLE3
100
AcDbAlignedDimension
 13
453.8461553662468
 23
279.4863437895163
 33
0.0
 14
508.8461553662447
 24
300.0928522276208
 34
0.0
100
AcDbRotatedDimension
1001
ACAD
1000
DSTYLE
1002
{
1070
   271
1070
     2
1002
}
  0
DIMENSION
  5
701
330
18
100
AcDbEntity
  8
寸法線
100
AcDbDimension
  2
*D9
 10
608.8461553662447
 20
253.4156061630879
 30
0.0
 11
558.8461553662447
 21
255.2906061630879
 31
0.0
 12
0.0
 22
7.971807412863313
 32
0.0
 70
    32
 71
     5
 42
-1.0
  3
STYLE3
100
AcDbAlignedDimension
 13
508.8461553662447
 23
300.0928522276208
 33
0.0
 14
608.8461553662447
 24
300.0928522276207
 34
0.0
100
AcDbRotatedDimension
1001
ACAD
1000
DSTYLE
1002
{
1070
    75
1070
     1
1070
   271
1070
     2
1070
   279
1070
     1
1002
}
  0
LINE
  5
706
330
18
100
AcDbEntity
  8
想像線
100
AcDbLine
 10
418.8461553662468
 20
337.7104002350039
 30
0.0
 11
418.8461553662468
 21
286.9756085407839
 31
0.0
  0
DIMENSION
  5
713
330
18
100
AcDbEntity
  8
寸法線
100
AcDbDimension
  2
*D10
 10
418.8461553662468
 20
351.2118016516671
 30
0.0
 11
356.3461553662469
 21
353.0868016516671
 31
0.0
 12
0.0
 22
7.971807412863313
 32
0.0
 70
    32
 71
     5
 42
-1.0
  3
STYLE3
100
AcDbAlignedDimension
 13
293.8461553662469
 23
313.7928522276208
 33
0.0
 14
418.8461553662468
 24
337.7104002350039
 34
0.0
100
AcDbRotatedDimension
1001
ACAD
1000
DSTYLE
1002
{
1070
   271
1070
     2
1002
}
  0
DIMENSION
  5
720
330
18
100
AcDbEntity
  8
寸法線
100
AcDbDimension
  2
*D11
 10
608.8461553662447
 20
237.4705747371308
 30
0.0
 11
451.3461553662458
 21
239.3455747371309
 31
0.0
 12
0.0
 22
7.971807412863313
 32
0.0
 70
    32
 71
     5
 42
-1.0
  3
STYLE3
100
AcDbAlignedDimension
 13
293.8461553662469
 23
313.7928522276208
 33
0.0
 14
608.8461553662447
 24
252.1656061630879
 34
0.0
100
AcDbRotatedDimension
1001
ACAD
1000
DSTYLE
1002
{
1070
   271
1070
     2
1002
}
  0
POINT
  5
74B
330
18
100
AcDbEntity
  8
DEFPOINTS
  6
ByBlock
 62
     0
100
AcDbPoint
 10
293.8461553662469
 20
313.7928522276208
 30
0.0
  0
LINE
  5
75C
330
18
100
AcDbEntity
  8
0
  6
ByBlock
 62
     2
100
AcDbLine
 10
293.8461553662469
 20
313.7928522276206
 30
0.0
 11
276.8530142715736
 21
311.1046506562084
 31
0.0
  0
LINE
  5
75D
330
18
100
AcDbEntity
  8
0
  6
ByBlock
 62
     2
100
AcDbLine
 10
301.6586872021353
 20
264.4068771557694
 30
0.0
 11
284.665546107462
 21
261.7186755843571
 31
0.0
  0
LINE
  5
75E
330
18
100
AcDbEntity
  8
0
  6
ByBlock
 62
     2
100
AcDbLine
 10
278.4782869286798
 20
308.8306698317371
 30
0.0
 11
285.5095671727753
 21
264.3832822047248
 31
0.0
  0
INSERT
  5
75F
330
18
100
AcDbEntity
  8
0
  6
ByBlock
 62
     2
100
AcDbBlockReference
  2
_OPEN
 10
278.0876611327833
 20
311.2999635541565
 30
0.0
 41
2.5
 42
2.5
 43
2.5
 50
98.98931781259058
  0
INSERT
  5
760
330
18
100
AcDbEntity
  8
0
  6
ByBlock
 62
     2
100
AcDbBlockReference
  2
_OPEN
 10
285.9001929686718
 20
261.9139884823053
 30
0.0
 41
2.5
 42
2.5
 43
2.5
 50
278.9893178125906
  0
POINT
  5
762
330
18
100
AcDbEntity
  8
DEFPOINTS
  6
ByBlock
 62
     0
100
AcDbPoint
 10
293.8461553662469
 20
313.7928522276206
 30
0.0
  0
POINT
  5
763
330
18
100
AcDbEntity
  8
想像線
  6
ByBlock
 62
     0
100
AcDbPoint
 10
301.6586872021353
 20
264.4068771557694
 30
0.0
  0
POINT
  5
764
330
18
100
AcDbEntity
  8
DEFPOINTS
  6
ByBlock
 62
     0
100
AcDbPoint
 10
285.9001929686718
 20
261.9139884823053
 30
0.0
  0
TEXT
  5
765
330
18
100
AcDbEntity
  8
寸法線
 62
     6
100
AcDbText
 10
281.4642038623265
 20
284.1571091533637
 30
0.0
 40
2.5
  1
50
 50
278.9893178125906
  7
STYLE3
 71
     6
100
AcDbText
  0
POINT
  5
776
330
18
100
AcDbEntity
  8
想像線
  6
ByBlock
 62
     0
100
AcDbPoint
 10
301.6598632652522
 20
264.4032531550351
 30
0.0
  0
POINT
  5
777
330
18
100
AcDbEntity
  8
想像線
  6
ByBlock
 62
     0
100
AcDbPoint
 10
301.6598632652522
 20
264.4032531550353
 30
0.0
  0
ARC
  5
779
330
18
100
AcDbEntity
  8
想像線
100
AcDbCircle
 10
301.9685482594559
 20
263.452088829404
 30
0.0
 40
1.0
100
AcDbArc
 50
23.71917047726823
 51
197.9800000000162
  0
LINE
  5
784
330
18
100
AcDbEntity
  8
0
  6
ByBlock
 62
     2
100
AcDbLine
 10
453.8461553662468
 20
313.7928522276208
 30
0.0
 11
303.9452482207943
 21
257.8489693004375
 31
0.0
  0
MTEXT
  5
785
330
18
100
AcDbEntity
  8
0
  6
ByBlock
 62
     6
100
AcDbMText
 10
345.9045344568818
 20
275.5097389869815
 30
0.0
 40
2.5
 41
0.0
 71
     5
 72
     1
  1
\A1;R160
  7
STYLE3
 11
0.9368806696590789
 21
0.3496492682948955
 31
0.0
 73
     1
 44
1.0
  0
INSERT
  5
786
330
18
100
AcDbEntity
  8
0
  6
ByBlock
 62
     2
100
AcDbBlockReference
  2
_OPEN
 10
303.9452482207943
 20
257.8489693004375
 30
0.0
 41
2.5
 42
2.5
 43
2.5
 50
200.4658643029327
  0
POINT
  5
787
330
18
100
AcDbEntity
  8
DEFPOINTS
  6
ByBlock
 62
     0
100
AcDbPoint
 10
303.9452482207943
 20
257.8489693004375
 30
0.0
  0
POINT
  5
788
330
18
100
AcDbEntity
  8
DEFPOINTS
  6
ByBlock
 62
     0
100
AcDbPoint
 10
453.8461553662468
 20
313.7928522276208
 30
0.0
  0
LINE
  5
87E
330
18
100
AcDbEntity
  8
隠れ線2
 48
0.5
100
AcDbLine
 10
423.073404202616
 20
319.4104126741312
 30
0.0
 11
426.573325379169
 21
319.5374300140935
 31
0.0
  0
LINE
  5
880
330
18
100
AcDbEntity
  8
外形線
100
AcDbLine
 10
426.573325379169
 20
319.5374300140935
 30
0.0
 11
434.8461553662469
 21
319.7928522276208
 31
0.0
  0
LINE
  5
881
330
18
100
AcDbEntity
  8
隠れ線2
 48
0.5
100
AcDbLine
 10
423.0803931324729
 20
308.1483388289442
 30
0.0
 11
426.5804759797923
 21
308.0148372988892
 31
0.0
  0
LINE
  5
882
330
18
100
AcDbEntity
  8
外形線
100
AcDbLine
 10
426.5804759797923
 20
308.0148372988892
 30
0.0
 11
434.8461553662469
 21
307.7928522276208
 31
0.0
  0
CIRCLE
  5
B5F
330
18
100
AcDbEntity
  8
外形線
100
AcDbCircle
 10
424.819504491411
 20
329.4945200408538
 30
0.0
 40
1.25
  0
CIRCLE
  5
B60
330
18
100
AcDbEntity
  8
外形線
100
AcDbCircle
 10
424.8342591725256
 20
298.1184896691877
 30
0.0
 40
1.25
  0
LINE
  5
B61
330
18
100
AcDbEntity
  8
中心線
 48
0.7
100
AcDbLine
 10
424.8195045188897
 20
332.8531561395026
 30
0.0
 11
424.8342591442138
 21
294.6580271862515
 31
0.0
  0
LINE
  5
B62
330
18
100
AcDbEntity
  8
外形線
 48
0.7
100
AcDbLine
 10
426.5695044603212
 20
325.6945200265362
 30
0.0
 11
426.5842592036154
 21
301.9184896548701
 31
0.0
  0
LINE
  5
B63
330
18
100
AcDbEntity
  8
外形線
 48
0.7
100
AcDbLine
 10
423.0695044603213
 20
325.6945200551714
 30
0.0
 11
423.0842592036153
 21
301.9184896835053
 31
0.0
  0
LINE
  5
B64
330
18
100
AcDbEntity
  8
中心線
 48
0.2
100
AcDbLine
 10
428.1781405900598
 20
329.4945200133751
 30
0.0
 11
421.4608683927621
 21
329.4945200683324
 31
0.0
  0
LINE
  5
B65
330
18
100
AcDbEntity
  8
外形線
100
AcDbLine
 10
426.5695044603212
 20
325.6945200265362
 30
0.0
 11
423.0695044603213
 21
325.6945200551714
 31
0.0
  0
LINE
  5
B66
330
18
100
AcDbEntity
  8
中心線
 48
0.2
100
AcDbLine
 10
421.3737966895894
 20
298.1184896974997
 30
0.0
 11
428.2947216554618
 21
298.1184896408759
 31
0.0
  0
LINE
  5
B67
330
18
100
AcDbEntity
  8
外形線
100
AcDbLine
 10
423.0842592036153
 20
301.9184896835053
 30
0.0
 11
426.5842592036154
 21
301.9184896548701
 31
0.0
  0
LINE
  5
B68
330
18
100
AcDbEntity
  8
中心線
 48
0.7
100
AcDbLine
 10
426.2691941742251
 20
326.1945200289931
 30
0.0
 11
426.2845694897114
 21
301.418489657322
 31
0.0
  0
LINE
  5
B69
330
18
100
AcDbEntity
  8
中心線
 48
0.7
100
AcDbLine
 10
423.369194174225
 20
326.1945200527196
 30
0.0
 11
423.3845694897118
 21
301.4184896810484
 31
0.0
  0
CIRCLE
  5
B6A
330
18
100
AcDbEntity
  8
外形線
100
AcDbCircle
 10
424.819504491411
 20
329.4945200408538
 30
0.0
 40
2.0
  0
LINE
  5
B6B
330
18
100
AcDbEntity
  8
外形線
100
AcDbLine
 10
423.0695044603213
 20
325.6945200551714
 30
0.0
 11
425.903601494724
 21
328.8722390051411
 31
0.0
  0
CIRCLE
  5
B6C
330
18
100
AcDbEntity
  8
外形線
100
AcDbCircle
 10
424.8342591725256
 20
298.1184896691877
 30
0.0
 40
2.0
  0
LINE
  5
B6D
330
18
100
AcDbEntity
  8
外形線
100
AcDbLine
 10
423.0842592036153
 20
301.9184896835053
 30
0.0
 11
426.005821461536
 21
298.5543128018559
 31
0.0
  0
TEXT
  5
C26
330
18
100
AcDbEntity
  8
文字
100
AcDbText
 10
353.6072740954673
 20
440.8434190170043
 30
0.0
 40
4.0
  1
Model No.LA-11 Outside Dial Caliper Gauge
  7
STYLE3
100
AcDbText
  0
LINE
  5
C27
330
18
100
AcDbEntity
  8
外形線
100
AcDbLine
 10
353.0745040954672
 20
438.3387020170043
 30
0.0
 11
483.0745040954672
 21
438.3387020170043
 31
0.0
  0
LINE
  5
C28
330
18
100
AcDbEntity
  8
外形線
100
AcDbLine
 10
353.0745040954672
 20
437.3387020170043
 30
0.0
 11
483.0745040954672
 21
437.3387020170043
 31
0.0
  0
LINE
  5
C29
330
18
100
AcDbEntity
  8
外形線
100
AcDbLine
 10
594.4509781172768
 20
186.8729787336614
 30
0.0
 11
594.4509781172768
 21
177.2582007336614
 31
0.0
  0
TEXT
  5
C2A
330
18
100
AcDbEntity
  8
0
  6
Continuous
100
AcDbText
 10
566.6505801172768
 20
179.0063437336614
 30
0.0
 40
2.1
  1
Date
  7
STYLE3
100
AcDbText
  0
LINE
  5
C2B
330
18
100
AcDbEntity
  8
外形線
100
AcDbLine
 10
564.7186291172768
 20
186.8729787336614
 30
0.0
 11
564.7186291172768
 21
177.2582007336614
 31
0.0
  0
TEXT
  5
C2C
330
18
100
AcDbEntity
  8
0
  6
Continuous
100
AcDbText
 10
566.2672191172767
 20
182.3394267336614
 30
0.0
 40
3.0
  1
日 付
  7
STYLE3
100
AcDbText
  0
TEXT
  5
C2D
330
18
100
AcDbEntity
  8
0
  6
Continuous
100
AcDbText
 10
575.3953871172768
 20
180.7544837336614
 30
0.0
 40
2.1
  1
2010.06.28
  7
STYLE3
100
AcDbText
  0
TEXT
  5
C2E
330
18
100
AcDbEntity
  8
0
  6
Continuous
100
AcDbText
 10
556.5568081172767
 20
181.0458417336614
 30
0.0
 40
2.399999999999999
  1
1/1
  7
STYLE3
100
AcDbText
  0
LINE
  5
C2F
330
18
100
AcDbEntity
  8
外形線
100
AcDbLine
 10
545.1885561172767
 20
186.8729787336614
 30
0.0
 11
545.1885561172767
 21
177.2582007336614
 31
0.0
  0
TEXT
  5
C30
330
18
100
AcDbEntity
  8
0
  6
Continuous
100
AcDbText
 10
546.4743041172767
 20
182.2172217336614
 30
0.0
 40
3.0
  1
尺 度
  7
STYLE3
100
AcDbText
  0
TEXT
  5
C31
330
18
100
AcDbEntity
  8
0
  6
Continuous
100
AcDbText
 10
546.9375191172767
 20
179.2976997336614
 30
0.0
 40
2.1
  1
Scale
  7
STYLE3
100
AcDbText
  0
TEXT
  5
C32
330
18
100
AcDbEntity
  8
0
  6
Continuous
100
AcDbText
 10
529.3281291172768
 20
179.0063427336614
 30
0.0
 40
2.1
  1
Unit
  7
STYLE3
100
AcDbText
  0
LINE
  5
C33
330
18
100
AcDbEntity
  8
外形線
100
AcDbLine
 10
527.6989391172768
 20
186.8729787336614
 30
0.0
 11
527.6989391172768
 21
177.2582007336614
 31
0.0
  0
TEXT
  5
C34
330
18
100
AcDbEntity
  8
0
  6
Continuous
100
AcDbText
 10
529.1564081172768
 20
182.5085787336614
 30
0.0
 40
3.0
  1
単位
  7
STYLE3
100
AcDbText
  0
TEXT
  5
C35
330
18
100
AcDbEntity
  8
0
  6
Continuous
100
AcDbText
 10
537.1984561172768
 20
180.7544847336614
 30
0.0
 40
2.399999999999999
  1
mm
  7
STYLE3
100
AcDbText
  0
TEXT
  5
C36
330
18
100
AcDbEntity
  8
0
  6
Continuous
100
AcDbText
 10
595.7999411172768
 20
182.7939817336615
 30
0.0
 40
3.0
  1
株式会社　尾崎製作所
  7
STYLE3
100
AcDbText
  0
TEXT
  5
C37
330
18
100
AcDbEntity
  8
0
  6
Continuous
100
AcDbText
 10
596.6744201172767
 20
179.0063417336614
 30
0.0
 40
2.1
  1
OZAKI MFG. CO., LTD.
  7
STYLE3
100
AcDbText
  0
LINE
  5
C38
330
18
100
AcDbEntity
  8
外形線
100
AcDbLine
 10
492.4282111172767
 20
177.2582007336614
 30
0.0
 11
492.4282111172767
 21
197.6531847336614
 31
0.0
  0
LINE
  5
C39
330
18
100
AcDbEntity
  8
外形線
100
AcDbLine
 10
492.4282111172767
 20
197.6531847336614
 30
0.0
 11
633.2196291172768
 21
197.6531847336614
 31
0.0
  0
LINE
  5
C3A
330
18
100
AcDbEntity
  8
外形線
100
AcDbLine
 10
492.4282111172767
 20
186.8729787336614
 30
0.0
 11
633.2196291172768
 21
186.8729787336614
 31
0.0
  0
TEXT
  5
C3B
330
18
100
AcDbEntity
  8
0
  6
Continuous
100
AcDbText
 10
493.8856791172768
 20
188.7709687336615
 30
0.0
 40
2.1
  1
Design and specifications are subject to change without notice for future improvement.
  7
STYLE3
100
AcDbText
  0
TEXT
  5
C3C
330
18
100
AcDbEntity
  8
0
  6
Continuous
100
AcDbText
 10
494.1771731172767
 20
192.7001167336614
 30
0.0
 40
3.5
  1
仕様及び外観は予告なく変更される場合がございますのでご了承下さい。
  7
STYLE3
100
AcDbText
  0
TEXT
  5
C3D
330
18
100
AcDbEntity
  8
0
  6
Continuous
100
AcDbText
 10
493.5941871172768
 20
179.0063417336614
 30
0.0
 40
2.1
  1
3RD Angle Projection
  7
STYLE3
100
AcDbText
  0
TEXT
  5
C3E
330
18
100
AcDbEntity
  8
0
  6
Continuous
100
AcDbText
 10
496.2176301172767
 20
182.5026247336614
 30
0.0
 40
3.0
  1
三　　角　　法
  7
STYLE3
100
AcDbText
  0
ENDSEC
  0
SECTION
  2
OBJECTS
  0
DICTIONARY
  5
C
330
0
100
AcDbDictionary
281
     1
  3
ACAD_COLOR
350
7B8
  3
ACAD_GROUP
350
D
  3
ACAD_LAYOUT
350
7BB
  3
ACAD_MATERIAL
350
7B7
  3
ACAD_MLINESTYLE
350
1B
  3
ACAD_PLOTSETTINGS
350
7BC
  3
ACAD_PLOTSTYLENAME
350
7B5
  3
ACAD_TABLESTYLE
350
7B9
  3
AcDbVariableDictionary
350
7D7
  0
DICTIONARY
  5
7D4
330
18
100
AcDbDictionary
280
     1
281
     1
  3
ACAD_SORTENTS
360
7D5
  0
DICTIONARY
  5
7B8
102
{ACAD_REACTORS
330
C
102
}
330
C
100
AcDbDictionary
281
     1
  0
DICTIONARY
  5
D
102
{ACAD_REACTORS
330
C
102
}
330
C
100
AcDbDictionary
281
     1
  0
DICTIONARY
  5
7BB
102
{ACAD_REACTORS
330
C
102
}
330
C
100
AcDbDictionary
281
     1
  3
Model
350
7BD
  3
レイアウト1
350
7BE
  0
DICTIONARY
  5
7B7
102
{ACAD_REACTORS
330
C
102
}
330
C
100
AcDbDictionary
281
     1
  0
DICTIONARY
  5
1B
102
{ACAD_REACTORS
330
C
102
}
330
C
100
AcDbDictionary
281
     1
  3
STANDARD
350
1C
  0
DICTIONARY
  5
7BC
102
{ACAD_REACTORS
330
C
102
}
330
C
100
AcDbDictionary
281
     1
  0
ACDBDICTIONARYWDFLT
  5
7B5
102
{ACAD_REACTORS
330
C
102
}
330
C
100
AcDbDictionary
281
     1
  3
Normal
350
7B6
100
AcDbDictionaryWithDefault
340
7B6
  0
DICTIONARY
  5
7B9
102
{ACAD_REACTORS
330
C
102
}
330
C
100
AcDbDictionary
281
     1
  3
Standard
350
7BA
  0
DICTIONARY
  5
7D7
102
{ACAD_REACTORS
330
C
102
}
330
C
100
AcDbDictionary
281
     1
  3
CTABLESTYLE
350
7D8
  0
SORTENTSTABLE
  5
7D5
102
{ACAD_REACTORS
330
7D4
102
}
330
7D4
100
AcDbSortentsTable
330
18
331
5E0
  5
5E6
331
B6D
  5
B8F
331
5A1
  5
5A7
331
5E8
  5
5EE
331
5A9
  5
5AF
331
5F0
  5
5F6
331
5B1
  5
5B7
331
5F8
  5
5FE
331
5B9
  5
5BF
331
231
  5
237
331
6F5
  5
762
331
75C
  5
779
331
1C2
  5
1C2
331
56C
  5
572
331
39E
  5
3A4
331
35F
  5
365
331
328
  5
32E
331
18B
  5
18B
331
1CA
  5
1CA
331
574
  5
57A
331
535
  5
53B
331
3A6
  5
3AC
331
367
  5
36D
331
330
  5
336
331
193
  5
193
331
57C
  5
582
331
53D
  5
543
331
3AE
  5
3B4
331
36F
  5
375
331
338
  5
33E
331
251
  5
258
331
19B
  5
19B
331
212
  5
212
331
584
  5
58A
331
545
  5
54B
331
3B6
  5
3BC
331
377
  5
37D
331
600
  5
606
331
5C1
  5
5C7
331
882
  5
326
331
608
  5
60E
331
5C9
  5
5CF
331
764
  5
7C5
331
610
  5
616
331
5D1
  5
5D7
331
7CB
  5
804
331
6D6
  5
75E
331
5D9
  5
5DF
331
7D3
  5
850
331
340
  5
346
331
58C
  5
592
331
54D
  5
553
331
3BE
  5
3C4
331
37F
  5
385
331
348
  5
34E
331
261
  5
26D
331
1AB
  5
1AB
331
222
  5
222
331
594
  5
59A
331
555
  5
55B
331
3C6
  5
3CC
331
387
  5
38D
331
350
  5
356
331
1B3
  5
1B3
331
59C
  5
5A2
331
55D
  5
563
331
38F
  5
395
331
271
  5
275
331
1BB
  5
1BB
331
565
  5
56B
331
397
  5
39D
331
B66
  5
B68
331
618
  5
685
331
5E1
  5
5E7
331
5A2
  5
5A8
331
5E9
  5
5EF
331
5AA
  5
5B0
331
784
  5
7CA
331
5F1
  5
5F7
331
5B2
  5
5B8
331
803
  5
706
331
5F9
  5
5FF
331
5BA
  5
5C0
331
358
  5
35E
331
232
  5
238
331
75D
  5
784
331
184
  5
184
331
1C3
  5
1C3
331
56D
  5
573
331
39F
  5
3A5
331
360
  5
366
331
329
  5
32F
331
18C
  5
18C
331
575
  5
57B
331
536
  5
53C
331
3A7
  5
3AD
331
368
  5
36E
331
331
  5
337
331
194
  5
194
331
57D
  5
583
331
53E
  5
544
331
3AF
  5
3B5
331
370
  5
376
331
339
  5
33F
331
252
  5
25B
331
19C
  5
19C
331
213
  5
213
331
585
  5
58B
331
546
  5
54C
331
3B7
  5
3BD
331
601
  5
607
331
5C2
  5
5C8
331
609
  5
60F
331
5CA
  5
5D0
331
765
  5
7C6
331
7C4
  5
7CF
331
706
  5
764
331
611
  5
617
331
5D2
  5
5D8
331
7CC
  5
847
331
6D7
  5
75F
331
688
  5
6D4
331
5DA
  5
5E0
331
378
  5
37E
331
341
  5
347
331
58D
  5
593
331
54E
  5
554
331
3BF
  5
3C5
331
380
  5
386
331
349
  5
34F
331
1AC
  5
1AC
331
595
  5
59B
331
556
  5
55C
331
3C7
  5
3CD
331
388
  5
38E
331
351
  5
357
331
26A
  5
26F
331
1B4
  5
1B4
331
59D
  5
5A3
331
55E
  5
564
331
390
  5
396
331
272
  5
327
331
1BC
  5
1BC
331
566
  5
56C
331
B67
  5
B69
331
619
  5
686
331
5E2
  5
5E8
331
5A3
  5
5A9
331
5EA
  5
5F0
331
5AB
  5
5B1
331
785
  5
7CB
331
5F2
  5
5F8
331
5B3
  5
5B9
331
804
  5
713
331
5FA
  5
600
331
5BB
  5
5C1
331
398
  5
39E
331
359
  5
35F
331
1C4
  5
1C4
331
185
  5
185
331
75E
  5
785
331
56E
  5
574
331
3A0
  5
3A6
331
361
  5
367
331
32A
  5
330
331
18D
  5
18D
331
576
  5
57C
331
537
  5
53D
331
3A8
  5
3AE
331
369
  5
36F
331
332
  5
338
331
24B
  5
256
331
195
  5
195
331
57E
  5
584
331
53F
  5
545
331
3B0
  5
3B6
331
371
  5
377
331
33A
  5
340
331
19D
  5
19D
331
214
  5
214
331
586
  5
58C
331
547
  5
54D
331
602
  5
608
331
5C3
  5
5C9
331
60A
  5
610
331
5CB
  5
5D1
331
7C5
  5
7D0
331
612
  5
618
331
5D3
  5
5D9
331
776
  5
7C7
331
7CD
  5
848
331
689
  5
6D5
331
5DB
  5
5E1
331
3B8
  5
3BE
331
379
  5
37F
331
342
  5
348
331
25B
  5
26A
331
21C
  5
21C
331
58E
  5
594
331
54F
  5
555
331
3C0
  5
3C6
331
381
  5
387
331
34A
  5
350
331
1AD
  5
1AD
331
596
  5
59C
331
557
  5
55D
331
3C8
  5
534
331
389
  5
38F
331
352
  5
358
331
1B5
  5
1B5
331
22C
  5
22C
331
59E
  5
5A4
331
55F
  5
565
331
391
  5
397
331
273
  5
328
331
1BD
  5
1BD
331
567
  5
56D
331
B68
  5
B6B
331
61A
  5
688
331
5E3
  5
5E9
331
5A4
  5
5AA
331
5EB
  5
5F1
331
5AC
  5
5B2
331
786
  5
7CC
331
6E8
  5
760
331
5F3
  5
5F9
331
5B4
  5
5BA
331
5FB
  5
601
331
5BC
  5
5C2
331
399
  5
39F
331
35A
  5
360
331
234
  5
24B
331
186
  5
186
331
75F
  5
786
331
56F
  5
575
331
3A1
  5
3A7
331
362
  5
368
331
32B
  5
331
331
18E
  5
18E
331
577
  5
57D
331
538
  5
53E
331
3A9
  5
3AF
331
36A
  5
370
331
333
  5
339
331
196
  5
196
331
57F
  5
585
331
540
  5
546
331
3B1
  5
3B7
331
372
  5
378
331
33B
  5
341
331
19E
  5
19E
331
215
  5
215
331
587
  5
58D
331
603
  5
609
331
5C4
  5
5CA
331
60B
  5
611
331
5CC
  5
5D2
331
7C6
  5
7D1
331
613
  5
619
331
5D4
  5
5DA
331
777
  5
7C8
331
7CE
  5
849
331
5DC
  5
5E2
331
720
  5
776
331
548
  5
54E
331
3B9
  5
3BF
331
37A
  5
380
331
343
  5
349
331
58F
  5
595
331
550
  5
556
331
3C1
  5
3C7
331
382
  5
388
331
34B
  5
351
331
264
  5
26E
331
1AE
  5
1AE
331
597
  5
59D
331
558
  5
55E
331
3C9
  5
535
331
38A
  5
390
331
353
  5
359
331
1B6
  5
1B6
331
59F
  5
5A5
331
560
  5
566
331
392
  5
398
331
274
  5
329
331
1BE
  5
1BE
331
B69
  5
B6C
331
61B
  5
689
331
5E4
  5
5EA
331
5A5
  5
5AB
331
5EC
  5
5F2
331
5AD
  5
5B3
331
787
  5
7CD
331
5F4
  5
5FA
331
5B5
  5
5BB
331
5FC
  5
602
331
5BD
  5
5C3
331
568
  5
56E
331
39A
  5
3A0
331
35B
  5
361
331
187
  5
187
331
1C6
  5
1C6
331
87E
  5
231
331
570
  5
576
331
3A2
  5
3A8
331
363
  5
369
331
32C
  5
332
331
18F
  5
18F
331
578
  5
57E
331
539
  5
53F
331
3AA
  5
3B0
331
36B
  5
371
331
334
  5
33A
331
197
  5
197
331
580
  5
586
331
541
  5
547
331
3B2
  5
3B8
331
373
  5
379
331
33C
  5
342
331
19F
  5
19F
331
216
  5
216
331
604
  5
60A
331
5C5
  5
5CB
331
760
  5
787
331
701
  5
763
331
60C
  5
612
331
5CD
  5
5D3
331
7C7
  5
7D2
331
B3E
  5
6E8
331
6D2
  5
720
331
614
  5
61A
331
5D5
  5
5DB
331
7CF
  5
84A
331
5DD
  5
5E3
331
588
  5
58E
331
549
  5
54F
331
3BA
  5
3C0
331
37B
  5
381
331
344
  5
34A
331
1A7
  5
1A7
331
590
  5
596
331
551
  5
557
331
3C2
  5
3C8
331
383
  5
389
331
34C
  5
352
331
1AF
  5
1AF
331
598
  5
59E
331
559
  5
55F
331
3CA
  5
536
331
38B
  5
391
331
354
  5
35A
331
26D
  5
270
331
1B7
  5
1B7
331
22E
  5
22E
331
561
  5
567
331
393
  5
399
331
275
  5
32A
331
1BF
  5
1BF
331
B6A
  5
B6D
331
61C
  5
6BE
331
5E5
  5
5EB
331
5A6
  5
5AC
331
5ED
  5
5F3
331
5AE
  5
5B4
331
788
  5
7CE
331
5F5
  5
5FB
331
5B6
  5
5BC
331
7FF
  5
7F1
331
5FD
  5
603
331
5BE
  5
5C4
331
569
  5
56F
331
39B
  5
3A1
331
35C
  5
362
331
325
  5
32B
331
188
  5
188
331
1C7
  5
1C7
331
571
  5
577
331
3A3
  5
3A9
331
364
  5
36A
331
32D
  5
333
331
190
  5
190
331
579
  5
57F
331
53A
  5
540
331
3AB
  5
3B1
331
36C
  5
372
331
335
  5
33B
331
198
  5
198
331
581
  5
587
331
542
  5
548
331
3B3
  5
3B9
331
374
  5
37A
331
33D
  5
343
331
256
  5
261
331
217
  5
217
331
605
  5
60B
331
5C6
  5
5CC
331
60D
  5
613
331
5CE
  5
5D4
331
7C8
  5
7D3
331
B3F
  5
6F5
331
6D3
  5
74B
331
615
  5
61B
331
5D6
  5
5DC
331
779
  5
7C9
331
7D0
  5
84B
331
1A0
  5
1A0
331
5DE
  5
5E4
331
589
  5
58F
331
54A
  5
550
331
3BB
  5
3C1
331
37C
  5
382
331
345
  5
34B
331
1A8
  5
1A8
331
21F
  5
21F
331
591
  5
597
331
552
  5
558
331
3C3
  5
3C9
331
384
  5
38A
331
34D
  5
353
331
599
  5
59F
331
55A
  5
560
331
3CB
  5
537
331
38C
  5
392
331
355
  5
35B
331
26E
  5
271
331
1B8
  5
1B8
331
22F
  5
22F
331
562
  5
568
331
394
  5
39A
331
B6B
  5
B8D
331
61D
  5
6C5
331
5E6
  5
5EC
331
5A7
  5
5AD
331
5EE
  5
5F4
331
5AF
  5
5B5
331
5F6
  5
5FC
331
5B7
  5
5BD
331
1C0
  5
1C0
331
5FE
  5
604
331
5BF
  5
5C5
331
56A
  5
570
331
39C
  5
3A2
331
35D
  5
363
331
326
  5
32C
331
237
  5
251
331
189
  5
189
331
1C8
  5
1C8
331
572
  5
578
331
3A4
  5
3AA
331
365
  5
36B
331
32E
  5
334
331
191
  5
191
331
57A
  5
580
331
53B
  5
541
331
3AC
  5
3B2
331
36D
  5
373
331
336
  5
33C
331
199
  5
199
331
210
  5
210
331
582
  5
588
331
543
  5
549
331
3B4
  5
3BA
331
375
  5
37B
331
33E
  5
344
331
880
  5
232
331
606
  5
60C
331
5C7
  5
5CD
331
762
  5
788
331
60E
  5
614
331
5CF
  5
5D5
331
7C9
  5
7FF
331
B40
  5
701
331
6D4
  5
75C
331
685
  5
6D2
331
616
  5
61C
331
5D7
  5
5DD
331
713
  5
765
331
7D1
  5
84D
331
5DF
  5
5E5
331
58A
  5
590
331
54B
  5
551
331
3BC
  5
3C2
331
37D
  5
383
331
346
  5
34C
331
1A9
  5
1A9
331
592
  5
598
331
553
  5
559
331
3C4
  5
3CA
331
385
  5
38B
331
34E
  5
354
331
228
  5
228
331
59A
  5
5A0
331
55B
  5
561
331
3CC
  5
538
331
38D
  5
393
331
356
  5
35C
331
26F
  5
272
331
1B9
  5
1B9
331
563
  5
569
331
395
  5
39B
331
B6C
  5
B8E
331
5A0
  5
5A6
331
5E7
  5
5ED
331
5A8
  5
5AE
331
7F1
  5
851
331
5EF
  5
5F5
331
5B0
  5
5B6
331
5F7
  5
5FD
331
5B8
  5
5BE
331
74B
  5
777
331
230
  5
234
331
1C1
  5
1C1
331
5FF
  5
605
331
56B
  5
571
331
39D
  5
3A3
331
35E
  5
364
331
327
  5
32D
331
238
  5
252
331
18A
  5
18A
331
1C9
  5
1C9
331
573
  5
579
331
534
  5
53A
331
3A5
  5
3AB
331
366
  5
36C
331
32F
  5
335
331
192
  5
192
331
57B
  5
581
331
53C
  5
542
331
3AD
  5
3B3
331
36E
  5
374
331
337
  5
33D
331
19A
  5
19A
331
211
  5
211
331
583
  5
589
331
544
  5
54A
331
3B5
  5
3BB
331
376
  5
37C
331
33F
  5
345
331
5C0
  5
5C6
331
881
  5
325
331
607
  5
60D
331
5C8
  5
5CE
331
763
  5
7C4
331
60F
  5
615
331
5D0
  5
5D6
331
7CA
  5
803
331
6D5
  5
75D
331
686
  5
6D3
331
617
  5
61D
331
5D8
  5
5DE
331
7D2
  5
84F
331
258
  5
264
331
219
  5
219
331
58B
  5
591
331
54C
  5
552
331
3BD
  5
3C3
331
37E
  5
384
331
347
  5
34D
331
1AA
  5
1AA
331
221
  5
221
331
593
  5
599
331
554
  5
55A
331
3C5
  5
3CB
331
386
  5
38C
331
34F
  5
355
331
59B
  5
5A1
331
55C
  5
562
331
3CD
  5
539
331
38E
  5
394
331
357
  5
35D
331
270
  5
274
331
1BA
  5
1BA
331
564
  5
56A
331
396
  5
39C
  0
LAYOUT
  5
7BD
102
{ACAD_REACTORS
330
7BB
102
}
330
7BB
100
AcDbPlotSettings
  1

  2
A4 EPSON LP-6100.pc3
  4
A4
  6

 40
5.873749732971191
 41
5.873747825622558
 42
5.873748779296875
 43
5.873748779296875
 44
209.9733276367187
 45
297.0106506347656
 46
1.5
 47
1.5
 48
0.0
 49
0.0
140
0.0
141
0.0
142
1.0
143
1.0
 70
 28336
 72
     1
 73
     0
 74
     1
  7
AutoCad LT 98.ctb
 75
    16
147
1.0
 76
     1
 77
     2
 78
   300
148
-255.8254975629365
149
-176.068913485172
100
AcDbLayout
  1
Model
 70
     1
 71
     0
 10
0.0
 20
0.0
 11
12.0
 21
9.0
 12
0.0
 22
0.0
 32
0.0
 14
0.0
 24
0.0
 34
0.0
 15
0.0
 25
0.0
 35
0.0
146
0.0
 13
0.0
 23
0.0
 33
0.0
 16
1.0
 26
0.0
 36
0.0
 17
0.0
 27
1.0
 37
0.0
 76
     0
330
18
1001
ACAD_PSEXT
1000
A4 EPSON LP-6100.pc3
1000
EPSON LP-6100
1000
USB002
1000

1070
     0
  0
LAYOUT
  5
7BE
102
{ACAD_REACTORS
330
7BB
102
}
330
7BB
100
AcDbPlotSettings
  1

  2
C:\Documents and Settings\佐藤\Application Data\Autodesk\AutoCAD LT 2005\R10\jpn\plotters\PEACOCK EPSON LP-6100.pc3
  4

  6

 40
0.0
 41
0.0
 42
0.0
 43
0.0
 44
0.0
 45
0.0
 46
0.0
 47
0.0
 48
0.0
 49
0.0
140
0.0
141
0.0
142
1.0
143
1.0
 70
   688
 72
     0
 73
     0
 74
     5
  7
AutoCad LT 98.ctb
 75
    16
147
1.0
 76
     0
 77
     2
 78
   300
148
0.0
149
0.0
100
AcDbLayout
  1
レイアウト1
 70
     1
 71
     1
 10
0.0
 20
0.0
 11
420.0
 21
297.0
 12
0.0
 22
0.0
 32
0.0
 14
1.000000000000000E+20
 24
1.000000000000000E+20
 34
1.000000000000000E+20
 15
-1.000000000000000E+20
 25
-1.000000000000000E+20
 35
-1.000000000000000E+20
146
0.0
 13
0.0
 23
0.0
 33
0.0
 16
1.0
 26
0.0
 36
0.0
 17
0.0
 27
1.0
 37
0.0
 76
     0
330
15
  0
MLINESTYLE
  5
1C
102
{ACAD_REACTORS
330
1B
102
}
330
1B
100
AcDbMlineStyle
  2
STANDARD
 70
     0
  3

 62
   256
 51
90.0
 52
90.0
 71
     2
 49
0.5
 62
   256
  6
BYLAYER
 49
-0.5
 62
   256
  6
BYLAYER
  0
ACDBPLACEHOLDER
  5
7B6
102
{ACAD_REACTORS
330
7B5
102
}
330
7B5
  0
ACAD_PROXY_OBJECT
  5
7BA
102
{ACAD_REACTORS
330
7B9
102
}
330
7B9
100
AcDbProxyObject
 90
      499
 91
      502
 95
  2555929
 70
     0
 93
     1849
310
4214DD185B99185C992420000000000000F83F0000000000003E0FC00000000000004901028000000C1008070000C3001FDFF8000000C1003FBFF000000182007F7FE00000030400FEFFC00000060801FDFF8000000C1003FBFF000000182000000000000000C2020B0000001820100E000186003FBFF000000182007F7FE0
310
0000030400FEFFC00000060801FDFF8000000C1003FBFF000000182007F7FE0000003040000000000000012404160000003040201C00030C007F7FE00000030400FEFFC00000060801FDFF8000000C1003FBFF000000182007F7FE00000030400FEFFC000000608000
340
F
340
F
340
F
 94
        0
  0
DICTIONARYVAR
  5
7D8
102
{ACAD_REACTORS
330
7D7
102
}
330
7D7
100
DictionaryVariables
280
     0
  1
STANDARD
  0
ENDSEC
  0
EOF
