  0
SECTION
  2
HEADER
  9
$ACADVER
  1
AC1018
  9
$ACADMAINTVER
 70
     0
  9
$DWGCODEPAGE
  3
ANSI_932
  9
$INSBASE
 10
0.0
 20
0.0
 30
0.0
  9
$EXTMIN
 10
-0.4172569649115303
 20
-0.4115381934004745
 30
-0.0000305001147254
  9
$EXTMAX
 10
565.4172721154477
 20
377.9115483232128
 30
1.000030526891919
  9
$LIMMIN
 10
0.0
 20
0.0
  9
$LIMMAX
 10
420.0
 20
297.0
  9
$ORTHOMODE
 70
     0
  9
$REGENMODE
 70
     1
  9
$FILLMODE
 70
     1
  9
$QTEXTMODE
 70
     0
  9
$MIRRTEXT
 70
     1
  9
$LTSCALE
 40
1.0
  9
$ATTMODE
 70
     1
  9
$TEXTSIZE
 40
3.0
  9
$TRACEWID
 40
1.0
  9
$TEXTSTYLE
  7
STYLE3
  9
$CLAYER
  8
外形線
  9
$CELTYPE
  6
BYLAYER
  9
$CECOLOR
 62
   256
  9
$CELTSCALE
 40
1.0
  9
$DISPSILH
 70
     0
  9
$DIMSCALE
 40
1.0
  9
$DIMASZ
 40
2.5
  9
$DIMEXO
 40
0.0
  9
$DIMDLI
 40
3.75
  9
$DIMRND
 40
0.0
  9
$DIMDLE
 40
0.0
  9
$DIMEXE
 40
1.25
  9
$DIMTP
 40
0.0
  9
$DIMTM
 40
0.0
  9
$DIMTXT
 40
2.5
  9
$DIMCEN
 40
2.5
  9
$DIMTSZ
 40
0.0
  9
$DIMTOL
 70
     0
  9
$DIMLIM
 70
     0
  9
$DIMTIH
 70
     0
  9
$DIMTOH
 70
     0
  9
$DIMSE1
 70
     0
  9
$DIMSE2
 70
     0
  9
$DIMTAD
 70
     1
  9
$DIMZIN
 70
     8
  9
$DIMBLK
  1

  9
$DIMASO
 70
     1
  9
$DIMSHO
 70
     1
  9
$DIMPOST
  1

  9
$DIMAPOST
  1

  9
$DIMALT
 70
     0
  9
$DIMALTD
 70
     4
  9
$DIMALTF
 40
0.0394
  9
$DIMLFAC
 40
1.0
  9
$DIMTOFL
 70
     1
  9
$DIMTVP
 40
0.0
  9
$DIMTIX
 70
     0
  9
$DIMSOXD
 70
     0
  9
$DIMSAH
 70
     1
  9
$DIMBLK1
  1
OPEN
  9
$DIMBLK2
  1
OPEN
  9
$DIMSTYLE
  2
STYLE3
  9
$DIMCLRD
 70
     2
  9
$DIMCLRE
 70
     2
  9
$DIMCLRT
 70
     6
  9
$DIMTFAC
 40
1.0
  9
$DIMGAP
 40
0.625
  9
$DIMJUST
 70
     0
  9
$DIMSD1
 70
     0
  9
$DIMSD2
 70
     0
  9
$DIMTOLJ
 70
     1
  9
$DIMTZIN
 70
     0
  9
$DIMALTZ
 70
     0
  9
$DIMALTTZ
 70
     0
  9
$DIMUPT
 70
     0
  9
$DIMDEC
 70
     2
  9
$DIMTDEC
 70
     4
  9
$DIMALTU
 70
     8
  9
$DIMALTTD
 70
     4
  9
$DIMTXSTY
  7
STYLE3
  9
$DIMAUNIT
 70
     0
  9
$DIMADEC
 70
     0
  9
$DIMALTRND
 40
0.0
  9
$DIMAZIN
 70
     0
  9
$DIMDSEP
 70
    46
  9
$DIMATFIT
 70
     3
  9
$DIMFRAC
 70
     0
  9
$DIMLDRBLK
  1

  9
$DIMLUNIT
 70
     2
  9
$DIMLWD
 70
    -2
  9
$DIMLWE
 70
    -2
  9
$DIMTMOVE
 70
     0
  9
$LUNITS
 70
     2
  9
$LUPREC
 70
     4
  9
$SKETCHINC
 40
1.0
  9
$FILLETRAD
 40
1.5
  9
$AUNITS
 70
     0
  9
$AUPREC
 70
     0
  9
$MENU
  1
.
  9
$ELEVATION
 40
0.0
  9
$PELEVATION
 40
0.0
  9
$THICKNESS
 40
0.0
  9
$LIMCHECK
 70
     0
  9
$CHAMFERA
 40
10.0
  9
$CHAMFERB
 40
10.0
  9
$CHAMFERC
 40
20.0
  9
$CHAMFERD
 40
0.0
  9
$SKPOLY
 70
     0
  9
$TDCREATE
 40
2450876.489212500
  9
$TDUCREATE
 40
2450876.114212500
  9
$TDUPDATE
 40
2455376.453629618
  9
$TDUUPDATE
 40
2455376.078629618
  9
$TDINDWG
 40
0.5078216551
  9
$TDUSRTIMER
 40
0.5078216551
  9
$USRTIMER
 70
     1
  9
$ANGBASE
 50
0.0
  9
$ANGDIR
 70
     0
  9
$PDMODE
 70
     0
  9
$PDSIZE
 40
0.0
  9
$PLINEWID
 40
0.0
  9
$SPLFRAME
 70
     0
  9
$SPLINETYPE
 70
     6
  9
$SPLINESEGS
 70
     8
  9
$HANDSEED
  5
A74
  9
$SURFTAB1
 70
     6
  9
$SURFTAB2
 70
     6
  9
$SURFTYPE
 70
     6
  9
$SURFU
 70
     6
  9
$SURFV
 70
     6
  9
$UCSBASE
  2

  9
$UCSNAME
  2

  9
$UCSORG
 10
0.0
 20
0.0
 30
0.0
  9
$UCSXDIR
 10
1.0
 20
0.0
 30
0.0
  9
$UCSYDIR
 10
0.0
 20
1.0
 30
0.0
  9
$UCSORTHOREF
  2

  9
$UCSORTHOVIEW
 70
     0
  9
$UCSORGTOP
 10
0.0
 20
0.0
 30
0.0
  9
$UCSORGBOTTOM
 10
0.0
 20
0.0
 30
0.0
  9
$UCSORGLEFT
 10
0.0
 20
0.0
 30
0.0
  9
$UCSORGRIGHT
 10
0.0
 20
0.0
 30
0.0
  9
$UCSORGFRONT
 10
0.0
 20
0.0
 30
0.0
  9
$UCSORGBACK
 10
0.0
 20
0.0
 30
0.0
  9
$PUCSBASE
  2

  9
$PUCSNAME
  2

  9
$PUCSORG
 10
0.0
 20
0.0
 30
0.0
  9
$PUCSXDIR
 10
1.0
 20
0.0
 30
0.0
  9
$PUCSYDIR
 10
0.0
 20
1.0
 30
0.0
  9
$PUCSORTHOREF
  2

  9
$PUCSORTHOVIEW
 70
     0
  9
$PUCSORGTOP
 10
0.0
 20
0.0
 30
0.0
  9
$PUCSORGBOTTOM
 10
0.0
 20
0.0
 30
0.0
  9
$PUCSORGLEFT
 10
0.0
 20
0.0
 30
0.0
  9
$PUCSORGRIGHT
 10
0.0
 20
0.0
 30
0.0
  9
$PUCSORGFRONT
 10
0.0
 20
0.0
 30
0.0
  9
$PUCSORGBACK
 10
0.0
 20
0.0
 30
0.0
  9
$USERI1
 70
     0
  9
$USERI2
 70
     0
  9
$USERI3
 70
     0
  9
$USERI4
 70
     0
  9
$USERI5
 70
     0
  9
$USERR1
 40
0.0
  9
$USERR2
 40
0.0
  9
$USERR3
 40
0.0
  9
$USERR4
 40
0.0
  9
$USERR5
 40
0.0
  9
$WORLDVIEW
 70
     1
  9
$SHADEDGE
 70
     3
  9
$SHADEDIF
 70
    70
  9
$TILEMODE
 70
     1
  9
$MAXACTVP
 70
    48
  9
$PINSBASE
 10
0.0
 20
0.0
 30
0.0
  9
$PLIMCHECK
 70
     0
  9
$PEXTMIN
 10
1.000000000000000E+20
 20
1.000000000000000E+20
 30
1.000000000000000E+20
  9
$PEXTMAX
 10
-1.000000000000000E+20
 20
-1.000000000000000E+20
 30
-1.000000000000000E+20
  9
$PLIMMIN
 10
0.0
 20
0.0
  9
$PLIMMAX
 10
420.0
 20
297.0
  9
$UNITMODE
 70
     0
  9
$VISRETAIN
 70
     1
  9
$PLINEGEN
 70
     0
  9
$PSLTSCALE
 70
     1
  9
$TREEDEPTH
 70
  3020
  9
$CMLSTYLE
  2
STANDARD
  9
$CMLJUST
 70
     0
  9
$CMLSCALE
 40
20.0
  9
$PROXYGRAPHICS
 70
     1
  9
$MEASUREMENT
 70
     1
  9
$CELWEIGHT
370
    -1
  9
$ENDCAPS
280
     0
  9
$JOINSTYLE
280
     0
  9
$LWDISPLAY
290
     0
  9
$INSUNITS
 70
     0
  9
$HYPERLINKBASE
  1

  9
$STYLESHEET
  1
monochrome.ctb
  9
$XEDIT
290
     1
  9
$CEPSNTYPE
380
     0
  9
$PSTYLEMODE
290
     1
  9
$FINGERPRINTGUID
  2
{07CF3161-B2FC-4C03-98A7-728F9901358B}
  9
$VERSIONGUID
  2
{1A440C28-2FBA-4FB3-B238-BA4748C5A70C}
  9
$EXTNAMES
290
     1
  9
$PSVPSCALE
 40
0.0
  9
$OLESTARTUP
290
     0
  9
$SORTENTS
280
   127
  9
$INDEXCTL
280
     0
  9
$HIDETEXT
280
     0
  9
$XCLIPFRAME
290
     0
  9
$HALOGAP
280
     0
  9
$OBSCOLOR
 70
   257
  9
$OBSLTYPE
280
     0
  9
$INTERSECTIONDISPLAY
280
     0
  9
$INTERSECTIONCOLOR
 70
   257
  9
$DIMASSOC
280
     1
  9
$PROJECTNAME
  1

  0
ENDSEC
  0
SECTION
  2
CLASSES
  0
CLASS
  1
HATCH
  2
AcDbHatch
  3
ObjectDBX Classes
 90
        0
 91
       18
280
     0
281
     1
  0
CLASS
  1
LWPOLYLINE
  2
AcDbPolyline
  3
ObjectDBX Classes
 90
        0
 91
        1
280
     0
281
     1
  0
CLASS
  1
ACDBDICTIONARYWDFLT
  2
AcDbDictionaryWithDefault
  3
ObjectDBX Classes
 90
        0
 91
        1
280
     0
281
     0
  0
CLASS
  1
TABLESTYLE
  2
AcDbTableStyle
  3
ObjectDBX Classes
 90
     2047
 91
        1
280
     0
281
     0
  0
CLASS
  1
DICTIONARYVAR
  2
AcDbDictionaryVar
  3
ObjectDBX Classes
 90
        0
 91
        1
280
     0
281
     0
  0
CLASS
  1
SORTENTSTABLE
  2
AcDbSortentsTable
  3
ObjectDBX Classes
 90
        0
 91
        1
280
     0
281
     0
  0
ENDSEC
  0
SECTION
  2
TABLES
  0
TABLE
  2
VPORT
  5
8
330
0
100
AcDbSymbolTable
 70
     2
  0
VPORT
  5
A73
330
8
100
AcDbSymbolTableRecord
100
AcDbViewportTableRecord
  2
*Active
 70
     0
 10
0.0
 20
0.0
 11
1.0
 21
1.0
 12
282.5000075752681
 22
188.7500050649062
 13
0.0
 23
0.0
 14
10.0
 24
10.0
 15
10.0
 25
10.0
 16
0.0
 26
0.0
 36
1.0
 17
0.0
 27
0.0
 37
0.0
 40
381.2000681631275
 41
1.530456852791878
 42
50.0
 43
0.0
 44
0.0
 50
0.0
 51
0.0
 71
     0
 72
   100
 73
     1
 74
     1
 75
     0
 76
     0
 77
     0
 78
     0
281
     0
 65
     1
110
0.0
120
0.0
130
0.0
111
1.0
121
0.0
131
0.0
112
0.0
122
1.0
132
0.0
 79
     0
146
0.0
  0
ENDTAB
  0
TABLE
  2
LTYPE
  5
5
330
0
100
AcDbSymbolTable
 70
    13
  0
LTYPE
  5
12
330
5
100
AcDbSymbolTableRecord
100
AcDbLinetypeTableRecord
  2
BYBLOCK
 70
     0
  3

 72
    65
 73
     0
 40
0.0
  0
LTYPE
  5
13
330
5
100
AcDbSymbolTableRecord
100
AcDbLinetypeTableRecord
  2
BYLAYER
 70
     0
  3

 72
    65
 73
     0
 40
0.0
  0
LTYPE
  5
14
330
5
100
AcDbSymbolTableRecord
100
AcDbLinetypeTableRecord
  2
CONTINUOUS
 70
     0
  3
Solid line
 72
    65
 73
     0
 40
0.0
  0
LTYPE
  5
22
330
5
100
AcDbSymbolTableRecord
100
AcDbLinetypeTableRecord
  2
CENTER2
 70
     0
  3
Center (.5x) ___ _ ___ _ ___ _ ___ _ ___ _ ___
 72
    65
 73
     4
 40
28.575
 49
19.05
 74
     0
 49
-3.174999999999999
 74
     0
 49
3.174999999999999
 74
     0
 49
-3.174999999999999
 74
     0
  0
LTYPE
  5
23
330
5
100
AcDbSymbolTableRecord
100
AcDbLinetypeTableRecord
  2
HIDDEN2
 70
     0
  3
Hidden (.5x) _ _ _ _ _ _ _ _ _ _ _ _ _ _ _ _ _
 72
    65
 73
     2
 40
4.762499999999999
 49
3.174999999999999
 74
     0
 49
-1.587499999999999
 74
     0
  0
LTYPE
  5
24
330
5
100
AcDbSymbolTableRecord
100
AcDbLinetypeTableRecord
  2
PHANTOM2
 70
     0
  3
Phantom (.5x) ___ _ _ ___ _ _ ___ _ _ ___ _ _
 72
    65
 73
     6
 40
31.75
 49
15.875
 74
     0
 49
-3.174999999999999
 74
     0
 49
3.174999999999999
 74
     0
 49
-3.174999999999999
 74
     0
 49
3.174999999999999
 74
     0
 49
-3.174999999999999
 74
     0
  0
ENDTAB
  0
TABLE
  2
LAYER
  5
2
330
0
100
AcDbSymbolTable
 70
    18
  0
LAYER
  5
E
330
2
100
AcDbSymbolTableRecord
100
AcDbLayerTableRecord
  2
0
 70
     0
 62
     7
  6
CONTINUOUS
370
    -3
390
962
  0
LAYER
  5
25
330
2
100
AcDbSymbolTableRecord
100
AcDbLayerTableRecord
  2
外形線
 70
     0
 62
     7
  6
CONTINUOUS
370
    -3
390
962
  0
LAYER
  5
26
330
2
100
AcDbSymbolTableRecord
100
AcDbLayerTableRecord
  2
外線
 70
     0
 62
     7
  6
CONTINUOUS
370
    -3
390
962
  0
LAYER
  5
27
330
2
100
AcDbSymbolTableRecord
100
AcDbLayerTableRecord
  2
中心線
 70
     0
 62
     4
  6
CENTER2
370
    -3
390
962
  0
LAYER
  5
28
330
2
100
AcDbSymbolTableRecord
100
AcDbLayerTableRecord
  2
隠れ線
 70
     0
 62
     6
  6
HIDDEN2
370
    -3
390
962
  0
LAYER
  5
29
330
2
100
AcDbSymbolTableRecord
100
AcDbLayerTableRecord
  2
想像線
 70
     0
 62
     1
  6
PHANTOM2
370
    -3
390
962
  0
LAYER
  5
2B
330
2
100
AcDbSymbolTableRecord
100
AcDbLayerTableRecord
  2
文字
 70
     0
 62
     6
  6
CONTINUOUS
370
    -3
390
962
  0
LAYER
  5
2C
330
2
100
AcDbSymbolTableRecord
100
AcDbLayerTableRecord
  2
目盛
 70
     0
 62
    72
  6
CONTINUOUS
370
    -3
390
962
  0
LAYER
  5
2D
330
2
100
AcDbSymbolTableRecord
100
AcDbLayerTableRecord
  2
針
 70
     0
 62
     5
  6
CONTINUOUS
370
    -3
390
962
  0
LAYER
  5
53
330
2
100
AcDbSymbolTableRecord
100
AcDbLayerTableRecord
  2
DEFPOINTS
 70
     0
 62
     7
  6
CONTINUOUS
290
     0
370
    -3
390
962
  0
LAYER
  5
A5
330
2
100
AcDbSymbolTableRecord
100
AcDbLayerTableRecord
  2
C
 70
     0
 62
     7
  6
CONTINUOUS
370
    -3
390
962
  0
LAYER
  5
2D6
330
2
100
AcDbSymbolTableRecord
100
AcDbLayerTableRecord
  2
ROGO
 70
     0
 62
     6
  6
CONTINUOUS
370
    -3
390
962
  0
LAYER
  5
3CF
330
2
100
AcDbSymbolTableRecord
100
AcDbLayerTableRecord
  2
握り
 70
     0
 62
     3
  6
CONTINUOUS
370
    -3
390
962
  0
LAYER
  5
6C2
330
2
100
AcDbSymbolTableRecord
100
AcDbLayerTableRecord
  2
寸法線１
 70
     0
 62
     2
  6
CONTINUOUS
370
    -3
390
962
  0
LAYER
  5
9FC
330
2
100
AcDbSymbolTableRecord
100
AcDbLayerTableRecord
  2
隠れ線2
 70
     0
 62
     1
  6
HIDDEN2
370
    -3
390
962
  0
ENDTAB
  0
TABLE
  2
STYLE
  5
3
330
0
100
AcDbSymbolTable
 70
     6
  0
STYLE
  5
F
330
3
100
AcDbSymbolTableRecord
100
AcDbTextStyleTableRecord
  2
STANDARD
 70
     0
 40
0.0
 41
1.0
 50
0.0
 71
     0
 42
2.5
  3
txt
  4

  0
STYLE
  5
3F
330
3
100
AcDbSymbolTableRecord
100
AcDbTextStyleTableRecord
  2
STYLE3
 70
     0
 40
0.0
 41
1.0
 50
0.0
 71
     0
 42
3.0
  3
romans.shx
  4
bigfont.shx
  0
ENDTAB
  0
TABLE
  2
VIEW
  5
6
330
0
100
AcDbSymbolTable
 70
     0
  0
ENDTAB
  0
TABLE
  2
UCS
  5
7
330
0
100
AcDbSymbolTable
 70
     0
  0
ENDTAB
  0
TABLE
  2
APPID
  5
9
330
0
100
AcDbSymbolTable
 70
     2
  0
APPID
  5
10
330
9
100
AcDbSymbolTableRecord
100
AcDbRegAppTableRecord
  2
ACAD
 70
     0
  0
APPID
  5
A01
330
9
100
AcDbSymbolTableRecord
100
AcDbRegAppTableRecord
  2
ACAD_PSEXT
 70
     0
  0
ENDTAB
  0
TABLE
  2
DIMSTYLE
  5
A
330
0
100
AcDbSymbolTable
 70
     8
100
AcDbDimStyleTable
 71
     1
340
8F
  0
DIMSTYLE
105
1D
330
A
100
AcDbSymbolTableRecord
100
AcDbDimStyleTableRecord
  2
STANDARD
 70
     0
 41
2.5
 42
0.625
 43
3.75
 44
1.25
 73
     0
 74
     0
 77
     1
 78
     8
140
2.5
141
2.5
143
0.0394
147
0.625
171
     4
172
     1
273
     8
274
     4
277
     6
340
F
  0
DIMSTYLE
105
8F
102
{ACAD_REACTORS
330
6E7
330
71B
330
72A
330
736
330
743
330
7E3
330
835
102
}
330
A
100
AcDbSymbolTableRecord
100
AcDbDimStyleTableRecord
  2
STYLE3
 70
     0
 41
2.5
 42
0.0
 43
3.75
 44
1.25
 73
     0
 74
     0
 77
     1
 78
     8
140
2.5
141
2.5
143
0.0394
147
0.625
171
     4
172
     1
173
     1
176
     2
177
     2
178
     6
271
     1
273
     8
274
     4
340
3F
341
45
343
45
344
45
  0
ENDTAB
  0
TABLE
  2
BLOCK_RECORD
  5
1
330
0
100
AcDbSymbolTable
 70
    15
  0
BLOCK_RECORD
  5
18
102
{ACAD_XDICTIONARY
360
9A0
102
}
330
1
100
AcDbSymbolTableRecord
100
AcDbBlockTableRecord
  2
*MODEL_SPACE
340
969
  0
BLOCK_RECORD
  5
15
330
1
100
AcDbSymbolTableRecord
100
AcDbBlockTableRecord
  2
*PAPER_SPACE
340
96A
  0
BLOCK_RECORD
  5
45
330
1
100
AcDbSymbolTableRecord
100
AcDbBlockTableRecord
  2
_OPEN
340
0
102
{BLKREFS
331
705
331
706
331
76F
331
77D
331
7CD
331
7CE
331
8AF
331
8B0
331
91E
331
91F
331
714
331
715
331
723
331
724
331
72F
331
730
331
73C
331
73D
331
7DC
331
7DD
331
83C
331
83D
331
98E
331
98F
331
9CD
331
9CE
331
9E5
331
9E6
331
9F0
331
9F1
102
}
  0
BLOCK_RECORD
  5
6DB
330
1
100
AcDbSymbolTableRecord
100
AcDbBlockTableRecord
  2
*D3
340
0
  0
BLOCK_RECORD
  5
70D
330
1
100
AcDbSymbolTableRecord
100
AcDbBlockTableRecord
  2
*D4
340
0
  0
BLOCK_RECORD
  5
71E
330
1
100
AcDbSymbolTableRecord
100
AcDbBlockTableRecord
  2
*D5
340
0
  0
BLOCK_RECORD
  5
72B
330
1
100
AcDbSymbolTableRecord
100
AcDbBlockTableRecord
  2
*D6
340
0
  0
BLOCK_RECORD
  5
737
330
1
100
AcDbSymbolTableRecord
100
AcDbBlockTableRecord
  2
*D7
340
0
  0
BLOCK_RECORD
  5
7D7
330
1
100
AcDbSymbolTableRecord
100
AcDbBlockTableRecord
  2
*D8
340
0
  0
BLOCK_RECORD
  5
827
330
1
100
AcDbSymbolTableRecord
100
AcDbBlockTableRecord
  2
*D9
340
0
  0
ENDTAB
  0
ENDSEC
  0
SECTION
  2
BLOCKS
  0
BLOCK
  5
19
330
18
100
AcDbEntity
  8
0
100
AcDbBlockBegin
  2
*MODEL_SPACE
 70
     0
 10
0.0
 20
0.0
 30
0.0
  3
*MODEL_SPACE
  1

  0
ENDBLK
  5
1A
330
18
100
AcDbEntity
  8
0
100
AcDbBlockEnd
  0
BLOCK
  5
16
330
15
100
AcDbEntity
 67
     1
  8
0
100
AcDbBlockBegin
  2
*PAPER_SPACE
 70
     0
 10
0.0
 20
0.0
 30
0.0
  3
*PAPER_SPACE
  1

  0
ENDBLK
  5
17
330
15
100
AcDbEntity
 67
     1
  8
0
100
AcDbBlockEnd
  0
BLOCK
  5
46
330
45
100
AcDbEntity
  8
0
100
AcDbBlockBegin
  2
_OPEN
 70
     0
 10
0.0
 20
0.0
 30
0.0
  3
_OPEN
  1

  0
LINE
  5
47
330
45
100
AcDbEntity
  8
0
  6
ByBlock
 62
     0
100
AcDbLine
 10
-1.0
 20
0.1666666666666666
 30
0.0
 11
0.0
 21
0.0
 31
0.0
  0
LINE
  5
48
330
45
100
AcDbEntity
  8
0
  6
ByBlock
 62
     0
100
AcDbLine
 10
0.0
 20
0.0
 30
0.0
 11
-1.0
 21
-0.1666666666666666
 31
0.0
  0
LINE
  5
49
330
45
100
AcDbEntity
  8
0
  6
ByBlock
 62
     0
100
AcDbLine
 10
0.0
 20
0.0
 30
0.0
 11
-1.0
 21
0.0
 31
0.0
  0
ENDBLK
  5
4A
330
45
100
AcDbEntity
  8
0
100
AcDbBlockEnd
  0
BLOCK
  5
6DC
330
6DB
100
AcDbEntity
  8
0
100
AcDbBlockBegin
  2
*D3
 70
     1
 10
0.0
 20
0.0
 30
0.0
  3
*D3
  1

  0
LINE
  5
98B
330
6DB
100
AcDbEntity
  8
外形線
 62
     2
370
    -2
100
AcDbLine
 10
503.8104466052575
 20
189.5968587755718
 30
0.0
 11
521.7580808692487
 21
189.5968587755718
 31
0.0
  0
LINE
  5
98C
330
6DB
100
AcDbEntity
  8
外形線
 62
     2
370
    -2
100
AcDbLine
 10
503.8104466052575
 20
159.5968587755718
 30
0.0
 11
521.7580808692487
 21
159.5968587755718
 31
0.0
  0
LINE
  5
98D
330
6DB
100
AcDbEntity
  8
外形線
 62
     2
370
    -2
100
AcDbLine
 10
520.5080808692486
 20
187.0968587755718
 30
0.0
 11
520.5080808692486
 21
162.0968587755718
 31
0.0
  0
INSERT
  5
98E
330
6DB
100
AcDbEntity
  8
外形線
 62
     2
370
    -2
100
AcDbBlockReference
  2
_OPEN
 10
520.5080808692486
 20
189.5968587755718
 30
0.0
 41
2.5
 42
2.5
 43
2.5
 50
90.0
  0
INSERT
  5
98F
330
6DB
100
AcDbEntity
  8
外形線
 62
     2
370
    -2
100
AcDbBlockReference
  2
_OPEN
 10
520.5080808692486
 20
159.5968587755718
 30
0.0
 41
2.5
 42
2.5
 43
2.5
 50
270.0
  0
MTEXT
  5
990
330
6DB
100
AcDbEntity
  8
外形線
 62
     6
100
AcDbMText
 10
518.6330808692487
 20
174.5968587755719
 30
0.0
 40
2.5
 41
0.0
 71
     5
 72
     1
  1
\A1;30
  7
STYLE3
 11
0.0000000000000001
 21
1.0
 31
0.0
 73
     1
 44
1.0
  0
POINT
  5
991
330
6DB
100
AcDbEntity
  8
DEFPOINTS
 62
     0
100
AcDbPoint
 10
503.8104466052575
 20
189.5968587755718
 30
0.0
  0
POINT
  5
992
330
6DB
100
AcDbEntity
  8
DEFPOINTS
 62
     0
100
AcDbPoint
 10
503.8104466052575
 20
159.5968587755718
 30
0.0
  0
POINT
  5
993
330
6DB
100
AcDbEntity
  8
DEFPOINTS
 62
     0
100
AcDbPoint
 10
520.5080808692486
 20
159.5968587755718
 30
0.0
  0
ENDBLK
  5
6E6
330
6DB
100
AcDbEntity
  8
0
100
AcDbBlockEnd
  0
BLOCK
  5
70E
330
70D
100
AcDbEntity
  8
0
100
AcDbBlockBegin
  2
*D4
 70
     1
 10
0.0
 20
0.0
 30
0.0
  3
*D4
  1

  0
LINE
  5
70F
330
70D
100
AcDbEntity
  8
0
  6
ByBlock
 62
     2
100
AcDbLine
 10
314.5008837292156
 20
174.5968587755718
 30
0.0
 11
310.9837062824324
 21
174.5968587755718
 31
0.0
  0
LINE
  5
710
330
70D
100
AcDbEntity
  8
0
  6
ByBlock
 62
     2
100
AcDbLine
 10
315.1984773873194
 20
169.5968587755718
 30
0.0
 11
310.9837062824324
 21
169.5968587755718
 31
0.0
  0
LINE
  5
711
330
70D
100
AcDbEntity
  8
0
  6
ByBlock
 62
     2
100
AcDbLine
 10
312.2337062824324
 20
177.0968587755718
 30
0.0
 11
312.2337062824324
 21
179.5968587755718
 31
0.0
  0
LINE
  5
712
330
70D
100
AcDbEntity
  8
0
  6
ByBlock
 62
     2
100
AcDbLine
 10
312.2337062824324
 20
167.0968587755718
 30
0.0
 11
312.2337062824324
 21
164.5968587755718
 31
0.0
  0
LINE
  5
713
330
70D
100
AcDbEntity
  8
0
  6
ByBlock
 62
     2
100
AcDbLine
 10
312.2337062824324
 20
174.5968587755718
 30
0.0
 11
312.2337062824324
 21
169.5968587755718
 31
0.0
  0
INSERT
  5
714
330
70D
100
AcDbEntity
  8
0
  6
ByBlock
 62
     2
100
AcDbBlockReference
  2
_OPEN
 10
312.2337062824324
 20
174.5968587755718
 30
0.0
 41
2.5
 42
2.5
 43
2.5
 50
270.0
  0
INSERT
  5
715
330
70D
100
AcDbEntity
  8
0
  6
ByBlock
 62
     2
100
AcDbBlockReference
  2
_OPEN
 10
312.2337062824324
 20
169.5968587755718
 30
0.0
 41
2.5
 42
2.5
 43
2.5
 50
90.0
  0
MTEXT
  5
716
330
70D
100
AcDbEntity
  8
0
  6
ByBlock
 62
     6
100
AcDbMText
 10
310.3587062824324
 20
172.0968587755718
 30
0.0
 40
2.5
 41
0.0
 71
     5
 72
     1
  1
\A1;5
  7
STYLE3
 11
0.0000000000000001
 21
1.0
 31
0.0
 73
     1
 44
1.0
  0
POINT
  5
717
330
70D
100
AcDbEntity
  8
DEFPOINTS
  6
ByBlock
 62
     0
100
AcDbPoint
 10
314.5008837292156
 20
174.5968587755718
 30
0.0
  0
POINT
  5
718
330
70D
100
AcDbEntity
  8
DEFPOINTS
  6
ByBlock
 62
     0
100
AcDbPoint
 10
315.1984773873194
 20
169.5968587755718
 30
0.0
  0
POINT
  5
719
330
70D
100
AcDbEntity
  8
DEFPOINTS
  6
ByBlock
 62
     0
100
AcDbPoint
 10
312.2337062824324
 20
169.5968587755718
 30
0.0
  0
ENDBLK
  5
71A
330
70D
100
AcDbEntity
  8
0
100
AcDbBlockEnd
  0
BLOCK
  5
71F
330
71E
100
AcDbEntity
  8
0
100
AcDbBlockBegin
  2
*D5
 70
     1
 10
0.0
 20
0.0
 30
0.0
  3
*D5
  1

  0
LINE
  5
720
330
71E
100
AcDbEntity
  8
0
  6
ByBlock
 62
     2
100
AcDbLine
 10
111.4113348466314
 20
308.5968587755719
 30
0.0
 11
114.8454653923631
 21
308.5968587755719
 31
0.0
  0
LINE
  5
721
330
71E
100
AcDbEntity
  8
0
  6
ByBlock
 62
     2
100
AcDbLine
 10
114.323508907607
 20
174.5968587755718
 30
0.0
 11
112.3454653923631
 21
174.5968587755718
 31
0.0
  0
LINE
  5
722
330
71E
100
AcDbEntity
  8
0
  6
ByBlock
 62
     2
100
AcDbLine
 10
113.5954653923631
 20
306.0968587755718
 30
0.0
 11
113.5954653923631
 21
177.0968587755718
 31
0.0
  0
INSERT
  5
723
330
71E
100
AcDbEntity
  8
0
  6
ByBlock
 62
     2
100
AcDbBlockReference
  2
_OPEN
 10
113.5954653923631
 20
308.5968587755719
 30
0.0
 41
2.5
 42
2.5
 43
2.5
 50
90.0
  0
INSERT
  5
724
330
71E
100
AcDbEntity
  8
0
  6
ByBlock
 62
     2
100
AcDbBlockReference
  2
_OPEN
 10
113.5954653923631
 20
174.5968587755718
 30
0.0
 41
2.5
 42
2.5
 43
2.5
 50
270.0
  0
MTEXT
  5
725
330
71E
100
AcDbEntity
  8
0
  6
ByBlock
 62
     6
100
AcDbMText
 10
111.7204653923631
 20
241.5968587755718
 30
0.0
 40
2.5
 41
0.0
 71
     5
 72
     1
  1
\A1;134
  7
STYLE3
 11
0.0000000000000001
 21
1.0
 31
0.0
 73
     1
 44
1.0
  0
POINT
  5
726
330
71E
100
AcDbEntity
  8
DEFPOINTS
  6
ByBlock
 62
     0
100
AcDbPoint
 10
111.4113348466314
 20
308.5968587755719
 30
0.0
  0
POINT
  5
727
330
71E
100
AcDbEntity
  8
DEFPOINTS
  6
ByBlock
 62
     0
100
AcDbPoint
 10
114.323508907607
 20
174.5968587755718
 30
0.0
  0
POINT
  5
728
330
71E
100
AcDbEntity
  8
DEFPOINTS
  6
ByBlock
 62
     0
100
AcDbPoint
 10
113.5954653923631
 20
174.5968587755718
 30
0.0
  0
ENDBLK
  5
729
330
71E
100
AcDbEntity
  8
0
100
AcDbBlockEnd
  0
BLOCK
  5
72C
330
72B
100
AcDbEntity
  8
0
100
AcDbBlockBegin
  2
*D6
 70
     1
 10
0.0
 20
0.0
 30
0.0
  3
*D6
  1

  0
LINE
  5
72D
330
72B
100
AcDbEntity
  8
0
  6
ByBlock
 62
     2
100
AcDbLine
 10
116.5076394533387
 20
159.5968587755718
 30
0.0
 11
112.3454653923631
 21
159.5968587755718
 31
0.0
  0
LINE
  5
72E
330
72B
100
AcDbEntity
  8
0
  6
ByBlock
 62
     2
100
AcDbLine
 10
113.5954653923631
 20
172.0968587755718
 30
0.0
 11
113.5954653923631
 21
162.0968587755718
 31
0.0
  0
INSERT
  5
72F
330
72B
100
AcDbEntity
  8
0
  6
ByBlock
 62
     2
100
AcDbBlockReference
  2
_OPEN
 10
113.5954653923631
 20
174.5968587755718
 30
0.0
 41
2.5
 42
2.5
 43
2.5
 50
90.0
  0
INSERT
  5
730
330
72B
100
AcDbEntity
  8
0
  6
ByBlock
 62
     2
100
AcDbBlockReference
  2
_OPEN
 10
113.5954653923631
 20
159.5968587755718
 30
0.0
 41
2.5
 42
2.5
 43
2.5
 50
270.0
  0
MTEXT
  5
731
330
72B
100
AcDbEntity
  8
0
  6
ByBlock
 62
     6
100
AcDbMText
 10
111.7204653923631
 20
167.0968587755718
 30
0.0
 40
2.5
 41
0.0
 71
     5
 72
     1
  1
\A1;15
  7
STYLE3
 11
0.0000000000000001
 21
1.0
 31
0.0
 73
     1
 44
1.0
  0
POINT
  5
732
330
72B
100
AcDbEntity
  8
DEFPOINTS
  6
ByBlock
 62
     0
100
AcDbPoint
 10
114.323508907607
 20
174.5968587755718
 30
0.0
  0
POINT
  5
733
330
72B
100
AcDbEntity
  8
DEFPOINTS
  6
ByBlock
 62
     0
100
AcDbPoint
 10
116.5076394533387
 20
159.5968587755718
 30
0.0
  0
POINT
  5
734
330
72B
100
AcDbEntity
  8
DEFPOINTS
  6
ByBlock
 62
     0
100
AcDbPoint
 10
113.5954653923631
 20
159.5968587755718
 30
0.0
  0
ENDBLK
  5
735
330
72B
100
AcDbEntity
  8
0
100
AcDbBlockEnd
  0
BLOCK
  5
738
330
737
100
AcDbEntity
  8
0
100
AcDbBlockBegin
  2
*D7
 70
     1
 10
0.0
 20
0.0
 30
0.0
  3
*D7
  1

  0
LINE
  5
739
330
737
100
AcDbEntity
  8
0
  6
ByBlock
 62
     2
100
AcDbLine
 10
132.5245967887044
 20
308.5968587755719
 30
0.0
 11
129.8185097582168
 21
308.5968587755719
 31
0.0
  0
LINE
  5
73A
330
737
100
AcDbEntity
  8
0
  6
ByBlock
 62
     2
100
AcDbLine
 10
131.0685097582168
 20
159.5968587755718
 30
0.0
 11
129.8185097582168
 21
159.5968587755718
 31
0.0
  0
LINE
  5
73B
330
737
100
AcDbEntity
  8
0
  6
ByBlock
 62
     2
100
AcDbLine
 10
131.0685097582168
 20
306.0968587755718
 30
0.0
 11
131.0685097582168
 21
162.0968587755718
 31
0.0
  0
INSERT
  5
73C
330
737
100
AcDbEntity
  8
0
  6
ByBlock
 62
     2
100
AcDbBlockReference
  2
_OPEN
 10
131.0685097582168
 20
308.5968587755719
 30
0.0
 41
2.5
 42
2.5
 43
2.5
 50
90.0
  0
INSERT
  5
73D
330
737
100
AcDbEntity
  8
0
  6
ByBlock
 62
     2
100
AcDbBlockReference
  2
_OPEN
 10
131.0685097582168
 20
159.5968587755718
 30
0.0
 41
2.5
 42
2.5
 43
2.5
 50
270.0
  0
MTEXT
  5
73E
330
737
100
AcDbEntity
  8
0
  6
ByBlock
 62
     6
100
AcDbMText
 10
129.1935097582168
 20
234.0968587755718
 30
0.0
 40
2.5
 41
0.0
 71
     5
 72
     1
  1
\A1;149
  7
STYLE3
 11
0.0000000000000001
 21
1.0
 31
0.0
 73
     1
 44
1.0
  0
POINT
  5
73F
330
737
100
AcDbEntity
  8
DEFPOINTS
  6
ByBlock
 62
     0
100
AcDbPoint
 10
132.5245967887044
 20
308.5968587755719
 30
0.0
  0
POINT
  5
740
330
737
100
AcDbEntity
  8
DEFPOINTS
  6
ByBlock
 62
     0
100
AcDbPoint
 10
131.0685097582168
 20
159.5968587755718
 30
0.0
  0
POINT
  5
741
330
737
100
AcDbEntity
  8
DEFPOINTS
  6
ByBlock
 62
     0
100
AcDbPoint
 10
131.0685097582168
 20
159.5968587755718
 30
0.0
  0
ENDBLK
  5
742
330
737
100
AcDbEntity
  8
0
100
AcDbBlockEnd
  0
BLOCK
  5
7D8
330
7D7
100
AcDbEntity
  8
0
100
AcDbBlockBegin
  2
*D8
 70
     1
 10
0.0
 20
0.0
 30
0.0
  3
*D8
  1

  0
LINE
  5
7D9
330
7D7
100
AcDbEntity
  8
0
  6
ByBlock
 62
     2
100
AcDbLine
 10
68.81044660525754
 20
174.5968587755718
 30
0.0
 11
68.81044660525754
 21
61.29102026730624
 31
0.0
  0
LINE
  5
7DA
330
7D7
100
AcDbEntity
  8
0
  6
ByBlock
 62
     2
100
AcDbLine
 10
508.8104466052576
 20
71.59002531576494
 30
0.0
 11
508.8104466052576
 21
61.29102026730624
 31
0.0
  0
LINE
  5
7DB
330
7D7
100
AcDbEntity
  8
0
  6
ByBlock
 62
     2
100
AcDbLine
 10
71.31044660525754
 20
62.54102026730624
 30
0.0
 11
506.3104466052576
 21
62.54102026730624
 31
0.0
  0
INSERT
  5
7DC
330
7D7
100
AcDbEntity
  8
0
  6
ByBlock
 62
     2
100
AcDbBlockReference
  2
_OPEN
 10
68.81044660525754
 20
62.54102026730624
 30
0.0
 41
2.5
 42
2.5
 43
2.5
 50
180.0
  0
INSERT
  5
7DD
330
7D7
100
AcDbEntity
  8
0
  6
ByBlock
 62
     2
100
AcDbBlockReference
  2
_OPEN
 10
508.8104466052576
 20
62.54102026730624
 30
0.0
 41
2.5
 42
2.5
 43
2.5
  0
MTEXT
  5
7DE
330
7D7
100
AcDbEntity
  8
0
  6
ByBlock
 62
     6
100
AcDbMText
 10
288.8104466052575
 20
64.41602026730624
 30
0.0
 40
2.5
 41
0.0
 71
     5
 72
     1
  1
\A1;440
  7
STYLE3
 73
     1
 44
1.0
  0
POINT
  5
7DF
330
7D7
100
AcDbEntity
  8
DEFPOINTS
  6
ByBlock
 62
     0
100
AcDbPoint
 10
68.81044660525754
 20
174.5968587755718
 30
0.0
  0
POINT
  5
7E0
330
7D7
100
AcDbEntity
  8
DEFPOINTS
  6
ByBlock
 62
     0
100
AcDbPoint
 10
508.8104466052576
 20
71.59002531576494
 30
0.0
  0
POINT
  5
7E1
330
7D7
100
AcDbEntity
  8
DEFPOINTS
  6
ByBlock
 62
     0
100
AcDbPoint
 10
508.8104466052576
 20
62.54102026730624
 30
0.0
  0
ENDBLK
  5
7E2
330
7D7
100
AcDbEntity
  8
0
100
AcDbBlockEnd
  0
BLOCK
  5
836
330
827
100
AcDbEntity
  8
0
100
AcDbBlockBegin
  2
*D9
 70
     1
 10
0.0
 20
0.0
 30
0.0
  3
*D9
  1

  0
LINE
  5
837
330
827
100
AcDbEntity
  8
0
  6
ByBlock
 62
     2
100
AcDbLine
 10
19.73553142553987
 20
195.3460490692445
 30
0.0
 11
19.73553142553987
 21
219.5322379673436
 31
0.0
  0
LINE
  5
838
330
827
100
AcDbEntity
  8
0
  6
ByBlock
 62
     2
100
AcDbLine
 10
23.73553142553988
 20
196.4178458389691
 30
0.0
 11
23.73553142553988
 21
219.5322379673436
 31
0.0
  0
LINE
  5
839
330
827
100
AcDbEntity
  8
0
  6
ByBlock
 62
     2
100
AcDbLine
 10
17.23553142553987
 20
218.2822379673436
 30
0.0
 11
14.73553142553987
 21
218.2822379673436
 31
0.0
  0
LINE
  5
83A
330
827
100
AcDbEntity
  8
0
  6
ByBlock
 62
     2
100
AcDbLine
 10
26.23553142553988
 20
218.2822379673436
 30
0.0
 11
34.74743618744464
 21
218.2822379673436
 31
0.0
  0
LINE
  5
83B
330
827
100
AcDbEntity
  8
0
  6
ByBlock
 62
     2
100
AcDbLine
 10
19.73553142553987
 20
218.2822379673436
 30
0.0
 11
23.73553142553988
 21
218.2822379673436
 31
0.0
  0
INSERT
  5
83C
330
827
100
AcDbEntity
  8
0
  6
ByBlock
 62
     2
100
AcDbBlockReference
  2
_OPEN
 10
19.73553142553987
 20
218.2822379673436
 30
0.0
 41
2.5
 42
2.5
 43
2.5
  0
INSERT
  5
83D
330
827
100
AcDbEntity
  8
0
  6
ByBlock
 62
     2
100
AcDbBlockReference
  2
_OPEN
 10
23.73553142553988
 20
218.2822379673436
 30
0.0
 41
2.5
 42
2.5
 43
2.5
 50
180.0
  0
MTEXT
  5
83E
330
827
100
AcDbEntity
  8
0
  6
ByBlock
 62
     6
100
AcDbMText
 10
31.74148380649226
 20
220.8119998721055
 30
0.0
 40
2.5
 41
0.0
 71
     5
 72
     1
  1
\A1;(4)
  7
STYLE3
 73
     1
 44
1.0
  0
POINT
  5
83F
330
827
100
AcDbEntity
  8
DEFPOINTS
  6
ByBlock
 62
     0
100
AcDbPoint
 10
19.73553142553987
 20
195.3460490692445
 30
0.0
  0
POINT
  5
840
330
827
100
AcDbEntity
  8
DEFPOINTS
  6
ByBlock
 62
     0
100
AcDbPoint
 10
23.73553142553988
 20
196.4178458389691
 30
0.0
  0
POINT
  5
841
330
827
100
AcDbEntity
  8
DEFPOINTS
  6
ByBlock
 62
     0
100
AcDbPoint
 10
23.73553142553988
 20
218.2822379673436
 30
0.0
  0
ENDBLK
  5
842
330
827
100
AcDbEntity
  8
0
100
AcDbBlockEnd
  0
ENDSEC
  0
SECTION
  2
ENTITIES
  0
LWPOLYLINE
  5
1A0
330
18
100
AcDbEntity
  8
C
100
AcDbPolyline
 90
        5
 70
     0
 43
0.8
 38
1.0
 10
0.0
 20
377.5
 10
565.0
 20
377.5
 10
565.0
 20
0.0
 10
0.0
 20
0.0
 10
0.0
 20
377.5
  0
LINE
  5
1F8
330
18
100
AcDbEntity
  8
中心線
 48
0.5
100
AcDbLine
 10
322.4227585641845
 20
169.5968587755718
 30
0.0
 11
360.4867197249693
 21
169.5968587755718
 31
0.0
  0
LINE
  5
1F9
330
18
100
AcDbEntity
  8
中心線
 48
0.5
100
AcDbLine
 10
348.8104466052576
 20
189.3818373819827
 30
0.0
 11
348.8104466052576
 21
71.59002531576494
 31
0.0
  0
ARC
  5
1FC
330
18
100
AcDbEntity
  8
隠れ線2
100
AcDbCircle
 10
348.8104466052575
 20
169.5968587755718
 30
0.0
 40
14.0
100
AcDbArc
 50
180.0
 51
276.1057650295847
  0
CIRCLE
  5
200
330
18
100
AcDbEntity
  8
隠れ線
 62
     4
 48
0.5
100
AcDbCircle
 10
363.0384466052575
 20
164.8468587755718
 30
0.0
 40
4.75
  0
ARC
  5
212
330
18
100
AcDbEntity
  8
外形線
100
AcDbCircle
 10
408.8104466052575
 20
198.3968587755718
 30
0.0
 40
8.0
100
AcDbArc
 50
180.0
 51
260.915279712609
  0
LINE
  5
214
330
18
100
AcDbEntity
  8
隠れ線2
100
AcDbLine
 10
350.2995442829742
 20
155.6762773183834
 30
0.0
 11
378.969683830952
 21
157.2053514276088
 31
0.0
  0
LINE
  5
21D
330
18
100
AcDbEntity
  8
外形線
100
AcDbLine
 10
400.8104466052575
 20
229.5986771076776
 30
0.0
 11
400.8104466052575
 21
198.3968587755718
 31
0.0
  0
ARC
  5
22A
330
18
100
AcDbEntity
  8
外形線
100
AcDbCircle
 10
322.8104466052575
 20
296.5968587755718
 30
0.0
 40
12.0
100
AcDbArc
 50
0.0
 51
90.0
  0
LINE
  5
22B
330
18
100
AcDbEntity
  8
外形線
100
AcDbLine
 10
334.8104466052575
 20
296.5968587755718
 30
0.0
 11
334.8104466052575
 21
213.1240624386236
 31
0.0
  0
ARC
  5
22E
330
18
100
AcDbEntity
  8
外形線
100
AcDbCircle
 10
337.3104466052575
 20
302.5968587755718
 30
0.0
 40
40.0
100
AcDbArc
 50
14.60609996799051
 51
90.00000000000007
  0
ARC
  5
231
330
18
100
AcDbEntity
  8
外形線
100
AcDbCircle
 10
397.9764466052576
 20
264.5968587755718
 30
0.0
 40
7.0
100
AcDbArc
 50
186.3544327919127
 51
195.6644865860725
  0
LINE
  5
232
330
18
100
AcDbEntity
  8
外形線
100
AcDbLine
 10
376.0177397473778
 20
312.6837541160603
 30
0.0
 11
391.0194528141623
 21
263.8221088864707
 31
0.0
  0
ARC
  5
235
330
18
100
AcDbEntity
  8
外形線
100
AcDbCircle
 10
88.31044660525753
 20
298.5968587755719
 30
0.0
 40
10.0
100
AcDbArc
 50
90.0
 51
180.0
  0
LINE
  5
239
330
18
100
AcDbEntity
  8
外形線
100
AcDbLine
 10
79.11044660525755
 20
331.5968587755719
 30
0.0
 11
337.3104466052575
 21
342.5968587755718
 31
0.0
  0
LINE
  5
23A
330
18
100
AcDbEntity
  8
外形線
100
AcDbLine
 10
88.31044660525753
 20
308.5968587755719
 30
0.0
 11
322.8104466052575
 21
308.5968587755719
 31
0.0
  0
ARC
  5
23D
330
18
100
AcDbEntity
  8
外形線
100
AcDbCircle
 10
68.81044660525754
 20
177.0968587755718
 30
0.0
 40
2.5
100
AcDbArc
 50
180.0
 51
0.0
  0
LINE
  5
23E
330
18
100
AcDbEntity
  8
外形線
100
AcDbLine
 10
78.31044660525754
 20
298.5968587755719
 30
0.0
 11
71.31044660525754
 21
177.0968587755718
 31
0.0
  0
LINE
  5
23F
330
18
100
AcDbEntity
  8
外形線
100
AcDbLine
 10
59.11044660525755
 20
311.5968587755718
 30
0.0
 11
66.31044660525754
 21
177.0968587755718
 31
0.0
  0
ARC
  5
240
330
18
100
AcDbEntity
  8
外形線
100
AcDbCircle
 10
79.11044660525755
 20
311.5968587755718
 30
0.0
 40
20.0
100
AcDbArc
 50
90.00000000000007
 51
180.0
  0
ARC
  5
244
330
18
100
AcDbEntity
  8
外線
100
AcDbCircle
 10
348.8104466052575
 20
169.5968587755718
 30
0.0
 40
14.0
100
AcDbArc
 50
38.14451310123001
 51
180.0
  0
LINE
  5
245
330
18
100
AcDbEntity
  8
外線
100
AcDbLine
 10
362.1801885623785
 20
177.0968587755718
 30
0.0
 11
373.8104466052576
 21
177.0968587755717
 31
0.0
  0
ARC
  5
246
330
18
100
AcDbEntity
  8
外線
100
AcDbCircle
 10
362.1801885623785
 20
180.0968587755718
 30
0.0
 40
3.0
100
AcDbArc
 50
218.1445131012301
 51
270.0
  0
ARC
  5
24D
330
18
100
AcDbEntity
  8
外線
100
AcDbCircle
 10
390.8104466052575
 20
147.9968587755718
 30
0.0
 40
15.0
100
AcDbArc
 50
109.9484435888028
 51
248.2096920768609
  0
ARC
  5
258
330
18
100
AcDbEntity
  8
中心線
 48
0.5
100
AcDbCircle
 10
348.8104466052575
 20
169.5968587755718
 30
0.0
 40
15.00035736240975
100
AcDbArc
 50
310.8074421078996
 51
9.070899720453773
  0
ARC
  5
260
330
18
100
AcDbEntity
  8
外線
100
AcDbCircle
 10
326.8104466052576
 20
-4.089141224428146
 30
0.0
 40
150.0
100
AcDbArc
 50
48.55193660644103
 51
66.84244835836556
  0
ARC
  5
263
330
18
100
AcDbEntity
  8
外線
100
AcDbCircle
 10
370.8104466052576
 20
42.47185877557183
 30
0.0
 40
80.0
100
AcDbArc
 50
50.04488965243929
 51
71.96501250503979
  0
ARC
  5
266
330
18
100
AcDbEntity
  8
外線
100
AcDbCircle
 10
424.1104466052575
 20
106.0968587755718
 30
0.0
 40
3.0
100
AcDbArc
 50
230.0871381656802
 51
48.44825665836989
  0
LINE
  5
26A
330
18
100
AcDbEntity
  8
外線
100
AcDbLine
 10
385.7995737466725
 20
133.8249004069227
 30
0.0
 11
385.2422850728634
 21
134.0686292703847
 31
0.0
  0
ARC
  5
270
330
18
100
AcDbEntity
  8
外線
100
AcDbCircle
 10
386.7104466052575
 20
89.88185877557183
 30
0.0
 40
30.0
100
AcDbArc
 50
72.8068489321175
 51
124.3285384116652
  0
ARC
  5
273
330
18
100
AcDbEntity
  8
外線
100
AcDbCircle
 10
353.1104466052576
 20
139.5968587755718
 30
0.0
 40
30.0
100
AcDbArc
 50
266.5215679895841
 51
303.7809881774164
  0
ARC
  5
277
330
18
100
AcDbEntity
  8
外線
100
AcDbCircle
 10
302.8104466052575
 20
169.5968587755718
 30
0.0
 40
32.0
100
AcDbArc
 50
270.0
 51
0.0
  0
ARC
  5
27D
330
18
100
AcDbEntity
  8
外線
100
AcDbCircle
 10
254.3104466052575
 20
137.5968587755718
 30
0.0
 40
25.0
100
AcDbArc
 50
236.6700728622524
 51
270.0000000000005
  0
LINE
  5
27E
330
18
100
AcDbEntity
  8
外線
100
AcDbLine
 10
254.3104466052575
 20
112.5968587755718
 30
0.0
 11
351.290262457973
 21
109.6521275249832
 31
0.0
  0
LINE
  5
27F
330
18
100
AcDbEntity
  8
外線
100
AcDbLine
 10
251.6104466052575
 20
137.5968587755718
 30
0.0
 11
291.6263029241664
 21
137.5968587755718
 31
0.0
  0
ARC
  5
283
330
18
100
AcDbEntity
  8
外線
100
AcDbCircle
 10
251.6104466052575
 20
157.5968587755718
 30
0.0
 40
20.0
100
AcDbArc
 50
236.2723465159553
 51
270.0
  0
ARC
  5
286
330
18
100
AcDbEntity
  8
外線
100
AcDbCircle
 10
194.3104466052575
 20
110.5968587755718
 30
0.0
 40
30.0
100
AcDbArc
 50
52.42404569441961
 51
89.99999999999962
  0
ARC
  5
289
330
18
100
AcDbEntity
  8
外線
100
AcDbCircle
 10
198.8104466052575
 20
139.5968587755718
 30
0.0
 40
20.0
100
AcDbArc
 50
57.82902808992601
 51
90.0
  0
LINE
  5
28A
330
18
100
AcDbEntity
  8
外線
100
AcDbLine
 10
209.4593965251548
 20
156.5261194092652
 30
0.0
 11
240.5055285900275
 21
140.9631341212732
 31
0.0
  0
LINE
  5
28C
330
18
100
AcDbEntity
  8
外線
100
AcDbLine
 10
212.6048247493785
 20
134.3732278911434
 30
0.0
 11
241.3521694999115
 21
116.2173579754814
 31
0.0
  0
LINE
  5
28D
330
18
100
AcDbEntity
  8
外線
100
AcDbLine
 10
78.11044660525755
 20
159.5968587755718
 30
0.0
 11
198.8104466052575
 21
159.5968587755718
 31
0.0
  0
ARC
  5
290
330
18
100
AcDbEntity
  8
外線
100
AcDbCircle
 10
68.81044660525754
 20
172.0968587755718
 30
0.0
 40
2.5
100
AcDbArc
 50
0.0000000000006514
 51
180.0000000000006
  0
ARC
  5
293
330
18
100
AcDbEntity
  8
外線
100
AcDbCircle
 10
78.11044660525755
 20
165.0968587755718
 30
0.0
 40
5.5
100
AcDbArc
 50
187.6893102794753
 51
270.0
  0
ARC
  5
296
330
18
100
AcDbEntity
  8
外線
100
AcDbCircle
 10
76.21044660525751
 20
158.3968587755718
 30
0.0
 40
12.5
100
AcDbArc
 50
165.777923048783
 51
270.0000000000002
  0
LINE
  5
298
330
18
100
AcDbEntity
  8
外線
100
AcDbLine
 10
66.31044660525754
 20
172.0968587755718
 30
0.0
 11
64.0935621402991
 21
161.4678701501599
 31
0.0
  0
LINE
  5
299
330
18
100
AcDbEntity
  8
外線
100
AcDbLine
 10
71.31044660525754
 20
172.0968587755718
 30
0.0
 11
72.65990161316935
 21
164.360951655602
 31
0.0
  0
LINE
  5
29A
330
18
100
AcDbEntity
  8
外線
100
AcDbLine
 10
76.21044660525751
 20
145.8968587755718
 30
0.0
 11
194.3104466052575
 21
140.5968587755718
 31
0.0
  0
LINE
  5
3C5
330
18
100
AcDbEntity
  8
中心線
 48
0.5
100
AcDbLine
 10
376.8104466052576
 20
294.2706467358497
 30
0.0
 11
376.8104466052576
 21
172.255653963546
 31
0.0
  0
LINE
  5
3C7
330
18
100
AcDbEntity
  8
中心線
 48
0.5
100
AcDbLine
 10
344.8295585859855
 20
240.5968587755719
 30
0.0
 11
409.4043530656452
 21
240.5968587755718
 31
0.0
  0
CIRCLE
  5
3C9
330
18
100
AcDbEntity
  8
外形線
100
AcDbCircle
 10
348.8104466052575
 20
169.5968587755718
 30
0.0
 40
9.0
  0
CIRCLE
  5
3CA
330
18
100
AcDbEntity
  8
外形線
100
AcDbCircle
 10
348.8104466052575
 20
169.5968587755718
 30
0.0
 40
10.0
  0
ARC
  5
3CC
330
18
100
AcDbEntity
  8
外形線
100
AcDbCircle
 10
407.3104466052575
 20
189.016027255925
 30
0.0
 40
1.5
100
AcDbArc
 50
0.0000000000010856
 51
80.91527971260802
  0
ARC
  5
3CD
330
18
100
AcDbEntity
  8
外形線
100
AcDbCircle
 10
407.3104466052575
 20
160.2189905940218
 30
0.0
 40
1.5
100
AcDbArc
 50
273.0528825147924
 51
0.0
  0
ARC
  5
431
330
18
100
AcDbEntity
  8
握り
100
AcDbCircle
 10
503.8104466052575
 20
188.0968587755718
 30
0.0
 40
1.5
100
AcDbArc
 50
27.81813928465427
 51
152.1818607153457
  0
ARC
  5
432
330
18
100
AcDbEntity
  8
握り
100
AcDbCircle
 10
493.8104466052576
 20
188.0968587755718
 30
0.0
 40
1.5
100
AcDbArc
 50
27.81813928465427
 51
152.1818607153457
  0
ARC
  5
433
330
18
100
AcDbEntity
  8
握り
100
AcDbCircle
 10
483.8104466052576
 20
188.0968587755718
 30
0.0
 40
1.5
100
AcDbArc
 50
27.81813928465427
 51
152.1818607153457
  0
ARC
  5
434
330
18
100
AcDbEntity
  8
握り
100
AcDbCircle
 10
473.8104466052575
 20
188.0968587755718
 30
0.0
 40
1.5
100
AcDbArc
 50
27.81813928465427
 51
152.1818607153457
  0
ARC
  5
435
330
18
100
AcDbEntity
  8
握り
100
AcDbCircle
 10
463.8104466052576
 20
188.0968587755718
 30
0.0
 40
1.5
100
AcDbArc
 50
27.81813928465427
 51
152.1818607153457
  0
ARC
  5
436
330
18
100
AcDbEntity
  8
握り
100
AcDbCircle
 10
453.8104466052575
 20
188.0968587755718
 30
0.0
 40
1.5
100
AcDbArc
 50
27.81813928465427
 51
152.1818607153457
  0
ARC
  5
437
330
18
100
AcDbEntity
  8
握り
100
AcDbCircle
 10
443.8104466052576
 20
188.0968587755718
 30
0.0
 40
1.5
100
AcDbArc
 50
27.81813928465427
 51
152.1818607153457
  0
ARC
  5
438
330
18
100
AcDbEntity
  8
握り
100
AcDbCircle
 10
433.8104466052576
 20
188.0968587755718
 30
0.0
 40
1.5
100
AcDbArc
 50
27.81813928465427
 51
152.1818607153457
  0
ARC
  5
439
330
18
100
AcDbEntity
  8
握り
100
AcDbCircle
 10
423.8104466052575
 20
188.0968587755718
 30
0.0
 40
1.5
100
AcDbArc
 50
27.81813928465427
 51
152.1818607153457
  0
ARC
  5
43A
330
18
100
AcDbEntity
  8
握り
100
AcDbCircle
 10
413.8104466052576
 20
188.0968587755718
 30
0.0
 40
1.5
100
AcDbArc
 50
27.81813928465427
 51
152.1818607153457
  0
ARC
  5
43B
330
18
100
AcDbEntity
  8
握り
100
AcDbCircle
 10
409.3104466052576
 20
188.2968587755718
 30
0.0
 40
0.5
100
AcDbArc
 50
90.0
 51
180.0
  0
ARC
  5
43C
330
18
100
AcDbEntity
  8
握り
100
AcDbCircle
 10
508.3104466052575
 20
188.2968587755718
 30
0.0
 40
0.5
100
AcDbArc
 50
0.0
 51
90.0
  0
LINE
  5
43D
330
18
100
AcDbEntity
  8
握り
100
AcDbLine
 10
445.1370965213997
 20
167.9435587755718
 30
0.0
 11
452.4837966891151
 21
167.9435587755718
 31
0.0
  0
LINE
  5
43E
330
18
100
AcDbEntity
  8
握り
100
AcDbLine
 10
445.1370965213999
 20
181.2501587755718
 30
0.0
 11
452.4837966891156
 21
181.2501587755718
 31
0.0
  0
LINE
  5
43F
330
18
100
AcDbEntity
  8
握り
100
AcDbLine
 10
435.1370965213997
 20
170.5968587755718
 30
0.0
 11
482.4837966891153
 21
170.5968587755718
 31
0.0
  0
LINE
  5
440
330
18
100
AcDbEntity
  8
握り
100
AcDbLine
 10
435.1370965213997
 20
178.5968587755718
 30
0.0
 11
482.4837966891155
 21
178.5968587755718
 31
0.0
  0
LINE
  5
441
330
18
100
AcDbEntity
  8
握り
100
AcDbLine
 10
445.1370965213997
 20
160.3968587755718
 30
0.0
 11
452.4837966891154
 21
160.3968587755718
 31
0.0
  0
LINE
  5
442
330
18
100
AcDbEntity
  8
握り
100
AcDbLine
 10
445.1370965213997
 20
188.7968587755718
 30
0.0
 11
452.4837966891154
 21
188.7968587755718
 31
0.0
  0
LINE
  5
443
330
18
100
AcDbEntity
  8
握り
100
AcDbLine
 10
445.1370965213996
 20
167.9435587755718
 30
0.0
 11
445.1370965213997
 21
160.3968587755718
 31
0.0
  0
LINE
  5
444
330
18
100
AcDbEntity
  8
握り
100
AcDbLine
 10
442.4837966891153
 20
167.9435587755718
 30
0.0
 11
442.4837966891153
 21
160.3968587755718
 31
0.0
  0
LINE
  5
445
330
18
100
AcDbEntity
  8
握り
100
AcDbLine
 10
435.1370965213997
 20
167.9435587755718
 30
0.0
 11
435.1370965213997
 21
160.3968587755718
 31
0.0
  0
LINE
  5
446
330
18
100
AcDbEntity
  8
握り
100
AcDbLine
 10
432.4837966891154
 20
188.7968587755718
 30
0.0
 11
432.4837966891154
 21
160.3968587755718
 31
0.0
  0
LINE
  5
447
330
18
100
AcDbEntity
  8
握り
100
AcDbLine
 10
425.1370965213998
 20
188.7968587755718
 30
0.0
 11
425.1370965213998
 21
160.3968587755718
 31
0.0
  0
LINE
  5
448
330
18
100
AcDbEntity
  8
握り
100
AcDbLine
 10
422.4837966891154
 20
188.7968587755718
 30
0.0
 11
422.4837966891154
 21
160.3968587755718
 31
0.0
  0
LINE
  5
449
330
18
100
AcDbEntity
  8
握り
100
AcDbLine
 10
412.4837966891154
 20
188.7968587755718
 30
0.0
 11
412.4837966891154
 21
160.3968587755718
 31
0.0
  0
LINE
  5
44A
330
18
100
AcDbEntity
  8
握り
100
AcDbLine
 10
415.1370965213997
 20
188.7968587755718
 30
0.0
 11
415.1370965213997
 21
160.3968587755718
 31
0.0
  0
LINE
  5
44B
330
18
100
AcDbEntity
  8
握り
100
AcDbLine
 10
408.8104466052575
 20
188.2968587755718
 30
0.0
 11
408.8104466052575
 21
160.8968587755718
 31
0.0
  0
LINE
  5
44C
330
18
100
AcDbEntity
  8
握り
100
AcDbLine
 10
409.3104466052576
 20
160.3968587755718
 30
0.0
 11
412.4837966891155
 21
160.3968587755719
 31
0.0
  0
ARC
  5
44D
330
18
100
AcDbEntity
  8
握り
100
AcDbCircle
 10
409.3104466052576
 20
160.8968587755718
 30
0.0
 40
0.5
100
AcDbArc
 50
180.0
 51
270.0
  0
LINE
  5
44E
330
18
100
AcDbEntity
  8
握り
100
AcDbLine
 10
425.1370965213998
 20
160.3968587755718
 30
0.0
 11
432.4837966891154
 21
160.3968587755718
 31
0.0
  0
LINE
  5
44F
330
18
100
AcDbEntity
  8
握り
100
AcDbLine
 10
415.1370965213997
 20
160.3968587755719
 30
0.0
 11
422.4837966891155
 21
160.3968587755718
 31
0.0
  0
ARC
  5
450
330
18
100
AcDbEntity
  8
握り
100
AcDbCircle
 10
413.8104466052576
 20
161.0968587755718
 30
0.0
 40
1.5
100
AcDbArc
 50
207.8181392846543
 51
332.1818607153458
  0
ARC
  5
451
330
18
100
AcDbEntity
  8
握り
100
AcDbCircle
 10
423.8104466052575
 20
161.0968587755718
 30
0.0
 40
1.5
100
AcDbArc
 50
207.8181392846543
 51
332.1818607153458
  0
LINE
  5
452
330
18
100
AcDbEntity
  8
握り
100
AcDbLine
 10
435.1370965213997
 20
160.3968587755718
 30
0.0
 11
442.4837966891153
 21
160.3968587755718
 31
0.0
  0
ARC
  5
453
330
18
100
AcDbEntity
  8
握り
100
AcDbCircle
 10
433.8104466052576
 20
161.0968587755718
 30
0.0
 40
1.5
100
AcDbArc
 50
207.8181392846543
 51
332.1818607153458
  0
ARC
  5
454
330
18
100
AcDbEntity
  8
握り
100
AcDbCircle
 10
443.8104466052576
 20
161.0968587755718
 30
0.0
 40
1.5
100
AcDbArc
 50
207.8181392846543
 51
332.1818607153458
  0
LINE
  5
455
330
18
100
AcDbEntity
  8
握り
100
AcDbLine
 10
409.3104466052576
 20
188.7968587755718
 30
0.0
 11
412.4837966891154
 21
188.7968587755718
 31
0.0
  0
LINE
  5
457
330
18
100
AcDbEntity
  8
握り
100
AcDbLine
 10
435.1370965213997
 20
178.5968587755718
 30
0.0
 11
435.1370965213997
 21
170.5968587755718
 31
0.0
  0
LINE
  5
458
330
18
100
AcDbEntity
  8
握り
100
AcDbLine
 10
435.1370965213997
 20
167.9435587755718
 30
0.0
 11
442.4837966891155
 21
167.9435587755718
 31
0.0
  0
LINE
  5
459
330
18
100
AcDbEntity
  8
握り
100
AcDbLine
 10
425.1370965213998
 20
188.7968587755718
 30
0.0
 11
432.4837966891154
 21
188.7968587755718
 31
0.0
  0
LINE
  5
45A
330
18
100
AcDbEntity
  8
握り
100
AcDbLine
 10
415.1370965213997
 20
188.7968587755718
 30
0.0
 11
422.4837966891155
 21
188.7968587755718
 31
0.0
  0
LINE
  5
45B
330
18
100
AcDbEntity
  8
握り
100
AcDbLine
 10
445.1370965213997
 20
188.7968587755718
 30
0.0
 11
445.1370965213999
 21
181.2501587755718
 31
0.0
  0
LINE
  5
45C
330
18
100
AcDbEntity
  8
握り
100
AcDbLine
 10
442.4837966891153
 20
188.7968587755718
 30
0.0
 11
442.4837966891155
 21
181.2501587755718
 31
0.0
  0
LINE
  5
45D
330
18
100
AcDbEntity
  8
握り
100
AcDbLine
 10
435.1370965213997
 20
188.7968587755718
 30
0.0
 11
435.1370965213997
 21
181.2501587755718
 31
0.0
  0
LINE
  5
45E
330
18
100
AcDbEntity
  8
握り
100
AcDbLine
 10
435.1370965213998
 20
181.2501587755718
 30
0.0
 11
442.4837966891156
 21
181.2501587755718
 31
0.0
  0
LINE
  5
45F
330
18
100
AcDbEntity
  8
握り
100
AcDbLine
 10
435.1370965213997
 20
188.7968587755718
 30
0.0
 11
442.4837966891153
 21
188.7968587755718
 31
0.0
  0
LINE
  5
460
330
18
100
AcDbEntity
  8
握り
100
AcDbLine
 10
475.1370965213998
 20
167.9435587755718
 30
0.0
 11
475.1370965213998
 21
160.3968587755718
 31
0.0
  0
LINE
  5
461
330
18
100
AcDbEntity
  8
握り
100
AcDbLine
 10
472.4837966891155
 20
167.9435587755718
 30
0.0
 11
472.4837966891154
 21
160.3968587755718
 31
0.0
  0
LINE
  5
462
330
18
100
AcDbEntity
  8
握り
100
AcDbLine
 10
465.1370965213997
 20
167.9435587755718
 30
0.0
 11
465.1370965213997
 21
160.3968587755718
 31
0.0
  0
LINE
  5
463
330
18
100
AcDbEntity
  8
握り
100
AcDbLine
 10
462.4837966891154
 20
167.9435587755718
 30
0.0
 11
462.4837966891154
 21
160.3968587755718
 31
0.0
  0
LINE
  5
464
330
18
100
AcDbEntity
  8
握り
100
AcDbLine
 10
455.1370965213997
 20
167.9435587755718
 30
0.0
 11
455.1370965213997
 21
160.3968587755718
 31
0.0
  0
LINE
  5
465
330
18
100
AcDbEntity
  8
握り
100
AcDbLine
 10
452.4837966891153
 20
167.9435587755718
 30
0.0
 11
452.4837966891154
 21
160.3968587755718
 31
0.0
  0
LINE
  5
466
330
18
100
AcDbEntity
  8
握り
100
AcDbLine
 10
482.4837966891153
 20
167.9435587755718
 30
0.0
 11
482.4837966891154
 21
160.3968587755718
 31
0.0
  0
LINE
  5
467
330
18
100
AcDbEntity
  8
握り
100
AcDbLine
 10
505.1370965213997
 20
188.7968587755718
 30
0.0
 11
505.1370965213997
 21
160.3968587755718
 31
0.0
  0
LINE
  5
468
330
18
100
AcDbEntity
  8
握り
100
AcDbLine
 10
502.4837966891154
 20
188.7968587755718
 30
0.0
 11
502.4837966891154
 21
160.3968587755718
 31
0.0
  0
LINE
  5
469
330
18
100
AcDbEntity
  8
握り
100
AcDbLine
 10
495.1370965213997
 20
188.7968587755718
 30
0.0
 11
495.1370965213997
 21
160.3968587755718
 31
0.0
  0
LINE
  5
46A
330
18
100
AcDbEntity
  8
握り
100
AcDbLine
 10
492.4837966891153
 20
188.7968587755718
 30
0.0
 11
492.4837966891153
 21
160.3968587755718
 31
0.0
  0
LINE
  5
46B
330
18
100
AcDbEntity
  8
握り
100
AcDbLine
 10
485.1370965213997
 20
188.7968587755718
 30
0.0
 11
485.1370965213997
 21
160.3968587755718
 31
0.0
  0
LINE
  5
46C
330
18
100
AcDbEntity
  8
握り
100
AcDbLine
 10
508.8104466052576
 20
188.2968587755718
 30
0.0
 11
508.8104466052576
 21
160.8968587755718
 31
0.0
  0
LINE
  5
46D
330
18
100
AcDbEntity
  8
握り
100
AcDbLine
 10
475.1370965213999
 20
160.3968587755718
 30
0.0
 11
482.4837966891153
 21
160.3968587755718
 31
0.0
  0
ARC
  5
46E
330
18
100
AcDbEntity
  8
握り
100
AcDbCircle
 10
463.8104466052576
 20
161.0968587755718
 30
0.0
 40
1.5
100
AcDbArc
 50
207.8181392846543
 51
332.1818607153458
  0
ARC
  5
46F
330
18
100
AcDbEntity
  8
握り
100
AcDbCircle
 10
453.8104466052575
 20
161.0968587755718
 30
0.0
 40
1.5
100
AcDbArc
 50
207.8181392846543
 51
332.1818607153458
  0
LINE
  5
470
330
18
100
AcDbEntity
  8
握り
100
AcDbLine
 10
455.1370965213998
 20
160.3968587755718
 30
0.0
 11
462.4837966891154
 21
160.3968587755718
 31
0.0
  0
LINE
  5
471
330
18
100
AcDbEntity
  8
握り
100
AcDbLine
 10
465.1370965213997
 20
160.3968587755718
 30
0.0
 11
472.4837966891154
 21
160.3968587755718
 31
0.0
  0
ARC
  5
472
330
18
100
AcDbEntity
  8
握り
100
AcDbCircle
 10
473.8104466052575
 20
161.0968587755718
 30
0.0
 40
1.5
100
AcDbArc
 50
207.8181392846543
 51
332.1818607153458
  0
LINE
  5
473
330
18
100
AcDbEntity
  8
握り
100
AcDbLine
 10
495.1370965213999
 20
160.3968587755718
 30
0.0
 11
502.4837966891154
 21
160.3968587755718
 31
0.0
  0
LINE
  5
474
330
18
100
AcDbEntity
  8
握り
100
AcDbLine
 10
485.1370965213996
 20
160.3968587755718
 30
0.0
 11
492.4837966891155
 21
160.3968587755718
 31
0.0
  0
ARC
  5
475
330
18
100
AcDbEntity
  8
握り
100
AcDbCircle
 10
483.8104466052576
 20
161.0968587755718
 30
0.0
 40
1.5
100
AcDbArc
 50
207.8181392846543
 51
332.1818607153458
  0
ARC
  5
476
330
18
100
AcDbEntity
  8
握り
100
AcDbCircle
 10
493.8104466052576
 20
161.0968587755718
 30
0.0
 40
1.5
100
AcDbArc
 50
207.8181392846543
 51
332.1818607153458
  0
LINE
  5
477
330
18
100
AcDbEntity
  8
握り
100
AcDbLine
 10
505.1370965213997
 20
160.3968587755718
 30
0.0
 11
508.3104466052575
 21
160.3968587755718
 31
0.0
  0
ARC
  5
478
330
18
100
AcDbEntity
  8
握り
100
AcDbCircle
 10
503.8104466052575
 20
161.0968587755718
 30
0.0
 40
1.5
100
AcDbArc
 50
207.8181392846543
 51
332.1818607153458
  0
ARC
  5
479
330
18
100
AcDbEntity
  8
握り
100
AcDbCircle
 10
508.3104466052575
 20
160.8968587755718
 30
0.0
 40
0.5
100
AcDbArc
 50
270.0
 51
0.0
  0
LINE
  5
47A
330
18
100
AcDbEntity
  8
握り
100
AcDbLine
 10
475.1370965213998
 20
167.9435587755718
 30
0.0
 11
482.4837966891153
 21
167.9435587755718
 31
0.0
  0
LINE
  5
47B
330
18
100
AcDbEntity
  8
握り
100
AcDbLine
 10
475.1370965213999
 20
181.2501587755718
 30
0.0
 11
482.4837966891153
 21
181.2501587755718
 31
0.0
  0
LINE
  5
47C
330
18
100
AcDbEntity
  8
握り
100
AcDbLine
 10
475.1370965213999
 20
188.7968587755718
 30
0.0
 11
482.4837966891153
 21
188.7968587755718
 31
0.0
  0
LINE
  5
47D
330
18
100
AcDbEntity
  8
握り
100
AcDbLine
 10
455.1370965213995
 20
167.9435587755718
 30
0.0
 11
462.4837966891154
 21
167.9435587755718
 31
0.0
  0
LINE
  5
47E
330
18
100
AcDbEntity
  8
握り
100
AcDbLine
 10
465.1370965213997
 20
167.9435587755718
 30
0.0
 11
472.4837966891154
 21
167.9435587755718
 31
0.0
  0
LINE
  5
47F
330
18
100
AcDbEntity
  8
握り
100
AcDbLine
 10
462.4837966891154
 20
188.7968587755718
 30
0.0
 11
462.4837966891155
 21
181.2501587755718
 31
0.0
  0
LINE
  5
480
330
18
100
AcDbEntity
  8
握り
100
AcDbLine
 10
455.1370965213997
 20
188.7968587755718
 30
0.0
 11
455.1370965213998
 21
181.2501587755718
 31
0.0
  0
LINE
  5
481
330
18
100
AcDbEntity
  8
握り
100
AcDbLine
 10
452.4837966891154
 20
188.7968587755718
 30
0.0
 11
452.4837966891155
 21
181.2501587755718
 31
0.0
  0
LINE
  5
482
330
18
100
AcDbEntity
  8
握り
100
AcDbLine
 10
455.1370965213997
 20
181.2501587755718
 30
0.0
 11
462.4837966891155
 21
181.2501587755718
 31
0.0
  0
LINE
  5
483
330
18
100
AcDbEntity
  8
握り
100
AcDbLine
 10
455.1370965213998
 20
188.7968587755718
 30
0.0
 11
462.4837966891154
 21
188.7968587755718
 31
0.0
  0
LINE
  5
484
330
18
100
AcDbEntity
  8
握り
100
AcDbLine
 10
475.1370965213998
 20
188.7968587755718
 30
0.0
 11
475.1370965213999
 21
181.2501587755718
 31
0.0
  0
LINE
  5
485
330
18
100
AcDbEntity
  8
握り
100
AcDbLine
 10
472.4837966891154
 20
188.7968587755718
 30
0.0
 11
472.4837966891155
 21
181.2501587755718
 31
0.0
  0
LINE
  5
486
330
18
100
AcDbEntity
  8
握り
100
AcDbLine
 10
465.1370965213997
 20
188.7968587755718
 30
0.0
 11
465.1370965213998
 21
181.2501587755718
 31
0.0
  0
LINE
  5
487
330
18
100
AcDbEntity
  8
握り
100
AcDbLine
 10
465.1370965213998
 20
181.2501587755718
 30
0.0
 11
472.4837966891154
 21
181.2501587755718
 31
0.0
  0
LINE
  5
488
330
18
100
AcDbEntity
  8
握り
100
AcDbLine
 10
465.1370965213997
 20
188.7968587755718
 30
0.0
 11
472.4837966891154
 21
188.7968587755718
 31
0.0
  0
LINE
  5
489
330
18
100
AcDbEntity
  8
握り
100
AcDbLine
 10
482.4837966891155
 20
178.5968587755718
 30
0.0
 11
482.4837966891153
 21
170.5968587755718
 31
0.0
  0
LINE
  5
48A
330
18
100
AcDbEntity
  8
握り
100
AcDbLine
 10
495.1370965213999
 20
188.7968587755718
 30
0.0
 11
502.4837966891154
 21
188.7968587755718
 31
0.0
  0
LINE
  5
48B
330
18
100
AcDbEntity
  8
握り
100
AcDbLine
 10
482.4837966891154
 20
188.7968587755718
 30
0.0
 11
482.4837966891154
 21
181.2501587755719
 31
0.0
  0
LINE
  5
48C
330
18
100
AcDbEntity
  8
握り
100
AcDbLine
 10
485.1370965213996
 20
188.7968587755718
 30
0.0
 11
492.4837966891155
 21
188.7968587755718
 31
0.0
  0
LINE
  5
48D
330
18
100
AcDbEntity
  8
握り
100
AcDbLine
 10
505.1370965213997
 20
188.7968587755718
 30
0.0
 11
508.3104466052575
 21
188.7968587755718
 31
0.0
  0
TEXT
  5
4DE
330
18
100
AcDbEntity
  8
文字
100
AcDbText
 10
465.5857829370487
 20
172.9120765541058
 30
0.0
 40
3.0
  1
LA-13
  7
STYLE3
100
AcDbText
  0
LINE
  5
4DF
102
{ACAD_REACTORS
330
51D
102
}
330
18
100
AcDbEntity
  8
ROGO
 62
     4
100
AcDbLine
 10
439.738243244701
 20
175.9147753340309
 30
0.0
 11
442.0418122632511
 21
175.9147753340309
 31
0.0
  0
LINE
  5
4E0
102
{ACAD_REACTORS
330
51B
330
51C
330
51D
102
}
330
18
100
AcDbEntity
  8
ROGO
 62
     4
100
AcDbLine
 10
438.2878853302829
 20
172.9835199270223
 30
0.0
 11
458.1295671403168
 21
172.9835199270223
 31
0.0
  0
LINE
  5
4E1
102
{ACAD_REACTORS
330
51D
102
}
330
18
100
AcDbEntity
  8
ROGO
 62
     4
100
AcDbLine
 10
439.738243244701
 20
175.9147753340309
 30
0.0
 11
438.2878853302829
 21
172.9835199270223
 31
0.0
  0
SPLINE
  5
4E2
102
{ACAD_REACTORS
330
51D
102
}
330
18
100
AcDbEntity
  8
ROGO
 62
     4
100
AcDbSpline
210
0.0
220
0.0
230
1.0
 70
     8
 71
     3
 72
    18
 73
    14
 74
     0
 42
0.0000000001
 43
0.0000000001
 40
0.1087402787915014
 40
0.1087402787915014
 40
0.1087402787915014
 40
0.1087402787915014
 40
0.5992371417938475
 40
1.083176791562496
 40
1.448211145705696
 40
1.714037220764907
 40
2.164002567013297
 40
2.740236056362883
 40
3.395137510199602
 40
4.071816045172726
 40
4.784906178399433
 40
5.506895915094292
 40
6.060470601257719
 40
6.060470601257719
 40
6.060470601257719
 40
6.060470601257719
 10
442.0418122632511
 20
175.914775334031
 30
0.0
 10
442.1156116027312
 20
175.8877291128199
 30
0.0
 10
442.2607372425177
 20
175.8305492680839
 30
0.0
 10
442.4378590075851
 20
175.7000459683818
 30
0.0
 10
442.5344535703347
 20
175.5493905724208
 30
0.0
 10
442.6273667253962
 20
175.4009466548453
 30
0.0
 10
442.6403697518404
 20
175.1879787489075
 30
0.0
 10
442.6190699160588
 20
174.9187356980907
 30
0.0
 10
442.4815601005214
 20
174.6378083587754
 30
0.0
 10
442.2608487589767
 20
174.3920983147728
 30
0.0
 10
441.9868202259867
 20
174.1954351999989
 30
0.0
 10
441.6978476858334
 20
174.0410597192913
 30
0.0
 10
441.4912900328997
 20
174.0395215469933
 30
0.0
 10
441.4016472944787
 20
174.038854004663
 30
0.0
  0
LINE
  5
4E3
102
{ACAD_REACTORS
330
51D
102
}
330
18
100
AcDbEntity
  8
ROGO
 62
     4
100
AcDbLine
 10
441.4016472949203
 20
174.0388540046631
 30
0.0
 11
440.12792119709
 21
174.0388540046631
 31
0.0
  0
LINE
  5
4E4
102
{ACAD_REACTORS
330
51D
102
}
330
18
100
AcDbEntity
  8
ROGO
 62
     4
100
AcDbLine
 10
440.6484387523293
 20
175.1893511751547
 30
0.0
 11
440.4227276146758
 21
174.6904630538899
 31
0.0
  0
SPLINE
  5
4E5
102
{ACAD_REACTORS
330
51D
102
}
330
18
100
AcDbEntity
  8
ROGO
 62
     4
100
AcDbSpline
210
0.0
220
0.0
230
1.0
 70
     8
 71
     3
 72
    15
 73
    11
 74
     9
 42
0.0000000001
 43
0.0000000001
 44
0.0000000001
 40
0.0
 40
0.0
 40
0.0
 40
0.0
 40
0.2199578613106558
 40
0.3202465475123651
 40
0.4340808827708152
 40
0.5116301246390283
 40
0.634275054953107
 40
0.7077360179240892
 40
0.8337709579493377
 40
0.875782631437913
 40
0.875782631437913
 40
0.875782631437913
 40
0.875782631437913
 10
441.2284201796114
 20
175.1893511751546
 30
0.0
 10
441.3110320868388
 20
175.1897295817867
 30
0.0
 10
441.4313104797789
 20
175.1902805210291
 30
0.0
 10
441.497082988871
 20
175.0414958011299
 30
0.0
 10
441.467600614252
 20
174.9457016516479
 30
0.0
 10
441.4305388665032
 20
174.8473509170081
 30
0.0
 10
441.3650423642999
 20
174.7805201094805
 30
0.0
 10
441.2771364648782
 20
174.7161507757134
 30
0.0
 10
441.1940611890844
 20
174.7083585796285
 30
0.0
 10
441.1400300476949
 20
174.6940421604081
 30
0.0
 10
441.1265222558816
 20
174.6904630538898
 30
0.0
 11
441.2284201796114
 21
175.1893511751546
 31
0.0
 11
441.4424059952239
 21
175.1384440885262
 31
0.0
 11
441.4831652819025
 21
175.0468116645185
 31
0.0
 11
441.4627859315299
 21
174.9348164058594
 31
0.0
 11
441.4322166130044
 21
174.8635464845796
 31
0.0
 11
441.3506980396471
 21
174.7719140605719
 31
0.0
 11
441.289559402596
 21
174.7311883912692
 31
0.0
 11
441.1672815425602
 21
174.7006444712155
 31
0.0
 11
441.1265222558816
 21
174.6904630538898
 31
0.0
  0
LINE
  5
4E6
102
{ACAD_REACTORS
330
51D
102
}
330
18
100
AcDbEntity
  8
ROGO
 62
     4
100
AcDbLine
 10
441.2284201796114
 20
175.1893511751547
 30
0.0
 11
440.6484387523293
 21
175.1893511751547
 31
0.0
  0
LINE
  5
4E7
102
{ACAD_REACTORS
330
51D
102
}
330
18
100
AcDbEntity
  8
ROGO
 62
     4
100
AcDbLine
 10
441.1265222558817
 20
174.6904630538898
 30
0.0
 11
440.4227276146759
 21
174.6904630538899
 31
0.0
  0
LINE
  5
4E8
102
{ACAD_REACTORS
330
51B
330
51D
102
}
330
18
100
AcDbEntity
  8
ROGO
 62
     4
100
AcDbLine
 10
440.12792119709
 20
174.0388540046631
 30
0.0
 11
439.6504581244778
 21
172.9835199270223
 31
0.0
  0
LINE
  5
4E9
102
{ACAD_REACTORS
330
518
102
}
330
18
100
AcDbEntity
  8
ROGO
 62
     4
100
AcDbLine
 10
443.4027036821162
 20
175.9147753340309
 30
0.0
 11
442.4745152546019
 21
174.0388540046631
 31
0.0
  0
LINE
  5
4EA
102
{ACAD_REACTORS
330
518
102
}
330
18
100
AcDbEntity
  8
ROGO
 62
     4
100
AcDbLine
 10
445.9399653228077
 20
175.9147753340309
 30
0.0
 11
445.7273450431868
 21
175.4850577187565
 31
0.0
  0
LINE
  5
4EB
102
{ACAD_REACTORS
330
518
102
}
330
18
100
AcDbEntity
  8
ROGO
 62
     4
100
AcDbLine
 10
442.4745152546018
 20
174.0388540046631
 30
0.0
 11
445.0117768952932
 21
174.0388540046631
 31
0.0
  0
LINE
  5
4EC
102
{ACAD_REACTORS
330
518
102
}
330
18
100
AcDbEntity
  8
ROGO
 62
     4
100
AcDbLine
 10
444.3938244400183
 20
175.4850577187565
 30
0.0
 11
444.2275818027661
 21
175.1490719427791
 31
0.0
  0
LINE
  5
4ED
102
{ACAD_REACTORS
330
518
102
}
330
18
100
AcDbEntity
  8
ROGO
 62
     4
100
AcDbLine
 10
444.3938244400183
 20
175.4850577187565
 30
0.0
 11
445.7273450431868
 21
175.4850577187565
 31
0.0
  0
LINE
  5
4EE
102
{ACAD_REACTORS
330
518
102
}
330
18
100
AcDbEntity
  8
ROGO
 62
     4
100
AcDbLine
 10
444.2275818027661
 20
175.1490719427791
 30
0.0
 11
445.5611024059347
 21
175.1490719427791
 31
0.0
  0
LINE
  5
4EF
102
{ACAD_REACTORS
330
518
102
}
330
18
100
AcDbEntity
  8
ROGO
 62
     4
100
AcDbLine
 10
443.8908658767086
 20
174.4685500046631
 30
0.0
 11
445.2243864798773
 21
174.4685500046631
 31
0.0
  0
LINE
  5
4F0
102
{ACAD_REACTORS
330
518
102
}
330
18
100
AcDbEntity
  8
ROGO
 62
     4
100
AcDbLine
 10
444.057115551875
 20
174.8045500046631
 30
0.0
 11
445.3906361550435
 21
174.8045500046631
 31
0.0
  0
LINE
  5
4F1
102
{ACAD_REACTORS
330
518
102
}
330
18
100
AcDbEntity
  8
ROGO
 62
     4
100
AcDbLine
 10
445.5611024059347
 20
175.1490719427791
 30
0.0
 11
445.3906361550435
 21
174.8045500046631
 31
0.0
  0
LINE
  5
4F2
102
{ACAD_REACTORS
330
518
102
}
330
18
100
AcDbEntity
  8
ROGO
 62
     4
100
AcDbLine
 10
445.2243864798773
 20
174.4685500046631
 30
0.0
 11
445.0117768952932
 21
174.0388540046631
 31
0.0
  0
LINE
  5
4F3
102
{ACAD_REACTORS
330
518
102
}
330
18
100
AcDbEntity
  8
ROGO
 62
     4
100
AcDbLine
 10
444.057115551875
 20
174.8045500046631
 30
0.0
 11
443.8908658767086
 21
174.4685500046631
 31
0.0
  0
LINE
  5
4F4
102
{ACAD_REACTORS
330
521
102
}
330
18
100
AcDbEntity
  8
ROGO
 62
     4
100
AcDbLine
 10
446.6749571302329
 20
175.9147753340309
 30
0.0
 11
445.3221938015198
 21
174.0388540046631
 31
0.0
  0
LINE
  5
4F5
102
{ACAD_REACTORS
330
521
102
}
330
18
100
AcDbEntity
  8
ROGO
 62
     4
100
AcDbLine
 10
447.3522826397067
 20
175.4133339383855
 30
0.0
 11
446.8903301592592
 21
174.7727292643586
 31
0.0
  0
LINE
  5
4F6
102
{ACAD_REACTORS
330
521
102
}
330
18
100
AcDbEntity
  8
ROGO
 62
     4
100
AcDbLine
 10
446.6186762147662
 20
174.3960178190785
 30
0.0
 11
447.8042147701724
 21
174.3960178190785
 31
0.0
  0
LINE
  5
4F7
102
{ACAD_REACTORS
330
521
102
}
330
18
100
AcDbEntity
  8
ROGO
 62
     4
100
AcDbLine
 10
446.8903301592593
 20
174.7727292643586
 30
0.0
 11
447.6368646193145
 21
174.7727292643586
 31
0.0
  0
LINE
  5
4F8
102
{ACAD_REACTORS
330
521
102
}
330
18
100
AcDbEntity
  8
ROGO
 62
     4
100
AcDbLine
 10
446.6186762147662
 20
174.3960178190785
 30
0.0
 11
446.3611184467935
 21
174.0388540046631
 31
0.0
  0
LINE
  5
4F9
102
{ACAD_REACTORS
330
521
102
}
330
18
100
AcDbEntity
  8
ROGO
 62
     4
100
AcDbLine
 10
445.3221938015198
 20
174.0388540046631
 30
0.0
 11
446.3611184467935
 21
174.0388540046631
 31
0.0
  0
LINE
  5
4FA
102
{ACAD_REACTORS
330
521
102
}
330
18
100
AcDbEntity
  8
ROGO
 62
     4
100
AcDbLine
 10
446.6749571302329
 20
175.9147753340309
 30
0.0
 11
448.1755335341921
 21
175.9147753340309
 31
0.0
  0
LINE
  5
4FB
102
{ACAD_REACTORS
330
521
102
}
330
18
100
AcDbEntity
  8
ROGO
 62
     4
100
AcDbLine
 10
449.008892120454
 20
174.0388540046631
 30
0.0
 11
447.9628810888423
 21
174.0388540046631
 31
0.0
  0
LINE
  5
4FC
102
{ACAD_REACTORS
330
519
102
}
330
18
100
AcDbEntity
  8
ROGO
 62
     4
100
AcDbLine
 10
449.5226341418907
 20
174.0388540046631
 30
0.0
 11
451.1383898776117
 21
174.0388540046631
 31
0.0
  0
LINE
  5
4FD
102
{ACAD_REACTORS
330
519
102
}
330
18
100
AcDbEntity
  8
ROGO
 62
     4
100
AcDbLine
 10
452.0737848390534
 20
175.9147753340309
 30
0.0
 11
451.7257572668525
 21
175.2168109737211
 31
0.0
  0
LINE
  5
4FE
102
{ACAD_REACTORS
330
519
102
}
330
18
100
AcDbEntity
  8
ROGO
 62
     4
100
AcDbLine
 10
450.551804519208
 20
175.2168109737211
 30
0.0
 11
451.7257572668525
 21
175.2168109737212
 31
0.0
  0
LINE
  5
4FF
102
{ACAD_REACTORS
330
519
102
}
330
18
100
AcDbEntity
  8
ROGO
 62
     4
100
AcDbLine
 10
450.2868694487641
 20
174.7368109737211
 30
0.0
 11
451.4864137642958
 21
174.7368109737211
 31
0.0
  0
SPLINE
  5
500
102
{ACAD_REACTORS
330
519
102
}
330
18
100
AcDbEntity
  8
ROGO
 62
     4
100
AcDbSpline
210
0.0
220
0.0
230
1.0
 70
     8
 71
     3
 72
    26
 73
    22
 74
    20
 42
0.0000000001
 43
0.0000000001
 44
0.0000000001
 40
0.0
 40
0.0
 40
0.0
 40
0.0
 40
0.3403136209417982
 40
0.5681272389515159
 40
0.7323994099697078
 40
0.8550561247337057
 40
1.014148321321447
 40
1.13027011535643
 40
1.339959009791999
 40
1.510642755247373
 40
1.626735051276186
 40
1.740569491433665
 40
1.944197174100541
 40
2.088186249714737
 40
2.16573549158295
 40
2.275891898886404
 40
2.355438312276705
 40
2.470674802865115
 40
2.535888688806235
 40
2.677801419664453
 40
2.742600005358966
 40
2.742600005358966
 40
2.742600005358966
 40
2.742600005358966
 10
450.1951614931874
 20
175.9147753340309
 30
0.0
 10
450.0796537921035
 20
175.9078839465094
 30
0.0
 10
449.8868226291521
 20
175.8963793086569
 30
0.0
 10
449.6750951852783
 20
175.7677571602878
 30
0.0
 10
449.5199712646922
 20
175.6929818955129
 30
0.0
 10
449.4093370726577
 20
175.5913312934849
 30
0.0
 10
449.3282417614183
 20
175.4863336470259
 30
0.0
 10
449.2260058975647
 20
175.3612297211323
 30
0.0
 10
449.1426354719847
 20
175.2155512618974
 30
0.0
 10
449.1001799826517
 20
175.0549882032355
 30
0.0
 10
449.0625733131465
 20
174.9270185138656
 30
0.0
 10
449.0346835774707
 20
174.7844129954479
 30
0.0
 10
449.0417795157748
 20
174.6303488695588
 30
0.0
 10
449.0519412241813
 20
174.4872619966962
 30
0.0
 10
449.0973107812157
 20
174.3851193925153
 30
0.0
 10
449.1489786703441
 20
174.312400896902
 30
0.0
 10
449.212245292994
 20
174.2323095359038
 30
0.0
 10
449.2814728134477
 20
174.1792652868606
 30
0.0
 10
449.3387296236055
 20
174.0831720652311
 30
0.0
 10
449.4389557382661
 20
174.0709098771223
 30
0.0
 10
449.5026634440888
 20
174.0465044630124
 30
0.0
 10
449.5226341418909
 20
174.038854004663
 30
0.0
 11
450.1951614931874
 21
175.9147753340309
 31
0.0
 11
449.858897817539
 21
175.8624293596113
 31
0.0
 11
449.6551013841462
 21
175.7606155182779
 31
0.0
 11
449.5124441737378
 21
175.6791645115958
 31
0.0
 11
449.420736218161
 21
175.5977131729903
 31
0.0
 11
449.3188382944313
 21
175.4755364970056
 31
0.0
 11
449.2475096892272
 21
175.3839040729978
 31
0.0
 11
449.145611179564
 21
175.2006388930589
 31
0.0
 11
449.0946625106658
 21
175.0377365477714
 31
0.0
 11
449.0640931921403
 21
174.9257412891123
 31
0.0
 11
449.0437132558342
 21
174.8137460304531
 31
0.0
 11
449.0437132558342
 21
174.6101183477863
 31
0.0
 11
449.0640931921403
 21
174.4675788371501
 31
0.0
 11
449.0946625106658
 21
174.3963089158704
 31
0.0
 11
449.1558011477168
 21
174.3046764918626
 31
0.0
 11
449.2067504025485
 21
174.2435879879085
 31
0.0
 11
449.2882683899723
 21
174.1621369812264
 31
0.0
 11
449.3290276766509
 21
174.111229894598
 31
0.0
 11
449.4614955048397
 21
174.060323139893
 31
0.0
 11
449.5226341418909
 21
174.038854004663
 31
0.0
  0
SPLINE
  5
501
102
{ACAD_REACTORS
330
519
102
}
330
18
100
AcDbEntity
  8
ROGO
 62
     4
100
AcDbSpline
210
0.0
220
0.0
230
1.0
 70
     8
 71
     3
 72
    16
 73
    12
 74
    10
 42
0.0000000001
 43
0.0000000001
 44
0.0000000001
 40
0.0
 40
0.0
 40
0.0
 40
0.0
 40
0.1794152893756658
 40
0.2670467197814556
 40
0.3102605435414121
 40
0.3558008766977565
 40
0.4210145035340276
 40
0.4803947587045229
 40
0.5423269814405317
 40
0.646160827944346
 40
0.7489346372632694
 40
0.7489346372632694
 40
0.7489346372632694
 40
0.7489346372632694
 10
450.5518045192081
 20
175.2168109737211
 30
0.0
 10
450.4910463654631
 20
175.2075479832868
 30
0.0
 10
450.4006122351611
 20
175.1937606900218
 30
0.0
 10
450.3188325903171
 20
175.1290248229137
 30
0.0
 10
450.2727145487108
 20
175.090511291033
 30
0.0
 10
450.2570249854948
 20
175.0395084422012
 30
0.0
 10
450.2148877456935
 20
175.0003460835789
 30
0.0
 10
450.1801546744403
 20
174.9465243968416
 30
0.0
 10
450.1718612043521
 20
174.8725994383285
 30
0.0
 10
450.1779488012772
 20
174.7688570252753
 30
0.0
 10
450.2506869649474
 20
174.7474563909905
 30
0.0
 10
450.2868694487641
 20
174.7368109737211
 30
0.0
 11
450.5518045192081
 21
175.2168109737211
 31
0.0
 11
450.3785779902742
 21
175.1700946410819
 31
0.0
 11
450.3072493850701
 21
175.1191878863769
 31
0.0
 11
450.2766800665445
 21
175.0886436343997
 31
0.0
 11
450.2563001302386
 21
175.047917965097
 31
0.0
 11
450.2155408435599
 21
174.9970112103921
 31
0.0
 11
450.1849715250343
 21
174.9461041237637
 31
0.0
 11
450.1747815568813
 21
174.8850159517329
 31
0.0
 11
450.1951614931873
 21
174.7832017784762
 31
0.0
 11
450.2868694487641
 21
174.7368109737211
 31
0.0
  0
LINE
  5
502
102
{ACAD_REACTORS
330
519
102
}
330
18
100
AcDbEntity
  8
ROGO
 62
     4
100
AcDbLine
 10
451.4864137642957
 20
174.7368109737211
 30
0.0
 11
451.1383898776117
 21
174.038854004663
 31
0.0
  0
LINE
  5
503
102
{ACAD_REACTORS
330
519
102
}
330
18
100
AcDbEntity
  8
ROGO
 62
     4
100
AcDbLine
 10
450.1951614931879
 20
175.914775334031
 30
0.0
 11
452.0737848390535
 21
175.914775334031
 31
0.0
  0
LINE
  5
504
102
{ACAD_REACTORS
330
51A
102
}
330
18
100
AcDbEntity
  8
ROGO
 62
     4
100
AcDbLine
 10
455.5670195289306
 20
174.038854004663
 30
0.0
 11
457.1827752646515
 21
174.038854004663
 31
0.0
  0
LINE
  5
505
102
{ACAD_REACTORS
330
51A
102
}
330
18
100
AcDbEntity
  8
ROGO
 62
     4
100
AcDbLine
 10
456.2395468802277
 20
175.9147753340309
 30
0.0
 11
458.1181702260933
 21
175.9147753340309
 31
0.0
  0
SPLINE
  5
506
102
{ACAD_REACTORS
330
51A
102
}
330
18
100
AcDbEntity
  8
ROGO
 62
     4
100
AcDbSpline
210
0.0
220
0.0
230
1.0
 70
     8
 71
     3
 72
    16
 73
    12
 74
    10
 42
0.0000000001
 43
0.0000000001
 44
0.0000000001
 40
0.0
 40
0.0
 40
0.0
 40
0.0
 40
0.1794152893756658
 40
0.2670467197815217
 40
0.3102605435413978
 40
0.3558008766977931
 40
0.4210145035340376
 40
0.4803947587045328
 40
0.5423269814405045
 40
0.6461608279444525
 40
0.7489346372632488
 40
0.7489346372632488
 40
0.7489346372632488
 40
0.7489346372632488
 10
456.5961899062479
 20
175.2168109737211
 30
0.0
 10
456.535431752503
 20
175.2075479832869
 30
0.0
 10
456.444997622201
 20
175.1937606900218
 30
0.0
 10
456.3632179773569
 20
175.1290248229135
 30
0.0
 10
456.3170999357507
 20
175.0905112910329
 30
0.0
 10
456.3014103725343
 20
175.0395084422013
 30
0.0
 10
456.2592731327334
 20
175.0003460835788
 30
0.0
 10
456.2245400614801
 20
174.9465243968415
 30
0.0
 10
456.2162465913919
 20
174.8725994383285
 30
0.0
 10
456.2223341883171
 20
174.7688570252752
 30
0.0
 10
456.2950723519872
 20
174.7474563909904
 30
0.0
 10
456.3312548358039
 20
174.736810973721
 30
0.0
 11
456.5961899062479
 21
175.2168109737211
 31
0.0
 11
456.422963377314
 21
175.1700946410819
 31
0.0
 11
456.3516347721098
 21
175.1191878863768
 31
0.0
 11
456.3210654535843
 21
175.0886436343997
 31
0.0
 11
456.3006855172782
 21
175.047917965097
 31
0.0
 11
456.2599262305997
 21
174.997011210392
 31
0.0
 11
456.2293569120741
 21
174.9461041237636
 31
0.0
 11
456.219166943921
 21
174.8850159517329
 31
0.0
 11
456.2395468802271
 21
174.7832017784761
 31
0.0
 11
456.3312548358039
 21
174.736810973721
 31
0.0
  0
SPLINE
  5
507
102
{ACAD_REACTORS
330
51A
102
}
330
18
100
AcDbEntity
  8
ROGO
 62
     4
100
AcDbSpline
210
0.0
220
0.0
230
1.0
 70
     8
 71
     3
 72
    26
 73
    22
 74
    20
 42
0.0000000001
 43
0.0000000001
 44
0.0000000001
 40
0.0
 40
0.0
 40
0.0
 40
0.0
 40
0.3403136209416859
 40
0.5681272389515052
 40
0.7323994099695983
 40
0.8550561247335963
 40
1.014148321321381
 40
1.13027011535639
 40
1.339959009792003
 40
1.510642755247356
 40
1.626735051276114
 40
1.740569491433573
 40
1.94419717410045
 40
2.088186249714629
 40
2.165735491582895
 40
2.275891898886364
 40
2.355438312276665
 40
2.470674802864995
 40
2.535888688806186
 40
2.677801419664424
 40
2.74260000535881
 40
2.74260000535881
 40
2.74260000535881
 40
2.74260000535881
 10
456.2395468802271
 20
175.9147753340309
 30
0.0
 10
456.1240391791433
 20
175.9078839465093
 30
0.0
 10
455.931208016192
 20
175.8963793086568
 30
0.0
 10
455.719480572318
 20
175.7677571602879
 30
0.0
 10
455.564356651732
 20
175.6929818955129
 30
0.0
 10
455.4537224596976
 20
175.5913312934849
 30
0.0
 10
455.3726271484581
 20
175.4863336470258
 30
0.0
 10
455.2703912846044
 20
175.3612297211325
 30
0.0
 10
455.1870208590246
 20
175.2155512618972
 30
0.0
 10
455.1445653696917
 20
175.0549882032355
 30
0.0
 10
455.106958700186
 20
174.9270185138655
 30
0.0
 10
455.0790689645106
 20
174.7844129954478
 30
0.0
 10
455.0861649028148
 20
174.6303488695589
 30
0.0
 10
455.0963266112211
 20
174.4872619966962
 30
0.0
 10
455.1416961682553
 20
174.3851193925153
 30
0.0
 10
455.1933640573841
 20
174.312400896902
 30
0.0
 10
455.2566306800338
 20
174.2323095359038
 30
0.0
 10
455.3258582004873
 20
174.1792652868606
 30
0.0
 10
455.3831150106454
 20
174.0831720652312
 30
0.0
 10
455.4833411253059
 20
174.0709098771223
 30
0.0
 10
455.5470488311285
 20
174.0465044630123
 30
0.0
 10
455.5670195289306
 20
174.038854004663
 30
0.0
 11
456.2395468802271
 21
175.9147753340309
 31
0.0
 11
455.9032832045788
 21
175.8624293596113
 31
0.0
 11
455.6994867711859
 21
175.7606155182779
 31
0.0
 11
455.5568295607776
 21
175.6791645115958
 31
0.0
 11
455.4651216052008
 21
175.5977131729903
 31
0.0
 11
455.3632236814712
 21
175.4755364970055
 31
0.0
 11
455.2918950762669
 21
175.3839040729978
 31
0.0
 11
455.1899965666038
 21
175.2006388930588
 31
0.0
 11
455.1390478977055
 21
175.0377365477713
 31
0.0
 11
455.1084785791799
 21
174.9257412891123
 31
0.0
 11
455.088098642874
 21
174.8137460304531
 31
0.0
 11
455.088098642874
 21
174.6101183477863
 31
0.0
 11
455.1084785791799
 21
174.4675788371501
 31
0.0
 11
455.1390478977055
 21
174.3963089158703
 31
0.0
 11
455.2001865347567
 21
174.3046764918626
 31
0.0
 11
455.2511357895884
 21
174.2435879879085
 31
0.0
 11
455.332653777012
 21
174.1621369812264
 31
0.0
 11
455.3734130636907
 21
174.111229894598
 31
0.0
 11
455.5058808918794
 21
174.0603231398929
 31
0.0
 11
455.5670195289306
 21
174.038854004663
 31
0.0
  0
LINE
  5
508
102
{ACAD_REACTORS
330
51A
102
}
330
18
100
AcDbEntity
  8
ROGO
 62
     4
100
AcDbLine
 10
457.5307991513355
 20
174.7368109737211
 30
0.0
 11
457.1827752646515
 21
174.038854004663
 31
0.0
  0
LINE
  5
509
102
{ACAD_REACTORS
330
51A
102
}
330
18
100
AcDbEntity
  8
ROGO
 62
     4
100
AcDbLine
 10
456.3312548358037
 20
174.7368109737211
 30
0.0
 11
457.5307991513355
 21
174.7368109737211
 31
0.0
  0
LINE
  5
50A
102
{ACAD_REACTORS
330
51A
102
}
330
18
100
AcDbEntity
  8
ROGO
 62
     4
100
AcDbLine
 10
456.5961899062478
 20
175.2168109737211
 30
0.0
 11
457.7701426538923
 21
175.2168109737211
 31
0.0
  0
LINE
  5
50B
102
{ACAD_REACTORS
330
51A
102
}
330
18
100
AcDbEntity
  8
ROGO
 62
     4
100
AcDbLine
 10
458.1181702260933
 20
175.9147753340309
 30
0.0
 11
457.7701426538923
 21
175.2168109737211
 31
0.0
  0
LINE
  5
50C
102
{ACAD_REACTORS
330
51C
102
}
330
18
100
AcDbEntity
  8
ROGO
 62
     4
100
AcDbLine
 10
458.5110661248392
 20
175.9147753340309
 30
0.0
 11
459.591185756988
 21
175.9147753340309
 31
0.0
  0
LINE
  5
50D
102
{ACAD_REACTORS
330
51B
330
51C
102
}
330
18
100
AcDbEntity
  8
ROGO
 62
     4
100
AcDbLine
 10
458.5110661248392
 20
175.9147753340309
 30
0.0
 11
457.049447508168
 21
172.9835199270223
 31
0.0
  0
LINE
  5
50E
102
{ACAD_REACTORS
330
51C
102
}
330
18
100
AcDbEntity
  8
ROGO
 62
     4
100
AcDbLine
 10
459.591185756988
 20
175.9147753340309
 30
0.0
 11
459.4316067471009
 21
175.5947418928572
 31
0.0
  0
LINE
  5
50F
102
{ACAD_REACTORS
330
51C
102
}
330
18
100
AcDbEntity
  8
ROGO
 62
     4
100
AcDbLine
 10
459.4316067471009
 20
175.5947418928572
 30
0.0
 11
459.9373397229278
 21
175.9147753340309
 31
0.0
  0
LINE
  5
510
102
{ACAD_REACTORS
330
51C
102
}
330
18
100
AcDbEntity
  8
ROGO
 62
     4
100
AcDbLine
 10
458.5110661248392
 20
173.7486107300503
 30
0.0
 11
458.8925651093616
 21
172.9835199270223
 31
0.0
  0
LINE
  5
511
102
{ACAD_REACTORS
330
51C
102
}
330
18
100
AcDbEntity
  8
ROGO
 62
     4
100
AcDbLine
 10
459.241851801026
 20
174.4491476305266
 30
0.0
 11
459.9726611093616
 21
172.9835199270223
 31
0.0
  0
LINE
  5
512
102
{ACAD_REACTORS
330
51C
102
}
330
18
100
AcDbEntity
  8
ROGO
 62
     4
100
AcDbLine
 10
458.5110661248392
 20
173.7486107300503
 30
0.0
 11
458.1295671403168
 21
172.9835199270223
 31
0.0
  0
LINE
  5
513
102
{ACAD_REACTORS
330
51C
102
}
330
18
100
AcDbEntity
  8
ROGO
 62
     4
100
AcDbLine
 10
459.241851801026
 20
174.4491476305266
 30
0.0
 11
461.0174357229277
 21
175.9147753340309
 31
0.0
  0
LINE
  5
514
102
{ACAD_REACTORS
330
51C
102
}
330
18
100
AcDbEntity
  8
ROGO
 62
     4
100
AcDbLine
 10
459.9373397229278
 20
175.9147753340309
 30
0.0
 11
461.0174357229277
 21
175.9147753340309
 31
0.0
  0
LINE
  5
515
102
{ACAD_REACTORS
330
51C
102
}
330
18
100
AcDbEntity
  8
ROGO
 62
     4
100
AcDbLine
 10
458.8925651093616
 20
172.9835199270223
 30
0.0
 11
459.9726611093616
 21
172.9835199270223
 31
0.0
  0
LINE
  5
516
102
{ACAD_REACTORS
330
518
102
}
330
18
100
AcDbEntity
  8
ROGO
 62
     4
100
AcDbLine
 10
443.4027036821162
 20
175.9147753340309
 30
0.0
 11
445.9399653228077
 21
175.914775334031
 31
0.0
  0
LINE
  5
517
102
{ACAD_REACTORS
330
51B
102
}
330
18
100
AcDbEntity
  8
ROGO
 62
     4
100
AcDbLine
 10
439.7630118223426
 20
173.2773345074384
 30
0.0
 11
457.195952947291
 21
173.2773345074384
 31
0.0
  0
HATCH
  5
518
330
18
100
AcDbEntity
  8
ROGO
 62
     4
100
AcDbHatch
 10
0.0
 20
0.0
 30
0.0
210
0.0
220
0.0
230
1.0
  2
SOLID
 70
     1
 71
     1
 91
        1
 92
        1
 93
       12
 72
     1
 10
443.4027036821162
 20
175.9147753340309
 11
445.9399653228077
 21
175.914775334031
 72
     1
 10
445.9399653228077
 20
175.9147753340309
 11
445.7273450431868
 21
175.4850577187565
 72
     1
 10
445.7273450431868
 20
175.4850577187565
 11
444.3938244400183
 21
175.4850577187565
 72
     1
 10
444.3938244400183
 20
175.4850577187565
 11
444.2275818027661
 21
175.1490719427791
 72
     1
 10
444.2275818027661
 20
175.1490719427791
 11
445.5611024059347
 21
175.1490719427791
 72
     1
 10
445.5611024059347
 20
175.1490719427791
 11
445.3906361550435
 21
174.8045500046631
 72
     1
 10
445.3906361550435
 20
174.8045500046631
 11
444.057115551875
 21
174.8045500046631
 72
     1
 10
444.057115551875
 20
174.8045500046631
 11
443.8908658767086
 21
174.4685500046631
 72
     1
 10
443.8908658767086
 20
174.4685500046631
 11
445.2243864798773
 21
174.4685500046631
 72
     1
 10
445.2243864798773
 20
174.4685500046631
 11
445.0117768952932
 21
174.0388540046631
 72
     1
 10
445.0117768952932
 20
174.0388540046631
 11
442.4745152546018
 21
174.0388540046631
 72
     1
 10
442.4745152546019
 20
174.0388540046631
 11
443.4027036821162
 21
175.9147753340309
 97
       12
330
516
330
4EA
330
4ED
330
4EC
330
4EE
330
4F1
330
4F0
330
4F3
330
4EF
330
4F2
330
4EB
330
4E9
 75
     0
 76
     1
 98
        1
 10
339.6168051411035
 20
46.20320955101476
450
        0
451
        0
460
0.0
461
0.0
452
        0
462
0.0
453
        0
470

  0
HATCH
  5
519
330
18
100
AcDbEntity
  8
ROGO
 62
     4
100
AcDbHatch
 10
0.0
 20
0.0
 30
0.0
210
0.0
220
0.0
230
1.0
  2
SOLID
 70
     1
 71
     1
 91
        1
 92
        5
 93
        8
 72
     1
 10
451.7257572668526
 20
175.2168109737212
 11
452.0737848390534
 21
175.914775334031
 72
     1
 10
452.0737848390534
 20
175.914775334031
 11
450.1951614931876
 21
175.9147753340309
 72
     4
 94
        3
 73
     0
 74
     0
 95
       26
 96
       22
 40
0.0
 40
0.0
 40
0.0
 40
0.0
 40
0.3403136209417982
 40
0.5681272389515159
 40
0.7323994099697078
 40
0.8550561247337057
 40
1.014148321321447
 40
1.13027011535643
 40
1.339959009791999
 40
1.510642755247373
 40
1.626735051276186
 40
1.740569491433665
 40
1.944197174100541
 40
2.088186249714737
 40
2.16573549158295
 40
2.275891898886404
 40
2.355438312276705
 40
2.470674802865115
 40
2.535888688806235
 40
2.677801419664453
 40
2.742600005358966
 40
2.742600005358966
 40
2.742600005358966
 40
2.742600005358966
 10
450.1951614931874
 20
175.9147753340309
 10
450.0796537921035
 20
175.9078839465094
 10
449.8868226291522
 20
175.8963793086569
 10
449.6750951852782
 20
175.7677571602878
 10
449.5199712646922
 20
175.6929818955129
 10
449.4093370726577
 20
175.5913312934849
 10
449.3282417614183
 20
175.4863336470259
 10
449.2260058975647
 20
175.3612297211323
 10
449.1426354719847
 20
175.2155512618974
 10
449.1001799826517
 20
175.0549882032354
 10
449.0625733131465
 20
174.9270185138656
 10
449.0346835774707
 20
174.7844129954478
 10
449.0417795157748
 20
174.6303488695589
 10
449.0519412241813
 20
174.4872619966962
 10
449.0973107812157
 20
174.3851193925153
 10
449.1489786703441
 20
174.3124008969019
 10
449.212245292994
 20
174.2323095359038
 10
449.2814728134477
 20
174.1792652868606
 10
449.3387296236055
 20
174.0831720652311
 10
449.4389557382661
 20
174.0709098771223
 10
449.5026634440888
 20
174.0465044630124
 10
449.5226341418909
 20
174.038854004663
 72
     1
 10
449.5226341418907
 20
174.0388540046631
 11
451.1383898776117
 21
174.0388540046631
 72
     1
 10
451.1383898776117
 20
174.0388540046631
 11
451.4864137642957
 21
174.7368109737211
 72
     1
 10
451.4864137642957
 20
174.7368109737211
 11
450.2868694487643
 21
174.7368109737211
 72
     4
 94
        3
 73
     0
 74
     0
 95
       16
 96
       12
 40
0.0
 40
0.0
 40
0.0
 40
0.0
 40
0.1027738093189234
 40
0.2066076558227377
 40
0.2685398785587465
 40
0.3279201337292418
 40
0.3931337605655129
 40
0.4386740937218573
 40
0.4818879174818138
 40
0.5695193478876036
 40
0.7489346372632694
 40
0.7489346372632694
 40
0.7489346372632694
 40
0.7489346372632694
 10
450.2868694487641
 20
174.7368109737211
 10
450.2506869649474
 20
174.7474563909905
 10
450.1779488012772
 20
174.7688570252752
 10
450.1718612043521
 20
174.8725994383285
 10
450.1801546744403
 20
174.9465243968416
 10
450.2148877456936
 20
175.0003460835789
 10
450.2570249854948
 20
175.0395084422012
 10
450.2727145487108
 20
175.090511291033
 10
450.3188325903171
 20
175.1290248229137
 10
450.4006122351611
 20
175.1937606900218
 10
450.4910463654631
 20
175.2075479832868
 10
450.5518045192081
 20
175.2168109737211
 72
     1
 10
450.5518045192082
 20
175.2168109737211
 11
451.7257572668526
 21
175.2168109737212
 97
        8
330
503
330
500
330
4FC
330
502
330
4FF
330
501
330
4FE
330
4FD
 75
     0
 76
     1
 47
0.0514683685270805
 98
        1
 10
450.8521856320544
 20
175.4971732535352
450
        0
451
        0
460
0.0
461
0.0
452
        0
462
0.0
453
        0
470

  0
HATCH
  5
51A
330
18
100
AcDbEntity
  8
ROGO
 62
     4
100
AcDbHatch
 10
0.0
 20
0.0
 30
0.0
210
0.0
220
0.0
230
1.0
  2
SOLID
 70
     1
 71
     1
 91
        1
 92
        5
 93
        8
 72
     4
 94
        3
 73
     0
 74
     0
 95
       26
 96
       22
 40
0.0
 40
0.0
 40
0.0
 40
0.0
 40
0.3403136209416859
 40
0.5681272389515052
 40
0.7323994099695983
 40
0.8550561247335963
 40
1.014148321321381
 40
1.13027011535639
 40
1.339959009792003
 40
1.510642755247356
 40
1.626735051276114
 40
1.740569491433573
 40
1.94419717410045
 40
2.088186249714629
 40
2.165735491582895
 40
2.275891898886364
 40
2.355438312276665
 40
2.470674802864995
 40
2.535888688806186
 40
2.677801419664424
 40
2.74260000535881
 40
2.74260000535881
 40
2.74260000535881
 40
2.74260000535881
 10
456.2395468802271
 20
175.9147753340309
 10
456.1240391791433
 20
175.9078839465093
 10
455.931208016192
 20
175.8963793086569
 10
455.719480572318
 20
175.7677571602878
 10
455.564356651732
 20
175.6929818955129
 10
455.4537224596976
 20
175.591331293485
 10
455.3726271484581
 20
175.4863336470258
 10
455.2703912846046
 20
175.3612297211325
 10
455.1870208590246
 20
175.2155512618972
 10
455.1445653696917
 20
175.0549882032354
 10
455.106958700186
 20
174.9270185138655
 10
455.0790689645105
 20
174.7844129954478
 10
455.0861649028149
 20
174.6303488695588
 10
455.096326611221
 20
174.4872619966963
 10
455.1416961682554
 20
174.3851193925152
 10
455.1933640573841
 20
174.312400896902
 10
455.2566306800338
 20
174.2323095359038
 10
455.3258582004873
 20
174.1792652868605
 10
455.3831150106454
 20
174.0831720652312
 10
455.4833411253059
 20
174.0709098771222
 10
455.5470488311285
 20
174.0465044630123
 10
455.5670195289306
 20
174.038854004663
 72
     1
 10
455.5670195289307
 20
174.038854004663
 11
457.1827752646516
 21
174.038854004663
 72
     1
 10
457.1827752646516
 20
174.038854004663
 11
457.5307991513355
 21
174.7368109737211
 72
     1
 10
457.5307991513355
 20
174.7368109737211
 11
456.3312548358038
 21
174.7368109737211
 72
     4
 94
        3
 73
     0
 74
     0
 95
       16
 96
       12
 40
0.0
 40
0.0
 40
0.0
 40
0.0
 40
0.1027738093187964
 40
0.2066076558227444
 40
0.268539878558716
 40
0.3279201337292112
 40
0.3931337605654557
 40
0.4386740937218511
 40
0.4818879174817272
 40
0.569519347887583
 40
0.7489346372632488
 40
0.7489346372632488
 40
0.7489346372632488
 40
0.7489346372632488
 10
456.3312548358039
 20
174.736810973721
 10
456.2950723519872
 20
174.7474563909904
 10
456.2223341883171
 20
174.7688570252752
 10
456.2162465913919
 20
174.8725994383285
 10
456.2245400614801
 20
174.9465243968415
 10
456.2592731327334
 20
175.0003460835788
 10
456.3014103725343
 20
175.0395084422013
 10
456.3170999357506
 20
175.0905112910329
 10
456.3632179773569
 20
175.1290248229136
 10
456.4449976222009
 20
175.1937606900217
 10
456.5354317525029
 20
175.2075479832868
 10
456.5961899062479
 20
175.2168109737211
 72
     1
 10
456.5961899062479
 20
175.2168109737211
 11
457.7701426538924
 21
175.2168109737211
 72
     1
 10
457.7701426538924
 20
175.2168109737211
 11
458.1181702260934
 21
175.9147753340309
 72
     1
 10
458.1181702260934
 20
175.9147753340309
 11
456.2395468802272
 21
175.9147753340309
 97
        8
330
505
330
507
330
504
330
508
330
509
330
506
330
50A
330
50B
 75
     0
 76
     1
 47
0.0514683685270805
 98
        1
 10
456.5637146369197
 20
175.5712877580608
450
        0
451
        0
460
0.0
461
0.0
452
        0
462
0.0
453
        0
470

  0
HATCH
  5
51B
330
18
100
AcDbEntity
  8
ROGO
 62
     4
100
AcDbHatch
 10
0.0
 20
0.0
 30
0.0
210
0.0
220
0.0
230
1.0
  2
SOLID
 70
     1
 71
     1
 91
        1
 92
        7
 72
     0
 73
     1
 93
        4
 10
439.7833881750807
 20
173.2773345074384
 10
439.6504581244779
 20
172.9835199270223
 10
457.049447508168
 20
172.9835199270223
 10
457.1959529472911
 20
173.2773345074384
 97
        4
330
517
330
4E8
330
4E0
330
50D
 75
     0
 76
     1
 47
0.0514683685270805
 98
        1
 10
450.7780099763496
 20
173.1996252728601
450
        0
451
        0
460
0.0
461
0.0
452
        0
462
0.0
453
        0
470

  0
HATCH
  5
51C
330
18
100
AcDbEntity
  8
ROGO
 62
     4
100
AcDbHatch
 10
0.0
 20
0.0
 30
0.0
210
0.0
220
0.0
230
1.0
  2
SOLID
 70
     1
 71
     1
 91
        1
 92
        7
 72
     0
 73
     1
 93
       11
 10
457.049447508168
 20
172.9835199270223
 10
458.1295671403168
 20
172.9835199270223
 10
458.5110661248392
 20
173.7486107300503
 10
458.8925651093616
 20
172.9835199270223
 10
459.9726611093616
 20
172.9835199270223
 10
459.241851801026
 20
174.4491476305266
 10
461.0174357229277
 20
175.9147753340309
 10
459.9373397229278
 20
175.9147753340309
 10
459.4316067471009
 20
175.5947418928572
 10
459.591185756988
 20
175.9147753340309
 10
458.5110661248392
 20
175.9147753340309
 97
       11
330
514
330
50F
330
50E
330
50C
330
50D
330
4E0
330
512
330
510
330
515
330
511
330
513
 75
     0
 76
     1
 47
0.0514683685270805
 98
        1
 10
458.4181072014051
 20
174.6572096434002
450
        0
451
        0
460
0.0
461
0.0
452
        0
462
0.0
453
        0
470

  0
HATCH
  5
51D
330
18
100
AcDbEntity
  8
ROGO
 62
     4
100
AcDbHatch
 10
0.0
 20
0.0
 30
0.0
210
0.0
220
0.0
230
1.0
  2
SOLID
 70
     1
 71
     1
 91
        2
 92
        5
 93
        6
 72
     1
 10
438.2878853302828
 20
172.9835199270223
 11
439.6504581244779
 21
172.9835199270224
 72
     1
 10
439.6504581244779
 20
172.9835199270224
 11
440.12792119709
 21
174.0388540046631
 72
     1
 10
440.12792119709
 20
174.0388540046631
 11
441.401647294479
 21
174.038854004663
 72
     4
 94
        3
 73
     0
 74
     0
 95
       18
 96
       14
 40
0.108740278791501
 40
0.108740278791501
 40
0.108740278791501
 40
0.108740278791501
 40
0.6623149649549278
 40
1.384304701649787
 40
2.097394834876493
 40
2.774073369849618
 40
3.428974823686337
 40
4.005208313035923
 40
4.455173659284313
 40
4.720999734343524
 40
5.086034088486724
 40
5.569973738255373
 40
6.060470601257719
 40
6.060470601257719
 40
6.060470601257719
 40
6.060470601257719
 10
441.4016472944787
 20
174.038854004663
 10
441.4912900328997
 20
174.0395215469933
 10
441.6978476858334
 20
174.0410597192913
 10
441.9868202259867
 20
174.1954351999989
 10
442.2608487589767
 20
174.3920983147728
 10
442.4815601005214
 20
174.6378083587754
 10
442.6190699160588
 20
174.9187356980907
 10
442.6403697518404
 20
175.1879787489075
 10
442.6273667253962
 20
175.4009466548453
 10
442.5344535703347
 20
175.5493905724208
 10
442.4378590075851
 20
175.7000459683818
 10
442.2607372425177
 20
175.8305492680839
 10
442.1156116027312
 20
175.8877291128199
 10
442.0418122632511
 20
175.914775334031
 72
     1
 10
442.0418122632512
 20
175.9147753340309
 11
439.738243244701
 21
175.9147753340309
 72
     1
 10
439.738243244701
 20
175.9147753340309
 11
438.2878853302828
 21
172.9835199270223
 97
        6
330
4E2
330
4DF
330
4E1
330
4E0
330
4E8
330
4E3
 92
       20
 93
        4
 72
     1
 10
440.4227276146758
 20
174.6904630538899
 11
440.6484387523293
 21
175.1893511751547
 72
     1
 10
440.6484387523293
 20
175.1893511751547
 11
441.2284201796108
 21
175.1893511751547
 72
     4
 94
        3
 73
     0
 74
     0
 95
       15
 96
       11
 40
0.0
 40
0.0
 40
0.0
 40
0.0
 40
0.2199578613106558
 40
0.3202465475123651
 40
0.4340808827708152
 40
0.5116301246390283
 40
0.634275054953107
 40
0.7077360179240892
 40
0.8337709579493377
 40
0.875782631437913
 40
0.875782631437913
 40
0.875782631437913
 40
0.875782631437913
 10
441.2284201796114
 20
175.1893511751546
 10
441.3110320868388
 20
175.1897295817867
 10
441.431310479779
 20
175.1902805210292
 10
441.497082988871
 20
175.0414958011299
 10
441.467600614252
 20
174.9457016516479
 10
441.4305388665032
 20
174.8473509170081
 10
441.3650423642999
 20
174.7805201094806
 10
441.2771364648782
 20
174.7161507757133
 10
441.1940611890843
 20
174.7083585796285
 10
441.1400300476948
 20
174.6940421604081
 10
441.1265222558816
 20
174.6904630538898
 72
     1
 10
441.1265222558816
 20
174.6904630538898
 11
440.4227276146758
 21
174.6904630538899
 97
        4
330
4E4
330
4E6
330
4E5
330
4E7
 75
     0
 76
     1
 47
0.0514683685270805
 98
        2
 10
439.7505554637109
 20
175.0030771099038
 10
439.7505554637109
 20
175.0030771099038
450
        0
451
        0
460
0.0
461
0.0
452
        0
462
0.0
453
        0
470

  0
LINE
  5
51E
102
{ACAD_REACTORS
330
521
102
}
330
18
100
AcDbEntity
  8
ROGO
 62
     4
100
AcDbLine
 10
448.1755335341921
 20
175.9147753340309
 30
0.0
 11
449.008892120454
 21
174.0388540046631
 31
0.0
  0
LINE
  5
51F
102
{ACAD_REACTORS
330
521
102
}
330
18
100
AcDbEntity
  8
ROGO
 62
     4
100
AcDbLine
 10
447.3522826397068
 20
175.4133339383855
 30
0.0
 11
447.6368646193145
 21
174.7727292643586
 31
0.0
  0
LINE
  5
520
102
{ACAD_REACTORS
330
521
102
}
330
18
100
AcDbEntity
  8
ROGO
 62
     4
100
AcDbLine
 10
447.8042147701724
 20
174.3960178190785
 30
0.0
 11
447.9628810888423
 21
174.0388540046631
 31
0.0
  0
HATCH
  5
521
330
18
100
AcDbEntity
  8
ROGO
 62
     4
100
AcDbHatch
 10
0.0
 20
0.0
 30
0.0
210
0.0
220
0.0
230
1.0
  2
SOLID
 70
     1
 71
     1
 91
        2
 92
        7
 72
     0
 73
     1
 93
        8
 10
448.1755335341921
 20
175.9147753340309
 10
446.6749571302329
 20
175.9147753340309
 10
445.3221938015198
 20
174.038854004663
 10
446.3611184467935
 20
174.0388540046631
 10
446.6186762147663
 20
174.3960178190785
 10
447.8042147701724
 20
174.3960178190785
 10
447.9628810888424
 20
174.0388540046631
 10
449.0088921204541
 20
174.0388540046632
 97
        8
330
4FA
330
4F4
330
4F9
330
4F8
330
4F6
330
520
330
4FB
330
51E
 92
       22
 72
     0
 73
     1
 93
        3
 10
447.6368646193145
 20
174.7727292643586
 10
446.8903301592592
 20
174.7727292643586
 10
447.3522826397068
 20
175.4133339383856
 97
        3
330
4F7
330
4F5
330
51F
 75
     0
 76
     1
 47
0.0128389261915577
 98
        2
 10
448.0580265449124
 20
175.4647154528751
 10
448.0580265449124
 20
175.4647154528751
450
        0
451
        0
460
0.0
461
0.0
452
        0
462
0.0
453
        0
470

  0
SPLINE
  5
522
102
{ACAD_REACTORS
330
529
102
}
330
18
100
AcDbEntity
  8
ROGO
 62
     4
100
AcDbSpline
210
0.0
220
0.0
230
1.0
 70
     8
 71
     3
 72
    38
 73
    34
 74
    32
 42
0.0000000001
 43
0.0000000001
 44
0.0000000001
 40
0.0
 40
0.0
 40
0.0
 40
0.0
 40
0.2582400211805774
 40
0.3393418442955424
 40
0.443552172800835
 40
0.530394283206717
 40
0.6036667919818254
 40
0.7009894053152177
 40
0.7507174249931042
 40
0.8067242281503032
 40
0.8892677166883521
 40
0.9827715778106668
 40
1.043426616793024
 40
1.109318337455068
 40
1.182564491755753
 40
1.293719242428883
 40
1.399327847180614
 40
1.448424760475743
 40
1.50441322219426
 40
1.570741059842362
 40
1.617957956886697
 40
1.657539314700464
 40
1.714052551848318
 40
1.776150918813051
 40
1.838248940024221
 40
1.892584795022379
 40
2.017023561310864
 40
2.066120474605993
 40
2.164314359515976
 40
2.251113385583432
 40
2.417283613623161
 40
2.622320469312984
 40
2.918423525691272
 40
2.918423525691272
 40
2.918423525691272
 40
2.918423525691272
 10
453.1155352962573
 20
175.9225999328485
 30
0.0
 10
453.029456156792
 20
175.9165190484187
 30
0.0
 10
452.9163433487618
 20
175.9085284258656
 30
0.0
 10
452.7727165308911
 20
175.8691789598585
 30
0.0
 10
452.6944240245469
 20
175.8223010749187
 30
0.0
 10
452.6129450226651
 20
175.7878435824893
 30
0.0
 10
452.5434765849723
 20
175.7368188692762
 30
0.0
 10
452.4732107268353
 20
175.7105263261427
 30
0.0
 10
452.4240084220127
 20
175.6631161713247
 30
0.0
 10
452.3670607675371
 20
175.6341560025034
 30
0.0
 10
452.321712339201
 20
175.5693347253399
 30
0.0
 10
452.2710256584413
 20
175.5087291801135
 30
0.0
 10
452.2122227321454
 20
175.4644898350029
 30
0.0
 10
452.1639623813463
 20
175.4180255793423
 30
0.0
 10
452.1196902200259
 20
175.3463172719368
 30
0.0
 10
452.0934879734955
 20
175.251038165243
 30
0.0
 10
452.0196282386252
 20
175.190882373407
 30
0.0
 10
452.0085072750778
 20
175.1185571624412
 30
0.0
 10
451.9676532033697
 20
175.075886505026
 30
0.0
 10
451.9498884241469
 20
175.0208048164759
 30
0.0
 10
451.9431227411129
 20
174.9703402603035
 30
0.0
 10
451.9350023081952
 20
174.923209858263
 30
0.0
 10
451.9137607935773
 20
174.873630757209
 30
0.0
 10
451.9206940972365
 20
174.8123875015876
 30
0.0
 10
451.9187190071763
 20
174.7530836244069
 30
0.0
 10
451.9198813499953
 20
174.6730215435333
 30
0.0
 10
451.9156862937866
 20
174.5950712622198
 30
0.0
 10
451.9491402230937
 20
174.5102428676935
 30
0.0
 10
451.9689371482407
 20
174.4346300895984
 30
0.0
 10
452.0231542481602
 20
174.3299350292392
 30
0.0
 10
452.1166776093285
 20
174.2091395667979
 30
0.0
 10
452.2945201036394
 20
174.0625167620939
 30
0.0
 10
452.4655208615812
 20
174.0476425610692
 30
0.0
 10
452.5665582083386
 20
174.038854004663
 30
0.0
 11
453.1155352962573
 21
175.9225999328485
 31
0.0
 11
452.859168672047
 21
175.8915505764894
 31
0.0
 11
452.781481834721
 21
175.8682640778503
 31
0.0
 11
452.6882579961382
 21
175.8216903890651
 31
0.0
 11
452.6105711588122
 21
175.7828792122466
 31
0.0
 11
452.5484219330904
 21
175.7440676896744
 31
0.0
 11
452.462966595136
 21
175.6974943466428
 31
0.0
 11
452.4241228712994
 21
175.6664453360372
 31
0.0
 11
452.3775106468344
 21
175.6353959796781
 31
0.0
 11
452.3231299217409
 21
175.5732979584669
 31
0.0
 11
452.2609806960191
 21
175.5034377710427
 31
0.0
 11
452.214368471554
 21
175.4646262484705
 31
0.0
 11
452.1677568574362
 21
175.4180529054389
 31
0.0
 11
452.1289131335996
 21
175.3559548842277
 31
0.0
 11
452.0823015194819
 21
175.2550453404444
 31
0.0
 11
452.0201516834127
 21
175.1696604748407
 31
0.0
 11
452.0046146821559
 21
175.1230867860555
 31
0.0
 11
451.9735400692949
 21
175.0765134430238
 31
0.0
 11
451.9502339570625
 21
175.0144150760591
 31
0.0
 11
451.9424648460867
 21
174.9678417330275
 31
0.0
 11
451.9346963454583
 21
174.9290302104554
 31
0.0
 11
451.9191593442015
 21
174.8746947012107
 31
0.0
 11
451.9191593442015
 21
174.812596334246
 31
0.0
 11
451.9191593442015
 21
174.7504983130348
 31
0.0
 11
451.9191593442015
 21
174.6961624580366
 31
0.0
 11
451.92692784483
 21
174.5719664156142
 31
0.0
 11
451.9424648460867
 21
174.5253927268291
 31
0.0
 11
451.9735400692949
 21
174.4322456950123
 31
0.0
 11
452.0123831827843
 21
174.3546229956216
 31
0.0
 11
452.1133761323428
 21
174.2226647869862
 31
0.0
 11
452.2765183076232
 21
174.0984683988102
 31
0.0
 11
452.5665582083386
 21
174.038854004663
 31
0.0
  0
SPLINE
  5
523
102
{ACAD_REACTORS
330
529
102
}
330
18
100
AcDbEntity
  8
ROGO
 62
     4
100
AcDbSpline
210
0.0
220
0.0
230
1.0
 70
     8
 71
     3
 72
    25
 73
    21
 74
     0
 42
0.0000000001
 43
0.0000000001
 40
0.0
 40
0.0
 40
0.0
 40
0.0
 40
0.4087168505087288
 40
0.6887487002771746
 40
0.9415836120477687
 40
1.17452070575514
 40
1.41154617586699
 40
1.599156012919487
 40
1.80099909059943
 40
2.178735911501585
 40
2.521686161369157
 40
2.762704659361267
 40
3.06256558063785
 40
3.222432137207705
 40
3.399493810628493
 40
3.567459719866414
 40
3.743172740007509
 40
3.995988754699505
 40
4.17170091132118
 40
4.337226830236035
 40
4.337226830236035
 40
4.337226830236035
 40
4.337226830236035
 10
454.1876121865222
 20
175.9225999328485
 30
0.0
 10
454.2579265442729
 20
175.9203408050541
 30
0.0
 10
454.3764166981566
 20
175.9165338386169
 30
0.0
 10
454.5036304961867
 20
175.8171014252233
 30
0.0
 10
454.6009708115573
 20
175.7346643362019
 30
0.0
 10
454.6700641756438
 20
175.6350017557245
 30
0.0
 10
454.730626445133
 20
175.5433673219
 30
0.0
 10
454.770532389089
 20
175.4466224438056
 30
0.0
 10
454.8248123571958
 20
175.3305374501815
 30
0.0
 10
454.8472815824061
 20
175.17523297528
 30
0.0
 10
454.832100949068
 20
175.0147114709293
 30
0.0
 10
454.7924865840717
 20
174.8724239227815
 30
0.0
 10
454.7509343002146
 20
174.7632642582898
 30
0.0
 10
454.7019599874754
 20
174.6682339983032
 30
0.0
 10
454.6435763484695
 20
174.6067018975903
 30
0.0
 10
454.603072126271
 20
174.5284644313795
 30
0.0
 10
454.5252686966748
 20
174.4644703844175
 30
0.0
 10
454.4621970398083
 20
174.3855107123403
 30
0.0
 10
454.3906238446088
 20
174.3177387861424
 30
0.0
 10
454.3502705598889
 20
174.275924324397
 30
0.0
 10
454.3289953350407
 20
174.2583432616175
 30
0.0
  0
LINE
  5
524
102
{ACAD_REACTORS
330
529
102
}
330
18
100
AcDbEntity
  8
ROGO
 62
     4
100
AcDbLine
 10
453.1155352962573
 20
175.9225999328485
 30
0.0
 11
454.1876121865222
 21
175.9225999328485
 31
0.0
  0
LINE
  5
525
102
{ACAD_REACTORS
330
529
102
}
330
18
100
AcDbEntity
  8
ROGO
 62
     4
100
AcDbLine
 10
452.5665582083386
 20
174.038854004663
 30
0.0
 11
453.6386350986034
 21
174.038854004663
 31
0.0
  0
SPLINE
  5
526
102
{ACAD_REACTORS
330
529
102
}
330
18
100
AcDbEntity
  8
ROGO
 62
     4
100
AcDbSpline
210
0.0
220
0.0
230
1.0
 70
     8
 71
     3
 72
    11
 73
     7
 74
     0
 42
0.0000000001
 43
0.0000000001
 40
0.1647869275458134
 40
0.1647869275458134
 40
0.1647869275458134
 40
0.1647869275458134
 40
0.2895635144633836
 40
0.5387013147903714
 40
0.7953622617455423
 40
0.8850764140209602
 40
0.8850764140209602
 40
0.8850764140209602
 40
0.8850764140209602
 10
453.9958028966291
 20
174.0806775002468
 30
0.0
 10
453.9758335497707
 20
174.0751190249375
 30
0.0
 10
453.9139178191506
 20
174.0652224681034
 30
0.0
 10
453.8100624375246
 20
174.0516333332843
 30
0.0
 10
453.7113530916727
 20
174.0374525753063
 30
0.0
 10
453.6535949562033
 20
174.0385656966016
 30
0.0
 10
453.6386350986035
 20
174.038854004663
 30
0.0
  0
SPLINE
  5
527
102
{ACAD_REACTORS
330
529
102
}
330
18
100
AcDbEntity
  8
ROGO
 62
     4
100
AcDbSpline
210
0.0
220
0.0
230
1.0
 70
     8
 71
     3
 72
     9
 73
     5
 74
     3
 42
0.0000000001
 43
0.0000000001
 44
0.0000000001
 40
0.0
 40
0.0
 40
0.0
 40
0.0
 40
0.1622561919360204
 40
0.3804197703110171
 40
0.3804197703110171
 40
0.3804197703110171
 40
0.3804197703110171
 10
453.9958028966291
 20
174.0806775002468
 30
0.0
 10
454.0479242799404
 20
174.0966236998514
 30
0.0
 10
454.1701261166225
 20
174.1340105602141
 30
0.0
 10
454.2710928269608
 20
174.2130281570348
 30
0.0
 10
454.3289953350407
 20
174.2583432616175
 30
0.0
 11
453.9958028966291
 21
174.0806775002468
 31
0.0
 11
454.1483039883787
 21
174.1360894920607
 31
0.0
 11
454.3289953350407
 21
174.2583432616175
 31
0.0
  0
ELLIPSE
  5
528
102
{ACAD_REACTORS
330
529
102
}
330
18
100
AcDbEntity
  8
ROGO
 62
     4
100
AcDbEllipse
 10
453.3619044314441
 20
174.9544628011071
 30
0.0
 11
0.2546924415247531
 21
0.2239701316915159
 31
0.0
210
0.0
220
0.0
230
1.0
 40
0.6788083417438792
 41
0.0
 42
6.283185307179586
  0
HATCH
  5
529
330
18
100
AcDbEntity
  8
ROGO
 62
     4
100
AcDbHatch
 10
0.0
 20
0.0
 30
0.0
210
0.0
220
0.0
230
1.0
  2
SOLID
 70
     1
 71
     1
 91
        2
 92
        5
 93
        6
 72
     4
 94
        3
 73
     0
 74
     0
 95
       38
 96
       34
 40
0.0
 40
0.0
 40
0.0
 40
0.0
 40
0.2582400211805774
 40
0.3393418442955424
 40
0.443552172800835
 40
0.530394283206717
 40
0.6036667919818254
 40
0.7009894053152177
 40
0.7507174249931042
 40
0.8067242281503032
 40
0.8892677166883521
 40
0.9827715778106668
 40
1.043426616793024
 40
1.109318337455068
 40
1.182564491755753
 40
1.293719242428883
 40
1.399327847180614
 40
1.448424760475743
 40
1.50441322219426
 40
1.570741059842362
 40
1.617957956886697
 40
1.657539314700464
 40
1.714052551848318
 40
1.776150918813051
 40
1.838248940024221
 40
1.892584795022379
 40
2.017023561310864
 40
2.066120474605993
 40
2.164314359515976
 40
2.251113385583432
 40
2.417283613623161
 40
2.622320469312984
 40
2.918423525691272
 40
2.918423525691272
 40
2.918423525691272
 40
2.918423525691272
 10
453.1155352962573
 20
175.9225999328485
 10
453.0294561567922
 20
175.9165190484187
 10
452.9163433487621
 20
175.9085284258656
 10
452.7727165308911
 20
175.8691789598585
 10
452.694424024547
 20
175.8223010749187
 10
452.6129450226651
 20
175.7878435824894
 10
452.5434765849723
 20
175.7368188692762
 10
452.4732107268353
 20
175.7105263261427
 10
452.4240084220127
 20
175.6631161713247
 10
452.3670607675373
 20
175.6341560025034
 10
452.3217123392009
 20
175.5693347253399
 10
452.2710256584414
 20
175.5087291801136
 10
452.2122227321454
 20
175.4644898350028
 10
452.1639623813463
 20
175.4180255793423
 10
452.1196902200259
 20
175.3463172719368
 10
452.0934879734954
 20
175.251038165243
 10
452.0196282386252
 20
175.190882373407
 10
452.0085072750778
 20
175.1185571624412
 10
451.9676532033698
 20
175.0758865050259
 10
451.949888424147
 20
175.020804816476
 10
451.9431227411129
 20
174.9703402603034
 10
451.9350023081952
 20
174.9232098582631
 10
451.9137607935773
 20
174.873630757209
 10
451.9206940972365
 20
174.8123875015876
 10
451.9187190071763
 20
174.7530836244069
 10
451.9198813499951
 20
174.6730215435333
 10
451.9156862937866
 20
174.5950712622198
 10
451.9491402230937
 20
174.5102428676935
 10
451.9689371482407
 20
174.4346300895984
 10
452.0231542481602
 20
174.3299350292392
 10
452.1166776093285
 20
174.2091395667979
 10
452.2945201036393
 20
174.0625167620939
 10
452.4655208615812
 20
174.0476425610692
 10
452.5665582083386
 20
174.038854004663
 72
     1
 10
452.5665582083387
 20
174.038854004663
 11
453.638635098604
 21
174.038854004663
 72
     4
 94
        3
 73
     0
 74
     0
 95
       11
 96
        7
 40
0.1647869275458135
 40
0.1647869275458135
 40
0.1647869275458135
 40
0.1647869275458135
 40
0.2545010798212315
 40
0.5111620267764023
 40
0.7602998271033902
 40
0.8850764140209603
 40
0.8850764140209603
 40
0.8850764140209603
 40
0.8850764140209603
 10
453.6386350986035
 20
174.038854004663
 10
453.6535949562033
 20
174.0385656966016
 10
453.7113530916727
 20
174.0374525753063
 10
453.8100624375246
 20
174.0516333332843
 10
453.9139178191506
 20
174.0652224681034
 10
453.9758335497707
 20
174.0751190249375
 10
453.9958028966291
 20
174.0806775002468
 72
     4
 94
        3
 73
     0
 74
     0
 95
        9
 96
        5
 40
0.0
 40
0.0
 40
0.0
 40
0.0
 40
0.1622561919360204
 40
0.3804197703110171
 40
0.3804197703110171
 40
0.3804197703110171
 40
0.3804197703110171
 10
453.9958028966291
 20
174.0806775002468
 10
454.0479242799404
 20
174.0966236998514
 10
454.1701261166225
 20
174.1340105602142
 10
454.2710928269608
 20
174.2130281570348
 10
454.3289953350407
 20
174.2583432616175
 72
     4
 94
        3
 73
     0
 74
     0
 95
       25
 96
       21
 40
0.0
 40
0.0
 40
0.0
 40
0.0
 40
0.165525918914855
 40
0.3412380755365305
 40
0.5940540902285263
 40
0.7697671103696209
 40
0.9377330196075423
 40
1.11479469302833
 40
1.274661249598185
 40
1.574522170874768
 40
1.815540668866877
 40
2.15849091873445
 40
2.536227739636605
 40
2.738070817316548
 40
2.925680654369045
 40
3.162706124480894
 40
3.395643218188267
 40
3.648478129958861
 40
3.928509979727306
 40
4.337226830236035
 40
4.337226830236035
 40
4.337226830236035
 40
4.337226830236035
 10
454.3289953350407
 20
174.2583432616175
 10
454.3502705598889
 20
174.275924324397
 10
454.3906238446088
 20
174.3177387861424
 10
454.4621970398083
 20
174.3855107123403
 10
454.5252686966748
 20
174.4644703844175
 10
454.603072126271
 20
174.5284644313795
 10
454.6435763484695
 20
174.6067018975903
 10
454.7019599874754
 20
174.6682339983032
 10
454.7509343002146
 20
174.7632642582898
 10
454.7924865840717
 20
174.8724239227815
 10
454.832100949068
 20
175.0147114709293
 10
454.8472815824061
 20
175.17523297528
 10
454.8248123571958
 20
175.3305374501815
 10
454.770532389089
 20
175.4466224438056
 10
454.730626445133
 20
175.5433673219
 10
454.6700641756438
 20
175.6350017557245
 10
454.6009708115573
 20
175.7346643362019
 10
454.5036304961867
 20
175.8171014252233
 10
454.3764166981566
 20
175.9165338386169
 10
454.2579265442729
 20
175.9203408050541
 10
454.1876121865222
 20
175.9225999328485
 72
     1
 10
454.1876121865223
 20
175.9225999328485
 11
453.1155352962573
 21
175.9225999328485
 97
        6
330
523
330
524
330
522
330
525
330
526
330
527
 92
       20
 93
        1
 72
     3
 10
453.3619044314441
 20
174.9544628011071
 11
0.2546924415247531
 21
0.2239701316915159
 40
0.6788083417438792
 50
0.0
 51
360.0
 73
     1
 97
        1
330
528
 75
     0
 76
     1
 47
0.088756267210375
 98
        2
 10
453.4368062539708
 20
175.4023017587128
 10
453.4368062539708
 20
175.4023017587128
450
        0
451
        0
460
0.0
461
0.0
452
        0
462
0.0
453
        0
470

  0
TEXT
  5
547
330
18
100
AcDbEntity
  8
文字
100
AcDbText
 10
382.4650905150035
 20
240.1057643975658
 30
0.0
 40
1.0
  1
0.1mm
  7
STYLE3
100
AcDbText
  0
HATCH
  5
548
330
18
100
AcDbEntity
  8
ROGO
 62
     4
100
AcDbHatch
 10
0.0
 20
0.0
 30
0.0
210
0.0
220
0.0
230
1.0
  2
SOLID
 70
     1
 71
     1
 91
        1
 92
        7
 72
     0
 73
     1
 93
       11
 10
382.2609134748427
 20
247.9099466317724
 10
383.0169972173469
 20
247.9099466317724
 10
383.2840465065125
 20
248.4455101938918
 10
383.5510957956783
 20
247.9099466317724
 10
384.3071629956781
 20
247.9099466317724
 10
383.7955964798433
 20
248.9358860242254
 10
385.0385052251745
 20
249.9618254166783
 10
384.2824380251746
 20
249.9618254166784
 10
383.9284249420956
 20
249.7378020078567
 10
384.0401302490167
 20
249.9618254166783
 10
383.2840465065125
 20
249.9618254166783
 97
       11
330
61D
330
620
330
621
330
54A
330
5DC
330
5A4
330
5DB
330
549
330
61C
330
61F
330
61E
 75
     0
 76
     1
 47
0.0514683685270805
 98
        1
 10
383.2189752601087
 20
249.0815294332368
450
        0
451
        0
460
0.0
461
0.0
452
        0
462
0.0
453
        0
470

  0
LINE
  5
549
102
{ACAD_REACTORS
330
548
102
}
330
18
100
AcDbEntity
  8
ROGO
 62
     4
100
AcDbLine
 10
383.2840465065125
 20
248.4455101938919
 30
0.0
 11
383.5510957956783
 21
247.9099466317724
 31
0.0
  0
LINE
  5
54A
102
{ACAD_REACTORS
330
548
102
}
330
18
100
AcDbEntity
  8
ROGO
 62
     4
100
AcDbLine
 10
383.2840465065125
 20
249.9618254166783
 30
0.0
 11
384.0401302490167
 21
249.9618254166783
 31
0.0
  0
LINE
  5
54B
330
18
100
AcDbEntity
  8
目盛
100
AcDbLine
 10
383.9178374758816
 20
262.4711586503603
 30
0.0
 11
382.9907864927566
 21
259.6179891014748
 31
0.0
  0
LINE
  5
54C
330
18
100
AcDbEntity
  8
目盛
100
AcDbLine
 10
383.9178374758814
 20
218.7225589007833
 30
0.0
 11
382.9907864927566
 21
221.5757284496687
 31
0.0
  0
CIRCLE
  5
54D
330
18
100
AcDbEntity
  8
外形線
100
AcDbCircle
 10
376.8104466052576
 20
240.5968587755718
 30
0.0
 40
23.0
  0
CIRCLE
  5
54E
330
18
100
AcDbEntity
  8
外形線
100
AcDbCircle
 10
376.8104466052576
 20
240.5968587755718
 30
0.0
 40
15.5
  0
LINE
  5
54F
330
18
100
AcDbEntity
  8
中心線
 48
0.2
100
AcDbLine
 10
373.6104466052576
 20
238.3860947827797
 30
0.0
 11
373.6104466052576
 21
222.6965007607441
 31
0.0
  0
LINE
  5
550
330
18
100
AcDbEntity
  8
目盛
100
AcDbLine
 10
363.2913858025307
 20
221.989467904948
 30
0.0
 11
365.0547415594081
 21
224.4165188880728
 31
0.0
  0
LINE
  5
551
330
18
100
AcDbEntity
  8
目盛
100
AcDbLine
 10
362.1496948410377
 20
222.8750541917286
 30
0.0
 11
363.424542820535
 21
224.4160806772802
 31
0.0
  0
LINE
  5
552
330
18
100
AcDbEntity
  8
目盛
100
AcDbLine
 10
361.0658631688977
 20
223.8305803448793
 30
0.0
 11
362.4349573807551
 21
225.2885175997221
 31
0.0
  0
LINE
  5
553
330
18
100
AcDbEntity
  8
目盛
100
AcDbLine
 10
364.4864303207406
 20
221.1773164890254
 30
0.0
 11
365.5580839106986
 21
222.8659723400295
 31
0.0
  0
LINE
  5
554
330
18
100
AcDbEntity
  8
目盛
100
AcDbLine
 10
369.7030557346338
 20
218.7225589007833
 30
0.0
 11
370.6301067177587
 21
221.5757284496687
 31
0.0
  0
LINE
  5
555
330
18
100
AcDbEntity
  8
目盛
100
AcDbLine
 10
368.34358189351
 20
219.211999600142
 30
0.0
 11
369.0798309988793
 21
221.0715525719185
 31
0.0
  0
LINE
  5
556
330
18
100
AcDbEntity
  8
目盛
100
AcDbLine
 10
367.017522899261
 20
219.7858365688534
 30
0.0
 11
367.8690814823911
 21
221.5954906737855
 31
0.0
  0
LINE
  5
557
330
18
100
AcDbEntity
  8
目盛
100
AcDbLine
 10
365.7301121009183
 20
220.441805134563
 30
0.0
 11
366.6936194491216
 21
222.1944184946507
 31
0.0
  0
TEXT
  5
558
330
18
100
AcDbEntity
  8
文字
100
AcDbText
 10
375.6797801892124
 20
221.1960990926594
 30
0.0
 40
2.0
  1
5
  7
STYLE3
100
AcDbText
  0
LINE
  5
559
330
18
100
AcDbEntity
  8
目盛
100
AcDbLine
 10
376.8104466052576
 20
220.5968587755718
 30
0.0
 11
376.8104466052576
 21
217.5968587755718
 31
0.0
  0
LINE
  5
55A
330
18
100
AcDbEntity
  8
目盛
100
AcDbLine
 10
375.3662646560834
 20
217.6422440217216
 30
0.0
 11
375.491845695142
 21
219.6382974785781
 31
0.0
  0
LINE
  5
55B
330
18
100
AcDbEntity
  8
目盛
100
AcDbLine
 10
373.9277822332786
 20
217.7782206453388
 30
0.0
 11
374.1784487004073
 21
219.7624500479678
 31
0.0
  0
LINE
  5
55C
330
18
100
AcDbEntity
  8
目盛
100
AcDbLine
 10
372.5006763697859
 20
218.004252008812
 30
0.0
 11
372.8754389989575
 21
219.9688265102694
 31
0.0
  0
LINE
  5
55D
330
18
100
AcDbEntity
  8
目盛
100
AcDbLine
 10
371.090579200466
 20
218.3194460696133
 30
0.0
 11
371.5879589747956
 21
220.2566123918706
 31
0.0
  0
LINE
  5
55E
330
18
100
AcDbEntity
  8
目盛
100
AcDbLine
 10
382.5303140100491
 20
218.3194460696133
 30
0.0
 11
382.0329342357196
 21
220.2566123918706
 31
0.0
  0
LINE
  5
55F
330
18
100
AcDbEntity
  8
目盛
100
AcDbLine
 10
381.1202168407293
 20
218.004252008812
 30
0.0
 11
380.7454542115578
 21
219.9688265102694
 31
0.0
  0
LINE
  5
560
330
18
100
AcDbEntity
  8
目盛
100
AcDbLine
 10
379.6931109772366
 20
217.7782206453388
 30
0.0
 11
379.4424445101079
 21
219.7624500479678
 31
0.0
  0
LINE
  5
561
330
18
100
AcDbEntity
  8
目盛
100
AcDbLine
 10
378.2546285544318
 20
217.6422440217216
 30
0.0
 11
378.1290475153731
 21
219.6382974785781
 31
0.0
  0
TEXT
  5
564
330
18
100
AcDbEntity
  8
文字
100
AcDbText
 10
358.3874695203893
 20
245.6638843475213
 30
0.0
 40
2.0
  1
8
  7
STYLE3
100
AcDbText
  0
TEXT
  5
565
330
18
100
AcDbEntity
  8
文字
100
AcDbText
 10
358.2817871655475
 20
233.5144326755774
 30
0.0
 40
2.0
  1
7
  7
STYLE3
100
AcDbText
  0
LINE
  5
566
330
18
100
AcDbEntity
  8
目盛
100
AcDbLine
 10
358.2030557346338
 20
227.0777979728449
 30
0.0
 11
360.6301067177586
 21
228.8411537297224
 31
0.0
  0
LINE
  5
567
330
18
100
AcDbEntity
  8
目盛
100
AcDbLine
 10
357.3909043187112
 20
228.2728424910549
 30
0.0
 11
359.0795601697153
 21
229.3444960810129
 31
0.0
  0
LINE
  5
568
330
18
100
AcDbEntity
  8
目盛
100
AcDbLine
 10
357.3909043187112
 20
252.9208750600887
 30
0.0
 11
359.0795601697153
 21
251.8492214701308
 31
0.0
  0
LINE
  5
569
330
18
100
AcDbEntity
  8
目盛
100
AcDbLine
 10
358.2030557346337
 20
254.1159195782987
 30
0.0
 11
360.6301067177586
 21
252.3525638214213
 31
0.0
  0
LINE
  5
56A
330
18
100
AcDbEntity
  8
目盛
100
AcDbLine
 10
354.533033899299
 20
234.8769913707802
 30
0.0
 11
356.4702002215564
 21
235.3743711451099
 31
0.0
  0
LINE
  5
56B
330
18
100
AcDbEntity
  8
目盛
100
AcDbLine
 10
356.6553929642487
 20
229.5165242712323
 30
0.0
 11
358.4080063243364
 21
230.4800316194357
 31
0.0
  0
LINE
  5
56C
330
18
100
AcDbEntity
  8
目盛
100
AcDbLine
 10
355.9994243985391
 20
230.8039350695752
 30
0.0
 11
357.8090785034711
 21
231.6554936527053
 31
0.0
  0
LINE
  5
56D
330
18
100
AcDbEntity
  8
目盛
100
AcDbLine
 10
355.4255874298278
 20
232.1299940638242
 30
0.0
 11
357.2851404016042
 21
232.8662431691935
 31
0.0
  0
LINE
  5
56E
330
18
100
AcDbEntity
  8
目盛
100
AcDbLine
 10
354.9361467304692
 20
233.489467904948
 30
0.0
 11
357.7893162793544
 21
234.4165188880729
 31
0.0
  0
LINE
  5
56F
330
18
100
AcDbEntity
  8
目盛
100
AcDbLine
 10
353.8104466052576
 20
240.5968587755718
 30
0.0
 11
356.8104466052576
 21
240.5968587755718
 31
0.0
  0
LINE
  5
570
330
18
100
AcDbEntity
  8
目盛
100
AcDbLine
 10
354.2178398384977
 20
236.2870885401002
 30
0.0
 11
356.182414339955
 21
236.6618511692716
 31
0.0
  0
LINE
  5
571
330
18
100
AcDbEntity
  8
目盛
100
AcDbLine
 10
353.9918084750246
 20
237.7141944035928
 30
0.0
 11
355.9760378776536
 21
237.9648608707214
 31
0.0
  0
LINE
  5
572
330
18
100
AcDbEntity
  8
目盛
100
AcDbLine
 10
353.8558318514072
 20
239.1526768263976
 30
0.0
 11
355.8518853082638
 21
239.2782578654562
 31
0.0
  0
LINE
  5
573
330
18
100
AcDbEntity
  8
目盛
100
AcDbLine
 10
353.8558318514072
 20
242.0410407247461
 30
0.0
 11
355.8518853082638
 21
241.9154596856874
 31
0.0
  0
LINE
  5
574
330
18
100
AcDbEntity
  8
目盛
100
AcDbLine
 10
353.9918084750246
 20
243.4795231475508
 30
0.0
 11
355.9760378776535
 21
243.2288566804222
 31
0.0
  0
LINE
  5
575
330
18
100
AcDbEntity
  8
目盛
100
AcDbLine
 10
354.2178398384977
 20
244.9066290110435
 30
0.0
 11
356.1824143399551
 21
244.531866381872
 31
0.0
  0
LINE
  5
576
330
18
100
AcDbEntity
  8
目盛
100
AcDbLine
 10
354.533033899299
 20
246.3167261803635
 30
0.0
 11
356.4702002215564
 21
245.8193464060338
 31
0.0
  0
LINE
  5
577
330
18
100
AcDbEntity
  8
目盛
100
AcDbLine
 10
354.9361467304689
 20
247.7042496461956
 30
0.0
 11
357.7893162793544
 21
246.7771986630708
 31
0.0
  0
LINE
  5
578
330
18
100
AcDbEntity
  8
目盛
100
AcDbLine
 10
355.4255874298277
 20
249.0637234873194
 30
0.0
 11
357.2851404016042
 21
248.3274743819501
 31
0.0
  0
LINE
  5
579
330
18
100
AcDbEntity
  8
目盛
100
AcDbLine
 10
355.9994243985391
 20
250.3897824815685
 30
0.0
 11
357.8090785034711
 21
249.5382238984383
 31
0.0
  0
LINE
  5
57A
330
18
100
AcDbEntity
  8
目盛
100
AcDbLine
 10
356.6553929642487
 20
251.6771932799113
 30
0.0
 11
358.4080063243364
 21
250.7136859317078
 31
0.0
  0
HATCH
  5
57B
330
18
100
AcDbEntity
  8
針
  6
Continuous
100
AcDbHatch
 10
0.0
 20
0.0
 30
0.0
210
0.0
220
0.0
230
1.0
  2
SOLID
 70
     1
 71
     0
 91
        1
 92
        1
 93
        3
 72
     1
 10
376.8104466052576
 20
263.5968587755718
 11
377.3104466052576
 21
242.0110723379449
 72
     2
 10
376.8104466052576
 20
240.5968587755718
 40
1.5
 50
70.52877936551252
 51
109.4712206344913
 73
     1
 72
     1
 10
376.3104466052575
 20
242.0110723379449
 11
376.8104466052575
 21
263.5968587755709
 97
        0
 75
     0
 76
     1
 98
        1
 10
149.2580258557914
 20
254.8524540058045
450
        0
451
        0
460
0.0
461
0.0
452
        0
462
0.0
453
        0
470

  0
LINE
  5
57C
330
18
100
AcDbEntity
  8
針
  6
Continuous
100
AcDbLine
 10
376.8104466052576
 20
263.5968587755709
 30
0.0
 11
376.3104466052575
 21
242.0110723379449
 31
0.0
  0
LINE
  5
57D
330
18
100
AcDbEntity
  8
針
  6
Continuous
100
AcDbLine
 10
376.8104466052576
 20
263.5968587755718
 30
0.0
 11
377.3104466052576
 21
242.0110723379449
 31
0.0
  0
LINE
  5
57E
330
18
100
AcDbEntity
  8
目盛
100
AcDbLine
 10
370.8184666568682
 20
226.6800566407769
 30
0.0
 11
371.1123592830144
 21
227.0845651379644
 31
0.0
  0
LINE
  5
57F
330
18
100
AcDbEntity
  8
目盛
100
AcDbLine
 10
370.8184666568682
 20
234.3657180873389
 30
0.0
 11
371.1123592830146
 21
233.9612095901514
 31
0.0
  0
LINE
  5
580
330
18
100
AcDbEntity
  8
中心線
 48
0.2
100
AcDbLine
 10
366.6511714183278
 20
230.5228873640579
 30
0.0
 11
381.179158866308
 21
230.5228873640579
 31
0.0
  0
CIRCLE
  5
581
330
18
100
AcDbEntity
  8
外形線
100
AcDbCircle
 10
373.6104466052576
 20
230.5228873640579
 30
0.0
 40
4.75
  0
TEXT
  5
582
330
18
100
AcDbEntity
  8
文字
100
AcDbText
 10
364.6606436320935
 20
224.8794038615524
 30
0.0
 40
2.0
  1
6
  7
STYLE3
100
AcDbText
  0
LINE
  5
583
330
18
100
AcDbEntity
  8
目盛
100
AcDbLine
 10
360.0441681745652
 20
224.8522753392119
 30
0.0
 11
361.502105429408
 21
226.2213695510693
 31
0.0
  0
LINE
  5
584
330
18
100
AcDbEntity
  8
目盛
100
AcDbLine
 10
359.0886420214144
 20
225.936107011352
 30
0.0
 11
360.629668506966
 21
227.2109549908494
 31
0.0
  0
TEXT
  5
585
330
18
100
AcDbEntity
  8
文字
100
AcDbText
 10
369.7824439403342
 20
231.2375536716039
 30
0.0
 40
0.7
  1
20
  7
STYLE3
100
AcDbText
  0
TEXT
  5
586
330
18
100
AcDbEntity
  8
文字
100
AcDbText
 10
369.7532009363007
 20
229.0159079563669
 30
0.0
 40
0.7
  1
30
  7
STYLE3
100
AcDbText
  0
LINE
  5
587
330
18
100
AcDbEntity
  8
目盛
100
AcDbLine
 10
369.0929281528554
 20
229.0550566407769
 30
0.0
 11
369.5684564110031
 21
229.2095651379644
 31
0.0
  0
LINE
  5
588
330
18
100
AcDbEntity
  8
目盛
100
AcDbLine
 10
369.0929281528554
 20
231.9907180873389
 30
0.0
 11
369.5684564110032
 21
231.8362095901514
 31
0.0
  0
HATCH
  5
589
330
18
100
AcDbEntity
  8
針
100
AcDbHatch
 10
0.0
 20
0.0
 30
0.0
210
0.0
220
0.0
230
1.0
  2
SOLID
 70
     1
 71
     0
 91
        3
 92
        7
 72
     1
 73
     1
 93
        5
 10
373.8104466052575
 20
235.2686749699248
 42
0.0105298176880202
 10
373.6104466052576
 20
235.2728873640579
 42
0.0
 10
373.6104466052576
 20
234.7728873640579
 42
0.0
 10
373.6104466052576
 20
231.6728873640579
 42
-0.0437283108272093
 10
373.8104466052575
 20
231.6553625293485
 42
0.0
 97
        0
 92
        7
 72
     1
 73
     1
 93
        4
 10
373.6104466052576
 20
235.2728873640579
 42
0.0105298176880232
 10
373.4104466052575
 20
235.2686749699248
 42
0.0
 10
373.4104466052575
 20
231.6553625293485
 42
-0.0437283108272093
 10
373.6104466052576
 20
231.6728873640579
 42
0.0
 97
        0
 92
      137
 93
        4
 72
     1
 10
373.0169273089844
 20
233.3006612925327
 11
374.183593975651
 21
233.3006612925327
 72
     1
 10
374.183593975651
 20
233.3006612925327
 11
374.183593975651
 21
234.8006612925328
 72
     1
 10
374.183593975651
 20
234.8006612925328
 11
373.0169273089844
 21
234.8006612925328
 72
     1
 10
373.0169273089844
 20
234.8006612925328
 11
373.0169273089844
 21
233.3006612925327
 97
        0
 75
     0
 76
     1
 47
0.0128177587452554
 98
        3
 10
373.7591491601889
 20
232.2066666132053
 10
373.6821790781702
 20
233.4115363009534
 10
373.5025819524232
 20
233.3602651342531
450
        0
451
        0
460
0.0
461
0.0
452
        0
462
0.0
453
        0
470

  0
LINE
  5
58A
330
18
100
AcDbEntity
  8
針
 48
0.2
100
AcDbLine
 10
373.4104466052575
 20
235.2686749699248
 30
0.0
 11
373.4104466052575
 21
231.6553625293485
 31
0.0
  0
LINE
  5
58B
330
18
100
AcDbEntity
  8
針
 48
0.2
100
AcDbLine
 10
373.8104466052575
 20
235.2686749699248
 30
0.0
 11
373.8104466052575
 21
231.6553625293485
 31
0.0
  0
LINE
  5
58C
330
18
100
AcDbEntity
  8
目盛
100
AcDbLine
 10
373.6104466052576
 20
235.2728873640579
 30
0.0
 11
373.6104466052576
 21
234.7728873640579
 31
0.0
  0
TEXT
  5
58D
330
18
100
AcDbEntity
  8
文字
100
AcDbText
 10
376.2118639774344
 20
228.9043864728376
 30
0.0
 40
0.7
  1
70
  7
STYLE3
100
AcDbText
  0
TEXT
  5
58E
330
18
100
AcDbEntity
  8
文字
100
AcDbText
 10
376.1277451260783
 20
231.0844254383976
 30
0.0
 40
0.7
  1
80
  7
STYLE3
100
AcDbText
  0
TEXT
  5
58F
330
18
100
AcDbEntity
  8
文字
100
AcDbText
 10
371.0808809914621
 20
233.0191235814872
 30
0.0
 40
0.7
  1
10
  7
STYLE3
100
AcDbText
  0
TEXT
  5
590
330
18
100
AcDbEntity
  8
文字
100
AcDbText
 10
371.0508487088508
 20
227.2189189968592
 30
0.0
 40
0.7
  1
40
  7
STYLE3
100
AcDbText
  0
TEXT
  5
591
330
18
100
AcDbEntity
  8
文字
100
AcDbText
 10
372.9481894782869
 20
226.620592749967
 30
0.0
 40
0.7
  1
50
  7
STYLE3
100
AcDbText
  0
TEXT
  5
592
330
18
100
AcDbEntity
  8
文字
100
AcDbText
 10
375.0193483598214
 20
227.3002667335484
 30
0.0
 40
0.7
  1
60
  7
STYLE3
100
AcDbText
  0
TEXT
  5
593
330
18
100
AcDbEntity
  8
文字
100
AcDbText
 10
375.0220342956199
 20
232.9685176697134
 30
0.0
 40
0.7
  1
90
  7
STYLE3
100
AcDbText
  0
TEXT
  5
594
330
18
100
AcDbEntity
  8
文字
100
AcDbText
 10
373.2715747247263
 20
233.5712593888108
 30
0.0
 40
0.7
  1
0
  7
STYLE3
100
AcDbText
  0
CIRCLE
  5
595
330
18
100
AcDbEntity
  8
外形線
100
AcDbCircle
 10
373.6104466052576
 20
230.5228873640579
 30
0.0
 40
1.149999999999999
  0
LINE
  5
596
330
18
100
AcDbEntity
  8
目盛
100
AcDbLine
 10
376.4024265536467
 20
234.3657180873389
 30
0.0
 11
376.1085339275006
 21
233.9612095901514
 31
0.0
  0
LINE
  5
597
330
18
100
AcDbEntity
  8
目盛
100
AcDbLine
 10
376.4024265536469
 20
226.6800566407769
 30
0.0
 11
376.1085339275006
 21
227.0845651379644
 31
0.0
  0
LINE
  5
598
330
18
100
AcDbEntity
  8
目盛
100
AcDbLine
 10
373.6104466052576
 20
225.7728873640579
 30
0.0
 11
373.6104466052576
 21
226.2728873640579
 31
0.0
  0
LINE
  5
599
330
18
100
AcDbEntity
  8
目盛
100
AcDbLine
 10
378.1279650576594
 20
231.9907180873389
 30
0.0
 11
377.6524367995119
 21
231.8362095901514
 31
0.0
  0
LINE
  5
59A
330
18
100
AcDbEntity
  8
目盛
100
AcDbLine
 10
378.1279650576594
 20
229.0550566407769
 30
0.0
 11
377.6524367995119
 21
229.2095651379644
 31
0.0
  0
CIRCLE
  5
59B
330
18
100
AcDbEntity
  8
外形線
100
AcDbCircle
 10
376.8104466052576
 20
240.5968587755718
 30
0.0
 40
1.5
  0
POINT
  5
59C
330
18
100
AcDbEntity
  8
DEFPOINTS
  6
ByBlock
 62
     0
100
AcDbPoint
 10
376.8104466052575
 20
240.5968587755718
 30
0.0
  0
POINT
  5
59D
330
18
100
AcDbEntity
  8
DEFPOINTS
  6
ByBlock
 62
     0
100
AcDbPoint
 10
376.8104466052575
 20
240.5968587755718
 30
0.0
  0
HATCH
  5
59E
330
18
100
AcDbEntity
  8
ROGO
 62
     4
100
AcDbHatch
 10
0.0
 20
0.0
 30
0.0
210
0.0
220
0.0
230
1.0
  2
SOLID
 70
     1
 71
     1
 91
        2
 92
        5
 93
        6
 72
     1
 10
369.1278199503231
 20
247.9099466317724
 11
370.0816209062596
 21
247.9099466317723
 72
     1
 10
370.0816209062596
 20
247.9099466317723
 11
370.4158450570881
 21
248.6486804861209
 72
     1
 10
370.4158450570881
 20
248.6486804861209
 11
371.3074533252605
 21
248.6486804861208
 72
     4
 94
        3
 73
     0
 74
     0
 95
       18
 96
       14
 40
0.108740278791501
 40
0.108740278791501
 40
0.108740278791501
 40
0.108740278791501
 40
0.6623149649549278
 40
1.384304701649787
 40
2.097394834876493
 40
2.774073369849618
 40
3.428974823686337
 40
4.005208313035923
 40
4.455173659284313
 40
4.720999734343524
 40
5.086034088486724
 40
5.569973738255373
 40
6.060470601257719
 40
6.060470601257719
 40
6.060470601257719
 40
6.060470601257719
 10
371.3074533252602
 20
248.6486804861208
 10
371.3702032421549
 20
248.649147765752
 10
371.5147935992085
 20
248.6502244863606
 10
371.7170743773157
 20
248.7582873228559
 10
371.9088943504087
 20
248.8959515031977
 10
372.0633922894901
 20
249.0679485339995
 10
372.1596491603663
 20
249.2645976715202
 10
372.1745590454133
 20
249.4530678070919
 10
372.1654569269024
 20
249.6021453412484
 10
372.1004177183594
 20
249.7060560835512
 10
372.0328015244346
 20
249.811514860724
 10
371.9088162888875
 20
249.9028671705154
 10
371.807228341037
 20
249.9428930618307
 10
371.7555688034009
 20
249.9618254166784
 72
     1
 10
371.7555688034011
 20
249.9618254166783
 11
370.1430704904158
 21
249.9618254166783
 72
     1
 10
370.1430704904158
 20
249.9618254166783
 11
369.1278199503231
 21
247.9099466317724
 97
        6
330
5D1
330
5A5
330
5AC
330
5A4
330
5AA
330
5A3
 92
       20
 93
        4
 72
     1
 10
370.6222095493982
 20
249.1048068205795
 11
370.7802073457556
 21
249.454028505465
 72
     1
 10
370.7802073457556
 20
249.454028505465
 11
371.186194344853
 21
249.454028505465
 72
     4
 94
        3
 73
     0
 74
     0
 95
       15
 96
       11
 40
0.0
 40
0.0
 40
0.0
 40
0.0
 40
0.4399157226213117
 40
0.6404930950247764
 40
0.8681617655417579
 40
1.023260249278236
 40
1.268550109906271
 40
1.415472035848321
 40
1.667541915898791
 40
1.751565262875804
 40
1.751565262875804
 40
1.751565262875804
 40
1.751565262875804
 10
371.1861943448531
 20
249.454028505465
 10
371.2440226799123
 20
249.4542933901074
 10
371.3282175549704
 20
249.4546790475771
 10
371.3742583113349
 20
249.3505297436476
 10
371.3536206491014
 20
249.2834738390102
 10
371.3276774256774
 20
249.2146283247624
 10
371.281829874135
 20
249.1678467594931
 10
371.2202957445398
 20
249.122788225856
 10
371.1621430514841
 20
249.1173336885966
 10
371.1243212525115
 20
249.1073121951424
 10
371.1148657982422
 20
249.1048068205796
 72
     1
 10
371.1148657982421
 20
249.1048068205796
 11
370.6222095493982
 21
249.1048068205795
 97
        4
330
5AB
330
5A2
330
5D0
330
5A1
 75
     0
 76
     1
 47
0.0514683685270805
 98
        2
 10
370.1516890437227
 20
249.3236366597894
 10
370.1516890437227
 20
249.3236366597894
450
        0
451
        0
460
0.0
461
0.0
452
        0
462
0.0
453
        0
470

  0
HATCH
  5
59F
330
18
100
AcDbEntity
  8
ROGO
 62
     4
100
AcDbHatch
 10
0.0
 20
0.0
 30
0.0
210
0.0
220
0.0
230
1.0
  2
SOLID
 70
     1
 71
     1
 91
        1
 92
        7
 72
     0
 73
     1
 93
        4
 10
370.1746719416816
 20
248.1156168380636
 10
370.0816209062596
 20
247.9099466317724
 10
382.2609134748427
 20
247.9099466317723
 10
382.3634672822288
 20
248.1156168380636
 97
        4
330
5A0
330
5AA
330
5A4
330
5DC
 75
     0
 76
     1
 47
0.0514683685270805
 98
        1
 10
377.8709072025699
 20
248.0612203738588
450
        0
451
        0
460
0.0
461
0.0
452
        0
462
0.0
453
        0
470

  0
LINE
  5
5A0
102
{ACAD_REACTORS
330
59F
102
}
330
18
100
AcDbEntity
  8
ROGO
 62
     4
100
AcDbLine
 10
370.1604084947649
 20
248.1156168380636
 30
0.0
 11
382.3634672822288
 21
248.1156168380636
 31
0.0
  0
LINE
  5
5A1
102
{ACAD_REACTORS
330
59E
102
}
330
18
100
AcDbEntity
  8
ROGO
 62
     4
100
AcDbLine
 10
371.1148657982423
 20
249.1048068205796
 30
0.0
 11
370.6222095493982
 21
249.1048068205796
 31
0.0
  0
LINE
  5
5A2
102
{ACAD_REACTORS
330
59E
102
}
330
18
100
AcDbEntity
  8
ROGO
 62
     4
100
AcDbLine
 10
371.1861943448531
 20
249.454028505465
 30
0.0
 11
370.7802073457556
 21
249.454028505465
 31
0.0
  0
LINE
  5
5A3
102
{ACAD_REACTORS
330
59E
102
}
330
18
100
AcDbEntity
  8
ROGO
 62
     4
100
AcDbLine
 10
371.3074533255693
 20
248.6486804861208
 30
0.0
 11
370.4158450570881
 21
248.6486804861208
 31
0.0
  0
LINE
  5
5A4
102
{ACAD_REACTORS
330
59F
330
548
330
59E
102
}
330
18
100
AcDbEntity
  8
ROGO
 62
     4
100
AcDbLine
 10
369.1278199503231
 20
247.9099466317724
 30
0.0
 11
383.0169972173469
 21
247.9099466317724
 31
0.0
  0
LINE
  5
5A5
102
{ACAD_REACTORS
330
59E
102
}
330
18
100
AcDbEntity
  8
ROGO
 62
     4
100
AcDbLine
 10
370.1430704904158
 20
249.9618254166783
 30
0.0
 11
371.7555688034009
 21
249.9618254166783
 31
0.0
  0
TEXT
  5
5A6
330
18
100
AcDbEntity
  8
文字
100
AcDbText
 10
365.0935225685249
 20
254.6142521042292
 30
0.0
 40
2.0
  1
9
  7
STYLE3
100
AcDbText
  0
LINE
  5
5A7
330
18
100
AcDbEntity
  8
目盛
100
AcDbLine
 10
361.0658631688978
 20
257.3631372062644
 30
0.0
 11
362.4349573807552
 21
255.9051999514216
 31
0.0
  0
LINE
  5
5A8
330
18
100
AcDbEntity
  8
目盛
100
AcDbLine
 10
359.0886420214145
 20
255.2576105397917
 30
0.0
 11
360.629668506966
 21
253.9827625602943
 31
0.0
  0
LINE
  5
5A9
330
18
100
AcDbEntity
  8
目盛
100
AcDbLine
 10
360.0441681745651
 20
256.3414422119317
 30
0.0
 11
361.5021054294079
 21
254.9723480000743
 31
0.0
  0
LINE
  5
5AA
102
{ACAD_REACTORS
330
59F
330
59E
102
}
330
18
100
AcDbEntity
  8
ROGO
 62
     4
100
AcDbLine
 10
370.4158450570881
 20
248.6486804861208
 30
0.0
 11
370.0816209062596
 21
247.9099466317724
 31
0.0
  0
LINE
  5
5AB
102
{ACAD_REACTORS
330
59E
102
}
330
18
100
AcDbEntity
  8
ROGO
 62
     4
100
AcDbLine
 10
370.7802073457556
 20
249.454028505465
 30
0.0
 11
370.6222095493982
 21
249.1048068205796
 31
0.0
  0
LINE
  5
5AC
102
{ACAD_REACTORS
330
59E
102
}
330
18
100
AcDbEntity
  8
ROGO
 62
     4
100
AcDbLine
 10
370.1430704904158
 20
249.9618254166783
 30
0.0
 11
369.1278199503231
 21
247.9099466317723
 31
0.0
  0
LINE
  5
5AD
330
18
100
AcDbEntity
  8
目盛
100
AcDbLine
 10
363.2913858025307
 20
259.2042496461957
 30
0.0
 11
365.0547415594081
 21
256.7771986630708
 31
0.0
  0
LINE
  5
5AE
330
18
100
AcDbEntity
  8
目盛
100
AcDbLine
 10
364.4864303207406
 20
260.0164010621181
 30
0.0
 11
365.5580839106986
 21
258.3277452111141
 31
0.0
  0
LINE
  5
5AF
330
18
100
AcDbEntity
  8
目盛
100
AcDbLine
 10
362.1496948410377
 20
258.318663359415
 30
0.0
 11
363.424542820535
 21
256.7776368738635
 31
0.0
  0
LINE
  5
5B0
330
18
100
AcDbEntity
  8
目盛
100
AcDbLine
 10
365.730112100918
 20
260.7519124165807
 30
0.0
 11
366.6936194491215
 21
258.999299056493
 31
0.0
  0
LINE
  5
5B1
330
18
100
AcDbEntity
  8
目盛
100
AcDbLine
 10
367.0175228992608
 20
261.4078809822903
 30
0.0
 11
367.869081482391
 21
259.5982268773582
 31
0.0
  0
LINE
  5
5B2
330
18
100
AcDbEntity
  8
目盛
100
AcDbLine
 10
368.34358189351
 20
261.9817179510016
 30
0.0
 11
369.0798309988793
 21
260.1221649792251
 31
0.0
  0
LINE
  5
5B3
330
18
100
AcDbEntity
  8
目盛
100
AcDbLine
 10
369.7030557346338
 20
262.4711586503604
 30
0.0
 11
370.6301067177586
 21
259.6179891014749
 31
0.0
  0
HATCH
  5
5B4
330
18
100
AcDbEntity
  8
ROGO
 62
     4
100
AcDbHatch
 10
0.0
 20
0.0
 30
0.0
210
0.0
220
0.0
230
1.0
  2
SOLID
 70
     1
 71
     1
 91
        1
 92
        5
 93
        8
 72
     1
 10
378.5343303059219
 20
249.4732503644615
 11
378.7779496064626
 21
249.9618254166784
 72
     1
 10
378.7779496064626
 20
249.9618254166784
 11
377.4629132643564
 21
249.9618254166784
 72
     4
 94
        3
 73
     0
 74
     0
 95
       26
 96
       22
 40
0.0
 40
0.0
 40
0.0
 40
0.0
 40
0.6806272418834842
 40
1.136254477903046
 40
1.46479881993938
 40
1.710112249467339
 40
2.028296642642858
 40
2.26054023071286
 40
2.679918019583943
 40
3.021285510494669
 40
3.253470102552404
 40
3.481138982867296
 40
3.88839434820105
 40
4.176372499429433
 40
4.331470983165859
 40
4.55178379777286
 40
4.710876624553383
 40
4.941349605730123
 40
5.071777377612479
 40
5.355602839328967
 40
5.485200010717811
 40
5.485200010717811
 40
5.485200010717811
 40
5.485200010717811
 10
377.4629132643562
 20
249.9618254166783
 10
377.3820578735976
 20
249.9570014454132
 10
377.2470760595317
 20
249.9489481989166
 10
377.0988668488199
 20
249.8589126950581
 10
376.9902801044097
 20
249.8065700097158
 10
376.9128361699854
 20
249.7354145882961
 10
376.8560694521179
 20
249.6619162357749
 10
376.7845043474205
 20
249.5743434876493
 10
376.7261450495145
 20
249.4723685661849
 10
376.6964262069813
 20
249.3599744251215
 10
376.6701015383276
 20
249.2703956425625
 10
376.6505787233547
 20
249.1705717796702
 10
376.6555458801675
 20
249.0627268915479
 10
376.662659076052
 20
248.9625660805441
 10
376.694417765976
 20
248.8910662576174
 10
376.730585288366
 20
248.8401633106881
 10
376.774871924221
 20
248.7840993579894
 10
376.8233311885384
 20
248.7469683836591
 10
376.863410955649
 20
248.6797031285185
 10
376.9335692359115
 20
248.6711195968423
 10
376.9781646299873
 20
248.6540358069653
 10
376.9921441184487
 20
248.6486804861208
 72
     1
 10
376.9921441184487
 20
248.6486804861208
 11
378.1231731334533
 21
248.6486804861208
 72
     1
 10
378.1231731334533
 20
248.6486804861208
 11
378.3667898541321
 21
249.1372503644615
 72
     1
 10
378.3667898541321
 20
249.1372503644615
 11
377.52710883326
 21
249.1372503644615
 72
     4
 94
        3
 73
     0
 74
     0
 95
       16
 96
       12
 40
0.0
 40
0.0
 40
0.0
 40
0.0
 40
0.2055476186376435
 40
0.413215311645417
 40
0.5370797571173976
 40
0.655840267458388
 40
0.7862675211309036
 40
0.8773481874435923
 40
0.9637758349635053
 40
1.139038695775164
 40
1.497869274526411
 40
1.497869274526411
 40
1.497869274526411
 40
1.497869274526411
 10
377.52710883326
 20
249.1372503644615
 10
377.5017810945883
 20
249.1447021565501
 10
377.4508643800192
 20
249.1596826005493
 10
377.4466030621716
 20
249.2323022896866
 10
377.4524084912334
 20
249.2840497606458
 10
377.4767216411106
 20
249.3217249413619
 10
377.5062177089712
 20
249.3491385923976
 10
377.5172004032228
 20
249.3848405865798
 10
377.5494830323469
 20
249.4118000588962
 10
377.606728783738
 20
249.457115165872
 10
377.6700326749494
 20
249.4667662711574
 10
377.7125633825708
 20
249.4732503644615
 72
     1
 10
377.7125633825709
 20
249.4732503644615
 11
378.5343303059219
 21
249.4732503644615
 97
        8
330
5E5
330
5B5
330
5B6
330
5E6
330
5E8
330
5E7
330
5E9
330
5EA
 75
     0
 76
     1
 47
0.0514683685270805
 98
        1
 10
377.9228301615632
 20
249.6695039603314
450
        0
451
        0
460
0.0
461
0.0
452
        0
462
0.0
453
        0
470

  0
SPLINE
  5
5B5
102
{ACAD_REACTORS
330
5B4
102
}
330
18
100
AcDbEntity
  8
ROGO
 62
     4
100
AcDbSpline
210
0.0
220
0.0
230
1.0
 70
     8
 71
     3
 72
    26
 73
    22
 74
    20
 42
0.0000000001
 43
0.0000000001
 44
0.0000000001
 40
0.0
 40
0.0
 40
0.0
 40
0.0
 40
0.2382195346591896
 40
0.397689067266058
 40
0.5126795869787669
 40
0.5985392873135731
 40
0.7099038249249733
 40
0.7911890807494741
 40
0.9379713068543702
 40
1.057449928673087
 40
1.138714535893316
 40
1.218398644003506
 40
1.36093802187036
 40
1.461730374800257
 40
1.516014844108008
 40
1.593124329220501
 40
1.648806818593631
 40
1.729472362005518
 40
1.775122082164342
 40
1.874460993765092
 40
1.919820003751207
 40
1.919820003751207
 40
1.919820003751207
 40
1.919820003751207
 10
377.4629132643562
 20
249.9618254166783
 30
0.0
 10
377.3820578735976
 20
249.9570014454132
 30
0.0
 10
377.2470760595317
 20
249.9489481989165
 30
0.0
 10
377.0988668488199
 20
249.8589126950581
 30
0.0
 10
376.9902801044096
 20
249.8065700097158
 30
0.0
 10
376.9128361699854
 20
249.7354145882961
 30
0.0
 10
376.856069452118
 20
249.6619162357748
 30
0.0
 10
376.7845043474204
 20
249.5743434876494
 30
0.0
 10
376.7261450495146
 20
249.4723685661849
 30
0.0
 10
376.6964262069814
 20
249.3599744251215
 30
0.0
 10
376.6701015383275
 20
249.2703956425626
 30
0.0
 10
376.6505787233546
 20
249.1705717796702
 30
0.0
 10
376.6555458801675
 20
249.0627268915479
 30
0.0
 10
376.6626590760521
 20
248.9625660805441
 30
0.0
 10
376.6944177659762
 20
248.8910662576174
 30
0.0
 10
376.730585288366
 20
248.8401633106881
 30
0.0
 10
376.774871924221
 20
248.7840993579894
 30
0.0
 10
376.8233311885383
 20
248.7469683836591
 30
0.0
 10
376.863410955649
 20
248.6797031285185
 30
0.0
 10
376.9335692359114
 20
248.6711195968422
 30
0.0
 10
376.9781646299872
 20
248.6540358069653
 30
0.0
 10
376.9921441184487
 20
248.6486804861208
 30
0.0
 11
377.4629132643562
 21
249.9618254166783
 31
0.0
 11
377.2275286914024
 21
249.9251832345846
 31
0.0
 11
377.0848711880274
 21
249.8539135456512
 31
0.0
 11
376.9850111407416
 21
249.7968978409738
 31
0.0
 11
376.9208155718378
 21
249.7398819039499
 31
0.0
 11
376.8494870252271
 21
249.6543582307606
 31
0.0
 11
376.7995570015841
 21
249.5902155339552
 31
0.0
 11
376.7282280448199
 21
249.461929907998
 31
0.0
 11
376.6925639765911
 21
249.3478982662967
 31
0.0
 11
376.6711654536233
 21
249.2695015852353
 31
0.0
 11
376.656899498209
 21
249.1911049041739
 31
0.0
 11
376.656899498209
 21
249.0485655263071
 31
0.0
 11
376.6711654536233
 21
248.9487878688618
 31
0.0
 11
376.6925639765911
 21
248.898898923966
 31
0.0
 11
376.7353610225269
 21
248.8347562271605
 31
0.0
 11
376.7710255009091
 21
248.7919942743927
 31
0.0
 11
376.8280880921056
 21
248.7349785697152
 31
0.0
 11
376.8566195927808
 21
248.6993436090753
 31
0.0
 11
376.9493470725129
 21
248.6637088807817
 31
0.0
 11
376.9921441184487
 21
248.6486804861208
 31
0.0
  0
LINE
  5
5B6
102
{ACAD_REACTORS
330
5B4
102
}
330
18
100
AcDbEntity
  8
ROGO
 62
     4
100
AcDbLine
 10
376.9921441184487
 20
248.6486804861208
 30
0.0
 11
378.1231731334533
 21
248.6486804861208
 31
0.0
  0
HATCH
  5
5B7
330
18
100
AcDbEntity
  8
ROGO
 62
     4
100
AcDbHatch
 10
0.0
 20
0.0
 30
0.0
210
0.0
220
0.0
230
1.0
  2
SOLID
 70
     1
 71
     1
 91
        2
 92
        7
 72
     0
 73
     1
 93
        8
 10
376.0491736930596
 20
249.9618254166784
 10
374.9987702102881
 20
249.9618254166783
 10
374.051835880189
 20
248.6486804861208
 10
374.7790831318806
 20
248.6486804861208
 10
374.9593735694615
 20
248.8986951562117
 10
375.7892505582458
 20
248.8986951562117
 10
375.9003169813147
 20
248.6486804861209
 10
376.6325247034429
 20
248.6486804861209
 97
        8
330
5BE
330
5C4
330
5BF
330
5C0
330
5C2
330
5B8
330
5BD
330
5BA
 92
       22
 72
     0
 73
     1
 93
        3
 10
375.6721054526452
 20
249.1623931679078
 10
375.1495313306066
 20
249.1623931679078
 10
375.4728980669199
 20
249.6108164397267
 97
        3
330
5C1
330
5C3
330
5B9
 75
     0
 76
     1
 47
0.0128389261915577
 98
        2
 10
375.9669188005638
 20
249.6467834998693
 10
375.9669188005638
 20
249.6467834998693
450
        0
451
        0
460
0.0
461
0.0
452
        0
462
0.0
453
        0
470

  0
LINE
  5
5B8
102
{ACAD_REACTORS
330
5B7
102
}
330
18
100
AcDbEntity
  8
ROGO
 62
     4
100
AcDbLine
 10
375.7892505582459
 20
248.8986951562117
 30
0.0
 11
375.9003169813147
 21
248.6486804861208
 31
0.0
  0
LINE
  5
5B9
102
{ACAD_REACTORS
330
5B7
102
}
330
18
100
AcDbEntity
  8
ROGO
 62
     4
100
AcDbLine
 10
375.4728980669199
 20
249.6108164397266
 30
0.0
 11
375.6721054526453
 21
249.1623931679077
 31
0.0
  0
LINE
  5
5BA
102
{ACAD_REACTORS
330
5B7
102
}
330
18
100
AcDbEntity
  8
ROGO
 62
     4
100
AcDbLine
 10
376.0491736930596
 20
249.9618254166783
 30
0.0
 11
376.6325247034429
 21
248.6486804861208
 31
0.0
  0
HATCH
  5
5BB
330
18
100
AcDbEntity
  8
ROGO
 62
     4
100
AcDbHatch
 10
0.0
 20
0.0
 30
0.0
210
0.0
220
0.0
230
1.0
  2
SOLID
 70
     1
 71
     1
 91
        1
 92
        1
 93
       12
 72
     1
 10
372.7081927966065
 20
249.9618254166783
 11
374.4842759450904
 21
249.9618254166784
 72
     1
 10
374.4842759450904
 20
249.9618254166783
 11
374.3354417493559
 21
249.6610230859862
 72
     1
 10
374.3354417493559
 20
249.6610230859862
 11
373.4019773271379
 21
249.6610230859862
 72
     1
 10
373.4019773271379
 20
249.6610230859862
 11
373.2856074810614
 21
249.4258330428021
 72
     1
 10
373.2856074810614
 20
249.4258330428021
 11
374.2190719032794
 21
249.4258330428021
 72
     1
 10
374.2190719032794
 20
249.4258330428021
 11
374.0997455276555
 21
249.1846676861209
 72
     1
 10
374.0997455276555
 20
249.1846676861209
 11
373.1662811054376
 21
249.1846676861209
 72
     1
 10
373.1662811054376
 20
249.1846676861209
 11
373.0499063328212
 21
248.9494676861209
 72
     1
 10
373.0499063328212
 20
248.9494676861209
 11
373.9833707550392
 21
248.9494676861209
 72
     1
 10
373.9833707550392
 20
248.9494676861209
 11
373.8345440458303
 21
248.6486804861208
 72
     1
 10
373.8345440458303
 20
248.6486804861208
 11
372.0584608973464
 21
248.6486804861208
 72
     1
 10
372.0584608973464
 20
248.6486804861208
 11
372.7081927966065
 21
249.9618254166783
 97
       12
330
5BC
330
5CE
330
5CB
330
5CC
330
5CA
330
5C7
330
5C8
330
5C5
330
5C9
330
5C6
330
5CD
330
5CF
 75
     0
 76
     1
 98
        1
 10
300.0580638178976
 20
159.163729368567
450
        0
451
        0
460
0.0
461
0.0
452
        0
462
0.0
453
        0
470

  0
LINE
  5
5BC
102
{ACAD_REACTORS
330
5BB
102
}
330
18
100
AcDbEntity
  8
ROGO
 62
     4
100
AcDbLine
 10
372.7081927966065
 20
249.9618254166783
 30
0.0
 11
374.4842759450904
 21
249.9618254166784
 31
0.0
  0
LINE
  5
5BD
102
{ACAD_REACTORS
330
5B7
102
}
330
18
100
AcDbEntity
  8
ROGO
 62
     4
100
AcDbLine
 10
376.6325247034429
 20
248.6486804861209
 30
0.0
 11
375.9003169813147
 21
248.6486804861208
 31
0.0
  0
LINE
  5
5BE
102
{ACAD_REACTORS
330
5B7
102
}
330
18
100
AcDbEntity
  8
ROGO
 62
     4
100
AcDbLine
 10
374.9987702102881
 20
249.9618254166783
 30
0.0
 11
376.0491736930596
 21
249.9618254166784
 31
0.0
  0
LINE
  5
5BF
102
{ACAD_REACTORS
330
5B7
102
}
330
18
100
AcDbEntity
  8
ROGO
 62
     4
100
AcDbLine
 10
374.051835880189
 20
248.6486804861208
 30
0.0
 11
374.7790831318805
 21
248.6486804861208
 31
0.0
  0
LINE
  5
5C0
102
{ACAD_REACTORS
330
5B7
102
}
330
18
100
AcDbEntity
  8
ROGO
 62
     4
100
AcDbLine
 10
374.9593735694615
 20
248.8986951562117
 30
0.0
 11
374.7790831318806
 21
248.6486804861209
 31
0.0
  0
LINE
  5
5C1
102
{ACAD_REACTORS
330
5B7
102
}
330
18
100
AcDbEntity
  8
ROGO
 62
     4
100
AcDbLine
 10
375.1495313306066
 20
249.1623931679078
 30
0.0
 11
375.6721054526453
 21
249.1623931679078
 31
0.0
  0
LINE
  5
5C2
102
{ACAD_REACTORS
330
5B7
102
}
330
18
100
AcDbEntity
  8
ROGO
 62
     4
100
AcDbLine
 10
374.9593735694615
 20
248.8986951562117
 30
0.0
 11
375.7892505582459
 21
248.8986951562117
 31
0.0
  0
LINE
  5
5C3
102
{ACAD_REACTORS
330
5B7
102
}
330
18
100
AcDbEntity
  8
ROGO
 62
     4
100
AcDbLine
 10
375.4728980669198
 20
249.6108164397266
 30
0.0
 11
375.1495313306066
 21
249.1623931679077
 31
0.0
  0
LINE
  5
5C4
102
{ACAD_REACTORS
330
5B7
102
}
330
18
100
AcDbEntity
  8
ROGO
 62
     4
100
AcDbLine
 10
374.9987702102881
 20
249.9618254166783
 30
0.0
 11
374.051835880189
 21
248.6486804861208
 31
0.0
  0
LINE
  5
5C5
102
{ACAD_REACTORS
330
5BB
102
}
330
18
100
AcDbEntity
  8
ROGO
 62
     4
100
AcDbLine
 10
373.1662811054376
 20
249.1846676861209
 30
0.0
 11
373.0499063328212
 21
248.9494676861209
 31
0.0
  0
LINE
  5
5C6
102
{ACAD_REACTORS
330
5BB
102
}
330
18
100
AcDbEntity
  8
ROGO
 62
     4
100
AcDbLine
 10
373.9833707550392
 20
248.9494676861209
 30
0.0
 11
373.8345440458303
 21
248.6486804861208
 31
0.0
  0
LINE
  5
5C7
102
{ACAD_REACTORS
330
5BB
102
}
330
18
100
AcDbEntity
  8
ROGO
 62
     4
100
AcDbLine
 10
374.2190719032794
 20
249.4258330428021
 30
0.0
 11
374.0997455276555
 21
249.1846676861209
 31
0.0
  0
LINE
  5
5C8
102
{ACAD_REACTORS
330
5BB
102
}
330
18
100
AcDbEntity
  8
ROGO
 62
     4
100
AcDbLine
 10
373.1662811054376
 20
249.1846676861209
 30
0.0
 11
374.0997455276555
 21
249.1846676861209
 31
0.0
  0
LINE
  5
5C9
102
{ACAD_REACTORS
330
5BB
102
}
330
18
100
AcDbEntity
  8
ROGO
 62
     4
100
AcDbLine
 10
373.0499063328212
 20
248.9494676861209
 30
0.0
 11
373.9833707550392
 21
248.9494676861209
 31
0.0
  0
LINE
  5
5CA
102
{ACAD_REACTORS
330
5BB
102
}
330
18
100
AcDbEntity
  8
ROGO
 62
     4
100
AcDbLine
 10
373.2856074810614
 20
249.4258330428021
 30
0.0
 11
374.2190719032794
 21
249.4258330428021
 31
0.0
  0
LINE
  5
5CB
102
{ACAD_REACTORS
330
5BB
102
}
330
18
100
AcDbEntity
  8
ROGO
 62
     4
100
AcDbLine
 10
373.4019773271379
 20
249.6610230859862
 30
0.0
 11
374.3354417493559
 21
249.6610230859862
 31
0.0
  0
LINE
  5
5CC
102
{ACAD_REACTORS
330
5BB
102
}
330
18
100
AcDbEntity
  8
ROGO
 62
     4
100
AcDbLine
 10
373.4019773271379
 20
249.6610230859862
 30
0.0
 11
373.2856074810614
 21
249.4258330428021
 31
0.0
  0
LINE
  5
5CD
102
{ACAD_REACTORS
330
5BB
102
}
330
18
100
AcDbEntity
  8
ROGO
 62
     4
100
AcDbLine
 10
372.0584608973464
 20
248.6486804861208
 30
0.0
 11
373.8345440458303
 21
248.6486804861208
 31
0.0
  0
LINE
  5
5CE
102
{ACAD_REACTORS
330
5BB
102
}
330
18
100
AcDbEntity
  8
ROGO
 62
     4
100
AcDbLine
 10
374.4842759450904
 20
249.9618254166783
 30
0.0
 11
374.3354417493559
 21
249.6610230859862
 31
0.0
  0
LINE
  5
5CF
102
{ACAD_REACTORS
330
5BB
102
}
330
18
100
AcDbEntity
  8
ROGO
 62
     4
100
AcDbLine
 10
372.7081927966065
 20
249.9618254166783
 30
0.0
 11
372.0584608973464
 21
248.6486804861208
 31
0.0
  0
SPLINE
  5
5D0
102
{ACAD_REACTORS
330
59E
102
}
330
18
100
AcDbEntity
  8
ROGO
 62
     4
100
AcDbSpline
210
0.0
220
0.0
230
1.0
 70
     8
 71
     3
 72
    15
 73
    11
 74
     9
 42
0.0000000001
 43
0.0000000001
 44
0.0000000001
 40
0.0
 40
0.0
 40
0.0
 40
0.0
 40
0.1539705029175028
 40
0.2241725832587281
 40
0.3038566179396687
 40
0.3581410872474193
 40
0.443992538467216
 40
0.4954152125469665
 40
0.5836396705646186
 40
0.6130478420065743
 40
0.6130478420065743
 40
0.6130478420065743
 40
0.6130478420065743
 10
371.1861943448531
 20
249.454028505465
 30
0.0
 10
371.2440226799123
 20
249.4542933901075
 30
0.0
 10
371.3282175549704
 20
249.4546790475772
 30
0.0
 10
371.3742583113349
 20
249.3505297436476
 30
0.0
 10
371.3536206491014
 20
249.2834738390103
 30
0.0
 10
371.3276774256773
 20
249.2146283247623
 30
0.0
 10
371.281829874135
 20
249.1678467594931
 30
0.0
 10
371.2202957445399
 20
249.1227882258561
 30
0.0
 10
371.162143051484
 20
249.1173336885966
 30
0.0
 10
371.1243212525115
 20
249.1073121951424
 30
0.0
 10
371.1148657982422
 20
249.1048068205796
 30
0.0
 11
371.1861943448531
 21
249.454028505465
 31
0.0
 11
371.3359844157819
 21
249.418393544825
 31
0.0
 11
371.3645159164569
 21
249.3542508480197
 31
0.0
 11
371.350250371196
 21
249.2758541669583
 31
0.0
 11
371.3288518482282
 21
249.2259652220624
 31
0.0
 11
371.2717888468781
 21
249.161822525257
 31
0.0
 11
371.2289918009422
 21
249.1333145567451
 31
0.0
 11
371.1433972989173
 21
249.1119338127075
 31
0.0
 11
371.1148657982422
 21
249.1048068205796
 31
0.0
  0
SPLINE
  5
5D1
102
{ACAD_REACTORS
330
59E
102
}
330
18
100
AcDbEntity
  8
ROGO
 62
     4
100
AcDbSpline
210
0.0
220
0.0
230
1.0
 70
     8
 71
     3
 72
    18
 73
    14
 74
     0
 42
0.0000000001
 43
0.0000000001
 40
0.1087402787915014
 40
0.1087402787915014
 40
0.1087402787915014
 40
0.1087402787915014
 40
0.5992371417938475
 40
1.083176791562496
 40
1.448211145705696
 40
1.714037220764907
 40
2.164002567013297
 40
2.740236056362883
 40
3.395137510199602
 40
4.071816045172726
 40
4.784906178399433
 40
5.506895915094292
 40
6.060470601257719
 40
6.060470601257719
 40
6.060470601257719
 40
6.060470601257719
 10
371.7555688034009
 20
249.9618254166784
 30
0.0
 10
371.807228341037
 20
249.9428930618307
 30
0.0
 10
371.9088162888875
 20
249.9028671705154
 30
0.0
 10
372.0328015244346
 20
249.811514860724
 30
0.0
 10
372.1004177183594
 20
249.7060560835512
 30
0.0
 10
372.1654569269024
 20
249.6021453412484
 30
0.0
 10
372.1745590454133
 20
249.4530678070919
 30
0.0
 10
372.1596491603663
 20
249.2645976715202
 30
0.0
 10
372.0633922894901
 20
249.0679485339995
 30
0.0
 10
371.9088943504087
 20
248.8959515031977
 30
0.0
 10
371.7170743773157
 20
248.7582873228559
 30
0.0
 10
371.5147935992085
 20
248.6502244863606
 30
0.0
 10
371.3702032421549
 20
248.649147765752
 30
0.0
 10
371.3074533252602
 20
248.6486804861208
 30
0.0
  0
HATCH
  5
5D2
330
18
100
AcDbEntity
  8
ROGO
 62
     4
100
AcDbHatch
 10
0.0
 20
0.0
 30
0.0
210
0.0
220
0.0
230
1.0
  2
SOLID
 70
     1
 71
     1
 91
        2
 92
        5
 93
        6
 72
     4
 94
        3
 73
     0
 74
     0
 95
       38
 96
       34
 40
0.0
 40
0.0
 40
0.0
 40
0.0
 40
0.5164800423611548
 40
0.6786836885910848
 40
0.88710434560167
 40
1.060788566413433
 40
1.20733358396365
 40
1.401978810630435
 40
1.501434849986208
 40
1.613448456300606
 40
1.778535433376704
 40
1.965543155621333
 40
2.086853233586049
 40
2.218636674910137
 40
2.365128983511507
 40
2.587438484857767
 40
2.798655694361229
 40
2.896849520951487
 40
3.008826444388521
 40
3.141482119684725
 40
3.235915913773394
 40
3.315078629400928
 40
3.428105103696636
 40
3.552301837626102
 40
3.676497880048442
 40
3.785169590044758
 40
4.034047122621728
 40
4.132240949211986
 40
4.328628719031952
 40
4.502226771166864
 40
4.834567227246322
 40
5.244640938625969
 40
5.836847051382449
 40
5.836847051382449
 40
5.836847051382449
 40
5.836847051382449
 10
379.5071749265053
 20
249.9673026358507
 10
379.4469195288796
 20
249.9630460167498
 10
379.3677405632585
 20
249.9574525809626
 10
379.2672017907489
 20
249.9299079547577
 10
379.2123970363079
 20
249.8970934352998
 10
379.1553617349907
 20
249.8729731905993
 10
379.1067338286057
 20
249.83725589135
 10
379.0575477279098
 20
249.8188511111566
 10
379.023106114534
 20
249.785664002784
 10
378.9832427564011
 20
249.765391884609
 10
378.9514988565658
 20
249.7200169905946
 10
378.916018180034
 20
249.6775931089362
 10
378.8748561316269
 20
249.6466255673587
 10
378.8410738860676
 20
249.6141005883963
 10
378.8100833731432
 20
249.5639047732125
 10
378.791741800572
 20
249.4972093985268
 10
378.7400399861628
 20
249.4551003442417
 10
378.7322553116796
 20
249.4044726965655
 10
378.7036574614839
 20
249.3746032363749
 10
378.691222116028
 20
249.3360460543899
 10
378.6864861379042
 20
249.3007208650691
 10
378.6808018348617
 20
249.2677295836409
 10
378.6659327746292
 20
249.2330242129029
 10
378.6707860871907
 20
249.190153933968
 10
378.6694035241485
 20
249.1486412199415
 10
378.6702171641217
 20
249.09259776333
 10
378.6672806247757
 20
249.0380325664106
 10
378.6906983752908
 20
248.9786526902421
 10
378.7045562228936
 20
248.9257237455756
 10
378.7425081928372
 20
248.8524372033241
 10
378.8079745456552
 20
248.7678803796153
 10
378.9324642916726
 20
248.6652444163224
 10
379.0521648222319
 20
248.6548324756051
 10
379.1228909649622
 20
248.6486804861208
 72
     1
 10
379.1228909649623
 20
248.6486804861208
 11
379.8733447881483
 21
248.6486804861208
 72
     4
 94
        3
 73
     0
 74
     0
 95
       11
 96
        7
 40
0.1647869275458135
 40
0.1647869275458135
 40
0.1647869275458135
 40
0.1647869275458135
 40
0.2545010798212315
 40
0.5111620267764023
 40
0.7602998271033902
 40
0.8850764140209603
 40
0.8850764140209603
 40
0.8850764140209603
 40
0.8850764140209603
 10
379.8733447881475
 20
248.6486804861208
 10
379.8838166884674
 20
248.6484786704779
 10
379.924247383296
 20
248.6476994855711
 10
379.9933439253924
 20
248.6576260161557
 10
380.0660426925304
 20
248.667138410529
 10
380.1093837039647
 20
248.674066000313
 10
380.1233622467655
 20
248.6779569330295
 72
     4
 94
        3
 73
     0
 74
     0
 95
        9
 96
        5
 40
0.0
 40
0.0
 40
0.0
 40
0.0
 40
0.3245123838720408
 40
0.7608395406220814
 40
0.7608395406220814
 40
0.7608395406220814
 40
0.7608395406220814
 10
380.1233622467655
 20
248.6779569330295
 10
380.1598472150835
 20
248.6891192727527
 10
380.245388500761
 20
248.7152900750067
 10
380.3160651979977
 20
248.770602392781
 10
380.3565969536536
 20
248.802322965989
 72
     4
 94
        3
 73
     0
 74
     0
 95
       25
 96
       21
 40
0.0
 40
0.0
 40
0.0
 40
0.0
 40
0.165525918914855
 40
0.3412380755365305
 40
0.5940540902285263
 40
0.7697671103696209
 40
0.9377330196075423
 40
1.11479469302833
 40
1.274661249598185
 40
1.574522170874768
 40
1.815540668866877
 40
2.15849091873445
 40
2.536227739636605
 40
2.738070817316548
 40
2.925680654369045
 40
3.162706124480894
 40
3.395643218188267
 40
3.648478129958861
 40
3.928509979727306
 40
4.337226830236035
 40
4.337226830236035
 40
4.337226830236035
 40
4.337226830236035
 10
380.3565969536536
 20
248.802322965989
 10
380.3714896110473
 20
248.8146297099346
 10
380.3997369103512
 20
248.8438998331564
 10
380.449838146991
 20
248.891340181495
 10
380.4939883067976
 20
248.946611951949
 10
380.5484507075148
 20
248.9914077848224
 10
380.5768036630538
 20
249.0461740111699
 10
380.6176722103579
 20
249.089246481669
 10
380.6519542292753
 20
249.1557676636595
 10
380.6810408279753
 20
249.2321794288037
 10
380.7087708834728
 20
249.3317807125072
 10
380.7193973268094
 20
249.4441457655527
 10
380.7036688691622
 20
249.5528588979837
 10
380.6656728914874
 20
249.6341183935206
 10
380.6377387307183
 20
249.7018398081867
 10
380.5953451420758
 20
249.7659839118639
 10
380.5469797872152
 20
249.835747718198
 10
380.4788415664559
 20
249.893453680513
 10
380.3897919078347
 20
249.9630563698886
 10
380.3068488001162
 20
249.9657212463946
 10
380.2576287496906
 20
249.9673026358507
 72
     1
 10
380.2576287496905
 20
249.9673026358507
 11
379.5071749265051
 21
249.9673026358507
 97
        6
330
5D8
330
5D7
330
5D9
330
5D6
330
5D5
330
5D4
 92
       20
 93
        1
 72
     3
 10
379.679633321136
 20
249.2896066436316
 11
0.1782847090673272
 21
0.1567790921840611
 40
0.6788083417438792
 50
0.0
 51
360.0
 73
     1
 97
        1
330
5D3
 75
     0
 76
     1
 47
0.088756267210375
 98
        2
 10
379.7320645969047
 20
249.6030939139556
 10
379.7320645969047
 20
249.6030939139556
450
        0
451
        0
460
0.0
461
0.0
452
        0
462
0.0
453
        0
470

  0
ELLIPSE
  5
5D3
102
{ACAD_REACTORS
330
5D2
102
}
330
18
100
AcDbEntity
  8
ROGO
 62
     4
100
AcDbEllipse
 10
379.679633321136
 20
249.2896066436316
 30
0.0
 11
0.1782847090673272
 21
0.1567790921840611
 31
0.0
210
0.0
220
0.0
230
0.9999999999999998
 40
0.6788083417438792
 41
0.0
 42
6.283185307179586
  0
SPLINE
  5
5D4
102
{ACAD_REACTORS
330
5D2
102
}
330
18
100
AcDbEntity
  8
ROGO
 62
     4
100
AcDbSpline
210
0.0
220
0.0
230
1.0
 70
     8
 71
     3
 72
     9
 73
     5
 74
     3
 42
0.0000000001
 43
0.0000000001
 44
0.0000000001
 40
0.0
 40
0.0
 40
0.0
 40
0.0
 40
0.1135793343552172
 40
0.2662938392177403
 40
0.2662938392177403
 40
0.2662938392177403
 40
0.2662938392177403
 10
380.1233622467655
 20
248.6779569330295
 30
0.0
 10
380.1598472150835
 20
248.6891192727527
 30
0.0
 10
380.2453885007609
 20
248.7152900750067
 30
0.0
 10
380.3160651979977
 20
248.7706023927811
 30
0.0
 10
380.3565969536536
 20
248.802322965989
 30
0.0
 11
380.1233622467655
 21
248.6779569330295
 31
0.0
 11
380.2301130109902
 21
248.7167453272992
 31
0.0
 11
380.3565969536536
 21
248.802322965989
 31
0.0
  0
SPLINE
  5
5D5
102
{ACAD_REACTORS
330
5D2
102
}
330
18
100
AcDbEntity
  8
ROGO
 62
     4
100
AcDbSpline
210
0.0
220
0.0
230
1.0
 70
     8
 71
     3
 72
    11
 73
     7
 74
     0
 42
0.0000000001
 43
0.0000000001
 40
0.1647869275458134
 40
0.1647869275458134
 40
0.1647869275458134
 40
0.1647869275458134
 40
0.2895635144633836
 40
0.5387013147903714
 40
0.7953622617455423
 40
0.8850764140209602
 40
0.8850764140209602
 40
0.8850764140209602
 40
0.8850764140209602
 10
380.1233622467655
 20
248.6779569330295
 30
0.0
 10
380.1093837039647
 20
248.674066000313
 30
0.0
 10
380.0660426925304
 20
248.667138410529
 30
0.0
 10
379.9933439253924
 20
248.6576260161557
 30
0.0
 10
379.924247383296
 20
248.6476994855711
 30
0.0
 10
379.8838166884674
 20
248.6484786704779
 30
0.0
 10
379.8733447881475
 20
248.6486804861208
 30
0.0
  0
LINE
  5
5D6
102
{ACAD_REACTORS
330
5D2
102
}
330
18
100
AcDbEntity
  8
ROGO
 62
     4
100
AcDbLine
 10
379.1228909649622
 20
248.6486804861208
 30
0.0
 11
379.8733447881475
 21
248.6486804861208
 31
0.0
  0
LINE
  5
5D7
102
{ACAD_REACTORS
330
5D2
102
}
330
18
100
AcDbEntity
  8
ROGO
 62
     4
100
AcDbLine
 10
379.5071749265053
 20
249.9673026358507
 30
0.0
 11
380.2576287496906
 21
249.9673026358507
 31
0.0
  0
SPLINE
  5
5D8
102
{ACAD_REACTORS
330
5D2
102
}
330
18
100
AcDbEntity
  8
ROGO
 62
     4
100
AcDbSpline
210
0.0
220
0.0
230
1.0
 70
     8
 71
     3
 72
    25
 73
    21
 74
     0
 42
0.0000000001
 43
0.0000000001
 40
0.0
 40
0.0
 40
0.0
 40
0.0
 40
0.4087168505087288
 40
0.6887487002771746
 40
0.9415836120477687
 40
1.17452070575514
 40
1.41154617586699
 40
1.599156012919487
 40
1.80099909059943
 40
2.178735911501585
 40
2.521686161369157
 40
2.762704659361267
 40
3.06256558063785
 40
3.222432137207705
 40
3.399493810628493
 40
3.567459719866414
 40
3.743172740007509
 40
3.995988754699505
 40
4.17170091132118
 40
4.337226830236035
 40
4.337226830236035
 40
4.337226830236035
 40
4.337226830236035
 10
380.2576287496906
 20
249.9673026358507
 30
0.0
 10
380.3068488001162
 20
249.9657212463946
 30
0.0
 10
380.3897919078347
 20
249.9630563698886
 30
0.0
 10
380.4788415664559
 20
249.893453680513
 30
0.0
 10
380.5469797872152
 20
249.835747718198
 30
0.0
 10
380.5953451420758
 20
249.7659839118639
 30
0.0
 10
380.6377387307183
 20
249.7018398081867
 30
0.0
 10
380.6656728914874
 20
249.6341183935206
 30
0.0
 10
380.7036688691622
 20
249.5528588979837
 30
0.0
 10
380.7193973268094
 20
249.4441457655527
 30
0.0
 10
380.7087708834728
 20
249.3317807125072
 30
0.0
 10
380.6810408279753
 20
249.2321794288037
 30
0.0
 10
380.6519542292753
 20
249.1557676636595
 30
0.0
 10
380.6176722103579
 20
249.089246481669
 30
0.0
 10
380.5768036630538
 20
249.0461740111699
 30
0.0
 10
380.5484507075148
 20
248.9914077848224
 30
0.0
 10
380.4939883067976
 20
248.946611951949
 30
0.0
 10
380.449838146991
 20
248.891340181495
 30
0.0
 10
380.3997369103512
 20
248.8438998331564
 30
0.0
 10
380.3714896110473
 20
248.8146297099346
 30
0.0
 10
380.3565969536536
 20
248.802322965989
 30
0.0
  0
SPLINE
  5
5D9
102
{ACAD_REACTORS
330
5D2
102
}
330
18
100
AcDbEntity
  8
ROGO
 62
     4
100
AcDbSpline
210
0.0
220
0.0
230
1.0
 70
     8
 71
     3
 72
    38
 73
    34
 74
    32
 42
0.0000000001
 43
0.0000000001
 44
0.0000000001
 40
0.0
 40
0.0
 40
0.0
 40
0.0
 40
0.1807680148264315
 40
0.2375392910068956
 40
0.3104865209606157
 40
0.3712759982447458
 40
0.422566754387306
 40
0.490692583720658
 40
0.5255021974951946
 40
0.5647069597052371
 40
0.622487401681883
 40
0.6879401044674746
 40
0.7303986317551266
 40
0.7765228362185534
 40
0.8277951442290254
 40
0.9056034697002209
 40
0.9795294930264187
 40
1.013897332332996
 40
1.053089255536027
 40
1.099518741889647
 40
1.132570569820733
 40
1.160277520290299
 40
1.19983678629386
 40
1.243305643169139
 40
1.286774258016964
 40
1.324809356515675
 40
1.411916492917645
 40
1.446284332224223
 40
1.5150200516612
 40
1.575779369908399
 40
1.69209852953623
 40
1.835624328519098
 40
2.042896467983898
 40
2.042896467983898
 40
2.042896467983898
 40
2.042896467983898
 10
379.5071749265053
 20
249.9673026358507
 30
0.0
 10
379.4469195288796
 20
249.9630460167498
 30
0.0
 10
379.3677405632585
 20
249.9574525809626
 30
0.0
 10
379.2672017907489
 20
249.9299079547577
 30
0.0
 10
379.2123970363078
 20
249.8970934352997
 30
0.0
 10
379.1553617349907
 20
249.8729731905992
 30
0.0
 10
379.1067338286056
 20
249.83725589135
 30
0.0
 10
379.0575477279099
 20
249.8188511111566
 30
0.0
 10
379.023106114534
 20
249.785664002784
 30
0.0
 10
378.9832427564011
 20
249.765391884609
 30
0.0
 10
378.9514988565658
 20
249.7200169905946
 30
0.0
 10
378.9160181800341
 20
249.6775931089362
 30
0.0
 10
378.8748561316268
 20
249.6466255673587
 30
0.0
 10
378.8410738860676
 20
249.6141005883964
 30
0.0
 10
378.8100833731431
 20
249.5639047732124
 30
0.0
 10
378.791741800572
 20
249.4972093985268
 30
0.0
 10
378.7400399861629
 20
249.4551003442417
 30
0.0
 10
378.7322553116795
 20
249.4044726965655
 30
0.0
 10
378.703657461484
 20
249.3746032363749
 30
0.0
 10
378.691222116028
 20
249.3360460543899
 30
0.0
 10
378.6864861379041
 20
249.3007208650691
 30
0.0
 10
378.6808018348618
 20
249.2677295836409
 30
0.0
 10
378.6659327746293
 20
249.233024212903
 30
0.0
 10
378.6707860871907
 20
249.1901539339681
 30
0.0
 10
378.6694035241485
 20
249.1486412199415
 30
0.0
 10
378.6702171641217
 20
249.09259776333
 30
0.0
 10
378.6672806247758
 20
249.0380325664106
 30
0.0
 10
378.6906983752908
 20
248.9786526902422
 30
0.0
 10
378.7045562228936
 20
248.9257237455756
 30
0.0
 10
378.7425081928372
 20
248.8524372033241
 30
0.0
 10
378.8079745456552
 20
248.7678803796153
 30
0.0
 10
378.9324642916726
 20
248.6652444163225
 30
0.0
 10
379.0521648222319
 20
248.6548324756052
 30
0.0
 10
379.1228909649622
 20
248.6486804861208
 30
0.0
 11
379.5071749265053
 21
249.9673026358507
 31
0.0
 11
379.327718289558
 21
249.9455680863992
 31
0.0
 11
379.2733375034298
 21
249.929267537352
 31
0.0
 11
379.2080808164218
 21
249.8966659552023
 31
0.0
 11
379.1537000302937
 21
249.8694981314293
 31
0.0
 11
379.1101955722884
 21
249.8423300656288
 31
0.0
 11
379.0503768357203
 21
249.8097287255067
 31
0.0
 11
379.0231862290347
 21
249.7879944180827
 31
0.0
 11
378.9905576719092
 21
249.7662598686313
 31
0.0
 11
378.9524911643438
 21
249.7227912537835
 31
0.0
 11
378.9089867063385
 21
249.6738891225866
 31
0.0
 11
378.8763581492129
 21
249.6467210567861
 31
0.0
 11
378.8437300193304
 21
249.614119716664
 31
0.0
 11
378.8165394126448
 21
249.5706511018161
 31
0.0
 11
378.7839112827624
 21
249.5000144211678
 31
0.0
 11
378.740406397514
 21
249.4402450152452
 31
0.0
 11
378.7295304966343
 21
249.4076434330956
 31
0.0
 11
378.7077782676316
 21
249.3750420929733
 31
0.0
 11
378.6914639890688
 21
249.3315732360981
 31
0.0
 11
378.6860256113858
 21
249.2989718959759
 31
0.0
 11
378.6805876609459
 21
249.2718038301755
 31
0.0
 11
378.6697117600661
 21
249.2337689737042
 31
0.0
 11
378.6697117600661
 21
249.1903001168289
 31
0.0
 11
378.6697117600661
 21
249.1468315019811
 31
0.0
 11
378.6697117600661
 21
249.1087964034824
 31
0.0
 11
378.6751497105061
 21
249.0218591737867
 31
0.0
 11
378.6860256113858
 21
248.9892575916371
 31
0.0
 11
378.7077782676316
 21
248.9240546693653
 31
0.0
 11
378.7349684470742
 21
248.8697187797918
 31
0.0
 11
378.8056635117651
 21
248.777348033747
 31
0.0
 11
378.9198630344614
 21
248.6904105620239
 31
0.0
 11
379.1228909649622
 21
248.6486804861208
 31
0.0
  0
HATCH
  5
5DA
330
18
100
AcDbEntity
  8
ROGO
 62
     4
100
AcDbHatch
 10
0.0
 20
0.0
 30
0.0
210
0.0
220
0.0
230
1.0
  2
SOLID
 70
     1
 71
     1
 91
        1
 92
        5
 93
        8
 72
     4
 94
        3
 73
     0
 74
     0
 95
       26
 96
       22
 40
0.0
 40
0.0
 40
0.0
 40
0.0
 40
0.680627241883428
 40
1.136254477903041
 40
1.464798819939375
 40
1.710112249467291
 40
2.028296642642898
 40
2.260540230712845
 40
2.679918019584077
 40
3.021285510494803
 40
3.253470102552373
 40
3.481138982867256
 40
3.888394348201009
 40
4.176372499429384
 40
4.331470983165915
 40
4.5517837977729
 40
4.710876624553423
 40
4.941349605730163
 40
5.071777377612483
 40
5.355602839329045
 40
5.485200010717817
 40
5.485200010717817
 40
5.485200010717817
 40
5.485200010717817
 10
381.6939830352841
 20
249.9618254166783
 10
381.6131276445254
 20
249.9570014454132
 10
381.4781458304596
 20
249.9489481989166
 10
381.3299366197477
 20
249.8589126950581
 10
381.2213498753375
 20
249.8065700097158
 10
381.1439059409133
 20
249.7354145882962
 10
381.0871392230458
 20
249.6619162357748
 10
381.0155741183482
 20
249.5743434876493
 10
380.9572148204424
 20
249.4723685661848
 10
380.9274959779092
 20
249.3599744251215
 10
380.9011713092554
 20
249.2703956425625
 10
380.8816484942825
 20
249.1705717796702
 10
380.8866156510955
 20
249.0627268915479
 10
380.8937288469799
 20
248.9625660805441
 10
380.9254875369039
 20
248.8910662576174
 10
380.9616550592939
 20
248.8401633106881
 10
381.0059416951488
 20
248.7840993579894
 10
381.0544009594663
 20
248.7469683836591
 10
381.0944807265768
 20
248.6797031285184
 10
381.1646390068393
 20
248.6711195968423
 10
381.2092344009151
 20
248.6540358069653
 10
381.2232138893766
 20
248.6486804861208
 72
     1
 10
381.2232138893767
 20
248.6486804861208
 11
382.3542429043811
 21
248.6486804861208
 72
     1
 10
382.3542429043811
 20
248.6486804861208
 11
382.59785962506
 21
249.1372503644615
 72
     1
 10
382.59785962506
 20
249.1372503644615
 11
381.7581786041879
 21
249.1372503644615
 72
     4
 94
        3
 73
     0
 74
     0
 95
       16
 96
       12
 40
0.0
 40
0.0
 40
0.0
 40
0.0
 40
0.2055476186376692
 40
0.4132153116455541
 40
0.5370797571174224
 40
0.6558402674583835
 40
0.7862675211309879
 40
0.877348187443702
 40
0.9637758349634946
 40
1.139038695775252
 40
1.497869274526499
 40
1.497869274526499
 40
1.497869274526499
 40
1.497869274526499
 10
381.7581786041878
 20
249.1372503644614
 10
381.7328508655161
 20
249.14470215655
 10
381.6819341509471
 20
249.1596826005493
 10
381.6776728330994
 20
249.2323022896866
 10
381.6834782621612
 20
249.2840497606457
 10
381.7077914120384
 20
249.3217249413619
 10
381.7372874798991
 20
249.3491385923976
 10
381.7482701741507
 20
249.3848405865798
 10
381.7805528032748
 20
249.4118000588962
 10
381.8377985546658
 20
249.457115165872
 10
381.9011024458772
 20
249.4667662711575
 10
381.9436331534987
 20
249.4732503644615
 72
     1
 10
381.9436331534987
 20
249.4732503644615
 11
382.7654000768498
 21
249.4732503644615
 72
     1
 10
382.7654000768498
 20
249.4732503644615
 11
383.0090193773904
 21
249.9618254166783
 72
     1
 10
383.0090193773904
 20
249.9618254166783
 11
381.6939830352841
 21
249.9618254166783
 97
        8
330
5E3
330
5E1
330
5E4
330
5E0
330
5DF
330
5E2
330
5DE
330
5DD
 75
     0
 76
     1
 47
0.0514683685270805
 98
        1
 10
381.9209004649689
 20
249.7213841134993
450
        0
451
        0
460
0.0
461
0.0
452
        0
462
0.0
453
        0
470

  0
LINE
  5
5DB
102
{ACAD_REACTORS
330
548
102
}
330
18
100
AcDbEntity
  8
ROGO
 62
     4
100
AcDbLine
 10
383.2840465065125
 20
248.4455101938919
 30
0.0
 11
383.0169972173469
 21
247.9099466317724
 31
0.0
  0
LINE
  5
5DC
102
{ACAD_REACTORS
330
59F
330
548
102
}
330
18
100
AcDbEntity
  8
ROGO
 62
     4
100
AcDbLine
 10
383.2840465065125
 20
249.9618254166783
 30
0.0
 11
382.2609134748427
 21
247.9099466317724
 31
0.0
  0
LINE
  5
5DD
102
{ACAD_REACTORS
330
5DA
102
}
330
18
100
AcDbEntity
  8
ROGO
 62
     4
100
AcDbLine
 10
383.0090193773904
 20
249.9618254166783
 30
0.0
 11
382.7654000768498
 21
249.4732503644615
 31
0.0
  0
LINE
  5
5DE
102
{ACAD_REACTORS
330
5DA
102
}
330
18
100
AcDbEntity
  8
ROGO
 62
     4
100
AcDbLine
 10
381.9436331534986
 20
249.4732503644615
 30
0.0
 11
382.7654000768498
 21
249.4732503644615
 31
0.0
  0
LINE
  5
5DF
102
{ACAD_REACTORS
330
5DA
102
}
330
18
100
AcDbEntity
  8
ROGO
 62
     4
100
AcDbLine
 10
381.7581786041878
 20
249.1372503644615
 30
0.0
 11
382.59785962506
 21
249.1372503644615
 31
0.0
  0
LINE
  5
5E0
102
{ACAD_REACTORS
330
5DA
102
}
330
18
100
AcDbEntity
  8
ROGO
 62
     4
100
AcDbLine
 10
382.59785962506
 20
249.1372503644615
 30
0.0
 11
382.3542429043811
 21
248.6486804861208
 31
0.0
  0
SPLINE
  5
5E1
102
{ACAD_REACTORS
330
5DA
102
}
330
18
100
AcDbEntity
  8
ROGO
 62
     4
100
AcDbSpline
210
0.0
220
0.0
230
1.0
 70
     8
 71
     3
 72
    26
 73
    22
 74
    20
 42
0.0000000001
 43
0.0000000001
 44
0.0000000001
 40
0.0
 40
0.0
 40
0.0
 40
0.0
 40
0.2382195346591896
 40
0.397689067266058
 40
0.5126795869787176
 40
0.5985392873135238
 40
0.7099038249250041
 40
0.7911890807494602
 40
0.9379713068544059
 40
1.057449928673177
 40
1.138714535893296
 40
1.218398644003487
 40
1.36093802187034
 40
1.461730374800238
 40
1.51601484410804
 40
1.593124329220486
 40
1.648806818593696
 40
1.729472362005543
 40
1.775122082164332
 40
1.874460993765135
 40
1.919820003751196
 40
1.919820003751196
 40
1.919820003751196
 40
1.919820003751196
 10
381.6939830352841
 20
249.9618254166783
 30
0.0
 10
381.6131276445254
 20
249.9570014454132
 30
0.0
 10
381.4781458304596
 20
249.9489481989165
 30
0.0
 10
381.3299366197478
 20
249.8589126950582
 30
0.0
 10
381.2213498753375
 20
249.8065700097157
 30
0.0
 10
381.1439059409133
 20
249.7354145882962
 30
0.0
 10
381.0871392230458
 20
249.6619162357748
 30
0.0
 10
381.0155741183482
 20
249.5743434876494
 30
0.0
 10
380.9572148204424
 20
249.4723685661848
 30
0.0
 10
380.9274959779091
 20
249.3599744251215
 30
0.0
 10
380.9011713092555
 20
249.2703956425626
 30
0.0
 10
380.8816484942823
 20
249.1705717796701
 30
0.0
 10
380.8866156510955
 20
249.0627268915479
 30
0.0
 10
380.8937288469798
 20
248.9625660805441
 30
0.0
 10
380.9254875369039
 20
248.8910662576174
 30
0.0
 10
380.9616550592939
 20
248.8401633106881
 30
0.0
 10
381.0059416951487
 20
248.7840993579893
 30
0.0
 10
381.0544009594663
 20
248.7469683836591
 30
0.0
 10
381.0944807265769
 20
248.6797031285185
 30
0.0
 10
381.1646390068394
 20
248.6711195968424
 30
0.0
 10
381.2092344009151
 20
248.6540358069653
 30
0.0
 10
381.2232138893766
 20
248.6486804861208
 30
0.0
 11
381.6939830352841
 21
249.9618254166783
 31
0.0
 11
381.4585984623303
 21
249.9251832345846
 31
0.0
 11
381.3159409589553
 21
249.8539135456512
 31
0.0
 11
381.2160809116694
 21
249.7968978409738
 31
0.0
 11
381.1518853427657
 21
249.7398819039499
 31
0.0
 11
381.0805567961549
 21
249.6543582307605
 31
0.0
 11
381.030626772512
 21
249.5902155339552
 31
0.0
 11
380.9592978157477
 21
249.4619299079979
 31
0.0
 11
380.923633747519
 21
249.3478982662966
 31
0.0
 11
380.9022352245511
 21
249.2695015852353
 31
0.0
 11
380.8879692691369
 21
249.1911049041739
 31
0.0
 11
380.8879692691369
 21
249.0485655263071
 31
0.0
 11
380.9022352245511
 21
248.9487878688618
 31
0.0
 11
380.923633747519
 21
248.8988989239659
 31
0.0
 11
380.9664307934548
 21
248.8347562271605
 31
0.0
 11
381.002095271837
 21
248.7919942743926
 31
0.0
 11
381.0591578630335
 21
248.7349785697152
 31
0.0
 11
381.0876893637086
 21
248.6993436090753
 31
0.0
 11
381.1804168434408
 21
248.6637088807817
 31
0.0
 11
381.2232138893766
 21
248.6486804861208
 31
0.0
  0
SPLINE
  5
5E2
102
{ACAD_REACTORS
330
5DA
102
}
330
18
100
AcDbEntity
  8
ROGO
 62
     4
100
AcDbSpline
210
0.0
220
0.0
230
1.0
 70
     8
 71
     3
 72
    16
 73
    12
 74
    10
 42
0.0000000001
 43
0.0000000001
 44
0.0000000001
 40
0.0
 40
0.0
 40
0.0
 40
0.0
 40
0.1255907025629163
 40
0.1869327038470616
 40
0.217182380479003
 40
0.2490606136884339
 40
0.2947101524738157
 40
0.3362763310931585
 40
0.3796288870082937
 40
0.4523125795610796
 40
0.5242542460842448
 40
0.5242542460842448
 40
0.5242542460842448
 40
0.5242542460842448
 10
381.9436331534987
 20
249.4732503644615
 30
0.0
 10
381.9011024458772
 20
249.4667662711574
 30
0.0
 10
381.8377985546657
 20
249.4571151658719
 30
0.0
 10
381.780552803275
 20
249.4118000588962
 30
0.0
 10
381.7482701741505
 20
249.3848405865797
 30
0.0
 10
381.7372874798991
 20
249.3491385923976
 30
0.0
 10
381.7077914120385
 20
249.3217249413619
 30
0.0
 10
381.6834782621612
 20
249.2840497606458
 30
0.0
 10
381.6776728330995
 20
249.2323022896866
 30
0.0
 10
381.6819341509471
 20
249.1596826005493
 30
0.0
 10
381.7328508655161
 20
249.14470215655
 30
0.0
 10
381.7581786041878
 20
249.1372503644614
 30
0.0
 11
381.9436331534987
 21
249.4732503644615
 31
0.0
 11
381.8223745832449
 21
249.440548931614
 31
0.0
 11
381.772444559602
 21
249.4049142033205
 31
0.0
 11
381.7510460366341
 21
249.3835332269365
 31
0.0
 11
381.7367800812199
 21
249.3550252584246
 31
0.0
 11
381.7082485805449
 21
249.3193905301311
 31
0.0
 11
381.686850057577
 21
249.2837555694912
 31
0.0
 11
381.6797170798699
 21
249.2409938490697
 31
0.0
 11
381.6939830352841
 21
249.1697239277899
 31
0.0
 11
381.7581786041878
 21
249.1372503644614
 31
0.0
  0
LINE
  5
5E3
102
{ACAD_REACTORS
330
5DA
102
}
330
18
100
AcDbEntity
  8
ROGO
 62
     4
100
AcDbLine
 10
381.6939830352844
 20
249.9618254166783
 30
0.0
 11
383.0090193773904
 21
249.9618254166783
 31
0.0
  0
LINE
  5
5E4
102
{ACAD_REACTORS
330
5DA
102
}
330
18
100
AcDbEntity
  8
ROGO
 62
     4
100
AcDbLine
 10
381.2232138893765
 20
248.6486804861208
 30
0.0
 11
382.3542429043812
 21
248.6486804861208
 31
0.0
  0
LINE
  5
5E5
102
{ACAD_REACTORS
330
5B4
102
}
330
18
100
AcDbEntity
  8
ROGO
 62
     4
100
AcDbLine
 10
377.4629132643566
 20
249.9618254166784
 30
0.0
 11
378.7779496064625
 21
249.9618254166784
 31
0.0
  0
LINE
  5
5E6
102
{ACAD_REACTORS
330
5B4
102
}
330
18
100
AcDbEntity
  8
ROGO
 62
     4
100
AcDbLine
 10
378.3667898541321
 20
249.1372503644615
 30
0.0
 11
378.1231731334533
 21
248.6486804861208
 31
0.0
  0
SPLINE
  5
5E7
102
{ACAD_REACTORS
330
5B4
102
}
330
18
100
AcDbEntity
  8
ROGO
 62
     4
100
AcDbSpline
210
0.0
220
0.0
230
1.0
 70
     8
 71
     3
 72
    16
 73
    12
 74
    10
 42
0.0000000001
 43
0.0000000001
 44
0.0000000001
 40
0.0
 40
0.0
 40
0.0
 40
0.0
 40
0.1255907025629711
 40
0.1869327038470372
 40
0.2171823804790188
 40
0.2490606136884497
 40
0.2947101524738226
 40
0.3362763310931653
 40
0.3796288870083566
 40
0.452312579561098
 40
0.5242542460842631
 40
0.5242542460842631
 40
0.5242542460842631
 40
0.5242542460842631
 10
377.7125633825708
 20
249.4732503644615
 30
0.0
 10
377.6700326749494
 20
249.4667662711575
 30
0.0
 10
377.6067287837382
 20
249.457115165872
 30
0.0
 10
377.5494830323467
 20
249.4118000588962
 30
0.0
 10
377.5172004032228
 20
249.3848405865798
 30
0.0
 10
377.5062177089712
 20
249.3491385923975
 30
0.0
 10
377.4767216411107
 20
249.321724941362
 30
0.0
 10
377.4524084912334
 20
249.2840497606457
 30
0.0
 10
377.4466030621717
 20
249.2323022896867
 30
0.0
 10
377.4508643800192
 20
249.1596826005494
 30
0.0
 10
377.5017810945882
 20
249.1447021565501
 30
0.0
 10
377.52710883326
 20
249.1372503644615
 30
0.0
 11
377.7125633825708
 21
249.4732503644615
 31
0.0
 11
377.591304812317
 21
249.440548931614
 31
0.0
 11
377.5413747886741
 21
249.4049142033205
 31
0.0
 11
377.5199762657063
 21
249.3835332269365
 31
0.0
 11
377.505710310292
 21
249.3550252584246
 31
0.0
 11
377.477178809617
 21
249.3193905301311
 31
0.0
 11
377.4557802866491
 21
249.2837555694913
 31
0.0
 11
377.448647308942
 21
249.2409938490697
 31
0.0
 11
377.4629132643562
 21
249.16972392779
 31
0.0
 11
377.52710883326
 21
249.1372503644615
 31
0.0
  0
LINE
  5
5E8
102
{ACAD_REACTORS
330
5B4
102
}
330
18
100
AcDbEntity
  8
ROGO
 62
     4
100
AcDbLine
 10
377.5271088332599
 20
249.1372503644615
 30
0.0
 11
378.3667898541321
 21
249.1372503644615
 31
0.0
  0
LINE
  5
5E9
102
{ACAD_REACTORS
330
5B4
102
}
330
18
100
AcDbEntity
  8
ROGO
 62
     4
100
AcDbLine
 10
377.7125633825708
 20
249.4732503644615
 30
0.0
 11
378.5343303059219
 21
249.4732503644615
 31
0.0
  0
LINE
  5
5EA
102
{ACAD_REACTORS
330
5B4
102
}
330
18
100
AcDbEntity
  8
ROGO
 62
     4
100
AcDbLine
 10
378.7779496064625
 20
249.9618254166783
 30
0.0
 11
378.5343303059219
 21
249.4732503644615
 31
0.0
  0
TEXT
  5
5EB
330
18
100
AcDbEntity
  8
文字
100
AcDbText
 10
375.8286827018589
 20
257.5182641204669
 30
0.0
 40
2.0
  1
0
  7
STYLE3
100
AcDbText
  0
LINE
  5
5EC
330
18
100
AcDbEntity
  8
目盛
100
AcDbLine
 10
376.8104466052576
 20
263.5968587755718
 30
0.0
 11
376.8104466052576
 21
260.5968587755718
 31
0.0
  0
LINE
  5
5ED
330
18
100
AcDbEntity
  8
目盛
100
AcDbLine
 10
371.0905792004659
 20
262.8742714815303
 30
0.0
 11
371.5879589747956
 21
260.9371051592731
 31
0.0
  0
LINE
  5
5EE
330
18
100
AcDbEntity
  8
目盛
100
AcDbLine
 10
372.5006763697859
 20
263.1894655423317
 30
0.0
 11
372.8754389989573
 21
261.2248910408743
 31
0.0
  0
LINE
  5
5EF
330
18
100
AcDbEntity
  8
目盛
100
AcDbLine
 10
373.9277822332786
 20
263.4154969058049
 30
0.0
 11
374.1784487004072
 21
261.4312675031758
 31
0.0
  0
LINE
  5
5F0
330
18
100
AcDbEntity
  8
目盛
100
AcDbLine
 10
375.3662646560834
 20
263.5514735294221
 30
0.0
 11
375.491845695142
 21
261.5554200725656
 31
0.0
  0
LINE
  5
5F1
330
18
100
AcDbEntity
  8
目盛
100
AcDbLine
 10
378.2546285544321
 20
263.5514735294221
 30
0.0
 11
378.1290475153733
 21
261.5554200725656
 31
0.0
  0
LINE
  5
5F2
330
18
100
AcDbEntity
  8
目盛
100
AcDbLine
 10
379.6931109772368
 20
263.4154969058049
 30
0.0
 11
379.4424445101082
 21
261.4312675031758
 31
0.0
  0
LINE
  5
5F3
330
18
100
AcDbEntity
  8
目盛
100
AcDbLine
 10
381.1202168407294
 20
263.1894655423316
 30
0.0
 11
380.7454542115579
 21
261.2248910408742
 31
0.0
  0
LINE
  5
5F4
330
18
100
AcDbEntity
  8
目盛
100
AcDbLine
 10
382.5303140100494
 20
262.8742714815303
 30
0.0
 11
382.0329342357197
 21
260.937105159273
 31
0.0
  0
LINE
  5
5F5
330
18
100
AcDbEntity
  8
外形線
  6
Continuous
100
AcDbLine
 10
373.1104466052577
 20
289.5968587755717
 30
0.0
 11
373.1104466052576
 21
266.7362925873437
 31
0.0
  0
LINE
  5
5F6
330
18
100
AcDbEntity
  8
外形線
  6
Continuous
100
AcDbLine
 10
380.5104466052577
 20
289.5968587755717
 30
0.0
 11
380.5104466052577
 21
266.7362925873437
 31
0.0
  0
ARC
  5
5FC
330
18
100
AcDbEntity
  8
外形線
  6
Continuous
100
AcDbCircle
 10
376.8104466052576
 20
283.2518587755719
 30
0.0
 40
7.344999999999885
100
AcDbArc
 50
59.75198538337817
 51
120.2480146166212
  0
LINE
  5
5FD
330
18
100
AcDbEntity
  8
外形線
  6
Continuous
100
AcDbLine
 10
373.1104466052577
 20
289.5968587755717
 30
0.0
 11
380.5104466052577
 21
289.5968587755717
 31
0.0
  0
POINT
  5
5FE
330
18
100
AcDbEntity
  8
DEFPOINTS
  6
ByBlock
 62
     0
100
AcDbPoint
 10
376.8104466052575
 20
287.6968587755719
 30
0.0
  0
LINE
  5
5FF
330
18
100
AcDbEntity
  8
目盛
100
AcDbLine
 10
392.5550300416174
 20
223.8305803448794
 30
0.0
 11
391.18593582976
 21
225.2885175997223
 31
0.0
  0
LINE
  5
600
330
18
100
AcDbEntity
  8
目盛
100
AcDbLine
 10
391.4711983694775
 20
222.8750541917287
 30
0.0
 11
390.1963503899802
 21
224.4160806772803
 31
0.0
  0
LINE
  5
601
330
18
100
AcDbEntity
  8
目盛
100
AcDbLine
 10
390.3295074079845
 20
221.9894679049481
 30
0.0
 11
388.566151651107
 21
224.4165188880729
 31
0.0
  0
LINE
  5
602
330
18
100
AcDbEntity
  8
目盛
100
AcDbLine
 10
389.1344628897745
 20
221.1773164890256
 30
0.0
 11
388.0628092998166
 21
222.8659723400296
 31
0.0
  0
LINE
  5
603
330
18
100
AcDbEntity
  8
目盛
100
AcDbLine
 10
387.890781109597
 20
220.441805134563
 30
0.0
 11
386.9272737613936
 21
222.1944184946508
 31
0.0
  0
LINE
  5
604
330
18
100
AcDbEntity
  8
目盛
100
AcDbLine
 10
386.6033703112542
 20
219.7858365688534
 30
0.0
 11
385.7518117281241
 21
221.5954906737855
 31
0.0
  0
LINE
  5
605
330
18
100
AcDbEntity
  8
目盛
100
AcDbLine
 10
385.2773113170052
 20
219.2119996001421
 30
0.0
 11
384.5410622116359
 21
221.0715525719186
 31
0.0
  0
TEXT
  5
606
330
18
100
AcDbEntity
  8
文字
100
AcDbText
 10
392.9019744571744
 20
245.265269006352
 30
0.0
 40
2.0
  1
2
  7
STYLE3
100
AcDbText
  0
LINE
  5
607
330
18
100
AcDbEntity
  8
目盛
100
AcDbLine
 10
396.9655002462665
 20
229.5165242712325
 30
0.0
 11
395.2128868861787
 21
230.4800316194359
 31
0.0
  0
LINE
  5
608
330
18
100
AcDbEntity
  8
目盛
100
AcDbLine
 10
396.229988891804
 20
228.272842491055
 30
0.0
 11
394.5413330407999
 21
229.344496081013
 31
0.0
  0
TEXT
  5
609
330
18
100
AcDbEntity
  8
文字
100
AcDbText
 10
393.03764808404
 20
233.7695670995861
 30
0.0
 40
2.0
  1
3
  7
STYLE3
100
AcDbText
  0
TEXT
  5
60A
330
18
100
AcDbEntity
  8
文字
100
AcDbText
 10
386.0973973364165
 20
224.6713443620404
 30
0.0
 40
2.0
  1
4
  7
STYLE3
100
AcDbText
  0
LINE
  5
60B
330
18
100
AcDbEntity
  8
目盛
100
AcDbLine
 10
395.4178374758813
 20
227.077797972845
 30
0.0
 11
392.9907864927566
 21
228.8411537297225
 31
0.0
  0
LINE
  5
60C
330
18
100
AcDbEntity
  8
目盛
100
AcDbLine
 10
394.5322511891007
 20
225.936107011352
 30
0.0
 11
392.9912247035491
 21
227.2109549908494
 31
0.0
  0
LINE
  5
60D
330
18
100
AcDbEntity
  8
目盛
100
AcDbLine
 10
393.57672503595
 20
224.8522753392121
 30
0.0
 11
392.1187877811072
 21
226.2213695510694
 31
0.0
  0
LINE
  5
60E
330
18
100
AcDbEntity
  8
目盛
100
AcDbLine
 10
399.087859311216
 20
234.8769913707802
 30
0.0
 11
397.1506929889589
 21
235.3743711451099
 31
0.0
  0
LINE
  5
60F
330
18
100
AcDbEntity
  8
目盛
100
AcDbLine
 10
398.684746480046
 20
233.4894679049481
 30
0.0
 11
395.8315769311606
 21
234.4165188880729
 31
0.0
  0
LINE
  5
610
330
18
100
AcDbEntity
  8
目盛
100
AcDbLine
 10
398.1953057806873
 20
232.1299940638243
 30
0.0
 11
396.3357528089107
 21
232.8662431691936
 31
0.0
  0
LINE
  5
611
330
18
100
AcDbEntity
  8
目盛
100
AcDbLine
 10
397.6214688119761
 20
230.8039350695752
 30
0.0
 11
395.8118147070439
 21
231.6554936527053
 31
0.0
  0
LINE
  5
612
330
18
100
AcDbEntity
  8
目盛
100
AcDbLine
 10
396.8104466052576
 20
240.5968587755718
 30
0.0
 11
399.8104466052576
 21
240.5968587755718
 31
0.0
  0
LINE
  5
613
330
18
100
AcDbEntity
  8
目盛
100
AcDbLine
 10
399.4030533720174
 20
244.9066290110434
 30
0.0
 11
397.43847887056
 21
244.531866381872
 31
0.0
  0
LINE
  5
614
330
18
100
AcDbEntity
  8
目盛
100
AcDbLine
 10
399.6290847354906
 20
243.4795231475509
 30
0.0
 11
397.6448553328615
 21
243.2288566804223
 31
0.0
  0
LINE
  5
615
330
18
100
AcDbEntity
  8
目盛
100
AcDbLine
 10
399.7650613591077
 20
242.041040724746
 30
0.0
 11
397.7690079022512
 21
241.9154596856874
 31
0.0
  0
LINE
  5
616
330
18
100
AcDbEntity
  8
目盛
100
AcDbLine
 10
399.7650613591077
 20
239.1526768263976
 30
0.0
 11
397.7690079022512
 21
239.2782578654562
 31
0.0
  0
LINE
  5
617
330
18
100
AcDbEntity
  8
目盛
100
AcDbLine
 10
399.6290847354906
 20
237.7141944035929
 30
0.0
 11
397.6448553328616
 21
237.9648608707215
 31
0.0
  0
LINE
  5
618
330
18
100
AcDbEntity
  8
目盛
100
AcDbLine
 10
399.4030533720174
 20
236.2870885401002
 30
0.0
 11
397.43847887056
 21
236.6618511692716
 31
0.0
  0
LINE
  5
619
330
18
100
AcDbEntity
  8
目盛
100
AcDbLine
 10
396.229988891804
 20
252.9208750600887
 30
0.0
 11
394.5413330407999
 21
251.8492214701307
 31
0.0
  0
LINE
  5
61A
330
18
100
AcDbEntity
  8
目盛
100
AcDbLine
 10
396.9655002462665
 20
251.6771932799112
 30
0.0
 11
395.2128868861787
 21
250.7136859317078
 31
0.0
  0
LINE
  5
61B
330
18
100
AcDbEntity
  8
目盛
100
AcDbLine
 10
392.5550300416174
 20
257.3631372062642
 30
0.0
 11
391.18593582976
 21
255.9051999514214
 31
0.0
  0
LINE
  5
61C
102
{ACAD_REACTORS
330
548
102
}
330
18
100
AcDbEntity
  8
ROGO
 62
     4
100
AcDbLine
 10
383.5510957956783
 20
247.9099466317724
 30
0.0
 11
384.3071629956782
 21
247.9099466317724
 31
0.0
  0
LINE
  5
61D
102
{ACAD_REACTORS
330
548
102
}
330
18
100
AcDbEntity
  8
ROGO
 62
     4
100
AcDbLine
 10
384.2824380251745
 20
249.9618254166783
 30
0.0
 11
385.0385052251746
 21
249.9618254166783
 31
0.0
  0
LINE
  5
61E
102
{ACAD_REACTORS
330
548
102
}
330
18
100
AcDbEntity
  8
ROGO
 62
     4
100
AcDbLine
 10
383.7955964798433
 20
248.9358860242254
 30
0.0
 11
385.0385052251746
 21
249.9618254166783
 31
0.0
  0
LINE
  5
61F
102
{ACAD_REACTORS
330
548
102
}
330
18
100
AcDbEntity
  8
ROGO
 62
     4
100
AcDbLine
 10
383.7955964798433
 20
248.9358860242254
 30
0.0
 11
384.3071629956782
 21
247.9099466317724
 31
0.0
  0
LINE
  5
620
102
{ACAD_REACTORS
330
548
102
}
330
18
100
AcDbEntity
  8
ROGO
 62
     4
100
AcDbLine
 10
383.9284249420957
 20
249.7378020078567
 30
0.0
 11
384.2824380251745
 21
249.9618254166783
 31
0.0
  0
LINE
  5
621
102
{ACAD_REACTORS
330
548
102
}
330
18
100
AcDbEntity
  8
ROGO
 62
     4
100
AcDbLine
 10
384.0401302490167
 20
249.9618254166783
 30
0.0
 11
383.9284249420957
 21
249.7378020078567
 31
0.0
  0
TEXT
  5
622
330
18
100
AcDbEntity
  8
文字
100
AcDbText
 10
386.2496439110013
 20
254.357398123883
 30
0.0
 40
2.0
  1
1
  7
STYLE3
100
AcDbText
  0
LINE
  5
623
330
18
100
AcDbEntity
  8
目盛
100
AcDbLine
 10
393.57672503595
 20
256.3414422119316
 30
0.0
 11
392.1187877811072
 21
254.9723480000742
 31
0.0
  0
LINE
  5
624
330
18
100
AcDbEntity
  8
目盛
100
AcDbLine
 10
394.5322511891007
 20
255.2576105397916
 30
0.0
 11
392.9912247035491
 21
253.9827625602943
 31
0.0
  0
LINE
  5
625
330
18
100
AcDbEntity
  8
目盛
100
AcDbLine
 10
395.4178374758813
 20
254.1159195782987
 30
0.0
 11
392.9907864927565
 21
252.3525638214213
 31
0.0
  0
LINE
  5
626
330
18
100
AcDbEntity
  8
目盛
100
AcDbLine
 10
390.3295074079845
 20
259.2042496461955
 30
0.0
 11
388.5661516511071
 21
256.7771986630707
 31
0.0
  0
LINE
  5
627
330
18
100
AcDbEntity
  8
目盛
100
AcDbLine
 10
385.2773113170053
 20
261.9817179510016
 30
0.0
 11
384.5410622116359
 21
260.122164979225
 31
0.0
  0
LINE
  5
628
330
18
100
AcDbEntity
  8
目盛
100
AcDbLine
 10
386.6033703112544
 20
261.4078809822902
 30
0.0
 11
385.7518117281242
 21
259.5982268773582
 31
0.0
  0
LINE
  5
629
330
18
100
AcDbEntity
  8
目盛
100
AcDbLine
 10
387.8907811095972
 20
260.7519124165806
 30
0.0
 11
386.9272737613937
 21
258.9992990564929
 31
0.0
  0
LINE
  5
62A
330
18
100
AcDbEntity
  8
目盛
100
AcDbLine
 10
389.1344628897746
 20
260.0164010621181
 30
0.0
 11
388.0628092998166
 21
258.3277452111141
 31
0.0
  0
LINE
  5
62B
330
18
100
AcDbEntity
  8
目盛
100
AcDbLine
 10
391.4711983694775
 20
258.3186633594149
 30
0.0
 11
390.1963503899801
 21
256.7776368738634
 31
0.0
  0
LINE
  5
62C
330
18
100
AcDbEntity
  8
目盛
100
AcDbLine
 10
397.6214688119761
 20
250.3897824815685
 30
0.0
 11
395.811814707044
 21
249.5382238984383
 31
0.0
  0
LINE
  5
62D
330
18
100
AcDbEntity
  8
目盛
100
AcDbLine
 10
398.1953057806873
 20
249.0637234873194
 30
0.0
 11
396.3357528089107
 21
248.32747438195
 31
0.0
  0
LINE
  5
62E
330
18
100
AcDbEntity
  8
目盛
100
AcDbLine
 10
398.684746480046
 20
247.7042496461956
 30
0.0
 11
395.8315769311606
 21
246.7771986630708
 31
0.0
  0
LINE
  5
62F
330
18
100
AcDbEntity
  8
目盛
100
AcDbLine
 10
399.0878593112162
 20
246.3167261803635
 30
0.0
 11
397.1506929889589
 21
245.8193464060337
 31
0.0
  0
CIRCLE
  5
630
330
18
100
AcDbEntity
  8
外形線
100
AcDbCircle
 10
376.8104466052576
 20
240.5968587755718
 30
0.0
 40
26.4
  0
LINE
  5
660
330
18
100
AcDbEntity
  8
外形線
 48
0.5
100
AcDbLine
 10
373.8104466052575
 20
196.0968587755719
 30
0.0
 11
379.8104466052576
 21
196.0968587755718
 31
0.0
  0
LINE
  5
661
330
18
100
AcDbEntity
  8
外形線
 48
0.5
100
AcDbLine
 10
375.0604466052576
 20
181.0968587755718
 30
0.0
 11
378.5604466052577
 21
181.0968587755718
 31
0.0
  0
LINE
  5
662
330
18
100
AcDbEntity
  8
外形線
 48
0.5
100
AcDbLine
 10
380.8104466052577
 20
197.0968587755718
 30
0.0
 11
380.8104466052573
 21
214.5016484870916
 31
0.0
  0
LINE
  5
663
330
18
100
AcDbEntity
  8
外形線
 48
0.5
100
AcDbLine
 10
372.8104466052575
 20
197.0968587755719
 30
0.0
 11
372.8104466052579
 21
214.5016484870916
 31
0.0
  0
LINE
  5
664
330
18
100
AcDbEntity
  8
外形線
 48
0.5
100
AcDbLine
 10
372.8104466052575
 20
197.0968587755717
 30
0.0
 11
380.8104466052576
 21
197.0968587755718
 31
0.0
  0
LINE
  5
665
330
18
100
AcDbEntity
  8
外形線
 48
0.5
100
AcDbLine
 10
372.8104466052575
 20
197.0968587755719
 30
0.0
 11
373.8104466052575
 21
196.0968587755719
 31
0.0
  0
LINE
  5
666
330
18
100
AcDbEntity
  8
外形線
 48
0.5
100
AcDbLine
 10
379.8104466052576
 20
196.0968587755718
 30
0.0
 11
380.8104466052577
 21
197.0968587755718
 31
0.0
  0
LINE
  5
667
330
18
100
AcDbEntity
  8
外形線
 48
0.5
100
AcDbLine
 10
378.5604466052575
 20
180.0329650611372
 30
0.0
 11
378.5604466052575
 21
196.0968587755718
 31
0.0
  0
LINE
  5
668
330
18
100
AcDbEntity
  8
外形線
 48
0.5
100
AcDbLine
 10
375.0604466052576
 20
180.0329650611376
 30
0.0
 11
375.0604466052575
 21
196.0968587755718
 31
0.0
  0
ARC
  5
669
330
18
100
AcDbEntity
  8
外形線
100
AcDbCircle
 10
376.8104466052576
 20
177.6968587755718
 30
0.0
 40
0.6
100
AcDbArc
 50
201.3119739705772
 51
338.6880260293593
  0
LINE
  5
66A
330
18
100
AcDbEntity
  8
外形線
100
AcDbLine
 10
377.3694157811206
 20
177.478791216235
 30
0.0
 11
378.5604466052577
 21
180.0329650611372
 31
0.0
  0
LINE
  5
66B
330
18
100
AcDbEntity
  8
外形線
100
AcDbLine
 10
376.2514774293947
 20
177.478791216235
 30
0.0
 11
375.0604466052575
 21
180.0329650611375
 31
0.0
  0
LINE
  5
66C
330
18
100
AcDbEntity
  8
外形線
100
AcDbLine
 10
375.0604466052576
 20
180.0329650611375
 30
0.0
 11
378.5604466052576
 21
180.0329650611372
 31
0.0
  0
LINE
  5
66E
330
18
100
AcDbEntity
  8
外形線
 48
0.5
100
AcDbLine
 10
373.8104466052575
 20
162.0968587755718
 30
0.0
 11
373.8104466052575
 21
177.0968587755718
 31
0.0
  0
LINE
  5
670
330
18
100
AcDbEntity
  8
外形線
100
AcDbLine
 10
373.8104466052575
 20
162.0968587755718
 30
0.0
 11
385.8104466052576
 21
162.0968587755718
 31
0.0
  0
LINE
  5
671
330
18
100
AcDbEntity
  8
中心線
100
AcDbLine
 10
376.4313584611074
 20
165.0968587755718
 30
0.0
 11
381.3136494264308
 21
165.0968587755718
 31
0.0
  0
LINE
  5
672
330
18
100
AcDbEntity
  8
中心線
100
AcDbLine
 10
376.4313584611074
 20
171.0968587755718
 30
0.0
 11
381.3136494264308
 21
171.0968587755718
 31
0.0
  0
LINE
  5
673
330
18
100
AcDbEntity
  8
中心線
 48
0.5
100
AcDbLine
 10
378.8104466052576
 20
162.3731384023327
 30
0.0
 11
378.8104466052576
 21
173.7297535881696
 31
0.0
  0
CIRCLE
  5
674
330
18
100
AcDbEntity
  8
外形線
100
AcDbCircle
 10
378.8104466052575
 20
171.0968587755718
 30
0.0
 40
1.8
  0
CIRCLE
  5
675
330
18
100
AcDbEntity
  8
外形線
100
AcDbCircle
 10
378.8104466052576
 20
165.0968587755718
 30
0.0
 40
1.8
  0
LINE
  5
677
330
18
100
AcDbEntity
  8
想像線
100
AcDbLine
 10
392.5492209496267
 20
201.8580844312029
 30
0.0
 11
391.0716164278253
 21
203.3356889530042
 31
0.0
  0
LINE
  5
678
330
18
100
AcDbEntity
  8
想像線
100
AcDbLine
 10
392.5596332959758
 20
203.3460454662901
 30
0.0
 11
391.0341339694412
 21
201.8205461397556
 31
0.0
  0
CIRCLE
  5
679
330
18
100
AcDbEntity
  8
想像線
100
AcDbCircle
 10
391.8104466052576
 20
202.5968587755718
 30
0.0
 40
1.5
  0
LINE
  5
67B
330
18
100
AcDbEntity
  8
中心線
100
AcDbLine
 10
391.8104466052576
 20
199.6840790576353
 30
0.0
 11
391.8104466052576
 21
214.6470444200248
 31
0.0
  0
LINE
  5
67C
330
18
100
AcDbEntity
  8
想像線
 48
0.5
100
AcDbLine
 10
394.8104466052579
 20
200.1968587755719
 30
0.0
 11
388.8104466052573
 21
200.1968587755719
 31
0.0
  0
LINE
  5
67D
330
18
100
AcDbEntity
  8
想像線
100
AcDbLine
 10
392.5492209496267
 20
210.8580844312029
 30
0.0
 11
391.0716164278253
 21
212.3356889530042
 31
0.0
  0
LINE
  5
67E
330
18
100
AcDbEntity
  8
想像線
100
AcDbLine
 10
392.5596332959756
 20
212.34604546629
 30
0.0
 11
391.0341339694412
 21
210.8205461397554
 31
0.0
  0
CIRCLE
  5
67F
330
18
100
AcDbEntity
  8
想像線
100
AcDbCircle
 10
391.8104466052576
 20
211.5968587755718
 30
0.0
 40
1.5
  0
LINE
  5
680
330
18
100
AcDbEntity
  8
中心線
100
AcDbLine
 10
395.0286576192505
 20
211.5968587755718
 30
0.0
 11
388.7762707503396
 21
211.5968587755718
 31
0.0
  0
LINE
  5
681
330
18
100
AcDbEntity
  8
中心線
100
AcDbLine
 10
395.2300871723723
 20
202.5968587755719
 30
0.0
 11
388.5223734096367
 21
202.5968587755719
 31
0.0
  0
LINE
  5
685
330
18
100
AcDbEntity
  8
想像線
100
AcDbLine
 10
379.5492209496269
 20
170.358084431203
 30
0.0
 11
378.0716164278255
 21
171.8356889530042
 31
0.0
  0
LINE
  5
686
330
18
100
AcDbEntity
  8
想像線
100
AcDbLine
 10
379.5596332959757
 20
171.8460454662901
 30
0.0
 11
378.0341339694414
 21
170.3205461397555
 31
0.0
  0
LINE
  5
687
330
18
100
AcDbEntity
  8
想像線
100
AcDbLine
 10
379.5492209496266
 20
164.3580844312029
 30
0.0
 11
378.0716164278252
 21
165.8356889530041
 31
0.0
  0
LINE
  5
688
330
18
100
AcDbEntity
  8
想像線
100
AcDbLine
 10
379.5596332959757
 20
165.8460454662901
 30
0.0
 11
378.0341339694411
 21
164.3205461397555
 31
0.0
  0
LINE
  5
6C4
330
18
100
AcDbEntity
  8
想像線
 48
0.5
100
AcDbLine
 10
366.8104466052575
 20
214.1968587755717
 30
0.0
 11
394.8104466052575
 21
214.1968587755719
 31
0.0
  0
LINE
  5
6C5
330
18
100
AcDbEntity
  8
想像線
 48
0.5
100
AcDbLine
 10
388.8104466052575
 20
214.1968587755718
 30
0.0
 11
388.8104466052579
 21
159.1968587755718
 31
0.0
  0
LINE
  5
6C8
330
18
100
AcDbEntity
  8
想像線
 48
0.5
100
AcDbLine
 10
394.8104466052575
 20
214.1968587755719
 30
0.0
 11
394.8104466052579
 21
200.1968587755719
 31
0.0
  0
LINE
  5
6C9
330
18
100
AcDbEntity
  8
想像線
 48
0.5
100
AcDbLine
 10
366.8104466052575
 20
214.1968587755717
 30
0.0
 11
366.8104466052579
 21
159.1968587755717
 31
0.0
  0
LINE
  5
6CA
330
18
100
AcDbEntity
  8
想像線
 48
0.5
100
AcDbLine
 10
366.8104466052579
 20
159.1968587755717
 30
0.0
 11
388.8104466052579
 21
159.1968587755718
 31
0.0
  0
LINE
  5
6CB
330
18
100
AcDbEntity
  8
中心線
 48
0.5
100
AcDbLine
 10
14.89293790226634
 20
174.5968587755718
 30
0.0
 11
514.6756189106749
 21
174.5968587755718
 31
0.0
  0
DIMENSION
  5
6E7
330
18
100
AcDbEntity
  8
外形線
100
AcDbDimension
  2
*D3
 10
520.5080808692486
 20
159.5968587755718
 30
0.0
 11
518.6330808692487
 21
174.5968587755719
 31
0.0
 70
    32
 71
     5
 42
30.0
  3
STYLE3
100
AcDbAlignedDimension
 13
503.8104466052575
 23
189.5968587755718
 33
0.0
 14
503.8104466052575
 24
159.5968587755718
 34
0.0
 50
90.0
100
AcDbRotatedDimension
1001
ACAD
1000
DSTYLE
1002
{
1070
   271
1070
     2
1002
}
  0
LINE
  5
703
330
18
100
AcDbEntity
  8
0
  6
ByBlock
 62
     2
100
AcDbLine
 10
408.8104466052575
 20
159.987102113497
 30
0.0
 11
408.8104466052575
 21
71.59002531576494
 31
0.0
  0
LINE
  5
704
330
18
100
AcDbEntity
  8
0
  6
ByBlock
 62
     2
100
AcDbLine
 10
351.3104466052575
 20
72.84002531576494
 30
0.0
 11
406.3104466052576
 21
72.84002531576494
 31
0.0
  0
INSERT
  5
705
330
18
100
AcDbEntity
  8
0
  6
ByBlock
 62
     2
100
AcDbBlockReference
  2
_OPEN
 10
348.8104466052575
 20
72.84002531576494
 30
0.0
 41
2.5
 42
2.5
 43
2.5
 50
180.0
  0
INSERT
  5
706
330
18
100
AcDbEntity
  8
0
  6
ByBlock
 62
     2
100
AcDbBlockReference
  2
_OPEN
 10
408.8104466052575
 20
72.84002531576494
 30
0.0
 41
2.5
 42
2.5
 43
2.5
  0
MTEXT
  5
707
330
18
100
AcDbEntity
  8
0
  6
ByBlock
 62
     6
100
AcDbMText
 10
378.8104466052575
 20
74.71502531576494
 30
0.0
 40
2.5
 41
0.0
 71
     5
 72
     1
  1
\A1;60
  7
STYLE3
 73
     1
 44
1.0
  0
POINT
  5
709
330
18
100
AcDbEntity
  8
DEFPOINTS
  6
ByBlock
 62
     0
100
AcDbPoint
 10
408.8104466052575
 20
160.8968587755718
 30
0.0
  0
POINT
  5
70A
330
18
100
AcDbEntity
  8
DEFPOINTS
  6
ByBlock
 62
     0
100
AcDbPoint
 10
408.8104466052575
 20
72.84002531576494
 30
0.0
  0
DIMENSION
  5
71B
330
18
100
AcDbEntity
  8
外形線
100
AcDbDimension
  2
*D4
 10
323.6727585641845
 20
169.5968587755718
 30
0.0
 11
310.3587062824324
 21
172.0968587755718
 31
0.0
 12
11.43905228175208
 22
0.0
 32
0.0
 70
    32
 71
     5
 42
-1.0
  3
STYLE3
100
AcDbAlignedDimension
 13
325.9399360109676
 23
174.5968587755718
 33
0.0
 14
326.6375296690715
 24
169.5968587755718
 34
0.0
 50
90.0
100
AcDbRotatedDimension
1001
ACAD
1000
DSTYLE
1002
{
1070
   271
1070
     2
1002
}
  0
DIMENSION
  5
72A
330
18
100
AcDbEntity
  8
外形線
100
AcDbDimension
  2
*D5
 10
113.5954653923631
 20
174.5968587755718
 30
0.0
 11
111.7204653923631
 21
241.5968587755718
 31
0.0
 70
    32
 71
     5
 42
-1.0
  3
STYLE3
100
AcDbAlignedDimension
 13
111.4113348466314
 23
308.5968587755719
 33
0.0
 14
114.323508907607
 24
174.5968587755718
 34
0.0
 50
90.0
100
AcDbRotatedDimension
1001
ACAD
1000
DSTYLE
1002
{
1070
   271
1070
     2
1002
}
  0
DIMENSION
  5
736
330
18
100
AcDbEntity
  8
外形線
100
AcDbDimension
  2
*D6
 10
113.5954653923631
 20
159.5968587755718
 30
0.0
 11
111.7204653923631
 21
167.0968587755718
 31
0.0
 70
    32
 71
     5
 42
-1.0
  3
STYLE3
100
AcDbAlignedDimension
 13
114.323508907607
 23
174.5968587755718
 33
0.0
 14
116.5076394533387
 24
159.5968587755718
 34
0.0
 50
90.0
100
AcDbRotatedDimension
1001
ACAD
1000
DSTYLE
1002
{
1070
    75
1070
     1
1070
   271
1070
     2
1070
   279
1070
     1
1002
}
  0
DIMENSION
  5
743
330
18
100
AcDbEntity
  8
外形線
100
AcDbDimension
  2
*D7
 10
131.0685097582168
 20
159.5968587755718
 30
0.0
 11
129.1935097582168
 21
234.0968587755718
 31
0.0
 70
    32
 71
     5
 42
-1.0
  3
STYLE3
100
AcDbAlignedDimension
 13
132.5245967887044
 23
308.5968587755719
 33
0.0
 14
131.0685097582168
 24
159.5968587755718
 34
0.0
 50
90.0
100
AcDbRotatedDimension
1001
ACAD
1000
DSTYLE
1002
{
1070
   271
1070
     2
1002
}
  0
ARC
  5
74A
330
18
100
AcDbEntity
  8
隠れ線2
100
AcDbCircle
 10
376.8104466052575
 20
240.5968587755718
 30
0.0
 40
25.0
100
AcDbArc
 50
345.1648884180241
 51
48.61035577123959
  0
LINE
  5
74B
330
18
100
AcDbEntity
  8
隠れ線2
100
AcDbLine
 10
400.8104466052575
 20
232.9157130277031
 30
0.0
 11
400.8104466052576
 21
229.5986771076778
 31
0.0
  0
ARC
  5
74D
330
18
100
AcDbEntity
  8
隠れ線2
100
AcDbCircle
 10
397.9764466052576
 20
264.5968587755718
 30
0.0
 40
7.0
100
AcDbArc
 50
195.6644865860725
 51
220.4795410555673
  0
ARC
  5
754
330
18
100
AcDbEntity
  8
寸法線１
100
AcDbCircle
 10
348.8104466052575
 20
169.5968587755718
 30
0.0
 40
280.0
100
AcDbArc
 50
175.8533042644075
 51
209.1329879338601
  0
ARC
  5
763
330
18
100
AcDbEntity
  8
寸法線１
100
AcDbCircle
 10
348.8104466052575
 20
169.5968587755718
 30
0.0
 40
28.0
100
AcDbArc
 50
342.6980226606023
 51
59.57023208142086
  0
LINE
  5
76D
330
18
100
AcDbEntity
  8
0
  6
ByBlock
 62
     2
100
AcDbLine
 10
348.8104466052576
 20
169.5968587755721
 30
0.0
 11
365.773593668707
 21
191.8735650335396
 31
0.0
  0
MTEXT
  5
76E
330
18
100
AcDbEntity
  8
0
  6
ByBlock
 62
     6
100
AcDbMText
 10
358.9267748208153
 20
185.9769839391315
 30
0.0
 40
2.5
 41
0.0
 71
     5
 72
     1
  1
\A1;R28
  7
STYLE3
 11
0.6058266808374818
 21
0.7955966520702812
 31
0.0
 73
     1
 44
1.0
  0
INSERT
  5
76F
330
18
100
AcDbEntity
  8
0
  6
ByBlock
 62
     2
100
AcDbBlockReference
  2
_OPEN
 10
365.773593668707
 20
191.8735650335396
 30
0.0
 41
2.5
 42
2.5
 43
2.5
 50
52.71164730639982
  0
POINT
  5
770
330
18
100
AcDbEntity
  8
DEFPOINTS
  6
ByBlock
 62
     0
100
AcDbPoint
 10
365.773593668707
 20
191.8735650335396
 30
0.0
  0
POINT
  5
771
330
18
100
AcDbEntity
  8
DEFPOINTS
  6
ByBlock
 62
     0
100
AcDbPoint
 10
348.8104466052575
 20
169.5968587755718
 30
0.0
  0
LINE
  5
77B
330
18
100
AcDbEntity
  8
0
  6
ByBlock
 62
     2
100
AcDbLine
 10
348.8104466052576
 20
169.5968587755719
 30
0.0
 11
79.48396402312147
 21
93.02502465927052
 31
0.0
  0
MTEXT
  5
77C
330
18
100
AcDbEntity
  8
0
  6
ByBlock
 62
     6
100
AcDbMText
 10
178.9997460139463
 20
123.2675239206324
 30
0.0
 40
2.5
 41
0.0
 71
     5
 72
     1
  1
\A1;R280
  7
STYLE3
 11
0.9618802949362001
 21
0.2734708361296478
 31
0.0
 73
     1
 44
1.0
  0
INSERT
  5
77D
330
18
100
AcDbEntity
  8
0
  6
ByBlock
 62
     2
100
AcDbBlockReference
  2
_OPEN
 10
79.48396402312147
 20
93.02502465927052
 30
0.0
 41
2.5
 42
2.5
 43
2.5
 50
195.8709066908285
  0
POINT
  5
77E
330
18
100
AcDbEntity
  8
DEFPOINTS
  6
ByBlock
 62
     0
100
AcDbPoint
 10
79.48396402312147
 20
93.02502465927052
 30
0.0
  0
POINT
  5
77F
330
18
100
AcDbEntity
  8
DEFPOINTS
  6
ByBlock
 62
     0
100
AcDbPoint
 10
348.8104466052575
 20
169.5968587755719
 30
0.0
  0
LINE
  5
78A
330
18
100
AcDbEntity
  8
想像線
 48
0.2
100
AcDbLine
 10
95.53323380304981
 20
44.32492631577714
 30
0.0
 11
97.19624849415964
 21
37.00678022426014
 31
0.0
  0
LINE
  5
78B
330
18
100
AcDbEntity
  8
想像線
 48
0.2
100
AcDbLine
 10
100.0799939622948
 20
46.40506382428517
 30
0.0
 11
104.525473728145
 21
39.93181136214566
 31
0.0
  0
ARC
  5
78C
330
18
100
AcDbEntity
  8
想像線
 48
0.2
100
AcDbCircle
 10
97.80661388267233
 20
45.36499507003114
 30
0.0
 40
2.5
100
AcDbArc
 50
24.58403983883019
 51
204.5840398388302
  0
POINT
  5
7A1
330
18
100
AcDbEntity
  8
DEFPOINTS
  6
ByBlock
 62
     0
100
AcDbPoint
 10
68.81044660525752
 20
174.5968587755718
 30
0.0
  0
POINT
  5
7B8
330
18
100
AcDbEntity
  8
DEFPOINTS
  6
ByBlock
 62
     0
100
AcDbPoint
 10
68.81044660525754
 20
174.5968587755718
 30
0.0
  0
POINT
  5
7B9
330
18
100
AcDbEntity
  8
DEFPOINTS
  6
ByBlock
 62
     0
100
AcDbPoint
 10
96.77225392654143
 20
47.62657784104916
 30
0.0
  0
LINE
  5
7CA
330
18
100
AcDbEntity
  8
0
  6
ByBlock
 62
     2
100
AcDbLine
 10
68.81044660525754
 20
174.5968587755718
 30
0.0
 11
32.74473444252078
 21
166.6552342875207
 31
0.0
  0
LINE
  5
7CB
330
18
100
AcDbEntity
  8
0
  6
ByBlock
 62
     2
100
AcDbLine
 10
96.76654512841833
 20
47.63837514965366
 30
0.0
 11
60.70083296568154
 21
39.69675066160256
 31
0.0
  0
LINE
  5
7CC
330
18
100
AcDbEntity
  8
0
  6
ByBlock
 62
     2
100
AcDbLine
 10
34.50310637158143
 20
164.4825336272614
 30
0.0
 11
61.38397033645268
 21
42.4070686010067
 31
0.0
  0
INSERT
  5
7CD
330
18
100
AcDbEntity
  8
0
  6
ByBlock
 62
     2
100
AcDbBlockReference
  2
_OPEN
 10
33.96548909243667
 20
166.9240429270931
 30
0.0
 41
2.5
 42
2.5
 43
2.5
 50
102.4182795223524
  0
INSERT
  5
7CE
330
18
100
AcDbEntity
  8
0
  6
ByBlock
 62
     2
100
AcDbBlockReference
  2
_OPEN
 10
61.92158761559743
 20
39.96555930117493
 30
0.0
 41
2.5
 42
2.5
 43
2.5
 50
282.4182795223524
  0
POINT
  5
7D0
330
18
100
AcDbEntity
  8
DEFPOINTS
  6
ByBlock
 62
     0
100
AcDbPoint
 10
68.81044660525754
 20
174.5968587755718
 30
0.0
  0
POINT
  5
7D1
330
18
100
AcDbEntity
  8
DEFPOINTS
  6
ByBlock
 62
     0
100
AcDbPoint
 10
96.76654512841833
 20
47.63837514965366
 30
0.0
  0
POINT
  5
7D2
330
18
100
AcDbEntity
  8
DEFPOINTS
  6
ByBlock
 62
     0
100
AcDbPoint
 10
61.92158761559743
 20
39.96555930117493
 30
0.0
  0
MTEXT
  5
7D4
330
18
100
AcDbEntity
  8
0
  6
ByBlock
 62
     6
100
AcDbMText
 10
46.06735007689283
 20
102.7551436976828
 30
0.0
 40
2.499999999999999
 41
0.0
 71
     5
 72
     1
  1
\A1;130
  7
STYLE3
 11
-0.215046911657902
 21
0.9766037199327058
 31
0.0
 73
     1
 44
1.0
  0
DIMENSION
  5
7E3
330
18
100
AcDbEntity
  8
寸法線１
100
AcDbDimension
  2
*D8
 10
508.8104466052576
 20
62.54102026730624
 30
0.0
 11
288.8104466052575
 21
64.41602026730624
 31
0.0
 70
    32
 71
     5
 42
-1.0
  3
STYLE3
100
AcDbAlignedDimension
 13
68.81044660525754
 23
174.5968587755718
 33
0.0
 14
508.8104466052576
 24
71.59002531576494
 34
0.0
100
AcDbRotatedDimension
1001
ACAD
1000
DSTYLE
1002
{
1070
   271
1070
     2
1002
}
  0
CIRCLE
  5
7EC
330
18
100
AcDbEntity
  8
隠れ線
 62
     4
 48
0.5
100
AcDbCircle
 10
361.6633525534569
 20
161.8900992482872
 30
0.0
 40
1.5
  0
LINE
  5
7EF
330
18
100
AcDbEntity
  8
中心線
 48
0.5
100
AcDbLine
 10
340.9747138611953
 20
218.4632898531265
 30
0.0
 11
289.6594847298785
 21
130.0811102428209
 31
0.0
  0
LINE
  5
805
330
18
100
AcDbEntity
  8
外形線
100
AcDbLine
 10
339.5937353094611
 20
210.8070521500314
 30
0.0
 11
295.7106171392773
 21
135.2254811888589
 31
0.0
  0
LINE
  5
806
330
18
100
AcDbEntity
  8
外形線
100
AcDbLine
 10
335.0102760712378
 20
213.4682363622847
 30
0.0
 11
291.1271579010541
 21
137.8866654011122
 31
0.0
  0
CIRCLE
  5
807
330
18
100
AcDbEntity
  8
外形線
100
AcDbCircle
 10
339.3104466052575
 20
215.5968587755718
 30
0.0
 40
2.5
  0
CIRCLE
  5
808
330
18
100
AcDbEntity
  8
外形線
100
AcDbCircle
 10
339.3104466052575
 20
215.5968587755718
 30
0.0
 40
1.85
  0
LINE
  5
809
330
18
100
AcDbEntity
  8
中心線
 48
0.5
100
AcDbLine
 10
336.3925275292551
 20
217.2910202754571
 30
0.0
 11
343.1155028380903
 21
213.3876200658423
 31
0.0
  0
LINE
  5
80B
330
18
100
AcDbEntity
  8
外形線
100
AcDbLine
 10
335.0102760712378
 20
213.4682363622847
 30
0.0
 11
339.5937353094611
 21
210.8070521500314
 31
0.0
  0
CIRCLE
  5
80C
330
18
100
AcDbEntity
  8
外形線
100
AcDbCircle
 10
291.4104466052576
 20
133.0968587755718
 30
0.0
 40
1.85
  0
CIRCLE
  5
80D
330
18
100
AcDbEntity
  8
外形線
100
AcDbCircle
 10
291.4104466052576
 20
133.0968587755718
 30
0.0
 40
2.5
  0
LINE
  5
80E
330
18
100
AcDbEntity
  8
中心線
 48
0.5
100
AcDbLine
 10
288.317829889232
 20
134.8924507840279
 30
0.0
 11
294.4213665170717
 21
131.3487004267731
 31
0.0
  0
LINE
  5
811
330
18
100
AcDbEntity
  8
外形線
100
AcDbLine
 10
291.1271579010541
 20
137.8866654011122
 30
0.0
 11
295.7106171392773
 21
135.2254811888589
 31
0.0
  0
LINE
  5
812
330
18
100
AcDbEntity
  8
想像線
 48
0.7
100
AcDbLine
 10
339.9811547324437
 20
212.0717977914039
 30
0.0
 11
294.8847194020725
 21
134.4004843309527
 31
0.0
  0
LINE
  5
813
330
18
100
AcDbEntity
  8
想像線
 48
0.7
100
AcDbLine
 10
335.9165776721324
 20
214.4317158664211
 30
0.0
 11
290.8201423417614
 21
136.7604024059697
 31
0.0
  0
LINE
  5
817
330
18
100
AcDbEntity
  8
中心線
 48
0.5
100
AcDbLine
 10
21.73553142553988
 20
201.2556172043328
 30
0.0
 11
21.73553142553988
 21
143.2389828397428
 31
0.0
  0
LINE
  5
818
330
18
100
AcDbEntity
  8
隠れ線
 62
     4
 48
0.3
100
AcDbLine
 10
67.81044660525754
 20
182.5968587755718
 30
0.0
 11
69.81044660525753
 21
182.5968587755718
 31
0.0
  0
LINE
  5
81B
330
18
100
AcDbEntity
  8
隠れ線
 62
     4
 48
0.3
100
AcDbLine
 10
69.81044660525753
 20
174.8055709280939
 30
0.0
 11
69.81044660525753
 21
182.5968587755718
 31
0.0
  0
LINE
  5
81C
330
18
100
AcDbEntity
  8
隠れ線
 62
     4
 48
0.3
100
AcDbLine
 10
67.81044660525754
 20
174.8055709280939
 30
0.0
 11
67.81044660525754
 21
182.5968587755718
 31
0.0
  0
LINE
  5
81D
330
18
100
AcDbEntity
  8
隠れ線
 62
     4
 48
0.3
100
AcDbLine
 10
69.81044660525753
 20
174.3881466230497
 30
0.0
 11
69.81044660525753
 21
166.5968587755718
 31
0.0
  0
LINE
  5
81E
330
18
100
AcDbEntity
  8
隠れ線
 62
     4
 48
0.3
100
AcDbLine
 10
67.81044660525754
 20
174.3881466230497
 30
0.0
 11
67.81044660525754
 21
166.5968587755718
 31
0.0
  0
LINE
  5
81F
330
18
100
AcDbEntity
  8
隠れ線
 62
     4
 48
0.3
100
AcDbLine
 10
67.81044660525754
 20
166.5968587755718
 30
0.0
 11
69.81044660525753
 21
166.5968587755718
 31
0.0
  0
LINE
  5
820
330
18
100
AcDbEntity
  8
外形線
 48
0.5
100
AcDbLine
 10
23.73553142553988
 20
196.4178458389691
 30
0.0
 11
23.73553142553988
 21
153.7461911733284
 31
0.0
  0
LINE
  5
821
330
18
100
AcDbEntity
  8
外形線
 48
0.5
100
AcDbLine
 10
19.73553142553987
 20
195.3460490692445
 30
0.0
 11
19.73553142553987
 21
152.6743944036039
 31
0.0
  0
LINE
  5
822
330
18
100
AcDbEntity
  8
想像線
 48
0.3
100
AcDbLine
 10
16.68645053149862
 20
194.529050306029
 30
0.0
 11
26.34570879438931
 21
197.1172407570542
 31
0.0
  0
LINE
  5
824
330
18
100
AcDbEntity
  8
想像線
 48
0.3
100
AcDbLine
 10
16.68645053149862
 20
151.8573956403884
 30
0.0
 11
26.34570879438931
 21
154.4455860914136
 31
0.0
  0
LINE
  5
826
330
18
100
AcDbEntity
  8
外形線
100
AcDbLine
 10
19.73553142553987
 20
174.5968587755718
 30
0.0
 11
23.73553142553988
 21
174.5968587755718
 31
0.0
  0
DIMENSION
  5
835
330
18
100
AcDbEntity
  8
外形線
100
AcDbDimension
  2
*D9
 10
23.73553142553988
 20
218.2822379673436
 30
0.0
 11
31.74148380649226
 21
220.8119998721055
 31
0.0
 70
    32
  1
(4)
 71
     5
 42
-1.0
  3
STYLE3
100
AcDbAlignedDimension
 13
19.73553142553987
 23
195.3460490692445
 33
0.0
 14
23.73553142553988
 24
196.4178458389691
 34
0.0
100
AcDbRotatedDimension
1001
ACAD
1000
DSTYLE
1002
{
1070
   271
1070
     2
1002
}
  0
LINE
  5
858
330
18
100
AcDbEntity
  8
隠れ線
 62
     4
 48
0.5
100
AcDbLine
 10
291.6263029241664
 20
137.5968587755718
 30
0.0
 11
297.0874533381082
 21
137.5968587755718
 31
0.0
  0
LINE
  5
85C
330
18
100
AcDbEntity
  8
外線
100
AcDbLine
 10
297.0874533381082
 20
137.5968587755718
 30
0.0
 11
302.8104466052575
 21
137.5968587755718
 31
0.0
  0
LINE
  5
85D
330
18
100
AcDbEntity
  8
隠れ線
 62
     4
 48
0.5
100
AcDbLine
 10
334.8104466052575
 20
213.1240624386234
 30
0.0
 11
334.8104466052575
 21
202.5686112711838
 31
0.0
  0
LINE
  5
860
330
18
100
AcDbEntity
  8
外形線
100
AcDbLine
 10
334.8104466052575
 20
202.5686112711838
 30
0.0
 11
334.8104466052575
 21
169.5968587755718
 31
0.0
  0
LINE
  5
86A
330
18
100
AcDbEntity
  8
外形線
 48
0.5
100
AcDbLine
 10
385.8104466052576
 20
162.0968587755718
 30
0.0
 11
385.8104466052576
 21
177.0968587755718
 31
0.0
  0
LINE
  5
87C
330
18
100
AcDbEntity
  8
外形線
100
AcDbLine
 10
373.8104466052575
 20
177.0968587755718
 30
0.0
 11
385.8104466052576
 21
177.0968587755718
 31
0.0
  0
LINE
  5
897
330
18
100
AcDbEntity
  8
寸法線１
100
AcDbLine
 10
68.81044660525754
 20
174.5968587755718
 30
0.0
 11
68.81044660525754
 21
348.5520491686593
 31
0.0
  0
LINE
  5
8AB
330
18
100
AcDbEntity
  8
想像線
100
AcDbLine
 10
303.8104466052576
 20
352.5632077049031
 30
0.0
 11
303.8104466052576
 21
99.35203896519148
 31
0.0
  0
LINE
  5
8AC
330
18
100
AcDbEntity
  8
0
  6
ByBlock
 62
     2
100
AcDbLine
 10
68.81044660525754
 20
339.5782843724478
 30
0.0
 11
68.81044660525754
 21
352.5632077049031
 31
0.0
  0
LINE
  5
8AE
330
18
100
AcDbEntity
  8
0
  6
ByBlock
 62
     2
100
AcDbLine
 10
71.31044660525754
 20
351.3132077049031
 30
0.0
 11
301.3104466052576
 21
351.3132077049031
 31
0.0
  0
INSERT
  5
8AF
330
18
100
AcDbEntity
  8
0
  6
ByBlock
 62
     2
100
AcDbBlockReference
  2
_OPEN
 10
68.81044660525754
 20
351.3132077049031
 30
0.0
 41
2.5
 42
2.5
 43
2.5
 50
180.0
  0
INSERT
  5
8B0
330
18
100
AcDbEntity
  8
0
  6
ByBlock
 62
     2
100
AcDbBlockReference
  2
_OPEN
 10
303.8104466052576
 20
351.3132077049031
 30
0.0
 41
2.5
 42
2.5
 43
2.5
  0
MTEXT
  5
8B1
330
18
100
AcDbEntity
  8
0
  6
ByBlock
 62
     6
100
AcDbMText
 10
186.3104466052575
 20
353.1882077049031
 30
0.0
 40
2.5
 41
0.0
 71
     5
 72
     1
  1
\A1;235
  7
STYLE3
 73
     1
 44
1.0
  0
POINT
  5
8B2
330
18
100
AcDbEntity
  8
DEFPOINTS
  6
ByBlock
 62
     0
100
AcDbPoint
 10
68.81044660525754
 20
339.5782843724478
 30
0.0
  0
POINT
  5
8B4
330
18
100
AcDbEntity
  8
DEFPOINTS
  6
ByBlock
 62
     0
100
AcDbPoint
 10
303.8104466052576
 20
351.3132077049031
 30
0.0
  0
LINE
  5
91A
330
18
100
AcDbEntity
  8
外形線
100
AcDbLine
 10
408.8104466052575
 20
160.2189905940218
 30
0.0
 11
408.8104466052575
 21
160.8968587755718
 31
0.0
  0
LINE
  5
91B
330
18
100
AcDbEntity
  8
外形線
100
AcDbLine
 10
408.8104466052575
 20
189.016027255925
 30
0.0
 11
408.8104466052575
 21
188.2968587755718
 31
0.0
  0
LINE
  5
91C
330
18
100
AcDbEntity
  8
0
  6
ByBlock
 62
     2
100
AcDbLine
 10
508.8104466052576
 20
160.8968587755718
 30
0.0
 11
508.8104466052576
 21
71.59002531576494
 31
0.0
  0
LINE
  5
91D
330
18
100
AcDbEntity
  8
0
  6
ByBlock
 62
     2
100
AcDbLine
 10
411.3104466052575
 20
72.84002531576494
 30
0.0
 11
506.3104466052576
 21
72.84002531576494
 31
0.0
  0
INSERT
  5
91E
330
18
100
AcDbEntity
  8
0
  6
ByBlock
 62
     2
100
AcDbBlockReference
  2
_OPEN
 10
408.8104466052575
 20
72.84002531576494
 30
0.0
 41
2.5
 42
2.5
 43
2.5
 50
180.0
  0
INSERT
  5
91F
330
18
100
AcDbEntity
  8
0
  6
ByBlock
 62
     2
100
AcDbBlockReference
  2
_OPEN
 10
508.8104466052576
 20
72.84002531576494
 30
0.0
 41
2.5
 42
2.5
 43
2.5
  0
MTEXT
  5
920
330
18
100
AcDbEntity
  8
0
  6
ByBlock
 62
     6
100
AcDbMText
 10
458.8104466052576
 20
74.71502531576494
 30
0.0
 40
2.5
 41
0.0
 71
     5
 72
     1
  1
\A1;100
  7
STYLE3
 73
     1
 44
1.0
  0
POINT
  5
921
330
18
100
AcDbEntity
  8
DEFPOINTS
  6
ByBlock
 62
     0
100
AcDbPoint
 10
408.8104466052575
 20
159.987102113497
 30
0.0
  0
POINT
  5
922
330
18
100
AcDbEntity
  8
DEFPOINTS
  6
ByBlock
 62
     0
100
AcDbPoint
 10
508.8104466052576
 20
159.987102113497
 30
0.0
  0
POINT
  5
923
330
18
100
AcDbEntity
  8
DEFPOINTS
  6
ByBlock
 62
     0
100
AcDbPoint
 10
508.8104466052576
 20
72.84002531576494
 30
0.0
  0
LINE
  5
924
330
18
100
AcDbEntity
  8
隠れ線2
100
AcDbLine
 10
408.8104466052575
 20
186.3468587755718
 30
0.0
 11
497.3104466052576
 21
186.3468587755718
 31
0.0
  0
LINE
  5
925
330
18
100
AcDbEntity
  8
隠れ線2
100
AcDbLine
 10
408.8104466052576
 20
162.8468587755718
 30
0.0
 11
497.3104466052576
 21
162.8468587755718
 31
0.0
  0
LINE
  5
926
330
18
100
AcDbEntity
  8
隠れ線2
100
AcDbLine
 10
498.8104466052575
 20
184.8468587755718
 30
0.0
 11
498.8104466052576
 21
164.3468587755718
 31
0.0
  0
ARC
  5
927
330
18
100
AcDbEntity
  8
隠れ線2
100
AcDbCircle
 10
497.3104466052576
 20
184.8468587755718
 30
0.0
 40
1.5
100
AcDbArc
 50
0.0
 51
90.0
  0
ARC
  5
928
330
18
100
AcDbEntity
  8
隠れ線2
100
AcDbCircle
 10
497.3104466052576
 20
164.3468587755718
 30
0.0
 40
1.5
100
AcDbArc
 50
270.0
 51
0.0
  0
LINE
  5
955
330
18
100
AcDbEntity
  8
外形線
100
AcDbLine
 10
378.969683830952
 20
157.2053514276088
 30
0.0
 11
407.3903330696317
 21
158.7211193870051
 31
0.0
  0
LINE
  5
A5A
330
18
100
AcDbEntity
  8
外形線
100
AcDbLine
 10
387.8715374479956
 20
358.4439362686726
 30
0.0
 11
532.8715374479957
 21
358.4439362686726
 31
0.0
  0
LINE
  5
A5B
330
18
100
AcDbEntity
  8
外形線
100
AcDbLine
 10
387.8715374479956
 20
357.4439362686726
 30
0.0
 11
532.8715374479957
 21
357.4439362686726
 31
0.0
  0
TEXT
  5
A5C
330
18
100
AcDbEntity
  8
文字
100
AcDbText
 10
387.6748504479957
 20
360.8344792686726
 30
0.0
 40
4.5
  1
Model No.LA-13 Outside Dial Caliper Gauge
  7
STYLE3
100
AcDbText
  0
TEXT
  5
A5D
330
18
100
AcDbEntity
  8
0
  6
Continuous
100
AcDbText
 10
528.0885905171152
 20
2.503805128533336
 30
0.0
 40
2.1
  1
OZAKI MFG. CO., LTD.
  7
STYLE3
100
AcDbText
  0
TEXT
  5
A5E
330
18
100
AcDbEntity
  8
0
  6
Continuous
100
AcDbText
 10
527.2141115171151
 20
6.291444128533335
 30
0.0
 40
3.0
  1
株式会社　尾崎製作所
  7
STYLE3
100
AcDbText
  0
TEXT
  5
A5F
330
18
100
AcDbEntity
  8
0
  6
Continuous
100
AcDbText
 10
506.8095575171151
 20
4.251946128533333
 30
0.0
 40
2.1
  1
2010.06.28
  7
STYLE3
100
AcDbText
  0
TEXT
  5
A60
330
18
100
AcDbEntity
  8
0
  6
Continuous
100
AcDbText
 10
497.6813895171152
 20
5.836889128533336
 30
0.0
 40
3.0
  1
日 付
  7
STYLE3
100
AcDbText
  0
TEXT
  5
A61
330
18
100
AcDbEntity
  8
0
  6
Continuous
100
AcDbText
 10
498.0647505171151
 20
2.503806128533334
 30
0.0
 40
2.1
  1
Date
  7
STYLE3
100
AcDbText
  0
TEXT
  5
A62
330
18
100
AcDbEntity
  8
0
  6
Continuous
100
AcDbText
 10
487.9709785171151
 20
4.543304128533335
 30
0.0
 40
2.399999999999999
  1
1/1
  7
STYLE3
100
AcDbText
  0
TEXT
  5
A63
330
18
100
AcDbEntity
  8
0
  6
Continuous
100
AcDbText
 10
478.3516895171151
 20
2.795162128533334
 30
0.0
 40
2.1
  1
Scale
  7
STYLE3
100
AcDbText
  0
TEXT
  5
A64
330
18
100
AcDbEntity
  8
0
  6
Continuous
100
AcDbText
 10
468.6126265171151
 20
4.251947128533334
 30
0.0
 40
2.399999999999999
  1
mm
  7
STYLE3
100
AcDbText
  0
TEXT
  5
A65
330
18
100
AcDbEntity
  8
0
  6
Continuous
100
AcDbText
 10
477.8884745171151
 20
5.714684128533335
 30
0.0
 40
3.0
  1
尺 度
  7
STYLE3
100
AcDbText
  0
TEXT
  5
A66
330
18
100
AcDbEntity
  8
0
  6
Continuous
100
AcDbText
 10
460.7422995171151
 20
2.503805128533336
 30
0.0
 40
2.1
  1
Unit
  7
STYLE3
100
AcDbText
  0
TEXT
  5
A67
330
18
100
AcDbEntity
  8
0
  6
Continuous
100
AcDbText
 10
460.5705785171151
 20
6.006041128533333
 30
0.0
 40
3.0
  1
単位
  7
STYLE3
100
AcDbText
  0
LINE
  5
A68
330
18
100
AcDbEntity
  8
外形線
100
AcDbLine
 10
459.113109517115
 20
10.37044112853333
 30
0.0
 11
459.113109517115
 21
0.7556641285333363
 31
0.0
  0
LINE
  5
A69
330
18
100
AcDbEntity
  8
外形線
100
AcDbLine
 10
476.6027265171151
 20
10.37044112853333
 30
0.0
 11
476.6027265171151
 21
0.7556641285333363
 31
0.0
  0
LINE
  5
A6A
330
18
100
AcDbEntity
  8
外形線
100
AcDbLine
 10
496.1327995171151
 20
10.37044112853333
 30
0.0
 11
496.1327995171151
 21
0.7556641285333363
 31
0.0
  0
LINE
  5
A6B
330
18
100
AcDbEntity
  8
外形線
100
AcDbLine
 10
525.8651485171151
 20
10.37044112853333
 30
0.0
 11
525.8651485171151
 21
0.7556641285333363
 31
0.0
  0
LINE
  5
A6C
330
18
100
AcDbEntity
  8
外形線
100
AcDbLine
 10
423.8423815171151
 20
0.7556641285333363
 30
0.0
 11
423.8423815171151
 21
21.15064712853333
 31
0.0
  0
TEXT
  5
A6D
330
18
100
AcDbEntity
  8
0
  6
Continuous
100
AcDbText
 10
427.6318005171151
 20
6.000087128533333
 30
0.0
 40
3.0
  1
三　　角　　法
  7
STYLE3
100
AcDbText
  0
TEXT
  5
A6E
330
18
100
AcDbEntity
  8
0
  6
Continuous
100
AcDbText
 10
425.0083575171151
 20
2.503804128533335
 30
0.0
 40
2.1
  1
3RD Angle Projection
  7
STYLE3
100
AcDbText
  0
TEXT
  5
A6F
330
18
100
AcDbEntity
  8
0
  6
Continuous
100
AcDbText
 10
425.5913435171152
 20
16.19758012853333
 30
0.0
 40
3.5
  1
仕様及び外観は予告なく変更される場合がございますのでご了承下さい。
  7
STYLE3
100
AcDbText
  0
TEXT
  5
A70
330
18
100
AcDbEntity
  8
0
  6
Continuous
100
AcDbText
 10
425.2998495171151
 20
12.26843212853333
 30
0.0
 40
2.1
  1
Design and specifications are subject to change without notice for future improvement.
  7
STYLE3
100
AcDbText
  0
LINE
  5
A71
330
18
100
AcDbEntity
  8
外形線
100
AcDbLine
 10
423.8423815171151
 20
10.37044112853333
 30
0.0
 11
564.633799517115
 21
10.37044112853333
 31
0.0
  0
LINE
  5
A72
330
18
100
AcDbEntity
  8
外形線
100
AcDbLine
 10
423.8423815171151
 20
21.15064712853333
 30
0.0
 11
564.633799517115
 21
21.15064712853333
 31
0.0
  0
ENDSEC
  0
SECTION
  2
OBJECTS
  0
DICTIONARY
  5
C
330
0
100
AcDbDictionary
281
     1
  3
ACAD_COLOR
350
964
  3
ACAD_GROUP
350
D
  3
ACAD_LAYOUT
350
967
  3
ACAD_MATERIAL
350
963
  3
ACAD_MLINESTYLE
350
1B
  3
ACAD_PLOTSETTINGS
350
968
  3
ACAD_PLOTSTYLENAME
350
961
  3
ACAD_TABLESTYLE
350
965
  3
AcDbVariableDictionary
350
971
  0
DICTIONARY
  5
9A0
330
18
100
AcDbDictionary
280
     1
281
     1
  3
ACAD_SORTENTS
360
9A1
  0
DICTIONARY
  5
964
102
{ACAD_REACTORS
330
C
102
}
330
C
100
AcDbDictionary
281
     1
  0
DICTIONARY
  5
D
102
{ACAD_REACTORS
330
C
102
}
330
C
100
AcDbDictionary
281
     1
  0
DICTIONARY
  5
967
102
{ACAD_REACTORS
330
C
102
}
330
C
100
AcDbDictionary
281
     1
  3
Model
350
969
  3
レイアウト1
350
96A
  0
DICTIONARY
  5
963
102
{ACAD_REACTORS
330
C
102
}
330
C
100
AcDbDictionary
281
     1
  0
DICTIONARY
  5
1B
102
{ACAD_REACTORS
330
C
102
}
330
C
100
AcDbDictionary
281
     1
  3
STANDARD
350
1C
  0
DICTIONARY
  5
968
102
{ACAD_REACTORS
330
C
102
}
330
C
100
AcDbDictionary
281
     1
  0
ACDBDICTIONARYWDFLT
  5
961
102
{ACAD_REACTORS
330
C
102
}
330
C
100
AcDbDictionary
281
     1
  3
Normal
350
962
100
AcDbDictionaryWithDefault
340
962
  0
DICTIONARY
  5
965
102
{ACAD_REACTORS
330
C
102
}
330
C
100
AcDbDictionary
281
     1
  3
Standard
350
966
  0
DICTIONARY
  5
971
102
{ACAD_REACTORS
330
C
102
}
330
C
100
AcDbDictionary
281
     1
  3
CTABLESTYLE
350
972
  0
SORTENTSTABLE
  5
9A1
102
{ACAD_REACTORS
330
9A0
102
}
330
9A0
100
AcDbSortentsTable
330
18
331
231
  5
231
331
1C2
  5
1C2
331
44E
  5
452
331
2C7
  5
2CC
331
485
  5
489
331
50C
  5
510
331
239
  5
239
331
1CA
  5
1CA
331
18B
  5
18B
331
2CF
  5
3C5
331
48D
  5
4E1
331
514
  5
518
331
193
  5
193
331
551
  5
555
331
590
  5
594
331
45E
  5
462
331
51C
  5
520
331
290
  5
290
331
19B
  5
19B
331
5CF
  5
5D3
331
60E
  5
612
331
3C7
  5
3CD
331
466
  5
46A
331
4E5
  5
4E9
331
524
  5
528
331
559
  5
55D
331
598
  5
59C
331
897
  5
8AF
331
675
  5
67B
331
5D7
  5
5DB
331
616
  5
61A
331
704
  5
709
331
78A
  5
7B8
331
5A0
  5
5A4
331
561
  5
567
331
850
  5
85D
331
8AF
  5
8B4
331
61E
  5
622
331
5A8
  5
5AC
331
569
  5
56D
331
809
  5
80E
331
858
  5
86A
331
5DF
  5
5E3
331
67D
  5
681
331
743
  5
754
331
626
  5
62A
331
5E7
  5
5EB
331
685
  5
6C4
331
74B
  5
76D
331
212
  5
212
331
298
  5
298
331
46E
  5
472
331
4ED
  5
4F1
331
1AB
  5
1AB
331
437
  5
43B
331
476
  5
47A
331
4F5
  5
4F9
331
22A
  5
22A
331
1B3
  5
1B3
331
5B0
  5
5B4
331
571
  5
575
331
54C
  5
550
331
811
  5
818
331
860
  5
8AB
331
47E
  5
482
331
43F
  5
443
331
4FD
  5
501
331
1BB
  5
1BB
331
5EF
  5
5F3
331
62E
  5
661
331
7CA
  5
7CE
331
447
  5
44B
331
505
  5
509
331
579
  5
57D
331
5B8
  5
5BC
331
8CF
  5
91D
331
6C5
  5
6CB
331
763
  5
770
331
7D2
  5
7EF
331
5C0
  5
5C4
331
581
  5
585
331
821
  5
835
331
91F
  5
923
331
666
  5
66A
331
5FF
  5
603
331
589
  5
58D
331
927
  5
9A2
331
607
  5
60B
331
2C0
  5
2C4
331
1C3
  5
1C3
331
184
  5
184
331
232
  5
232
331
2C8
  5
2CD
331
44F
  5
453
331
486
  5
48A
331
50D
  5
511
331
18C
  5
18C
331
23A
  5
23A
331
2D0
  5
3C7
331
457
  5
45B
331
515
  5
519
331
289
  5
289
331
194
  5
194
331
5C8
  5
5CC
331
552
  5
556
331
591
  5
595
331
45F
  5
463
331
4DE
  5
4E2
331
51D
  5
521
331
19C
  5
19C
331
599
  5
59D
331
467
  5
46B
331
4E6
  5
4EA
331
525
  5
529
331
55A
  5
55E
331
5D0
  5
5D4
331
60F
  5
613
331
66E
  5
673
331
77B
  5
77F
331
5D8
  5
5DC
331
617
  5
61B
331
705
  5
70A
331
78B
  5
7B9
331
5A1
  5
5A5
331
8B0
  5
8C8
331
56A
  5
56E
331
5A9
  5
5AD
331
5E0
  5
5E4
331
61F
  5
623
331
67E
  5
685
331
627
  5
62B
331
686
  5
6C5
331
299
  5
299
331
46F
  5
473
331
4EE
  5
4F2
331
1AC
  5
1AC
331
438
  5
43C
331
477
  5
47B
331
4F6
  5
4FA
331
26A
  5
26A
331
22B
  5
22B
331
1B4
  5
1B4
331
5E8
  5
5EC
331
572
  5
576
331
5B1
  5
5B5
331
54D
  5
551
331
812
  5
81B
331
8C8
  5
8CE
331
47F
  5
483
331
440
  5
444
331
4FE
  5
502
331
1BC
  5
1BC
331
5B9
  5
5BD
331
506
  5
50A
331
57A
  5
57E
331
5F0
  5
5F4
331
62F
  5
662
331
754
  5
76F
331
7CB
  5
7D0
331
5C1
  5
5C5
331
582
  5
586
331
822
  5
844
331
920
  5
924
331
667
  5
66B
331
600
  5
604
331
99F
  5
2CE
331
58A
  5
58E
331
928
  5
9F9
331
448
  5
44C
331
1C4
  5
1C4
331
185
  5
185
331
450
  5
454
331
2C9
  5
2CF
331
487
  5
48B
331
50E
  5
512
331
18D
  5
18D
331
2D1
  5
3C9
331
458
  5
45C
331
516
  5
51A
331
1FC
  5
1FC
331
195
  5
195
331
28A
  5
28A
331
553
  5
557
331
592
  5
596
331
5C9
  5
5CD
331
608
  5
60C
331
7E3
  5
806
331
460
  5
464
331
4DF
  5
4E3
331
51E
  5
522
331
19D
  5
19D
331
5D1
  5
5D5
331
4E7
  5
4EB
331
526
  5
547
331
55B
  5
55F
331
59A
  5
59E
331
610
  5
614
331
77C
  5
78A
331
677
  5
67C
331
5D9
  5
5DD
331
618
  5
61C
331
706
  5
71B
331
78C
  5
7CA
331
5A2
  5
5A6
331
8B1
  5
8C9
331
5AA
  5
5AE
331
56B
  5
56F
331
5E1
  5
5E5
331
620
  5
624
331
80B
  5
811
331
67F
  5
686
331
687
  5
6C8
331
74D
  5
76E
331
3C9
  5
431
331
468
  5
46C
331
214
  5
214
331
29A
  5
29A
331
431
  5
435
331
470
  5
474
331
4EF
  5
4F3
331
263
  5
263
331
1AD
  5
1AD
331
478
  5
47C
331
439
  5
43D
331
4F7
  5
4FB
331
1B5
  5
1B5
331
628
  5
62C
331
5E9
  5
5ED
331
573
  5
577
331
5B2
  5
5B6
331
54E
  5
552
331
813
  5
81C
331
8C9
  5
8CF
331
441
  5
445
331
4FF
  5
503
331
1BD
  5
1BD
331
273
  5
273
331
5F1
  5
5F5
331
5BA
  5
5BE
331
630
  5
663
331
7CC
  5
7D1
331
57B
  5
57F
331
507
  5
50B
331
81B
  5
81F
331
86A
  5
8AC
331
660
  5
664
331
7D4
  5
805
331
5C2
  5
5C6
331
583
  5
587
331
921
  5
925
331
58B
  5
58F
331
601
  5
605
331
76D
  5
771
331
2C2
  5
2C5
331
449
  5
44D
331
480
  5
484
331
186
  5
186
331
451
  5
455
331
488
  5
48C
331
50F
  5
513
331
283
  5
283
331
18E
  5
18E
331
2D2
  5
3CA
331
459
  5
45D
331
517
  5
51B
331
244
  5
244
331
196
  5
196
331
5CA
  5
5CE
331
554
  5
558
331
593
  5
597
331
609
  5
60D
331
668
  5
66C
331
461
  5
465
331
4E0
  5
4E4
331
51F
  5
523
331
293
  5
293
331
19E
  5
19E
331
670
  5
674
331
59B
  5
59F
331
55C
  5
560
331
5D2
  5
5D6
331
611
  5
615
331
6E7
  5
706
331
736
  5
74D
331
77D
  5
78B
331
527
  5
548
331
7EC
  5
807
331
619
  5
61D
331
5DA
  5
5DE
331
678
  5
67D
331
707
  5
72A
331
564
  5
568
331
5A3
  5
5A7
331
8B2
  5
8CB
331
5E2
  5
5E6
331
56C
  5
570
331
5AB
  5
5AF
331
621
  5
625
331
680
  5
687
331
80C
  5
812
331
469
  5
46D
331
3CA
  5
432
331
4E8
  5
4EC
331
432
  5
436
331
471
  5
475
331
4F0
  5
4F4
331
1AE
  5
1AE
331
21D
  5
21D
331
479
  5
47D
331
43A
  5
43E
331
4F8
  5
4FC
331
547
  5
54B
331
1B6
  5
1B6
331
5EA
  5
5EE
331
54F
  5
553
331
442
  5
446
331
500
  5
504
331
574
  5
578
331
5B3
  5
5B7
331
629
  5
62D
331
688
  5
6C9
331
1BE
  5
1BE
331
5F2
  5
5F6
331
7CD
  5
7D2
331
5BB
  5
5BF
331
57C
  5
580
331
81C
  5
820
331
91A
  5
91E
331
661
  5
665
331
6C8
  5
6E7
331
5C3
  5
5C7
331
584
  5
588
331
824
  5
845
331
922
  5
926
331
58C
  5
590
331
602
  5
606
331
76E
  5
77B
331
2C3
  5
2C6
331
44A
  5
44E
331
481
  5
485
331
508
  5
50C
331
235
  5
235
331
1C6
  5
1C6
331
187
  5
187
331
452
  5
457
331
489
  5
48D
331
510
  5
514
331
23D
  5
23D
331
18F
  5
18F
331
45A
  5
45E
331
518
  5
51C
331
28C
  5
28C
331
197
  5
197
331
245
  5
245
331
462
  5
466
331
4E1
  5
4E5
331
520
  5
524
331
555
  5
559
331
594
  5
598
331
5CB
  5
5CF
331
60A
  5
60E
331
669
  5
66E
331
24D
  5
24D
331
19F
  5
19F
331
5D3
  5
5D7
331
612
  5
616
331
671
  5
675
331
77E
  5
78C
331
59C
  5
5A0
331
55D
  5
561
331
844
  5
850
331
8AB
  5
8B0
331
5DB
  5
5DF
331
565
  5
569
331
5A4
  5
5A8
331
61A
  5
61E
331
679
  5
67E
331
805
  5
809
331
5AC
  5
5B0
331
5E3
  5
5E7
331
622
  5
626
331
681
  5
688
331
56D
  5
571
331
80D
  5
813
331
85C
  5
87C
331
46A
  5
46E
331
4E9
  5
4ED
331
528
  5
549
331
1A7
  5
1A7
331
433
  5
437
331
472
  5
476
331
4F1
  5
4F5
331
1AF
  5
1AF
331
548
  5
54C
331
47A
  5
47E
331
43B
  5
43F
331
4F9
  5
4FD
331
22E
  5
22E
331
1B7
  5
1B7
331
5EB
  5
5EF
331
62A
  5
62E
331
443
  5
447
331
501
  5
505
331
575
  5
579
331
5B4
  5
5B8
331
8CB
  5
91A
331
1BF
  5
1BF
331
5F3
  5
5FC
331
7CE
  5
7D4
331
57D
  5
581
331
5BC
  5
5C0
331
81D
  5
821
331
91B
  5
91F
331
662
  5
666
331
9F9
  5
2A9
331
6C9
  5
703
331
5C4
  5
5C8
331
87C
  5
8AE
331
585
  5
589
331
923
  5
927
331
58D
  5
591
331
603
  5
607
331
835
  5
847
331
76F
  5
77C
331
2C4
  5
2C7
331
44B
  5
44F
331
482
  5
486
331
509
  5
50D
331
27D
  5
27D
331
188
  5
188
331
1C7
  5
1C7
331
2CC
  5
2D0
331
453
  5
458
331
48A
  5
4DE
331
511
  5
515
331
190
  5
190
331
23E
  5
23E
331
45B
  5
45F
331
519
  5
51D
331
246
  5
246
331
198
  5
198
331
28D
  5
28D
331
66A
  5
670
331
595
  5
599
331
463
  5
467
331
4E2
  5
4E6
331
521
  5
525
331
556
  5
55A
331
5CC
  5
5D0
331
60B
  5
60F
331
9A2
  5
9FB
331
5D4
  5
5D8
331
613
  5
617
331
672
  5
677
331
77F
  5
7A1
331
59D
  5
5A1
331
55E
  5
564
331
845
  5
856
331
8AC
  5
8B1
331
5DC
  5
5E0
331
61B
  5
61F
331
709
  5
736
331
566
  5
56A
331
5A5
  5
5A9
331
806
  5
80B
331
8B4
  5
8CD
331
5AD
  5
5B1
331
5E4
  5
5E8
331
623
  5
627
331
56E
  5
572
331
80E
  5
817
331
85D
  5
897
331
1A0
  5
1A0
331
3CC
  5
433
331
46B
  5
46F
331
4EA
  5
4EE
331
529
  5
54A
331
1A8
  5
1A8
331
434
  5
438
331
473
  5
477
331
4F2
  5
4F6
331
266
  5
266
331
47B
  5
47F
331
43C
  5
440
331
4FA
  5
4FE
331
1B8
  5
1B8
331
549
  5
54D
331
444
  5
448
331
502
  5
506
331
576
  5
57A
331
5B5
  5
5B9
331
5EC
  5
5F0
331
62B
  5
62F
331
5F4
  5
5FD
331
57E
  5
582
331
5BD
  5
5C1
331
81E
  5
822
331
91C
  5
920
331
663
  5
667
331
9FA
  5
2BF
331
5FC
  5
600
331
6CA
  5
704
331
5C5
  5
5C9
331
586
  5
58A
331
826
  5
846
331
924
  5
928
331
58E
  5
592
331
604
  5
608
331
770
  5
77D
331
1C0
  5
1C0
331
2C5
  5
2C8
331
44C
  5
450
331
483
  5
487
331
50A
  5
50E
331
1C8
  5
1C8
331
189
  5
189
331
27E
  5
27E
331
454
  5
459
331
2CD
  5
2D1
331
48B
  5
4DF
331
512
  5
516
331
286
  5
286
331
1F8
  5
1F8
331
191
  5
191
331
23F
  5
23F
331
45C
  5
460
331
51A
  5
51E
331
199
  5
199
331
200
  5
200
331
3C5
  5
3CC
331
464
  5
468
331
4E3
  5
4E7
331
522
  5
526
331
557
  5
55B
331
596
  5
59A
331
5CD
  5
5D1
331
60C
  5
610
331
66B
  5
671
331
296
  5
296
331
5D5
  5
5D9
331
59E
  5
5A2
331
614
  5
618
331
673
  5
678
331
55F
  5
565
331
7EF
  5
808
331
846
  5
858
331
5A6
  5
5AA
331
5DD
  5
5E1
331
61C
  5
620
331
67B
  5
67F
331
70A
  5
743
331
567
  5
56B
331
807
  5
80C
331
856
  5
860
331
5AE
  5
5B2
331
56F
  5
573
331
5E5
  5
5E9
331
624
  5
628
331
7B8
  5
7CC
331
3CD
  5
434
331
46C
  5
470
331
4EB
  5
4EF
331
1A9
  5
1A9
331
435
  5
439
331
474
  5
478
331
4F3
  5
4F7
331
47C
  5
480
331
43D
  5
441
331
4FB
  5
4FF
331
1B9
  5
1B9
331
54A
  5
54E
331
5ED
  5
5F1
331
62C
  5
630
331
577
  5
57B
331
5B6
  5
5BA
331
445
  5
449
331
503
  5
507
331
817
  5
81D
331
8CD
  5
91B
331
277
  5
277
331
5F5
  5
5FE
331
7D0
  5
7E3
331
5BE
  5
5C2
331
57F
  5
583
331
81F
  5
824
331
91D
  5
921
331
72A
  5
74B
331
664
  5
668
331
9FB
  5
2C0
331
5FD
  5
601
331
6CB
  5
705
331
5C6
  5
5CA
331
587
  5
58B
331
925
  5
955
331
58F
  5
593
331
605
  5
609
331
771
  5
77E
331
1C1
  5
1C1
331
2C6
  5
2C9
331
44D
  5
451
331
484
  5
488
331
50B
  5
50F
331
27F
  5
27F
331
18A
  5
18A
331
1C9
  5
1C9
331
2CE
  5
2D2
331
455
  5
45A
331
48C
  5
4E0
331
513
  5
517
331
240
  5
240
331
1F9
  5
1F9
331
192
  5
192
331
550
  5
554
331
45D
  5
461
331
51B
  5
51F
331
19A
  5
19A
331
60D
  5
611
331
66C
  5
672
331
597
  5
59B
331
558
  5
55C
331
5CE
  5
5D2
331
955
  5
9FA
331
465
  5
469
331
4E4
  5
4E8
331
523
  5
527
331
615
  5
619
331
5D6
  5
5DA
331
674
  5
679
331
703
  5
707
331
59F
  5
5A3
331
560
  5
566
331
847
  5
85C
331
8AE
  5
8B2
331
5A7
  5
5AB
331
5DE
  5
5E2
331
61D
  5
621
331
67C
  5
680
331
7A1
  5
7CB
331
568
  5
56C
331
808
  5
80D
331
625
  5
629
331
5AF
  5
5B3
331
5E6
  5
5EA
331
74A
  5
763
331
7B9
  5
7CD
331
258
  5
258
331
46D
  5
471
331
4EC
  5
4F0
331
1AA
  5
1AA
331
260
  5
260
331
436
  5
43A
331
475
  5
479
331
4F4
  5
4F8
331
54B
  5
54F
331
570
  5
574
331
47D
  5
481
331
43E
  5
442
331
4FC
  5
500
331
270
  5
270
331
1BA
  5
1BA
331
5EE
  5
5F2
331
62D
  5
660
331
71B
  5
74A
331
5B7
  5
5BB
331
578
  5
57C
331
446
  5
44A
331
504
  5
508
331
818
  5
81E
331
8CE
  5
91C
331
5F6
  5
5FF
331
6C4
  5
6CA
331
7D1
  5
7EC
331
5BF
  5
5C3
331
580
  5
584
331
820
  5
826
331
91E
  5
922
331
665
  5
669
331
5FE
  5
602
331
5C7
  5
5CB
331
588
  5
58C
331
926
  5
99F
331
606
  5
60A
  0
LAYOUT
  5
969
102
{ACAD_REACTORS
330
967
102
}
330
967
100
AcDbPlotSettings
  1

  2
A3 EPSON LP-6100.pc3
  4
A3
  6

 40
5.0
 41
5.0
 42
6.010650634765625
 43
6.9466552734375
 44
297.0106506347656
 45
419.9466552734374
 46
0.0
 47
25.0
 48
0.0
 49
0.0
140
0.0
141
0.0
142
1.0
143
1.0
 70
 28336
 72
     1
 73
     1
 74
     1
  7
monochrome.ctb
 75
    16
147
1.0
 76
     1
 77
     2
 78
   300
148
0.4431605268055137
149
0.4288575950697578
100
AcDbLayout
  1
Model
 70
     1
 71
     0
 10
0.0
 20
0.0
 11
12.0
 21
9.0
 12
0.0
 22
0.0
 32
0.0
 14
0.0
 24
0.0
 34
0.0
 15
0.0
 25
0.0
 35
0.0
146
0.0
 13
0.0
 23
0.0
 33
0.0
 16
1.0
 26
0.0
 36
0.0
 17
0.0
 27
1.0
 37
0.0
 76
     0
330
18
1001
ACAD_PSEXT
1000
A3 EPSON LP-6100.pc3
1000
EPSON LP-6100
1000
\\SATO-MATE2
1000

1070
     0
  0
LAYOUT
  5
96A
102
{ACAD_REACTORS
330
967
102
}
330
967
100
AcDbPlotSettings
  1

  2
WIDR Printer
  4

  6

 40
0.0
 41
0.0
 42
0.0
 43
0.0
 44
0.0
 45
0.0
 46
0.0
 47
0.0
 48
0.0
 49
0.0
140
0.0
141
0.0
142
1.0
143
1.0
 70
   688
 72
     0
 73
     0
 74
     5
  7
monochrome.ctb
 75
    16
147
1.0
 76
     0
 77
     2
 78
   300
148
0.0
149
0.0
100
AcDbLayout
  1
レイアウト1
 70
     1
 71
     1
 10
0.0
 20
0.0
 11
420.0
 21
297.0
 12
0.0
 22
0.0
 32
0.0
 14
1.000000000000000E+20
 24
1.000000000000000E+20
 34
1.000000000000000E+20
 15
-1.000000000000000E+20
 25
-1.000000000000000E+20
 35
-1.000000000000000E+20
146
0.0
 13
0.0
 23
0.0
 33
0.0
 16
1.0
 26
0.0
 36
0.0
 17
0.0
 27
1.0
 37
0.0
 76
     0
330
15
  0
MLINESTYLE
  5
1C
102
{ACAD_REACTORS
330
1B
102
}
330
1B
100
AcDbMlineStyle
  2
STANDARD
 70
     0
  3

 62
   256
 51
90.0
 52
90.0
 71
     2
 49
0.5
 62
   256
  6
BYLAYER
 49
-0.5
 62
   256
  6
BYLAYER
  0
ACDBPLACEHOLDER
  5
962
102
{ACAD_REACTORS
330
961
102
}
330
961
  0
ACAD_PROXY_OBJECT
  5
966
102
{ACAD_REACTORS
330
965
102
}
330
965
100
AcDbProxyObject
 90
      499
 91
      503
 95
  2555929
 70
     0
 93
     1849
310
4214DD185B99185C992420000000000000F83F0000000000003E0FC00000000000004901028000000C1008070000C3001FDFF8000000C1003FBFF000000182007F7FE00000030400FEFFC00000060801FDFF8000000C1003FBFF000000182000000000000000C2020B0000001820100E000186003FBFF000000182007F7FE0
310
0000030400FEFFC00000060801FDFF8000000C1003FBFF000000182007F7FE0000003040000000000000012404160000003040201C00030C007F7FE00000030400FEFFC00000060801FDFF8000000C1003FBFF000000182007F7FE00000030400FEFFC000000608000
340
F
340
F
340
F
 94
        0
  0
DICTIONARYVAR
  5
972
102
{ACAD_REACTORS
330
971
102
}
330
971
100
DictionaryVariables
280
     0
  1
STANDARD
  0
ENDSEC
  0
EOF
