  0
SECTION
  2
HEADER
  9
$ACADVER
  1
AC1018
  9
$ACADMAINTVER
 70
     0
  9
$DWGCODEPAGE
  3
ANSI_932
  9
$INSBASE
 10
0.0
 20
0.0
 30
0.0
  9
$EXTMIN
 10
115.5952271272206
 20
324.7139281987668
 30
-0.0000152557620687
  9
$EXTMAX
 10
493.9287996424207
 20
596.8951100885065
 30
0.0000610416757212
  9
$LIMMIN
 10
0.0
 20
0.0
  9
$LIMMAX
 10
400.0
 20
267.0
  9
$ORTHOMODE
 70
     0
  9
$REGENMODE
 70
     1
  9
$FILLMODE
 70
     1
  9
$QTEXTMODE
 70
     0
  9
$MIRRTEXT
 70
     1
  9
$LTSCALE
 40
1.0
  9
$ATTMODE
 70
     1
  9
$TEXTSIZE
 40
0.2
  9
$TRACEWID
 40
1.0
  9
$TEXTSTYLE
  7
BIGFONT
  9
$CLAYER
  8
寸法線
  9
$CELTYPE
  6
BYLAYER
  9
$CECOLOR
 62
   256
  9
$CELTSCALE
 40
1.0
  9
$DISPSILH
 70
     0
  9
$DIMSCALE
 40
0.0
  9
$DIMASZ
 40
2.5
  9
$DIMEXO
 40
0.0
  9
$DIMDLI
 40
3.75
  9
$DIMRND
 40
0.0
  9
$DIMDLE
 40
0.0
  9
$DIMEXE
 40
1.25
  9
$DIMTP
 40
0.0
  9
$DIMTM
 40
0.0
  9
$DIMTXT
 40
2.5
  9
$DIMCEN
 40
2.5
  9
$DIMTSZ
 40
0.0
  9
$DIMTOL
 70
     0
  9
$DIMLIM
 70
     0
  9
$DIMTIH
 70
     0
  9
$DIMTOH
 70
     0
  9
$DIMSE1
 70
     0
  9
$DIMSE2
 70
     0
  9
$DIMTAD
 70
     1
  9
$DIMZIN
 70
     8
  9
$DIMBLK
  1

  9
$DIMASO
 70
     1
  9
$DIMSHO
 70
     1
  9
$DIMPOST
  1

  9
$DIMAPOST
  1

  9
$DIMALT
 70
     0
  9
$DIMALTD
 70
     4
  9
$DIMALTF
 40
0.0394
  9
$DIMLFAC
 40
1.0
  9
$DIMTOFL
 70
     1
  9
$DIMTVP
 40
0.0
  9
$DIMTIX
 70
     0
  9
$DIMSOXD
 70
     0
  9
$DIMSAH
 70
     1
  9
$DIMBLK1
  1
OPEN
  9
$DIMBLK2
  1
OPEN
  9
$DIMSTYLE
  2
STANDARD
  9
$DIMCLRD
 70
     2
  9
$DIMCLRE
 70
     2
  9
$DIMCLRT
 70
     6
  9
$DIMTFAC
 40
1.0
  9
$DIMGAP
 40
0.625
  9
$DIMJUST
 70
     0
  9
$DIMSD1
 70
     0
  9
$DIMSD2
 70
     0
  9
$DIMTOLJ
 70
     1
  9
$DIMTZIN
 70
     0
  9
$DIMALTZ
 70
     0
  9
$DIMALTTZ
 70
     0
  9
$DIMUPT
 70
     0
  9
$DIMDEC
 70
     2
  9
$DIMTDEC
 70
     4
  9
$DIMALTU
 70
     8
  9
$DIMALTTD
 70
     4
  9
$DIMTXSTY
  7
STYLE3
  9
$DIMAUNIT
 70
     0
  9
$DIMADEC
 70
     0
  9
$DIMALTRND
 40
0.0
  9
$DIMAZIN
 70
     0
  9
$DIMDSEP
 70
    46
  9
$DIMATFIT
 70
     3
  9
$DIMFRAC
 70
     0
  9
$DIMLDRBLK
  1

  9
$DIMLUNIT
 70
     2
  9
$DIMLWD
 70
    -2
  9
$DIMLWE
 70
    -2
  9
$DIMTMOVE
 70
     0
  9
$LUNITS
 70
     2
  9
$LUPREC
 70
     4
  9
$SKETCHINC
 40
1.0
  9
$FILLETRAD
 40
12.0
  9
$AUNITS
 70
     0
  9
$AUPREC
 70
     0
  9
$MENU
  1
acad
  9
$ELEVATION
 40
0.0
  9
$PELEVATION
 40
0.0
  9
$THICKNESS
 40
0.0
  9
$LIMCHECK
 70
     0
  9
$CHAMFERA
 40
1.0
  9
$CHAMFERB
 40
1.0
  9
$CHAMFERC
 40
20.0
  9
$CHAMFERD
 40
0.0
  9
$SKPOLY
 70
     0
  9
$TDCREATE
 40
2447851.677997998
  9
$TDUCREATE
 40
2447851.302997998
  9
$TDUPDATE
 40
2455376.459513414
  9
$TDUUPDATE
 40
2455376.084513414
  9
$TDINDWG
 40
0.7457797338
  9
$TDUSRTIMER
 40
0.7457797338
  9
$USRTIMER
 70
     1
  9
$ANGBASE
 50
0.0
  9
$ANGDIR
 70
     0
  9
$PDMODE
 70
     0
  9
$PDSIZE
 40
0.0
  9
$PLINEWID
 40
0.0
  9
$SPLFRAME
 70
     0
  9
$SPLINETYPE
 70
     6
  9
$SPLINESEGS
 70
     8
  9
$HANDSEED
  5
10003485
  9
$SURFTAB1
 70
     6
  9
$SURFTAB2
 70
     6
  9
$SURFTYPE
 70
     6
  9
$SURFU
 70
     6
  9
$SURFV
 70
     6
  9
$UCSBASE
  2

  9
$UCSNAME
  2

  9
$UCSORG
 10
0.0
 20
0.0
 30
0.0
  9
$UCSXDIR
 10
1.0
 20
0.0
 30
0.0
  9
$UCSYDIR
 10
0.0
 20
1.0
 30
0.0
  9
$UCSORTHOREF
  2

  9
$UCSORTHOVIEW
 70
     0
  9
$UCSORGTOP
 10
0.0
 20
0.0
 30
0.0
  9
$UCSORGBOTTOM
 10
0.0
 20
0.0
 30
0.0
  9
$UCSORGLEFT
 10
0.0
 20
0.0
 30
0.0
  9
$UCSORGRIGHT
 10
0.0
 20
0.0
 30
0.0
  9
$UCSORGFRONT
 10
0.0
 20
0.0
 30
0.0
  9
$UCSORGBACK
 10
0.0
 20
0.0
 30
0.0
  9
$PUCSBASE
  2

  9
$PUCSNAME
  2

  9
$PUCSORG
 10
0.0
 20
0.0
 30
0.0
  9
$PUCSXDIR
 10
1.0
 20
0.0
 30
0.0
  9
$PUCSYDIR
 10
0.0
 20
1.0
 30
0.0
  9
$PUCSORTHOREF
  2

  9
$PUCSORTHOVIEW
 70
     0
  9
$PUCSORGTOP
 10
0.0
 20
0.0
 30
0.0
  9
$PUCSORGBOTTOM
 10
0.0
 20
0.0
 30
0.0
  9
$PUCSORGLEFT
 10
0.0
 20
0.0
 30
0.0
  9
$PUCSORGRIGHT
 10
0.0
 20
0.0
 30
0.0
  9
$PUCSORGFRONT
 10
0.0
 20
0.0
 30
0.0
  9
$PUCSORGBACK
 10
0.0
 20
0.0
 30
0.0
  9
$USERI1
 70
     0
  9
$USERI2
 70
     0
  9
$USERI3
 70
     0
  9
$USERI4
 70
     0
  9
$USERI5
 70
     0
  9
$USERR1
 40
0.0
  9
$USERR2
 40
0.0
  9
$USERR3
 40
0.0
  9
$USERR4
 40
0.0
  9
$USERR5
 40
0.0
  9
$WORLDVIEW
 70
     1
  9
$SHADEDGE
 70
     3
  9
$SHADEDIF
 70
    70
  9
$TILEMODE
 70
     1
  9
$MAXACTVP
 70
    48
  9
$PINSBASE
 10
0.0
 20
0.0
 30
0.0
  9
$PLIMCHECK
 70
     0
  9
$PEXTMIN
 10
1.000000000000000E+20
 20
1.000000000000000E+20
 30
1.000000000000000E+20
  9
$PEXTMAX
 10
-1.000000000000000E+20
 20
-1.000000000000000E+20
 30
-1.000000000000000E+20
  9
$PLIMMIN
 10
0.0
 20
0.0
  9
$PLIMMAX
 10
400.0
 20
267.0
  9
$UNITMODE
 70
     0
  9
$VISRETAIN
 70
     1
  9
$PLINEGEN
 70
     0
  9
$PSLTSCALE
 70
     1
  9
$TREEDEPTH
 70
  3020
  9
$CMLSTYLE
  2
STANDARD
  9
$CMLJUST
 70
     0
  9
$CMLSCALE
 40
20.0
  9
$PROXYGRAPHICS
 70
     1
  9
$MEASUREMENT
 70
     1
  9
$CELWEIGHT
370
    -1
  9
$ENDCAPS
280
     0
  9
$JOINSTYLE
280
     0
  9
$LWDISPLAY
290
     0
  9
$INSUNITS
 70
     0
  9
$HYPERLINKBASE
  1

  9
$STYLESHEET
  1

  9
$XEDIT
290
     1
  9
$CEPSNTYPE
380
     0
  9
$PSTYLEMODE
290
     1
  9
$FINGERPRINTGUID
  2
{B4E29768-475C-44DE-A8CE-E384D5101A1E}
  9
$VERSIONGUID
  2
{3B49BA72-6C3E-4EC8-9A48-9561A29968DF}
  9
$EXTNAMES
290
     1
  9
$PSVPSCALE
 40
0.0
  9
$OLESTARTUP
290
     0
  9
$SORTENTS
280
   127
  9
$INDEXCTL
280
     0
  9
$HIDETEXT
280
     0
  9
$XCLIPFRAME
290
     0
  9
$HALOGAP
280
     0
  9
$OBSCOLOR
 70
   257
  9
$OBSLTYPE
280
     0
  9
$INTERSECTIONDISPLAY
280
     0
  9
$INTERSECTIONCOLOR
 70
   257
  9
$DIMASSOC
280
     1
  9
$PROJECTNAME
  1

  0
ENDSEC
  0
SECTION
  2
CLASSES
  0
CLASS
  1
HATCH
  2
AcDbHatch
  3
ObjectDBX Classes
 90
        0
 91
       87
280
     0
281
     1
  0
CLASS
  1
LWPOLYLINE
  2
AcDbPolyline
  3
ObjectDBX Classes
 90
        0
 91
       11
280
     0
281
     1
  0
CLASS
  1
ACDBDICTIONARYWDFLT
  2
AcDbDictionaryWithDefault
  3
ObjectDBX Classes
 90
        0
 91
        1
280
     0
281
     0
  0
CLASS
  1
TABLESTYLE
  2
AcDbTableStyle
  3
ObjectDBX Classes
 90
     2047
 91
        1
280
     0
281
     0
  0
CLASS
  1
DICTIONARYVAR
  2
AcDbDictionaryVar
  3
ObjectDBX Classes
 90
        0
 91
        1
280
     0
281
     0
  0
CLASS
  1
SORTENTSTABLE
  2
AcDbSortentsTable
  3
ObjectDBX Classes
 90
        0
 91
        0
280
     0
281
     0
  0
ENDSEC
  0
SECTION
  2
TABLES
  0
TABLE
  2
VPORT
  5
A2
330
0
100
AcDbSymbolTable
 70
     2
  0
VPORT
  5
10003484
330
A2
100
AcDbSymbolTableRecord
100
AcDbViewportTableRecord
  2
*Active
 70
     0
 10
0.0
 20
0.0
 11
1.0
 21
1.0
 12
304.7620133848206
 22
460.8045191436366
 13
0.0
 23
0.0
 14
10.0
 24
10.0
 15
10.0
 25
10.0
 16
0.0
 26
0.0
 36
1.0
 17
0.0
 27
0.0
 37
0.0
 40
274.251000763426
 41
1.530456852791878
 42
50.0
 43
0.0
 44
0.0
 50
0.0
 51
0.0
 71
     0
 72
   100
 73
     1
 74
     1
 75
     0
 76
     0
 77
     0
 78
     0
281
     0
 65
     1
110
0.0
120
0.0
130
0.0
111
1.0
121
0.0
131
0.0
112
0.0
122
1.0
132
0.0
 79
     0
146
0.0
  0
ENDTAB
  0
TABLE
  2
LTYPE
  5
A8
330
0
100
AcDbSymbolTable
 70
    12
  0
LTYPE
  5
AB
330
A8
100
AcDbSymbolTableRecord
100
AcDbLinetypeTableRecord
  2
BYBLOCK
 70
     0
  3
BYBLOCK
 72
    65
 73
     0
 40
0.0
  0
LTYPE
  5
AE
330
A8
100
AcDbSymbolTableRecord
100
AcDbLinetypeTableRecord
  2
BYLAYER
 70
     0
  3
BYLAYER
 72
    65
 73
     0
 40
0.0
  0
LTYPE
  5
B1
330
A8
100
AcDbSymbolTableRecord
100
AcDbLinetypeTableRecord
  2
CONTINUOUS
 70
     0
  3
実線
 72
    65
 73
     0
 40
0.0
  0
LTYPE
  5
10000031
330
A8
100
AcDbSymbolTableRecord
100
AcDbLinetypeTableRecord
  2
CENTER2
 70
     0
  3
Center (.5x) ___ _ ___ _ ___ _ ___ _ ___ _ ___
 72
    65
 73
     4
 40
28.575
 49
19.05
 74
     0
 49
-3.174999999999999
 74
     0
 49
3.174999999999999
 74
     0
 49
-3.174999999999999
 74
     0
  0
LTYPE
  5
10000032
330
A8
100
AcDbSymbolTableRecord
100
AcDbLinetypeTableRecord
  2
HIDDEN2
 70
     0
  3
Hidden (.5x) _ _ _ _ _ _ _ _ _ _ _ _ _ _ _ _ _
 72
    65
 73
     2
 40
4.762499999999999
 49
3.174999999999999
 74
     0
 49
-1.587499999999999
 74
     0
  0
LTYPE
  5
10000033
330
A8
100
AcDbSymbolTableRecord
100
AcDbLinetypeTableRecord
  2
PHANTOM2
 70
     0
  3
Phantom (.5x) ___ _ _ ___ _ _ ___ _ _ ___ _ _
 72
    65
 73
     6
 40
31.75
 49
15.875
 74
     0
 49
-3.174999999999999
 74
     0
 49
3.174999999999999
 74
     0
 49
-3.174999999999999
 74
     0
 49
3.174999999999999
 74
     0
 49
-3.174999999999999
 74
     0
  0
ENDTAB
  0
TABLE
  2
LAYER
  5
CC
330
0
100
AcDbSymbolTable
 70
    16
  0
LAYER
  5
CF
330
CC
100
AcDbSymbolTableRecord
100
AcDbLayerTableRecord
  2
0
 70
     0
 62
     1
  6
CONTINUOUS
370
    -3
390
10003416
  0
LAYER
  5
10000034
330
CC
100
AcDbSymbolTableRecord
100
AcDbLayerTableRecord
  2
外形線
 70
     0
 62
     7
  6
CONTINUOUS
370
    -3
390
10003416
  0
LAYER
  5
10000035
330
CC
100
AcDbSymbolTableRecord
100
AcDbLayerTableRecord
  2
寸法線
 70
     0
 62
     2
  6
CONTINUOUS
370
    -3
390
10003416
  0
LAYER
  5
10000036
330
CC
100
AcDbSymbolTableRecord
100
AcDbLayerTableRecord
  2
中心線
 70
     0
 62
     4
  6
CENTER2
370
    -3
390
10003416
  0
LAYER
  5
10000037
330
CC
100
AcDbSymbolTableRecord
100
AcDbLayerTableRecord
  2
隠れ線
 70
     0
 62
     6
  6
HIDDEN2
370
    -3
390
10003416
  0
LAYER
  5
10000038
330
CC
100
AcDbSymbolTableRecord
100
AcDbLayerTableRecord
  2
想像線
 70
     0
 62
     1
  6
PHANTOM2
370
    -3
390
10003416
  0
LAYER
  5
10000039
330
CC
100
AcDbSymbolTableRecord
100
AcDbLayerTableRecord
  2
ﾊｯﾁﾝｸ
 70
     0
 62
     6
  6
CONTINUOUS
370
    -3
390
10003416
  0
LAYER
  5
1000003A
330
CC
100
AcDbSymbolTableRecord
100
AcDbLayerTableRecord
  2
文字
 70
     0
 62
     6
  6
CONTINUOUS
370
    -3
390
10003416
  0
LAYER
  5
1000003B
330
CC
100
AcDbSymbolTableRecord
100
AcDbLayerTableRecord
  2
目盛
 70
     0
 62
    72
  6
CONTINUOUS
370
    -3
390
10003416
  0
LAYER
  5
1000003C
330
CC
100
AcDbSymbolTableRecord
100
AcDbLayerTableRecord
  2
針
 70
     0
 62
     5
  6
CONTINUOUS
370
    -3
390
10003416
  0
LAYER
  5
1000003D
330
CC
100
AcDbSymbolTableRecord
100
AcDbLayerTableRecord
  2
DEFPOINTS
 70
     0
 62
     7
  6
CONTINUOUS
290
     0
370
    -3
390
10003416
  0
LAYER
  5
1000003E
330
CC
100
AcDbSymbolTableRecord
100
AcDbLayerTableRecord
  2
C
 70
     0
 62
     7
  6
CONTINUOUS
370
    -3
390
10003416
  0
LAYER
  5
1000003F
330
CC
100
AcDbSymbolTableRecord
100
AcDbLayerTableRecord
  2
握り
 70
     0
 62
     3
  6
CONTINUOUS
370
    -3
390
10003416
  0
LAYER
  5
10000040
330
CC
100
AcDbSymbolTableRecord
100
AcDbLayerTableRecord
  2
ROGO
 70
     0
 62
     6
  6
CONTINUOUS
370
    -3
390
10003416
  0
LAYER
  5
100011E5
330
CC
100
AcDbSymbolTableRecord
100
AcDbLayerTableRecord
  2
隠れ線2
 70
     0
 62
     1
  6
HIDDEN2
370
    -3
390
10003416
  0
ENDTAB
  0
TABLE
  2
STYLE
  5
D2
330
0
100
AcDbSymbolTable
 70
     3
  0
STYLE
  5
D5
330
D2
100
AcDbSymbolTableRecord
100
AcDbTextStyleTableRecord
  2
STANDARD
 70
     0
 40
0.0
 41
0.5
 50
0.0
 71
     0
 42
0.3
  3
txt
  4

  0
STYLE
  5
D8
330
D2
100
AcDbSymbolTableRecord
100
AcDbTextStyleTableRecord
  2
BIGFONT
 70
     0
 40
0.0
 41
1.0
 50
0.0
 71
     0
 42
0.2
  3
txt.shx
  4
bigfont
  0
STYLE
  5
10000041
330
D2
100
AcDbSymbolTableRecord
100
AcDbTextStyleTableRecord
  2
STYLE3
 70
     0
 40
0.0
 41
1.0
 50
0.0
 71
     0
 42
3.0
  3
romans.shx
  4
bigfont.shx
  0
ENDTAB
  0
TABLE
  2
VIEW
  5
DB
330
0
100
AcDbSymbolTable
 70
     0
  0
ENDTAB
  0
TABLE
  2
UCS
  5
DE
330
0
100
AcDbSymbolTable
 70
     0
  0
ENDTAB
  0
TABLE
  2
APPID
  5
E1
330
0
100
AcDbSymbolTable
 70
     5
  0
APPID
  5
E4
330
E1
100
AcDbSymbolTableRecord
100
AcDbRegAppTableRecord
  2
ACAD
 70
     0
  0
APPID
  5
E7
330
E1
100
AcDbSymbolTableRecord
100
AcDbRegAppTableRecord
  2
CONTENTTABDATA
 70
     0
  0
APPID
  5
EA
330
E1
100
AcDbSymbolTableRecord
100
AcDbRegAppTableRecord
  2
CONTENTCURRENTTAB
 70
     0
  0
APPID
  5
100014FB
330
E1
100
AcDbSymbolTableRecord
100
AcDbRegAppTableRecord
  2
DRAWINGVARIABLESXDATA
 70
     0
  0
APPID
  5
10003439
330
E1
100
AcDbSymbolTableRecord
100
AcDbRegAppTableRecord
  2
ACAD_PSEXT
 70
     0
  0
ENDTAB
  0
TABLE
  2
DIMSTYLE
  5
ED
330
0
100
AcDbSymbolTable
 70
     6
100
AcDbDimStyleTable
 71
     0
  0
DIMSTYLE
105
F0
102
{ACAD_REACTORS
330
10002DE5
330
10002DE6
330
10002DE8
330
10002DEA
330
10002DEB
330
10002DEF
330
10002DF0
330
10002DF6
330
10002E06
330
10002E0C
330
10002EB8
330
10002EE7
330
10002EFB
330
100033C1
330
100033FC
330
10001CE5
330
10001CE6
330
10001CE7
330
10001CE8
330
10001D00
330
10001D01
330
10001D15
330
10001D30
330
10001D6B
330
10001D6C
330
10001D6D
330
10001D8B
330
10001D90
330
10001DEE
330
10001DF4
330
10001E01
330
10002A16
330
10002A17
330
10002A19
330
10002A1B
330
10002A1C
330
10002A20
330
10002A21
330
10002A27
330
10002A37
330
10002A3D
330
10002A94
330
10002A97
330
10002A98
330
10002AB1
330
10002AB6
330
10002AE9
330
10002B18
330
10002B2C
102
}
330
ED
100
AcDbSymbolTableRecord
100
AcDbDimStyleTableRecord
  2
STANDARD
 70
     0
340
D5
  0
DIMSTYLE
105
10000042
102
{ACAD_REACTORS
330
100002BA
330
100002BB
330
10003186
330
10001660
330
10001661
330
10001668
330
10001669
330
1000166A
330
10001673
330
10001674
330
10001675
330
10001676
330
10001691
330
10001696
330
10002099
330
10002DB7
102
}
330
ED
100
AcDbSymbolTableRecord
100
AcDbDimStyleTableRecord
  2
STYLE3
 70
     0
 41
2.5
 42
0.0
 43
3.75
 44
1.25
 73
     0
 74
     0
 77
     1
 78
     8
140
2.5
141
2.5
143
0.0394
147
0.625
171
     4
172
     1
173
     1
176
     2
177
     2
178
     6
271
     1
273
     8
274
     4
340
10000041
341
10000009
343
10000009
344
10000009
  0
ENDTAB
  0
TABLE
  2
BLOCK_RECORD
  5
F3
330
0
100
AcDbSymbolTable
 70
    86
  0
BLOCK_RECORD
  5
F6
330
F3
100
AcDbSymbolTableRecord
100
AcDbBlockTableRecord
  2
*MODEL_SPACE
340
1000341D
  0
BLOCK_RECORD
  5
F9
330
F3
100
AcDbSymbolTableRecord
100
AcDbBlockTableRecord
  2
*PAPER_SPACE
340
1000341E
  0
BLOCK_RECORD
  5
10000009
330
F3
100
AcDbSymbolTableRecord
100
AcDbBlockTableRecord
  2
_OPEN
340
0
102
{BLKREFS
331
10002E04
331
10002E20
331
10002EFA
331
10002F19
331
10002F1C
331
10000017
331
10000018
331
10000023
331
10000024
331
10000296
331
100002A0
331
100002A1
331
100002A8
331
100002AF
331
100002B0
331
100002BE
331
100002BF
331
100002CB
331
100002CC
331
100002D8
331
100002D9
331
100002E5
331
100002E7
331
10000C2A
331
100015D8
331
100015D9
331
100015E3
331
100015E4
331
100015F0
331
100015F1
331
100015FB
331
100015FC
331
10001606
331
10001607
331
10001612
331
10001613
331
1000161F
331
10001620
331
1000162D
331
1000162E
331
10001638
331
10001639
331
10001643
331
1000164D
331
1000164E
331
1000166E
331
10001670
331
100016A6
331
100016AA
331
100016AC
331
10001C28
331
10001C29
331
10001C33
331
10001C34
331
10001C3E
331
10001C3F
331
10001C49
331
10001C4A
331
10001C54
331
10001C55
331
10001C5F
331
10001C60
331
10001C6A
331
10001C6B
331
10001C75
331
10001C76
331
10001C82
331
10001C83
331
10001C8F
331
10001C90
331
10001C9A
331
10001C9B
331
10001CA5
331
10001CA6
331
10001CB0
331
10001CB1
331
10001CBB
331
10001CBC
331
10001CC6
331
10001CC7
331
10001CD1
331
10001CD2
331
10001CDC
331
10001CDD
331
10001D12
331
10001D57
331
10001D79
331
10001D7B
331
10001D7E
331
10001D92
331
10001DFC
331
10001E4D
331
10001E55
331
100020A1
331
1000292D
331
1000292E
331
10002938
331
10002939
331
10002943
331
10002944
331
1000294E
331
1000294F
331
10002959
331
1000295A
331
10002964
331
10002965
331
1000296F
331
10002970
331
1000297B
331
1000297C
331
10002987
331
10002988
331
10002993
331
10002994
331
1000299F
331
100029A0
331
100029AB
331
100029AC
331
100029B9
331
100029BA
331
100029C7
331
100029C8
331
100029D3
331
100029D4
331
100029DF
331
100029E0
331
100029EB
331
100029EC
331
100029F7
331
100029F8
331
10002A03
331
10002A04
331
10002A35
331
10002A51
331
10002A9D
331
10002A9F
331
10002AAC
331
10002AC1
331
10002B2B
331
10002B4A
331
10002B4D
331
1000328B
331
1000328C
331
10003296
331
10003297
331
100032A1
331
100032A2
331
100032AC
331
100032AD
331
100032B7
331
100032B8
331
100032C2
331
100032C3
331
10003378
331
10003379
331
100032DA
331
100032DB
331
100032E4
331
100032E5
331
100032F1
331
100032F2
331
100032FB
331
100032FC
331
10003305
331
10003306
331
1000330F
331
10003310
331
10003319
331
1000331A
331
10003323
331
10003324
331
1000332E
331
1000332F
331
10003339
331
1000333A
331
10003344
331
10003345
331
1000334F
331
10003350
331
100033C6
331
100033C7
331
10003403
331
10003404
102
}
  0
BLOCK_RECORD
  5
100031A5
330
F3
100
AcDbSymbolTableRecord
100
AcDbBlockTableRecord
  2
*D63
340
0
  0
BLOCK_RECORD
  5
100031B1
330
F3
100
AcDbSymbolTableRecord
100
AcDbBlockTableRecord
  2
*D64
340
0
  0
BLOCK_RECORD
  5
100031BD
330
F3
100
AcDbSymbolTableRecord
100
AcDbBlockTableRecord
  2
*D65
340
0
  0
BLOCK_RECORD
  5
100031C9
330
F3
100
AcDbSymbolTableRecord
100
AcDbBlockTableRecord
  2
*D66
340
0
  0
BLOCK_RECORD
  5
100031D5
330
F3
100
AcDbSymbolTableRecord
100
AcDbBlockTableRecord
  2
*D67
340
0
  0
BLOCK_RECORD
  5
100031E1
330
F3
100
AcDbSymbolTableRecord
100
AcDbBlockTableRecord
  2
*D68
340
0
  0
BLOCK_RECORD
  5
100031ED
330
F3
100
AcDbSymbolTableRecord
100
AcDbBlockTableRecord
  2
*D69
340
0
  0
BLOCK_RECORD
  5
100031FB
330
F3
100
AcDbSymbolTableRecord
100
AcDbBlockTableRecord
  2
*D70
340
0
  0
BLOCK_RECORD
  5
10003207
330
F3
100
AcDbSymbolTableRecord
100
AcDbBlockTableRecord
  2
*D71
340
0
  0
BLOCK_RECORD
  5
10003212
330
F3
100
AcDbSymbolTableRecord
100
AcDbBlockTableRecord
  2
*D72
340
0
  0
BLOCK_RECORD
  5
10003257
330
F3
100
AcDbSymbolTableRecord
100
AcDbBlockTableRecord
  2
*D78
340
0
  0
BLOCK_RECORD
  5
10003263
330
F3
100
AcDbSymbolTableRecord
100
AcDbBlockTableRecord
  2
*D79
340
0
  0
BLOCK_RECORD
  5
1000326F
330
F3
100
AcDbSymbolTableRecord
100
AcDbBlockTableRecord
  2
*D80
340
0
  0
BLOCK_RECORD
  5
1000327B
330
F3
100
AcDbSymbolTableRecord
100
AcDbBlockTableRecord
  2
*D81
340
0
  0
BLOCK_RECORD
  5
100033B5
330
F3
100
AcDbSymbolTableRecord
100
AcDbBlockTableRecord
  2
*D82
340
0
  0
BLOCK_RECORD
  5
100033EE
330
F3
100
AcDbSymbolTableRecord
100
AcDbBlockTableRecord
  2
*D84
340
0
  0
ENDTAB
  0
ENDSEC
  0
SECTION
  2
BLOCKS
  0
BLOCK
  5
FC
330
F6
100
AcDbEntity
  8
0
100
AcDbBlockBegin
  2
*MODEL_SPACE
 70
     0
 10
0.0
 20
0.0
 30
0.0
  3
*MODEL_SPACE
  1
 
  0
ENDBLK
  5
FF
330
F6
100
AcDbEntity
  8
0
100
AcDbBlockEnd
  0
BLOCK
  5
102
330
F9
100
AcDbEntity
 67
     1
  8
0
100
AcDbBlockBegin
  2
*PAPER_SPACE
 70
     0
 10
0.0
 20
0.0
 30
0.0
  3
*PAPER_SPACE
  1
 
  0
ENDBLK
  5
105
330
F9
100
AcDbEntity
 67
     1
  8
0
100
AcDbBlockEnd
  0
BLOCK
  5
1000000D
330
10000009
100
AcDbEntity
  8
0
100
AcDbBlockBegin
  2
_OPEN
 70
     0
 10
0.0
 20
0.0
 30
0.0
  3
_OPEN
  1

  0
LINE
  5
1000000A
330
10000009
100
AcDbEntity
  8
0
  6
ByBlock
 62
     0
100
AcDbLine
 10
-1.0
 20
0.1666666666666666
 30
0.0
 11
0.0
 21
0.0
 31
0.0
  0
LINE
  5
1000000B
330
10000009
100
AcDbEntity
  8
0
  6
ByBlock
 62
     0
100
AcDbLine
 10
0.0
 20
0.0
 30
0.0
 11
-1.0
 21
-0.1666666666666666
 31
0.0
  0
LINE
  5
1000000C
330
10000009
100
AcDbEntity
  8
0
  6
ByBlock
 62
     0
100
AcDbLine
 10
0.0
 20
0.0
 30
0.0
 11
-1.0
 21
0.0
 31
0.0
  0
ENDBLK
  5
1000000E
330
10000009
100
AcDbEntity
  8
0
100
AcDbBlockEnd
  0
BLOCK
  5
10003287
330
100031A5
100
AcDbEntity
  8
0
100
AcDbBlockBegin
  2
*D63
 70
     1
 10
0.0
 20
0.0
 30
0.0
  3
*D63
  1

  0
LINE
  5
10003288
330
100031A5
100
AcDbEntity
  8
0
  6
ByBlock
 62
     2
100
AcDbLine
 10
172.755295287085
 20
377.2956301926646
 30
0.0
 11
172.755295287085
 21
356.5679383337094
 31
0.0
  0
LINE
  5
10003289
330
100031A5
100
AcDbEntity
  8
0
  6
ByBlock
 62
     2
100
AcDbLine
 10
322.7475697203225
 20
377.4668032315737
 30
0.0
 11
322.7475697203225
 21
356.5679383337094
 31
0.0
  0
LINE
  5
1000328A
330
100031A5
100
AcDbEntity
  8
0
  6
ByBlock
 62
     2
100
AcDbLine
 10
175.255295287085
 20
357.8179383337094
 30
0.0
 11
320.2475697203226
 21
357.8179383337094
 31
0.0
  0
INSERT
  5
1000328B
330
100031A5
100
AcDbEntity
  8
0
  6
ByBlock
 62
     2
100
AcDbBlockReference
  2
_OPEN
 10
172.755295287085
 20
357.8179383337094
 30
0.0
 41
2.5
 42
2.5
 43
2.5
 50
180.0
  0
INSERT
  5
1000328C
330
100031A5
100
AcDbEntity
  8
0
  6
ByBlock
 62
     2
100
AcDbBlockReference
  2
_OPEN
 10
322.7475697203225
 20
357.8179383337094
 30
0.0
 41
2.5
 42
2.5
 43
2.5
  0
MTEXT
  5
1000328D
330
100031A5
100
AcDbEntity
  8
0
  6
ByBlock
 62
     6
100
AcDbMText
 10
247.7514325037038
 20
359.6929383337094
 30
0.0
 40
2.5
 41
0.0
 71
     5
 72
     1
  1
\A1;150
  7
STYLE3
 73
     1
 44
1.0
  0
POINT
  5
1000328E
330
100031A5
100
AcDbEntity
  8
DEFPOINTS
  6
ByBlock
 62
     0
100
AcDbPoint
 10
172.755295287085
 20
377.2956301926646
 30
0.0
  0
POINT
  5
1000328F
330
100031A5
100
AcDbEntity
  8
DEFPOINTS
  6
ByBlock
 62
     0
100
AcDbPoint
 10
322.7475697203225
 20
377.4668032315737
 30
0.0
  0
POINT
  5
10003290
330
100031A5
100
AcDbEntity
  8
DEFPOINTS
  6
ByBlock
 62
     0
100
AcDbPoint
 10
322.7475697203225
 20
357.8179383337094
 30
0.0
  0
ENDBLK
  5
10003291
330
100031A5
100
AcDbEntity
  8
0
100
AcDbBlockEnd
  0
BLOCK
  5
10003292
330
100031B1
100
AcDbEntity
  8
0
100
AcDbBlockBegin
  2
*D64
 70
     1
 10
0.0
 20
0.0
 30
0.0
  3
*D64
  1

  0
LINE
  5
10003293
330
100031B1
100
AcDbEntity
  8
0
  6
ByBlock
 62
     2
100
AcDbLine
 10
212.7552952870851
 20
377.2956301926646
 30
0.0
 11
212.7552952870851
 21
363.7171317664542
 31
0.0
  0
LINE
  5
10003294
330
100031B1
100
AcDbEntity
  8
0
  6
ByBlock
 62
     2
100
AcDbLine
 10
312.74428647783
 20
377.3512135820126
 30
0.0
 11
312.74428647783
 21
363.7171317664542
 31
0.0
  0
LINE
  5
10003295
330
100031B1
100
AcDbEntity
  8
0
  6
ByBlock
 62
     2
100
AcDbLine
 10
215.2552952870851
 20
364.9671317664542
 30
0.0
 11
310.24428647783
 21
364.9671317664542
 31
0.0
  0
INSERT
  5
10003296
330
100031B1
100
AcDbEntity
  8
0
  6
ByBlock
 62
     2
100
AcDbBlockReference
  2
_OPEN
 10
212.7552952870851
 20
364.9671317664542
 30
0.0
 41
2.5
 42
2.5
 43
2.5
 50
180.0
  0
INSERT
  5
10003297
330
100031B1
100
AcDbEntity
  8
0
  6
ByBlock
 62
     2
100
AcDbBlockReference
  2
_OPEN
 10
312.74428647783
 20
364.9671317664542
 30
0.0
 41
2.5
 42
2.5
 43
2.5
  0
MTEXT
  5
10003298
330
100031B1
100
AcDbEntity
  8
0
  6
ByBlock
 62
     6
100
AcDbMText
 10
262.7497908824576
 20
366.8421317664542
 30
0.0
 40
2.5
 41
0.0
 71
     5
 72
     1
  1
\A1;100
  7
STYLE3
 73
     1
 44
1.0
  0
POINT
  5
10003299
330
100031B1
100
AcDbEntity
  8
DEFPOINTS
  6
ByBlock
 62
     0
100
AcDbPoint
 10
212.7552952870851
 20
377.2956301926646
 30
0.0
  0
POINT
  5
1000329A
330
100031B1
100
AcDbEntity
  8
DEFPOINTS
  6
ByBlock
 62
     0
100
AcDbPoint
 10
312.74428647783
 20
377.3512135820126
 30
0.0
  0
POINT
  5
1000329B
330
100031B1
100
AcDbEntity
  8
DEFPOINTS
  6
ByBlock
 62
     0
100
AcDbPoint
 10
312.74428647783
 20
364.9671317664542
 30
0.0
  0
ENDBLK
  5
1000329C
330
100031B1
100
AcDbEntity
  8
0
100
AcDbBlockEnd
  0
BLOCK
  5
1000329D
330
100031BD
100
AcDbEntity
  8
0
100
AcDbBlockBegin
  2
*D65
 70
     1
 10
0.0
 20
0.0
 30
0.0
  3
*D65
  1

  0
LINE
  5
1000329E
330
100031BD
100
AcDbEntity
  8
0
  6
ByBlock
 62
     2
100
AcDbLine
 10
162.5019278373259
 20
467.375155443888
 30
0.0
 11
162.5019278373259
 21
401.3444666028942
 31
0.0
  0
LINE
  5
1000329F
330
100031BD
100
AcDbEntity
  8
0
  6
ByBlock
 62
     2
100
AcDbLine
 10
463.5019278373261
 20
467.375155443888
 30
0.0
 11
463.5019278373261
 21
401.3444666028942
 31
0.0
  0
LINE
  5
100032A0
330
100031BD
100
AcDbEntity
  8
0
  6
ByBlock
 62
     2
100
AcDbLine
 10
165.001927837326
 20
402.5944666028942
 30
0.0
 11
461.0019278373261
 21
402.5944666028942
 31
0.0
  0
INSERT
  5
100032A1
330
100031BD
100
AcDbEntity
  8
0
  6
ByBlock
 62
     2
100
AcDbBlockReference
  2
_OPEN
 10
162.5019278373259
 20
402.5944666028942
 30
0.0
 41
2.5
 42
2.5
 43
2.5
 50
180.0
  0
INSERT
  5
100032A2
330
100031BD
100
AcDbEntity
  8
0
  6
ByBlock
 62
     2
100
AcDbBlockReference
  2
_OPEN
 10
463.5019278373261
 20
402.5944666028942
 30
0.0
 41
2.5
 42
2.5
 43
2.5
  0
MTEXT
  5
100032A3
330
100031BD
100
AcDbEntity
  8
0
  6
ByBlock
 62
     6
100
AcDbMText
 10
313.0019278373261
 20
404.4694666028942
 30
0.0
 40
2.5
 41
0.0
 71
     5
 72
     1
  1
\A1;301
  7
STYLE3
 73
     1
 44
1.0
  0
POINT
  5
100032A4
330
100031BD
100
AcDbEntity
  8
DEFPOINTS
  6
ByBlock
 62
     0
100
AcDbPoint
 10
162.5019278373259
 20
467.375155443888
 30
0.0
  0
POINT
  5
100032A5
330
100031BD
100
AcDbEntity
  8
DEFPOINTS
  6
ByBlock
 62
     0
100
AcDbPoint
 10
463.5019278373261
 20
467.375155443888
 30
0.0
  0
POINT
  5
100032A6
330
100031BD
100
AcDbEntity
  8
DEFPOINTS
  6
ByBlock
 62
     0
100
AcDbPoint
 10
463.5019278373261
 20
402.5944666028942
 30
0.0
  0
ENDBLK
  5
100032A7
330
100031BD
100
AcDbEntity
  8
0
100
AcDbBlockEnd
  0
BLOCK
  5
100032A8
330
100031C9
100
AcDbEntity
  8
0
100
AcDbBlockBegin
  2
*D66
 70
     1
 10
0.0
 20
0.0
 30
0.0
  3
*D66
  1

  0
LINE
  5
100032A9
330
100031C9
100
AcDbEntity
  8
0
  6
ByBlock
 62
     2
100
AcDbLine
 10
318.501927837326
 20
467.2956301926646
 30
0.0
 11
318.501927837326
 21
412.5479819137201
 31
0.0
  0
LINE
  5
100032AA
330
100031C9
100
AcDbEntity
  8
0
  6
ByBlock
 62
     2
100
AcDbLine
 10
233.501927837326
 20
455.375155443888
 30
0.0
 11
233.501927837326
 21
412.5479819137201
 31
0.0
  0
LINE
  5
100032AB
330
100031C9
100
AcDbEntity
  8
0
  6
ByBlock
 62
     2
100
AcDbLine
 10
316.0019278373261
 20
413.7979819137201
 30
0.0
 11
236.001927837326
 21
413.7979819137201
 31
0.0
  0
INSERT
  5
100032AC
330
100031C9
100
AcDbEntity
  8
0
  6
ByBlock
 62
     2
100
AcDbBlockReference
  2
_OPEN
 10
318.501927837326
 20
413.7979819137201
 30
0.0
 41
2.5
 42
2.5
 43
2.5
  0
INSERT
  5
100032AD
330
100031C9
100
AcDbEntity
  8
0
  6
ByBlock
 62
     2
100
AcDbBlockReference
  2
_OPEN
 10
233.501927837326
 20
413.7979819137201
 30
0.0
 41
2.5
 42
2.5
 43
2.5
 50
180.0
  0
MTEXT
  5
100032AE
330
100031C9
100
AcDbEntity
  8
0
  6
ByBlock
 62
     6
100
AcDbMText
 10
276.001927837326
 20
415.6729819137201
 30
0.0
 40
2.5
 41
0.0
 71
     5
 72
     1
  1
\A1;85
  7
STYLE3
 73
     1
 44
1.0
  0
POINT
  5
100032AF
330
100031C9
100
AcDbEntity
  8
DEFPOINTS
  6
ByBlock
 62
     0
100
AcDbPoint
 10
318.501927837326
 20
467.2956301926646
 30
0.0
  0
POINT
  5
100032B0
330
100031C9
100
AcDbEntity
  8
DEFPOINTS
  6
ByBlock
 62
     0
100
AcDbPoint
 10
233.501927837326
 20
455.375155443888
 30
0.0
  0
POINT
  5
100032B1
330
100031C9
100
AcDbEntity
  8
DEFPOINTS
  6
ByBlock
 62
     0
100
AcDbPoint
 10
233.501927837326
 20
413.7979819137201
 30
0.0
  0
ENDBLK
  5
100032B2
330
100031C9
100
AcDbEntity
  8
0
100
AcDbBlockEnd
  0
BLOCK
  5
100032B3
330
100031D5
100
AcDbEntity
  8
0
100
AcDbBlockBegin
  2
*D67
 70
     1
 10
0.0
 20
0.0
 30
0.0
  3
*D67
  1

  0
LINE
  5
100032B4
330
100031D5
100
AcDbEntity
  8
0
  6
ByBlock
 62
     2
100
AcDbLine
 10
252.6861768584738
 20
505.2943717372222
 30
0.0
 11
241.7206993149848
 21
511.6252931487482
 31
0.0
  0
LINE
  5
100032B5
330
100031D5
100
AcDbEntity
  8
0
  6
ByBlock
 62
     2
100
AcDbLine
 10
267.8719457465029
 20
548.4861743588586
 30
0.0
 11
264.2197406897824
 21
550.594775931492
 31
0.0
  0
LINE
  5
100032B6
330
100031D5
100
AcDbEntity
  8
0
  6
ByBlock
 62
     2
100
AcDbLine
 10
244.0532310697154
 20
513.1653566582095
 30
0.0
 11
264.0522724445129
 21
547.8047124220308
 31
0.0
  0
INSERT
  5
100032B7
330
100031D5
100
AcDbEntity
  8
0
  6
ByBlock
 62
     2
100
AcDbBlockReference
  2
_OPEN
 10
242.8032310697154
 20
511.0002931487483
 30
0.0
 41
2.5
 42
2.5
 43
2.5
 50
240.0
  0
INSERT
  5
100032B8
330
100031D5
100
AcDbEntity
  8
0
  6
ByBlock
 62
     2
100
AcDbBlockReference
  2
_OPEN
 10
265.3022724445129
 20
549.9697759314919
 30
0.0
 41
2.5
 42
2.5
 43
2.5
 50
59.99999999999999
  0
MTEXT
  5
100032B9
330
100031D5
100
AcDbEntity
  8
0
  6
ByBlock
 62
     6
100
AcDbMText
 10
252.4289541250183
 20
531.42253454012
 30
0.0
 40
2.5
 41
0.0
 71
     5
 72
     1
  1
\A1;45
  7
STYLE3
 11
0.5000000000000004
 21
0.8660254037844385
 31
0.0
 73
     1
 44
1.0
  0
POINT
  5
100032BA
330
100031D5
100
AcDbEntity
  8
DEFPOINTS
  6
ByBlock
 62
     0
100
AcDbPoint
 10
252.6861768584738
 20
505.2943717372222
 30
0.0
 50
30.00000000000002
  0
POINT
  5
100032BB
330
100031D5
100
AcDbEntity
  8
DEFPOINTS
  6
ByBlock
 62
     0
100
AcDbPoint
 10
267.8719457465029
 20
548.4861743588586
 30
0.0
 50
30.00000000000002
  0
POINT
  5
100032BC
330
100031D5
100
AcDbEntity
  8
DEFPOINTS
  6
ByBlock
 62
     0
100
AcDbPoint
 10
265.3022724445129
 20
549.9697759314919
 30
0.0
 50
30.00000000000002
  0
ENDBLK
  5
100032BD
330
100031D5
100
AcDbEntity
  8
0
100
AcDbBlockEnd
  0
BLOCK
  5
100032BE
330
100031E1
100
AcDbEntity
  8
0
100
AcDbBlockBegin
  2
*D68
 70
     1
 10
0.0
 20
0.0
 30
0.0
  3
*D68
  1

  0
LINE
  5
100032BF
330
100031E1
100
AcDbEntity
  8
0
  6
ByBlock
 62
     2
100
AcDbLine
 10
172.755295287085
 20
377.2956301926646
 30
0.0
 11
172.755295287085
 21
363.7171317664542
 31
0.0
  0
LINE
  5
100032C0
330
100031E1
100
AcDbEntity
  8
0
  6
ByBlock
 62
     2
100
AcDbLine
 10
212.7552952870851
 20
377.2956301926646
 30
0.0
 11
212.7552952870851
 21
363.7171317664542
 31
0.0
  0
LINE
  5
100032C1
330
100031E1
100
AcDbEntity
  8
0
  6
ByBlock
 62
     2
100
AcDbLine
 10
175.255295287085
 20
364.9671317664542
 30
0.0
 11
210.2552952870851
 21
364.9671317664542
 31
0.0
  0
INSERT
  5
100032C2
330
100031E1
100
AcDbEntity
  8
0
  6
ByBlock
 62
     2
100
AcDbBlockReference
  2
_OPEN
 10
172.755295287085
 20
364.9671317664542
 30
0.0
 41
2.5
 42
2.5
 43
2.5
 50
180.0
  0
INSERT
  5
100032C3
330
100031E1
100
AcDbEntity
  8
0
  6
ByBlock
 62
     2
100
AcDbBlockReference
  2
_OPEN
 10
212.7552952870851
 20
364.9671317664542
 30
0.0
 41
2.5
 42
2.5
 43
2.5
  0
MTEXT
  5
100032C4
330
100031E1
100
AcDbEntity
  8
0
  6
ByBlock
 62
     6
100
AcDbMText
 10
192.755295287085
 20
366.8421317664542
 30
0.0
 40
2.5
 41
0.0
 71
     5
 72
     1
  1
\A1;40
  7
STYLE3
 73
     1
 44
1.0
  0
POINT
  5
100032C5
330
100031E1
100
AcDbEntity
  8
DEFPOINTS
  6
ByBlock
 62
     0
100
AcDbPoint
 10
172.755295287085
 20
377.2956301926646
 30
0.0
  0
POINT
  5
100032C6
330
100031E1
100
AcDbEntity
  8
DEFPOINTS
  6
ByBlock
 62
     0
100
AcDbPoint
 10
212.7552952870851
 20
377.2956301926646
 30
0.0
  0
POINT
  5
100032C7
330
100031E1
100
AcDbEntity
  8
DEFPOINTS
  6
ByBlock
 62
     0
100
AcDbPoint
 10
212.7552952870851
 20
364.9671317664542
 30
0.0
  0
ENDBLK
  5
100032C8
330
100031E1
100
AcDbEntity
  8
0
100
AcDbBlockEnd
  0
BLOCK
  5
10003372
330
100031ED
100
AcDbEntity
  8
0
100
AcDbBlockBegin
  2
*D69
 70
     1
 10
0.0
 20
0.0
 30
0.0
  3
*D69
  1

  0
LINE
  5
10003373
330
100031ED
100
AcDbEntity
  8
0
  6
ByBlock
 62
     2
100
AcDbLine
 10
195.6008083652827
 20
432.8957552173545
 30
0.0
 11
188.4146243328109
 21
432.8957552173545
 31
0.0
  0
LINE
  5
10003374
330
100031ED
100
AcDbEntity
  8
0
  6
ByBlock
 62
     2
100
AcDbLine
 10
195.9893408432298
 20
429.8957552173543
 30
0.0
 11
188.4146243328109
 21
429.8957552173543
 31
0.0
  0
LINE
  5
10003375
330
100031ED
100
AcDbEntity
  8
0
  6
ByBlock
 62
     2
100
AcDbLine
 10
189.6646243328109
 20
435.3957552173544
 30
0.0
 11
189.6646243328109
 21
437.8957552173544
 31
0.0
  0
LINE
  5
10003376
330
100031ED
100
AcDbEntity
  8
0
  6
ByBlock
 62
     2
100
AcDbLine
 10
189.6646243328109
 20
427.3957552173544
 30
0.0
 11
189.6646243328109
 21
424.8957552173544
 31
0.0
  0
LINE
  5
10003377
330
100031ED
100
AcDbEntity
  8
0
  6
ByBlock
 62
     2
100
AcDbLine
 10
189.6646243328109
 20
432.8957552173545
 30
0.0
 11
189.6646243328109
 21
429.8957552173543
 31
0.0
  0
INSERT
  5
10003378
330
100031ED
100
AcDbEntity
  8
0
  6
ByBlock
 62
     2
100
AcDbBlockReference
  2
_OPEN
 10
189.6646243328109
 20
432.8957552173545
 30
0.0
 41
2.5
 42
2.5
 43
2.5
 50
270.0
  0
INSERT
  5
10003379
330
100031ED
100
AcDbEntity
  8
0
  6
ByBlock
 62
     2
100
AcDbBlockReference
  2
_OPEN
 10
189.6646243328109
 20
429.8957552173543
 30
0.0
 41
2.5
 42
2.5
 43
2.5
 50
90.0
  0
MTEXT
  5
1000337A
330
100031ED
100
AcDbEntity
  8
0
  6
ByBlock
 62
     6
100
AcDbMText
 10
187.7896243328109
 20
431.3957552173544
 30
0.0
 40
2.5
 41
0.0
 71
     5
 72
     1
  1
\A1;3
  7
STYLE3
 11
0.0000000000000001
 21
1.0
 31
0.0
 73
     1
 44
1.0
  0
POINT
  5
1000337B
330
100031ED
100
AcDbEntity
  8
DEFPOINTS
  6
ByBlock
 62
     0
100
AcDbPoint
 10
195.6008083652827
 20
432.8957552173545
 30
0.0
  0
POINT
  5
1000337C
330
100031ED
100
AcDbEntity
  8
DEFPOINTS
  6
ByBlock
 62
     0
100
AcDbPoint
 10
195.9893408432298
 20
429.8957552173543
 30
0.0
  0
POINT
  5
1000337D
330
100031ED
100
AcDbEntity
  8
DEFPOINTS
  6
ByBlock
 62
     0
100
AcDbPoint
 10
189.6646243328109
 20
429.8957552173543
 30
0.0
  0
ENDBLK
  5
1000337E
330
100031ED
100
AcDbEntity
  8
0
100
AcDbBlockEnd
  0
BLOCK
  5
100032D6
330
100031FB
100
AcDbEntity
  8
0
100
AcDbBlockBegin
  2
*D70
 70
     1
 10
0.0
 20
0.0
 30
0.0
  3
*D70
  1

  0
LINE
  5
100032D7
330
100031FB
100
AcDbEntity
  8
0
  6
ByBlock
 62
     2
100
AcDbLine
 10
191.0630584761537
 20
447.2946264146075
 30
0.0
 11
150.433884452363
 21
447.2946264146075
 31
0.0
  0
LINE
  5
100032D8
330
100031FB
100
AcDbEntity
  8
0
  6
ByBlock
 62
     2
100
AcDbLine
 10
160.1779087485266
 20
377.2956301926646
 30
0.0
 11
150.433884452363
 21
377.2956301926646
 31
0.0
  0
LINE
  5
100032D9
330
100031FB
100
AcDbEntity
  8
0
  6
ByBlock
 62
     2
100
AcDbLine
 10
151.683884452363
 20
444.7946264146075
 30
0.0
 11
151.683884452363
 21
379.7956301926646
 31
0.0
  0
INSERT
  5
100032DA
330
100031FB
100
AcDbEntity
  8
0
  6
ByBlock
 62
     2
100
AcDbBlockReference
  2
_OPEN
 10
151.683884452363
 20
447.2946264146075
 30
0.0
 41
2.5
 42
2.5
 43
2.5
 50
90.0
  0
INSERT
  5
100032DB
330
100031FB
100
AcDbEntity
  8
0
  6
ByBlock
 62
     2
100
AcDbBlockReference
  2
_OPEN
 10
151.683884452363
 20
377.2956301926646
 30
0.0
 41
2.5
 42
2.5
 43
2.5
 50
270.0
  0
MTEXT
  5
100032DC
330
100031FB
100
AcDbEntity
  8
0
  6
ByBlock
 62
     6
100
AcDbMText
 10
149.808884452363
 20
412.2951283036361
 30
0.0
 40
2.5
 41
0.0
 71
     5
 72
     1
  1
\A1;測定深さ 70
  7
STYLE3
 11
0.0000000000000001
 21
1.0
 31
0.0
 73
     1
 44
1.0
  0
POINT
  5
100032DD
330
100031FB
100
AcDbEntity
  8
DEFPOINTS
  6
ByBlock
 62
     0
100
AcDbPoint
 10
191.0630584761537
 20
447.2946264146075
 30
0.0
  0
POINT
  5
100032DE
330
100031FB
100
AcDbEntity
  8
DEFPOINTS
  6
ByBlock
 62
     0
100
AcDbPoint
 10
160.1779087485266
 20
377.2956301926646
 30
0.0
  0
POINT
  5
100032DF
330
100031FB
100
AcDbEntity
  8
DEFPOINTS
  6
ByBlock
 62
     0
100
AcDbPoint
 10
151.683884452363
 20
377.2956301926646
 30
0.0
  0
ENDBLK
  5
100032E0
330
100031FB
100
AcDbEntity
  8
0
100
AcDbBlockEnd
  0
BLOCK
  5
100032E1
330
10003207
100
AcDbEntity
  8
0
100
AcDbBlockBegin
  2
*D71
 70
     1
 10
0.0
 20
0.0
 30
0.0
  3
*D71
  1

  0
LINE
  5
100032E2
330
10003207
100
AcDbEntity
  8
0
  6
ByBlock
 62
     2
100
AcDbLine
 10
162.5019278373259
 20
461.875155443888
 30
0.0
 11
155.2853561659179
 21
461.875155443888
 31
0.0
  0
LINE
  5
100032E3
330
10003207
100
AcDbEntity
  8
0
  6
ByBlock
 62
     2
100
AcDbLine
 10
156.5353561659179
 20
470.375155443888
 30
0.0
 11
156.5353561659179
 21
464.375155443888
 31
0.0
  0
INSERT
  5
100032E4
330
10003207
100
AcDbEntity
  8
0
  6
ByBlock
 62
     2
100
AcDbBlockReference
  2
_OPEN
 10
156.5353561659179
 20
472.875155443888
 30
0.0
 41
2.5
 42
2.5
 43
2.5
 50
90.0
  0
INSERT
  5
100032E5
330
10003207
100
AcDbEntity
  8
0
  6
ByBlock
 62
     2
100
AcDbBlockReference
  2
_OPEN
 10
156.5353561659179
 20
461.875155443888
 30
0.0
 41
2.5
 42
2.5
 43
2.5
 50
270.0
  0
MTEXT
  5
100032E6
330
10003207
100
AcDbEntity
  8
0
  6
ByBlock
 62
     6
100
AcDbMText
 10
154.6603561659179
 20
467.375155443888
 30
0.0
 40
2.5
 41
0.0
 71
     5
 72
     1
  1
\A1;11
  7
STYLE3
 11
0.0000000000000001
 21
1.0
 31
0.0
 73
     1
 44
1.0
  0
POINT
  5
100032E7
330
10003207
100
AcDbEntity
  8
DEFPOINTS
  6
ByBlock
 62
     0
100
AcDbPoint
 10
162.5019278373259
 20
472.875155443888
 30
0.0
  0
POINT
  5
100032E8
330
10003207
100
AcDbEntity
  8
DEFPOINTS
  6
ByBlock
 62
     0
100
AcDbPoint
 10
162.5019278373259
 20
461.875155443888
 30
0.0
  0
POINT
  5
100032E9
330
10003207
100
AcDbEntity
  8
DEFPOINTS
  6
ByBlock
 62
     0
100
AcDbPoint
 10
156.5353561659179
 20
461.875155443888
 30
0.0
  0
ENDBLK
  5
100032EA
330
10003207
100
AcDbEntity
  8
0
100
AcDbBlockEnd
  0
BLOCK
  5
100032EB
330
10003212
100
AcDbEntity
  8
0
100
AcDbBlockBegin
  2
*D72
 70
     1
 10
0.0
 20
0.0
 30
0.0
  3
*D72
  1

  0
LINE
  5
100032EC
330
10003212
100
AcDbEntity
  8
0
  6
ByBlock
 62
     2
100
AcDbLine
 10
170.0233526698886
 20
472.8751554438879
 30
0.0
 11
170.0233526698886
 21
481.4093255085872
 31
0.0
  0
LINE
  5
100032ED
330
10003212
100
AcDbEntity
  8
0
  6
ByBlock
 62
     2
100
AcDbLine
 10
173.0233526698886
 20
472.8751554438879
 30
0.0
 11
173.0233526698886
 21
481.4093255085872
 31
0.0
  0
LINE
  5
100032EE
330
10003212
100
AcDbEntity
  8
0
  6
ByBlock
 62
     2
100
AcDbLine
 10
167.5233526698886
 20
480.1593255085871
 30
0.0
 11
165.0233526698886
 21
480.1593255085871
 31
0.0
  0
LINE
  5
100032EF
330
10003212
100
AcDbEntity
  8
0
  6
ByBlock
 62
     2
100
AcDbLine
 10
175.5233526698886
 20
480.1593255085871
 30
0.0
 11
178.0233526698886
 21
480.1593255085871
 31
0.0
  0
LINE
  5
100032F0
330
10003212
100
AcDbEntity
  8
0
  6
ByBlock
 62
     2
100
AcDbLine
 10
170.0233526698886
 20
480.1593255085871
 30
0.0
 11
173.0233526698886
 21
480.1593255085871
 31
0.0
  0
INSERT
  5
100032F1
330
10003212
100
AcDbEntity
  8
0
  6
ByBlock
 62
     2
100
AcDbBlockReference
  2
_OPEN
 10
170.0233526698886
 20
480.1593255085871
 30
0.0
 41
2.5
 42
2.5
 43
2.5
  0
INSERT
  5
100032F2
330
10003212
100
AcDbEntity
  8
0
  6
ByBlock
 62
     2
100
AcDbBlockReference
  2
_OPEN
 10
173.0233526698886
 20
480.1593255085871
 30
0.0
 41
2.5
 42
2.5
 43
2.5
 50
180.0
  0
MTEXT
  5
100032F3
330
10003212
100
AcDbEntity
  8
0
  6
ByBlock
 62
     6
100
AcDbMText
 10
171.5233526698886
 20
482.0343255085871
 30
0.0
 40
2.5
 41
0.0
 71
     5
 72
     1
  1
\A1;3
  7
STYLE3
 73
     1
 44
1.0
  0
POINT
  5
100032F4
330
10003212
100
AcDbEntity
  8
DEFPOINTS
  6
ByBlock
 62
     0
100
AcDbPoint
 10
170.0233526698886
 20
472.8751554438879
 30
0.0
  0
POINT
  5
100032F5
330
10003212
100
AcDbEntity
  8
DEFPOINTS
  6
ByBlock
 62
     0
100
AcDbPoint
 10
173.0233526698886
 20
472.8751554438879
 30
0.0
  0
POINT
  5
100032F6
330
10003212
100
AcDbEntity
  8
DEFPOINTS
  6
ByBlock
 62
     0
100
AcDbPoint
 10
173.0233526698886
 20
480.1593255085871
 30
0.0
  0
ENDBLK
  5
100032F7
330
10003212
100
AcDbEntity
  8
0
100
AcDbBlockEnd
  0
BLOCK
  5
1000332A
330
10003257
100
AcDbEntity
  8
0
100
AcDbBlockBegin
  2
*D78
 70
     1
 10
0.0
 20
0.0
 30
0.0
  3
*D78
  1

  0
LINE
  5
1000332B
330
10003257
100
AcDbEntity
  8
0
  6
ByBlock
 62
     2
100
AcDbLine
 10
363.5019278373261
 20
467.375155443888
 30
0.0
 11
363.5019278373261
 21
412.5479819137201
 31
0.0
  0
LINE
  5
1000332C
330
10003257
100
AcDbEntity
  8
0
  6
ByBlock
 62
     2
100
AcDbLine
 10
463.5019278373261
 20
467.375155443888
 30
0.0
 11
463.5019278373261
 21
412.5479819137201
 31
0.0
  0
LINE
  5
1000332D
330
10003257
100
AcDbEntity
  8
0
  6
ByBlock
 62
     2
100
AcDbLine
 10
366.0019278373261
 20
413.7979819137201
 30
0.0
 11
461.0019278373261
 21
413.7979819137201
 31
0.0
  0
INSERT
  5
1000332E
330
10003257
100
AcDbEntity
  8
0
  6
ByBlock
 62
     2
100
AcDbBlockReference
  2
_OPEN
 10
363.5019278373261
 20
413.7979819137201
 30
0.0
 41
2.5
 42
2.5
 43
2.5
 50
180.0
  0
INSERT
  5
1000332F
330
10003257
100
AcDbEntity
  8
0
  6
ByBlock
 62
     2
100
AcDbBlockReference
  2
_OPEN
 10
463.5019278373261
 20
413.7979819137201
 30
0.0
 41
2.5
 42
2.5
 43
2.5
  0
MTEXT
  5
10003330
330
10003257
100
AcDbEntity
  8
0
  6
ByBlock
 62
     6
100
AcDbMText
 10
413.5019278373261
 20
415.6729819137201
 30
0.0
 40
2.5
 41
0.0
 71
     5
 72
     1
  1
\A1;100
  7
STYLE3
 73
     1
 44
1.0
  0
POINT
  5
10003331
330
10003257
100
AcDbEntity
  8
DEFPOINTS
  6
ByBlock
 62
     0
100
AcDbPoint
 10
363.5019278373261
 20
467.375155443888
 30
0.0
  0
POINT
  5
10003332
330
10003257
100
AcDbEntity
  8
DEFPOINTS
  6
ByBlock
 62
     0
100
AcDbPoint
 10
463.5019278373261
 20
467.375155443888
 30
0.0
  0
POINT
  5
10003333
330
10003257
100
AcDbEntity
  8
DEFPOINTS
  6
ByBlock
 62
     0
100
AcDbPoint
 10
463.5019278373261
 20
413.7979819137201
 30
0.0
  0
ENDBLK
  5
10003334
330
10003257
100
AcDbEntity
  8
0
100
AcDbBlockEnd
  0
BLOCK
  5
10003335
330
10003263
100
AcDbEntity
  8
0
100
AcDbBlockBegin
  2
*D79
 70
     1
 10
0.0
 20
0.0
 30
0.0
  3
*D79
  1

  0
LINE
  5
10003336
330
10003263
100
AcDbEntity
  8
0
  6
ByBlock
 62
     2
100
AcDbLine
 10
318.501927837326
 20
467.2956301926646
 30
0.0
 11
318.501927837326
 21
412.5479819137201
 31
0.0
  0
LINE
  5
10003337
330
10003263
100
AcDbEntity
  8
0
  6
ByBlock
 62
     2
100
AcDbLine
 10
363.501927837326
 20
467.375155443888
 30
0.0
 11
363.501927837326
 21
412.5479819137201
 31
0.0
  0
LINE
  5
10003338
330
10003263
100
AcDbEntity
  8
0
  6
ByBlock
 62
     2
100
AcDbLine
 10
321.001927837326
 20
413.7979819137201
 30
0.0
 11
361.001927837326
 21
413.7979819137201
 31
0.0
  0
INSERT
  5
10003339
330
10003263
100
AcDbEntity
  8
0
  6
ByBlock
 62
     2
100
AcDbBlockReference
  2
_OPEN
 10
318.501927837326
 20
413.7979819137201
 30
0.0
 41
2.5
 42
2.5
 43
2.5
 50
180.0
  0
INSERT
  5
1000333A
330
10003263
100
AcDbEntity
  8
0
  6
ByBlock
 62
     2
100
AcDbBlockReference
  2
_OPEN
 10
363.501927837326
 20
413.7979819137201
 30
0.0
 41
2.5
 42
2.5
 43
2.5
  0
MTEXT
  5
1000333B
330
10003263
100
AcDbEntity
  8
0
  6
ByBlock
 62
     6
100
AcDbMText
 10
341.0019278373261
 20
415.6729819137201
 30
0.0
 40
2.5
 41
0.0
 71
     5
 72
     1
  1
\A1;45
  7
STYLE3
 73
     1
 44
1.0
  0
POINT
  5
1000333C
330
10003263
100
AcDbEntity
  8
DEFPOINTS
  6
ByBlock
 62
     0
100
AcDbPoint
 10
318.501927837326
 20
467.2956301926646
 30
0.0
  0
POINT
  5
1000333D
330
10003263
100
AcDbEntity
  8
DEFPOINTS
  6
ByBlock
 62
     0
100
AcDbPoint
 10
363.501927837326
 20
467.375155443888
 30
0.0
  0
POINT
  5
1000333E
330
10003263
100
AcDbEntity
  8
DEFPOINTS
  6
ByBlock
 62
     0
100
AcDbPoint
 10
363.501927837326
 20
413.7979819137201
 30
0.0
  0
ENDBLK
  5
1000333F
330
10003263
100
AcDbEntity
  8
0
100
AcDbBlockEnd
  0
BLOCK
  5
10003340
330
1000326F
100
AcDbEntity
  8
0
100
AcDbBlockBegin
  2
*D80
 70
     1
 10
0.0
 20
0.0
 30
0.0
  3
*D80
  1

  0
LINE
  5
10003341
330
1000326F
100
AcDbEntity
  8
0
  6
ByBlock
 62
     2
100
AcDbLine
 10
312.74428647783
 20
377.3512135820126
 30
0.0
 11
312.74428647783
 21
363.7171317664542
 31
0.0
  0
LINE
  5
10003342
330
1000326F
100
AcDbEntity
  8
0
  6
ByBlock
 62
     2
100
AcDbLine
 10
322.7475697203225
 20
377.4668032315737
 30
0.0
 11
322.7475697203225
 21
363.7171317664542
 31
0.0
  0
LINE
  5
10003343
330
1000326F
100
AcDbEntity
  8
0
  6
ByBlock
 62
     2
100
AcDbLine
 10
315.24428647783
 20
364.9671317664542
 30
0.0
 11
320.2475697203226
 21
364.9671317664542
 31
0.0
  0
INSERT
  5
10003344
330
1000326F
100
AcDbEntity
  8
0
  6
ByBlock
 62
     2
100
AcDbBlockReference
  2
_OPEN
 10
312.74428647783
 20
364.9671317664542
 30
0.0
 41
2.5
 42
2.5
 43
2.5
 50
180.0
  0
INSERT
  5
10003345
330
1000326F
100
AcDbEntity
  8
0
  6
ByBlock
 62
     2
100
AcDbBlockReference
  2
_OPEN
 10
322.7475697203225
 20
364.9671317664542
 30
0.0
 41
2.5
 42
2.5
 43
2.5
  0
MTEXT
  5
10003346
330
1000326F
100
AcDbEntity
  8
0
  6
ByBlock
 62
     6
100
AcDbMText
 10
317.7459280990762
 20
366.8421317664542
 30
0.0
 40
2.5
 41
0.0
 71
     5
 72
     1
  1
\A1;10
  7
STYLE3
 73
     1
 44
1.0
  0
POINT
  5
10003347
330
1000326F
100
AcDbEntity
  8
DEFPOINTS
  6
ByBlock
 62
     0
100
AcDbPoint
 10
312.74428647783
 20
377.3512135820126
 30
0.0
  0
POINT
  5
10003348
330
1000326F
100
AcDbEntity
  8
DEFPOINTS
  6
ByBlock
 62
     0
100
AcDbPoint
 10
322.7475697203225
 20
377.4668032315737
 30
0.0
  0
POINT
  5
10003349
330
1000326F
100
AcDbEntity
  8
DEFPOINTS
  6
ByBlock
 62
     0
100
AcDbPoint
 10
322.7475697203225
 20
364.9671317664542
 30
0.0
  0
ENDBLK
  5
1000334A
330
1000326F
100
AcDbEntity
  8
0
100
AcDbBlockEnd
  0
BLOCK
  5
1000334B
330
1000327B
100
AcDbEntity
  8
0
100
AcDbBlockBegin
  2
*D81
 70
     1
 10
0.0
 20
0.0
 30
0.0
  3
*D81
  1

  0
LINE
  5
1000334C
330
1000327B
100
AcDbEntity
  8
0
  6
ByBlock
 62
     2
100
AcDbLine
 10
458.5019278373261
 20
482.375155443888
 30
0.0
 11
473.5920683457377
 21
482.375155443888
 31
0.0
  0
LINE
  5
1000334D
330
1000327B
100
AcDbEntity
  8
0
  6
ByBlock
 62
     2
100
AcDbLine
 10
458.5019278373261
 20
452.375155443888
 30
0.0
 11
473.5920683457377
 21
452.375155443888
 31
0.0
  0
LINE
  5
1000334E
330
1000327B
100
AcDbEntity
  8
0
  6
ByBlock
 62
     2
100
AcDbLine
 10
472.3420683457377
 20
479.8751554438879
 30
0.0
 11
472.3420683457376
 21
454.8751554438879
 31
0.0
  0
INSERT
  5
1000334F
330
1000327B
100
AcDbEntity
  8
0
  6
ByBlock
 62
     2
100
AcDbBlockReference
  2
_OPEN
 10
472.3420683457377
 20
482.375155443888
 30
0.0
 41
2.5
 42
2.5
 43
2.5
 50
90.0
  0
INSERT
  5
10003350
330
1000327B
100
AcDbEntity
  8
0
  6
ByBlock
 62
     2
100
AcDbBlockReference
  2
_OPEN
 10
472.3420683457376
 20
452.375155443888
 30
0.0
 41
2.5
 42
2.5
 43
2.5
 50
270.0
  0
MTEXT
  5
10003351
330
1000327B
100
AcDbEntity
  8
0
  6
ByBlock
 62
     6
100
AcDbMText
 10
470.4670683457377
 20
467.3751554438879
 30
0.0
 40
2.5
 41
0.0
 71
     5
 72
     1
  1
\A1;30
  7
STYLE3
 11
0.0000000000000001
 21
1.0
 31
0.0
 73
     1
 44
1.0
  0
POINT
  5
10003352
330
1000327B
100
AcDbEntity
  8
DEFPOINTS
  6
ByBlock
 62
     0
100
AcDbPoint
 10
458.5019278373261
 20
482.375155443888
 30
0.0
  0
POINT
  5
10003353
330
1000327B
100
AcDbEntity
  8
DEFPOINTS
  6
ByBlock
 62
     0
100
AcDbPoint
 10
458.5019278373261
 20
452.375155443888
 30
0.0
  0
POINT
  5
10003354
330
1000327B
100
AcDbEntity
  8
DEFPOINTS
  6
ByBlock
 62
     0
100
AcDbPoint
 10
472.3420683457376
 20
452.375155443888
 30
0.0
  0
ENDBLK
  5
10003355
330
1000327B
100
AcDbEntity
  8
0
100
AcDbBlockEnd
  0
BLOCK
  5
100033C2
330
100033B5
100
AcDbEntity
  8
0
100
AcDbBlockBegin
  2
*D82
 70
     1
 10
0.0
 20
0.0
 30
0.0
  3
*D82
  1

  0
LINE
  5
100033C3
330
100033B5
100
AcDbEntity
  8
0
  6
ByBlock
 62
     2
100
AcDbLine
 10
275.894445390455
 20
467.375155443888
 30
0.0
 11
281.0783030637724
 21
467.375155443888
 31
0.0
  0
LINE
  5
100033C4
330
100033B5
100
AcDbEntity
  8
0
  6
ByBlock
 62
     2
100
AcDbLine
 10
274.5290851236109
 20
455.4540538232846
 30
0.0
 11
281.0783030637723
 21
455.4540538232846
 31
0.0
  0
LINE
  5
100033C5
330
100033B5
100
AcDbEntity
  8
0
  6
ByBlock
 62
     2
100
AcDbLine
 10
279.8283030637723
 20
464.875155443888
 30
0.0
 11
279.8283030637723
 21
457.9540538232847
 31
0.0
  0
INSERT
  5
100033C6
330
100033B5
100
AcDbEntity
  8
0
  6
ByBlock
 62
     2
100
AcDbBlockReference
  2
_OPEN
 10
279.8283030637723
 20
467.375155443888
 30
0.0
 41
2.5
 42
2.5
 43
2.5
 50
90.0
  0
INSERT
  5
100033C7
330
100033B5
100
AcDbEntity
  8
0
  6
ByBlock
 62
     2
100
AcDbBlockReference
  2
_OPEN
 10
279.8283030637723
 20
455.4540538232846
 30
0.0
 41
2.5
 42
2.5
 43
2.5
 50
270.0
  0
MTEXT
  5
100033C8
330
100033B5
100
AcDbEntity
  8
0
  6
ByBlock
 62
     6
100
AcDbMText
 10
277.9533030637723
 20
461.4146046335863
 30
0.0
 40
2.5
 41
0.0
 71
     5
 72
     1
  1
\A1;12
  7
STYLE3
 11
0.0000000000000001
 21
1.0
 31
0.0
 73
     1
 44
1.0
  0
POINT
  5
100033C9
330
100033B5
100
AcDbEntity
  8
DEFPOINTS
  6
ByBlock
 62
     0
100
AcDbPoint
 10
275.894445390455
 20
467.375155443888
 30
0.0
  0
POINT
  5
100033CA
330
100033B5
100
AcDbEntity
  8
DEFPOINTS
  6
ByBlock
 62
     0
100
AcDbPoint
 10
274.5290851236109
 20
455.4540538232846
 30
0.0
  0
POINT
  5
100033CB
330
100033B5
100
AcDbEntity
  8
DEFPOINTS
  6
ByBlock
 62
     0
100
AcDbPoint
 10
279.8283030637723
 20
455.4540538232846
 30
0.0
  0
ENDBLK
  5
100033CC
330
100033B5
100
AcDbEntity
  8
0
100
AcDbBlockEnd
  0
BLOCK
  5
100033FD
330
100033EE
100
AcDbEntity
  8
0
100
AcDbBlockBegin
  2
*D84
 70
     1
 10
0.0
 20
0.0
 30
0.0
  3
*D84
  1

  0
LINE
  5
100033FE
330
100033EE
100
AcDbEntity
  8
0
  6
ByBlock
 62
     2
100
AcDbLine
 10
330.1046508552476
 20
395.4376689533112
 30
0.0
 11
337.6772582965411
 21
395.4376689533112
 31
0.0
  0
LINE
  5
100033FF
330
100033EE
100
AcDbEntity
  8
0
  6
ByBlock
 62
     2
100
AcDbLine
 10
329.7082908956926
 20
392.4376689533113
 30
0.0
 11
337.6772582965411
 21
392.4376689533113
 31
0.0
  0
LINE
  5
10003400
330
100033EE
100
AcDbEntity
  8
0
  6
ByBlock
 62
     2
100
AcDbLine
 10
336.4272582965412
 20
397.9376689533112
 30
0.0
 11
336.4272582965412
 21
400.4376689533112
 31
0.0
  0
LINE
  5
10003401
330
100033EE
100
AcDbEntity
  8
0
  6
ByBlock
 62
     2
100
AcDbLine
 10
336.4272582965412
 20
389.9376689533113
 30
0.0
 11
336.4272582965412
 21
387.4376689533113
 31
0.0
  0
LINE
  5
10003402
330
100033EE
100
AcDbEntity
  8
0
  6
ByBlock
 62
     2
100
AcDbLine
 10
336.4272582965412
 20
395.4376689533112
 30
0.0
 11
336.4272582965412
 21
392.4376689533113
 31
0.0
  0
INSERT
  5
10003403
330
100033EE
100
AcDbEntity
  8
0
  6
ByBlock
 62
     2
100
AcDbBlockReference
  2
_OPEN
 10
336.4272582965412
 20
395.4376689533112
 30
0.0
 41
2.5
 42
2.5
 43
2.5
 50
270.0
  0
INSERT
  5
10003404
330
100033EE
100
AcDbEntity
  8
0
  6
ByBlock
 62
     2
100
AcDbBlockReference
  2
_OPEN
 10
336.4272582965412
 20
392.4376689533113
 30
0.0
 41
2.5
 42
2.5
 43
2.5
 50
90.0
  0
MTEXT
  5
10003405
330
100033EE
100
AcDbEntity
  8
0
  6
ByBlock
 62
     6
100
AcDbMText
 10
334.5522582965411
 20
393.9376689533113
 30
0.0
 40
2.5
 41
0.0
 71
     5
 72
     1
  1
\A1;3
  7
STYLE3
 11
0.0000000000000001
 21
1.0
 31
0.0
 73
     1
 44
1.0
  0
POINT
  5
10003406
330
100033EE
100
AcDbEntity
  8
DEFPOINTS
  6
ByBlock
 62
     0
100
AcDbPoint
 10
330.1046508552476
 20
395.4376689533112
 30
0.0
  0
POINT
  5
10003407
330
100033EE
100
AcDbEntity
  8
DEFPOINTS
  6
ByBlock
 62
     0
100
AcDbPoint
 10
329.7082908956926
 20
392.4376689533113
 30
0.0
  0
POINT
  5
10003408
330
100033EE
100
AcDbEntity
  8
DEFPOINTS
  6
ByBlock
 62
     0
100
AcDbPoint
 10
336.4272582965412
 20
392.4376689533113
 30
0.0
  0
ENDBLK
  5
10003409
330
100033EE
100
AcDbEntity
  8
0
100
AcDbBlockEnd
  0
ENDSEC
  0
SECTION
  2
ENTITIES
  0
LINE
  5
10002DDB
330
F6
100
AcDbEntity
  8
想像線
 48
0.7
100
AcDbLine
 10
326.5456127617287
 20
447.2946264146075
 30
0.0
 11
191.0630584761537
 21
447.2946264146075
 31
0.0
  0
LWPOLYLINE
  5
10002DDC
330
F6
100
AcDbEntity
  8
C
100
AcDbPolyline
 90
        5
 70
     0
 43
0.8
 10
115.9986517010632
 20
596.4586773905377
 10
493.4986517010631
 20
596.4586773905377
 10
493.4986517010631
 20
325.1241370968542
 10
115.9986517010632
 20
325.1241370968542
 10
115.9986517010632
 20
596.4586773905377
  0
DIMENSION
  5
10002DE5
330
F6
100
AcDbEntity
  8
寸法線
100
AcDbDimension
  2
*D63
 10
322.7475697203225
 20
357.8179383337094
 30
0.0
 11
247.7514325037038
 21
359.6929383337094
 31
0.0
 70
    32
  1
150
 71
     5
 42
-1.0
  3
STANDARD
100
AcDbAlignedDimension
 13
172.755295287085
 23
377.2956301926646
 33
0.0
 14
322.7475697203225
 24
377.4668032315737
 34
0.0
100
AcDbRotatedDimension
1001
ACAD
1000
DSTYLE
1002
{
1070
    78
1070
     8
1070
   140
1040
2.5
1070
   340
1005
10000041
1070
    74
1070
     0
1070
   172
1070
     1
1070
    73
1070
     0
1070
    77
1070
     1
1070
   173
1070
     1
1070
   147
1040
0.625
1070
    42
1040
0.0
1070
    44
1040
1.25
1070
    43
1040
3.75
1070
   271
1070
     2
1070
   178
1070
     6
1070
   177
1070
     2
1070
   176
1070
     2
1070
   141
1040
2.5
1070
     7
1000
_OPEN
1070
     6
1000
_OPEN
1070
    41
1040
2.5
1070
   273
1070
     8
1070
   274
1070
     4
1070
   143
1040
0.0394
1070
   171
1070
     4
1002
}
  0
DIMENSION
  5
10002DE6
330
F6
100
AcDbEntity
  8
寸法線
100
AcDbDimension
  2
*D64
 10
312.74428647783
 20
364.9671317664542
 30
0.0
 11
262.7497908824576
 21
366.8421317664542
 31
0.0
 70
    32
  1
100
 71
     5
 42
-1.0
  3
STANDARD
100
AcDbAlignedDimension
 13
212.7552952870851
 23
377.2956301926646
 33
0.0
 14
312.74428647783
 24
377.3512135820126
 34
0.0
100
AcDbRotatedDimension
1001
ACAD
1000
DSTYLE
1002
{
1070
    78
1070
     8
1070
   140
1040
2.5
1070
   340
1005
10000041
1070
    74
1070
     0
1070
   172
1070
     1
1070
    73
1070
     0
1070
    77
1070
     1
1070
   173
1070
     1
1070
   147
1040
0.625
1070
    42
1040
0.0
1070
    44
1040
1.25
1070
    43
1040
3.75
1070
   271
1070
     2
1070
   178
1070
     6
1070
   177
1070
     2
1070
   176
1070
     2
1070
   141
1040
2.5
1070
     7
1000
_OPEN
1070
     6
1000
_OPEN
1070
    41
1040
2.5
1070
   273
1070
     8
1070
   274
1070
     4
1070
   143
1040
0.0394
1070
   171
1070
     4
1002
}
  0
LINE
  5
10002DE7
330
F6
100
AcDbEntity
  8
中心線
100
AcDbLine
 10
333.1859020348943
 20
377.2956301926646
 30
0.0
 11
160.1779087485266
 21
377.2956301926646
 31
0.0
  0
DIMENSION
  5
10002DE8
330
F6
100
AcDbEntity
  8
寸法線
100
AcDbDimension
  2
*D65
 10
463.5019278373261
 20
402.5944666028942
 30
0.0
 11
313.0019278373261
 21
404.4694666028942
 31
0.0
 70
    32
 71
     5
 42
-1.0
  3
STANDARD
100
AcDbAlignedDimension
 13
162.5019278373259
 23
467.375155443888
 33
0.0
 14
463.5019278373261
 24
467.375155443888
 34
0.0
100
AcDbRotatedDimension
1001
ACAD
1000
DSTYLE
1002
{
1070
    78
1070
     8
1070
   140
1040
2.5
1070
   340
1005
10000041
1070
    74
1070
     0
1070
   172
1070
     1
1070
    73
1070
     0
1070
    77
1070
     1
1070
   173
1070
     1
1070
   147
1040
0.625
1070
    42
1040
0.0
1070
    44
1040
1.25
1070
    43
1040
3.75
1070
   271
1070
     2
1070
   178
1070
     6
1070
   177
1070
     2
1070
   176
1070
     2
1070
   141
1040
2.5
1070
     7
1000
_OPEN
1070
     6
1000
_OPEN
1070
    41
1040
2.5
1070
   273
1070
     8
1070
   274
1070
     4
1070
   143
1040
0.0394
1070
   171
1070
     4
1002
}
  0
LINE
  5
10002DE9
330
F6
100
AcDbEntity
  8
中心線
100
AcDbLine
 10
158.445526456253
 20
467.375155443888
 30
0.0
 11
468.254219740861
 21
467.375155443888
 31
0.0
  0
DIMENSION
  5
10002DEA
330
F6
100
AcDbEntity
  8
寸法線
100
AcDbDimension
  2
*D66
 10
233.501927837326
 20
413.7979819137201
 30
0.0
 11
276.001927837326
 21
415.6729819137201
 31
0.0
 70
    32
 71
     5
 42
-1.0
  3
STANDARD
100
AcDbAlignedDimension
 13
318.501927837326
 23
467.2956301926646
 33
0.0
 14
233.501927837326
 24
455.375155443888
 34
0.0
100
AcDbRotatedDimension
1001
ACAD
1000
DSTYLE
1002
{
1070
    78
1070
     8
1070
   140
1040
2.5
1070
   340
1005
10000041
1070
    74
1070
     0
1070
   172
1070
     1
1070
    73
1070
     0
1070
    77
1070
     1
1070
   173
1070
     1
1070
   147
1040
0.625
1070
    42
1040
0.0
1070
    44
1040
1.25
1070
    43
1040
3.75
1070
   271
1070
     2
1070
   178
1070
     6
1070
   177
1070
     2
1070
   176
1070
     2
1070
   141
1040
2.5
1070
     7
1000
_OPEN
1070
     6
1000
_OPEN
1070
    41
1040
2.5
1070
   273
1070
     8
1070
   274
1070
     4
1070
   143
1040
0.0394
1070
   171
1070
     4
1002
}
  0
DIMENSION
  5
10002DEB
330
F6
100
AcDbEntity
  8
寸法線
100
AcDbDimension
  2
*D67
 10
265.3022724445129
 20
549.9697759314919
 30
0.0
 11
252.4289541250183
 21
531.42253454012
 31
0.0
 70
    32
 71
     5
 42
-1.0
 51
30.00000000000002
  3
STANDARD
100
AcDbAlignedDimension
 13
252.6861768584739
 23
505.2943717372222
 33
0.0
 14
267.8719457465029
 24
548.4861743588586
 34
0.0
 50
59.99999999999994
100
AcDbRotatedDimension
1001
ACAD
1000
DSTYLE
1002
{
1070
    78
1070
     8
1070
   140
1040
2.5
1070
   340
1005
10000041
1070
    74
1070
     0
1070
   172
1070
     1
1070
    73
1070
     0
1070
    77
1070
     1
1070
   173
1070
     1
1070
   147
1040
0.625
1070
    42
1040
0.0
1070
    44
1040
1.25
1070
    43
1040
3.75
1070
   271
1070
     2
1070
   178
1070
     6
1070
   177
1070
     2
1070
   176
1070
     2
1070
   141
1040
2.5
1070
     7
1000
_OPEN
1070
     6
1000
_OPEN
1070
    41
1040
2.5
1070
   273
1070
     8
1070
   274
1070
     4
1070
   143
1040
0.0394
1070
   171
1070
     4
1002
}
  0
LINE
  5
10002DEC
330
F6
100
AcDbEntity
  8
寸法線
100
AcDbLine
 10
318.501927837326
 20
467.2956301926646
 30
0.0
 11
252.6861768584739
 21
505.2943717372222
 31
0.0
  0
LINE
  5
10002DED
330
F6
100
AcDbEntity
  8
外形線
100
AcDbLine
 10
284.3262418400205
 20
519.3310639687243
 30
0.0
 11
233.501927837326
 21
479.375155443888
 31
0.0
  0
LINE
  5
10002DEE
330
F6
100
AcDbEntity
  8
外形線
100
AcDbLine
 10
233.501927837326
 20
455.375155443888
 30
0.0
 11
310.7459971995693
 21
455.523701731123
 31
0.0
  0
DIMENSION
  5
10002DEF
330
F6
100
AcDbEntity
  8
寸法線
100
AcDbDimension
  2
*D68
 10
212.7552952870851
 20
364.9671317664542
 30
0.0
 11
192.755295287085
 21
366.8421317664542
 31
0.0
 70
    32
 71
     5
 42
-1.0
  3
STANDARD
100
AcDbAlignedDimension
 13
172.755295287085
 23
377.2956301926646
 33
0.0
 14
212.7552952870851
 24
377.2956301926646
 34
0.0
100
AcDbRotatedDimension
1001
ACAD
1000
DSTYLE
1002
{
1070
    78
1070
     8
1070
   140
1040
2.5
1070
   340
1005
10000041
1070
    74
1070
     0
1070
   172
1070
     1
1070
    73
1070
     0
1070
    77
1070
     1
1070
   173
1070
     1
1070
   147
1040
0.625
1070
    42
1040
0.0
1070
    44
1040
1.25
1070
    43
1040
3.75
1070
   271
1070
     2
1070
   178
1070
     6
1070
   177
1070
     2
1070
   176
1070
     2
1070
   141
1040
2.5
1070
     7
1000
_OPEN
1070
     6
1000
_OPEN
1070
    41
1040
2.5
1070
   273
1070
     8
1070
   274
1070
     4
1070
   143
1040
0.0394
1070
   171
1070
     4
1002
}
  0
DIMENSION
  5
10002DF0
330
F6
100
AcDbEntity
  8
寸法線
100
AcDbDimension
  2
*D69
 10
189.6646243328109
 20
429.8957552173543
 30
0.0
 11
187.7896243328109
 21
431.3957552173544
 31
0.0
 70
    32
 71
     5
 42
-1.0
  3
STANDARD
100
AcDbAlignedDimension
 13
195.6008083652827
 23
432.8957552173545
 33
0.0
 14
195.9893408432298
 24
429.8957552173543
 34
0.0
 50
90.0
100
AcDbRotatedDimension
1001
ACAD
1000
DSTYLE
1002
{
1070
    78
1070
     8
1070
   140
1040
2.5
1070
   340
1005
10000041
1070
    74
1070
     0
1070
   172
1070
     1
1070
    73
1070
     0
1070
    77
1070
     1
1070
   173
1070
     1
1070
   147
1040
0.625
1070
    42
1040
0.0
1070
    44
1040
1.25
1070
    43
1040
3.75
1070
   271
1070
     2
1070
   178
1070
     6
1070
   177
1070
     2
1070
   176
1070
     2
1070
   141
1040
2.5
1070
     7
1000
_OPEN
1070
     6
1000
_OPEN
1070
    41
1040
2.5
1070
   273
1070
     8
1070
   274
1070
     4
1070
   143
1040
0.0394
1070
   171
1070
     4
1002
}
  0
MTEXT
  5
10002DF1
330
F6
100
AcDbEntity
  8
0
  6
ByBlock
 62
     6
100
AcDbMText
 10
194.2617153372975
 20
415.6729819137201
 30
0.0
 40
2.5
 41
0.0
 71
     5
 72
     1
  1
\A1;71
  7
STYLE3
 73
     1
 44
1.0
  0
LINE
  5
10002DF2
330
F6
100
AcDbEntity
  8
0
  6
ByBlock
 62
     2
100
AcDbLine
 10
165.001927837326
 20
413.7979819137201
 30
0.0
 11
231.001927837326
 21
413.7979819137201
 31
0.0
  0
LINE
  5
10002DF3
330
F6
100
AcDbEntity
  8
外形線
100
AcDbLine
 10
208.5019278373259
 20
461.875155443888
 30
0.0
 11
162.501927837326
 21
461.8751554438879
 31
0.0
  0
LINE
  5
10002DF4
330
F6
100
AcDbEntity
  8
外形線
100
AcDbLine
 10
162.5019278373259
 20
472.8751554438879
 30
0.0
 11
208.5019278373259
 21
472.875155443888
 31
0.0
  0
ARC
  5
10002DF5
330
F6
100
AcDbEntity
  8
外形線
100
AcDbCircle
 10
208.3731104660964
 20
443.3575365591795
 30
0.0
 40
14.05054044031536
100
AcDbArc
 50
91.92405179759168
 51
182.3152340475424
  0
DIMENSION
  5
10002DF6
330
F6
100
AcDbEntity
  8
寸法線
100
AcDbDimension
  2
*D70
 10
151.683884452363
 20
377.2956301926646
 30
0.0
 11
149.808884452363
 21
412.2951283036361
 31
0.0
 70
    32
  1
測定深さ <>
 71
     5
 42
-1.0
  3
STANDARD
100
AcDbAlignedDimension
 13
191.0630584761537
 23
447.2946264146075
 33
0.0
 14
160.1779087485266
 24
377.2956301926646
 34
0.0
 50
90.0
100
AcDbRotatedDimension
1001
ACAD
1000
DSTYLE
1002
{
1070
    78
1070
     8
1070
   140
1040
2.5
1070
   340
1005
10000041
1070
    74
1070
     0
1070
   172
1070
     1
1070
    73
1070
     0
1070
    77
1070
     1
1070
   173
1070
     1
1070
   147
1040
0.625
1070
    42
1040
0.0
1070
    44
1040
1.25
1070
    43
1040
3.75
1070
   271
1070
     2
1070
   178
1070
     6
1070
   177
1070
     2
1070
   176
1070
     2
1070
   141
1040
2.5
1070
     7
1000
_OPEN
1070
     6
1000
_OPEN
1070
    41
1040
2.5
1070
   273
1070
     8
1070
   274
1070
     4
1070
   143
1040
0.0394
1070
   171
1070
     4
1002
}
  0
LINE
  5
10002DF7
330
F6
100
AcDbEntity
  8
0
  6
ByBlock
 62
     2
100
AcDbLine
 10
162.5019278373259
 20
461.875155443888
 30
0.0
 11
162.5019278373259
 21
412.5479819137201
 31
0.0
  0
LINE
  5
10002DF8
330
F6
100
AcDbEntity
  8
想像線
 48
0.4
100
AcDbLine
 10
169.7231872850939
 20
395.067912508699
 30
0.0
 11
156.2037401839463
 21
389.824021177594
 31
0.0
  0
LINE
  5
10002DF9
330
F6
100
AcDbEntity
  8
想像線
 48
0.4
100
AcDbLine
 10
165.8052952870851
 20
375.7956301926646
 30
0.0
 11
167.805295287085
 21
375.7956301926646
 31
0.0
  0
LINE
  5
10002DFA
330
F6
100
AcDbEntity
  8
想像線
 48
0.4
100
AcDbLine
 10
165.8052952870851
 20
378.7956301926647
 30
0.0
 11
167.805295287085
 21
378.7956301926647
 31
0.0
  0
LINE
  5
10002DFB
330
F6
100
AcDbEntity
  8
想像線
 48
0.4
100
AcDbLine
 10
165.830295287085
 20
393.5579467202643
 30
0.0
 11
165.8302952870851
 21
375.3456301926646
 31
0.0
  0
LINE
  5
10002DFC
330
F6
100
AcDbEntity
  8
想像線
 48
0.4
100
AcDbLine
 10
161.8302952870851
 20
384.7956301926647
 30
0.0
 11
160.9410866745034
 21
391.6615319876452
 31
0.0
  0
LINE
  5
10002DFD
330
F6
100
AcDbEntity
  8
想像線
 48
0.4
100
AcDbLine
 10
161.8302952870851
 20
375.3456301926646
 30
0.0
 11
161.8302952870851
 21
384.7956301926647
 31
0.0
  0
LINE
  5
10002DFE
330
F6
100
AcDbEntity
  8
想像線
 48
0.4
100
AcDbLine
 10
165.8302952870851
 20
375.3456301926646
 30
0.0
 11
161.8302952870851
 21
375.3456301926646
 31
0.0
  0
LINE
  5
10002DFF
330
F6
100
AcDbEntity
  8
想像線
 48
0.4
100
AcDbLine
 10
167.805295287085
 20
375.7956301926646
 30
0.0
 11
171.4579839872071
 21
376.7828433548598
 31
0.0
  0
LINE
  5
10002E00
330
F6
100
AcDbEntity
  8
想像線
 48
0.4
100
AcDbLine
 10
167.805295287085
 20
378.7956301926647
 30
0.0
 11
171.4579839872071
 21
377.8084170304696
 31
0.0
  0
LINE
  5
10002E01
330
F6
100
AcDbEntity
  8
想像線
 48
0.4
100
AcDbLine
 10
167.805295287085
 20
378.7956301926647
 30
0.0
 11
167.805295287085
 21
375.7956301926646
 31
0.0
  0
ARC
  5
10002E02
330
F6
100
AcDbEntity
  8
想像線
 48
0.4
100
AcDbCircle
 10
172.005295287085
 20
377.2956301926646
 30
0.0
 40
0.75
100
AcDbArc
 50
223.1346943282535
 51
136.8653056717464
  0
LINE
  5
10002E03
330
F6
100
AcDbEntity
  8
想像線
 48
0.4
100
AcDbLine
 10
171.4579839872071
 20
377.8084170304696
 30
0.0
 11
171.4579839872071
 21
376.7828433548599
 31
0.0
  0
INSERT
  5
10002E04
330
F6
100
AcDbEntity
  8
0
  6
ByBlock
 62
     2
100
AcDbBlockReference
  2
_OPEN
 10
162.5019278373259
 20
413.7979819137201
 30
0.0
 41
2.5
 42
2.5
 43
2.5
 50
180.0
  0
LINE
  5
10002E05
330
F6
100
AcDbEntity
  8
寸法線
100
AcDbLine
 10
162.5019278373259
 20
472.875155443888
 30
0.0
 11
155.235407763194
 21
472.875155443888
 31
0.0
  0
DIMENSION
  5
10002E06
330
F6
100
AcDbEntity
  8
寸法線
100
AcDbDimension
  2
*D71
 10
156.5353561659179
 20
461.875155443888
 30
0.0
 11
154.6603561659179
 21
467.375155443888
 31
0.0
 70
    32
 71
     5
 42
-1.0
  3
STANDARD
100
AcDbAlignedDimension
 13
162.5019278373259
 23
472.875155443888
 33
0.0
 14
162.5019278373259
 24
461.875155443888
 34
0.0
 50
90.0
100
AcDbRotatedDimension
1001
ACAD
1000
DSTYLE
1002
{
1070
    41
1040
2.5
1070
    42
1040
0.0
1070
    43
1040
3.75
1070
    44
1040
1.25
1070
    73
1070
     0
1070
    74
1070
     0
1070
    75
1070
     1
1070
    77
1070
     1
1070
    78
1070
     8
1070
   140
1040
2.5
1070
   141
1040
2.5
1070
   143
1040
0.0394
1070
   147
1040
0.625
1070
   171
1070
     4
1070
   172
1070
     1
1070
   173
1070
     1
1070
   176
1070
     2
1070
   177
1070
     2
1070
   178
1070
     6
1070
   271
1070
     2
1070
   273
1070
     8
1070
   274
1070
     4
1070
   279
1070
     1
1070
   340
1005
10000041
1070
   343
1005
10000009
1070
   344
1005
10000009
1002
}
  0
LINE
  5
10002E07
330
F6
100
AcDbEntity
  8
想像線
 48
0.3
100
AcDbLine
 10
173.0233526698886
 20
472.8751554438879
 30
0.0
 11
173.0233526698885
 21
461.875155443888
 31
0.0
  0
LINE
  5
10002E08
330
F6
100
AcDbEntity
  8
想像線
 48
0.3
100
AcDbLine
 10
170.0233526698886
 20
472.8751554438879
 30
0.0
 11
170.0233526698886
 21
461.875155443888
 31
0.0
  0
LINE
  5
10002E09
330
F6
100
AcDbEntity
  8
外形線
100
AcDbLine
 10
162.5019278373259
 20
472.8751554438879
 30
0.0
 11
162.5019278373259
 21
461.8751554438879
 31
0.0
  0
LINE
  5
10002E0A
330
F6
100
AcDbEntity
  8
外形線
100
AcDbLine
 10
162.5019278373259
 20
461.875155443888
 30
0.0
 11
162.501927837326
 21
472.875155443888
 31
0.0
  0
POINT
  5
10002E0B
330
F6
100
AcDbEntity
  8
DEFPOINTS
  6
ByBlock
 62
     0
100
AcDbPoint
 10
162.5019278373259
 20
461.875155443888
 30
0.0
  0
DIMENSION
  5
10002E0C
330
F6
100
AcDbEntity
  8
寸法線
100
AcDbDimension
  2
*D72
 10
173.0233526698886
 20
480.1593255085871
 30
0.0
 11
171.5233526698886
 21
482.0343255085871
 31
0.0
 70
    32
 71
     5
 42
-1.0
  3
STANDARD
100
AcDbAlignedDimension
 13
170.0233526698886
 23
472.8751554438879
 33
0.0
 14
173.0233526698886
 24
472.8751554438879
 34
0.0
100
AcDbRotatedDimension
1001
ACAD
1000
DSTYLE
1002
{
1070
    78
1070
     8
1070
   140
1040
2.5
1070
   340
1005
10000041
1070
    74
1070
     0
1070
   172
1070
     1
1070
    73
1070
     0
1070
    77
1070
     1
1070
   173
1070
     1
1070
   147
1040
0.625
1070
    42
1040
0.0
1070
    44
1040
1.25
1070
    43
1040
3.75
1070
   271
1070
     2
1070
   178
1070
     6
1070
   177
1070
     2
1070
   176
1070
     2
1070
   141
1040
2.5
1070
     7
1000
_OPEN
1070
     6
1000
_OPEN
1070
    41
1040
2.5
1070
   273
1070
     8
1070
   274
1070
     4
1070
   143
1040
0.0394
1070
   171
1070
     4
1002
}
  0
CIRCLE
  5
10002E0D
330
F6
100
AcDbEntity
  8
外形線
100
AcDbCircle
 10
165.001927837326
 20
467.375155443888
 30
0.0
 40
1.25
  0
LINE
  5
10002E0E
330
F6
100
AcDbEntity
  8
中心線
 48
0.2
100
AcDbLine
 10
165.001927837326
 20
470.5527911366435
 30
0.0
 11
165.001927837326
 21
464.1975197511325
 31
0.0
  0
TEXT
  5
10002E0F
330
F6
100
AcDbEntity
  8
文字
100
AcDbText
 10
174.8339350674439
 20
466.404507254785
 30
0.0
 40
2.0
  1
140
  7
STYLE3
100
AcDbText
  0
LINE
  5
10002E10
330
F6
100
AcDbEntity
  8
外形線
100
AcDbLine
 10
181.0019278373259
 20
472.8751554438879
 30
0.0
 11
181.0019278373259
 21
461.875155443888
 31
0.0
  0
TEXT
  5
10002E11
330
F6
100
AcDbEntity
  8
文字
100
AcDbText
 10
185.0161018851942
 20
466.404507254785
 30
0.0
 40
2.0
  1
130
  7
STYLE3
100
AcDbText
  0
LINE
  5
10002E12
330
F6
100
AcDbEntity
  8
外形線
100
AcDbLine
 10
191.0019278373259
 20
472.8751554438879
 30
0.0
 11
191.0019278373259
 21
461.8751554438879
 31
0.0
  0
LINE
  5
10002E13
330
F6
100
AcDbEntity
  8
0
  6
ByBlock
 62
     2
100
AcDbLine
 10
233.501927837326
 20
455.375155443888
 30
0.0
 11
233.501927837326
 21
412.5479819137201
 31
0.0
  0
LINE
  5
10002E14
330
F6
100
AcDbEntity
  8
外形線
100
AcDbLine
 10
205.830295287085
 20
432.5279745420484
 30
0.0
 11
205.8302952870851
 21
375.3456301926646
 31
0.0
  0
LINE
  5
10002E15
330
F6
100
AcDbEntity
  8
外形線
100
AcDbLine
 10
201.8302952870851
 20
384.7956301926647
 30
0.0
 11
194.3374070808797
 21
442.6509341749429
 31
0.0
  0
LINE
  5
10002E16
330
F6
100
AcDbEntity
  8
外形線
100
AcDbLine
 10
207.8052952870851
 20
375.7956301926646
 30
0.0
 11
211.4579839872071
 21
376.7828433548598
 31
0.0
  0
LINE
  5
10002E17
330
F6
100
AcDbEntity
  8
外形線
100
AcDbLine
 10
207.8052952870851
 20
378.7956301926647
 30
0.0
 11
211.4579839872071
 21
377.8084170304696
 31
0.0
  0
LINE
  5
10002E18
330
F6
100
AcDbEntity
  8
外形線
100
AcDbLine
 10
205.8052952870851
 20
375.7956301926646
 30
0.0
 11
207.8052952870851
 21
375.7956301926646
 31
0.0
  0
LINE
  5
10002E19
330
F6
100
AcDbEntity
  8
外形線
100
AcDbLine
 10
205.8052952870851
 20
378.7956301926647
 30
0.0
 11
207.8052952870851
 21
378.7956301926647
 31
0.0
  0
LINE
  5
10002E1A
330
F6
100
AcDbEntity
  8
外形線
100
AcDbLine
 10
201.8302952870851
 20
375.3456301926646
 30
0.0
 11
201.8302952870851
 21
384.7956301926647
 31
0.0
  0
LINE
  5
10002E1B
330
F6
100
AcDbEntity
  8
外形線
100
AcDbLine
 10
205.8302952870851
 20
375.3456301926646
 30
0.0
 11
201.8302952870851
 21
375.3456301926646
 31
0.0
  0
LINE
  5
10002E1C
330
F6
100
AcDbEntity
  8
外形線
100
AcDbLine
 10
207.8052952870851
 20
378.7956301926647
 30
0.0
 11
207.8052952870851
 21
375.7956301926646
 31
0.0
  0
LINE
  5
10002E1D
330
F6
100
AcDbEntity
  8
中心線
 48
0.1
100
AcDbLine
 10
212.005295287085
 20
379.2752047083486
 30
0.0
 11
212.005295287085
 21
375.1692001732624
 31
0.0
  0
ARC
  5
10002E1E
330
F6
100
AcDbEntity
  8
外形線
100
AcDbCircle
 10
212.005295287085
 20
377.2956301926646
 30
0.0
 40
0.75
100
AcDbArc
 50
223.1346943282535
 51
136.8653056717464
  0
LINE
  5
10002E1F
330
F6
100
AcDbEntity
  8
外形線
100
AcDbLine
 10
211.4579839872071
 20
377.8084170304696
 30
0.0
 11
211.4579839872072
 21
376.7828433548599
 31
0.0
  0
INSERT
  5
10002E20
330
F6
100
AcDbEntity
  8
0
  6
ByBlock
 62
     2
100
AcDbBlockReference
  2
_OPEN
 10
233.501927837326
 20
413.7979819137201
 30
0.0
 41
2.5
 42
2.5
 43
2.5
  0
POINT
  5
10002E21
330
F6
100
AcDbEntity
  8
DEFPOINTS
  6
ByBlock
 62
     0
100
AcDbPoint
 10
233.501927837326
 20
413.7979819137201
 30
0.0
  0
ARC
  5
10002E22
330
F6
100
AcDbEntity
  8
外形線
100
AcDbCircle
 10
231.9971850414423
 20
431.2044987848469
 30
0.0
 40
26.20033792714496
100
AcDbArc
 50
91.08310960634112
 51
177.254193812744
  0
ARC
  5
10002E23
330
F6
100
AcDbEntity
  8
外形線
100
AcDbCircle
 10
226.0019278373259
 20
467.400155443888
 30
0.0
 40
3.5
100
AcDbArc
 50
270.0
 51
90.0
  0
LINE
  5
10002E24
330
F6
100
AcDbEntity
  8
外形線
100
AcDbLine
 10
208.5019278373257
 20
477.400155443888
 30
0.0
 11
233.5019278373261
 21
477.400155443888
 31
0.0
  0
LINE
  5
10002E25
330
F6
100
AcDbEntity
  8
隠れ線2
100
AcDbLine
 10
208.5019278373258
 20
472.9001554438879
 30
0.0
 11
233.5019278373261
 21
472.9001554438881
 31
0.0
  0
LINE
  5
10002E26
330
F6
100
AcDbEntity
  8
外形線
100
AcDbLine
 10
208.5019278373259
 20
457.4001554438878
 30
0.0
 11
233.5019278373259
 21
457.4001554438878
 31
0.0
  0
LINE
  5
10002E27
330
F6
100
AcDbEntity
  8
隠れ線2
100
AcDbLine
 10
208.5019278373259
 20
461.9001554438879
 30
0.0
 11
233.5019278373259
 21
461.9001554438879
 31
0.0
  0
LINE
  5
10002E29
330
F6
100
AcDbEntity
  8
外形線
100
AcDbLine
 10
221.0019278373259
 20
477.400155443888
 30
0.0
 11
221.0019278373259
 21
457.4001554438878
 31
0.0
  0
LINE
  5
10002E2A
330
F6
100
AcDbEntity
  8
外形線
100
AcDbLine
 10
208.5019278373259
 20
457.4001554438878
 30
0.0
 11
208.5019278373257
 21
477.400155443888
 31
0.0
  0
LINE
  5
10002E2B
330
F6
100
AcDbEntity
  8
外形線
100
AcDbLine
 10
210.4839558732995
 20
458.8821834798617
 30
0.0
 11
211.5463263620023
 21
459.9445539685644
 31
0.0
  0
LINE
  5
10002E2C
330
F6
100
AcDbEntity
  8
外形線
100
AcDbLine
 10
211.5625294754678
 20
458.8395538057462
 30
0.0
 11
210.4817909889353
 21
459.9202922922785
 31
0.0
  0
LINE
  5
10002E2D
330
F6
100
AcDbEntity
  8
中心線
100
AcDbLine
 10
209.3121993440067
 20
459.400155443888
 30
0.0
 11
212.7857843339103
 21
459.4001554438881
 31
0.0
  0
CIRCLE
  5
10002E2E
330
F6
100
AcDbEntity
  8
外形線
100
AcDbCircle
 10
211.001927837326
 20
459.4001554438881
 30
0.0
 40
1.25
  0
LINE
  5
10002E2F
330
F6
100
AcDbEntity
  8
想像線
 48
0.3
100
AcDbLine
 10
205.8302952870851
 20
429.8957552173543
 30
0.0
 11
195.9893408432298
 21
429.8957552173543
 31
0.0
  0
LINE
  5
10002E30
330
F6
100
AcDbEntity
  8
想像線
 48
0.3
100
AcDbLine
 10
205.8514901916952
 20
432.8957552173545
 30
0.0
 11
195.6008083652827
 21
432.8957552173545
 31
0.0
  0
LINE
  5
10002E31
330
F6
100
AcDbEntity
  8
寸法線
100
AcDbLine
 10
208.5019278373259
 20
457.4001554438878
 30
0.0
 11
207.9013673964391
 21
457.4001554438878
 31
0.0
  0
LINE
  5
10002E32
330
F6
100
AcDbEntity
  8
中心線
100
AcDbLine
 10
211.0019278373259
 20
457.6362264616046
 30
0.0
 11
211.0019278373259
 21
461.2330157719149
 31
0.0
  0
LINE
  5
10002E33
330
F6
100
AcDbEntity
  8
中心線
100
AcDbLine
 10
209.3121993440067
 20
475.400155443888
 30
0.0
 11
212.7857843339103
 21
475.4001554438879
 31
0.0
  0
CIRCLE
  5
10002E34
330
F6
100
AcDbEntity
  8
外形線
100
AcDbCircle
 10
211.001927837326
 20
475.4001554438879
 30
0.0
 40
1.25
  0
LINE
  5
10002E35
330
F6
100
AcDbEntity
  8
外形線
100
AcDbLine
 10
211.5625294754678
 20
474.839553805746
 30
0.0
 11
210.4817909889354
 21
475.9202922922784
 31
0.0
  0
LINE
  5
10002E36
330
F6
100
AcDbEntity
  8
外形線
100
AcDbLine
 10
210.4839558732996
 20
474.8821834798615
 30
0.0
 11
211.5463263620024
 21
475.9445539685642
 31
0.0
  0
TEXT
  5
10002E37
330
F6
100
AcDbEntity
  8
文字
100
AcDbText
 10
195.1982687029443
 20
466.4846448596946
 30
0.0
 40
2.0
  1
120
  7
STYLE3
100
AcDbText
  0
LINE
  5
10002E38
330
F6
100
AcDbEntity
  8
外形線
100
AcDbLine
 10
201.0019278373259
 20
472.8751554438879
 30
0.0
 11
201.0019278373259
 21
461.875155443888
 31
0.0
  0
TEXT
  5
10002E39
330
F6
100
AcDbEntity
  8
文字
100
AcDbText
 10
204.6588643154587
 20
466.3243703146917
 30
0.0
 40
2.0
  1
11
  7
STYLE3
100
AcDbText
  0
LINE
  5
10002E3A
330
F6
100
AcDbEntity
  8
中心線
100
AcDbLine
 10
221.0019278373259
 20
477.400155443888
 30
0.0
 11
221.0019278373259
 21
484.5356832155556
 31
0.0
  0
LINE
  5
10002E3B
330
F6
100
AcDbEntity
  8
外形線
100
AcDbLine
 10
216.0019278373259
 20
482.400155443888
 30
0.0
 11
226.0019278373259
 21
482.400155443888
 31
0.0
  0
LINE
  5
10002E3C
330
F6
100
AcDbEntity
  8
外形線
100
AcDbLine
 10
216.0019278373259
 20
479.400155443888
 30
0.0
 11
226.0019278373259
 21
479.400155443888
 31
0.0
  0
LINE
  5
10002E3D
330
F6
100
AcDbEntity
  8
外形線
100
AcDbLine
 10
216.0019278373259
 20
470.900155443888
 30
0.0
 11
226.0019278373259
 21
470.900155443888
 31
0.0
  0
LINE
  5
10002E3E
330
F6
100
AcDbEntity
  8
外形線
100
AcDbLine
 10
216.0019278373259
 20
463.900155443888
 30
0.0
 11
226.0019278373259
 21
463.900155443888
 31
0.0
  0
TEXT
  5
10002E3F
330
F6
100
AcDbEntity
  8
文字
100
AcDbText
 10
214.6005077456737
 20
466.5647817997879
 30
0.0
 40
2.0
  1
100
  7
STYLE3
100
AcDbText
  0
LINE
  5
10002E40
330
F6
100
AcDbEntity
  8
隠れ線2
100
AcDbLine
 10
219.5019278373259
 20
473.000155443888
 30
0.0
 11
219.5019278373259
 21
477.400155443888
 31
0.0
  0
ARC
  5
10002E41
330
F6
100
AcDbEntity
  8
外形線
100
AcDbCircle
 10
216.0019278373259
 20
467.400155443888
 30
0.0
 40
3.5
100
AcDbArc
 50
90.0
 51
270.0
  0
LINE
  5
10002E43
330
F6
100
AcDbEntity
  8
中心線
100
AcDbLine
 10
211.0019278373259
 20
477.1640844261713
 30
0.0
 11
211.0019278373259
 21
473.567295115861
 31
0.0
  0
LINE
  5
10002E44
330
F6
100
AcDbEntity
  8
外形線
100
AcDbLine
 10
219.5019278373258
 20
479.400155443888
 30
0.0
 11
219.5019278373258
 21
482.400155443888
 31
0.0
  0
LINE
  5
10002E45
330
F6
100
AcDbEntity
  8
外形線
100
AcDbLine
 10
219.5019278373259
 20
477.400155443888
 30
0.0
 11
219.5019278373259
 21
481.400155443888
 31
0.0
  0
LINE
  5
10002E46
330
F6
100
AcDbEntity
  8
外形線
100
AcDbLine
 10
218.8019278373258
 20
479.400155443888
 30
0.0
 11
218.8019278373258
 21
482.400155443888
 31
0.0
  0
LINE
  5
10002E47
330
F6
100
AcDbEntity
  8
外形線
100
AcDbLine
 10
218.1019278373258
 20
479.400155443888
 30
0.0
 11
218.1019278373259
 21
482.400155443888
 31
0.0
  0
LINE
  5
10002E48
330
F6
100
AcDbEntity
  8
外形線
100
AcDbLine
 10
217.4019278373259
 20
479.400155443888
 30
0.0
 11
217.4019278373259
 21
482.400155443888
 31
0.0
  0
LINE
  5
10002E49
330
F6
100
AcDbEntity
  8
外形線
100
AcDbLine
 10
216.7019278373258
 20
479.400155443888
 30
0.0
 11
216.7019278373259
 21
482.400155443888
 31
0.0
  0
LINE
  5
10002E4A
330
F6
100
AcDbEntity
  8
外形線
100
AcDbLine
 10
216.0019278373259
 20
479.400155443888
 30
0.0
 11
216.0019278373259
 21
482.400155443888
 31
0.0
  0
LINE
  5
10002E4B
330
F6
100
AcDbEntity
  8
隠れ線2
100
AcDbLine
 10
222.1019278373259
 20
473.000155443888
 30
0.0
 11
222.1019278373259
 21
477.400155443888
 31
0.0
  0
LINE
  5
10002E4C
330
F6
100
AcDbEntity
  8
隠れ線2
100
AcDbLine
 10
219.9019278373259
 20
473.000155443888
 30
0.0
 11
219.9019278373259
 21
477.400155443888
 31
0.0
  0
LINE
  5
10002E4D
330
F6
100
AcDbEntity
  8
隠れ線2
100
AcDbLine
 10
222.5019278373259
 20
473.000155443888
 30
0.0
 11
222.5019278373259
 21
477.400155443888
 31
0.0
  0
LINE
  5
10002E4E
330
F6
100
AcDbEntity
  8
外形線
100
AcDbLine
 10
220.2019278373258
 20
479.400155443888
 30
0.0
 11
220.2019278373258
 21
482.400155443888
 31
0.0
  0
LINE
  5
10002E4F
330
F6
100
AcDbEntity
  8
外形線
100
AcDbLine
 10
222.1019278373259
 20
477.400155443888
 30
0.0
 11
222.101927837326
 21
479.4001554438881
 31
0.0
  0
LINE
  5
10002E50
330
F6
100
AcDbEntity
  8
外形線
100
AcDbLine
 10
219.9019278373259
 20
477.400155443888
 30
0.0
 11
219.9019278373259
 21
479.4001554438881
 31
0.0
  0
LINE
  5
10002E51
330
F6
100
AcDbEntity
  8
外形線
100
AcDbLine
 10
222.5019278373259
 20
477.400155443888
 30
0.0
 11
222.5019278373259
 21
479.4001554438881
 31
0.0
  0
LINE
  5
10002E52
330
F6
100
AcDbEntity
  8
外形線
100
AcDbLine
 10
226.0019278373259
 20
479.400155443888
 30
0.0
 11
226.0019278373259
 21
482.400155443888
 31
0.0
  0
LINE
  5
10002E53
330
F6
100
AcDbEntity
  8
外形線
100
AcDbLine
 10
233.501927837326
 20
479.375155443888
 30
0.0
 11
233.501927837326
 21
455.3751554438881
 31
0.0
  0
LINE
  5
10002E54
330
F6
100
AcDbEntity
  8
外形線
100
AcDbLine
 10
233.5019278373259
 20
455.9001554438879
 30
0.0
 11
233.5019278373261
 21
477.400155443888
 31
0.0
  0
LINE
  5
10002E55
330
F6
100
AcDbEntity
  8
中心線
100
AcDbLine
 10
231.0019278373258
 20
457.5263770549994
 30
0.0
 11
231.0019278373258
 21
461.2360632334863
 31
0.0
  0
LINE
  5
10002E56
330
F6
100
AcDbEntity
  8
外形線
100
AcDbLine
 10
230.4839558732994
 20
458.8821834798615
 30
0.0
 11
231.5463263620022
 21
459.9445539685643
 31
0.0
  0
LINE
  5
10002E57
330
F6
100
AcDbEntity
  8
外形線
100
AcDbLine
 10
231.5625294754677
 20
458.8395538057461
 30
0.0
 11
230.4817909889352
 21
459.9202922922784
 31
0.0
  0
CIRCLE
  5
10002E58
330
F6
100
AcDbEntity
  8
外形線
100
AcDbCircle
 10
231.0019278373259
 20
459.4001554438879
 30
0.0
 40
1.25
  0
LINE
  5
10002E59
330
F6
100
AcDbEntity
  8
中心線
100
AcDbLine
 10
229.1314862898524
 20
459.4001554438879
 30
0.0
 11
232.8569603698915
 21
459.4001554438879
 31
0.0
  0
POINT
  5
10002E5A
330
F6
100
AcDbEntity
  8
DEFPOINTS
  6
ByBlock
 62
     0
100
AcDbPoint
 10
233.501927837326
 20
455.375155443888
 30
0.0
  0
LINE
  5
10002E5B
330
F6
100
AcDbEntity
  8
外形線
100
AcDbLine
 10
233.5019278373259
 20
458.400155443888
 30
0.0
 11
233.5019278373259
 21
461.3758913751762
 31
0.0
  0
LINE
  5
10002E5C
330
F6
100
AcDbEntity
  8
外形線
100
AcDbLine
 10
233.5019278373259
 20
473.4244195125999
 30
0.0
 11
233.5019278373259
 21
476.5181554438881
 31
0.0
  0
LINE
  5
10002E5D
330
F6
100
AcDbEntity
  8
中心線
100
AcDbLine
 10
229.1314862898524
 20
475.4001554438881
 30
0.0
 11
232.8569603698915
 21
475.4001554438881
 31
0.0
  0
LINE
  5
10002E5E
330
F6
100
AcDbEntity
  8
中心線
100
AcDbLine
 10
231.0019278373258
 20
477.2739338327766
 30
0.0
 11
231.0019278373258
 21
473.5642476542897
 31
0.0
  0
LINE
  5
10002E5F
330
F6
100
AcDbEntity
  8
外形線
100
AcDbLine
 10
230.4839558732996
 20
474.8821834798617
 30
0.0
 11
231.5463263620023
 21
475.9445539685644
 31
0.0
  0
LINE
  5
10002E60
330
F6
100
AcDbEntity
  8
外形線
100
AcDbLine
 10
231.5625294754678
 20
474.8395538057462
 30
0.0
 11
230.4817909889353
 21
475.9202922922785
 31
0.0
  0
CIRCLE
  5
10002E61
330
F6
100
AcDbEntity
  8
外形線
100
AcDbCircle
 10
231.0019278373259
 20
475.4001554438881
 30
0.0
 40
1.25
  0
POINT
  5
10002E62
330
F6
100
AcDbEntity
  8
DEFPOINTS
  6
ByBlock
 62
     0
100
AcDbPoint
 10
252.6861768584739
 20
505.2943717372222
 30
0.0
 50
30.00000000000002
  0
DIMENSION
  5
10002EB8
330
F6
100
AcDbEntity
  8
寸法線
100
AcDbDimension
  2
*D78
 10
463.5019278373261
 20
413.7979819137201
 30
0.0
 11
413.5019278373261
 21
415.6729819137201
 31
0.0
 70
    32
 71
     5
 42
-1.0
  3
STANDARD
100
AcDbAlignedDimension
 13
363.5019278373261
 23
467.375155443888
 33
0.0
 14
463.5019278373261
 24
467.375155443888
 34
0.0
100
AcDbRotatedDimension
1001
ACAD
1000
DSTYLE
1002
{
1070
    78
1070
     8
1070
   140
1040
2.5
1070
   340
1005
10000041
1070
    74
1070
     0
1070
   172
1070
     1
1070
    73
1070
     0
1070
    77
1070
     1
1070
   173
1070
     1
1070
   147
1040
0.625
1070
    42
1040
0.0
1070
    44
1040
1.25
1070
    43
1040
3.75
1070
   271
1070
     2
1070
   178
1070
     6
1070
   177
1070
     2
1070
   176
1070
     2
1070
   141
1040
2.5
1070
     7
1000
_OPEN
1070
     6
1000
_OPEN
1070
    41
1040
2.5
1070
   273
1070
     8
1070
   274
1070
     4
1070
   143
1040
0.0394
1070
   171
1070
     4
1002
}
  0
LINE
  5
10002EBA
330
F6
100
AcDbEntity
  8
隠れ線2
100
AcDbLine
 10
363.5019278373261
 20
455.625155443888
 30
0.0
 11
452.001927837326
 21
455.625155443888
 31
0.0
  0
LINE
  5
10002EBB
330
F6
100
AcDbEntity
  8
隠れ線2
100
AcDbLine
 10
363.5019278373261
 20
479.1251554438881
 30
0.0
 11
452.0019278373261
 21
479.125155443888
 31
0.0
  0
HATCH
  5
10002EC5
330
F6
100
AcDbEntity
  8
ROGO
 62
     4
100
AcDbHatch
 10
0.0
 20
0.0
 30
0.0
210
0.0
220
0.0
230
1.0
  2
SOLID
 70
     1
 71
     1
 91
        2
 92
        5
 93
        6
 72
     4
 94
        3
 73
     0
 74
     0
 95
       38
 96
       34
 40
0.0
 40
0.0
 40
0.0
 40
0.0
 40
0.2582400211805774
 40
0.3393418442955424
 40
0.443552172800835
 40
0.530394283206717
 40
0.6036667919818254
 40
0.7009894053152177
 40
0.7507174249931042
 40
0.8067242281503032
 40
0.8892677166883521
 40
0.9827715778106668
 40
1.043426616793024
 40
1.109318337455068
 40
1.182564491755753
 40
1.293719242428883
 40
1.399327847180614
 40
1.448424760475743
 40
1.50441322219426
 40
1.570741059842362
 40
1.617957956886697
 40
1.657539314700464
 40
1.714052551848318
 40
1.776150918813051
 40
1.838248940024221
 40
1.892584795022379
 40
2.017023561310864
 40
2.066120474605993
 40
2.164314359515976
 40
2.251113385583432
 40
2.417283613623161
 40
2.622320469312984
 40
2.918423525691272
 40
2.918423525691272
 40
2.918423525691272
 40
2.918423525691272
 10
407.8070165283259
 20
468.9548263331663
 10
407.7209373888607
 20
468.9487454487364
 10
407.6078245808305
 20
468.9407548261833
 10
407.4641977629597
 20
468.9014053601764
 10
407.3859052566155
 20
468.8545274752365
 10
407.3044262547337
 20
468.8200699828072
 10
407.2349578170408
 20
468.769045269594
 10
407.1646919589039
 20
468.7427527264605
 10
407.1154896540813
 20
468.6953425716425
 10
407.0585419996056
 20
468.6663824028212
 10
407.0131935712695
 20
468.6015611256578
 10
406.9625068905099
 20
468.5409555804313
 10
406.9037039642139
 20
468.4967162353207
 10
406.8554436134149
 20
468.4502519796601
 10
406.8111714520942
 20
468.3785436722547
 10
406.7849692055641
 20
468.2832645655607
 10
406.7111094706937
 20
468.2231087737249
 10
406.6999885071464
 20
468.150783562759
 10
406.6591344354383
 20
468.1081129053438
 10
406.6413696562155
 20
468.0530312167938
 10
406.6346039731814
 20
468.0025666606212
 10
406.6264835402638
 20
467.9554362585808
 10
406.6052420256458
 20
467.9058571575267
 10
406.612175329305
 20
467.8446139019054
 10
406.6102002392448
 20
467.7853100247247
 10
406.6113625820637
 20
467.7052479438511
 10
406.6071675258551
 20
467.6272976625376
 10
406.6406214551624
 20
467.5424692680114
 10
406.6604183803091
 20
467.4668564899161
 10
406.7146354802288
 20
467.3621614295572
 10
406.8081588413971
 20
467.2413659671156
 10
406.9860013357079
 20
467.0947431624118
 10
407.1570020936498
 20
467.079868961387
 10
407.2580394404072
 20
467.0710804049808
 72
     1
 10
407.2580394404073
 20
467.0710804049808
 11
408.3301163306726
 21
467.0710804049808
 72
     4
 94
        3
 73
     0
 74
     0
 95
       11
 96
        7
 40
0.1647869275458135
 40
0.1647869275458135
 40
0.1647869275458135
 40
0.1647869275458135
 40
0.2545010798212315
 40
0.5111620267764023
 40
0.7602998271033902
 40
0.8850764140209603
 40
0.8850764140209603
 40
0.8850764140209603
 40
0.8850764140209603
 10
408.330116330672
 20
467.0710804049808
 10
408.3450761882718
 20
467.0707920969195
 10
408.4028343237412
 20
467.0696789756241
 10
408.5015436695932
 20
467.0838597336021
 10
408.6053990512191
 20
467.0974488684212
 10
408.6673147818393
 20
467.1073454252554
 10
408.6872841286977
 20
467.1129039005646
 72
     4
 94
        3
 73
     0
 74
     0
 95
        9
 96
        5
 40
0.0
 40
0.0
 40
0.0
 40
0.0
 40
0.1622561919360204
 40
0.3804197703110171
 40
0.3804197703110171
 40
0.3804197703110171
 40
0.3804197703110171
 10
408.6872841286977
 20
467.1129039005646
 10
408.7394055120091
 20
467.1288501001692
 10
408.8616073486911
 20
467.166236960532
 10
408.9625740590293
 20
467.2452545573526
 10
409.0204765671092
 20
467.2905696619353
 72
     4
 94
        3
 73
     0
 74
     0
 95
       25
 96
       21
 40
0.0
 40
0.0
 40
0.0
 40
0.0
 40
0.165525918914855
 40
0.3412380755365305
 40
0.5940540902285263
 40
0.7697671103696209
 40
0.9377330196075423
 40
1.11479469302833
 40
1.274661249598185
 40
1.574522170874768
 40
1.815540668866877
 40
2.15849091873445
 40
2.536227739636605
 40
2.738070817316548
 40
2.925680654369045
 40
3.162706124480894
 40
3.395643218188267
 40
3.648478129958861
 40
3.928509979727306
 40
4.337226830236035
 40
4.337226830236035
 40
4.337226830236035
 40
4.337226830236035
 10
409.0204765671092
 20
467.2905696619353
 10
409.0417517919575
 20
467.3081507247148
 10
409.0821050766773
 20
467.3499651864601
 10
409.1536782718769
 20
467.4177371126582
 10
409.2167499287434
 20
467.4966967847353
 10
409.2945533583395
 20
467.5606908316973
 10
409.3350575805381
 20
467.6389282979082
 10
409.393441219544
 20
467.7004603986211
 10
409.4424155322831
 20
467.7954906586077
 10
409.4839678161402
 20
467.9046503230993
 10
409.5235821811366
 20
468.0469378712471
 10
409.5387628144747
 20
468.2074593755978
 10
409.5162935892644
 20
468.3627638504993
 10
409.4620136211576
 20
468.4788488441235
 10
409.4221076772016
 20
468.5755937222178
 10
409.3615454077124
 20
468.6672281560423
 10
409.2924520436258
 20
468.7668907365197
 10
409.1951117282553
 20
468.8493278255411
 10
409.0678979302252
 20
468.9487602389347
 10
408.9494077763415
 20
468.9525672053719
 10
408.8790934185907
 20
468.9548263331663
 72
     1
 10
408.8790934185907
 20
468.9548263331664
 11
407.8070165283258
 21
468.9548263331662
 97
        6
330
1000316C
330
1000316B
330
10002EC7
330
10002EC6
330
1000316A
330
10003169
 92
       20
 93
        1
 72
     3
 10
408.0533856635127
 20
467.9866892014249
 11
0.2546924415247531
 21
0.2239701316915159
 40
0.6788083417438792
 50
0.0
 51
360.0
 73
     1
 97
        1
330
10003168
 75
     0
 76
     1
 47
0.088756267210375
 98
        2
 10
408.1282874860392
 20
468.4345281590307
 10
408.1282874860392
 20
468.4345281590307
450
        0
451
        0
460
0.0
461
0.0
452
        0
462
0.0
453
        0
470

  0
LINE
  5
10002EC6
102
{ACAD_REACTORS
330
10002EC5
102
}
330
F6
100
AcDbEntity
  8
ROGO
 62
     4
100
AcDbLine
 10
407.2580394404072
 20
467.0710804049808
 30
0.0
 11
408.3301163306719
 21
467.0710804049808
 31
0.0
  0
SPLINE
  5
10002EC7
102
{ACAD_REACTORS
330
10002EC5
102
}
330
F6
100
AcDbEntity
  8
ROGO
 62
     4
100
AcDbSpline
210
0.0
220
0.0
230
1.0
 70
     8
 71
     3
 72
    38
 73
    34
 74
    32
 42
0.0000000001
 43
0.0000000001
 44
0.0000000001
 40
0.0
 40
0.0
 40
0.0
 40
0.0
 40
0.2582400211805774
 40
0.3393418442955424
 40
0.443552172800835
 40
0.530394283206717
 40
0.6036667919818254
 40
0.7009894053152177
 40
0.7507174249931042
 40
0.8067242281503032
 40
0.8892677166883521
 40
0.9827715778106668
 40
1.043426616793024
 40
1.109318337455068
 40
1.182564491755753
 40
1.293719242428883
 40
1.399327847180614
 40
1.448424760475743
 40
1.50441322219426
 40
1.570741059842362
 40
1.617957956886697
 40
1.657539314700464
 40
1.714052551848318
 40
1.776150918813051
 40
1.838248940024221
 40
1.892584795022379
 40
2.017023561310864
 40
2.066120474605993
 40
2.164314359515976
 40
2.251113385583432
 40
2.417283613623161
 40
2.622320469312984
 40
2.918423525691272
 40
2.918423525691272
 40
2.918423525691272
 40
2.918423525691272
 10
407.8070165283259
 20
468.9548263331663
 30
0.0
 10
407.7209373888606
 20
468.9487454487363
 30
0.0
 10
407.6078245808305
 20
468.9407548261833
 30
0.0
 10
407.4641977629597
 20
468.9014053601765
 30
0.0
 10
407.3859052566154
 20
468.8545274752365
 30
0.0
 10
407.3044262547337
 20
468.8200699828072
 30
0.0
 10
407.234957817041
 20
468.7690452695941
 30
0.0
 10
407.1646919589038
 20
468.7427527264605
 30
0.0
 10
407.1154896540813
 20
468.6953425716425
 30
0.0
 10
407.0585419996056
 20
468.6663824028212
 30
0.0
 10
407.0131935712695
 20
468.6015611256577
 30
0.0
 10
406.9625068905099
 20
468.5409555804315
 30
0.0
 10
406.903703964214
 20
468.4967162353207
 30
0.0
 10
406.8554436134148
 20
468.45025197966
 30
0.0
 10
406.8111714520944
 20
468.3785436722547
 30
0.0
 10
406.7849692055641
 20
468.2832645655608
 30
0.0
 10
406.7111094706937
 20
468.2231087737249
 30
0.0
 10
406.6999885071465
 20
468.150783562759
 30
0.0
 10
406.6591344354383
 20
468.1081129053437
 30
0.0
 10
406.6413696562156
 20
468.0530312167938
 30
0.0
 10
406.6346039731814
 20
468.0025666606212
 30
0.0
 10
406.6264835402637
 20
467.9554362585809
 30
0.0
 10
406.6052420256458
 20
467.9058571575267
 30
0.0
 10
406.612175329305
 20
467.8446139019053
 30
0.0
 10
406.6102002392448
 20
467.7853100247248
 30
0.0
 10
406.6113625820637
 20
467.7052479438511
 30
0.0
 10
406.6071675258552
 20
467.6272976625376
 30
0.0
 10
406.6406214551624
 20
467.5424692680112
 30
0.0
 10
406.6604183803091
 20
467.4668564899162
 30
0.0
 10
406.7146354802288
 20
467.362161429557
 30
0.0
 10
406.8081588413971
 20
467.2413659671156
 30
0.0
 10
406.9860013357079
 20
467.0947431624118
 30
0.0
 10
407.1570020936498
 20
467.079868961387
 30
0.0
 10
407.2580394404072
 20
467.0710804049808
 30
0.0
 11
407.8070165283259
 21
468.9548263331663
 31
0.0
 11
407.5506499041155
 21
468.9237769768072
 31
0.0
 11
407.4729630667896
 21
468.9004904781682
 31
0.0
 11
407.3797392282068
 21
468.8539167893829
 31
0.0
 11
407.3020523908808
 21
468.8151056125644
 31
0.0
 11
407.2399031651589
 21
468.7762940899922
 31
0.0
 11
407.1544478272046
 21
468.7297207469606
 31
0.0
 11
407.1156041033679
 21
468.698671736355
 31
0.0
 11
407.0689918789029
 21
468.6676223799959
 31
0.0
 11
407.0146111538095
 21
468.6055243587847
 31
0.0
 11
406.9524619280876
 21
468.5356641713605
 31
0.0
 11
406.9058497036225
 21
468.4968526487883
 31
0.0
 11
406.8592380895047
 21
468.4502793057567
 31
0.0
 11
406.8203943656682
 21
468.3881812845455
 31
0.0
 11
406.7737827515505
 21
468.2872717407622
 31
0.0
 11
406.7116329154813
 21
468.2018868751584
 31
0.0
 11
406.6960959142244
 21
468.1553131863733
 31
0.0
 11
406.6650213013635
 21
468.1087398433416
 31
0.0
 11
406.641715189131
 21
468.046641476377
 31
0.0
 11
406.6339460781553
 21
468.0000681333453
 31
0.0
 11
406.6261775775268
 21
467.9612566107731
 31
0.0
 11
406.6106405762701
 21
467.9069211015285
 31
0.0
 11
406.6106405762701
 21
467.8448227345638
 31
0.0
 11
406.6106405762701
 21
467.7827247133526
 31
0.0
 11
406.6106405762701
 21
467.7283888583544
 31
0.0
 11
406.6184090768985
 21
467.604192815932
 31
0.0
 11
406.6339460781553
 21
467.5576191271469
 31
0.0
 11
406.6650213013635
 21
467.4644720953302
 31
0.0
 11
406.7038644148529
 21
467.3868493959393
 31
0.0
 11
406.8048573644113
 21
467.254891187304
 31
0.0
 11
406.9679995396917
 21
467.1306947991281
 31
0.0
 11
407.2580394404072
 21
467.0710804049808
 31
0.0
  0
HATCH
  5
10002EC8
330
F6
100
AcDbEntity
  8
ROGO
 62
     4
100
AcDbHatch
 10
0.0
 20
0.0
 30
0.0
210
0.0
220
0.0
230
1.0
  2
SOLID
 70
     1
 71
     1
 91
        1
 92
        7
 72
     0
 73
     1
 93
        4
 10
394.4748694071493
 20
466.3095609077563
 10
394.3419393565465
 20
466.0157463273401
 10
411.7409287402366
 20
466.0157463273401
 10
411.8874341793596
 20
466.3095609077562
 97
        4
330
10002EC9
330
10002F87
330
10002ECA
330
10003163
 75
     0
 76
     1
 47
0.0514683685270805
 98
        1
 10
405.4694912084181
 20
466.2318516731779
450
        0
451
        0
460
0.0
461
0.0
452
        0
462
0.0
453
        0
470

  0
LINE
  5
10002EC9
102
{ACAD_REACTORS
330
10002EC8
102
}
330
F6
100
AcDbEntity
  8
ROGO
 62
     4
100
AcDbLine
 10
394.4544930544112
 20
466.3095609077562
 30
0.0
 11
411.8874341793596
 21
466.3095609077562
 31
0.0
  0
LINE
  5
10002ECA
102
{ACAD_REACTORS
330
10002EC8
330
10003161
330
10002F83
102
}
330
F6
100
AcDbEntity
  8
ROGO
 62
     4
100
AcDbLine
 10
392.9793665623515
 20
466.0157463273401
 30
0.0
 11
412.8210483723854
 21
466.0157463273401
 31
0.0
  0
ARC
  5
10002ECB
330
F6
100
AcDbEntity
  8
握り
100
AcDbCircle
 10
408.5019278373261
 20
453.8751554438881
 30
0.0
 40
1.5
100
AcDbArc
 50
207.8181392846543
 51
332.1818607153458
  0
LINE
  5
10002ECC
330
F6
100
AcDbEntity
  8
握り
100
AcDbLine
 10
389.8285777534683
 20
471.375155443888
 30
0.0
 11
437.175277921184
 21
471.375155443888
 31
0.0
  0
LINE
  5
10002ECD
330
F6
100
AcDbEntity
  8
握り
100
AcDbLine
 10
389.8285777534683
 20
463.375155443888
 30
0.0
 11
437.1752779211838
 21
463.375155443888
 31
0.0
  0
ARC
  5
10002ECE
330
F6
100
AcDbEntity
  8
握り
100
AcDbCircle
 10
408.5019278373261
 20
480.875155443888
 30
0.0
 40
1.5
100
AcDbArc
 50
27.81813928465427
 51
152.1818607153457
  0
LINE
  5
10002ECF
330
F6
100
AcDbEntity
  8
中心線
 48
0.5
100
AcDbLine
 10
267.8719457465029
 20
548.4861743588586
 30
0.0
 11
358.9849158664986
 21
495.8608714454997
 31
0.0
  0
LINE
  5
10002ED0
330
F6
100
AcDbEntity
  8
想像線
 48
0.7
100
AcDbLine
 10
307.0494299452424
 20
481.4265139744145
 30
0.0
 11
321.7931176960781
 21
506.9530403245263
 31
0.0
  0
LINE
  5
10002ED1
330
F6
100
AcDbEntity
  8
想像線
100
AcDbLine
 10
334.9911647181628
 20
517.8071434566527
 30
0.0
 11
367.8968134351775
 21
498.8014000480819
 31
0.0
  0
LINE
  5
10002ED2
330
F6
100
AcDbEntity
  8
隠れ線2
100
AcDbLine
 10
334.491013575832
 20
516.9412053325209
 30
0.0
 11
367.3966622928467
 21
497.9354619239498
 31
0.0
  0
LINE
  5
10002ED3
330
F6
100
AcDbEntity
  8
想像線
 48
0.3
100
AcDbLine
 10
327.4888975832007
 20
504.8180715946733
 30
0.0
 11
334.9911647181629
 21
517.8071434566527
 31
0.0
  0
LINE
  5
10002ED4
330
F6
100
AcDbEntity
  8
想像線
100
AcDbLine
 10
327.4888975832007
 20
504.8180715946735
 30
0.0
 11
321.7931176960781
 21
506.9530403245264
 31
0.0
  0
LINE
  5
10002ED5
330
F6
100
AcDbEntity
  8
中心線
 48
0.5
100
AcDbLine
 10
295.8166652136114
 20
505.7956622096853
 30
0.0
 11
344.5492536757801
 21
590.1689699269594
 31
0.0
  0
LINE
  5
10002ED6
330
F6
100
AcDbEntity
  8
外形線
100
AcDbLine
 10
321.0763493348261
 20
508.9841173333451
 30
0.0
 11
316.365952920896
 21
500.8254714206278
 31
0.0
  0
LINE
  5
10002ED7
330
F6
100
AcDbEntity
  8
中心線
100
AcDbLine
 10
318.501927837326
 20
507.7806381470606
 30
0.0
 11
318.501927837326
 21
372.5308685488548
 31
0.0
  0
LINE
  5
10002ED8
330
F6
100
AcDbEntity
  8
外形線
100
AcDbLine
 10
358.3762872036219
 20
501.3389145732138
 30
0.0
 11
344.8289861592111
 21
509.1636053958445
 31
0.0
  0
LINE
  5
10002ED9
330
F6
100
AcDbEntity
  8
隠れ線
 62
     4
 48
0.5
100
AcDbLine
 10
343.920472469226
 20
507.590647595953
 30
0.0
 11
341.2896455539145
 21
503.0357578213455
 31
0.0
  0
LINE
  5
10002EDA
330
F6
100
AcDbEntity
  8
外形線
100
AcDbLine
 10
316.3659529208958
 20
500.8254714206278
 30
0.0
 11
284.3262418400205
 21
519.3310639687243
 31
0.0
  0
LINE
  5
10002EDB
330
F6
100
AcDbEntity
  8
外形線
100
AcDbLine
 10
339.2212885730073
 20
510.9760646286086
 30
0.0
 11
336.0203212620898
 21
505.4340606341641
 31
0.0
  0
LINE
  5
10002EDC
330
F6
100
AcDbEntity
  8
外形線
100
AcDbLine
 10
346.3849639772161
 20
507.1677675026202
 30
0.0
 11
346.0081646446109
 21
506.5192906233497
 31
0.0
  0
LINE
  5
10002EDD
330
F6
100
AcDbEntity
  8
外形線
100
AcDbLine
 10
341.4419770910429
 20
508.0159306019819
 30
0.0
 11
339.6835802055518
 21
504.9897051653865
 31
0.0
  0
ARC
  5
10002EDE
330
F6
100
AcDbEntity
  8
外形線
100
AcDbCircle
 10
340.9950965678108
 20
506.2516183286138
 30
0.0
 40
1.5
100
AcDbArc
 50
79.31236944608503
 51
220.3699281771059
  0
LINE
  5
10002EDF
330
F6
100
AcDbEntity
  8
外形線
100
AcDbLine
 10
341.2995400709237
 20
509.7757018870144
 30
0.0
 11
338.0985727600066
 21
504.23369789257
 31
0.0
  0
LINE
  5
10002EE0
330
F6
100
AcDbEntity
  8
外形線
100
AcDbLine
 10
331.862272090478
 20
509.2211571394144
 30
0.0
 11
336.6203716936247
 21
506.4729596810528
 31
0.0
  0
LINE
  5
10002EE1
330
F6
100
AcDbEntity
  8
外形線
100
AcDbLine
 10
314.2403426034117
 20
506.3111567753003
 30
0.0
 11
312.6899797915678
 21
510.0982217137724
 31
0.0
  0
LINE
  5
10002EE2
330
F6
100
AcDbEntity
  8
中心線
 48
0.3
100
AcDbLine
 10
310.4384479636083
 20
503.1217422543305
 30
0.0
 11
316.5511374676078
 21
513.7049648734509
 31
0.0
  0
CIRCLE
  5
10002EE3
330
F6
100
AcDbEntity
  8
外形線
100
AcDbCircle
 10
313.4274611820779
 20
508.2967789189375
 30
0.0
 40
3.5
  0
LINE
  5
10002EE4
330
F6
100
AcDbEntity
  8
中心線
 48
0.3
100
AcDbLine
 10
317.7904427212041
 20
505.7767949386158
 30
0.0
 11
308.5993526639445
 21
511.0854123366685
 31
0.0
  0
LINE
  5
10002EE5
330
F6
100
AcDbEntity
  8
外形線
100
AcDbLine
 10
355.7128937905558
 20
501.7801137872926
 30
0.0
 11
346.3849639772161
 21
507.1677675026202
 31
0.0
  0
ARC
  5
10002EE6
330
F6
100
AcDbEntity
  8
寸法線
100
AcDbCircle
 10
318.501927837326
 20
467.2956301926646
 30
0.0
 40
90.0
100
AcDbArc
 50
253.7818467292
 51
284.784645149258
  0
DIMENSION
  5
10002EE7
330
F6
100
AcDbEntity
  8
寸法線
100
AcDbDimension
  2
*D79
 10
363.501927837326
 20
413.7979819137201
 30
0.0
 11
341.0019278373261
 21
415.6729819137201
 31
0.0
 70
    32
 71
     5
 42
-1.0
  3
STANDARD
100
AcDbAlignedDimension
 13
318.501927837326
 23
467.2956301926646
 33
0.0
 14
363.501927837326
 24
467.375155443888
 34
0.0
100
AcDbRotatedDimension
1001
ACAD
1000
DSTYLE
1002
{
1070
    78
1070
     8
1070
   140
1040
2.5
1070
   340
1005
10000041
1070
    74
1070
     0
1070
   172
1070
     1
1070
    73
1070
     0
1070
    77
1070
     1
1070
   173
1070
     1
1070
   147
1040
0.625
1070
    42
1040
0.0
1070
    44
1040
1.25
1070
    43
1040
3.75
1070
   271
1070
     2
1070
   178
1070
     6
1070
   177
1070
     2
1070
   176
1070
     2
1070
   141
1040
2.5
1070
     7
1000
_OPEN
1070
     6
1000
_OPEN
1070
    41
1040
2.5
1070
   273
1070
     8
1070
   274
1070
     4
1070
   143
1040
0.0394
1070
   171
1070
     4
1002
}
  0
LINE
  5
10002EE8
330
F6
100
AcDbEntity
  8
想像線
 48
0.7
100
AcDbLine
 10
329.1114015809139
 20
467.6562783448334
 30
0.0
 11
352.6529745420108
 21
472.4089355738379
 31
0.0
  0
LINE
  5
10002EE9
330
F6
100
AcDbEntity
  8
想像線
100
AcDbLine
 10
327.7389731543661
 20
505.2510406567394
 30
0.0
 11
360.6446218713807
 21
486.2452972481683
 31
0.0
  0
LINE
  5
10002EEA
330
F6
100
AcDbEntity
  8
隠れ線2
100
AcDbLine
 10
328.2391242966969
 20
506.1169787808712
 30
0.0
 11
361.1447730137115
 21
487.1112353723004
 31
0.0
  0
LINE
  5
10002EEB
330
F6
100
AcDbEntity
  8
隠れ線2
100
AcDbLine
 10
310.7459971995692
 20
455.5237017311231
 30
0.0
 11
339.0496853548195
 21
455.5781319006525
 31
0.0
  0
ARC
  5
10002EEC
330
F6
100
AcDbEntity
  8
外形線
100
AcDbCircle
 10
352.4616717652913
 20
411.9621875765246
 30
0.0
 40
20.0
100
AcDbArc
 50
46.15175990471372
 51
172.4736727926726
  0
ARC
  5
10002EED
330
F6
100
AcDbEntity
  8
外形線
100
AcDbCircle
 10
356.6498111034114
 20
465.0773725878735
 30
0.0
 40
20.0
100
AcDbArc
 50
174.5548770122336
 51
243.0189691857692
  0
ARC
  5
10002EEE
330
F6
100
AcDbEntity
  8
外形線
100
AcDbCircle
 10
367.3995293834234
 20
464.6517449626935
 30
0.0
 40
30.74738328311044
100
AcDbArc
 50
118.298809589823
 51
175.6662232301646
  0
ARC
  5
10002EEF
330
F6
100
AcDbEntity
  8
外形線
100
AcDbCircle
 10
367.3639282625899
 20
428.3210992675703
 30
0.0
 40
76.53121113020607
100
AcDbArc
 50
111.5533927626175
 51
142.5693051505157
  0
LINE
  5
10002EF1
330
F6
100
AcDbEntity
  8
外形線
100
AcDbLine
 10
329.8941555591418
 20
486.1342249613652
 30
0.0
 11
354.8173183518062
 21
459.7482027293652
 31
0.0
  0
LINE
  5
10002EF2
330
F6
100
AcDbEntity
  8
外形線
100
AcDbLine
 10
332.6566471433817
 20
488.7435620892586
 30
0.0
 11
357.5798099360463
 21
462.3575398572588
 31
0.0
  0
LINE
  5
10002EF3
330
F6
100
AcDbEntity
  8
中心線
100
AcDbLine
 10
329.0017707266378
 20
487.6615115457987
 30
0.0
 11
356.0748241022203
 21
458.9994113862439
 31
0.0
  0
LINE
  5
10002EF4
330
F6
100
AcDbEntity
  8
中心線
100
AcDbLine
 10
331.1826851352482
 20
489.721514541504
 30
0.0
 11
358.2557385108307
 21
461.0594143819492
 31
0.0
  0
LINE
  5
10002EF5
330
F6
100
AcDbEntity
  8
中心線
100
AcDbLine
 10
326.0218821272351
 20
493.0007668796121
 30
0.0
 11
360.9928069786219
 21
455.9772314528052
 31
0.0
  0
LINE
  5
10002EF6
330
F6
100
AcDbEntity
  8
0
  6
ByBlock
 62
     2
100
AcDbLine
 10
318.5225389520432
 20
467.375155443888
 30
0.0
 11
295.9220501514479
 21
380.1741682921043
 31
0.0
  0
LINE
  5
10002EF7
330
F6
100
AcDbEntity
  8
外形線
100
AcDbLine
 10
324.701927837326
 20
375.3206301926646
 30
0.0
 11
324.701927837326
 21
436.1157779079658
 31
0.0
  0
POINT
  5
10002EF9
330
F6
100
AcDbEntity
  8
DEFPOINTS
  6
ByBlock
 62
     0
100
AcDbPoint
 10
295.9220501514479
 20
380.1741682921043
 30
0.0
  0
INSERT
  5
10002EFA
330
F6
100
AcDbEntity
  8
0
  6
ByBlock
 62
     2
100
AcDbBlockReference
  2
_OPEN
 10
295.9220501514479
 20
380.1741682921043
 30
0.0
 41
2.5
 42
2.5
 43
2.5
 50
255.4699621656389
  0
DIMENSION
  5
10002EFB
330
F6
100
AcDbEntity
  8
寸法線
100
AcDbDimension
  2
*D80
 10
322.7475697203225
 20
364.9671317664542
 30
0.0
 11
317.7459280990762
 21
366.8421317664542
 31
0.0
 70
    32
 71
     5
 42
-1.0
  3
STANDARD
100
AcDbAlignedDimension
 13
312.74428647783
 23
377.3512135820126
 33
0.0
 14
322.7475697203225
 24
377.4668032315737
 34
0.0
100
AcDbRotatedDimension
1001
ACAD
1000
DSTYLE
1002
{
1070
    78
1070
     8
1070
   140
1040
2.5
1070
   340
1005
10000041
1070
    74
1070
     0
1070
   172
1070
     1
1070
    73
1070
     0
1070
    77
1070
     1
1070
   173
1070
     1
1070
   147
1040
0.625
1070
    42
1040
0.0
1070
    44
1040
1.25
1070
    43
1040
3.75
1070
   271
1070
     2
1070
   178
1070
     6
1070
   177
1070
     2
1070
   176
1070
     2
1070
   141
1040
2.5
1070
     7
1000
_OPEN
1070
     6
1000
_OPEN
1070
    41
1040
2.5
1070
   273
1070
     8
1070
   274
1070
     4
1070
   143
1040
0.0394
1070
   171
1070
     4
1002
}
  0
ARC
  5
10002F0A
330
F6
100
AcDbEntity
  8
外形線
100
AcDbCircle
 10
318.501927837326
 20
377.2956301926646
 30
0.0
 40
0.75
100
AcDbArc
 50
43.1346943282474
 51
316.8653056717526
  0
ARC
  5
10002F0B
330
F6
100
AcDbEntity
  8
想像線
 48
0.7
100
AcDbCircle
 10
313.49428647783
 20
377.3512135820126
 30
0.0
 40
0.75
100
AcDbArc
 50
33.5415747782617
 51
307.2721861217669
  0
LINE
  5
10002F0C
330
F6
100
AcDbEntity
  8
外形線
100
AcDbLine
 10
328.701927837326
 20
384.8206301926646
 30
0.0
 11
332.6339761575207
 21
414.5818224529136
 31
0.0
  0
LINE
  5
10002F0D
330
F6
100
AcDbEntity
  8
外形線
100
AcDbLine
 10
328.701927837326
 20
375.3206301926646
 30
0.0
 11
324.701927837326
 21
375.3206301926646
 31
0.0
  0
LINE
  5
10002F0E
330
F6
100
AcDbEntity
  8
外形線
100
AcDbLine
 10
322.701927837326
 20
375.7956301926646
 30
0.0
 11
319.0492391372039
 21
376.7828433548597
 31
0.0
  0
LINE
  5
10002F0F
330
F6
100
AcDbEntity
  8
外形線
100
AcDbLine
 10
322.701927837326
 20
378.7956301926647
 30
0.0
 11
319.0492391372039
 21
377.8084170304694
 31
0.0
  0
LINE
  5
10002F10
330
F6
100
AcDbEntity
  8
中心線
 48
0.1
100
AcDbLine
 10
318.501927837326
 20
378.7046512536248
 30
0.0
 11
318.501927837326
 21
375.7247308601947
 31
0.0
  0
LINE
  5
10002F11
330
F6
100
AcDbEntity
  8
中心線
 48
0.1
100
AcDbLine
 10
318.501927837326
 20
378.7547939860898
 30
0.0
 11
318.501927837326
 21
375.7748735926597
 31
0.0
  0
LINE
  5
10002F12
330
F6
100
AcDbEntity
  8
外形線
100
AcDbLine
 10
319.049239137204
 20
377.8084170304694
 30
0.0
 11
319.049239137204
 21
376.7828433548598
 31
0.0
  0
ARC
  5
10002F13
330
F6
100
AcDbEntity
  8
想像線
 48
0.7
100
AcDbCircle
 10
323.4975697203225
 20
377.4668032315737
 30
0.0
 40
0.75
100
AcDbArc
 50
52.24853811171058
 51
325.9791494552158
  0
LINE
  5
10002F14
330
F6
100
AcDbEntity
  8
外形線
100
AcDbLine
 10
324.701927837326
 20
375.7956301926646
 30
0.0
 11
322.701927837326
 21
375.7956301926646
 31
0.0
  0
LINE
  5
10002F15
330
F6
100
AcDbEntity
  8
外形線
100
AcDbLine
 10
324.701927837326
 20
378.7956301926647
 30
0.0
 11
322.701927837326
 21
378.7956301926647
 31
0.0
  0
LINE
  5
10002F16
330
F6
100
AcDbEntity
  8
外形線
100
AcDbLine
 10
322.701927837326
 20
378.7956301926647
 30
0.0
 11
322.701927837326
 21
375.7956301926646
 31
0.0
  0
LINE
  5
10002F17
330
F6
100
AcDbEntity
  8
外形線
100
AcDbLine
 10
328.701927837326
 20
375.3206301926646
 30
0.0
 11
328.701927837326
 21
384.8206301926646
 31
0.0
  0
ARC
  5
10002F18
330
F6
100
AcDbEntity
  8
0
  6
ByBlock
 62
     2
100
AcDbCircle
 10
318.3641860617222
 20
467.375155443888
 30
0.0
 40
38.53588299794992
100
AcDbArc
 50
153.7176929253282
 51
176.282307074657
  0
INSERT
  5
10002F19
330
F6
100
AcDbEntity
  8
0
  6
ByBlock
 62
     2
100
AcDbBlockReference
  2
_OPEN
 10
279.8283030637723
 20
467.375155443888
 30
0.0
 41
2.5
 42
2.5
 43
2.5
 50
268.1411535373286
  0
MTEXT
  5
10002F1A
330
F6
100
AcDbEntity
  8
0
  6
ByBlock
 62
     6
100
AcDbMText
 10
279.8441643570027
 20
479.5410637194923
 30
0.0
 40
2.5
 41
0.0
 71
     5
 72
     1
  1
\A1;30°
  7
STYLE3
 11
0.2588190451026028
 21
0.9659258262890462
 31
0.0
 73
     1
 44
1.0
  0
POINT
  5
10002F1B
330
F6
100
AcDbEntity
  8
DEFPOINTS
  6
ByBlock
 62
     0
100
AcDbPoint
 10
282.1523011730818
 20
480.5552036700344
 30
0.0
 50
30.00000000000002
  0
INSERT
  5
10002F1C
330
F6
100
AcDbEntity
  8
0
  6
ByBlock
 62
     2
100
AcDbBlockReference
  2
_OPEN
 10
284.9911324282377
 20
486.6430969428716
 30
0.0
 41
2.5
 42
2.5
 43
2.5
 50
61.85884646265675
  0
CIRCLE
  5
10002F1D
330
F6
100
AcDbEntity
  8
隠れ線
 62
     4
 48
0.5
100
AcDbCircle
 10
329.160117350182
 20
460.7647040479246
 30
0.0
 40
2.35
  0
ARC
  5
10002F1E
330
F6
100
AcDbEntity
  8
隠れ線
 62
     4
 48
0.5
100
AcDbCircle
 10
318.501927837326
 20
467.2956301926646
 30
0.0
 40
12.5
100
AcDbArc
 50
307.3379493924508
 51
349.6653396740851
  0
ARC
  5
10002F1F
330
F6
100
AcDbEntity
  8
外形線
100
AcDbCircle
 10
318.501927837326
 20
467.2956301926645
 30
0.0
 40
14.09726071835744
100
AcDbArc
 50
147.6599016326657
 51
246.1261300641205
  0
CIRCLE
  5
10002F20
330
F6
100
AcDbEntity
  8
外形線
100
AcDbCircle
 10
318.501927837326
 20
467.2956301926646
 30
0.0
 40
8.5
  0
CIRCLE
  5
10002F21
330
F6
100
AcDbEntity
  8
外形線
100
AcDbCircle
 10
318.501927837326
 20
467.2956301926646
 30
0.0
 40
8.5
  0
CIRCLE
  5
10002F22
330
F6
100
AcDbEntity
  8
外形線
100
AcDbCircle
 10
318.501927837326
 20
467.2956301926646
 30
0.0
 40
9.5
  0
ARC
  5
10002F23
330
F6
100
AcDbEntity
  8
外形線
100
AcDbCircle
 10
304.701927837326
 20
436.1157779079658
 30
0.0
 40
20.0
100
AcDbArc
 50
0.0
 51
66.12613006412056
  0
MTEXT
  5
10002F24
330
F6
100
AcDbEntity
  8
0
  6
ByBlock
 62
     6
100
AcDbMText
 10
305.5275745487726
 20
424.7092779063316
 30
0.0
 40
2.5
 41
0.0
 71
     5
 72
     1
  1
\A1;R90
  7
STYLE3
 11
0.2508875298430899
 21
0.968016243339559
 31
0.0
 73
     1
 44
1.0
  0
CIRCLE
  5
10002F25
330
F6
100
AcDbEntity
  8
隠れ線
 62
     4
 48
0.5
100
AcDbCircle
 10
329.160117350182
 20
460.7647040479246
 30
0.0
 40
1.5
  0
ARC
  5
10002F26
330
F6
100
AcDbEntity
  8
想像線
 48
0.4
100
AcDbCircle
 10
318.501927837326
 20
467.2956301926646
 30
0.0
 40
10.61560173544314
100
AcDbArc
 50
1.94690744380374
 51
112.1755590959502
  0
LINE
  5
10002F27
330
F6
100
AcDbEntity
  8
外形線
100
AcDbLine
 10
316.3659529208959
 20
500.8254714206277
 30
0.0
 11
321.7897014662721
 21
489.8029350320787
 31
0.0
  0
LINE
  5
10002F28
330
F6
100
AcDbEntity
  8
中心線
100
AcDbLine
 10
311.1652335941924
 20
484.8233803571216
 30
0.0
 11
316.59451896092
 21
481.6875174097188
 31
0.0
  0
LINE
  5
10002F29
330
F6
100
AcDbEntity
  8
中心線
100
AcDbLine
 10
312.3119448038548
 20
480.5408062000564
 30
0.0
 11
315.4478077512576
 21
485.9700915667841
 31
0.0
  0
LINE
  5
10002F2A
330
F6
100
AcDbEntity
  8
想像線
 48
0.4
100
AcDbLine
 10
307.0494299452424
 20
481.4265139744145
 30
0.0
 11
314.4951135488174
 21
477.1260136777046
 31
0.0
  0
CIRCLE
  5
10002F2B
330
F6
100
AcDbEntity
  8
想像線
100
AcDbCircle
 10
313.8798762775563
 20
483.2554488834202
 30
0.0
 40
1.0
  0
POINT
  5
10002F2D
330
F6
100
AcDbEntity
  8
DEFPOINTS
  6
ByBlock
 62
     0
100
AcDbPoint
 10
318.501927837326
 20
467.2956301926647
 30
0.0
  0
POINT
  5
10002F2E
330
F6
100
AcDbEntity
  8
DEFPOINTS
  6
ByBlock
 62
     0
100
AcDbPoint
 10
318.501927837326
 20
467.2956301926645
 30
0.0
 50
30.00000000000002
  0
CIRCLE
  5
10002F2F
330
F6
100
AcDbEntity
  8
想像線
100
AcDbCircle
 10
331.1986387601955
 20
473.2524260368038
 30
0.0
 40
1.0
  0
LINE
  5
10002F30
330
F6
100
AcDbEntity
  8
中心線
100
AcDbLine
 10
329.6307072864941
 20
470.5377833534401
 30
0.0
 11
332.7665702338967
 21
475.9670687201677
 31
0.0
  0
LINE
  5
10002F31
330
F6
100
AcDbEntity
  8
中心線
100
AcDbLine
 10
328.4839960768316
 20
474.8203575105052
 30
0.0
 11
333.9132814435592
 21
471.6844945631026
 31
0.0
  0
LINE
  5
10002F32
330
F6
100
AcDbEntity
  8
中心線
 48
0.2
100
AcDbLine
 10
331.1275392730502
 20
492.8552011539789
 30
0.0
 11
325.876316401602
 21
487.895109733797
 31
0.0
  0
CIRCLE
  5
10002F33
330
F6
100
AcDbEntity
  8
外形線
100
AcDbCircle
 10
328.5019278373261
 20
490.375155443888
 30
0.0
 40
2.0
  0
LINE
  5
10002F35
330
F6
100
AcDbEntity
  8
外形線
100
AcDbLine
 10
332.6566471433818
 20
488.7435620892586
 30
0.0
 11
329.8941555591419
 21
486.1342249613653
 31
0.0
  0
CIRCLE
  5
10002F36
330
F6
100
AcDbEntity
  8
外形線
100
AcDbCircle
 10
328.5019278373261
 20
490.375155443888
 30
0.0
 40
1.25
  0
ARC
  5
10002F3B
330
F6
100
AcDbEntity
  8
外形線
100
AcDbCircle
 10
315.8172174441118
 20
384.8732623749017
 30
0.0
 40
70.0
100
AcDbArc
 50
34.57873115589322
 51
63.01896918576927
  0
ARC
  5
10002F3C
330
F6
100
AcDbEntity
  8
外形線
100
AcDbCircle
 10
371.8000385113871
 20
423.4728251360191
 30
0.0
 40
2.0
100
AcDbArc
 50
216.0919650591093
 51
34.83509244546557
  0
LINE
  5
10002F3D
330
F6
100
AcDbEntity
  8
握り
100
AcDbLine
 10
369.8285777534683
 20
481.5751554438881
 30
0.0
 11
377.1752779211841
 21
481.5751554438881
 31
0.0
  0
LINE
  5
10002F3E
330
F6
100
AcDbEntity
  8
握り
100
AcDbLine
 10
369.8285777534683
 20
453.1751554438881
 30
0.0
 11
377.1752779211841
 21
453.1751554438881
 31
0.0
  0
LINE
  5
10002F3F
330
F6
100
AcDbEntity
  8
外形線
100
AcDbLine
 10
363.501927837326
 20
479.175155443888
 30
0.0
 11
363.501927837326
 21
455.5751554438879
 31
0.0
  0
LINE
  5
10002F40
330
F6
100
AcDbEntity
  8
握り
100
AcDbLine
 10
363.5019278373261
 20
481.0751554438881
 30
0.0
 11
363.5019278373261
 21
453.675155443888
 31
0.0
  0
LINE
  5
10002F41
330
F6
100
AcDbEntity
  8
握り
100
AcDbLine
 10
369.8285777534683
 20
481.5751554438881
 30
0.0
 11
369.8285777534683
 21
453.175155443888
 31
0.0
  0
LINE
  5
10002F42
330
F6
100
AcDbEntity
  8
握り
100
AcDbLine
 10
367.175277921184
 20
481.5751554438881
 30
0.0
 11
367.175277921184
 21
453.175155443888
 31
0.0
  0
LINE
  5
10002F43
330
F6
100
AcDbEntity
  8
外形線
100
AcDbLine
 10
339.0496853548196
 20
455.5781319006524
 30
0.0
 11
363.501927837326
 21
455.625155443888
 31
0.0
  0
ARC
  5
10002F44
330
F6
100
AcDbEntity
  8
外形線
100
AcDbCircle
 10
325.8659678021373
 20
384.2751446951232
 30
0.0
 40
58.39145494523871
100
AcDbArc
 50
40.62567202982128
 51
46.15175990471367
  0
LINE
  5
10002F45
330
F6
100
AcDbEntity
  8
中心線
 48
0.2
100
AcDbLine
 10
360.9086521382788
 20
460.8940346420589
 30
0.0
 11
356.0887853529317
 21
456.3413846263062
 31
0.0
  0
CIRCLE
  5
10002F46
330
F6
100
AcDbEntity
  8
外形線
100
AcDbCircle
 10
358.4987187456054
 20
458.6177096341826
 30
0.0
 40
1.25
  0
CIRCLE
  5
10002F47
330
F6
100
AcDbEntity
  8
外形線
100
AcDbCircle
 10
358.4987187456054
 20
458.6177096341826
 30
0.0
 40
2.0
  0
LINE
  5
10002F48
330
F6
100
AcDbEntity
  8
外形線
100
AcDbLine
 10
357.5798099360463
 20
462.3575398572588
 30
0.0
 11
354.8173183518063
 21
459.7482027293653
 31
0.0
  0
ARC
  5
10002F49
330
F6
100
AcDbEntity
  8
握り
100
AcDbCircle
 10
368.5019278373261
 20
453.8751554438881
 30
0.0
 40
1.5
100
AcDbArc
 50
207.8181392846543
 51
332.1818607153458
  0
POINT
  5
10002F4A
330
F6
100
AcDbEntity
  8
DEFPOINTS
  6
ByBlock
 62
     0
100
AcDbPoint
 10
363.5019278373261
 20
453.675155443888
 30
0.0
  0
ARC
  5
10002F4B
330
F6
100
AcDbEntity
  8
握り
100
AcDbCircle
 10
364.0019278373261
 20
453.675155443888
 30
0.0
 40
0.5
100
AcDbArc
 50
180.0
 51
270.0
  0
LINE
  5
10002F4C
330
F6
100
AcDbEntity
  8
握り
100
AcDbLine
 10
364.0019278373261
 20
453.175155443888
 30
0.0
 11
367.1752779211841
 21
453.1751554438881
 31
0.0
  0
LINE
  5
10002F4D
330
F6
100
AcDbEntity
  8
想像線
 48
0.7
100
AcDbLine
 10
352.6529745420109
 20
472.408935573838
 30
0.0
 11
367.8968134351775
 21
498.8014000480819
 31
0.0
  0
LINE
  5
10002F4E
330
F6
100
AcDbEntity
  8
隠れ線2
100
AcDbLine
 10
334.4481065971885
 20
479.2198536304111
 30
0.0
 11
340.3175279141647
 21
479.210823751462
 31
0.0
  0
LINE
  5
10002F4F
330
F6
100
AcDbEntity
  8
外形線
100
AcDbLine
 10
358.3762872036219
 20
501.338914573214
 30
0.0
 11
352.8231199842722
 21
491.7244224768745
 31
0.0
  0
LINE
  5
10002F50
330
F6
100
AcDbEntity
  8
外形線
100
AcDbLine
 10
355.9041494031535
 20
501.0583396385219
 30
0.0
 11
352.9038509817482
 21
495.8947844280048
 31
0.0
  0
LINE
  5
10002F51
330
F6
100
AcDbEntity
  8
外形線
100
AcDbLine
 10
355.7932984687321
 20
500.8675636423949
 30
0.0
 11
346.0081646446109
 21
506.5192906233497
 31
0.0
  0
LINE
  5
10002F52
330
F6
100
AcDbEntity
  8
外形線
100
AcDbLine
 10
341.5029916196613
 20
506.2797717707851
 30
0.0
 11
346.0081646446109
 21
506.5192906233497
 31
0.0
  0
LINE
  5
10002F53
330
F6
100
AcDbEntity
  8
外形線
100
AcDbLine
 10
352.2203335071643
 20
495.7136660635611
 30
0.0
 11
342.8698574479688
 21
501.1143421072814
 31
0.0
  0
LINE
  5
10002F54
330
F6
100
AcDbEntity
  8
外形線
100
AcDbLine
 10
353.0301033629606
 20
496.1120665277452
 30
0.0
 11
343.2449695388397
 21
501.7637935086999
 31
0.0
  0
LINE
  5
10002F55
330
F6
100
AcDbEntity
  8
外形線
100
AcDbLine
 10
341.2896455539145
 20
503.0357578213455
 30
0.0
 11
339.2488022925885
 21
499.5009136024445
 31
0.0
  0
LINE
  5
10002F56
330
F6
100
AcDbEntity
  8
外形線
100
AcDbLine
 10
339.6835802055518
 20
504.9897051653865
 30
0.0
 11
342.8681702062345
 21
501.1153166294298
 31
0.0
  0
LINE
  5
10002F57
330
F6
100
AcDbEntity
  8
外形線
100
AcDbLine
 10
336.0203212620898
 20
505.4340606341641
 30
0.0
 11
338.0985727600066
 21
504.23369789257
 31
0.0
  0
ARC
  5
10002F58
330
F6
100
AcDbEntity
  8
外形線
100
AcDbCircle
 10
341.5787257591542
 20
505.9124989292691
 30
0.0
 40
0.375
100
AcDbArc
 50
101.6514637073841
 51
198.0308339158068
  0
LINE
  5
10002F59
330
F6
100
AcDbEntity
  8
外形線
100
AcDbLine
 10
343.2449695388395
 20
501.7637935087
 30
0.0
 11
342.8694917084307
 21
501.1137088830765
 31
0.0
  0
LINE
  5
10002F5A
330
F6
100
AcDbEntity
  8
外形線
100
AcDbLine
 10
341.2221419791341
 20
505.7964256428233
 30
0.0
 11
343.2449695388395
 21
501.7637935087
 31
0.0
  0
LINE
  5
10002F5B
330
F6
100
AcDbEntity
  8
外形線
100
AcDbLine
 10
347.3929867574618
 20
503.192114115887
 30
0.0
 11
345.9415020430008
 21
502.8074999000502
 31
0.0
  0
LINE
  5
10002F5C
330
F6
100
AcDbEntity
  8
外形線
100
AcDbLine
 10
346.4326100022015
 20
503.675206753104
 30
0.0
 11
346.797576089979
 21
502.2978715535911
 31
0.0
  0
LINE
  5
10002F5D
330
F6
100
AcDbEntity
  8
中心線
 48
0.5
100
AcDbLine
 10
345.7245203041815
 20
501.4438921379823
 30
0.0
 11
347.6417640623852
 21
504.7633176535287
 31
0.0
  0
CIRCLE
  5
10002F5E
330
F6
100
AcDbEntity
  8
外形線
100
AcDbCircle
 10
346.6152295214878
 20
502.9860241127023
 30
0.0
 40
1.25
  0
LINE
  5
10002F5F
330
F6
100
AcDbEntity
  8
中心線
 48
0.5
100
AcDbLine
 10
350.8527835808293
 20
498.3263518862528
 30
0.0
 11
352.8549835944403
 21
501.7928666598542
 31
0.0
  0
LINE
  5
10002F60
330
F6
100
AcDbEntity
  8
外形線
100
AcDbLine
 10
352.5808017916251
 20
500.1777194550458
 30
0.0
 11
351.1293170771637
 21
499.7931052392086
 31
0.0
  0
LINE
  5
10002F61
330
F6
100
AcDbEntity
  8
外形線
100
AcDbLine
 10
351.6204250363647
 20
500.6608120922626
 30
0.0
 11
351.9853911241421
 21
499.2834768927497
 31
0.0
  0
LINE
  5
10002F62
330
F6
100
AcDbEntity
  8
外形線
100
AcDbLine
 10
352.5971328397694
 20
496.3621429428318
 30
0.0
 11
352.2203335071645
 21
495.7136660635611
 31
0.0
  0
CIRCLE
  5
10002F63
330
F6
100
AcDbEntity
  8
外形線
100
AcDbCircle
 10
351.8030445556511
 20
499.9716294518609
 30
0.0
 40
1.25
  0
LINE
  5
10002F64
330
F6
100
AcDbEntity
  8
外形線
100
AcDbLine
 10
352.2203335071643
 20
495.7136660635611
 30
0.0
 11
352.9038509817481
 21
495.8947844280048
 31
0.0
  0
POINT
  5
10002F65
330
F6
100
AcDbEntity
  8
DEFPOINTS
  6
ByBlock
 62
     0
100
AcDbPoint
 10
363.5019278373261
 20
467.375155443888
 30
0.0
  0
ARC
  5
10002F66
330
F6
100
AcDbEntity
  8
握り
100
AcDbCircle
 10
368.5019278373261
 20
480.875155443888
 30
0.0
 40
1.5
100
AcDbArc
 50
27.81813928465427
 51
152.1818607153457
  0
LINE
  5
10002F67
330
F6
100
AcDbEntity
  8
握り
100
AcDbLine
 10
364.0019278373261
 20
481.5751554438881
 30
0.0
 11
367.175277921184
 21
481.5751554438881
 31
0.0
  0
ARC
  5
10002F68
330
F6
100
AcDbEntity
  8
握り
100
AcDbCircle
 10
364.0019278373261
 20
481.0751554438881
 30
0.0
 40
0.5
100
AcDbArc
 50
90.0
 51
180.0
  0
LINE
  5
10002F69
330
F6
100
AcDbEntity
  8
外形線
100
AcDbLine
 10
355.9041494031535
 20
501.0583396385219
 30
0.0
 11
355.7128937905556
 21
501.7801137872925
 31
0.0
  0
LINE
  5
10002F6A
330
F6
100
AcDbEntity
  8
外形線
100
AcDbLine
 10
355.7128937905556
 20
501.7801137872925
 30
0.0
 11
355.3377816996848
 21
501.130662385874
 31
0.0
  0
LINE
  5
10002F6B
330
F6
100
AcDbEntity
  8
握り
100
AcDbLine
 10
377.175277921184
 20
481.5751554438881
 30
0.0
 11
377.175277921184
 21
453.175155443888
 31
0.0
  0
LINE
  5
10002F6C
330
F6
100
AcDbEntity
  8
握り
100
AcDbLine
 10
379.8285777534683
 20
481.5751554438881
 30
0.0
 11
379.8285777534683
 21
453.175155443888
 31
0.0
  0
LINE
  5
10002F6D
330
F6
100
AcDbEntity
  8
握り
100
AcDbLine
 10
387.175277921184
 20
481.5751554438881
 30
0.0
 11
387.175277921184
 21
453.175155443888
 31
0.0
  0
ARC
  5
10002F6E
330
F6
100
AcDbEntity
  8
握り
100
AcDbCircle
 10
388.5019278373261
 20
453.8751554438881
 30
0.0
 40
1.5
100
AcDbArc
 50
207.8181392846543
 51
332.1818607153458
  0
LINE
  5
10002F6F
330
F6
100
AcDbEntity
  8
握り
100
AcDbLine
 10
379.8285777534683
 20
453.1751554438881
 30
0.0
 11
387.175277921184
 21
453.175155443888
 31
0.0
  0
ARC
  5
10002F70
330
F6
100
AcDbEntity
  8
握り
100
AcDbCircle
 10
378.5019278373261
 20
453.8751554438881
 30
0.0
 40
1.5
100
AcDbArc
 50
207.8181392846543
 51
332.1818607153458
  0
ARC
  5
10002F71
330
F6
100
AcDbEntity
  8
握り
100
AcDbCircle
 10
398.5019278373261
 20
453.8751554438881
 30
0.0
 40
1.5
100
AcDbArc
 50
207.8181392846543
 51
332.1818607153458
  0
LINE
  5
10002F72
330
F6
100
AcDbEntity
  8
握り
100
AcDbLine
 10
389.8285777534683
 20
460.721855443888
 30
0.0
 11
397.1752779211841
 21
460.721855443888
 31
0.0
  0
LINE
  5
10002F73
330
F6
100
AcDbEntity
  8
握り
100
AcDbLine
 10
389.8285777534683
 20
453.175155443888
 30
0.0
 11
397.175277921184
 21
453.175155443888
 31
0.0
  0
LINE
  5
10002F74
330
F6
100
AcDbEntity
  8
握り
100
AcDbLine
 10
389.8285777534683
 20
460.7218554438881
 30
0.0
 11
389.8285777534683
 21
453.175155443888
 31
0.0
  0
LINE
  5
10002F75
330
F6
100
AcDbEntity
  8
握り
100
AcDbLine
 10
397.175277921184
 20
460.721855443888
 30
0.0
 11
397.175277921184
 21
453.175155443888
 31
0.0
  0
LINE
  5
10002F76
330
F6
100
AcDbEntity
  8
握り
100
AcDbLine
 10
399.8285777534683
 20
453.175155443888
 30
0.0
 11
407.1752779211839
 21
453.175155443888
 31
0.0
  0
LINE
  5
10002F77
330
F6
100
AcDbEntity
  8
握り
100
AcDbLine
 10
399.8285777534683
 20
460.721855443888
 30
0.0
 11
407.1752779211837
 21
460.721855443888
 31
0.0
  0
LINE
  5
10002F78
330
F6
100
AcDbEntity
  8
握り
100
AcDbLine
 10
399.8285777534682
 20
460.721855443888
 30
0.0
 11
399.8285777534683
 21
453.175155443888
 31
0.0
  0
LINE
  5
10002F79
330
F6
100
AcDbEntity
  8
握り
100
AcDbLine
 10
407.1752779211839
 20
460.721855443888
 30
0.0
 11
407.1752779211839
 21
453.175155443888
 31
0.0
  0
ARC
  5
10002F7A
330
F6
100
AcDbEntity
  8
握り
100
AcDbCircle
 10
388.5019278373261
 20
480.875155443888
 30
0.0
 40
1.5
100
AcDbArc
 50
27.81813928465427
 51
152.1818607153457
  0
LINE
  5
10002F7B
330
F6
100
AcDbEntity
  8
握り
100
AcDbLine
 10
379.8285777534683
 20
481.5751554438881
 30
0.0
 11
387.175277921184
 21
481.5751554438881
 31
0.0
  0
ARC
  5
10002F7C
330
F6
100
AcDbEntity
  8
握り
100
AcDbCircle
 10
378.5019278373261
 20
480.875155443888
 30
0.0
 40
1.5
100
AcDbArc
 50
27.81813928465427
 51
152.1818607153457
  0
HATCH
  5
10002F7D
330
F6
100
AcDbEntity
  8
ROGO
 62
     4
100
AcDbHatch
 10
0.0
 20
0.0
 30
0.0
210
0.0
220
0.0
230
1.0
  2
SOLID
 70
     1
 71
     1
 91
        1
 92
        1
 93
       12
 72
     1
 10
398.0941849141848
 20
468.9470017343487
 11
400.6314465548762
 21
468.9470017343488
 72
     1
 10
400.6314465548762
 20
468.9470017343487
 11
400.4188262752554
 21
468.5172841190743
 72
     1
 10
400.4188262752554
 20
468.5172841190743
 11
399.0853056720869
 21
468.5172841190743
 72
     1
 10
399.0853056720869
 20
468.5172841190743
 11
398.9190630348346
 21
468.1812983430969
 72
     1
 10
398.9190630348346
 20
468.1812983430969
 11
400.2525836380033
 21
468.1812983430969
 72
     1
 10
400.2525836380033
 20
468.1812983430969
 11
400.0821173871121
 21
467.8367764049808
 72
     1
 10
400.0821173871121
 20
467.8367764049809
 11
398.7485967839436
 21
467.8367764049808
 72
     1
 10
398.7485967839436
 20
467.8367764049808
 11
398.5823471087773
 21
467.5007764049809
 72
     1
 10
398.5823471087773
 20
467.5007764049809
 11
399.9158677119459
 21
467.5007764049809
 72
     1
 10
399.9158677119459
 20
467.5007764049809
 11
399.7032581273618
 21
467.0710804049809
 72
     1
 10
399.7032581273618
 20
467.0710804049809
 11
397.1659964866704
 21
467.0710804049809
 72
     1
 10
397.1659964866705
 20
467.0710804049809
 11
398.0941849141848
 21
468.9470017343487
 97
       12
330
10002F7E
330
10002FA5
330
10002FA3
330
10002FA4
330
10002FA2
330
10002FA0
330
10002FA1
330
10002F7F
330
10002F80
330
10002F9F
330
10002F81
330
10002F86
 75
     0
 76
     1
 98
        1
 10
294.308286373172
 20
339.2354359513326
450
        0
451
        0
460
0.0
461
0.0
452
        0
462
0.0
453
        0
470

  0
LINE
  5
10002F7E
102
{ACAD_REACTORS
330
10002F7D
102
}
330
F6
100
AcDbEntity
  8
ROGO
 62
     4
100
AcDbLine
 10
398.0941849141848
 20
468.9470017343487
 30
0.0
 11
400.6314465548762
 21
468.9470017343488
 31
0.0
  0
LINE
  5
10002F7F
102
{ACAD_REACTORS
330
10002F7D
102
}
330
F6
100
AcDbEntity
  8
ROGO
 62
     4
100
AcDbLine
 10
398.7485967839436
 20
467.8367764049808
 30
0.0
 11
398.5823471087773
 21
467.5007764049809
 31
0.0
  0
LINE
  5
10002F80
102
{ACAD_REACTORS
330
10002F7D
102
}
330
F6
100
AcDbEntity
  8
ROGO
 62
     4
100
AcDbLine
 10
398.5823471087773
 20
467.5007764049809
 30
0.0
 11
399.9158677119459
 21
467.5007764049809
 31
0.0
  0
LINE
  5
10002F81
102
{ACAD_REACTORS
330
10002F7D
102
}
330
F6
100
AcDbEntity
  8
ROGO
 62
     4
100
AcDbLine
 10
397.1659964866704
 20
467.0710804049809
 30
0.0
 11
399.7032581273618
 21
467.0710804049809
 31
0.0
  0
ARC
  5
10002F82
330
F6
100
AcDbEntity
  8
握り
100
AcDbCircle
 10
398.5019278373261
 20
480.875155443888
 30
0.0
 40
1.5
100
AcDbArc
 50
27.81813928465427
 51
152.1818607153457
  0
HATCH
  5
10002F83
330
F6
100
AcDbEntity
  8
ROGO
 62
     4
100
AcDbHatch
 10
0.0
 20
0.0
 30
0.0
210
0.0
220
0.0
230
1.0
  2
SOLID
 70
     1
 71
     1
 91
        2
 92
        5
 93
        6
 72
     1
 10
392.9793665623515
 20
466.0157463273401
 11
394.3419393565465
 21
466.0157463273402
 72
     1
 10
394.3419393565465
 20
466.0157463273402
 11
394.8194024291586
 21
467.0710804049808
 72
     1
 10
394.8194024291586
 20
467.0710804049808
 11
396.0931285265474
 21
467.0710804049808
 72
     4
 94
        3
 73
     0
 74
     0
 95
       18
 96
       14
 40
0.108740278791501
 40
0.108740278791501
 40
0.108740278791501
 40
0.108740278791501
 40
0.6623149649549278
 40
1.384304701649787
 40
2.097394834876493
 40
2.774073369849618
 40
3.428974823686337
 40
4.005208313035923
 40
4.455173659284313
 40
4.720999734343524
 40
5.086034088486724
 40
5.569973738255373
 40
6.060470601257719
 40
6.060470601257719
 40
6.060470601257719
 40
6.060470601257719
 10
396.0931285265473
 20
467.0710804049808
 10
396.1827712649683
 20
467.071747947311
 10
396.389328917902
 20
467.0732861196091
 10
396.6783014580553
 20
467.2276616003167
 10
396.9523299910452
 20
467.4243247150906
 10
397.17304133259
 20
467.6700347590932
 10
397.3105511481273
 20
467.9509620984085
 10
397.3318509839089
 20
468.2202051492253
 10
397.3188479574648
 20
468.4331730551631
 10
397.2259348024033
 20
468.5816169727386
 10
397.1293402396537
 20
468.7322723686996
 10
396.9522184745864
 20
468.8627756684017
 10
396.8070928347998
 20
468.9199555131377
 10
396.7332934953197
 20
468.9470017343488
 72
     1
 10
396.7332934953199
 20
468.9470017343487
 11
394.4297244767696
 21
468.9470017343487
 72
     1
 10
394.4297244767696
 20
468.9470017343487
 11
392.9793665623515
 21
466.0157463273401
 97
        6
330
10002F8D
330
10002F8E
330
10002F84
330
10002ECA
330
10002F87
330
10002F8C
 92
       20
 93
        4
 72
     1
 10
395.1142088467443
 20
467.7226894542076
 11
395.3399199843979
 21
468.2215775754725
 72
     1
 10
395.3399199843979
 20
468.2215775754725
 11
395.9199014116796
 21
468.2215775754725
 72
     4
 94
        3
 73
     0
 74
     0
 95
       15
 96
       11
 40
0.0
 40
0.0
 40
0.0
 40
0.0
 40
0.2199578613106558
 40
0.3202465475123651
 40
0.4340808827708152
 40
0.5116301246390283
 40
0.634275054953107
 40
0.7077360179240892
 40
0.8337709579493377
 40
0.875782631437913
 40
0.875782631437913
 40
0.875782631437913
 40
0.875782631437913
 10
395.91990141168
 20
468.2215775754724
 10
396.0025133189073
 20
468.2219559821045
 10
396.1227917118475
 20
468.2225069213469
 10
396.1885642209396
 20
468.0737222014477
 10
396.1590818463206
 20
467.9779280519658
 10
396.1220200985718
 20
467.8795773173259
 10
396.0565235963685
 20
467.8127465097982
 10
395.9686176969468
 20
467.7483771760312
 10
395.8855424211529
 20
467.7405849799463
 10
395.8315112797635
 20
467.7262685607259
 10
395.8180034879502
 20
467.7226894542076
 72
     1
 10
395.8180034879502
 20
467.7226894542076
 11
395.1142088467443
 21
467.7226894542076
 97
        4
330
10002F8B
330
10002F89
330
10002F8A
330
10002F88
 75
     0
 76
     1
 47
0.0514683685270805
 98
        2
 10
394.4420366957794
 20
468.0353035102216
 10
394.4420366957794
 20
468.0353035102216
450
        0
451
        0
460
0.0
461
0.0
452
        0
462
0.0
453
        0
470

  0
LINE
  5
10002F84
102
{ACAD_REACTORS
330
10002F83
102
}
330
F6
100
AcDbEntity
  8
ROGO
 62
     4
100
AcDbLine
 10
394.4297244767696
 20
468.9470017343487
 30
0.0
 11
392.9793665623515
 21
466.0157463273401
 31
0.0
  0
LINE
  5
10002F85
330
F6
100
AcDbEntity
  8
握り
100
AcDbLine
 10
389.8285777534683
 20
471.375155443888
 30
0.0
 11
389.8285777534683
 21
463.375155443888
 31
0.0
  0
LINE
  5
10002F86
102
{ACAD_REACTORS
330
10002F7D
102
}
330
F6
100
AcDbEntity
  8
ROGO
 62
     4
100
AcDbLine
 10
398.0941849141848
 20
468.9470017343487
 30
0.0
 11
397.1659964866705
 21
467.0710804049809
 31
0.0
  0
LINE
  5
10002F87
102
{ACAD_REACTORS
330
10002EC8
330
10002F83
102
}
330
F6
100
AcDbEntity
  8
ROGO
 62
     4
100
AcDbLine
 10
394.8194024291585
 20
467.0710804049809
 30
0.0
 11
394.3419393565465
 21
466.0157463273401
 31
0.0
  0
LINE
  5
10002F88
102
{ACAD_REACTORS
330
10002F83
102
}
330
F6
100
AcDbEntity
  8
ROGO
 62
     4
100
AcDbLine
 10
395.8180034879503
 20
467.7226894542076
 30
0.0
 11
395.1142088467445
 21
467.7226894542077
 31
0.0
  0
LINE
  5
10002F89
102
{ACAD_REACTORS
330
10002F83
102
}
330
F6
100
AcDbEntity
  8
ROGO
 62
     4
100
AcDbLine
 10
395.91990141168
 20
468.2215775754725
 30
0.0
 11
395.3399199843979
 21
468.2215775754725
 31
0.0
  0
SPLINE
  5
10002F8A
102
{ACAD_REACTORS
330
10002F83
102
}
330
F6
100
AcDbEntity
  8
ROGO
 62
     4
100
AcDbSpline
210
0.0
220
0.0
230
1.0
 70
     8
 71
     3
 72
    15
 73
    11
 74
     9
 42
0.0000000001
 43
0.0000000001
 44
0.0000000001
 40
0.0
 40
0.0
 40
0.0
 40
0.0
 40
0.2199578613106558
 40
0.3202465475123651
 40
0.4340808827708152
 40
0.5116301246390283
 40
0.634275054953107
 40
0.7077360179240892
 40
0.8337709579493377
 40
0.875782631437913
 40
0.875782631437913
 40
0.875782631437913
 40
0.875782631437913
 10
395.91990141168
 20
468.2215775754724
 30
0.0
 10
396.0025133189073
 20
468.2219559821045
 30
0.0
 10
396.1227917118474
 20
468.2225069213469
 30
0.0
 10
396.1885642209397
 20
468.0737222014476
 30
0.0
 10
396.1590818463205
 20
467.9779280519658
 30
0.0
 10
396.1220200985717
 20
467.8795773173259
 30
0.0
 10
396.0565235963685
 20
467.8127465097983
 30
0.0
 10
395.9686176969467
 20
467.7483771760312
 30
0.0
 10
395.8855424211531
 20
467.7405849799463
 30
0.0
 10
395.8315112797635
 20
467.7262685607259
 30
0.0
 10
395.8180034879502
 20
467.7226894542076
 30
0.0
 11
395.91990141168
 21
468.2215775754724
 31
0.0
 11
396.1338872272925
 21
468.170670488844
 31
0.0
 11
396.1746465139711
 21
468.0790380648363
 31
0.0
 11
396.1542671635985
 21
467.9670428061772
 31
0.0
 11
396.123697845073
 21
467.8957728848975
 31
0.0
 11
396.0421792717157
 21
467.8041404608896
 31
0.0
 11
395.9810406346646
 21
467.763414791587
 31
0.0
 11
395.8587627746288
 21
467.7328708715333
 31
0.0
 11
395.8180034879502
 21
467.7226894542076
 31
0.0
  0
LINE
  5
10002F8B
102
{ACAD_REACTORS
330
10002F83
102
}
330
F6
100
AcDbEntity
  8
ROGO
 62
     4
100
AcDbLine
 10
395.3399199843979
 20
468.2215775754725
 30
0.0
 11
395.1142088467443
 21
467.7226894542077
 31
0.0
  0
LINE
  5
10002F8C
102
{ACAD_REACTORS
330
10002F83
102
}
330
F6
100
AcDbEntity
  8
ROGO
 62
     4
100
AcDbLine
 10
396.0931285269889
 20
467.0710804049809
 30
0.0
 11
394.8194024291585
 21
467.0710804049809
 31
0.0
  0
SPLINE
  5
10002F8D
102
{ACAD_REACTORS
330
10002F83
102
}
330
F6
100
AcDbEntity
  8
ROGO
 62
     4
100
AcDbSpline
210
0.0
220
0.0
230
1.0
 70
     8
 71
     3
 72
    18
 73
    14
 74
     0
 42
0.0000000001
 43
0.0000000001
 40
0.1087402787915014
 40
0.1087402787915014
 40
0.1087402787915014
 40
0.1087402787915014
 40
0.5992371417938475
 40
1.083176791562496
 40
1.448211145705696
 40
1.714037220764907
 40
2.164002567013297
 40
2.740236056362883
 40
3.395137510199602
 40
4.071816045172726
 40
4.784906178399433
 40
5.506895915094292
 40
6.060470601257719
 40
6.060470601257719
 40
6.060470601257719
 40
6.060470601257719
 10
396.7332934953197
 20
468.9470017343488
 30
0.0
 10
396.8070928347998
 20
468.9199555131377
 30
0.0
 10
396.9522184745864
 20
468.8627756684017
 30
0.0
 10
397.1293402396537
 20
468.7322723686996
 30
0.0
 10
397.2259348024033
 20
468.5816169727386
 30
0.0
 10
397.3188479574648
 20
468.4331730551631
 30
0.0
 10
397.3318509839089
 20
468.2202051492253
 30
0.0
 10
397.3105511481273
 20
467.9509620984085
 30
0.0
 10
397.17304133259
 20
467.6700347590932
 30
0.0
 10
396.9523299910452
 20
467.4243247150906
 30
0.0
 10
396.6783014580553
 20
467.2276616003167
 30
0.0
 10
396.389328917902
 20
467.0732861196091
 30
0.0
 10
396.1827712649683
 20
467.071747947311
 30
0.0
 10
396.0931285265473
 20
467.0710804049808
 30
0.0
  0
LINE
  5
10002F8E
102
{ACAD_REACTORS
330
10002F83
102
}
330
F6
100
AcDbEntity
  8
ROGO
 62
     4
100
AcDbLine
 10
394.4297244767696
 20
468.9470017343487
 30
0.0
 11
396.7332934953197
 21
468.9470017343487
 31
0.0
  0
LINE
  5
10002F8F
330
F6
100
AcDbEntity
  8
握り
100
AcDbLine
 10
389.8285777534683
 20
481.5751554438881
 30
0.0
 11
397.175277921184
 21
481.5751554438881
 31
0.0
  0
LINE
  5
10002F90
330
F6
100
AcDbEntity
  8
握り
100
AcDbLine
 10
389.8285777534685
 20
474.028455443888
 30
0.0
 11
397.1752779211842
 21
474.0284554438881
 31
0.0
  0
LINE
  5
10002F91
330
F6
100
AcDbEntity
  8
握り
100
AcDbLine
 10
389.8285777534683
 20
481.5751554438881
 30
0.0
 11
389.8285777534683
 21
474.0284554438881
 31
0.0
  0
LINE
  5
10002F92
330
F6
100
AcDbEntity
  8
握り
100
AcDbLine
 10
397.175277921184
 20
481.5751554438881
 30
0.0
 11
397.1752779211841
 21
474.028455443888
 31
0.0
  0
HATCH
  5
10002F93
330
F6
100
AcDbEntity
  8
ROGO
 62
     4
100
AcDbHatch
 10
0.0
 20
0.0
 30
0.0
210
0.0
220
0.0
230
1.0
  2
SOLID
 70
     1
 71
     1
 91
        2
 92
        7
 72
     0
 73
     1
 93
        8
 10
402.8670147662606
 20
468.9470017343487
 10
401.3664383623014
 20
468.9470017343487
 10
400.0136750335884
 20
467.0710804049809
 10
401.052599678862
 20
467.0710804049809
 10
401.3101574468348
 20
467.4282442193963
 10
402.4956960022409
 20
467.4282442193963
 10
402.654362320911
 20
467.071080404981
 10
403.7003733525226
 20
467.071080404981
 97
        8
330
10002F98
330
10002F9E
330
10002F99
330
10002F9A
330
10002F9C
330
10002F96
330
10002F95
330
10002F94
 92
       22
 72
     0
 73
     1
 93
        3
 10
402.3283458513831
 20
467.8049556646763
 10
401.5818113913278
 20
467.8049556646764
 10
402.0437638717753
 20
468.4455603387034
 97
        3
330
10002F9B
330
10002F9D
330
10002F97
 75
     0
 76
     1
 47
0.0128389261915577
 98
        2
 10
402.749507776981
 20
468.4969418531929
 10
402.749507776981
 20
468.4969418531929
450
        0
451
        0
460
0.0
461
0.0
452
        0
462
0.0
453
        0
470

  0
LINE
  5
10002F94
102
{ACAD_REACTORS
330
10002F93
102
}
330
F6
100
AcDbEntity
  8
ROGO
 62
     4
100
AcDbLine
 10
402.8670147662606
 20
468.9470017343487
 30
0.0
 11
403.7003733525225
 21
467.0710804049809
 31
0.0
  0
LINE
  5
10002F95
102
{ACAD_REACTORS
330
10002F93
102
}
330
F6
100
AcDbEntity
  8
ROGO
 62
     4
100
AcDbLine
 10
403.7003733525225
 20
467.071080404981
 30
0.0
 11
402.6543623209109
 21
467.0710804049809
 31
0.0
  0
LINE
  5
10002F96
102
{ACAD_REACTORS
330
10002F93
102
}
330
F6
100
AcDbEntity
  8
ROGO
 62
     4
100
AcDbLine
 10
402.495696002241
 20
467.4282442193963
 30
0.0
 11
402.6543623209109
 21
467.0710804049809
 31
0.0
  0
LINE
  5
10002F97
102
{ACAD_REACTORS
330
10002F93
102
}
330
F6
100
AcDbEntity
  8
ROGO
 62
     4
100
AcDbLine
 10
402.0437638717754
 20
468.4455603387034
 30
0.0
 11
402.328345851383
 21
467.8049556646763
 31
0.0
  0
LINE
  5
10002F98
102
{ACAD_REACTORS
330
10002F93
102
}
330
F6
100
AcDbEntity
  8
ROGO
 62
     4
100
AcDbLine
 10
401.3664383623014
 20
468.9470017343487
 30
0.0
 11
402.8670147662606
 21
468.9470017343487
 31
0.0
  0
LINE
  5
10002F99
102
{ACAD_REACTORS
330
10002F93
102
}
330
F6
100
AcDbEntity
  8
ROGO
 62
     4
100
AcDbLine
 10
400.0136750335884
 20
467.0710804049809
 30
0.0
 11
401.052599678862
 21
467.0710804049809
 31
0.0
  0
LINE
  5
10002F9A
102
{ACAD_REACTORS
330
10002F93
102
}
330
F6
100
AcDbEntity
  8
ROGO
 62
     4
100
AcDbLine
 10
401.3101574468348
 20
467.4282442193963
 30
0.0
 11
401.052599678862
 21
467.071080404981
 31
0.0
  0
LINE
  5
10002F9B
102
{ACAD_REACTORS
330
10002F93
102
}
330
F6
100
AcDbEntity
  8
ROGO
 62
     4
100
AcDbLine
 10
401.5818113913279
 20
467.8049556646763
 30
0.0
 11
402.328345851383
 21
467.8049556646763
 31
0.0
  0
LINE
  5
10002F9C
102
{ACAD_REACTORS
330
10002F93
102
}
330
F6
100
AcDbEntity
  8
ROGO
 62
     4
100
AcDbLine
 10
401.3101574468348
 20
467.4282442193963
 30
0.0
 11
402.495696002241
 21
467.4282442193963
 31
0.0
  0
LINE
  5
10002F9D
102
{ACAD_REACTORS
330
10002F93
102
}
330
F6
100
AcDbEntity
  8
ROGO
 62
     4
100
AcDbLine
 10
402.0437638717752
 20
468.4455603387033
 30
0.0
 11
401.5818113913278
 21
467.8049556646763
 31
0.0
  0
LINE
  5
10002F9E
102
{ACAD_REACTORS
330
10002F93
102
}
330
F6
100
AcDbEntity
  8
ROGO
 62
     4
100
AcDbLine
 10
401.3664383623014
 20
468.9470017343487
 30
0.0
 11
400.0136750335884
 21
467.0710804049809
 31
0.0
  0
LINE
  5
10002F9F
102
{ACAD_REACTORS
330
10002F7D
102
}
330
F6
100
AcDbEntity
  8
ROGO
 62
     4
100
AcDbLine
 10
399.9158677119459
 20
467.5007764049809
 30
0.0
 11
399.7032581273618
 21
467.0710804049809
 31
0.0
  0
LINE
  5
10002FA0
102
{ACAD_REACTORS
330
10002F7D
102
}
330
F6
100
AcDbEntity
  8
ROGO
 62
     4
100
AcDbLine
 10
400.2525836380033
 20
468.1812983430969
 30
0.0
 11
400.0821173871121
 21
467.8367764049808
 31
0.0
  0
LINE
  5
10002FA1
102
{ACAD_REACTORS
330
10002F7D
102
}
330
F6
100
AcDbEntity
  8
ROGO
 62
     4
100
AcDbLine
 10
398.7485967839436
 20
467.8367764049808
 30
0.0
 11
400.0821173871121
 21
467.8367764049809
 31
0.0
  0
LINE
  5
10002FA2
102
{ACAD_REACTORS
330
10002F7D
102
}
330
F6
100
AcDbEntity
  8
ROGO
 62
     4
100
AcDbLine
 10
398.9190630348346
 20
468.1812983430969
 30
0.0
 11
400.2525836380033
 21
468.1812983430969
 31
0.0
  0
LINE
  5
10002FA3
102
{ACAD_REACTORS
330
10002F7D
102
}
330
F6
100
AcDbEntity
  8
ROGO
 62
     4
100
AcDbLine
 10
399.0853056720869
 20
468.5172841190743
 30
0.0
 11
400.4188262752554
 21
468.5172841190743
 31
0.0
  0
LINE
  5
10002FA4
102
{ACAD_REACTORS
330
10002F7D
102
}
330
F6
100
AcDbEntity
  8
ROGO
 62
     4
100
AcDbLine
 10
399.0853056720869
 20
468.5172841190743
 30
0.0
 11
398.9190630348346
 21
468.1812983430969
 31
0.0
  0
LINE
  5
10002FA5
102
{ACAD_REACTORS
330
10002F7D
102
}
330
F6
100
AcDbEntity
  8
ROGO
 62
     4
100
AcDbLine
 10
400.6314465548762
 20
468.9470017343487
 30
0.0
 11
400.4188262752554
 21
468.5172841190743
 31
0.0
  0
HATCH
  5
10002FA6
330
F6
100
AcDbEntity
  8
ROGO
 62
     4
100
AcDbHatch
 10
0.0
 20
0.0
 30
0.0
210
0.0
220
0.0
230
1.0
  2
SOLID
 70
     1
 71
     1
 91
        1
 92
        5
 93
        8
 72
     1
 10
406.4172384989212
 20
468.249037374039
 11
406.765266071122
 21
468.9470017343487
 72
     1
 10
406.765266071122
 20
468.9470017343487
 11
404.8866427252563
 21
468.9470017343488
 72
     4
 94
        3
 73
     0
 74
     0
 95
       26
 96
       22
 40
0.0
 40
0.0
 40
0.0
 40
0.0
 40
0.3403136209417982
 40
0.5681272389515159
 40
0.7323994099697078
 40
0.8550561247337057
 40
1.014148321321447
 40
1.13027011535643
 40
1.339959009791999
 40
1.510642755247373
 40
1.626735051276186
 40
1.740569491433665
 40
1.944197174100541
 40
2.088186249714737
 40
2.16573549158295
 40
2.275891898886404
 40
2.355438312276705
 40
2.470674802865115
 40
2.535888688806235
 40
2.677801419664453
 40
2.742600005358966
 40
2.742600005358966
 40
2.742600005358966
 40
2.742600005358966
 10
404.8866427252559
 20
468.9470017343487
 10
404.7711350241721
 20
468.9401103468272
 10
404.5783038612208
 20
468.9286057089748
 10
404.3665764173468
 20
468.7999835606055
 10
404.2114524967607
 20
468.7252082958307
 10
404.1008183047262
 20
468.6235576938027
 10
404.0197229934868
 20
468.5185600473438
 10
403.9174871296333
 20
468.39345612145
 10
403.8341167040533
 20
468.2477776622152
 10
403.7916612147204
 20
468.0872146035532
 10
403.754054545215
 20
467.9592449141835
 10
403.7261648095393
 20
467.8166393957657
 10
403.7332607478433
 20
467.6625752698766
 10
403.74342245625
 20
467.519488397014
 10
403.7887920132842
 20
467.4173457928332
 10
403.8404599024127
 20
467.3446272972197
 10
403.9037265250626
 20
467.2645359362215
 10
403.9729540455162
 20
467.2114916871784
 10
404.030210855674
 20
467.1153984655489
 10
404.1304369703349
 20
467.1031362774402
 10
404.1941446761573
 20
467.0787308633301
 10
404.2141153739595
 20
467.0710804049808
 72
     1
 10
404.2141153739592
 20
467.0710804049809
 11
405.8298711096802
 21
467.0710804049809
 72
     1
 10
405.8298711096802
 20
467.0710804049809
 11
406.1778949963643
 21
467.7690373740388
 72
     1
 10
406.1778949963643
 20
467.7690373740388
 11
404.9783506808328
 21
467.7690373740389
 72
     4
 94
        3
 73
     0
 74
     0
 95
       16
 96
       12
 40
0.0
 40
0.0
 40
0.0
 40
0.0
 40
0.1027738093189234
 40
0.2066076558227377
 40
0.2685398785587465
 40
0.3279201337292418
 40
0.3931337605655129
 40
0.4386740937218573
 40
0.4818879174818138
 40
0.5695193478876036
 40
0.7489346372632694
 40
0.7489346372632694
 40
0.7489346372632694
 40
0.7489346372632694
 10
404.9783506808327
 20
467.7690373740388
 10
404.942168197016
 20
467.7796827913083
 10
404.8694300333458
 20
467.8010834255931
 10
404.8633424364206
 20
467.9048258386463
 10
404.8716359065089
 20
467.9787507971594
 10
404.9063689777621
 20
468.0325724838967
 10
404.9485062175632
 20
468.0717348425191
 10
404.9641957807794
 20
468.1227376913509
 10
405.0103138223856
 20
468.1612512232315
 10
405.0920934672296
 20
468.2259870903394
 10
405.1825275975317
 20
468.2397743836046
 10
405.2432857512767
 20
468.2490373740389
 72
     1
 10
405.2432857512766
 20
468.249037374039
 11
406.4172384989212
 21
468.249037374039
 97
        8
330
10002FA7
330
10002FAA
330
10002FAE
330
10002FA8
330
10002FAB
330
10002FA9
330
10002FAC
330
10002FAD
 75
     0
 76
     1
 47
0.0514683685270805
 98
        1
 10
405.5436668641228
 20
468.5293996538531
450
        0
451
        0
460
0.0
461
0.0
452
        0
462
0.0
453
        0
470

  0
LINE
  5
10002FA7
102
{ACAD_REACTORS
330
10002FA6
102
}
330
F6
100
AcDbEntity
  8
ROGO
 62
     4
100
AcDbLine
 10
404.8866427252565
 20
468.9470017343488
 30
0.0
 11
406.765266071122
 21
468.9470017343488
 31
0.0
  0
LINE
  5
10002FA8
102
{ACAD_REACTORS
330
10002FA6
102
}
330
F6
100
AcDbEntity
  8
ROGO
 62
     4
100
AcDbLine
 10
406.1778949963643
 20
467.7690373740388
 30
0.0
 11
405.8298711096802
 21
467.0710804049808
 31
0.0
  0
SPLINE
  5
10002FA9
102
{ACAD_REACTORS
330
10002FA6
102
}
330
F6
100
AcDbEntity
  8
ROGO
 62
     4
100
AcDbSpline
210
0.0
220
0.0
230
1.0
 70
     8
 71
     3
 72
    16
 73
    12
 74
    10
 42
0.0000000001
 43
0.0000000001
 44
0.0000000001
 40
0.0
 40
0.0
 40
0.0
 40
0.0
 40
0.1794152893756658
 40
0.2670467197814556
 40
0.3102605435414121
 40
0.3558008766977565
 40
0.4210145035340276
 40
0.4803947587045229
 40
0.5423269814405317
 40
0.646160827944346
 40
0.7489346372632694
 40
0.7489346372632694
 40
0.7489346372632694
 40
0.7489346372632694
 10
405.2432857512767
 20
468.2490373740389
 30
0.0
 10
405.1825275975317
 20
468.2397743836046
 30
0.0
 10
405.0920934672297
 20
468.2259870903394
 30
0.0
 10
405.0103138223855
 20
468.1612512232316
 30
0.0
 10
404.9641957807795
 20
468.1227376913508
 30
0.0
 10
404.9485062175632
 20
468.0717348425191
 30
0.0
 10
404.906368977762
 20
468.0325724838967
 30
0.0
 10
404.8716359065089
 20
467.9787507971593
 30
0.0
 10
404.8633424364206
 20
467.9048258386464
 30
0.0
 10
404.8694300333458
 20
467.8010834255929
 30
0.0
 10
404.9421681970159
 20
467.7796827913082
 30
0.0
 10
404.9783506808327
 20
467.7690373740388
 30
0.0
 11
405.2432857512767
 21
468.2490373740389
 31
0.0
 11
405.0700592223427
 21
468.2023210413997
 31
0.0
 11
404.9987306171386
 21
468.1514142866947
 31
0.0
 11
404.968161298613
 21
468.1208700347176
 31
0.0
 11
404.9477813623071
 21
468.0801443654148
 31
0.0
 11
404.9070220756284
 21
468.0292376107098
 31
0.0
 11
404.8764527571028
 21
467.9783305240815
 31
0.0
 11
404.8662627889498
 21
467.9172423520506
 31
0.0
 11
404.8866427252558
 21
467.815428178794
 31
0.0
 11
404.9783506808327
 21
467.7690373740388
 31
0.0
  0
SPLINE
  5
10002FAA
102
{ACAD_REACTORS
330
10002FA6
102
}
330
F6
100
AcDbEntity
  8
ROGO
 62
     4
100
AcDbSpline
210
0.0
220
0.0
230
1.0
 70
     8
 71
     3
 72
    26
 73
    22
 74
    20
 42
0.0000000001
 43
0.0000000001
 44
0.0000000001
 40
0.0
 40
0.0
 40
0.0
 40
0.0
 40
0.3403136209417982
 40
0.5681272389515159
 40
0.7323994099697078
 40
0.8550561247337057
 40
1.014148321321447
 40
1.13027011535643
 40
1.339959009791999
 40
1.510642755247373
 40
1.626735051276186
 40
1.740569491433665
 40
1.944197174100541
 40
2.088186249714737
 40
2.16573549158295
 40
2.275891898886404
 40
2.355438312276705
 40
2.470674802865115
 40
2.535888688806235
 40
2.677801419664453
 40
2.742600005358966
 40
2.742600005358966
 40
2.742600005358966
 40
2.742600005358966
 10
404.8866427252559
 20
468.9470017343487
 30
0.0
 10
404.7711350241721
 20
468.9401103468271
 30
0.0
 10
404.5783038612207
 20
468.9286057089747
 30
0.0
 10
404.3665764173469
 20
468.7999835606056
 30
0.0
 10
404.2114524967607
 20
468.7252082958305
 30
0.0
 10
404.1008183047263
 20
468.6235576938029
 30
0.0
 10
404.0197229934868
 20
468.5185600473437
 30
0.0
 10
403.9174871296332
 20
468.39345612145
 30
0.0
 10
403.8341167040533
 20
468.2477776622152
 30
0.0
 10
403.7916612147204
 20
468.0872146035532
 30
0.0
 10
403.754054545215
 20
467.9592449141835
 30
0.0
 10
403.7261648095393
 20
467.8166393957657
 30
0.0
 10
403.7332607478435
 20
467.6625752698766
 30
0.0
 10
403.7434224562497
 20
467.5194883970139
 30
0.0
 10
403.7887920132844
 20
467.4173457928334
 30
0.0
 10
403.8404599024127
 20
467.3446272972197
 30
0.0
 10
403.9037265250626
 20
467.2645359362217
 30
0.0
 10
403.9729540455162
 20
467.2114916871784
 30
0.0
 10
404.030210855674
 20
467.115398465549
 30
0.0
 10
404.1304369703347
 20
467.10313627744
 30
0.0
 10
404.1941446761573
 20
467.0787308633302
 30
0.0
 10
404.2141153739595
 20
467.0710804049808
 30
0.0
 11
404.8866427252559
 21
468.9470017343487
 31
0.0
 11
404.5503790496075
 21
468.8946557599291
 31
0.0
 11
404.3465826162147
 21
468.7928419185957
 31
0.0
 11
404.2039254058064
 21
468.7113909119136
 31
0.0
 11
404.1122174502295
 21
468.6299395733081
 31
0.0
 11
404.0103195264999
 21
468.5077628973234
 31
0.0
 11
403.9389909212958
 21
468.4161304733156
 31
0.0
 11
403.8370924116326
 21
468.2328652933768
 31
0.0
 11
403.7861437427343
 21
468.0699629480892
 31
0.0
 11
403.7555744242088
 21
467.95796768943
 31
0.0
 11
403.7351944879027
 21
467.8459724307709
 31
0.0
 11
403.7351944879027
 21
467.6423447481041
 31
0.0
 11
403.7555744242088
 21
467.499805237468
 31
0.0
 11
403.7861437427343
 21
467.4285353161882
 31
0.0
 11
403.8472823797854
 21
467.3369028921804
 31
0.0
 11
403.8982316346171
 21
467.2758143882263
 31
0.0
 11
403.9797496220408
 21
467.1943633815442
 31
0.0
 11
404.0205089087194
 21
467.1434562949158
 31
0.0
 11
404.1529767369082
 21
467.0925495402108
 31
0.0
 11
404.2141153739595
 21
467.0710804049808
 31
0.0
  0
LINE
  5
10002FAB
102
{ACAD_REACTORS
330
10002FA6
102
}
330
F6
100
AcDbEntity
  8
ROGO
 62
     4
100
AcDbLine
 10
404.9783506808326
 20
467.7690373740388
 30
0.0
 11
406.1778949963644
 21
467.7690373740388
 31
0.0
  0
LINE
  5
10002FAC
102
{ACAD_REACTORS
330
10002FA6
102
}
330
F6
100
AcDbEntity
  8
ROGO
 62
     4
100
AcDbLine
 10
405.2432857512766
 20
468.2490373740389
 30
0.0
 11
406.4172384989211
 21
468.249037374039
 31
0.0
  0
LINE
  5
10002FAD
102
{ACAD_REACTORS
330
10002FA6
102
}
330
F6
100
AcDbEntity
  8
ROGO
 62
     4
100
AcDbLine
 10
406.7652660711219
 20
468.9470017343487
 30
0.0
 11
406.4172384989211
 21
468.2490373740389
 31
0.0
  0
LINE
  5
10002FAE
102
{ACAD_REACTORS
330
10002FA6
102
}
330
F6
100
AcDbEntity
  8
ROGO
 62
     4
100
AcDbLine
 10
404.2141153739593
 20
467.0710804049809
 30
0.0
 11
405.8298711096802
 21
467.0710804049809
 31
0.0
  0
LINE
  5
10002FAF
330
F6
100
AcDbEntity
  8
握り
100
AcDbLine
 10
399.8285777534683
 20
481.5751554438881
 30
0.0
 11
407.1752779211839
 21
481.5751554438881
 31
0.0
  0
LINE
  5
10002FB0
330
F6
100
AcDbEntity
  8
握り
100
AcDbLine
 10
399.8285777534684
 20
474.0284554438881
 30
0.0
 11
407.1752779211841
 21
474.0284554438881
 31
0.0
  0
LINE
  5
10002FB1
330
F6
100
AcDbEntity
  8
握り
100
AcDbLine
 10
399.8285777534683
 20
481.5751554438881
 30
0.0
 11
399.8285777534684
 21
474.028455443888
 31
0.0
  0
LINE
  5
10002FB2
330
F6
100
AcDbEntity
  8
握り
100
AcDbLine
 10
407.1752779211839
 20
481.5751554438881
 30
0.0
 11
407.175277921184
 21
474.028455443888
 31
0.0
  0
LINE
  5
10002FB3
330
F6
100
AcDbEntity
  8
針
  6
Continuous
100
AcDbLine
 10
350.4041742707686
 20
554.3198044937342
 30
0.0
 11
331.4621432838913
 21
564.6829911765564
 31
0.0
  0
HATCH
  5
10002FB4
330
F6
100
AcDbEntity
  8
ﾊｯﾁﾝｸ
  6
Continuous
100
AcDbHatch
 10
0.0
 20
0.0
 30
0.0
210
0.0
220
0.0
230
1.0
  2
SOLID
 70
     1
 71
     0
 91
        1
 92
        1
 93
        3
 72
     1
 10
350.4041742707686
 20
554.3198044937342
 11
331.4621432838915
 21
564.6829911765563
 72
     2
 10
330.4875974157334
 20
565.823280767343
 40
1.499999999999999
 50
-409.4812206344872
 51
-370.5387793655085
 73
     1
 72
     1
 10
331.9622944262222
 20
565.5489293006882
 11
350.4041742707678
 21
554.3198044937347
 97
        0
 75
     0
 76
     1
 98
        1
 10
456.6426639857734
 20
755.739644893816
450
        0
451
        0
460
0.0
461
0.0
452
        0
462
0.0
453
        0
470

  0
LINE
  5
10002FB5
330
F6
100
AcDbEntity
  8
針
  6
Continuous
100
AcDbLine
 10
350.4041742707677
 20
554.3198044937346
 30
0.0
 11
331.9622944262222
 21
565.5489293006882
 31
0.0
  0
LINE
  5
10002FB6
330
F6
100
AcDbEntity
  8
目盛
100
AcDbLine
 10
336.4365578876644
 20
543.6059481348378
 30
0.0
 11
335.6606065217603
 21
546.5038610869039
 31
0.0
  0
CIRCLE
  5
10002FB7
330
F6
100
AcDbEntity
  8
外形線
100
AcDbCircle
 10
330.4875974157336
 20
565.8232807673434
 30
0.0
 40
15.5
  0
LINE
  5
10002FB8
330
F6
100
AcDbEntity
  8
中心線
 48
0.5
100
AcDbLine
 10
307.3878380573309
 20
579.1653091510152
 30
0.0
 11
353.9282367086557
 21
552.2843659273579
 31
0.0
  0
CIRCLE
  5
10002FB9
330
F6
100
AcDbEntity
  8
外形線
100
AcDbCircle
 10
330.4875974157336
 20
565.8232807673434
 30
0.0
 40
23.0
  0
CIRCLE
  5
10002FBA
330
F6
100
AcDbEntity
  8
外形線
100
AcDbCircle
 10
337.7476966277723
 20
558.2591606701976
 30
0.0
 40
4.75
  0
LINE
  5
10002FBB
330
F6
100
AcDbEntity
  8
中心線
 48
0.2
100
AcDbLine
 10
334.2670071932348
 20
552.2328589695101
 30
0.0
 11
341.5331967111097
 21
564.8131971676264
 31
0.0
  0
LINE
  5
10002FBC
330
F6
100
AcDbEntity
  8
中心線
 48
0.2
100
AcDbLine
 10
330.9386455459438
 20
562.1919528430557
 30
0.0
 11
344.5248631617774
 21
554.344784470228
 31
0.0
  0
TEXT
  5
10002FBD
330
F6
100
AcDbEntity
  8
文字
100
AcDbText
 10
334.0024977441633
 20
571.1471382385245
 30
0.0
 40
1.0
  1
0.01mm
 50
59.99000000000019
  7
STYLE3
100
AcDbText
  0
TEXT
  5
10002FBE
330
F6
100
AcDbEntity
  8
文字
100
AcDbText
 10
336.4700264079778
 20
560.796891040131
 30
0.0
 40
0.7
  1
8
 50
59.99000000000019
  7
STYLE3
100
AcDbText
  0
LINE
  5
10002FBF
330
F6
100
AcDbEntity
  8
目盛
100
AcDbLine
 10
335.8164549604492
 20
562.5988387253531
 30
0.0
 11
336.0197435570096
 21
562.142030509021
 31
0.0
  0
LINE
  5
10002FC0
330
F6
100
AcDbEntity
  8
中心線
 48
0.2
100
AcDbLine
 10
335.2008979106118
 20
554.2496324817106
 30
0.0
 11
337.0081002553643
 21
557.3785374784058
 31
0.0
  0
LINE
  5
10002FC1
330
F6
100
AcDbEntity
  8
中心線
 48
0.2
100
AcDbLine
 10
335.5472731602646
 20
554.0495720247784
 30
0.0
 11
337.354475505017
 21
557.1784770214736
 31
0.0
  0
HATCH
  5
10002FC2
330
F6
100
AcDbEntity
  8
ﾊｯﾁﾝｸ
100
AcDbHatch
 10
0.0
 20
0.0
 30
0.0
210
0.0
220
0.0
230
1.0
  2
SOLID
 70
     1
 71
     0
 91
        3
 92
        7
 72
     1
 73
     1
 93
        5
 10
335.2008979106118
 20
554.2496324817106
 42
0.0105298176880202
 10
335.3719787017007
 20
554.1459545805706
 42
0.0
 10
335.622054272866
 20
554.5789236426365
 42
0.0
 10
337.1725228140917
 20
557.2633318274456
 42
-0.0437283108272093
 10
337.0081002553643
 20
557.3785374784058
 42
0.0
 97
        0
 92
        7
 72
     1
 73
     1
 93
        4
 10
335.3719787017007
 20
554.1459545805707
 42
0.0105298176880232
 10
335.5472731602646
 20
554.0495720247784
 42
0.0
 10
337.354475505017
 20
557.1784770214736
 42
-0.0437283108272093
 10
337.1725228140917
 20
557.2633318274456
 42
0.0
 97
        0
 92
      137
 93
        4
 72
     1
 10
336.8723408103597
 20
555.5569309712848
 11
335.8620796655391
 21
556.1404406373375
 72
     1
 10
335.8620796655388
 20
556.1404406373375
 11
335.1118529520427
 21
554.8415334511395
 72
     1
 10
335.1118529520426
 20
554.8415334511396
 11
336.1221140968631
 21
554.2580237850869
 72
     1
 10
336.1221140968632
 20
554.2580237850869
 11
336.8723408103593
 21
555.5569309712849
 97
        0
 75
     0
 76
     1
 47
0.0128177587452554
 98
        3
 10
336.776785301407
 20
556.8754857784548
 10
336.2408196791577
 20
555.793646506776
 10
336.4219830099205
 20
555.7482184570887
450
        0
451
        0
460
0.0
461
0.0
452
        0
462
0.0
453
        0
470

  0
LINE
  5
10002FC3
330
F6
100
AcDbEntity
  8
外形線
100
AcDbLine
 10
333.8628766598014
 20
512.6849096359424
 30
0.0
 11
338.620976262948
 21
509.9367121775805
 31
0.0
  0
ARC
  5
10002FC4
330
F6
100
AcDbEntity
  8
外形線
  6
Continuous
100
AcDbCircle
 10
261.7203605634076
 20
446.7629267228993
 30
0.0
 40
105.6666666666664
100
AcDbArc
 50
46.30445317473807
 51
73.67554682526193
  0
LINE
  5
10002FC5
330
F6
100
AcDbEntity
  8
外形線
  6
Continuous
100
AcDbLine
 10
288.1697756475887
 20
542.5410882185266
 30
0.0
 11
331.4666818541867
 21
517.5335311019859
 31
0.0
  0
LINE
  5
10002FC6
330
F6
100
AcDbEntity
  8
外形線
  6
Continuous
100
AcDbLine
 10
287.7076889872999
 20
544.5402070039878
 30
0.0
 11
333.4292219414676
 21
518.1322266889205
 31
0.0
  0
LINE
  5
10002FC7
330
F6
100
AcDbEntity
  8
外形線
  6
Continuous
100
AcDbLine
 10
289.6082633281571
 20
547.8307718756893
 30
0.0
 11
335.3297962823245
 21
521.422791560622
 31
0.0
  0
LINE
  5
10002FC8
330
F6
100
AcDbEntity
  8
外形線
  6
Continuous
100
AcDbLine
 10
291.4207580727389
 20
548.1696860253844
 30
0.0
 11
334.717664279337
 21
523.1621289088434
 31
0.0
  0
LINE
  5
10002FC9
330
F6
100
AcDbEntity
  8
外形線
  6
Continuous
100
AcDbLine
 10
283.599747502484
 20
530.6299655698025
 30
0.0
 11
323.4329012125544
 21
507.6230130225849
 31
0.0
  0
LINE
  5
10002FCA
330
F6
100
AcDbEntity
  8
外形線
  6
Continuous
100
AcDbLine
 10
282.5509158874518
 20
531.8131613453647
 30
0.0
 11
324.9818839699177
 21
507.3057553711548
 31
0.0
  0
LINE
  5
10002FCB
330
F6
100
AcDbEntity
  8
外形線
  6
Continuous
100
AcDbLine
 10
281.2206463369146
 20
536.5078799655711
 30
0.0
 11
284.2514297713764
 21
534.7573509674133
 31
0.0
  0
HATCH
  5
10002FCC
330
F6
100
AcDbEntity
  8
ﾊｯﾁﾝｸ
  6
Continuous
100
AcDbHatch
 10
0.0
 20
0.0
 30
0.0
210
0.0
220
0.0
230
1.0
  2
ANSI37
 70
     0
 71
     0
 91
        1
 92
        7
 72
     0
 73
     1
 93
        4
 10
277.8755768187468
 20
542.7127578788442
 10
279.8761813880703
 20
546.176510375372
 10
285.0718101328618
 20
543.1756035213874
 10
283.0712055635389
 20
539.7118510248595
 97
        0
 75
     0
 76
     1
 52
-15.67000000000003
 41
10.0
 77
     0
 78
     2
 53
194.9900000000001
 43
508.4645720969582
 44
631.7995558720338
 45
-0.3233130691266873
 46
1.207463730027482
 79
     0
 53
104.99
 43
508.4645720969582
 44
631.7995558720338
 45
1.207463730027482
 46
0.3233130691266873
 79
     0
 47
0.1856754751158765
 98
        1
 10
280.6750712495235
 20
543.1131068596699
  0
LINE
  5
10002FCD
330
F6
100
AcDbEntity
  8
外形線
  6
Continuous
100
AcDbLine
 10
279.8761813880703
 20
546.176510375372
 30
0.0
 11
285.0718101328618
 21
543.1756035213874
 31
0.0
  0
LINE
  5
10002FCE
330
F6
100
AcDbEntity
  8
外形線
  6
Continuous
100
AcDbLine
 10
281.0706009942154
 20
536.2480985283316
 30
0.0
 11
285.0718101328618
 21
543.1756035213874
 31
0.0
  0
LINE
  5
10002FCF
330
F6
100
AcDbEntity
  8
外形線
  6
Continuous
100
AcDbLine
 10
270.396419785265
 20
542.7597692447063
 30
0.0
 11
276.025017592123
 21
539.508786819556
 31
0.0
  0
ARC
  5
10002FD0
330
F6
100
AcDbEntity
  8
外形線
  6
Continuous
100
AcDbCircle
 10
277.7413564095062
 20
542.7902813059057
 30
0.0
 40
7.344999999999885
100
AcDbArc
 50
119.7419853833782
 51
180.2380146166212
  0
LINE
  5
10002FD1
330
F6
100
AcDbEntity
  8
外形線
  6
Continuous
100
AcDbLine
 10
270.396419785265
 20
542.7597692447063
 30
0.0
 11
274.0975382385132
 21
549.1677113632831
 31
0.0
  0
LINE
  5
10002FD2
330
F6
100
AcDbEntity
  8
外形線
  6
Continuous
100
AcDbLine
 10
275.8749722494237
 20
539.2490053823163
 30
0.0
 11
279.8761813880703
 21
546.176510375372
 31
0.0
  0
LINE
  5
10002FD3
330
F6
100
AcDbEntity
  8
外形線
  6
Continuous
100
AcDbLine
 10
275.8749722494237
 20
539.2490053823163
 30
0.0
 11
281.0706009942154
 21
536.2480985283316
 31
0.0
  0
LINE
  5
10002FD4
330
F6
100
AcDbEntity
  8
外形線
  6
Continuous
100
AcDbLine
 10
274.0975382385132
 20
549.1677113632831
 30
0.0
 11
279.7261360453711
 21
545.9167289381326
 31
0.0
  0
LINE
  5
10002FD5
330
F6
100
AcDbEntity
  8
中心線
 48
0.3
100
AcDbLine
 10
296.880870130287
 20
517.8538086715309
 30
0.0
 11
288.7596269422478
 21
522.5445007018833
 31
0.0
  0
LINE
  5
10002FD6
330
F6
100
AcDbEntity
  8
外形線
100
AcDbLine
 10
290.5054468354825
 20
519.4453833604493
 30
0.0
 11
294.7026427652518
 21
521.1227378868222
 31
0.0
  0
CIRCLE
  5
10002FD7
330
F6
100
AcDbEntity
  8
外形線
100
AcDbCircle
 10
292.6449462029108
 20
520.300406334877
 30
0.0
 40
3.5
  0
LINE
  5
10002FD8
330
F6
100
AcDbEntity
  8
中心線
 48
0.3
100
AcDbLine
 10
289.7609711776331
 20
515.3072278492813
 30
0.0
 11
295.8679579900876
 21
525.8805770969327
 31
0.0
  0
LINE
  5
10002FD9
330
F6
100
AcDbEntity
  8
外形線
100
AcDbLine
 10
289.0366382539509
 20
527.4897098814417
 30
0.0
 11
284.3262418400206
 21
519.3310639687243
 31
0.0
  0
LINE
  5
10002FDA
330
F6
100
AcDbEntity
  8
外形線
100
AcDbLine
 10
293.441167353826
 20
518.3080450771508
 30
0.0
 11
291.9225797345434
 21
522.1079631472041
 31
0.0
  0
LINE
  5
10002FDB
330
F6
100
AcDbEntity
  8
外形線
  6
Continuous
100
AcDbLine
 10
290.3876076398758
 20
547.3806358475915
 30
0.0
 11
291.4207580727389
 21
548.1696860253844
 31
0.0
  0
LINE
  5
10002FDC
330
F6
100
AcDbEntity
  8
外形線
  6
Continuous
100
AcDbLine
 10
293.072015824685
 20
545.8301673063659
 30
0.0
 11
291.1714414838277
 21
542.5396024346645
 31
0.0
  0
LINE
  5
10002FDD
330
F6
100
AcDbEntity
  8
外形線
  6
Continuous
100
AcDbLine
 10
292.2060777005532
 20
546.3303184486967
 30
0.0
 11
290.305503359696
 21
543.0397535769952
 31
0.0
  0
LINE
  5
10002FDE
330
F6
100
AcDbEntity
  8
外形線
  6
Continuous
100
AcDbLine
 10
291.3401395764211
 20
546.8304695910277
 30
0.0
 11
289.4395652355639
 21
543.5399047193262
 31
0.0
  0
LINE
  5
10002FDF
330
F6
100
AcDbEntity
  8
外形線
100
AcDbLine
 10
288.6027447096545
 20
542.2910126473612
 30
0.0
 11
282.5509158874518
 21
531.8131613453647
 31
0.0
  0
POINT
  5
10002FE0
330
F6
100
AcDbEntity
  8
DEFPOINTS
  6
ByBlock
 62
     0
100
AcDbPoint
 10
283.599747502484
 20
530.6299655698025
 30
0.0
  0
LINE
  5
10002FE1
330
F6
100
AcDbEntity
  8
外形線
100
AcDbLine
 10
283.8498230736497
 20
531.0629346318684
 30
0.0
 11
283.599747502484
 21
530.6299655698025
 31
0.0
  0
LINE
  5
10002FE2
330
F6
100
AcDbEntity
  8
外形線
  6
Continuous
100
AcDbLine
 10
284.9217647901626
 20
542.9158220841479
 30
0.0
 11
287.9525482246246
 21
541.1652930859901
 31
0.0
  0
LINE
  5
10002FE3
330
F6
100
AcDbEntity
  8
外形線
  6
CENTER2
100
AcDbLine
 10
288.1697756475887
 20
542.5410882185266
 30
0.0
 11
288.9200023610848
 21
543.8399954047245
 31
0.0
  0
LINE
  5
10002FE4
330
F6
100
AcDbEntity
  8
外形線
  6
Continuous
100
AcDbLine
 10
289.6082633281571
 20
547.8307718756893
 30
0.0
 11
287.7076889872999
 21
544.5402070039878
 31
0.0
  0
LINE
  5
10002FE5
330
F6
100
AcDbEntity
  8
外形線
  6
Continuous
100
AcDbLine
 10
290.474201452289
 20
547.3306207333584
 30
0.0
 11
288.5736271114321
 21
544.0400558616568
 31
0.0
  0
LINE
  5
10002FE6
330
F6
100
AcDbEntity
  8
外形線
  6
Continuous
100
AcDbLine
 10
293.9379539488168
 20
545.3300161640351
 30
0.0
 11
292.0373796079598
 21
542.0394512923336
 31
0.0
  0
LINE
  5
10002FE7
330
F6
100
AcDbEntity
  8
目盛
100
AcDbLine
 10
313.3925806276906
 20
550.4362602300034
 30
0.0
 11
315.6223654261309
 21
552.4432629087868
 31
0.0
  0
LINE
  5
10002FE8
330
F6
100
AcDbEntity
  8
目盛
100
AcDbLine
 10
313.8843339815508
 20
549.9068853420241
 30
0.0
 11
315.3280960193058
 21
551.2909197268347
 31
0.0
  0
LINE
  5
10002FE9
330
F6
100
AcDbEntity
  8
目盛
100
AcDbLine
 10
314.3924727518843
 20
549.3932180147198
 30
0.0
 11
315.7920488096106
 21
550.8219191236435
 31
0.0
  0
TEXT
  5
10002FEA
330
F6
100
AcDbEntity
  8
文字
100
AcDbText
 10
321.3529700368405
 20
548.2014085327501
 30
0.0
 40
2.0
  1
.5
 50
59.99000000000019
  7
STYLE3
100
AcDbText
  0
LINE
  5
10002FEB
330
F6
100
AcDbEntity
  8
目盛
100
AcDbLine
 10
317.7562484168583
 20
546.6683139788357
 30
0.0
 11
318.8633222428472
 21
548.3339632647932
 31
0.0
  0
LINE
  5
10002FEC
330
F6
100
AcDbEntity
  8
目盛
100
AcDbLine
 10
317.1608585221084
 20
547.0776671347855
 30
0.0
 11
318.3197053824237
 21
548.7077204941384
 31
0.0
  0
LINE
  5
10002FED
330
F6
100
AcDbEntity
  8
外形線
100
AcDbLine
 10
311.2951986198595
 20
507.4238652944663
 30
0.0
 11
315.4781976352318
 21
509.1363170798928
 31
0.0
  0
LINE
  5
10002FEE
330
F6
100
AcDbEntity
  8
外形線
  6
Continuous
100
AcDbLine
 10
308.8365792161197
 20
532.3365191311158
 30
0.0
 11
310.7371535569769
 21
535.6270840028173
 31
0.0
  0
LINE
  5
10002FEF
330
F6
100
AcDbEntity
  8
外形線
  6
Continuous
100
AcDbLine
 10
307.9706410919879
 20
532.8366702734467
 30
0.0
 11
309.8712154328451
 21
536.1272351451481
 31
0.0
  0
LINE
  5
10002FF0
330
F6
100
AcDbEntity
  8
外形線
  6
Continuous
100
AcDbLine
 10
312.3003317126475
 20
530.3359145617926
 30
0.0
 11
314.2009060535048
 21
533.6264794334941
 31
0.0
  0
LINE
  5
10002FF1
330
F6
100
AcDbEntity
  8
外形線
  6
Continuous
100
AcDbLine
 10
309.7025173402518
 20
531.836367988785
 30
0.0
 11
311.603091681109
 21
535.1269328604866
 31
0.0
  0
LINE
  5
10002FF2
330
F6
100
AcDbEntity
  8
外形線
  6
Continuous
100
AcDbLine
 10
311.4343935885158
 20
530.8360657041233
 30
0.0
 11
313.3349679293726
 21
534.1266305758249
 31
0.0
  0
LINE
  5
10002FF3
330
F6
100
AcDbEntity
  8
外形線
  6
Continuous
100
AcDbLine
 10
310.5684554643839
 20
531.3362168464541
 30
0.0
 11
312.4690298052409
 21
534.6267817181556
 31
0.0
  0
LINE
  5
10002FF4
330
F6
100
AcDbEntity
  8
目盛
100
AcDbLine
 10
316.5786205096905
 20
547.5055199482055
 30
0.0
 11
317.7880967623898
 21
549.0983687150871
 31
0.0
  0
LINE
  5
10002FF5
330
F6
100
AcDbEntity
  8
目盛
100
AcDbLine
 10
316.010108978227
 20
547.9514501800236
 30
0.0
 11
317.8984770352932
 21
550.2825585175003
 31
0.0
  0
LINE
  5
10002FF6
330
F6
100
AcDbEntity
  8
目盛
100
AcDbLine
 10
315.4558849799636
 20
548.415017750939
 30
0.0
 11
316.762990409161
 21
549.9287797523655
 31
0.0
  0
LINE
  5
10002FF7
330
F6
100
AcDbEntity
  8
目盛
100
AcDbLine
 10
314.9164954670732
 20
548.8957651757269
 30
0.0
 11
316.2705043321742
 21
550.3677230532589
 31
0.0
  0
LINE
  5
10002FF8
330
F6
100
AcDbEntity
  8
外形線
100
AcDbLine
 10
326.5323525111431
 20
509.9901635559635
 30
0.0
 11
330.8620431318033
 21
507.4894078443096
 31
0.0
  0
LINE
  5
10002FF9
330
F6
100
AcDbEntity
  8
外形線
100
AcDbLine
 10
331.0337127921206
 20
517.7836066731513
 30
0.0
 11
324.9818839699177
 21
507.3057553711548
 31
0.0
  0
LINE
  5
10002FFA
330
F6
100
AcDbEntity
  8
外形線
100
AcDbLine
 10
323.6829767837196
 20
508.0559820846507
 30
0.0
 11
323.4329012125544
 21
507.6230130225848
 31
0.0
  0
LINE
  5
10002FFB
330
F6
100
AcDbEntity
  8
外形線
  6
CENTER2
100
AcDbLine
 10
331.4666818541867
 20
517.5335311019859
 30
0.0
 11
332.2169085676829
 21
518.8324382881837
 31
0.0
  0
LINE
  5
10002FFC
330
F6
100
AcDbEntity
  8
外形線
100
AcDbLine
 10
330.5335616497897
 20
516.9176685490191
 30
0.0
 11
334.8632522704499
 21
514.4169128373651
 31
0.0
  0
LINE
  5
10002FFD
330
F6
100
AcDbEntity
  8
外形線
100
AcDbLine
 10
334.8632522704499
 20
514.4169128373651
 30
0.0
 11
330.8620431318033
 21
507.4894078443096
 31
0.0
  0
LINE
  5
10002FFE
330
F6
100
AcDbEntity
  8
外形線
  6
Continuous
100
AcDbLine
 10
331.8660437857967
 20
523.4233961299452
 30
0.0
 11
329.9654694449397
 21
520.1328312582439
 31
0.0
  0
LINE
  5
10002FFF
330
F6
100
AcDbEntity
  8
外形線
  6
Continuous
100
AcDbLine
 10
332.7319819099289
 20
522.9232449876144
 30
0.0
 11
330.8314075690715
 21
519.6326801159131
 31
0.0
  0
LINE
  5
10003000
330
F6
100
AcDbEntity
  8
外形線
  6
Continuous
100
AcDbLine
 10
331.0001056616649
 20
523.9235472722762
 30
0.0
 11
329.0995313208076
 21
520.6329824005746
 31
0.0
  0
LINE
  5
10003001
330
F6
100
AcDbEntity
  8
外形線
  6
Continuous
100
AcDbLine
 10
334.5504519706059
 20
521.8729275887199
 30
0.0
 11
334.717664279337
 21
523.1621289088434
 31
0.0
  0
LINE
  5
10003002
330
F6
100
AcDbEntity
  8
外形線
  6
Continuous
100
AcDbLine
 10
333.5979200340606
 20
522.4230938452838
 30
0.0
 11
331.6973456932035
 21
519.1325289735823
 31
0.0
  0
LINE
  5
10003003
330
F6
100
AcDbEntity
  8
外形線
  6
Continuous
100
AcDbLine
 10
334.4638581581926
 20
521.9229427029528
 30
0.0
 11
332.5632838173357
 21
518.6323778312517
 31
0.0
  0
LINE
  5
10003004
330
F6
100
AcDbEntity
  8
外形線
  6
Continuous
100
AcDbLine
 10
335.3297962823245
 20
521.422791560622
 30
0.0
 11
333.4292219414676
 21
518.1322266889205
 31
0.0
  0
TEXT
  5
10003005
330
F6
100
AcDbEntity
  8
文字
100
AcDbText
 10
326.2495419341216
 20
546.570829186228
 30
0.0
 40
2.0
  1
.4
 50
59.99000000000019
  7
STYLE3
100
AcDbText
  0
LINE
  5
10003006
330
F6
100
AcDbEntity
  8
目盛
100
AcDbLine
 10
322.2413870697273
 20
544.3523698660936
 30
0.0
 11
323.3169797235542
 21
547.1529234619087
 31
0.0
  0
LINE
  5
10003007
330
F6
100
AcDbEntity
  8
目盛
100
AcDbLine
 10
320.2573928328046
 20
545.2236954756095
 30
0.0
 11
321.1469758400158
 21
547.0149637618472
 31
0.0
  0
LINE
  5
10003008
330
F6
100
AcDbEntity
  8
目盛
100
AcDbLine
 10
318.3642026159952
 20
546.2778644624989
 30
0.0
 11
319.4184108594507
 21
547.9774658803117
 31
0.0
  0
LINE
  5
10003009
330
F6
100
AcDbEntity
  8
目盛
100
AcDbLine
 10
318.9841211421247
 20
545.9067039123088
 30
0.0
 11
320.4845745691171
 21
548.5045182847046
 31
0.0
  0
LINE
  5
1000300A
330
F6
100
AcDbEntity
  8
目盛
100
AcDbLine
 10
319.6153922105044
 20
545.5551986189166
 30
0.0
 11
320.5608013587851
 21
547.3176405448668
 31
0.0
  0
LINE
  5
1000300B
330
F6
100
AcDbEntity
  8
目盛
100
AcDbLine
 10
321.5710384672375
 20
544.6219841910022
 30
0.0
 11
322.3463914192808
 21
546.4655751976405
 31
0.0
  0
LINE
  5
1000300C
330
F6
100
AcDbEntity
  8
目盛
100
AcDbLine
 10
320.9094894319203
 20
544.9125216359678
 30
0.0
 11
321.7423683870346
 21
546.730848516957
 31
0.0
  0
LINE
  5
1000300D
330
F6
100
AcDbEntity
  8
目盛
100
AcDbLine
 10
322.9198736862518
 20
544.1039447380301
 30
0.0
 11
323.5779366192499
 21
545.9925826536228
 31
0.0
  0
LINE
  5
1000300E
330
F6
100
AcDbEntity
  8
目盛
100
AcDbLine
 10
324.2985752534622
 20
543.671621581745
 30
0.0
 11
324.8367510936597
 21
545.5978528152756
 31
0.0
  0
LINE
  5
1000300F
330
F6
100
AcDbEntity
  8
目盛
100
AcDbLine
 10
324.9974295921538
 20
543.4881502042838
 30
0.0
 11
325.4748354898565
 21
545.4303354706367
 31
0.0
  0
LINE
  5
10003010
330
F6
100
AcDbEntity
  8
目盛
100
AcDbLine
 10
326.4106976360536
 20
543.1874929925287
 30
0.0
 11
326.7652106603736
 21
545.1558223642522
 31
0.0
  0
LINE
  5
10003011
330
F6
100
AcDbEntity
  8
目盛
100
AcDbLine
 10
323.6058287324345
 20
543.8769539724205
 30
0.0
 11
324.2042434005475
 21
545.7853302154573
 31
0.0
  0
LINE
  5
10003012
330
F6
100
AcDbEntity
  8
目盛
100
AcDbLine
 10
325.7017020636518
 20
543.3267209041352
 30
0.0
 11
326.3259492834886
 21
546.2610547993364
 31
0.0
  0
TEXT
  5
10003013
330
F6
100
AcDbEntity
  8
文字
100
AcDbText
 10
332.3551466910802
 20
546.0386081192463
 30
0.0
 40
2.0
  1
.3
 50
59.99000000000019
  7
STYLE3
100
AcDbText
  0
LINE
  5
10003014
330
F6
100
AcDbEntity
  8
目盛
100
AcDbLine
 10
330.7244344095837
 20
542.8245001857923
 30
0.0
 11
330.7038398883794
 21
544.8243941494053
 31
0.0
  0
LINE
  5
10003015
330
F6
100
AcDbEntity
  8
目盛
100
AcDbLine
 10
331.446726700762
 20
542.8432879254257
 30
0.0
 11
331.3633241542378
 21
544.8415481725489
 31
0.0
  0
LINE
  5
10003016
330
F6
100
AcDbEntity
  8
目盛
100
AcDbLine
 10
330.0019083888863
 20
542.8284094659167
 30
0.0
 11
330.0441422173081
 21
544.8279634921276
 31
0.0
  0
LINE
  5
10003017
330
F6
100
AcDbEntity
  8
目盛
100
AcDbLine
 10
328.5590068697096
 20
542.9042812580765
 30
0.0
 11
328.7267103954507
 21
544.8972377371434
 31
0.0
  0
LINE
  5
10003018
330
F6
100
AcDbEntity
  8
目盛
100
AcDbLine
 10
327.1237166163285
 20
543.0706038706049
 30
0.0
 11
327.4162279901897
 21
545.0490975137995
 31
0.0
  0
LINE
  5
10003019
330
F6
100
AcDbEntity
  8
目盛
100
AcDbLine
 10
327.8400553408256
 20
542.9761688938139
 30
0.0
 11
328.0702763908176
 21
544.9628742741207
 31
0.0
  0
LINE
  5
1000301A
330
F6
100
AcDbEntity
  8
目盛
100
AcDbLine
 10
329.2798616846202
 20
542.8550119078106
 30
0.0
 11
329.4373924321566
 21
545.850873063402
 31
0.0
  0
LINE
  5
1000301B
330
F6
100
AcDbEntity
  8
目盛
100
AcDbLine
 10
335.0297811145332
 20
543.2762506470291
 30
0.0
 11
334.6348086189855
 21
545.2368619618393
 31
0.0
  0
LINE
  5
1000301C
330
F6
100
AcDbEntity
  8
目盛
100
AcDbLine
 10
335.7357591521068
 20
543.4300496831776
 30
0.0
 11
335.2793972619874
 21
545.377287168757
 31
0.0
  0
LINE
  5
1000301D
330
F6
100
AcDbEntity
  8
目盛
100
AcDbLine
 10
332.1680724471329
 20
542.8847541435857
 30
0.0
 11
332.021944183533
 21
544.8794086326082
 31
0.0
  0
LINE
  5
1000301E
330
F6
100
AcDbEntity
  8
目盛
100
AcDbLine
 10
333.6050784174691
 20
543.0355359863474
 30
0.0
 11
333.3339931129704
 21
545.0170790107819
 31
0.0
  0
LINE
  5
1000301F
330
F6
100
AcDbEntity
  8
目盛
100
AcDbLine
 10
334.3193204900337
 20
543.1447028074741
 30
0.0
 11
333.986127179225
 21
545.1167530648542
 31
0.0
  0
LINE
  5
10003020
330
F6
100
AcDbEntity
  8
目盛
100
AcDbLine
 10
332.8877597675344
 20
542.9488579181221
 30
0.0
 11
332.5746951129516
 21
545.9324782897596
 31
0.0
  0
TEXT
  5
10003021
330
F6
100
AcDbEntity
  8
文字
100
AcDbText
 10
317.1540529613024
 20
552.0536661504277
 30
0.0
 40
2.0
  1
.6
 50
59.99000000000019
  7
STYLE3
100
AcDbText
  0
LINE
  5
10003022
330
F6
100
AcDbEntity
  8
目盛
100
AcDbLine
 10
317.9642664405961
 20
585.1148898574936
 30
0.0
 11
319.597744393875
 21
582.598593019648
 31
0.0
  0
LINE
  5
10003023
330
F6
100
AcDbEntity
  8
目盛
100
AcDbLine
 10
317.3644818630919
 20
584.7120032808443
 30
0.0
 11
318.5056223459305
 21
583.0695056709743
 31
0.0
  0
TEXT
  5
10003024
330
F6
100
AcDbEntity
  8
文字
100
AcDbText
 10
318.3548921351848
 20
577.1017534580144
 30
0.0
 40
2.0
  1
.1
 50
59.99000000000019
  7
STYLE3
100
AcDbText
  0
LINE
  5
10003025
330
F6
100
AcDbEntity
  8
目盛
100
AcDbLine
 10
308.5412706208103
 20
572.7050494506425
 30
0.0
 11
310.449646863847
 21
572.1066347825294
 31
0.0
  0
LINE
  5
10003026
330
F6
100
AcDbEntity
  8
目盛
100
AcDbLine
 10
307.5685979064662
 20
567.7518713133674
 30
0.0
 11
309.5615543855329
 21
567.5841677876264
 31
0.0
  0
LINE
  5
10003027
330
F6
100
AcDbEntity
  8
目盛
100
AcDbLine
 10
307.4927261143062
 20
566.3089697941907
 30
0.0
 11
309.4922801405174
 21
566.2667359657691
 31
0.0
  0
LINE
  5
10003028
330
F6
100
AcDbEntity
  8
目盛
100
AcDbLine
 10
307.9910375525248
 20
570.6091761194254
 30
0.0
 11
310.9253714477258
 21
569.9849288995885
 31
0.0
  0
LINE
  5
10003029
330
F6
100
AcDbEntity
  8
目盛
100
AcDbLine
 10
307.8518096409189
 20
569.9001805470234
 30
0.0
 11
309.820139012642
 21
569.5456675227033
 31
0.0
  0
LINE
  5
1000302A
330
F6
100
AcDbEntity
  8
目盛
100
AcDbLine
 10
307.5193285562005
 20
567.0310164984567
 30
0.0
 11
310.5151897117917
 21
566.8734857509202
 31
0.0
  0
LINE
  5
1000302B
330
F6
100
AcDbEntity
  8
目盛
100
AcDbLine
 10
307.6404855422036
 20
568.4708228422512
 30
0.0
 11
309.6271909225106
 21
568.2406017922594
 31
0.0
  0
LINE
  5
1000302C
330
F6
100
AcDbEntity
  8
目盛
100
AcDbLine
 10
307.7349205189946
 20
569.1871615667487
 30
0.0
 11
309.7134141621892
 21
568.8946501928874
 31
0.0
  0
LINE
  5
1000302D
330
F6
100
AcDbEntity
  8
目盛
100
AcDbLine
 10
308.1524668526736
 20
571.3134485909231
 30
0.0
 11
310.0946521190266
 21
570.8360426932206
 31
0.0
  0
LINE
  5
1000302E
330
F6
100
AcDbEntity
  8
目盛
100
AcDbLine
 10
308.3359382301349
 20
572.0123029296151
 30
0.0
 11
310.262169463665
 21
571.4741270894173
 31
0.0
  0
LINE
  5
1000302F
330
F6
100
AcDbEntity
  8
目盛
100
AcDbLine
 10
307.6998526347374
 20
562.705799765608
 30
0.0
 11
309.6813956591717
 21
562.9768850701067
 31
0.0
  0
LINE
  5
10003030
330
F6
100
AcDbEntity
  8
目盛
100
AcDbLine
 10
308.2702647832278
 20
559.8743202954126
 30
0.0
 11
311.1681777352938
 21
560.6502716613168
 31
0.0
  0
LINE
  5
10003031
330
F6
100
AcDbEntity
  8
目盛
100
AcDbLine
 10
308.6876439328031
 20
558.4910213514424
 30
0.0
 11
310.5832920617534
 21
559.1286091267384
 31
0.0
  0
LINE
  5
10003032
330
F6
100
AcDbEntity
  8
目盛
100
AcDbLine
 10
308.4680890598655
 20
559.1793924656137
 30
0.0
 11
310.3828289168976
 21
559.7571218831555
 31
0.0
  0
LINE
  5
10003033
330
F6
100
AcDbEntity
  8
目盛
100
AcDbLine
 10
308.928712727888
 20
557.8098862920805
 30
0.0
 11
310.803398352918
 21
558.5067032029728
 31
0.0
  0
LINE
  5
10003034
330
F6
100
AcDbEntity
  8
目盛
100
AcDbLine
 10
307.9405672954193
 20
561.281097068544
 30
0.0
 11
309.9011786102291
 21
561.676069564092
 31
0.0
  0
LINE
  5
10003035
330
F6
100
AcDbEntity
  8
目盛
100
AcDbLine
 10
308.0943663315674
 20
560.5751190309708
 30
0.0
 11
310.041603817147
 21
561.03148092109
 31
0.0
  0
LINE
  5
10003036
330
F6
100
AcDbEntity
  8
目盛
100
AcDbLine
 10
307.809019455864
 20
561.9915576930437
 30
0.0
 11
309.781069713244
 21
562.3247510038521
 31
0.0
  0
LINE
  5
10003037
330
F6
100
AcDbEntity
  8
目盛
100
AcDbLine
 10
307.6131745665118
 20
563.4231184155431
 30
0.0
 11
310.5967949381494
 21
563.7361830701259
 31
0.0
  0
LINE
  5
10003038
330
F6
100
AcDbEntity
  8
目盛
100
AcDbLine
 10
307.4888168341822
 20
565.5864437734932
 30
0.0
 11
309.4887107977951
 21
565.6070382946979
 31
0.0
  0
LINE
  5
10003039
330
F6
100
AcDbEntity
  8
目盛
100
AcDbLine
 10
307.5490707919758
 20
564.1428057359441
 30
0.0
 11
309.5437252809982
 21
564.2889339995442
 31
0.0
  0
LINE
  5
1000303A
330
F6
100
AcDbEntity
  8
目盛
100
AcDbLine
 10
307.5076045738156
 20
564.864151482315
 30
0.0
 11
309.5058648209388
 21
564.9475540288392
 31
0.0
  0
LINE
  5
1000303B
330
F6
100
AcDbEntity
  8
目盛
100
AcDbLine
 10
312.460154724789
 20
551.5400279856869
 30
0.0
 11
314.027758437045
 21
552.7820499667004
 31
0.0
  0
LINE
  5
1000303C
330
F6
100
AcDbEntity
  8
目盛
100
AcDbLine
 10
312.9176979914935
 20
550.9808202495559
 30
0.0
 11
314.4455153327318
 21
552.271468990233
 31
0.0
  0
LINE
  5
1000303D
330
F6
100
AcDbEntity
  8
目盛
100
AcDbLine
 10
311.1959883255834
 20
553.2999497922061
 30
0.0
 11
313.7122851634289
 21
554.9334277454852
 31
0.0
  0
TEXT
  5
1000303E
330
F6
100
AcDbEntity
  8
文字
100
AcDbText
 10
314.2415391135405
 20
556.6068033813035
 30
0.0
 40
2.0
  1
.7
 50
59.99000000000019
  7
STYLE3
100
AcDbText
  0
LINE
  5
1000303F
330
F6
100
AcDbEntity
  8
目盛
100
AcDbLine
 10
310.8121402380017
 20
553.9120933854222
 30
0.0
 11
312.5230495578043
 21
554.9478488099373
 31
0.0
  0
LINE
  5
10003040
330
F6
100
AcDbEntity
  8
目盛
100
AcDbLine
 10
311.5988749022331
 20
552.7001652147021
 30
0.0
 11
313.2413725121027
 21
553.8413056975406
 31
0.0
  0
LINE
  5
10003041
330
F6
100
AcDbEntity
  8
目盛
100
AcDbLine
 10
312.0204023675403
 20
552.1133315678756
 30
0.0
 11
313.6262454152094
 21
553.3055010634816
 31
0.0
  0
LINE
  5
10003042
330
F6
100
AcDbEntity
  8
目盛
100
AcDbLine
 10
310.1030556143895
 20
555.1710295710349
 30
0.0
 11
311.8756244666801
 21
556.0973122837578
 31
0.0
  0
LINE
  5
10003043
330
F6
100
AcDbEntity
  8
目盛
100
AcDbLine
 10
309.4744194644557
 20
556.4720053255689
 30
0.0
 11
312.2152687624485
 21
557.6917369049311
 31
0.0
  0
LINE
  5
10003044
330
F6
100
AcDbEntity
  8
目盛
100
AcDbLine
 10
309.7785188592736
 20
555.8165797454096
 30
0.0
 11
311.5793082989658
 21
556.6867276603605
 31
0.0
  0
LINE
  5
10003045
330
F6
100
AcDbEntity
  8
目盛
100
AcDbLine
 10
310.4477094512076
 20
554.5359918825294
 30
0.0
 11
312.1903084046445
 21
555.5174952638176
 31
0.0
  0
LINE
  5
10003046
330
F6
100
AcDbEntity
  8
目盛
100
AcDbLine
 10
309.1910575393239
 20
557.1366594855967
 30
0.0
 11
311.0429305720552
 21
557.8920178579226
 31
0.0
  0
TEXT
  5
10003047
330
F6
100
AcDbEntity
  8
文字
100
AcDbText
 10
312.9887821929548
 20
567.5143190645078
 30
0.0
 40
2.0
  1
.9
 50
59.99000000000019
  7
STYLE3
100
AcDbText
  0
TEXT
  5
10003048
330
F6
100
AcDbEntity
  8
文字
100
AcDbText
 10
312.3720224313187
 20
561.9768912053499
 30
0.0
 40
2.0
  1
.8
 50
59.99000000000019
  7
STYLE3
100
AcDbText
  0
LINE
  5
10003049
330
F6
100
AcDbEntity
  8
目盛
100
AcDbLine
 10
308.7682613864199
 20
573.3910044968253
 30
0.0
 11
310.6568993020122
 21
572.7329415638271
 31
0.0
  0
LINE
  5
1000304A
330
F6
100
AcDbEntity
  8
目盛
100
AcDbLine
 10
309.0166865144833
 20
574.0694911133498
 30
0.0
 11
311.8172401102988
 21
572.993898459523
 31
0.0
  0
LINE
  5
1000304B
330
F6
100
AcDbEntity
  8
目盛
100
AcDbLine
 10
316.7776482162657
 20
584.2904758155368
 30
0.0
 11
317.9698177118717
 21
582.6846327678679
 31
0.0
  0
LINE
  5
1000304C
330
F6
100
AcDbEntity
  8
目盛
100
AcDbLine
 10
316.2043446340767
 20
583.8507234582884
 30
0.0
 11
317.4463666150903
 21
582.2831197460323
 31
0.0
  0
LINE
  5
1000304D
330
F6
100
AcDbEntity
  8
目盛
100
AcDbLine
 10
313.5600818241169
 20
581.394382716004
 30
0.0
 11
315.0320397016488
 21
580.0403738509031
 31
0.0
  0
LINE
  5
1000304E
330
F6
100
AcDbEntity
  8
目盛
100
AcDbLine
 10
313.0793343993289
 20
580.8549932031135
 30
0.0
 11
314.5930964007555
 21
579.5478877739165
 31
0.0
  0
LINE
  5
1000304F
330
F6
100
AcDbEntity
  8
目盛
100
AcDbLine
 10
312.1698365965953
 20
579.7322576733868
 30
0.0
 11
313.7626853634768
 21
578.5227814206876
 31
0.0
  0
LINE
  5
10003050
330
F6
100
AcDbEntity
  8
目盛
100
AcDbLine
 10
312.6157668284136
 20
580.30076920485
 30
0.0
 11
314.9468751658901
 21
578.4124011477841
 31
0.0
  0
LINE
  5
10003051
330
F6
100
AcDbEntity
  8
目盛
100
AcDbLine
 10
311.7419837831755
 20
579.1500196609688
 30
0.0
 11
313.3720371425285
 21
577.9911728006534
 31
0.0
  0
LINE
  5
10003052
330
F6
100
AcDbEntity
  8
目盛
100
AcDbLine
 10
310.942181110889
 20
577.9466755670819
 30
0.0
 11
312.6417825287015
 21
576.8924673236263
 31
0.0
  0
LINE
  5
10003053
330
F6
100
AcDbEntity
  8
目盛
100
AcDbLine
 10
311.3326306272256
 20
578.554629766219
 30
0.0
 11
312.9982799131829
 21
577.4475559402296
 31
0.0
  0
LINE
  5
10003054
330
F6
100
AcDbEntity
  8
目盛
100
AcDbLine
 10
309.5768382843577
 20
575.4013887511566
 30
0.0
 11
311.395165165347
 21
574.5685097960424
 31
0.0
  0
LINE
  5
10003055
330
F6
100
AcDbEntity
  8
目盛
100
AcDbLine
 10
309.2863008393918
 20
574.7398397158397
 30
0.0
 11
311.1298918460303
 21
573.9644867637966
 31
0.0
  0
LINE
  5
10003056
330
F6
100
AcDbEntity
  8
目盛
100
AcDbLine
 10
310.2195152673064
 20
576.6954859725727
 30
0.0
 11
311.9819571932566
 21
575.7500768242919
 31
0.0
  0
LINE
  5
10003057
330
F6
100
AcDbEntity
  8
目盛
100
AcDbLine
 10
309.8880121239996
 20
576.0534853502726
 30
0.0
 11
311.6792804102372
 21
575.1639023430613
 31
0.0
  0
LINE
  5
10003058
330
F6
100
AcDbEntity
  8
目盛
100
AcDbLine
 10
314.0575346631097
 20
581.9184054311927
 30
0.0
 11
315.4862357720335
 21
580.5188293734666
 31
0.0
  0
LINE
  5
10003059
330
F6
100
AcDbEntity
  8
目盛
100
AcDbLine
 10
314.5712019904142
 20
582.4265442015264
 30
0.0
 11
315.9552363752246
 21
580.9827821637713
 31
0.0
  0
LINE
  5
1000305A
330
F6
100
AcDbEntity
  8
目盛
100
AcDbLine
 10
315.6451368979456
 20
583.3931801915834
 30
0.0
 11
316.9357856386231
 21
581.8653628503453
 31
0.0
  0
LINE
  5
1000305B
330
F6
100
AcDbEntity
  8
目盛
100
AcDbLine
 10
315.1005768783933
 20
582.9182975553867
 30
0.0
 11
317.1075795571767
 21
580.6885127569462
 31
0.0
  0
TEXT
  5
1000305C
330
F6
100
AcDbEntity
  8
文字
100
AcDbText
 10
315.3436770759143
 20
573.436394187586
 30
0.0
 40
2.0
  1
0
 50
59.99000000000019
  7
STYLE3
100
AcDbText
  0
HATCH
  5
1000305D
330
F6
100
AcDbEntity
  8
ROGO
 62
     4
100
AcDbHatch
 10
0.0
 20
0.0
 30
0.0
210
0.0
220
0.0
230
1.0
  2
SOLID
 70
     1
 71
     1
 91
        2
 92
        5
 93
        6
 72
     4
 94
        3
 73
     0
 74
     0
 95
       38
 96
       34
 40
0.0
 40
0.0
 40
0.0
 40
0.0
 40
0.1807680148266058
 40
0.237539291007006
 40
0.3104865209604783
 40
0.3712759982446628
 40
0.4225667543871246
 40
0.4906925837208655
 40
0.5255021974953701
 40
0.5647069597056377
 40
0.6224874016817969
 40
0.6879401044673945
 40
0.7303986317549058
 40
0.7765228362185745
 40
0.8277951442290579
 40
0.9056034696999601
 40
0.97952949302652
 40
1.013897332333143
 40
1.053089255536042
 40
1.099518741889355
 40
1.132570569820513
 40
1.160277520290408
 40
1.199836786293878
 40
1.243305643169244
 40
1.286774258016822
 40
1.324809356515724
 40
1.411916492917736
 40
1.446284332224456
 40
1.515020051661143
 40
1.575779369908573
 40
1.692098529536248
 40
1.835624328519061
 40
2.042896467984086
 40
2.042896467984086
 40
2.042896467984086
 40
2.042896467984086
 10
323.2931212902682
 20
573.0929153964707
 10
323.2666704530733
 20
573.038608997576
 10
323.2319125722623
 20
572.9672473493168
 10
323.2054799322897
 20
572.8664105169857
 10
323.2064846151738
 20
572.8025407713399
 10
323.1988449835169
 20
572.7410879615677
 10
323.2054526517
 20
572.6811151555116
 10
323.1967895680865
 20
572.6293178639037
 10
323.2083015381812
 20
572.5828949876612
 10
323.2059182340595
 20
572.5382366630356
 10
323.2293333369002
 20
572.4880541048852
 10
323.2483240925042
 20
572.4361116815331
 10
323.2545528218344
 20
572.3849794432546
 10
323.2658212123977
 20
572.3394587035237
 10
323.2937877419968
 20
572.2875173425918
 10
323.3423682511666
 20
572.2382769078087
 10
323.3529733651059
 20
572.1724454440213
 10
323.3929202615287
 20
572.1403829217839
 10
323.4044821184111
 20
572.1006797083961
 10
323.4316507000162
 20
572.0706270500645
 10
323.4598714233225
 20
572.0488580522602
 10
323.4855968210152
 20
572.0274351704532
 10
323.5082127471889
 20
571.9972015535083
 10
323.547763145932
 20
571.9799626029018
 10
323.5830190971593
 20
571.9580027575135
 10
323.6319562058091
 20
571.9306771205409
 10
323.6777375765641
 20
571.9008434135971
 10
323.7408692898157
 20
571.8914228236529
 10
323.7936334991811
 20
571.8769503900731
 10
323.8760768312236
 20
571.8731600999086
 10
323.9820408796746
 20
571.8875587186919
 10
324.133180961876
 20
571.9440256415465
 10
324.2020654153861
 20
572.0424713503931
 10
324.2427664186991
 20
572.100638889188
 72
     1
 10
324.242766418699
 20
572.1006388891877
 11
324.6181067556312
 21
572.7504854650836
 72
     4
 94
        3
 73
     0
 74
     0
 95
       11
 96
        7
 40
0.1647869275458135
 40
0.1647869275458135
 40
0.1647869275458135
 40
0.1647869275458135
 40
0.2545010798212315
 40
0.5111620267764023
 40
0.7602998271033902
 40
0.8850764140209603
 40
0.8850764140209603
 40
0.8850764140209603
 40
0.8850764140209603
 10
324.6181067556318
 20
572.7504854650849
 10
324.6235190483984
 20
572.7594525444796
 10
324.6444152325186
 20
572.794073314295
 10
324.670378185706
 20
572.8588714099532
 10
324.6985014121961
 20
572.9265816789081
 10
324.7141796044727
 20
572.9675771549914
 10
324.7178016816451
 20
572.9816277625652
 72
     4
 94
        3
 73
     0
 74
     0
 95
        9
 96
        5
 40
0.0
 40
0.0
 40
0.0
 40
0.0
 40
0.1135793343551872
 40
0.2662938392177682
 40
0.2662938392177682
 40
0.2662938392177682
 40
0.2662938392177682
 10
324.7178016816451
 20
572.9816277625652
 10
324.7263837847063
 20
573.0188043445531
 10
324.7465050610433
 20
573.1059671616515
 10
324.7339570472074
 20
573.1948333271965
 10
324.7267609974393
 20
573.2457964005823
 72
     4
 94
        3
 73
     0
 74
     0
 95
       25
 96
       21
 40
0.0
 40
0.0
 40
0.0
 40
0.0
 40
0.165525918914855
 40
0.3412380755365305
 40
0.5940540902285263
 40
0.7697671103696209
 40
0.9377330196075423
 40
1.11479469302833
 40
1.274661249598185
 40
1.574522170874768
 40
1.815540668866877
 40
2.15849091873445
 40
2.536227739636605
 40
2.738070817316548
 40
2.925680654369045
 40
3.162706124480894
 40
3.395643218188267
 40
3.648478129958861
 40
3.928509979727306
 40
4.337226830236035
 40
4.337226830236035
 40
4.337226830236035
 40
4.337226830236035
 10
324.7267609974393
 20
573.2457964005823
 10
324.7235526982808
 20
573.2648477524317
 10
324.7123345016999
 20
573.3039476513686
 10
324.6963122861886
 20
573.3710595666552
 10
324.6705321058257
 20
573.4369351123493
 10
324.6589811182712
 20
573.5065008684455
 10
324.6257377180632
 20
573.5584441642472
 10
324.6088800743769
 20
573.6153765427591
 10
324.5684230377519
 20
573.6783332950735
 10
324.5168028727479
 20
573.7417379214137
 10
324.4444235429107
 20
573.8155661294749
 10
324.3524371874317
 20
573.8809674815229
 10
324.2504317354069
 20
573.921720607784
 10
324.1610623086357
 20
573.9294604716699
 10
324.0884484514373
 20
573.9391421597997
 10
324.0117004248383
 20
573.9345136819036
 10
323.927099297766
 20
573.9275247246739
 10
323.8430500960587
 20
573.8973829445788
 10
323.7382401853027
 20
573.8550833148383
 10
323.6944484770662
 20
573.7845925567592
 10
323.6684616272011
 20
573.7427619723676
 72
     1
 10
323.6684616272011
 20
573.7427619723676
 11
323.2931212902678
 21
573.0929153964694
 97
        6
330
100030A6
330
100030A7
330
1000305F
330
10003060
330
100030A8
330
100030A9
 92
       20
 93
        1
 72
     3
 10
323.9662193495814
 20
572.9033032705467
 11
-0.0465916920888373
 21
0.2327967685806203
 40
0.6788083417438788
 50
0.0
 51
360.0
 73
     1
 97
        1
330
100030AA
 75
     0
 76
     1
 47
0.088756267210375
 98
        2
 10
323.7209823332473
 20
573.1054965274902
 10
323.7209823332473
 20
573.1054965274902
450
        0
451
        0
460
0.0
461
0.0
452
        0
462
0.0
453
        0
470

  0
HATCH
  5
1000305E
330
F6
100
AcDbEntity
  8
ROGO
 62
     4
100
AcDbHatch
 10
0.0
 20
0.0
 30
0.0
210
0.0
220
0.0
230
1.0
  2
SOLID
 70
     1
 71
     1
 91
        1
 92
        7
 72
     0
 73
     1
 93
        4
 10
320.2289045878204
 20
564.0854225013355
 10
320.3604626787849
 20
563.9019798736535
 10
326.451949769743
 20
574.4484936337467
 10
326.3251445010318
 20
574.6401650739573
 97
        4
330
10003061
330
1000307D
330
10003062
330
100030A5
 75
     0
 76
     1
 47
0.0514683685270805
 98
        1
 10
324.1252894173735
 20
570.7226795723167
450
        0
451
        0
460
0.0
461
0.0
452
        0
462
0.0
453
        0
470

  0
SPLINE
  5
1000305F
102
{ACAD_REACTORS
330
1000305D
102
}
330
F6
100
AcDbEntity
  8
ROGO
 62
     4
100
AcDbSpline
210
0.0
220
0.0
230
1.0
 70
     8
 71
     3
 72
    38
 73
    34
 74
    32
 42
0.0000000001
 43
0.0000000001
 44
0.0000000001
 40
0.0
 40
0.0
 40
0.0
 40
0.0
 40
0.1807680148266058
 40
0.237539291007006
 40
0.3104865209604783
 40
0.3712759982446628
 40
0.4225667543871246
 40
0.4906925837208655
 40
0.5255021974953701
 40
0.5647069597056377
 40
0.6224874016817969
 40
0.6879401044673945
 40
0.7303986317549058
 40
0.7765228362185745
 40
0.8277951442290579
 40
0.9056034696999601
 40
0.97952949302652
 40
1.013897332333143
 40
1.053089255536042
 40
1.099518741889355
 40
1.132570569820513
 40
1.160277520290408
 40
1.199836786293878
 40
1.243305643169244
 40
1.286774258016822
 40
1.324809356515724
 40
1.411916492917736
 40
1.446284332224456
 40
1.515020051661143
 40
1.575779369908573
 40
1.692098529536248
 40
1.835624328519061
 40
2.042896467984086
 40
2.042896467984086
 40
2.042896467984086
 40
2.042896467984086
 10
323.2931212902682
 20
573.0929153964707
 30
0.0
 10
323.2666704530733
 20
573.0386089975761
 30
0.0
 10
323.2319125722623
 20
572.967247349317
 30
0.0
 10
323.2054799322897
 20
572.8664105169856
 30
0.0
 10
323.2064846151738
 20
572.8025407713399
 30
0.0
 10
323.1988449835169
 20
572.7410879615679
 30
0.0
 10
323.2054526517
 20
572.6811151555116
 30
0.0
 10
323.1967895680865
 20
572.6293178639037
 30
0.0
 10
323.2083015381812
 20
572.5828949876612
 30
0.0
 10
323.2059182340595
 20
572.5382366630356
 30
0.0
 10
323.2293333369001
 20
572.4880541048853
 30
0.0
 10
323.2483240925042
 20
572.4361116815332
 30
0.0
 10
323.2545528218343
 20
572.3849794432546
 30
0.0
 10
323.2658212123977
 20
572.3394587035238
 30
0.0
 10
323.2937877419969
 20
572.2875173425917
 30
0.0
 10
323.3423682511666
 20
572.2382769078085
 30
0.0
 10
323.352973365106
 20
572.1724454440216
 30
0.0
 10
323.3929202615287
 20
572.1403829217839
 30
0.0
 10
323.4044821184111
 20
572.1006797083959
 30
0.0
 10
323.4316507000162
 20
572.0706270500644
 30
0.0
 10
323.4598714233225
 20
572.0488580522602
 30
0.0
 10
323.4855968210153
 20
572.0274351704531
 30
0.0
 10
323.5082127471888
 20
571.9972015535086
 30
0.0
 10
323.547763145932
 20
571.9799626029016
 30
0.0
 10
323.5830190971593
 20
571.9580027575138
 30
0.0
 10
323.6319562058091
 20
571.9306771205407
 30
0.0
 10
323.6777375765641
 20
571.9008434135971
 30
0.0
 10
323.7408692898156
 20
571.891422823653
 30
0.0
 10
323.7936334991811
 20
571.8769503900729
 30
0.0
 10
323.8760768312236
 20
571.8731600999088
 30
0.0
 10
323.9820408796746
 20
571.8875587186918
 30
0.0
 10
324.133180961876
 20
571.9440256415465
 30
0.0
 10
324.2020654153861
 20
572.0424713503931
 30
0.0
 10
324.2427664186991
 20
572.100638889188
 30
0.0
 11
323.2931212902682
 21
573.0929153964707
 31
0.0
 11
323.2221866232811
 21
572.9266464931732
 31
0.0
 11
323.2091032778429
 21
572.8714033590178
 31
0.0
 11
323.2046960241811
 21
572.7985893873294
 31
0.0
 11
323.2010230662332
 21
572.737910973306
 31
0.0
 11
323.2027901258009
 21
572.6866506654046
 31
0.0
 11
323.2011024596832
 21
572.6185457433689
 31
0.0
 11
323.2063236120883
 21
572.5841299217356
 31
0.0
 11
323.2088251769506
 21
572.5450050504489
 31
0.0
 11
323.2274273005073
 21
572.4903009329243
 31
0.0
 11
323.2480147158942
 21
572.4281703073873
 31
0.0
 11
323.2552213697104
 21
572.3863278566918
 31
0.0
 11
323.2671331165872
 21
572.3417683176037
 31
0.0
 11
323.2911748343927
 21
572.2964820572847
 31
0.0
 11
323.3360228326952
 21
572.2328990991838
 31
0.0
 11
323.3660204218866
 21
572.1653328238123
 31
0.0
 11
323.3888117805282
 21
572.1396092480524
 31
0.0
 11
323.4061631216537
 21
572.1044675661706
 31
0.0
 11
323.4356448569749
 21
572.0685994119738
 31
0.0
 11
323.461155589474
 21
572.0475845159009
 31
0.0
 11
323.4819616562853
 21
572.0292874481526
 31
0.0
 11
323.5094578943007
 21
572.0008464140342
 31
0.0
 11
323.5470992346814
 21
571.9791054156119
 31
0.0
 11
323.5847403654813
 21
571.9573645382406
 31
0.0
 11
323.6176764073265
 21
571.9383412402776
 31
0.0
 11
323.6956784660509
 21
571.899568414137
 31
0.0
 11
323.7293490131903
 21
571.8926805527894
 31
0.0
 11
323.7966903252599
 21
571.8789056910761
 31
0.0
 11
323.8573410428589
 21
571.8752745468178
 31
0.0
 11
323.9726866107757
 21
571.8902927643694
 31
0.0
 11
324.1050861036866
 21
571.945700609036
 31
0.0
 11
324.2427664186991
 21
572.100638889188
 31
0.0
  0
LINE
  5
10003060
102
{ACAD_REACTORS
330
1000305D
102
}
330
F6
100
AcDbEntity
  8
ROGO
 62
     4
100
AcDbLine
 10
324.242766418699
 20
572.1006388891878
 30
0.0
 11
324.6181067556318
 21
572.7504854650846
 31
0.0
  0
LINE
  5
10003061
102
{ACAD_REACTORS
330
1000305E
102
}
330
F6
100
AcDbEntity
  8
ROGO
 62
     4
100
AcDbLine
 10
320.2217707085513
 20
564.0730712388688
 30
0.0
 11
326.3251445010317
 21
574.6401650739573
 31
0.0
  0
LINE
  5
10003062
102
{ACAD_REACTORS
330
1000305E
330
10003098
330
10003069
102
}
330
F6
100
AcDbEntity
  8
ROGO
 62
     4
100
AcDbLine
 10
319.8834180411171
 20
563.0760472630746
 30
0.0
 11
326.8301059172542
 21
575.1032153714175
 31
0.0
  0
HATCH
  5
10003063
330
F6
100
AcDbEntity
  8
ROGO
 62
     4
100
AcDbHatch
 10
0.0
 20
0.0
 30
0.0
210
0.0
220
0.0
230
1.0
  2
SOLID
 70
     1
 71
     1
 91
        1
 92
        5
 93
        8
 72
     1
 10
323.2343706390831
 20
572.0033913427441
 11
322.9331413463279
 21
572.4587119533373
 72
     1
 10
322.9331413463279
 20
572.4587119533373
 11
322.2754244176168
 21
571.3199718500877
 72
     4
 94
        3
 73
     0
 74
     0
 95
       26
 96
       22
 40
0.0
 40
0.0
 40
0.0
 40
0.0
 40
0.2382195346593735
 40
0.3976890672665602
 40
0.5126795869791251
 40
0.5985392873138444
 40
0.7099038249252122
 40
0.7911890807499212
 40
0.937971306854145
 40
1.057449928673062
 40
1.13871453589314
 40
1.21839864400349
 40
1.36093802187021
 40
1.461730374800191
 40
1.516014844108077
 40
1.593124329220282
 40
1.64880681859378
 40
1.729472362005745
 40
1.775122082164262
 40
1.874460993765383
 40
1.919820003751184
 40
1.919820003751184
 40
1.919820003751184
 40
1.919820003751184
 10
322.2754244176171
 20
571.3199718500886
 10
322.2391617621938
 20
571.2475433699503
 10
322.1786240668594
 20
571.1266296306511
 10
322.182462236134
 20
570.953258264643
 10
322.1734779786329
 20
570.8330496090162
 10
322.1963604985099
 20
570.7303994884094
 10
322.2316135852309
 20
570.6444827382531
 10
322.271652797603
 20
570.5387121757267
 10
322.3307683002908
 20
570.4371737613124
 10
322.4132307589247
 20
570.3552250245142
 10
322.4776341287571
 20
570.2876265598957
 10
322.5543110591238
 20
570.2207939910635
 10
322.6501823883956
 20
570.1711564975268
 10
322.740473126235
 20
570.1272205409875
 10
322.8182716938203
 20
570.1189608832517
 10
322.8804397238357
 20
570.1248205526901
 10
322.9511376493801
 20
570.1351295890804
 10
323.0075277320436
 20
570.1585212142931
 10
323.0858212222041
 20
570.1595850184428
 10
323.1283437735393
 20
570.2160446848727
 10
323.165441715788
 20
570.2461170597415
 10
323.1770709493973
 20
570.2555439619182
 72
     1
 10
323.1770709493976
 20
570.2555439619183
 11
323.7427564032614
 21
571.2349451055098
 72
     1
 10
323.7427564032614
 20
571.2349451055098
 11
323.4415303004421
 21
571.6902608943818
 72
     1
 10
323.4415303004421
 20
571.6902608943818
 11
323.0215628786598
 21
570.9631490862989
 72
     4
 94
        3
 73
     0
 74
     0
 95
       16
 96
       12
 40
0.0
 40
0.0
 40
0.0
 40
0.0
 40
0.0719416665234687
 40
0.1446253590760848
 40
0.1879779149915517
 40
0.229544093610818
 40
0.2751936323961329
 40
0.3070718656055134
 40
0.3373215422376683
 40
0.3986635435216631
 40
0.5242542460843568
 40
0.5242542460843568
 40
0.5242542460843568
 40
0.5242542460843568
 10
323.0215628786597
 20
570.9631490862989
 10
323.0024423903677
 20
570.9449438541105
 10
322.9640041998368
 20
570.9083456159884
 10
322.8989887394608
 20
570.9409763988832
 10
322.8570822235066
 20
570.9718850979474
 10
322.8366180978758
 20
571.0117820660165
 10
322.8276320643574
 20
571.05103480457
 10
322.8022093535631
 20
571.0784015314019
 10
322.7950103125114
 20
571.1198401015832
 10
322.7844017617346
 20
571.1920757826764
 10
322.8077060152311
 20
571.2517200468153
 10
322.8233629736396
 20
571.2917920346638
 72
     1
 10
322.8233629736398
 20
571.2917920346643
 11
323.2343706390831
 21
572.0033913427441
 97
        8
330
10003067
330
10003068
330
1000308D
330
10003089
330
1000308B
330
1000308A
330
1000308C
330
10003088
 75
     0
 76
     1
 47
0.0514683685270805
 98
        1
 10
322.7585846726848
 20
571.5720265149927
450
        0
451
        0
460
0.0
461
0.0
452
        0
462
0.0
453
        0
470

  0
HATCH
  5
10003064
330
F6
100
AcDbEntity
  8
ROGO
 62
     4
100
AcDbHatch
 10
0.0
 20
0.0
 30
0.0
210
0.0
220
0.0
230
1.0
  2
SOLID
 70
     1
 71
     1
 91
        2
 92
        7
 72
     0
 73
     1
 93
        8
 10
321.5683409560747
 20
570.0957608577085
 10
321.0429804542583
 20
569.1861764362557
 10
321.7064724252273
 20
567.7094189617093
 10
322.0702059689178
 20
568.3391700826192
 10
321.9438812028012
 20
568.6203355687822
 10
322.3589451267359
 20
569.3389576917103
 10
322.6309923595324
 20
569.3100892189116
 10
322.997206888178
 20
569.9441358002863
 97
        8
330
1000307C
330
1000307B
330
1000307A
330
10003079
330
1000306B
330
10003065
330
1000308E
330
10003066
 92
       22
 72
     0
 73
     1
 93
        3
 10
322.0720087067655
 20
569.3694061404958
 10
321.8106426626757
 20
568.9168892855377
 10
321.5840680984185
 20
569.4211842822354
 97
        3
330
1000306E
330
1000306D
330
1000306F
 75
     0
 76
     1
 47
0.0128389261915577
 98
        2
 10
321.8000078840952
 20
569.866964635826
 10
321.8000078840952
 20
569.866964635826
450
        0
451
        0
460
0.0
461
0.0
452
        0
462
0.0
453
        0
470

  0
LINE
  5
10003065
102
{ACAD_REACTORS
330
10003064
102
}
330
F6
100
AcDbEntity
  8
ROGO
 62
     4
100
AcDbLine
 10
322.3589451267359
 20
569.3389576917105
 30
0.0
 11
322.6309923595324
 21
569.3100892189118
 31
0.0
  0
LINE
  5
10003066
102
{ACAD_REACTORS
330
10003064
102
}
330
F6
100
AcDbEntity
  8
ROGO
 62
     4
100
AcDbLine
 10
321.5683409560747
 20
570.0957608577087
 30
0.0
 11
322.997206888178
 21
569.9441358002863
 31
0.0
  0
LINE
  5
10003067
102
{ACAD_REACTORS
330
10003063
102
}
330
F6
100
AcDbEntity
  8
ROGO
 62
     4
100
AcDbLine
 10
322.2754244176173
 20
571.3199718500886
 30
0.0
 11
322.9331413463279
 21
572.4587119533373
 31
0.0
  0
SPLINE
  5
10003068
102
{ACAD_REACTORS
330
10003063
102
}
330
F6
100
AcDbEntity
  8
ROGO
 62
     4
100
AcDbSpline
210
0.0
220
0.0
230
1.0
 70
     8
 71
     3
 72
    26
 73
    22
 74
    20
 42
0.0000000001
 43
0.0000000001
 44
0.0000000001
 40
0.0
 40
0.0
 40
0.0
 40
0.0
 40
0.2382195346593735
 40
0.3976890672665602
 40
0.5126795869791251
 40
0.5985392873138444
 40
0.7099038249252122
 40
0.7911890807499212
 40
0.937971306854145
 40
1.057449928673062
 40
1.13871453589314
 40
1.21839864400349
 40
1.36093802187021
 40
1.461730374800191
 40
1.516014844108077
 40
1.593124329220282
 40
1.64880681859378
 40
1.729472362005745
 40
1.775122082164262
 40
1.874460993765383
 40
1.919820003751184
 40
1.919820003751184
 40
1.919820003751184
 40
1.919820003751184
 10
322.2754244176171
 20
571.3199718500886
 30
0.0
 10
322.2391617621937
 20
571.2475433699503
 30
0.0
 10
322.1786240668592
 20
571.1266296306511
 30
0.0
 10
322.1824622361341
 20
570.953258264643
 30
0.0
 10
322.1734779786328
 20
570.8330496090161
 30
0.0
 10
322.1963604985099
 20
570.7303994884096
 30
0.0
 10
322.2316135852308
 20
570.644482738253
 30
0.0
 10
322.2716527976031
 20
570.5387121757267
 30
0.0
 10
322.3307683002908
 20
570.4371737613126
 30
0.0
 10
322.4132307589248
 20
570.3552250245141
 30
0.0
 10
322.4776341287571
 20
570.287626559896
 30
0.0
 10
322.5543110591238
 20
570.2207939910632
 30
0.0
 10
322.6501823883956
 20
570.1711564975268
 30
0.0
 10
322.740473126235
 20
570.1272205409875
 30
0.0
 10
322.8182716938203
 20
570.1189608832517
 30
0.0
 10
322.8804397238358
 20
570.1248205526901
 30
0.0
 10
322.9511376493801
 20
570.1351295890803
 30
0.0
 10
323.0075277320436
 20
570.1585212142934
 30
0.0
 10
323.0858212222041
 20
570.1595850184427
 30
0.0
 10
323.1283437735393
 20
570.2160446848728
 30
0.0
 10
323.165441715788
 20
570.2461170597414
 30
0.0
 10
323.1770709493973
 20
570.2555439619182
 30
0.0
 11
322.2754244176171
 21
571.3199718500886
 31
0.0
 11
322.1894264169935
 21
571.0978167453036
 31
0.0
 11
322.1797912444608
 21
570.9386385581037
 31
0.0
 11
322.1792182000921
 21
570.8236494662562
 31
0.0
 11
322.1964829865243
 21
570.7395434897087
 31
0.0
 11
322.2348661415864
 21
570.6350026190175
 31
0.0
 11
322.2654371897738
 21
570.5596852649269
 31
0.0
 11
322.340849344861
 21
570.4337565995436
 31
0.0
 11
322.4217562663027
 21
570.3458406673437
 31
0.0
 11
322.4789404455325
 21
570.2881006809179
 31
0.0
 11
322.5396919865723
 21
570.2365370566599
 31
0.0
 11
322.6631222680571
 21
570.1652458239926
 31
0.0
 11
322.7566586794724
 21
570.1276953493125
 31
0.0
 11
322.8105619145371
 21
570.1212731333709
 31
0.0
 11
322.8875105124985
 21
570.1262516839676
 31
0.0
 11
322.9423773472664
 21
570.1357474759508
 31
0.0
 11
323.0202893397922
 21
570.1566436793045
 31
0.0
 11
323.065417073417
 21
570.1635273272067
 31
0.0
 11
323.1426522981031
 21
570.2260008369992
 31
0.0
 11
323.1770709493973
 21
570.2555439619182
 31
0.0
  0
HATCH
  5
10003069
330
F6
100
AcDbEntity
  8
ROGO
 62
     4
100
AcDbHatch
 10
0.0
 20
0.0
 30
0.0
210
0.0
220
0.0
230
1.0
  2
SOLID
 70
     1
 71
     1
 91
        2
 92
        5
 93
        6
 72
     1
 10
319.8834180411171
 20
563.0760472630746
 11
320.3604626787849
 21
563.9019798736535
 72
     1
 10
320.3604626787849
 20
563.9019798736535
 11
319.8879274615489
 21
564.5608758889923
 72
     1
 10
319.8879274615489
 20
564.5608758889923
 11
320.333866355387
 21
565.3329534801941
 72
     4
 94
        3
 73
     0
 74
     0
 95
       18
 96
       14
 40
0.108740278791501
 40
0.108740278791501
 40
0.108740278791501
 40
0.108740278791501
 40
0.6623149649549278
 40
1.384304701649787
 40
2.097394834876493
 40
2.774073369849618
 40
3.428974823686337
 40
4.005208313035923
 40
4.455173659284313
 40
4.720999734343524
 40
5.086034088486724
 40
5.569973738255373
 40
6.060470601257719
 40
6.060470601257719
 40
6.060470601257719
 40
6.060470601257719
 10
320.333866355387
 20
565.3329534801941
 10
320.3648461627558
 20
565.3875247359605
 10
320.4362308215824
 20
565.5132695615573
 10
320.4438260539007
 20
565.7424799502159
 10
320.4205563704799
 20
565.9774370749435
 10
320.3488899049903
 20
566.197247241927
 10
320.2267469036594
 20
566.3789540268976
 10
320.0710006240456
 20
566.4861286183877
 10
319.9373562687974
 20
566.552808045963
 10
319.8148465610812
 20
566.5484591921853
 10
319.6897074687715
 20
566.542653079929
 10
319.5485906638044
 20
566.4809794997363
 10
319.4631213903979
 20
566.4130296180037
 10
319.4208895657949
 20
566.377764693794
 72
     1
 10
319.4208895657947
 20
566.3777646937937
 11
318.6143966925487
 21
564.9814409294816
 72
     1
 10
318.6143966925487
 20
564.9814409294816
 11
319.8834180411171
 21
563.0760472630746
 97
        6
330
10003085
330
10003084
330
1000307F
330
10003062
330
1000307D
330
1000307E
 92
       20
 93
        4
 72
     1
 10
319.596163715686
 20
564.9677068775775
 11
319.3727821233044
 21
565.2791868175942
 72
     1
 10
319.3727821233044
 20
565.2791868175942
 11
319.5758369846744
 21
565.6307464380152
 72
     4
 94
        3
 73
     0
 74
     0
 95
       15
 96
       11
 40
0.0
 40
0.0
 40
0.0
 40
0.0
 40
0.15397050291725
 40
0.2241725832584148
 40
0.3038566179395239
 40
0.358141087247583
 40
0.4439925384672844
 40
0.4954152125471138
 40
0.5836396705646236
 40
0.6130478420064142
 40
0.6130478420064142
 40
0.6130478420064142
 40
0.6130478420064142
 10
319.5758369846741
 20
565.6307464380149
 10
319.6045305188027
 20
565.6809546803541
 10
319.6463067262355
 20
565.754055119547
 10
319.7595209159993
 20
565.7418331724147
 10
319.807265229932
 20
565.6904241465889
 10
319.8539056525636
 20
565.6335257577678
 10
319.8714848881591
 20
565.5704267616791
 10
319.8797264250444
 20
565.4946059358577
 10
319.8553645809454
 20
565.4415212088784
 10
319.8451259582265
 20
565.403757609826
 10
319.8425663013216
 20
565.3943167055437
 72
     1
 10
319.8425663013213
 20
565.3943167055424
 11
319.596163715686
 21
564.9677068775775
 97
        4
330
10003080
330
10003083
330
10003082
330
10003081
 75
     0
 76
     1
 47
0.0514683685270805
 98
        2
 10
319.171339246813
 20
564.6697132275842
 10
319.171339246813
 20
564.6697132275842
450
        0
451
        0
460
0.0
461
0.0
452
        0
462
0.0
453
        0
470

  0
HATCH
  5
1000306A
330
F6
100
AcDbEntity
  8
ROGO
 62
     4
100
AcDbHatch
 10
0.0
 20
0.0
 30
0.0
210
0.0
220
0.0
230
1.0
  2
SOLID
 70
     1
 71
     1
 91
        1
 92
        1
 93
       12
 72
     1
 10
319.8973455442084
 20
567.2026781274735
 11
320.7856555597971
 21
568.7406562373739
 72
     1
 10
320.7856555597971
 20
568.7406562373737
 11
320.9716921727565
 21
568.4613284038012
 72
     1
 10
320.9716921727565
 20
568.4613284038012
 11
320.504818875659
 21
567.6530059730821
 72
     1
 10
320.504818875659
 20
567.6530059730821
 11
320.6502763890205
 21
567.4346063181022
 72
     1
 10
320.6502763890205
 20
567.4346063181022
 11
321.117149686118
 21
568.2429287488211
 72
     1
 10
321.117149686118
 20
568.2429287488211
 11
321.2663027396094
 21
568.0189803623193
 72
     1
 10
321.2663027396094
 20
568.0189803623193
 11
320.7994294425122
 21
567.2106579315998
 72
     1
 10
320.7994294425122
 20
567.2106579315998
 11
320.9448931138455
 21
566.9922490306277
 72
     1
 10
320.9448931138453
 20
566.992249030628
 11
321.4117664109428
 21
567.8005714613473
 72
     1
 10
321.4117664109428
 20
567.8005714613473
 11
321.5977936660536
 21
567.5212576782757
 72
     1
 10
321.5977936660536
 20
567.5212576782757
 11
320.709483650465
 21
565.9832795683753
 72
     1
 10
320.709483650465
 20
565.9832795683753
 11
319.8973455442084
 21
567.2026781274735
 97
       12
330
10003087
330
10003071
330
10003073
330
10003072
330
10003074
330
10003070
330
10003076
330
10003078
330
10003075
330
10003077
330
1000306C
330
10003086
 75
     0
 76
     1
 98
        1
 10
362.1868335116809
 20
458.8793902617792
450
        0
451
        0
460
0.0
461
0.0
452
        0
462
0.0
453
        0
470

  0
LINE
  5
1000306B
102
{ACAD_REACTORS
330
10003064
102
}
330
F6
100
AcDbEntity
  8
ROGO
 62
     4
100
AcDbLine
 10
321.9438812028013
 20
568.6203355687823
 30
0.0
 11
322.3589451267359
 21
569.3389576917105
 31
0.0
  0
LINE
  5
1000306C
102
{ACAD_REACTORS
330
1000306A
102
}
330
F6
100
AcDbEntity
  8
ROGO
 62
     4
100
AcDbLine
 10
320.709483650465
 20
565.9832795683753
 30
0.0
 11
321.5977936660536
 21
567.5212576782757
 31
0.0
  0
LINE
  5
1000306D
102
{ACAD_REACTORS
330
10003064
102
}
330
F6
100
AcDbEntity
  8
ROGO
 62
     4
100
AcDbLine
 10
321.5840680984185
 20
569.4211842822356
 30
0.0
 11
321.8106426626758
 21
568.9168892855377
 31
0.0
  0
LINE
  5
1000306E
102
{ACAD_REACTORS
330
10003064
102
}
330
F6
100
AcDbEntity
  8
ROGO
 62
     4
100
AcDbLine
 10
321.8106426626757
 20
568.9168892855377
 30
0.0
 11
322.0720087067657
 21
569.369406140496
 31
0.0
  0
LINE
  5
1000306F
102
{ACAD_REACTORS
330
10003064
102
}
330
F6
100
AcDbEntity
  8
ROGO
 62
     4
100
AcDbLine
 10
321.5840680984185
 20
569.4211842822356
 30
0.0
 11
322.072008706766
 21
569.3694061404958
 31
0.0
  0
LINE
  5
10003070
102
{ACAD_REACTORS
330
1000306A
102
}
330
F6
100
AcDbEntity
  8
ROGO
 62
     4
100
AcDbLine
 10
321.117149686118
 20
568.2429287488211
 30
0.0
 11
321.2663027396094
 21
568.0189803623193
 31
0.0
  0
LINE
  5
10003071
102
{ACAD_REACTORS
330
1000306A
102
}
330
F6
100
AcDbEntity
  8
ROGO
 62
     4
100
AcDbLine
 10
320.7856555597971
 20
568.7406562373737
 30
0.0
 11
320.9716921727565
 21
568.4613284038012
 31
0.0
  0
LINE
  5
10003072
102
{ACAD_REACTORS
330
1000306A
102
}
330
F6
100
AcDbEntity
  8
ROGO
 62
     4
100
AcDbLine
 10
320.504818875659
 20
567.6530059730821
 30
0.0
 11
320.6502763890205
 21
567.4346063181022
 31
0.0
  0
LINE
  5
10003073
102
{ACAD_REACTORS
330
1000306A
102
}
330
F6
100
AcDbEntity
  8
ROGO
 62
     4
100
AcDbLine
 10
320.504818875659
 20
567.6530059730821
 30
0.0
 11
320.9716921727565
 21
568.4613284038012
 31
0.0
  0
LINE
  5
10003074
102
{ACAD_REACTORS
330
1000306A
102
}
330
F6
100
AcDbEntity
  8
ROGO
 62
     4
100
AcDbLine
 10
320.6502763890205
 20
567.4346063181022
 30
0.0
 11
321.117149686118
 21
568.2429287488211
 31
0.0
  0
LINE
  5
10003075
102
{ACAD_REACTORS
330
1000306A
102
}
330
F6
100
AcDbEntity
  8
ROGO
 62
     4
100
AcDbLine
 10
320.9448931138453
 20
566.992249030628
 30
0.0
 11
321.4117664109428
 21
567.8005714613473
 31
0.0
  0
LINE
  5
10003076
102
{ACAD_REACTORS
330
1000306A
102
}
330
F6
100
AcDbEntity
  8
ROGO
 62
     4
100
AcDbLine
 10
320.7994294425122
 20
567.2106579315998
 30
0.0
 11
321.2663027396094
 21
568.0189803623193
 31
0.0
  0
LINE
  5
10003077
102
{ACAD_REACTORS
330
1000306A
102
}
330
F6
100
AcDbEntity
  8
ROGO
 62
     4
100
AcDbLine
 10
321.4117664109428
 20
567.8005714613473
 30
0.0
 11
321.5977936660536
 21
567.5212576782757
 31
0.0
  0
LINE
  5
10003078
102
{ACAD_REACTORS
330
1000306A
102
}
330
F6
100
AcDbEntity
  8
ROGO
 62
     4
100
AcDbLine
 10
320.7994294425122
 20
567.2106579315998
 30
0.0
 11
320.9448931138455
 21
566.9922490306277
 31
0.0
  0
LINE
  5
10003079
102
{ACAD_REACTORS
330
10003064
102
}
330
F6
100
AcDbEntity
  8
ROGO
 62
     4
100
AcDbLine
 10
321.9438812028013
 20
568.6203355687823
 30
0.0
 11
322.0702059689177
 21
568.3391700826193
 31
0.0
  0
LINE
  5
1000307A
102
{ACAD_REACTORS
330
10003064
102
}
330
F6
100
AcDbEntity
  8
ROGO
 62
     4
100
AcDbLine
 10
321.7064724252273
 20
567.7094189617093
 30
0.0
 11
322.0702059689178
 21
568.3391700826193
 31
0.0
  0
LINE
  5
1000307B
102
{ACAD_REACTORS
330
10003064
102
}
330
F6
100
AcDbEntity
  8
ROGO
 62
     4
100
AcDbLine
 10
321.0429804542583
 20
569.1861764362559
 30
0.0
 11
321.7064724252273
 21
567.7094189617093
 31
0.0
  0
LINE
  5
1000307C
102
{ACAD_REACTORS
330
10003064
102
}
330
F6
100
AcDbEntity
  8
ROGO
 62
     4
100
AcDbLine
 10
321.0429804542583
 20
569.1861764362559
 30
0.0
 11
321.5683409560747
 21
570.0957608577087
 31
0.0
  0
LINE
  5
1000307D
102
{ACAD_REACTORS
330
1000305E
330
10003069
102
}
330
F6
100
AcDbEntity
  8
ROGO
 62
     4
100
AcDbLine
 10
319.8879274615489
 20
564.5608758889923
 30
0.0
 11
320.3604626787849
 21
563.9019798736535
 31
0.0
  0
LINE
  5
1000307E
102
{ACAD_REACTORS
330
10003069
102
}
330
F6
100
AcDbEntity
  8
ROGO
 62
     4
100
AcDbLine
 10
320.3338663555416
 20
565.3329534804618
 30
0.0
 11
319.8879274615489
 21
564.5608758889923
 31
0.0
  0
LINE
  5
1000307F
102
{ACAD_REACTORS
330
10003069
102
}
330
F6
100
AcDbEntity
  8
ROGO
 62
     4
100
AcDbLine
 10
318.6143966925487
 20
564.9814409294817
 30
0.0
 11
319.8834180411171
 21
563.0760472630746
 31
0.0
  0
LINE
  5
10003080
102
{ACAD_REACTORS
330
10003069
102
}
330
F6
100
AcDbEntity
  8
ROGO
 62
     4
100
AcDbLine
 10
319.3727821233044
 20
565.2791868175943
 30
0.0
 11
319.596163715686
 21
564.9677068775777
 31
0.0
  0
LINE
  5
10003081
102
{ACAD_REACTORS
330
10003069
102
}
330
F6
100
AcDbEntity
  8
ROGO
 62
     4
100
AcDbLine
 10
319.8425663013219
 20
565.3943167055436
 30
0.0
 11
319.596163715686
 21
564.9677068775777
 31
0.0
  0
SPLINE
  5
10003082
102
{ACAD_REACTORS
330
10003069
102
}
330
F6
100
AcDbEntity
  8
ROGO
 62
     4
100
AcDbSpline
210
0.0
220
0.0
230
1.0
 70
     8
 71
     3
 72
    15
 73
    11
 74
     9
 42
0.0000000001
 43
0.0000000001
 44
0.0000000001
 40
0.0
 40
0.0
 40
0.0
 40
0.0
 40
0.15397050291725
 40
0.2241725832584148
 40
0.3038566179395239
 40
0.358141087247583
 40
0.4439925384672844
 40
0.4954152125471138
 40
0.5836396705646236
 40
0.6130478420064142
 40
0.6130478420064142
 40
0.6130478420064142
 40
0.6130478420064142
 10
319.5758369846741
 20
565.6307464380149
 30
0.0
 10
319.6045305188027
 20
565.680954680354
 30
0.0
 10
319.6463067262355
 20
565.754055119547
 30
0.0
 10
319.7595209159993
 20
565.7418331724147
 30
0.0
 10
319.8072652299319
 20
565.6904241465889
 30
0.0
 10
319.8539056525636
 20
565.6335257577678
 30
0.0
 10
319.8714848881591
 20
565.5704267616792
 30
0.0
 10
319.8797264250444
 20
565.4946059358578
 30
0.0
 10
319.8553645809454
 20
565.4415212088784
 30
0.0
 10
319.8451259582265
 20
565.403757609826
 30
0.0
 10
319.8425663013216
 20
565.3943167055437
 30
0.0
 11
319.5758369846741
 21
565.6307464380149
 31
0.0
 11
319.6816123307289
 21
565.7426325047774
 31
0.0
 11
319.7514259999323
 21
565.7352579758716
 31
0.0
 11
319.8121777461107
 21
565.6836947067809
 31
0.0
 11
319.8446759897624
 21
565.6402128971633
 31
0.0
 11
319.8716794710004
 21
565.5587188257375
 31
0.0
 11
319.8749606163635
 21
565.5074009390445
 31
0.0
 11
319.8506648297828
 21
565.4225877929709
 31
0.0
 11
319.8425663013216
 21
565.3943167055437
 31
0.0
  0
LINE
  5
10003083
102
{ACAD_REACTORS
330
10003069
102
}
330
F6
100
AcDbEntity
  8
ROGO
 62
     4
100
AcDbLine
 10
319.5758369846743
 20
565.6307464380149
 30
0.0
 11
319.3727821233044
 21
565.2791868175943
 31
0.0
  0
LINE
  5
10003084
102
{ACAD_REACTORS
330
10003069
102
}
330
F6
100
AcDbEntity
  8
ROGO
 62
     4
100
AcDbLine
 10
318.6143966925487
 20
564.9814409294817
 30
0.0
 11
319.4208895657947
 21
566.377764693794
 31
0.0
  0
SPLINE
  5
10003085
102
{ACAD_REACTORS
330
10003069
102
}
330
F6
100
AcDbEntity
  8
ROGO
 62
     4
100
AcDbSpline
210
0.0
220
0.0
230
1.0
 70
     8
 71
     3
 72
    18
 73
    14
 74
     0
 42
0.0000000001
 43
0.0000000001
 40
0.1087402787915014
 40
0.1087402787915014
 40
0.1087402787915014
 40
0.1087402787915014
 40
0.5992371417938475
 40
1.083176791562496
 40
1.448211145705696
 40
1.714037220764907
 40
2.164002567013297
 40
2.740236056362883
 40
3.395137510199602
 40
4.071816045172726
 40
4.784906178399433
 40
5.506895915094292
 40
6.060470601257719
 40
6.060470601257719
 40
6.060470601257719
 40
6.060470601257719
 10
319.4208895657949
 20
566.377764693794
 30
0.0
 10
319.4631213903979
 20
566.4130296180037
 30
0.0
 10
319.5485906638044
 20
566.4809794997363
 30
0.0
 10
319.6897074687715
 20
566.542653079929
 30
0.0
 10
319.8148465610812
 20
566.5484591921853
 30
0.0
 10
319.9373562687974
 20
566.552808045963
 30
0.0
 10
320.0710006240456
 20
566.4861286183877
 30
0.0
 10
320.2267469036594
 20
566.3789540268976
 30
0.0
 10
320.3488899049903
 20
566.197247241927
 30
0.0
 10
320.4205563704799
 20
565.9774370749435
 30
0.0
 10
320.4438260539007
 20
565.7424799502159
 30
0.0
 10
320.4362308215824
 20
565.5132695615573
 30
0.0
 10
320.3648461627558
 20
565.3875247359605
 30
0.0
 10
320.333866355387
 20
565.3329534801941
 30
0.0
  0
LINE
  5
10003086
102
{ACAD_REACTORS
330
1000306A
102
}
330
F6
100
AcDbEntity
  8
ROGO
 62
     4
100
AcDbLine
 10
319.8973455442084
 20
567.2026781274735
 30
0.0
 11
320.709483650465
 21
565.9832795683753
 31
0.0
  0
LINE
  5
10003087
102
{ACAD_REACTORS
330
1000306A
102
}
330
F6
100
AcDbEntity
  8
ROGO
 62
     4
100
AcDbLine
 10
319.8973455442084
 20
567.2026781274735
 30
0.0
 11
320.7856555597971
 21
568.7406562373739
 31
0.0
  0
LINE
  5
10003088
102
{ACAD_REACTORS
330
10003063
102
}
330
F6
100
AcDbEntity
  8
ROGO
 62
     4
100
AcDbLine
 10
322.9331413463281
 20
572.4587119533373
 30
0.0
 11
323.2343706390831
 21
572.0033913427442
 31
0.0
  0
LINE
  5
10003089
102
{ACAD_REACTORS
330
10003063
102
}
330
F6
100
AcDbEntity
  8
ROGO
 62
     4
100
AcDbLine
 10
323.4415303004421
 20
571.6902608943819
 30
0.0
 11
323.7427564032615
 21
571.2349451055099
 31
0.0
  0
SPLINE
  5
1000308A
102
{ACAD_REACTORS
330
10003063
102
}
330
F6
100
AcDbEntity
  8
ROGO
 62
     4
100
AcDbSpline
210
0.0
220
0.0
230
1.0
 70
     8
 71
     3
 72
    16
 73
    12
 74
    10
 42
0.0000000001
 43
0.0000000001
 44
0.0000000001
 40
0.0
 40
0.0
 40
0.0
 40
0.0
 40
0.1255907025626936
 40
0.1869327038466885
 40
0.2171823804788434
 40
0.2490606136882238
 40
0.2947101524735388
 40
0.336276331092805
 40
0.379628887008272
 40
0.4523125795608882
 40
0.5242542460843568
 40
0.5242542460843568
 40
0.5242542460843568
 40
0.5242542460843568
 10
322.8233629736396
 20
571.2917920346638
 30
0.0
 10
322.8077060152311
 20
571.2517200468152
 30
0.0
 10
322.7844017617347
 20
571.1920757826763
 30
0.0
 10
322.7950103125113
 20
571.1198401015833
 30
0.0
 10
322.8022093535632
 20
571.0784015314017
 30
0.0
 10
322.8276320643574
 20
571.0510348045702
 30
0.0
 10
322.8366180978759
 20
571.0117820660165
 30
0.0
 10
322.8570822235066
 20
570.9718850979474
 30
0.0
 10
322.8989887394609
 20
570.9409763988832
 30
0.0
 10
322.9640041998367
 20
570.9083456159885
 30
0.0
 10
323.0024423903677
 20
570.9449438541105
 30
0.0
 10
323.0215628786597
 20
570.9631490862989
 30
0.0
 11
322.8233629736396
 21
571.2917920346638
 31
0.0
 11
322.7910327786261
 21
571.1704339568091
 31
0.0
 11
322.7969176900365
 21
571.1093748957353
 31
0.0
 11
322.8047297969122
 21
571.0801513791345
 31
0.0
 11
322.8222807997915
 21
571.0535396514476
 31
0.0
 11
322.8388682069088
 21
571.0110103872118
 31
0.0
 11
322.859023382172
 21
570.9746577241028
 31
0.0
 11
322.8924848191903
 21
570.9470936834507
 31
0.0
 11
322.961335295027
 21
570.923801385579
 31
0.0
 11
323.0215628786597
 21
570.9631490862989
 31
0.0
  0
LINE
  5
1000308B
102
{ACAD_REACTORS
330
10003063
102
}
330
F6
100
AcDbEntity
  8
ROGO
 62
     4
100
AcDbLine
 10
323.0215628786596
 20
570.9631490862987
 30
0.0
 11
323.4415303004421
 21
571.6902608943819
 31
0.0
  0
LINE
  5
1000308C
102
{ACAD_REACTORS
330
10003063
102
}
330
F6
100
AcDbEntity
  8
ROGO
 62
     4
100
AcDbLine
 10
322.8233629736394
 20
571.2917920346638
 30
0.0
 11
323.2343706390831
 21
572.0033913427442
 31
0.0
  0
LINE
  5
1000308D
102
{ACAD_REACTORS
330
10003063
102
}
330
F6
100
AcDbEntity
  8
ROGO
 62
     4
100
AcDbLine
 10
323.1770709493974
 20
570.2555439619179
 30
0.0
 11
323.7427564032615
 21
571.2349451055099
 31
0.0
  0
LINE
  5
1000308E
102
{ACAD_REACTORS
330
10003064
102
}
330
F6
100
AcDbEntity
  8
ROGO
 62
     4
100
AcDbLine
 10
322.997206888178
 20
569.9441358002863
 30
0.0
 11
322.6309923595324
 21
569.3100892189118
 31
0.0
  0
LINE
  5
1000308F
330
F6
100
AcDbEntity
  8
目盛
100
AcDbLine
 10
334.2172040302415
 20
555.0814064287906
 30
0.0
 11
334.5888348299817
 21
555.4159068752547
 31
0.0
  0
TEXT
  5
10003090
330
F6
100
AcDbEntity
  8
文字
100
AcDbText
 10
335.383732737623
 20
555.7497158412311
 30
0.0
 40
0.7
  1
4
 50
59.99000000000019
  7
STYLE3
100
AcDbText
  0
TEXT
  5
10003091
330
F6
100
AcDbEntity
  8
文字
100
AcDbText
 10
334.9307073455611
 20
559.5228639917286
 30
0.0
 40
0.7
  1
0
 50
59.99000000000019
  7
STYLE3
100
AcDbText
  0
TEXT
  5
10003092
330
F6
100
AcDbEntity
  8
文字
100
AcDbText
 10
334.6901524478819
 20
557.5946305970838
 30
0.0
 40
0.7
  1
2
 50
59.99000000000019
  7
STYLE3
100
AcDbText
  0
LINE
  5
10003093
330
F6
100
AcDbEntity
  8
目盛
100
AcDbLine
 10
333.0236310393461
 20
557.7634749671085
 30
0.0
 11
333.5209011012854
 21
557.815652409539
 31
0.0
  0
LINE
  5
10003094
330
F6
100
AcDbEntity
  8
目盛
100
AcDbLine
 10
333.6344905381452
 20
560.6348785962692
 30
0.0
 11
334.0674596002113
 21
560.3848030251039
 31
0.0
  0
CIRCLE
  5
10003095
330
F6
100
AcDbEntity
  8
外形線
100
AcDbCircle
 10
330.4875974157336
 20
565.8232807673434
 30
0.0
 40
1.5
  0
POINT
  5
10003096
330
F6
100
AcDbEntity
  8
DEFPOINTS
  6
ByBlock
 62
     0
100
AcDbPoint
 10
330.4875974157336
 20
565.8232807673437
 30
0.0
  0
POINT
  5
10003097
330
F6
100
AcDbEntity
  8
DEFPOINTS
  6
ByBlock
 62
     0
100
AcDbPoint
 10
330.4875974157336
 20
565.8232807673437
 30
0.0
  0
HATCH
  5
10003098
330
F6
100
AcDbEntity
  8
ROGO
 62
     4
100
AcDbHatch
 10
0.0
 20
0.0
 30
0.0
210
0.0
220
0.0
230
1.0
  2
SOLID
 70
     1
 71
     1
 91
        1
 92
        7
 72
     0
 73
     1
 93
       11
 10
326.451949769743
 20
574.4484936337467
 10
326.8301059172542
 20
575.1032153714175
 10
326.4999060179536
 20
575.6023262593131
 10
327.0972359313238
 20
575.5657116924393
 10
327.4753838050827
 20
576.2204191053248
 10
326.3311231948357
 20
576.2905589153319
 10
326.0643653906521
 20
577.8799657418286
 10
325.6862175168935
 20
577.2252583289427
 10
325.7031478793883
 20
576.8066593400326
 10
325.5650270058524
 20
577.0154347877943
 10
325.1868708583411
 20
576.3607130501235
 97
       11
330
1000309F
330
1000309D
330
1000309E
330
100030B0
330
100030A5
330
10003062
330
100030A0
330
1000309A
330
100030C0
330
10003099
330
100030AF
 75
     0
 76
     1
 47
0.0514683685270805
 98
        1
 10
325.9166072527017
 20
575.8640843353701
450
        0
451
        0
460
0.0
461
0.0
452
        0
462
0.0
453
        0
470

  0
LINE
  5
10003099
102
{ACAD_REACTORS
330
10003098
102
}
330
F6
100
AcDbEntity
  8
ROGO
 62
     4
100
AcDbLine
 10
326.3311231948357
 20
576.2905589153319
 30
0.0
 11
327.4753838050827
 21
576.2204191053249
 31
0.0
  0
LINE
  5
1000309A
102
{ACAD_REACTORS
330
10003098
102
}
330
F6
100
AcDbEntity
  8
ROGO
 62
     4
100
AcDbLine
 10
326.4999060179536
 20
575.6023262593132
 30
0.0
 11
327.0972359313238
 21
575.5657116924394
 31
0.0
  0
TEXT
  5
1000309B
330
F6
100
AcDbEntity
  8
文字
100
AcDbText
 10
323.4551338384121
 20
580.5382886105926
 30
0.0
 40
2.0
  1
.2
 50
59.99000000000019
  7
STYLE3
100
AcDbText
  0
HATCH
  5
1000309C
330
F6
100
AcDbEntity
  8
ROGO
 62
     4
100
AcDbHatch
 10
0.0
 20
0.0
 30
0.0
210
0.0
220
0.0
230
1.0
  2
SOLID
 70
     1
 71
     1
 91
        1
 92
        5
 93
        8
 72
     4
 94
        3
 73
     0
 74
     0
 95
       26
 96
       22
 40
0.0
 40
0.0
 40
0.0
 40
0.0
 40
0.2382195346591614
 40
0.3976890672660938
 40
0.5126795869786597
 40
0.5985392873136246
 40
0.7099038249255761
 40
0.7911890807495645
 40
0.9379713068548607
 40
1.057449928673443
 40
1.138714535893119
 40
1.21839864400353
 40
1.360938021870531
 40
1.461730374800322
 40
1.516014844107842
 40
1.593124329220471
 40
1.648806818593745
 40
1.729472362005212
 40
1.775122082164281
 40
1.874460993765083
 40
1.919820003750994
 40
1.919820003750994
 40
1.919820003750994
 40
1.919820003750994
 10
324.3915987968277
 20
574.9838164705972
 10
324.3553361414043
 20
574.9113879904589
 10
324.2947984460697
 20
574.7904742511599
 10
324.2986366153454
 20
574.6171028851521
 10
324.2896523578437
 20
574.4968942295251
 10
324.3125348777208
 20
574.3942441089183
 10
324.3477879644424
 20
574.3083273587619
 10
324.3878271768135
 20
574.2025567962347
 10
324.4469426795017
 20
574.1010183818208
 10
324.529405138136
 20
574.0190696450224
 10
324.5938085079682
 20
573.9514711804046
 10
324.6704854383345
 20
573.8846386115715
 10
324.7663567676067
 20
573.8350011180358
 10
324.856647505446
 20
573.7910651614961
 10
324.9344460730313
 20
573.7828055037611
 10
324.9966141030467
 20
573.7886651731985
 10
325.0673120285908
 20
573.798974209589
 10
325.1237021112546
 20
573.8223658348013
 10
325.2019956014148
 20
573.8234296389523
 10
325.2445181527499
 20
573.8798893053817
 10
325.281616094999
 20
573.9099616802501
 10
325.2932453286084
 20
573.9193885824268
 72
     1
 10
325.2932453286085
 20
573.9193885824266
 11
325.8589307824722
 21
574.8987897260183
 72
     1
 10
325.8589307824722
 20
574.8987897260183
 11
325.5577046796529
 21
575.3541055148907
 72
     1
 10
325.5577046796529
 20
575.3541055148907
 11
325.1377372578703
 21
574.6269937068076
 72
     4
 94
        3
 73
     0
 74
     0
 95
       16
 96
       12
 40
0.0
 40
0.0
 40
0.0
 40
0.0
 40
0.0719416665232783
 40
0.1446253590761098
 40
0.1879779149914013
 40
0.2295440936105237
 40
0.2751936323956269
 40
0.3070718656050719
 40
0.3373215422371975
 40
0.3986635435214731
 40
0.5242542460841669
 40
0.5242542460841669
 40
0.5242542460841669
 40
0.5242542460841669
 10
325.1377372578705
 20
574.6269937068077
 10
325.1186167695785
 20
574.6087884746192
 10
325.0801785790476
 20
574.5721902364972
 10
325.0151631186715
 20
574.6048210193917
 10
324.9732566027176
 20
574.6357297184564
 10
324.9527924770868
 20
574.6756266865252
 10
324.9438064435681
 20
574.7148794250785
 10
324.9183837327742
 20
574.7422461519105
 10
324.9111846917227
 20
574.7836847220919
 10
324.9005761409447
 20
574.855920403185
 10
324.9238803944414
 20
574.915564667324
 10
324.9395373528502
 20
574.9556366551725
 72
     1
 10
324.9395373528502
 20
574.9556366551725
 11
325.350545018294
 21
575.6672359632529
 72
     1
 10
325.350545018294
 20
575.6672359632529
 11
325.0493157255389
 21
576.1225565738461
 72
     1
 10
325.0493157255389
 20
576.1225565738461
 11
324.3915987968273
 21
574.9838164705959
 97
        8
330
100030AE
330
100030AC
330
100030A2
330
100030A4
330
100030A3
330
100030AD
330
100030AB
330
100030A1
 75
     0
 76
     1
 47
0.0514683685270805
 98
        1
 10
324.7132990995384
 20
575.0600559315428
450
        0
451
        0
460
0.0
461
0.0
452
        0
462
0.0
453
        0
470

  0
LINE
  5
1000309D
102
{ACAD_REACTORS
330
10003098
102
}
330
F6
100
AcDbEntity
  8
ROGO
 62
     4
100
AcDbLine
 10
325.7031478793883
 20
576.8066593400326
 30
0.0
 11
325.6862175168935
 21
577.2252583289428
 31
0.0
  0
LINE
  5
1000309E
102
{ACAD_REACTORS
330
10003098
102
}
330
F6
100
AcDbEntity
  8
ROGO
 62
     4
100
AcDbLine
 10
325.5650270058524
 20
577.0154347877944
 30
0.0
 11
325.7031478793883
 21
576.8066593400326
 31
0.0
  0
LINE
  5
1000309F
102
{ACAD_REACTORS
330
10003098
102
}
330
F6
100
AcDbEntity
  8
ROGO
 62
     4
100
AcDbLine
 10
325.6862175168935
 20
577.2252583289428
 30
0.0
 11
326.0643653906522
 21
577.8799657418288
 31
0.0
  0
LINE
  5
100030A0
102
{ACAD_REACTORS
330
10003098
102
}
330
F6
100
AcDbEntity
  8
ROGO
 62
     4
100
AcDbLine
 10
326.4999060179536
 20
575.6023262593132
 30
0.0
 11
326.8301059172542
 21
575.1032153714175
 31
0.0
  0
LINE
  5
100030A1
102
{ACAD_REACTORS
330
1000309C
102
}
330
F6
100
AcDbEntity
  8
ROGO
 62
     4
100
AcDbLine
 10
325.0493157255389
 20
576.1225565738461
 30
0.0
 11
325.3505450182941
 21
575.6672359632529
 31
0.0
  0
LINE
  5
100030A2
102
{ACAD_REACTORS
330
1000309C
102
}
330
F6
100
AcDbEntity
  8
ROGO
 62
     4
100
AcDbLine
 10
325.2932453286085
 20
573.9193885824268
 30
0.0
 11
325.8589307824723
 21
574.8987897260185
 31
0.0
  0
LINE
  5
100030A3
102
{ACAD_REACTORS
330
1000309C
102
}
330
F6
100
AcDbEntity
  8
ROGO
 62
     4
100
AcDbLine
 10
325.1377372578704
 20
574.6269937068077
 30
0.0
 11
325.557704679653
 21
575.3541055148907
 31
0.0
  0
LINE
  5
100030A4
102
{ACAD_REACTORS
330
1000309C
102
}
330
F6
100
AcDbEntity
  8
ROGO
 62
     4
100
AcDbLine
 10
325.557704679653
 20
575.3541055148907
 30
0.0
 11
325.8589307824722
 21
574.8987897260183
 31
0.0
  0
LINE
  5
100030A5
102
{ACAD_REACTORS
330
1000305E
330
10003098
102
}
330
F6
100
AcDbEntity
  8
ROGO
 62
     4
100
AcDbLine
 10
325.1868708583411
 20
576.3607130501236
 30
0.0
 11
326.4519497697429
 21
574.4484936337469
 31
0.0
  0
SPLINE
  5
100030A6
102
{ACAD_REACTORS
330
1000305D
102
}
330
F6
100
AcDbEntity
  8
ROGO
 62
     4
100
AcDbSpline
210
0.0
220
0.0
230
1.0
 70
     8
 71
     3
 72
    25
 73
    21
 74
     0
 42
0.0000000001
 43
0.0000000001
 40
0.0
 40
0.0
 40
0.0
 40
0.0
 40
0.4087168505087288
 40
0.6887487002771746
 40
0.9415836120477687
 40
1.17452070575514
 40
1.41154617586699
 40
1.599156012919487
 40
1.80099909059943
 40
2.178735911501585
 40
2.521686161369157
 40
2.762704659361267
 40
3.06256558063785
 40
3.222432137207705
 40
3.399493810628493
 40
3.567459719866414
 40
3.743172740007509
 40
3.995988754699505
 40
4.17170091132118
 40
4.337226830236035
 40
4.337226830236035
 40
4.337226830236035
 40
4.337226830236035
 10
323.6684616272011
 20
573.7427619723676
 30
0.0
 10
323.6944484770662
 20
573.7845925567592
 30
0.0
 10
323.7382401853027
 20
573.8550833148383
 30
0.0
 10
323.8430500960587
 20
573.8973829445788
 30
0.0
 10
323.927099297766
 20
573.9275247246739
 30
0.0
 10
324.0117004248383
 20
573.9345136819036
 30
0.0
 10
324.0884484514373
 20
573.9391421597997
 30
0.0
 10
324.1610623086357
 20
573.9294604716699
 30
0.0
 10
324.2504317354069
 20
573.921720607784
 30
0.0
 10
324.3524371874317
 20
573.8809674815229
 30
0.0
 10
324.4444235429107
 20
573.8155661294749
 30
0.0
 10
324.5168028727479
 20
573.7417379214137
 30
0.0
 10
324.5684230377519
 20
573.6783332950735
 30
0.0
 10
324.6088800743769
 20
573.6153765427591
 30
0.0
 10
324.6257377180632
 20
573.5584441642472
 30
0.0
 10
324.6589811182712
 20
573.5065008684455
 30
0.0
 10
324.6705321058257
 20
573.4369351123493
 30
0.0
 10
324.6963122861886
 20
573.3710595666552
 30
0.0
 10
324.7123345016999
 20
573.3039476513686
 30
0.0
 10
324.7235526982808
 20
573.2648477524317
 30
0.0
 10
324.7267609974393
 20
573.2457964005823
 30
0.0
  0
LINE
  5
100030A7
102
{ACAD_REACTORS
330
1000305D
102
}
330
F6
100
AcDbEntity
  8
ROGO
 62
     4
100
AcDbLine
 10
323.2931212902684
 20
573.0929153964705
 30
0.0
 11
323.668461627201
 21
573.7427619723673
 31
0.0
  0
SPLINE
  5
100030A8
102
{ACAD_REACTORS
330
1000305D
102
}
330
F6
100
AcDbEntity
  8
ROGO
 62
     4
100
AcDbSpline
210
0.0
220
0.0
230
1.0
 70
     8
 71
     3
 72
    11
 73
     7
 74
     0
 42
0.0000000001
 43
0.0000000001
 40
0.1647869275458134
 40
0.1647869275458134
 40
0.1647869275458134
 40
0.1647869275458134
 40
0.2895635144633836
 40
0.5387013147903714
 40
0.7953622617455423
 40
0.8850764140209602
 40
0.8850764140209602
 40
0.8850764140209602
 40
0.8850764140209602
 10
324.7178016816451
 20
572.9816277625652
 30
0.0
 10
324.7141796044727
 20
572.9675771549914
 30
0.0
 10
324.6985014121961
 20
572.9265816789081
 30
0.0
 10
324.670378185706
 20
572.8588714099532
 30
0.0
 10
324.6444152325186
 20
572.794073314295
 30
0.0
 10
324.6235190483984
 20
572.7594525444796
 30
0.0
 10
324.6181067556318
 20
572.7504854650849
 30
0.0
  0
SPLINE
  5
100030A9
102
{ACAD_REACTORS
330
1000305D
102
}
330
F6
100
AcDbEntity
  8
ROGO
 62
     4
100
AcDbSpline
210
0.0
220
0.0
230
1.0
 70
     8
 71
     3
 72
     9
 73
     5
 74
     3
 42
0.0000000001
 43
0.0000000001
 44
0.0000000001
 40
0.0
 40
0.0
 40
0.0
 40
0.0
 40
0.1135793343551872
 40
0.2662938392177682
 40
0.2662938392177682
 40
0.2662938392177682
 40
0.2662938392177682
 10
324.7178016816451
 20
572.9816277625652
 30
0.0
 10
324.7263837847063
 20
573.0188043445532
 30
0.0
 10
324.7465050610432
 20
573.1059671616516
 30
0.0
 10
324.7339570472074
 20
573.1948333271965
 30
0.0
 10
324.7267609974393
 20
573.2457964005823
 30
0.0
 11
324.7178016816451
 21
572.9816277625652
 31
0.0
 11
324.7376048489445
 21
573.0934673787908
 31
0.0
 11
324.7267609974393
 21
573.2457964005823
 31
0.0
  0
ELLIPSE
  5
100030AA
102
{ACAD_REACTORS
330
1000305D
102
}
330
F6
100
AcDbEntity
  8
ROGO
 62
     4
100
AcDbEllipse
 10
323.9662193495814
 20
572.9033032705467
 30
0.0
 11
-0.0465916920888372
 21
0.2327967685806201
 31
0.0
210
0.0
220
0.0
230
0.9999999999999998
 40
0.6788083417438791
 41
0.0
 42
6.283185307179586
  0
LINE
  5
100030AB
102
{ACAD_REACTORS
330
1000309C
102
}
330
F6
100
AcDbEntity
  8
ROGO
 62
     4
100
AcDbLine
 10
324.9395373528502
 20
574.9556366551725
 30
0.0
 11
325.3505450182941
 21
575.6672359632529
 31
0.0
  0
SPLINE
  5
100030AC
102
{ACAD_REACTORS
330
1000309C
102
}
330
F6
100
AcDbEntity
  8
ROGO
 62
     4
100
AcDbSpline
210
0.0
220
0.0
230
1.0
 70
     8
 71
     3
 72
    26
 73
    22
 74
    20
 42
0.0000000001
 43
0.0000000001
 44
0.0000000001
 40
0.0
 40
0.0
 40
0.0
 40
0.0
 40
0.2382195346591614
 40
0.3976890672660938
 40
0.5126795869786597
 40
0.5985392873136246
 40
0.7099038249255761
 40
0.7911890807495645
 40
0.9379713068548607
 40
1.057449928673443
 40
1.138714535893119
 40
1.21839864400353
 40
1.360938021870531
 40
1.461730374800322
 40
1.516014844107842
 40
1.593124329220471
 40
1.648806818593745
 40
1.729472362005212
 40
1.775122082164281
 40
1.874460993765083
 40
1.919820003750994
 40
1.919820003750994
 40
1.919820003750994
 40
1.919820003750994
 10
324.3915987968277
 20
574.9838164705972
 30
0.0
 10
324.3553361414042
 20
574.9113879904589
 30
0.0
 10
324.2947984460696
 20
574.7904742511599
 30
0.0
 10
324.2986366153453
 20
574.6171028851521
 30
0.0
 10
324.2896523578437
 20
574.4968942295251
 30
0.0
 10
324.3125348777208
 20
574.3942441089183
 30
0.0
 10
324.3477879644425
 20
574.3083273587621
 30
0.0
 10
324.3878271768135
 20
574.2025567962344
 30
0.0
 10
324.4469426795017
 20
574.1010183818208
 30
0.0
 10
324.529405138136
 20
574.0190696450225
 30
0.0
 10
324.5938085079681
 20
573.9514711804044
 30
0.0
 10
324.6704854383346
 20
573.8846386115716
 30
0.0
 10
324.7663567676067
 20
573.8350011180357
 30
0.0
 10
324.856647505446
 20
573.7910651614961
 30
0.0
 10
324.9344460730314
 20
573.7828055037611
 30
0.0
 10
324.9966141030467
 20
573.7886651731982
 30
0.0
 10
325.0673120285909
 20
573.7989742095892
 30
0.0
 10
325.1237021112546
 20
573.8223658348013
 30
0.0
 10
325.2019956014148
 20
573.8234296389523
 30
0.0
 10
325.2445181527502
 20
573.8798893053816
 30
0.0
 10
325.281616094999
 20
573.9099616802501
 30
0.0
 10
325.2932453286084
 20
573.9193885824268
 30
0.0
 11
324.3915987968277
 21
574.9838164705972
 31
0.0
 11
324.3056007962041
 21
574.7616613658124
 31
0.0
 11
324.2959656236719
 21
574.6024831786128
 31
0.0
 11
324.2953925793029
 21
574.4874940867653
 31
0.0
 11
324.3126573657352
 21
574.4033881102175
 31
0.0
 11
324.3510405207979
 21
574.2988472395259
 31
0.0
 11
324.3816115689844
 21
574.2235298854357
 31
0.0
 11
324.4570237240722
 21
574.0976012200515
 31
0.0
 11
324.5379306455139
 21
574.0096852878521
 31
0.0
 11
324.5951148247434
 21
573.9519453014265
 31
0.0
 11
324.6558663657831
 21
573.9003816771683
 31
0.0
 11
324.7792966472683
 21
573.8290904445011
 31
0.0
 11
324.8728330586835
 21
573.7915399698213
 31
0.0
 11
324.9267362937479
 21
573.78511775388
 31
0.0
 11
325.0036848917097
 21
573.7900963044762
 31
0.0
 11
325.0585517264773
 21
573.7995920964594
 31
0.0
 11
325.1364637190027
 21
573.8204882998129
 31
0.0
 11
325.181591452628
 21
573.8273719477158
 31
0.0
 11
325.2588266773138
 21
573.889845457508
 31
0.0
 11
325.2932453286084
 21
573.9193885824268
 31
0.0
  0
SPLINE
  5
100030AD
102
{ACAD_REACTORS
330
1000309C
102
}
330
F6
100
AcDbEntity
  8
ROGO
 62
     4
100
AcDbSpline
210
0.0
220
0.0
230
1.0
 70
     8
 71
     3
 72
    16
 73
    12
 74
    10
 42
0.0000000001
 43
0.0000000001
 44
0.0000000001
 40
0.0
 40
0.0
 40
0.0
 40
0.0
 40
0.1255907025626936
 40
0.1869327038469694
 40
0.2171823804790949
 40
0.24906061368854
 40
0.2947101524736431
 40
0.3362763310927655
 40
0.379628887008057
 40
0.4523125795608886
 40
0.5242542460841669
 40
0.5242542460841669
 40
0.5242542460841669
 40
0.5242542460841669
 10
324.9395373528502
 20
574.9556366551725
 30
0.0
 10
324.9238803944415
 20
574.915564667324
 30
0.0
 10
324.9005761409449
 20
574.8559204031851
 30
0.0
 10
324.9111846917226
 20
574.7836847220919
 30
0.0
 10
324.9183837327743
 20
574.7422461519104
 30
0.0
 10
324.9438064435681
 20
574.7148794250785
 30
0.0
 10
324.9527924770868
 20
574.6756266865253
 30
0.0
 10
324.9732566027177
 20
574.6357297184564
 30
0.0
 10
325.0151631186715
 20
574.6048210193917
 30
0.0
 10
325.0801785790476
 20
574.5721902364972
 30
0.0
 10
325.1186167695785
 20
574.6087884746193
 30
0.0
 10
325.1377372578705
 20
574.6269937068077
 30
0.0
 11
324.9395373528502
 21
574.9556366551725
 31
0.0
 11
324.9072071578367
 21
574.8342785773179
 31
0.0
 11
324.9130920692477
 21
574.7732195162439
 31
0.0
 11
324.9209041761233
 21
574.7439959996431
 31
0.0
 11
324.9384551790023
 21
574.7173842719559
 31
0.0
 11
324.9550425861197
 21
574.6748550077204
 31
0.0
 11
324.975197761383
 21
574.6385023446116
 31
0.0
 11
325.0086591984011
 21
574.6109383039595
 31
0.0
 11
325.077509674238
 21
574.5876460060879
 31
0.0
 11
325.1377372578705
 21
574.6269937068077
 31
0.0
  0
LINE
  5
100030AE
102
{ACAD_REACTORS
330
1000309C
102
}
330
F6
100
AcDbEntity
  8
ROGO
 62
     4
100
AcDbLine
 10
324.3915987968281
 20
574.9838164705972
 30
0.0
 11
325.0493157255389
 21
576.1225565738461
 31
0.0
  0
LINE
  5
100030AF
102
{ACAD_REACTORS
330
10003098
102
}
330
F6
100
AcDbEntity
  8
ROGO
 62
     4
100
AcDbLine
 10
326.3311231948357
 20
576.2905589153319
 30
0.0
 11
326.0643653906522
 21
577.8799657418288
 31
0.0
  0
LINE
  5
100030B0
102
{ACAD_REACTORS
330
10003098
102
}
330
F6
100
AcDbEntity
  8
ROGO
 62
     4
100
AcDbLine
 10
325.1868708583411
 20
576.3607130501236
 30
0.0
 11
325.5650270058524
 21
577.0154347877944
 31
0.0
  0
LINE
  5
100030B1
330
F6
100
AcDbEntity
  8
目盛
100
AcDbLine
 10
322.4742029404704
 20
587.3821654551893
 30
0.0
 11
323.1710198513627
 21
585.5074798301591
 31
0.0
  0
LINE
  5
100030B2
330
F6
100
AcDbEntity
  8
目盛
100
AcDbLine
 10
321.136321973959
 20
586.8364587186215
 30
0.0
 11
322.3560535533209
 21
584.0956094206285
 31
0.0
  0
LINE
  5
100030B3
330
F6
100
AcDbEntity
  8
目盛
100
AcDbLine
 10
321.8009761339867
 20
587.1198206437532
 30
0.0
 11
322.5563345063124
 21
585.2679476110218
 31
0.0
  0
LINE
  5
100030B4
330
F6
100
AcDbEntity
  8
目盛
100
AcDbLine
 10
319.2003085309197
 20
585.8631687318696
 30
0.0
 11
320.1818119122078
 21
584.1205697784325
 31
0.0
  0
LINE
  5
100030B5
330
F6
100
AcDbEntity
  8
目盛
100
AcDbLine
 10
318.5764100338122
 20
585.4987379450756
 30
0.0
 11
319.6121654583272
 21
583.7878286252728
 31
0.0
  0
LINE
  5
100030B6
330
F6
100
AcDbEntity
  8
目盛
100
AcDbLine
 10
320.4808963937996
 20
586.5323593238035
 30
0.0
 11
321.3510443087504
 21
584.7315698841112
 31
0.0
  0
LINE
  5
100030B7
330
F6
100
AcDbEntity
  8
目盛
100
AcDbLine
 10
319.835346219425
 20
586.207822568688
 30
0.0
 11
320.7616289321475
 21
584.4352537163969
 31
0.0
  0
LINE
  5
100030B8
330
F6
100
AcDbEntity
  8
目盛
100
AcDbLine
 10
323.1553379998326
 20
587.6232342502742
 30
0.0
 11
323.7929257751285
 21
585.7275861213236
 31
0.0
  0
LINE
  5
100030B9
330
F6
100
AcDbEntity
  8
目盛
100
AcDbLine
 10
326.6558743414333
 20
588.5018587272131
 30
0.0
 11
326.9890676522419
 21
586.5298084698329
 31
0.0
  0
LINE
  5
100030BA
330
F6
100
AcDbEntity
  8
目盛
100
AcDbLine
 10
325.945413716934
 20
588.370310887658
 30
0.0
 11
326.3403862124818
 21
586.4096995728478
 31
0.0
  0
LINE
  5
100030BB
330
F6
100
AcDbEntity
  8
目盛
100
AcDbLine
 10
325.2394356793602
 20
588.2165118515096
 30
0.0
 11
325.6957975694796
 21
586.2692743659302
 31
0.0
  0
LINE
  5
100030BC
330
F6
100
AcDbEntity
  8
目盛
100
AcDbLine
 10
324.5386369438027
 20
588.0406133998494
 30
0.0
 11
325.3145883097067
 21
585.1427004477834
 31
0.0
  0
LINE
  5
100030BD
330
F6
100
AcDbEntity
  8
目盛
100
AcDbLine
 10
323.8437091140037
 20
587.8427891232115
 30
0.0
 11
324.4214385315453
 21
585.9280492661796
 31
0.0
  0
TEXT
  5
100030BE
330
F6
100
AcDbEntity
  8
文字
100
AcDbText
 10
334.3922165701344
 20
581.5982088189557
 30
0.0
 40
2.0
  1
.4
 50
59.99000000000019
  7
STYLE3
100
AcDbText
  0
TEXT
  5
100030BF
330
F6
100
AcDbEntity
  8
文字
100
AcDbText
 10
328.8805108253241
 20
581.7699750428819
 30
0.0
 40
2.0
  1
.3
 50
59.99000000000019
  7
STYLE3
100
AcDbText
  0
LINE
  5
100030C0
102
{ACAD_REACTORS
330
10003098
102
}
330
F6
100
AcDbEntity
  8
ROGO
 62
     4
100
AcDbLine
 10
327.0972359313238
 20
575.5657116924394
 30
0.0
 11
327.4753838050827
 21
576.2204191053249
 31
0.0
  0
LINE
  5
100030C1
330
F6
100
AcDbEntity
  8
目盛
100
AcDbLine
 10
330.2507604218835
 20
588.8220613488949
 30
0.0
 11
330.2713549430878
 21
586.8221673852818
 31
0.0
  0
LINE
  5
100030C2
330
F6
100
AcDbEntity
  8
目盛
100
AcDbLine
 10
330.9732864425805
 20
588.818152068771
 30
0.0
 11
330.931052614159
 21
586.8185980425598
 31
0.0
  0
LINE
  5
100030C3
330
F6
100
AcDbEntity
  8
目盛
100
AcDbLine
 10
329.528468130705
 20
588.8032736092616
 30
0.0
 11
329.611870677229
 21
586.8050133621381
 31
0.0
  0
LINE
  5
100030C4
330
F6
100
AcDbEntity
  8
目盛
100
AcDbLine
 10
328.8071223843342
 20
588.7618073911014
 30
0.0
 11
328.9532506479341
 21
586.767152902079
 31
0.0
  0
LINE
  5
100030C5
330
F6
100
AcDbEntity
  8
目盛
100
AcDbLine
 10
328.0874350639327
 20
588.6977036165656
 30
0.0
 11
328.4004997185154
 21
585.7140832449276
 31
0.0
  0
LINE
  5
100030C6
330
F6
100
AcDbEntity
  8
目盛
100
AcDbLine
 10
327.3701164139978
 20
588.6110255483397
 30
0.0
 11
327.6412017184968
 21
586.6294825239051
 31
0.0
  0
LINE
  5
100030C7
330
F6
100
AcDbEntity
  8
目盛
100
AcDbLine
 10
331.6953331468468
 20
588.7915496268765
 30
0.0
 11
331.5378023993103
 21
585.7956884712852
 31
0.0
  0
LINE
  5
100030C8
330
F6
100
AcDbEntity
  8
目盛
100
AcDbLine
 10
335.9777652393131
 20
588.1584113304033
 30
0.0
 11
335.5003593416105
 21
586.2162260640502
 31
0.0
  0
LINE
  5
100030C9
330
F6
100
AcDbEntity
  8
目盛
100
AcDbLine
 10
333.1351394906414
 20
588.6703926408736
 30
0.0
 11
332.9049184406494
 21
586.6836872605663
 31
0.0
  0
LINE
  5
100030CA
330
F6
100
AcDbEntity
  8
目盛
100
AcDbLine
 10
333.8514782151384
 20
588.5759576640823
 30
0.0
 11
333.558966841277
 21
586.5974640208878
 31
0.0
  0
LINE
  5
100030CB
330
F6
100
AcDbEntity
  8
目盛
100
AcDbLine
 10
334.5644971954134
 20
588.4590685421581
 30
0.0
 11
334.2099841710933
 21
586.4907391704353
 31
0.0
  0
LINE
  5
100030CC
330
F6
100
AcDbEntity
  8
目盛
100
AcDbLine
 10
335.273492767815
 20
588.319840630552
 30
0.0
 11
334.6492455479784
 21
585.3855067353511
 31
0.0
  0
LINE
  5
100030CD
330
F6
100
AcDbEntity
  8
目盛
100
AcDbLine
 10
332.4161879617575
 20
588.7422802766109
 30
0.0
 11
332.248484436016
 21
586.7493237975443
 31
0.0
  0
LINE
  5
100030CE
330
F6
100
AcDbEntity
  8
目盛
100
AcDbLine
 10
345.8746179530738
 20
548.7282639793007
 30
0.0
 11
343.8676152742902
 21
550.9580487777412
 31
0.0
  0
LINE
  5
100030CF
330
F6
100
AcDbEntity
  8
目盛
100
AcDbLine
 10
346.4039928410529
 20
549.2200173331609
 30
0.0
 11
345.0199584562425
 21
550.6637793709159
 31
0.0
  0
LINE
  5
100030D0
330
F6
100
AcDbEntity
  8
目盛
100
AcDbLine
 10
346.9176601683575
 20
549.7281561034951
 30
0.0
 11
345.4889590594334
 21
551.1277321612209
 31
0.0
  0
LINE
  5
100030D1
330
F6
100
AcDbEntity
  8
目盛
100
AcDbLine
 10
347.4151130073502
 20
550.2521788186832
 30
0.0
 11
345.9431551298183
 21
551.6061876837842
 31
0.0
  0
LINE
  5
100030D2
330
F6
100
AcDbEntity
  8
外形線
100
AcDbLine
 10
341.4419770910429
 20
508.0159306019819
 30
0.0
 11
346.3849639772161
 21
507.1677675026202
 31
0.0
  0
LINE
  5
100030D3
330
F6
100
AcDbEntity
  8
外形線
100
AcDbLine
 10
339.2212885730073
 20
510.9760646286086
 30
0.0
 11
341.2995400709237
 21
509.7757018870144
 31
0.0
  0
LINE
  5
100030D4
330
F6
100
AcDbEntity
  8
外形線
100
AcDbLine
 10
344.8289861592112
 20
509.1636053958446
 30
0.0
 11
343.8954889384768
 21
507.5473922878668
 31
0.0
  0
LINE
  5
100030D5
330
F6
100
AcDbEntity
  8
外形線
100
AcDbLine
 10
344.8539696899603
 20
509.2068607039307
 30
0.0
 11
343.920472469226
 21
507.590647595953
 31
0.0
  0
LINE
  5
100030D6
330
F6
100
AcDbEntity
  8
目盛
100
AcDbLine
 10
345.3300579335214
 20
548.2533813431037
 30
0.0
 11
344.0394091928443
 21
549.7811986843418
 31
0.0
  0
LINE
  5
100030D7
330
F6
100
AcDbEntity
  8
目盛
100
AcDbLine
 10
341.1398486120419
 20
545.4387389659997
 30
0.0
 11
340.2135658993196
 21
547.2113078182903
 31
0.0
  0
LINE
  5
100030D8
330
F6
100
AcDbEntity
  8
目盛
100
AcDbLine
 10
340.4942984376674
 20
545.1142022108837
 30
0.0
 11
339.6241505227166
 21
546.9149916505759
 31
0.0
  0
LINE
  5
100030D9
330
F6
100
AcDbEntity
  8
目盛
100
AcDbLine
 10
339.1742186974805
 20
544.5267408909341
 30
0.0
 11
338.4188603251546
 21
546.3786139236654
 31
0.0
  0
LINE
  5
100030DA
330
F6
100
AcDbEntity
  8
目盛
100
AcDbLine
 10
339.8388728575081
 20
544.810102816066
 30
0.0
 11
338.6191412781462
 21
547.5509521140587
 31
0.0
  0
LINE
  5
100030DB
330
F6
100
AcDbEntity
  8
目盛
100
AcDbLine
 10
337.8198568316345
 20
544.0233272844132
 30
0.0
 11
337.1822690563385
 21
545.9189754133636
 31
0.0
  0
LINE
  5
100030DC
330
F6
100
AcDbEntity
  8
目盛
100
AcDbLine
 10
337.1314857174634
 20
543.8037724114757
 30
0.0
 11
336.5537562999216
 21
545.7185122685078
 31
0.0
  0
LINE
  5
100030DD
330
F6
100
AcDbEntity
  8
目盛
100
AcDbLine
 10
338.5009918909966
 20
544.2643960794981
 30
0.0
 11
337.8041749801043
 21
546.1390817045281
 31
0.0
  0
TEXT
  5
100030DE
330
F6
100
AcDbEntity
  8
文字
100
AcDbText
 10
337.2864746206124
 20
547.2918542160251
 30
0.0
 40
2.0
  1
.2
 50
59.99000000000019
  7
STYLE3
100
AcDbText
  0
LINE
  5
100030DF
330
F6
100
AcDbEntity
  8
目盛
100
AcDbLine
 10
344.1975466152015
 20
547.3560857191507
 30
0.0
 11
343.0053771195954
 21
548.9619287668195
 31
0.0
  0
LINE
  5
100030E0
330
F6
100
AcDbEntity
  8
目盛
100
AcDbLine
 10
344.7708501973905
 20
547.795838076399
 30
0.0
 11
343.5288282163768
 21
549.3634417886552
 31
0.0
  0
LINE
  5
100030E1
330
F6
100
AcDbEntity
  8
目盛
100
AcDbLine
 10
342.3987847976547
 20
546.1478235896122
 30
0.0
 11
341.3630293731399
 21
547.8587329094149
 31
0.0
  0
LINE
  5
100030E2
330
F6
100
AcDbEntity
  8
目盛
100
AcDbLine
 10
341.7748863005475
 20
545.7833928028175
 30
0.0
 11
340.7933829192593
 21
547.5259917562547
 31
0.0
  0
LINE
  5
100030E3
330
F6
100
AcDbEntity
  8
目盛
100
AcDbLine
 10
343.6107129683751
 20
546.9345582538435
 30
0.0
 11
342.4695724855365
 21
548.577055863713
 31
0.0
  0
LINE
  5
100030E4
330
F6
100
AcDbEntity
  8
目盛
100
AcDbLine
 10
343.010928390871
 20
546.5316716771935
 30
0.0
 11
341.3774504375922
 21
549.0479685150392
 31
0.0
  0
LINE
  5
100030E5
330
F6
100
AcDbEntity
  8
目盛
100
AcDbLine
 10
352.2875508986639
 20
573.1555401832443
 30
0.0
 11
350.3919027697133
 21
572.5179524079485
 31
0.0
  0
TEXT
  5
100030E6
330
F6
100
AcDbEntity
  8
文字
100
AcDbText
 10
346.6707652730151
 20
571.008795035537
 30
0.0
 40
2.0
  1
.7
 50
59.99000000000019
  7
STYLE3
100
AcDbText
  0
TEXT
  5
100030E7
330
F6
100
AcDbEntity
  8
文字
100
AcDbText
 10
338.6033284098916
 20
561.1075551337727
 30
0.0
 40
0.7
  1
6
 50
59.99000000000019
  7
STYLE3
100
AcDbText
  0
TEXT
  5
100030E8
330
F6
100
AcDbEntity
  8
文字
100
AcDbText
 10
340.7449401933021
 20
556.1436628613851
 30
0.0
 40
0.7
  1
0
 50
59.99000000000019
  7
STYLE3
100
AcDbText
  0
TEXT
  5
100030E9
330
F6
100
AcDbEntity
  8
文字
100
AcDbText
 10
340.5168809758685
 20
560.0061374813289
 30
0.0
 40
0.7
  1
4
 50
59.99000000000019
  7
STYLE3
100
AcDbText
  0
LINE
  5
100030EA
330
F6
100
AcDbEntity
  8
目盛
100
AcDbLine
 10
339.6789382950952
 20
553.9194826150427
 30
0.0
 11
339.4756496985348
 21
554.3762908313748
 31
0.0
  0
LINE
  5
100030EB
330
F6
100
AcDbEntity
  8
目盛
100
AcDbLine
 10
336.759305196364
 20
553.613132002796
 30
0.0
 11
336.8633463996702
 21
554.1021876519962
 31
0.0
  0
TEXT
  5
100030EC
330
F6
100
AcDbEntity
  8
文字
100
AcDbText
 10
339.280643834782
 20
554.7722125442585
 30
0.0
 40
0.7
  1
8
 50
59.99000000000019
  7
STYLE3
100
AcDbText
  0
TEXT
  5
100030ED
330
F6
100
AcDbEntity
  8
文字
100
AcDbText
 10
337.1817442981973
 20
554.6256619408158
 30
0.0
 40
0.7
  1
6
 50
59.99000000000019
  7
STYLE3
100
AcDbText
  0
CIRCLE
  5
100030EE
330
F6
100
AcDbEntity
  8
外形線
100
AcDbCircle
 10
337.7476966277723
 20
558.2591606701976
 30
0.0
 40
1.149999999999999
  0
TEXT
  5
100030EF
330
F6
100
AcDbEntity
  8
文字
100
AcDbText
 10
342.1524556272049
 20
550.5062197275038
 30
0.0
 40
2.0
  1
.1
 50
59.99000000000019
  7
STYLE3
100
AcDbText
  0
LINE
  5
100030F0
330
F6
100
AcDbEntity
  8
目盛
100
AcDbLine
 10
341.8609027173991
 20
555.8834427441263
 30
0.0
 11
341.4279336553332
 21
556.1335183152916
 31
0.0
  0
LINE
  5
100030F1
330
F6
100
AcDbEntity
  8
目盛
100
AcDbLine
 10
341.2781892253027
 20
561.4369149116051
 30
0.0
 11
340.9065584255628
 21
561.1024144651413
 31
0.0
  0
LINE
  5
100030F2
330
F6
100
AcDbEntity
  8
目盛
100
AcDbLine
 10
342.4717622161983
 20
558.7548463732873
 30
0.0
 11
341.9744921542588
 21
558.7026689308568
 31
0.0
  0
TEXT
  5
100030F3
330
F6
100
AcDbEntity
  8
文字
100
AcDbText
 10
341.1119849155948
 20
558.1274199846197
 30
0.0
 40
0.7
  1
2
 50
59.99000000000019
  7
STYLE3
100
AcDbText
  0
LINE
  5
100030F4
330
F6
100
AcDbEntity
  8
目盛
100
AcDbLine
 10
338.7360880591803
 20
562.9051893375995
 30
0.0
 11
338.6320468558743
 21
562.4161336883995
 31
0.0
  0
LINE
  5
100030F5
330
F6
100
AcDbEntity
  8
目盛
100
AcDbLine
 10
352.984157278942
 20
561.0373854152625
 30
0.0
 11
350.0498233837409
 21
561.6616326350992
 31
0.0
  0
TEXT
  5
100030F6
330
F6
100
AcDbEntity
  8
文字
100
AcDbText
 10
348.0916755287899
 20
560.032381948945
 30
0.0
 40
2.0
  1
.9
 50
59.99000000000019
  7
STYLE3
100
AcDbText
  0
LINE
  5
100030F7
330
F6
100
AcDbEntity
  8
目盛
100
AcDbLine
 10
350.4041742707686
 20
554.3198044937342
 30
0.0
 11
347.8063598983727
 21
555.8202579207268
 31
0.0
  0
LINE
  5
100030F8
330
F6
100
AcDbEntity
  8
目盛
100
AcDbLine
 10
350.7556795641606
 20
554.9510755621144
 30
0.0
 11
348.9932376382102
 21
555.8964847103952
 31
0.0
  0
LINE
  5
100030F9
330
F6
100
AcDbEntity
  8
目盛
100
AcDbLine
 10
351.0871827074674
 20
555.5930761844146
 30
0.0
 11
349.2959144212296
 21
556.482659191626
 31
0.0
  0
LINE
  5
100030FA
330
F6
100
AcDbEntity
  8
目盛
100
AcDbLine
 10
349.6425642042413
 20
553.0919317684687
 30
0.0
 11
347.9769149182842
 21
554.1990055944579
 31
0.0
  0
LINE
  5
100030FB
330
F6
100
AcDbEntity
  8
目盛
100
AcDbLine
 10
350.0330137205779
 20
553.6998859676056
 30
0.0
 11
348.3334123027652
 21
554.7540942110608
 31
0.0
  0
LINE
  5
100030FC
330
F6
100
AcDbEntity
  8
目盛
100
AcDbLine
 10
347.8063598983726
 20
555.8202579207272
 30
0.0
 11
350.4041742707686
 21
554.3198044937351
 31
0.0
  0
LINE
  5
100030FD
330
F6
100
AcDbEntity
  8
目盛
100
AcDbLine
 10
351.9585083169835
 20
557.5770704213373
 30
0.0
 11
349.1579547211683
 21
558.6526630751641
 31
0.0
  0
LINE
  5
100030FE
330
F6
100
AcDbEntity
  8
目盛
100
AcDbLine
 10
349.2332110482915
 20
552.4965418737187
 30
0.0
 11
347.6031576889387
 21
553.6553887340338
 31
0.0
  0
LINE
  5
100030FF
330
F6
100
AcDbEntity
  8
目盛
100
AcDbLine
 10
348.3594280030536
 20
551.3457923298373
 30
0.0
 11
346.028319665577
 21
553.2341603869033
 31
0.0
  0
LINE
  5
10003100
330
F6
100
AcDbEntity
  8
目盛
100
AcDbLine
 10
347.8958604321381
 20
550.7915683315738
 30
0.0
 11
346.3820984307117
 21
552.0986737607712
 31
0.0
  0
LINE
  5
10003101
330
F6
100
AcDbEntity
  8
目盛
100
AcDbLine
 10
348.8053582348719
 20
551.9143038613007
 30
0.0
 11
347.2125094679903
 21
553.1237801140001
 31
0.0
  0
TEXT
  5
10003102
330
F6
100
AcDbEntity
  8
文字
100
AcDbText
 10
346.8547356349223
 20
555.2910277059709
 30
0.0
 40
2.0
  1
0
 50
59.99000000000019
  7
STYLE3
100
AcDbText
  0
LINE
  5
10003103
330
F6
100
AcDbEntity
  8
目盛
100
AcDbLine
 10
351.3983565471094
 20
556.2451727835305
 30
0.0
 11
349.5800296661201
 21
557.0780517386447
 31
0.0
  0
LINE
  5
10003104
330
F6
100
AcDbEntity
  8
目盛
100
AcDbLine
 10
351.6888939920751
 20
556.9067218188479
 30
0.0
 11
349.8453029854367
 21
557.6820747708909
 31
0.0
  0
LINE
  5
10003105
330
F6
100
AcDbEntity
  8
目盛
100
AcDbLine
 10
352.8227279787933
 20
560.3331129437639
 30
0.0
 11
350.8805427124404
 21
560.8105188414667
 31
0.0
  0
LINE
  5
10003106
330
F6
100
AcDbEntity
  8
目盛
100
AcDbLine
 10
352.639256601332
 20
559.6342586050725
 30
0.0
 11
350.7130253678017
 21
560.1724344452701
 31
0.0
  0
LINE
  5
10003107
330
F6
100
AcDbEntity
  8
目盛
100
AcDbLine
 10
352.2069334450472
 20
558.2555570378622
 30
0.0
 11
350.3182955294545
 21
558.9136199708605
 31
0.0
  0
LINE
  5
10003108
330
F6
100
AcDbEntity
  8
目盛
100
AcDbLine
 10
352.4339242106567
 20
558.9415120840449
 30
0.0
 11
350.5255479676198
 21
559.5399267521577
 31
0.0
  0
TEXT
  5
10003109
330
F6
100
AcDbEntity
  8
文字
100
AcDbText
 10
348.3149747641805
 20
566.1647378048473
 30
0.0
 40
2.0
  1
.8
 50
59.99000000000019
  7
STYLE3
100
AcDbText
  0
LINE
  5
1000310A
330
F6
100
AcDbEntity
  8
目盛
100
AcDbLine
 10
352.5071057716013
 20
572.4671690690736
 30
0.0
 11
350.5923659145694
 21
571.8894396515318
 31
0.0
  0
LINE
  5
1000310B
330
F6
100
AcDbEntity
  8
目盛
100
AcDbLine
 10
352.8808284998998
 20
571.071442503717
 30
0.0
 11
350.9335910143199
 21
570.6150806135976
 31
0.0
  0
LINE
  5
1000310C
330
F6
100
AcDbEntity
  8
目盛
100
AcDbLine
 10
353.4261240394913
 20
567.503755798743
 30
0.0
 11
351.4314695504688
 21
567.3576275351431
 31
0.0
  0
LINE
  5
1000310D
330
F6
100
AcDbEntity
  8
目盛
100
AcDbLine
 10
353.0346275360477
 20
570.3654644661431
 30
0.0
 11
351.0740162212376
 21
569.9704919705957
 31
0.0
  0
LINE
  5
1000310E
330
F6
100
AcDbEntity
  8
目盛
100
AcDbLine
 10
353.2753421967296
 20
568.9407617690792
 30
0.0
 11
351.2937991722951
 21
568.6696764645805
 31
0.0
  0
LINE
  5
1000310F
330
F6
100
AcDbEntity
  8
目盛
100
AcDbLine
 10
353.1661753756028
 20
569.655003841644
 30
0.0
 11
351.194125118223
 21
569.3218105308355
 31
0.0
  0
LINE
  5
10003110
330
F6
100
AcDbEntity
  8
目盛
100
AcDbLine
 10
352.7049300482391
 20
571.7722412392747
 30
0.0
 11
349.8070170961732
 21
570.9962898733704
 31
0.0
  0
LINE
  5
10003111
330
F6
100
AcDbEntity
  8
目盛
100
AcDbLine
 10
353.362020264955
 20
568.2234431191445
 30
0.0
 11
350.3783998933175
 21
567.9103784645617
 31
0.0
  0
LINE
  5
10003112
330
F6
100
AcDbEntity
  8
目盛
100
AcDbLine
 10
353.486377997285
 20
566.0601177611938
 30
0.0
 11
351.4864840336716
 21
566.0395232399894
 31
0.0
  0
LINE
  5
10003113
330
F6
100
AcDbEntity
  8
目盛
100
AcDbLine
 10
353.4675902576513
 20
566.7824100523725
 30
0.0
 11
351.4693300105282
 21
566.6990075058484
 31
0.0
  0
LINE
  5
10003114
330
F6
100
AcDbEntity
  8
目盛
100
AcDbLine
 10
353.2402743124724
 20
562.4593999679388
 30
0.0
 11
351.2617806692777
 21
562.7519113418001
 31
0.0
  0
LINE
  5
10003115
330
F6
100
AcDbEntity
  8
目盛
100
AcDbLine
 10
353.1233851905482
 20
561.7463809876638
 30
0.0
 11
351.1550558188251
 21
562.1008940119837
 31
0.0
  0
LINE
  5
10003116
330
F6
100
AcDbEntity
  8
目盛
100
AcDbLine
 10
353.4558662752665
 20
564.6155450362305
 30
0.0
 11
350.460005119675
 21
564.7730757837669
 31
0.0
  0
LINE
  5
10003117
330
F6
100
AcDbEntity
  8
目盛
100
AcDbLine
 10
353.3347092892636
 20
563.1757386924356
 30
0.0
 11
351.3480039089565
 21
563.4059597424277
 31
0.0
  0
LINE
  5
10003118
330
F6
100
AcDbEntity
  8
目盛
100
AcDbLine
 10
353.4065969250006
 20
563.8946902213197
 30
0.0
 11
351.4136404459338
 21
564.0623937470609
 31
0.0
  0
LINE
  5
10003119
330
F6
100
AcDbEntity
  8
目盛
100
AcDbLine
 10
353.4824687171607
 20
565.3375917404966
 30
0.0
 11
351.4829146909494
 21
565.3798255689182
 31
0.0
  0
LINE
  5
1000311A
330
F6
100
AcDbEntity
  8
目盛
100
AcDbLine
 10
346.0586993643938
 20
582.7507963589603
 30
0.0
 11
344.7046904992929
 21
581.2788384814282
 31
0.0
  0
LINE
  5
1000311B
330
F6
100
AcDbEntity
  8
目盛
100
AcDbLine
 10
345.5193098515033
 20
583.2315437837483
 30
0.0
 11
344.212204422306
 21
581.7177817823219
 31
0.0
  0
LINE
  5
1000311C
330
F6
100
AcDbEntity
  8
目盛
100
AcDbLine
 10
344.9650858532398
 20
583.6951113546636
 30
0.0
 11
343.0767177961739
 21
581.3640030171868
 31
0.0
  0
LINE
  5
1000311D
330
F6
100
AcDbEntity
  8
目盛
100
AcDbLine
 10
344.3965743217762
 20
584.1410415864823
 30
0.0
 11
343.187098069077
 21
582.5481928196004
 31
0.0
  0
LINE
  5
1000311E
330
F6
100
AcDbEntity
  8
目盛
100
AcDbLine
 10
340.4906202623497
 20
583.1420432499831
 30
0.0
 11
341.9910736893422
 21
585.7398576223788
 31
0.0
  0
LINE
  5
1000311F
330
F6
100
AcDbEntity
  8
目盛
100
AcDbLine
 10
342.6109922154716
 20
585.368697072188
 30
0.0
 11
341.5567839720162
 21
583.6690956543755
 31
0.0
  0
LINE
  5
10003120
330
F6
100
AcDbEntity
  8
目盛
100
AcDbLine
 10
343.8143363093583
 20
584.5688943999016
 30
0.0
 11
342.6554894490432
 21
582.9388410405488
 31
0.0
  0
LINE
  5
10003121
330
F6
100
AcDbEntity
  8
目盛
100
AcDbLine
 10
343.2189464146085
 20
584.9782475558513
 30
0.0
 11
342.1118725886193
 21
583.3125982698943
 31
0.0
  0
TEXT
  5
10003122
330
F6
100
AcDbEntity
  8
文字
100
AcDbText
 10
339.5250765613765
 20
579.2751221617916
 30
0.0
 40
2.0
  1
.5
 50
59.99000000000019
  7
STYLE3
100
AcDbText
  0
TEXT
  5
10003123
330
F6
100
AcDbEntity
  8
文字
100
AcDbText
 10
343.5230763377825
 20
575.7682213582995
 30
0.0
 40
2.0
  1
.6
 50
59.99000000000019
  7
STYLE3
100
AcDbText
  0
LINE
  5
10003124
330
F6
100
AcDbEntity
  8
目盛
100
AcDbLine
 10
341.3598026209626
 20
586.0913629157705
 30
0.0
 11
340.4143934726818
 21
584.3289209898204
 31
0.0
  0
LINE
  5
10003125
330
F6
100
AcDbEntity
  8
目盛
100
AcDbLine
 10
340.7178019986621
 20
586.4228660590774
 30
0.0
 11
339.828218991451
 21
584.63159777284
 31
0.0
  0
LINE
  5
10003126
330
F6
100
AcDbEntity
  8
目盛
100
AcDbLine
 10
339.4041563642293
 20
587.0245773436854
 30
0.0
 11
338.6288034121859
 21
585.1809863370469
 31
0.0
  0
LINE
  5
10003127
330
F6
100
AcDbEntity
  8
目盛
100
AcDbLine
 10
340.0657053995465
 20
586.7340398987193
 30
0.0
 11
339.2328264444324
 21
584.9157130177302
 31
0.0
  0
LINE
  5
10003128
330
F6
100
AcDbEntity
  8
目盛
100
AcDbLine
 10
337.3693660990324
 20
587.7696075622666
 30
0.0
 11
336.7709514309195
 21
585.86123131923
 31
0.0
  0
LINE
  5
10003129
330
F6
100
AcDbEntity
  8
目盛
100
AcDbLine
 10
338.0553211452152
 20
587.5426167966573
 30
0.0
 11
337.3972582122166
 21
585.6539788810648
 31
0.0
  0
LINE
  5
1000312A
330
F6
100
AcDbEntity
  8
目盛
100
AcDbLine
 10
336.6766195780048
 20
587.9749399529423
 30
0.0
 11
336.1384437378072
 21
586.0487087194122
 31
0.0
  0
LINE
  5
1000312B
330
F6
100
AcDbEntity
  8
目盛
100
AcDbLine
 10
338.7338077617398
 20
587.2941916685936
 30
0.0
 11
337.658215107913
 21
584.4936380727784
 31
0.0
  0
LINE
  5
1000312C
330
F6
100
AcDbEntity
  8
目盛
100
AcDbLine
 10
351.5007753670112
 20
575.1745562091184
 30
0.0
 11
348.7599260690185
 21
573.9548246297565
 31
0.0
  0
LINE
  5
1000312D
330
F6
100
AcDbEntity
  8
目盛
100
AcDbLine
 10
351.1966759721933
 20
575.8299817892773
 30
0.0
 11
349.3958865325012
 21
574.9598338743266
 31
0.0
  0
LINE
  5
1000312E
330
F6
100
AcDbEntity
  8
目盛
100
AcDbLine
 10
350.8721392170774
 20
576.4755319636521
 30
0.0
 11
349.0995703647869
 21
575.5492492509299
 31
0.0
  0
LINE
  5
1000312F
330
F6
100
AcDbEntity
  8
目盛
100
AcDbLine
 10
349.7792065058835
 20
578.3466117424811
 30
0.0
 11
347.2629096680379
 21
576.7131337892021
 31
0.0
  0
LINE
  5
10003130
330
F6
100
AcDbEntity
  8
目盛
100
AcDbLine
 10
350.5274853802594
 20
577.1105696521576
 30
0.0
 11
348.7848864268224
 21
576.1290662708695
 31
0.0
  0
LINE
  5
10003131
330
F6
100
AcDbEntity
  8
目盛
100
AcDbLine
 10
350.1630545934653
 20
577.7344681492652
 30
0.0
 11
348.4521452736625
 21
576.69871272475
 31
0.0
  0
LINE
  5
10003132
330
F6
100
AcDbEntity
  8
目盛
100
AcDbLine
 10
348.9547924639267
 20
579.5332299668114
 30
0.0
 11
347.3489494162576
 21
578.3410604712055
 31
0.0
  0
LINE
  5
10003133
330
F6
100
AcDbEntity
  8
目盛
100
AcDbLine
 10
349.3763199292339
 20
578.9463963199852
 30
0.0
 11
347.7338223193643
 21
577.8052558371471
 31
0.0
  0
LINE
  5
10003134
330
F6
100
AcDbEntity
  8
目盛
100
AcDbLine
 10
347.0908608499162
 20
581.7396761926629
 30
0.0
 11
345.6470988121611
 21
580.3556418078524
 31
0.0
  0
LINE
  5
10003135
330
F6
100
AcDbEntity
  8
目盛
100
AcDbLine
 10
346.5827220795824
 20
582.2533435199675
 30
0.0
 11
345.1831460218565
 21
580.8246424110437
 31
0.0
  0
LINE
  5
10003136
330
F6
100
AcDbEntity
  8
目盛
100
AcDbLine
 10
347.5826142037764
 20
581.2103013046839
 30
0.0
 11
345.352829405336
 21
579.2032986259003
 31
0.0
  0
LINE
  5
10003137
330
F6
100
AcDbEntity
  8
目盛
100
AcDbLine
 10
348.515040106678
 20
580.1065335490005
 30
0.0
 11
346.947436394422
 21
578.8645115679869
 31
0.0
  0
LINE
  5
10003138
330
F6
100
AcDbEntity
  8
目盛
100
AcDbLine
 10
348.0574968399734
 20
580.6657412851316
 30
0.0
 11
346.5296794987351
 21
579.3750925444544
 31
0.0
  0
LINE
  5
10003139
330
F6
100
AcDbEntity
  8
目盛
100
AcDbLine
 10
351.7841372921429
 20
574.5099020490906
 30
0.0
 11
349.9322642594116
 21
573.7545436767647
 31
0.0
  0
LINE
  5
1000313A
330
F6
100
AcDbEntity
  8
目盛
100
AcDbLine
 10
352.0464821035789
 20
573.836675242607
 30
0.0
 11
350.171796478549
 21
573.1398583317147
 31
0.0
  0
LINE
  5
1000314A
330
F6
100
AcDbEntity
  8
握り
100
AcDbLine
 10
439.8285777534682
 20
481.575155443888
 30
0.0
 11
447.1752779211841
 21
481.575155443888
 31
0.0
  0
LINE
  5
1000314B
330
F6
100
AcDbEntity
  8
握り
100
AcDbLine
 10
439.8285777534682
 20
453.175155443888
 30
0.0
 11
447.1752779211841
 21
453.175155443888
 31
0.0
  0
LINE
  5
1000314C
330
F6
100
AcDbEntity
  8
握り
100
AcDbLine
 10
439.8285777534683
 20
481.5751554438881
 30
0.0
 11
439.8285777534683
 21
453.175155443888
 31
0.0
  0
LINE
  5
1000314D
330
F6
100
AcDbEntity
  8
握り
100
AcDbLine
 10
419.8285777534683
 20
460.721855443888
 30
0.0
 11
427.175277921184
 21
460.7218554438881
 31
0.0
  0
LINE
  5
1000314E
330
F6
100
AcDbEntity
  8
握り
100
AcDbLine
 10
419.8285777534683
 20
453.175155443888
 30
0.0
 11
427.175277921184
 21
453.175155443888
 31
0.0
  0
LINE
  5
1000314F
330
F6
100
AcDbEntity
  8
握り
100
AcDbLine
 10
409.828577753468
 20
460.721855443888
 30
0.0
 11
417.1752779211839
 21
460.721855443888
 31
0.0
  0
LINE
  5
10003150
330
F6
100
AcDbEntity
  8
握り
100
AcDbLine
 10
409.8285777534684
 20
453.175155443888
 30
0.0
 11
417.1752779211839
 21
453.175155443888
 31
0.0
  0
LINE
  5
10003151
330
F6
100
AcDbEntity
  8
握り
100
AcDbLine
 10
409.8285777534682
 20
460.721855443888
 30
0.0
 11
409.8285777534683
 21
453.175155443888
 31
0.0
  0
ARC
  5
10003152
330
F6
100
AcDbEntity
  8
握り
100
AcDbCircle
 10
418.5019278373261
 20
453.8751554438881
 30
0.0
 40
1.5
100
AcDbArc
 50
207.8181392846543
 51
332.1818607153458
  0
LINE
  5
10003153
330
F6
100
AcDbEntity
  8
握り
100
AcDbLine
 10
417.1752779211839
 20
460.721855443888
 30
0.0
 11
417.1752779211839
 21
453.175155443888
 31
0.0
  0
LINE
  5
10003154
330
F6
100
AcDbEntity
  8
握り
100
AcDbLine
 10
419.8285777534683
 20
460.721855443888
 30
0.0
 11
419.8285777534683
 21
453.175155443888
 31
0.0
  0
LINE
  5
10003155
330
F6
100
AcDbEntity
  8
握り
100
AcDbLine
 10
429.8285777534683
 20
460.7218554438881
 30
0.0
 11
437.1752779211838
 21
460.7218554438881
 31
0.0
  0
LINE
  5
10003156
330
F6
100
AcDbEntity
  8
握り
100
AcDbLine
 10
429.8285777534684
 20
453.175155443888
 30
0.0
 11
437.1752779211838
 21
453.175155443888
 31
0.0
  0
ARC
  5
10003157
330
F6
100
AcDbEntity
  8
握り
100
AcDbCircle
 10
428.5019278373261
 20
453.8751554438881
 30
0.0
 40
1.5
100
AcDbArc
 50
207.8181392846543
 51
332.1818607153458
  0
LINE
  5
10003158
330
F6
100
AcDbEntity
  8
握り
100
AcDbLine
 10
427.1752779211841
 20
460.721855443888
 30
0.0
 11
427.175277921184
 21
453.175155443888
 31
0.0
  0
LINE
  5
10003159
330
F6
100
AcDbEntity
  8
握り
100
AcDbLine
 10
429.8285777534683
 20
460.721855443888
 30
0.0
 11
429.8285777534683
 21
453.175155443888
 31
0.0
  0
ARC
  5
1000315A
330
F6
100
AcDbEntity
  8
握り
100
AcDbCircle
 10
438.5019278373261
 20
453.8751554438881
 30
0.0
 40
1.5
100
AcDbArc
 50
207.8181392846543
 51
332.1818607153458
  0
LINE
  5
1000315B
330
F6
100
AcDbEntity
  8
握り
100
AcDbLine
 10
437.1752779211838
 20
460.7218554438881
 30
0.0
 11
437.1752779211839
 21
453.175155443888
 31
0.0
  0
TEXT
  5
1000315C
330
F6
100
AcDbEntity
  8
文字
100
AcDbText
 10
420.2772641691172
 20
465.9443029544236
 30
0.0
 40
3.0
  1
LA-14
  7
STYLE3
100
AcDbText
  0
LINE
  5
1000315D
330
F6
100
AcDbEntity
  8
握り
100
AcDbLine
 10
419.8285777534683
 20
481.5751554438881
 30
0.0
 11
427.175277921184
 21
481.575155443888
 31
0.0
  0
LINE
  5
1000315E
330
F6
100
AcDbEntity
  8
握り
100
AcDbLine
 10
419.8285777534684
 20
474.0284554438881
 30
0.0
 11
427.175277921184
 21
474.0284554438881
 31
0.0
  0
LINE
  5
1000315F
330
F6
100
AcDbEntity
  8
握り
100
AcDbLine
 10
409.8285777534684
 20
481.5751554438881
 30
0.0
 11
417.1752779211839
 21
481.5751554438881
 31
0.0
  0
LINE
  5
10003160
330
F6
100
AcDbEntity
  8
握り
100
AcDbLine
 10
409.8285777534683
 20
474.0284554438881
 30
0.0
 11
417.1752779211841
 21
474.0284554438881
 31
0.0
  0
HATCH
  5
10003161
330
F6
100
AcDbEntity
  8
ROGO
 62
     4
100
AcDbHatch
 10
0.0
 20
0.0
 30
0.0
210
0.0
220
0.0
230
1.0
  2
SOLID
 70
     1
 71
     1
 91
        1
 92
        7
 72
     0
 73
     1
 93
       11
 10
411.7409287402366
 20
466.0157463273401
 10
412.8210483723853
 20
466.0157463273401
 10
413.2025473569077
 20
466.7808371303682
 10
413.5840463414302
 20
466.0157463273401
 10
414.66414234143
 20
466.0157463273401
 10
413.9333330330946
 20
467.4813740308444
 10
415.7089169549964
 20
468.9470017343488
 10
414.6288209549964
 20
468.9470017343488
 10
414.1230879791694
 20
468.626968293175
 10
414.2826669890566
 20
468.9470017343487
 10
413.2025473569077
 20
468.9470017343487
 97
       11
330
10003171
330
10003176
330
10003177
330
10003178
330
10003163
330
10002ECA
330
10003173
330
10003175
330
10003170
330
10003174
330
10003172
 75
     0
 76
     1
 47
0.0514683685270805
 98
        1
 10
413.1095884334736
 20
467.689436043718
450
        0
451
        0
460
0.0
461
0.0
452
        0
462
0.0
453
        0
470

  0
HATCH
  5
10003162
330
F6
100
AcDbEntity
  8
ROGO
 62
     4
100
AcDbHatch
 10
0.0
 20
0.0
 30
0.0
210
0.0
220
0.0
230
1.0
  2
SOLID
 70
     1
 71
     1
 91
        1
 92
        5
 93
        8
 72
     4
 94
        3
 73
     0
 74
     0
 95
       26
 96
       22
 40
0.0
 40
0.0
 40
0.0
 40
0.0
 40
0.3403136209416859
 40
0.5681272389515052
 40
0.7323994099695983
 40
0.8550561247335963
 40
1.014148321321381
 40
1.13027011535639
 40
1.339959009792003
 40
1.510642755247356
 40
1.626735051276114
 40
1.740569491433573
 40
1.94419717410045
 40
2.088186249714629
 40
2.165735491582895
 40
2.275891898886364
 40
2.355438312276665
 40
2.470674802864995
 40
2.535888688806186
 40
2.677801419664424
 40
2.74260000535881
 40
2.74260000535881
 40
2.74260000535881
 40
2.74260000535881
 10
410.9310281122956
 20
468.9470017343487
 10
410.8155204112119
 20
468.9401103468271
 10
410.6226892482605
 20
468.9286057089746
 10
410.4109618043866
 20
468.7999835606056
 10
410.2558378838006
 20
468.7252082958307
 10
410.1452036917661
 20
468.6235576938027
 10
410.0641083805266
 20
468.5185600473436
 10
409.9618725166731
 20
468.3934561214504
 10
409.8785020910931
 20
468.2477776622149
 10
409.83604660176
 20
468.0872146035532
 10
409.7984399322546
 20
467.9592449141834
 10
409.7705501965791
 20
467.8166393957655
 10
409.7776461348834
 20
467.6625752698766
 10
409.7878078432895
 20
467.5194883970141
 10
409.833177400324
 20
467.4173457928331
 10
409.8848452894525
 20
467.3446272972198
 10
409.9481119121025
 20
467.2645359362215
 10
410.0173394325558
 20
467.2114916871783
 10
410.0745962427139
 20
467.1153984655489
 10
410.1748223573745
 20
467.1031362774401
 10
410.238530063197
 20
467.07873086333
 10
410.2585007609992
 20
467.0710804049808
 72
     1
 10
410.258500760999
 20
467.0710804049808
 11
411.8742564967201
 21
467.0710804049808
 72
     1
 10
411.8742564967201
 20
467.0710804049808
 11
412.2222803834041
 21
467.7690373740388
 72
     1
 10
412.2222803834041
 20
467.7690373740388
 11
411.0227360678725
 21
467.7690373740388
 72
     4
 94
        3
 73
     0
 74
     0
 95
       16
 96
       12
 40
0.0
 40
0.0
 40
0.0
 40
0.0
 40
0.1027738093187964
 40
0.2066076558227444
 40
0.268539878558716
 40
0.3279201337292112
 40
0.3931337605654557
 40
0.4386740937218511
 40
0.4818879174817272
 40
0.569519347887583
 40
0.7489346372632488
 40
0.7489346372632488
 40
0.7489346372632488
 40
0.7489346372632488
 10
411.0227360678725
 20
467.7690373740388
 10
410.9865535840557
 20
467.7796827913082
 10
410.9138154203856
 20
467.8010834255931
 10
410.9077278234603
 20
467.9048258386462
 10
410.9160212935488
 20
467.9787507971594
 10
410.9507543648018
 20
468.0325724838966
 10
410.9928916046029
 20
468.0717348425191
 10
411.0085811678192
 20
468.1227376913508
 10
411.0546992094255
 20
468.1612512232314
 10
411.1364788542694
 20
468.2259870903394
 10
411.2269129845715
 20
468.2397743836046
 10
411.2876711383164
 20
468.2490373740389
 72
     1
 10
411.2876711383164
 20
468.2490373740389
 11
412.4616238859609
 21
468.2490373740389
 72
     1
 10
412.4616238859609
 20
468.2490373740389
 11
412.8096514581619
 21
468.9470017343488
 72
     1
 10
412.8096514581619
 20
468.9470017343488
 11
410.9310281122956
 21
468.9470017343487
 97
        8
330
10003167
330
1000316D
330
1000316F
330
10003166
330
10003165
330
1000316E
330
10003164
330
10003179
 75
     0
 76
     1
 47
0.0514683685270805
 98
        1
 10
411.2551958689882
 20
468.6035141583785
450
        0
451
        0
460
0.0
461
0.0
452
        0
462
0.0
453
        0
470

  0
LINE
  5
10003163
102
{ACAD_REACTORS
330
10002EC8
330
10003161
102
}
330
F6
100
AcDbEntity
  8
ROGO
 62
     4
100
AcDbLine
 10
413.2025473569077
 20
468.9470017343487
 30
0.0
 11
411.7409287402366
 21
466.0157463273401
 31
0.0
  0
LINE
  5
10003164
102
{ACAD_REACTORS
330
10003162
102
}
330
F6
100
AcDbEntity
  8
ROGO
 62
     4
100
AcDbLine
 10
411.2876711383163
 20
468.2490373740389
 30
0.0
 11
412.4616238859609
 21
468.2490373740389
 31
0.0
  0
LINE
  5
10003165
102
{ACAD_REACTORS
330
10003162
102
}
330
F6
100
AcDbEntity
  8
ROGO
 62
     4
100
AcDbLine
 10
411.0227360678723
 20
467.7690373740388
 30
0.0
 11
412.222280383404
 21
467.7690373740388
 31
0.0
  0
LINE
  5
10003166
102
{ACAD_REACTORS
330
10003162
102
}
330
F6
100
AcDbEntity
  8
ROGO
 62
     4
100
AcDbLine
 10
412.222280383404
 20
467.7690373740388
 30
0.0
 11
411.8742564967201
 21
467.0710804049808
 31
0.0
  0
LINE
  5
10003167
102
{ACAD_REACTORS
330
10003162
102
}
330
F6
100
AcDbEntity
  8
ROGO
 62
     4
100
AcDbLine
 10
410.9310281122962
 20
468.9470017343487
 30
0.0
 11
412.8096514581619
 21
468.9470017343487
 31
0.0
  0
ELLIPSE
  5
10003168
102
{ACAD_REACTORS
330
10002EC5
102
}
330
F6
100
AcDbEntity
  8
ROGO
 62
     4
100
AcDbEllipse
 10
408.0533856635127
 20
467.9866892014249
 30
0.0
 11
0.2546924415247531
 21
0.2239701316915159
 31
0.0
210
0.0
220
0.0
230
1.0
 40
0.6788083417438792
 41
0.0
 42
6.283185307179586
  0
SPLINE
  5
10003169
102
{ACAD_REACTORS
330
10002EC5
102
}
330
F6
100
AcDbEntity
  8
ROGO
 62
     4
100
AcDbSpline
210
0.0
220
0.0
230
1.0
 70
     8
 71
     3
 72
     9
 73
     5
 74
     3
 42
0.0000000001
 43
0.0000000001
 44
0.0000000001
 40
0.0
 40
0.0
 40
0.0
 40
0.0
 40
0.1622561919360204
 40
0.3804197703110171
 40
0.3804197703110171
 40
0.3804197703110171
 40
0.3804197703110171
 10
408.6872841286977
 20
467.1129039005646
 30
0.0
 10
408.7394055120091
 20
467.1288501001692
 30
0.0
 10
408.861607348691
 20
467.1662369605319
 30
0.0
 10
408.9625740590293
 20
467.2452545573526
 30
0.0
 10
409.0204765671092
 20
467.2905696619353
 30
0.0
 11
408.6872841286977
 21
467.1129039005646
 31
0.0
 11
408.8397852204472
 21
467.1683158923785
 31
0.0
 11
409.0204765671092
 21
467.2905696619353
 31
0.0
  0
SPLINE
  5
1000316A
102
{ACAD_REACTORS
330
10002EC5
102
}
330
F6
100
AcDbEntity
  8
ROGO
 62
     4
100
AcDbSpline
210
0.0
220
0.0
230
1.0
 70
     8
 71
     3
 72
    11
 73
     7
 74
     0
 42
0.0000000001
 43
0.0000000001
 40
0.1647869275458134
 40
0.1647869275458134
 40
0.1647869275458134
 40
0.1647869275458134
 40
0.2895635144633836
 40
0.5387013147903714
 40
0.7953622617455423
 40
0.8850764140209602
 40
0.8850764140209602
 40
0.8850764140209602
 40
0.8850764140209602
 10
408.6872841286977
 20
467.1129039005646
 30
0.0
 10
408.6673147818393
 20
467.1073454252554
 30
0.0
 10
408.6053990512191
 20
467.0974488684212
 30
0.0
 10
408.5015436695932
 20
467.0838597336021
 30
0.0
 10
408.4028343237412
 20
467.0696789756241
 30
0.0
 10
408.3450761882718
 20
467.0707920969195
 30
0.0
 10
408.330116330672
 20
467.0710804049808
 30
0.0
  0
LINE
  5
1000316B
102
{ACAD_REACTORS
330
10002EC5
102
}
330
F6
100
AcDbEntity
  8
ROGO
 62
     4
100
AcDbLine
 10
407.8070165283259
 20
468.9548263331663
 30
0.0
 11
408.8790934185907
 21
468.9548263331663
 31
0.0
  0
SPLINE
  5
1000316C
102
{ACAD_REACTORS
330
10002EC5
102
}
330
F6
100
AcDbEntity
  8
ROGO
 62
     4
100
AcDbSpline
210
0.0
220
0.0
230
1.0
 70
     8
 71
     3
 72
    25
 73
    21
 74
     0
 42
0.0000000001
 43
0.0000000001
 40
0.0
 40
0.0
 40
0.0
 40
0.0
 40
0.4087168505087288
 40
0.6887487002771746
 40
0.9415836120477687
 40
1.17452070575514
 40
1.41154617586699
 40
1.599156012919487
 40
1.80099909059943
 40
2.178735911501585
 40
2.521686161369157
 40
2.762704659361267
 40
3.06256558063785
 40
3.222432137207705
 40
3.399493810628493
 40
3.567459719866414
 40
3.743172740007509
 40
3.995988754699505
 40
4.17170091132118
 40
4.337226830236035
 40
4.337226830236035
 40
4.337226830236035
 40
4.337226830236035
 10
408.8790934185907
 20
468.9548263331663
 30
0.0
 10
408.9494077763415
 20
468.9525672053719
 30
0.0
 10
409.0678979302252
 20
468.9487602389347
 30
0.0
 10
409.1951117282553
 20
468.8493278255411
 30
0.0
 10
409.2924520436258
 20
468.7668907365197
 30
0.0
 10
409.3615454077124
 20
468.6672281560423
 30
0.0
 10
409.4221076772016
 20
468.5755937222178
 30
0.0
 10
409.4620136211576
 20
468.4788488441235
 30
0.0
 10
409.5162935892644
 20
468.3627638504993
 30
0.0
 10
409.5387628144747
 20
468.2074593755978
 30
0.0
 10
409.5235821811366
 20
468.0469378712471
 30
0.0
 10
409.4839678161402
 20
467.9046503230993
 30
0.0
 10
409.4424155322831
 20
467.7954906586077
 30
0.0
 10
409.393441219544
 20
467.7004603986211
 30
0.0
 10
409.3350575805381
 20
467.6389282979082
 30
0.0
 10
409.2945533583395
 20
467.5606908316973
 30
0.0
 10
409.2167499287434
 20
467.4966967847353
 30
0.0
 10
409.1536782718769
 20
467.4177371126582
 30
0.0
 10
409.0821050766773
 20
467.3499651864601
 30
0.0
 10
409.0417517919575
 20
467.3081507247148
 30
0.0
 10
409.0204765671092
 20
467.2905696619353
 30
0.0
  0
SPLINE
  5
1000316D
102
{ACAD_REACTORS
330
10003162
102
}
330
F6
100
AcDbEntity
  8
ROGO
 62
     4
100
AcDbSpline
210
0.0
220
0.0
230
1.0
 70
     8
 71
     3
 72
    26
 73
    22
 74
    20
 42
0.0000000001
 43
0.0000000001
 44
0.0000000001
 40
0.0
 40
0.0
 40
0.0
 40
0.0
 40
0.3403136209416859
 40
0.5681272389515052
 40
0.7323994099695983
 40
0.8550561247335963
 40
1.014148321321381
 40
1.13027011535639
 40
1.339959009792003
 40
1.510642755247356
 40
1.626735051276114
 40
1.740569491433573
 40
1.94419717410045
 40
2.088186249714629
 40
2.165735491582895
 40
2.275891898886364
 40
2.355438312276665
 40
2.470674802864995
 40
2.535888688806186
 40
2.677801419664424
 40
2.74260000535881
 40
2.74260000535881
 40
2.74260000535881
 40
2.74260000535881
 10
410.9310281122956
 20
468.9470017343487
 30
0.0
 10
410.8155204112119
 20
468.9401103468271
 30
0.0
 10
410.6226892482605
 20
468.9286057089747
 30
0.0
 10
410.4109618043866
 20
468.7999835606057
 30
0.0
 10
410.2558378838006
 20
468.7252082958305
 30
0.0
 10
410.1452036917661
 20
468.6235576938029
 30
0.0
 10
410.0641083805266
 20
468.5185600473436
 30
0.0
 10
409.961872516673
 20
468.3934561214503
 30
0.0
 10
409.8785020910931
 20
468.2477776622149
 30
0.0
 10
409.83604660176
 20
468.0872146035534
 30
0.0
 10
409.7984399322545
 20
467.9592449141834
 30
0.0
 10
409.7705501965792
 20
467.8166393957655
 30
0.0
 10
409.7776461348834
 20
467.6625752698767
 30
0.0
 10
409.7878078432897
 20
467.519488397014
 30
0.0
 10
409.8331774003239
 20
467.4173457928331
 30
0.0
 10
409.8848452894526
 20
467.3446272972198
 30
0.0
 10
409.9481119121024
 20
467.2645359362215
 30
0.0
 10
410.0173394325558
 20
467.2114916871784
 30
0.0
 10
410.0745962427139
 20
467.1153984655489
 30
0.0
 10
410.1748223573745
 20
467.10313627744
 30
0.0
 10
410.238530063197
 20
467.0787308633301
 30
0.0
 10
410.2585007609992
 20
467.0710804049808
 30
0.0
 11
410.9310281122956
 21
468.9470017343487
 31
0.0
 11
410.5947644366473
 21
468.8946557599291
 31
0.0
 11
410.3909680032544
 21
468.7928419185957
 31
0.0
 11
410.2483107928462
 21
468.7113909119136
 31
0.0
 11
410.1566028372694
 21
468.6299395733081
 31
0.0
 11
410.0547049135397
 21
468.5077628973233
 31
0.0
 11
409.9833763083355
 21
468.4161304733156
 31
0.0
 11
409.8814777986723
 21
468.2328652933766
 31
0.0
 11
409.8305291297741
 21
468.0699629480892
 31
0.0
 11
409.7999598112485
 21
467.95796768943
 31
0.0
 11
409.7795798749426
 21
467.8459724307709
 31
0.0
 11
409.7795798749426
 21
467.6423447481041
 31
0.0
 11
409.7999598112485
 21
467.499805237468
 31
0.0
 11
409.8305291297741
 21
467.4285353161882
 31
0.0
 11
409.8916677668253
 21
467.3369028921804
 31
0.0
 11
409.9426170216569
 21
467.2758143882263
 31
0.0
 11
410.0241350090805
 21
467.1943633815442
 31
0.0
 11
410.0648942957593
 21
467.1434562949158
 31
0.0
 11
410.197362123948
 21
467.0925495402108
 31
0.0
 11
410.2585007609992
 21
467.0710804049808
 31
0.0
  0
SPLINE
  5
1000316E
102
{ACAD_REACTORS
330
10003162
102
}
330
F6
100
AcDbEntity
  8
ROGO
 62
     4
100
AcDbSpline
210
0.0
220
0.0
230
1.0
 70
     8
 71
     3
 72
    16
 73
    12
 74
    10
 42
0.0000000001
 43
0.0000000001
 44
0.0000000001
 40
0.0
 40
0.0
 40
0.0
 40
0.0
 40
0.1794152893756658
 40
0.2670467197815217
 40
0.3102605435413978
 40
0.3558008766977931
 40
0.4210145035340376
 40
0.4803947587045328
 40
0.5423269814405045
 40
0.6461608279444525
 40
0.7489346372632488
 40
0.7489346372632488
 40
0.7489346372632488
 40
0.7489346372632488
 10
411.2876711383164
 20
468.2490373740389
 30
0.0
 10
411.2269129845715
 20
468.2397743836046
 30
0.0
 10
411.1364788542695
 20
468.2259870903395
 30
0.0
 10
411.0546992094254
 20
468.1612512232313
 30
0.0
 10
411.0085811678192
 20
468.1227376913508
 30
0.0
 10
410.9928916046029
 20
468.0717348425191
 30
0.0
 10
410.9507543648019
 20
468.0325724838966
 30
0.0
 10
410.9160212935488
 20
467.9787507971592
 30
0.0
 10
410.9077278234604
 20
467.9048258386464
 30
0.0
 10
410.9138154203857
 20
467.801083425593
 30
0.0
 10
410.9865535840556
 20
467.7796827913081
 30
0.0
 10
411.0227360678725
 20
467.7690373740388
 30
0.0
 11
411.2876711383164
 21
468.2490373740389
 31
0.0
 11
411.1144446093826
 21
468.2023210413997
 31
0.0
 11
411.0431160041784
 21
468.1514142866945
 31
0.0
 11
411.0125466856529
 21
468.1208700347176
 31
0.0
 11
410.9921667493468
 21
468.0801443654148
 31
0.0
 11
410.9514074626683
 21
468.0292376107098
 31
0.0
 11
410.9208381441426
 21
467.9783305240814
 31
0.0
 11
410.9106481759895
 21
467.9172423520506
 31
0.0
 11
410.9310281122956
 21
467.8154281787938
 31
0.0
 11
411.0227360678725
 21
467.7690373740388
 31
0.0
  0
LINE
  5
1000316F
102
{ACAD_REACTORS
330
10003162
102
}
330
F6
100
AcDbEntity
  8
ROGO
 62
     4
100
AcDbLine
 10
410.2585007609992
 20
467.0710804049808
 30
0.0
 11
411.8742564967201
 21
467.0710804049808
 31
0.0
  0
LINE
  5
10003170
102
{ACAD_REACTORS
330
10003161
102
}
330
F6
100
AcDbEntity
  8
ROGO
 62
     4
100
AcDbLine
 10
413.5840463414302
 20
466.0157463273401
 30
0.0
 11
414.6641423414301
 21
466.0157463273401
 31
0.0
  0
LINE
  5
10003171
102
{ACAD_REACTORS
330
10003161
102
}
330
F6
100
AcDbEntity
  8
ROGO
 62
     4
100
AcDbLine
 10
414.6288209549964
 20
468.9470017343487
 30
0.0
 11
415.7089169549963
 21
468.9470017343487
 31
0.0
  0
LINE
  5
10003172
102
{ACAD_REACTORS
330
10003161
102
}
330
F6
100
AcDbEntity
  8
ROGO
 62
     4
100
AcDbLine
 10
413.9333330330946
 20
467.4813740308444
 30
0.0
 11
415.7089169549963
 21
468.9470017343487
 31
0.0
  0
LINE
  5
10003173
102
{ACAD_REACTORS
330
10003161
102
}
330
F6
100
AcDbEntity
  8
ROGO
 62
     4
100
AcDbLine
 10
413.2025473569077
 20
466.7808371303681
 30
0.0
 11
412.8210483723854
 21
466.0157463273401
 31
0.0
  0
LINE
  5
10003174
102
{ACAD_REACTORS
330
10003161
102
}
330
F6
100
AcDbEntity
  8
ROGO
 62
     4
100
AcDbLine
 10
413.9333330330946
 20
467.4813740308444
 30
0.0
 11
414.6641423414301
 21
466.0157463273401
 31
0.0
  0
LINE
  5
10003175
102
{ACAD_REACTORS
330
10003161
102
}
330
F6
100
AcDbEntity
  8
ROGO
 62
     4
100
AcDbLine
 10
413.2025473569077
 20
466.7808371303681
 30
0.0
 11
413.5840463414302
 21
466.0157463273401
 31
0.0
  0
LINE
  5
10003176
102
{ACAD_REACTORS
330
10003161
102
}
330
F6
100
AcDbEntity
  8
ROGO
 62
     4
100
AcDbLine
 10
414.1230879791694
 20
468.626968293175
 30
0.0
 11
414.6288209549964
 21
468.9470017343487
 31
0.0
  0
LINE
  5
10003177
102
{ACAD_REACTORS
330
10003161
102
}
330
F6
100
AcDbEntity
  8
ROGO
 62
     4
100
AcDbLine
 10
414.2826669890566
 20
468.9470017343487
 30
0.0
 11
414.1230879791694
 21
468.626968293175
 31
0.0
  0
LINE
  5
10003178
102
{ACAD_REACTORS
330
10003161
102
}
330
F6
100
AcDbEntity
  8
ROGO
 62
     4
100
AcDbLine
 10
413.2025473569077
 20
468.9470017343487
 30
0.0
 11
414.2826669890566
 21
468.9470017343487
 31
0.0
  0
LINE
  5
10003179
102
{ACAD_REACTORS
330
10003162
102
}
330
F6
100
AcDbEntity
  8
ROGO
 62
     4
100
AcDbLine
 10
412.8096514581619
 20
468.9470017343487
 30
0.0
 11
412.4616238859609
 21
468.2490373740389
 31
0.0
  0
LINE
  5
1000317A
330
F6
100
AcDbEntity
  8
握り
100
AcDbLine
 10
409.8285777534683
 20
481.5751554438881
 30
0.0
 11
409.8285777534684
 21
474.028455443888
 31
0.0
  0
LINE
  5
1000317B
330
F6
100
AcDbEntity
  8
握り
100
AcDbLine
 10
419.8285777534683
 20
481.5751554438881
 30
0.0
 11
419.8285777534684
 21
474.0284554438881
 31
0.0
  0
LINE
  5
1000317C
330
F6
100
AcDbEntity
  8
握り
100
AcDbLine
 10
417.1752779211839
 20
481.5751554438881
 30
0.0
 11
417.1752779211841
 21
474.0284554438881
 31
0.0
  0
ARC
  5
1000317D
330
F6
100
AcDbEntity
  8
握り
100
AcDbCircle
 10
418.5019278373261
 20
480.875155443888
 30
0.0
 40
1.5
100
AcDbArc
 50
27.81813928465427
 51
152.1818607153457
  0
LINE
  5
1000317E
330
F6
100
AcDbEntity
  8
握り
100
AcDbLine
 10
429.8285777534684
 20
481.575155443888
 30
0.0
 11
437.1752779211838
 21
481.575155443888
 31
0.0
  0
LINE
  5
1000317F
330
F6
100
AcDbEntity
  8
握り
100
AcDbLine
 10
429.8285777534684
 20
474.0284554438881
 30
0.0
 11
437.1752779211838
 21
474.0284554438881
 31
0.0
  0
LINE
  5
10003180
330
F6
100
AcDbEntity
  8
握り
100
AcDbLine
 10
427.175277921184
 20
481.5751554438881
 30
0.0
 11
427.1752779211841
 21
474.0284554438881
 31
0.0
  0
LINE
  5
10003181
330
F6
100
AcDbEntity
  8
握り
100
AcDbLine
 10
429.8285777534683
 20
481.5751554438881
 30
0.0
 11
429.8285777534684
 21
474.0284554438881
 31
0.0
  0
ARC
  5
10003182
330
F6
100
AcDbEntity
  8
握り
100
AcDbCircle
 10
428.5019278373261
 20
480.875155443888
 30
0.0
 40
1.5
100
AcDbArc
 50
27.81813928465427
 51
152.1818607153457
  0
LINE
  5
10003183
330
F6
100
AcDbEntity
  8
握り
100
AcDbLine
 10
437.175277921184
 20
471.375155443888
 30
0.0
 11
437.1752779211838
 21
463.375155443888
 31
0.0
  0
ARC
  5
10003184
330
F6
100
AcDbEntity
  8
握り
100
AcDbCircle
 10
438.5019278373261
 20
480.875155443888
 30
0.0
 40
1.5
100
AcDbArc
 50
27.81813928465427
 51
152.1818607153457
  0
LINE
  5
10003185
330
F6
100
AcDbEntity
  8
握り
100
AcDbLine
 10
437.1752779211839
 20
481.5751554438881
 30
0.0
 11
437.1752779211839
 21
474.0284554438881
 31
0.0
  0
DIMENSION
  5
10003186
330
F6
100
AcDbEntity
  8
文字
100
AcDbDimension
  2
*D81
 10
472.3420683457376
 20
452.375155443888
 30
0.0
 11
470.4670683457377
 21
467.3751554438879
 31
0.0
 70
    32
 71
     5
 42
-1.0
  3
STYLE3
100
AcDbAlignedDimension
 13
458.5019278373261
 23
482.375155443888
 33
0.0
 14
458.5019278373261
 24
452.375155443888
 34
0.0
 50
90.0
100
AcDbRotatedDimension
1001
ACAD
1000
DSTYLE
1002
{
1070
   271
1070
     2
1002
}
  0
LINE
  5
10003187
330
F6
100
AcDbEntity
  8
隠れ線2
100
AcDbLine
 10
453.5019278373261
 20
477.625155443888
 30
0.0
 11
453.501927837326
 21
457.125155443888
 31
0.0
  0
LINE
  5
10003188
330
F6
100
AcDbEntity
  8
握り
100
AcDbLine
 10
463.5019278373261
 20
481.075155443888
 30
0.0
 11
463.5019278373261
 21
453.675155443888
 31
0.0
  0
LINE
  5
10003189
330
F6
100
AcDbEntity
  8
握り
100
AcDbLine
 10
447.1752779211839
 20
481.5751554438881
 30
0.0
 11
447.1752779211839
 21
453.175155443888
 31
0.0
  0
LINE
  5
1000318A
330
F6
100
AcDbEntity
  8
握り
100
AcDbLine
 10
449.8285777534682
 20
481.5751554438881
 30
0.0
 11
449.8285777534682
 21
453.175155443888
 31
0.0
  0
LINE
  5
1000318B
330
F6
100
AcDbEntity
  8
握り
100
AcDbLine
 10
457.1752779211839
 20
481.5751554438881
 30
0.0
 11
457.1752779211839
 21
453.175155443888
 31
0.0
  0
LINE
  5
1000318C
330
F6
100
AcDbEntity
  8
握り
100
AcDbLine
 10
459.8285777534683
 20
481.5751554438881
 30
0.0
 11
459.8285777534683
 21
453.175155443888
 31
0.0
  0
LINE
  5
1000318D
330
F6
100
AcDbEntity
  8
握り
100
AcDbLine
 10
459.8285777534683
 20
453.175155443888
 30
0.0
 11
463.0019278373261
 21
453.175155443888
 31
0.0
  0
ARC
  5
1000318E
330
F6
100
AcDbEntity
  8
隠れ線2
100
AcDbCircle
 10
452.001927837326
 20
457.125155443888
 30
0.0
 40
1.5
100
AcDbArc
 50
270.0
 51
0.0
  0
LINE
  5
1000318F
330
F6
100
AcDbEntity
  8
握り
100
AcDbLine
 10
449.8285777534684
 20
453.175155443888
 30
0.0
 11
457.1752779211839
 21
453.175155443888
 31
0.0
  0
ARC
  5
10003190
330
F6
100
AcDbEntity
  8
握り
100
AcDbCircle
 10
448.5019278373261
 20
453.8751554438881
 30
0.0
 40
1.5
100
AcDbArc
 50
207.8181392846543
 51
332.1818607153458
  0
ARC
  5
10003191
330
F6
100
AcDbEntity
  8
握り
100
AcDbCircle
 10
458.5019278373261
 20
453.8751554438881
 30
0.0
 40
1.5
100
AcDbArc
 50
207.8181392846543
 51
332.1818607153458
  0
POINT
  5
10003192
330
F6
100
AcDbEntity
  8
DEFPOINTS
  6
ByBlock
 62
     0
100
AcDbPoint
 10
463.5019278373261
 20
452.8153987818132
 30
0.0
  0
ARC
  5
10003193
330
F6
100
AcDbEntity
  8
握り
100
AcDbCircle
 10
463.0019278373261
 20
453.675155443888
 30
0.0
 40
0.5
100
AcDbArc
 50
270.0
 51
0.0
  0
LINE
  5
10003194
330
F6
100
AcDbEntity
  8
握り
100
AcDbLine
 10
459.8285777534683
 20
481.575155443888
 30
0.0
 11
463.0019278373261
 21
481.575155443888
 31
0.0
  0
ARC
  5
10003195
330
F6
100
AcDbEntity
  8
隠れ線2
100
AcDbCircle
 10
452.0019278373261
 20
477.625155443888
 30
0.0
 40
1.5
100
AcDbArc
 50
0.0
 51
90.0
  0
LINE
  5
10003196
330
F6
100
AcDbEntity
  8
握り
100
AcDbLine
 10
449.8285777534684
 20
481.575155443888
 30
0.0
 11
457.1752779211839
 21
481.575155443888
 31
0.0
  0
ARC
  5
10003197
330
F6
100
AcDbEntity
  8
握り
100
AcDbCircle
 10
448.5019278373261
 20
480.875155443888
 30
0.0
 40
1.5
100
AcDbArc
 50
27.81813928465427
 51
152.1818607153457
  0
ARC
  5
10003198
330
F6
100
AcDbEntity
  8
握り
100
AcDbCircle
 10
458.5019278373261
 20
480.875155443888
 30
0.0
 40
1.5
100
AcDbArc
 50
27.81813928465427
 51
152.1818607153457
  0
POINT
  5
10003199
330
F6
100
AcDbEntity
  8
DEFPOINTS
  6
ByBlock
 62
     0
100
AcDbPoint
 10
468.254219740861
 20
467.3751554438879
 30
0.0
 50
30.00000000000002
  0
POINT
  5
1000319A
330
F6
100
AcDbEntity
  8
DEFPOINTS
  6
ByBlock
 62
     0
100
AcDbPoint
 10
468.2542197408612
 20
467.3751554438881
 30
0.0
 50
30.00000000000002
  0
ARC
  5
1000319B
330
F6
100
AcDbEntity
  8
握り
100
AcDbCircle
 10
463.0019278373261
 20
481.075155443888
 30
0.0
 40
0.5
100
AcDbArc
 50
0.0
 51
90.0
  0
LINE
  5
10003356
330
F6
100
AcDbEntity
  8
想像線
 48
0.1
100
AcDbLine
 10
330.1046508552476
 20
395.4376689533112
 30
0.0
 11
324.701927837326
 21
395.4376689533113
 31
0.0
  0
LINE
  5
10003357
330
F6
100
AcDbEntity
  8
想像線
 48
0.1
100
AcDbLine
 10
329.7082908956926
 20
392.4376689533113
 30
0.0
 11
324.701927837326
 21
392.4376689533113
 31
0.0
  0
POINT
  5
1000336F
330
F6
100
AcDbEntity
  8
DEFPOINTS
  6
ByBlock
 62
     0
100
AcDbPoint
 10
330.1046508552476
 20
395.4376689533112
 30
0.0
  0
POINT
  5
10003370
330
F6
100
AcDbEntity
  8
DEFPOINTS
  6
ByBlock
 62
     0
100
AcDbPoint
 10
329.6818668983889
 20
392.2376689533113
 30
0.0
  0
ARC
  5
100033A3
330
F6
100
AcDbEntity
  8
隠れ線2
100
AcDbCircle
 10
334.4665681138021
 20
491.2198394292529
 30
0.0
 40
12.0
100
AcDbArc
 50
206.1999507910102
 51
269.9118527164475
  0
LINE
  5
100033A4
330
F6
100
AcDbEntity
  8
隠れ線2
100
AcDbLine
 10
321.7897014662721
 20
489.8029350320787
 30
0.0
 11
323.6994631274193
 21
485.9217784431739
 31
0.0
  0
LINE
  5
100033A5
330
F6
100
AcDbEntity
  8
外形線
100
AcDbLine
 10
340.3175279141647
 20
479.210823751462
 30
0.0
 11
363.5019278373261
 21
479.1751554438881
 31
0.0
  0
DIMENSION
  5
100033C1
330
F6
100
AcDbEntity
  8
寸法線
100
AcDbDimension
  2
*D82
 10
279.8283030637723
 20
455.4540538232846
 30
0.0
 11
277.9533030637723
 21
461.4146046335863
 31
0.0
 70
    32
  1
12
 71
     5
 42
-1.0
  3
STANDARD
100
AcDbAlignedDimension
 13
275.894445390455
 23
467.375155443888
 33
0.0
 14
274.5290851236109
 24
455.4540538232846
 34
0.0
 50
90.0
100
AcDbRotatedDimension
1001
ACAD
1000
DSTYLE
1002
{
1070
    78
1070
     8
1070
   140
1040
2.5
1070
   340
1005
10000041
1070
    74
1070
     0
1070
   172
1070
     1
1070
    73
1070
     0
1070
    77
1070
     1
1070
   173
1070
     1
1070
   147
1040
0.625
1070
    42
1040
0.0
1070
    44
1040
1.25
1070
    43
1040
3.75
1070
   271
1070
     2
1070
   178
1070
     6
1070
   177
1070
     2
1070
   176
1070
     2
1070
   141
1040
2.5
1070
     7
1000
_OPEN
1070
     6
1000
_OPEN
1070
    41
1040
2.5
1070
   273
1070
     8
1070
   274
1070
     4
1070
   143
1040
0.0394
1070
   171
1070
     4
1002
}
  0
DIMENSION
  5
100033FC
330
F6
100
AcDbEntity
  8
寸法線
100
AcDbDimension
  2
*D84
 10
336.4272582965412
 20
392.4376689533113
 30
0.0
 11
334.5522582965411
 21
393.9376689533113
 31
0.0
 70
    32
 71
     5
 42
-1.0
  3
STANDARD
100
AcDbAlignedDimension
 13
330.1046508552476
 23
395.4376689533112
 33
0.0
 14
329.7082908956926
 24
392.4376689533113
 34
0.0
 50
90.0
100
AcDbRotatedDimension
1001
ACAD
1000
DSTYLE
1002
{
1070
    78
1070
     8
1070
   140
1040
2.5
1070
   340
1005
10000041
1070
    74
1070
     0
1070
   172
1070
     1
1070
    73
1070
     0
1070
    77
1070
     1
1070
   173
1070
     1
1070
   147
1040
0.625
1070
    42
1040
0.0
1070
    44
1040
1.25
1070
    43
1040
3.75
1070
   271
1070
     2
1070
   178
1070
     6
1070
   177
1070
     2
1070
   176
1070
     2
1070
   141
1040
2.5
1070
     7
1000
_OPEN
1070
     6
1000
_OPEN
1070
    41
1040
2.5
1070
   273
1070
     8
1070
   274
1070
     4
1070
   143
1040
0.0394
1070
   171
1070
     4
1002
}
  0
LINE
  5
1000346B
330
F6
100
AcDbEntity
  8
外形線
100
AcDbLine
 10
145.831847886231
 20
578.0712776870839
 30
0.0
 11
275.831847886231
 21
578.0712776870839
 31
0.0
  0
LINE
  5
1000346C
330
F6
100
AcDbEntity
  8
外形線
100
AcDbLine
 10
145.831847886231
 20
579.0712776870839
 30
0.0
 11
275.831847886231
 21
579.0712776870839
 31
0.0
  0
TEXT
  5
1000346D
330
F6
100
AcDbEntity
  8
文字
100
AcDbText
 10
146.650926886231
 20
581.5443896870838
 30
0.0
 40
4.0
  1
Model No.LA-14 Outside Dial Caliper Gauge
  7
STYLE3
100
AcDbText
  0
LINE
  5
1000346E
330
F6
100
AcDbEntity
  8
C
100
AcDbLine
 10
454.1440316518817
 20
335.2440539310616
 30
0.0
 11
454.1440316518817
 21
325.6292759310616
 31
0.0
  0
LINE
  5
1000346F
330
F6
100
AcDbEntity
  8
C
100
AcDbLine
 10
424.4116826518816
 20
335.2440539310616
 30
0.0
 11
424.4116826518816
 21
325.6292759310616
 31
0.0
  0
TEXT
  5
10003470
330
F6
100
AcDbEntity
  8
C
  6
Continuous
100
AcDbText
 10
416.2498616518816
 20
329.4169169310617
 30
0.0
 40
2.399999999999999
  1
1/1
  7
STYLE3
100
AcDbText
  0
TEXT
  5
10003471
330
F6
100
AcDbEntity
  8
C
  6
Continuous
100
AcDbText
 10
426.3436336518816
 20
327.3774189310616
 30
0.0
 40
2.1
  1
Date
  7
STYLE3
100
AcDbText
  0
TEXT
  5
10003472
330
F6
100
AcDbEntity
  8
C
  6
Continuous
100
AcDbText
 10
425.9602726518816
 20
330.7105019310616
 30
0.0
 40
3.0
  1
日 付
  7
STYLE3
100
AcDbText
  0
TEXT
  5
10003473
330
F6
100
AcDbEntity
  8
C
  6
Continuous
100
AcDbText
 10
435.0884406518816
 20
329.1255589310616
 30
0.0
 40
2.1
  1
2010.06.28
  7
STYLE3
100
AcDbText
  0
TEXT
  5
10003474
330
F6
100
AcDbEntity
  8
C
  6
Continuous
100
AcDbText
 10
456.3674736518816
 20
327.3774169310617
 30
0.0
 40
2.1
  1
OZAKI MFG. CO., LTD.
  7
STYLE3
100
AcDbText
  0
TEXT
  5
10003475
330
F6
100
AcDbEntity
  8
C
  6
Continuous
100
AcDbText
 10
455.4929946518816
 20
331.1650569310617
 30
0.0
 40
3.0
  1
株式会社　尾崎製作所
  7
STYLE3
100
AcDbText
  0
LINE
  5
10003476
330
F6
100
AcDbEntity
  8
C
100
AcDbLine
 10
404.8816096518816
 20
335.2440539310616
 30
0.0
 11
404.8816096518816
 21
325.6292759310616
 31
0.0
  0
TEXT
  5
10003477
330
F6
100
AcDbEntity
  8
C
  6
Continuous
100
AcDbText
 10
396.8915096518817
 20
329.1255599310616
 30
0.0
 40
2.399999999999999
  1
mm
  7
STYLE3
100
AcDbText
  0
LINE
  5
10003478
330
F6
100
AcDbEntity
  8
C
100
AcDbLine
 10
387.3919926518817
 20
335.2440539310616
 30
0.0
 11
387.3919926518817
 21
325.6292759310616
 31
0.0
  0
TEXT
  5
10003479
330
F6
100
AcDbEntity
  8
C
  6
Continuous
100
AcDbText
 10
389.0211826518816
 20
327.3774179310616
 30
0.0
 40
2.1
  1
Unit
  7
STYLE3
100
AcDbText
  0
TEXT
  5
1000347A
330
F6
100
AcDbEntity
  8
C
  6
Continuous
100
AcDbText
 10
388.8494616518817
 20
330.8796539310616
 30
0.0
 40
3.0
  1
単位
  7
STYLE3
100
AcDbText
  0
LINE
  5
1000347B
330
F6
100
AcDbEntity
  8
C
100
AcDbLine
 10
352.1212646518816
 20
325.6292759310616
 30
0.0
 11
352.1212646518816
 21
346.0242599310616
 31
0.0
  0
TEXT
  5
1000347C
330
F6
100
AcDbEntity
  8
C
  6
Continuous
100
AcDbText
 10
353.2872406518816
 20
327.3774169310617
 30
0.0
 40
2.1
  1
3RD Angle Projection
  7
STYLE3
100
AcDbText
  0
TEXT
  5
1000347D
330
F6
100
AcDbEntity
  8
C
  6
Continuous
100
AcDbText
 10
355.9106836518816
 20
330.8736999310617
 30
0.0
 40
3.0
  1
三　　角　　法
  7
STYLE3
100
AcDbText
  0
TEXT
  5
1000347E
330
F6
100
AcDbEntity
  8
C
  6
Continuous
100
AcDbText
 10
406.6305726518816
 20
327.6687749310617
 30
0.0
 40
2.1
  1
Scale
  7
STYLE3
100
AcDbText
  0
TEXT
  5
1000347F
330
F6
100
AcDbEntity
  8
C
  6
Continuous
100
AcDbText
 10
406.1673576518816
 20
330.5882969310616
 30
0.0
 40
3.0
  1
尺 度
  7
STYLE3
100
AcDbText
  0
LINE
  5
10003480
330
F6
100
AcDbEntity
  8
C
100
AcDbLine
 10
352.1212646518816
 20
346.0242599310616
 30
0.0
 11
492.9126826518817
 21
346.0242599310616
 31
0.0
  0
LINE
  5
10003481
330
F6
100
AcDbEntity
  8
C
100
AcDbLine
 10
352.1212646518816
 20
335.2440539310616
 30
0.0
 11
492.9126826518817
 21
335.2440539310616
 31
0.0
  0
TEXT
  5
10003482
330
F6
100
AcDbEntity
  8
C
  6
Continuous
100
AcDbText
 10
353.5787326518816
 20
337.1420439310617
 30
0.0
 40
2.1
  1
Design and specifications are subject to change without notice for future improvement.
  7
STYLE3
100
AcDbText
  0
TEXT
  5
10003483
330
F6
100
AcDbEntity
  8
C
  6
Continuous
100
AcDbText
 10
353.8702266518817
 20
341.0711919310617
 30
0.0
 40
3.5
  1
仕様及び外観は予告なく変更される場合がございますのでご了承下さい。
  7
STYLE3
100
AcDbText
  0
ENDSEC
  0
SECTION
  2
OBJECTS
  0
DICTIONARY
  5
275
330
0
100
AcDbDictionary
281
     1
  3
ACAD_COLOR
350
10003418
  3
ACAD_GROUP
350
276
  3
ACAD_LAYOUT
350
1000341B
  3
ACAD_MATERIAL
350
10003417
  3
ACAD_MLINESTYLE
350
277
  3
ACAD_PLOTSETTINGS
350
1000341C
  3
ACAD_PLOTSTYLENAME
350
10003415
  3
ACAD_TABLESTYLE
350
10003419
  3
AcDbVariableDictionary
350
10003424
  3
CONTENTDICTIONARY
350
278
  3
DRAWINGVARIABLESDICT
350
100014FA
  0
DICTIONARY
  5
10003418
102
{ACAD_REACTORS
330
275
102
}
330
275
100
AcDbDictionary
281
     1
  0
DICTIONARY
  5
276
102
{ACAD_REACTORS
330
275
102
}
330
0
100
AcDbDictionary
281
     1
  0
DICTIONARY
  5
1000341B
102
{ACAD_REACTORS
330
275
102
}
330
275
100
AcDbDictionary
281
     1
  3
Model
350
1000341D
  3
レイアウト1
350
1000341E
  0
DICTIONARY
  5
10003417
102
{ACAD_REACTORS
330
275
102
}
330
275
100
AcDbDictionary
281
     1
  0
DICTIONARY
  5
277
102
{ACAD_REACTORS
330
275
102
}
330
0
100
AcDbDictionary
281
     1
  3
STANDARD
350
279
  0
DICTIONARY
  5
1000341C
102
{ACAD_REACTORS
330
275
102
}
330
275
100
AcDbDictionary
281
     1
  0
ACDBDICTIONARYWDFLT
  5
10003415
102
{ACAD_REACTORS
330
275
102
}
330
275
100
AcDbDictionary
281
     1
  3
Normal
350
10003416
100
AcDbDictionaryWithDefault
340
10003416
  0
DICTIONARY
  5
10003419
102
{ACAD_REACTORS
330
275
102
}
330
275
100
AcDbDictionary
281
     1
  3
Standard
350
1000341A
  0
DICTIONARY
  5
10003424
102
{ACAD_REACTORS
330
275
102
}
330
275
100
AcDbDictionary
281
     1
  3
CTABLESTYLE
350
10003425
  0
DICTIONARY
  5
278
102
{ACAD_REACTORS
330
275
102
}
330
0
100
AcDbDictionary
281
     1
  0
DICTIONARY
  5
100014FA
102
{ACAD_REACTORS
330
275
102
}
330
275
100
AcDbDictionary
281
     1
1001
DRAWINGVARIABLESXDATA
1000
POLARANG
1000
0.523598775598298820000000
1000
POLARMODE
1000
1
  0
LAYOUT
  5
1000341D
102
{ACAD_REACTORS
330
1000341B
102
}
330
1000341B
100
AcDbPlotSettings
  1

  2
Mytalk FAX
  4

  6

 40
0.0
 41
0.0
 42
0.0
 43
0.0
 44
0.0
 45
0.0
 46
0.0
 47
0.0
 48
0.0
 49
0.0
140
0.0
141
0.0
142
1.0
143
1.0
 70
  1712
 72
     0
 73
     0
 74
     0
  7
AutoCAD LT 98.ctb
 75
     0
147
1.0
 76
     0
 77
     2
 78
   300
148
0.0
149
0.0
100
AcDbLayout
  1
Model
 70
     1
 71
     0
 10
0.0
 20
0.0
 11
12.0
 21
9.0
 12
0.0
 22
0.0
 32
0.0
 14
0.0
 24
0.0
 34
0.0
 15
0.0
 25
0.0
 35
0.0
146
0.0
 13
0.0
 23
0.0
 33
0.0
 16
1.0
 26
0.0
 36
0.0
 17
0.0
 27
1.0
 37
0.0
 76
     0
330
F6
  0
LAYOUT
  5
1000341E
102
{ACAD_REACTORS
330
1000341B
102
}
330
1000341B
100
AcDbPlotSettings
  1

  2
Mytalk FAX
  4

  6

 40
0.0
 41
0.0
 42
0.0
 43
0.0
 44
0.0
 45
0.0
 46
0.0
 47
0.0
 48
0.0
 49
0.0
140
0.0
141
0.0
142
1.0
143
1.0
 70
   688
 72
     0
 73
     0
 74
     5
  7
AutoCAD LT 98.ctb
 75
    16
147
1.0
 76
     0
 77
     2
 78
   300
148
0.0
149
0.0
100
AcDbLayout
  1
レイアウト1
 70
     1
 71
     1
 10
0.0
 20
0.0
 11
400.0
 21
267.0
 12
0.0
 22
0.0
 32
0.0
 14
1.000000000000000E+20
 24
1.000000000000000E+20
 34
1.000000000000000E+20
 15
-1.000000000000000E+20
 25
-1.000000000000000E+20
 35
-1.000000000000000E+20
146
0.0
 13
0.0
 23
0.0
 33
0.0
 16
1.0
 26
0.0
 36
0.0
 17
0.0
 27
1.0
 37
0.0
 76
     0
330
F9
  0
MLINESTYLE
  5
279
102
{ACAD_REACTORS
330
277
102
}
330
0
100
AcDbMlineStyle
  2
STANDARD
 70
     0
  3
 
 62
   256
 51
90.0
 52
90.0
 71
     2
 49
0.5
 62
   256
  6
BYLAYER
 49
-0.5
 62
   256
  6
BYLAYER
  0
ACDBPLACEHOLDER
  5
10003416
102
{ACAD_REACTORS
330
10003415
102
}
330
10003415
  0
ACAD_PROXY_OBJECT
  5
1000341A
102
{ACAD_REACTORS
330
10003419
102
}
330
10003419
100
AcDbProxyObject
 90
      499
 91
      503
 95
  2555929
 70
     0
 93
     1849
310
4214DD185B99185C992420000000000000F83F0000000000003E0FC00000000000004901028000000C1008070000C3001FDFF8000000C1003FBFF000000182007F7FE00000030400FEFFC00000060801FDFF8000000C1003FBFF000000182000000000000000C2020B0000001820100E000186003FBFF000000182007F7FE0
310
0000030400FEFFC00000060801FDFF8000000C1003FBFF000000182007F7FE0000003040000000000000012404160000003040201C00030C007F7FE00000030400FEFFC00000060801FDFF8000000C1003FBFF000000182007F7FE00000030400FEFFC000000608000
340
D5
340
D5
340
D5
 94
        0
  0
DICTIONARYVAR
  5
10003425
102
{ACAD_REACTORS
330
10003424
102
}
330
10003424
100
DictionaryVariables
280
     0
  1
STANDARD
  0
ENDSEC
  0
EOF
