  0
SECTION
  2
HEADER
  9
$ACADVER
  1
AC1018
  9
$ACADMAINTVER
 70
     0
  9
$DWGCODEPAGE
  3
ANSI_932
  9
$INSBASE
 10
0.0
 20
0.0
 30
0.0
  9
$EXTMIN
 10
255.8176900309641
 20
176.0635400423978
 30
-0.0000457728747811
  9
$EXTMAX
 10
634.1546142674312
 20
459.3857883045838
 30
0.000030519906467
  9
$LIMMIN
 10
0.0
 20
0.0
  9
$LIMMAX
 10
420.0
 20
297.0
  9
$ORTHOMODE
 70
     0
  9
$REGENMODE
 70
     1
  9
$FILLMODE
 70
     1
  9
$QTEXTMODE
 70
     0
  9
$MIRRTEXT
 70
     1
  9
$LTSCALE
 40
1.0
  9
$ATTMODE
 70
     1
  9
$TEXTSIZE
 40
3.0
  9
$TRACEWID
 40
1.0
  9
$TEXTSTYLE
  7
STYLE3
  9
$CLAYER
  8
外形線
  9
$CELTYPE
  6
BYLAYER
  9
$CECOLOR
 62
   256
  9
$CELTSCALE
 40
1.0
  9
$DISPSILH
 70
     0
  9
$DIMSCALE
 40
1.0
  9
$DIMASZ
 40
2.5
  9
$DIMEXO
 40
0.0
  9
$DIMDLI
 40
3.75
  9
$DIMRND
 40
0.0
  9
$DIMDLE
 40
0.0
  9
$DIMEXE
 40
1.25
  9
$DIMTP
 40
0.0
  9
$DIMTM
 40
0.0
  9
$DIMTXT
 40
2.5
  9
$DIMCEN
 40
2.5
  9
$DIMTSZ
 40
0.0
  9
$DIMTOL
 70
     0
  9
$DIMLIM
 70
     0
  9
$DIMTIH
 70
     0
  9
$DIMTOH
 70
     0
  9
$DIMSE1
 70
     0
  9
$DIMSE2
 70
     0
  9
$DIMTAD
 70
     1
  9
$DIMZIN
 70
     8
  9
$DIMBLK
  1

  9
$DIMASO
 70
     1
  9
$DIMSHO
 70
     1
  9
$DIMPOST
  1

  9
$DIMAPOST
  1

  9
$DIMALT
 70
     0
  9
$DIMALTD
 70
     4
  9
$DIMALTF
 40
0.0394
  9
$DIMLFAC
 40
1.0
  9
$DIMTOFL
 70
     1
  9
$DIMTVP
 40
0.0
  9
$DIMTIX
 70
     0
  9
$DIMSOXD
 70
     0
  9
$DIMSAH
 70
     1
  9
$DIMBLK1
  1
OPEN
  9
$DIMBLK2
  1
OPEN
  9
$DIMSTYLE
  2
STYLE3
  9
$DIMCLRD
 70
     2
  9
$DIMCLRE
 70
     2
  9
$DIMCLRT
 70
     6
  9
$DIMTFAC
 40
1.0
  9
$DIMGAP
 40
0.625
  9
$DIMJUST
 70
     0
  9
$DIMSD1
 70
     0
  9
$DIMSD2
 70
     0
  9
$DIMTOLJ
 70
     1
  9
$DIMTZIN
 70
     0
  9
$DIMALTZ
 70
     0
  9
$DIMALTTZ
 70
     0
  9
$DIMUPT
 70
     0
  9
$DIMDEC
 70
     2
  9
$DIMTDEC
 70
     4
  9
$DIMALTU
 70
     8
  9
$DIMALTTD
 70
     4
  9
$DIMTXSTY
  7
STYLE3
  9
$DIMAUNIT
 70
     0
  9
$DIMADEC
 70
     0
  9
$DIMALTRND
 40
0.0
  9
$DIMAZIN
 70
     0
  9
$DIMDSEP
 70
    46
  9
$DIMATFIT
 70
     3
  9
$DIMFRAC
 70
     0
  9
$DIMLDRBLK
  1

  9
$DIMLUNIT
 70
     2
  9
$DIMLWD
 70
    -2
  9
$DIMLWE
 70
    -2
  9
$DIMTMOVE
 70
     0
  9
$LUNITS
 70
     2
  9
$LUPREC
 70
     4
  9
$SKETCHINC
 40
1.0
  9
$FILLETRAD
 40
8.0
  9
$AUNITS
 70
     0
  9
$AUPREC
 70
     0
  9
$MENU
  1
.
  9
$ELEVATION
 40
0.0
  9
$PELEVATION
 40
0.0
  9
$THICKNESS
 40
0.0
  9
$LIMCHECK
 70
     0
  9
$CHAMFERA
 40
1.0
  9
$CHAMFERB
 40
1.0
  9
$CHAMFERC
 40
20.0
  9
$CHAMFERD
 40
0.0
  9
$SKPOLY
 70
     0
  9
$TDCREATE
 40
2450731.487069560
  9
$TDUCREATE
 40
2450731.112069560
  9
$TDUPDATE
 40
2455371.695268553
  9
$TDUUPDATE
 40
2455371.320268553
  9
$TDINDWG
 40
0.5686183449
  9
$TDUSRTIMER
 40
0.5686183449
  9
$USRTIMER
 70
     1
  9
$ANGBASE
 50
0.0
  9
$ANGDIR
 70
     0
  9
$PDMODE
 70
     0
  9
$PDSIZE
 40
0.0
  9
$PLINEWID
 40
0.0
  9
$SPLFRAME
 70
     0
  9
$SPLINETYPE
 70
     6
  9
$SPLINESEGS
 70
     8
  9
$HANDSEED
  5
114D
  9
$SURFTAB1
 70
     6
  9
$SURFTAB2
 70
     6
  9
$SURFTYPE
 70
     6
  9
$SURFU
 70
     6
  9
$SURFV
 70
     6
  9
$UCSBASE
  2

  9
$UCSNAME
  2

  9
$UCSORG
 10
536.5502948516364
 20
232.3564773591471
 30
0.0
  9
$UCSXDIR
 10
1.0
 20
0.0
 30
0.0
  9
$UCSYDIR
 10
0.0
 20
1.0
 30
0.0
  9
$UCSORTHOREF
  2

  9
$UCSORTHOVIEW
 70
     0
  9
$UCSORGTOP
 10
0.0
 20
0.0
 30
0.0
  9
$UCSORGBOTTOM
 10
0.0
 20
0.0
 30
0.0
  9
$UCSORGLEFT
 10
0.0
 20
0.0
 30
0.0
  9
$UCSORGRIGHT
 10
0.0
 20
0.0
 30
0.0
  9
$UCSORGFRONT
 10
0.0
 20
0.0
 30
0.0
  9
$UCSORGBACK
 10
0.0
 20
0.0
 30
0.0
  9
$PUCSBASE
  2

  9
$PUCSNAME
  2

  9
$PUCSORG
 10
0.0
 20
0.0
 30
0.0
  9
$PUCSXDIR
 10
1.0
 20
0.0
 30
0.0
  9
$PUCSYDIR
 10
0.0
 20
1.0
 30
0.0
  9
$PUCSORTHOREF
  2

  9
$PUCSORTHOVIEW
 70
     0
  9
$PUCSORGTOP
 10
0.0
 20
0.0
 30
0.0
  9
$PUCSORGBOTTOM
 10
0.0
 20
0.0
 30
0.0
  9
$PUCSORGLEFT
 10
0.0
 20
0.0
 30
0.0
  9
$PUCSORGRIGHT
 10
0.0
 20
0.0
 30
0.0
  9
$PUCSORGFRONT
 10
0.0
 20
0.0
 30
0.0
  9
$PUCSORGBACK
 10
0.0
 20
0.0
 30
0.0
  9
$USERI1
 70
     0
  9
$USERI2
 70
     0
  9
$USERI3
 70
     0
  9
$USERI4
 70
     0
  9
$USERI5
 70
     0
  9
$USERR1
 40
0.0
  9
$USERR2
 40
0.0
  9
$USERR3
 40
0.0
  9
$USERR4
 40
0.0
  9
$USERR5
 40
0.0
  9
$WORLDVIEW
 70
     1
  9
$SHADEDGE
 70
     3
  9
$SHADEDIF
 70
    70
  9
$TILEMODE
 70
     1
  9
$MAXACTVP
 70
    48
  9
$PINSBASE
 10
0.0
 20
0.0
 30
0.0
  9
$PLIMCHECK
 70
     0
  9
$PEXTMIN
 10
1.000000000000000E+20
 20
1.000000000000000E+20
 30
1.000000000000000E+20
  9
$PEXTMAX
 10
-1.000000000000000E+20
 20
-1.000000000000000E+20
 30
-1.000000000000000E+20
  9
$PLIMMIN
 10
0.0
 20
0.0
  9
$PLIMMAX
 10
420.0
 20
297.0
  9
$UNITMODE
 70
     0
  9
$VISRETAIN
 70
     1
  9
$PLINEGEN
 70
     0
  9
$PSLTSCALE
 70
     1
  9
$TREEDEPTH
 70
  3020
  9
$CMLSTYLE
  2
STANDARD
  9
$CMLJUST
 70
     0
  9
$CMLSCALE
 40
20.0
  9
$PROXYGRAPHICS
 70
     1
  9
$MEASUREMENT
 70
     1
  9
$CELWEIGHT
370
    -1
  9
$ENDCAPS
280
     0
  9
$JOINSTYLE
280
     0
  9
$LWDISPLAY
290
     0
  9
$INSUNITS
 70
     0
  9
$HYPERLINKBASE
  1

  9
$STYLESHEET
  1

  9
$XEDIT
290
     1
  9
$CEPSNTYPE
380
     0
  9
$PSTYLEMODE
290
     1
  9
$FINGERPRINTGUID
  2
{82F77459-CED2-42B9-8EBC-43F815C20DA8}
  9
$VERSIONGUID
  2
{F3A7BAE1-CB32-48C7-AA5E-DD44A9284968}
  9
$EXTNAMES
290
     1
  9
$PSVPSCALE
 40
0.0
  9
$OLESTARTUP
290
     0
  9
$SORTENTS
280
    96
  9
$INDEXCTL
280
     0
  9
$HIDETEXT
280
     0
  9
$XCLIPFRAME
290
     0
  9
$HALOGAP
280
     0
  9
$OBSCOLOR
 70
   257
  9
$OBSLTYPE
280
     0
  9
$INTERSECTIONDISPLAY
280
     0
  9
$INTERSECTIONCOLOR
 70
   257
  9
$DIMASSOC
280
     1
  9
$PROJECTNAME
  1

  0
ENDSEC
  0
SECTION
  2
CLASSES
  0
CLASS
  1
HATCH
  2
AcDbHatch
  3
ObjectDBX Classes
 90
        0
 91
       19
280
     0
281
     1
  0
CLASS
  1
LWPOLYLINE
  2
AcDbPolyline
  3
ObjectDBX Classes
 90
        0
 91
        2
280
     0
281
     1
  0
CLASS
  1
IMAGEDEF
  2
AcDbRasterImageDef
  3
ISM
 90
        0
 91
        1
280
     0
281
     0
  0
CLASS
  1
DICTIONARYVAR
  2
AcDbDictionaryVar
  3
ObjectDBX Classes
 90
        0
 91
        2
280
     0
281
     0
  0
CLASS
  1
SORTENTSTABLE
  2
AcDbSortentsTable
  3
ObjectDBX Classes
 90
        0
 91
        2
280
     0
281
     0
  0
CLASS
  1
ACDBDICTIONARYWDFLT
  2
AcDbDictionaryWithDefault
  3
ObjectDBX Classes
 90
        0
 91
        1
280
     0
281
     0
  0
CLASS
  1
TABLESTYLE
  2
AcDbTableStyle
  3
ObjectDBX Classes
 90
     2047
 91
        1
280
     0
281
     0
  0
ENDSEC
  0
SECTION
  2
TABLES
  0
TABLE
  2
VPORT
  5
8
330
0
100
AcDbSymbolTable
 70
     2
  0
VPORT
  5
114C
330
8
100
AcDbSymbolTableRecord
100
AcDbViewportTableRecord
  2
*Active
 70
     0
 10
0.0
 20
0.0
 11
1.0
 21
1.0
 12
444.9861521491976
 22
317.7246641734909
 13
0.0
 23
0.0
 14
10.0
 24
10.0
 15
10.0
 25
10.0
 16
0.0
 26
0.0
 36
1.0
 17
0.0
 27
0.0
 37
0.0
 40
285.4767900740659
 41
1.530456852791878
 42
50.0
 43
0.0
 44
0.0
 50
0.0
 51
0.0
 71
     0
 72
   100
 73
     1
 74
     1
 75
     0
 76
     0
 77
     0
 78
     0
281
     0
 65
     1
110
536.5502948516364
120
232.3564773591471
130
0.0
111
1.0
121
0.0
131
0.0
112
0.0
122
1.0
132
0.0
 79
     0
146
0.0
  0
ENDTAB
  0
TABLE
  2
LTYPE
  5
5
330
0
100
AcDbSymbolTable
 70
    14
  0
LTYPE
  5
12
330
5
100
AcDbSymbolTableRecord
100
AcDbLinetypeTableRecord
  2
BYBLOCK
 70
     0
  3

 72
    65
 73
     0
 40
0.0
  0
LTYPE
  5
13
330
5
100
AcDbSymbolTableRecord
100
AcDbLinetypeTableRecord
  2
BYLAYER
 70
     0
  3

 72
    65
 73
     0
 40
0.0
  0
LTYPE
  5
14
330
5
100
AcDbSymbolTableRecord
100
AcDbLinetypeTableRecord
  2
CONTINUOUS
 70
     0
  3
Solid line
 72
    65
 73
     0
 40
0.0
  0
LTYPE
  5
22
330
5
100
AcDbSymbolTableRecord
100
AcDbLinetypeTableRecord
  2
CENTER2
 70
     0
  3
Center (.5x) ___ _ ___ _ ___ _ ___ _ ___ _ ___
 72
    65
 73
     4
 40
28.575
 49
19.05
 74
     0
 49
-3.174999999999999
 74
     0
 49
3.174999999999999
 74
     0
 49
-3.174999999999999
 74
     0
  0
LTYPE
  5
23
330
5
100
AcDbSymbolTableRecord
100
AcDbLinetypeTableRecord
  2
HIDDEN2
 70
     0
  3
Hidden (.5x) _ _ _ _ _ _ _ _ _ _ _ _ _ _ _ _ _
 72
    65
 73
     2
 40
4.762499999999999
 49
3.174999999999999
 74
     0
 49
-1.587499999999999
 74
     0
  0
LTYPE
  5
24
330
5
100
AcDbSymbolTableRecord
100
AcDbLinetypeTableRecord
  2
PHANTOM2
 70
     0
  3
Phantom (.5x) ___ _ _ ___ _ _ ___ _ _ ___ _ _
 72
    65
 73
     6
 40
31.75
 49
15.875
 74
     0
 49
-3.174999999999999
 74
     0
 49
3.174999999999999
 74
     0
 49
-3.174999999999999
 74
     0
 49
3.174999999999999
 74
     0
 49
-3.174999999999999
 74
     0
  0
ENDTAB
  0
TABLE
  2
LAYER
  5
2
330
0
100
AcDbSymbolTable
 70
    20
  0
LAYER
  5
E
330
2
100
AcDbSymbolTableRecord
100
AcDbLayerTableRecord
  2
0
 70
     0
 62
     7
  6
CONTINUOUS
370
    -3
390
1063
  0
LAYER
  5
25
330
2
100
AcDbSymbolTableRecord
100
AcDbLayerTableRecord
  2
外形線
 70
     0
 62
     7
  6
CONTINUOUS
370
    -3
390
1063
  0
LAYER
  5
26
330
2
100
AcDbSymbolTableRecord
100
AcDbLayerTableRecord
  2
寸法線
 70
     0
 62
     2
  6
CONTINUOUS
370
    -3
390
1063
  0
LAYER
  5
27
330
2
100
AcDbSymbolTableRecord
100
AcDbLayerTableRecord
  2
中心線
 70
     0
 62
     4
  6
CENTER2
370
    -3
390
1063
  0
LAYER
  5
28
330
2
100
AcDbSymbolTableRecord
100
AcDbLayerTableRecord
  2
隠れ線
 70
     0
 62
     6
  6
HIDDEN2
370
    -3
390
1063
  0
LAYER
  5
29
330
2
100
AcDbSymbolTableRecord
100
AcDbLayerTableRecord
  2
想像線
 70
     0
 62
     1
  6
PHANTOM2
370
    -3
390
1063
  0
LAYER
  5
2B
330
2
100
AcDbSymbolTableRecord
100
AcDbLayerTableRecord
  2
文字
 70
     0
 62
     6
  6
CONTINUOUS
370
    -3
390
1063
  0
LAYER
  5
2C
330
2
100
AcDbSymbolTableRecord
100
AcDbLayerTableRecord
  2
目盛
 70
     0
 62
    72
  6
CONTINUOUS
370
    -3
390
1063
  0
LAYER
  5
2D
330
2
100
AcDbSymbolTableRecord
100
AcDbLayerTableRecord
  2
針
 70
     0
 62
     5
  6
CONTINUOUS
370
    -3
390
1063
  0
LAYER
  5
53
330
2
100
AcDbSymbolTableRecord
100
AcDbLayerTableRecord
  2
DEFPOINTS
 70
     0
 62
     7
  6
CONTINUOUS
290
     0
370
    -3
390
1063
  0
LAYER
  5
A5
330
2
100
AcDbSymbolTableRecord
100
AcDbLayerTableRecord
  2
C
 70
     0
 62
     7
  6
CONTINUOUS
370
    -3
390
1063
  0
LAYER
  5
270
330
2
100
AcDbSymbolTableRecord
100
AcDbLayerTableRecord
  2
握り
 70
     0
 62
     3
  6
CONTINUOUS
370
    -3
390
1063
  0
LAYER
  5
348
330
2
100
AcDbSymbolTableRecord
100
AcDbLayerTableRecord
  2
ROGO
 70
     0
 62
     6
  6
CONTINUOUS
370
    -3
390
1063
  0
LAYER
  5
10AA
330
2
100
AcDbSymbolTableRecord
100
AcDbLayerTableRecord
  2
隠れ線2
 70
     0
 62
     1
  6
HIDDEN2
370
    -3
390
1063
  0
ENDTAB
  0
TABLE
  2
STYLE
  5
3
330
0
100
AcDbSymbolTable
 70
     6
  0
STYLE
  5
F
330
3
100
AcDbSymbolTableRecord
100
AcDbTextStyleTableRecord
  2
STANDARD
 70
     0
 40
0.0
 41
1.0
 50
0.0
 71
     0
 42
2.5
  3
txt
  4

  0
STYLE
  5
3F
330
3
100
AcDbSymbolTableRecord
100
AcDbTextStyleTableRecord
  2
STYLE3
 70
     0
 40
0.0
 41
1.0
 50
0.0
 71
     0
 42
3.0
  3
romans.shx
  4
bigfont.shx
  0
ENDTAB
  0
TABLE
  2
VIEW
  5
6
330
0
100
AcDbSymbolTable
 70
     1
  0
VIEW
  5
10A1
330
6
100
AcDbSymbolTableRecord
100
AcDbViewTableRecord
  2
OLE1
 70
     0
 40
50.77092247327096
 10
307.0604669934539
 20
328.5784693915624
 41
78.1500063201134
 11
0.0
 21
0.0
 31
1.0
 12
0.0
 22
0.0
 32
0.0
 42
50.0
 43
0.0
 44
0.0
 50
0.0
 71
     0
281
     0
 72
     0
  0
ENDTAB
  0
TABLE
  2
UCS
  5
7
330
0
100
AcDbSymbolTable
 70
     0
  0
ENDTAB
  0
TABLE
  2
APPID
  5
9
330
0
100
AcDbSymbolTable
 70
     2
  0
APPID
  5
10
330
9
100
AcDbSymbolTableRecord
100
AcDbRegAppTableRecord
  2
ACAD
 70
     0
  0
APPID
  5
10AF
330
9
100
AcDbSymbolTableRecord
100
AcDbRegAppTableRecord
  2
ACAD_PSEXT
 70
     0
  0
ENDTAB
  0
TABLE
  2
DIMSTYLE
  5
A
330
0
100
AcDbSymbolTable
 70
    16
100
AcDbDimStyleTable
 71
     1
340
8F
  0
DIMSTYLE
105
1D
330
A
100
AcDbSymbolTableRecord
100
AcDbDimStyleTableRecord
  2
STANDARD
 70
     0
 41
2.5
 42
0.625
 43
3.75
 44
1.25
 73
     0
 74
     0
 77
     1
 78
     8
140
2.5
141
2.5
143
0.0394
147
0.625
171
     4
172
     1
273
     8
274
     4
277
     6
340
F
  0
DIMSTYLE
105
8F
102
{ACAD_REACTORS
330
E8C
330
E99
102
}
330
A
100
AcDbSymbolTableRecord
100
AcDbDimStyleTableRecord
  2
STYLE3
 70
     0
 41
2.5
 42
0.0
 43
3.75
 44
1.25
 73
     0
 74
     0
 77
     1
 78
     8
140
2.5
141
2.5
143
0.0394
147
0.625
171
     4
172
     1
173
     1
176
     2
177
     2
178
     6
271
     1
273
     8
274
     4
340
3F
341
45
343
45
344
45
  0
ENDTAB
  0
TABLE
  2
BLOCK_RECORD
  5
1
330
0
100
AcDbSymbolTable
 70
     7
  0
BLOCK_RECORD
  5
18
102
{ACAD_XDICTIONARY
360
D0C
102
}
330
1
100
AcDbSymbolTableRecord
100
AcDbBlockTableRecord
  2
*MODEL_SPACE
340
106A
  0
BLOCK_RECORD
  5
15
330
1
100
AcDbSymbolTableRecord
100
AcDbBlockTableRecord
  2
*PAPER_SPACE
340
106B
  0
BLOCK_RECORD
  5
45
330
1
100
AcDbSymbolTableRecord
100
AcDbBlockTableRecord
  2
_OPEN
340
0
102
{BLKREFS
331
DFD
331
E1E
331
E1F
331
E2F
331
E63
331
E64
331
E9D
331
E9E
331
EDD
331
EDE
331
EF9
331
EFA
331
E85
331
E86
331
102B
331
102C
102
}
  0
BLOCK_RECORD
  5
E81
330
1
100
AcDbSymbolTableRecord
100
AcDbBlockTableRecord
  2
*D2
340
0
  0
BLOCK_RECORD
  5
E8D
330
1
100
AcDbSymbolTableRecord
100
AcDbBlockTableRecord
  2
*D3
340
0
  0
BLOCK_RECORD
  5
1044
330
1
100
AcDbSymbolTableRecord
100
AcDbBlockTableRecord
  2
A$C5A2C0625
340
0
102
{BLKREFS
331
1056
102
}
  0
ENDTAB
  0
ENDSEC
  0
SECTION
  2
BLOCKS
  0
BLOCK
  5
19
330
18
100
AcDbEntity
  8
0
100
AcDbBlockBegin
  2
*MODEL_SPACE
 70
     0
 10
0.0
 20
0.0
 30
0.0
  3
*MODEL_SPACE
  1

  0
ENDBLK
  5
1A
330
18
100
AcDbEntity
  8
0
100
AcDbBlockEnd
  0
BLOCK
  5
16
330
15
100
AcDbEntity
 67
     1
  8
0
100
AcDbBlockBegin
  2
*PAPER_SPACE
 70
     0
 10
0.0
 20
0.0
 30
0.0
  3
*PAPER_SPACE
  1

  0
ENDBLK
  5
17
330
15
100
AcDbEntity
 67
     1
  8
0
100
AcDbBlockEnd
  0
BLOCK
  5
46
330
45
100
AcDbEntity
  8
0
100
AcDbBlockBegin
  2
_OPEN
 70
     0
 10
0.0
 20
0.0
 30
0.0
  3
_OPEN
  1

  0
LINE
  5
47
330
45
100
AcDbEntity
  8
0
  6
ByBlock
 62
     0
100
AcDbLine
 10
-1.0
 20
0.1666666666666666
 30
0.0
 11
0.0
 21
0.0
 31
0.0
  0
LINE
  5
48
330
45
100
AcDbEntity
  8
0
  6
ByBlock
 62
     0
100
AcDbLine
 10
0.0
 20
0.0
 30
0.0
 11
-1.0
 21
-0.1666666666666666
 31
0.0
  0
LINE
  5
49
330
45
100
AcDbEntity
  8
0
  6
ByBlock
 62
     0
100
AcDbLine
 10
0.0
 20
0.0
 30
0.0
 11
-1.0
 21
0.0
 31
0.0
  0
ENDBLK
  5
4A
330
45
100
AcDbEntity
  8
0
100
AcDbBlockEnd
  0
BLOCK
  5
E82
330
E81
100
AcDbEntity
  8
0
100
AcDbBlockBegin
  2
*D2
 70
     1
 10
0.0
 20
0.0
 30
0.0
  3
*D2
  1

  0
LINE
  5
E83
330
E81
100
AcDbEntity
  8
0
  6
ByBlock
 62
     2
100
AcDbLine
 10
586.5502948516364
 20
299.3427473991813
 30
0.0
 11
586.5502948516364
 21
229.2314773591471
 31
0.0
  0
LINE
  5
E84
330
E81
100
AcDbEntity
  8
0
  6
ByBlock
 62
     2
100
AcDbLine
 10
489.0502948516363
 20
230.481477359147
 30
0.0
 11
584.0502948516363
 21
230.481477359147
 31
0.0
  0
INSERT
  5
E85
330
E81
100
AcDbEntity
  8
0
  6
ByBlock
 62
     2
100
AcDbBlockReference
  2
_OPEN
 10
486.5502948516364
 20
230.481477359147
 30
0.0
 41
2.5
 42
2.5
 43
2.5
 50
180.0
  0
INSERT
  5
E86
330
E81
100
AcDbEntity
  8
0
  6
ByBlock
 62
     2
100
AcDbBlockReference
  2
_OPEN
 10
586.5502948516364
 20
230.481477359147
 30
0.0
 41
2.5
 42
2.5
 43
2.5
  0
MTEXT
  5
E87
330
E81
100
AcDbEntity
  8
0
  6
ByBlock
 62
     6
100
AcDbMText
 10
536.5502948516364
 20
232.3564773591471
 30
0.0
 40
2.5
 41
0.0
 71
     5
 72
     1
  1
\A1;100
  7
STYLE3
 73
     1
 44
1.0
  0
POINT
  5
E88
330
E81
100
AcDbEntity
  8
DEFPOINTS
  6
ByBlock
 62
     0
100
AcDbPoint
 10
486.5502948516364
 20
299.3427473991813
 30
0.0
  0
POINT
  5
E89
330
E81
100
AcDbEntity
  8
DEFPOINTS
  6
ByBlock
 62
     0
100
AcDbPoint
 10
586.5502948516364
 20
299.3427473991813
 30
0.0
  0
POINT
  5
E8A
330
E81
100
AcDbEntity
  8
DEFPOINTS
  6
ByBlock
 62
     0
100
AcDbPoint
 10
586.5502948516364
 20
230.481477359147
 30
0.0
  0
ENDBLK
  5
E8B
330
E81
100
AcDbEntity
  8
0
100
AcDbBlockEnd
  0
BLOCK
  5
1027
330
E8D
100
AcDbEntity
  8
0
100
AcDbBlockBegin
  2
*D3
 70
     1
 10
0.0
 20
0.0
 30
0.0
  3
*D3
  1

  0
LINE
  5
1028
330
E8D
100
AcDbEntity
  8
0
  6
ByBlock
 62
     2
100
AcDbLine
 10
581.5502948516364
 20
328.902504061256
 30
0.0
 11
600.0253408868664
 21
328.902504061256
 31
0.0
  0
LINE
  5
1029
330
E8D
100
AcDbEntity
  8
0
  6
ByBlock
 62
     2
100
AcDbLine
 10
581.5502948516364
 20
298.902504061256
 30
0.0
 11
600.0253408868664
 21
298.902504061256
 31
0.0
  0
LINE
  5
102A
330
E8D
100
AcDbEntity
  8
0
  6
ByBlock
 62
     2
100
AcDbLine
 10
598.7753408868664
 20
326.402504061256
 30
0.0
 11
598.7753408868664
 21
301.402504061256
 31
0.0
  0
INSERT
  5
102B
330
E8D
100
AcDbEntity
  8
0
  6
ByBlock
 62
     2
100
AcDbBlockReference
  2
_OPEN
 10
598.7753408868664
 20
328.902504061256
 30
0.0
 41
2.5
 42
2.5
 43
2.5
 50
90.0
  0
INSERT
  5
102C
330
E8D
100
AcDbEntity
  8
0
  6
ByBlock
 62
     2
100
AcDbBlockReference
  2
_OPEN
 10
598.7753408868664
 20
298.902504061256
 30
0.0
 41
2.5
 42
2.5
 43
2.5
 50
270.0
  0
MTEXT
  5
102D
330
E8D
100
AcDbEntity
  8
0
  6
ByBlock
 62
     6
100
AcDbMText
 10
596.9003408868664
 20
313.902504061256
 30
0.0
 40
2.5
 41
0.0
 71
     5
 72
     1
  1
\A1;30
  7
STYLE3
 11
0.0000000000000001
 21
1.0
 31
0.0
 73
     1
 44
1.0
  0
POINT
  5
102E
330
E8D
100
AcDbEntity
  8
DEFPOINTS
  6
ByBlock
 62
     0
100
AcDbPoint
 10
581.5502948516364
 20
328.902504061256
 30
0.0
  0
POINT
  5
102F
330
E8D
100
AcDbEntity
  8
DEFPOINTS
  6
ByBlock
 62
     0
100
AcDbPoint
 10
581.5502948516364
 20
298.902504061256
 30
0.0
  0
POINT
  5
1030
330
E8D
100
AcDbEntity
  8
DEFPOINTS
  6
ByBlock
 62
     0
100
AcDbPoint
 10
598.7753408868664
 20
298.902504061256
 30
0.0
  0
ENDBLK
  5
1031
330
E8D
100
AcDbEntity
  8
0
100
AcDbBlockEnd
  0
BLOCK
  5
1054
330
1044
100
AcDbEntity
  8
0
100
AcDbBlockBegin
  2
A$C5A2C0625
 70
     0
 10
0.0
 20
0.0
 30
0.0
  3
A$C5A2C0625
  1

  0
LINE
  5
1045
330
1044
100
AcDbEntity
  8
想像線
 48
0.5
100
AcDbLine
 10
6.237634084162266
 20
39.00000032749569
 30
0.0
 11
6.237634084162323
 21
0.0000003274957407
 31
0.0
  0
LINE
  5
1046
330
1044
100
AcDbEntity
  8
想像線
 48
0.5
100
AcDbLine
 10
26.23763408416238
 20
39.00000032749586
 30
0.0
 11
26.23763408416244
 21
0.0000003274956839
 31
0.0
  0
LINE
  5
1047
330
1044
100
AcDbEntity
  8
想像線
 48
0.5
100
AcDbLine
 10
6.237634084162323
 20
0.0000003274956839
 30
0.0
 11
26.23763408416244
 21
0.0000003274956839
 31
0.0
  0
LINE
  5
1048
330
1044
100
AcDbEntity
  8
想像線
 48
0.5
100
AcDbLine
 10
0.2376340841623232
 20
39.00000032749569
 30
0.0
 11
26.23763408416238
 21
39.00000032749586
 31
0.0
  0
LINE
  5
1049
330
1044
100
AcDbEntity
  8
想像線
 48
0.5
100
AcDbLine
 10
0.2376340841623232
 20
39.00000032749569
 30
0.0
 11
0.2376340841623232
 21
29.00000032749563
 31
0.0
  0
LINE
  5
104A
330
1044
100
AcDbEntity
  8
中心線
 48
0.4
100
AcDbLine
 10
3.237634084162209
 20
28.16236662758291
 30
0.0
 11
3.237634084162323
 21
39.63763402740836
 31
0.0
  0
CIRCLE
  5
104B
330
1044
100
AcDbEntity
  8
想像線
100
AcDbCircle
 10
3.237634084162323
 20
31.40000032749558
 30
0.0
 40
1.5
  0
LINE
  5
104C
330
1044
100
AcDbEntity
  8
想像線
 48
0.5
100
AcDbLine
 10
0.2376340841623232
 20
29.00000032749563
 30
0.0
 11
6.237634084162323
 21
29.00000032749563
 31
0.0
  0
LINE
  5
104D
330
1044
100
AcDbEntity
  8
中心線
 48
0.2
100
AcDbLine
 10
0.0000003842496312
 20
31.40000032749555
 30
0.0
 11
6.475267784074844
 21
31.40000032749555
 31
0.0
  0
LINE
  5
104E
330
1044
100
AcDbEntity
  8
想像線
100
AcDbLine
 10
2.488447393444062
 20
32.14918701821381
 30
0.0
 11
4.013946719978605
 21
30.62368769167921
 31
0.0
  0
LINE
  5
104F
330
1044
100
AcDbEntity
  8
想像線
100
AcDbLine
 10
2.498859739793147
 20
30.6612259831266
 30
0.0
 11
3.976464261594401
 21
32.13883050492797
 31
0.0
  0
LINE
  5
1050
330
1044
100
AcDbEntity
  8
中心線
 48
0.2
100
AcDbLine
 10
0.0000003842497449
 20
36.40000032749566
 30
0.0
 11
6.475267784075015
 21
36.40000032749566
 31
0.0
  0
CIRCLE
  5
1051
330
1044
100
AcDbEntity
  8
想像線
100
AcDbCircle
 10
3.23763408416238
 20
36.40000032749569
 30
0.0
 40
1.5
  0
LINE
  5
1052
330
1044
100
AcDbEntity
  8
想像線
100
AcDbLine
 10
2.488447393444175
 20
37.14918701821392
 30
0.0
 11
4.013946719978662
 21
35.62368769167932
 31
0.0
  0
LINE
  5
1053
330
1044
100
AcDbEntity
  8
想像線
100
AcDbLine
 10
2.49885973979326
 20
35.66122598312671
 30
0.0
 11
3.976464261594514
 21
37.13883050492808
 31
0.0
  0
ENDBLK
  5
1055
330
1044
100
AcDbEntity
  8
0
100
AcDbBlockEnd
  0
ENDSEC
  0
SECTION
  2
ENTITIES
  0
LWPOLYLINE
  5
1A0
330
18
100
AcDbEntity
  8
C
100
AcDbPolyline
 90
        5
 70
     0
 43
0.8
 10
256.2352605185929
 20
458.9717683211813
 10
633.7352605185929
 20
458.9717683211813
 10
633.7352605185929
 20
176.4717683211813
 10
256.2352605185929
 20
176.4717683211813
 10
256.2352605185929
 20
458.9717683211813
  0
LINE
  5
1DB
330
18
100
AcDbEntity
  8
中心線
100
AcDbLine
 10
285.720960361731
 20
313.902504061256
 30
0.0
 11
591.1048938467988
 21
313.902504061256
 31
0.0
  0
LINE
  5
1E0
330
18
100
AcDbEntity
  8
中心線
100
AcDbLine
 10
446.5502948516363
 20
328.2515524736097
 30
0.0
 11
446.5502948516363
 21
229.231477359147
 31
0.0
  0
ARC
  5
1E4
330
18
100
AcDbEntity
  8
外形線
100
AcDbCircle
 10
492.1322948516364
 20
336.902504061256
 30
0.0
 40
15.0
100
AcDbArc
 50
164.0426171218905
 51
207.6640044961882
  0
LINE
  5
1E6
330
18
100
AcDbEntity
  8
隠れ線2
100
AcDbLine
 10
446.5502948516363
 20
302.152504061256
 30
0.0
 11
469.5177618486968
 21
302.152504061256
 31
0.0
  0
ARC
  5
1E7
330
18
100
AcDbEntity
  8
隠れ線2
100
AcDbCircle
 10
446.5502948516363
 20
313.902504061256
 30
0.0
 40
11.75
100
AcDbArc
 50
223.2275300467913
 51
270.0
  0
LINE
  5
1E8
330
18
100
AcDbEntity
  8
外形線
100
AcDbLine
 10
485.9324964678178
 20
325.6525040612562
 30
0.0
 11
486.5502948516364
 21
325.6525040612562
 31
0.0
  0
ARC
  5
1EC
330
18
100
AcDbEntity
  8
外形線
100
AcDbCircle
 10
437.7752948516364
 20
336.902504061256
 30
0.0
 40
10.0
100
AcDbArc
 50
311.4096221092714
 51
15.73746391727626
  0
LINE
  5
1EF
330
18
100
AcDbEntity
  8
外形線
100
AcDbLine
 10
444.3896731292979
 20
329.402504061256
 30
0.0
 11
439.2402768124551
 21
323.4189969166541
 31
0.0
  0
ARC
  5
1F2
330
18
100
AcDbEntity
  8
外形線
100
AcDbCircle
 10
433.4432948516363
 20
396.402504061256
 30
0.0
 40
20.0
100
AcDbArc
 50
270.0000000000008
 51
290.1961601498948
  0
ARC
  5
1F5
330
18
100
AcDbEntity
  8
外形線
100
AcDbCircle
 10
433.4562948516364
 20
352.902504061256
 30
0.0
 40
5.0
100
AcDbArc
 50
65.52298474976293
 51
90.00000000001366
  0
ARC
  5
1FB
330
18
100
AcDbEntity
  8
外形線
100
AcDbCircle
 10
298.6482948516364
 20
338.902504061256
 30
0.0
 40
2.5
100
AcDbArc
 50
172.0618311478103
 51
332.7002370494692
  0
ARC
  5
1FE
330
18
100
AcDbEntity
  8
外形線
100
AcDbCircle
 10
314.0502948516364
 20
348.902504061256
 30
0.0
 40
10.0
100
AcDbArc
 50
89.04034236054872
 51
165.836256245915
  0
LINE
  5
204
330
18
100
AcDbEntity
  8
外形線
100
AcDbLine
 10
297.0502948516364
 20
351.902504061256
 30
0.0
 11
296.1722506473098
 21
339.2477649745101
 31
0.0
  0
LINE
  5
205
330
18
100
AcDbEntity
  8
外形線
100
AcDbLine
 10
317.0502948516364
 20
371.902504061256
 30
0.0
 11
433.4432948516363
 21
376.402504061256
 31
0.0
  0
LINE
  5
206
330
18
100
AcDbEntity
  8
外形線
100
AcDbLine
 10
314.0502948516364
 20
358.902504061256
 30
0.0
 11
433.4562948516364
 21
357.902504061256
 31
0.0
  0
ARC
  5
207
330
18
100
AcDbEntity
  8
外形線
100
AcDbCircle
 10
317.0502948516364
 20
351.902504061256
 30
0.0
 40
20.0
100
AcDbArc
 50
90.00000000000081
 51
179.9999999999985
  0
LINE
  5
20B
330
18
100
AcDbEntity
  8
外形線
100
AcDbLine
 10
304.3542910110054
 20
351.3494428676972
 30
0.0
 11
300.8698426771745
 21
337.7558893662313
 31
0.0
  0
ARC
  5
211
330
18
100
AcDbEntity
  8
外形線
100
AcDbCircle
 10
446.5502948516363
 20
313.902504061256
 30
0.0
 40
12.0
100
AcDbArc
 50
19.47122063449047
 51
212.4567418212945
  0
LINE
  5
212
330
18
100
AcDbEntity
  8
外形線
100
AcDbLine
 10
470.0502948516364
 20
317.902504061256
 30
0.0
 11
470.0502948516363
 21
302.6263093560195
 31
0.0
  0
LINE
  5
213
330
18
100
AcDbEntity
  8
外形線
100
AcDbLine
 10
457.8640033506211
 20
317.902504061256
 30
0.0
 11
470.0502948516364
 21
317.902504061256
 31
0.0
  0
ARC
  5
217
330
18
100
AcDbEntity
  8
外形線
100
AcDbCircle
 10
479.0457676312146
 20
291.8949650870036
 30
0.0
 40
14.0
100
AcDbArc
 50
130.0052008848602
 51
232.3550281618702
  0
ARC
  5
21B
330
18
100
AcDbEntity
  8
外形線
100
AcDbCircle
 10
488.6822948516363
 20
242.572504061256
 30
0.0
 40
2.799999999999999
100
AcDbArc
 50
196.3557619638409
 51
0.2836666043266096
  0
ARC
  5
21E
330
18
100
AcDbEntity
  8
外形線
100
AcDbCircle
 10
456.7912948516363
 20
234.902504061256
 30
0.0
 40
30.0
100
AcDbArc
 50
13.25960248114225
 51
118.831702215763
  0
ARC
  5
221
330
18
100
AcDbEntity
  8
外形線
100
AcDbCircle
 10
441.5502948516364
 20
240.039504061256
 30
0.0
 40
50.0
100
AcDbArc
 50
2.918845148215901
 51
54.62715812344941
  0
ARC
  5
22B
330
18
100
AcDbEntity
  8
外形線
100
AcDbCircle
 10
419.1322948516363
 20
297.402504061256
 30
0.0
 40
20.0
100
AcDbArc
 50
252.7863868999745
 51
30.18665270617102
  0
ARC
  5
22E
330
18
100
AcDbEntity
  8
外形線
100
AcDbCircle
 10
425.5502948516364
 20
291.902504061256
 30
0.0
 40
35.0
100
AcDbArc
 50
249.9435711114075
 51
298.6365758335715
  0
ARC
  5
234
330
18
100
AcDbEntity
  8
外形線
100
AcDbCircle
 10
297.8902948516364
 20
333.902504061256
 30
0.0
 40
2.5
100
AcDbArc
 50
357.4867817447906
 51
172.8430003319822
  0
ARC
  5
235
330
18
100
AcDbEntity
  8
中心線
100
AcDbCircle
 10
446.5502948516363
 20
313.902504061256
 30
0.0
 40
150.0
100
AcDbArc
 50
161.2840690905562
 51
211.3411361618928
  0
ARC
  5
23A
330
18
100
AcDbEntity
  8
外形線
100
AcDbCircle
 10
310.0502948516364
 20
318.402504061256
 30
0.0
 40
10.0
100
AcDbArc
 50
177.4867817447909
 51
243.0465671382381
  0
ARC
  5
23D
330
18
100
AcDbEntity
  8
外形線
100
AcDbCircle
 10
312.0502948516364
 20
315.902504061256
 30
0.0
 40
20.0
100
AcDbArc
 50
174.3627678807046
 51
255.4429382577681
  0
LINE
  5
249
330
18
100
AcDbEntity
  8
外形線
100
AcDbLine
 10
300.0502948516364
 20
318.402504061256
 30
0.0
 11
300.3902948516365
 21
333.902504061256
 31
0.0
  0
LINE
  5
25A
330
18
100
AcDbEntity
  8
外形線
100
AcDbLine
 10
295.4097736412223
 20
334.2139756084082
 30
0.0
 11
292.1470192868459
 21
317.8670960779381
 31
0.0
  0
LINE
  5
25B
330
18
100
AcDbEntity
  8
外形線
100
AcDbLine
 10
305.5176330073939
 20
309.4887519553386
 30
0.0
 11
413.2135946607286
 21
278.2983425237755
 31
0.0
  0
LINE
  5
25C
330
18
100
AcDbEntity
  8
外形線
100
AcDbLine
 10
307.0234133965771
 20
296.5445480008455
 30
0.0
 11
413.5472040218944
 21
259.0250678696524
 31
0.0
  0
LINE
  5
261
330
18
100
AcDbEntity
  8
外形線
100
AcDbLine
 10
469.5177618486968
 20
302.152504061256
 30
0.0
 11
486.5502948516364
 21
302.152504061256
 31
0.0
  0
ARC
  5
263
330
18
100
AcDbEntity
  8
隠れ線
100
AcDbCircle
 10
440.8112088778195
 20
311.0718448326206
 30
0.0
 40
5.698616266471369
100
AcDbArc
 50
220.1653727956317
 51
229.2263779592051
  0
LINE
  5
264
330
18
100
AcDbEntity
  8
隠れ線2
100
AcDbLine
 10
437.0896019977177
 20
306.7563066758584
 30
0.0
 11
437.9887792546693
 21
305.8549609154947
 31
0.0
  0
CIRCLE
  5
265
330
18
100
AcDbEntity
  8
外形線
100
AcDbCircle
 10
446.5502948516363
 20
313.902504061256
 30
0.0
 40
10.0
  0
ARC
  5
2D2
102
{ACAD_REACTORS
330
10CD
102
}
330
18
100
AcDbEntity
  8
握り
100
AcDbCircle
 10
581.5502948516364
 20
327.402504061256
 30
0.0
 40
1.5
100
AcDbArc
 50
27.81813928465427
 51
152.1818607153457
  0
ARC
  5
2D3
102
{ACAD_REACTORS
330
10CD
102
}
330
18
100
AcDbEntity
  8
握り
100
AcDbCircle
 10
571.5502948516363
 20
327.402504061256
 30
0.0
 40
1.5
100
AcDbArc
 50
27.81813928465427
 51
152.1818607153457
  0
ARC
  5
2D4
102
{ACAD_REACTORS
330
10CD
102
}
330
18
100
AcDbEntity
  8
握り
100
AcDbCircle
 10
561.5502948516364
 20
327.402504061256
 30
0.0
 40
1.5
100
AcDbArc
 50
27.81813928465427
 51
152.1818607153457
  0
ARC
  5
2D5
102
{ACAD_REACTORS
330
10CD
102
}
330
18
100
AcDbEntity
  8
握り
100
AcDbCircle
 10
551.5502948516363
 20
327.402504061256
 30
0.0
 40
1.5
100
AcDbArc
 50
27.81813928465427
 51
152.1818607153457
  0
ARC
  5
2D6
102
{ACAD_REACTORS
330
10CD
102
}
330
18
100
AcDbEntity
  8
握り
100
AcDbCircle
 10
541.5502948516364
 20
327.402504061256
 30
0.0
 40
1.5
100
AcDbArc
 50
27.81813928465427
 51
152.1818607153457
  0
ARC
  5
2D7
102
{ACAD_REACTORS
330
10CD
102
}
330
18
100
AcDbEntity
  8
握り
100
AcDbCircle
 10
531.5502948516364
 20
327.402504061256
 30
0.0
 40
1.5
100
AcDbArc
 50
27.81813928465427
 51
152.1818607153457
  0
ARC
  5
2D8
102
{ACAD_REACTORS
330
10CD
102
}
330
18
100
AcDbEntity
  8
握り
100
AcDbCircle
 10
521.5502948516363
 20
327.402504061256
 30
0.0
 40
1.5
100
AcDbArc
 50
27.81813928465427
 51
152.1818607153457
  0
ARC
  5
2D9
102
{ACAD_REACTORS
330
10CD
102
}
330
18
100
AcDbEntity
  8
握り
100
AcDbCircle
 10
511.5502948516364
 20
327.402504061256
 30
0.0
 40
1.5
100
AcDbArc
 50
27.81813928465427
 51
152.1818607153457
  0
ARC
  5
2DA
102
{ACAD_REACTORS
330
10CD
102
}
330
18
100
AcDbEntity
  8
握り
100
AcDbCircle
 10
501.5502948516363
 20
327.402504061256
 30
0.0
 40
1.5
100
AcDbArc
 50
27.81813928465427
 51
152.1818607153457
  0
ARC
  5
2DB
102
{ACAD_REACTORS
330
10CD
102
}
330
18
100
AcDbEntity
  8
握り
100
AcDbCircle
 10
491.5502948516364
 20
327.402504061256
 30
0.0
 40
1.5
100
AcDbArc
 50
27.81813928465427
 51
152.1818607153457
  0
ARC
  5
2DC
102
{ACAD_REACTORS
330
10CD
102
}
330
18
100
AcDbEntity
  8
握り
100
AcDbCircle
 10
487.0502948516364
 20
327.6025040612561
 30
0.0
 40
0.5
100
AcDbArc
 50
90.0
 51
180.0
  0
ARC
  5
2DD
102
{ACAD_REACTORS
330
10CD
102
}
330
18
100
AcDbEntity
  8
握り
100
AcDbCircle
 10
586.0502948516364
 20
327.602504061256
 30
0.0
 40
0.5
100
AcDbArc
 50
0.0
 51
90.0
  0
LINE
  5
2DE
102
{ACAD_REACTORS
330
10CD
102
}
330
18
100
AcDbEntity
  8
握り
100
AcDbLine
 10
522.8769447677786
 20
307.2492040612559
 30
0.0
 11
530.223644935494
 21
307.2492040612559
 31
0.0
  0
LINE
  5
2DF
102
{ACAD_REACTORS
330
10CD
102
}
330
18
100
AcDbEntity
  8
握り
100
AcDbLine
 10
522.8769447677787
 20
320.5558040612561
 30
0.0
 11
530.2236449354944
 21
320.5558040612561
 31
0.0
  0
LINE
  5
2E0
102
{ACAD_REACTORS
330
10CD
102
}
330
18
100
AcDbEntity
  8
握り
100
AcDbLine
 10
512.8769447677785
 20
309.902504061256
 30
0.0
 11
560.2236449354941
 21
309.902504061256
 31
0.0
  0
LINE
  5
2E1
102
{ACAD_REACTORS
330
10CD
102
}
330
18
100
AcDbEntity
  8
握り
100
AcDbLine
 10
512.8769447677785
 20
317.902504061256
 30
0.0
 11
560.2236449354943
 21
317.902504061256
 31
0.0
  0
LINE
  5
2E2
102
{ACAD_REACTORS
330
10CD
102
}
330
18
100
AcDbEntity
  8
握り
100
AcDbLine
 10
522.8769447677786
 20
299.702504061256
 30
0.0
 11
530.2236449354942
 21
299.702504061256
 31
0.0
  0
LINE
  5
2E3
102
{ACAD_REACTORS
330
10CD
102
}
330
18
100
AcDbEntity
  8
握り
100
AcDbLine
 10
522.8769447677786
 20
328.1025040612561
 30
0.0
 11
530.2236449354942
 21
328.1025040612561
 31
0.0
  0
LINE
  5
2E4
102
{ACAD_REACTORS
330
10CD
102
}
330
18
100
AcDbEntity
  8
握り
100
AcDbLine
 10
522.8769447677784
 20
307.249204061256
 30
0.0
 11
522.8769447677786
 21
299.702504061256
 31
0.0
  0
LINE
  5
2E5
102
{ACAD_REACTORS
330
10CD
102
}
330
18
100
AcDbEntity
  8
握り
100
AcDbLine
 10
520.2236449354942
 20
307.249204061256
 30
0.0
 11
520.2236449354942
 21
299.702504061256
 31
0.0
  0
LINE
  5
2E6
102
{ACAD_REACTORS
330
10CD
102
}
330
18
100
AcDbEntity
  8
握り
100
AcDbLine
 10
512.8769447677785
 20
307.2492040612561
 30
0.0
 11
512.8769447677785
 21
299.702504061256
 31
0.0
  0
LINE
  5
2E7
102
{ACAD_REACTORS
330
10CD
102
}
330
18
100
AcDbEntity
  8
握り
100
AcDbLine
 10
510.2236449354942
 20
328.1025040612561
 30
0.0
 11
510.2236449354942
 21
299.702504061256
 31
0.0
  0
LINE
  5
2E8
102
{ACAD_REACTORS
330
10CD
102
}
330
18
100
AcDbEntity
  8
握り
100
AcDbLine
 10
502.8769447677785
 20
328.1025040612561
 30
0.0
 11
502.8769447677785
 21
299.702504061256
 31
0.0
  0
LINE
  5
2E9
102
{ACAD_REACTORS
330
10CD
102
}
330
18
100
AcDbEntity
  8
握り
100
AcDbLine
 10
500.2236449354942
 20
328.1025040612561
 30
0.0
 11
500.2236449354942
 21
299.702504061256
 31
0.0
  0
LINE
  5
2EA
102
{ACAD_REACTORS
330
10CD
102
}
330
18
100
AcDbEntity
  8
握り
100
AcDbLine
 10
490.2236449354942
 20
328.1025040612561
 30
0.0
 11
490.2236449354942
 21
299.702504061256
 31
0.0
  0
LINE
  5
2EB
102
{ACAD_REACTORS
330
10CD
102
}
330
18
100
AcDbEntity
  8
握り
100
AcDbLine
 10
492.8769447677786
 20
328.1025040612561
 30
0.0
 11
492.8769447677786
 21
299.702504061256
 31
0.0
  0
LINE
  5
2EC
102
{ACAD_REACTORS
330
10CD
102
}
330
18
100
AcDbEntity
  8
握り
100
AcDbLine
 10
486.5502948516364
 20
327.6025040612561
 30
0.0
 11
486.5502948516364
 21
300.2025040612561
 31
0.0
  0
LINE
  5
2ED
102
{ACAD_REACTORS
330
10CD
102
}
330
18
100
AcDbEntity
  8
握り
100
AcDbLine
 10
487.0502948516364
 20
299.702504061256
 30
0.0
 11
490.2236449354943
 21
299.7025040612561
 31
0.0
  0
ARC
  5
2EE
102
{ACAD_REACTORS
330
10CD
102
}
330
18
100
AcDbEntity
  8
握り
100
AcDbCircle
 10
487.0502948516364
 20
300.2025040612561
 30
0.0
 40
0.5
100
AcDbArc
 50
180.0
 51
270.0
  0
LINE
  5
2EF
102
{ACAD_REACTORS
330
10CD
102
}
330
18
100
AcDbEntity
  8
握り
100
AcDbLine
 10
502.8769447677785
 20
299.7025040612561
 30
0.0
 11
510.2236449354942
 21
299.702504061256
 31
0.0
  0
LINE
  5
2F0
102
{ACAD_REACTORS
330
10CD
102
}
330
18
100
AcDbEntity
  8
握り
100
AcDbLine
 10
492.8769447677786
 20
299.7025040612561
 30
0.0
 11
500.2236449354943
 21
299.7025040612561
 31
0.0
  0
ARC
  5
2F1
102
{ACAD_REACTORS
330
10CD
102
}
330
18
100
AcDbEntity
  8
握り
100
AcDbCircle
 10
491.5502948516364
 20
300.402504061256
 30
0.0
 40
1.5
100
AcDbArc
 50
207.8181392846543
 51
332.1818607153458
  0
ARC
  5
2F2
102
{ACAD_REACTORS
330
10CD
102
}
330
18
100
AcDbEntity
  8
握り
100
AcDbCircle
 10
501.5502948516363
 20
300.402504061256
 30
0.0
 40
1.5
100
AcDbArc
 50
207.8181392846543
 51
332.1818607153458
  0
LINE
  5
2F3
102
{ACAD_REACTORS
330
10CD
102
}
330
18
100
AcDbEntity
  8
握り
100
AcDbLine
 10
512.8769447677785
 20
299.702504061256
 30
0.0
 11
520.2236449354942
 21
299.702504061256
 31
0.0
  0
ARC
  5
2F4
102
{ACAD_REACTORS
330
10CD
102
}
330
18
100
AcDbEntity
  8
握り
100
AcDbCircle
 10
511.5502948516364
 20
300.402504061256
 30
0.0
 40
1.5
100
AcDbArc
 50
207.8181392846543
 51
332.1818607153458
  0
ARC
  5
2F5
102
{ACAD_REACTORS
330
10CD
102
}
330
18
100
AcDbEntity
  8
握り
100
AcDbCircle
 10
521.5502948516363
 20
300.402504061256
 30
0.0
 40
1.5
100
AcDbArc
 50
207.8181392846543
 51
332.1818607153458
  0
LINE
  5
2F6
102
{ACAD_REACTORS
330
10CD
102
}
330
18
100
AcDbEntity
  8
握り
100
AcDbLine
 10
487.0502948516364
 20
328.1025040612561
 30
0.0
 11
490.2236449354942
 21
328.1025040612561
 31
0.0
  0
LINE
  5
2F8
102
{ACAD_REACTORS
330
10CD
102
}
330
18
100
AcDbEntity
  8
握り
100
AcDbLine
 10
512.8769447677785
 20
317.902504061256
 30
0.0
 11
512.8769447677785
 21
309.902504061256
 31
0.0
  0
LINE
  5
2F9
102
{ACAD_REACTORS
330
10CD
102
}
330
18
100
AcDbEntity
  8
握り
100
AcDbLine
 10
512.8769447677785
 20
307.249204061256
 30
0.0
 11
520.2236449354943
 21
307.2492040612559
 31
0.0
  0
LINE
  5
2FA
102
{ACAD_REACTORS
330
10CD
102
}
330
18
100
AcDbEntity
  8
握り
100
AcDbLine
 10
502.8769447677785
 20
328.1025040612561
 30
0.0
 11
510.2236449354942
 21
328.1025040612561
 31
0.0
  0
LINE
  5
2FB
102
{ACAD_REACTORS
330
10CD
102
}
330
18
100
AcDbEntity
  8
握り
100
AcDbLine
 10
492.8769447677786
 20
328.1025040612561
 30
0.0
 11
500.2236449354943
 21
328.1025040612561
 31
0.0
  0
LINE
  5
2FC
102
{ACAD_REACTORS
330
10CD
102
}
330
18
100
AcDbEntity
  8
握り
100
AcDbLine
 10
522.8769447677786
 20
328.1025040612561
 30
0.0
 11
522.8769447677787
 21
320.555804061256
 31
0.0
  0
LINE
  5
2FD
102
{ACAD_REACTORS
330
10CD
102
}
330
18
100
AcDbEntity
  8
握り
100
AcDbLine
 10
520.2236449354942
 20
328.1025040612561
 30
0.0
 11
520.2236449354943
 21
320.555804061256
 31
0.0
  0
LINE
  5
2FE
102
{ACAD_REACTORS
330
10CD
102
}
330
18
100
AcDbEntity
  8
握り
100
AcDbLine
 10
512.8769447677785
 20
328.1025040612561
 30
0.0
 11
512.8769447677785
 21
320.5558040612561
 31
0.0
  0
LINE
  5
2FF
102
{ACAD_REACTORS
330
10CD
102
}
330
18
100
AcDbEntity
  8
握り
100
AcDbLine
 10
512.8769447677787
 20
320.555804061256
 30
0.0
 11
520.2236449354944
 21
320.5558040612561
 31
0.0
  0
LINE
  5
300
102
{ACAD_REACTORS
330
10CD
102
}
330
18
100
AcDbEntity
  8
握り
100
AcDbLine
 10
512.8769447677785
 20
328.1025040612561
 30
0.0
 11
520.2236449354942
 21
328.1025040612561
 31
0.0
  0
LINE
  5
301
102
{ACAD_REACTORS
330
10CD
102
}
330
18
100
AcDbEntity
  8
握り
100
AcDbLine
 10
552.8769447677785
 20
307.249204061256
 30
0.0
 11
552.8769447677785
 21
299.702504061256
 31
0.0
  0
LINE
  5
302
102
{ACAD_REACTORS
330
10CD
102
}
330
18
100
AcDbEntity
  8
握り
100
AcDbLine
 10
550.2236449354943
 20
307.249204061256
 30
0.0
 11
550.2236449354942
 21
299.702504061256
 31
0.0
  0
LINE
  5
303
102
{ACAD_REACTORS
330
10CD
102
}
330
18
100
AcDbEntity
  8
握り
100
AcDbLine
 10
542.8769447677786
 20
307.249204061256
 30
0.0
 11
542.8769447677786
 21
299.702504061256
 31
0.0
  0
LINE
  5
304
102
{ACAD_REACTORS
330
10CD
102
}
330
18
100
AcDbEntity
  8
握り
100
AcDbLine
 10
540.2236449354942
 20
307.2492040612559
 30
0.0
 11
540.2236449354942
 21
299.702504061256
 31
0.0
  0
LINE
  5
305
102
{ACAD_REACTORS
330
10CD
102
}
330
18
100
AcDbEntity
  8
握り
100
AcDbLine
 10
532.8769447677784
 20
307.249204061256
 30
0.0
 11
532.8769447677785
 21
299.702504061256
 31
0.0
  0
LINE
  5
306
102
{ACAD_REACTORS
330
10CD
102
}
330
18
100
AcDbEntity
  8
握り
100
AcDbLine
 10
530.2236449354941
 20
307.249204061256
 30
0.0
 11
530.2236449354942
 21
299.702504061256
 31
0.0
  0
LINE
  5
307
102
{ACAD_REACTORS
330
10CD
102
}
330
18
100
AcDbEntity
  8
握り
100
AcDbLine
 10
560.2236449354941
 20
307.2492040612561
 30
0.0
 11
560.2236449354942
 21
299.702504061256
 31
0.0
  0
LINE
  5
308
102
{ACAD_REACTORS
330
10CD
102
}
330
18
100
AcDbEntity
  8
握り
100
AcDbLine
 10
582.8769447677785
 20
328.1025040612561
 30
0.0
 11
582.8769447677785
 21
299.702504061256
 31
0.0
  0
LINE
  5
309
102
{ACAD_REACTORS
330
10CD
102
}
330
18
100
AcDbEntity
  8
握り
100
AcDbLine
 10
580.2236449354942
 20
328.1025040612561
 30
0.0
 11
580.2236449354942
 21
299.702504061256
 31
0.0
  0
LINE
  5
30A
102
{ACAD_REACTORS
330
10CD
102
}
330
18
100
AcDbEntity
  8
握り
100
AcDbLine
 10
572.8769447677786
 20
328.1025040612561
 30
0.0
 11
572.8769447677786
 21
299.702504061256
 31
0.0
  0
LINE
  5
30B
102
{ACAD_REACTORS
330
10CD
102
}
330
18
100
AcDbEntity
  8
握り
100
AcDbLine
 10
570.2236449354942
 20
328.1025040612561
 30
0.0
 11
570.2236449354942
 21
299.702504061256
 31
0.0
  0
LINE
  5
30C
102
{ACAD_REACTORS
330
10CD
102
}
330
18
100
AcDbEntity
  8
握り
100
AcDbLine
 10
562.8769447677785
 20
328.1025040612561
 30
0.0
 11
562.8769447677785
 21
299.702504061256
 31
0.0
  0
LINE
  5
30D
102
{ACAD_REACTORS
330
10CD
102
}
330
18
100
AcDbEntity
  8
握り
100
AcDbLine
 10
586.5502948516364
 20
327.602504061256
 30
0.0
 11
586.5502948516364
 21
300.202504061256
 31
0.0
  0
LINE
  5
30E
102
{ACAD_REACTORS
330
10CD
102
}
330
18
100
AcDbEntity
  8
握り
100
AcDbLine
 10
552.8769447677786
 20
299.702504061256
 30
0.0
 11
560.2236449354941
 21
299.702504061256
 31
0.0
  0
ARC
  5
30F
102
{ACAD_REACTORS
330
10CD
102
}
330
18
100
AcDbEntity
  8
握り
100
AcDbCircle
 10
541.5502948516364
 20
300.402504061256
 30
0.0
 40
1.5
100
AcDbArc
 50
207.8181392846543
 51
332.1818607153458
  0
ARC
  5
310
102
{ACAD_REACTORS
330
10CD
102
}
330
18
100
AcDbEntity
  8
握り
100
AcDbCircle
 10
531.5502948516364
 20
300.402504061256
 30
0.0
 40
1.5
100
AcDbArc
 50
207.8181392846543
 51
332.1818607153458
  0
LINE
  5
311
102
{ACAD_REACTORS
330
10CD
102
}
330
18
100
AcDbEntity
  8
握り
100
AcDbLine
 10
532.8769447677786
 20
299.702504061256
 30
0.0
 11
540.2236449354942
 21
299.702504061256
 31
0.0
  0
LINE
  5
312
102
{ACAD_REACTORS
330
10CD
102
}
330
18
100
AcDbEntity
  8
握り
100
AcDbLine
 10
542.8769447677786
 20
299.702504061256
 30
0.0
 11
550.2236449354942
 21
299.702504061256
 31
0.0
  0
ARC
  5
313
102
{ACAD_REACTORS
330
10CD
102
}
330
18
100
AcDbEntity
  8
握り
100
AcDbCircle
 10
551.5502948516363
 20
300.402504061256
 30
0.0
 40
1.5
100
AcDbArc
 50
207.8181392846543
 51
332.1818607153458
  0
LINE
  5
314
102
{ACAD_REACTORS
330
10CD
102
}
330
18
100
AcDbEntity
  8
握り
100
AcDbLine
 10
572.8769447677787
 20
299.702504061256
 30
0.0
 11
580.2236449354942
 21
299.702504061256
 31
0.0
  0
LINE
  5
315
102
{ACAD_REACTORS
330
10CD
102
}
330
18
100
AcDbEntity
  8
握り
100
AcDbLine
 10
562.8769447677784
 20
299.702504061256
 30
0.0
 11
570.2236449354943
 21
299.702504061256
 31
0.0
  0
ARC
  5
316
102
{ACAD_REACTORS
330
10CD
102
}
330
18
100
AcDbEntity
  8
握り
100
AcDbCircle
 10
561.5502948516364
 20
300.402504061256
 30
0.0
 40
1.5
100
AcDbArc
 50
207.8181392846543
 51
332.1818607153458
  0
ARC
  5
317
102
{ACAD_REACTORS
330
10CD
102
}
330
18
100
AcDbEntity
  8
握り
100
AcDbCircle
 10
571.5502948516363
 20
300.402504061256
 30
0.0
 40
1.5
100
AcDbArc
 50
207.8181392846543
 51
332.1818607153458
  0
LINE
  5
318
102
{ACAD_REACTORS
330
10CD
102
}
330
18
100
AcDbEntity
  8
握り
100
AcDbLine
 10
582.8769447677785
 20
299.702504061256
 30
0.0
 11
586.0502948516364
 21
299.702504061256
 31
0.0
  0
ARC
  5
319
102
{ACAD_REACTORS
330
10CD
102
}
330
18
100
AcDbEntity
  8
握り
100
AcDbCircle
 10
581.5502948516364
 20
300.402504061256
 30
0.0
 40
1.5
100
AcDbArc
 50
207.8181392846543
 51
332.1818607153458
  0
ARC
  5
31A
102
{ACAD_REACTORS
330
10CD
102
}
330
18
100
AcDbEntity
  8
握り
100
AcDbCircle
 10
586.0502948516364
 20
300.202504061256
 30
0.0
 40
0.5
100
AcDbArc
 50
270.0
 51
0.0
  0
LINE
  5
31B
102
{ACAD_REACTORS
330
10CD
102
}
330
18
100
AcDbEntity
  8
握り
100
AcDbLine
 10
552.8769447677785
 20
307.2492040612561
 30
0.0
 11
560.2236449354941
 21
307.2492040612561
 31
0.0
  0
LINE
  5
31C
102
{ACAD_REACTORS
330
10CD
102
}
330
18
100
AcDbEntity
  8
握り
100
AcDbLine
 10
552.8769447677786
 20
320.5558040612561
 30
0.0
 11
560.2236449354941
 21
320.5558040612561
 31
0.0
  0
LINE
  5
31D
102
{ACAD_REACTORS
330
10CD
102
}
330
18
100
AcDbEntity
  8
握り
100
AcDbLine
 10
552.8769447677786
 20
328.102504061256
 30
0.0
 11
560.2236449354941
 21
328.102504061256
 31
0.0
  0
LINE
  5
31E
102
{ACAD_REACTORS
330
10CD
102
}
330
18
100
AcDbEntity
  8
握り
100
AcDbLine
 10
532.8769447677784
 20
307.2492040612559
 30
0.0
 11
540.2236449354942
 21
307.2492040612559
 31
0.0
  0
LINE
  5
31F
102
{ACAD_REACTORS
330
10CD
102
}
330
18
100
AcDbEntity
  8
握り
100
AcDbLine
 10
542.8769447677786
 20
307.249204061256
 30
0.0
 11
550.2236449354942
 21
307.2492040612561
 31
0.0
  0
LINE
  5
320
102
{ACAD_REACTORS
330
10CD
102
}
330
18
100
AcDbEntity
  8
握り
100
AcDbLine
 10
540.2236449354942
 20
328.1025040612561
 30
0.0
 11
540.2236449354943
 21
320.5558040612561
 31
0.0
  0
LINE
  5
321
102
{ACAD_REACTORS
330
10CD
102
}
330
18
100
AcDbEntity
  8
握り
100
AcDbLine
 10
532.8769447677785
 20
328.1025040612561
 30
0.0
 11
532.8769447677786
 21
320.555804061256
 31
0.0
  0
LINE
  5
322
102
{ACAD_REACTORS
330
10CD
102
}
330
18
100
AcDbEntity
  8
握り
100
AcDbLine
 10
530.2236449354942
 20
328.1025040612561
 30
0.0
 11
530.2236449354943
 21
320.555804061256
 31
0.0
  0
LINE
  5
323
102
{ACAD_REACTORS
330
10CD
102
}
330
18
100
AcDbEntity
  8
握り
100
AcDbLine
 10
532.8769447677785
 20
320.5558040612561
 30
0.0
 11
540.2236449354943
 21
320.5558040612561
 31
0.0
  0
LINE
  5
324
102
{ACAD_REACTORS
330
10CD
102
}
330
18
100
AcDbEntity
  8
握り
100
AcDbLine
 10
532.8769447677786
 20
328.1025040612561
 30
0.0
 11
540.2236449354942
 21
328.1025040612561
 31
0.0
  0
LINE
  5
325
102
{ACAD_REACTORS
330
10CD
102
}
330
18
100
AcDbEntity
  8
握り
100
AcDbLine
 10
552.8769447677785
 20
328.1025040612561
 30
0.0
 11
552.8769447677786
 21
320.5558040612561
 31
0.0
  0
LINE
  5
326
102
{ACAD_REACTORS
330
10CD
102
}
330
18
100
AcDbEntity
  8
握り
100
AcDbLine
 10
550.2236449354942
 20
328.1025040612561
 30
0.0
 11
550.2236449354943
 21
320.5558040612561
 31
0.0
  0
LINE
  5
327
102
{ACAD_REACTORS
330
10CD
102
}
330
18
100
AcDbEntity
  8
握り
100
AcDbLine
 10
542.8769447677786
 20
328.1025040612561
 30
0.0
 11
542.8769447677787
 21
320.5558040612561
 31
0.0
  0
LINE
  5
328
102
{ACAD_REACTORS
330
10CD
102
}
330
18
100
AcDbEntity
  8
握り
100
AcDbLine
 10
542.8769447677787
 20
320.5558040612561
 30
0.0
 11
550.2236449354942
 21
320.5558040612561
 31
0.0
  0
LINE
  5
329
102
{ACAD_REACTORS
330
10CD
102
}
330
18
100
AcDbEntity
  8
握り
100
AcDbLine
 10
542.8769447677786
 20
328.1025040612561
 30
0.0
 11
550.2236449354942
 21
328.102504061256
 31
0.0
  0
LINE
  5
32A
102
{ACAD_REACTORS
330
10CD
102
}
330
18
100
AcDbEntity
  8
握り
100
AcDbLine
 10
560.2236449354943
 20
317.902504061256
 30
0.0
 11
560.2236449354941
 21
309.902504061256
 31
0.0
  0
LINE
  5
32B
102
{ACAD_REACTORS
330
10CD
102
}
330
18
100
AcDbEntity
  8
握り
100
AcDbLine
 10
572.8769447677787
 20
328.102504061256
 30
0.0
 11
580.2236449354942
 21
328.102504061256
 31
0.0
  0
LINE
  5
32C
102
{ACAD_REACTORS
330
10CD
102
}
330
18
100
AcDbEntity
  8
握り
100
AcDbLine
 10
560.2236449354942
 20
328.1025040612561
 30
0.0
 11
560.2236449354942
 21
320.5558040612561
 31
0.0
  0
LINE
  5
32D
102
{ACAD_REACTORS
330
10CD
102
}
330
18
100
AcDbEntity
  8
握り
100
AcDbLine
 10
562.8769447677784
 20
328.102504061256
 30
0.0
 11
570.2236449354943
 21
328.102504061256
 31
0.0
  0
LINE
  5
32E
102
{ACAD_REACTORS
330
10CD
102
}
330
18
100
AcDbEntity
  8
握り
100
AcDbLine
 10
582.8769447677785
 20
328.102504061256
 30
0.0
 11
586.0502948516364
 21
328.102504061256
 31
0.0
  0
LINE
  5
33E
102
{ACAD_REACTORS
330
10C1
102
}
330
18
100
AcDbEntity
  8
中心線
100
AcDbLine
 10
432.3804354254224
 20
361.902504061256
 30
0.0
 11
491.1363014343337
 21
361.9025040612561
 31
0.0
  0
TEXT
  5
438
102
{ACAD_REACTORS
330
10C1
102
}
330
18
100
AcDbEntity
  8
文字
100
AcDbText
 10
467.2049387613824
 20
361.41140968325
 30
0.0
 40
1.0
  1
0.1mm
  7
STYLE3
100
AcDbText
  0
HATCH
  5
439
102
{ACAD_REACTORS
330
10C1
102
}
330
18
100
AcDbEntity
  8
ROGO
 62
     4
100
AcDbHatch
 10
0.0
 20
0.0
 30
0.0
210
0.0
220
0.0
230
1.0
  2
SOLID
 70
     1
 71
     1
 91
        1
 92
        7
 72
     0
 73
     1
 93
       11
 10
469.7783534715534
 20
371.2674707023625
 10
469.0222862715534
 20
371.2674707023625
 10
468.6682731884745
 20
371.0434472935409
 10
468.7799784953956
 20
371.2674707023625
 10
468.0238947528914
 20
371.2674707023625
 10
467.0007617212215
 20
369.2155919174565
 10
467.7568454637257
 20
369.2155919174565
 10
468.0238947528914
 20
369.751155479576
 10
468.2909440420571
 20
369.2155919174565
 10
469.047011242057
 20
369.2155919174565
 10
468.5354447262222
 20
370.2415313099095
 97
       11
330
50E
330
511
330
512
330
43B
330
4CD
330
495
330
4CC
330
43A
330
50D
330
510
330
50F
 75
     0
 76
     1
 47
0.0514683685270805
 98
        1
 10
467.9588235064875
 20
370.387174718921
450
        0
451
        0
460
0.0
461
0.0
452
        0
462
0.0
453
        0
470

  0
LINE
  5
43A
102
{ACAD_REACTORS
330
439
330
10C1
102
}
330
18
100
AcDbEntity
  8
ROGO
 62
     4
100
AcDbLine
 10
468.0238947528914
 20
369.7511554795761
 30
0.0
 11
468.2909440420571
 21
369.2155919174565
 31
0.0
  0
LINE
  5
43B
102
{ACAD_REACTORS
330
439
330
10C1
102
}
330
18
100
AcDbEntity
  8
ROGO
 62
     4
100
AcDbLine
 10
468.0238947528914
 20
371.2674707023625
 30
0.0
 11
468.7799784953956
 21
371.2674707023625
 31
0.0
  0
LINE
  5
43C
102
{ACAD_REACTORS
330
10C1
102
}
330
18
100
AcDbEntity
  8
目盛
100
AcDbLine
 10
468.6576857222603
 20
383.7768039360445
 30
0.0
 11
467.7306347391355
 21
380.9236343871591
 31
0.0
  0
LINE
  5
43D
102
{ACAD_REACTORS
330
10C1
102
}
330
18
100
AcDbEntity
  8
目盛
100
AcDbLine
 10
468.6576857222602
 20
340.0282041864675
 30
0.0
 11
467.7306347391355
 21
342.881373735353
 31
0.0
  0
CIRCLE
  5
43E
102
{ACAD_REACTORS
330
10C1
102
}
330
18
100
AcDbEntity
  8
外形線
100
AcDbCircle
 10
461.5502948516364
 20
361.902504061256
 30
0.0
 40
23.0
  0
CIRCLE
  5
43F
102
{ACAD_REACTORS
330
10C1
102
}
330
18
100
AcDbEntity
  8
外形線
100
AcDbCircle
 10
461.5502948516364
 20
361.902504061256
 30
0.0
 40
15.5
  0
LINE
  5
440
102
{ACAD_REACTORS
330
10C1
102
}
330
18
100
AcDbEntity
  8
中心線
 48
0.2
100
AcDbLine
 10
458.3502948516364
 20
359.6917400684639
 30
0.0
 11
458.3502948516364
 21
344.0021460464283
 31
0.0
  0
LINE
  5
441
102
{ACAD_REACTORS
330
10C1
102
}
330
18
100
AcDbEntity
  8
目盛
100
AcDbLine
 10
448.0312340489095
 20
343.2951131906322
 30
0.0
 11
449.794589805787
 21
345.722164173757
 31
0.0
  0
LINE
  5
442
102
{ACAD_REACTORS
330
10C1
102
}
330
18
100
AcDbEntity
  8
目盛
100
AcDbLine
 10
446.8895430874166
 20
344.1806994774128
 30
0.0
 11
448.1643910669139
 21
345.7217259629644
 31
0.0
  0
LINE
  5
443
102
{ACAD_REACTORS
330
10C1
102
}
330
18
100
AcDbEntity
  8
目盛
100
AcDbLine
 10
445.8057114152765
 20
345.1362256305635
 30
0.0
 11
447.1748056271339
 21
346.5941628854063
 31
0.0
  0
LINE
  5
444
102
{ACAD_REACTORS
330
10C1
102
}
330
18
100
AcDbEntity
  8
目盛
100
AcDbLine
 10
449.2262785671194
 20
342.4829617747096
 30
0.0
 11
450.2979321570775
 21
344.1716176257137
 31
0.0
  0
LINE
  5
445
102
{ACAD_REACTORS
330
10C1
102
}
330
18
100
AcDbEntity
  8
目盛
100
AcDbLine
 10
454.4429039810126
 20
340.0282041864675
 30
0.0
 11
455.3699549641375
 21
342.881373735353
 31
0.0
  0
LINE
  5
446
102
{ACAD_REACTORS
330
10C1
102
}
330
18
100
AcDbEntity
  8
目盛
100
AcDbLine
 10
453.0834301398889
 20
340.5176448858262
 30
0.0
 11
453.8196792452581
 21
342.3771978576027
 31
0.0
  0
LINE
  5
447
102
{ACAD_REACTORS
330
10C1
102
}
330
18
100
AcDbEntity
  8
目盛
100
AcDbLine
 10
451.7573711456399
 20
341.0914818545375
 30
0.0
 11
452.60892972877
 21
342.9011359594696
 31
0.0
  0
LINE
  5
448
102
{ACAD_REACTORS
330
10C1
102
}
330
18
100
AcDbEntity
  8
目盛
100
AcDbLine
 10
450.469960347297
 20
341.7474504202472
 30
0.0
 11
451.4334676955004
 21
343.5000637803349
 31
0.0
  0
TEXT
  5
449
102
{ACAD_REACTORS
330
10C1
102
}
330
18
100
AcDbEntity
  8
文字
100
AcDbText
 10
460.4196284355912
 20
342.5017443783436
 30
0.0
 40
2.0
  1
5
  7
STYLE3
100
AcDbText
  0
LINE
  5
44A
102
{ACAD_REACTORS
330
10C1
102
}
330
18
100
AcDbEntity
  8
目盛
100
AcDbLine
 10
461.5502948516364
 20
341.902504061256
 30
0.0
 11
461.5502948516364
 21
338.902504061256
 31
0.0
  0
LINE
  5
44B
102
{ACAD_REACTORS
330
10C1
102
}
330
18
100
AcDbEntity
  8
目盛
100
AcDbLine
 10
460.1061129024622
 20
338.9478893074058
 30
0.0
 11
460.2316939415208
 21
340.9439427642623
 31
0.0
  0
LINE
  5
44C
102
{ACAD_REACTORS
330
10C1
102
}
330
18
100
AcDbEntity
  8
目盛
100
AcDbLine
 10
458.6676304796575
 20
339.083865931023
 30
0.0
 11
458.9182969467861
 21
341.068095333652
 31
0.0
  0
LINE
  5
44D
102
{ACAD_REACTORS
330
10C1
102
}
330
18
100
AcDbEntity
  8
目盛
100
AcDbLine
 10
457.2405246161648
 20
339.3098972944962
 30
0.0
 11
457.6152872453363
 21
341.2744717959536
 31
0.0
  0
LINE
  5
44E
102
{ACAD_REACTORS
330
10C1
102
}
330
18
100
AcDbEntity
  8
目盛
100
AcDbLine
 10
455.8304274468449
 20
339.6250913552975
 30
0.0
 11
456.3278072211745
 21
341.5622576775548
 31
0.0
  0
LINE
  5
44F
102
{ACAD_REACTORS
330
10C1
102
}
330
18
100
AcDbEntity
  8
目盛
100
AcDbLine
 10
467.270162256428
 20
339.6250913552975
 30
0.0
 11
466.7727824820984
 21
341.5622576775548
 31
0.0
  0
LINE
  5
450
102
{ACAD_REACTORS
330
10C1
102
}
330
18
100
AcDbEntity
  8
目盛
100
AcDbLine
 10
465.8600650871081
 20
339.3098972944962
 30
0.0
 11
465.4853024579367
 21
341.2744717959536
 31
0.0
  0
LINE
  5
451
102
{ACAD_REACTORS
330
10C1
102
}
330
18
100
AcDbEntity
  8
目盛
100
AcDbLine
 10
464.4329592236154
 20
339.083865931023
 30
0.0
 11
464.1822927564867
 21
341.068095333652
 31
0.0
  0
LINE
  5
452
102
{ACAD_REACTORS
330
10C1
102
}
330
18
100
AcDbEntity
  8
目盛
100
AcDbLine
 10
462.9944768008106
 20
338.9478893074058
 30
0.0
 11
462.8688957617519
 21
340.9439427642623
 31
0.0
  0
LINE
  5
453
102
{ACAD_REACTORS
330
10C1
102
}
330
18
100
AcDbEntity
  8
外形線
  6
Continuous
100
AcDbLine
 10
457.8502948516365
 20
389.9025040612559
 30
0.0
 11
457.8502948516365
 21
388.0419378730278
 31
0.0
  0
LINE
  5
454
102
{ACAD_REACTORS
330
10C1
102
}
330
18
100
AcDbEntity
  8
外形線
  6
Continuous
100
AcDbLine
 10
465.2502948516364
 20
389.9025040612559
 30
0.0
 11
465.2502948516364
 21
388.0419378730278
 31
0.0
  0
TEXT
  5
455
102
{ACAD_REACTORS
330
10C1
102
}
330
18
100
AcDbEntity
  8
文字
100
AcDbText
 10
443.1273177667681
 20
366.9695296332055
 30
0.0
 40
2.0
  1
8
  7
STYLE3
100
AcDbText
  0
TEXT
  5
456
102
{ACAD_REACTORS
330
10C1
102
}
330
18
100
AcDbEntity
  8
文字
100
AcDbText
 10
443.0216354119264
 20
354.8200779612616
 30
0.0
 40
2.0
  1
7
  7
STYLE3
100
AcDbText
  0
LINE
  5
457
102
{ACAD_REACTORS
330
10C1
102
}
330
18
100
AcDbEntity
  8
目盛
100
AcDbLine
 10
442.9429039810126
 20
348.3834432585291
 30
0.0
 11
445.3699549641374
 21
350.1467990154065
 31
0.0
  0
LINE
  5
458
102
{ACAD_REACTORS
330
10C1
102
}
330
18
100
AcDbEntity
  8
目盛
100
AcDbLine
 10
442.1307525650901
 20
349.5784877767391
 30
0.0
 11
443.8194084160941
 21
350.6501413666971
 31
0.0
  0
LINE
  5
459
102
{ACAD_REACTORS
330
10C1
102
}
330
18
100
AcDbEntity
  8
目盛
100
AcDbLine
 10
442.1307525650901
 20
374.2265203457729
 30
0.0
 11
443.8194084160941
 21
373.154866755815
 31
0.0
  0
LINE
  5
45A
102
{ACAD_REACTORS
330
10C1
102
}
330
18
100
AcDbEntity
  8
目盛
100
AcDbLine
 10
442.9429039810125
 20
375.4215648639829
 30
0.0
 11
445.3699549641374
 21
373.6582091071054
 31
0.0
  0
LINE
  5
45B
102
{ACAD_REACTORS
330
10C1
102
}
330
18
100
AcDbEntity
  8
目盛
100
AcDbLine
 10
439.2728821456779
 20
356.1826366564643
 30
0.0
 11
441.2100484679352
 21
356.6800164307941
 31
0.0
  0
LINE
  5
45C
102
{ACAD_REACTORS
330
10C1
102
}
330
18
100
AcDbEntity
  8
目盛
100
AcDbLine
 10
441.3952412106276
 20
350.8221695569166
 30
0.0
 11
443.1478545707153
 21
351.78567690512
 31
0.0
  0
LINE
  5
45D
102
{ACAD_REACTORS
330
10C1
102
}
330
18
100
AcDbEntity
  8
目盛
100
AcDbLine
 10
440.739272644918
 20
352.1095803552594
 30
0.0
 11
442.5489267498499
 21
352.9611389383895
 31
0.0
  0
LINE
  5
45E
102
{ACAD_REACTORS
330
10C1
102
}
330
18
100
AcDbEntity
  8
目盛
100
AcDbLine
 10
440.1654356762066
 20
353.4356393495084
 30
0.0
 11
442.024988647983
 21
354.1718884548777
 31
0.0
  0
LINE
  5
45F
102
{ACAD_REACTORS
330
10C1
102
}
330
18
100
AcDbEntity
  8
目盛
100
AcDbLine
 10
439.675994976848
 20
354.7951131906322
 30
0.0
 11
442.5291645257332
 21
355.722164173757
 31
0.0
  0
LINE
  5
460
102
{ACAD_REACTORS
330
10C1
102
}
330
18
100
AcDbEntity
  8
目盛
100
AcDbLine
 10
438.5502948516364
 20
361.902504061256
 30
0.0
 11
441.5502948516365
 21
361.902504061256
 31
0.0
  0
LINE
  5
461
102
{ACAD_REACTORS
330
10C1
102
}
330
18
100
AcDbEntity
  8
目盛
100
AcDbLine
 10
438.9576880848765
 20
357.5927338257844
 30
0.0
 11
440.9222625863338
 21
357.9674964549558
 31
0.0
  0
LINE
  5
462
102
{ACAD_REACTORS
330
10C1
102
}
330
18
100
AcDbEntity
  8
目盛
100
AcDbLine
 10
438.7316567214035
 20
359.019839689277
 30
0.0
 11
440.7158861240325
 21
359.2705061564057
 31
0.0
  0
LINE
  5
463
102
{ACAD_REACTORS
330
10C1
102
}
330
18
100
AcDbEntity
  8
目盛
100
AcDbLine
 10
438.5956800977861
 20
360.4583221120818
 30
0.0
 11
440.5917335546426
 21
360.5839031511404
 31
0.0
  0
LINE
  5
464
102
{ACAD_REACTORS
330
10C1
102
}
330
18
100
AcDbEntity
  8
目盛
100
AcDbLine
 10
438.5956800977861
 20
363.3466860104302
 30
0.0
 11
440.5917335546426
 21
363.2211049713716
 31
0.0
  0
LINE
  5
465
102
{ACAD_REACTORS
330
10C1
102
}
330
18
100
AcDbEntity
  8
目盛
100
AcDbLine
 10
438.7316567214035
 20
364.785168433235
 30
0.0
 11
440.7158861240323
 21
364.5345019661064
 31
0.0
  0
LINE
  5
466
102
{ACAD_REACTORS
330
10C1
102
}
330
18
100
AcDbEntity
  8
目盛
100
AcDbLine
 10
438.9576880848765
 20
366.2122742967277
 30
0.0
 11
440.9222625863339
 21
365.8375116675562
 31
0.0
  0
LINE
  5
467
102
{ACAD_REACTORS
330
10C1
102
}
330
18
100
AcDbEntity
  8
目盛
100
AcDbLine
 10
439.2728821456779
 20
367.6223714660477
 30
0.0
 11
441.2100484679352
 21
367.124991691718
 31
0.0
  0
LINE
  5
468
102
{ACAD_REACTORS
330
10C1
102
}
330
18
100
AcDbEntity
  8
目盛
100
AcDbLine
 10
439.6759949768478
 20
369.0098949318799
 30
0.0
 11
442.5291645257332
 21
368.082843948755
 31
0.0
  0
LINE
  5
469
102
{ACAD_REACTORS
330
10C1
102
}
330
18
100
AcDbEntity
  8
目盛
100
AcDbLine
 10
440.1654356762064
 20
370.3693687730036
 30
0.0
 11
442.024988647983
 21
369.6331196676343
 31
0.0
  0
LINE
  5
46A
102
{ACAD_REACTORS
330
10C1
102
}
330
18
100
AcDbEntity
  8
目盛
100
AcDbLine
 10
440.739272644918
 20
371.6954277672527
 30
0.0
 11
442.5489267498499
 21
370.8438691841225
 31
0.0
  0
LINE
  5
46B
102
{ACAD_REACTORS
330
10C1
102
}
330
18
100
AcDbEntity
  8
目盛
100
AcDbLine
 10
441.3952412106276
 20
372.9828385655955
 30
0.0
 11
443.1478545707153
 21
372.0193312173921
 31
0.0
  0
HATCH
  5
46C
102
{ACAD_REACTORS
330
10C1
102
}
330
18
100
AcDbEntity
  8
針
  6
Continuous
100
AcDbHatch
 10
0.0
 20
0.0
 30
0.0
210
0.0
220
0.0
230
1.0
  2
SOLID
 70
     1
 71
     0
 91
        1
 92
        1
 93
        3
 72
     1
 10
461.5502948516364
 20
384.902504061256
 11
462.0502948516365
 21
363.3167176236292
 72
     2
 10
461.5502948516364
 20
361.902504061256
 40
1.5
 50
70.52877936551252
 51
109.4712206344913
 73
     1
 72
     1
 10
461.0502948516364
 20
363.3167176236292
 11
461.5502948516364
 21
384.9025040612551
 97
        0
 75
     0
 76
     1
 98
        1
 10
233.9978741021703
 20
376.1580992914887
450
        0
451
        0
460
0.0
461
0.0
452
        0
462
0.0
453
        0
470

  0
LINE
  5
46D
102
{ACAD_REACTORS
330
10C1
102
}
330
18
100
AcDbEntity
  8
針
  6
Continuous
100
AcDbLine
 10
461.5502948516364
 20
384.9025040612551
 30
0.0
 11
461.0502948516364
 21
363.3167176236292
 31
0.0
  0
LINE
  5
46E
102
{ACAD_REACTORS
330
10C1
102
}
330
18
100
AcDbEntity
  8
針
  6
Continuous
100
AcDbLine
 10
461.5502948516364
 20
384.902504061256
 30
0.0
 11
462.0502948516364
 21
363.3167176236292
 31
0.0
  0
LINE
  5
46F
102
{ACAD_REACTORS
330
10C1
102
}
330
18
100
AcDbEntity
  8
目盛
100
AcDbLine
 10
455.5583149032471
 20
347.9857019264611
 30
0.0
 11
455.8522075293932
 21
348.3902104236486
 31
0.0
  0
LINE
  5
470
102
{ACAD_REACTORS
330
10C1
102
}
330
18
100
AcDbEntity
  8
目盛
100
AcDbLine
 10
455.5583149032471
 20
355.6713633730231
 30
0.0
 11
455.8522075293934
 21
355.2668548758356
 31
0.0
  0
LINE
  5
471
102
{ACAD_REACTORS
330
10C1
102
}
330
18
100
AcDbEntity
  8
中心線
 48
0.2
100
AcDbLine
 10
451.3910196647066
 20
351.8285326497421
 30
0.0
 11
465.9190071126868
 21
351.8285326497421
 31
0.0
  0
CIRCLE
  5
472
102
{ACAD_REACTORS
330
10C1
102
}
330
18
100
AcDbEntity
  8
外形線
100
AcDbCircle
 10
458.3502948516364
 20
351.8285326497421
 30
0.0
 40
4.75
  0
TEXT
  5
473
102
{ACAD_REACTORS
330
10C1
102
}
330
18
100
AcDbEntity
  8
文字
100
AcDbText
 10
449.4004918784723
 20
346.1850491472366
 30
0.0
 40
2.0
  1
6
  7
STYLE3
100
AcDbText
  0
LINE
  5
474
102
{ACAD_REACTORS
330
10C1
102
}
330
18
100
AcDbEntity
  8
目盛
100
AcDbLine
 10
444.784016420944
 20
346.1579206248961
 30
0.0
 11
446.2419536757868
 21
347.5270148367535
 31
0.0
  0
LINE
  5
475
102
{ACAD_REACTORS
330
10C1
102
}
330
18
100
AcDbEntity
  8
目盛
100
AcDbLine
 10
443.8284902677932
 20
347.2417522970362
 30
0.0
 11
445.3695167533448
 21
348.5166002765335
 31
0.0
  0
TEXT
  5
476
102
{ACAD_REACTORS
330
10C1
102
}
330
18
100
AcDbEntity
  8
文字
100
AcDbText
 10
454.522292186713
 20
352.543198957288
 30
0.0
 40
0.7
  1
20
  7
STYLE3
100
AcDbText
  0
TEXT
  5
477
102
{ACAD_REACTORS
330
10C1
102
}
330
18
100
AcDbEntity
  8
文字
100
AcDbText
 10
454.4930491826796
 20
350.3215532420512
 30
0.0
 40
0.7
  1
30
  7
STYLE3
100
AcDbText
  0
LINE
  5
478
102
{ACAD_REACTORS
330
10C1
102
}
330
18
100
AcDbEntity
  8
目盛
100
AcDbLine
 10
453.8327763992342
 20
350.3607019264611
 30
0.0
 11
454.3083046573819
 21
350.5152104236486
 31
0.0
  0
LINE
  5
479
102
{ACAD_REACTORS
330
10C1
102
}
330
18
100
AcDbEntity
  8
目盛
100
AcDbLine
 10
453.8327763992342
 20
353.2963633730231
 30
0.0
 11
454.308304657382
 21
353.1418548758356
 31
0.0
  0
HATCH
  5
47A
102
{ACAD_REACTORS
330
10C1
102
}
330
18
100
AcDbEntity
  8
針
100
AcDbHatch
 10
0.0
 20
0.0
 30
0.0
210
0.0
220
0.0
230
1.0
  2
SOLID
 70
     1
 71
     0
 91
        3
 92
        7
 72
     1
 73
     1
 93
        5
 10
458.5502948516364
 20
356.574320255609
 42
0.0105298176880202
 10
458.3502948516364
 20
356.5785326497421
 42
0.0
 10
458.3502948516364
 20
356.0785326497421
 42
0.0
 10
458.3502948516364
 20
352.9785326497421
 42
-0.0437283108272093
 10
458.5502948516364
 20
352.9610078150327
 42
0.0
 97
        0
 92
        7
 72
     1
 73
     1
 93
        4
 10
458.3502948516365
 20
356.5785326497421
 42
0.0105298176880232
 10
458.1502948516364
 20
356.574320255609
 42
0.0
 10
458.1502948516364
 20
352.9610078150327
 42
-0.0437283108272093
 10
458.3502948516364
 20
352.9785326497421
 42
0.0
 97
        0
 92
      137
 93
        4
 72
     1
 10
457.7567755553632
 20
354.606306578217
 11
458.9234422220298
 21
354.606306578217
 72
     1
 10
458.9234422220298
 20
354.606306578217
 11
458.9234422220298
 21
356.106306578217
 72
     1
 10
458.9234422220298
 20
356.106306578217
 11
457.7567755553632
 21
356.106306578217
 72
     1
 10
457.7567755553632
 20
356.106306578217
 11
457.7567755553632
 21
354.606306578217
 97
        0
 75
     0
 76
     1
 47
0.0128177587452554
 98
        3
 10
458.4989974065677
 20
353.5123118988895
 10
458.4220273245491
 20
354.7171815866375
 10
458.242430198802
 20
354.6659104199373
450
        0
451
        0
460
0.0
461
0.0
452
        0
462
0.0
453
        0
470

  0
LINE
  5
47B
102
{ACAD_REACTORS
330
10C1
102
}
330
18
100
AcDbEntity
  8
針
 48
0.2
100
AcDbLine
 10
458.1502948516364
 20
356.574320255609
 30
0.0
 11
458.1502948516364
 21
352.9610078150327
 31
0.0
  0
LINE
  5
47C
102
{ACAD_REACTORS
330
10C1
102
}
330
18
100
AcDbEntity
  8
針
 48
0.2
100
AcDbLine
 10
458.5502948516364
 20
356.574320255609
 30
0.0
 11
458.5502948516364
 21
352.9610078150327
 31
0.0
  0
LINE
  5
47D
102
{ACAD_REACTORS
330
10C1
102
}
330
18
100
AcDbEntity
  8
目盛
100
AcDbLine
 10
458.3502948516364
 20
356.5785326497421
 30
0.0
 11
458.3502948516364
 21
356.0785326497421
 31
0.0
  0
TEXT
  5
47E
102
{ACAD_REACTORS
330
10C1
102
}
330
18
100
AcDbEntity
  8
文字
100
AcDbText
 10
460.9517122238132
 20
350.2100317585218
 30
0.0
 40
0.7
  1
70
  7
STYLE3
100
AcDbText
  0
TEXT
  5
47F
102
{ACAD_REACTORS
330
10C1
102
}
330
18
100
AcDbEntity
  8
文字
100
AcDbText
 10
460.8675933724571
 20
352.3900707240817
 30
0.0
 40
0.7
  1
80
  7
STYLE3
100
AcDbText
  0
TEXT
  5
480
102
{ACAD_REACTORS
330
10C1
102
}
330
18
100
AcDbEntity
  8
文字
100
AcDbText
 10
455.8207292378409
 20
354.3247688671714
 30
0.0
 40
0.7
  1
10
  7
STYLE3
100
AcDbText
  0
TEXT
  5
481
102
{ACAD_REACTORS
330
10C1
102
}
330
18
100
AcDbEntity
  8
文字
100
AcDbText
 10
455.7906969552296
 20
348.5245642825435
 30
0.0
 40
0.7
  1
40
  7
STYLE3
100
AcDbText
  0
TEXT
  5
482
102
{ACAD_REACTORS
330
10C1
102
}
330
18
100
AcDbEntity
  8
文字
100
AcDbText
 10
457.6880377246657
 20
347.9262380356512
 30
0.0
 40
0.7
  1
50
  7
STYLE3
100
AcDbText
  0
TEXT
  5
483
102
{ACAD_REACTORS
330
10C1
102
}
330
18
100
AcDbEntity
  8
文字
100
AcDbText
 10
459.7591966062003
 20
348.6059120192326
 30
0.0
 40
0.7
  1
60
  7
STYLE3
100
AcDbText
  0
TEXT
  5
484
102
{ACAD_REACTORS
330
10C1
102
}
330
18
100
AcDbEntity
  8
文字
100
AcDbText
 10
459.7618825419987
 20
354.2741629553976
 30
0.0
 40
0.7
  1
90
  7
STYLE3
100
AcDbText
  0
TEXT
  5
485
102
{ACAD_REACTORS
330
10C1
102
}
330
18
100
AcDbEntity
  8
文字
100
AcDbText
 10
457.9876087249576
 20
354.876904674495
 30
0.0
 40
0.7
  1
0
  7
STYLE3
100
AcDbText
  0
CIRCLE
  5
486
102
{ACAD_REACTORS
330
10C1
102
}
330
18
100
AcDbEntity
  8
外形線
100
AcDbCircle
 10
458.3502948516364
 20
351.8285326497421
 30
0.0
 40
1.149999999999999
  0
LINE
  5
487
102
{ACAD_REACTORS
330
10C1
102
}
330
18
100
AcDbEntity
  8
目盛
100
AcDbLine
 10
461.1422748000256
 20
355.6713633730231
 30
0.0
 11
460.8483821738794
 21
355.2668548758356
 31
0.0
  0
LINE
  5
488
102
{ACAD_REACTORS
330
10C1
102
}
330
18
100
AcDbEntity
  8
目盛
100
AcDbLine
 10
461.1422748000257
 20
347.9857019264611
 30
0.0
 11
460.8483821738794
 21
348.3902104236486
 31
0.0
  0
LINE
  5
489
102
{ACAD_REACTORS
330
10C1
102
}
330
18
100
AcDbEntity
  8
目盛
100
AcDbLine
 10
458.3502948516364
 20
347.0785326497421
 30
0.0
 11
458.3502948516364
 21
347.5785326497421
 31
0.0
  0
LINE
  5
48A
102
{ACAD_REACTORS
330
10C1
102
}
330
18
100
AcDbEntity
  8
目盛
100
AcDbLine
 10
462.8678133040383
 20
353.2963633730231
 30
0.0
 11
462.3922850458908
 21
353.1418548758356
 31
0.0
  0
LINE
  5
48B
102
{ACAD_REACTORS
330
10C1
102
}
330
18
100
AcDbEntity
  8
目盛
100
AcDbLine
 10
462.8678133040383
 20
350.3607019264611
 30
0.0
 11
462.3922850458908
 21
350.5152104236486
 31
0.0
  0
CIRCLE
  5
48C
102
{ACAD_REACTORS
330
10C1
102
}
330
18
100
AcDbEntity
  8
外形線
100
AcDbCircle
 10
461.5502948516364
 20
361.902504061256
 30
0.0
 40
1.5
  0
POINT
  5
48D
102
{ACAD_REACTORS
330
10C1
102
}
330
18
100
AcDbEntity
  8
DEFPOINTS
  6
ByBlock
 62
     0
100
AcDbPoint
 10
461.5502948516364
 20
361.902504061256
 30
0.0
  0
POINT
  5
48E
102
{ACAD_REACTORS
330
10C1
102
}
330
18
100
AcDbEntity
  8
DEFPOINTS
  6
ByBlock
 62
     0
100
AcDbPoint
 10
461.5502948516364
 20
361.902504061256
 30
0.0
  0
HATCH
  5
48F
102
{ACAD_REACTORS
330
10C1
102
}
330
18
100
AcDbEntity
  8
ROGO
 62
     4
100
AcDbHatch
 10
0.0
 20
0.0
 30
0.0
210
0.0
220
0.0
230
1.0
  2
SOLID
 70
     1
 71
     1
 91
        2
 92
        5
 93
        6
 72
     1
 10
453.8676681967019
 20
369.2155919174565
 11
454.8214691526385
 21
369.2155919174565
 72
     1
 10
454.8214691526385
 20
369.2155919174565
 11
455.1556933034669
 21
369.954325771805
 72
     1
 10
455.1556933034669
 20
369.954325771805
 11
456.0473015716391
 21
369.9543257718051
 72
     4
 94
        3
 73
     0
 74
     0
 95
       18
 96
       14
 40
0.108740278791501
 40
0.108740278791501
 40
0.108740278791501
 40
0.108740278791501
 40
0.6623149649549278
 40
1.384304701649787
 40
2.097394834876493
 40
2.774073369849618
 40
3.428974823686337
 40
4.005208313035923
 40
4.455173659284313
 40
4.720999734343524
 40
5.086034088486724
 40
5.569973738255373
 40
6.060470601257719
 40
6.060470601257719
 40
6.060470601257719
 40
6.060470601257719
 10
456.047301571639
 20
369.954325771805
 10
456.1100514885337
 20
369.9547930514362
 10
456.2546418455873
 20
369.9558697720448
 10
456.4569226236946
 20
370.0639326085402
 10
456.6487425967876
 20
370.2015967888819
 10
456.803240535869
 20
370.3735938196837
 10
456.8994974067451
 20
370.5702429572044
 10
456.9144072917922
 20
370.7587130927761
 10
456.9053051732812
 20
370.9077906269326
 10
456.8402659647382
 20
371.0117013692354
 10
456.7726497708135
 20
371.1171601464082
 10
456.6486645352663
 20
371.2085124561996
 10
456.5470765874159
 20
371.2485383475149
 10
456.4954170497798
 20
371.2674707023626
 72
     1
 10
456.4954170497799
 20
371.2674707023625
 11
454.8829187367946
 21
371.2674707023625
 72
     1
 10
454.8829187367946
 20
371.2674707023625
 11
453.8676681967019
 21
369.2155919174565
 97
        6
330
4C2
330
496
330
49D
330
495
330
49B
330
494
 92
       20
 93
        4
 72
     4
 94
        3
 73
     0
 74
     0
 95
       15
 96
       11
 40
0.0
 40
0.0
 40
0.0
 40
0.0
 40
0.1539705029175028
 40
0.2241725832587281
 40
0.3038566179396687
 40
0.3581410872474193
 40
0.443992538467216
 40
0.4954152125469665
 40
0.5836396705646186
 40
0.6130478420065743
 40
0.6130478420065743
 40
0.6130478420065743
 40
0.6130478420065743
 10
455.9260425912319
 20
370.7596737911492
 10
455.9838709262911
 20
370.7599386757916
 10
456.0680658013493
 20
370.7603243332613
 10
456.1141065577137
 20
370.6561750293318
 10
456.0934688954804
 20
370.5891191246944
 10
456.0675256720561
 20
370.5202736104466
 10
456.0216781205139
 20
370.4734920451773
 10
455.9601439909187
 20
370.4284335115403
 10
455.9019912978627
 20
370.4229789742807
 10
455.8641694988904
 20
370.4129574808266
 10
455.8547140446211
 20
370.4104521062638
 72
     1
 10
455.8547140446211
 20
370.4104521062638
 11
455.362057795777
 21
370.4104521062638
 72
     1
 10
455.362057795777
 20
370.4104521062638
 11
455.5200555921344
 21
370.7596737911492
 72
     1
 10
455.5200555921344
 20
370.7596737911492
 11
455.9260425912316
 21
370.7596737911492
 97
        4
330
49C
330
493
330
4C1
330
492
 75
     0
 76
     1
 47
0.0514683685270805
 98
        2
 10
454.8915372901015
 20
370.6292819454735
 10
454.8915372901015
 20
370.6292819454735
450
        0
451
        0
460
0.0
461
0.0
452
        0
462
0.0
453
        0
470

  0
HATCH
  5
490
102
{ACAD_REACTORS
330
10C1
102
}
330
18
100
AcDbEntity
  8
ROGO
 62
     4
100
AcDbHatch
 10
0.0
 20
0.0
 30
0.0
210
0.0
220
0.0
230
1.0
  2
SOLID
 70
     1
 71
     1
 91
        1
 92
        7
 72
     0
 73
     1
 93
        4
 10
467.0007617212215
 20
369.2155919174565
 10
467.1033155286076
 20
369.4212621237478
 10
454.9145201880604
 20
369.4212621237478
 10
454.8214691526385
 20
369.2155919174565
 97
        4
330
491
330
49B
330
495
330
4CD
 75
     0
 76
     1
 47
0.0514683685270805
 98
        1
 10
462.6107554489487
 20
369.366865659543
450
        0
451
        0
460
0.0
461
0.0
452
        0
462
0.0
453
        0
470

  0
LINE
  5
491
102
{ACAD_REACTORS
330
490
330
10C1
102
}
330
18
100
AcDbEntity
  8
ROGO
 62
     4
100
AcDbLine
 10
454.9002567411437
 20
369.4212621237478
 30
0.0
 11
467.1033155286076
 21
369.4212621237478
 31
0.0
  0
LINE
  5
492
102
{ACAD_REACTORS
330
48F
330
10C1
102
}
330
18
100
AcDbEntity
  8
ROGO
 62
     4
100
AcDbLine
 10
455.8547140446211
 20
370.4104521062638
 30
0.0
 11
455.362057795777
 21
370.4104521062638
 31
0.0
  0
LINE
  5
493
102
{ACAD_REACTORS
330
48F
330
10C1
102
}
330
18
100
AcDbEntity
  8
ROGO
 62
     4
100
AcDbLine
 10
455.9260425912319
 20
370.7596737911492
 30
0.0
 11
455.5200555921344
 21
370.7596737911492
 31
0.0
  0
LINE
  5
494
102
{ACAD_REACTORS
330
48F
330
10C1
102
}
330
18
100
AcDbEntity
  8
ROGO
 62
     4
100
AcDbLine
 10
456.0473015719481
 20
369.954325771805
 30
0.0
 11
455.1556933034669
 21
369.954325771805
 31
0.0
  0
LINE
  5
495
102
{ACAD_REACTORS
330
490
330
439
330
48F
330
10C1
102
}
330
18
100
AcDbEntity
  8
ROGO
 62
     4
100
AcDbLine
 10
453.8676681967019
 20
369.2155919174565
 30
0.0
 11
467.7568454637257
 21
369.2155919174565
 31
0.0
  0
LINE
  5
496
102
{ACAD_REACTORS
330
48F
330
10C1
102
}
330
18
100
AcDbEntity
  8
ROGO
 62
     4
100
AcDbLine
 10
454.8829187367946
 20
371.2674707023625
 30
0.0
 11
456.4954170497798
 21
371.2674707023625
 31
0.0
  0
TEXT
  5
497
102
{ACAD_REACTORS
330
10C1
102
}
330
18
100
AcDbEntity
  8
文字
100
AcDbText
 10
449.8333708149037
 20
375.9198973899134
 30
0.0
 40
2.0
  1
9
  7
STYLE3
100
AcDbText
  0
LINE
  5
498
102
{ACAD_REACTORS
330
10C1
102
}
330
18
100
AcDbEntity
  8
目盛
100
AcDbLine
 10
445.8057114152766
 20
378.6687824919486
 30
0.0
 11
447.174805627134
 21
377.2108452371057
 31
0.0
  0
LINE
  5
499
102
{ACAD_REACTORS
330
10C1
102
}
330
18
100
AcDbEntity
  8
目盛
100
AcDbLine
 10
443.8284902677933
 20
376.5632558254759
 30
0.0
 11
445.3695167533448
 21
375.2884078459785
 31
0.0
  0
LINE
  5
49A
102
{ACAD_REACTORS
330
10C1
102
}
330
18
100
AcDbEntity
  8
目盛
100
AcDbLine
 10
444.7840164209439
 20
377.6470874976159
 30
0.0
 11
446.2419536757868
 21
376.2779932857585
 31
0.0
  0
LINE
  5
49B
102
{ACAD_REACTORS
330
490
330
48F
330
10C1
102
}
330
18
100
AcDbEntity
  8
ROGO
 62
     4
100
AcDbLine
 10
455.1556933034669
 20
369.954325771805
 30
0.0
 11
454.8214691526385
 21
369.2155919174565
 31
0.0
  0
LINE
  5
49C
102
{ACAD_REACTORS
330
48F
330
10C1
102
}
330
18
100
AcDbEntity
  8
ROGO
 62
     4
100
AcDbLine
 10
455.5200555921344
 20
370.7596737911492
 30
0.0
 11
455.362057795777
 21
370.4104521062638
 31
0.0
  0
LINE
  5
49D
102
{ACAD_REACTORS
330
48F
330
10C1
102
}
330
18
100
AcDbEntity
  8
ROGO
 62
     4
100
AcDbLine
 10
454.8829187367946
 20
371.2674707023625
 30
0.0
 11
453.8676681967019
 21
369.2155919174565
 31
0.0
  0
LINE
  5
49E
102
{ACAD_REACTORS
330
10C1
102
}
330
18
100
AcDbEntity
  8
目盛
100
AcDbLine
 10
448.0312340489095
 20
380.5098949318798
 30
0.0
 11
449.794589805787
 21
378.082843948755
 31
0.0
  0
LINE
  5
49F
102
{ACAD_REACTORS
330
10C1
102
}
330
18
100
AcDbEntity
  8
目盛
100
AcDbLine
 10
449.2262785671194
 20
381.3220463478023
 30
0.0
 11
450.2979321570775
 21
379.6333904967983
 31
0.0
  0
LINE
  5
4A0
102
{ACAD_REACTORS
330
10C1
102
}
330
18
100
AcDbEntity
  8
目盛
100
AcDbLine
 10
446.8895430874166
 20
379.6243086450993
 30
0.0
 11
448.1643910669139
 21
378.0832821595477
 31
0.0
  0
LINE
  5
4A1
102
{ACAD_REACTORS
330
10C1
102
}
330
18
100
AcDbEntity
  8
目盛
100
AcDbLine
 10
450.4699603472968
 20
382.0575577022649
 30
0.0
 11
451.4334676955003
 21
380.3049443421772
 31
0.0
  0
LINE
  5
4A2
102
{ACAD_REACTORS
330
10C1
102
}
330
18
100
AcDbEntity
  8
目盛
100
AcDbLine
 10
451.7573711456396
 20
382.7135262679744
 30
0.0
 11
452.6089297287698
 21
380.9038721630424
 31
0.0
  0
LINE
  5
4A3
102
{ACAD_REACTORS
330
10C1
102
}
330
18
100
AcDbEntity
  8
目盛
100
AcDbLine
 10
453.0834301398889
 20
383.2873632366858
 30
0.0
 11
453.8196792452581
 21
381.4278102649093
 31
0.0
  0
LINE
  5
4A4
102
{ACAD_REACTORS
330
10C1
102
}
330
18
100
AcDbEntity
  8
目盛
100
AcDbLine
 10
454.4429039810126
 20
383.7768039360446
 30
0.0
 11
455.3699549641374
 21
380.9236343871591
 31
0.0
  0
HATCH
  5
4A5
102
{ACAD_REACTORS
330
10C1
102
}
330
18
100
AcDbEntity
  8
ROGO
 62
     4
100
AcDbHatch
 10
0.0
 20
0.0
 30
0.0
210
0.0
220
0.0
230
1.0
  2
SOLID
 70
     1
 71
     1
 91
        1
 92
        5
 93
        8
 72
     1
 10
463.5177978528414
 20
371.2674707023626
 11
462.2027615107357
 21
371.2674707023626
 72
     4
 94
        3
 73
     0
 74
     0
 95
       26
 96
       22
 40
0.0
 40
0.0
 40
0.0
 40
0.0
 40
0.2382195346591896
 40
0.397689067266058
 40
0.5126795869787669
 40
0.5985392873135731
 40
0.7099038249249733
 40
0.7911890807494741
 40
0.9379713068543702
 40
1.057449928673087
 40
1.138714535893316
 40
1.218398644003506
 40
1.36093802187036
 40
1.461730374800257
 40
1.516014844108008
 40
1.593124329220501
 40
1.648806818593631
 40
1.729472362005518
 40
1.775122082164342
 40
1.874460993765092
 40
1.919820003751207
 40
1.919820003751207
 40
1.919820003751207
 40
1.919820003751207
 10
462.202761510735
 20
371.2674707023625
 10
462.1219061199764
 20
371.2626467310974
 10
461.9869243059103
 20
371.2545934846007
 10
461.8387150951988
 20
371.1645579807424
 10
461.7301283507885
 20
371.1122152953999
 10
461.6526844163643
 20
371.0410598739803
 10
461.5959176984968
 20
370.9675615214589
 10
461.5243525937992
 20
370.8799887733337
 10
461.4659932958935
 20
370.7780138518691
 10
461.4362744533601
 20
370.6656197108057
 10
461.4099497847064
 20
370.5760409282468
 10
461.3904269697334
 20
370.4762170653542
 10
461.3953941265465
 20
370.3683721772322
 10
461.4025073224309
 20
370.2682113662282
 10
461.4342660123551
 20
370.1967115433017
 10
461.4704335347449
 20
370.1458085963722
 10
461.5147201705998
 20
370.0897446436735
 10
461.5631794349171
 20
370.0526136693432
 10
461.6032592020278
 20
369.9853484142026
 10
461.6734174822903
 20
369.9767648825265
 10
461.718012876366
 20
369.9596810926495
 10
461.7319923648276
 20
369.954325771805
 72
     1
 10
461.7319923648274
 20
369.954325771805
 11
462.8630213798321
 21
369.954325771805
 72
     1
 10
462.8630213798321
 20
369.954325771805
 11
463.1066381005109
 21
370.4428956501457
 72
     1
 10
463.1066381005109
 20
370.4428956501457
 11
462.2669570796388
 21
370.4428956501457
 72
     4
 94
        3
 73
     0
 74
     0
 95
       16
 96
       12
 40
0.0
 40
0.0
 40
0.0
 40
0.0
 40
0.0719416665231651
 40
0.1446253590759065
 40
0.1879779149910977
 40
0.2295440936104405
 40
0.2751936323958134
 40
0.3070718656052443
 40
0.3373215422372259
 40
0.3986635435212919
 40
0.5242542460842631
 40
0.5242542460842631
 40
0.5242542460842631
 40
0.5242542460842631
 10
462.2669570796388
 20
370.4428956501457
 10
462.2416293409671
 20
370.4503474422343
 10
462.1907126263979
 20
370.4653278862335
 10
462.1864513085505
 20
370.5379475753709
 10
462.192256737612
 20
370.58969504633
 10
462.2165698874896
 20
370.6273702270462
 10
462.24606595535
 20
370.6547838780817
 10
462.2570486496017
 20
370.6904858722641
 10
462.2893312787257
 20
370.7174453445804
 10
462.3465770301168
 20
370.7627604515562
 10
462.4098809213282
 20
370.7724115568417
 10
462.4524116289497
 20
370.7788956501457
 72
     1
 10
462.4524116289498
 20
370.7788956501457
 11
463.2741785523007
 21
370.7788956501457
 72
     1
 10
463.2741785523007
 20
370.7788956501457
 11
463.5177978528414
 21
371.2674707023626
 97
        8
330
4D6
330
4A6
330
4A7
330
4D7
330
4D9
330
4D8
330
4DA
330
4DB
 75
     0
 76
     1
 47
0.0514683685270805
 98
        1
 10
462.662678407942
 20
370.9751492460156
450
        0
451
        0
460
0.0
461
0.0
452
        0
462
0.0
453
        0
470

  0
SPLINE
  5
4A6
102
{ACAD_REACTORS
330
4A5
330
10C1
102
}
330
18
100
AcDbEntity
  8
ROGO
 62
     4
100
AcDbSpline
210
0.0
220
0.0
230
1.0
 70
     8
 71
     3
 72
    26
 73
    22
 74
    20
 42
0.0000000001
 43
0.0000000001
 44
0.0000000001
 40
0.0
 40
0.0
 40
0.0
 40
0.0
 40
0.2382195346591896
 40
0.397689067266058
 40
0.5126795869787669
 40
0.5985392873135731
 40
0.7099038249249733
 40
0.7911890807494741
 40
0.9379713068543702
 40
1.057449928673087
 40
1.138714535893316
 40
1.218398644003506
 40
1.36093802187036
 40
1.461730374800257
 40
1.516014844108008
 40
1.593124329220501
 40
1.648806818593631
 40
1.729472362005518
 40
1.775122082164342
 40
1.874460993765092
 40
1.919820003751207
 40
1.919820003751207
 40
1.919820003751207
 40
1.919820003751207
 10
462.202761510735
 20
371.2674707023625
 30
0.0
 10
462.1219061199764
 20
371.2626467310974
 30
0.0
 10
461.9869243059103
 20
371.2545934846007
 30
0.0
 10
461.8387150951988
 20
371.1645579807424
 30
0.0
 10
461.7301283507885
 20
371.1122152953999
 30
0.0
 10
461.6526844163643
 20
371.0410598739803
 30
0.0
 10
461.5959176984968
 20
370.9675615214589
 30
0.0
 10
461.5243525937992
 20
370.8799887733337
 30
0.0
 10
461.4659932958935
 20
370.7780138518691
 30
0.0
 10
461.4362744533601
 20
370.6656197108057
 30
0.0
 10
461.4099497847064
 20
370.5760409282468
 30
0.0
 10
461.3904269697334
 20
370.4762170653542
 30
0.0
 10
461.3953941265465
 20
370.3683721772322
 30
0.0
 10
461.4025073224309
 20
370.2682113662282
 30
0.0
 10
461.4342660123551
 20
370.1967115433017
 30
0.0
 10
461.4704335347449
 20
370.1458085963722
 30
0.0
 10
461.5147201705998
 20
370.0897446436735
 30
0.0
 10
461.5631794349171
 20
370.0526136693432
 30
0.0
 10
461.6032592020278
 20
369.9853484142026
 30
0.0
 10
461.6734174822903
 20
369.9767648825265
 30
0.0
 10
461.718012876366
 20
369.9596810926495
 30
0.0
 10
461.7319923648276
 20
369.954325771805
 30
0.0
 11
462.202761510735
 21
371.2674707023625
 31
0.0
 11
461.9673769377812
 21
371.2308285202688
 31
0.0
 11
461.8247194344062
 21
371.1595588313354
 31
0.0
 11
461.7248593871204
 21
371.102543126658
 31
0.0
 11
461.6606638182166
 21
371.0455271896341
 31
0.0
 11
461.5893352716059
 21
370.9600035164448
 31
0.0
 11
461.5394052479629
 21
370.8958608196394
 31
0.0
 11
461.4680762911987
 21
370.7675751936822
 31
0.0
 11
461.43241222297
 21
370.6535435519809
 31
0.0
 11
461.4110137000022
 21
370.5751468709195
 31
0.0
 11
461.3967477445878
 21
370.4967501898581
 31
0.0
 11
461.3967477445878
 21
370.3542108119913
 31
0.0
 11
461.4110137000022
 21
370.254433154546
 31
0.0
 11
461.43241222297
 21
370.2045442096502
 31
0.0
 11
461.4752092689058
 21
370.1404015128447
 31
0.0
 11
461.5108737472879
 21
370.0976395600769
 31
0.0
 11
461.5679363384844
 21
370.0406238553993
 31
0.0
 11
461.5964678391596
 21
370.0049888947595
 31
0.0
 11
461.6891953188917
 21
369.969354166466
 31
0.0
 11
461.7319923648276
 21
369.954325771805
 31
0.0
  0
LINE
  5
4A7
102
{ACAD_REACTORS
330
4A5
330
10C1
102
}
330
18
100
AcDbEntity
  8
ROGO
 62
     4
100
AcDbLine
 10
461.7319923648275
 20
369.954325771805
 30
0.0
 11
462.8630213798321
 21
369.954325771805
 31
0.0
  0
HATCH
  5
4A8
102
{ACAD_REACTORS
330
10C1
102
}
330
18
100
AcDbEntity
  8
ROGO
 62
     4
100
AcDbHatch
 10
0.0
 20
0.0
 30
0.0
210
0.0
220
0.0
230
1.0
  2
SOLID
 70
     1
 71
     1
 91
        2
 92
        7
 72
     0
 73
     1
 93
        8
 10
461.3723729498217
 20
369.9543257718051
 10
460.7890219394383
 20
371.2674707023627
 10
459.7386184566669
 20
371.2674707023625
 10
458.7916841265679
 20
369.9543257718051
 10
459.5189313782594
 20
369.954325771805
 10
459.6992218158403
 20
370.2043404418958
 10
460.5290988046247
 20
370.2043404418958
 10
460.6401652276936
 20
369.9543257718051
 97
        8
330
4AF
330
4B5
330
4B0
330
4B1
330
4B3
330
4A9
330
4AE
330
4AB
 92
       22
 72
     0
 73
     1
 93
        3
 10
460.4119536990241
 20
370.4680384535919
 10
459.8893795769854
 20
370.4680384535919
 10
460.2127463132986
 20
370.9164617254109
 97
        3
330
4B2
330
4B4
330
4AA
 75
     0
 76
     1
 47
0.0128389261915577
 98
        2
 10
460.7067670469426
 20
370.9524287855535
 10
460.7067670469426
 20
370.9524287855535
450
        0
451
        0
460
0.0
461
0.0
452
        0
462
0.0
453
        0
470

  0
LINE
  5
4A9
102
{ACAD_REACTORS
330
4A8
330
10C1
102
}
330
18
100
AcDbEntity
  8
ROGO
 62
     4
100
AcDbLine
 10
460.5290988046247
 20
370.2043404418958
 30
0.0
 11
460.6401652276936
 21
369.954325771805
 31
0.0
  0
LINE
  5
4AA
102
{ACAD_REACTORS
330
4A8
330
10C1
102
}
330
18
100
AcDbEntity
  8
ROGO
 62
     4
100
AcDbLine
 10
460.2127463132987
 20
370.9164617254108
 30
0.0
 11
460.4119536990241
 21
370.4680384535919
 31
0.0
  0
LINE
  5
4AB
102
{ACAD_REACTORS
330
4A8
330
10C1
102
}
330
18
100
AcDbEntity
  8
ROGO
 62
     4
100
AcDbLine
 10
460.7890219394384
 20
371.2674707023625
 30
0.0
 11
461.3723729498217
 21
369.954325771805
 31
0.0
  0
HATCH
  5
4AC
102
{ACAD_REACTORS
330
10C1
102
}
330
18
100
AcDbEntity
  8
ROGO
 62
     4
100
AcDbHatch
 10
0.0
 20
0.0
 30
0.0
210
0.0
220
0.0
230
1.0
  2
SOLID
 70
     1
 71
     1
 91
        1
 92
        1
 93
       12
 72
     1
 10
457.4480410429853
 20
371.2674707023625
 11
459.2241241914693
 21
371.2674707023626
 72
     1
 10
459.2241241914693
 20
371.2674707023625
 11
459.0752899957347
 21
370.9666683716704
 72
     1
 10
459.0752899957347
 20
370.9666683716704
 11
458.1418255735167
 21
370.9666683716704
 72
     1
 10
458.1418255735167
 20
370.9666683716704
 11
458.0254557274403
 21
370.7314783284863
 72
     1
 10
458.0254557274403
 20
370.7314783284863
 11
458.9589201496582
 21
370.7314783284863
 72
     1
 10
458.9589201496582
 20
370.7314783284863
 11
458.8395937740343
 21
370.4903129718051
 72
     1
 10
458.8395937740343
 20
370.4903129718051
 11
457.9061293518164
 21
370.4903129718051
 72
     1
 10
457.9061293518164
 20
370.4903129718051
 11
457.7897545792001
 21
370.2551129718051
 72
     1
 10
457.7897545792001
 20
370.2551129718051
 11
458.723219001418
 21
370.2551129718051
 72
     1
 10
458.723219001418
 20
370.2551129718051
 11
458.5743922922092
 21
369.954325771805
 72
     1
 10
458.5743922922092
 20
369.954325771805
 11
456.7983091437253
 21
369.954325771805
 72
     1
 10
456.7983091437253
 20
369.954325771805
 11
457.4480410429853
 21
371.2674707023625
 97
       12
330
4AD
330
4BF
330
4BC
330
4BD
330
4BB
330
4B8
330
4B9
330
4B6
330
4BA
330
4B7
330
4BE
330
4C0
 75
     0
 76
     1
 98
        1
 10
384.7979120642764
 20
280.4693746542512
450
        0
451
        0
460
0.0
461
0.0
452
        0
462
0.0
453
        0
470

  0
LINE
  5
4AD
102
{ACAD_REACTORS
330
4AC
330
10C1
102
}
330
18
100
AcDbEntity
  8
ROGO
 62
     4
100
AcDbLine
 10
457.4480410429853
 20
371.2674707023625
 30
0.0
 11
459.2241241914693
 21
371.2674707023626
 31
0.0
  0
LINE
  5
4AE
102
{ACAD_REACTORS
330
4A8
330
10C1
102
}
330
18
100
AcDbEntity
  8
ROGO
 62
     4
100
AcDbLine
 10
461.3723729498217
 20
369.9543257718051
 30
0.0
 11
460.6401652276936
 21
369.954325771805
 31
0.0
  0
LINE
  5
4AF
102
{ACAD_REACTORS
330
4A8
330
10C1
102
}
330
18
100
AcDbEntity
  8
ROGO
 62
     4
100
AcDbLine
 10
459.7386184566669
 20
371.2674707023625
 30
0.0
 11
460.7890219394384
 21
371.2674707023626
 31
0.0
  0
LINE
  5
4B0
102
{ACAD_REACTORS
330
4A8
330
10C1
102
}
330
18
100
AcDbEntity
  8
ROGO
 62
     4
100
AcDbLine
 10
458.7916841265679
 20
369.954325771805
 30
0.0
 11
459.5189313782594
 21
369.954325771805
 31
0.0
  0
LINE
  5
4B1
102
{ACAD_REACTORS
330
4A8
330
10C1
102
}
330
18
100
AcDbEntity
  8
ROGO
 62
     4
100
AcDbLine
 10
459.6992218158403
 20
370.2043404418958
 30
0.0
 11
459.5189313782594
 21
369.9543257718051
 31
0.0
  0
LINE
  5
4B2
102
{ACAD_REACTORS
330
4A8
330
10C1
102
}
330
18
100
AcDbEntity
  8
ROGO
 62
     4
100
AcDbLine
 10
459.8893795769854
 20
370.4680384535919
 30
0.0
 11
460.4119536990241
 21
370.4680384535919
 31
0.0
  0
LINE
  5
4B3
102
{ACAD_REACTORS
330
4A8
330
10C1
102
}
330
18
100
AcDbEntity
  8
ROGO
 62
     4
100
AcDbLine
 10
459.6992218158403
 20
370.2043404418958
 30
0.0
 11
460.5290988046247
 21
370.2043404418958
 31
0.0
  0
LINE
  5
4B4
102
{ACAD_REACTORS
330
4A8
330
10C1
102
}
330
18
100
AcDbEntity
  8
ROGO
 62
     4
100
AcDbLine
 10
460.2127463132986
 20
370.9164617254108
 30
0.0
 11
459.8893795769854
 21
370.4680384535919
 31
0.0
  0
LINE
  5
4B5
102
{ACAD_REACTORS
330
4A8
330
10C1
102
}
330
18
100
AcDbEntity
  8
ROGO
 62
     4
100
AcDbLine
 10
459.7386184566669
 20
371.2674707023625
 30
0.0
 11
458.7916841265679
 21
369.954325771805
 31
0.0
  0
LINE
  5
4B6
102
{ACAD_REACTORS
330
4AC
330
10C1
102
}
330
18
100
AcDbEntity
  8
ROGO
 62
     4
100
AcDbLine
 10
457.9061293518164
 20
370.4903129718051
 30
0.0
 11
457.7897545792001
 21
370.2551129718051
 31
0.0
  0
LINE
  5
4B7
102
{ACAD_REACTORS
330
4AC
330
10C1
102
}
330
18
100
AcDbEntity
  8
ROGO
 62
     4
100
AcDbLine
 10
458.723219001418
 20
370.2551129718051
 30
0.0
 11
458.5743922922092
 21
369.954325771805
 31
0.0
  0
LINE
  5
4B8
102
{ACAD_REACTORS
330
4AC
330
10C1
102
}
330
18
100
AcDbEntity
  8
ROGO
 62
     4
100
AcDbLine
 10
458.9589201496582
 20
370.7314783284863
 30
0.0
 11
458.8395937740343
 21
370.4903129718051
 31
0.0
  0
LINE
  5
4B9
102
{ACAD_REACTORS
330
4AC
330
10C1
102
}
330
18
100
AcDbEntity
  8
ROGO
 62
     4
100
AcDbLine
 10
457.9061293518164
 20
370.4903129718051
 30
0.0
 11
458.8395937740343
 21
370.4903129718051
 31
0.0
  0
LINE
  5
4BA
102
{ACAD_REACTORS
330
4AC
330
10C1
102
}
330
18
100
AcDbEntity
  8
ROGO
 62
     4
100
AcDbLine
 10
457.7897545792001
 20
370.2551129718051
 30
0.0
 11
458.723219001418
 21
370.2551129718051
 31
0.0
  0
LINE
  5
4BB
102
{ACAD_REACTORS
330
4AC
330
10C1
102
}
330
18
100
AcDbEntity
  8
ROGO
 62
     4
100
AcDbLine
 10
458.0254557274403
 20
370.7314783284863
 30
0.0
 11
458.9589201496582
 21
370.7314783284863
 31
0.0
  0
LINE
  5
4BC
102
{ACAD_REACTORS
330
4AC
330
10C1
102
}
330
18
100
AcDbEntity
  8
ROGO
 62
     4
100
AcDbLine
 10
458.1418255735167
 20
370.9666683716704
 30
0.0
 11
459.0752899957347
 21
370.9666683716704
 31
0.0
  0
LINE
  5
4BD
102
{ACAD_REACTORS
330
4AC
330
10C1
102
}
330
18
100
AcDbEntity
  8
ROGO
 62
     4
100
AcDbLine
 10
458.1418255735167
 20
370.9666683716704
 30
0.0
 11
458.0254557274403
 21
370.7314783284863
 31
0.0
  0
LINE
  5
4BE
102
{ACAD_REACTORS
330
4AC
330
10C1
102
}
330
18
100
AcDbEntity
  8
ROGO
 62
     4
100
AcDbLine
 10
456.7983091437253
 20
369.954325771805
 30
0.0
 11
458.5743922922092
 21
369.954325771805
 31
0.0
  0
LINE
  5
4BF
102
{ACAD_REACTORS
330
4AC
330
10C1
102
}
330
18
100
AcDbEntity
  8
ROGO
 62
     4
100
AcDbLine
 10
459.2241241914693
 20
371.2674707023625
 30
0.0
 11
459.0752899957347
 21
370.9666683716704
 31
0.0
  0
LINE
  5
4C0
102
{ACAD_REACTORS
330
4AC
330
10C1
102
}
330
18
100
AcDbEntity
  8
ROGO
 62
     4
100
AcDbLine
 10
457.4480410429853
 20
371.2674707023625
 30
0.0
 11
456.7983091437253
 21
369.954325771805
 31
0.0
  0
SPLINE
  5
4C1
102
{ACAD_REACTORS
330
48F
330
10C1
102
}
330
18
100
AcDbEntity
  8
ROGO
 62
     4
100
AcDbSpline
210
0.0
220
0.0
230
1.0
 70
     8
 71
     3
 72
    15
 73
    11
 74
     9
 42
0.0000000001
 43
0.0000000001
 44
0.0000000001
 40
0.0
 40
0.0
 40
0.0
 40
0.0
 40
0.1539705029175028
 40
0.2241725832587281
 40
0.3038566179396687
 40
0.3581410872474193
 40
0.443992538467216
 40
0.4954152125469665
 40
0.5836396705646186
 40
0.6130478420065743
 40
0.6130478420065743
 40
0.6130478420065743
 40
0.6130478420065743
 10
455.9260425912319
 20
370.7596737911492
 30
0.0
 10
455.9838709262911
 20
370.7599386757916
 30
0.0
 10
456.0680658013493
 20
370.7603243332613
 30
0.0
 10
456.1141065577137
 20
370.6561750293318
 30
0.0
 10
456.0934688954804
 20
370.5891191246944
 30
0.0
 10
456.0675256720561
 20
370.5202736104466
 30
0.0
 10
456.0216781205139
 20
370.4734920451773
 30
0.0
 10
455.9601439909187
 20
370.4284335115403
 30
0.0
 10
455.9019912978627
 20
370.4229789742807
 30
0.0
 10
455.8641694988904
 20
370.4129574808266
 30
0.0
 10
455.8547140446211
 20
370.4104521062638
 30
0.0
 11
455.9260425912319
 21
370.7596737911492
 31
0.0
 11
456.0758326621607
 21
370.7240388305093
 31
0.0
 11
456.1043641628357
 21
370.6598961337038
 31
0.0
 11
456.0900986175749
 21
370.5814994526424
 31
0.0
 11
456.068700094607
 21
370.5316105077466
 31
0.0
 11
456.0116370932569
 21
370.4674678109412
 31
0.0
 11
455.9688400473211
 21
370.4389598424293
 31
0.0
 11
455.8832455452961
 21
370.4175790983918
 31
0.0
 11
455.8547140446211
 21
370.4104521062638
 31
0.0
  0
SPLINE
  5
4C2
102
{ACAD_REACTORS
330
48F
330
10C1
102
}
330
18
100
AcDbEntity
  8
ROGO
 62
     4
100
AcDbSpline
210
0.0
220
0.0
230
1.0
 70
     8
 71
     3
 72
    18
 73
    14
 74
     0
 42
0.0000000001
 43
0.0000000001
 40
0.1087402787915014
 40
0.1087402787915014
 40
0.1087402787915014
 40
0.1087402787915014
 40
0.5992371417938475
 40
1.083176791562496
 40
1.448211145705696
 40
1.714037220764907
 40
2.164002567013297
 40
2.740236056362883
 40
3.395137510199602
 40
4.071816045172726
 40
4.784906178399433
 40
5.506895915094292
 40
6.060470601257719
 40
6.060470601257719
 40
6.060470601257719
 40
6.060470601257719
 10
456.4954170497798
 20
371.2674707023626
 30
0.0
 10
456.5470765874159
 20
371.2485383475149
 30
0.0
 10
456.6486645352663
 20
371.2085124561996
 30
0.0
 10
456.7726497708135
 20
371.1171601464082
 30
0.0
 10
456.8402659647382
 20
371.0117013692354
 30
0.0
 10
456.9053051732812
 20
370.9077906269326
 30
0.0
 10
456.9144072917922
 20
370.7587130927761
 30
0.0
 10
456.8994974067451
 20
370.5702429572044
 30
0.0
 10
456.803240535869
 20
370.3735938196837
 30
0.0
 10
456.6487425967876
 20
370.2015967888819
 30
0.0
 10
456.4569226236946
 20
370.0639326085402
 30
0.0
 10
456.2546418455873
 20
369.9558697720448
 30
0.0
 10
456.1100514885337
 20
369.9547930514362
 30
0.0
 10
456.047301571639
 20
369.954325771805
 30
0.0
  0
HATCH
  5
4C3
102
{ACAD_REACTORS
330
10C1
102
}
330
18
100
AcDbEntity
  8
ROGO
 62
     4
100
AcDbHatch
 10
0.0
 20
0.0
 30
0.0
210
0.0
220
0.0
230
1.0
  2
SOLID
 70
     1
 71
     1
 91
        2
 92
        5
 93
        6
 72
     4
 94
        3
 73
     0
 74
     0
 95
       25
 96
       21
 40
0.0
 40
0.0
 40
0.0
 40
0.0
 40
0.165525918914855
 40
0.3412380755365305
 40
0.5940540902285263
 40
0.7697671103696209
 40
0.9377330196075423
 40
1.11479469302833
 40
1.274661249598185
 40
1.574522170874768
 40
1.815540668866877
 40
2.15849091873445
 40
2.536227739636605
 40
2.738070817316548
 40
2.925680654369045
 40
3.162706124480894
 40
3.395643218188267
 40
3.648478129958861
 40
3.928509979727306
 40
4.337226830236035
 40
4.337226830236035
 40
4.337226830236035
 40
4.337226830236035
 10
465.0964452000324
 20
370.1079682516732
 10
465.1113378574262
 20
370.1202749956189
 10
465.1395851567301
 20
370.1495451188405
 10
465.1896863933698
 20
370.1969854671792
 10
465.2338365531764
 20
370.2522572376332
 10
465.2882989538936
 20
370.2970530705066
 10
465.3166519094326
 20
370.3518192968541
 10
465.3575204567367
 20
370.3948917673532
 10
465.3918024756541
 20
370.4614129493438
 10
465.4208890743541
 20
370.5378247144879
 10
465.4486191298516
 20
370.6374259981914
 10
465.4592455731883
 20
370.7497910512369
 10
465.4435171155411
 20
370.858504183668
 10
465.4055211378662
 20
370.9397636792048
 10
465.3775869770971
 20
371.0074850938709
 10
465.3351933884547
 20
371.0716291975481
 10
465.286828033594
 20
371.1413930038822
 10
465.2186898128347
 20
371.1990989661972
 10
465.1296401542135
 20
371.2687016555727
 10
465.046697046495
 20
371.2713665320787
 10
464.9974769960695
 20
371.2729479215349
 72
     1
 10
464.9974769960695
 20
371.2729479215349
 11
464.2470231728841
 21
371.2729479215349
 72
     4
 94
        3
 73
     0
 74
     0
 95
       38
 96
       34
 40
0.0
 40
0.0
 40
0.0
 40
0.0
 40
0.1807680148264315
 40
0.2375392910068956
 40
0.3104865209606157
 40
0.3712759982447458
 40
0.422566754387306
 40
0.490692583720658
 40
0.5255021974951946
 40
0.5647069597052371
 40
0.622487401681883
 40
0.6879401044674746
 40
0.7303986317551266
 40
0.7765228362185534
 40
0.8277951442290254
 40
0.9056034697002209
 40
0.9795294930264187
 40
1.013897332332996
 40
1.053089255536027
 40
1.099518741889647
 40
1.132570569820733
 40
1.160277520290299
 40
1.19983678629386
 40
1.243305643169139
 40
1.286774258016964
 40
1.324809356515675
 40
1.411916492917645
 40
1.446284332224223
 40
1.5150200516612
 40
1.575779369908399
 40
1.69209852953623
 40
1.835624328519098
 40
2.042896467983898
 40
2.042896467983898
 40
2.042896467983898
 40
2.042896467983898
 10
464.2470231728841
 20
371.2729479215349
 10
464.1867677752584
 20
371.268691302434
 10
464.1075888096373
 20
371.2630978666468
 10
464.0070500371279
 20
371.2355532404419
 10
463.9522452826867
 20
371.2027387209839
 10
463.8952099813695
 20
371.1786184762835
 10
463.8465820749845
 20
371.1429011770342
 10
463.7973959742886
 20
371.1244963968407
 10
463.7629543609129
 20
371.0913092884683
 10
463.7230910027798
 20
371.0710371702932
 10
463.6913471029446
 20
371.0256622762788
 10
463.6558664264129
 20
370.9832383946205
 10
463.6147043780057
 20
370.9522708530429
 10
463.5809221324463
 20
370.9197458740805
 10
463.5499316195218
 20
370.8695500588967
 10
463.5315900469509
 20
370.8028546842111
 10
463.4798882325415
 20
370.7607456299259
 10
463.4721035580585
 20
370.7101179822497
 10
463.4435057078628
 20
370.680248522059
 10
463.4310703624068
 20
370.6416913400741
 10
463.426334384283
 20
370.6063661507533
 10
463.4206500812405
 20
370.573374869325
 10
463.4057810210081
 20
370.5386694985872
 10
463.4106343335694
 20
370.4957992196522
 10
463.4092517705274
 20
370.4542865056258
 10
463.4100654105004
 20
370.3982430490142
 10
463.4071288711546
 20
370.3436778520948
 10
463.4305466216697
 20
370.2842979759264
 10
463.4444044692724
 20
370.2313690312599
 10
463.4823564392161
 20
370.1580824890083
 10
463.5478227920339
 20
370.0735256652994
 10
463.6723125380515
 20
369.9708897020066
 10
463.7920130686108
 20
369.9604777612893
 10
463.862739211341
 20
369.954325771805
 72
     1
 10
463.8627392113411
 20
369.954325771805
 11
464.6131930345269
 21
369.954325771805
 72
     4
 94
        3
 73
     0
 74
     0
 95
       11
 96
        7
 40
0.1647869275458135
 40
0.1647869275458135
 40
0.1647869275458135
 40
0.1647869275458135
 40
0.2545010798212315
 40
0.5111620267764023
 40
0.7602998271033902
 40
0.8850764140209603
 40
0.8850764140209603
 40
0.8850764140209603
 40
0.8850764140209603
 10
464.6131930345263
 20
369.954325771805
 10
464.6236649348463
 20
369.9541239561621
 10
464.6640956296749
 20
369.9533447712553
 10
464.7331921717712
 20
369.9632713018399
 10
464.8058909389093
 20
369.9727836962133
 10
464.8492319503435
 20
369.9797112859972
 10
464.8632104931444
 20
369.9836022187136
 72
     4
 94
        3
 73
     0
 74
     0
 95
        9
 96
        5
 40
0.0
 40
0.0
 40
0.0
 40
0.0
 40
0.1135793343552172
 40
0.2662938392177403
 40
0.2662938392177403
 40
0.2662938392177403
 40
0.2662938392177403
 10
464.8632104931444
 20
369.9836022187136
 10
464.8996954614624
 20
369.9947645584369
 10
464.9852367471398
 20
370.0209353606908
 10
465.0559134443765
 20
370.0762476784654
 10
465.0964452000324
 20
370.1079682516732
 97
        6
330
4C9
330
4C8
330
4CA
330
4C7
330
4C6
330
4C5
 92
       20
 93
        1
 72
     3
 10
464.4194815675148
 20
370.5952519293159
 11
0.1782847090673272
 21
0.1567790921840611
 40
0.6788083417438792
 50
0.0
 51
360.0
 73
     1
 97
        1
330
4C4
 75
     0
 76
     1
 47
0.088756267210375
 98
        2
 10
464.4719128432835
 20
370.9087391996399
 10
464.4719128432835
 20
370.9087391996399
450
        0
451
        0
460
0.0
461
0.0
452
        0
462
0.0
453
        0
470

  0
ELLIPSE
  5
4C4
102
{ACAD_REACTORS
330
4C3
330
10C1
102
}
330
18
100
AcDbEntity
  8
ROGO
 62
     4
100
AcDbEllipse
 10
464.4194815675148
 20
370.5952519293159
 30
0.0
 11
0.1782847090673272
 21
0.1567790921840611
 31
0.0
210
0.0
220
0.0
230
0.9999999999999998
 40
0.6788083417438792
 41
0.0
 42
6.283185307179586
  0
SPLINE
  5
4C5
102
{ACAD_REACTORS
330
4C3
330
10C1
102
}
330
18
100
AcDbEntity
  8
ROGO
 62
     4
100
AcDbSpline
210
0.0
220
0.0
230
1.0
 70
     8
 71
     3
 72
     9
 73
     5
 74
     3
 42
0.0000000001
 43
0.0000000001
 44
0.0000000001
 40
0.0
 40
0.0
 40
0.0
 40
0.0
 40
0.1135793343552172
 40
0.2662938392177403
 40
0.2662938392177403
 40
0.2662938392177403
 40
0.2662938392177403
 10
464.8632104931444
 20
369.9836022187136
 30
0.0
 10
464.8996954614624
 20
369.9947645584369
 30
0.0
 10
464.9852367471398
 20
370.0209353606908
 30
0.0
 10
465.0559134443765
 20
370.0762476784654
 30
0.0
 10
465.0964452000324
 20
370.1079682516732
 30
0.0
 11
464.8632104931444
 21
369.9836022187136
 31
0.0
 11
464.969961257369
 21
370.0223906129834
 31
0.0
 11
465.0964452000324
 21
370.1079682516732
 31
0.0
  0
SPLINE
  5
4C6
102
{ACAD_REACTORS
330
4C3
330
10C1
102
}
330
18
100
AcDbEntity
  8
ROGO
 62
     4
100
AcDbSpline
210
0.0
220
0.0
230
1.0
 70
     8
 71
     3
 72
    11
 73
     7
 74
     0
 42
0.0000000001
 43
0.0000000001
 40
0.1647869275458134
 40
0.1647869275458134
 40
0.1647869275458134
 40
0.1647869275458134
 40
0.2895635144633836
 40
0.5387013147903714
 40
0.7953622617455423
 40
0.8850764140209602
 40
0.8850764140209602
 40
0.8850764140209602
 40
0.8850764140209602
 10
464.8632104931444
 20
369.9836022187136
 30
0.0
 10
464.8492319503435
 20
369.9797112859972
 30
0.0
 10
464.8058909389093
 20
369.9727836962133
 30
0.0
 10
464.7331921717712
 20
369.9632713018399
 30
0.0
 10
464.6640956296749
 20
369.9533447712553
 30
0.0
 10
464.6236649348463
 20
369.9541239561621
 30
0.0
 10
464.6131930345263
 20
369.954325771805
 30
0.0
  0
LINE
  5
4C7
102
{ACAD_REACTORS
330
4C3
330
10C1
102
}
330
18
100
AcDbEntity
  8
ROGO
 62
     4
100
AcDbLine
 10
463.862739211341
 20
369.954325771805
 30
0.0
 11
464.6131930345263
 21
369.954325771805
 31
0.0
  0
LINE
  5
4C8
102
{ACAD_REACTORS
330
4C3
330
10C1
102
}
330
18
100
AcDbEntity
  8
ROGO
 62
     4
100
AcDbLine
 10
464.2470231728841
 20
371.2729479215349
 30
0.0
 11
464.9974769960695
 21
371.2729479215349
 31
0.0
  0
SPLINE
  5
4C9
102
{ACAD_REACTORS
330
4C3
330
10C1
102
}
330
18
100
AcDbEntity
  8
ROGO
 62
     4
100
AcDbSpline
210
0.0
220
0.0
230
1.0
 70
     8
 71
     3
 72
    25
 73
    21
 74
     0
 42
0.0000000001
 43
0.0000000001
 40
0.0
 40
0.0
 40
0.0
 40
0.0
 40
0.4087168505087288
 40
0.6887487002771746
 40
0.9415836120477687
 40
1.17452070575514
 40
1.41154617586699
 40
1.599156012919487
 40
1.80099909059943
 40
2.178735911501585
 40
2.521686161369157
 40
2.762704659361267
 40
3.06256558063785
 40
3.222432137207705
 40
3.399493810628493
 40
3.567459719866414
 40
3.743172740007509
 40
3.995988754699505
 40
4.17170091132118
 40
4.337226830236035
 40
4.337226830236035
 40
4.337226830236035
 40
4.337226830236035
 10
464.9974769960695
 20
371.2729479215349
 30
0.0
 10
465.046697046495
 20
371.2713665320787
 30
0.0
 10
465.1296401542135
 20
371.2687016555727
 30
0.0
 10
465.2186898128347
 20
371.1990989661972
 30
0.0
 10
465.286828033594
 20
371.1413930038822
 30
0.0
 10
465.3351933884547
 20
371.0716291975481
 30
0.0
 10
465.3775869770971
 20
371.0074850938709
 30
0.0
 10
465.4055211378662
 20
370.9397636792048
 30
0.0
 10
465.4435171155411
 20
370.858504183668
 30
0.0
 10
465.4592455731883
 20
370.7497910512369
 30
0.0
 10
465.4486191298516
 20
370.6374259981914
 30
0.0
 10
465.4208890743541
 20
370.5378247144879
 30
0.0
 10
465.3918024756541
 20
370.4614129493438
 30
0.0
 10
465.3575204567367
 20
370.3948917673532
 30
0.0
 10
465.3166519094326
 20
370.3518192968541
 30
0.0
 10
465.2882989538936
 20
370.2970530705066
 30
0.0
 10
465.2338365531764
 20
370.2522572376332
 30
0.0
 10
465.1896863933698
 20
370.1969854671792
 30
0.0
 10
465.1395851567301
 20
370.1495451188405
 30
0.0
 10
465.1113378574262
 20
370.1202749956189
 30
0.0
 10
465.0964452000324
 20
370.1079682516732
 30
0.0
  0
SPLINE
  5
4CA
102
{ACAD_REACTORS
330
4C3
330
10C1
102
}
330
18
100
AcDbEntity
  8
ROGO
 62
     4
100
AcDbSpline
210
0.0
220
0.0
230
1.0
 70
     8
 71
     3
 72
    38
 73
    34
 74
    32
 42
0.0000000001
 43
0.0000000001
 44
0.0000000001
 40
0.0
 40
0.0
 40
0.0
 40
0.0
 40
0.1807680148264315
 40
0.2375392910068956
 40
0.3104865209606157
 40
0.3712759982447458
 40
0.422566754387306
 40
0.490692583720658
 40
0.5255021974951946
 40
0.5647069597052371
 40
0.622487401681883
 40
0.6879401044674746
 40
0.7303986317551266
 40
0.7765228362185534
 40
0.8277951442290254
 40
0.9056034697002209
 40
0.9795294930264187
 40
1.013897332332996
 40
1.053089255536027
 40
1.099518741889647
 40
1.132570569820733
 40
1.160277520290299
 40
1.19983678629386
 40
1.243305643169139
 40
1.286774258016964
 40
1.324809356515675
 40
1.411916492917645
 40
1.446284332224223
 40
1.5150200516612
 40
1.575779369908399
 40
1.69209852953623
 40
1.835624328519098
 40
2.042896467983898
 40
2.042896467983898
 40
2.042896467983898
 40
2.042896467983898
 10
464.2470231728841
 20
371.2729479215349
 30
0.0
 10
464.1867677752584
 20
371.268691302434
 30
0.0
 10
464.1075888096373
 20
371.2630978666468
 30
0.0
 10
464.0070500371279
 20
371.2355532404419
 30
0.0
 10
463.9522452826867
 20
371.2027387209839
 30
0.0
 10
463.8952099813695
 20
371.1786184762835
 30
0.0
 10
463.8465820749845
 20
371.1429011770342
 30
0.0
 10
463.7973959742886
 20
371.1244963968407
 30
0.0
 10
463.7629543609129
 20
371.0913092884683
 30
0.0
 10
463.7230910027798
 20
371.0710371702932
 30
0.0
 10
463.6913471029446
 20
371.0256622762788
 30
0.0
 10
463.6558664264129
 20
370.9832383946205
 30
0.0
 10
463.6147043780057
 20
370.9522708530429
 30
0.0
 10
463.5809221324463
 20
370.9197458740805
 30
0.0
 10
463.5499316195218
 20
370.8695500588967
 30
0.0
 10
463.5315900469509
 20
370.8028546842111
 30
0.0
 10
463.4798882325415
 20
370.7607456299259
 30
0.0
 10
463.4721035580585
 20
370.7101179822497
 30
0.0
 10
463.4435057078628
 20
370.680248522059
 30
0.0
 10
463.4310703624068
 20
370.6416913400741
 30
0.0
 10
463.426334384283
 20
370.6063661507533
 30
0.0
 10
463.4206500812405
 20
370.573374869325
 30
0.0
 10
463.4057810210081
 20
370.5386694985872
 30
0.0
 10
463.4106343335694
 20
370.4957992196522
 30
0.0
 10
463.4092517705274
 20
370.4542865056258
 30
0.0
 10
463.4100654105004
 20
370.3982430490142
 30
0.0
 10
463.4071288711546
 20
370.3436778520948
 30
0.0
 10
463.4305466216697
 20
370.2842979759264
 30
0.0
 10
463.4444044692724
 20
370.2313690312599
 30
0.0
 10
463.4823564392161
 20
370.1580824890083
 30
0.0
 10
463.5478227920339
 20
370.0735256652994
 30
0.0
 10
463.6723125380515
 20
369.9708897020066
 30
0.0
 10
463.7920130686108
 20
369.9604777612893
 30
0.0
 10
463.862739211341
 20
369.954325771805
 30
0.0
 11
464.2470231728841
 21
371.2729479215349
 31
0.0
 11
464.0675665359368
 21
371.2512133720835
 31
0.0
 11
464.0131857498086
 21
371.2349128230362
 31
0.0
 11
463.9479290628007
 21
371.2023112408865
 31
0.0
 11
463.8935482766725
 21
371.1751434171135
 31
0.0
 11
463.8500438186672
 21
371.147975351313
 31
0.0
 11
463.7902250820991
 21
371.1153740111909
 31
0.0
 11
463.7630344754135
 21
371.093639703767
 31
0.0
 11
463.730405918288
 21
371.0719051543155
 31
0.0
 11
463.6923394107226
 21
371.0284365394677
 31
0.0
 11
463.6488349527173
 21
370.9795344082707
 31
0.0
 11
463.6162063955917
 21
370.9523663424703
 31
0.0
 11
463.5835782657093
 21
370.9197650023481
 31
0.0
 11
463.5563876590237
 21
370.8762963875003
 31
0.0
 11
463.5237595291413
 21
370.805659706852
 31
0.0
 11
463.4802546438928
 21
370.7458903009294
 31
0.0
 11
463.4693787430131
 21
370.7132887187798
 31
0.0
 11
463.4476265140104
 21
370.6806873786575
 31
0.0
 11
463.4313122354477
 21
370.6372185217823
 31
0.0
 11
463.4258738577647
 21
370.6046171816601
 31
0.0
 11
463.4204359073248
 21
370.5774491158597
 31
0.0
 11
463.4095600064449
 21
370.5394142593884
 31
0.0
 11
463.4095600064449
 21
370.4959454025131
 31
0.0
 11
463.4095600064449
 21
370.4524767876653
 31
0.0
 11
463.4095600064449
 21
370.4144416891665
 31
0.0
 11
463.4149979568849
 21
370.3275044594708
 31
0.0
 11
463.4258738577647
 21
370.2949028773212
 31
0.0
 11
463.4476265140104
 21
370.2296999550495
 31
0.0
 11
463.474816693453
 21
370.175364065476
 31
0.0
 11
463.5455117581439
 21
370.0829933194312
 31
0.0
 11
463.6597112808401
 21
369.9960558477081
 31
0.0
 11
463.862739211341
 21
369.954325771805
 31
0.0
  0
HATCH
  5
4CB
102
{ACAD_REACTORS
330
10C1
102
}
330
18
100
AcDbEntity
  8
ROGO
 62
     4
100
AcDbHatch
 10
0.0
 20
0.0
 30
0.0
210
0.0
220
0.0
230
1.0
  2
SOLID
 70
     1
 71
     1
 91
        1
 92
        5
 93
        8
 72
     1
 10
467.7488676237692
 20
371.2674707023625
 11
466.4338312816628
 21
371.2674707023625
 72
     4
 94
        3
 73
     0
 74
     0
 95
       26
 96
       22
 40
0.0
 40
0.0
 40
0.0
 40
0.0
 40
0.2382195346591896
 40
0.397689067266058
 40
0.5126795869787176
 40
0.5985392873135238
 40
0.7099038249250041
 40
0.7911890807494602
 40
0.9379713068544059
 40
1.057449928673177
 40
1.138714535893296
 40
1.218398644003487
 40
1.36093802187034
 40
1.461730374800238
 40
1.51601484410804
 40
1.593124329220486
 40
1.648806818593696
 40
1.729472362005543
 40
1.775122082164332
 40
1.874460993765135
 40
1.919820003751196
 40
1.919820003751196
 40
1.919820003751196
 40
1.919820003751196
 10
466.4338312816629
 20
371.2674707023625
 10
466.3529758909042
 20
371.2626467310975
 10
466.2179940768384
 20
371.2545934846007
 10
466.0697848661266
 20
371.1645579807424
 10
465.9611981217164
 20
371.1122152953998
 10
465.8837541872921
 20
371.0410598739803
 10
465.8269874694247
 20
370.967561521459
 10
465.7554223647269
 20
370.8799887733335
 10
465.6970630668211
 20
370.7780138518689
 10
465.6673442242881
 20
370.6656197108056
 10
465.6410195556343
 20
370.5760409282468
 10
465.6214967406612
 20
370.4762170653543
 10
465.6264638974743
 20
370.3683721772321
 10
465.6335770933587
 20
370.2682113662283
 10
465.6653357832826
 20
370.1967115433016
 10
465.7015033056729
 20
370.1458085963724
 10
465.7457899415276
 20
370.0897446436735
 10
465.7942492058452
 20
370.0526136693433
 10
465.8343289729557
 20
369.9853484142027
 10
465.9044872532182
 20
369.9767648825267
 10
465.9490826472938
 20
369.9596810926495
 10
465.9630621357554
 20
369.954325771805
 72
     1
 10
465.9630621357552
 20
369.9543257718051
 11
467.0940911507599
 21
369.954325771805
 72
     1
 10
467.0940911507599
 20
369.954325771805
 11
467.3377078714388
 21
370.4428956501457
 72
     1
 10
467.3377078714388
 20
370.4428956501457
 11
466.4980268505665
 21
370.4428956501457
 72
     4
 94
        3
 73
     0
 74
     0
 95
       16
 96
       12
 40
0.0
 40
0.0
 40
0.0
 40
0.0
 40
0.0719416665231652
 40
0.1446253590759511
 40
0.1879779149910863
 40
0.229544093610429
 40
0.2751936323958108
 40
0.3070718656052417
 40
0.3373215422371831
 40
0.3986635435213285
 40
0.5242542460842448
 40
0.5242542460842448
 40
0.5242542460842448
 40
0.5242542460842448
 10
466.4980268505667
 20
370.4428956501456
 10
466.4726991118949
 20
370.4503474422342
 10
466.4217823973258
 20
370.4653278862334
 10
466.4175210794784
 20
370.5379475753709
 10
466.42332650854
 20
370.58969504633
 10
466.4476396584174
 20
370.6273702270461
 10
466.4771357262779
 20
370.6547838780817
 10
466.4881184205293
 20
370.690485872264
 10
466.5204010496537
 20
370.7174453445804
 10
466.5776468010445
 20
370.7627604515561
 10
466.640950692256
 20
370.7724115568417
 10
466.6834813998774
 20
370.7788956501457
 72
     1
 10
466.6834813998775
 20
370.7788956501457
 11
467.5052483232287
 21
370.7788956501456
 72
     1
 10
467.5052483232287
 20
370.7788956501456
 11
467.7488676237692
 21
371.2674707023625
 97
        8
330
4D4
330
4D2
330
4D5
330
4D1
330
4D0
330
4D3
330
4CF
330
4CE
 75
     0
 76
     1
 47
0.0514683685270805
 98
        1
 10
466.6607487113478
 20
371.0270293991834
450
        0
451
        0
460
0.0
461
0.0
452
        0
462
0.0
453
        0
470

  0
LINE
  5
4CC
102
{ACAD_REACTORS
330
439
330
10C1
102
}
330
18
100
AcDbEntity
  8
ROGO
 62
     4
100
AcDbLine
 10
468.0238947528914
 20
369.7511554795761
 30
0.0
 11
467.7568454637257
 21
369.2155919174565
 31
0.0
  0
LINE
  5
4CD
102
{ACAD_REACTORS
330
490
330
439
330
10C1
102
}
330
18
100
AcDbEntity
  8
ROGO
 62
     4
100
AcDbLine
 10
468.0238947528914
 20
371.2674707023625
 30
0.0
 11
467.0007617212215
 21
369.2155919174565
 31
0.0
  0
LINE
  5
4CE
102
{ACAD_REACTORS
330
4CB
330
10C1
102
}
330
18
100
AcDbEntity
  8
ROGO
 62
     4
100
AcDbLine
 10
467.7488676237692
 20
371.2674707023625
 30
0.0
 11
467.5052483232287
 21
370.7788956501457
 31
0.0
  0
LINE
  5
4CF
102
{ACAD_REACTORS
330
4CB
330
10C1
102
}
330
18
100
AcDbEntity
  8
ROGO
 62
     4
100
AcDbLine
 10
466.6834813998774
 20
370.7788956501457
 30
0.0
 11
467.5052483232287
 21
370.7788956501457
 31
0.0
  0
LINE
  5
4D0
102
{ACAD_REACTORS
330
4CB
330
10C1
102
}
330
18
100
AcDbEntity
  8
ROGO
 62
     4
100
AcDbLine
 10
466.4980268505667
 20
370.4428956501457
 30
0.0
 11
467.3377078714388
 21
370.4428956501457
 31
0.0
  0
LINE
  5
4D1
102
{ACAD_REACTORS
330
4CB
330
10C1
102
}
330
18
100
AcDbEntity
  8
ROGO
 62
     4
100
AcDbLine
 10
467.3377078714388
 20
370.4428956501457
 30
0.0
 11
467.0940911507599
 21
369.954325771805
 31
0.0
  0
SPLINE
  5
4D2
102
{ACAD_REACTORS
330
4CB
330
10C1
102
}
330
18
100
AcDbEntity
  8
ROGO
 62
     4
100
AcDbSpline
210
0.0
220
0.0
230
1.0
 70
     8
 71
     3
 72
    26
 73
    22
 74
    20
 42
0.0000000001
 43
0.0000000001
 44
0.0000000001
 40
0.0
 40
0.0
 40
0.0
 40
0.0
 40
0.2382195346591896
 40
0.397689067266058
 40
0.5126795869787176
 40
0.5985392873135238
 40
0.7099038249250041
 40
0.7911890807494602
 40
0.9379713068544059
 40
1.057449928673177
 40
1.138714535893296
 40
1.218398644003487
 40
1.36093802187034
 40
1.461730374800238
 40
1.51601484410804
 40
1.593124329220486
 40
1.648806818593696
 40
1.729472362005543
 40
1.775122082164332
 40
1.874460993765135
 40
1.919820003751196
 40
1.919820003751196
 40
1.919820003751196
 40
1.919820003751196
 10
466.4338312816629
 20
371.2674707023625
 30
0.0
 10
466.3529758909042
 20
371.2626467310975
 30
0.0
 10
466.2179940768384
 20
371.2545934846007
 30
0.0
 10
466.0697848661266
 20
371.1645579807424
 30
0.0
 10
465.9611981217164
 20
371.1122152953998
 30
0.0
 10
465.8837541872921
 20
371.0410598739803
 30
0.0
 10
465.8269874694247
 20
370.967561521459
 30
0.0
 10
465.7554223647269
 20
370.8799887733335
 30
0.0
 10
465.6970630668211
 20
370.7780138518689
 30
0.0
 10
465.6673442242881
 20
370.6656197108056
 30
0.0
 10
465.6410195556343
 20
370.5760409282468
 30
0.0
 10
465.6214967406612
 20
370.4762170653543
 30
0.0
 10
465.6264638974743
 20
370.3683721772321
 30
0.0
 10
465.6335770933587
 20
370.2682113662283
 30
0.0
 10
465.6653357832826
 20
370.1967115433016
 30
0.0
 10
465.7015033056729
 20
370.1458085963724
 30
0.0
 10
465.7457899415276
 20
370.0897446436735
 30
0.0
 10
465.7942492058452
 20
370.0526136693433
 30
0.0
 10
465.8343289729557
 20
369.9853484142027
 30
0.0
 10
465.9044872532182
 20
369.9767648825267
 30
0.0
 10
465.9490826472938
 20
369.9596810926495
 30
0.0
 10
465.9630621357554
 20
369.954325771805
 30
0.0
 11
466.4338312816629
 21
371.2674707023625
 31
0.0
 11
466.1984467087091
 21
371.2308285202688
 31
0.0
 11
466.0557892053341
 21
371.1595588313354
 31
0.0
 11
465.9559291580483
 21
371.102543126658
 31
0.0
 11
465.8917335891445
 21
371.0455271896341
 31
0.0
 11
465.8204050425338
 21
370.9600035164447
 31
0.0
 11
465.7704750188908
 21
370.8958608196394
 31
0.0
 11
465.6991460621266
 21
370.7675751936821
 31
0.0
 11
465.6634819938978
 21
370.6535435519808
 31
0.0
 11
465.64208347093
 21
370.5751468709195
 31
0.0
 11
465.6278175155157
 21
370.4967501898581
 31
0.0
 11
465.6278175155157
 21
370.3542108119913
 31
0.0
 11
465.64208347093
 21
370.254433154546
 31
0.0
 11
465.6634819938978
 21
370.2045442096501
 31
0.0
 11
465.7062790398336
 21
370.1404015128447
 31
0.0
 11
465.7419435182158
 21
370.0976395600768
 31
0.0
 11
465.7990061094124
 21
370.0406238553993
 31
0.0
 11
465.8275376100874
 21
370.0049888947595
 31
0.0
 11
465.9202650898196
 21
369.969354166466
 31
0.0
 11
465.9630621357554
 21
369.954325771805
 31
0.0
  0
SPLINE
  5
4D3
102
{ACAD_REACTORS
330
4CB
330
10C1
102
}
330
18
100
AcDbEntity
  8
ROGO
 62
     4
100
AcDbSpline
210
0.0
220
0.0
230
1.0
 70
     8
 71
     3
 72
    16
 73
    12
 74
    10
 42
0.0000000001
 43
0.0000000001
 44
0.0000000001
 40
0.0
 40
0.0
 40
0.0
 40
0.0
 40
0.1255907025629163
 40
0.1869327038470616
 40
0.217182380479003
 40
0.2490606136884339
 40
0.2947101524738157
 40
0.3362763310931585
 40
0.3796288870082937
 40
0.4523125795610796
 40
0.5242542460842448
 40
0.5242542460842448
 40
0.5242542460842448
 40
0.5242542460842448
 10
466.6834813998774
 20
370.7788956501457
 30
0.0
 10
466.640950692256
 20
370.7724115568417
 30
0.0
 10
466.5776468010445
 20
370.7627604515561
 30
0.0
 10
466.5204010496537
 20
370.7174453445804
 30
0.0
 10
466.4881184205293
 20
370.690485872264
 30
0.0
 10
466.4771357262779
 20
370.6547838780817
 30
0.0
 10
466.4476396584174
 20
370.6273702270461
 30
0.0
 10
466.42332650854
 20
370.58969504633
 30
0.0
 10
466.4175210794784
 20
370.5379475753709
 30
0.0
 10
466.4217823973258
 20
370.4653278862334
 30
0.0
 10
466.4726991118949
 20
370.4503474422342
 30
0.0
 10
466.4980268505667
 20
370.4428956501456
 30
0.0
 11
466.6834813998774
 21
370.7788956501457
 31
0.0
 11
466.5622228296237
 21
370.7461942172983
 31
0.0
 11
466.5122928059808
 21
370.7105594890046
 31
0.0
 11
466.490894283013
 21
370.6891785126207
 31
0.0
 11
466.4766283275987
 21
370.6606705441088
 31
0.0
 11
466.4480968269238
 21
370.6250358158153
 31
0.0
 11
466.4266983039558
 21
370.5894008551754
 31
0.0
 11
466.4195653262487
 21
370.546639134754
 31
0.0
 11
466.4338312816629
 21
370.4753692134742
 31
0.0
 11
466.4980268505667
 21
370.4428956501456
 31
0.0
  0
LINE
  5
4D4
102
{ACAD_REACTORS
330
4CB
330
10C1
102
}
330
18
100
AcDbEntity
  8
ROGO
 62
     4
100
AcDbLine
 10
466.4338312816632
 20
371.2674707023625
 30
0.0
 11
467.7488676237692
 21
371.2674707023625
 31
0.0
  0
LINE
  5
4D5
102
{ACAD_REACTORS
330
4CB
330
10C1
102
}
330
18
100
AcDbEntity
  8
ROGO
 62
     4
100
AcDbLine
 10
465.9630621357553
 20
369.954325771805
 30
0.0
 11
467.09409115076
 21
369.954325771805
 31
0.0
  0
LINE
  5
4D6
102
{ACAD_REACTORS
330
4A5
330
10C1
102
}
330
18
100
AcDbEntity
  8
ROGO
 62
     4
100
AcDbLine
 10
462.2027615107355
 20
371.2674707023626
 30
0.0
 11
463.5177978528414
 21
371.2674707023626
 31
0.0
  0
LINE
  5
4D7
102
{ACAD_REACTORS
330
4A5
330
10C1
102
}
330
18
100
AcDbEntity
  8
ROGO
 62
     4
100
AcDbLine
 10
463.1066381005109
 20
370.4428956501457
 30
0.0
 11
462.8630213798321
 21
369.954325771805
 31
0.0
  0
SPLINE
  5
4D8
102
{ACAD_REACTORS
330
4A5
330
10C1
102
}
330
18
100
AcDbEntity
  8
ROGO
 62
     4
100
AcDbSpline
210
0.0
220
0.0
230
1.0
 70
     8
 71
     3
 72
    16
 73
    12
 74
    10
 42
0.0000000001
 43
0.0000000001
 44
0.0000000001
 40
0.0
 40
0.0
 40
0.0
 40
0.0
 40
0.1255907025629711
 40
0.1869327038470372
 40
0.2171823804790188
 40
0.2490606136884497
 40
0.2947101524738226
 40
0.3362763310931653
 40
0.3796288870083566
 40
0.452312579561098
 40
0.5242542460842631
 40
0.5242542460842631
 40
0.5242542460842631
 40
0.5242542460842631
 10
462.4524116289497
 20
370.7788956501457
 30
0.0
 10
462.4098809213282
 20
370.7724115568417
 30
0.0
 10
462.3465770301168
 20
370.7627604515562
 30
0.0
 10
462.2893312787257
 20
370.7174453445804
 30
0.0
 10
462.2570486496017
 20
370.6904858722641
 30
0.0
 10
462.24606595535
 20
370.6547838780817
 30
0.0
 10
462.2165698874896
 20
370.6273702270462
 30
0.0
 10
462.192256737612
 20
370.58969504633
 30
0.0
 10
462.1864513085505
 20
370.5379475753709
 30
0.0
 10
462.1907126263979
 20
370.4653278862335
 30
0.0
 10
462.2416293409671
 20
370.4503474422343
 30
0.0
 10
462.2669570796388
 20
370.4428956501457
 30
0.0
 11
462.4524116289497
 21
370.7788956501457
 31
0.0
 11
462.3311530586959
 21
370.7461942172983
 31
0.0
 11
462.281223035053
 21
370.7105594890047
 31
0.0
 11
462.2598245120851
 21
370.6891785126207
 31
0.0
 11
462.2455585566709
 21
370.6606705441088
 31
0.0
 11
462.2170270559958
 21
370.6250358158154
 31
0.0
 11
462.1956285330279
 21
370.5894008551755
 31
0.0
 11
462.1884955553208
 21
370.546639134754
 31
0.0
 11
462.202761510735
 21
370.4753692134742
 31
0.0
 11
462.2669570796388
 21
370.4428956501457
 31
0.0
  0
LINE
  5
4D9
102
{ACAD_REACTORS
330
4A5
330
10C1
102
}
330
18
100
AcDbEntity
  8
ROGO
 62
     4
100
AcDbLine
 10
462.2669570796388
 20
370.4428956501457
 30
0.0
 11
463.1066381005109
 21
370.4428956501457
 31
0.0
  0
LINE
  5
4DA
102
{ACAD_REACTORS
330
4A5
330
10C1
102
}
330
18
100
AcDbEntity
  8
ROGO
 62
     4
100
AcDbLine
 10
462.4524116289496
 20
370.7788956501457
 30
0.0
 11
463.2741785523007
 21
370.7788956501457
 31
0.0
  0
LINE
  5
4DB
102
{ACAD_REACTORS
330
4A5
330
10C1
102
}
330
18
100
AcDbEntity
  8
ROGO
 62
     4
100
AcDbLine
 10
463.5177978528414
 20
371.2674707023625
 30
0.0
 11
463.2741785523007
 21
370.7788956501457
 31
0.0
  0
TEXT
  5
4DC
102
{ACAD_REACTORS
330
10C1
102
}
330
18
100
AcDbEntity
  8
文字
100
AcDbText
 10
460.5685309482377
 20
378.8239094061511
 30
0.0
 40
2.0
  1
0
  7
STYLE3
100
AcDbText
  0
LINE
  5
4DD
102
{ACAD_REACTORS
330
10C1
102
}
330
18
100
AcDbEntity
  8
目盛
100
AcDbLine
 10
461.5502948516364
 20
384.902504061256
 30
0.0
 11
461.5502948516364
 21
381.902504061256
 31
0.0
  0
LINE
  5
4DE
102
{ACAD_REACTORS
330
10C1
102
}
330
18
100
AcDbEntity
  8
目盛
100
AcDbLine
 10
455.8304274468447
 20
384.1799167672145
 30
0.0
 11
456.3278072211745
 21
382.2427504449573
 31
0.0
  0
LINE
  5
4DF
102
{ACAD_REACTORS
330
10C1
102
}
330
18
100
AcDbEntity
  8
目盛
100
AcDbLine
 10
457.2405246161648
 20
384.4951108280159
 30
0.0
 11
457.6152872453362
 21
382.5305363265585
 31
0.0
  0
LINE
  5
4E0
102
{ACAD_REACTORS
330
10C1
102
}
330
18
100
AcDbEntity
  8
目盛
100
AcDbLine
 10
458.6676304796575
 20
384.721142191489
 30
0.0
 11
458.918296946786
 21
382.73691278886
 31
0.0
  0
LINE
  5
4E1
102
{ACAD_REACTORS
330
10C1
102
}
330
18
100
AcDbEntity
  8
目盛
100
AcDbLine
 10
460.1061129024622
 20
384.8571188151063
 30
0.0
 11
460.2316939415208
 21
382.8610653582497
 31
0.0
  0
LINE
  5
4E2
102
{ACAD_REACTORS
330
10C1
102
}
330
18
100
AcDbEntity
  8
目盛
100
AcDbLine
 10
462.9944768008108
 20
384.8571188151063
 30
0.0
 11
462.8688957617521
 21
382.8610653582497
 31
0.0
  0
LINE
  5
4E3
102
{ACAD_REACTORS
330
10C1
102
}
330
18
100
AcDbEntity
  8
目盛
100
AcDbLine
 10
464.4329592236156
 20
384.721142191489
 30
0.0
 11
464.182292756487
 21
382.73691278886
 31
0.0
  0
LINE
  5
4E4
102
{ACAD_REACTORS
330
10C1
102
}
330
18
100
AcDbEntity
  8
目盛
100
AcDbLine
 10
465.8600650871082
 20
384.4951108280158
 30
0.0
 11
465.4853024579368
 21
382.5305363265584
 31
0.0
  0
LINE
  5
4E5
102
{ACAD_REACTORS
330
10C1
102
}
330
18
100
AcDbEntity
  8
目盛
100
AcDbLine
 10
467.2701622564282
 20
384.1799167672145
 30
0.0
 11
466.7727824820985
 21
382.2427504449572
 31
0.0
  0
LINE
  5
4E6
102
{ACAD_REACTORS
330
10C1
102
}
330
18
100
AcDbEntity
  8
外形線
  6
Continuous
100
AcDbLine
 10
457.8502948516365
 20
402.4025040612559
 30
0.0
 11
457.8502948516365
 21
395.9025040612559
 31
0.0
  0
LINE
  5
4E7
102
{ACAD_REACTORS
330
10C1
102
}
330
18
100
AcDbEntity
  8
外形線
  6
Continuous
100
AcDbLine
 10
465.2502948516364
 20
402.4025040612559
 30
0.0
 11
465.2502948516364
 21
395.9025040612559
 31
0.0
  0
LINE
  5
4E8
102
{ACAD_REACTORS
330
10C1
102
}
330
18
100
AcDbEntity
  8
外形線
  6
Continuous
100
AcDbLine
 10
457.5502948516364
 20
389.9025040612559
 30
0.0
 11
465.5502948516364
 21
389.9025040612559
 31
0.0
  0
LINE
  5
4E9
102
{ACAD_REACTORS
330
10C1
102
}
330
18
100
AcDbEntity
  8
外形線
  6
Continuous
100
AcDbLine
 10
457.5502948516365
 20
395.9025040612559
 30
0.0
 11
465.5502948516364
 21
395.9025040612559
 31
0.0
  0
HATCH
  5
4EA
102
{ACAD_REACTORS
330
10C1
102
}
330
18
100
AcDbEntity
  8
寸法線
  6
Continuous
100
AcDbHatch
 10
0.0
 20
0.0
 30
0.0
210
0.0
220
0.0
230
1.0
  2
ANSI37
 70
     0
 71
     0
 91
        1
 92
        7
 72
     0
 73
     1
 93
        4
 10
461.5502948516365
 20
395.9025040612559
 10
457.5502948516365
 20
395.9025040612559
 10
457.5502948516365
 20
389.9025040612559
 10
461.5502948516365
 20
389.9025040612559
 97
        0
 75
     0
 76
     1
 52
0.0
 41
10.0
 77
     0
 78
     2
 53
45.0
 43
269.0772907151783
 44
240.7835658274566
 45
-0.8838834764831842
 46
0.8838834764831844
 79
     0
 53
135.0
 43
269.0772907151783
 44
240.7835658274566
 45
-0.8838834764831844
 46
-0.8838834764831842
 79
     0
 47
0.1856754751158765
 98
        1
 10
459.8034470686804
 20
393.6785501054424
  0
LINE
  5
4EB
102
{ACAD_REACTORS
330
10C1
102
}
330
18
100
AcDbEntity
  8
外形線
  6
Continuous
100
AcDbLine
 10
457.5502948516365
 20
395.9025040612559
 30
0.0
 11
457.5502948516365
 21
389.9025040612559
 31
0.0
  0
LINE
  5
4EC
102
{ACAD_REACTORS
330
10C1
102
}
330
18
100
AcDbEntity
  8
外形線
  6
Continuous
100
AcDbLine
 10
465.5502948516364
 20
395.9025040612559
 30
0.0
 11
465.5502948516364
 21
389.9025040612559
 31
0.0
  0
ARC
  5
4ED
102
{ACAD_REACTORS
330
10C1
102
}
330
18
100
AcDbEntity
  8
外形線
  6
Continuous
100
AcDbCircle
 10
461.5502948516364
 20
396.0575040612561
 30
0.0
 40
7.344999999999885
100
AcDbArc
 50
59.75198538337817
 51
120.2480146166212
  0
LINE
  5
4EE
102
{ACAD_REACTORS
330
10C1
102
}
330
18
100
AcDbEntity
  8
外形線
  6
Continuous
100
AcDbLine
 10
457.8502948516365
 20
402.4025040612559
 30
0.0
 11
465.2502948516364
 21
402.4025040612559
 31
0.0
  0
POINT
  5
4EF
102
{ACAD_REACTORS
330
10C1
102
}
330
18
100
AcDbEntity
  8
DEFPOINTS
  6
ByBlock
 62
     0
100
AcDbPoint
 10
461.5502948516364
 20
403.402504061256
 30
0.0
  0
LINE
  5
4F0
102
{ACAD_REACTORS
330
10C1
102
}
330
18
100
AcDbEntity
  8
目盛
100
AcDbLine
 10
477.2948782879963
 20
345.1362256305636
 30
0.0
 11
475.9257840761389
 21
346.5941628854064
 31
0.0
  0
LINE
  5
4F1
102
{ACAD_REACTORS
330
10C1
102
}
330
18
100
AcDbEntity
  8
目盛
100
AcDbLine
 10
476.2110466158563
 20
344.1806994774129
 30
0.0
 11
474.936198636359
 21
345.7217259629644
 31
0.0
  0
LINE
  5
4F2
102
{ACAD_REACTORS
330
10C1
102
}
330
18
100
AcDbEntity
  8
目盛
100
AcDbLine
 10
475.0693556543634
 20
343.2951131906323
 30
0.0
 11
473.3059998974858
 21
345.7221641737571
 31
0.0
  0
LINE
  5
4F3
102
{ACAD_REACTORS
330
10C1
102
}
330
18
100
AcDbEntity
  8
目盛
100
AcDbLine
 10
473.8743111361533
 20
342.4829617747097
 30
0.0
 11
472.8026575461954
 21
344.1716176257137
 31
0.0
  0
LINE
  5
4F4
102
{ACAD_REACTORS
330
10C1
102
}
330
18
100
AcDbEntity
  8
目盛
100
AcDbLine
 10
472.6306293559757
 20
341.7474504202472
 30
0.0
 11
471.6671220077724
 21
343.500063780335
 31
0.0
  0
LINE
  5
4F5
102
{ACAD_REACTORS
330
10C1
102
}
330
18
100
AcDbEntity
  8
目盛
100
AcDbLine
 10
471.343218557633
 20
341.0914818545376
 30
0.0
 11
470.4916599745029
 21
342.9011359594697
 31
0.0
  0
LINE
  5
4F6
102
{ACAD_REACTORS
330
10C1
102
}
330
18
100
AcDbEntity
  8
目盛
100
AcDbLine
 10
470.017159563384
 20
340.5176448858262
 30
0.0
 11
469.2809104580147
 21
342.3771978576028
 31
0.0
  0
TEXT
  5
4F7
102
{ACAD_REACTORS
330
10C1
102
}
330
18
100
AcDbEntity
  8
文字
100
AcDbText
 10
477.6418227035533
 20
366.5709142920362
 30
0.0
 40
2.0
  1
2
  7
STYLE3
100
AcDbText
  0
LINE
  5
4F8
102
{ACAD_REACTORS
330
10C1
102
}
330
18
100
AcDbEntity
  8
目盛
100
AcDbLine
 10
481.7053484926453
 20
350.8221695569166
 30
0.0
 11
479.9527351325576
 21
351.7856769051201
 31
0.0
  0
LINE
  5
4F9
102
{ACAD_REACTORS
330
10C1
102
}
330
18
100
AcDbEntity
  8
目盛
100
AcDbLine
 10
480.9698371381828
 20
349.5784877767392
 30
0.0
 11
479.2811812871788
 21
350.6501413666971
 31
0.0
  0
TEXT
  5
4FA
102
{ACAD_REACTORS
330
10C1
102
}
330
18
100
AcDbEntity
  8
文字
100
AcDbText
 10
477.7774963304188
 20
355.0752123852703
 30
0.0
 40
2.0
  1
3
  7
STYLE3
100
AcDbText
  0
TEXT
  5
4FB
102
{ACAD_REACTORS
330
10C1
102
}
330
18
100
AcDbEntity
  8
文字
100
AcDbText
 10
470.8372455827953
 20
345.9769896477246
 30
0.0
 40
2.0
  1
4
  7
STYLE3
100
AcDbText
  0
LINE
  5
4FC
102
{ACAD_REACTORS
330
10C1
102
}
330
18
100
AcDbEntity
  8
目盛
100
AcDbLine
 10
480.1576857222602
 20
348.3834432585291
 30
0.0
 11
477.7306347391355
 21
350.1467990154067
 31
0.0
  0
LINE
  5
4FD
102
{ACAD_REACTORS
330
10C1
102
}
330
18
100
AcDbEntity
  8
目盛
100
AcDbLine
 10
479.2720994354795
 20
347.2417522970362
 30
0.0
 11
477.7310729499279
 21
348.5166002765335
 31
0.0
  0
LINE
  5
4FE
102
{ACAD_REACTORS
330
10C1
102
}
330
18
100
AcDbEntity
  8
目盛
100
AcDbLine
 10
478.3165732823288
 20
346.1579206248962
 30
0.0
 11
476.858636027486
 21
347.5270148367536
 31
0.0
  0
LINE
  5
4FF
102
{ACAD_REACTORS
330
10C1
102
}
330
18
100
AcDbEntity
  8
目盛
100
AcDbLine
 10
483.8277075575949
 20
356.1826366564643
 30
0.0
 11
481.8905412353377
 21
356.6800164307941
 31
0.0
  0
LINE
  5
500
102
{ACAD_REACTORS
330
10C1
102
}
330
18
100
AcDbEntity
  8
目盛
100
AcDbLine
 10
483.4245947264249
 20
354.7951131906323
 30
0.0
 11
480.5714251775394
 21
355.7221641737571
 31
0.0
  0
LINE
  5
501
102
{ACAD_REACTORS
330
10C1
102
}
330
18
100
AcDbEntity
  8
目盛
100
AcDbLine
 10
482.9351540270661
 20
353.4356393495084
 30
0.0
 11
481.0756010552895
 21
354.1718884548779
 31
0.0
  0
LINE
  5
502
102
{ACAD_REACTORS
330
10C1
102
}
330
18
100
AcDbEntity
  8
目盛
100
AcDbLine
 10
482.3613170583548
 20
352.1095803552594
 30
0.0
 11
480.5516629534227
 21
352.9611389383895
 31
0.0
  0
LINE
  5
503
102
{ACAD_REACTORS
330
10C1
102
}
330
18
100
AcDbEntity
  8
目盛
100
AcDbLine
 10
481.5502948516364
 20
361.902504061256
 30
0.0
 11
484.5502948516364
 21
361.902504061256
 31
0.0
  0
LINE
  5
504
102
{ACAD_REACTORS
330
10C1
102
}
330
18
100
AcDbEntity
  8
目盛
100
AcDbLine
 10
484.1429016183962
 20
366.2122742967276
 30
0.0
 11
482.1783271169389
 21
365.8375116675562
 31
0.0
  0
LINE
  5
505
102
{ACAD_REACTORS
330
10C1
102
}
330
18
100
AcDbEntity
  8
目盛
100
AcDbLine
 10
484.3689329818694
 20
364.7851684332351
 30
0.0
 11
482.3847035792403
 21
364.5345019661065
 31
0.0
  0
LINE
  5
506
102
{ACAD_REACTORS
330
10C1
102
}
330
18
100
AcDbEntity
  8
目盛
100
AcDbLine
 10
484.5049096054865
 20
363.3466860104302
 30
0.0
 11
482.5088561486301
 21
363.2211049713716
 31
0.0
  0
LINE
  5
507
102
{ACAD_REACTORS
330
10C1
102
}
330
18
100
AcDbEntity
  8
目盛
100
AcDbLine
 10
484.5049096054865
 20
360.4583221120818
 30
0.0
 11
482.5088561486301
 21
360.5839031511404
 31
0.0
  0
LINE
  5
508
102
{ACAD_REACTORS
330
10C1
102
}
330
18
100
AcDbEntity
  8
目盛
100
AcDbLine
 10
484.3689329818694
 20
359.0198396892771
 30
0.0
 11
482.3847035792404
 21
359.2705061564057
 31
0.0
  0
LINE
  5
509
102
{ACAD_REACTORS
330
10C1
102
}
330
18
100
AcDbEntity
  8
目盛
100
AcDbLine
 10
484.1429016183962
 20
357.5927338257844
 30
0.0
 11
482.1783271169389
 21
357.9674964549558
 31
0.0
  0
LINE
  5
50A
102
{ACAD_REACTORS
330
10C1
102
}
330
18
100
AcDbEntity
  8
目盛
100
AcDbLine
 10
480.9698371381828
 20
374.2265203457729
 30
0.0
 11
479.2811812871788
 21
373.1548667558149
 31
0.0
  0
LINE
  5
50B
102
{ACAD_REACTORS
330
10C1
102
}
330
18
100
AcDbEntity
  8
目盛
100
AcDbLine
 10
481.7053484926453
 20
372.9828385655955
 30
0.0
 11
479.9527351325576
 21
372.019331217392
 31
0.0
  0
LINE
  5
50C
102
{ACAD_REACTORS
330
10C1
102
}
330
18
100
AcDbEntity
  8
目盛
100
AcDbLine
 10
477.2948782879963
 20
378.6687824919484
 30
0.0
 11
475.9257840761389
 21
377.2108452371056
 31
0.0
  0
LINE
  5
50D
102
{ACAD_REACTORS
330
439
330
10C1
102
}
330
18
100
AcDbEntity
  8
ROGO
 62
     4
100
AcDbLine
 10
468.2909440420571
 20
369.2155919174565
 30
0.0
 11
469.047011242057
 21
369.2155919174565
 31
0.0
  0
LINE
  5
50E
102
{ACAD_REACTORS
330
439
330
10C1
102
}
330
18
100
AcDbEntity
  8
ROGO
 62
     4
100
AcDbLine
 10
469.0222862715534
 20
371.2674707023625
 30
0.0
 11
469.7783534715534
 21
371.2674707023625
 31
0.0
  0
LINE
  5
50F
102
{ACAD_REACTORS
330
439
330
10C1
102
}
330
18
100
AcDbEntity
  8
ROGO
 62
     4
100
AcDbLine
 10
468.5354447262222
 20
370.2415313099095
 30
0.0
 11
469.7783534715534
 21
371.2674707023625
 31
0.0
  0
LINE
  5
510
102
{ACAD_REACTORS
330
439
330
10C1
102
}
330
18
100
AcDbEntity
  8
ROGO
 62
     4
100
AcDbLine
 10
468.5354447262222
 20
370.2415313099095
 30
0.0
 11
469.047011242057
 21
369.2155919174565
 31
0.0
  0
LINE
  5
511
102
{ACAD_REACTORS
330
439
330
10C1
102
}
330
18
100
AcDbEntity
  8
ROGO
 62
     4
100
AcDbLine
 10
468.6682731884745
 20
371.0434472935409
 30
0.0
 11
469.0222862715534
 21
371.2674707023625
 31
0.0
  0
LINE
  5
512
102
{ACAD_REACTORS
330
439
330
10C1
102
}
330
18
100
AcDbEntity
  8
ROGO
 62
     4
100
AcDbLine
 10
468.7799784953956
 20
371.2674707023625
 30
0.0
 11
468.6682731884745
 21
371.0434472935409
 31
0.0
  0
TEXT
  5
513
102
{ACAD_REACTORS
330
10C1
102
}
330
18
100
AcDbEntity
  8
文字
100
AcDbText
 10
470.9894921573802
 20
375.6630434095671
 30
0.0
 40
2.0
  1
1
  7
STYLE3
100
AcDbText
  0
LINE
  5
514
102
{ACAD_REACTORS
330
10C1
102
}
330
18
100
AcDbEntity
  8
目盛
100
AcDbLine
 10
478.3165732823288
 20
377.6470874976158
 30
0.0
 11
476.858636027486
 21
376.2779932857585
 31
0.0
  0
LINE
  5
515
102
{ACAD_REACTORS
330
10C1
102
}
330
18
100
AcDbEntity
  8
目盛
100
AcDbLine
 10
479.2720994354795
 20
376.5632558254758
 30
0.0
 11
477.7310729499279
 21
375.2884078459784
 31
0.0
  0
LINE
  5
516
102
{ACAD_REACTORS
330
10C1
102
}
330
18
100
AcDbEntity
  8
目盛
100
AcDbLine
 10
480.1576857222602
 20
375.4215648639828
 30
0.0
 11
477.7306347391354
 21
373.6582091071054
 31
0.0
  0
LINE
  5
517
102
{ACAD_REACTORS
330
10C1
102
}
330
18
100
AcDbEntity
  8
目盛
100
AcDbLine
 10
475.0693556543634
 20
380.5098949318797
 30
0.0
 11
473.3059998974859
 21
378.0828439487549
 31
0.0
  0
LINE
  5
518
102
{ACAD_REACTORS
330
10C1
102
}
330
18
100
AcDbEntity
  8
目盛
100
AcDbLine
 10
470.0171595633841
 20
383.2873632366857
 30
0.0
 11
469.2809104580147
 21
381.4278102649092
 31
0.0
  0
LINE
  5
519
102
{ACAD_REACTORS
330
10C1
102
}
330
18
100
AcDbEntity
  8
目盛
100
AcDbLine
 10
471.3432185576333
 20
382.7135262679744
 30
0.0
 11
470.4916599745031
 21
380.9038721630424
 31
0.0
  0
LINE
  5
51A
102
{ACAD_REACTORS
330
10C1
102
}
330
18
100
AcDbEntity
  8
目盛
100
AcDbLine
 10
472.630629355976
 20
382.0575577022648
 30
0.0
 11
471.6671220077725
 21
380.304944342177
 31
0.0
  0
LINE
  5
51B
102
{ACAD_REACTORS
330
10C1
102
}
330
18
100
AcDbEntity
  8
目盛
100
AcDbLine
 10
473.8743111361535
 20
381.3220463478023
 30
0.0
 11
472.8026575461954
 21
379.6333904967982
 31
0.0
  0
LINE
  5
51C
102
{ACAD_REACTORS
330
10C1
102
}
330
18
100
AcDbEntity
  8
目盛
100
AcDbLine
 10
476.2110466158563
 20
379.6243086450991
 30
0.0
 11
474.9361986363589
 21
378.0832821595475
 31
0.0
  0
LINE
  5
51D
102
{ACAD_REACTORS
330
10C1
102
}
330
18
100
AcDbEntity
  8
目盛
100
AcDbLine
 10
482.3613170583548
 20
371.6954277672527
 30
0.0
 11
480.5516629534229
 21
370.8438691841225
 31
0.0
  0
LINE
  5
51E
102
{ACAD_REACTORS
330
10C1
102
}
330
18
100
AcDbEntity
  8
目盛
100
AcDbLine
 10
482.9351540270661
 20
370.3693687730036
 30
0.0
 11
481.0756010552895
 21
369.6331196676342
 31
0.0
  0
LINE
  5
51F
102
{ACAD_REACTORS
330
10C1
102
}
330
18
100
AcDbEntity
  8
目盛
100
AcDbLine
 10
483.4245947264249
 20
369.0098949318798
 30
0.0
 11
480.5714251775394
 21
368.082843948755
 31
0.0
  0
LINE
  5
520
102
{ACAD_REACTORS
330
10C1
102
}
330
18
100
AcDbEntity
  8
目盛
100
AcDbLine
 10
483.827707557595
 20
367.6223714660476
 30
0.0
 11
481.8905412353377
 21
367.1249916917179
 31
0.0
  0
CIRCLE
  5
521
102
{ACAD_REACTORS
330
10C1
102
}
330
18
100
AcDbEntity
  8
外形線
100
AcDbCircle
 10
461.5502948516364
 20
361.902504061256
 30
0.0
 40
26.4
  0
LINE
  5
523
102
{ACAD_REACTORS
330
10C1
102
}
330
18
100
AcDbEntity
  8
中心線
100
AcDbLine
 10
461.5502948516366
 20
299.1434747534686
 30
0.0
 11
461.5502948516364
 21
407.7700869453734
 31
0.0
  0
TEXT
  5
C1E
102
{ACAD_REACTORS
330
10CD
102
}
330
18
100
AcDbEntity
  8
文字
100
AcDbText
 10
543.3256311834274
 20
312.4716515717917
 30
0.0
 40
3.0
  1
LA-1
  7
STYLE3
100
AcDbText
  0
MTEXT
  5
C1F
330
18
100
AcDbEntity
  8
DEFPOINTS
  6
Continuous
100
AcDbMText
 10
926.9602912546167
 20
262.1473459985115
 30
0.0
 40
0.5
 41
0.0
 71
     4
 72
     1
  1
\A1;
 73
     1
 44
1.0
  0
LINE
  5
C20
102
{ACAD_REACTORS
330
C5E
330
10CD
102
}
330
18
100
AcDbEntity
  8
ROGO
 62
     4
100
AcDbLine
 10
517.4780914910797
 20
315.4743503517167
 30
0.0
 11
519.7816605096299
 21
315.4743503517167
 31
0.0
  0
LINE
  5
C21
102
{ACAD_REACTORS
330
C5D
330
C5E
330
10CD
102
}
330
18
100
AcDbEntity
  8
ROGO
 62
     4
100
AcDbLine
 10
516.0277335766616
 20
312.5430949447082
 30
0.0
 11
535.8694153866956
 21
312.5430949447082
 31
0.0
  0
LINE
  5
C22
102
{ACAD_REACTORS
330
C5E
330
10CD
102
}
330
18
100
AcDbEntity
  8
ROGO
 62
     4
100
AcDbLine
 10
517.4780914910797
 20
315.4743503517167
 30
0.0
 11
516.0277335766616
 21
312.5430949447081
 31
0.0
  0
SPLINE
  5
C23
102
{ACAD_REACTORS
330
C5E
330
10CD
102
}
330
18
100
AcDbEntity
  8
ROGO
 62
     4
100
AcDbSpline
210
0.0
220
0.0
230
1.0
 70
     8
 71
     3
 72
    18
 73
    14
 74
     0
 42
0.0000000001
 43
0.0000000001
 40
0.1087402787915014
 40
0.1087402787915014
 40
0.1087402787915014
 40
0.1087402787915014
 40
0.5992371417938475
 40
1.083176791562496
 40
1.448211145705696
 40
1.714037220764907
 40
2.164002567013297
 40
2.740236056362883
 40
3.395137510199602
 40
4.071816045172726
 40
4.784906178399433
 40
5.506895915094292
 40
6.060470601257719
 40
6.060470601257719
 40
6.060470601257719
 40
6.060470601257719
 10
519.7816605096299
 20
315.4743503517168
 30
0.0
 10
519.85545984911
 20
315.4473041305057
 30
0.0
 10
520.0005854888965
 20
315.3901242857697
 30
0.0
 10
520.1777072539639
 20
315.2596209860677
 30
0.0
 10
520.2743018167135
 20
315.1089655901066
 30
0.0
 10
520.3672149717751
 20
314.9605216725311
 30
0.0
 10
520.3802179982192
 20
314.7475537665933
 30
0.0
 10
520.3589181624376
 20
314.4783107157766
 30
0.0
 10
520.2214083469002
 20
314.1973833764613
 30
0.0
 10
520.0006970053554
 20
313.9516733324586
 30
0.0
 10
519.7266684723655
 20
313.7550102176847
 30
0.0
 10
519.4376959322122
 20
313.6006347369771
 30
0.0
 10
519.2311382792785
 20
313.5990965646791
 30
0.0
 10
519.1414955408576
 20
313.5984290223488
 30
0.0
  0
LINE
  5
C24
102
{ACAD_REACTORS
330
C5E
330
10CD
102
}
330
18
100
AcDbEntity
  8
ROGO
 62
     4
100
AcDbLine
 10
519.1414955412991
 20
313.5984290223489
 30
0.0
 11
517.8677694434687
 21
313.5984290223489
 31
0.0
  0
LINE
  5
C25
102
{ACAD_REACTORS
330
C5E
330
10CD
102
}
330
18
100
AcDbEntity
  8
ROGO
 62
     4
100
AcDbLine
 10
518.3882869987082
 20
314.7489261928405
 30
0.0
 11
518.1625758610546
 21
314.2500380715757
 31
0.0
  0
SPLINE
  5
C26
102
{ACAD_REACTORS
330
C5E
330
10CD
102
}
330
18
100
AcDbEntity
  8
ROGO
 62
     4
100
AcDbSpline
210
0.0
220
0.0
230
1.0
 70
     8
 71
     3
 72
    15
 73
    11
 74
     9
 42
0.0000000001
 43
0.0000000001
 44
0.0000000001
 40
0.0
 40
0.0
 40
0.0
 40
0.0
 40
0.2199578613106558
 40
0.3202465475123651
 40
0.4340808827708152
 40
0.5116301246390283
 40
0.634275054953107
 40
0.7077360179240892
 40
0.8337709579493377
 40
0.875782631437913
 40
0.875782631437913
 40
0.875782631437913
 40
0.875782631437913
 10
518.9682684259902
 20
314.7489261928404
 30
0.0
 10
519.0508803332176
 20
314.7493045994725
 30
0.0
 10
519.1711587261577
 20
314.749855538715
 30
0.0
 10
519.2369312352499
 20
314.6010708188157
 30
0.0
 10
519.2074488606308
 20
314.5052766693337
 30
0.0
 10
519.1703871128821
 20
314.4069259346939
 30
0.0
 10
519.1048906106787
 20
314.3400951271664
 30
0.0
 10
519.016984711257
 20
314.2757257933991
 30
0.0
 10
518.9339094354632
 20
314.2679335973143
 30
0.0
 10
518.8798782940738
 20
314.253617178094
 30
0.0
 10
518.8663705022604
 20
314.2500380715756
 30
0.0
 11
518.9682684259902
 21
314.7489261928404
 31
0.0
 11
519.1822542416027
 21
314.698019106212
 31
0.0
 11
519.2230135282812
 21
314.6063866822043
 31
0.0
 11
519.2026341779087
 21
314.4943914235452
 31
0.0
 11
519.1720648593832
 21
314.4231215022655
 31
0.0
 11
519.090546286026
 21
314.3314890782577
 31
0.0
 11
519.0294076489748
 21
314.290763408955
 31
0.0
 11
518.907129788939
 21
314.2602194889013
 31
0.0
 11
518.8663705022604
 21
314.2500380715756
 31
0.0
  0
LINE
  5
C27
102
{ACAD_REACTORS
330
C5E
330
10CD
102
}
330
18
100
AcDbEntity
  8
ROGO
 62
     4
100
AcDbLine
 10
518.9682684259902
 20
314.7489261928405
 30
0.0
 11
518.3882869987082
 21
314.7489261928405
 31
0.0
  0
LINE
  5
C28
102
{ACAD_REACTORS
330
C5E
330
10CD
102
}
330
18
100
AcDbEntity
  8
ROGO
 62
     4
100
AcDbLine
 10
518.8663705022605
 20
314.2500380715756
 30
0.0
 11
518.1625758610547
 21
314.2500380715757
 31
0.0
  0
LINE
  5
C29
102
{ACAD_REACTORS
330
C5E
330
10CD
102
}
330
18
100
AcDbEntity
  8
ROGO
 62
     4
100
AcDbLine
 10
517.8677694434687
 20
313.5984290223489
 30
0.0
 11
517.3903063708567
 21
312.5430949447082
 31
0.0
  0
LINE
  5
C2A
102
{ACAD_REACTORS
330
C59
330
10CD
102
}
330
18
100
AcDbEntity
  8
ROGO
 62
     4
100
AcDbLine
 10
521.1425519284951
 20
315.4743503517167
 30
0.0
 11
520.2143635009807
 21
313.5984290223489
 31
0.0
  0
LINE
  5
C2B
102
{ACAD_REACTORS
330
C59
330
10CD
102
}
330
18
100
AcDbEntity
  8
ROGO
 62
     4
100
AcDbLine
 10
523.6798135691865
 20
315.4743503517167
 30
0.0
 11
523.4671932895657
 21
315.0446327364423
 31
0.0
  0
LINE
  5
C2C
102
{ACAD_REACTORS
330
C59
330
10CD
102
}
330
18
100
AcDbEntity
  8
ROGO
 62
     4
100
AcDbLine
 10
520.2143635009806
 20
313.5984290223489
 30
0.0
 11
522.751625141672
 21
313.5984290223489
 31
0.0
  0
LINE
  5
C2D
102
{ACAD_REACTORS
330
C59
330
10CD
102
}
330
18
100
AcDbEntity
  8
ROGO
 62
     4
100
AcDbLine
 10
522.1336726863971
 20
315.0446327364423
 30
0.0
 11
521.9674300491448
 21
314.7086469604649
 31
0.0
  0
LINE
  5
C2E
102
{ACAD_REACTORS
330
C59
330
10CD
102
}
330
18
100
AcDbEntity
  8
ROGO
 62
     4
100
AcDbLine
 10
522.1336726863971
 20
315.0446327364423
 30
0.0
 11
523.4671932895657
 21
315.0446327364423
 31
0.0
  0
LINE
  5
C2F
102
{ACAD_REACTORS
330
C59
330
10CD
102
}
330
18
100
AcDbEntity
  8
ROGO
 62
     4
100
AcDbLine
 10
521.9674300491448
 20
314.7086469604649
 30
0.0
 11
523.3009506523135
 21
314.7086469604649
 31
0.0
  0
LINE
  5
C30
102
{ACAD_REACTORS
330
C59
330
10CD
102
}
330
18
100
AcDbEntity
  8
ROGO
 62
     4
100
AcDbLine
 10
521.6307141230875
 20
314.0281250223489
 30
0.0
 11
522.9642347262561
 21
314.0281250223489
 31
0.0
  0
LINE
  5
C31
102
{ACAD_REACTORS
330
C59
330
10CD
102
}
330
18
100
AcDbEntity
  8
ROGO
 62
     4
100
AcDbLine
 10
521.7969637982538
 20
314.3641250223489
 30
0.0
 11
523.1304844014223
 21
314.364125022349
 31
0.0
  0
LINE
  5
C32
102
{ACAD_REACTORS
330
C59
330
10CD
102
}
330
18
100
AcDbEntity
  8
ROGO
 62
     4
100
AcDbLine
 10
523.3009506523135
 20
314.7086469604649
 30
0.0
 11
523.1304844014223
 21
314.3641250223489
 31
0.0
  0
LINE
  5
C33
102
{ACAD_REACTORS
330
C59
330
10CD
102
}
330
18
100
AcDbEntity
  8
ROGO
 62
     4
100
AcDbLine
 10
522.9642347262561
 20
314.0281250223489
 30
0.0
 11
522.751625141672
 21
313.5984290223489
 31
0.0
  0
LINE
  5
C34
102
{ACAD_REACTORS
330
C59
330
10CD
102
}
330
18
100
AcDbEntity
  8
ROGO
 62
     4
100
AcDbLine
 10
521.7969637982538
 20
314.3641250223489
 30
0.0
 11
521.6307141230875
 21
314.0281250223489
 31
0.0
  0
LINE
  5
C35
102
{ACAD_REACTORS
330
C62
330
10CD
102
}
330
18
100
AcDbEntity
  8
ROGO
 62
     4
100
AcDbLine
 10
524.4148053766117
 20
315.4743503517167
 30
0.0
 11
523.0620420478986
 21
313.5984290223489
 31
0.0
  0
LINE
  5
C36
102
{ACAD_REACTORS
330
C62
330
10CD
102
}
330
18
100
AcDbEntity
  8
ROGO
 62
     4
100
AcDbLine
 10
525.0921308860855
 20
314.9729089560713
 30
0.0
 11
524.630178405638
 21
314.3323042820444
 31
0.0
  0
LINE
  5
C37
102
{ACAD_REACTORS
330
C62
330
10CD
102
}
330
18
100
AcDbEntity
  8
ROGO
 62
     4
100
AcDbLine
 10
524.358524461145
 20
313.9555928367643
 30
0.0
 11
525.5440630165512
 21
313.9555928367643
 31
0.0
  0
LINE
  5
C38
102
{ACAD_REACTORS
330
C62
330
10CD
102
}
330
18
100
AcDbEntity
  8
ROGO
 62
     4
100
AcDbLine
 10
524.6301784056381
 20
314.3323042820444
 30
0.0
 11
525.3767128656932
 21
314.3323042820444
 31
0.0
  0
LINE
  5
C39
102
{ACAD_REACTORS
330
C62
330
10CD
102
}
330
18
100
AcDbEntity
  8
ROGO
 62
     4
100
AcDbLine
 10
524.358524461145
 20
313.9555928367643
 30
0.0
 11
524.1009666931724
 21
313.598429022349
 31
0.0
  0
LINE
  5
C3A
102
{ACAD_REACTORS
330
C62
330
10CD
102
}
330
18
100
AcDbEntity
  8
ROGO
 62
     4
100
AcDbLine
 10
523.0620420478986
 20
313.5984290223489
 30
0.0
 11
524.1009666931724
 21
313.5984290223489
 31
0.0
  0
LINE
  5
C3B
102
{ACAD_REACTORS
330
C62
330
10CD
102
}
330
18
100
AcDbEntity
  8
ROGO
 62
     4
100
AcDbLine
 10
524.4148053766117
 20
315.4743503517167
 30
0.0
 11
525.9153817805708
 21
315.4743503517167
 31
0.0
  0
LINE
  5
C3C
102
{ACAD_REACTORS
330
C62
330
10CD
102
}
330
18
100
AcDbEntity
  8
ROGO
 62
     4
100
AcDbLine
 10
526.7487403668329
 20
313.598429022349
 30
0.0
 11
525.7027293352211
 21
313.5984290223489
 31
0.0
  0
LINE
  5
C3D
102
{ACAD_REACTORS
330
C5A
330
10CD
102
}
330
18
100
AcDbEntity
  8
ROGO
 62
     4
100
AcDbLine
 10
527.2624823882696
 20
313.5984290223489
 30
0.0
 11
528.8782381239904
 21
313.5984290223489
 31
0.0
  0
LINE
  5
C3E
102
{ACAD_REACTORS
330
C5A
330
10CD
102
}
330
18
100
AcDbEntity
  8
ROGO
 62
     4
100
AcDbLine
 10
529.8136330854322
 20
315.4743503517167
 30
0.0
 11
529.4656055132313
 21
314.7763859914069
 31
0.0
  0
LINE
  5
C3F
102
{ACAD_REACTORS
330
C5A
330
10CD
102
}
330
18
100
AcDbEntity
  8
ROGO
 62
     4
100
AcDbLine
 10
528.2916527655868
 20
314.7763859914069
 30
0.0
 11
529.4656055132313
 21
314.776385991407
 31
0.0
  0
LINE
  5
C40
102
{ACAD_REACTORS
330
C5A
330
10CD
102
}
330
18
100
AcDbEntity
  8
ROGO
 62
     4
100
AcDbLine
 10
528.0267176951428
 20
314.2963859914069
 30
0.0
 11
529.2262620106746
 21
314.2963859914069
 31
0.0
  0
SPLINE
  5
C41
102
{ACAD_REACTORS
330
C5A
330
10CD
102
}
330
18
100
AcDbEntity
  8
ROGO
 62
     4
100
AcDbSpline
210
0.0
220
0.0
230
1.0
 70
     8
 71
     3
 72
    26
 73
    22
 74
    20
 42
0.0000000001
 43
0.0000000001
 44
0.0000000001
 40
0.0
 40
0.0
 40
0.0
 40
0.0
 40
0.3403136209417982
 40
0.5681272389515159
 40
0.7323994099697078
 40
0.8550561247337057
 40
1.014148321321447
 40
1.13027011535643
 40
1.339959009791999
 40
1.510642755247373
 40
1.626735051276186
 40
1.740569491433665
 40
1.944197174100541
 40
2.088186249714737
 40
2.16573549158295
 40
2.275891898886404
 40
2.355438312276705
 40
2.470674802865115
 40
2.535888688806235
 40
2.677801419664453
 40
2.742600005358966
 40
2.742600005358966
 40
2.742600005358966
 40
2.742600005358966
 10
527.9350097395662
 20
315.4743503517167
 30
0.0
 10
527.8195020384824
 20
315.4674589641952
 30
0.0
 10
527.6266708755311
 20
315.4559543263427
 30
0.0
 10
527.414943431657
 20
315.3273321779736
 30
0.0
 10
527.259819511071
 20
315.2525569131987
 30
0.0
 10
527.1491853190365
 20
315.1509063111708
 30
0.0
 10
527.068090007797
 20
315.0459086647117
 30
0.0
 10
526.9658541439435
 20
314.9208047388181
 30
0.0
 10
526.8824837183636
 20
314.7751262795833
 30
0.0
 10
526.8400282290305
 20
314.6145632209212
 30
0.0
 10
526.8024215595253
 20
314.4865935315514
 30
0.0
 10
526.7745318238496
 20
314.3439880131337
 30
0.0
 10
526.7816277621537
 20
314.1899238872448
 30
0.0
 10
526.7917894705601
 20
314.0468370143819
 30
0.0
 10
526.8371590275945
 20
313.9446944102012
 30
0.0
 10
526.888826916723
 20
313.8719759145877
 30
0.0
 10
526.9520935393728
 20
313.7918845535896
 30
0.0
 10
527.0213210598265
 20
313.7388403045465
 30
0.0
 10
527.0785778699843
 20
313.642747082917
 30
0.0
 10
527.178803984645
 20
313.6304848948082
 30
0.0
 10
527.2425116904677
 20
313.6060794806982
 30
0.0
 10
527.2624823882697
 20
313.5984290223488
 30
0.0
 11
527.9350097395662
 21
315.4743503517167
 31
0.0
 11
527.5987460639178
 21
315.4220043772971
 31
0.0
 11
527.394949630525
 21
315.3201905359637
 31
0.0
 11
527.2522924201166
 21
315.2387395292816
 31
0.0
 11
527.1605844645399
 21
315.1572881906762
 31
0.0
 11
527.0586865408102
 21
315.0351115146914
 31
0.0
 11
526.987357935606
 21
314.9434790906836
 31
0.0
 11
526.8854594259428
 21
314.7602139107448
 31
0.0
 11
526.8345107570446
 21
314.5973115654572
 31
0.0
 11
526.8039414385191
 21
314.4853163067981
 31
0.0
 11
526.783561502213
 21
314.373321048139
 31
0.0
 11
526.783561502213
 21
314.1696933654721
 31
0.0
 11
526.8039414385191
 21
314.0271538548359
 31
0.0
 11
526.8345107570446
 21
313.9558839335562
 31
0.0
 11
526.8956493940956
 21
313.8642515095484
 31
0.0
 11
526.9465986489274
 21
313.8031630055943
 31
0.0
 11
527.0281166363511
 21
313.7217119989122
 31
0.0
 11
527.0688759230297
 21
313.6708049122838
 31
0.0
 11
527.2013437512184
 21
313.6198981575788
 31
0.0
 11
527.2624823882697
 21
313.5984290223488
 31
0.0
  0
SPLINE
  5
C42
102
{ACAD_REACTORS
330
C5A
330
10CD
102
}
330
18
100
AcDbEntity
  8
ROGO
 62
     4
100
AcDbSpline
210
0.0
220
0.0
230
1.0
 70
     8
 71
     3
 72
    16
 73
    12
 74
    10
 42
0.0000000001
 43
0.0000000001
 44
0.0000000001
 40
0.0
 40
0.0
 40
0.0
 40
0.0
 40
0.1794152893756658
 40
0.2670467197814556
 40
0.3102605435414121
 40
0.3558008766977565
 40
0.4210145035340276
 40
0.4803947587045229
 40
0.5423269814405317
 40
0.646160827944346
 40
0.7489346372632694
 40
0.7489346372632694
 40
0.7489346372632694
 40
0.7489346372632694
 10
528.2916527655869
 20
314.7763859914069
 30
0.0
 10
528.230894611842
 20
314.7671230009726
 30
0.0
 10
528.1404604815399
 20
314.7533357077075
 30
0.0
 10
528.0586808366957
 20
314.6885998405995
 30
0.0
 10
528.0125627950899
 20
314.6500863087188
 30
0.0
 10
527.9968732318734
 20
314.5990834598872
 30
0.0
 10
527.9547359920723
 20
314.5599211012647
 30
0.0
 10
527.920002920819
 20
314.5060994145274
 30
0.0
 10
527.9117094507309
 20
314.4321744560142
 30
0.0
 10
527.9177970476562
 20
314.328432042961
 30
0.0
 10
527.9905352113261
 20
314.3070314086763
 30
0.0
 10
528.026717695143
 20
314.2963859914069
 30
0.0
 11
528.2916527655869
 21
314.7763859914069
 31
0.0
 11
528.1184262366529
 21
314.7296696587677
 31
0.0
 11
528.0470976314489
 21
314.6787629040627
 31
0.0
 11
528.0165283129234
 21
314.6482186520856
 31
0.0
 11
527.9961483766173
 21
314.6074929827828
 31
0.0
 11
527.9553890899387
 21
314.5565862280779
 31
0.0
 11
527.9248197714131
 21
314.5056791414495
 31
0.0
 11
527.9146298032601
 21
314.4445909694187
 31
0.0
 11
527.9350097395661
 21
314.342776796162
 31
0.0
 11
528.026717695143
 21
314.2963859914069
 31
0.0
  0
LINE
  5
C43
102
{ACAD_REACTORS
330
C5A
330
10CD
102
}
330
18
100
AcDbEntity
  8
ROGO
 62
     4
100
AcDbLine
 10
529.2262620106745
 20
314.2963859914069
 30
0.0
 11
528.8782381239904
 21
313.5984290223488
 31
0.0
  0
LINE
  5
C44
102
{ACAD_REACTORS
330
C5A
330
10CD
102
}
330
18
100
AcDbEntity
  8
ROGO
 62
     4
100
AcDbLine
 10
527.9350097395668
 20
315.4743503517168
 30
0.0
 11
529.8136330854323
 21
315.4743503517168
 31
0.0
  0
LINE
  5
C45
102
{ACAD_REACTORS
330
C5B
330
10CD
102
}
330
18
100
AcDbEntity
  8
ROGO
 62
     4
100
AcDbLine
 10
533.3068677753094
 20
313.5984290223488
 30
0.0
 11
534.9226235110303
 21
313.5984290223488
 31
0.0
  0
LINE
  5
C46
102
{ACAD_REACTORS
330
C5B
330
10CD
102
}
330
18
100
AcDbEntity
  8
ROGO
 62
     4
100
AcDbLine
 10
533.9793951266065
 20
315.4743503517167
 30
0.0
 11
535.8580184724721
 21
315.4743503517167
 31
0.0
  0
SPLINE
  5
C47
102
{ACAD_REACTORS
330
C5B
330
10CD
102
}
330
18
100
AcDbEntity
  8
ROGO
 62
     4
100
AcDbSpline
210
0.0
220
0.0
230
1.0
 70
     8
 71
     3
 72
    16
 73
    12
 74
    10
 42
0.0000000001
 43
0.0000000001
 44
0.0000000001
 40
0.0
 40
0.0
 40
0.0
 40
0.0
 40
0.1794152893756658
 40
0.2670467197815217
 40
0.3102605435413978
 40
0.3558008766977931
 40
0.4210145035340376
 40
0.4803947587045328
 40
0.5423269814405045
 40
0.6461608279444525
 40
0.7489346372632488
 40
0.7489346372632488
 40
0.7489346372632488
 40
0.7489346372632488
 10
534.3360381526268
 20
314.7763859914069
 30
0.0
 10
534.2752799988818
 20
314.7671230009727
 30
0.0
 10
534.1848458685797
 20
314.7533357077076
 30
0.0
 10
534.1030662237356
 20
314.6885998405994
 30
0.0
 10
534.0569481821294
 20
314.6500863087187
 30
0.0
 10
534.0412586189131
 20
314.5990834598872
 30
0.0
 10
533.9991213791122
 20
314.5599211012647
 30
0.0
 10
533.9643883078589
 20
314.5060994145273
 30
0.0
 10
533.9560948377707
 20
314.4321744560144
 30
0.0
 10
533.962182434696
 20
314.328432042961
 30
0.0
 10
534.0349205983659
 20
314.3070314086762
 30
0.0
 10
534.0711030821827
 20
314.2963859914069
 30
0.0
 11
534.3360381526268
 21
314.7763859914069
 31
0.0
 11
534.1628116236928
 21
314.7296696587677
 31
0.0
 11
534.0914830184886
 21
314.6787629040626
 31
0.0
 11
534.0609136999631
 21
314.6482186520856
 31
0.0
 11
534.040533763657
 21
314.6074929827828
 31
0.0
 11
533.9997744769785
 21
314.5565862280778
 31
0.0
 11
533.9692051584529
 21
314.5056791414494
 31
0.0
 11
533.9590151902998
 21
314.4445909694187
 31
0.0
 11
533.9793951266059
 21
314.3427767961619
 31
0.0
 11
534.0711030821827
 21
314.2963859914069
 31
0.0
  0
SPLINE
  5
C48
102
{ACAD_REACTORS
330
C5B
330
10CD
102
}
330
18
100
AcDbEntity
  8
ROGO
 62
     4
100
AcDbSpline
210
0.0
220
0.0
230
1.0
 70
     8
 71
     3
 72
    26
 73
    22
 74
    20
 42
0.0000000001
 43
0.0000000001
 44
0.0000000001
 40
0.0
 40
0.0
 40
0.0
 40
0.0
 40
0.3403136209416859
 40
0.5681272389515052
 40
0.7323994099695983
 40
0.8550561247335963
 40
1.014148321321381
 40
1.13027011535639
 40
1.339959009792003
 40
1.510642755247356
 40
1.626735051276114
 40
1.740569491433573
 40
1.94419717410045
 40
2.088186249714629
 40
2.165735491582895
 40
2.275891898886364
 40
2.355438312276665
 40
2.470674802864995
 40
2.535888688806186
 40
2.677801419664424
 40
2.74260000535881
 40
2.74260000535881
 40
2.74260000535881
 40
2.74260000535881
 10
533.9793951266059
 20
315.4743503517167
 30
0.0
 10
533.863887425522
 20
315.4674589641952
 30
0.0
 10
533.6710562625706
 20
315.4559543263427
 30
0.0
 10
533.459328818697
 20
315.3273321779737
 30
0.0
 10
533.3042048981107
 20
315.2525569131987
 30
0.0
 10
533.1935707060764
 20
315.1509063111707
 30
0.0
 10
533.1124753948367
 20
315.0459086647116
 30
0.0
 10
533.0102395309834
 20
314.9208047388183
 30
0.0
 10
532.9268691054034
 20
314.775126279583
 30
0.0
 10
532.8844136160704
 20
314.6145632209213
 30
0.0
 10
532.8468069465648
 20
314.4865935315514
 30
0.0
 10
532.8189172108896
 20
314.3439880131336
 30
0.0
 10
532.8260131491936
 20
314.1899238872447
 30
0.0
 10
532.8361748575998
 20
314.0468370143821
 30
0.0
 10
532.8815444146341
 20
313.9446944102011
 30
0.0
 10
532.9332123037628
 20
313.8719759145878
 30
0.0
 10
532.9964789264127
 20
313.7918845535896
 30
0.0
 10
533.0657064468661
 20
313.7388403045463
 30
0.0
 10
533.1229632570242
 20
313.642747082917
 30
0.0
 10
533.2231893716847
 20
313.6304848948082
 30
0.0
 10
533.2868970775073
 20
313.6060794806981
 30
0.0
 10
533.3068677753094
 20
313.5984290223488
 30
0.0
 11
533.9793951266059
 21
315.4743503517167
 31
0.0
 11
533.6431314509576
 21
315.4220043772971
 31
0.0
 11
533.4393350175647
 21
315.3201905359637
 31
0.0
 11
533.2966778071564
 21
315.2387395292816
 31
0.0
 11
533.2049698515796
 21
315.1572881906762
 31
0.0
 11
533.10307192785
 21
315.0351115146913
 31
0.0
 11
533.0317433226457
 21
314.9434790906836
 31
0.0
 11
532.9298448129826
 21
314.7602139107446
 31
0.0
 11
532.8788961440843
 21
314.5973115654572
 31
0.0
 11
532.8483268255588
 21
314.4853163067981
 31
0.0
 11
532.8279468892528
 21
314.373321048139
 31
0.0
 11
532.8279468892528
 21
314.1696933654721
 31
0.0
 11
532.8483268255588
 21
314.0271538548359
 31
0.0
 11
532.8788961440843
 21
313.9558839335562
 31
0.0
 11
532.9400347811355
 21
313.8642515095484
 31
0.0
 11
532.9909840359672
 21
313.8031630055943
 31
0.0
 11
533.0725020233908
 21
313.7217119989122
 31
0.0
 11
533.1132613100695
 21
313.6708049122838
 31
0.0
 11
533.2457291382582
 21
313.6198981575788
 31
0.0
 11
533.3068677753094
 21
313.5984290223488
 31
0.0
  0
LINE
  5
C49
102
{ACAD_REACTORS
330
C5B
330
10CD
102
}
330
18
100
AcDbEntity
  8
ROGO
 62
     4
100
AcDbLine
 10
535.2706473977143
 20
314.2963859914069
 30
0.0
 11
534.9226235110303
 21
313.5984290223488
 31
0.0
  0
LINE
  5
C4A
102
{ACAD_REACTORS
330
C5B
330
10CD
102
}
330
18
100
AcDbEntity
  8
ROGO
 62
     4
100
AcDbLine
 10
534.0711030821826
 20
314.2963859914069
 30
0.0
 11
535.2706473977143
 21
314.2963859914069
 31
0.0
  0
LINE
  5
C4B
102
{ACAD_REACTORS
330
C5B
330
10CD
102
}
330
18
100
AcDbEntity
  8
ROGO
 62
     4
100
AcDbLine
 10
534.3360381526266
 20
314.7763859914069
 30
0.0
 11
535.5099909002712
 21
314.7763859914069
 31
0.0
  0
LINE
  5
C4C
102
{ACAD_REACTORS
330
C5B
330
10CD
102
}
330
18
100
AcDbEntity
  8
ROGO
 62
     4
100
AcDbLine
 10
535.8580184724721
 20
315.4743503517167
 30
0.0
 11
535.5099909002712
 21
314.7763859914069
 31
0.0
  0
LINE
  5
C4D
102
{ACAD_REACTORS
330
C5D
330
10CD
102
}
330
18
100
AcDbEntity
  8
ROGO
 62
     4
100
AcDbLine
 10
536.2509143712181
 20
315.4743503517167
 30
0.0
 11
537.3310340033668
 21
315.4743503517167
 31
0.0
  0
LINE
  5
C4E
102
{ACAD_REACTORS
330
C5D
330
10CD
102
}
330
18
100
AcDbEntity
  8
ROGO
 62
     4
100
AcDbLine
 10
536.2509143712181
 20
315.4743503517167
 30
0.0
 11
534.7892957545468
 21
312.5430949447082
 31
0.0
  0
LINE
  5
C4F
102
{ACAD_REACTORS
330
C5D
330
10CD
102
}
330
18
100
AcDbEntity
  8
ROGO
 62
     4
100
AcDbLine
 10
537.3310340033668
 20
315.4743503517167
 30
0.0
 11
537.1714549934798
 21
315.154316910543
 31
0.0
  0
LINE
  5
C50
102
{ACAD_REACTORS
330
C5D
330
10CD
102
}
330
18
100
AcDbEntity
  8
ROGO
 62
     4
100
AcDbLine
 10
537.1714549934798
 20
315.154316910543
 30
0.0
 11
537.6771879693067
 21
315.4743503517167
 31
0.0
  0
LINE
  5
C51
102
{ACAD_REACTORS
330
C5D
330
10CD
102
}
330
18
100
AcDbEntity
  8
ROGO
 62
     4
100
AcDbLine
 10
536.2509143712181
 20
313.3081857477361
 30
0.0
 11
536.6324133557404
 21
312.5430949447082
 31
0.0
  0
LINE
  5
C52
102
{ACAD_REACTORS
330
C5D
330
10CD
102
}
330
18
100
AcDbEntity
  8
ROGO
 62
     4
100
AcDbLine
 10
536.9817000474048
 20
314.0087226482124
 30
0.0
 11
537.7125093557403
 21
312.5430949447082
 31
0.0
  0
LINE
  5
C53
102
{ACAD_REACTORS
330
C5D
330
10CD
102
}
330
18
100
AcDbEntity
  8
ROGO
 62
     4
100
AcDbLine
 10
536.2509143712181
 20
313.3081857477361
 30
0.0
 11
535.8694153866956
 21
312.5430949447082
 31
0.0
  0
LINE
  5
C54
102
{ACAD_REACTORS
330
C5D
330
10CD
102
}
330
18
100
AcDbEntity
  8
ROGO
 62
     4
100
AcDbLine
 10
536.9817000474048
 20
314.0087226482124
 30
0.0
 11
538.7572839693066
 21
315.4743503517167
 31
0.0
  0
LINE
  5
C55
102
{ACAD_REACTORS
330
C5D
330
10CD
102
}
330
18
100
AcDbEntity
  8
ROGO
 62
     4
100
AcDbLine
 10
537.6771879693067
 20
315.4743503517167
 30
0.0
 11
538.7572839693066
 21
315.4743503517167
 31
0.0
  0
LINE
  5
C56
102
{ACAD_REACTORS
330
C5D
330
10CD
102
}
330
18
100
AcDbEntity
  8
ROGO
 62
     4
100
AcDbLine
 10
536.6324133557404
 20
312.5430949447082
 30
0.0
 11
537.7125093557403
 21
312.5430949447082
 31
0.0
  0
LINE
  5
C57
102
{ACAD_REACTORS
330
C59
330
10CD
102
}
330
18
100
AcDbEntity
  8
ROGO
 62
     4
100
AcDbLine
 10
521.1425519284951
 20
315.4743503517167
 30
0.0
 11
523.6798135691865
 21
315.4743503517168
 31
0.0
  0
LINE
  5
C58
102
{ACAD_REACTORS
330
10CD
102
}
330
18
100
AcDbEntity
  8
ROGO
 62
     4
100
AcDbLine
 10
517.5028600687214
 20
312.8369095251243
 30
0.0
 11
534.9358011936698
 21
312.8369095251243
 31
0.0
  0
HATCH
  5
C59
102
{ACAD_REACTORS
330
10CD
102
}
330
18
100
AcDbEntity
  8
ROGO
 62
     4
100
AcDbHatch
 10
0.0
 20
0.0
 30
0.0
210
0.0
220
0.0
230
1.0
  2
SOLID
 70
     1
 71
     1
 91
        1
 92
        1
 93
       12
 72
     1
 10
521.1425519284951
 20
315.4743503517167
 11
523.6798135691865
 21
315.4743503517168
 72
     1
 10
523.6798135691865
 20
315.4743503517167
 11
523.4671932895657
 21
315.0446327364423
 72
     1
 10
523.4671932895657
 20
315.0446327364423
 11
522.1336726863971
 21
315.0446327364423
 72
     1
 10
522.1336726863971
 20
315.0446327364423
 11
521.9674300491448
 21
314.7086469604649
 72
     1
 10
521.9674300491448
 20
314.7086469604649
 11
523.3009506523135
 21
314.7086469604649
 72
     1
 10
523.3009506523135
 20
314.7086469604649
 11
523.1304844014223
 21
314.3641250223489
 72
     1
 10
523.1304844014223
 20
314.364125022349
 11
521.7969637982538
 21
314.3641250223489
 72
     1
 10
521.7969637982538
 20
314.3641250223489
 11
521.6307141230875
 21
314.0281250223489
 72
     1
 10
521.6307141230875
 20
314.0281250223489
 11
522.9642347262561
 21
314.0281250223489
 72
     1
 10
522.9642347262561
 20
314.0281250223489
 11
522.751625141672
 21
313.5984290223489
 72
     1
 10
522.751625141672
 20
313.5984290223489
 11
520.2143635009806
 21
313.5984290223489
 72
     1
 10
520.2143635009807
 20
313.5984290223489
 11
521.1425519284951
 21
315.4743503517167
 97
       12
330
C57
330
C2B
330
C2E
330
C2D
330
C2F
330
C32
330
C31
330
C34
330
C30
330
C33
330
C2C
330
C2A
 75
     0
 76
     1
 98
        1
 10
417.3566533874823
 20
185.7627845687005
450
        0
451
        0
460
0.0
461
0.0
452
        0
462
0.0
453
        0
470

  0
HATCH
  5
C5A
102
{ACAD_REACTORS
330
10CD
102
}
330
18
100
AcDbEntity
  8
ROGO
 62
     4
100
AcDbHatch
 10
0.0
 20
0.0
 30
0.0
210
0.0
220
0.0
230
1.0
  2
SOLID
 70
     1
 71
     1
 91
        1
 92
        5
 93
        8
 72
     1
 10
529.8136330854322
 20
315.4743503517168
 11
527.9350097395665
 21
315.4743503517168
 72
     4
 94
        3
 73
     0
 74
     0
 95
       26
 96
       22
 40
0.0
 40
0.0
 40
0.0
 40
0.0
 40
0.3403136209417982
 40
0.5681272389515159
 40
0.7323994099697078
 40
0.8550561247337057
 40
1.014148321321447
 40
1.13027011535643
 40
1.339959009791999
 40
1.510642755247373
 40
1.626735051276186
 40
1.740569491433665
 40
1.944197174100541
 40
2.088186249714737
 40
2.16573549158295
 40
2.275891898886404
 40
2.355438312276705
 40
2.470674802865115
 40
2.535888688806235
 40
2.677801419664453
 40
2.742600005358966
 40
2.742600005358966
 40
2.742600005358966
 40
2.742600005358966
 10
527.9350097395662
 20
315.4743503517167
 10
527.8195020384824
 20
315.4674589641952
 10
527.6266708755311
 20
315.4559543263427
 10
527.414943431657
 20
315.3273321779736
 10
527.259819511071
 20
315.2525569131987
 10
527.1491853190365
 20
315.1509063111708
 10
527.068090007797
 20
315.0459086647117
 10
526.9658541439435
 20
314.9208047388181
 10
526.8824837183636
 20
314.7751262795833
 10
526.8400282290305
 20
314.6145632209212
 10
526.8024215595253
 20
314.4865935315514
 10
526.7745318238496
 20
314.3439880131337
 10
526.7816277621537
 20
314.1899238872448
 10
526.7917894705601
 20
314.0468370143819
 10
526.8371590275945
 20
313.9446944102012
 10
526.888826916723
 20
313.8719759145877
 10
526.9520935393728
 20
313.7918845535896
 10
527.0213210598265
 20
313.7388403045465
 10
527.0785778699843
 20
313.642747082917
 10
527.178803984645
 20
313.6304848948082
 10
527.2425116904677
 20
313.6060794806982
 10
527.2624823882697
 20
313.5984290223488
 72
     1
 10
527.2624823882694
 20
313.5984290223489
 11
528.8782381239904
 21
313.5984290223489
 72
     1
 10
528.8782381239904
 20
313.5984290223489
 11
529.2262620106745
 21
314.2963859914069
 72
     1
 10
529.2262620106745
 20
314.2963859914069
 11
528.026717695143
 21
314.2963859914069
 72
     4
 94
        3
 73
     0
 74
     0
 95
       16
 96
       12
 40
0.0
 40
0.0
 40
0.0
 40
0.0
 40
0.1027738093189234
 40
0.2066076558227377
 40
0.2685398785587465
 40
0.3279201337292418
 40
0.3931337605655129
 40
0.4386740937218573
 40
0.4818879174818138
 40
0.5695193478876036
 40
0.7489346372632694
 40
0.7489346372632694
 40
0.7489346372632694
 40
0.7489346372632694
 10
528.026717695143
 20
314.2963859914069
 10
527.9905352113261
 20
314.3070314086763
 10
527.9177970476562
 20
314.328432042961
 10
527.9117094507309
 20
314.4321744560142
 10
527.920002920819
 20
314.5060994145274
 10
527.9547359920723
 20
314.5599211012647
 10
527.9968732318734
 20
314.5990834598872
 10
528.0125627950899
 20
314.6500863087188
 10
528.0586808366957
 20
314.6885998405995
 10
528.1404604815399
 20
314.7533357077075
 10
528.230894611842
 20
314.7671230009726
 10
528.2916527655869
 20
314.7763859914069
 72
     1
 10
528.2916527655869
 20
314.7763859914069
 11
529.4656055132313
 21
314.776385991407
 72
     1
 10
529.4656055132313
 20
314.776385991407
 11
529.8136330854322
 21
315.4743503517168
 97
        8
330
C44
330
C41
330
C3D
330
C43
330
C40
330
C42
330
C3F
330
C3E
 75
     0
 76
     1
 47
0.0514683685270805
 98
        1
 10
528.5920338784332
 20
315.0567482712211
450
        0
451
        0
460
0.0
461
0.0
452
        0
462
0.0
453
        0
470

  0
HATCH
  5
C5B
102
{ACAD_REACTORS
330
10CD
102
}
330
18
100
AcDbEntity
  8
ROGO
 62
     4
100
AcDbHatch
 10
0.0
 20
0.0
 30
0.0
210
0.0
220
0.0
230
1.0
  2
SOLID
 70
     1
 71
     1
 91
        1
 92
        5
 93
        8
 72
     1
 10
535.8580184724721
 20
315.4743503517167
 11
533.9793951266059
 21
315.4743503517167
 72
     4
 94
        3
 73
     0
 74
     0
 95
       26
 96
       22
 40
0.0
 40
0.0
 40
0.0
 40
0.0
 40
0.3403136209416859
 40
0.5681272389515052
 40
0.7323994099695983
 40
0.8550561247335963
 40
1.014148321321381
 40
1.13027011535639
 40
1.339959009792003
 40
1.510642755247356
 40
1.626735051276114
 40
1.740569491433573
 40
1.94419717410045
 40
2.088186249714629
 40
2.165735491582895
 40
2.275891898886364
 40
2.355438312276665
 40
2.470674802864995
 40
2.535888688806186
 40
2.677801419664424
 40
2.74260000535881
 40
2.74260000535881
 40
2.74260000535881
 40
2.74260000535881
 10
533.9793951266059
 20
315.4743503517167
 10
533.863887425522
 20
315.4674589641952
 10
533.6710562625706
 20
315.4559543263427
 10
533.459328818697
 20
315.3273321779737
 10
533.3042048981107
 20
315.2525569131987
 10
533.1935707060764
 20
315.1509063111707
 10
533.1124753948367
 20
315.0459086647116
 10
533.0102395309834
 20
314.9208047388183
 10
532.9268691054034
 20
314.775126279583
 10
532.8844136160704
 20
314.6145632209213
 10
532.8468069465648
 20
314.4865935315514
 10
532.8189172108896
 20
314.3439880131336
 10
532.8260131491936
 20
314.1899238872447
 10
532.8361748575998
 20
314.0468370143821
 10
532.8815444146341
 20
313.9446944102011
 10
532.9332123037628
 20
313.8719759145878
 10
532.9964789264127
 20
313.7918845535896
 10
533.0657064468661
 20
313.7388403045463
 10
533.1229632570242
 20
313.642747082917
 10
533.2231893716847
 20
313.6304848948082
 10
533.2868970775073
 20
313.6060794806981
 10
533.3068677753094
 20
313.5984290223488
 72
     1
 10
533.3068677753093
 20
313.5984290223488
 11
534.9226235110303
 21
313.5984290223488
 72
     1
 10
534.9226235110303
 20
313.5984290223488
 11
535.2706473977143
 21
314.2963859914069
 72
     1
 10
535.2706473977143
 20
314.2963859914069
 11
534.0711030821826
 21
314.2963859914069
 72
     4
 94
        3
 73
     0
 74
     0
 95
       16
 96
       12
 40
0.0
 40
0.0
 40
0.0
 40
0.0
 40
0.1027738093187964
 40
0.2066076558227444
 40
0.268539878558716
 40
0.3279201337292112
 40
0.3931337605654557
 40
0.4386740937218511
 40
0.4818879174817272
 40
0.569519347887583
 40
0.7489346372632488
 40
0.7489346372632488
 40
0.7489346372632488
 40
0.7489346372632488
 10
534.0711030821827
 20
314.2963859914069
 10
534.0349205983659
 20
314.3070314086762
 10
533.962182434696
 20
314.328432042961
 10
533.9560948377707
 20
314.4321744560144
 10
533.9643883078589
 20
314.5060994145273
 10
533.9991213791122
 20
314.5599211012647
 10
534.0412586189131
 20
314.5990834598872
 10
534.0569481821294
 20
314.6500863087187
 10
534.1030662237356
 20
314.6885998405994
 10
534.1848458685797
 20
314.7533357077076
 10
534.2752799988818
 20
314.7671230009727
 10
534.3360381526268
 20
314.7763859914069
 72
     1
 10
534.3360381526268
 20
314.7763859914069
 11
535.5099909002712
 21
314.7763859914069
 72
     1
 10
535.5099909002712
 20
314.7763859914069
 11
535.8580184724721
 21
315.4743503517167
 97
        8
330
C46
330
C48
330
C45
330
C49
330
C4A
330
C47
330
C4B
330
C4C
 75
     0
 76
     1
 47
0.0514683685270805
 98
        1
 10
534.3035628832986
 20
315.1308627757466
450
        0
451
        0
460
0.0
461
0.0
452
        0
462
0.0
453
        0
470

  0
HATCH
  5
C5C
102
{ACAD_REACTORS
330
10CD
102
}
330
18
100
AcDbEntity
  8
ROGO
 62
     4
100
AcDbHatch
 10
0.0
 20
0.0
 30
0.0
210
0.0
220
0.0
230
1.0
  2
SOLID
 70
     1
 71
     0
 91
        1
 92
        7
 72
     0
 73
     1
 93
        4
 10
517.5232364214596
 20
312.8369095251243
 10
517.3903063708567
 20
312.5430949447082
 10
534.7892957545468
 20
312.5430949447082
 10
534.9358011936699
 20
312.8369095251243
 97
        0
 75
     0
 76
     1
 47
0.0514683685270805
 98
        1
 10
528.5178582227285
 20
312.7592002905459
450
        0
451
        0
460
0.0
461
0.0
452
        0
462
0.0
453
        0
470

  0
HATCH
  5
C5D
102
{ACAD_REACTORS
330
10CD
102
}
330
18
100
AcDbEntity
  8
ROGO
 62
     4
100
AcDbHatch
 10
0.0
 20
0.0
 30
0.0
210
0.0
220
0.0
230
1.0
  2
SOLID
 70
     1
 71
     1
 91
        1
 92
        7
 72
     0
 73
     1
 93
       11
 10
538.7572839693066
 20
315.4743503517167
 10
537.6771879693067
 20
315.4743503517167
 10
537.1714549934798
 20
315.154316910543
 10
537.3310340033668
 20
315.4743503517167
 10
536.2509143712181
 20
315.4743503517167
 10
534.7892957545468
 20
312.5430949447082
 10
535.8694153866956
 20
312.5430949447082
 10
536.2509143712181
 20
313.3081857477361
 10
536.6324133557404
 20
312.5430949447082
 10
537.7125093557403
 20
312.5430949447082
 10
536.9817000474048
 20
314.0087226482124
 97
       11
330
C55
330
C50
330
C4F
330
C4D
330
C4E
330
C21
330
C53
330
C51
330
C56
330
C52
330
C54
 75
     0
 76
     1
 47
0.0514683685270805
 98
        1
 10
536.1579554477839
 20
314.216784661086
450
        0
451
        0
460
0.0
461
0.0
452
        0
462
0.0
453
        0
470

  0
HATCH
  5
C5E
102
{ACAD_REACTORS
330
10CD
102
}
330
18
100
AcDbEntity
  8
ROGO
 62
     4
100
AcDbHatch
 10
0.0
 20
0.0
 30
0.0
210
0.0
220
0.0
230
1.0
  2
SOLID
 70
     1
 71
     1
 91
        2
 92
        5
 93
        6
 72
     1
 10
516.0277335766616
 20
312.5430949447082
 11
517.3903063708567
 21
312.5430949447082
 72
     1
 10
517.3903063708567
 20
312.5430949447082
 11
517.8677694434687
 21
313.5984290223489
 72
     1
 10
517.8677694434687
 20
313.5984290223489
 11
519.1414955408578
 21
313.5984290223489
 72
     4
 94
        3
 73
     0
 74
     0
 95
       18
 96
       14
 40
0.108740278791501
 40
0.108740278791501
 40
0.108740278791501
 40
0.108740278791501
 40
0.6623149649549278
 40
1.384304701649787
 40
2.097394834876493
 40
2.774073369849618
 40
3.428974823686337
 40
4.005208313035923
 40
4.455173659284313
 40
4.720999734343524
 40
5.086034088486724
 40
5.569973738255373
 40
6.060470601257719
 40
6.060470601257719
 40
6.060470601257719
 40
6.060470601257719
 10
519.1414955408576
 20
313.5984290223488
 10
519.2311382792785
 20
313.5990965646791
 10
519.4376959322122
 20
313.6006347369771
 10
519.7266684723655
 20
313.7550102176847
 10
520.0006970053554
 20
313.9516733324586
 10
520.2214083469002
 20
314.1973833764613
 10
520.3589181624376
 20
314.4783107157766
 10
520.3802179982192
 20
314.7475537665933
 10
520.3672149717751
 20
314.9605216725311
 10
520.2743018167135
 20
315.1089655901066
 10
520.1777072539639
 20
315.2596209860677
 10
520.0005854888965
 20
315.3901242857697
 10
519.85545984911
 20
315.4473041305057
 10
519.7816605096299
 20
315.4743503517168
 72
     1
 10
519.7816605096301
 20
315.4743503517167
 11
517.4780914910797
 21
315.4743503517167
 72
     1
 10
517.4780914910797
 20
315.4743503517167
 11
516.0277335766616
 21
312.5430949447082
 97
        6
330
C23
330
C20
330
C22
330
C21
330
C29
330
C24
 92
       20
 93
        4
 72
     4
 94
        3
 73
     0
 74
     0
 95
       15
 96
       11
 40
0.0
 40
0.0
 40
0.0
 40
0.0
 40
0.2199578613106558
 40
0.3202465475123651
 40
0.4340808827708152
 40
0.5116301246390283
 40
0.634275054953107
 40
0.7077360179240892
 40
0.8337709579493377
 40
0.875782631437913
 40
0.875782631437913
 40
0.875782631437913
 40
0.875782631437913
 10
518.9682684259902
 20
314.7489261928404
 10
519.0508803332176
 20
314.7493045994725
 10
519.1711587261577
 20
314.749855538715
 10
519.2369312352499
 20
314.6010708188157
 10
519.2074488606308
 20
314.5052766693337
 10
519.1703871128821
 20
314.4069259346939
 10
519.1048906106787
 20
314.3400951271664
 10
519.016984711257
 20
314.2757257933991
 10
518.9339094354632
 20
314.2679335973143
 10
518.8798782940738
 20
314.253617178094
 10
518.8663705022604
 20
314.2500380715756
 72
     1
 10
518.8663705022604
 20
314.2500380715756
 11
518.1625758610546
 21
314.2500380715757
 72
     1
 10
518.1625758610546
 20
314.2500380715757
 11
518.3882869987082
 21
314.7489261928405
 72
     1
 10
518.3882869987082
 20
314.7489261928405
 11
518.9682684259897
 21
314.7489261928405
 97
        4
330
C25
330
C27
330
C26
330
C28
 75
     0
 76
     1
 47
0.0514683685270805
 98
        2
 10
517.4904037100897
 20
314.5626521275896
 10
517.4904037100897
 20
314.5626521275896
450
        0
451
        0
460
0.0
461
0.0
452
        0
462
0.0
453
        0
470

  0
LINE
  5
C5F
102
{ACAD_REACTORS
330
C62
330
10CD
102
}
330
18
100
AcDbEntity
  8
ROGO
 62
     4
100
AcDbLine
 10
525.9153817805708
 20
315.4743503517167
 30
0.0
 11
526.7487403668329
 21
313.5984290223489
 31
0.0
  0
LINE
  5
C60
102
{ACAD_REACTORS
330
C62
330
10CD
102
}
330
18
100
AcDbEntity
  8
ROGO
 62
     4
100
AcDbLine
 10
525.0921308860856
 20
314.9729089560714
 30
0.0
 11
525.3767128656932
 21
314.3323042820444
 31
0.0
  0
LINE
  5
C61
102
{ACAD_REACTORS
330
C62
330
10CD
102
}
330
18
100
AcDbEntity
  8
ROGO
 62
     4
100
AcDbLine
 10
525.5440630165512
 20
313.9555928367643
 30
0.0
 11
525.7027293352211
 21
313.5984290223489
 31
0.0
  0
HATCH
  5
C62
102
{ACAD_REACTORS
330
10CD
102
}
330
18
100
AcDbEntity
  8
ROGO
 62
     4
100
AcDbHatch
 10
0.0
 20
0.0
 30
0.0
210
0.0
220
0.0
230
1.0
  2
SOLID
 70
     1
 71
     1
 91
        2
 92
        7
 72
     0
 73
     1
 93
        8
 10
526.7487403668329
 20
313.598429022349
 10
525.9153817805708
 20
315.4743503517167
 10
524.4148053766117
 20
315.4743503517167
 10
523.0620420478986
 20
313.5984290223489
 10
524.1009666931724
 20
313.5984290223489
 10
524.358524461145
 20
313.9555928367643
 10
525.5440630165512
 20
313.9555928367643
 10
525.7027293352211
 20
313.5984290223489
 97
        8
330
C3B
330
C35
330
C3A
330
C39
330
C37
330
C61
330
C3C
330
C5F
 92
       22
 72
     0
 73
     1
 93
        3
 10
525.3767128656934
 20
314.3323042820444
 10
524.630178405638
 20
314.3323042820444
 10
525.0921308860856
 20
314.9729089560714
 97
        3
330
C38
330
C36
330
C60
 75
     0
 76
     1
 47
0.0128389261915577
 98
        2
 10
525.7978747912913
 20
315.024290470561
 10
525.7978747912913
 20
315.024290470561
450
        0
451
        0
460
0.0
461
0.0
452
        0
462
0.0
453
        0
470

  0
SPLINE
  5
C63
102
{ACAD_REACTORS
330
C6A
330
10CD
102
}
330
18
100
AcDbEntity
  8
ROGO
 62
     4
100
AcDbSpline
210
0.0
220
0.0
230
1.0
 70
     8
 71
     3
 72
    38
 73
    34
 74
    32
 42
0.0000000001
 43
0.0000000001
 44
0.0000000001
 40
0.0
 40
0.0
 40
0.0
 40
0.0
 40
0.2582400211805774
 40
0.3393418442955424
 40
0.443552172800835
 40
0.530394283206717
 40
0.6036667919818254
 40
0.7009894053152177
 40
0.7507174249931042
 40
0.8067242281503032
 40
0.8892677166883521
 40
0.9827715778106668
 40
1.043426616793024
 40
1.109318337455068
 40
1.182564491755753
 40
1.293719242428883
 40
1.399327847180614
 40
1.448424760475743
 40
1.50441322219426
 40
1.570741059842362
 40
1.617957956886697
 40
1.657539314700464
 40
1.714052551848318
 40
1.776150918813051
 40
1.838248940024221
 40
1.892584795022379
 40
2.017023561310864
 40
2.066120474605993
 40
2.164314359515976
 40
2.251113385583432
 40
2.417283613623161
 40
2.622320469312984
 40
2.918423525691272
 40
2.918423525691272
 40
2.918423525691272
 40
2.918423525691272
 10
530.8553835426362
 20
315.4821749505343
 30
0.0
 10
530.7693044031708
 20
315.4760940661045
 30
0.0
 10
530.6561915951406
 20
315.4681034435514
 30
0.0
 10
530.5125647772699
 20
315.4287539775444
 30
0.0
 10
530.4342722709257
 20
315.3818760926045
 30
0.0
 10
530.352793269044
 20
315.3474186001752
 30
0.0
 10
530.2833248313512
 20
315.296393886962
 30
0.0
 10
530.2130589732142
 20
315.2701013438286
 30
0.0
 10
530.1638566683915
 20
315.2226911890104
 30
0.0
 10
530.1069090139159
 20
315.1937310201893
 30
0.0
 10
530.0615605855798
 20
315.1289097430258
 30
0.0
 10
530.0108739048202
 20
315.0683041977994
 30
0.0
 10
529.9520709785242
 20
315.0240648526887
 30
0.0
 10
529.903810627725
 20
314.9776005970281
 30
0.0
 10
529.8595384664046
 20
314.9058922896227
 30
0.0
 10
529.8333362198743
 20
314.8106131829288
 30
0.0
 10
529.7594764850041
 20
314.7504573910928
 30
0.0
 10
529.7483555214567
 20
314.6781321801271
 30
0.0
 10
529.7075014497486
 20
314.6354615227118
 30
0.0
 10
529.6897366705259
 20
314.5803798341618
 30
0.0
 10
529.6829709874916
 20
314.5299152779892
 30
0.0
 10
529.674850554574
 20
314.482784875949
 30
0.0
 10
529.6536090399561
 20
314.4332057748948
 30
0.0
 10
529.6605423436152
 20
314.3719625192733
 30
0.0
 10
529.6585672535552
 20
314.3126586420928
 30
0.0
 10
529.6597295963739
 20
314.2325965612191
 30
0.0
 10
529.6555345401653
 20
314.1546462799056
 30
0.0
 10
529.6889884694726
 20
314.0698178853793
 30
0.0
 10
529.7087853946194
 20
313.9942051072842
 30
0.0
 10
529.763002494539
 20
313.8895100469251
 30
0.0
 10
529.8565258557073
 20
313.7687145844837
 30
0.0
 10
530.034368350018
 20
313.6220917797798
 30
0.0
 10
530.2053691079599
 20
313.607217578755
 30
0.0
 10
530.3064064547174
 20
313.5984290223488
 30
0.0
 11
530.8553835426362
 21
315.4821749505343
 31
0.0
 11
530.5990169184258
 21
315.4511255941752
 31
0.0
 11
530.5213300810999
 21
315.4278390955362
 31
0.0
 11
530.428106242517
 21
315.381265406751
 31
0.0
 11
530.3504194051911
 21
315.3424542299324
 31
0.0
 11
530.2882701794692
 21
315.3036427073603
 31
0.0
 11
530.2028148415148
 21
315.2570693643286
 31
0.0
 11
530.1639711176782
 21
315.226020353723
 31
0.0
 11
530.1173588932132
 21
315.1949709973639
 31
0.0
 11
530.0629781681197
 21
315.1328729761527
 31
0.0
 11
530.0008289423979
 21
315.0630127887285
 31
0.0
 11
529.9542167179327
 21
315.0242012661564
 31
0.0
 11
529.907605103815
 21
314.9776279231247
 31
0.0
 11
529.8687613799784
 21
314.9155299019136
 31
0.0
 11
529.8221497658608
 21
314.8146203581303
 31
0.0
 11
529.7599999297915
 21
314.7292354925265
 31
0.0
 11
529.7444629285347
 21
314.6826618037413
 31
0.0
 11
529.7133883156738
 21
314.6360884607096
 31
0.0
 11
529.6900822034412
 21
314.573990093745
 31
0.0
 11
529.6823130924656
 21
314.5274167507133
 31
0.0
 11
529.6745445918372
 21
314.4886052281412
 31
0.0
 11
529.6590075905803
 21
314.4342697188965
 31
0.0
 11
529.6590075905803
 21
314.3721713519318
 31
0.0
 11
529.6590075905803
 21
314.3100733307206
 31
0.0
 11
529.6590075905803
 21
314.2557374757225
 31
0.0
 11
529.6667760912088
 21
314.1315414333001
 31
0.0
 11
529.6823130924656
 21
314.0849677445149
 31
0.0
 11
529.7133883156738
 21
313.9918207126981
 31
0.0
 11
529.7522314291632
 21
313.9141980133074
 31
0.0
 11
529.8532243787215
 21
313.782239804672
 31
0.0
 11
530.016366554002
 21
313.6580434164961
 31
0.0
 11
530.3064064547174
 21
313.5984290223488
 31
0.0
  0
SPLINE
  5
C64
102
{ACAD_REACTORS
330
C6A
330
10CD
102
}
330
18
100
AcDbEntity
  8
ROGO
 62
     4
100
AcDbSpline
210
0.0
220
0.0
230
1.0
 70
     8
 71
     3
 72
    25
 73
    21
 74
     0
 42
0.0000000001
 43
0.0000000001
 40
0.0
 40
0.0
 40
0.0
 40
0.0
 40
0.4087168505087288
 40
0.6887487002771746
 40
0.9415836120477687
 40
1.17452070575514
 40
1.41154617586699
 40
1.599156012919487
 40
1.80099909059943
 40
2.178735911501585
 40
2.521686161369157
 40
2.762704659361267
 40
3.06256558063785
 40
3.222432137207705
 40
3.399493810628493
 40
3.567459719866414
 40
3.743172740007509
 40
3.995988754699505
 40
4.17170091132118
 40
4.337226830236035
 40
4.337226830236035
 40
4.337226830236035
 40
4.337226830236035
 10
531.927460432901
 20
315.4821749505343
 30
0.0
 10
531.9977747906517
 20
315.4799158227399
 30
0.0
 10
532.1162649445354
 20
315.4761088563027
 30
0.0
 10
532.2434787425655
 20
315.3766764429092
 30
0.0
 10
532.340819057936
 20
315.2942393538877
 30
0.0
 10
532.4099124220226
 20
315.1945767734103
 30
0.0
 10
532.4704746915118
 20
315.1029423395858
 30
0.0
 10
532.5103806354678
 20
315.0061974614914
 30
0.0
 10
532.5646606035746
 20
314.8901124678673
 30
0.0
 10
532.5871298287849
 20
314.7348079929658
 30
0.0
 10
532.5719491954469
 20
314.5742864886151
 30
0.0
 10
532.5323348304505
 20
314.4319989404673
 30
0.0
 10
532.4907825465934
 20
314.3228392759756
 30
0.0
 10
532.4418082338543
 20
314.2278090159891
 30
0.0
 10
532.3834245948484
 20
314.1662769152762
 30
0.0
 10
532.3429203726497
 20
314.0880394490654
 30
0.0
 10
532.2651169430537
 20
314.0240454021034
 30
0.0
 10
532.2020452861871
 20
313.9450857300261
 30
0.0
 10
532.1304720909876
 20
313.8773138038282
 30
0.0
 10
532.0901188062678
 20
313.8354993420829
 30
0.0
 10
532.0688435814195
 20
313.8179182793034
 30
0.0
  0
LINE
  5
C65
102
{ACAD_REACTORS
330
C6A
330
10CD
102
}
330
18
100
AcDbEntity
  8
ROGO
 62
     4
100
AcDbLine
 10
530.8553835426362
 20
315.4821749505343
 30
0.0
 11
531.927460432901
 21
315.4821749505343
 31
0.0
  0
LINE
  5
C66
102
{ACAD_REACTORS
330
C6A
330
10CD
102
}
330
18
100
AcDbEntity
  8
ROGO
 62
     4
100
AcDbLine
 10
530.3064064547174
 20
313.5984290223488
 30
0.0
 11
531.3784833449822
 21
313.5984290223488
 31
0.0
  0
SPLINE
  5
C67
102
{ACAD_REACTORS
330
C6A
330
10CD
102
}
330
18
100
AcDbEntity
  8
ROGO
 62
     4
100
AcDbSpline
210
0.0
220
0.0
230
1.0
 70
     8
 71
     3
 72
    11
 73
     7
 74
     0
 42
0.0000000001
 43
0.0000000001
 40
0.1647869275458134
 40
0.1647869275458134
 40
0.1647869275458134
 40
0.1647869275458134
 40
0.2895635144633836
 40
0.5387013147903714
 40
0.7953622617455423
 40
0.8850764140209602
 40
0.8850764140209602
 40
0.8850764140209602
 40
0.8850764140209602
 10
531.7356511430079
 20
313.6402525179326
 30
0.0
 10
531.7156817961496
 20
313.6346940426234
 30
0.0
 10
531.6537660655294
 20
313.6247974857892
 30
0.0
 10
531.5499106839034
 20
313.6112083509701
 30
0.0
 10
531.4512013380515
 20
313.5970275929921
 30
0.0
 10
531.3934432025821
 20
313.5981407142875
 30
0.0
 10
531.3784833449822
 20
313.5984290223488
 30
0.0
  0
SPLINE
  5
C68
102
{ACAD_REACTORS
330
C6A
330
10CD
102
}
330
18
100
AcDbEntity
  8
ROGO
 62
     4
100
AcDbSpline
210
0.0
220
0.0
230
1.0
 70
     8
 71
     3
 72
     9
 73
     5
 74
     3
 42
0.0000000001
 43
0.0000000001
 44
0.0000000001
 40
0.0
 40
0.0
 40
0.0
 40
0.0
 40
0.1622561919360204
 40
0.3804197703110171
 40
0.3804197703110171
 40
0.3804197703110171
 40
0.3804197703110171
 10
531.7356511430079
 20
313.6402525179326
 30
0.0
 10
531.7877725263193
 20
313.6561987175372
 30
0.0
 10
531.9099743630013
 20
313.6935855779
 30
0.0
 10
532.0109410733397
 20
313.7726031747206
 30
0.0
 10
532.0688435814195
 20
313.8179182793034
 30
0.0
 11
531.7356511430079
 21
313.6402525179326
 31
0.0
 11
531.8881522347575
 21
313.6956645097465
 31
0.0
 11
532.0688435814195
 21
313.8179182793034
 31
0.0
  0
ELLIPSE
  5
C69
102
{ACAD_REACTORS
330
C6A
330
10CD
102
}
330
18
100
AcDbEntity
  8
ROGO
 62
     4
100
AcDbEllipse
 10
531.101752677823
 20
314.5140378187929
 30
0.0
 11
0.2546924415247531
 21
0.2239701316915159
 31
0.0
210
0.0
220
0.0
230
1.0
 40
0.6788083417438792
 41
0.0
 42
6.283185307179586
  0
HATCH
  5
C6A
102
{ACAD_REACTORS
330
10CD
102
}
330
18
100
AcDbEntity
  8
ROGO
 62
     4
100
AcDbHatch
 10
0.0
 20
0.0
 30
0.0
210
0.0
220
0.0
230
1.0
  2
SOLID
 70
     1
 71
     1
 91
        2
 92
        5
 93
        6
 72
     4
 94
        3
 73
     0
 74
     0
 95
       25
 96
       21
 40
0.0
 40
0.0
 40
0.0
 40
0.0
 40
0.165525918914855
 40
0.3412380755365305
 40
0.5940540902285263
 40
0.7697671103696209
 40
0.9377330196075423
 40
1.11479469302833
 40
1.274661249598185
 40
1.574522170874768
 40
1.815540668866877
 40
2.15849091873445
 40
2.536227739636605
 40
2.738070817316548
 40
2.925680654369045
 40
3.162706124480894
 40
3.395643218188267
 40
3.648478129958861
 40
3.928509979727306
 40
4.337226830236035
 40
4.337226830236035
 40
4.337226830236035
 40
4.337226830236035
 10
532.0688435814195
 20
313.8179182793034
 10
532.0901188062678
 20
313.8354993420829
 10
532.1304720909876
 20
313.8773138038282
 10
532.2020452861871
 20
313.9450857300261
 10
532.2651169430537
 20
314.0240454021034
 10
532.3429203726497
 20
314.0880394490654
 10
532.3834245948484
 20
314.1662769152762
 10
532.4418082338543
 20
314.2278090159891
 10
532.4907825465934
 20
314.3228392759756
 10
532.5323348304505
 20
314.4319989404673
 10
532.5719491954469
 20
314.5742864886151
 10
532.5871298287849
 20
314.7348079929658
 10
532.5646606035746
 20
314.8901124678673
 10
532.5103806354678
 20
315.0061974614914
 10
532.4704746915118
 20
315.1029423395858
 10
532.4099124220226
 20
315.1945767734103
 10
532.340819057936
 20
315.2942393538877
 10
532.2434787425655
 20
315.3766764429092
 10
532.1162649445354
 20
315.4761088563027
 10
531.9977747906517
 20
315.4799158227399
 10
531.927460432901
 20
315.4821749505343
 72
     1
 10
531.927460432901
 20
315.4821749505343
 11
530.8553835426362
 21
315.4821749505343
 72
     4
 94
        3
 73
     0
 74
     0
 95
       38
 96
       34
 40
0.0
 40
0.0
 40
0.0
 40
0.0
 40
0.2582400211805774
 40
0.3393418442955424
 40
0.443552172800835
 40
0.530394283206717
 40
0.6036667919818254
 40
0.7009894053152177
 40
0.7507174249931042
 40
0.8067242281503032
 40
0.8892677166883521
 40
0.9827715778106668
 40
1.043426616793024
 40
1.109318337455068
 40
1.182564491755753
 40
1.293719242428883
 40
1.399327847180614
 40
1.448424760475743
 40
1.50441322219426
 40
1.570741059842362
 40
1.617957956886697
 40
1.657539314700464
 40
1.714052551848318
 40
1.776150918813051
 40
1.838248940024221
 40
1.892584795022379
 40
2.017023561310864
 40
2.066120474605993
 40
2.164314359515976
 40
2.251113385583432
 40
2.417283613623161
 40
2.622320469312984
 40
2.918423525691272
 40
2.918423525691272
 40
2.918423525691272
 40
2.918423525691272
 10
530.8553835426362
 20
315.4821749505343
 10
530.7693044031708
 20
315.4760940661045
 10
530.6561915951406
 20
315.4681034435514
 10
530.5125647772699
 20
315.4287539775444
 10
530.4342722709257
 20
315.3818760926045
 10
530.352793269044
 20
315.3474186001752
 10
530.2833248313512
 20
315.296393886962
 10
530.2130589732142
 20
315.2701013438286
 10
530.1638566683915
 20
315.2226911890104
 10
530.1069090139159
 20
315.1937310201893
 10
530.0615605855798
 20
315.1289097430258
 10
530.0108739048202
 20
315.0683041977994
 10
529.9520709785242
 20
315.0240648526887
 10
529.903810627725
 20
314.9776005970281
 10
529.8595384664046
 20
314.9058922896227
 10
529.8333362198743
 20
314.8106131829288
 10
529.7594764850041
 20
314.7504573910928
 10
529.7483555214567
 20
314.6781321801271
 10
529.7075014497486
 20
314.6354615227118
 10
529.6897366705259
 20
314.5803798341618
 10
529.6829709874916
 20
314.5299152779892
 10
529.674850554574
 20
314.482784875949
 10
529.6536090399561
 20
314.4332057748948
 10
529.6605423436152
 20
314.3719625192733
 10
529.6585672535552
 20
314.3126586420928
 10
529.6597295963739
 20
314.2325965612191
 10
529.6555345401653
 20
314.1546462799056
 10
529.6889884694726
 20
314.0698178853793
 10
529.7087853946194
 20
313.9942051072842
 10
529.763002494539
 20
313.8895100469251
 10
529.8565258557073
 20
313.7687145844837
 10
530.034368350018
 20
313.6220917797798
 10
530.2053691079599
 20
313.607217578755
 10
530.3064064547174
 20
313.5984290223488
 72
     1
 10
530.3064064547174
 20
313.5984290223488
 11
531.3784833449825
 21
313.5984290223488
 72
     4
 94
        3
 73
     0
 74
     0
 95
       11
 96
        7
 40
0.1647869275458135
 40
0.1647869275458135
 40
0.1647869275458135
 40
0.1647869275458135
 40
0.2545010798212315
 40
0.5111620267764023
 40
0.7602998271033902
 40
0.8850764140209603
 40
0.8850764140209603
 40
0.8850764140209603
 40
0.8850764140209603
 10
531.3784833449822
 20
313.5984290223488
 10
531.3934432025821
 20
313.5981407142875
 10
531.4512013380515
 20
313.5970275929921
 10
531.5499106839034
 20
313.6112083509701
 10
531.6537660655294
 20
313.6247974857892
 10
531.7156817961496
 20
313.6346940426234
 10
531.7356511430079
 20
313.6402525179326
 72
     4
 94
        3
 73
     0
 74
     0
 95
        9
 96
        5
 40
0.0
 40
0.0
 40
0.0
 40
0.0
 40
0.1622561919360204
 40
0.3804197703110171
 40
0.3804197703110171
 40
0.3804197703110171
 40
0.3804197703110171
 10
531.7356511430079
 20
313.6402525179326
 10
531.7877725263193
 20
313.6561987175372
 10
531.9099743630013
 20
313.6935855779
 10
532.0109410733397
 20
313.7726031747206
 10
532.0688435814195
 20
313.8179182793034
 97
        6
330
C64
330
C65
330
C63
330
C66
330
C67
330
C68
 92
       20
 93
        1
 72
     3
 10
531.101752677823
 20
314.5140378187929
 11
0.2546924415247531
 21
0.2239701316915159
 40
0.6788083417438792
 50
0.0
 51
360.0
 73
     1
 97
        1
330
C69
 75
     0
 76
     1
 47
0.088756267210375
 98
        2
 10
531.1766545003496
 20
314.9618767763986
 10
531.1766545003496
 20
314.9618767763986
450
        0
451
        0
460
0.0
461
0.0
452
        0
462
0.0
453
        0
470

  0
ARC
  5
C7C
330
18
100
AcDbEntity
  8
隠れ線2
100
AcDbCircle
 10
461.5502948516364
 20
361.902504061256
 30
0.0
 40
24.5
100
AcDbArc
 50
322.0790048026187
 51
128.9648435663535
  0
ARC
  5
C7D
330
18
100
AcDbEntity
  8
隠れ線2
100
AcDbCircle
 10
433.4432948516364
 20
396.402504061256
 30
0.0
 40
20.0
100
AcDbArc
 50
290.1961601498945
 51
309.4201909130176
  0
ARC
  5
C7E
330
18
100
AcDbEntity
  8
隠れ線2
100
AcDbCircle
 10
433.4562948516365
 20
352.902504061256
 30
0.0
 40
5.0
100
AcDbArc
 50
16.70364528945691
 51
65.52298474976378
  0
ARC
  5
C7F
330
18
100
AcDbEntity
  8
隠れ線2
100
AcDbCircle
 10
461.5502948516364
 20
361.902504061256
 30
0.0
 40
24.5
100
AcDbArc
 50
197.9788350607441
 51
225.8709471983017
  0
ARC
  5
C80
330
18
100
AcDbEntity
  8
隠れ線2
100
AcDbCircle
 10
437.7752948516365
 20
336.902504061256
 30
0.0
 40
10.0
100
AcDbArc
 50
15.73746391727594
 51
47.82712155481916
  0
ARC
  5
C81
330
18
100
AcDbEntity
  8
隠れ線2
100
AcDbCircle
 10
492.1322948516364
 20
336.902504061256
 30
0.0
 40
15.0
100
AcDbArc
 50
138.5532475290371
 51
164.0426171218903
  0
CIRCLE
  5
CC3
102
{ACAD_REACTORS
330
10D9
102
}
330
18
100
AcDbEntity
  8
外形線
100
AcDbCircle
 10
429.5502948516364
 20
361.902504061256
 30
0.0
 40
1.25
  0
CIRCLE
  5
CC6
102
{ACAD_REACTORS
330
10D9
102
}
330
18
100
AcDbEntity
  8
外形線
100
AcDbCircle
 10
413.5502948516363
 20
273.902504061256
 30
0.0
 40
1.25
  0
LINE
  5
CE9
102
{ACAD_REACTORS
330
10D9
102
}
330
18
100
AcDbEntity
  8
中心線
 48
0.7
100
AcDbLine
 10
430.1511059418976
 20
365.2069650576919
 30
0.0
 11
412.9312685040017
 21
270.4978591492655
 31
0.0
  0
LINE
  5
CEC
102
{ACAD_REACTORS
330
10D9
102
}
330
18
100
AcDbEntity
  8
外形線
 48
0.7
100
AcDbLine
 10
430.5923025291514
 20
357.8507488860264
 30
0.0
 11
415.9518318594711
 21
277.3281602027857
 31
0.0
  0
LINE
  5
CED
102
{ACAD_REACTORS
330
10D9
102
}
330
18
100
AcDbEntity
  8
外形線
 48
0.7
100
AcDbLine
 10
427.1487578438017
 20
358.4768479197263
 30
0.0
 11
412.5082871741216
 21
277.9542592364856
 31
0.0
  0
LINE
  5
CEE
102
{ACAD_REACTORS
330
10D9
102
}
330
18
100
AcDbEntity
  8
中心線
 48
0.2
100
AcDbLine
 10
432.8547558480724
 20
361.301692970995
 30
0.0
 11
426.2458338552006
 21
362.503315151517
 31
0.0
  0
LINE
  5
CF0
102
{ACAD_REACTORS
330
10D9
102
}
330
18
100
AcDbEntity
  8
外形線
100
AcDbLine
 10
430.5923025291514
 20
357.8507488860264
 30
0.0
 11
427.1487578438017
 21
358.4768479197263
 31
0.0
  0
LINE
  5
CF1
102
{ACAD_REACTORS
330
10D9
102
}
330
18
100
AcDbEntity
  8
中心線
 48
0.2
100
AcDbLine
 10
410.1456499396459
 20
274.5215304088908
 30
0.0
 11
416.9549397636269
 21
273.2834777136213
 31
0.0
  0
LINE
  5
CF3
102
{ACAD_REACTORS
330
10D9
102
}
330
18
100
AcDbEntity
  8
外形線
100
AcDbLine
 10
412.5082871741216
 20
277.9542592364856
 30
0.0
 11
415.9518318594711
 21
277.3281602027857
 31
0.0
  0
LINE
  5
D02
102
{ACAD_REACTORS
330
10D9
102
}
330
18
100
AcDbEntity
  8
想像線
 48
0.7
100
AcDbLine
 10
430.2971415561215
 20
357.9044145174864
 30
0.0
 11
415.6566708864412
 21
277.3818258342457
 31
0.0
  0
LINE
  5
D03
102
{ACAD_REACTORS
330
10D9
102
}
330
18
100
AcDbEntity
  8
想像線
 48
0.7
100
AcDbLine
 10
427.4439188168317
 20
358.4231822882663
 30
0.0
 11
412.8034481471515
 21
277.9005936050257
 31
0.0
  0
LINE
  5
D1F
102
{ACAD_REACTORS
330
10C1
102
}
330
18
100
AcDbEntity
  8
外形線
 48
0.5
100
AcDbLine
 10
458.5502948516364
 20
332.4025040612561
 30
0.0
 11
464.5502948516365
 21
332.4025040612561
 31
0.0
  0
LINE
  5
D20
102
{ACAD_REACTORS
330
10C1
102
}
330
18
100
AcDbEntity
  8
外形線
 48
0.5
100
AcDbLine
 10
459.8002948516365
 20
321.902504061256
 30
0.0
 11
463.3002948516366
 21
321.902504061256
 31
0.0
  0
LINE
  5
D22
102
{ACAD_REACTORS
330
10C1
102
}
330
18
100
AcDbEntity
  8
外形線
 48
0.5
100
AcDbLine
 10
465.5502948516365
 20
333.4025040612561
 30
0.0
 11
465.5502948516364
 21
335.8072937727759
 31
0.0
  0
LINE
  5
D23
102
{ACAD_REACTORS
330
10C1
102
}
330
18
100
AcDbEntity
  8
外形線
 48
0.5
100
AcDbLine
 10
457.5502948516364
 20
333.4025040612561
 30
0.0
 11
457.5502948516365
 21
335.8072937727759
 31
0.0
  0
LINE
  5
D26
102
{ACAD_REACTORS
330
10C1
102
}
330
18
100
AcDbEntity
  8
外形線
 48
0.5
100
AcDbLine
 10
457.5502948516364
 20
333.402504061256
 30
0.0
 11
465.5502948516364
 21
333.4025040612561
 31
0.0
  0
LINE
  5
D27
102
{ACAD_REACTORS
330
10C1
102
}
330
18
100
AcDbEntity
  8
外形線
 48
0.5
100
AcDbLine
 10
457.5502948516364
 20
333.4025040612561
 30
0.0
 11
458.5502948516364
 21
332.4025040612561
 31
0.0
  0
LINE
  5
D28
102
{ACAD_REACTORS
330
10C1
102
}
330
18
100
AcDbEntity
  8
外形線
 48
0.5
100
AcDbLine
 10
464.5502948516365
 20
332.4025040612561
 30
0.0
 11
465.5502948516365
 21
333.4025040612561
 31
0.0
  0
LINE
  5
D29
102
{ACAD_REACTORS
330
10C1
102
}
330
18
100
AcDbEntity
  8
外形線
 48
0.5
100
AcDbLine
 10
463.3002948516365
 20
320.8386103468213
 30
0.0
 11
463.3002948516364
 21
332.4025040612561
 31
0.0
  0
LINE
  5
D2A
102
{ACAD_REACTORS
330
10C1
102
}
330
18
100
AcDbEntity
  8
外形線
 48
0.5
100
AcDbLine
 10
459.8002948516365
 20
320.8386103468217
 30
0.0
 11
459.8002948516365
 21
332.4025040612561
 31
0.0
  0
ARC
  5
D3A
102
{ACAD_REACTORS
330
10C1
102
}
330
18
100
AcDbEntity
  8
外形線
100
AcDbCircle
 10
461.5502948516365
 20
318.502504061256
 30
0.0
 40
0.6
100
AcDbArc
 50
201.3119739705772
 51
338.6880260293593
  0
LINE
  5
D50
102
{ACAD_REACTORS
330
10C1
102
}
330
18
100
AcDbEntity
  8
外形線
100
AcDbLine
 10
462.1092640274994
 20
318.2844365019192
 30
0.0
 11
463.3002948516366
 21
320.8386103468213
 31
0.0
  0
LINE
  5
D51
102
{ACAD_REACTORS
330
10C1
102
}
330
18
100
AcDbEntity
  8
外形線
100
AcDbLine
 10
460.9913256757736
 20
318.2844365019192
 30
0.0
 11
459.8002948516365
 21
320.8386103468217
 31
0.0
  0
LINE
  5
D52
102
{ACAD_REACTORS
330
10C1
102
}
330
18
100
AcDbEntity
  8
外形線
100
AcDbLine
 10
459.8002948516365
 20
320.8386103468217
 30
0.0
 11
463.3002948516365
 21
320.8386103468213
 31
0.0
  0
LINE
  5
D55
330
18
100
AcDbEntity
  8
外形線
 48
0.5
100
AcDbLine
 10
469.5502948516366
 20
302.402504061256
 30
0.0
 11
469.5502948516365
 21
317.902504061256
 31
0.0
  0
LINE
  5
D56
330
18
100
AcDbEntity
  8
外形線
 48
0.5
100
AcDbLine
 10
459.5502948516365
 20
302.402504061256
 30
0.0
 11
459.5502948516365
 21
317.902504061256
 31
0.0
  0
LINE
  5
D57
330
18
100
AcDbEntity
  8
外形線
100
AcDbLine
 10
459.5502948516365
 20
317.902504061256
 30
0.0
 11
469.5502948516365
 21
317.902504061256
 31
0.0
  0
LINE
  5
D58
330
18
100
AcDbEntity
  8
外形線
100
AcDbLine
 10
459.5502948516365
 20
302.402504061256
 30
0.0
 11
469.5502948516366
 21
302.402504061256
 31
0.0
  0
LINE
  5
D59
330
18
100
AcDbEntity
  8
中心線
 48
0.15
100
AcDbLine
 10
461.4266535175316
 20
305.402504061256
 30
0.0
 11
467.6739361857415
 21
305.402504061256
 31
0.0
  0
LINE
  5
D5A
330
18
100
AcDbEntity
  8
中心線
 48
0.15
100
AcDbLine
 10
461.2402497969222
 20
311.402504061256
 30
0.0
 11
467.8603399063508
 21
311.402504061256
 31
0.0
  0
LINE
  5
D5B
330
18
100
AcDbEntity
  8
中心線
 48
0.3
100
AcDbLine
 10
464.5502948516365
 20
302.278862727151
 30
0.0
 11
464.5502948516365
 21
314.7125491159703
 31
0.0
  0
CIRCLE
  5
D5C
330
18
100
AcDbEntity
  8
外形線
100
AcDbCircle
 10
464.5502948516365
 20
311.402504061256
 30
0.0
 40
1.8
  0
CIRCLE
  5
D5D
330
18
100
AcDbEntity
  8
外形線
100
AcDbCircle
 10
464.5502948516365
 20
305.402504061256
 30
0.0
 40
1.8
  0
LINE
  5
DEA
330
18
100
AcDbEntity
  8
想像線
100
AcDbLine
 10
465.2890691960059
 20
310.6637297168871
 30
0.0
 11
463.8114646742045
 21
312.1413342386884
 31
0.0
  0
LINE
  5
DEB
330
18
100
AcDbEntity
  8
想像線
100
AcDbLine
 10
465.2994815423546
 20
312.1516907519742
 30
0.0
 11
463.7739822158203
 21
310.6261914254397
 31
0.0
  0
LINE
  5
DEC
330
18
100
AcDbEntity
  8
想像線
100
AcDbLine
 10
465.2890691960055
 20
304.663729716887
 30
0.0
 11
463.8114646742041
 21
306.1413342386883
 31
0.0
  0
LINE
  5
DED
330
18
100
AcDbEntity
  8
想像線
100
AcDbLine
 10
465.2994815423546
 20
306.1516907519742
 30
0.0
 11
463.77398221582
 21
304.6261914254396
 31
0.0
  0
ARC
  5
DEF
330
18
100
AcDbEntity
  8
寸法線
100
AcDbCircle
 10
446.5502948516363
 20
313.902504061256
 30
0.0
 40
15.0
100
AcDbArc
 50
5.653302903656662
 51
47.73995324398452
  0
LINE
  5
DFB
330
18
100
AcDbEntity
  8
0
  6
ByBlock
 62
     2
100
AcDbLine
 10
446.5502948516364
 20
313.9025040612561
 30
0.0
 11
459.7303340822476
 21
321.0639680093291
 31
0.0
  0
MTEXT
  5
DFC
330
18
100
AcDbEntity
  8
0
  6
ByBlock
 62
     6
100
AcDbMText
 10
449.4083160590395
 20
317.5576674020732
 30
0.0
 40
2.5
 41
0.0
 71
     5
 72
     1
  1
\A1;R15
  7
STYLE3
 11
0.8786692820407461
 21
0.4774309298715362
 31
0.0
 73
     1
 44
1.0
  0
INSERT
  5
DFD
330
18
100
AcDbEntity
  8
0
  6
ByBlock
 62
     2
100
AcDbBlockReference
  2
_OPEN
 10
459.7303340822476
 20
321.0639680093291
 30
0.0
 41
2.5
 42
2.5
 43
2.5
 50
28.51774599222789
  0
POINT
  5
DFE
330
18
100
AcDbEntity
  8
DEFPOINTS
  6
ByBlock
 62
     0
100
AcDbPoint
 10
459.7303340822476
 20
321.0639680093291
 30
0.0
  0
POINT
  5
DFF
330
18
100
AcDbEntity
  8
DEFPOINTS
  6
ByBlock
 62
     0
100
AcDbPoint
 10
446.5502948516363
 20
313.902504061256
 30
0.0
  0
LINE
  5
E02
330
18
100
AcDbEntity
  8
寸法線
100
AcDbLine
 10
310.717132417284
 20
404.9818921777818
 30
0.0
 11
292.9282055426572
 21
307.1427943673354
 31
0.0
  0
LINE
  5
E03
330
18
100
AcDbEntity
  8
寸法線
  6
PHANTOM2
100
AcDbLine
 10
428.7815216292728
 20
383.5156395937836
 30
0.0
 11
405.6795299660611
 21
256.4546854461204
 31
0.0
  0
LINE
  5
E1D
330
18
100
AcDbEntity
  8
0
  6
ByBlock
 62
     2
100
AcDbLine
 10
312.9532003947838
 20
403.3048411946571
 30
0.0
 11
426.0982400562731
 21
382.7330158016586
 31
0.0
  0
INSERT
  5
E1E
330
18
100
AcDbEntity
  8
0
  6
ByBlock
 62
     2
100
AcDbBlockReference
  2
_OPEN
 10
310.4935256195341
 20
403.752054790157
 30
0.0
 41
2.5
 42
2.5
 43
2.5
 50
169.6951535312338
  0
INSERT
  5
E1F
330
18
100
AcDbEntity
  8
0
  6
ByBlock
 62
     2
100
AcDbBlockReference
  2
_OPEN
 10
428.5579148315229
 20
382.2858022061587
 30
0.0
 41
2.5
 42
2.5
 43
2.5
 50
349.6951535312338
  0
MTEXT
  5
E20
330
18
100
AcDbEntity
  8
0
  6
ByBlock
 62
     6
100
AcDbMText
 10
369.8611304221535
 20
394.8636845795952
 30
0.0
 40
2.5
 41
0.0
 71
     5
 72
     1
  1
\A1;120
  7
STYLE3
 11
0.9838699100999068
 21
-0.1788854381999865
 31
0.0
 73
     1
 44
1.0
  0
POINT
  5
E21
330
18
100
AcDbEntity
  8
DEFPOINTS
  6
ByBlock
 62
     0
100
AcDbPoint
 10
304.4903317331472
 20
370.7344884150298
 30
0.0
 50
100.3048464687662
  0
POINT
  5
E22
330
18
100
AcDbEntity
  8
DEFPOINTS
  6
ByBlock
 62
     0
100
AcDbPoint
 10
422.554720945136
 20
349.2682358310314
 30
0.0
 50
100.3048464687662
  0
POINT
  5
E23
330
18
100
AcDbEntity
  8
DEFPOINTS
  6
ByBlock
 62
     0
100
AcDbPoint
 10
428.5579148315229
 20
382.2858022061587
 30
0.0
 50
100.3048464687662
  0
LINE
  5
E2D
330
18
100
AcDbEntity
  8
0
  6
ByBlock
 62
     2
100
AcDbLine
 10
446.5502948516365
 20
313.9025040612561
 30
0.0
 11
300.8336408774245
 21
278.3123824745037
 31
0.0
  0
MTEXT
  5
E2E
330
18
100
AcDbEntity
  8
0
  6
ByBlock
 62
     6
100
AcDbMText
 10
380.7066569849492
 20
299.7508403965495
 30
0.0
 40
2.5
 41
0.0
 71
     5
 72
     1
  1
\A1;R150
  7
STYLE3
 11
0.9714443598280789
 21
0.2372674772450152
 31
0.0
 73
     1
 44
1.0
  0
INSERT
  5
E2F
330
18
100
AcDbEntity
  8
0
  6
ByBlock
 62
     2
100
AcDbBlockReference
  2
_OPEN
 10
300.8336408774245
 20
278.3123824745037
 30
0.0
 41
2.5
 42
2.5
 43
2.5
 50
193.7253205833657
  0
POINT
  5
E30
330
18
100
AcDbEntity
  8
DEFPOINTS
  6
ByBlock
 62
     0
100
AcDbPoint
 10
300.8336408774245
 20
278.3123824745037
 30
0.0
  0
POINT
  5
E31
330
18
100
AcDbEntity
  8
DEFPOINTS
  6
ByBlock
 62
     0
100
AcDbPoint
 10
446.5502948516363
 20
313.9025040612561
 30
0.0
  0
POINT
  5
E4E
330
18
100
AcDbEntity
  8
DEFPOINTS
  6
ByBlock
 62
     0
100
AcDbPoint
 10
298.2435910262171
 20
336.3774145269147
 30
0.0
  0
LINE
  5
E60
330
18
100
AcDbEntity
  8
0
  6
ByBlock
 62
     2
100
AcDbLine
 10
298.243591026217
 20
336.3774145269145
 30
0.0
 11
274.4748032379112
 21
333.4935626593563
 31
0.0
  0
LINE
  5
E61
330
18
100
AcDbEntity
  8
0
  6
ByBlock
 62
     2
100
AcDbLine
 10
307.8792765565708
 20
256.9598247601625
 30
0.0
 11
284.110488768265
 21
254.0759728926041
 31
0.0
  0
LINE
  5
E62
330
18
100
AcDbEntity
  8
0
  6
ByBlock
 62
     2
100
AcDbLine
 10
276.0168182508402
 20
331.162320565557
 30
0.0
 11
285.0502734355469
 21
256.7083301592269
 31
0.0
  0
INSERT
  5
E63
330
18
100
AcDbEntity
  8
0
  6
ByBlock
 62
     2
100
AcDbBlockReference
  2
_OPEN
 10
275.7157030780167
 20
333.644120245768
 30
0.0
 41
2.5
 42
2.5
 43
2.5
 50
96.91784718607687
  0
INSERT
  5
E64
330
18
100
AcDbEntity
  8
0
  6
ByBlock
 62
     2
100
AcDbBlockReference
  2
_OPEN
 10
285.3513886083705
 20
254.2265304790159
 30
0.0
 41
2.5
 42
2.5
 43
2.5
 50
276.9178471860769
  0
POINT
  5
E66
330
18
100
AcDbEntity
  8
DEFPOINTS
  6
ByBlock
 62
     0
100
AcDbPoint
 10
298.243591026217
 20
336.3774145269145
 30
0.0
  0
POINT
  5
E67
330
18
100
AcDbEntity
  8
想像線
 48
0.5
100
AcDbPoint
 10
307.8735102731565
 20
257.0093716420488
 30
0.0
  0
POINT
  5
E68
330
18
100
AcDbEntity
  8
DEFPOINTS
  6
ByBlock
 62
     0
100
AcDbPoint
 10
285.3513886083705
 20
254.2265304790159
 30
0.0
  0
MTEXT
  5
E69
330
18
100
AcDbEntity
  8
0
  6
ByBlock
 62
     6
100
AcDbMText
 10
278.6721960830352
 20
293.7094889827744
 30
0.0
 40
2.5
 41
0.0
 71
     5
 72
     1
  1
08
  7
STYLE3
210
0.0
220
0.0
230
-1.0
 11
0.1204460691294219
 21
-0.9927198720844017
 31
0.0
 73
     1
 44
1.0
  0
ARC
  5
E6A
330
18
100
AcDbEntity
  8
想像線
 48
0.5
100
AcDbCircle
 10
308.6857521826474
 20
254.6449979236053
 30
0.0
 40
2.5
100
AcDbArc
 50
24.57024991150466
 51
199.9264684986962
  0
LINE
  5
E6D
330
18
100
AcDbEntity
  8
想像線
 48
0.45
100
AcDbLine
 10
317.6658601495673
 20
241.82808484352
 30
0.0
 11
310.9116127030662
 21
255.7832180005857
 31
0.0
  0
LINE
  5
E6E
330
18
100
AcDbEntity
  8
想像線
 48
0.5
100
AcDbLine
 10
306.3354252223679
 20
253.7929631943937
 30
0.0
 11
310.8729893712994
 21
237.7531206778652
 31
0.0
  0
POINT
  5
E6F
330
18
100
AcDbEntity
  8
想像線
 48
0.5
100
AcDbPoint
 10
307.8735102731565
 20
257.009371642049
 30
0.0
  0
POINT
  5
E70
330
18
100
AcDbEntity
  8
想像線
 48
0.5
100
AcDbPoint
 10
307.8735102731565
 20
257.0093716420488
 30
0.0
  0
DIMENSION
  5
E8C
330
18
100
AcDbEntity
  8
文字
100
AcDbDimension
  2
*D2
 10
586.5502948516364
 20
230.481477359147
 30
0.0
 11
536.5502948516364
 21
232.3564773591471
 31
0.0
 70
    32
 71
     5
 42
-1.0
  3
STYLE3
100
AcDbAlignedDimension
 13
486.5502948516364
 23
299.3427473991813
 33
0.0
 14
586.5502948516364
 24
299.3427473991813
 34
0.0
100
AcDbRotatedDimension
1001
ACAD
1000
DSTYLE
1002
{
1070
    75
1070
     1
1070
   271
1070
     2
1070
   279
1070
     1
1002
}
  0
DIMENSION
  5
E99
330
18
100
AcDbEntity
  8
文字
100
AcDbDimension
  2
*D3
 10
598.7753408868664
 20
298.902504061256
 30
0.0
 11
596.9003408868664
 21
313.902504061256
 31
0.0
 70
    32
 71
     5
 42
-1.0
  3
STYLE3
100
AcDbAlignedDimension
 13
581.5502948516364
 23
328.902504061256
 33
0.0
 14
581.5502948516364
 24
298.902504061256
 34
0.0
 50
90.0
100
AcDbRotatedDimension
1001
ACAD
1000
DSTYLE
1002
{
1070
   271
1070
     2
1002
}
  0
LINE
  5
E9B
330
18
100
AcDbEntity
  8
0
  6
ByBlock
 62
     2
100
AcDbLine
 10
486.5502948516364
 20
299.3427473991813
 30
0.0
 11
486.5502948516364
 21
229.2314773591471
 31
0.0
  0
LINE
  5
E9C
330
18
100
AcDbEntity
  8
0
  6
ByBlock
 62
     2
100
AcDbLine
 10
449.0502948516364
 20
230.481477359147
 30
0.0
 11
484.0502948516363
 21
230.481477359147
 31
0.0
  0
INSERT
  5
E9D
330
18
100
AcDbEntity
  8
0
  6
ByBlock
 62
     2
100
AcDbBlockReference
  2
_OPEN
 10
446.5502948516363
 20
230.481477359147
 30
0.0
 41
2.5
 42
2.5
 43
2.5
 50
180.0
  0
INSERT
  5
E9E
330
18
100
AcDbEntity
  8
0
  6
ByBlock
 62
     2
100
AcDbBlockReference
  2
_OPEN
 10
486.5502948516364
 20
230.481477359147
 30
0.0
 41
2.5
 42
2.5
 43
2.5
  0
MTEXT
  5
E9F
330
18
100
AcDbEntity
  8
0
  6
ByBlock
 62
     6
100
AcDbMText
 10
466.5502948516364
 20
232.3564773591471
 30
0.0
 40
2.5
 41
0.0
 71
     5
 72
     1
  1
\A1;40
  7
STYLE3
 73
     1
 44
1.0
  0
POINT
  5
EA0
330
18
100
AcDbEntity
  8
DEFPOINTS
  6
ByBlock
 62
     0
100
AcDbPoint
 10
446.5502948516363
 20
283.3335555413077
 30
0.0
  0
POINT
  5
EA1
102
{ACAD_REACTORS
330
10CD
102
}
330
18
100
AcDbEntity
  8
DEFPOINTS
  6
ByBlock
 62
     0
100
AcDbPoint
 10
486.5502948516364
 20
300.2025040612561
 30
0.0
  0
POINT
  5
EA2
330
18
100
AcDbEntity
  8
DEFPOINTS
  6
ByBlock
 62
     0
100
AcDbPoint
 10
486.5502948516364
 20
230.481477359147
 30
0.0
  0
LINE
  5
EAD
330
18
100
AcDbEntity
  8
想像線
 48
0.4
100
AcDbLine
 10
356.7144939053382
 20
373.4360060393961
 30
0.0
 11
356.7144939053382
 21
358.5452004160984
 31
0.0
  0
LINE
  5
EAE
330
18
100
AcDbEntity
  8
想像線
 48
0.4
100
AcDbLine
 10
353.7144939053383
 20
373.3200196828283
 30
0.0
 11
353.7144939053383
 21
358.5703247817081
 31
0.0
  0
LINE
  5
ED8
330
18
100
AcDbEntity
  8
0
  6
ByBlock
 62
     2
100
AcDbLine
 10
353.7144939053383
 20
373.3200196828283
 30
0.0
 11
353.7144939053383
 21
384.3214143702438
 31
0.0
  0
LINE
  5
ED9
330
18
100
AcDbEntity
  8
0
  6
ByBlock
 62
     2
100
AcDbLine
 10
356.7144939053382
 20
373.4360060393961
 30
0.0
 11
356.7144939053382
 21
384.3214143702438
 31
0.0
  0
LINE
  5
EDA
330
18
100
AcDbEntity
  8
0
  6
ByBlock
 62
     2
100
AcDbLine
 10
351.2144939053383
 20
383.0714143702437
 30
0.0
 11
348.7144939053383
 21
383.0714143702437
 31
0.0
  0
LINE
  5
EDB
330
18
100
AcDbEntity
  8
0
  6
ByBlock
 62
     2
100
AcDbLine
 10
359.2144939053383
 20
383.0714143702437
 30
0.0
 11
365.2186174352036
 21
383.0714143702437
 31
0.0
  0
LINE
  5
EDC
330
18
100
AcDbEntity
  8
0
  6
ByBlock
 62
     2
100
AcDbLine
 10
353.7144939053383
 20
383.0714143702437
 30
0.0
 11
356.7144939053382
 21
383.0714143702437
 31
0.0
  0
INSERT
  5
EDD
330
18
100
AcDbEntity
  8
0
  6
ByBlock
 62
     2
100
AcDbBlockReference
  2
_OPEN
 10
353.7144939053383
 20
383.0714143702437
 30
0.0
 41
2.5
 42
2.5
 43
2.5
  0
INSERT
  5
EDE
330
18
100
AcDbEntity
  8
0
  6
ByBlock
 62
     2
100
AcDbBlockReference
  2
_OPEN
 10
356.7144939053382
 20
383.0714143702437
 30
0.0
 41
2.5
 42
2.5
 43
2.5
 50
180.0
  0
MTEXT
  5
EDF
330
18
100
AcDbEntity
  8
0
  6
ByBlock
 62
     6
100
AcDbMText
 10
362.7142210679741
 20
385.6011762750057
 30
0.0
 40
2.5
 41
0.0
 71
     5
 72
     1
  1
\A1;(3)
  7
STYLE3
 73
     1
 44
1.0
  0
POINT
  5
EE0
330
18
100
AcDbEntity
  8
DEFPOINTS
  6
ByBlock
 62
     0
100
AcDbPoint
 10
353.7144939053383
 20
373.3200196828283
 30
0.0
  0
POINT
  5
EE1
330
18
100
AcDbEntity
  8
DEFPOINTS
  6
ByBlock
 62
     0
100
AcDbPoint
 10
356.7144939053382
 20
373.4360060393961
 30
0.0
  0
POINT
  5
EE2
330
18
100
AcDbEntity
  8
DEFPOINTS
  6
ByBlock
 62
     0
100
AcDbPoint
 10
356.7144939053382
 20
383.0714143702437
 30
0.0
  0
LINE
  5
EE3
330
18
100
AcDbEntity
  8
想像線
 48
0.4
100
AcDbLine
 10
390.7083713080217
 20
284.8162018747067
 30
0.0
 11
386.0443567171499
 21
268.7120357004456
 31
0.0
  0
LINE
  5
EE4
330
18
100
AcDbEntity
  8
想像線
 48
0.4
100
AcDbLine
 10
387.8267876139402
 20
285.6507529001111
 30
0.0
 11
383.2101811867625
 21
269.7102802416552
 31
0.0
  0
LINE
  5
EF4
330
18
100
AcDbEntity
  8
0
  6
ByBlock
 62
     2
100
AcDbLine
 10
383.2101811867626
 20
269.7102802416552
 30
0.0
 11
379.5605907033423
 21
257.108773435044
 31
0.0
  0
LINE
  5
EF5
330
18
100
AcDbEntity
  8
0
  6
ByBlock
 62
     2
100
AcDbLine
 10
386.04435671715
 20
268.7120357004456
 30
0.0
 11
382.4421743974237
 21
256.2742224096395
 31
0.0
  0
LINE
  5
EF6
330
18
100
AcDbEntity
  8
0
  6
ByBlock
 62
     2
100
AcDbLine
 10
377.5070005521929
 20
259.004892495415
 30
0.0
 11
375.105680807125
 21
259.7003516832521
 31
0.0
  0
LINE
  5
EF7
330
18
100
AcDbEntity
  8
0
  6
ByBlock
 62
     2
100
AcDbLine
 10
385.1912237364102
 20
256.7794230943364
 30
0.0
 11
390.3711626119186
 21
255.2792330047799
 31
0.0
  0
LINE
  5
EF8
330
18
100
AcDbEntity
  8
0
  6
ByBlock
 62
     2
100
AcDbLine
 10
379.9083202972608
 20
258.3094333075779
 30
0.0
 11
382.7899039913423
 21
257.4748822821734
 31
0.0
  0
INSERT
  5
EF9
330
18
100
AcDbEntity
  8
0
  6
ByBlock
 62
     2
100
AcDbBlockReference
  2
_OPEN
 10
379.9083202972608
 20
258.3094333075779
 30
0.0
 41
2.5
 42
2.5
 43
2.5
 50
343.8481693674603
  0
INSERT
  5
EFA
330
18
100
AcDbEntity
  8
0
  6
ByBlock
 62
     2
100
AcDbBlockReference
  2
_OPEN
 10
382.7899039913423
 20
257.4748822821734
 30
0.0
 41
2.5
 42
2.5
 43
2.5
 50
163.8481693674603
  0
MTEXT
  5
EFB
330
18
100
AcDbEntity
  8
0
  6
ByBlock
 62
     6
100
AcDbMText
 10
388.6558454257934
 20
258.3638233027362
 30
0.0
 40
2.5
 41
0.0
 71
     5
 72
     1
  1
(3)
  7
STYLE3
 11
0.9605278980271622
 21
-0.2781836751348315
 31
0.0
 73
     1
 44
1.0
  0
POINT
  5
EFC
330
18
100
AcDbEntity
  8
DEFPOINTS
  6
ByBlock
 62
     0
100
AcDbPoint
 10
387.8267876139402
 20
285.6507529001112
 30
0.0
  0
POINT
  5
EFD
330
18
100
AcDbEntity
  8
DEFPOINTS
  6
ByBlock
 62
     0
100
AcDbPoint
 10
390.7083713080217
 20
284.8162018747067
 30
0.0
  0
POINT
  5
EFE
330
18
100
AcDbEntity
  8
DEFPOINTS
  6
ByBlock
 62
     0
100
AcDbPoint
 10
382.7899039913423
 20
257.4748822821734
 30
0.0
  0
LINE
  5
F08
330
18
100
AcDbEntity
  8
隠れ線
  6
HIDDEN2
 62
     4
 48
0.3
100
AcDbLine
 10
299.8861758483788
 20
341.2190035909919
 30
0.0
 11
299.0153752889813
 21
336.4296005143059
 31
0.0
  0
LINE
  5
F09
330
18
100
AcDbEntity
  8
隠れ線
  6
HIDDEN2
 62
     4
 48
0.3
100
AcDbLine
 10
298.4103709832289
 20
341.4873317482919
 30
0.0
 11
297.5335463649359
 21
336.6647963476797
 31
0.0
  0
LINE
  5
F0B
330
18
100
AcDbEntity
  8
隠れ線
  6
HIDDEN2
 62
     4
 48
0.3
100
AcDbLine
 10
298.4103709832289
 20
341.4873317482919
 30
0.0
 11
299.8861758483788
 21
341.2190035909919
 31
0.0
  0
LINE
  5
F0C
330
18
100
AcDbEntity
  8
隠れ線
  6
HIDDEN2
 62
     4
 48
0.3
100
AcDbLine
 10
296.6215166012291
 20
331.6486326472927
 30
0.0
 11
298.0973214663789
 21
331.3803044899929
 31
0.0
  0
LINE
  5
F19
330
18
100
AcDbEntity
  8
隠れ線
  6
HIDDEN2
 62
     4
 48
0.3
100
AcDbLine
 10
298.9662014267771
 20
336.1591442721822
 30
0.0
 11
298.0973214663789
 21
331.3803044899929
 31
0.0
  0
LINE
  5
F1C
330
18
100
AcDbEntity
  8
隠れ線
  6
HIDDEN2
 62
     4
 48
0.3
100
AcDbLine
 10
297.4796839878617
 20
336.3685532737719
 30
0.0
 11
296.6215166012291
 21
331.6486326472927
 31
0.0
  0
CIRCLE
  5
F2D
330
18
100
AcDbEntity
  8
外形線
100
AcDbCircle
 10
456.2224113197412
 20
306.7969329938759
 30
0.0
 40
1.0
  0
ARC
  5
F2E
330
18
100
AcDbEntity
  8
隠れ線
 62
     1
 48
0.3
100
AcDbCircle
 10
458.5092839525456
 20
312.8635451042178
 30
0.0
 40
1.0
100
AcDbArc
 50
0.3934846052244765
 51
176.3640777844595
  0
ARC
  5
F30
330
18
100
AcDbEntity
  8
隠れ線
 62
     1
 48
0.3
100
AcDbCircle
 10
446.5502948516363
 20
313.902504061256
 30
0.0
 40
13.0
100
AcDbArc
 50
323.436016044956
 51
355.4464015554105
  0
ARC
  5
F33
330
18
100
AcDbEntity
  8
隠れ線
 62
     1
 48
0.3
100
AcDbCircle
 10
446.5502948516363
 20
313.902504061256
 30
0.0
 40
11.0
100
AcDbArc
 50
323.8200544521193
 51
354.9126405450587
  0
ARC
  5
F36
330
18
100
AcDbEntity
  8
中心線
 48
0.3
100
AcDbCircle
 10
446.5502948516363
 20
313.902504061256
 30
0.0
 40
12.0
100
AcDbArc
 50
310.9007731412307
 51
7.674640463052909
  0
CIRCLE
  5
F60
330
18
100
AcDbEntity
  8
外形線
100
AcDbCircle
 10
446.5502948516363
 20
313.902504061256
 30
0.0
 40
9.0
  0
CIRCLE
  5
FA1
102
{ACAD_REACTORS
330
10D9
102
}
330
18
100
AcDbEntity
  8
外形線
100
AcDbCircle
 10
429.5502948516364
 20
361.902504061256
 30
0.0
 40
2.0
  0
LINE
  5
FA2
102
{ACAD_REACTORS
330
10D9
102
}
330
18
100
AcDbEntity
  8
外形線
100
AcDbLine
 10
427.1487578438017
 20
358.4768479197263
 30
0.0
 11
430.5055882636644
 21
361.0963313149193
 31
0.0
  0
CIRCLE
  5
FA3
102
{ACAD_REACTORS
330
10D9
102
}
330
18
100
AcDbEntity
  8
外形線
100
AcDbCircle
 10
413.5502948516363
 20
273.902504061256
 30
0.0
 40
2.0
  0
LINE
  5
FA4
102
{ACAD_REACTORS
330
10D9
102
}
330
18
100
AcDbEntity
  8
外形線
100
AcDbLine
 10
412.5082871741216
 20
277.9542592364856
 30
0.0
 11
414.780922145873
 21
274.121721904234
 31
0.0
  0
LINE
  5
FDC
330
18
100
AcDbEntity
  8
隠れ線2
100
AcDbLine
 10
576.5502948516363
 20
324.152504061256
 30
0.0
 11
576.5502948516362
 21
303.652504061256
 31
0.0
  0
LINE
  5
FDD
330
18
100
AcDbEntity
  8
隠れ線2
100
AcDbLine
 10
486.5502948516364
 20
325.6525040612561
 30
0.0
 11
575.0502948516364
 21
325.652504061256
 31
0.0
  0
LINE
  5
FDE
330
18
100
AcDbEntity
  8
隠れ線2
100
AcDbLine
 10
486.5502948516363
 20
302.152504061256
 30
0.0
 11
575.0502948516363
 21
302.152504061256
 31
0.0
  0
ARC
  5
FDF
330
18
100
AcDbEntity
  8
隠れ線2
100
AcDbCircle
 10
575.0502948516364
 20
324.152504061256
 30
0.0
 40
1.5
100
AcDbArc
 50
0.0
 51
90.0
  0
ARC
  5
FE0
330
18
100
AcDbEntity
  8
隠れ線2
100
AcDbCircle
 10
575.0502948516363
 20
303.652504061256
 30
0.0
 40
1.5
100
AcDbArc
 50
270.0
 51
0.0
  0
ARC
  5
101D
330
18
100
AcDbEntity
  8
外形線
100
AcDbCircle
 10
485.9324964678177
 20
333.6525040612561
 30
0.0
 40
8.0
100
AcDbArc
 50
207.6640044961881
 51
270.0000000000004
  0
INSERT
  5
1056
330
18
100
AcDbEntity
  8
外形線
100
AcDbBlockReference
  2
A$C5A2C0625
 10
449.0754472659984
 20
297.1154945785589
 30
0.0
  0
LINE
  5
1133
330
18
100
AcDbEntity
  8
外形線
100
AcDbLine
 10
382.1291314155086
 20
440.8192167772257
 30
0.0
 11
509.1291314155086
 21
440.8192167772257
 31
0.0
  0
LINE
  5
1134
330
18
100
AcDbEntity
  8
外形線
100
AcDbLine
 10
382.1291314155086
 20
439.8192167772257
 30
0.0
 11
509.1291314155086
 21
439.8192167772257
 31
0.0
  0
TEXT
  5
1135
330
18
100
AcDbEntity
  8
文字
100
AcDbText
 10
383.4320814155086
 20
443.7426467772255
 30
0.0
 40
4.0
  1
Model No.LA-1 Outside Dial Caliper Gauge
  7
STYLE3
100
AcDbText
  0
LINE
  5
1136
330
18
100
AcDbEntity
  8
外形線
100
AcDbLine
 10
492.6049214155085
 20
197.6318657772256
 30
0.0
 11
633.3963394155086
 21
197.6318657772256
 31
0.0
  0
LINE
  5
1137
330
18
100
AcDbEntity
  8
外形線
100
AcDbLine
 10
492.6049214155085
 20
186.8516597772256
 30
0.0
 11
633.3963394155086
 21
186.8516597772256
 31
0.0
  0
TEXT
  5
1138
330
18
100
AcDbEntity
  8
0
  6
Continuous
100
AcDbText
 10
494.0623894155085
 20
188.7496497772256
 30
0.0
 40
2.1
  1
Design and specifications are subject to change without notice for future improvement.
  7
STYLE3
100
AcDbText
  0
TEXT
  5
1139
330
18
100
AcDbEntity
  8
0
  6
Continuous
100
AcDbText
 10
494.3538834155085
 20
192.6787977772256
 30
0.0
 40
3.5
  1
仕様及び外観は予告なく変更される場合がございますのでご了承下さい。
  7
STYLE3
100
AcDbText
  0
TEXT
  5
113A
330
18
100
AcDbEntity
  8
0
  6
Continuous
100
AcDbText
 10
493.7708974155085
 20
178.9850227772256
 30
0.0
 40
2.1
  1
3RD Angle Projection
  7
STYLE3
100
AcDbText
  0
TEXT
  5
113B
330
18
100
AcDbEntity
  8
0
  6
Continuous
100
AcDbText
 10
496.3943404155086
 20
182.4813057772256
 30
0.0
 40
3.0
  1
三　　角　　法
  7
STYLE3
100
AcDbText
  0
LINE
  5
113C
330
18
100
AcDbEntity
  8
外形線
100
AcDbLine
 10
492.6049214155085
 20
177.2368817772256
 30
0.0
 11
492.6049214155085
 21
197.6318657772256
 31
0.0
  0
LINE
  5
113D
330
18
100
AcDbEntity
  8
外形線
100
AcDbLine
 10
594.6276884155086
 20
186.8516597772256
 30
0.0
 11
594.6276884155086
 21
177.2368817772256
 31
0.0
  0
LINE
  5
113E
330
18
100
AcDbEntity
  8
外形線
100
AcDbLine
 10
564.8953394155086
 20
186.8516597772256
 30
0.0
 11
564.8953394155086
 21
177.2368817772256
 31
0.0
  0
LINE
  5
113F
330
18
100
AcDbEntity
  8
外形線
100
AcDbLine
 10
545.3652664155085
 20
186.8516597772256
 30
0.0
 11
545.3652664155085
 21
177.2368817772256
 31
0.0
  0
LINE
  5
1140
330
18
100
AcDbEntity
  8
外形線
100
AcDbLine
 10
527.8756494155086
 20
186.8516597772256
 30
0.0
 11
527.8756494155086
 21
177.2368817772256
 31
0.0
  0
TEXT
  5
1141
330
18
100
AcDbEntity
  8
0
  6
Continuous
100
AcDbText
 10
529.3331184155086
 20
182.4872597772256
 30
0.0
 40
3.0
  1
単位
  7
STYLE3
100
AcDbText
  0
TEXT
  5
1142
330
18
100
AcDbEntity
  8
0
  6
Continuous
100
AcDbText
 10
529.5048394155084
 20
178.9850237772256
 30
0.0
 40
2.1
  1
Unit
  7
STYLE3
100
AcDbText
  0
TEXT
  5
1143
330
18
100
AcDbEntity
  8
0
  6
Continuous
100
AcDbText
 10
546.6510144155086
 20
182.1959017772256
 30
0.0
 40
3.0
  1
尺 度
  7
STYLE3
100
AcDbText
  0
TEXT
  5
1144
330
18
100
AcDbEntity
  8
0
  6
Continuous
100
AcDbText
 10
537.3751664155085
 20
180.7331657772256
 30
0.0
 40
2.399999999999999
  1
mm
  7
STYLE3
100
AcDbText
  0
TEXT
  5
1145
330
18
100
AcDbEntity
  8
0
  6
Continuous
100
AcDbText
 10
547.1142294155085
 20
179.2763807772256
 30
0.0
 40
2.1
  1
Scale
  7
STYLE3
100
AcDbText
  0
TEXT
  5
1146
330
18
100
AcDbEntity
  8
0
  6
Continuous
100
AcDbText
 10
556.7335184155085
 20
181.0245227772256
 30
0.0
 40
2.399999999999999
  1
1/1
  7
STYLE3
100
AcDbText
  0
TEXT
  5
1147
330
18
100
AcDbEntity
  8
0
  6
Continuous
100
AcDbText
 10
566.8272904155086
 20
178.9850247772256
 30
0.0
 40
2.1
  1
Date
  7
STYLE3
100
AcDbText
  0
TEXT
  5
1148
330
18
100
AcDbEntity
  8
0
  6
Continuous
100
AcDbText
 10
566.4439294155085
 20
182.3181077772256
 30
0.0
 40
3.0
  1
日 付
  7
STYLE3
100
AcDbText
  0
TEXT
  5
1149
330
18
100
AcDbEntity
  8
0
  6
Continuous
100
AcDbText
 10
575.5720974155085
 20
180.7331647772256
 30
0.0
 40
2.1
  1
2010.06.23
  7
STYLE3
100
AcDbText
  0
TEXT
  5
114A
330
18
100
AcDbEntity
  8
0
  6
Continuous
100
AcDbText
 10
595.9766514155084
 20
182.7726617772256
 30
0.0
 40
3.0
  1
株式会社　尾崎製作所
  7
STYLE3
100
AcDbText
  0
TEXT
  5
114B
330
18
100
AcDbEntity
  8
0
  6
Continuous
100
AcDbText
 10
596.8511304155085
 20
178.9850227772256
 30
0.0
 40
2.1
  1
OZAKI MFG. CO., LTD.
  7
STYLE3
100
AcDbText
  0
ENDSEC
  0
SECTION
  2
OBJECTS
  0
DICTIONARY
  5
C
330
0
100
AcDbDictionary
281
     1
  3
ACAD_COLOR
350
1065
  3
ACAD_GROUP
350
D
  3
ACAD_IMAGE_DICT
350
C1B
  3
ACAD_LAYOUT
350
1068
  3
ACAD_MATERIAL
350
1064
  3
ACAD_MLINESTYLE
350
1B
  3
ACAD_PLOTSETTINGS
350
1069
  3
ACAD_PLOTSTYLENAME
350
1062
  3
ACAD_TABLESTYLE
350
1066
  3
ACDBVARIABLEDICTIONARY
350
D0A
  0
DICTIONARY
  5
D0C
330
18
100
AcDbDictionary
280
     1
281
     1
  3
ACAD_SORTENTS
360
D0D
  0
DICTIONARY
  5
1065
102
{ACAD_REACTORS
330
C
102
}
330
C
100
AcDbDictionary
281
     1
  0
DICTIONARY
  5
D
102
{ACAD_REACTORS
330
C
102
}
330
C
100
AcDbDictionary
281
     1
  3
*A1
350
10C1
  3
*A2
350
10CD
  3
*A3
350
10D9
  0
DICTIONARY
  5
C1B
102
{ACAD_REACTORS
330
C
102
}
330
C
100
AcDbDictionary
281
     1
  3
ROGO01
350
C1C
  0
DICTIONARY
  5
1068
102
{ACAD_REACTORS
330
C
102
}
330
C
100
AcDbDictionary
281
     1
  3
Model
350
106A
  3
レイアウト1
350
106B
  0
DICTIONARY
  5
1064
102
{ACAD_REACTORS
330
C
102
}
330
C
100
AcDbDictionary
281
     1
  0
DICTIONARY
  5
1B
102
{ACAD_REACTORS
330
C
102
}
330
C
100
AcDbDictionary
281
     1
  3
STANDARD
350
1C
  0
DICTIONARY
  5
1069
102
{ACAD_REACTORS
330
C
102
}
330
C
100
AcDbDictionary
281
     1
  0
ACDBDICTIONARYWDFLT
  5
1062
102
{ACAD_REACTORS
330
C
102
}
330
C
100
AcDbDictionary
281
     1
  3
Normal
350
1063
100
AcDbDictionaryWithDefault
340
1063
  0
DICTIONARY
  5
1066
102
{ACAD_REACTORS
330
C
102
}
330
C
100
AcDbDictionary
281
     1
  3
Standard
350
1067
  0
DICTIONARY
  5
D0A
102
{ACAD_REACTORS
330
C
102
}
330
C
100
AcDbDictionary
281
     1
  3
CTABLESTYLE
350
1075
  3
SORTENTS
350
D0B
  0
SORTENTSTABLE
  5
D0D
102
{ACAD_REACTORS
330
D0C
102
}
330
D0C
100
AcDbSortentsTable
330
18
  0
GROUP
  5
10C1
102
{ACAD_REACTORS
330
D
102
}
330
D
100
AcDbGroup
300

 70
     1
 71
     1
340
521
340
43E
340
469
340
468
340
467
340
466
340
455
340
460
340
464
340
463
340
462
340
465
340
45F
340
45E
340
45D
340
45B
340
461
340
45C
340
456
340
474
340
475
340
458
340
457
340
473
340
442
340
441
340
443
340
448
340
447
340
444
340
446
340
44E
340
445
340
44D
340
44C
340
44B
340
449
340
450
340
452
340
451
340
44A
340
4F6
340
44F
340
43D
340
4F4
340
4F5
340
4F3
340
4FB
340
4F2
340
4F1
340
4F0
340
4FE
340
4FD
340
4FC
340
4F9
340
500
340
4FA
340
502
340
501
340
4F8
340
508
340
507
340
503
340
509
340
4FF
340
43F
340
438
340
487
340
485
340
47C
340
47B
340
47A
340
472
340
470
340
489
340
486
340
482
340
481
340
480
340
479
340
478
340
477
340
476
340
46F
340
48B
340
48A
340
488
340
484
340
483
340
47F
340
47E
340
47D
340
471
340
440
340
33E
340
48E
340
48D
340
48C
340
523
340
46E
340
46D
340
46C
340
4D2
340
4CB
340
495
340
491
340
490
340
4B5
340
4B0
340
4A8
340
4C2
340
4C1
340
4C0
340
4BF
340
4BE
340
4BD
340
4BC
340
4BB
340
4BA
340
4B9
340
4B8
340
4B7
340
4B6
340
4AD
340
4AC
340
49D
340
49C
340
49B
340
496
340
494
340
493
340
492
340
48F
340
4DB
340
4DA
340
4D9
340
4D8
340
4D7
340
4D6
340
4CA
340
4C9
340
4C8
340
4C7
340
4C6
340
4C5
340
4C4
340
4C3
340
4B4
340
4B3
340
4B2
340
4B1
340
4AF
340
4AE
340
4AB
340
4AA
340
4A9
340
4A7
340
4A6
340
4A5
340
512
340
511
340
510
340
50F
340
50E
340
50D
340
4D5
340
4D4
340
4D3
340
4D1
340
4D0
340
4CF
340
4CE
340
4CD
340
4CC
340
43B
340
43A
340
439
340
459
340
46A
340
46B
340
49A
340
499
340
45A
340
4A2
340
4A0
340
498
340
4A1
340
49F
340
49E
340
497
340
4A3
340
4DD
340
4A4
340
4DC
340
4E0
340
4DF
340
4DE
340
4E2
340
4E1
340
4E4
340
4E3
340
43C
340
4E5
340
519
340
518
340
51A
340
51B
340
513
340
51C
340
517
340
515
340
514
340
50C
340
50A
340
51D
340
50B
340
516
340
4F7
340
520
340
51F
340
51E
340
504
340
506
340
505
340
4EC
340
4EB
340
4EA
340
4E8
340
453
340
454
340
4E7
340
4E6
340
4E9
340
4EE
340
4ED
340
4EF
340
D26
340
D1F
340
D27
340
D23
340
D28
340
D22
340
D2A
340
D29
340
D52
340
D20
340
D51
340
D50
340
D3A
  0
GROUP
  5
10CD
102
{ACAD_REACTORS
330
D
102
}
330
D
100
AcDbGroup
300

 70
     1
 71
     1
340
300
340
2DB
340
2F6
340
2DC
340
2DA
340
2FB
340
2D9
340
2FA
340
32D
340
324
340
2E3
340
2D8
340
2D7
340
2D5
340
2D6
340
329
340
2D4
340
31D
340
32B
340
2D3
340
2D2
340
32E
340
2DD
340
30D
340
31A
340
308
340
309
340
2EC
340
2EB
340
2EA
340
2E9
340
2E8
340
2E7
340
2E6
340
30C
340
30B
340
30A
340
307
340
306
340
305
340
304
340
303
340
302
340
301
340
2E5
340
2E4
340
2F9
340
2E1
340
2E0
340
2F8
340
31E
340
C5C
340
C5A
340
C58
340
C41
340
C3D
340
C21
340
2DE
340
C59
340
C57
340
C2C
340
C5E
340
C2A
340
C29
340
C28
340
C27
340
C26
340
C25
340
C24
340
C23
340
C22
340
C20
340
C62
340
C61
340
C60
340
C5F
340
C3C
340
C3B
340
C3A
340
C39
340
C38
340
C37
340
C36
340
C35
340
C34
340
C33
340
C32
340
C31
340
C30
340
C2F
340
C2E
340
C2D
340
C2B
340
C5B
340
C48
340
C45
340
C6A
340
C69
340
C68
340
C67
340
C66
340
C65
340
C64
340
C63
340
C44
340
C43
340
C42
340
C40
340
C3F
340
C3E
340
C5D
340
C56
340
C55
340
C54
340
C53
340
C52
340
C51
340
C50
340
C4F
340
C4E
340
C4D
340
C4C
340
C4B
340
C4A
340
C49
340
C47
340
C46
340
C1E
340
31F
340
32A
340
31B
340
2FF
340
2FE
340
323
340
2DF
340
2FD
340
2FC
340
322
340
321
340
328
340
327
340
320
340
326
340
31C
340
325
340
32C
340
2F3
340
2F1
340
EA1
340
2EE
340
2ED
340
2F2
340
2F0
340
2EF
340
2F4
340
315
340
311
340
2E2
340
2F5
340
310
340
313
340
312
340
30F
340
30E
340
316
340
314
340
317
340
318
340
319
  0
GROUP
  5
10D9
102
{ACAD_REACTORS
330
D
102
}
330
D
100
AcDbGroup
300

 70
     1
 71
     1
340
CF1
340
FA4
340
FA3
340
CC6
340
CF3
340
D02
340
CEC
340
D03
340
CED
340
FA2
340
FA1
340
CF0
340
CEE
340
CC3
340
CE9
  0
IMAGEDEF
  5
C1C
102
{ACAD_REACTORS
330
C1B
102
}
330
C1B
100
AcDbRasterImageDef
 90
        0
  1
D:\ﾃｽﾄ\rogo01.TIF
 10
3388.0
 20
4668.0
 11
0.0635
 21
0.0635
280
     1
281
     5
  0
LAYOUT
  5
106A
102
{ACAD_REACTORS
330
1068
102
}
330
1068
100
AcDbPlotSettings
  1

  2
WIDR Printer
  4

  6

 40
0.0
 41
0.0
 42
0.0
 43
0.0
 44
0.0
 45
0.0
 46
0.0
 47
0.0
 48
0.0
 49
0.0
140
0.0
141
0.0
142
1.0
143
1.0
 70
  1712
 72
     0
 73
     0
 74
     0
  7
AutoCad LT 98.ctb
 75
     0
147
1.0
 76
     0
 77
     2
 78
   300
148
0.0
149
0.0
100
AcDbLayout
  1
Model
 70
     1
 71
     0
 10
0.0
 20
0.0
 11
12.0
 21
9.0
 12
0.0
 22
0.0
 32
0.0
 14
0.0
 24
0.0
 34
0.0
 15
0.0
 25
0.0
 35
0.0
146
0.0
 13
0.0
 23
0.0
 33
0.0
 16
1.0
 26
0.0
 36
0.0
 17
0.0
 27
1.0
 37
0.0
 76
     0
330
18
  0
LAYOUT
  5
106B
102
{ACAD_REACTORS
330
1068
102
}
330
1068
100
AcDbPlotSettings
  1

  2
WIDR Printer
  4

  6

 40
0.0
 41
0.0
 42
0.0
 43
0.0
 44
0.0
 45
0.0
 46
0.0
 47
0.0
 48
0.0
 49
0.0
140
0.0
141
0.0
142
1.0
143
1.0
 70
   688
 72
     0
 73
     0
 74
     5
  7
AutoCad LT 98.ctb
 75
    16
147
1.0
 76
     0
 77
     2
 78
   300
148
0.0
149
0.0
100
AcDbLayout
  1
レイアウト1
 70
     1
 71
     1
 10
0.0
 20
0.0
 11
420.0
 21
297.0
 12
0.0
 22
0.0
 32
0.0
 14
1.000000000000000E+20
 24
1.000000000000000E+20
 34
1.000000000000000E+20
 15
-1.000000000000000E+20
 25
-1.000000000000000E+20
 35
-1.000000000000000E+20
146
0.0
 13
0.0
 23
0.0
 33
0.0
 16
1.0
 26
0.0
 36
0.0
 17
0.0
 27
1.0
 37
0.0
 76
     0
330
15
  0
MLINESTYLE
  5
1C
102
{ACAD_REACTORS
330
1B
102
}
330
1B
100
AcDbMlineStyle
  2
STANDARD
 70
     0
  3

 62
   256
 51
90.0
 52
90.0
 71
     2
 49
0.5
 62
   256
  6
BYLAYER
 49
-0.5
 62
   256
  6
BYLAYER
  0
ACDBPLACEHOLDER
  5
1063
102
{ACAD_REACTORS
330
1062
102
}
330
1062
  0
ACAD_PROXY_OBJECT
  5
1067
102
{ACAD_REACTORS
330
1066
102
}
330
1066
100
AcDbProxyObject
 90
      499
 91
      506
 95
  2555929
 70
     0
 93
     1849
310
4214DD185B99185C992420000000000000F83F0000000000003E0FC00000000000004901028000000C1008070000C3001FDFF8000000C1003FBFF000000182007F7FE00000030400FEFFC00000060801FDFF8000000C1003FBFF000000182000000000000000C2020B0000001820100E000186003FBFF000000182007F7FE0
310
0000030400FEFFC00000060801FDFF8000000C1003FBFF000000182007F7FE0000003040000000000000012404160000003040201C00030C007F7FE00000030400FEFFC00000060801FDFF8000000C1003FBFF000000182007F7FE00000030400FEFFC000000608000
340
F
340
F
340
F
 94
        0
  0
DICTIONARYVAR
  5
1075
102
{ACAD_REACTORS
330
D0A
102
}
330
D0A
100
DictionaryVariables
280
     0
  1
STANDARD
  0
DICTIONARYVAR
  5
D0B
102
{ACAD_REACTORS
330
D0A
102
}
330
D0A
100
DictionaryVariables
280
     0
  1
96
  0
ENDSEC
  0
EOF
