  0
SECTION
  2
HEADER
  9
$ACADVER
  1
AC1018
  9
$ACADMAINTVER
 70
     0
  9
$DWGCODEPAGE
  3
ANSI_932
  9
$INSBASE
 10
0.0
 20
0.0
 30
0.0
  9
$EXTMIN
 10
-0.4258934178280925
 20
-0.4173126192372365
 30
-0.000045764259152
  9
$EXTMAX
 10
565.425903957237
 20
377.9173196659998
 30
1.000045782886598
  9
$LIMMIN
 10
0.0
 20
0.0
  9
$LIMMAX
 10
420.0
 20
297.0
  9
$ORTHOMODE
 70
     0
  9
$REGENMODE
 70
     1
  9
$FILLMODE
 70
     1
  9
$QTEXTMODE
 70
     0
  9
$MIRRTEXT
 70
     1
  9
$LTSCALE
 40
1.0
  9
$ATTMODE
 70
     1
  9
$TEXTSIZE
 40
2.5
  9
$TRACEWID
 40
1.0
  9
$TEXTSTYLE
  7
STYLE3
  9
$CLAYER
  8
寸法線
  9
$CELTYPE
  6
BYLAYER
  9
$CECOLOR
 62
   256
  9
$CELTSCALE
 40
1.0
  9
$DISPSILH
 70
     0
  9
$DIMSCALE
 40
1.0
  9
$DIMASZ
 40
2.5
  9
$DIMEXO
 40
0.0
  9
$DIMDLI
 40
3.75
  9
$DIMRND
 40
0.0
  9
$DIMDLE
 40
0.0
  9
$DIMEXE
 40
1.25
  9
$DIMTP
 40
0.0
  9
$DIMTM
 40
0.0
  9
$DIMTXT
 40
2.5
  9
$DIMCEN
 40
2.5
  9
$DIMTSZ
 40
0.0
  9
$DIMTOL
 70
     0
  9
$DIMLIM
 70
     0
  9
$DIMTIH
 70
     0
  9
$DIMTOH
 70
     0
  9
$DIMSE1
 70
     0
  9
$DIMSE2
 70
     0
  9
$DIMTAD
 70
     1
  9
$DIMZIN
 70
     8
  9
$DIMBLK
  1

  9
$DIMASO
 70
     1
  9
$DIMSHO
 70
     1
  9
$DIMPOST
  1

  9
$DIMAPOST
  1

  9
$DIMALT
 70
     0
  9
$DIMALTD
 70
     4
  9
$DIMALTF
 40
0.0394
  9
$DIMLFAC
 40
1.0
  9
$DIMTOFL
 70
     1
  9
$DIMTVP
 40
0.0
  9
$DIMTIX
 70
     0
  9
$DIMSOXD
 70
     0
  9
$DIMSAH
 70
     1
  9
$DIMBLK1
  1
OPEN
  9
$DIMBLK2
  1
OPEN
  9
$DIMSTYLE
  2
STYLE3
  9
$DIMCLRD
 70
     2
  9
$DIMCLRE
 70
     2
  9
$DIMCLRT
 70
     6
  9
$DIMTFAC
 40
1.0
  9
$DIMGAP
 40
0.625
  9
$DIMJUST
 70
     0
  9
$DIMSD1
 70
     0
  9
$DIMSD2
 70
     0
  9
$DIMTOLJ
 70
     1
  9
$DIMTZIN
 70
     0
  9
$DIMALTZ
 70
     0
  9
$DIMALTTZ
 70
     0
  9
$DIMUPT
 70
     0
  9
$DIMDEC
 70
     2
  9
$DIMTDEC
 70
     4
  9
$DIMALTU
 70
     8
  9
$DIMALTTD
 70
     4
  9
$DIMTXSTY
  7
STYLE3
  9
$DIMAUNIT
 70
     0
  9
$DIMADEC
 70
     0
  9
$DIMALTRND
 40
0.0
  9
$DIMAZIN
 70
     0
  9
$DIMDSEP
 70
    46
  9
$DIMATFIT
 70
     3
  9
$DIMFRAC
 70
     0
  9
$DIMLDRBLK
  1

  9
$DIMLUNIT
 70
     2
  9
$DIMLWD
 70
    -2
  9
$DIMLWE
 70
    -2
  9
$DIMTMOVE
 70
     0
  9
$LUNITS
 70
     2
  9
$LUPREC
 70
     4
  9
$SKETCHINC
 40
1.0
  9
$FILLETRAD
 40
1.5
  9
$AUNITS
 70
     0
  9
$AUPREC
 70
     0
  9
$MENU
  1
.
  9
$ELEVATION
 40
0.0
  9
$PELEVATION
 40
0.0
  9
$THICKNESS
 40
0.0
  9
$LIMCHECK
 70
     0
  9
$CHAMFERA
 40
10.0
  9
$CHAMFERB
 40
10.0
  9
$CHAMFERC
 40
20.0
  9
$CHAMFERD
 40
0.0
  9
$SKPOLY
 70
     0
  9
$TDCREATE
 40
2450898.402318403
  9
$TDUCREATE
 40
2450898.027318403
  9
$TDUPDATE
 40
2455376.472787627
  9
$TDUUPDATE
 40
2455376.097787627
  9
$TDINDWG
 40
0.2537849769
  9
$TDUSRTIMER
 40
0.2537849769
  9
$USRTIMER
 70
     1
  9
$ANGBASE
 50
0.0
  9
$ANGDIR
 70
     0
  9
$PDMODE
 70
     0
  9
$PDSIZE
 40
0.0
  9
$PLINEWID
 40
0.0
  9
$SPLFRAME
 70
     0
  9
$SPLINETYPE
 70
     6
  9
$SPLINESEGS
 70
     8
  9
$HANDSEED
  5
E36
  9
$SURFTAB1
 70
     6
  9
$SURFTAB2
 70
     6
  9
$SURFTYPE
 70
     6
  9
$SURFU
 70
     6
  9
$SURFV
 70
     6
  9
$UCSBASE
  2

  9
$UCSNAME
  2

  9
$UCSORG
 10
0.0
 20
0.0
 30
0.0
  9
$UCSXDIR
 10
1.0
 20
0.0
 30
0.0
  9
$UCSYDIR
 10
0.0
 20
1.0
 30
0.0
  9
$UCSORTHOREF
  2

  9
$UCSORTHOVIEW
 70
     0
  9
$UCSORGTOP
 10
0.0
 20
0.0
 30
0.0
  9
$UCSORGBOTTOM
 10
0.0
 20
0.0
 30
0.0
  9
$UCSORGLEFT
 10
0.0
 20
0.0
 30
0.0
  9
$UCSORGRIGHT
 10
0.0
 20
0.0
 30
0.0
  9
$UCSORGFRONT
 10
0.0
 20
0.0
 30
0.0
  9
$UCSORGBACK
 10
0.0
 20
0.0
 30
0.0
  9
$PUCSBASE
  2

  9
$PUCSNAME
  2

  9
$PUCSORG
 10
0.0
 20
0.0
 30
0.0
  9
$PUCSXDIR
 10
1.0
 20
0.0
 30
0.0
  9
$PUCSYDIR
 10
0.0
 20
1.0
 30
0.0
  9
$PUCSORTHOREF
  2

  9
$PUCSORTHOVIEW
 70
     0
  9
$PUCSORGTOP
 10
0.0
 20
0.0
 30
0.0
  9
$PUCSORGBOTTOM
 10
0.0
 20
0.0
 30
0.0
  9
$PUCSORGLEFT
 10
0.0
 20
0.0
 30
0.0
  9
$PUCSORGRIGHT
 10
0.0
 20
0.0
 30
0.0
  9
$PUCSORGFRONT
 10
0.0
 20
0.0
 30
0.0
  9
$PUCSORGBACK
 10
0.0
 20
0.0
 30
0.0
  9
$USERI1
 70
     0
  9
$USERI2
 70
     0
  9
$USERI3
 70
     0
  9
$USERI4
 70
     0
  9
$USERI5
 70
     0
  9
$USERR1
 40
0.0
  9
$USERR2
 40
0.0
  9
$USERR3
 40
0.0
  9
$USERR4
 40
0.0
  9
$USERR5
 40
0.0
  9
$WORLDVIEW
 70
     1
  9
$SHADEDGE
 70
     3
  9
$SHADEDIF
 70
    70
  9
$TILEMODE
 70
     1
  9
$MAXACTVP
 70
    48
  9
$PINSBASE
 10
0.0
 20
0.0
 30
0.0
  9
$PLIMCHECK
 70
     0
  9
$PEXTMIN
 10
1.000000000000000E+20
 20
1.000000000000000E+20
 30
1.000000000000000E+20
  9
$PEXTMAX
 10
-1.000000000000000E+20
 20
-1.000000000000000E+20
 30
-1.000000000000000E+20
  9
$PLIMMIN
 10
0.0
 20
0.0
  9
$PLIMMAX
 10
420.0
 20
297.0
  9
$UNITMODE
 70
     0
  9
$VISRETAIN
 70
     1
  9
$PLINEGEN
 70
     0
  9
$PSLTSCALE
 70
     1
  9
$TREEDEPTH
 70
  3020
  9
$CMLSTYLE
  2
STANDARD
  9
$CMLJUST
 70
     0
  9
$CMLSCALE
 40
20.0
  9
$PROXYGRAPHICS
 70
     1
  9
$MEASUREMENT
 70
     1
  9
$CELWEIGHT
370
    -1
  9
$ENDCAPS
280
     0
  9
$JOINSTYLE
280
     0
  9
$LWDISPLAY
290
     0
  9
$INSUNITS
 70
     0
  9
$HYPERLINKBASE
  1

  9
$STYLESHEET
  1
AutoCad LT 98.ctb
  9
$XEDIT
290
     1
  9
$CEPSNTYPE
380
     0
  9
$PSTYLEMODE
290
     1
  9
$FINGERPRINTGUID
  2
{2C1B9883-F425-4CBB-A9DF-BB68E5AC34F3}
  9
$VERSIONGUID
  2
{A538BE0E-C331-483C-A253-8780F5F5BA0B}
  9
$EXTNAMES
290
     1
  9
$PSVPSCALE
 40
0.0
  9
$OLESTARTUP
290
     0
  9
$SORTENTS
280
   127
  9
$INDEXCTL
280
     0
  9
$HIDETEXT
280
     0
  9
$XCLIPFRAME
290
     0
  9
$HALOGAP
280
     0
  9
$OBSCOLOR
 70
   257
  9
$OBSLTYPE
280
     0
  9
$INTERSECTIONDISPLAY
280
     0
  9
$INTERSECTIONCOLOR
 70
   257
  9
$DIMASSOC
280
     1
  9
$PROJECTNAME
  1

  0
ENDSEC
  0
SECTION
  2
CLASSES
  0
CLASS
  1
HATCH
  2
AcDbHatch
  3
ObjectDBX Classes
 90
        0
 91
       19
280
     0
281
     1
  0
CLASS
  1
LWPOLYLINE
  2
AcDbPolyline
  3
ObjectDBX Classes
 90
        0
 91
        1
280
     0
281
     1
  0
CLASS
  1
ACDBDICTIONARYWDFLT
  2
AcDbDictionaryWithDefault
  3
ObjectDBX Classes
 90
        0
 91
        1
280
     0
281
     0
  0
CLASS
  1
TABLESTYLE
  2
AcDbTableStyle
  3
ObjectDBX Classes
 90
     2047
 91
        1
280
     0
281
     0
  0
CLASS
  1
DICTIONARYVAR
  2
AcDbDictionaryVar
  3
ObjectDBX Classes
 90
        0
 91
        1
280
     0
281
     0
  0
CLASS
  1
SORTENTSTABLE
  2
AcDbSortentsTable
  3
ObjectDBX Classes
 90
        0
 91
        1
280
     0
281
     0
  0
ENDSEC
  0
SECTION
  2
TABLES
  0
TABLE
  2
VPORT
  5
8
330
0
100
AcDbSymbolTable
 70
     2
  0
VPORT
  5
E35
330
8
100
AcDbSymbolTableRecord
100
AcDbViewportTableRecord
  2
*Active
 70
     0
 10
0.0
 20
0.0
 11
1.0
 21
1.0
 12
282.5000052697046
 22
188.7500035233812
 13
0.0
 23
0.0
 14
10.0
 24
10.0
 15
10.0
 25
10.0
 16
0.0
 26
0.0
 36
1.0
 17
0.0
 27
0.0
 37
0.0
 40
381.211701732273
 41
1.530456852791878
 42
50.0
 43
0.0
 44
0.0
 50
0.0
 51
0.0
 71
     0
 72
   100
 73
     1
 74
     1
 75
     0
 76
     0
 77
     0
 78
     0
281
     0
 65
     1
110
0.0
120
0.0
130
0.0
111
1.0
121
0.0
131
0.0
112
0.0
122
1.0
132
0.0
 79
     0
146
0.0
  0
ENDTAB
  0
TABLE
  2
LTYPE
  5
5
330
0
100
AcDbSymbolTable
 70
    13
  0
LTYPE
  5
12
330
5
100
AcDbSymbolTableRecord
100
AcDbLinetypeTableRecord
  2
BYBLOCK
 70
     0
  3

 72
    65
 73
     0
 40
0.0
  0
LTYPE
  5
13
330
5
100
AcDbSymbolTableRecord
100
AcDbLinetypeTableRecord
  2
BYLAYER
 70
     0
  3

 72
    65
 73
     0
 40
0.0
  0
LTYPE
  5
14
330
5
100
AcDbSymbolTableRecord
100
AcDbLinetypeTableRecord
  2
CONTINUOUS
 70
     0
  3
Solid line
 72
    65
 73
     0
 40
0.0
  0
LTYPE
  5
22
330
5
100
AcDbSymbolTableRecord
100
AcDbLinetypeTableRecord
  2
CENTER2
 70
     0
  3
Center (.5x) ___ _ ___ _ ___ _ ___ _ ___ _ ___
 72
    65
 73
     4
 40
28.575
 49
19.05
 74
     0
 49
-3.174999999999999
 74
     0
 49
3.174999999999999
 74
     0
 49
-3.174999999999999
 74
     0
  0
LTYPE
  5
23
330
5
100
AcDbSymbolTableRecord
100
AcDbLinetypeTableRecord
  2
HIDDEN2
 70
     0
  3
Hidden (.5x) _ _ _ _ _ _ _ _ _ _ _ _ _ _ _ _ _
 72
    65
 73
     2
 40
4.762499999999999
 49
3.174999999999999
 74
     0
 49
-1.587499999999999
 74
     0
  0
LTYPE
  5
24
330
5
100
AcDbSymbolTableRecord
100
AcDbLinetypeTableRecord
  2
PHANTOM2
 70
     0
  3
Phantom (.5x) ___ _ _ ___ _ _ ___ _ _ ___ _ _
 72
    65
 73
     6
 40
31.75
 49
15.875
 74
     0
 49
-3.174999999999999
 74
     0
 49
3.174999999999999
 74
     0
 49
-3.174999999999999
 74
     0
 49
3.174999999999999
 74
     0
 49
-3.174999999999999
 74
     0
  0
ENDTAB
  0
TABLE
  2
LAYER
  5
2
330
0
100
AcDbSymbolTable
 70
    16
  0
LAYER
  5
E
330
2
100
AcDbSymbolTableRecord
100
AcDbLayerTableRecord
  2
0
 70
     0
 62
     7
  6
CONTINUOUS
370
    -3
390
DAA
  0
LAYER
  5
25
330
2
100
AcDbSymbolTableRecord
100
AcDbLayerTableRecord
  2
外形線
 70
     0
 62
     7
  6
CONTINUOUS
370
    -3
390
DAA
  0
LAYER
  5
26
330
2
100
AcDbSymbolTableRecord
100
AcDbLayerTableRecord
  2
寸法線
 70
     0
 62
     2
  6
CONTINUOUS
370
    -3
390
DAA
  0
LAYER
  5
27
330
2
100
AcDbSymbolTableRecord
100
AcDbLayerTableRecord
  2
中心線
 70
     0
 62
     4
  6
CENTER2
370
    -3
390
DAA
  0
LAYER
  5
28
330
2
100
AcDbSymbolTableRecord
100
AcDbLayerTableRecord
  2
隠れ線
 70
     0
 62
     6
  6
HIDDEN2
370
    -3
390
DAA
  0
LAYER
  5
29
330
2
100
AcDbSymbolTableRecord
100
AcDbLayerTableRecord
  2
想像線
 70
     0
 62
     1
  6
PHANTOM2
370
    -3
390
DAA
  0
LAYER
  5
2A
330
2
100
AcDbSymbolTableRecord
100
AcDbLayerTableRecord
  2
ﾊｯﾁﾝｸ
 70
     0
 62
     6
  6
CONTINUOUS
370
    -3
390
DAA
  0
LAYER
  5
2B
330
2
100
AcDbSymbolTableRecord
100
AcDbLayerTableRecord
  2
文字
 70
     0
 62
     6
  6
CONTINUOUS
370
    -3
390
DAA
  0
LAYER
  5
2C
330
2
100
AcDbSymbolTableRecord
100
AcDbLayerTableRecord
  2
目盛
 70
     0
 62
    72
  6
CONTINUOUS
370
    -3
390
DAA
  0
LAYER
  5
2D
330
2
100
AcDbSymbolTableRecord
100
AcDbLayerTableRecord
  2
針
 70
     0
 62
     5
  6
CONTINUOUS
370
    -3
390
DAA
  0
LAYER
  5
53
330
2
100
AcDbSymbolTableRecord
100
AcDbLayerTableRecord
  2
DEFPOINTS
 70
     0
 62
     7
  6
CONTINUOUS
290
     0
370
    -3
390
DAA
  0
LAYER
  5
A5
330
2
100
AcDbSymbolTableRecord
100
AcDbLayerTableRecord
  2
C
 70
     0
 62
     7
  6
CONTINUOUS
370
    -3
390
DAA
  0
LAYER
  5
324
330
2
100
AcDbSymbolTableRecord
100
AcDbLayerTableRecord
  2
握り
 70
     0
 62
     3
  6
CONTINUOUS
370
    -3
390
DAA
  0
LAYER
  5
386
330
2
100
AcDbSymbolTableRecord
100
AcDbLayerTableRecord
  2
ROGO
 70
     0
 62
     6
  6
CONTINUOUS
370
    -3
390
DAA
  0
LAYER
  5
DCC
330
2
100
AcDbSymbolTableRecord
100
AcDbLayerTableRecord
  2
隠れ線2
 70
     0
 62
     1
  6
HIDDEN2
370
    -3
390
DAA
  0
ENDTAB
  0
TABLE
  2
STYLE
  5
3
330
0
100
AcDbSymbolTable
 70
     6
  0
STYLE
  5
F
330
3
100
AcDbSymbolTableRecord
100
AcDbTextStyleTableRecord
  2
STANDARD
 70
     0
 40
0.0
 41
1.0
 50
0.0
 71
     0
 42
2.5
  3
txt
  4

  0
STYLE
  5
3F
330
3
100
AcDbSymbolTableRecord
100
AcDbTextStyleTableRecord
  2
STYLE3
 70
     0
 40
0.0
 41
1.0
 50
0.0
 71
     0
 42
2.5
  3
romans.shx
  4
bigfont.shx
  0
ENDTAB
  0
TABLE
  2
VIEW
  5
6
330
0
100
AcDbSymbolTable
 70
     0
  0
ENDTAB
  0
TABLE
  2
UCS
  5
7
330
0
100
AcDbSymbolTable
 70
     0
  0
ENDTAB
  0
TABLE
  2
APPID
  5
9
330
0
100
AcDbSymbolTable
 70
     2
  0
APPID
  5
10
330
9
100
AcDbSymbolTableRecord
100
AcDbRegAppTableRecord
  2
ACAD
 70
     0
  0
APPID
  5
DD1
330
9
100
AcDbSymbolTableRecord
100
AcDbRegAppTableRecord
  2
ACAD_PSEXT
 70
     0
  0
ENDTAB
  0
TABLE
  2
DIMSTYLE
  5
A
330
0
100
AcDbSymbolTable
 70
     8
100
AcDbDimStyleTable
 71
     1
340
8F
  0
DIMSTYLE
105
1D
330
A
100
AcDbSymbolTableRecord
100
AcDbDimStyleTableRecord
  2
STANDARD
 70
     0
 41
2.5
 42
0.625
 43
3.75
 44
1.25
 73
     0
 74
     0
 77
     1
 78
     8
140
2.5
141
2.5
143
0.0394
147
0.625
171
     4
172
     1
273
     8
274
     4
277
     6
340
F
  0
DIMSTYLE
105
8F
102
{ACAD_REACTORS
330
603
330
60F
330
61C
330
C20
330
C3C
102
}
330
A
100
AcDbSymbolTableRecord
100
AcDbDimStyleTableRecord
  2
STYLE3
 70
     0
 41
2.5
 42
0.0
 43
3.75
 44
1.25
 73
     0
 74
     0
 77
     1
 78
     8
140
2.5
141
2.5
143
0.0394
147
0.625
171
     4
172
     1
173
     1
176
     2
177
     2
178
     6
271
     1
273
     8
274
     4
340
3F
341
45
343
45
344
45
  0
ENDTAB
  0
TABLE
  2
BLOCK_RECORD
  5
1
330
0
100
AcDbSymbolTable
 70
    11
  0
BLOCK_RECORD
  5
18
102
{ACAD_XDICTIONARY
360
DC8
102
}
330
1
100
AcDbSymbolTableRecord
100
AcDbBlockTableRecord
  2
*MODEL_SPACE
340
DB1
  0
BLOCK_RECORD
  5
15
330
1
100
AcDbSymbolTableRecord
100
AcDbBlockTableRecord
  2
*PAPER_SPACE
340
DB2
  0
BLOCK_RECORD
  5
45
330
1
100
AcDbSymbolTableRecord
100
AcDbBlockTableRecord
  2
_OPEN
340
0
102
{BLKREFS
331
BE3
331
C73
331
C74
331
CCE
331
D02
331
D03
331
D0C
331
D0D
331
CF6
331
CF7
331
CEB
331
CEC
331
615
331
616
331
C27
331
C28
331
C43
331
C44
102
}
  0
BLOCK_RECORD
  5
5F7
330
1
100
AcDbSymbolTableRecord
100
AcDbBlockTableRecord
  2
*D4
340
0
  0
BLOCK_RECORD
  5
604
330
1
100
AcDbSymbolTableRecord
100
AcDbBlockTableRecord
  2
*D5
340
0
  0
BLOCK_RECORD
  5
610
330
1
100
AcDbSymbolTableRecord
100
AcDbBlockTableRecord
  2
*D6
340
0
  0
BLOCK_RECORD
  5
C12
330
1
100
AcDbSymbolTableRecord
100
AcDbBlockTableRecord
  2
*D7
340
0
  0
BLOCK_RECORD
  5
C2E
330
1
100
AcDbSymbolTableRecord
100
AcDbBlockTableRecord
  2
*D8
340
0
  0
ENDTAB
  0
ENDSEC
  0
SECTION
  2
BLOCKS
  0
BLOCK
  5
19
330
18
100
AcDbEntity
  8
0
100
AcDbBlockBegin
  2
*MODEL_SPACE
 70
     0
 10
0.0
 20
0.0
 30
0.0
  3
*MODEL_SPACE
  1

  0
ENDBLK
  5
1A
330
18
100
AcDbEntity
  8
0
100
AcDbBlockEnd
  0
BLOCK
  5
16
330
15
100
AcDbEntity
 67
     1
  8
0
100
AcDbBlockBegin
  2
*PAPER_SPACE
 70
     0
 10
0.0
 20
0.0
 30
0.0
  3
*PAPER_SPACE
  1

  0
ENDBLK
  5
17
330
15
100
AcDbEntity
 67
     1
  8
0
100
AcDbBlockEnd
  0
BLOCK
  5
46
330
45
100
AcDbEntity
  8
0
100
AcDbBlockBegin
  2
_OPEN
 70
     0
 10
0.0
 20
0.0
 30
0.0
  3
_OPEN
  1

  0
LINE
  5
47
330
45
100
AcDbEntity
  8
0
  6
ByBlock
 62
     0
100
AcDbLine
 10
-1.0
 20
0.1666666666666666
 30
0.0
 11
0.0
 21
0.0
 31
0.0
  0
LINE
  5
48
330
45
100
AcDbEntity
  8
0
  6
ByBlock
 62
     0
100
AcDbLine
 10
0.0
 20
0.0
 30
0.0
 11
-1.0
 21
-0.1666666666666666
 31
0.0
  0
LINE
  5
49
330
45
100
AcDbEntity
  8
0
  6
ByBlock
 62
     0
100
AcDbLine
 10
0.0
 20
0.0
 30
0.0
 11
-1.0
 21
0.0
 31
0.0
  0
ENDBLK
  5
4A
330
45
100
AcDbEntity
  8
0
100
AcDbBlockEnd
  0
BLOCK
  5
CF2
330
5F7
100
AcDbEntity
  8
0
100
AcDbBlockBegin
  2
*D4
 70
     1
 10
0.0
 20
0.0
 30
0.0
  3
*D4
  1

  0
LINE
  5
CF3
330
5F7
100
AcDbEntity
  8
0
  6
ByBlock
 62
     2
100
AcDbLine
 10
363.7569596478877
 20
138.0633748797409
 30
0.0
 11
363.7569596478877
 21
90.23471927955723
 31
0.0
  0
LINE
  5
CF4
330
5F7
100
AcDbEntity
  8
0
  6
ByBlock
 62
     2
100
AcDbLine
 10
413.7569596478877
 20
203.0125578775515
 30
0.0
 11
413.7569596478877
 21
90.23471927955723
 31
0.0
  0
LINE
  5
CF5
330
5F7
100
AcDbEntity
  8
0
  6
ByBlock
 62
     2
100
AcDbLine
 10
366.2569596478877
 20
91.48471927955723
 30
0.0
 11
411.2569596478876
 21
91.48471927955723
 31
0.0
  0
INSERT
  5
CF6
330
5F7
100
AcDbEntity
  8
0
  6
ByBlock
 62
     2
100
AcDbBlockReference
  2
_OPEN
 10
363.7569596478877
 20
91.48471927955723
 30
0.0
 41
2.5
 42
2.5
 43
2.5
 50
180.0
  0
INSERT
  5
CF7
330
5F7
100
AcDbEntity
  8
0
  6
ByBlock
 62
     2
100
AcDbBlockReference
  2
_OPEN
 10
413.7569596478877
 20
91.48471927955723
 30
0.0
 41
2.5
 42
2.5
 43
2.5
  0
MTEXT
  5
CF8
330
5F7
100
AcDbEntity
  8
0
  6
ByBlock
 62
     6
100
AcDbMText
 10
388.7569596478877
 20
93.35971927955723
 30
0.0
 40
2.5
 41
0.0
 71
     5
 72
     1
  1
\A1;50
  7
STYLE3
 73
     1
 44
1.0
  0
POINT
  5
CF9
330
5F7
100
AcDbEntity
  8
DEFPOINTS
  6
ByBlock
 62
     0
100
AcDbPoint
 10
363.7569596478877
 20
138.0633748797409
 30
0.0
  0
POINT
  5
CFA
330
5F7
100
AcDbEntity
  8
DEFPOINTS
  6
ByBlock
 62
     0
100
AcDbPoint
 10
413.7569596478877
 20
203.0125578775515
 30
0.0
  0
POINT
  5
CFB
330
5F7
100
AcDbEntity
  8
DEFPOINTS
  6
ByBlock
 62
     0
100
AcDbPoint
 10
413.7569596478877
 20
91.48471927955723
 30
0.0
  0
ENDBLK
  5
CFC
330
5F7
100
AcDbEntity
  8
0
100
AcDbBlockEnd
  0
BLOCK
  5
CE8
330
604
100
AcDbEntity
  8
0
100
AcDbBlockBegin
  2
*D5
 70
     1
 10
0.0
 20
0.0
 30
0.0
  3
*D5
  1

  0
LINE
  5
CE9
330
604
100
AcDbEntity
  8
0
  6
ByBlock
 62
     2
100
AcDbLine
 10
513.7569596478877
 20
202.3125578775514
 30
0.0
 11
513.7569596478877
 21
90.23471927955723
 31
0.0
  0
LINE
  5
CEA
330
604
100
AcDbEntity
  8
0
  6
ByBlock
 62
     2
100
AcDbLine
 10
416.2569596478877
 20
91.48471927955723
 30
0.0
 11
511.2569596478876
 21
91.48471927955723
 31
0.0
  0
INSERT
  5
CEB
330
604
100
AcDbEntity
  8
0
  6
ByBlock
 62
     2
100
AcDbBlockReference
  2
_OPEN
 10
413.7569596478877
 20
91.48471927955723
 30
0.0
 41
2.5
 42
2.5
 43
2.5
 50
180.0
  0
INSERT
  5
CEC
330
604
100
AcDbEntity
  8
0
  6
ByBlock
 62
     2
100
AcDbBlockReference
  2
_OPEN
 10
513.7569596478877
 20
91.48471927955723
 30
0.0
 41
2.5
 42
2.5
 43
2.5
  0
MTEXT
  5
CED
330
604
100
AcDbEntity
  8
0
  6
ByBlock
 62
     6
100
AcDbMText
 10
463.7569596478877
 20
93.35971927955723
 30
0.0
 40
2.5
 41
0.0
 71
     5
 72
     1
  1
\A1;100
  7
STYLE3
 73
     1
 44
1.0
  0
POINT
  5
CEE
330
604
100
AcDbEntity
  8
DEFPOINTS
  6
ByBlock
 62
     0
100
AcDbPoint
 10
413.7569596478877
 20
203.0125578775515
 30
0.0
  0
POINT
  5
CEF
330
604
100
AcDbEntity
  8
DEFPOINTS
  6
ByBlock
 62
     0
100
AcDbPoint
 10
513.7569596478877
 20
202.3125578775514
 30
0.0
  0
POINT
  5
CF0
330
604
100
AcDbEntity
  8
DEFPOINTS
  6
ByBlock
 62
     0
100
AcDbPoint
 10
513.7569596478877
 20
91.48471927955723
 30
0.0
  0
ENDBLK
  5
CF1
330
604
100
AcDbEntity
  8
0
100
AcDbBlockEnd
  0
BLOCK
  5
611
330
610
100
AcDbEntity
  8
0
100
AcDbBlockBegin
  2
*D6
 70
     1
 10
0.0
 20
0.0
 30
0.0
  3
*D6
  1

  0
LINE
  5
612
330
610
100
AcDbEntity
  8
0
  6
ByBlock
 62
     2
100
AcDbLine
 10
508.7569596478877
 20
231.0125578775514
 30
0.0
 11
532.9411426425017
 21
231.0125578775514
 31
0.0
  0
LINE
  5
613
330
610
100
AcDbEntity
  8
0
  6
ByBlock
 62
     2
100
AcDbLine
 10
508.7569596478877
 20
201.0125578775515
 30
0.0
 11
532.9411426425017
 21
201.0125578775515
 31
0.0
  0
LINE
  5
614
330
610
100
AcDbEntity
  8
0
  6
ByBlock
 62
     2
100
AcDbLine
 10
531.6911426425017
 20
228.5125578775514
 30
0.0
 11
531.6911426425017
 21
203.5125578775514
 31
0.0
  0
INSERT
  5
615
330
610
100
AcDbEntity
  8
0
  6
ByBlock
 62
     2
100
AcDbBlockReference
  2
_OPEN
 10
531.6911426425017
 20
231.0125578775514
 30
0.0
 41
2.5
 42
2.5
 43
2.5
 50
90.0
  0
INSERT
  5
616
330
610
100
AcDbEntity
  8
0
  6
ByBlock
 62
     2
100
AcDbBlockReference
  2
_OPEN
 10
531.6911426425017
 20
201.0125578775515
 30
0.0
 41
2.5
 42
2.5
 43
2.5
 50
270.0
  0
MTEXT
  5
617
330
610
100
AcDbEntity
  8
0
  6
ByBlock
 62
     6
100
AcDbMText
 10
529.8161426425017
 20
216.0125578775514
 30
0.0
 40
2.5
 41
0.0
 71
     5
 72
     1
  1
\A1;30
  7
STYLE3
 11
0.0000000000000001
 21
1.0
 31
0.0
 73
     1
 44
1.0
  0
POINT
  5
618
330
610
100
AcDbEntity
  8
DEFPOINTS
  6
ByBlock
 62
     0
100
AcDbPoint
 10
508.7569596478877
 20
231.0125578775514
 30
0.0
  0
POINT
  5
619
330
610
100
AcDbEntity
  8
DEFPOINTS
  6
ByBlock
 62
     0
100
AcDbPoint
 10
508.7569596478877
 20
201.0125578775515
 30
0.0
  0
POINT
  5
61A
330
610
100
AcDbEntity
  8
DEFPOINTS
  6
ByBlock
 62
     0
100
AcDbPoint
 10
531.6911426425017
 20
201.0125578775515
 30
0.0
  0
ENDBLK
  5
61B
330
610
100
AcDbEntity
  8
0
100
AcDbBlockEnd
  0
BLOCK
  5
C21
330
C12
100
AcDbEntity
  8
0
100
AcDbBlockBegin
  2
*D7
 70
     1
 10
0.0
 20
0.0
 30
0.0
  3
*D7
  1

  0
LINE
  5
C22
330
C12
100
AcDbEntity
  8
0
  6
ByBlock
 62
     2
100
AcDbLine
 10
140.9603343731137
 20
260.0572663837674
 30
0.0
 11
140.9603343731137
 21
273.8752083517243
 31
0.0
  0
LINE
  5
C23
330
C12
100
AcDbEntity
  8
0
  6
ByBlock
 62
     2
100
AcDbLine
 10
144.9603343731137
 20
260.1820555460814
 30
0.0
 11
144.9603343731137
 21
273.8752083517243
 31
0.0
  0
LINE
  5
C24
330
C12
100
AcDbEntity
  8
0
  6
ByBlock
 62
     2
100
AcDbLine
 10
138.4603343731137
 20
272.6252083517243
 30
0.0
 11
135.9603343731137
 21
272.6252083517243
 31
0.0
  0
LINE
  5
C25
330
C12
100
AcDbEntity
  8
0
  6
ByBlock
 62
     2
100
AcDbLine
 10
147.4603343731137
 20
272.6252083517243
 30
0.0
 11
155.9722391350184
 21
272.6252083517243
 31
0.0
  0
LINE
  5
C26
330
C12
100
AcDbEntity
  8
0
  6
ByBlock
 62
     2
100
AcDbLine
 10
140.9603343731137
 20
272.6252083517243
 30
0.0
 11
144.9603343731137
 21
272.6252083517243
 31
0.0
  0
INSERT
  5
C27
330
C12
100
AcDbEntity
  8
0
  6
ByBlock
 62
     2
100
AcDbBlockReference
  2
_OPEN
 10
140.9603343731137
 20
272.6252083517243
 30
0.0
 41
2.5
 42
2.5
 43
2.5
  0
INSERT
  5
C28
330
C12
100
AcDbEntity
  8
0
  6
ByBlock
 62
     2
100
AcDbBlockReference
  2
_OPEN
 10
144.9603343731137
 20
272.6252083517243
 30
0.0
 41
2.5
 42
2.5
 43
2.5
 50
180.0
  0
MTEXT
  5
C29
330
C12
100
AcDbEntity
  8
0
  6
ByBlock
 62
     6
100
AcDbMText
 10
152.9662867540661
 20
275.1549702564862
 30
0.0
 40
2.5
 41
0.0
 71
     5
 72
     1
  1
\A1;(4)
  7
STYLE3
 73
     1
 44
1.0
  0
POINT
  5
C2A
330
C12
100
AcDbEntity
  8
DEFPOINTS
  6
ByBlock
 62
     0
100
AcDbPoint
 10
140.9603343731137
 20
260.0572663837674
 30
0.0
  0
POINT
  5
C2B
330
C12
100
AcDbEntity
  8
DEFPOINTS
  6
ByBlock
 62
     0
100
AcDbPoint
 10
144.9603343731137
 20
260.1820555460814
 30
0.0
  0
POINT
  5
C2C
330
C12
100
AcDbEntity
  8
DEFPOINTS
  6
ByBlock
 62
     0
100
AcDbPoint
 10
144.9603343731137
 20
272.6252083517243
 30
0.0
  0
ENDBLK
  5
C2D
330
C12
100
AcDbEntity
  8
0
100
AcDbBlockEnd
  0
BLOCK
  5
C3D
330
C2E
100
AcDbEntity
  8
0
100
AcDbBlockBegin
  2
*D8
 70
     1
 10
0.0
 20
0.0
 30
0.0
  3
*D8
  1

  0
LINE
  5
C3E
330
C2E
100
AcDbEntity
  8
0
  6
ByBlock
 62
     2
100
AcDbLine
 10
140.9603343731137
 20
136.953706104089
 30
0.0
 11
140.9603343731137
 21
119.5480895248549
 31
0.0
  0
LINE
  5
C3F
330
C2E
100
AcDbEntity
  8
0
  6
ByBlock
 62
     2
100
AcDbLine
 10
144.9603343731137
 20
136.775351125734
 30
0.0
 11
144.9603343731137
 21
119.5480895248549
 31
0.0
  0
LINE
  5
C40
330
C2E
100
AcDbEntity
  8
0
  6
ByBlock
 62
     2
100
AcDbLine
 10
138.4603343731137
 20
120.7980895248549
 30
0.0
 11
135.9603343731137
 21
120.7980895248549
 31
0.0
  0
LINE
  5
C41
330
C2E
100
AcDbEntity
  8
0
  6
ByBlock
 62
     2
100
AcDbLine
 10
147.4603343731136
 20
120.7980895248549
 30
0.0
 11
155.9722391350184
 21
120.7980895248549
 31
0.0
  0
LINE
  5
C42
330
C2E
100
AcDbEntity
  8
0
  6
ByBlock
 62
     2
100
AcDbLine
 10
140.9603343731137
 20
120.7980895248549
 30
0.0
 11
144.9603343731137
 21
120.7980895248549
 31
0.0
  0
INSERT
  5
C43
330
C2E
100
AcDbEntity
  8
0
  6
ByBlock
 62
     2
100
AcDbBlockReference
  2
_OPEN
 10
140.9603343731137
 20
120.7980895248549
 30
0.0
 41
2.5
 42
2.5
 43
2.5
  0
INSERT
  5
C44
330
C2E
100
AcDbEntity
  8
0
  6
ByBlock
 62
     2
100
AcDbBlockReference
  2
_OPEN
 10
144.9603343731137
 20
120.7980895248549
 30
0.0
 41
2.5
 42
2.5
 43
2.5
 50
180.0
  0
MTEXT
  5
C45
330
C2E
100
AcDbEntity
  8
0
  6
ByBlock
 62
     6
100
AcDbMText
 10
152.966286754066
 20
123.3278514296168
 30
0.0
 40
2.5
 41
0.0
 71
     5
 72
     1
  1
\A1;(4)
  7
STYLE3
 73
     1
 44
1.0
  0
POINT
  5
C46
330
C2E
100
AcDbEntity
  8
DEFPOINTS
  6
ByBlock
 62
     0
100
AcDbPoint
 10
140.9603343731137
 20
136.953706104089
 30
0.0
  0
POINT
  5
C47
330
C2E
100
AcDbEntity
  8
DEFPOINTS
  6
ByBlock
 62
     0
100
AcDbPoint
 10
144.9603343731137
 20
136.775351125734
 30
0.0
  0
POINT
  5
C48
330
C2E
100
AcDbEntity
  8
DEFPOINTS
  6
ByBlock
 62
     0
100
AcDbPoint
 10
144.9603343731137
 20
120.7980895248549
 30
0.0
  0
ENDBLK
  5
C49
330
C2E
100
AcDbEntity
  8
0
100
AcDbBlockEnd
  0
ENDSEC
  0
SECTION
  2
ENTITIES
  0
LWPOLYLINE
  5
1A0
330
18
100
AcDbEntity
  8
C
100
AcDbPolyline
 90
        5
 70
     0
 43
0.8
 38
1.0
 10
0.0
 20
377.5
 10
565.0
 20
377.5
 10
565.0
 20
0.0
 10
0.0
 20
0.0
 10
0.0
 20
377.5
  0
ARC
  5
203
330
18
100
AcDbEntity
  8
隠れ線2
100
AcDbCircle
 10
363.7569596478877
 20
216.0125578775514
 30
0.0
 40
15.0
100
AcDbArc
 50
180.0
 51
268.0894081310047
  0
CIRCLE
  5
206
330
18
100
AcDbEntity
  8
隠れ線
 62
     4
 48
0.5
100
AcDbCircle
 10
383.7549596478877
 20
215.7625578775514
 30
0.0
 40
4.25
  0
LINE
  5
22E
330
18
100
AcDbEntity
  8
外形線
100
AcDbLine
 10
400.4292814184871
 20
240.611213050312
 30
0.0
 11
388.1263997299339
 21
262.8061991439189
 31
0.0
  0
ARC
  5
234
330
18
100
AcDbEntity
  8
外形線
100
AcDbCircle
 10
401.2209596478877
 20
270.1265578775515
 30
0.0
 40
15.0
100
AcDbArc
 50
187.53650882043
 51
208.9702014871411
  0
ARC
  5
239
330
18
100
AcDbEntity
  8
外形線
100
AcDbCircle
 10
414.1099596478877
 20
246.7625578775515
 30
0.0
 40
15.0
100
AcDbArc
 50
204.2104669215192
 51
262.04404767096
  0
LINE
  5
23F
330
18
100
AcDbEntity
  8
外形線
100
AcDbLine
 10
395.154329441734
 20
201.0125578775515
 30
0.0
 11
411.7569596478877
 21
201.0125578775515
 31
0.0
  0
ARC
  5
242
330
18
100
AcDbEntity
  8
外形線
100
AcDbCircle
 10
411.7569596478877
 20
229.9261868018119
 30
0.0
 40
2.0
100
AcDbArc
 50
0.0
 51
82.04404767095935
  0
ARC
  5
243
330
18
100
AcDbEntity
  8
外形線
100
AcDbCircle
 10
411.7569596478877
 20
203.0125578775515
 30
0.0
 40
2.0
100
AcDbArc
 50
270.0
 51
0.0
  0
ARC
  5
246
330
18
100
AcDbEntity
  8
外形線
100
AcDbCircle
 10
322.2354191295135
 20
280.7125578775514
 30
0.0
 40
15.0
100
AcDbArc
 50
270.0000000000039
 51
336.989059449769
  0
LINE
  5
247
330
18
100
AcDbEntity
  8
外形線
100
AcDbLine
 10
388.0978837027277
 20
262.8612376686713
 30
0.0
 11
388.1263997299348
 21
262.8061991439149
 31
0.0
  0
ARC
  5
24B
330
18
100
AcDbEntity
  8
外形線
100
AcDbCircle
 10
331.1079596478877
 20
220.8125578775514
 30
0.0
 40
18.0
100
AcDbArc
 50
351.5525341802257
 51
90.00000000000035
  0
ARC
  5
252
330
18
100
AcDbEntity
  8
外形線
100
AcDbCircle
 10
73.7569596478877
 20
218.2625578775514
 30
0.0
 40
2.25
100
AcDbArc
 50
179.9999999999971
 51
0.0000000000050663
  0
ARC
  5
255
330
18
100
AcDbEntity
  8
外形線
100
AcDbCircle
 10
96.7569596478877
 20
224.7125578775514
 30
0.0
 40
20.0
100
AcDbArc
 50
87.11566235580873
 51
180.0
  0
ARC
  5
258
330
18
100
AcDbEntity
  8
外形線
100
AcDbCircle
 10
97.85695964788772
 20
230.7125578775514
 30
0.0
 40
28.0
100
AcDbArc
 50
90.00000000000063
 51
190.7721859710989
  0
LINE
  5
259
330
18
100
AcDbEntity
  8
外形線
100
AcDbLine
 10
76.75695964788769
 20
224.7125578775514
 30
0.0
 11
76.00695964788769
 21
218.2625578775514
 31
0.0
  0
LINE
  5
25B
330
18
100
AcDbEntity
  8
外形線
100
AcDbLine
 10
71.5069596478877
 20
218.2625578775514
 30
0.0
 11
70.35037288808377
 21
225.4792334250282
 31
0.0
  0
LINE
  5
25C
330
18
100
AcDbEntity
  8
外形線
100
AcDbLine
 10
97.85695964788772
 20
258.7125578775514
 30
0.0
 11
322.2354191295135
 21
265.7125578775514
 31
0.0
  0
LINE
  5
25D
330
18
100
AcDbEntity
  8
外形線
100
AcDbLine
 10
97.76335821965666
 20
244.6872208763292
 30
0.0
 11
324.1069596478876
 21
238.9888144328893
 31
0.0
  0
LINE
  5
25F
330
18
100
AcDbEntity
  8
中心線
 48
0.5
100
AcDbLine
 10
51.99121339302019
 20
216.0125578775514
 30
0.0
 11
518.4791031446621
 21
216.0125578775514
 31
0.0
  0
LINE
  5
260
330
18
100
AcDbEntity
  8
中心線
 48
0.5
100
AcDbLine
 10
363.7569596478877
 20
235.2897624239929
 30
0.0
 11
363.7569596478877
 21
138.0633748797409
 31
0.0
  0
ARC
  5
262
330
18
100
AcDbEntity
  8
外形線
100
AcDbCircle
 10
363.7569596478877
 20
216.0125578775514
 30
0.0
 40
15.0
100
AcDbArc
 50
40.1753356270313
 51
180.0
  0
CIRCLE
  5
265
330
18
100
AcDbEntity
  8
隠れ線
 62
     4
 48
0.5
100
AcDbCircle
 10
383.5309596478877
 20
213.0125578775515
 30
0.0
 40
1.274999999999999
  0
LINE
  5
269
330
18
100
AcDbEntity
  8
外形線
100
AcDbLine
 10
401.0460135235448
 20
212.6221060384214
 30
0.0
 11
394.9150820687968
 21
227.0656754107926
 31
0.0
  0
LINE
  5
26D
330
18
100
AcDbEntity
  8
外形線
100
AcDbLine
 10
385.7610185466935
 20
223.1800059796767
 30
0.0
 11
389.2465764971311
 21
224.6595375500767
 31
0.0
  0
ARC
  5
272
330
18
100
AcDbEntity
  8
外形線
100
AcDbCircle
 10
382.1539596478877
 20
231.4255578775515
 30
0.0
 40
9.0
100
AcDbArc
 50
219.6598809661673
 51
293.6272193987057
  0
LINE
  5
275
330
18
100
AcDbEntity
  8
外形線
100
AcDbLine
 10
375.2253399102222
 20
225.6814975948914
 30
0.0
 11
375.2180668120338
 21
225.6894903756089
 31
0.0
  0
ARC
  5
27A
330
18
100
AcDbEntity
  8
外形線
100
AcDbCircle
 10
417.7716343617802
 20
196.8343383819228
 30
0.0
 40
23.0
100
AcDbArc
 50
136.6522465289616
 51
249.8850746990911
  0
ARC
  5
27D
330
18
100
AcDbEntity
  8
外形線
100
AcDbCircle
 10
445.7569596478877
 20
146.0125578775514
 30
0.0
 40
2.299999999999999
100
AcDbArc
 50
233.8399932942291
 51
33.88661618819344
  0
ARC
  5
280
330
18
100
AcDbEntity
  8
外形線
100
AcDbCircle
 10
383.3169596478877
 20
99.76955787755144
 30
0.0
 40
80.0
100
AcDbArc
 50
36.49517202903991
 51
70.62127067064641
  0
ARC
  5
283
330
18
100
AcDbEntity
  8
外形線
100
AcDbCircle
 10
397.1569596478877
 20
79.59055787755144
 30
0.0
 40
80.0
100
AcDbArc
 50
53.98729435296281
 51
79.75954274441061
  0
LINE
  5
286
330
18
100
AcDbEntity
  8
外形線
100
AcDbLine
 10
447.6662875060153
 20
147.2949256602791
 30
0.0
 11
447.6295180402326
 21
147.3499617538452
 31
0.0
  0
LINE
  5
287
330
18
100
AcDbEntity
  8
外形線
100
AcDbLine
 10
444.1941309843022
 20
144.3014882731869
 30
0.0
 11
444.4535015058165
 21
144.1175652992366
 31
0.0
  0
ARC
  5
28A
330
18
100
AcDbEntity
  8
外形線
100
AcDbCircle
 10
403.7569596478877
 20
113.9585578775514
 30
0.0
 40
45.0
100
AcDbArc
 50
80.25131881001762
 51
135.5577198766589
  0
ARC
  5
2B6
330
18
100
AcDbEntity
  8
外形線
100
AcDbCircle
 10
334.7569596478877
 20
176.3125578775514
 30
0.0
 40
48.0
100
AcDbArc
 50
264.8938883660938
 51
318.2039627182762
  0
LINE
  5
2B9
330
18
100
AcDbEntity
  8
外形線
100
AcDbLine
 10
371.6289313485705
 20
145.4671249284072
 30
0.0
 11
370.542020300976
 21
144.3214742126489
 31
0.0
  0
LINE
  5
2BA
330
18
100
AcDbEntity
  8
外形線
100
AcDbLine
 10
348.7569596478877
 20
216.0125578775514
 30
0.0
 11
348.7569596478877
 21
172.0125578775514
 31
0.0
  0
ARC
  5
2BC
330
18
100
AcDbEntity
  8
外形線
100
AcDbCircle
 10
73.7569596478877
 20
213.7625578775514
 30
0.0
 40
2.25
100
AcDbArc
 50
0.0
 51
180.0
  0
ARC
  5
2BF
330
18
100
AcDbEntity
  8
外形線
100
AcDbCircle
 10
103.7569596478877
 20
174.6125578775514
 30
0.0
 40
36.0
100
AcDbArc
 50
169.057181780808
 51
270.0
  0
ARC
  5
2C2
330
18
100
AcDbEntity
  8
外形線
100
AcDbCircle
 10
104.7569596478877
 20
181.0125578775514
 30
0.0
 40
27.0
100
AcDbArc
 50
179.9999999999989
 51
270.0
  0
ARC
  5
2C5
330
18
100
AcDbEntity
  8
外形線
100
AcDbCircle
 10
330.7569596478877
 20
172.0125578775514
 30
0.0
 40
18.0
100
AcDbArc
 50
270.0
 51
0.0
  0
LINE
  5
2CD
330
18
100
AcDbEntity
  8
外形線
100
AcDbLine
 10
104.7569596478877
 20
154.0125578775514
 30
0.0
 11
324.1069596478878
 21
154.0125578775514
 31
0.0
  0
LINE
  5
2DC
330
18
100
AcDbEntity
  8
外形線
100
AcDbLine
 10
76.00695964788769
 20
213.7625578775514
 30
0.0
 11
77.7569596478877
 21
181.0125578775514
 31
0.0
  0
LINE
  5
2DD
330
18
100
AcDbEntity
  8
外形線
100
AcDbLine
 10
71.5069596478877
 20
213.7625578775514
 30
0.0
 11
68.41154318729365
 21
181.4464100289495
 31
0.0
  0
LINE
  5
2DF
330
18
100
AcDbEntity
  8
外形線
100
AcDbLine
 10
103.7569596478877
 20
138.6125578775514
 30
0.0
 11
330.4849336221586
 21
128.5030421548891
 31
0.0
  0
LINE
  5
322
330
18
100
AcDbEntity
  8
中心線
 48
0.5
100
AcDbLine
 10
326.7569596478877
 20
248.7372417248063
 30
0.0
 11
326.7569596478877
 21
143.7374657989223
 31
0.0
  0
LINE
  5
52C
330
18
100
AcDbEntity
  8
握り
100
AcDbLine
 10
510.0836095640298
 20
230.2125578775514
 30
0.0
 11
513.2569596478877
 21
230.2125578775514
 31
0.0
  0
LINE
  5
52D
330
18
100
AcDbEntity
  8
握り
100
AcDbLine
 10
490.0836095640297
 20
230.2125578775514
 30
0.0
 11
497.4303097317456
 21
230.2125578775514
 31
0.0
  0
LINE
  5
52E
330
18
100
AcDbEntity
  8
握り
100
AcDbLine
 10
487.4303097317455
 20
230.2125578775515
 30
0.0
 11
487.4303097317455
 21
222.6658578775515
 31
0.0
  0
LINE
  5
52F
330
18
100
AcDbEntity
  8
握り
100
AcDbLine
 10
500.0836095640299
 20
230.2125578775514
 30
0.0
 11
507.4303097317454
 21
230.2125578775514
 31
0.0
  0
LINE
  5
530
330
18
100
AcDbEntity
  8
握り
100
AcDbLine
 10
487.4303097317456
 20
220.0125578775515
 30
0.0
 11
487.4303097317453
 21
212.0125578775514
 31
0.0
  0
LINE
  5
531
330
18
100
AcDbEntity
  8
握り
100
AcDbLine
 10
470.0836095640299
 20
230.2125578775515
 30
0.0
 11
477.4303097317455
 21
230.2125578775514
 31
0.0
  0
LINE
  5
532
330
18
100
AcDbEntity
  8
握り
100
AcDbLine
 10
470.0836095640299
 20
222.6658578775515
 30
0.0
 11
477.4303097317455
 21
222.6658578775515
 31
0.0
  0
LINE
  5
533
330
18
100
AcDbEntity
  8
握り
100
AcDbLine
 10
470.0836095640299
 20
230.2125578775515
 30
0.0
 11
470.0836095640299
 21
222.6658578775515
 31
0.0
  0
LINE
  5
534
330
18
100
AcDbEntity
  8
握り
100
AcDbLine
 10
477.4303097317455
 20
230.2125578775515
 30
0.0
 11
477.4303097317456
 21
222.6658578775515
 31
0.0
  0
LINE
  5
535
330
18
100
AcDbEntity
  8
握り
100
AcDbLine
 10
480.0836095640298
 20
230.2125578775515
 30
0.0
 11
480.0836095640299
 21
222.6658578775515
 31
0.0
  0
LINE
  5
536
330
18
100
AcDbEntity
  8
握り
100
AcDbLine
 10
460.08360956403
 20
230.2125578775515
 30
0.0
 11
467.4303097317455
 21
230.2125578775515
 31
0.0
  0
LINE
  5
537
330
18
100
AcDbEntity
  8
握り
100
AcDbLine
 10
460.0836095640298
 20
222.6658578775515
 30
0.0
 11
467.4303097317456
 21
222.6658578775515
 31
0.0
  0
LINE
  5
538
330
18
100
AcDbEntity
  8
握り
100
AcDbLine
 10
457.4303097317454
 20
230.2125578775515
 30
0.0
 11
457.4303097317456
 21
222.6658578775515
 31
0.0
  0
LINE
  5
539
330
18
100
AcDbEntity
  8
握り
100
AcDbLine
 10
460.0836095640298
 20
230.2125578775515
 30
0.0
 11
460.08360956403
 21
222.6658578775515
 31
0.0
  0
LINE
  5
53A
330
18
100
AcDbEntity
  8
握り
100
AcDbLine
 10
467.4303097317455
 20
230.2125578775515
 30
0.0
 11
467.4303097317456
 21
222.6658578775515
 31
0.0
  0
LINE
  5
53B
330
18
100
AcDbEntity
  8
握り
100
AcDbLine
 10
470.0836095640299
 20
209.3592578775514
 30
0.0
 11
477.4303097317455
 21
209.3592578775515
 31
0.0
  0
LINE
  5
53C
330
18
100
AcDbEntity
  8
握り
100
AcDbLine
 10
460.0836095640296
 20
209.3592578775514
 30
0.0
 11
467.4303097317455
 21
209.3592578775514
 31
0.0
  0
LINE
  5
53D
330
18
100
AcDbEntity
  8
握り
100
AcDbLine
 10
480.0836095640299
 20
230.2125578775514
 30
0.0
 11
487.4303097317453
 21
230.2125578775514
 31
0.0
  0
LINE
  5
53E
330
18
100
AcDbEntity
  8
握り
100
AcDbLine
 10
480.0836095640299
 20
222.6658578775515
 30
0.0
 11
487.4303097317453
 21
222.6658578775515
 31
0.0
  0
LINE
  5
53F
330
18
100
AcDbEntity
  8
握り
100
AcDbLine
 10
480.0836095640298
 20
209.3592578775515
 30
0.0
 11
487.4303097317453
 21
209.3592578775515
 31
0.0
  0
ARC
  5
540
330
18
100
AcDbEntity
  8
握り
100
AcDbCircle
 10
513.2569596478877
 20
202.3125578775514
 30
0.0
 40
0.5
100
AcDbArc
 50
270.0
 51
0.0
  0
ARC
  5
541
330
18
100
AcDbEntity
  8
握り
100
AcDbCircle
 10
508.7569596478877
 20
202.5125578775515
 30
0.0
 40
1.5
100
AcDbArc
 50
207.8181392846543
 51
332.1818607153458
  0
LINE
  5
542
330
18
100
AcDbEntity
  8
握り
100
AcDbLine
 10
510.0836095640298
 20
201.8125578775514
 30
0.0
 11
513.2569596478877
 21
201.8125578775514
 31
0.0
  0
ARC
  5
543
330
18
100
AcDbEntity
  8
握り
100
AcDbCircle
 10
498.7569596478876
 20
202.5125578775515
 30
0.0
 40
1.5
100
AcDbArc
 50
207.8181392846543
 51
332.1818607153458
  0
ARC
  5
544
330
18
100
AcDbEntity
  8
握り
100
AcDbCircle
 10
488.7569596478877
 20
202.5125578775515
 30
0.0
 40
1.5
100
AcDbArc
 50
207.8181392846543
 51
332.1818607153458
  0
LINE
  5
545
330
18
100
AcDbEntity
  8
握り
100
AcDbLine
 10
490.0836095640297
 20
201.8125578775515
 30
0.0
 11
497.4303097317456
 21
201.8125578775514
 31
0.0
  0
LINE
  5
546
330
18
100
AcDbEntity
  8
握り
100
AcDbLine
 10
500.0836095640299
 20
201.8125578775514
 30
0.0
 11
507.4303097317454
 21
201.8125578775514
 31
0.0
  0
ARC
  5
547
330
18
100
AcDbEntity
  8
握り
100
AcDbCircle
 10
478.7569596478877
 20
202.5125578775515
 30
0.0
 40
1.5
100
AcDbArc
 50
207.8181392846543
 51
332.1818607153458
  0
LINE
  5
548
330
18
100
AcDbEntity
  8
握り
100
AcDbLine
 10
470.0836095640299
 20
201.8125578775515
 30
0.0
 11
477.4303097317455
 21
201.8125578775515
 31
0.0
  0
LINE
  5
549
330
18
100
AcDbEntity
  8
握り
100
AcDbLine
 10
460.08360956403
 20
201.8125578775514
 30
0.0
 11
467.4303097317455
 21
201.8125578775515
 31
0.0
  0
ARC
  5
54A
330
18
100
AcDbEntity
  8
握り
100
AcDbCircle
 10
458.7569596478877
 20
202.5125578775515
 30
0.0
 40
1.5
100
AcDbArc
 50
207.8181392846543
 51
332.1818607153458
  0
ARC
  5
54B
330
18
100
AcDbEntity
  8
握り
100
AcDbCircle
 10
468.7569596478876
 20
202.5125578775515
 30
0.0
 40
1.5
100
AcDbArc
 50
207.8181392846543
 51
332.1818607153458
  0
LINE
  5
54C
330
18
100
AcDbEntity
  8
握り
100
AcDbLine
 10
480.0836095640299
 20
201.8125578775515
 30
0.0
 11
487.4303097317453
 21
201.8125578775515
 31
0.0
  0
LINE
  5
54D
330
18
100
AcDbEntity
  8
握り
100
AcDbLine
 10
513.7569596478877
 20
229.7125578775514
 30
0.0
 11
513.7569596478877
 21
202.3125578775514
 31
0.0
  0
LINE
  5
54E
330
18
100
AcDbEntity
  8
握り
100
AcDbLine
 10
490.0836095640299
 20
230.2125578775515
 30
0.0
 11
490.0836095640299
 21
201.8125578775514
 31
0.0
  0
LINE
  5
54F
330
18
100
AcDbEntity
  8
握り
100
AcDbLine
 10
497.4303097317455
 20
230.2125578775515
 30
0.0
 11
497.4303097317455
 21
201.8125578775514
 31
0.0
  0
LINE
  5
550
330
18
100
AcDbEntity
  8
握り
100
AcDbLine
 10
500.0836095640298
 20
230.2125578775515
 30
0.0
 11
500.0836095640298
 21
201.8125578775514
 31
0.0
  0
LINE
  5
551
330
18
100
AcDbEntity
  8
握り
100
AcDbLine
 10
507.4303097317454
 20
230.2125578775515
 30
0.0
 11
507.4303097317454
 21
201.8125578775514
 31
0.0
  0
LINE
  5
552
330
18
100
AcDbEntity
  8
握り
100
AcDbLine
 10
510.0836095640298
 20
230.2125578775515
 30
0.0
 11
510.0836095640298
 21
201.8125578775514
 31
0.0
  0
LINE
  5
553
330
18
100
AcDbEntity
  8
握り
100
AcDbLine
 10
487.4303097317453
 20
209.3592578775515
 30
0.0
 11
487.4303097317455
 21
201.8125578775514
 31
0.0
  0
LINE
  5
554
330
18
100
AcDbEntity
  8
握り
100
AcDbLine
 10
457.4303097317454
 20
209.3592578775514
 30
0.0
 11
457.4303097317454
 21
201.8125578775514
 31
0.0
  0
LINE
  5
555
330
18
100
AcDbEntity
  8
握り
100
AcDbLine
 10
460.0836095640297
 20
209.3592578775514
 30
0.0
 11
460.0836095640298
 21
201.8125578775514
 31
0.0
  0
LINE
  5
556
330
18
100
AcDbEntity
  8
握り
100
AcDbLine
 10
467.4303097317455
 20
209.3592578775514
 30
0.0
 11
467.4303097317455
 21
201.8125578775514
 31
0.0
  0
LINE
  5
557
330
18
100
AcDbEntity
  8
握り
100
AcDbLine
 10
470.0836095640299
 20
209.3592578775514
 30
0.0
 11
470.0836095640299
 21
201.8125578775514
 31
0.0
  0
LINE
  5
558
330
18
100
AcDbEntity
  8
握り
100
AcDbLine
 10
477.4303097317456
 20
209.3592578775514
 30
0.0
 11
477.4303097317455
 21
201.8125578775514
 31
0.0
  0
LINE
  5
559
330
18
100
AcDbEntity
  8
握り
100
AcDbLine
 10
480.0836095640298
 20
209.3592578775514
 30
0.0
 11
480.0836095640298
 21
201.8125578775514
 31
0.0
  0
LINE
  5
55A
330
18
100
AcDbEntity
  8
握り
100
AcDbLine
 10
440.0836095640299
 20
230.2125578775515
 30
0.0
 11
447.4303097317455
 21
230.2125578775515
 31
0.0
  0
LINE
  5
55B
330
18
100
AcDbEntity
  8
握り
100
AcDbLine
 10
440.08360956403
 20
222.6658578775515
 30
0.0
 11
447.4303097317458
 21
222.6658578775515
 31
0.0
  0
LINE
  5
55C
330
18
100
AcDbEntity
  8
握り
100
AcDbLine
 10
440.0836095640299
 20
230.2125578775515
 30
0.0
 11
440.0836095640299
 21
222.6658578775515
 31
0.0
  0
LINE
  5
55D
330
18
100
AcDbEntity
  8
握り
100
AcDbLine
 10
447.4303097317455
 20
230.2125578775515
 30
0.0
 11
447.4303097317456
 21
222.6658578775515
 31
0.0
  0
LINE
  5
55E
330
18
100
AcDbEntity
  8
握り
100
AcDbLine
 10
450.0836095640298
 20
230.2125578775515
 30
0.0
 11
450.0836095640299
 21
222.6658578775515
 31
0.0
  0
LINE
  5
55F
330
18
100
AcDbEntity
  8
握り
100
AcDbLine
 10
420.0836095640299
 20
230.2125578775515
 30
0.0
 11
427.4303097317456
 21
230.2125578775515
 31
0.0
  0
LINE
  5
560
330
18
100
AcDbEntity
  8
握り
100
AcDbLine
 10
430.0836095640298
 20
230.2125578775515
 30
0.0
 11
437.4303097317455
 21
230.2125578775515
 31
0.0
  0
LINE
  5
561
330
18
100
AcDbEntity
  8
握り
100
AcDbLine
 10
440.0836095640299
 20
209.3592578775514
 30
0.0
 11
447.4303097317456
 21
209.3592578775514
 31
0.0
  0
LINE
  5
562
330
18
100
AcDbEntity
  8
握り
100
AcDbLine
 10
440.0836095640299
 20
220.0125578775514
 30
0.0
 11
440.0836095640299
 21
212.0125578775514
 31
0.0
  0
LINE
  5
563
330
18
100
AcDbEntity
  8
握り
100
AcDbLine
 10
414.2569596478876
 20
230.2125578775515
 30
0.0
 11
417.4303097317455
 21
230.2125578775515
 31
0.0
  0
ARC
  5
564
330
18
100
AcDbEntity
  8
握り
100
AcDbCircle
 10
448.7569596478876
 20
202.5125578775515
 30
0.0
 40
1.5
100
AcDbArc
 50
207.8181392846543
 51
332.1818607153458
  0
ARC
  5
565
330
18
100
AcDbEntity
  8
握り
100
AcDbCircle
 10
438.7569596478877
 20
202.5125578775515
 30
0.0
 40
1.5
100
AcDbArc
 50
207.8181392846543
 51
332.1818607153458
  0
LINE
  5
566
330
18
100
AcDbEntity
  8
握り
100
AcDbLine
 10
440.0836095640299
 20
201.8125578775515
 30
0.0
 11
447.4303097317455
 21
201.8125578775514
 31
0.0
  0
ARC
  5
567
330
18
100
AcDbEntity
  8
握り
100
AcDbCircle
 10
428.7569596478877
 20
202.5125578775515
 30
0.0
 40
1.5
100
AcDbArc
 50
207.8181392846543
 51
332.1818607153458
  0
ARC
  5
568
330
18
100
AcDbEntity
  8
握り
100
AcDbCircle
 10
418.7569596478876
 20
202.5125578775515
 30
0.0
 40
1.5
100
AcDbArc
 50
207.8181392846543
 51
332.1818607153458
  0
LINE
  5
569
330
18
100
AcDbEntity
  8
握り
100
AcDbLine
 10
420.0836095640299
 20
201.8125578775515
 30
0.0
 11
427.4303097317456
 21
201.8125578775515
 31
0.0
  0
LINE
  5
56A
330
18
100
AcDbEntity
  8
握り
100
AcDbLine
 10
430.0836095640298
 20
201.8125578775515
 30
0.0
 11
437.4303097317455
 21
201.8125578775515
 31
0.0
  0
ARC
  5
56B
330
18
100
AcDbEntity
  8
握り
100
AcDbCircle
 10
414.2569596478876
 20
202.3125578775514
 30
0.0
 40
0.5
100
AcDbArc
 50
180.0
 51
270.0
  0
LINE
  5
56C
330
18
100
AcDbEntity
  8
握り
100
AcDbLine
 10
414.2569596478876
 20
201.8125578775515
 30
0.0
 11
417.4303097317456
 21
201.8125578775515
 31
0.0
  0
LINE
  5
56D
330
18
100
AcDbEntity
  8
握り
100
AcDbLine
 10
413.7569596478877
 20
229.7125578775514
 30
0.0
 11
413.7569596478877
 21
202.3125578775514
 31
0.0
  0
LINE
  5
56E
330
18
100
AcDbEntity
  8
握り
100
AcDbLine
 10
420.0836095640299
 20
230.2125578775515
 30
0.0
 11
420.0836095640299
 21
201.8125578775514
 31
0.0
  0
LINE
  5
56F
330
18
100
AcDbEntity
  8
握り
100
AcDbLine
 10
417.4303097317455
 20
230.2125578775515
 30
0.0
 11
417.4303097317455
 21
201.8125578775514
 31
0.0
  0
LINE
  5
570
330
18
100
AcDbEntity
  8
握り
100
AcDbLine
 10
427.4303097317455
 20
230.2125578775515
 30
0.0
 11
427.4303097317455
 21
201.8125578775514
 31
0.0
  0
LINE
  5
571
330
18
100
AcDbEntity
  8
握り
100
AcDbLine
 10
430.0836095640298
 20
230.2125578775515
 30
0.0
 11
430.0836095640298
 21
201.8125578775514
 31
0.0
  0
LINE
  5
572
330
18
100
AcDbEntity
  8
握り
100
AcDbLine
 10
437.4303097317455
 20
230.2125578775515
 30
0.0
 11
437.4303097317455
 21
201.8125578775514
 31
0.0
  0
LINE
  5
573
330
18
100
AcDbEntity
  8
握り
100
AcDbLine
 10
440.0836095640299
 20
209.3592578775515
 30
0.0
 11
440.0836095640299
 21
201.8125578775514
 31
0.0
  0
LINE
  5
574
330
18
100
AcDbEntity
  8
握り
100
AcDbLine
 10
447.4303097317455
 20
209.3592578775514
 30
0.0
 11
447.4303097317455
 21
201.8125578775514
 31
0.0
  0
LINE
  5
575
330
18
100
AcDbEntity
  8
握り
100
AcDbLine
 10
450.0836095640297
 20
209.3592578775514
 30
0.0
 11
450.0836095640298
 21
201.8125578775514
 31
0.0
  0
LINE
  5
576
330
18
100
AcDbEntity
  8
握り
100
AcDbLine
 10
450.0836095640298
 20
230.2125578775515
 30
0.0
 11
457.4303097317454
 21
230.2125578775515
 31
0.0
  0
LINE
  5
577
330
18
100
AcDbEntity
  8
握り
100
AcDbLine
 10
450.0836095640298
 20
201.8125578775514
 30
0.0
 11
457.4303097317454
 21
201.8125578775514
 31
0.0
  0
LINE
  5
578
330
18
100
AcDbEntity
  8
握り
100
AcDbLine
 10
440.0836095640299
 20
220.0125578775514
 30
0.0
 11
487.4303097317456
 21
220.0125578775515
 31
0.0
  0
LINE
  5
579
330
18
100
AcDbEntity
  8
握り
100
AcDbLine
 10
440.0836095640299
 20
212.0125578775514
 30
0.0
 11
487.4303097317453
 21
212.0125578775514
 31
0.0
  0
LINE
  5
57A
330
18
100
AcDbEntity
  8
握り
100
AcDbLine
 10
450.0836095640299
 20
222.6658578775515
 30
0.0
 11
457.4303097317457
 21
222.6658578775515
 31
0.0
  0
LINE
  5
57B
330
18
100
AcDbEntity
  8
握り
100
AcDbLine
 10
450.0836095640298
 20
209.3592578775514
 30
0.0
 11
457.4303097317453
 21
209.3592578775514
 31
0.0
  0
ARC
  5
57C
330
18
100
AcDbEntity
  8
握り
100
AcDbCircle
 10
513.2569596478877
 20
229.7125578775514
 30
0.0
 40
0.5
100
AcDbArc
 50
0.0
 51
90.0
  0
ARC
  5
57D
330
18
100
AcDbEntity
  8
握り
100
AcDbCircle
 10
414.2569596478876
 20
229.7125578775514
 30
0.0
 40
0.5
100
AcDbArc
 50
90.0
 51
180.0
  0
ARC
  5
57E
330
18
100
AcDbEntity
  8
握り
100
AcDbCircle
 10
418.7569596478876
 20
229.5125578775515
 30
0.0
 40
1.5
100
AcDbArc
 50
27.81813928465427
 51
152.1818607153457
  0
ARC
  5
57F
330
18
100
AcDbEntity
  8
握り
100
AcDbCircle
 10
428.7569596478877
 20
229.5125578775515
 30
0.0
 40
1.5
100
AcDbArc
 50
27.81813928465427
 51
152.1818607153457
  0
ARC
  5
580
330
18
100
AcDbEntity
  8
握り
100
AcDbCircle
 10
438.7569596478877
 20
229.5125578775515
 30
0.0
 40
1.5
100
AcDbArc
 50
27.81813928465427
 51
152.1818607153457
  0
ARC
  5
581
330
18
100
AcDbEntity
  8
握り
100
AcDbCircle
 10
448.7569596478876
 20
229.5125578775515
 30
0.0
 40
1.5
100
AcDbArc
 50
27.81813928465427
 51
152.1818607153457
  0
ARC
  5
582
330
18
100
AcDbEntity
  8
握り
100
AcDbCircle
 10
458.7569596478877
 20
229.5125578775515
 30
0.0
 40
1.5
100
AcDbArc
 50
27.81813928465427
 51
152.1818607153457
  0
ARC
  5
583
330
18
100
AcDbEntity
  8
握り
100
AcDbCircle
 10
468.7569596478876
 20
229.5125578775515
 30
0.0
 40
1.5
100
AcDbArc
 50
27.81813928465427
 51
152.1818607153457
  0
ARC
  5
584
330
18
100
AcDbEntity
  8
握り
100
AcDbCircle
 10
478.7569596478877
 20
229.5125578775515
 30
0.0
 40
1.5
100
AcDbArc
 50
27.81813928465427
 51
152.1818607153457
  0
ARC
  5
585
330
18
100
AcDbEntity
  8
握り
100
AcDbCircle
 10
488.7569596478877
 20
229.5125578775515
 30
0.0
 40
1.5
100
AcDbArc
 50
27.81813928465427
 51
152.1818607153457
  0
ARC
  5
586
330
18
100
AcDbEntity
  8
握り
100
AcDbCircle
 10
498.7569596478876
 20
229.5125578775515
 30
0.0
 40
1.5
100
AcDbArc
 50
27.81813928465427
 51
152.1818607153457
  0
ARC
  5
587
330
18
100
AcDbEntity
  8
握り
100
AcDbCircle
 10
508.7569596478877
 20
229.5125578775515
 30
0.0
 40
1.5
100
AcDbArc
 50
27.81813928465427
 51
152.1818607153457
  0
HATCH
  5
588
330
18
100
AcDbEntity
  8
ROGO
 62
     4
100
AcDbHatch
 10
0.0
 20
0.0
 30
0.0
210
0.0
220
0.0
230
1.0
  2
SOLID
 70
     1
 71
     1
 91
        2
 92
        5
 93
        6
 72
     4
 94
        3
 73
     0
 74
     0
 95
       38
 96
       34
 40
0.0
 40
0.0
 40
0.0
 40
0.0
 40
0.2582400211805774
 40
0.3393418442955424
 40
0.443552172800835
 40
0.530394283206717
 40
0.6036667919818254
 40
0.7009894053152177
 40
0.7507174249931042
 40
0.8067242281503032
 40
0.8892677166883521
 40
0.9827715778106668
 40
1.043426616793024
 40
1.109318337455068
 40
1.182564491755753
 40
1.293719242428883
 40
1.399327847180614
 40
1.448424760475743
 40
1.50441322219426
 40
1.570741059842362
 40
1.617957956886697
 40
1.657539314700464
 40
1.714052551848318
 40
1.776150918813051
 40
1.838248940024221
 40
1.892584795022379
 40
2.017023561310864
 40
2.066120474605993
 40
2.164314359515976
 40
2.251113385583432
 40
2.417283613623161
 40
2.622320469312984
 40
2.918423525691272
 40
2.918423525691272
 40
2.918423525691272
 40
2.918423525691272
 10
458.0620483388875
 20
216.732472104755
 10
457.9759691994222
 20
216.7263912203252
 10
457.8628563913921
 20
216.7184005977721
 10
457.7192295735212
 20
216.679051131765
 10
457.6409370671771
 20
216.6321732468252
 10
457.5594580652952
 20
216.5977157543959
 10
457.4899896276024
 20
216.5466910411827
 10
457.4197237694654
 20
216.5203984980493
 10
457.3705214646428
 20
216.4729883432312
 10
457.3135738101671
 20
216.4440281744099
 10
457.2682253818311
 20
216.3792068972464
 10
457.2175387010714
 20
216.31860135202
 10
457.1587357747755
 20
216.2743620069094
 10
457.1104754239764
 20
216.2278977512488
 10
457.0662032626558
 20
216.1561894438433
 10
457.0400010161257
 20
216.0609103371495
 10
456.9661412812553
 20
216.0007545453136
 10
456.955020317708
 20
215.9284293343477
 10
456.9141662459998
 20
215.8857586769324
 10
456.8964014667771
 20
215.8306769883824
 10
456.8896357837431
 20
215.78021243221
 10
456.8815153508253
 20
215.7330820301695
 10
456.8602738362074
 20
215.6835029291155
 10
456.8672071398665
 20
215.6222596734941
 10
456.8652320498064
 20
215.5629557963134
 10
456.8663943926252
 20
215.4828937154399
 10
456.8621993364167
 20
215.4049434341263
 10
456.8956532657239
 20
215.3201150396
 10
456.9154501908708
 20
215.2445022615049
 10
456.9696672907902
 20
215.1398072011457
 10
457.0631906519587
 20
215.0190117387044
 10
457.2410331462694
 20
214.8723889340004
 10
457.4120339042113
 20
214.8575147329757
 10
457.5130712509688
 20
214.8487261765695
 72
     1
 10
457.5130712509687
 20
214.8487261765695
 11
458.5851481412341
 21
214.8487261765695
 72
     4
 94
        3
 73
     0
 74
     0
 95
       11
 96
        7
 40
0.1647869275458135
 40
0.1647869275458135
 40
0.1647869275458135
 40
0.1647869275458135
 40
0.2545010798212315
 40
0.5111620267764023
 40
0.7602998271033902
 40
0.8850764140209603
 40
0.8850764140209603
 40
0.8850764140209603
 40
0.8850764140209603
 10
458.5851481412336
 20
214.8487261765695
 10
458.6001079988334
 20
214.8484378685081
 10
458.6578661343028
 20
214.8473247472128
 10
458.7565754801548
 20
214.8615055051908
 10
458.8604308617807
 20
214.8750946400099
 10
458.9223465924009
 20
214.884991196844
 10
458.9423159392593
 20
214.8905496721533
 72
     4
 94
        3
 73
     0
 74
     0
 95
        9
 96
        5
 40
0.0
 40
0.0
 40
0.0
 40
0.0
 40
0.1622561919360204
 40
0.3804197703110171
 40
0.3804197703110171
 40
0.3804197703110171
 40
0.3804197703110171
 10
458.9423159392593
 20
214.8905496721533
 10
458.9944373225706
 20
214.9064958717579
 10
459.1166391592527
 20
214.9438827321207
 10
459.217605869591
 20
215.0229003289413
 10
459.2755083776707
 20
215.068215433524
 72
     4
 94
        3
 73
     0
 74
     0
 95
       25
 96
       21
 40
0.0
 40
0.0
 40
0.0
 40
0.0
 40
0.165525918914855
 40
0.3412380755365305
 40
0.5940540902285263
 40
0.7697671103696209
 40
0.9377330196075423
 40
1.11479469302833
 40
1.274661249598185
 40
1.574522170874768
 40
1.815540668866877
 40
2.15849091873445
 40
2.536227739636605
 40
2.738070817316548
 40
2.925680654369045
 40
3.162706124480894
 40
3.395643218188267
 40
3.648478129958861
 40
3.928509979727306
 40
4.337226830236035
 40
4.337226830236035
 40
4.337226830236035
 40
4.337226830236035
 10
459.2755083776707
 20
215.068215433524
 10
459.2967836025191
 20
215.0857964963035
 10
459.3371368872388
 20
215.1276109580489
 10
459.4087100824384
 20
215.1953828842469
 10
459.471781739305
 20
215.274342556324
 10
459.5495851689011
 20
215.3383366032861
 10
459.5900893910997
 20
215.4165740694968
 10
459.6484730301056
 20
215.4781061702097
 10
459.6974473428447
 20
215.5731364301963
 10
459.7389996267017
 20
215.6822960946879
 10
459.7786139916982
 20
215.8245836428358
 10
459.7937946250363
 20
215.9851051471865
 10
459.7713253998259
 20
216.140409622088
 10
459.7170454317192
 20
216.2564946157122
 10
459.6771394877631
 20
216.3532394938065
 10
459.616577218274
 20
216.444873927631
 10
459.5474838541873
 20
216.5445365081084
 10
459.4501435388168
 20
216.6269735971298
 10
459.3229297407868
 20
216.7264060105233
 10
459.204439586903
 20
216.7302129769606
 10
459.1341252291523
 20
216.732472104755
 72
     1
 10
459.1341252291522
 20
216.732472104755
 11
458.0620483388876
 21
216.7324721047551
 97
        6
330
58E
330
58D
330
58F
330
58C
330
58B
330
58A
 92
       20
 93
        1
 72
     3
 10
458.3084174740743
 20
215.7643349730136
 11
0.2546924415247531
 21
0.2239701316915159
 40
0.6788083417438792
 50
0.0
 51
360.0
 73
     1
 97
        1
330
589
 75
     0
 76
     1
 47
0.088756267210375
 98
        2
 10
458.3833192966009
 20
216.2121739306193
 10
458.3833192966009
 20
216.2121739306193
450
        0
451
        0
460
0.0
461
0.0
452
        0
462
0.0
453
        0
470

  0
ELLIPSE
  5
589
102
{ACAD_REACTORS
330
588
102
}
330
18
100
AcDbEntity
  8
ROGO
 62
     4
100
AcDbEllipse
 10
458.3084174740743
 20
215.7643349730136
 30
0.0
 11
0.2546924415247531
 21
0.2239701316915159
 31
0.0
210
0.0
220
0.0
230
1.0
 40
0.6788083417438792
 41
0.0
 42
6.283185307179586
  0
SPLINE
  5
58A
102
{ACAD_REACTORS
330
588
102
}
330
18
100
AcDbEntity
  8
ROGO
 62
     4
100
AcDbSpline
210
0.0
220
0.0
230
1.0
 70
     8
 71
     3
 72
     9
 73
     5
 74
     3
 42
0.0000000001
 43
0.0000000001
 44
0.0000000001
 40
0.0
 40
0.0
 40
0.0
 40
0.0
 40
0.1622561919360204
 40
0.3804197703110171
 40
0.3804197703110171
 40
0.3804197703110171
 40
0.3804197703110171
 10
458.9423159392593
 20
214.8905496721533
 30
0.0
 10
458.9944373225706
 20
214.9064958717578
 30
0.0
 10
459.1166391592527
 20
214.9438827321207
 30
0.0
 10
459.2176058695909
 20
215.0229003289413
 30
0.0
 10
459.2755083776707
 20
215.068215433524
 30
0.0
 11
458.9423159392593
 21
214.8905496721533
 31
0.0
 11
459.0948170310087
 21
214.9459616639672
 31
0.0
 11
459.2755083776707
 21
215.068215433524
 31
0.0
  0
SPLINE
  5
58B
102
{ACAD_REACTORS
330
588
102
}
330
18
100
AcDbEntity
  8
ROGO
 62
     4
100
AcDbSpline
210
0.0
220
0.0
230
1.0
 70
     8
 71
     3
 72
    11
 73
     7
 74
     0
 42
0.0000000001
 43
0.0000000001
 40
0.1647869275458134
 40
0.1647869275458134
 40
0.1647869275458134
 40
0.1647869275458134
 40
0.2895635144633836
 40
0.5387013147903714
 40
0.7953622617455423
 40
0.8850764140209602
 40
0.8850764140209602
 40
0.8850764140209602
 40
0.8850764140209602
 10
458.9423159392593
 20
214.8905496721533
 30
0.0
 10
458.9223465924009
 20
214.884991196844
 30
0.0
 10
458.8604308617807
 20
214.8750946400099
 30
0.0
 10
458.7565754801548
 20
214.8615055051908
 30
0.0
 10
458.6578661343028
 20
214.8473247472128
 30
0.0
 10
458.6001079988334
 20
214.8484378685081
 30
0.0
 10
458.5851481412336
 20
214.8487261765695
 30
0.0
  0
LINE
  5
58C
102
{ACAD_REACTORS
330
588
102
}
330
18
100
AcDbEntity
  8
ROGO
 62
     4
100
AcDbLine
 10
457.5130712509688
 20
214.8487261765695
 30
0.0
 11
458.5851481412334
 21
214.8487261765695
 31
0.0
  0
LINE
  5
58D
102
{ACAD_REACTORS
330
588
102
}
330
18
100
AcDbEntity
  8
ROGO
 62
     4
100
AcDbLine
 10
458.0620483388875
 20
216.732472104755
 30
0.0
 11
459.1341252291523
 21
216.732472104755
 31
0.0
  0
SPLINE
  5
58E
102
{ACAD_REACTORS
330
588
102
}
330
18
100
AcDbEntity
  8
ROGO
 62
     4
100
AcDbSpline
210
0.0
220
0.0
230
1.0
 70
     8
 71
     3
 72
    25
 73
    21
 74
     0
 42
0.0000000001
 43
0.0000000001
 40
0.0
 40
0.0
 40
0.0
 40
0.0
 40
0.4087168505087288
 40
0.6887487002771746
 40
0.9415836120477687
 40
1.17452070575514
 40
1.41154617586699
 40
1.599156012919487
 40
1.80099909059943
 40
2.178735911501585
 40
2.521686161369157
 40
2.762704659361267
 40
3.06256558063785
 40
3.222432137207705
 40
3.399493810628493
 40
3.567459719866414
 40
3.743172740007509
 40
3.995988754699505
 40
4.17170091132118
 40
4.337226830236035
 40
4.337226830236035
 40
4.337226830236035
 40
4.337226830236035
 10
459.1341252291523
 20
216.732472104755
 30
0.0
 10
459.204439586903
 20
216.7302129769606
 30
0.0
 10
459.3229297407868
 20
216.7264060105233
 30
0.0
 10
459.4501435388168
 20
216.6269735971298
 30
0.0
 10
459.5474838541873
 20
216.5445365081084
 30
0.0
 10
459.616577218274
 20
216.444873927631
 30
0.0
 10
459.6771394877631
 20
216.3532394938065
 30
0.0
 10
459.7170454317192
 20
216.2564946157122
 30
0.0
 10
459.7713253998259
 20
216.140409622088
 30
0.0
 10
459.7937946250363
 20
215.9851051471865
 30
0.0
 10
459.7786139916982
 20
215.8245836428358
 30
0.0
 10
459.7389996267017
 20
215.6822960946879
 30
0.0
 10
459.6974473428447
 20
215.5731364301963
 30
0.0
 10
459.6484730301056
 20
215.4781061702097
 30
0.0
 10
459.5900893910997
 20
215.4165740694968
 30
0.0
 10
459.5495851689011
 20
215.3383366032861
 30
0.0
 10
459.471781739305
 20
215.274342556324
 30
0.0
 10
459.4087100824384
 20
215.1953828842469
 30
0.0
 10
459.3371368872388
 20
215.1276109580489
 30
0.0
 10
459.2967836025191
 20
215.0857964963035
 30
0.0
 10
459.2755083776707
 20
215.068215433524
 30
0.0
  0
SPLINE
  5
58F
102
{ACAD_REACTORS
330
588
102
}
330
18
100
AcDbEntity
  8
ROGO
 62
     4
100
AcDbSpline
210
0.0
220
0.0
230
1.0
 70
     8
 71
     3
 72
    38
 73
    34
 74
    32
 42
0.0000000001
 43
0.0000000001
 44
0.0000000001
 40
0.0
 40
0.0
 40
0.0
 40
0.0
 40
0.2582400211805774
 40
0.3393418442955424
 40
0.443552172800835
 40
0.530394283206717
 40
0.6036667919818254
 40
0.7009894053152177
 40
0.7507174249931042
 40
0.8067242281503032
 40
0.8892677166883521
 40
0.9827715778106668
 40
1.043426616793024
 40
1.109318337455068
 40
1.182564491755753
 40
1.293719242428883
 40
1.399327847180614
 40
1.448424760475743
 40
1.50441322219426
 40
1.570741059842362
 40
1.617957956886697
 40
1.657539314700464
 40
1.714052551848318
 40
1.776150918813051
 40
1.838248940024221
 40
1.892584795022379
 40
2.017023561310864
 40
2.066120474605993
 40
2.164314359515976
 40
2.251113385583432
 40
2.417283613623161
 40
2.622320469312984
 40
2.918423525691272
 40
2.918423525691272
 40
2.918423525691272
 40
2.918423525691272
 10
458.0620483388875
 20
216.732472104755
 30
0.0
 10
457.9759691994222
 20
216.7263912203252
 30
0.0
 10
457.8628563913921
 20
216.7184005977721
 30
0.0
 10
457.7192295735213
 20
216.679051131765
 30
0.0
 10
457.640937067177
 20
216.6321732468252
 30
0.0
 10
457.5594580652952
 20
216.5977157543959
 30
0.0
 10
457.4899896276025
 20
216.5466910411827
 30
0.0
 10
457.4197237694654
 20
216.5203984980493
 30
0.0
 10
457.3705214646428
 20
216.4729883432312
 30
0.0
 10
457.3135738101671
 20
216.4440281744099
 30
0.0
 10
457.268225381831
 20
216.3792068972465
 30
0.0
 10
457.2175387010714
 20
216.3186013520201
 30
0.0
 10
457.1587357747755
 20
216.2743620069094
 30
0.0
 10
457.1104754239764
 20
216.2278977512488
 30
0.0
 10
457.066203262656
 20
216.1561894438433
 30
0.0
 10
457.0400010161257
 20
216.0609103371495
 30
0.0
 10
456.9661412812552
 20
216.0007545453136
 30
0.0
 10
456.955020317708
 20
215.9284293343477
 30
0.0
 10
456.9141662459997
 20
215.8857586769324
 30
0.0
 10
456.8964014667771
 20
215.8306769883824
 30
0.0
 10
456.889635783743
 20
215.7802124322099
 30
0.0
 10
456.8815153508253
 20
215.7330820301695
 30
0.0
 10
456.8602738362073
 20
215.6835029291154
 30
0.0
 10
456.8672071398666
 20
215.6222596734941
 30
0.0
 10
456.8652320498063
 20
215.5629557963134
 30
0.0
 10
456.8663943926254
 20
215.4828937154398
 30
0.0
 10
456.8621993364167
 20
215.4049434341263
 30
0.0
 10
456.8956532657238
 20
215.3201150396
 30
0.0
 10
456.9154501908707
 20
215.2445022615049
 30
0.0
 10
456.9696672907904
 20
215.1398072011458
 30
0.0
 10
457.0631906519586
 20
215.0190117387044
 30
0.0
 10
457.2410331462695
 20
214.8723889340005
 30
0.0
 10
457.4120339042113
 20
214.8575147329757
 30
0.0
 10
457.5130712509688
 20
214.8487261765695
 30
0.0
 11
458.0620483388875
 21
216.732472104755
 31
0.0
 11
457.8056817146771
 21
216.7014227483959
 31
0.0
 11
457.7279948773512
 21
216.6781362497569
 31
0.0
 11
457.6347710387683
 21
216.6315625609716
 31
0.0
 11
457.5570842014424
 21
216.5927513841531
 31
0.0
 11
457.4949349757205
 21
216.553939861581
 31
0.0
 11
457.4094796377661
 21
216.5073665185493
 31
0.0
 11
457.3706359139294
 21
216.4763175079437
 31
0.0
 11
457.3240236894645
 21
216.4452681515846
 31
0.0
 11
457.2696429643711
 21
216.3831701303734
 31
0.0
 11
457.2074937386491
 21
216.3133099429491
 31
0.0
 11
457.1608815141841
 21
216.274498420377
 31
0.0
 11
457.1142699000663
 21
216.2279250773454
 31
0.0
 11
457.0754261762297
 21
216.1658270561342
 31
0.0
 11
457.0288145621121
 21
216.0649175123509
 31
0.0
 11
456.9666647260428
 21
215.9795326467472
 31
0.0
 11
456.951127724786
 21
215.932958957962
 31
0.0
 11
456.9200531119251
 21
215.8863856149303
 31
0.0
 11
456.8967469996926
 21
215.8242872479656
 31
0.0
 11
456.8889778887169
 21
215.777713904934
 31
0.0
 11
456.8812093880884
 21
215.7389023823618
 31
0.0
 11
456.8656723868316
 21
215.6845668731172
 31
0.0
 11
456.8656723868316
 21
215.6224685061525
 31
0.0
 11
456.8656723868316
 21
215.5603704849413
 31
0.0
 11
456.8656723868316
 21
215.5060346299431
 31
0.0
 11
456.87344088746
 21
215.3818385875208
 31
0.0
 11
456.8889778887169
 21
215.3352648987356
 31
0.0
 11
456.9200531119251
 21
215.2421178669188
 31
0.0
 11
456.9588962254145
 21
215.164495167528
 31
0.0
 11
457.0598891749729
 21
215.0325369588927
 31
0.0
 11
457.2230313502533
 21
214.9083405707167
 31
0.0
 11
457.5130712509688
 21
214.8487261765695
 31
0.0
  0
HATCH
  5
590
330
18
100
AcDbEntity
  8
ROGO
 62
     4
100
AcDbHatch
 10
0.0
 20
0.0
 30
0.0
210
0.0
220
0.0
230
1.0
  2
SOLID
 70
     1
 71
     1
 91
        2
 92
        7
 72
     0
 73
     1
 93
        8
 10
453.1220465768221
 20
216.7246475059374
 10
451.6214701728631
 20
216.7246475059374
 10
450.2687068441499
 20
214.8487261765696
 10
451.3076314894235
 20
214.8487261765696
 10
451.5651892573965
 20
215.205889990985
 10
452.7507278128025
 20
215.205889990985
 10
452.9093941314725
 20
214.8487261765696
 10
453.955405163084
 20
214.8487261765696
 97
        8
330
5B7
330
5BD
330
5B8
330
5B9
330
5BB
330
591
330
5B6
330
593
 92
       22
 72
     0
 73
     1
 93
        3
 10
452.5833776619445
 20
215.582601436265
 10
451.8368432018893
 20
215.5826014362651
 10
452.2987956823369
 20
216.2232061102921
 97
        3
330
5BA
330
5BC
330
592
 75
     0
 76
     1
 47
0.0128389261915577
 98
        2
 10
453.0045395875426
 20
216.2745876247817
 10
453.0045395875426
 20
216.2745876247817
450
        0
451
        0
460
0.0
461
0.0
452
        0
462
0.0
453
        0
470

  0
LINE
  5
591
102
{ACAD_REACTORS
330
590
102
}
330
18
100
AcDbEntity
  8
ROGO
 62
     4
100
AcDbLine
 10
452.7507278128025
 20
215.205889990985
 30
0.0
 11
452.9093941314725
 21
214.8487261765696
 31
0.0
  0
LINE
  5
592
102
{ACAD_REACTORS
330
590
102
}
330
18
100
AcDbEntity
  8
ROGO
 62
     4
100
AcDbLine
 10
452.2987956823369
 20
216.223206110292
 30
0.0
 11
452.5833776619446
 21
215.5826014362651
 31
0.0
  0
LINE
  5
593
102
{ACAD_REACTORS
330
590
102
}
330
18
100
AcDbEntity
  8
ROGO
 62
     4
100
AcDbLine
 10
453.1220465768221
 20
216.7246475059374
 30
0.0
 11
453.9554051630841
 21
214.8487261765696
 31
0.0
  0
HATCH
  5
594
330
18
100
AcDbEntity
  8
ROGO
 62
     4
100
AcDbHatch
 10
0.0
 20
0.0
 30
0.0
210
0.0
220
0.0
230
1.0
  2
SOLID
 70
     1
 71
     1
 91
        2
 92
        5
 93
        6
 72
     1
 10
443.234398372913
 20
213.7933920989289
 11
444.596971167108
 21
213.7933920989289
 72
     1
 10
444.596971167108
 20
213.7933920989289
 11
445.0744342397199
 21
214.8487261765696
 72
     1
 10
445.0744342397199
 20
214.8487261765696
 11
446.3481603371089
 21
214.8487261765696
 72
     4
 94
        3
 73
     0
 74
     0
 95
       18
 96
       14
 40
0.108740278791501
 40
0.108740278791501
 40
0.108740278791501
 40
0.108740278791501
 40
0.6623149649549278
 40
1.384304701649787
 40
2.097394834876493
 40
2.774073369849618
 40
3.428974823686337
 40
4.005208313035923
 40
4.455173659284313
 40
4.720999734343524
 40
5.086034088486724
 40
5.569973738255373
 40
6.060470601257719
 40
6.060470601257719
 40
6.060470601257719
 40
6.060470601257719
 10
446.3481603371088
 20
214.8487261765695
 10
446.4378030755297
 20
214.8493937188998
 10
446.6443607284635
 20
214.8509318911978
 10
446.9333332686168
 20
215.0053073719054
 10
447.2073618016067
 20
215.2019704866793
 10
447.4280731431515
 20
215.4476805306819
 10
447.5655829586888
 20
215.7286078699972
 10
447.5868827944704
 20
215.997850920814
 10
447.5738797680263
 20
216.2108188267518
 10
447.4809666129648
 20
216.3592627443273
 10
447.3843720502152
 20
216.5099181402883
 10
447.2072502851479
 20
216.6404214399904
 10
447.0621246453613
 20
216.6976012847264
 10
446.9883253058813
 20
216.7246475059375
 72
     1
 10
446.9883253058813
 20
216.7246475059374
 11
444.6847562873311
 21
216.7246475059374
 72
     1
 10
444.6847562873311
 20
216.7246475059374
 11
443.234398372913
 21
213.7933920989289
 97
        6
330
5CF
330
5D2
330
5D0
330
5D1
330
5C9
330
5CE
 92
       20
 93
        4
 72
     1
 10
445.3692406573059
 20
215.5003352257964
 11
445.5949517949594
 21
215.9992233470612
 72
     1
 10
445.5949517949594
 20
215.9992233470612
 11
446.1749332222414
 21
215.9992233470612
 72
     4
 94
        3
 73
     0
 74
     0
 95
       15
 96
       11
 40
0.0
 40
0.0
 40
0.0
 40
0.0
 40
0.2199578613106558
 40
0.3202465475123651
 40
0.4340808827708152
 40
0.5116301246390283
 40
0.634275054953107
 40
0.7077360179240892
 40
0.8337709579493377
 40
0.875782631437913
 40
0.875782631437913
 40
0.875782631437913
 40
0.875782631437913
 10
446.1749332222415
 20
215.9992233470611
 10
446.2575451294689
 20
215.9996017536932
 10
446.377823522409
 20
216.0001526929356
 10
446.4435960315013
 20
215.8513679730364
 10
446.414113656882
 20
215.7555738235543
 10
446.3770519091333
 20
215.6572230889147
 10
446.31155540693
 20
215.590392281387
 10
446.2236495075083
 20
215.5260229476199
 10
446.1405742317144
 20
215.518230751535
 10
446.086543090325
 20
215.5039143323146
 10
446.0730352985117
 20
215.5003352257963
 72
     1
 10
446.0730352985117
 20
215.5003352257963
 11
445.3692406573059
 21
215.5003352257964
 97
        4
330
5CD
330
5CB
330
5CC
330
5CA
 75
     0
 76
     1
 47
0.0514683685270805
 98
        2
 10
444.6970685063409
 20
215.8129492818103
 10
444.6970685063409
 20
215.8129492818103
450
        0
451
        0
460
0.0
461
0.0
452
        0
462
0.0
453
        0
470

  0
HATCH
  5
595
330
18
100
AcDbEntity
  8
ROGO
 62
     4
100
AcDbHatch
 10
0.0
 20
0.0
 30
0.0
210
0.0
220
0.0
230
1.0
  2
SOLID
 70
     1
 71
     1
 91
        1
 92
        7
 72
     0
 73
     1
 93
       11
 10
461.9959605507981
 20
213.7933920989289
 10
463.0760801829469
 20
213.7933920989288
 10
463.4575791674694
 20
214.5584829019568
 10
463.8390781519918
 20
213.7933920989289
 10
464.9191741519916
 20
213.7933920989289
 10
464.1883648436561
 20
215.2590198024331
 10
465.9639487655579
 20
216.7246475059374
 10
464.8838527655579
 20
216.7246475059374
 10
464.378119789731
 20
216.4046140647637
 10
464.5376987996181
 20
216.7246475059374
 10
463.4575791674692
 20
216.7246475059374
 97
       11
330
59D
330
5A2
330
5A3
330
5A5
330
5A4
330
5D1
330
59F
330
5A1
330
59C
330
5A0
330
59E
 75
     0
 76
     1
 47
0.0514683685270805
 98
        1
 10
463.3646202440352
 20
215.4670818153067
450
        0
451
        0
460
0.0
461
0.0
452
        0
462
0.0
453
        0
470

  0
HATCH
  5
596
330
18
100
AcDbEntity
  8
ROGO
 62
     4
100
AcDbHatch
 10
0.0
 20
0.0
 30
0.0
210
0.0
220
0.0
230
1.0
  2
SOLID
 70
     1
 71
     1
 91
        1
 92
        7
 72
     0
 73
     1
 93
        4
 10
444.7299012177108
 20
214.0872066793449
 10
444.5969711671081
 20
213.7933920989289
 10
461.9959605507981
 20
213.7933920989289
 10
462.1424659899211
 20
214.0872066793449
 97
        4
330
59A
330
5C9
330
5D1
330
5A4
 75
     0
 76
     1
 47
0.0514683685270805
 98
        1
 10
455.7245230189797
 20
214.0094974447666
450
        0
451
        0
460
0.0
461
0.0
452
        0
462
0.0
453
        0
470

  0
HATCH
  5
597
330
18
100
AcDbEntity
  8
ROGO
 62
     4
100
AcDbHatch
 10
0.0
 20
0.0
 30
0.0
210
0.0
220
0.0
230
1.0
  2
SOLID
 70
     1
 71
     1
 91
        1
 92
        5
 93
        8
 72
     4
 94
        3
 73
     0
 74
     0
 95
       26
 96
       22
 40
0.0
 40
0.0
 40
0.0
 40
0.0
 40
0.3403136209416859
 40
0.5681272389515052
 40
0.7323994099695983
 40
0.8550561247335963
 40
1.014148321321381
 40
1.13027011535639
 40
1.339959009792003
 40
1.510642755247356
 40
1.626735051276114
 40
1.740569491433573
 40
1.94419717410045
 40
2.088186249714629
 40
2.165735491582895
 40
2.275891898886364
 40
2.355438312276665
 40
2.470674802864995
 40
2.535888688806186
 40
2.677801419664424
 40
2.74260000535881
 40
2.74260000535881
 40
2.74260000535881
 40
2.74260000535881
 10
461.1860599228572
 20
216.7246475059374
 10
461.0705522217735
 20
216.7177561184158
 10
460.8777210588221
 20
216.7062514805634
 10
460.6659936149481
 20
216.5776293321943
 10
460.5108696943621
 20
216.5028540674194
 10
460.4002355023276
 20
216.4012034653914
 10
460.3191401910883
 20
216.2962058189323
 10
460.2169043272346
 20
216.1711018930389
 10
460.1335339016547
 20
216.0254234338037
 10
460.0910784123216
 20
215.8648603751419
 10
460.0534717428161
 20
215.736890685772
 10
460.0255820071407
 20
215.5942851673543
 10
460.0326779454449
 20
215.4402210414653
 10
460.0428396538511
 20
215.2971341686027
 10
460.0882092108854
 20
215.1949915644218
 10
460.1398771000141
 20
215.1222730688084
 10
460.2031437226639
 20
215.0421817078103
 10
460.2723712431174
 20
214.989137458767
 10
460.3296280532755
 20
214.8930442371377
 10
460.4298541679361
 20
214.8807820490288
 10
460.4935618737586
 20
214.8563766349188
 10
460.5135325715607
 20
214.8487261765695
 72
     1
 10
460.5135325715608
 20
214.8487261765695
 11
462.1292883072816
 21
214.8487261765695
 72
     1
 10
462.1292883072816
 20
214.8487261765695
 11
462.4773121939656
 21
215.5466831456276
 72
     1
 10
462.4773121939656
 20
215.5466831456276
 11
461.277767878434
 21
215.5466831456276
 72
     4
 94
        3
 73
     0
 74
     0
 95
       16
 96
       12
 40
0.0
 40
0.0
 40
0.0
 40
0.0
 40
0.1027738093187964
 40
0.2066076558227444
 40
0.268539878558716
 40
0.3279201337292112
 40
0.3931337605654557
 40
0.4386740937218511
 40
0.4818879174817272
 40
0.569519347887583
 40
0.7489346372632488
 40
0.7489346372632488
 40
0.7489346372632488
 40
0.7489346372632488
 10
461.277767878434
 20
215.5466831456275
 10
461.2415853946172
 20
215.5573285628969
 10
461.1688472309472
 20
215.5787291971817
 10
461.1627596340219
 20
215.682471610235
 10
461.1710531041103
 20
215.756396568748
 10
461.2057861753635
 20
215.8102182554853
 10
461.2479234151644
 20
215.8493806141077
 10
461.2636129783807
 20
215.9003834629394
 10
461.3097310199869
 20
215.93889699482
 10
461.3915106648311
 20
216.0036328619284
 10
461.4819447951331
 20
216.0174201551933
 10
461.542702948878
 20
216.0266831456276
 72
     1
 10
461.5427029488781
 20
216.0266831456276
 11
462.7166556965224
 21
216.0266831456276
 72
     1
 10
462.7166556965224
 20
216.0266831456276
 11
463.0646832687234
 21
216.7246475059375
 72
     1
 10
463.0646832687234
 20
216.7246475059375
 11
461.1860599228572
 21
216.7246475059374
 97
        8
330
5AC
330
5AA
330
5AD
330
5A9
330
5A8
330
5AB
330
5A7
330
5A6
 75
     0
 76
     1
 47
0.0514683685270805
 98
        1
 10
461.5102276795498
 20
216.3811599299673
450
        0
451
        0
460
0.0
461
0.0
452
        0
462
0.0
453
        0
470

  0
HATCH
  5
598
330
18
100
AcDbEntity
  8
ROGO
 62
     4
100
AcDbHatch
 10
0.0
 20
0.0
 30
0.0
210
0.0
220
0.0
230
1.0
  2
SOLID
 70
     1
 71
     1
 91
        1
 92
        5
 93
        8
 72
     1
 10
456.6722703094828
 20
216.0266831456277
 11
457.0202978816835
 21
216.7246475059374
 72
     1
 10
457.0202978816835
 20
216.7246475059374
 11
455.1416745358176
 21
216.7246475059375
 72
     4
 94
        3
 73
     0
 74
     0
 95
       26
 96
       22
 40
0.0
 40
0.0
 40
0.0
 40
0.0
 40
0.3403136209417982
 40
0.5681272389515159
 40
0.7323994099697078
 40
0.8550561247337057
 40
1.014148321321447
 40
1.13027011535643
 40
1.339959009791999
 40
1.510642755247373
 40
1.626735051276186
 40
1.740569491433665
 40
1.944197174100541
 40
2.088186249714737
 40
2.16573549158295
 40
2.275891898886404
 40
2.355438312276705
 40
2.470674802865115
 40
2.535888688806235
 40
2.677801419664453
 40
2.742600005358966
 40
2.742600005358966
 40
2.742600005358966
 40
2.742600005358966
 10
455.1416745358174
 20
216.7246475059374
 10
455.0261668347337
 20
216.7177561184158
 10
454.8333356717823
 20
216.7062514805635
 10
454.6216082279084
 20
216.5776293321943
 10
454.4664843073223
 20
216.5028540674195
 10
454.3558501152877
 20
216.4012034653914
 10
454.2747548040483
 20
216.2962058189324
 10
454.1725189401949
 20
216.1711018930389
 10
454.0891485146148
 20
216.0254234338039
 10
454.0466930252819
 20
215.864860375142
 10
454.0090863557765
 20
215.7368906857721
 10
453.9811966201008
 20
215.5942851673543
 10
453.988292558405
 20
215.4402210414653
 10
453.9984542668114
 20
215.2971341686027
 10
454.0438238238458
 20
215.1949915644219
 10
454.0954917129742
 20
215.1222730688084
 10
454.1587583356241
 20
215.0421817078103
 10
454.2279858560777
 20
214.9891374587671
 10
454.2852426662356
 20
214.8930442371376
 10
454.3854687808964
 20
214.8807820490289
 10
454.4491764867189
 20
214.8563766349188
 10
454.469147184521
 20
214.8487261765695
 72
     1
 10
454.469147184521
 20
214.8487261765696
 11
456.0849029202418
 21
214.8487261765696
 72
     1
 10
456.0849029202418
 20
214.8487261765696
 11
456.4329268069259
 21
215.5466831456276
 72
     1
 10
456.4329268069259
 20
215.5466831456276
 11
455.2333824913943
 21
215.5466831456276
 72
     4
 94
        3
 73
     0
 74
     0
 95
       16
 96
       12
 40
0.0
 40
0.0
 40
0.0
 40
0.0
 40
0.1027738093189234
 40
0.2066076558227377
 40
0.2685398785587465
 40
0.3279201337292418
 40
0.3931337605655129
 40
0.4386740937218573
 40
0.4818879174818138
 40
0.5695193478876036
 40
0.7489346372632694
 40
0.7489346372632694
 40
0.7489346372632694
 40
0.7489346372632694
 10
455.2333824913943
 20
215.5466831456276
 10
455.1972000075775
 20
215.557328562897
 10
455.1244618439073
 20
215.5787291971817
 10
455.1183742469823
 20
215.682471610235
 10
455.1266677170705
 20
215.7563965687481
 10
455.1614007883237
 20
215.8102182554854
 10
455.2035380281247
 20
215.8493806141077
 10
455.2192275913411
 20
215.9003834629395
 10
455.265345632947
 20
215.9388969948202
 10
455.3471252777913
 20
216.0036328619283
 10
455.4375594080933
 20
216.0174201551933
 10
455.4983175618382
 20
216.0266831456276
 72
     1
 10
455.4983175618382
 20
216.0266831456276
 11
456.6722703094828
 21
216.0266831456277
 97
        8
330
5AE
330
5B1
330
5B5
330
5AF
330
5B2
330
5B0
330
5B3
330
5B4
 75
     0
 76
     1
 47
0.0514683685270805
 98
        1
 10
455.7986986746844
 20
216.3070454254417
450
        0
451
        0
460
0.0
461
0.0
452
        0
462
0.0
453
        0
470

  0
HATCH
  5
599
330
18
100
AcDbEntity
  8
ROGO
 62
     4
100
AcDbHatch
 10
0.0
 20
0.0
 30
0.0
210
0.0
220
0.0
230
1.0
  2
SOLID
 70
     1
 71
     1
 91
        1
 92
        1
 93
       12
 72
     1
 10
448.3492167247463
 20
216.7246475059374
 11
450.8864783654378
 21
216.7246475059375
 72
     1
 10
450.8864783654378
 20
216.7246475059374
 11
450.6738580858169
 21
216.2949298906629
 72
     1
 10
450.6738580858169
 20
216.2949298906629
 11
449.3403374826484
 21
216.2949298906629
 72
     1
 10
449.3403374826484
 20
216.2949298906629
 11
449.1740948453962
 21
215.9589441146856
 72
     1
 10
449.1740948453962
 20
215.9589441146856
 11
450.5076154485648
 21
215.9589441146856
 72
     1
 10
450.5076154485648
 20
215.9589441146856
 11
450.3371491976736
 21
215.6144221765696
 72
     1
 10
450.3371491976736
 20
215.6144221765696
 11
449.0036285945051
 21
215.6144221765696
 72
     1
 10
449.0036285945051
 20
215.6144221765696
 11
448.8373789193388
 21
215.2784221765696
 72
     1
 10
448.8373789193388
 20
215.2784221765696
 11
450.1708995225073
 21
215.2784221765696
 72
     1
 10
450.1708995225073
 20
215.2784221765696
 11
449.9582899379233
 21
214.8487261765696
 72
     1
 10
449.9582899379233
 20
214.8487261765696
 11
447.4210282972319
 21
214.8487261765696
 72
     1
 10
447.421028297232
 20
214.8487261765696
 11
448.3492167247463
 21
216.7246475059374
 97
       12
330
59B
330
5C7
330
5C4
330
5C5
330
5C3
330
5C0
330
5C1
330
5BE
330
5C2
330
5BF
330
5C6
330
5C8
 75
     0
 76
     1
 98
        1
 10
344.5633181837336
 20
87.01308172292124
450
        0
451
        0
460
0.0
461
0.0
452
        0
462
0.0
453
        0
470

  0
LINE
  5
59A
102
{ACAD_REACTORS
330
596
102
}
330
18
100
AcDbEntity
  8
ROGO
 62
     4
100
AcDbLine
 10
444.7095248649727
 20
214.0872066793449
 30
0.0
 11
462.1424659899211
 21
214.0872066793449
 31
0.0
  0
LINE
  5
59B
102
{ACAD_REACTORS
330
599
102
}
330
18
100
AcDbEntity
  8
ROGO
 62
     4
100
AcDbLine
 10
448.3492167247463
 20
216.7246475059374
 30
0.0
 11
450.8864783654378
 21
216.7246475059375
 31
0.0
  0
LINE
  5
59C
102
{ACAD_REACTORS
330
595
102
}
330
18
100
AcDbEntity
  8
ROGO
 62
     4
100
AcDbLine
 10
463.8390781519917
 20
213.7933920989289
 30
0.0
 11
464.9191741519916
 21
213.7933920989289
 31
0.0
  0
LINE
  5
59D
102
{ACAD_REACTORS
330
595
102
}
330
18
100
AcDbEntity
  8
ROGO
 62
     4
100
AcDbLine
 10
464.883852765558
 20
216.7246475059374
 30
0.0
 11
465.9639487655579
 21
216.7246475059374
 31
0.0
  0
LINE
  5
59E
102
{ACAD_REACTORS
330
595
102
}
330
18
100
AcDbEntity
  8
ROGO
 62
     4
100
AcDbLine
 10
464.1883648436561
 20
215.2590198024331
 30
0.0
 11
465.9639487655579
 21
216.7246475059374
 31
0.0
  0
LINE
  5
59F
102
{ACAD_REACTORS
330
595
102
}
330
18
100
AcDbEntity
  8
ROGO
 62
     4
100
AcDbLine
 10
463.4575791674693
 20
214.5584829019568
 30
0.0
 11
463.0760801829469
 21
213.7933920989289
 31
0.0
  0
LINE
  5
5A0
102
{ACAD_REACTORS
330
595
102
}
330
18
100
AcDbEntity
  8
ROGO
 62
     4
100
AcDbLine
 10
464.1883648436561
 20
215.2590198024331
 30
0.0
 11
464.9191741519916
 21
213.7933920989289
 31
0.0
  0
LINE
  5
5A1
102
{ACAD_REACTORS
330
595
102
}
330
18
100
AcDbEntity
  8
ROGO
 62
     4
100
AcDbLine
 10
463.4575791674693
 20
214.5584829019568
 30
0.0
 11
463.8390781519917
 21
213.7933920989289
 31
0.0
  0
LINE
  5
5A2
102
{ACAD_REACTORS
330
595
102
}
330
18
100
AcDbEntity
  8
ROGO
 62
     4
100
AcDbLine
 10
464.378119789731
 20
216.4046140647637
 30
0.0
 11
464.883852765558
 21
216.7246475059374
 31
0.0
  0
LINE
  5
5A3
102
{ACAD_REACTORS
330
595
102
}
330
18
100
AcDbEntity
  8
ROGO
 62
     4
100
AcDbLine
 10
464.5376987996181
 20
216.7246475059374
 30
0.0
 11
464.378119789731
 21
216.4046140647637
 31
0.0
  0
LINE
  5
5A4
102
{ACAD_REACTORS
330
596
330
595
102
}
330
18
100
AcDbEntity
  8
ROGO
 62
     4
100
AcDbLine
 10
463.4575791674693
 20
216.7246475059374
 30
0.0
 11
461.9959605507981
 21
213.7933920989289
 31
0.0
  0
LINE
  5
5A5
102
{ACAD_REACTORS
330
595
102
}
330
18
100
AcDbEntity
  8
ROGO
 62
     4
100
AcDbLine
 10
463.4575791674693
 20
216.7246475059374
 30
0.0
 11
464.5376987996181
 21
216.7246475059374
 31
0.0
  0
LINE
  5
5A6
102
{ACAD_REACTORS
330
597
102
}
330
18
100
AcDbEntity
  8
ROGO
 62
     4
100
AcDbLine
 10
463.0646832687234
 20
216.7246475059374
 30
0.0
 11
462.7166556965224
 21
216.0266831456276
 31
0.0
  0
LINE
  5
5A7
102
{ACAD_REACTORS
330
597
102
}
330
18
100
AcDbEntity
  8
ROGO
 62
     4
100
AcDbLine
 10
461.5427029488779
 20
216.0266831456276
 30
0.0
 11
462.7166556965224
 21
216.0266831456276
 31
0.0
  0
LINE
  5
5A8
102
{ACAD_REACTORS
330
597
102
}
330
18
100
AcDbEntity
  8
ROGO
 62
     4
100
AcDbLine
 10
461.2777678784339
 20
215.5466831456276
 30
0.0
 11
462.4773121939656
 21
215.5466831456276
 31
0.0
  0
LINE
  5
5A9
102
{ACAD_REACTORS
330
597
102
}
330
18
100
AcDbEntity
  8
ROGO
 62
     4
100
AcDbLine
 10
462.4773121939656
 20
215.5466831456276
 30
0.0
 11
462.1292883072816
 21
214.8487261765695
 31
0.0
  0
SPLINE
  5
5AA
102
{ACAD_REACTORS
330
597
102
}
330
18
100
AcDbEntity
  8
ROGO
 62
     4
100
AcDbSpline
210
0.0
220
0.0
230
1.0
 70
     8
 71
     3
 72
    26
 73
    22
 74
    20
 42
0.0000000001
 43
0.0000000001
 44
0.0000000001
 40
0.0
 40
0.0
 40
0.0
 40
0.0
 40
0.3403136209416859
 40
0.5681272389515052
 40
0.7323994099695983
 40
0.8550561247335963
 40
1.014148321321381
 40
1.13027011535639
 40
1.339959009792003
 40
1.510642755247356
 40
1.626735051276114
 40
1.740569491433573
 40
1.94419717410045
 40
2.088186249714629
 40
2.165735491582895
 40
2.275891898886364
 40
2.355438312276665
 40
2.470674802864995
 40
2.535888688806186
 40
2.677801419664424
 40
2.74260000535881
 40
2.74260000535881
 40
2.74260000535881
 40
2.74260000535881
 10
461.1860599228572
 20
216.7246475059374
 30
0.0
 10
461.0705522217734
 20
216.7177561184158
 30
0.0
 10
460.8777210588219
 20
216.7062514805634
 30
0.0
 10
460.6659936149482
 20
216.5776293321944
 30
0.0
 10
460.5108696943621
 20
216.5028540674194
 30
0.0
 10
460.4002355023276
 20
216.4012034653914
 30
0.0
 10
460.3191401910881
 20
216.2962058189322
 30
0.0
 10
460.2169043272346
 20
216.171101893039
 30
0.0
 10
460.1335339016547
 20
216.0254234338037
 30
0.0
 10
460.0910784123217
 20
215.8648603751419
 30
0.0
 10
460.0534717428161
 20
215.736890685772
 30
0.0
 10
460.0255820071406
 20
215.5942851673543
 30
0.0
 10
460.0326779454449
 20
215.4402210414654
 30
0.0
 10
460.0428396538513
 20
215.2971341686026
 30
0.0
 10
460.0882092108854
 20
215.1949915644218
 30
0.0
 10
460.1398771000141
 20
215.1222730688084
 30
0.0
 10
460.2031437226639
 20
215.0421817078103
 30
0.0
 10
460.2723712431176
 20
214.989137458767
 30
0.0
 10
460.3296280532754
 20
214.8930442371377
 30
0.0
 10
460.429854167936
 20
214.8807820490288
 30
0.0
 10
460.4935618737586
 20
214.8563766349188
 30
0.0
 10
460.5135325715607
 20
214.8487261765695
 30
0.0
 11
461.1860599228572
 21
216.7246475059374
 31
0.0
 11
460.8497962472089
 21
216.6723015315178
 31
0.0
 11
460.645999813816
 21
216.5704876901844
 31
0.0
 11
460.5033426034077
 21
216.4890366835023
 31
0.0
 11
460.4116346478309
 21
216.4075853448969
 31
0.0
 11
460.3097367241012
 21
216.285408668912
 31
0.0
 11
460.238408118897
 21
216.1937762449043
 31
0.0
 11
460.1365096092339
 21
216.0105110649653
 31
0.0
 11
460.0855609403356
 21
215.8476087196778
 31
0.0
 11
460.0549916218101
 21
215.7356134610188
 31
0.0
 11
460.0346116855042
 21
215.6236182023596
 31
0.0
 11
460.0346116855042
 21
215.4199905196928
 31
0.0
 11
460.0549916218101
 21
215.2774510090566
 31
0.0
 11
460.0855609403356
 21
215.2061810877768
 31
0.0
 11
460.1466995773868
 21
215.1145486637691
 31
0.0
 11
460.1976488322185
 21
215.0534601598149
 31
0.0
 11
460.2791668196421
 21
214.9720091531329
 31
0.0
 11
460.3199261063208
 21
214.9211020665045
 31
0.0
 11
460.4523939345096
 21
214.8701953117994
 31
0.0
 11
460.5135325715607
 21
214.8487261765695
 31
0.0
  0
SPLINE
  5
5AB
102
{ACAD_REACTORS
330
597
102
}
330
18
100
AcDbEntity
  8
ROGO
 62
     4
100
AcDbSpline
210
0.0
220
0.0
230
1.0
 70
     8
 71
     3
 72
    16
 73
    12
 74
    10
 42
0.0000000001
 43
0.0000000001
 44
0.0000000001
 40
0.0
 40
0.0
 40
0.0
 40
0.0
 40
0.1794152893756658
 40
0.2670467197815217
 40
0.3102605435413978
 40
0.3558008766977931
 40
0.4210145035340376
 40
0.4803947587045328
 40
0.5423269814405045
 40
0.6461608279444525
 40
0.7489346372632488
 40
0.7489346372632488
 40
0.7489346372632488
 40
0.7489346372632488
 10
461.542702948878
 20
216.0266831456276
 30
0.0
 10
461.4819447951331
 20
216.0174201551933
 30
0.0
 10
461.391510664831
 20
216.0036328619283
 30
0.0
 10
461.3097310199869
 20
215.93889699482
 30
0.0
 10
461.2636129783807
 20
215.9003834629394
 30
0.0
 10
461.2479234151644
 20
215.8493806141078
 30
0.0
 10
461.2057861753633
 20
215.8102182554852
 30
0.0
 10
461.1710531041104
 20
215.756396568748
 30
0.0
 10
461.1627596340218
 20
215.682471610235
 30
0.0
 10
461.1688472309473
 20
215.5787291971817
 30
0.0
 10
461.2415853946172
 20
215.5573285628969
 30
0.0
 10
461.277767878434
 20
215.5466831456275
 30
0.0
 11
461.542702948878
 21
216.0266831456276
 31
0.0
 11
461.3694764199441
 21
215.9799668129884
 31
0.0
 11
461.29814781474
 21
215.9290600582833
 31
0.0
 11
461.2675784962144
 21
215.8985158063063
 31
0.0
 11
461.2471985599084
 21
215.8577901370035
 31
0.0
 11
461.2064392732299
 21
215.8068833822985
 31
0.0
 11
461.1758699547042
 21
215.7559762956701
 31
0.0
 11
461.1656799865511
 21
215.6948881236394
 31
0.0
 11
461.1860599228572
 21
215.5930739503826
 31
0.0
 11
461.277767878434
 21
215.5466831456275
 31
0.0
  0
LINE
  5
5AC
102
{ACAD_REACTORS
330
597
102
}
330
18
100
AcDbEntity
  8
ROGO
 62
     4
100
AcDbLine
 10
461.1860599228577
 20
216.7246475059374
 30
0.0
 11
463.0646832687234
 21
216.7246475059374
 31
0.0
  0
LINE
  5
5AD
102
{ACAD_REACTORS
330
597
102
}
330
18
100
AcDbEntity
  8
ROGO
 62
     4
100
AcDbLine
 10
460.5135325715607
 20
214.8487261765695
 30
0.0
 11
462.1292883072816
 21
214.8487261765695
 31
0.0
  0
LINE
  5
5AE
102
{ACAD_REACTORS
330
598
102
}
330
18
100
AcDbEntity
  8
ROGO
 62
     4
100
AcDbLine
 10
455.1416745358181
 20
216.7246475059375
 30
0.0
 11
457.0202978816836
 21
216.7246475059375
 31
0.0
  0
LINE
  5
5AF
102
{ACAD_REACTORS
330
598
102
}
330
18
100
AcDbEntity
  8
ROGO
 62
     4
100
AcDbLine
 10
456.4329268069258
 20
215.5466831456276
 30
0.0
 11
456.0849029202418
 21
214.8487261765695
 31
0.0
  0
SPLINE
  5
5B0
102
{ACAD_REACTORS
330
598
102
}
330
18
100
AcDbEntity
  8
ROGO
 62
     4
100
AcDbSpline
210
0.0
220
0.0
230
1.0
 70
     8
 71
     3
 72
    16
 73
    12
 74
    10
 42
0.0000000001
 43
0.0000000001
 44
0.0000000001
 40
0.0
 40
0.0
 40
0.0
 40
0.0
 40
0.1794152893756658
 40
0.2670467197814556
 40
0.3102605435414121
 40
0.3558008766977565
 40
0.4210145035340276
 40
0.4803947587045229
 40
0.5423269814405317
 40
0.646160827944346
 40
0.7489346372632694
 40
0.7489346372632694
 40
0.7489346372632694
 40
0.7489346372632694
 10
455.4983175618382
 20
216.0266831456276
 30
0.0
 10
455.4375594080933
 20
216.0174201551932
 30
0.0
 10
455.3471252777912
 20
216.0036328619282
 30
0.0
 10
455.265345632947
 20
215.9388969948202
 30
0.0
 10
455.219227591341
 20
215.9003834629395
 30
0.0
 10
455.2035380281249
 20
215.8493806141077
 30
0.0
 10
455.1614007883236
 20
215.8102182554853
 30
0.0
 10
455.1266677170706
 20
215.7563965687481
 30
0.0
 10
455.1183742469821
 20
215.682471610235
 30
0.0
 10
455.1244618439073
 20
215.5787291971817
 30
0.0
 10
455.1972000075775
 20
215.557328562897
 30
0.0
 10
455.2333824913943
 20
215.5466831456276
 30
0.0
 11
455.4983175618382
 21
216.0266831456276
 31
0.0
 11
455.3250910329043
 21
215.9799668129884
 31
0.0
 11
455.2537624277001
 21
215.9290600582834
 31
0.0
 11
455.2231931091746
 21
215.8985158063063
 31
0.0
 11
455.2028131728686
 21
215.8577901370035
 31
0.0
 11
455.16205388619
 21
215.8068833822986
 31
0.0
 11
455.1314845676643
 21
215.7559762956702
 31
0.0
 11
455.1212945995114
 21
215.6948881236394
 31
0.0
 11
455.1416745358173
 21
215.5930739503827
 31
0.0
 11
455.2333824913943
 21
215.5466831456276
 31
0.0
  0
SPLINE
  5
5B1
102
{ACAD_REACTORS
330
598
102
}
330
18
100
AcDbEntity
  8
ROGO
 62
     4
100
AcDbSpline
210
0.0
220
0.0
230
1.0
 70
     8
 71
     3
 72
    26
 73
    22
 74
    20
 42
0.0000000001
 43
0.0000000001
 44
0.0000000001
 40
0.0
 40
0.0
 40
0.0
 40
0.0
 40
0.3403136209417982
 40
0.5681272389515159
 40
0.7323994099697078
 40
0.8550561247337057
 40
1.014148321321447
 40
1.13027011535643
 40
1.339959009791999
 40
1.510642755247373
 40
1.626735051276186
 40
1.740569491433665
 40
1.944197174100541
 40
2.088186249714737
 40
2.16573549158295
 40
2.275891898886404
 40
2.355438312276705
 40
2.470674802865115
 40
2.535888688806235
 40
2.677801419664453
 40
2.742600005358966
 40
2.742600005358966
 40
2.742600005358966
 40
2.742600005358966
 10
455.1416745358174
 20
216.7246475059374
 30
0.0
 10
455.0261668347337
 20
216.7177561184159
 30
0.0
 10
454.8333356717823
 20
216.7062514805635
 30
0.0
 10
454.6216082279084
 20
216.5776293321942
 30
0.0
 10
454.4664843073222
 20
216.5028540674194
 30
0.0
 10
454.3558501152879
 20
216.4012034653914
 30
0.0
 10
454.2747548040483
 20
216.2962058189324
 30
0.0
 10
454.1725189401948
 20
216.1711018930388
 30
0.0
 10
454.0891485146148
 20
216.0254234338039
 30
0.0
 10
454.0466930252819
 20
215.8648603751419
 30
0.0
 10
454.0090863557765
 20
215.7368906857721
 30
0.0
 10
453.9811966201011
 20
215.5942851673543
 30
0.0
 10
453.9882925584049
 20
215.4402210414652
 30
0.0
 10
453.9984542668114
 20
215.2971341686027
 30
0.0
 10
454.0438238238458
 20
215.1949915644219
 30
0.0
 10
454.0954917129742
 20
215.1222730688085
 30
0.0
 10
454.1587583356242
 20
215.0421817078103
 30
0.0
 10
454.2279858560776
 20
214.9891374587671
 30
0.0
 10
454.2852426662356
 20
214.8930442371376
 30
0.0
 10
454.3854687808962
 20
214.8807820490289
 30
0.0
 10
454.4491764867189
 20
214.8563766349189
 30
0.0
 10
454.469147184521
 20
214.8487261765695
 30
0.0
 11
455.1416745358174
 21
216.7246475059374
 31
0.0
 11
454.805410860169
 21
216.6723015315178
 31
0.0
 11
454.6016144267763
 21
216.5704876901844
 31
0.0
 11
454.4589572163679
 21
216.4890366835023
 31
0.0
 11
454.3672492607911
 21
216.4075853448969
 31
0.0
 11
454.2653513370614
 21
216.2854086689121
 31
0.0
 11
454.1940227318573
 21
216.1937762449043
 31
0.0
 11
454.0921242221941
 21
216.0105110649654
 31
0.0
 11
454.0411755532959
 21
215.8476087196779
 31
0.0
 11
454.0106062347704
 21
215.7356134610188
 31
0.0
 11
453.9902262984643
 21
215.6236182023596
 31
0.0
 11
453.9902262984643
 21
215.4199905196928
 31
0.0
 11
454.0106062347704
 21
215.2774510090566
 31
0.0
 11
454.0411755532959
 21
215.2061810877769
 31
0.0
 11
454.102314190347
 21
215.1145486637691
 31
0.0
 11
454.1532634451787
 21
215.0534601598149
 31
0.0
 11
454.2347814326023
 21
214.9720091531329
 31
0.0
 11
454.275540719281
 21
214.9211020665045
 31
0.0
 11
454.4080085474697
 21
214.8701953117995
 31
0.0
 11
454.469147184521
 21
214.8487261765695
 31
0.0
  0
LINE
  5
5B2
102
{ACAD_REACTORS
330
598
102
}
330
18
100
AcDbEntity
  8
ROGO
 62
     4
100
AcDbLine
 10
455.2333824913942
 20
215.5466831456276
 30
0.0
 11
456.4329268069259
 21
215.5466831456276
 31
0.0
  0
LINE
  5
5B3
102
{ACAD_REACTORS
330
598
102
}
330
18
100
AcDbEntity
  8
ROGO
 62
     4
100
AcDbLine
 10
455.4983175618381
 20
216.0266831456276
 30
0.0
 11
456.6722703094826
 21
216.0266831456277
 31
0.0
  0
LINE
  5
5B4
102
{ACAD_REACTORS
330
598
102
}
330
18
100
AcDbEntity
  8
ROGO
 62
     4
100
AcDbLine
 10
457.0202978816835
 20
216.7246475059374
 30
0.0
 11
456.6722703094826
 21
216.0266831456276
 31
0.0
  0
LINE
  5
5B5
102
{ACAD_REACTORS
330
598
102
}
330
18
100
AcDbEntity
  8
ROGO
 62
     4
100
AcDbLine
 10
454.4691471845209
 20
214.8487261765696
 30
0.0
 11
456.0849029202418
 21
214.8487261765696
 31
0.0
  0
LINE
  5
5B6
102
{ACAD_REACTORS
330
590
102
}
330
18
100
AcDbEntity
  8
ROGO
 62
     4
100
AcDbLine
 10
453.9554051630841
 20
214.8487261765696
 30
0.0
 11
452.9093941314725
 21
214.8487261765696
 31
0.0
  0
LINE
  5
5B7
102
{ACAD_REACTORS
330
590
102
}
330
18
100
AcDbEntity
  8
ROGO
 62
     4
100
AcDbLine
 10
451.621470172863
 20
216.7246475059374
 30
0.0
 11
453.1220465768221
 21
216.7246475059374
 31
0.0
  0
LINE
  5
5B8
102
{ACAD_REACTORS
330
590
102
}
330
18
100
AcDbEntity
  8
ROGO
 62
     4
100
AcDbLine
 10
450.2687068441499
 20
214.8487261765696
 30
0.0
 11
451.3076314894236
 21
214.8487261765696
 31
0.0
  0
LINE
  5
5B9
102
{ACAD_REACTORS
330
590
102
}
330
18
100
AcDbEntity
  8
ROGO
 62
     4
100
AcDbLine
 10
451.5651892573963
 20
215.205889990985
 30
0.0
 11
451.3076314894236
 21
214.8487261765696
 31
0.0
  0
LINE
  5
5BA
102
{ACAD_REACTORS
330
590
102
}
330
18
100
AcDbEntity
  8
ROGO
 62
     4
100
AcDbLine
 10
451.8368432018895
 20
215.5826014362651
 30
0.0
 11
452.5833776619446
 21
215.5826014362651
 31
0.0
  0
LINE
  5
5BB
102
{ACAD_REACTORS
330
590
102
}
330
18
100
AcDbEntity
  8
ROGO
 62
     4
100
AcDbLine
 10
451.5651892573963
 20
215.205889990985
 30
0.0
 11
452.7507278128025
 21
215.205889990985
 31
0.0
  0
LINE
  5
5BC
102
{ACAD_REACTORS
330
590
102
}
330
18
100
AcDbEntity
  8
ROGO
 62
     4
100
AcDbLine
 10
452.2987956823368
 20
216.223206110292
 30
0.0
 11
451.8368432018893
 21
215.5826014362651
 31
0.0
  0
LINE
  5
5BD
102
{ACAD_REACTORS
330
590
102
}
330
18
100
AcDbEntity
  8
ROGO
 62
     4
100
AcDbLine
 10
451.621470172863
 20
216.7246475059374
 30
0.0
 11
450.2687068441499
 21
214.8487261765696
 31
0.0
  0
LINE
  5
5BE
102
{ACAD_REACTORS
330
599
102
}
330
18
100
AcDbEntity
  8
ROGO
 62
     4
100
AcDbLine
 10
449.0036285945051
 20
215.6144221765696
 30
0.0
 11
448.8373789193388
 21
215.2784221765696
 31
0.0
  0
LINE
  5
5BF
102
{ACAD_REACTORS
330
599
102
}
330
18
100
AcDbEntity
  8
ROGO
 62
     4
100
AcDbLine
 10
450.1708995225073
 20
215.2784221765696
 30
0.0
 11
449.9582899379233
 21
214.8487261765696
 31
0.0
  0
LINE
  5
5C0
102
{ACAD_REACTORS
330
599
102
}
330
18
100
AcDbEntity
  8
ROGO
 62
     4
100
AcDbLine
 10
450.5076154485648
 20
215.9589441146856
 30
0.0
 11
450.3371491976736
 21
215.6144221765696
 31
0.0
  0
LINE
  5
5C1
102
{ACAD_REACTORS
330
599
102
}
330
18
100
AcDbEntity
  8
ROGO
 62
     4
100
AcDbLine
 10
449.0036285945051
 20
215.6144221765696
 30
0.0
 11
450.3371491976736
 21
215.6144221765696
 31
0.0
  0
LINE
  5
5C2
102
{ACAD_REACTORS
330
599
102
}
330
18
100
AcDbEntity
  8
ROGO
 62
     4
100
AcDbLine
 10
448.8373789193388
 20
215.2784221765696
 30
0.0
 11
450.1708995225073
 21
215.2784221765696
 31
0.0
  0
LINE
  5
5C3
102
{ACAD_REACTORS
330
599
102
}
330
18
100
AcDbEntity
  8
ROGO
 62
     4
100
AcDbLine
 10
449.1740948453962
 20
215.9589441146856
 30
0.0
 11
450.5076154485648
 21
215.9589441146856
 31
0.0
  0
LINE
  5
5C4
102
{ACAD_REACTORS
330
599
102
}
330
18
100
AcDbEntity
  8
ROGO
 62
     4
100
AcDbLine
 10
449.3403374826484
 20
216.2949298906629
 30
0.0
 11
450.6738580858169
 21
216.2949298906629
 31
0.0
  0
LINE
  5
5C5
102
{ACAD_REACTORS
330
599
102
}
330
18
100
AcDbEntity
  8
ROGO
 62
     4
100
AcDbLine
 10
449.3403374826484
 20
216.2949298906629
 30
0.0
 11
449.1740948453962
 21
215.9589441146856
 31
0.0
  0
LINE
  5
5C6
102
{ACAD_REACTORS
330
599
102
}
330
18
100
AcDbEntity
  8
ROGO
 62
     4
100
AcDbLine
 10
447.4210282972319
 20
214.8487261765696
 30
0.0
 11
449.9582899379233
 21
214.8487261765696
 31
0.0
  0
LINE
  5
5C7
102
{ACAD_REACTORS
330
599
102
}
330
18
100
AcDbEntity
  8
ROGO
 62
     4
100
AcDbLine
 10
450.8864783654378
 20
216.7246475059374
 30
0.0
 11
450.6738580858169
 21
216.2949298906629
 31
0.0
  0
LINE
  5
5C8
102
{ACAD_REACTORS
330
599
102
}
330
18
100
AcDbEntity
  8
ROGO
 62
     4
100
AcDbLine
 10
448.3492167247463
 20
216.7246475059374
 30
0.0
 11
447.421028297232
 21
214.8487261765696
 31
0.0
  0
LINE
  5
5C9
102
{ACAD_REACTORS
330
596
330
594
102
}
330
18
100
AcDbEntity
  8
ROGO
 62
     4
100
AcDbLine
 10
445.07443423972
 20
214.8487261765696
 30
0.0
 11
444.596971167108
 21
213.7933920989289
 31
0.0
  0
LINE
  5
5CA
102
{ACAD_REACTORS
330
594
102
}
330
18
100
AcDbEntity
  8
ROGO
 62
     4
100
AcDbLine
 10
446.0730352985118
 20
215.5003352257963
 30
0.0
 11
445.369240657306
 21
215.5003352257964
 31
0.0
  0
LINE
  5
5CB
102
{ACAD_REACTORS
330
594
102
}
330
18
100
AcDbEntity
  8
ROGO
 62
     4
100
AcDbLine
 10
446.1749332222415
 20
215.9992233470612
 30
0.0
 11
445.5949517949594
 21
215.9992233470612
 31
0.0
  0
SPLINE
  5
5CC
102
{ACAD_REACTORS
330
594
102
}
330
18
100
AcDbEntity
  8
ROGO
 62
     4
100
AcDbSpline
210
0.0
220
0.0
230
1.0
 70
     8
 71
     3
 72
    15
 73
    11
 74
     9
 42
0.0000000001
 43
0.0000000001
 44
0.0000000001
 40
0.0
 40
0.0
 40
0.0
 40
0.0
 40
0.2199578613106558
 40
0.3202465475123651
 40
0.4340808827708152
 40
0.5116301246390283
 40
0.634275054953107
 40
0.7077360179240892
 40
0.8337709579493377
 40
0.875782631437913
 40
0.875782631437913
 40
0.875782631437913
 40
0.875782631437913
 10
446.1749332222415
 20
215.9992233470611
 30
0.0
 10
446.2575451294689
 20
215.9996017536932
 30
0.0
 10
446.377823522409
 20
216.0001526929356
 30
0.0
 10
446.4435960315011
 20
215.8513679730364
 30
0.0
 10
446.414113656882
 20
215.7555738235543
 30
0.0
 10
446.3770519091333
 20
215.6572230889147
 30
0.0
 10
446.31155540693
 20
215.590392281387
 30
0.0
 10
446.2236495075082
 20
215.5260229476199
 30
0.0
 10
446.1405742317144
 20
215.518230751535
 30
0.0
 10
446.086543090325
 20
215.5039143323146
 30
0.0
 10
446.0730352985117
 20
215.5003352257963
 30
0.0
 11
446.1749332222415
 21
215.9992233470611
 31
0.0
 11
446.388919037854
 21
215.9483162604327
 31
0.0
 11
446.4296783245325
 21
215.856683836425
 31
0.0
 11
446.40929897416
 21
215.7446885777659
 31
0.0
 11
446.3787296556345
 21
215.6734186564861
 31
0.0
 11
446.2972110822772
 21
215.5817862324783
 31
0.0
 11
446.2360724452261
 21
215.5410605631757
 31
0.0
 11
446.1137945851903
 21
215.510516643122
 31
0.0
 11
446.0730352985117
 21
215.5003352257963
 31
0.0
  0
LINE
  5
5CD
102
{ACAD_REACTORS
330
594
102
}
330
18
100
AcDbEntity
  8
ROGO
 62
     4
100
AcDbLine
 10
445.5949517949594
 20
215.9992233470612
 30
0.0
 11
445.3692406573058
 21
215.5003352257964
 31
0.0
  0
LINE
  5
5CE
102
{ACAD_REACTORS
330
594
102
}
330
18
100
AcDbEntity
  8
ROGO
 62
     4
100
AcDbLine
 10
446.3481603375504
 20
214.8487261765696
 30
0.0
 11
445.07443423972
 21
214.8487261765696
 31
0.0
  0
SPLINE
  5
5CF
102
{ACAD_REACTORS
330
594
102
}
330
18
100
AcDbEntity
  8
ROGO
 62
     4
100
AcDbSpline
210
0.0
220
0.0
230
1.0
 70
     8
 71
     3
 72
    18
 73
    14
 74
     0
 42
0.0000000001
 43
0.0000000001
 40
0.1087402787915014
 40
0.1087402787915014
 40
0.1087402787915014
 40
0.1087402787915014
 40
0.5992371417938475
 40
1.083176791562496
 40
1.448211145705696
 40
1.714037220764907
 40
2.164002567013297
 40
2.740236056362883
 40
3.395137510199602
 40
4.071816045172726
 40
4.784906178399433
 40
5.506895915094292
 40
6.060470601257719
 40
6.060470601257719
 40
6.060470601257719
 40
6.060470601257719
 10
446.9883253058813
 20
216.7246475059375
 30
0.0
 10
447.0621246453613
 20
216.6976012847264
 30
0.0
 10
447.2072502851479
 20
216.6404214399904
 30
0.0
 10
447.3843720502152
 20
216.5099181402883
 30
0.0
 10
447.4809666129648
 20
216.3592627443273
 30
0.0
 10
447.5738797680263
 20
216.2108188267518
 30
0.0
 10
447.5868827944704
 20
215.997850920814
 30
0.0
 10
447.5655829586888
 20
215.7286078699972
 30
0.0
 10
447.4280731431515
 20
215.4476805306819
 30
0.0
 10
447.2073618016067
 20
215.2019704866793
 30
0.0
 10
446.9333332686168
 20
215.0053073719054
 30
0.0
 10
446.6443607284635
 20
214.8509318911978
 30
0.0
 10
446.4378030755297
 20
214.8493937188998
 30
0.0
 10
446.3481603371088
 20
214.8487261765695
 30
0.0
  0
LINE
  5
5D0
102
{ACAD_REACTORS
330
594
102
}
330
18
100
AcDbEntity
  8
ROGO
 62
     4
100
AcDbLine
 10
444.684756287331
 20
216.7246475059374
 30
0.0
 11
443.234398372913
 21
213.7933920989288
 31
0.0
  0
LINE
  5
5D1
102
{ACAD_REACTORS
330
596
330
595
330
594
102
}
330
18
100
AcDbEntity
  8
ROGO
 62
     4
100
AcDbLine
 10
443.234398372913
 20
213.7933920989289
 30
0.0
 11
463.0760801829469
 21
213.7933920989289
 31
0.0
  0
LINE
  5
5D2
102
{ACAD_REACTORS
330
594
102
}
330
18
100
AcDbEntity
  8
ROGO
 62
     4
100
AcDbLine
 10
444.684756287331
 20
216.7246475059374
 30
0.0
 11
446.9883253058813
 21
216.7246475059374
 31
0.0
  0
TEXT
  5
5D3
330
18
100
AcDbEntity
  8
文字
100
AcDbText
 10
470.5322959796787
 20
213.7219487260123
 30
0.0
 40
3.0
  1
LA-22
  7
STYLE3
100
AcDbText
  0
CIRCLE
  5
5EB
330
18
100
AcDbEntity
  8
外形線
100
AcDbCircle
 10
363.7569596478877
 20
216.0125578775514
 30
0.0
 40
10.0
  0
CIRCLE
  5
5EC
330
18
100
AcDbEntity
  8
外形線
100
AcDbCircle
 10
363.7569596478877
 20
216.0125578775514
 30
0.0
 40
9.0
  0
LINE
  5
5ED
330
18
100
AcDbEntity
  8
隠れ線2
100
AcDbLine
 10
364.2569812388908
 20
201.0125578775515
 30
0.0
 11
395.154329441734
 21
201.0125578775515
 31
0.0
  0
ARC
  5
5F1
330
18
100
AcDbEntity
  8
中心線
 48
0.5
100
AcDbCircle
 10
363.7569596478877
 20
216.0125578775514
 30
0.0
 40
20.00027689808319
100
AcDbArc
 50
335.8242256085255
 51
23.54763161989261
  0
DIMENSION
  5
603
330
18
100
AcDbEntity
  8
外形線
100
AcDbDimension
  2
*D4
 10
413.7569596478877
 20
91.48471927955723
 30
0.0
 11
388.7569596478877
 21
93.35971927955723
 31
0.0
 70
    32
 71
     5
 42
-1.0
  3
STYLE3
100
AcDbAlignedDimension
 13
363.7569596478877
 23
138.0633748797409
 33
0.0
 14
413.7569596478877
 24
203.0125578775515
 34
0.0
100
AcDbRotatedDimension
1001
ACAD
1000
DSTYLE
1002
{
1070
   271
1070
     2
1002
}
  0
DIMENSION
  5
60F
330
18
100
AcDbEntity
  8
外形線
100
AcDbDimension
  2
*D5
 10
513.7569596478877
 20
91.48471927955723
 30
0.0
 11
463.7569596478877
 21
93.35971927955723
 31
0.0
 70
    32
 71
     5
 42
-1.0
  3
STYLE3
100
AcDbAlignedDimension
 13
413.7569596478877
 23
203.0125578775515
 33
0.0
 14
513.7569596478877
 24
202.3125578775514
 34
0.0
100
AcDbRotatedDimension
1001
ACAD
1000
DSTYLE
1002
{
1070
    75
1070
     1
1070
   271
1070
     2
1070
   279
1070
     1
1002
}
  0
DIMENSION
  5
61C
330
18
100
AcDbEntity
  8
外形線
100
AcDbDimension
  2
*D6
 10
531.6911426425017
 20
201.0125578775515
 30
0.0
 11
529.8161426425017
 21
216.0125578775514
 31
0.0
 70
    32
 71
     5
 42
-1.0
  3
STYLE3
100
AcDbAlignedDimension
 13
508.7569596478877
 23
231.0125578775514
 33
0.0
 14
508.7569596478877
 24
201.0125578775515
 34
0.0
 50
90.0
100
AcDbRotatedDimension
1001
ACAD
1000
DSTYLE
1002
{
1070
   271
1070
     2
1002
}
  0
CIRCLE
  5
61E
330
18
100
AcDbEntity
  8
外形線
100
AcDbCircle
 10
326.7569596478877
 20
245.0125578775514
 30
0.0
 40
1.85
  0
CIRCLE
  5
61F
330
18
100
AcDbEntity
  8
外形線
100
AcDbCircle
 10
326.7569596478877
 20
148.0125578775514
 30
0.0
 40
1.85
  0
CIRCLE
  5
620
330
18
100
AcDbEntity
  8
外形線
100
AcDbCircle
 10
326.7569596478877
 20
245.0125578775514
 30
0.0
 40
2.5
  0
CIRCLE
  5
621
330
18
100
AcDbEntity
  8
外形線
100
AcDbCircle
 10
326.7569596478877
 20
148.0125578775514
 30
0.0
 40
2.5
  0
LINE
  5
622
330
18
100
AcDbEntity
  8
中心線
 48
0.5
100
AcDbLine
 10
322.566557528588
 20
148.0125578775514
 30
0.0
 11
331.3302880072374
 21
148.0125578775514
 31
0.0
  0
LINE
  5
623
330
18
100
AcDbEntity
  8
中心線
 48
0.5
100
AcDbLine
 10
322.566557528588
 20
245.0125578775514
 30
0.0
 11
331.3302880072374
 21
245.0125578775514
 31
0.0
  0
LINE
  5
624
330
18
100
AcDbEntity
  8
外形線
100
AcDbLine
 10
329.4069596478877
 20
241.0125578775514
 30
0.0
 11
329.4069596478877
 21
152.0125578775514
 31
0.0
  0
LINE
  5
625
330
18
100
AcDbEntity
  8
外形線
100
AcDbLine
 10
324.1069596478876
 20
241.0125578775514
 30
0.0
 11
324.1069596478878
 21
152.0125578775514
 31
0.0
  0
LINE
  5
626
330
18
100
AcDbEntity
  8
外形線
100
AcDbLine
 10
324.1069596478876
 20
241.0125578775514
 30
0.0
 11
329.4069596478877
 21
241.0125578775514
 31
0.0
  0
LINE
  5
627
330
18
100
AcDbEntity
  8
外形線
100
AcDbLine
 10
324.1069596478878
 20
152.0125578775514
 30
0.0
 11
329.4069596478877
 21
152.0125578775514
 31
0.0
  0
LINE
  5
628
330
18
100
AcDbEntity
  8
想像線
 48
0.7
100
AcDbLine
 10
329.1069596478877
 20
242.2490921503252
 30
0.0
 11
329.1069596478877
 21
150.5045888655257
 31
0.0
  0
LINE
  5
629
330
18
100
AcDbEntity
  8
想像線
 48
0.7
100
AcDbLine
 10
324.4069596478877
 20
242.204930683868
 30
0.0
 11
324.4069596478878
 21
150.8061830202501
 31
0.0
  0
LINE
  5
959
330
18
100
AcDbEntity
  8
中心線
 48
0.5
100
AcDbLine
 10
392.138054474403
 20
224.6339310284318
 30
0.0
 11
338.6028177265993
 21
321.2140547112316
 31
0.0
  0
LINE
  5
A5E
330
18
100
AcDbEntity
  8
想像線
 48
0.6
100
AcDbLine
 10
374.2606512568158
 20
240.384297456183
 30
0.0
 11
392.1986072059301
 21
208.0233682920254
 31
0.0
  0
LINE
  5
A5F
330
18
100
AcDbEntity
  8
想像線
 48
0.5
100
AcDbLine
 10
374.2606512568158
 20
240.384297456183
 30
0.0
 11
388.254566571046
 21
248.1412513801246
 31
0.0
  0
LINE
  5
A67
330
18
100
AcDbEntity
  8
想像線
 48
0.5
100
AcDbLine
 10
388.254566571046
 20
248.1412513801246
 30
0.0
 11
393.5022848138825
 21
251.0501091016027
 31
0.0
  0
LINE
  5
A68
330
18
100
AcDbEntity
  8
中心線
100
AcDbLine
 10
390.304702035268
 20
246.3049394481764
 30
0.0
 11
394.0879596772303
 21
248.402033403094
 31
0.0
  0
LINE
  5
A69
330
18
100
AcDbEntity
  8
外形線
100
AcDbLine
 10
371.308840037875
 20
253.9601672182098
 30
0.0
 11
381.0051648807278
 21
236.4675341510771
 31
0.0
  0
LINE
  5
A6A
330
18
100
AcDbEntity
  8
外形線
100
AcDbLine
 10
378.3057976949905
 20
257.838644180181
 30
0.0
 11
388.0021225378428
 21
240.3460111130479
 31
0.0
  0
LINE
  5
A6B
330
18
100
AcDbEntity
  8
外形線
100
AcDbLine
 10
381.0051648807278
 20
236.4675341510771
 30
0.0
 11
388.0021225378428
 21
240.3460111130479
 31
0.0
  0
LINE
  5
A6C
330
18
100
AcDbEntity
  8
外形線
100
AcDbLine
 10
386.2528831235646
 20
239.3763918725555
 30
0.0
 11
391.0040174019781
 21
230.805118742589
 31
0.0
  0
LINE
  5
A6D
330
18
100
AcDbEntity
  8
外形線
100
AcDbLine
 10
382.7544042950071
 20
237.4371533915701
 30
0.0
 11
387.5055385734209
 21
228.8658802616038
 31
0.0
  0
LINE
  5
A70
330
18
100
AcDbEntity
  8
外形線
100
AcDbLine
 10
386.4559949248534
 20
228.2841087173081
 30
0.0
 11
392.0535610505454
 21
231.3868902868847
 31
0.0
  0
LINE
  5
A71
330
18
100
AcDbEntity
  8
外形線
100
AcDbLine
 10
386.4559949248535
 20
228.2841087173082
 30
0.0
 11
387.6680189754694
 21
226.0975594494597
 31
0.0
  0
LINE
  5
A72
330
18
100
AcDbEntity
  8
外形線
100
AcDbLine
 10
392.0535610505454
 20
231.3868902868846
 30
0.0
 11
393.2655851011615
 21
229.2003410190362
 31
0.0
  0
LINE
  5
A73
330
18
100
AcDbEntity
  8
外形線
100
AcDbLine
 10
387.6680189754694
 20
226.0975594494597
 30
0.0
 11
393.2655851011615
 21
229.2003410190364
 31
0.0
  0
ARC
  5
A74
330
18
100
AcDbEntity
  8
外形線
100
AcDbCircle
 10
390.9132972333807
 20
226.241333646897
 30
0.0
 40
1.5
100
AcDbArc
 50
112.8388724316462
 51
184.1615377018294
  0
LINE
  5
A78
330
18
100
AcDbEntity
  8
外形線
100
AcDbLine
 10
390.8276010620251
 20
225.7399294524438
 30
0.0
 11
390.0775957367437
 21
221.2911717294927
 31
0.0
  0
LINE
  5
A79
330
18
100
AcDbEntity
  8
外形線
100
AcDbLine
 10
389.1096268419917
 20
225.9978729329676
 30
0.0
 11
389.390495473808
 21
220.9905170626841
 31
0.0
  0
LINE
  5
A7B
330
18
100
AcDbEntity
  8
外形線
100
AcDbLine
 10
389.390495473808
 20
220.9905170626841
 30
0.0
 11
390.0775957367437
 21
221.2911717294927
 31
0.0
  0
LINE
  5
A7C
330
18
100
AcDbEntity
  8
外形線
100
AcDbLine
 10
389.1096268419917
 20
225.9978729329676
 30
0.0
 11
390.729521270099
 21
226.7066906206025
 31
0.0
  0
ARC
  5
A7D
330
18
100
AcDbEntity
  8
外形線
100
AcDbCircle
 10
391.1838864335082
 20
225.6229434102548
 30
0.0
 40
0.375
100
AcDbArc
 50
111.1711266052915
 51
161.8224434405304
  0
CIRCLE
  5
A80
330
18
100
AcDbEntity
  8
外形線
100
AcDbCircle
 10
395.9242083468548
 20
214.7896625979685
 30
0.0
 40
1.25
  0
LINE
  5
A81
330
18
100
AcDbEntity
  8
外形線
100
AcDbLine
 10
395.2602472184622
 20
215.0494283013232
 30
0.0
 11
396.5871770910869
 21
214.530285151333
 31
0.0
  0
LINE
  5
A82
330
18
100
AcDbEntity
  8
外形線
100
AcDbLine
 10
395.6310572377028
 20
214.0403683735644
 30
0.0
 11
396.1781487133976
 21
215.4387341656804
 31
0.0
  0
LINE
  5
A83
330
18
100
AcDbEntity
  8
中心線
100
AcDbLine
 10
398.2660726751937
 20
215.8059560884444
 30
0.0
 11
393.764352937479
 21
213.8500559191417
 31
0.0
  0
LINE
  5
A84
330
18
100
AcDbEntity
  8
外形線
100
AcDbLine
 10
392.8550098839948
 20
220.5462304048087
 30
0.0
 11
394.1819397566193
 21
220.0270872548186
 31
0.0
  0
LINE
  5
A85
330
18
100
AcDbEntity
  8
外形線
100
AcDbLine
 10
393.2258199032353
 20
219.5371704770499
 30
0.0
 11
393.7729113789298
 21
220.935536269166
 31
0.0
  0
CIRCLE
  5
A86
330
18
100
AcDbEntity
  8
外形線
100
AcDbCircle
 10
393.5189710123873
 20
220.2864647014543
 30
0.0
 40
1.25
  0
LINE
  5
A87
330
18
100
AcDbEntity
  8
中心線
100
AcDbLine
 10
395.5747144091351
 20
221.1784668923651
 30
0.0
 11
391.3346505581217
 21
219.3362505645533
 31
0.0
  0
LINE
  5
A8A
330
18
100
AcDbEntity
  8
外形線
100
AcDbLine
 10
393.6942179333385
 20
211.0850256445698
 30
0.0
 11
394.3813181962743
 21
211.3856803113781
 31
0.0
  0
LINE
  5
A8B
330
18
100
AcDbEntity
  8
外形線
100
AcDbLine
 10
394.3527212198345
 20
210.8273952471515
 30
0.0
 11
393.6942179333385
 21
211.0850256445698
 31
0.0
  0
LINE
  5
A91
330
18
100
AcDbEntity
  8
中心線
100
AcDbLine
 10
392.5525758797388
 20
241.8341859273239
 30
0.0
 11
396.7340713962312
 21
244.1520267407248
 31
0.0
  0
CIRCLE
  5
A92
330
18
100
AcDbEntity
  8
想像線
100
AcDbCircle
 10
394.5629788063365
 20
242.9485704666043
 30
0.0
 40
1.5
  0
LINE
  5
A93
330
18
100
AcDbEntity
  8
想像線
100
AcDbLine
 10
393.5445124472873
 20
243.2406109956123
 30
0.0
 11
395.6183209706856
 21
242.6459559705805
 31
0.0
  0
LINE
  5
A94
330
18
100
AcDbEntity
  8
想像線
100
AcDbLine
 10
394.2749971149636
 20
241.9442589565488
 30
0.0
 11
394.8509822620007
 21
243.9529578777634
 31
0.0
  0
LINE
  5
A95
330
18
100
AcDbEntity
  8
想像線
 48
0.5
100
AcDbLine
 10
393.1026627735097
 20
239.3950543087306
 30
0.0
 11
398.3503810163462
 21
242.3039120302088
 31
0.0
  0
CIRCLE
  5
A96
330
18
100
AcDbEntity
  8
想像線
100
AcDbCircle
 10
392.1389307051049
 20
247.3216690023013
 30
0.0
 40
1.5
  0
LINE
  5
A97
330
18
100
AcDbEntity
  8
想像線
100
AcDbLine
 10
391.1204643460557
 20
247.6137095313093
 30
0.0
 11
393.1942728694538
 21
247.0190545062775
 31
0.0
  0
LINE
  5
A98
330
18
100
AcDbEntity
  8
想像線
100
AcDbLine
 10
391.8509490137319
 20
246.3173574922458
 30
0.0
 11
392.426934160769
 21
248.3260564134604
 31
0.0
  0
LINE
  5
A9A
330
18
100
AcDbEntity
  8
想像線
 48
0.5
100
AcDbLine
 10
388.254566571046
 20
248.1412513801246
 30
0.0
 11
406.1925225201607
 21
215.780322215967
 31
0.0
  0
LINE
  5
AAC
330
18
100
AcDbEntity
  8
外形線
100
AcDbLine
 10
390.0775957367437
 20
221.2911717294927
 30
0.0
 11
394.5808220759419
 21
210.926500151293
 31
0.0
  0
LINE
  5
AAD
330
18
100
AcDbEntity
  8
外形線
100
AcDbLine
 10
389.390495473808
 20
220.9905170626841
 30
0.0
 11
393.6942179333385
 21
211.0850256445698
 31
0.0
  0
LINE
  5
AAE
330
18
100
AcDbEntity
  8
外形線
100
AcDbLine
 10
394.3527212198345
 20
210.8273952471515
 30
0.0
 11
397.1085170078342
 21
212.0247291022901
 31
0.0
  0
LINE
  5
AAF
330
18
100
AcDbEntity
  8
外形線
100
AcDbLine
 10
395.8216387491252
 20
223.7847101608505
 30
0.0
 11
400.1253612086556
 21
213.879218742736
 31
0.0
  0
LINE
  5
AB0
330
18
100
AcDbEntity
  8
外形線
100
AcDbLine
 10
395.1329856005279
 20
223.4876296314868
 30
0.0
 11
399.6362119397262
 21
213.1229580532871
 31
0.0
  0
LINE
  5
AB1
330
18
100
AcDbEntity
  8
外形線
100
AcDbLine
 10
399.8643127958335
 20
213.2220629574287
 30
0.0
 11
397.1085170078341
 21
212.02472910229
 31
0.0
  0
LINE
  5
AB2
330
18
100
AcDbEntity
  8
外形線
100
AcDbLine
 10
399.8643127958335
 20
213.2220629574287
 30
0.0
 11
400.1253612086556
 21
213.879218742736
 31
0.0
  0
LINE
  5
AB3
330
18
100
AcDbEntity
  8
外形線
100
AcDbLine
 10
400.1253612086556
 20
213.879218742736
 30
0.0
 11
399.4367080600586
 21
213.5821382133721
 31
0.0
  0
LINE
  5
AB4
330
18
100
AcDbEntity
  8
外形線
100
AcDbLine
 10
392.3530767517179
 20
227.4070819902107
 30
0.0
 11
395.8216387491252
 21
223.7847101608505
 31
0.0
  0
LINE
  5
AB5
330
18
100
AcDbEntity
  8
外形線
100
AcDbLine
 10
391.3692646000703
 20
225.9752705814999
 30
0.0
 11
395.1329856005279
 21
223.4876296314868
 31
0.0
  0
LINE
  5
AB6
330
18
100
AcDbEntity
  8
外形線
100
AcDbLine
 10
395.8216387491252
 20
223.7847101608505
 30
0.0
 11
395.1329856005279
 21
223.4876296314868
 31
0.0
  0
ARC
  5
AB8
330
18
100
AcDbEntity
  8
外形線
100
AcDbCircle
 10
390.9442730912335
 20
226.254791989297
 30
0.0
 40
1.5
100
AcDbArc
 50
42.8062765939996
 51
114.1289418641828
  0
ARC
  5
AB9
330
18
100
AcDbEntity
  8
外形線
100
AcDbCircle
 10
391.2116455676611
 20
225.6350041555594
 30
0.0
 40
0.375
100
AcDbArc
 50
65.14537085529868
 51
115.7966876905376
  0
LINE
  5
ABA
330
18
100
AcDbEntity
  8
外形線
100
AcDbLine
 10
392.3530767517179
 20
227.4070819902107
 30
0.0
 11
390.7295212700989
 21
226.7066906206025
 31
0.0
  0
LINE
  5
ABB
330
18
100
AcDbEntity
  8
中心線
 48
0.3
100
AcDbLine
 10
397.8922261559588
 20
209.8147448086641
 30
0.0
 11
388.9843639543872
 21
230.8003530506688
 31
0.0
  0
LINE
  5
ADA
330
18
100
AcDbEntity
  8
中心線
 48
0.5
100
AcDbLine
 10
336.4584319295631
 20
264.4783353922931
 30
0.0
 11
388.2228580281638
 21
293.1718253220055
 31
0.0
  0
TEXT
  5
AE2
330
18
100
AcDbEntity
  8
文字
100
AcDbText
 10
367.3398601554512
 20
281.0346958248891
 30
0.0
 40
1.0
  1
0.1mm
 50
29.0
  7
STYLE3
100
AcDbText
  0
HATCH
  5
AE3
330
18
100
AcDbEntity
  8
ROGO
 62
     4
100
AcDbHatch
 10
0.0
 20
0.0
 30
0.0
210
0.0
220
0.0
230
1.0
  2
SOLID
 70
     1
 71
     1
 91
        1
 92
        7
 72
     0
 73
     1
 93
       11
 10
363.3777402670822
 20
287.7614004117299
 10
364.0390260085242
 20
288.1279570838078
 10
364.0129462124371
 20
288.7258395941306
 10
364.5061591506879
 20
288.3868932127427
 10
365.1674304237295
 20
288.7534418648554
 10
364.2226189802169
 20
289.4027363075527
 10
364.8123061758085
 20
290.9026172353476
 10
364.1510349027669
 20
290.5360685832349
 10
363.950016787478
 20
290.1685043466492
 10
363.9391077465461
 20
290.4185954422931
 10
363.2778220051042
 20
290.0520387702152
 97
       11
330
BB8
330
BBB
330
BBC
330
AE5
330
B77
330
B3F
330
B76
330
AE4
330
BB7
330
BBA
330
BB9
 75
     0
 76
     1
 47
0.0514683685270805
 98
        1
 10
363.6476853720679
 20
289.2505673887236
450
        0
451
        0
460
0.0
461
0.0
452
        0
462
0.0
453
        0
470

  0
LINE
  5
AE4
102
{ACAD_REACTORS
330
AE3
102
}
330
18
100
AcDbEntity
  8
ROGO
 62
     4
100
AcDbLine
 10
364.0129462124371
 20
288.7258395941307
 30
0.0
 11
364.5061591506879
 21
288.3868932127427
 31
0.0
  0
LINE
  5
AE5
102
{ACAD_REACTORS
330
AE3
102
}
330
18
100
AcDbEntity
  8
ROGO
 62
     4
100
AcDbLine
 10
363.2778220051042
 20
290.0520387702152
 30
0.0
 11
363.9391077465461
 21
290.4185954422931
 31
0.0
  0
LINE
  5
AE6
330
18
100
AcDbEntity
  8
目盛
100
AcDbLine
 10
357.7675029825651
 20
301.3002160987426
 30
0.0
 11
358.3399299686947
 21
298.3553345483996
 31
0.0
  0
LINE
  5
AE7
330
18
100
AcDbEntity
  8
目盛
100
AcDbLine
 10
378.9772450134663
 20
263.0368285980089
 30
0.0
 11
376.7831839086089
 21
265.0828236781964
 31
0.0
  0
CIRCLE
  5
AE8
330
18
100
AcDbEntity
  8
外形線
100
AcDbCircle
 10
362.1561098762254
 20
278.7227908794463
 30
0.0
 40
23.0
  0
CIRCLE
  5
AE9
330
18
100
AcDbEntity
  8
外形線
100
AcDbCircle
 10
362.1561098762254
 20
278.7227908794463
 30
0.0
 40
15.5
  0
LINE
  5
AEA
330
18
100
AcDbEntity
  8
中心線
 48
0.2
100
AcDbLine
 10
360.4291264651792
 20
275.2378223387278
 30
0.0
 11
368.0355925848214
 21
261.5153942100391
 31
0.0
  0
LINE
  5
AEB
330
18
100
AcDbEntity
  8
目盛
100
AcDbLine
 10
359.353114977907
 20
255.8942293916959
 30
0.0
 11
359.7187230081225
 21
258.8718678466198
 31
0.0
  0
LINE
  5
AEC
330
18
100
AcDbEntity
  8
目盛
100
AcDbLine
 10
357.9252288121329
 20
256.1152778490065
 30
0.0
 11
358.2931315133583
 21
258.0811485473056
 31
0.0
  0
LINE
  5
AED
330
18
100
AcDbEntity
  8
目盛
100
AcDbLine
 10
356.514040001013
 20
256.425547831858
 30
0.0
 11
357.0046547727705
 21
258.3644385316483
 31
0.0
  0
LINE
  5
AEE
330
18
100
AcDbEntity
  8
目盛
100
AcDbLine
 10
360.7920632839783
 20
255.7632748371996
 30
0.0
 11
360.9106760311302
 21
257.7597544930472
 31
0.0
  0
LINE
  5
AEF
330
18
100
AcDbEntity
  8
目盛
100
AcDbLine
 10
366.544716769886
 20
256.14536566015
 30
0.0
 11
365.9722897837564
 21
259.090247210493
 31
0.0
  0
LINE
  5
AF0
330
18
100
AcDbEntity
  8
目盛
100
AcDbLine
 10
365.1184085975094
 20
255.9143541446352
 30
0.0
 11
364.8608174043543
 21
257.8976964694013
 31
0.0
  0
LINE
  5
AF1
330
18
100
AcDbEntity
  8
目盛
100
AcDbLine
 10
363.6804095854255
 20
255.7733571087292
 30
0.0
 11
363.5478617846255
 21
257.7689600453133
 31
0.0
  0
LINE
  5
AF2
330
18
100
AcDbEntity
  8
目盛
100
AcDbLine
 10
362.2363948587757
 20
255.7229310033171
 30
0.0
 11
362.2294135559452
 21
257.7229188186327
 31
0.0
  0
TEXT
  5
AF3
330
18
100
AcDbEntity
  8
文字
100
AcDbText
 10
370.5728816809148
 20
261.2063461715075
 30
0.0
 40
2.0
  1
5
 50
29.0
  7
STYLE3
100
AcDbText
  0
LINE
  5
AF4
330
18
100
AcDbEntity
  8
目盛
100
AcDbLine
 10
371.8523022811522
 20
261.2303967366584
 30
0.0
 11
373.3067311418912
 21
258.6065376152402
 31
0.0
  0
LINE
  5
AF5
330
18
100
AcDbEntity
  8
目盛
100
AcDbLine
 10
372.0216179444978
 20
257.9460791435904
 30
0.0
 11
371.1637476776915
 21
259.752749729317
 31
0.0
  0
LINE
  5
AF6
330
18
100
AcDbEntity
  8
目盛
100
AcDbLine
 10
370.6975700938809
 20
257.3676168611853
 30
0.0
 11
369.9548344227804
 21
259.2245885149471
 31
0.0
  0
LINE
  5
AF7
330
18
100
AcDbEntity
  8
目盛
100
AcDbLine
 10
369.3398130020068
 20
256.8734336943793
 30
0.0
 11
368.7151431649824
 21
258.7733777974286
 31
0.0
  0
LINE
  5
AF8
330
18
100
AcDbEntity
  8
目盛
100
AcDbLine
 10
367.9537051158172
 20
256.465479958361
 30
0.0
 11
367.4495663993308
 21
258.4008982993249
 31
0.0
  0
LINE
  5
AF9
330
18
100
AcDbEntity
  8
目盛
100
AcDbLine
 10
377.9591226247271
 20
262.0115734471138
 30
0.0
 11
376.5849476031184
 21
263.4647227890558
 31
0.0
  0
LINE
  5
AFA
330
18
100
AcDbEntity
  8
目盛
100
AcDbLine
 10
376.8786329643794
 20
261.0522698367953
 30
0.0
 11
375.5984135654095
 21
262.5888368839824
 31
0.0
  0
LINE
  5
AFB
330
18
100
AcDbEntity
  8
目盛
100
AcDbLine
 10
375.7400402314837
 20
260.1627037001388
 30
0.0
 11
374.5588288962438
 21
261.7766243244265
 31
0.0
  0
LINE
  5
AFC
330
18
100
AcDbEntity
  8
目盛
100
AcDbLine
 10
374.5478379313833
 20
259.3463857482819
 30
0.0
 11
373.4702963613695
 21
261.0312905422962
 31
0.0
  0
LINE
  5
AFD
330
18
100
AcDbEntity
  8
外形線
  6
Continuous
100
AcDbLine
 10
345.3453475929123
 20
301.4183470844379
 30
0.0
 11
346.2473679800703
 21
299.7910592297764
 31
0.0
  0
LINE
  5
AFE
330
18
100
AcDbEntity
  8
外形線
  6
Continuous
100
AcDbLine
 10
351.8175334257438
 20
305.0059382742607
 30
0.0
 11
352.7195538129018
 21
303.3786504195993
 31
0.0
  0
TEXT
  5
AFF
330
18
100
AcDbEntity
  8
文字
100
AcDbText
 10
343.5864683103068
 20
274.2228747769305
 30
0.0
 40
2.0
  1
8
 50
29.0
  7
STYLE3
100
AcDbText
  0
TEXT
  5
B00
330
18
100
AcDbEntity
  8
文字
100
AcDbText
 10
349.3842074913417
 20
263.5454890913932
 30
0.0
 40
2.0
  1
7
 50
29.0
  7
STYLE3
100
AcDbText
  0
LINE
  5
B01
330
18
100
AcDbEntity
  8
目盛
100
AcDbLine
 10
352.4358898561894
 20
257.8777117776033
 30
0.0
 11
353.7037446414114
 21
260.5966351387133
 31
0.0
  0
LINE
  5
B02
330
18
100
AcDbEntity
  8
目盛
100
AcDbLine
 10
351.1461971435914
 20
258.5291824446027
 30
0.0
 11
352.1035808594727
 21
260.2851483954587
 31
0.0
  0
LINE
  5
B03
330
18
100
AcDbEntity
  8
目盛
100
AcDbLine
 10
339.1965938339788
 20
280.0868374716934
 30
0.0
 11
341.1930734898264
 21
279.9682247245415
 31
0.0
  0
LINE
  5
B04
330
18
100
AcDbEntity
  8
目盛
100
AcDbLine
 10
339.327548388475
 20
281.5257857777646
 30
0.0
 11
342.3051868433989
 21
281.1601777475492
 31
0.0
  0
LINE
  5
B05
330
18
100
AcDbEntity
  8
目盛
100
AcDbLine
 10
345.444892443893
 20
262.9197781309446
 30
0.0
 11
346.8980417858349
 21
264.2939531525534
 31
0.0
  0
LINE
  5
B06
330
18
100
AcDbEntity
  8
目盛
100
AcDbLine
 10
349.8999555265986
 20
259.2603480585123
 30
0.0
 11
350.9657080787401
 21
260.9527343907674
 31
0.0
  0
LINE
  5
B07
330
18
100
AcDbEntity
  8
目盛
100
AcDbLine
 10
348.7020833515195
 20
260.0683230426918
 30
0.0
 11
349.8719987014939
 21
261.6904506806704
 31
0.0
  0
LINE
  5
B08
330
18
100
AcDbEntity
  8
目盛
100
AcDbLine
 10
347.5573080725733
 20
260.9499186890072
 30
0.0
 11
348.8267690989778
 21
262.4953858360019
 31
0.0
  0
LINE
  5
B09
330
18
100
AcDbEntity
  8
目盛
100
AcDbLine
 10
346.470147594788
 20
261.9016557422054
 30
0.0
 11
348.5161426749754
 21
264.0957168470628
 31
0.0
  0
LINE
  5
B0A
330
18
100
AcDbEntity
  8
目盛
100
AcDbLine
 10
342.0398566120193
 20
267.5721696137805
 30
0.0
 11
344.6637157334375
 21
269.0265984745196
 31
0.0
  0
LINE
  5
B0B
330
18
100
AcDbEntity
  8
目盛
100
AcDbLine
 10
344.4855888335744
 20
264.0002677912923
 30
0.0
 11
346.0221558807613
 21
265.2804871902622
 31
0.0
  0
LINE
  5
B0C
330
18
100
AcDbEntity
  8
目盛
100
AcDbLine
 10
343.596022696918
 20
265.138860524188
 30
0.0
 11
345.2099433212056
 21
266.3200718594279
 31
0.0
  0
LINE
  5
B0D
330
18
100
AcDbEntity
  8
目盛
100
AcDbLine
 10
342.779704745061
 20
266.3310628242884
 30
0.0
 11
344.4646095390752
 21
267.4086043943021
 31
0.0
  0
LINE
  5
B0E
330
18
100
AcDbEntity
  8
目盛
100
AcDbLine
 10
341.3793981403694
 20
268.8572828111739
 30
0.0
 11
343.186068726096
 21
269.7151530779802
 31
0.0
  0
LINE
  5
B0F
330
18
100
AcDbEntity
  8
目盛
100
AcDbLine
 10
340.8009358579644
 20
270.1813306617909
 30
0.0
 11
342.6579075117262
 21
270.9240663328913
 31
0.0
  0
LINE
  5
B10
330
18
100
AcDbEntity
  8
目盛
100
AcDbLine
 10
340.3067526911584
 20
271.5390877536649
 30
0.0
 11
342.2066967942077
 21
272.1637575906894
 31
0.0
  0
LINE
  5
B11
330
18
100
AcDbEntity
  8
目盛
100
AcDbLine
 10
339.8987989551401
 20
272.9251956398547
 30
0.0
 11
341.8342172961041
 21
273.4293343563409
 31
0.0
  0
LINE
  5
B12
330
18
100
AcDbEntity
  8
目盛
100
AcDbLine
 10
339.578684656929
 20
274.3341839857857
 30
0.0
 11
342.523566207272
 21
274.9066109719154
 31
0.0
  0
LINE
  5
B13
330
18
100
AcDbEntity
  8
目盛
100
AcDbLine
 10
339.3476731414143
 20
275.7604921581623
 30
0.0
 11
341.3310154661805
 21
276.0180833513175
 31
0.0
  0
LINE
  5
B14
330
18
100
AcDbEntity
  8
目盛
100
AcDbLine
 10
339.2066761055083
 20
277.1984911702463
 30
0.0
 11
341.2022790420923
 21
277.3310389710462
 31
0.0
  0
LINE
  5
B15
330
18
100
AcDbEntity
  8
目盛
100
AcDbLine
 10
339.1562500000962
 20
278.6425058968962
 30
0.0
 11
341.1562378154118
 21
278.6494871997266
 31
0.0
  0
HATCH
  5
B16
330
18
100
AcDbEntity
  8
針
  6
Continuous
100
AcDbHatch
 10
0.0
 20
0.0
 30
0.0
210
0.0
220
0.0
230
1.0
  2
SOLID
 70
     1
 71
     0
 91
        1
 92
        1
 93
        3
 72
     1
 10
351.0054886105597
 20
298.8390441436524
 11
361.9077953896738
 21
280.2020947413248
 72
     2
 10
362.1561098762255
 20
278.7227908794463
 40
1.499999999999999
 50
99.52877936551253
 51
138.4712206344912
 73
     1
 72
     1
 10
361.0331756825344
 20
279.7172851210784
 11
351.0054886105601
 21
298.8390441436515
 97
        0
 75
     0
 76
     1
 98
        1
 10
156.2230285715122
 20
180.8714127151267
450
        0
451
        0
460
0.0
461
0.0
452
        0
462
0.0
453
        0
470

  0
LINE
  5
B17
330
18
100
AcDbEntity
  8
針
  6
Continuous
100
AcDbLine
 10
351.0054886105601
 20
298.8390441436516
 30
0.0
 11
361.0331756825344
 21
279.7172851210784
 31
0.0
  0
LINE
  5
B18
330
18
100
AcDbEntity
  8
針
  6
Continuous
100
AcDbLine
 10
351.0054886105597
 20
298.8390441436524
 30
0.0
 11
361.9077953896738
 21
280.2020947413248
 31
0.0
  0
LINE
  5
B19
330
18
100
AcDbEntity
  8
目盛
100
AcDbLine
 10
363.6624056865934
 20
263.6459119486927
 30
0.0
 11
363.7233403582959
 21
264.1421850245134
 31
0.0
  0
LINE
  5
B1A
330
18
100
AcDbEntity
  8
目盛
100
AcDbLine
 10
359.9363230793437
 20
270.3679429122573
 30
0.0
 11
360.3894769728621
 21
270.156633781387
 31
0.0
  0
LINE
  5
B1B
330
18
100
AcDbEntity
  8
中心線
 48
0.2
100
AcDbLine
 10
358.1545658418729
 20
264.9865826084239
 30
0.0
 11
370.8610299689502
 21
272.0298906860227
 31
0.0
  0
CIRCLE
  5
B1C
330
18
100
AcDbEntity
  8
外形線
100
AcDbCircle
 10
364.2412850677679
 20
268.360506168989
 30
0.0
 40
4.75
  0
TEXT
  5
B1D
330
18
100
AcDbEntity
  8
文字
100
AcDbText
 10
359.1496261061399
 20
259.0856537000824
 30
0.0
 40
2.0
  1
6
 50
29.0
  7
STYLE3
100
AcDbText
  0
LINE
  5
B1E
330
18
100
AcDbEntity
  8
目盛
100
AcDbLine
 10
355.1251178620741
 20
256.8238148463771
 30
0.0
 11
355.7365084720003
 21
258.7280736318614
 31
0.0
  0
LINE
  5
B1F
330
18
100
AcDbEntity
  8
目盛
100
AcDbLine
 10
353.7639438364601
 20
257.3085071146081
 30
0.0
 11
354.4936974051354
 21
259.1706187463332
 31
0.0
  0
TEXT
  5
B20
330
18
100
AcDbEntity
  8
文字
100
AcDbText
 10
360.5467613968796
 20
267.1297148873138
 30
0.0
 40
0.7
  1
20
 50
29.0
  7
STYLE3
100
AcDbText
  0
TEXT
  5
B21
330
18
100
AcDbEntity
  8
文字
100
AcDbText
 10
361.5982601047818
 20
265.1724424728055
 30
0.0
 40
0.7
  1
30
 50
29.0
  7
STYLE3
100
AcDbText
  0
LINE
  5
B22
330
18
100
AcDbEntity
  8
目盛
100
AcDbLine
 10
361.0017928574709
 20
264.8865760862979
 30
0.0
 11
361.3427920375022
 21
265.2522529371075
 31
0.0
  0
LINE
  5
B23
330
18
100
AcDbEntity
  8
目盛
100
AcDbLine
 10
359.5785559463914
 20
267.4541634409504
 30
0.0
 11
360.0693695381153
 21
267.5495679386387
 31
0.0
  0
HATCH
  5
B24
330
18
100
AcDbEntity
  8
針
100
AcDbHatch
 10
0.0
 20
0.0
 30
0.0
210
0.0
220
0.0
230
1.0
  2
SOLID
 70
     1
 71
     0
 91
        3
 92
        7
 72
     1
 73
     1
 93
        5
 10
362.1154055222256
 20
272.6082274590274
 42
0.0105298176880202
 10
361.9384393715978
 20
272.5149497779012
 42
0.0
 10
362.180844181721
 20
272.0776399243315
 42
0.0
 10
363.6837540044846
 20
269.3663188321993
 42
-0.0437283108272093
 10
363.8671741543728
 20
269.4479531904474
 42
0.0
 97
        0
 92
        7
 72
     1
 73
     1
 93
        4
 10
361.9384393715979
 20
272.5149497779012
 42
0.0105298176880232
 10
361.7655576393699
 20
272.4143036109289
 42
0.0
 10
363.517326271517
 20
269.2540293423489
 42
-0.0437283108272093
 10
363.6837540044846
 20
269.3663188321993
 42
0.0
 97
        0
 92
      137
 93
        4
 72
     1
 10
362.3754898712858
 20
270.5022581241761
 11
363.395879529615
 21
271.0678693477968
 72
     1
 10
363.395879529615
 20
271.0678693477968
 11
362.6686650992455
 21
272.3797989085059
 72
     1
 10
362.6686650992455
 20
272.3797989085059
 11
361.6482754409163
 21
271.8141876848852
 72
     1
 10
361.6482754409162
 20
271.8141876848852
 11
362.3754898712857
 21
270.5022581241761
 97
        0
 75
     0
 76
     1
 47
0.0128177587452554
 98
        3
 10
363.555030874455
 20
269.9052651119517
 10
362.9035789080979
 20
270.9217520491572
 10
362.7713564774315
 20
270.7898388620224
450
        0
451
        0
460
0.0
461
0.0
452
        0
462
0.0
453
        0
470

  0
LINE
  5
B25
330
18
100
AcDbEntity
  8
針
 48
0.2
100
AcDbLine
 10
361.7655576393699
 20
272.4143036109289
 30
0.0
 11
363.517326271517
 21
269.2540293423489
 31
0.0
  0
LINE
  5
B26
330
18
100
AcDbEntity
  8
針
 48
0.2
100
AcDbLine
 10
362.1154055222256
 20
272.6082274590274
 30
0.0
 11
363.8671741543728
 21
269.4479531904474
 31
0.0
  0
LINE
  5
B27
330
18
100
AcDbEntity
  8
目盛
100
AcDbLine
 10
361.9384393715978
 20
272.5149497779012
 30
0.0
 11
362.180844181721
 21
272.0776399243315
 31
0.0
  0
TEXT
  5
B28
330
18
100
AcDbEntity
  8
文字
100
AcDbText
 10
367.3012007704094
 20
268.2061255618124
 30
0.0
 40
0.7
  1
70
 50
29.0
  7
STYLE3
100
AcDbText
  0
TEXT
  5
B29
330
18
100
AcDbEntity
  8
文字
100
AcDbText
 10
366.1707249022561
 20
270.0720489750414
 30
0.0
 40
0.7
  1
80
 50
29.0
  7
STYLE3
100
AcDbText
  0
TEXT
  5
B2A
330
18
100
AcDbEntity
  8
文字
100
AcDbText
 10
360.8186777988231
 20
269.3174058138155
 30
0.0
 40
0.7
  1
10
 50
29.0
  7
STYLE3
100
AcDbText
  0
TEXT
  5
B2B
330
18
100
AcDbEntity
  8
文字
100
AcDbText
 10
363.6044059546254
 20
264.2298726391316
 30
0.0
 40
0.7
  1
40
 50
29.0
  7
STYLE3
100
AcDbText
  0
TEXT
  5
B2C
330
18
100
AcDbEntity
  8
文字
100
AcDbText
 10
365.5539319032726
 20
264.6264137702091
 30
0.0
 40
0.7
  1
50
 50
29.0
  7
STYLE3
100
AcDbText
  0
TEXT
  5
B2D
330
18
100
AcDbEntity
  8
文字
100
AcDbText
 10
367.035895791808
 20
266.224987781506
 30
0.0
 40
0.7
  1
60
 50
29.0
  7
STYLE3
100
AcDbText
  0
TEXT
  5
B2E
330
18
100
AcDbEntity
  8
文字
100
AcDbText
 10
364.2902223803663
 20
271.1838539228016
 30
0.0
 40
0.7
  1
90
 50
29.0
  7
STYLE3
100
AcDbText
  0
TEXT
  5
B2F
330
18
100
AcDbEntity
  8
文字
100
AcDbText
 10
362.4690865412209
 20
270.8622749786488
 30
0.0
 40
0.7
  1
0
 50
29.0
  7
STYLE3
100
AcDbText
  0
CIRCLE
  5
B30
330
18
100
AcDbEntity
  8
外形線
100
AcDbCircle
 10
364.2412850677679
 20
268.360506168989
 30
0.0
 40
1.149999999999999
  0
LINE
  5
B31
330
18
100
AcDbEntity
  8
目盛
100
AcDbLine
 10
364.8201644489423
 20
273.0751003892853
 30
0.0
 11
364.7592297772397
 21
272.5788273134646
 31
0.0
  0
LINE
  5
B32
330
18
100
AcDbEntity
  8
目盛
100
AcDbLine
 10
368.546247056192
 20
266.3530694257208
 30
0.0
 11
368.0930931626736
 21
266.5643785565911
 31
0.0
  0
LINE
  5
B33
330
18
100
AcDbEntity
  8
目盛
100
AcDbLine
 10
366.544130763938
 20
264.2060625600769
 30
0.0
 11
366.3017259538148
 21
264.6433724136466
 31
0.0
  0
LINE
  5
B34
330
18
100
AcDbEntity
  8
目盛
100
AcDbLine
 10
367.4807772780646
 20
271.8344362516801
 30
0.0
 11
367.1397780980335
 21
271.4687594008704
 31
0.0
  0
LINE
  5
B35
330
18
100
AcDbEntity
  8
目盛
100
AcDbLine
 10
368.9040141891442
 20
269.2668488970276
 30
0.0
 11
368.4132005974204
 21
269.1714443993394
 31
0.0
  0
CIRCLE
  5
B36
330
18
100
AcDbEntity
  8
外形線
100
AcDbCircle
 10
362.1561098762254
 20
278.7227908794463
 30
0.0
 40
1.5
  0
POINT
  5
B37
330
18
100
AcDbEntity
  8
DEFPOINTS
  6
ByBlock
 62
     0
100
AcDbPoint
 10
362.1561098762254
 20
278.7227908794463
 30
0.0
  0
POINT
  5
B38
330
18
100
AcDbEntity
  8
DEFPOINTS
  6
ByBlock
 62
     0
100
AcDbPoint
 10
362.1561098762254
 20
278.7227908794463
 30
0.0
  0
HATCH
  5
B39
330
18
100
AcDbEntity
  8
ROGO
 62
     4
100
AcDbHatch
 10
0.0
 20
0.0
 30
0.0
210
0.0
220
0.0
230
1.0
  2
SOLID
 70
     1
 71
     1
 91
        2
 92
        5
 93
        6
 72
     1
 10
351.8912778548326
 20
281.3943503274479
 11
352.7254909675832
 21
281.856762206686
 72
     1
 10
352.7254909675832
 20
281.856762206686
 11
352.6596647171098
 21
282.6649084776706
 72
     1
 10
352.6596647171098
 20
282.6649084776706
 11
353.4394828795019
 21
283.0971687435718
 72
     4
 94
        3
 73
     0
 74
     0
 95
       18
 96
       14
 40
0.108740278791501
 40
0.108740278791501
 40
0.108740278791501
 40
0.108740278791501
 40
0.6623149649549278
 40
1.384304701649787
 40
2.097394834876493
 40
2.774073369849618
 40
3.428974823686337
 40
4.005208313035923
 40
4.455173659284313
 40
4.720999734343524
 40
5.086034088486724
 40
5.569973738255373
 40
6.060470601257719
 40
6.060470601257719
 40
6.060470601257719
 40
6.060470601257719
 10
353.4394828795016
 20
283.0971687435716
 10
353.4941386517786
 20
283.127999198926
 10
353.6200782230105
 20
283.1990397160837
 10
353.7446070751946
 20
283.3916212697094
 10
353.8456356848917
 20
283.6050212431143
 10
353.8973768119382
 20
283.8303553229979
 10
353.8862275744708
 20
284.0490147910811
 10
353.8078959189098
 20
284.2210829415669
 10
353.7276608039618
 20
284.3470562962131
 10
353.620399302918
 20
284.4064070452198
 10
353.5101334174769
 20
284.4658623887268
 10
353.3574050084544
 20
284.4856516842012
 10
353.2491492500879
 20
284.4714083031224
 10
353.1947882126457
 20
284.4629218729514
 72
     1
 10
353.1947882126458
 20
284.4629218729514
 11
351.7844654103798
 21
283.6811671781851
 72
     1
 10
351.7844654103798
 20
283.6811671781851
 11
351.8912778548326
 21
281.3943503274479
 97
        6
330
B6C
330
B40
330
B47
330
B3F
330
B45
330
B3E
 92
       20
 93
        4
 72
     1
 10
352.6190207339448
 20
283.1638930498826
 11
352.5879026878925
 21
283.5459280692957
 72
     1
 10
352.5879026878925
 20
283.5459280692957
 11
352.9429869181454
 21
283.742754472153
 72
     4
 94
        3
 73
     0
 74
     0
 95
       15
 96
       11
 40
0.0
 40
0.0
 40
0.0
 40
0.0
 40
0.4399157226213117
 40
0.6404930950247764
 40
0.8681617655417579
 40
1.023260249278236
 40
1.268550109906271
 40
1.415472035848321
 40
1.667541915898791
 40
1.751565262875804
 40
1.751565262875804
 40
1.751565262875804
 40
1.751565262875804
 10
352.9429869181455
 20
283.742754472153
 10
352.9934363009965
 20
283.771021878641
 10
353.066887827511
 20
283.8121776676678
 10
353.157648564846
 20
283.7434076355751
 10
353.1721078064099
 20
283.674753882709
 10
353.1827943195545
 20
283.6019627149036
 10
353.1653753003443
 20
283.5388193019357
 10
353.1334011485201
 20
283.4695778824407
 10
353.0851840692877
 20
283.4366142516236
 10
353.0569628949826
 20
283.4095128839567
 10
353.0499075980292
 20
283.4027375387968
 72
     1
 10
353.049907598029
 20
283.4027375387967
 11
352.6190207339448
 21
283.1638930498826
 97
        4
330
B46
330
B3D
330
B6B
330
B3C
 75
     0
 76
     1
 47
0.0514683685270805
 98
        2
 10
352.1014034158219
 20
283.127173072091
 10
352.1014034158219
 20
283.127173072091
450
        0
451
        0
460
0.0
461
0.0
452
        0
462
0.0
453
        0
470

  0
HATCH
  5
B3A
330
18
100
AcDbEntity
  8
ROGO
 62
     4
100
AcDbHatch
 10
0.0
 20
0.0
 30
0.0
210
0.0
220
0.0
230
1.0
  2
SOLID
 70
     1
 71
     1
 91
        1
 92
        7
 72
     0
 73
     1
 93
        4
 10
352.7071643423249
 20
282.0817574594263
 10
352.7254909675832
 20
281.8567622066861
 10
363.3777402670823
 20
287.7614004117298
 10
363.3677249534563
 20
287.9910026997373
 97
        4
330
B3B
330
B45
330
B3F
330
B77
 75
     0
 76
     1
 47
0.0514683685270805
 98
        1
 10
359.4648153014327
 20
285.7653901339918
450
        0
451
        0
460
0.0
461
0.0
452
        0
462
0.0
453
        0
470

  0
LINE
  5
B3B
102
{ACAD_REACTORS
330
B3A
102
}
330
18
100
AcDbEntity
  8
ROGO
 62
     4
100
AcDbLine
 10
352.6946892505598
 20
282.0748424031432
 30
0.0
 11
363.3677249534563
 21
287.9910026997373
 31
0.0
  0
LINE
  5
B3C
102
{ACAD_REACTORS
330
B39
102
}
330
18
100
AcDbEntity
  8
ROGO
 62
     4
100
AcDbLine
 10
353.0499075980292
 20
283.4027375387968
 30
0.0
 11
352.6190207339448
 21
283.1638930498827
 31
0.0
  0
LINE
  5
B3D
102
{ACAD_REACTORS
330
B39
102
}
330
18
100
AcDbEntity
  8
ROGO
 62
     4
100
AcDbLine
 10
352.9429869181456
 20
283.7427544721531
 30
0.0
 11
352.5879026878925
 21
283.5459280692957
 31
0.0
  0
LINE
  5
B3E
102
{ACAD_REACTORS
330
B39
102
}
330
18
100
AcDbEntity
  8
ROGO
 62
     4
100
AcDbLine
 10
353.439482879772
 20
283.0971687437215
 30
0.0
 11
352.6596647171098
 21
282.6649084776706
 31
0.0
  0
LINE
  5
B3F
102
{ACAD_REACTORS
330
B3A
330
AE3
330
B39
102
}
330
18
100
AcDbEntity
  8
ROGO
 62
     4
100
AcDbLine
 10
351.8912778548326
 20
281.3943503274479
 30
0.0
 11
364.0390260085242
 21
288.1279570838078
 31
0.0
  0
LINE
  5
B40
102
{ACAD_REACTORS
330
B39
102
}
330
18
100
AcDbEntity
  8
ROGO
 62
     4
100
AcDbLine
 10
351.7844654103798
 20
283.6811671781851
 30
0.0
 11
353.1947882126457
 21
284.4629218729513
 31
0.0
  0
TEXT
  5
B41
330
18
100
AcDbEntity
  8
文字
100
AcDbText
 10
345.1124900701338
 20
285.3022018347108
 30
0.0
 40
2.0
  1
9
 50
29.0
  7
STYLE3
100
AcDbText
  0
LINE
  5
B42
330
18
100
AcDbEntity
  8
目盛
100
AcDbLine
 10
340.2571338431563
 20
285.7537828935978
 30
0.0
 11
342.1613926286406
 21
285.1423922836716
 31
0.0
  0
LINE
  5
B43
330
18
100
AcDbEntity
  8
目盛
100
AcDbLine
 10
339.5485968457858
 20
282.9536719435389
 30
0.0
 11
341.5144675440848
 21
282.5857692423134
 31
0.0
  0
LINE
  5
B44
330
18
100
AcDbEntity
  8
目盛
100
AcDbLine
 10
339.8588668286372
 20
284.3648607546588
 30
0.0
 11
341.7977575284275
 21
283.8742459829011
 31
0.0
  0
LINE
  5
B45
102
{ACAD_REACTORS
330
B3A
330
B39
102
}
330
18
100
AcDbEntity
  8
ROGO
 62
     4
100
AcDbLine
 10
352.6596647171098
 20
282.6649084776706
 30
0.0
 11
352.7254909675832
 21
281.8567622066861
 31
0.0
  0
LINE
  5
B46
102
{ACAD_REACTORS
330
B39
102
}
330
18
100
AcDbEntity
  8
ROGO
 62
     4
100
AcDbLine
 10
352.5879026878925
 20
283.5459280692957
 30
0.0
 11
352.6190207339448
 21
283.1638930498827
 31
0.0
  0
LINE
  5
B47
102
{ACAD_REACTORS
330
B39
102
}
330
18
100
AcDbEntity
  8
ROGO
 62
     4
100
AcDbLine
 10
351.7844654103798
 20
283.6811671781851
 30
0.0
 11
351.8912778548326
 21
281.3943503274479
 31
0.0
  0
LINE
  5
B48
330
18
100
AcDbEntity
  8
目盛
100
AcDbLine
 10
341.3110307743825
 20
288.4430108994824
 30
0.0
 11
344.0299541354924
 21
287.1751561142603
 31
0.0
  0
LINE
  5
B49
330
18
100
AcDbEntity
  8
目盛
100
AcDbLine
 10
341.9625014413818
 20
289.7327036120802
 30
0.0
 11
343.7184673922378
 21
288.775319896199
 31
0.0
  0
LINE
  5
B4A
330
18
100
AcDbEntity
  8
目盛
100
AcDbLine
 10
340.7418261113873
 20
287.1149569192116
 30
0.0
 11
342.6039377431122
 21
286.3852033505363
 31
0.0
  0
LINE
  5
B4B
330
18
100
AcDbEntity
  8
目盛
100
AcDbLine
 10
342.6936670552914
 20
290.978945229073
 30
0.0
 11
344.3860533875465
 21
289.9131926769316
 31
0.0
  0
LINE
  5
B4C
330
18
100
AcDbEntity
  8
目盛
100
AcDbLine
 10
343.5016420394708
 20
292.1768174041521
 30
0.0
 11
345.1237696774495
 21
291.0069020541778
 31
0.0
  0
LINE
  5
B4D
330
18
100
AcDbEntity
  8
目盛
100
AcDbLine
 10
344.3832376857864
 20
293.3215926830984
 30
0.0
 11
345.9287048327811
 21
292.0521316566939
 31
0.0
  0
LINE
  5
B4E
330
18
100
AcDbEntity
  8
目盛
100
AcDbLine
 10
345.3349747389845
 20
294.4087531608838
 30
0.0
 11
347.529035843842
 21
292.3627580806962
 31
0.0
  0
HATCH
  5
B4F
330
18
100
AcDbEntity
  8
ROGO
 62
     4
100
AcDbHatch
 10
0.0
 20
0.0
 30
0.0
210
0.0
220
0.0
230
1.0
  2
SOLID
 70
     1
 71
     1
 91
        1
 92
        5
 93
        8
 72
     1
 10
359.3604924982755
 20
287.3220132936435
 11
359.3367008540408
 21
287.8674396433088
 72
     1
 10
359.3367008540408
 20
287.8674396433088
 11
358.1865441536302
 21
287.2298973736822
 72
     4
 94
        3
 73
     0
 74
     0
 95
       26
 96
       22
 40
0.0
 40
0.0
 40
0.0
 40
0.0
 40
0.6806272418834842
 40
1.136254477903046
 40
1.46479881993938
 40
1.710112249467339
 40
2.028296642642858
 40
2.26054023071286
 40
2.679918019583943
 40
3.021285510494669
 40
3.253470102552404
 40
3.481138982867296
 40
3.88839434820105
 40
4.176372499429433
 40
4.331470983165859
 40
4.55178379777286
 40
4.710876624553383
 40
4.941349605730123
 40
5.071777377612479
 40
5.355602839328967
 40
5.485200010717811
 40
5.485200010717811
 40
5.485200010717811
 40
5.485200010717811
 10
358.18654415363
 20
287.2298973736821
 10
358.1181651431212
 20
287.1864787620584
 10
358.0040116798095
 20
287.1139947519485
 10
357.9180350617757
 20
286.9633946747695
 10
357.848439192584
 20
286.8649708323232
 10
357.815202034175
 20
286.7651913340412
 10
357.801185452393
 20
286.6733871755518
 10
357.7810493122438
 20
286.5620988730016
 10
357.7794455431503
 20
286.4446164479991
 10
357.8079426186442
 20
286.3319063364955
 10
357.8283472002103
 20
286.2407965153147
 10
357.8596677305565
 20
286.1440237490731
 10
357.9162963430496
 20
286.0521086100152
 10
357.9710766090972
 20
285.9679545366238
 10
358.0335171871785
 20
285.9208163008367
 10
358.0898282533894
 20
285.893829943096
 10
358.1557425614884
 20
285.8662658923163
 10
358.2161274426183
 20
285.857283927953
 10
358.2837928395913
 20
285.8178834668737
 10
358.3493160328601
 20
285.844389550124
 10
358.3966024290492
 20
285.8510680068917
 10
358.4114254762182
 20
285.8531615282352
 72
     1
 10
358.4114254762182
 20
285.8531615282352
 11
359.4006457420876
 21
286.4014952754871
 72
     1
 10
359.4006457420876
 20
286.4014952754871
 11
359.3768543497998
 21
286.9469158492365
 72
     1
 10
359.3768543497998
 20
286.9469158492365
 11
358.6424527812342
 21
286.5398304123795
 72
     4
 94
        3
 73
     0
 74
     0
 95
       16
 96
       12
 40
0.0
 40
0.0
 40
0.0
 40
0.0
 40
0.2055476186376435
 40
0.413215311645417
 40
0.5370797571173976
 40
0.655840267458388
 40
0.7862675211309036
 40
0.8773481874435923
 40
0.9637758349635053
 40
1.139038695775164
 40
1.497869274526411
 40
1.497869274526411
 40
1.497869274526411
 40
1.497869274526411
 10
358.6424527812342
 20
286.5398304123795
 10
358.616687941362
 20
286.5340687652265
 10
358.5648925160107
 20
286.5224860437156
 10
358.5259587595297
 20
286.5839347270739
 10
358.5059486304511
 20
286.6320086128283
 10
358.5089481004207
 20
286.6767473173116
 10
358.5214555409066
 20
286.7150238142102
 10
358.5137525514949
 20
286.7515739977356
 10
358.5289173635894
 20
286.7908042126838
 10
358.5570164261017
 20
286.8581909892686
 10
358.6077043082054
 20
286.8973223716052
 10
358.6417589524373
 20
286.9236127836026
 72
     1
 10
358.6417589524373
 20
286.9236127836027
 11
359.3604924982755
 21
287.3220132936435
 97
        8
330
B80
330
B50
330
B51
330
B81
330
B83
330
B82
330
B84
330
B85
 75
     0
 76
     1
 47
0.0514683685270805
 98
        1
 10
358.7305167898151
 20
287.1971994034211
450
        0
451
        0
460
0.0
461
0.0
452
        0
462
0.0
453
        0
470

  0
SPLINE
  5
B50
102
{ACAD_REACTORS
330
B4F
102
}
330
18
100
AcDbEntity
  8
ROGO
 62
     4
100
AcDbSpline
210
0.0
220
0.0
230
1.0
 70
     8
 71
     3
 72
    26
 73
    22
 74
    20
 42
0.0000000001
 43
0.0000000001
 44
0.0000000001
 40
0.0
 40
0.0
 40
0.0
 40
0.0
 40
0.2382195346591564
 40
0.3976890672660488
 40
0.5126795869787343
 40
0.598539287313555
 40
0.7099038249249713
 40
0.7911890807494717
 40
0.9379713068543498
 40
1.057449928673071
 40
1.138714535893257
 40
1.218398644003498
 40
1.360938021870359
 40
1.461730374800224
 40
1.516014844107988
 40
1.593124329220506
 40
1.648806818593594
 40
1.729472362005518
 40
1.775122082164312
 40
1.874460993765074
 40
1.919820003751188
 40
1.919820003751188
 40
1.919820003751188
 40
1.919820003751188
 10
358.18654415363
 20
287.2298973736821
 30
0.0
 10
358.1181651431212
 20
287.1864787620584
 30
0.0
 10
358.0040116798096
 20
287.1139947519484
 30
0.0
 10
357.9180350617757
 20
286.9633946747695
 30
0.0
 10
357.8484391925838
 20
286.8649708323232
 30
0.0
 10
357.815202034175
 20
286.7651913340411
 30
0.0
 10
357.801185452393
 20
286.6733871755516
 30
0.0
 10
357.7810493122438
 20
286.5620988730017
 30
0.0
 10
357.7794455431503
 20
286.4446164479992
 30
0.0
 10
357.8079426186441
 20
286.3319063364954
 30
0.0
 10
357.8283472002102
 20
286.2407965153147
 30
0.0
 10
357.8596677305565
 20
286.1440237490731
 30
0.0
 10
357.9162963430496
 20
286.0521086100153
 30
0.0
 10
357.9710766090974
 20
285.9679545366238
 30
0.0
 10
358.0335171871784
 20
285.9208163008366
 30
0.0
 10
358.0898282533894
 20
285.8938299430959
 30
0.0
 10
358.1557425614883
 20
285.8662658923165
 30
0.0
 10
358.2161274426182
 20
285.8572839279529
 30
0.0
 10
358.2837928395913
 20
285.8178834668738
 30
0.0
 10
358.3493160328601
 20
285.844389550124
 30
0.0
 10
358.396602429049
 20
285.8510680068916
 30
0.0
 10
358.4114254762182
 20
285.8531615282352
 30
0.0
 11
358.18654415363
 21
287.2298973736821
 31
0.0
 11
357.9984366497539
 21
287.0837326936847
 31
0.0
 11
357.9082178167577
 21
286.9522370891854
 31
0.0
 11
357.8485200135784
 21
286.8539569186556
 31
0.0
 11
357.8200151786806
 21
286.7729670271318
 31
0.0
 11
357.7990925256543
 21
286.6635855715383
 31
0.0
 11
357.786519739478
 21
286.5832785490421
 31
0.0
 11
357.7863281338057
 21
286.4364964479957
 31
0.0
 11
357.8104192738053
 21
286.319471843552
 31
0.0
 11
357.829711169088
 21
286.2405303515275
 31
0.0
 11
357.8552413485154
 21
286.16504679687
 31
0.0
 11
357.9243458101692
 21
286.0403790479443
 31
0.0
 11
357.9851962641308
 21
285.9600278148373
 31
0.0
 11
358.0280984744515
 21
285.9267681702569
 31
0.0
 11
358.0966266107142
 21
285.8914161231495
 31
0.0
 11
358.1485508724345
 21
285.8713061587638
 31
0.0
 11
358.2261007013682
 21
285.8491035930047
 31
0.0
 11
358.2683310858682
 21
285.8317689001733
 31
0.0
 11
358.3667084261268
 21
285.8455572387845
 31
0.0
 11
358.4114254762182
 21
285.8531615282352
 31
0.0
  0
LINE
  5
B51
102
{ACAD_REACTORS
330
B4F
102
}
330
18
100
AcDbEntity
  8
ROGO
 62
     4
100
AcDbLine
 10
358.4114254762181
 20
285.8531615282351
 30
0.0
 11
359.4006457420876
 21
286.4014952754871
 31
0.0
  0
HATCH
  5
B52
330
18
100
AcDbEntity
  8
ROGO
 62
     4
100
AcDbHatch
 10
0.0
 20
0.0
 30
0.0
210
0.0
220
0.0
230
1.0
  2
SOLID
 70
     1
 71
     1
 91
        2
 92
        7
 72
     0
 73
     1
 93
        8
 10
356.9500596638112
 20
286.5445028289946
 10
356.0313560773314
 20
286.0352571154066
 10
355.8397739459719
 20
284.4276718078372
 10
356.4758387242644
 20
284.7802482717551
 10
356.5123147767186
 20
285.0863225678681
 10
357.2381415456109
 20
285.4886549156518
 10
357.4564919452912
 20
285.3238332285067
 10
358.096895248784
 20
285.678814576213
 97
        8
330
B59
330
B5F
330
B5A
330
B5B
330
B5D
330
B53
330
B58
330
B55
 92
       22
 72
     0
 73
     1
 93
        3
 10
357.0078407947475
 20
285.6624973192548
 10
356.5507871691715
 20
285.4091483575987
 10
356.6162101732643
 20
285.9581194929038
 97
        3
330
B5C
330
B5E
330
B54
 75
     0
 76
     1
 47
0.0128389261915577
 98
        2
 10
357.0308532658756
 20
286.2290829967841
 10
357.0308532658756
 20
286.2290829967841
450
        0
451
        0
460
0.0
461
0.0
452
        0
462
0.0
453
        0
470

  0
LINE
  5
B53
102
{ACAD_REACTORS
330
B52
102
}
330
18
100
AcDbEntity
  8
ROGO
 62
     4
100
AcDbLine
 10
357.2381415456109
 20
285.4886549156518
 30
0.0
 11
357.4564919452912
 21
285.3238332285067
 31
0.0
  0
LINE
  5
B54
102
{ACAD_REACTORS
330
B52
102
}
330
18
100
AcDbEntity
  8
ROGO
 62
     4
100
AcDbLine
 10
356.6162101732643
 20
285.9581194929037
 30
0.0
 11
357.0078407947477
 21
285.6624973192547
 31
0.0
  0
LINE
  5
B55
102
{ACAD_REACTORS
330
B52
102
}
330
18
100
AcDbEntity
  8
ROGO
 62
     4
100
AcDbLine
 10
356.9500596638112
 20
286.5445028289946
 30
0.0
 11
358.0968952487841
 21
285.678814576213
 31
0.0
  0
HATCH
  5
B56
330
18
100
AcDbEntity
  8
ROGO
 62
     4
100
AcDbHatch
 10
0.0
 20
0.0
 30
0.0
210
0.0
220
0.0
230
1.0
  2
SOLID
 70
     1
 71
     1
 91
        1
 92
        1
 93
       12
 72
     1
 10
354.0279719305971
 20
284.9247631493349
 11
355.5813692537793
 21
285.7858253460774
 72
     1
 10
355.5813692537793
 20
285.7858253460772
 11
355.5970277968057
 21
285.4505814497868
 72
     1
 10
355.5970277968057
 20
285.4505814497868
 11
354.7806014172204
 21
284.9980289177378
 72
     1
 10
354.7806014172203
 20
284.9980289177378
 11
354.7928444520469
 21
284.7359098501615
 72
     1
 10
354.7928444520469
 20
284.7359098501615
 11
355.6092708316322
 21
285.1884623822105
 72
     1
 10
355.6092708316322
 20
285.1884623822105
 11
355.6218249169193
 21
284.9196838337261
 72
     1
 10
355.6218249169193
 20
284.9196838337262
 11
354.805398537334
 21
284.4671313016773
 72
     1
 10
354.805398537334
 20
284.4671313016772
 11
354.8176420904717
 21
284.2050011372397
 72
     1
 10
354.8176420904718
 20
284.2050011372397
 11
355.634068470057
 21
284.6575536692886
 72
     1
 10
355.6340684700571
 20
284.6575536692886
 11
355.6497262254413
 21
284.3223266361393
 72
     1
 10
355.6497262254413
 20
284.3223266361393
 11
354.0963289022591
 21
283.4612644393969
 72
     1
 10
354.0963289022591
 20
283.4612644393969
 11
354.0279719305971
 21
284.9247631493349
 97
       12
330
B57
330
B69
330
B66
330
B67
330
B65
330
B62
330
B63
330
B60
330
B64
330
B61
330
B68
330
B6A
 75
     0
 76
     1
 98
        1
 10
334.5065278637747
 20
170.2894775339057
450
        0
451
        0
460
0.0
461
0.0
452
        0
462
0.0
453
        0
470

  0
LINE
  5
B57
102
{ACAD_REACTORS
330
B56
102
}
330
18
100
AcDbEntity
  8
ROGO
 62
     4
100
AcDbLine
 10
354.0279719305971
 20
284.9247631493349
 30
0.0
 11
355.5813692537793
 21
285.7858253460774
 31
0.0
  0
LINE
  5
B58
102
{ACAD_REACTORS
330
B52
102
}
330
18
100
AcDbEntity
  8
ROGO
 62
     4
100
AcDbLine
 10
358.096895248784
 20
285.678814576213
 30
0.0
 11
357.4564919452912
 21
285.3238332285067
 31
0.0
  0
LINE
  5
B59
102
{ACAD_REACTORS
330
B52
102
}
330
18
100
AcDbEntity
  8
ROGO
 62
     4
100
AcDbLine
 10
356.0313560773315
 20
286.0352571154067
 30
0.0
 11
356.9500596638112
 21
286.5445028289946
 31
0.0
  0
LINE
  5
B5A
102
{ACAD_REACTORS
330
B52
102
}
330
18
100
AcDbEntity
  8
ROGO
 62
     4
100
AcDbLine
 10
355.8397739459719
 20
284.4276718078373
 30
0.0
 11
356.4758387242643
 21
284.7802482717551
 31
0.0
  0
LINE
  5
B5B
102
{ACAD_REACTORS
330
B52
102
}
330
18
100
AcDbEntity
  8
ROGO
 62
     4
100
AcDbLine
 10
356.5123147767186
 20
285.0863225678681
 30
0.0
 11
356.4758387242643
 21
284.7802482717552
 31
0.0
  0
LINE
  5
B5C
102
{ACAD_REACTORS
330
B52
102
}
330
18
100
AcDbEntity
  8
ROGO
 62
     4
100
AcDbLine
 10
356.5507871691715
 20
285.4091483575987
 30
0.0
 11
357.0078407947476
 21
285.6624973192548
 31
0.0
  0
LINE
  5
B5D
102
{ACAD_REACTORS
330
B52
102
}
330
18
100
AcDbEntity
  8
ROGO
 62
     4
100
AcDbLine
 10
356.5123147767186
 20
285.0863225678681
 30
0.0
 11
357.2381415456109
 21
285.4886549156518
 31
0.0
  0
LINE
  5
B5E
102
{ACAD_REACTORS
330
B52
102
}
330
18
100
AcDbEntity
  8
ROGO
 62
     4
100
AcDbLine
 10
356.6162101732643
 20
285.9581194929037
 30
0.0
 11
356.5507871691715
 21
285.4091483575986
 31
0.0
  0
LINE
  5
B5F
102
{ACAD_REACTORS
330
B52
102
}
330
18
100
AcDbEntity
  8
ROGO
 62
     4
100
AcDbLine
 10
356.0313560773315
 20
286.0352571154067
 30
0.0
 11
355.8397739459719
 21
284.4276718078373
 31
0.0
  0
LINE
  5
B60
102
{ACAD_REACTORS
330
B56
102
}
330
18
100
AcDbEntity
  8
ROGO
 62
     4
100
AcDbLine
 10
354.805398537334
 20
284.4671313016772
 30
0.0
 11
354.8176420904717
 21
284.2050011372397
 31
0.0
  0
LINE
  5
B61
102
{ACAD_REACTORS
330
B56
102
}
330
18
100
AcDbEntity
  8
ROGO
 62
     4
100
AcDbLine
 10
355.6340684700571
 20
284.6575536692886
 30
0.0
 11
355.6497262254413
 21
284.3223266361393
 31
0.0
  0
LINE
  5
B62
102
{ACAD_REACTORS
330
B56
102
}
330
18
100
AcDbEntity
  8
ROGO
 62
     4
100
AcDbLine
 10
355.6092708316322
 20
285.1884623822105
 30
0.0
 11
355.6218249169193
 21
284.9196838337262
 31
0.0
  0
LINE
  5
B63
102
{ACAD_REACTORS
330
B56
102
}
330
18
100
AcDbEntity
  8
ROGO
 62
     4
100
AcDbLine
 10
354.805398537334
 20
284.4671313016772
 30
0.0
 11
355.6218249169193
 21
284.9196838337262
 31
0.0
  0
LINE
  5
B64
102
{ACAD_REACTORS
330
B56
102
}
330
18
100
AcDbEntity
  8
ROGO
 62
     4
100
AcDbLine
 10
354.8176420904718
 20
284.2050011372397
 30
0.0
 11
355.6340684700571
 21
284.6575536692886
 31
0.0
  0
LINE
  5
B65
102
{ACAD_REACTORS
330
B56
102
}
330
18
100
AcDbEntity
  8
ROGO
 62
     4
100
AcDbLine
 10
354.7928444520469
 20
284.7359098501615
 30
0.0
 11
355.6092708316322
 21
285.1884623822105
 31
0.0
  0
LINE
  5
B66
102
{ACAD_REACTORS
330
B56
102
}
330
18
100
AcDbEntity
  8
ROGO
 62
     4
100
AcDbLine
 10
354.7806014172203
 20
284.9980289177378
 30
0.0
 11
355.5970277968057
 21
285.4505814497868
 31
0.0
  0
LINE
  5
B67
102
{ACAD_REACTORS
330
B56
102
}
330
18
100
AcDbEntity
  8
ROGO
 62
     4
100
AcDbLine
 10
354.7806014172203
 20
284.9980289177378
 30
0.0
 11
354.7928444520469
 21
284.7359098501615
 31
0.0
  0
LINE
  5
B68
102
{ACAD_REACTORS
330
B56
102
}
330
18
100
AcDbEntity
  8
ROGO
 62
     4
100
AcDbLine
 10
354.0963289022591
 20
283.4612644393969
 30
0.0
 11
355.6497262254413
 21
284.3223266361393
 31
0.0
  0
LINE
  5
B69
102
{ACAD_REACTORS
330
B56
102
}
330
18
100
AcDbEntity
  8
ROGO
 62
     4
100
AcDbLine
 10
355.5813692537793
 20
285.7858253460772
 30
0.0
 11
355.5970277968057
 21
285.4505814497868
 31
0.0
  0
LINE
  5
B6A
102
{ACAD_REACTORS
330
B56
102
}
330
18
100
AcDbEntity
  8
ROGO
 62
     4
100
AcDbLine
 10
354.0279719305971
 20
284.9247631493349
 30
0.0
 11
354.0963289022591
 21
283.4612644393969
 31
0.0
  0
SPLINE
  5
B6B
102
{ACAD_REACTORS
330
B39
102
}
330
18
100
AcDbEntity
  8
ROGO
 62
     4
100
AcDbSpline
210
0.0
220
0.0
230
1.0
 70
     8
 71
     3
 72
    15
 73
    11
 74
     9
 42
0.0000000001
 43
0.0000000001
 44
0.0000000001
 40
0.0
 40
0.0
 40
0.0
 40
0.0
 40
0.1539705029175225
 40
0.2241725832587431
 40
0.3038566179396425
 40
0.358141087247397
 40
0.4439925384671782
 40
0.4954152125469241
 40
0.5836396705646031
 40
0.6130478420065323
 40
0.6130478420065323
 40
0.6130478420065323
 40
0.6130478420065323
 10
352.9429869181455
 20
283.742754472153
 30
0.0
 10
352.9934363009965
 20
283.7710218786409
 30
0.0
 10
353.066887827511
 20
283.8121776676677
 30
0.0
 10
353.1576485648459
 20
283.7434076355752
 30
0.0
 10
353.1721078064098
 20
283.674753882709
 30
0.0
 10
353.1827943195545
 20
283.6019627149036
 30
0.0
 10
353.1653753003443
 20
283.5388193019357
 30
0.0
 10
353.1334011485201
 20
283.4695778824407
 30
0.0
 10
353.0851840692879
 20
283.4366142516237
 30
0.0
 10
353.0569628949826
 20
283.4095128839567
 30
0.0
 10
353.0499075980292
 20
283.4027375387968
 30
0.0
 11
352.9429869181455
 21
283.742754472153
 31
0.0
 11
353.091272437849
 21
283.7842071007179
 31
0.0
 11
353.1473236470934
 21
283.7419389800301
 31
0.0
 11
353.1728541852491
 21
283.666455624219
 31
0.0
 11
353.1783252557872
 21
283.6124475600509
 31
0.0
 11
353.1595138267377
 21
283.5286824013412
 31
0.0
 11
353.1359036243431
 21
283.4830003506823
 31
0.0
 11
353.0714065764467
 21
283.4228032925718
 31
0.0
 11
353.0499075980292
 21
283.4027375387968
 31
0.0
  0
SPLINE
  5
B6C
102
{ACAD_REACTORS
330
B39
102
}
330
18
100
AcDbEntity
  8
ROGO
 62
     4
100
AcDbSpline
210
0.0
220
0.0
230
1.0
 70
     8
 71
     3
 72
    18
 73
    14
 74
     0
 42
0.0000000001
 43
0.0000000001
 40
0.1087402787915014
 40
0.1087402787915014
 40
0.1087402787915014
 40
0.1087402787915014
 40
0.5992371417938475
 40
1.083176791562496
 40
1.448211145705696
 40
1.714037220764907
 40
2.164002567013297
 40
2.740236056362883
 40
3.395137510199602
 40
4.071816045172726
 40
4.784906178399433
 40
5.506895915094292
 40
6.060470601257719
 40
6.060470601257719
 40
6.060470601257719
 40
6.060470601257719
 10
353.1947882126457
 20
284.4629218729514
 30
0.0
 10
353.2491492500879
 20
284.4714083031224
 30
0.0
 10
353.3574050084544
 20
284.4856516842012
 30
0.0
 10
353.5101334174769
 20
284.4658623887268
 30
0.0
 10
353.620399302918
 20
284.4064070452198
 30
0.0
 10
353.7276608039618
 20
284.3470562962131
 30
0.0
 10
353.8078959189098
 20
284.2210829415669
 30
0.0
 10
353.8862275744708
 20
284.0490147910811
 30
0.0
 10
353.8973768119382
 20
283.8303553229979
 30
0.0
 10
353.8456356848917
 20
283.6050212431143
 30
0.0
 10
353.7446070751946
 20
283.3916212697094
 30
0.0
 10
353.6200782230105
 20
283.1990397160837
 30
0.0
 10
353.4941386517786
 20
283.127999198926
 30
0.0
 10
353.4394828795016
 20
283.0971687435716
 30
0.0
  0
HATCH
  5
B6D
330
18
100
AcDbEntity
  8
ROGO
 62
     4
100
AcDbHatch
 10
0.0
 20
0.0
 30
0.0
210
0.0
220
0.0
230
1.0
  2
SOLID
 70
     1
 71
     1
 91
        2
 92
        5
 93
        6
 72
     4
 94
        3
 73
     0
 74
     0
 95
       38
 96
       34
 40
0.0
 40
0.0
 40
0.0
 40
0.0
 40
0.5164800423611548
 40
0.6786836885910848
 40
0.88710434560167
 40
1.060788566413433
 40
1.20733358396365
 40
1.401978810630435
 40
1.501434849986208
 40
1.613448456300606
 40
1.778535433376704
 40
1.965543155621333
 40
2.086853233586049
 40
2.218636674910137
 40
2.365128983511507
 40
2.587438484857767
 40
2.798655694361229
 40
2.896849520951487
 40
3.008826444388521
 40
3.141482119684725
 40
3.235915913773394
 40
3.315078629400928
 40
3.428105103696636
 40
3.552301837626102
 40
3.676497880048442
 40
3.785169590044758
 40
4.034047122621728
 40
4.132240949211986
 40
4.328628719031952
 40
4.502226771166864
 40
4.834567227246322
 40
5.244640938625969
 40
5.836847051382449
 40
5.836847051382449
 40
5.836847051382449
 40
5.836847051382449
 10
359.9718402813482
 20
288.2257655776212
 10
359.921203373013
 20
288.1928302582291
 10
359.8546636407698
 20
288.1495514048046
 10
359.7800843487716
 20
288.0767181677797
 10
359.7480598252095
 20
288.0214480701933
 10
359.7098693533483
 20
287.972700766065
 10
359.6846545183924
 20
287.9178864354279
 10
359.6505581999027
 20
287.8779433571653
 10
359.6365243155057
 20
287.8322196326583
 10
359.6114871548039
 20
287.7951630990788
 10
359.6057214995623
 20
287.7400875745402
 10
359.5952569066012
 20
287.6857814382729
 10
359.5742691299502
 20
287.6387408590708
 10
359.5604909349319
 20
287.5939159138553
 10
359.5577214356911
 20
287.5349891658775
 10
359.574014094134
 20
287.4677639059694
 10
359.5492095429737
 20
287.4058689602328
 10
359.5669456839009
 20
287.3578149367692
 10
359.5564144421899
 20
287.3178260053517
 10
359.564231136745
 20
287.2780743590277
 10
359.5772149485651
 20
287.2448822045336
 10
359.5882378357234
 20
287.2132715748333
 10
359.5920585602254
 20
287.1757089101976
 10
359.6170872866868
 20
287.1405666520104
 10
359.6360038329264
 20
287.1035885343625
 10
359.6638858653986
 20
287.0549662832404
 10
359.6877712426129
 20
287.0058188241655
 10
359.7370408039258
 20
286.9652371649953
 10
359.7748216121016
 20
286.9256628847456
 10
359.8435451736571
 20
286.8799645107604
 10
359.9417972975778
 20
286.83774816402
 10
360.1004373851691
 20
286.8083345543542
 10
360.2101776371764
 20
286.857260034577
 10
360.2750186591039
 20
286.8861680977344
 72
     1
 10
360.275018659104
 20
286.8861680977346
 11
360.9313803621607
 21
287.2499953307658
 72
     4
 94
        3
 73
     0
 74
     0
 95
       11
 96
        7
 40
0.1647869275458135
 40
0.1647869275458135
 40
0.1647869275458135
 40
0.1647869275458135
 40
0.2545010798212315
 40
0.5111620267764023
 40
0.7602998271033902
 40
0.8850764140209603
 40
0.8850764140209603
 40
0.8850764140209603
 40
0.8850764140209603
 10
360.9313803621599
 20
287.2499953307654
 10
360.9406371347162
 20
287.2548956968442
 10
360.9763763735253
 20
287.2738153961753
 10
361.031997093415
 20
287.3159960037822
 10
361.0909691675349
 20
287.3595607930519
 10
361.1255175080902
 20
287.3866319388944
 10
361.1358570554882
 20
287.3968119573542
 72
     4
 94
        3
 73
     0
 74
     0
 95
        9
 96
        5
 40
0.0
 40
0.0
 40
0.0
 40
0.0
 40
0.3245123838720408
 40
0.7608395406220814
 40
0.7608395406220814
 40
0.7608395406220814
 40
0.7608395406220814
 10
361.1358570554882
 20
287.3968119573542
 10
361.1623559181112
 20
287.4242630232889
 10
361.2244841556365
 20
287.4886237609165
 10
361.2594834441001
 20
287.5712657468372
 10
361.2795548773108
 20
287.6186593703541
 72
     4
 94
        3
 73
     0
 74
     0
 95
       25
 96
       21
 40
0.0
 40
0.0
 40
0.0
 40
0.0
 40
0.165525918914855
 40
0.3412380755365305
 40
0.5940540902285263
 40
0.7697671103696209
 40
0.9377330196075423
 40
1.11479469302833
 40
1.274661249598185
 40
1.574522170874768
 40
1.815540668866877
 40
2.15849091873445
 40
2.536227739636605
 40
2.738070817316548
 40
2.925680654369045
 40
3.162706124480894
 40
3.395643218188267
 40
3.648478129958861
 40
3.928509979727306
 40
4.337226830236035
 40
4.337226830236035
 40
4.337226830236035
 40
4.337226830236035
 10
361.2795548773108
 20
287.6186593703541
 10
361.2866138611002
 20
287.6366431947151
 10
361.2971290684212
 20
287.6759379837637
 10
361.317949060076
 20
287.7417198088434
 10
361.3297673738721
 20
287.8114660107407
 10
361.3556838121135
 20
287.8770492247789
 10
361.3539306723857
 20
287.9386946312358
 10
361.3687931611943
 20
287.996180127668
 10
361.3665267815607
 20
288.0709811169518
 10
361.3549213351555
 20
288.1519138154742
 10
361.3308869276454
 20
288.2524708587327
 10
361.2857053657084
 20
288.3558993504788
 10
361.2192437742376
 20
288.4433566909488
 10
361.1466163581986
 20
288.4960070316301
 10
361.0893525973606
 20
288.541694765618
 10
361.0211766507329
 20
288.5772436431803
 10
360.9450531937732
 20
288.6148124537221
 10
360.8574817574117
 20
288.6322491606517
 10
360.7458531176634
 20
288.6499529132702
 10
360.6720174833145
 20
288.6120720502244
 10
360.6282019844042
 20
288.5895928106521
 72
     1
 10
360.6282019844041
 20
288.589592810652
 11
359.9718402813481
 21
288.2257655776211
 97
        6
330
B73
330
B72
330
B74
330
B71
330
B70
330
B6F
 92
       20
 93
        1
 72
     3
 10
360.451229328584
 20
287.7166487961862
 11
0.079923307887578
 21
0.2235562257902635
 40
0.6788083417438792
 50
0.0
 51
360.0
 73
     1
 97
        1
330
B6E
 75
     0
 76
     1
 47
0.088756267210375
 98
        2
 10
360.3451051111639
 20
288.0162501276434
 10
360.3451051111639
 20
288.0162501276434
450
        0
451
        0
460
0.0
461
0.0
452
        0
462
0.0
453
        0
470

  0
ELLIPSE
  5
B6E
102
{ACAD_REACTORS
330
B6D
102
}
330
18
100
AcDbEntity
  8
ROGO
 62
     4
100
AcDbEllipse
 10
360.451229328584
 20
287.7166487961862
 30
0.0
 11
0.079923307887578
 21
0.2235562257902634
 31
0.0
210
0.0
220
0.0
230
1.0
 40
0.6788083417438792
 41
0.0
 42
6.283185307179586
  0
SPLINE
  5
B6F
102
{ACAD_REACTORS
330
B6D
102
}
330
18
100
AcDbEntity
  8
ROGO
 62
     4
100
AcDbSpline
210
0.0
220
0.0
230
1.0
 70
     8
 71
     3
 72
     9
 73
     5
 74
     3
 42
0.0000000001
 43
0.0000000001
 44
0.0000000001
 40
0.0
 40
0.0
 40
0.0
 40
0.0
 40
0.113579334355223
 40
0.2662938392177881
 40
0.2662938392177881
 40
0.2662938392177881
 40
0.2662938392177881
 10
361.1358570554882
 20
287.3968119573542
 30
0.0
 10
361.1623559181112
 20
287.4242630232889
 30
0.0
 10
361.2244841556365
 20
287.4886237609165
 30
0.0
 10
361.2594834441002
 20
287.5712657468373
 30
0.0
 10
361.2795548773108
 20
287.6186593703541
 30
0.0
 11
361.1358570554882
 21
287.3968119573542
 31
0.0
 11
361.2104183909354
 21
287.4824908488555
 31
0.0
 11
361.2795548773108
 21
287.6186593703541
 31
0.0
  0
SPLINE
  5
B70
102
{ACAD_REACTORS
330
B6D
102
}
330
18
100
AcDbEntity
  8
ROGO
 62
     4
100
AcDbSpline
210
0.0
220
0.0
230
1.0
 70
     8
 71
     3
 72
    11
 73
     7
 74
     0
 42
0.0000000001
 43
0.0000000001
 40
0.1647869275458134
 40
0.1647869275458134
 40
0.1647869275458134
 40
0.1647869275458134
 40
0.2895635144633836
 40
0.5387013147903714
 40
0.7953622617455423
 40
0.8850764140209602
 40
0.8850764140209602
 40
0.8850764140209602
 40
0.8850764140209602
 10
361.1358570554882
 20
287.3968119573542
 30
0.0
 10
361.1255175080902
 20
287.3866319388944
 30
0.0
 10
361.0909691675349
 20
287.3595607930519
 30
0.0
 10
361.031997093415
 20
287.3159960037822
 30
0.0
 10
360.9763763735253
 20
287.2738153961753
 30
0.0
 10
360.9406371347162
 20
287.2548956968442
 30
0.0
 10
360.9313803621599
 20
287.2499953307654
 30
0.0
  0
LINE
  5
B71
102
{ACAD_REACTORS
330
B6D
102
}
330
18
100
AcDbEntity
  8
ROGO
 62
     4
100
AcDbLine
 10
360.2750186591039
 20
286.8861680977344
 30
0.0
 11
360.9313803621599
 21
287.2499953307654
 31
0.0
  0
LINE
  5
B72
102
{ACAD_REACTORS
330
B6D
102
}
330
18
100
AcDbEntity
  8
ROGO
 62
     4
100
AcDbLine
 10
359.9718402813482
 20
288.2257655776212
 30
0.0
 11
360.6282019844042
 21
288.5895928106521
 31
0.0
  0
SPLINE
  5
B73
102
{ACAD_REACTORS
330
B6D
102
}
330
18
100
AcDbEntity
  8
ROGO
 62
     4
100
AcDbSpline
210
0.0
220
0.0
230
1.0
 70
     8
 71
     3
 72
    25
 73
    21
 74
     0
 42
0.0000000001
 43
0.0000000001
 40
0.0
 40
0.0
 40
0.0
 40
0.0
 40
0.4087168505087288
 40
0.6887487002771746
 40
0.9415836120477687
 40
1.17452070575514
 40
1.41154617586699
 40
1.599156012919487
 40
1.80099909059943
 40
2.178735911501585
 40
2.521686161369157
 40
2.762704659361267
 40
3.06256558063785
 40
3.222432137207705
 40
3.399493810628493
 40
3.567459719866414
 40
3.743172740007509
 40
3.995988754699505
 40
4.17170091132118
 40
4.337226830236035
 40
4.337226830236035
 40
4.337226830236035
 40
4.337226830236035
 10
360.6282019844042
 20
288.5895928106521
 30
0.0
 10
360.6720174833145
 20
288.6120720502244
 30
0.0
 10
360.7458531176634
 20
288.6499529132702
 30
0.0
 10
360.8574817574117
 20
288.6322491606517
 30
0.0
 10
360.9450531937732
 20
288.6148124537221
 30
0.0
 10
361.0211766507329
 20
288.5772436431803
 30
0.0
 10
361.0893525973606
 20
288.541694765618
 30
0.0
 10
361.1466163581986
 20
288.4960070316301
 30
0.0
 10
361.2192437742376
 20
288.4433566909488
 30
0.0
 10
361.2857053657084
 20
288.3558993504788
 30
0.0
 10
361.3308869276454
 20
288.2524708587327
 30
0.0
 10
361.3549213351555
 20
288.1519138154742
 30
0.0
 10
361.3665267815607
 20
288.0709811169518
 30
0.0
 10
361.3687931611943
 20
287.996180127668
 30
0.0
 10
361.3539306723857
 20
287.9386946312358
 30
0.0
 10
361.3556838121135
 20
287.8770492247789
 30
0.0
 10
361.3297673738721
 20
287.8114660107407
 30
0.0
 10
361.317949060076
 20
287.7417198088434
 30
0.0
 10
361.2971290684212
 20
287.6759379837637
 30
0.0
 10
361.2866138611002
 20
287.6366431947151
 30
0.0
 10
361.2795548773108
 20
287.6186593703541
 30
0.0
  0
SPLINE
  5
B74
102
{ACAD_REACTORS
330
B6D
102
}
330
18
100
AcDbEntity
  8
ROGO
 62
     4
100
AcDbSpline
210
0.0
220
0.0
230
1.0
 70
     8
 71
     3
 72
    38
 73
    34
 74
    32
 42
0.0000000001
 43
0.0000000001
 44
0.0000000001
 40
0.0
 40
0.0
 40
0.0
 40
0.0
 40
0.1807680148264216
 40
0.2375392910068661
 40
0.3104865209605956
 40
0.3712759982447297
 40
0.4225667543872936
 40
0.490692583720646
 40
0.5255021974952085
 40
0.5647069597052247
 40
0.6224874016818898
 40
0.6879401044674815
 40
0.7303986317550875
 40
0.7765228362185664
 40
0.8277951442290344
 40
0.9056034697002015
 40
0.9795294930263851
 40
1.013897332332976
 40
1.053089255536023
 40
1.099518741889623
 40
1.132570569820684
 40
1.160277520290247
 40
1.199836786293833
 40
1.243305643169141
 40
1.286774258016921
 40
1.324809356515631
 40
1.411916492917633
 40
1.446284332224191
 40
1.515020051661188
 40
1.575779369908375
 40
1.692098529536178
 40
1.835624328519089
 40
2.042896467983868
 40
2.042896467983868
 40
2.042896467983868
 40
2.042896467983868
 10
359.9718402813482
 20
288.2257655776212
 30
0.0
 10
359.9212033730132
 20
288.1928302582291
 30
0.0
 10
359.8546636407701
 20
288.1495514048046
 30
0.0
 10
359.7800843487714
 20
288.0767181677797
 30
0.0
 10
359.7480598252097
 20
288.0214480701933
 30
0.0
 10
359.7098693533483
 20
287.9727007660648
 30
0.0
 10
359.6846545183924
 20
287.9178864354279
 30
0.0
 10
359.6505581999025
 20
287.8779433571653
 30
0.0
 10
359.6365243155057
 20
287.8322196326584
 30
0.0
 10
359.6114871548039
 20
287.7951630990787
 30
0.0
 10
359.6057214995624
 20
287.7400875745403
 30
0.0
 10
359.5952569066013
 20
287.6857814382729
 30
0.0
 10
359.5742691299502
 20
287.6387408590708
 30
0.0
 10
359.5604909349319
 20
287.5939159138553
 30
0.0
 10
359.5577214356911
 20
287.5349891658774
 30
0.0
 10
359.5740140941341
 20
287.4677639059694
 30
0.0
 10
359.5492095429737
 20
287.4058689602329
 30
0.0
 10
359.5669456839008
 20
287.3578149367692
 30
0.0
 10
359.55641444219
 20
287.3178260053517
 30
0.0
 10
359.5642311367451
 20
287.2780743590277
 30
0.0
 10
359.577214948565
 20
287.2448822045337
 30
0.0
 10
359.5882378357235
 20
287.2132715748333
 30
0.0
 10
359.5920585602256
 20
287.1757089101977
 30
0.0
 10
359.6170872866867
 20
287.1405666520104
 30
0.0
 10
359.6360038329265
 20
287.1035885343625
 30
0.0
 10
359.6638858653986
 20
287.0549662832404
 30
0.0
 10
359.6877712426129
 20
287.0058188241653
 30
0.0
 10
359.737040803926
 20
286.9652371649954
 30
0.0
 10
359.7748216121015
 20
286.9256628847455
 30
0.0
 10
359.8435451736573
 20
286.8799645107605
 30
0.0
 10
359.9417972975778
 20
286.8377481640199
 30
0.0
 10
360.1004373851691
 20
286.8083345543542
 30
0.0
 10
360.2101776371765
 20
286.8572600345771
 30
0.0
 10
360.2750186591039
 20
286.8861680977344
 30
0.0
 11
359.9718402813482
 21
288.2257655776212
 31
0.0
 11
359.8254210887629
 21
288.119753808336
 31
0.0
 11
359.7857612445189
 21
288.0791326986306
 31
0.0
 11
359.7444920207006
 21
288.0189816427517
 31
0.0
 11
359.7101007357894
 21
287.9688558004083
 31
0.0
 11
359.6852222191331
 21
287.9240026948897
 31
0.0
 11
359.6487090165987
 21
287.8664882213806
 31
0.0
 11
359.6354645774708
 21
287.834296700085
 31
0.0
 11
359.6174641170591
 21
287.7994685964198
 31
0.0
 11
359.6052444020174
 21
287.742995080155
 31
0.0
 11
359.5909027693524
 21
287.6791329327244
 31
0.0
 11
359.5755365299384
 21
287.6395525685813
 31
0.0
 11
359.5628047678602
 21
287.5952203627736
 31
0.0
 11
359.560097330061
 21
287.5440195878841
 31
0.0
 11
359.5658054669793
 21
287.4664209236846
 31
0.0
 11
359.5567320199718
 21
287.3930538364845
 31
0.0
 11
359.5630253033909
 21
287.3592671088772
 31
0.0
 11
359.5598058185551
 21
287.3202076444448
 31
0.0
 11
359.5666111490106
 21
287.2742796063803
 31
0.0
 11
359.5776600800383
 21
287.2431292540111
 31
0.0
 11
359.5860752810807
 21
287.2167311575695
 31
0.0
 11
359.5950026681604
 21
287.1781923811661
 31
0.0
 11
359.6160767881546
 21
287.1401736622961
 31
0.0
 11
359.6371507908116
 21
287.1021551551081
 31
0.0
 11
359.6555905724708
 21
287.0688889083982
 31
0.0
 11
359.7024947164061
 21
286.9954882647099
 31
0.0
 11
359.7278125543098
 21
286.9722470198533
 31
0.0
 11
359.7784488601304
 21
286.9257651560852
 31
0.0
 11
359.8285724889014
 21
286.8914239768293
 31
0.0
 11
359.9351860119894
 21
286.8449083494414
 31
0.0
 11
360.0772152877368
 21
286.8242361506142
 31
0.0
 11
360.2750186591039
 21
286.8861680977344
 31
0.0
  0
HATCH
  5
B75
330
18
100
AcDbEntity
  8
ROGO
 62
     4
100
AcDbHatch
 10
0.0
 20
0.0
 30
0.0
210
0.0
220
0.0
230
1.0
  2
SOLID
 70
     1
 71
     1
 91
        1
 92
        5
 93
        8
 72
     4
 94
        3
 73
     0
 74
     0
 95
       26
 96
       22
 40
0.0
 40
0.0
 40
0.0
 40
0.0
 40
0.680627241883428
 40
1.136254477903041
 40
1.464798819939375
 40
1.710112249467291
 40
2.028296642642898
 40
2.260540230712845
 40
2.679918019584077
 40
3.021285510494803
 40
3.253470102552373
 40
3.481138982867256
 40
3.888394348201009
 40
4.176372499429384
 40
4.331470983165915
 40
4.5517837977729
 40
4.710876624553423
 40
4.941349605730163
 40
5.071777377612483
 40
5.355602839329045
 40
5.485200010717817
 40
5.485200010717817
 40
5.485200010717817
 40
5.485200010717817
 10
361.8871211575653
 20
289.2811607025613
 10
361.8187421470565
 20
289.2377420909377
 10
361.7045886837448
 20
289.1652580808278
 10
361.618612065711
 20
289.0146580036488
 10
361.5490161965192
 20
288.9162341612025
 10
361.5157790381103
 20
288.8164546629205
 10
361.5017624563283
 20
288.7246505044311
 10
361.481626316179
 20
288.6133622018808
 10
361.4800225470856
 20
288.4958797768784
 10
361.5085196225795
 20
288.3831696653747
 10
361.5289242041455
 20
288.292059844194
 10
361.5602447344918
 20
288.1952870779524
 10
361.6168733469849
 20
288.1033719388946
 10
361.6716536130324
 20
288.019217865503
 10
361.7340941911137
 20
287.972079629716
 10
361.7904052573247
 20
287.9450932719753
 10
361.8563195654236
 20
287.9175292211956
 10
361.9167044465537
 20
287.9085472568323
 10
361.9843698435265
 20
287.8691467957529
 10
362.0498930367954
 20
287.8956528790033
 10
362.0971794329844
 20
287.9023313357709
 10
362.1120024801534
 20
287.9044248571144
 72
     1
 10
362.1120024801535
 20
287.9044248571145
 11
363.1012227460228
 21
288.4527586043664
 72
     1
 10
363.1012227460228
 20
288.4527586043664
 11
363.0774313537352
 21
288.9981791781158
 72
     1
 10
363.0774313537352
 20
288.9981791781158
 11
362.3430297851695
 21
288.5910937412588
 72
     4
 94
        3
 73
     0
 74
     0
 95
       16
 96
       12
 40
0.0
 40
0.0
 40
0.0
 40
0.0
 40
0.2055476186376692
 40
0.4132153116455541
 40
0.5370797571174224
 40
0.6558402674583835
 40
0.7862675211309879
 40
0.877348187443702
 40
0.9637758349634946
 40
1.139038695775252
 40
1.497869274526499
 40
1.497869274526499
 40
1.497869274526499
 40
1.497869274526499
 10
362.3430297851694
 20
288.5910937412587
 10
362.3172649452973
 20
288.5853320941058
 10
362.265469519946
 20
288.5737493725949
 10
362.2265357634649
 20
288.6351980559532
 10
362.2065256343864
 20
288.6832719417075
 10
362.209525104356
 20
288.7280106461908
 10
362.2220325448418
 20
288.7662871430896
 10
362.2143295554302
 20
288.8028373266149
 10
362.2294943675247
 20
288.8420675415631
 10
362.2575934300369
 20
288.9094543181479
 10
362.3082813121406
 20
288.9485857004846
 10
362.3423359563726
 20
288.9748761124819
 72
     1
 10
362.3423359563726
 20
288.9748761124819
 11
363.0610695022109
 21
289.3732766225229
 72
     1
 10
363.0610695022109
 20
289.3732766225229
 11
363.037277857976
 21
289.9187029721881
 72
     1
 10
363.037277857976
 20
289.9187029721881
 11
361.8871211575654
 21
289.2811607025614
 97
        8
330
B7E
330
B7C
330
B7F
330
B7B
330
B7A
330
B7D
330
B79
330
B78
 75
     0
 76
     1
 47
0.0514683685270805
 98
        1
 10
362.2021558703469
 20
289.1808777533035
450
        0
451
        0
460
0.0
461
0.0
452
        0
462
0.0
453
        0
470

  0
LINE
  5
B76
102
{ACAD_REACTORS
330
AE3
102
}
330
18
100
AcDbEntity
  8
ROGO
 62
     4
100
AcDbLine
 10
364.0129462124371
 20
288.7258395941307
 30
0.0
 11
364.0390260085242
 21
288.1279570838078
 31
0.0
  0
LINE
  5
B77
102
{ACAD_REACTORS
330
B3A
330
AE3
102
}
330
18
100
AcDbEntity
  8
ROGO
 62
     4
100
AcDbLine
 10
363.2778220051042
 20
290.0520387702152
 30
0.0
 11
363.3777402670822
 21
287.7614004117299
 31
0.0
  0
LINE
  5
B78
102
{ACAD_REACTORS
330
B75
102
}
330
18
100
AcDbEntity
  8
ROGO
 62
     4
100
AcDbLine
 10
363.037277857976
 20
289.9187029721881
 30
0.0
 11
363.0610695022108
 21
289.3732766225228
 31
0.0
  0
LINE
  5
B79
102
{ACAD_REACTORS
330
B75
102
}
330
18
100
AcDbEntity
  8
ROGO
 62
     4
100
AcDbLine
 10
362.3423359563725
 20
288.9748761124819
 30
0.0
 11
363.0610695022108
 21
289.3732766225228
 31
0.0
  0
LINE
  5
B7A
102
{ACAD_REACTORS
330
B75
102
}
330
18
100
AcDbEntity
  8
ROGO
 62
     4
100
AcDbLine
 10
362.3430297851694
 20
288.5910937412587
 30
0.0
 11
363.0774313537352
 21
288.9981791781158
 31
0.0
  0
LINE
  5
B7B
102
{ACAD_REACTORS
330
B75
102
}
330
18
100
AcDbEntity
  8
ROGO
 62
     4
100
AcDbLine
 10
363.0774313537352
 20
288.9981791781158
 30
0.0
 11
363.1012227460229
 21
288.4527586043664
 31
0.0
  0
SPLINE
  5
B7C
102
{ACAD_REACTORS
330
B75
102
}
330
18
100
AcDbEntity
  8
ROGO
 62
     4
100
AcDbSpline
210
0.0
220
0.0
230
1.0
 70
     8
 71
     3
 72
    26
 73
    22
 74
    20
 42
0.0000000001
 43
0.0000000001
 44
0.0000000001
 40
0.0
 40
0.0
 40
0.0
 40
0.0
 40
0.2382195346591664
 40
0.3976890672660267
 40
0.5126795869786827
 40
0.5985392873135222
 40
0.7099038249249944
 40
0.7911890807494475
 40
0.9379713068543825
 40
1.05744992867316
 40
1.138714535893291
 40
1.218398644003477
 40
1.36093802187031
 40
1.461730374800255
 40
1.516014844108019
 40
1.59312432922046
 40
1.648806818593675
 40
1.729472362005529
 40
1.775122082164344
 40
1.874460993765114
 40
1.919820003751219
 40
1.919820003751219
 40
1.919820003751219
 40
1.919820003751219
 10
361.8871211575653
 20
289.2811607025613
 30
0.0
 10
361.8187421470564
 20
289.2377420909377
 30
0.0
 10
361.7045886837447
 20
289.1652580808278
 30
0.0
 10
361.618612065711
 20
289.0146580036488
 30
0.0
 10
361.5490161965194
 20
288.9162341612025
 30
0.0
 10
361.5157790381102
 20
288.8164546629204
 30
0.0
 10
361.5017624563285
 20
288.724650504431
 30
0.0
 10
361.4816263161789
 20
288.613362201881
 30
0.0
 10
361.4800225470856
 20
288.4958797768783
 30
0.0
 10
361.5085196225795
 20
288.3831696653748
 30
0.0
 10
361.5289242041455
 20
288.292059844194
 30
0.0
 10
361.5602447344918
 20
288.1952870779524
 30
0.0
 10
361.6168733469848
 20
288.1033719388944
 30
0.0
 10
361.6716536130326
 20
288.0192178655031
 30
0.0
 10
361.7340941911136
 20
287.9720796297159
 30
0.0
 10
361.7904052573247
 20
287.9450932719753
 30
0.0
 10
361.8563195654235
 20
287.9175292211956
 30
0.0
 10
361.9167044465536
 20
287.9085472568323
 30
0.0
 10
361.9843698435265
 20
287.8691467957529
 30
0.0
 10
362.0498930367954
 20
287.8956528790034
 30
0.0
 10
362.0971794329844
 20
287.9023313357709
 30
0.0
 10
362.1120024801534
 20
287.9044248571144
 30
0.0
 11
361.8871211575653
 21
289.2811607025613
 31
0.0
 11
361.6990136536892
 21
289.1349960225641
 31
0.0
 11
361.608794820693
 21
289.0035004180647
 31
0.0
 11
361.5490970175137
 21
288.9052202475349
 31
0.0
 11
361.5205921826159
 21
288.8242303560111
 31
0.0
 11
361.4996695295896
 21
288.7148489004176
 31
0.0
 11
361.4870967434133
 21
288.6345418779214
 31
0.0
 11
361.486905137741
 21
288.487759776875
 31
0.0
 11
361.5109962777406
 21
288.3707351724312
 31
0.0
 11
361.5302881730232
 21
288.2917936804067
 31
0.0
 11
361.5558183524507
 21
288.2163101257493
 31
0.0
 11
361.6249228141044
 21
288.0916423768236
 31
0.0
 11
361.6857732680661
 21
288.0112911437166
 31
0.0
 11
361.7286754783868
 21
287.9780314991361
 31
0.0
 11
361.7972036146495
 21
287.9426794520288
 31
0.0
 11
361.8491278763698
 21
287.922569487643
 31
0.0
 11
361.9266777053035
 21
287.900366921884
 31
0.0
 11
361.9689080898035
 21
287.8830322290525
 31
0.0
 11
362.0672854300621
 21
287.8968205676638
 31
0.0
 11
362.1120024801534
 21
287.9044248571144
 31
0.0
  0
SPLINE
  5
B7D
102
{ACAD_REACTORS
330
B75
102
}
330
18
100
AcDbEntity
  8
ROGO
 62
     4
100
AcDbSpline
210
0.0
220
0.0
230
1.0
 70
     8
 71
     3
 72
    16
 73
    12
 74
    10
 42
0.0000000001
 43
0.0000000001
 44
0.0000000001
 40
0.0
 40
0.0
 40
0.0
 40
0.0
 40
0.1255907025629382
 40
0.1869327038470696
 40
0.2171823804789938
 40
0.2490606136884031
 40
0.2947101524738237
 40
0.3362763310931285
 40
0.3796288870083118
 40
0.4523125795610823
 40
0.5242542460842596
 40
0.5242542460842596
 40
0.5242542460842596
 40
0.5242542460842596
 10
362.3423359563726
 20
288.9748761124819
 30
0.0
 10
362.3082813121407
 20
288.9485857004846
 30
0.0
 10
362.257593430037
 20
288.9094543181478
 30
0.0
 10
362.2294943675246
 20
288.842067541563
 30
0.0
 10
362.2143295554304
 20
288.8028373266149
 30
0.0
 10
362.2220325448417
 20
288.7662871430895
 30
0.0
 10
362.2095251043559
 20
288.7280106461907
 30
0.0
 10
362.2065256343864
 20
288.6832719417076
 30
0.0
 10
362.226535763465
 20
288.6351980559532
 30
0.0
 10
362.2654695199458
 20
288.5737493725947
 30
0.0
 10
362.3172649452973
 20
288.5853320941058
 30
0.0
 10
362.3430297851694
 20
288.5910937412587
 30
0.0
 11
362.3423359563726
 21
288.9748761124819
 31
0.0
 11
362.2521347904094
 21
288.8874874734655
 31
0.0
 11
362.2257410668449
 21
288.8321140820401
 31
0.0
 11
362.2173911999948
 21
288.803039648943
 31
0.0
 11
362.2187348516365
 21
288.7711897454452
 31
0.0
 11
362.2110566979635
 21
288.7261905638138
 31
0.0
 11
362.2096172998074
 21
288.6846493151812
 31
0.0
 11
362.2241099503728
 21
288.6437909355759
 31
0.0
 11
362.2711395795898
 21
288.5883731303252
 31
0.0
 11
362.3430297851694
 21
288.5910937412587
 31
0.0
  0
LINE
  5
B7E
102
{ACAD_REACTORS
330
B75
102
}
330
18
100
AcDbEntity
  8
ROGO
 62
     4
100
AcDbLine
 10
361.8871211575656
 20
289.2811607025615
 30
0.0
 11
363.037277857976
 21
289.9187029721881
 31
0.0
  0
LINE
  5
B7F
102
{ACAD_REACTORS
330
B75
102
}
330
18
100
AcDbEntity
  8
ROGO
 62
     4
100
AcDbLine
 10
362.1120024801534
 20
287.9044248571144
 30
0.0
 11
363.1012227460229
 21
288.4527586043665
 31
0.0
  0
LINE
  5
B80
102
{ACAD_REACTORS
330
B4F
102
}
330
18
100
AcDbEntity
  8
ROGO
 62
     4
100
AcDbLine
 10
358.1865441536304
 20
287.2298973736823
 30
0.0
 11
359.3367008540407
 21
287.8674396433088
 31
0.0
  0
LINE
  5
B81
102
{ACAD_REACTORS
330
B4F
102
}
330
18
100
AcDbEntity
  8
ROGO
 62
     4
100
AcDbLine
 10
359.3768543497998
 20
286.9469158492365
 30
0.0
 11
359.4006457420876
 21
286.4014952754871
 31
0.0
  0
SPLINE
  5
B82
102
{ACAD_REACTORS
330
B4F
102
}
330
18
100
AcDbEntity
  8
ROGO
 62
     4
100
AcDbSpline
210
0.0
220
0.0
230
1.0
 70
     8
 71
     3
 72
    16
 73
    12
 74
    10
 42
0.0000000001
 43
0.0000000001
 44
0.0000000001
 40
0.0
 40
0.0
 40
0.0
 40
0.0
 40
0.1255907025629394
 40
0.1869327038469951
 40
0.2171823804789739
 40
0.2490606136884424
 40
0.2947101524738261
 40
0.3362763310931289
 40
0.3796288870083468
 40
0.4523125795610675
 40
0.5242542460842424
 40
0.5242542460842424
 40
0.5242542460842424
 40
0.5242542460842424
 10
358.6417589524373
 20
286.9236127836026
 30
0.0
 10
358.6077043082054
 20
286.8973223716053
 30
0.0
 10
358.5570164261018
 20
286.8581909892688
 30
0.0
 10
358.5289173635894
 20
286.7908042126838
 30
0.0
 10
358.513752551495
 20
286.7515739977356
 30
0.0
 10
358.5214555409065
 20
286.7150238142102
 30
0.0
 10
358.5089481004207
 20
286.6767473173116
 30
0.0
 10
358.505948630451
 20
286.6320086128282
 30
0.0
 10
358.5259587595297
 20
286.5839347270739
 30
0.0
 10
358.5648925160108
 20
286.5224860437157
 30
0.0
 10
358.616687941362
 20
286.5340687652265
 30
0.0
 10
358.6424527812342
 20
286.5398304123795
 30
0.0
 11
358.6417589524373
 21
286.9236127836026
 31
0.0
 11
358.551557786474
 21
286.8362241445863
 31
0.0
 11
358.5251640629096
 21
286.780850753161
 31
0.0
 11
358.5168141960595
 21
286.7517763200638
 31
0.0
 11
358.5181578477013
 21
286.7199264165659
 31
0.0
 11
358.5104796940282
 21
286.6749272349346
 31
0.0
 11
358.5090402958721
 21
286.6333859863019
 31
0.0
 11
358.5235329464375
 21
286.5925276066966
 31
0.0
 11
358.5705625756546
 21
286.5371098014459
 31
0.0
 11
358.6424527812342
 21
286.5398304123795
 31
0.0
  0
LINE
  5
B83
102
{ACAD_REACTORS
330
B4F
102
}
330
18
100
AcDbEntity
  8
ROGO
 62
     4
100
AcDbLine
 10
358.6424527812341
 20
286.5398304123795
 30
0.0
 11
359.3768543497998
 21
286.9469158492365
 31
0.0
  0
LINE
  5
B84
102
{ACAD_REACTORS
330
B4F
102
}
330
18
100
AcDbEntity
  8
ROGO
 62
     4
100
AcDbLine
 10
358.6417589524373
 20
286.9236127836026
 30
0.0
 11
359.3604924982755
 21
287.3220132936435
 31
0.0
  0
LINE
  5
B85
102
{ACAD_REACTORS
330
B4F
102
}
330
18
100
AcDbEntity
  8
ROGO
 62
     4
100
AcDbLine
 10
359.3367008540407
 20
287.8674396433088
 30
0.0
 11
359.3604924982755
 21
287.3220132936435
 31
0.0
  0
TEXT
  5
B86
330
18
100
AcDbEntity
  8
文字
100
AcDbText
 10
353.0937797192619
 20
293.0466168814072
 30
0.0
 40
2.0
  1
0
 50
29.0
  7
STYLE3
100
AcDbText
  0
LINE
  5
B87
330
18
100
AcDbEntity
  8
目盛
100
AcDbLine
 10
351.0054886105597
 20
298.8390441436524
 30
0.0
 11
352.4599174712987
 21
296.2151850222342
 31
0.0
  0
LINE
  5
B88
330
18
100
AcDbEntity
  8
目盛
100
AcDbLine
 10
346.3530971277237
 20
295.4340083117788
 30
0.0
 11
347.7272721493326
 21
293.9808589698368
 31
0.0
  0
LINE
  5
B89
330
18
100
AcDbEntity
  8
目盛
100
AcDbLine
 10
347.4335867880715
 20
296.3933119220973
 30
0.0
 11
348.7138061870414
 21
294.8567448749103
 31
0.0
  0
LINE
  5
B8A
330
18
100
AcDbEntity
  8
目盛
100
AcDbLine
 10
348.5721795209672
 20
297.2828780587538
 30
0.0
 11
349.753390856207
 21
295.6689574344661
 31
0.0
  0
LINE
  5
B8B
330
18
100
AcDbEntity
  8
目盛
100
AcDbLine
 10
349.7643818210676
 20
298.0991960106107
 30
0.0
 11
350.8419233910813
 21
296.4142912165964
 31
0.0
  0
LINE
  5
B8C
330
18
100
AcDbEntity
  8
目盛
100
AcDbLine
 10
352.2906018079533
 20
299.4995026153024
 30
0.0
 11
353.1484720747595
 21
297.6928320295757
 31
0.0
  0
LINE
  5
B8D
330
18
100
AcDbEntity
  8
目盛
100
AcDbLine
 10
353.6146496585702
 20
300.0779648977074
 30
0.0
 11
354.3573853296706
 21
298.2209932439456
 31
0.0
  0
LINE
  5
B8E
330
18
100
AcDbEntity
  8
目盛
100
AcDbLine
 10
354.9724067504442
 20
300.5721480645133
 30
0.0
 11
355.5970765874687
 21
298.6722039614641
 31
0.0
  0
LINE
  5
B8F
330
18
100
AcDbEntity
  8
目盛
100
AcDbLine
 10
356.358514636634
 20
300.9801018005317
 30
0.0
 11
356.8626533531202
 21
299.0446834595677
 31
0.0
  0
LINE
  5
B90
330
18
100
AcDbEntity
  8
外形線
  6
Continuous
100
AcDbLine
 10
339.2852273398331
 20
312.3510934236803
 30
0.0
 11
342.4364898714343
 21
306.6660653272742
 31
0.0
  0
LINE
  5
B91
330
18
100
AcDbEntity
  8
外形線
  6
Continuous
100
AcDbLine
 10
345.7574131726646
 20
315.9386846135032
 30
0.0
 11
348.9086757042658
 21
310.2536565170971
 31
0.0
  0
LINE
  5
B92
330
18
100
AcDbEntity
  8
外形線
  6
Continuous
100
AcDbLine
 10
345.0829616807705
 20
301.2729041983639
 30
0.0
 11
352.0799193378856
 21
305.1513811603346
 31
0.0
  0
LINE
  5
B93
330
18
100
AcDbEntity
  8
外形線
  6
Continuous
100
AcDbLine
 10
342.1741039592925
 20
306.5206224412003
 30
0.0
 11
349.1710616164076
 21
310.399099403171
 31
0.0
  0
HATCH
  5
B94
330
18
100
AcDbEntity
  8
ﾊｯﾁﾝｸ
  6
Continuous
100
AcDbHatch
 10
0.0
 20
0.0
 30
0.0
210
0.0
220
0.0
230
1.0
  2
ANSI37
 70
     0
 71
     0
 91
        1
 92
        7
 72
     0
 73
     1
 93
        4
 10
345.6725827878501
 20
308.4598609221857
 10
342.1741039592925
 20
306.5206224412003
 10
345.0829616807705
 20
301.272904198364
 10
348.5814405093281
 20
303.2121426793493
 97
        0
 75
     0
 76
     1
 52
29.0
 41
9.999999999999998
 77
     0
 78
     2
 53
74.0
 43
252.5350538159246
 44
79.47701654929815
 45
-1.201577119922898
 46
0.344546694771249
 79
     0
 53
164.0
 43
252.5350538159246
 44
79.47701654929815
 45
-0.344546694771249
 46
-1.201577119922898
 79
     0
 47
0.1856754751158765
 98
        1
 10
345.2229495642672
 20
305.6678583543775
  0
LINE
  5
B95
330
18
100
AcDbEntity
  8
外形線
  6
Continuous
100
AcDbLine
 10
342.1741039592925
 20
306.5206224412003
 30
0.0
 11
345.0829616807705
 21
301.272904198364
 31
0.0
  0
LINE
  5
B96
330
18
100
AcDbEntity
  8
外形線
  6
Continuous
100
AcDbLine
 10
349.1710616164076
 20
310.399099403171
 30
0.0
 11
352.0799193378856
 21
305.1513811603346
 31
0.0
  0
ARC
  5
B97
330
18
100
AcDbEntity
  8
外形線
  6
Continuous
100
AcDbCircle
 10
345.5974372967117
 20
308.5954269767924
 30
0.0
 40
7.344999999999885
100
AcDbArc
 50
88.75198538337818
 51
149.2480146166212
  0
LINE
  5
B98
330
18
100
AcDbEntity
  8
外形線
  6
Continuous
100
AcDbLine
 10
339.2852273398331
 20
312.3510934236803
 30
0.0
 11
345.7574131726646
 21
315.9386846135032
 31
0.0
  0
POINT
  5
B99
330
18
100
AcDbEntity
  8
DEFPOINTS
  6
ByBlock
 62
     0
100
AcDbPoint
 10
342.0365106360024
 20
315.0195087257312
 30
0.0
  0
LINE
  5
B9A
330
18
100
AcDbEntity
  8
目盛
100
AcDbLine
 10
384.0550859092946
 20
271.6917988652949
 30
0.0
 11
382.1508271238103
 21
272.3031894752211
 31
0.0
  0
LINE
  5
B9B
330
18
100
AcDbEntity
  8
目盛
100
AcDbLine
 10
383.5703936410636
 20
270.3306248396811
 30
0.0
 11
381.7082820093386
 21
271.0603784083564
 31
0.0
  0
LINE
  5
B9C
330
18
100
AcDbEntity
  8
目盛
100
AcDbLine
 10
383.0011889780684
 20
269.0025708594103
 30
0.0
 11
380.2822656169584
 21
270.2704256446323
 31
0.0
  0
LINE
  5
B9D
330
18
100
AcDbEntity
  8
目盛
100
AcDbLine
 10
382.3497183110689
 20
267.7128781468124
 30
0.0
 11
380.5937523602131
 21
268.6702618626936
 31
0.0
  0
LINE
  5
B9E
330
18
100
AcDbEntity
  8
目盛
100
AcDbLine
 10
381.6185526971593
 20
266.4666365298195
 30
0.0
 11
379.9261663649042
 21
267.532389081961
 31
0.0
  0
LINE
  5
B9F
330
18
100
AcDbEntity
  8
目盛
100
AcDbLine
 10
380.8105777129799
 20
265.2687643547404
 30
0.0
 11
379.1884500750013
 21
266.4386797047149
 31
0.0
  0
LINE
  5
BA0
330
18
100
AcDbEntity
  8
目盛
100
AcDbLine
 10
379.9289820666645
 20
264.1239890757942
 30
0.0
 11
378.3835149196698
 21
265.3934501021987
 31
0.0
  0
TEXT
  5
BA1
330
18
100
AcDbEntity
  8
文字
100
AcDbText
 10
373.9667870623557
 20
290.607201975369
 30
0.0
 40
2.0
  1
2
 50
29.0
  7
STYLE3
100
AcDbText
  0
LINE
  5
BA2
330
18
100
AcDbEntity
  8
目盛
100
AcDbLine
 10
385.1559697523546
 20
278.8030758619965
 30
0.0
 11
383.155981937039
 21
278.7960945591661
 31
0.0
  0
LINE
  5
BA3
330
18
100
AcDbEntity
  8
目盛
100
AcDbLine
 10
385.1156259184721
 20
277.3587442871993
 30
0.0
 11
383.1191462626245
 21
277.4773570343512
 31
0.0
  0
TEXT
  5
BA4
330
18
100
AcDbEntity
  8
文字
100
AcDbText
 10
379.6586767660357
 20
280.6186104198297
 30
0.0
 40
2.0
  1
3
 50
29.0
  7
STYLE3
100
AcDbText
  0
TEXT
  5
BA5
330
18
100
AcDbEntity
  8
文字
100
AcDbText
 10
377.9995025999814
 20
269.2964251842588
 30
0.0
 40
2.0
  1
4
 50
29.0
  7
STYLE3
100
AcDbText
  0
LINE
  5
BA6
330
18
100
AcDbEntity
  8
目盛
100
AcDbLine
 10
384.9846713639758
 20
275.9197959811279
 30
0.0
 11
382.0070329090519
 21
276.2854040113435
 31
0.0
  0
LINE
  5
BA7
330
18
100
AcDbEntity
  8
目盛
100
AcDbLine
 10
384.7636229066651
 20
274.4919098153537
 30
0.0
 11
382.797752208366
 21
274.8598125165791
 31
0.0
  0
LINE
  5
BA8
330
18
100
AcDbEntity
  8
目盛
100
AcDbLine
 10
384.4533529238136
 20
273.0807210042339
 30
0.0
 11
382.5144622240233
 21
273.5713357759915
 31
0.0
  0
LINE
  5
BA9
330
18
100
AcDbEntity
  8
目盛
100
AcDbLine
 10
384.4134207973107
 20
284.5203861190379
 30
0.0
 11
382.4780024563468
 21
284.0162474025517
 31
0.0
  0
LINE
  5
BAA
330
18
100
AcDbEntity
  8
目盛
100
AcDbLine
 10
384.7335350955217
 20
283.1113977731068
 30
0.0
 11
381.7886535451786
 21
282.5389707869772
 31
0.0
  0
LINE
  5
BAB
330
18
100
AcDbEntity
  8
目盛
100
AcDbLine
 10
384.9645466110364
 20
281.6850896007302
 30
0.0
 11
382.9812042862702
 21
281.4274984075751
 31
0.0
  0
LINE
  5
BAC
330
18
100
AcDbEntity
  8
目盛
100
AcDbLine
 10
385.1055436469426
 20
280.2470905886464
 30
0.0
 11
383.1099407103584
 21
280.1145427878463
 31
0.0
  0
LINE
  5
BAD
330
18
100
AcDbEntity
  8
目盛
100
AcDbLine
 10
379.6485040190134
 20
288.418983284373
 30
0.0
 11
382.2723631404315
 21
289.8734121451121
 31
0.0
  0
LINE
  5
BAE
330
18
100
AcDbEntity
  8
目盛
100
AcDbLine
 10
379.8266309188765
 20
293.4453139676002
 30
0.0
 11
378.2900638716894
 21
292.1650945686303
 31
0.0
  0
LINE
  5
BAF
330
18
100
AcDbEntity
  8
目盛
100
AcDbLine
 10
380.7161970555329
 20
292.3067212347046
 30
0.0
 11
379.1022764312451
 21
291.1255098994647
 31
0.0
  0
LINE
  5
BB0
330
18
100
AcDbEntity
  8
目盛
100
AcDbLine
 10
381.5325150073897
 20
291.114518934604
 30
0.0
 11
379.8476102133755
 21
290.0369773645904
 31
0.0
  0
LINE
  5
BB1
330
18
100
AcDbEntity
  8
目盛
100
AcDbLine
 10
382.9328216120813
 20
288.5882989477186
 30
0.0
 11
381.1261510263547
 21
287.7304286809123
 31
0.0
  0
LINE
  5
BB2
330
18
100
AcDbEntity
  8
目盛
100
AcDbLine
 10
383.5112838944864
 20
287.2642510971017
 30
0.0
 11
381.6543122407246
 21
286.5215154260013
 31
0.0
  0
LINE
  5
BB3
330
18
100
AcDbEntity
  8
目盛
100
AcDbLine
 10
384.0054670612924
 20
285.9064940052276
 30
0.0
 11
382.1055229582431
 21
285.2818241682032
 31
0.0
  0
LINE
  5
BB4
330
18
100
AcDbEntity
  8
目盛
100
AcDbLine
 10
373.1660226088595
 20
298.9163993142899
 30
0.0
 11
372.2086388929782
 21
297.1604333634338
 31
0.0
  0
LINE
  5
BB5
330
18
100
AcDbEntity
  8
目盛
100
AcDbLine
 10
374.4122642258523
 20
298.1852337003802
 30
0.0
 11
373.3465116737108
 21
296.4928473681251
 31
0.0
  0
LINE
  5
BB6
330
18
100
AcDbEntity
  8
目盛
100
AcDbLine
 10
367.7981797514379
 20
301.0200339270344
 30
0.0
 11
367.3075649796803
 21
299.0811432272442
 31
0.0
  0
LINE
  5
BB7
102
{ACAD_REACTORS
330
AE3
102
}
330
18
100
AcDbEntity
  8
ROGO
 62
     4
100
AcDbLine
 10
364.5061591506879
 20
288.3868932127427
 30
0.0
 11
365.1674304237296
 21
288.7534418648554
 31
0.0
  0
LINE
  5
BB8
102
{ACAD_REACTORS
330
AE3
102
}
330
18
100
AcDbEntity
  8
ROGO
 62
     4
100
AcDbLine
 10
364.1510349027668
 20
290.5360685832349
 30
0.0
 11
364.8123061758085
 21
290.9026172353476
 31
0.0
  0
LINE
  5
BB9
102
{ACAD_REACTORS
330
AE3
102
}
330
18
100
AcDbEntity
  8
ROGO
 62
     4
100
AcDbLine
 10
364.2226189802169
 20
289.4027363075527
 30
0.0
 11
364.8123061758085
 21
290.9026172353476
 31
0.0
  0
LINE
  5
BBA
102
{ACAD_REACTORS
330
AE3
102
}
330
18
100
AcDbEntity
  8
ROGO
 62
     4
100
AcDbLine
 10
364.2226189802169
 20
289.4027363075527
 30
0.0
 11
365.1674304237296
 21
288.7534418648554
 31
0.0
  0
LINE
  5
BBB
102
{ACAD_REACTORS
330
AE3
102
}
330
18
100
AcDbEntity
  8
ROGO
 62
     4
100
AcDbLine
 10
363.950016787478
 20
290.1685043466493
 30
0.0
 11
364.1510349027668
 21
290.5360685832349
 31
0.0
  0
LINE
  5
BBC
102
{ACAD_REACTORS
330
AE3
102
}
330
18
100
AcDbEntity
  8
ROGO
 62
     4
100
AcDbLine
 10
363.9391077465461
 20
290.4185954422931
 30
0.0
 11
363.950016787478
 21
290.1685043466493
 31
0.0
  0
TEXT
  5
BBD
330
18
100
AcDbEntity
  8
文字
100
AcDbText
 10
363.7405760035665
 20
295.3342434355741
 30
0.0
 40
2.0
  1
1
 50
29.0
  7
STYLE3
100
AcDbText
  0
LINE
  5
BBE
330
18
100
AcDbEntity
  8
目盛
100
AcDbLine
 10
369.1871018903769
 20
300.6217669125155
 30
0.0
 11
368.5757112804507
 21
298.7175081270311
 31
0.0
  0
LINE
  5
BBF
330
18
100
AcDbEntity
  8
目盛
100
AcDbLine
 10
370.5482759159907
 20
300.1370746442844
 30
0.0
 11
369.8185223473154
 21
298.2749630125593
 31
0.0
  0
LINE
  5
BC0
330
18
100
AcDbEntity
  8
目盛
100
AcDbLine
 10
371.8763298962615
 20
299.5678699812892
 30
0.0
 11
370.6084751110394
 21
296.8489466201793
 31
0.0
  0
LINE
  5
BC1
330
18
100
AcDbEntity
  8
目盛
100
AcDbLine
 10
364.9591047745439
 20
301.5513523671967
 30
0.0
 11
364.5934967443285
 21
298.5737139122727
 31
0.0
  0
LINE
  5
BC2
330
18
100
AcDbEntity
  8
目盛
100
AcDbLine
 10
359.1938111549416
 20
301.5312276142574
 30
0.0
 11
359.4514023480967
 21
299.5478852894911
 31
0.0
  0
LINE
  5
BC3
330
18
100
AcDbEntity
  8
目盛
100
AcDbLine
 10
360.6318101670256
 20
301.6722246501635
 30
0.0
 11
360.7643579678255
 21
299.6766217135793
 31
0.0
  0
LINE
  5
BC4
330
18
100
AcDbEntity
  8
目盛
100
AcDbLine
 10
362.0758248936755
 20
301.7226507555755
 30
0.0
 11
362.0828061965058
 21
299.7226629402598
 31
0.0
  0
LINE
  5
BC5
330
18
100
AcDbEntity
  8
目盛
100
AcDbLine
 10
363.5201564684727
 20
301.6823069216929
 30
0.0
 11
363.4015437213208
 21
299.6858272658453
 31
0.0
  0
LINE
  5
BC6
330
18
100
AcDbEntity
  8
目盛
100
AcDbLine
 10
366.3869909403181
 20
301.330303909886
 30
0.0
 11
366.0190882390926
 21
299.3644332115869
 31
0.0
  0
LINE
  5
BC7
330
18
100
AcDbEntity
  8
目盛
100
AcDbLine
 10
375.6101364009314
 20
297.3772587162008
 30
0.0
 11
374.440221050957
 21
295.7551310782221
 31
0.0
  0
LINE
  5
BC8
330
18
100
AcDbEntity
  8
目盛
100
AcDbLine
 10
376.7549116798775
 20
296.4956630698853
 30
0.0
 11
375.485450653473
 21
294.9501959228906
 31
0.0
  0
LINE
  5
BC9
330
18
100
AcDbEntity
  8
目盛
100
AcDbLine
 10
377.8420721576629
 20
295.5439260166872
 30
0.0
 11
375.7960770774753
 21
293.3498649118297
 31
0.0
  0
LINE
  5
BCA
330
18
100
AcDbEntity
  8
目盛
100
AcDbLine
 10
378.867327308558
 20
294.525803627948
 30
0.0
 11
377.414177966616
 21
293.1516286063391
 31
0.0
  0
CIRCLE
  5
BCB
330
18
100
AcDbEntity
  8
外形線
100
AcDbCircle
 10
362.1561098762254
 20
278.7227908794463
 30
0.0
 40
26.4
  0
LINE
  5
BCC
330
18
100
AcDbEntity
  8
想像線
 48
0.3
100
AcDbLine
 10
393.5022848138825
 20
251.0501091016027
 30
0.0
 11
398.3503810163462
 21
242.3039120302088
 31
0.0
  0
LINE
  5
BCD
330
18
100
AcDbEntity
  8
中心線
100
AcDbLine
 10
390.9691232405347
 20
249.4320575328589
 30
0.0
 11
395.6354294084406
 21
241.0138183652389
 31
0.0
  0
ARC
  5
BD0
330
18
100
AcDbEntity
  8
隠れ線2
100
AcDbCircle
 10
401.2209596478877
 20
270.1265578775515
 30
0.0
 40
15.0
100
AcDbArc
 50
167.8001085504572
 51
187.53650882043
  0
ARC
  5
BD1
330
18
100
AcDbEntity
  8
隠れ線2
100
AcDbCircle
 10
362.1561098762254
 20
278.7227908794463
 30
0.0
 40
25.0
100
AcDbArc
 50
347.4633117600856
 51
175.4349615995659
  0
ARC
  5
BD2
330
18
100
AcDbEntity
  8
隠れ線2
100
AcDbCircle
 10
322.2354191295135
 20
280.7125578775514
 30
0.0
 40
15.0
100
AcDbArc
 50
336.989059449769
 51
359.9999999999996
  0
ARC
  5
BD5
330
18
100
AcDbEntity
  8
寸法線
100
AcDbCircle
 10
363.7569596478877
 20
216.0125578775514
 30
0.0
 40
29.0
100
AcDbArc
 50
333.0390083929485
 51
43.29118697742813
  0
LINE
  5
BE1
330
18
100
AcDbEntity
  8
0
  6
ByBlock
 62
     2
100
AcDbLine
 10
363.7569596478877
 20
216.0125578775514
 30
0.0
 11
390.0474635134031
 21
203.7728925840348
 31
0.0
  0
MTEXT
  5
BE2
330
18
100
AcDbEntity
  8
0
  6
ByBlock
 62
     6
100
AcDbMText
 10
378.6410332975214
 20
211.1514460354463
 30
0.0
 40
2.5
 41
0.0
 71
     5
 72
     1
  1
\A1;R29
  7
STYLE3
 11
0.9065690988108787
 21
-0.4220574239143663
 31
0.0
 73
     1
 44
1.0
  0
INSERT
  5
BE3
330
18
100
AcDbEntity
  8
0
  6
ByBlock
 62
     2
100
AcDbBlockReference
  2
_OPEN
 10
390.0474635134031
 20
203.7728925840348
 30
0.0
 41
2.5
 42
2.5
 43
2.5
 50
335.0354504375514
  0
POINT
  5
BE4
330
18
100
AcDbEntity
  8
DEFPOINTS
  6
ByBlock
 62
     0
100
AcDbPoint
 10
390.0474635134031
 20
203.7728925840348
 30
0.0
  0
POINT
  5
BE5
330
18
100
AcDbEntity
  8
DEFPOINTS
  6
ByBlock
 62
     0
100
AcDbPoint
 10
363.7569596478877
 20
216.0125578775514
 30
0.0
  0
ARC
  5
BE6
330
18
100
AcDbEntity
  8
寸法線
100
AcDbCircle
 10
363.7569596478877
 20
216.0125578775514
 30
0.0
 40
290.0
100
AcDbArc
 50
174.7470563329166
 51
206.8090653592981
  0
LINE
  5
BE9
330
18
100
AcDbEntity
  8
中心線
 48
0.5
100
AcDbLine
 10
73.7569596478877
 20
244.9670308597419
 30
0.0
 11
73.7569596478877
 21
154.712809135419
 31
0.0
  0
LINE
  5
BEB
330
18
100
AcDbEntity
  8
想像線
 48
0.7
100
AcDbLine
 10
323.7569596478877
 20
265.7899269281864
 30
0.0
 11
323.7569596478877
 21
117.7921879376536
 31
0.0
  0
LINE
  5
C0E
330
18
100
AcDbEntity
  8
想像線
 48
0.3
100
AcDbLine
 10
140.9603343731137
 20
260.0572663837674
 30
0.0
 11
140.9603343731137
 21
243.5996976342462
 31
0.0
  0
LINE
  5
C0F
330
18
100
AcDbEntity
  8
想像線
 48
0.3
100
AcDbLine
 10
144.9603343731137
 20
260.1820555460814
 30
0.0
 11
144.9603343731137
 21
243.4989939888596
 31
0.0
  0
LINE
  5
C10
330
18
100
AcDbEntity
  8
想像線
 48
0.3
100
AcDbLine
 10
144.9603343731137
 20
154.0125578775514
 30
0.0
 11
144.9603343731137
 21
136.775351125734
 31
0.0
  0
LINE
  5
C11
330
18
100
AcDbEntity
  8
想像線
 48
0.3
100
AcDbLine
 10
140.9603343731137
 20
154.0125578775514
 30
0.0
 11
140.9603343731137
 21
136.953706104089
 31
0.0
  0
DIMENSION
  5
C20
330
18
100
AcDbEntity
  8
寸法線
100
AcDbDimension
  2
*D7
 10
144.9603343731137
 20
272.6252083517243
 30
0.0
 11
152.9662867540661
 21
275.1549702564862
 31
0.0
 70
    32
  1
(4)
 71
     5
 42
-1.0
  3
STYLE3
100
AcDbAlignedDimension
 13
140.9603343731137
 23
260.0572663837674
 33
0.0
 14
144.9603343731137
 24
260.1820555460814
 34
0.0
100
AcDbRotatedDimension
1001
ACAD
1000
DSTYLE
1002
{
1070
   271
1070
     2
1002
}
  0
DIMENSION
  5
C3C
330
18
100
AcDbEntity
  8
寸法線
100
AcDbDimension
  2
*D8
 10
144.9603343731137
 20
120.7980895248549
 30
0.0
 11
152.966286754066
 21
123.3278514296168
 31
0.0
 70
    32
  1
(4)
 71
     5
 42
-1.0
  3
STYLE3
100
AcDbAlignedDimension
 13
140.9603343731137
 23
136.953706104089
 33
0.0
 14
144.9603343731137
 24
136.775351125734
 34
0.0
100
AcDbRotatedDimension
1001
ACAD
1000
DSTYLE
1002
{
1070
   271
1070
     2
1002
}
  0
ARC
  5
C4B
330
18
100
AcDbEntity
  8
寸法線
100
AcDbCircle
 10
85.33284903224638
 20
134.5932421100304
 30
0.0
 40
2.25
100
AcDbArc
 50
13.9228970639766
 51
193.9228970639766
  0
POINT
  5
C5F
330
18
100
AcDbEntity
  8
DEFPOINTS
  6
ByBlock
 62
     0
100
AcDbPoint
 10
73.75695964788775
 20
216.0125578775514
 30
0.0
  0
POINT
  5
C60
330
18
100
AcDbEntity
  8
DEFPOINTS
  6
ByBlock
 62
     0
100
AcDbPoint
 10
85.00976235256059
 20
136.0125578775514
 30
0.0
  0
LINE
  5
C70
330
18
100
AcDbEntity
  8
0
  6
ByBlock
 62
     2
100
AcDbLine
 10
73.75695964788767
 20
216.0125578775515
 30
0.0
 11
36.2741359759202
 21
210.792615210448
 31
0.0
  0
LINE
  5
C71
330
18
100
AcDbEntity
  8
0
  6
ByBlock
 62
     2
100
AcDbLine
 10
84.79146314498944
 20
136.7771380143901
 30
0.0
 11
47.30863947302198
 21
131.5571953472866
 31
0.0
  0
LINE
  5
C72
330
18
100
AcDbEntity
  8
0
  6
ByBlock
 62
     2
100
AcDbLine
 10
37.85701615811505
 20
208.4889246216721
 30
0.0
 11
48.20186383472581
 21
134.2057138463081
 31
0.0
  0
INSERT
  5
C73
330
18
100
AcDbEntity
  8
0
  6
ByBlock
 62
     2
100
AcDbBlockReference
  2
_OPEN
 10
37.51218824786954
 20
210.9650291655707
 30
0.0
 41
2.5
 42
2.5
 43
2.5
 50
97.92814926428825
  0
INSERT
  5
C74
330
18
100
AcDbEntity
  8
0
  6
ByBlock
 62
     2
100
AcDbBlockReference
  2
_OPEN
 10
48.54669174497132
 20
131.7296093024094
 30
0.0
 41
2.5
 42
2.5
 43
2.5
 50
277.9281492642883
  0
POINT
  5
C76
330
18
100
AcDbEntity
  8
DEFPOINTS
  6
ByBlock
 62
     0
100
AcDbPoint
 10
73.75695964788767
 20
216.0125578775515
 30
0.0
  0
POINT
  5
C77
330
18
100
AcDbEntity
  8
DEFPOINTS
  6
ByBlock
 62
     0
100
AcDbPoint
 10
84.79146314498944
 20
136.7771380143901
 30
0.0
  0
POINT
  5
C78
330
18
100
AcDbEntity
  8
DEFPOINTS
  6
ByBlock
 62
     0
100
AcDbPoint
 10
48.54669174497132
 20
131.7296093024094
 30
0.0
  0
MTEXT
  5
C7B
330
18
100
AcDbEntity
  8
0
  6
ByBlock
 62
     6
100
AcDbMText
 10
41.23834987748169
 20
171.0345969160412
 30
0.0
 40
2.5
 41
0.0
 71
     5
 72
     1
  1
\A1;80
  7
STYLE3
 11
-0.1379311640982049
 21
0.990441817559474
 31
0.0
 73
     1
 44
1.0
  0
POINT
  5
C89
330
18
100
AcDbEntity
  8
DEFPOINTS
  6
ByBlock
 62
     0
100
AcDbPoint
 10
363.7569596478877
 20
216.0125578775514
 30
0.0
  0
LINE
  5
CCC
330
18
100
AcDbEntity
  8
0
  6
ByBlock
 62
     2
100
AcDbLine
 10
363.7569596478876
 20
216.0125578775516
 30
0.0
 11
102.5124223949233
 21
90.11064464552571
 31
0.0
  0
MTEXT
  5
CCD
330
18
100
AcDbEntity
  8
0
  6
ByBlock
 62
     6
100
AcDbMText
 10
172.2948187888509
 20
125.8223472289076
 30
0.0
 40
2.5
 41
0.0
 71
     5
 72
     1
  1
\A1;R290
  7
STYLE3
 11
0.9008432319067733
 21
0.4341445283862962
 31
0.0
 73
     1
 44
1.0
  0
INSERT
  5
CCE
330
18
100
AcDbEntity
  8
0
  6
ByBlock
 62
     2
100
AcDbBlockReference
  2
_OPEN
 10
102.5124223949233
 20
90.11064464552571
 30
0.0
 41
2.5
 42
2.5
 43
2.5
 50
205.7308713775058
  0
POINT
  5
CCF
330
18
100
AcDbEntity
  8
DEFPOINTS
  6
ByBlock
 62
     0
100
AcDbPoint
 10
102.5124223949233
 20
90.11064464552571
 30
0.0
  0
POINT
  5
CD0
330
18
100
AcDbEntity
  8
DEFPOINTS
  6
ByBlock
 62
     0
100
AcDbPoint
 10
363.7569596478876
 20
216.0125578775516
 30
0.0
  0
LINE
  5
CFF
330
18
100
AcDbEntity
  8
0
  6
ByBlock
 62
     2
100
AcDbLine
 10
73.7569596478877
 20
154.712809135419
 30
0.0
 11
73.7569596478877
 21
74.32916802998057
 31
0.0
  0
LINE
  5
D00
330
18
100
AcDbEntity
  8
0
  6
ByBlock
 62
     2
100
AcDbLine
 10
513.7569596478877
 20
90.23471927955723
 30
0.0
 11
513.7569596478877
 21
74.32916802998057
 31
0.0
  0
LINE
  5
D01
330
18
100
AcDbEntity
  8
0
  6
ByBlock
 62
     2
100
AcDbLine
 10
76.2569596478877
 20
75.57916802998057
 30
0.0
 11
511.2569596478876
 21
75.57916802998057
 31
0.0
  0
INSERT
  5
D02
330
18
100
AcDbEntity
  8
0
  6
ByBlock
 62
     2
100
AcDbBlockReference
  2
_OPEN
 10
73.7569596478877
 20
75.57916802998057
 30
0.0
 41
2.5
 42
2.5
 43
2.5
 50
180.0
  0
INSERT
  5
D03
330
18
100
AcDbEntity
  8
0
  6
ByBlock
 62
     2
100
AcDbBlockReference
  2
_OPEN
 10
513.7569596478877
 20
75.57916802998057
 30
0.0
 41
2.5
 42
2.5
 43
2.5
  0
MTEXT
  5
D04
330
18
100
AcDbEntity
  8
0
  6
ByBlock
 62
     6
100
AcDbMText
 10
293.7569596478877
 20
77.45416802998057
 30
0.0
 40
2.5
 41
0.0
 71
     5
 72
     1
  1
\A1;440
  7
STYLE3
 73
     1
 44
1.0
  0
POINT
  5
D05
330
18
100
AcDbEntity
  8
DEFPOINTS
  6
ByBlock
 62
     0
100
AcDbPoint
 10
73.7569596478877
 20
136.234586408231
 30
0.0
  0
POINT
  5
D06
330
18
100
AcDbEntity
  8
DEFPOINTS
  6
ByBlock
 62
     0
100
AcDbPoint
 10
513.7569596478877
 20
90.23471927955723
 30
0.0
  0
POINT
  5
D07
330
18
100
AcDbEntity
  8
DEFPOINTS
  6
ByBlock
 62
     0
100
AcDbPoint
 10
513.7569596478877
 20
75.57916802998057
 30
0.0
  0
LINE
  5
D09
330
18
100
AcDbEntity
  8
0
  6
ByBlock
 62
     2
100
AcDbLine
 10
73.7569596478877
 20
244.9670308597419
 30
0.0
 11
73.7569596478877
 21
285.238297027837
 31
0.0
  0
LINE
  5
D0A
330
18
100
AcDbEntity
  8
0
  6
ByBlock
 62
     2
100
AcDbLine
 10
323.7569596478877
 20
265.7899269281864
 30
0.0
 11
323.7569596478877
 21
285.238297027837
 31
0.0
  0
LINE
  5
D0B
330
18
100
AcDbEntity
  8
0
  6
ByBlock
 62
     2
100
AcDbLine
 10
76.2569596478877
 20
283.988297027837
 30
0.0
 11
321.2569596478877
 21
283.988297027837
 31
0.0
  0
INSERT
  5
D0C
330
18
100
AcDbEntity
  8
0
  6
ByBlock
 62
     2
100
AcDbBlockReference
  2
_OPEN
 10
73.7569596478877
 20
283.988297027837
 30
0.0
 41
2.5
 42
2.5
 43
2.5
 50
180.0
  0
INSERT
  5
D0D
330
18
100
AcDbEntity
  8
0
  6
ByBlock
 62
     2
100
AcDbBlockReference
  2
_OPEN
 10
323.7569596478877
 20
283.988297027837
 30
0.0
 41
2.5
 42
2.5
 43
2.5
  0
MTEXT
  5
D0E
330
18
100
AcDbEntity
  8
0
  6
ByBlock
 62
     6
100
AcDbMText
 10
198.7569596478877
 20
285.863297027837
 30
0.0
 40
2.5
 41
0.0
 71
     5
 72
     1
  1
\A1;250
  7
STYLE3
 73
     1
 44
1.0
  0
POINT
  5
D0F
330
18
100
AcDbEntity
  8
DEFPOINTS
  6
ByBlock
 62
     0
100
AcDbPoint
 10
73.7569596478877
 20
244.9670308597419
 30
0.0
  0
POINT
  5
D10
330
18
100
AcDbEntity
  8
DEFPOINTS
  6
ByBlock
 62
     0
100
AcDbPoint
 10
323.7569596478877
 20
265.7899269281864
 30
0.0
  0
POINT
  5
D11
330
18
100
AcDbEntity
  8
DEFPOINTS
  6
ByBlock
 62
     0
100
AcDbPoint
 10
323.7569596478877
 20
283.988297027837
 30
0.0
  0
LINE
  5
D14
330
18
100
AcDbEntity
  8
外形線
100
AcDbLine
 10
329.4069596478877
 20
238.8553821027521
 30
0.0
 11
331.1079596478877
 21
238.8125578775515
 31
0.0
  0
LINE
  5
D15
330
18
100
AcDbEntity
  8
隠れ線
 62
     4
 48
0.5
100
AcDbLine
 10
324.1069596478876
 20
238.9888144328893
 30
0.0
 11
329.4069596478877
 21
238.8553821027521
 31
0.0
  0
LINE
  5
D16
330
18
100
AcDbEntity
  8
外形線
100
AcDbLine
 10
329.4069596478877
 20
154.0125578775514
 30
0.0
 11
330.7569596478877
 21
154.0125578775514
 31
0.0
  0
LINE
  5
D17
330
18
100
AcDbEntity
  8
隠れ線
 62
     4
 48
0.5
100
AcDbLine
 10
324.1069596478878
 20
154.0125578775514
 30
0.0
 11
329.4069596478877
 21
154.0125578775514
 31
0.0
  0
LINE
  5
D1B
330
18
100
AcDbEntity
  8
外形線
100
AcDbLine
 10
393.2195488128431
 20
226.3459642435943
 30
0.0
 11
394.9150820687968
 21
227.0656754107926
 31
0.0
  0
LINE
  5
D1C
330
18
100
AcDbEntity
  8
隠れ線
 62
     4
 48
0.4
100
AcDbLine
 10
389.2465764971311
 20
224.6595375500767
 30
0.0
 11
393.2195488128431
 21
226.3459642435943
 31
0.0
  0
LINE
  5
D1F
330
18
100
AcDbEntity
  8
想像線
 48
0.5
100
AcDbLine
 10
392.1986072059301
 20
208.0233682920254
 30
0.0
 11
406.1925225201607
 21
215.780322215967
 31
0.0
  0
LINE
  5
D21
330
18
100
AcDbEntity
  8
隠れ線
 62
     4
 48
0.3
100
AcDbLine
 10
72.7569596478877
 20
221.0125578775514
 30
0.0
 11
74.75695964788771
 21
221.0125578775515
 31
0.0
  0
LINE
  5
D22
330
18
100
AcDbEntity
  8
隠れ線
 62
     4
 48
0.3
100
AcDbLine
 10
72.7569596478877
 20
211.0125578775514
 30
0.0
 11
74.75695964788771
 21
211.0125578775514
 31
0.0
  0
LINE
  5
D23
330
18
100
AcDbEntity
  8
隠れ線
 62
     4
 48
0.3
100
AcDbLine
 10
74.75695964788771
 20
221.0125578775515
 30
0.0
 11
74.75695964788771
 21
216.2469934404768
 31
0.0
  0
LINE
  5
D24
330
18
100
AcDbEntity
  8
隠れ線
 62
     4
 48
0.3
100
AcDbLine
 10
72.7569596478877
 20
221.0125578775514
 30
0.0
 11
72.7569596478877
 21
216.2469934404768
 31
0.0
  0
LINE
  5
D25
330
18
100
AcDbEntity
  8
隠れ線
 62
     4
 48
0.3
100
AcDbLine
 10
74.75695964788771
 20
215.7781223146261
 30
0.0
 11
74.75695964788771
 21
211.0125578775514
 31
0.0
  0
LINE
  5
D26
330
18
100
AcDbEntity
  8
隠れ線
 62
     4
 48
0.3
100
AcDbLine
 10
72.7569596478877
 20
215.7781223146261
 30
0.0
 11
72.7569596478877
 21
211.0125578775514
 31
0.0
  0
POINT
  5
D52
330
18
100
AcDbEntity
  8
DEFPOINTS
  6
ByBlock
 62
     0
100
AcDbPoint
 10
75.22143868837876
 20
216.5544006424111
 30
0.0
  0
POINT
  5
D53
330
18
100
AcDbEntity
  8
DEFPOINTS
  6
ByBlock
 62
     0
100
AcDbPoint
 10
73.7569596478877
 20
218.2625578775514
 30
0.0
  0
LINE
  5
D64
330
18
100
AcDbEntity
  8
外形線
100
AcDbLine
 10
387.0853014282549
 20
223.7421307124369
 30
0.0
 11
395.7251092413151
 21
203.3880190357766
 31
0.0
  0
LINE
  5
D92
330
18
100
AcDbEntity
  8
隠れ線2
100
AcDbLine
 10
413.7569596478877
 20
227.7625578775515
 30
0.0
 11
502.2569596478877
 21
227.7625578775515
 31
0.0
  0
LINE
  5
D93
330
18
100
AcDbEntity
  8
隠れ線2
100
AcDbLine
 10
413.7569596478877
 20
204.2625578775514
 30
0.0
 11
502.2569596478877
 21
204.2625578775514
 31
0.0
  0
LINE
  5
D94
330
18
100
AcDbEntity
  8
隠れ線2
100
AcDbLine
 10
503.7569596478877
 20
226.2625578775515
 30
0.0
 11
503.7569596478877
 21
205.7625578775514
 31
0.0
  0
ARC
  5
D95
330
18
100
AcDbEntity
  8
隠れ線2
100
AcDbCircle
 10
502.2569596478877
 20
226.2625578775515
 30
0.0
 40
1.5
100
AcDbArc
 50
0.0
 51
90.0
  0
ARC
  5
D96
330
18
100
AcDbEntity
  8
隠れ線2
100
AcDbCircle
 10
502.2569596478877
 20
205.7625578775514
 30
0.0
 40
1.5
100
AcDbArc
 50
270.0
 51
359.9999999999999
  0
TEXT
  5
E1C
330
18
100
AcDbEntity
  8
文字
100
AcDbText
 10
191.6757704631958
 20
357.9057974153719
 30
0.0
 40
4.0
  1
Model No.LA-22 Outside Dial Caliper Gauge
  7
STYLE3
100
AcDbText
  0
LINE
  5
E1D
330
18
100
AcDbEntity
  8
外形線
100
AcDbLine
 10
191.1430004631958
 20
355.4010804153719
 30
0.0
 11
321.1430004631958
 21
355.4010804153719
 31
0.0
  0
LINE
  5
E1E
330
18
100
AcDbEntity
  8
外形線
100
AcDbLine
 10
191.1430004631958
 20
354.4010804153719
 30
0.0
 11
321.1430004631958
 21
354.4010804153719
 31
0.0
  0
LINE
  5
E1F
330
18
100
AcDbEntity
  8
外形線
100
AcDbLine
 10
525.9755658651616
 20
10.68462387181902
 30
0.0
 11
525.9755658651616
 21
1.069845871819019
 31
0.0
  0
TEXT
  5
E20
330
18
100
AcDbEntity
  8
0
  6
Continuous
100
AcDbText
 10
498.1751678651617
 20
2.81798787181902
 30
0.0
 40
2.1
  1
Date
  7
STYLE3
100
AcDbText
  0
LINE
  5
E21
330
18
100
AcDbEntity
  8
外形線
100
AcDbLine
 10
496.2432168651615
 20
10.68462387181902
 30
0.0
 11
496.2432168651615
 21
1.069845871819019
 31
0.0
  0
TEXT
  5
E22
330
18
100
AcDbEntity
  8
0
  6
Continuous
100
AcDbText
 10
497.7918068651616
 20
6.151070871819015
 30
0.0
 40
3.0
  1
日 付
  7
STYLE3
100
AcDbText
  0
TEXT
  5
E23
330
18
100
AcDbEntity
  8
0
  6
Continuous
100
AcDbText
 10
506.9199748651616
 20
4.566128871819017
 30
0.0
 40
2.1
  1
2010.06.28
  7
STYLE3
100
AcDbText
  0
TEXT
  5
E24
330
18
100
AcDbEntity
  8
0
  6
Continuous
100
AcDbText
 10
488.0813968651617
 20
4.85748687181902
 30
0.0
 40
2.399999999999999
  1
1/1
  7
STYLE3
100
AcDbText
  0
LINE
  5
E25
330
18
100
AcDbEntity
  8
外形線
100
AcDbLine
 10
476.7131448651617
 20
10.68462387181902
 30
0.0
 11
476.7131448651617
 21
1.069845871819019
 31
0.0
  0
TEXT
  5
E26
330
18
100
AcDbEntity
  8
0
  6
Continuous
100
AcDbText
 10
477.9988918651616
 20
6.028865871819022
 30
0.0
 40
3.0
  1
尺 度
  7
STYLE3
100
AcDbText
  0
TEXT
  5
E27
330
18
100
AcDbEntity
  8
0
  6
Continuous
100
AcDbText
 10
478.4621078651617
 20
3.109343871819021
 30
0.0
 40
2.1
  1
Scale
  7
STYLE3
100
AcDbText
  0
TEXT
  5
E28
330
18
100
AcDbEntity
  8
0
  6
Continuous
100
AcDbText
 10
460.8527178651617
 20
2.817986871819016
 30
0.0
 40
2.1
  1
Unit
  7
STYLE3
100
AcDbText
  0
LINE
  5
E29
330
18
100
AcDbEntity
  8
外形線
100
AcDbLine
 10
459.2235268651617
 20
10.68462387181902
 30
0.0
 11
459.2235268651617
 21
1.069845871819019
 31
0.0
  0
TEXT
  5
E2A
330
18
100
AcDbEntity
  8
0
  6
Continuous
100
AcDbText
 10
460.6809968651616
 20
6.320223871819017
 30
0.0
 40
3.0
  1
単位
  7
STYLE3
100
AcDbText
  0
TEXT
  5
E2B
330
18
100
AcDbEntity
  8
0
  6
Continuous
100
AcDbText
 10
468.7230438651616
 20
4.566129871819022
 30
0.0
 40
2.399999999999999
  1
mm
  7
STYLE3
100
AcDbText
  0
TEXT
  5
E2C
330
18
100
AcDbEntity
  8
0
  6
Continuous
100
AcDbText
 10
527.3245298651617
 20
6.605625871819015
 30
0.0
 40
3.0
  1
株式会社　尾崎製作所
  7
STYLE3
100
AcDbText
  0
TEXT
  5
E2D
330
18
100
AcDbEntity
  8
0
  6
Continuous
100
AcDbText
 10
528.1990088651617
 20
2.817986871819016
 30
0.0
 40
2.1
  1
OZAKI MFG. CO., LTD.
  7
STYLE3
100
AcDbText
  0
LINE
  5
E2E
330
18
100
AcDbEntity
  8
外形線
100
AcDbLine
 10
423.9527998651616
 20
1.069845871819019
 30
0.0
 11
423.9527998651616
 21
21.46482887181902
 31
0.0
  0
LINE
  5
E2F
330
18
100
AcDbEntity
  8
外形線
100
AcDbLine
 10
423.9527998651616
 20
21.46482887181902
 30
0.0
 11
564.7442178651616
 21
21.46482887181902
 31
0.0
  0
LINE
  5
E30
330
18
100
AcDbEntity
  8
外形線
100
AcDbLine
 10
423.9527998651616
 20
10.68462387181902
 30
0.0
 11
564.7442178651616
 21
10.68462387181902
 31
0.0
  0
TEXT
  5
E31
330
18
100
AcDbEntity
  8
0
  6
Continuous
100
AcDbText
 10
425.4102668651616
 20
12.58261387181902
 30
0.0
 40
2.1
  1
Design and specifications are subject to change without notice for future improvement.
  7
STYLE3
100
AcDbText
  0
TEXT
  5
E32
330
18
100
AcDbEntity
  8
0
  6
Continuous
100
AcDbText
 10
425.7017608651617
 20
16.51176187181902
 30
0.0
 40
3.5
  1
仕様及び外観は予告なく変更される場合がございますのでご了承下さい。
  7
STYLE3
100
AcDbText
  0
TEXT
  5
E33
330
18
100
AcDbEntity
  8
0
  6
Continuous
100
AcDbText
 10
425.1187758651616
 20
2.817985871819018
 30
0.0
 40
2.1
  1
3RD Angle Projection
  7
STYLE3
100
AcDbText
  0
TEXT
  5
E34
330
18
100
AcDbEntity
  8
0
  6
Continuous
100
AcDbText
 10
427.7422178651617
 20
6.314268871819017
 30
0.0
 40
3.0
  1
三　　角　　法
  7
STYLE3
100
AcDbText
  0
ENDSEC
  0
SECTION
  2
OBJECTS
  0
DICTIONARY
  5
C
330
0
100
AcDbDictionary
281
     1
  3
ACAD_COLOR
350
DAC
  3
ACAD_GROUP
350
D
  3
ACAD_LAYOUT
350
DAF
  3
ACAD_MATERIAL
350
DAB
  3
ACAD_MLINESTYLE
350
1B
  3
ACAD_PLOTSETTINGS
350
DB0
  3
ACAD_PLOTSTYLENAME
350
DA9
  3
ACAD_TABLESTYLE
350
DAD
  3
AcDbVariableDictionary
350
DB9
  0
DICTIONARY
  5
DC8
330
18
100
AcDbDictionary
280
     1
281
     1
  3
ACAD_SORTENTS
360
DC9
  0
DICTIONARY
  5
DAC
102
{ACAD_REACTORS
330
C
102
}
330
C
100
AcDbDictionary
281
     1
  0
DICTIONARY
  5
D
102
{ACAD_REACTORS
330
C
102
}
330
C
100
AcDbDictionary
281
     1
  0
DICTIONARY
  5
DAF
102
{ACAD_REACTORS
330
C
102
}
330
C
100
AcDbDictionary
281
     1
  3
Model
350
DB1
  3
レイアウト1
350
DB2
  0
DICTIONARY
  5
DAB
102
{ACAD_REACTORS
330
C
102
}
330
C
100
AcDbDictionary
281
     1
  0
DICTIONARY
  5
1B
102
{ACAD_REACTORS
330
C
102
}
330
C
100
AcDbDictionary
281
     1
  3
STANDARD
350
1C
  0
DICTIONARY
  5
DB0
102
{ACAD_REACTORS
330
C
102
}
330
C
100
AcDbDictionary
281
     1
  0
ACDBDICTIONARYWDFLT
  5
DA9
102
{ACAD_REACTORS
330
C
102
}
330
C
100
AcDbDictionary
281
     1
  3
Normal
350
DAA
100
AcDbDictionaryWithDefault
340
DAA
  0
DICTIONARY
  5
DAD
102
{ACAD_REACTORS
330
C
102
}
330
C
100
AcDbDictionary
281
     1
  3
Standard
350
DAE
  0
DICTIONARY
  5
DB9
102
{ACAD_REACTORS
330
C
102
}
330
C
100
AcDbDictionary
281
     1
  3
CTABLESTYLE
350
DBA
  0
SORTENTSTABLE
  5
DC9
102
{ACAD_REACTORS
330
DC8
102
}
330
DC8
100
AcDbSortentsTable
330
18
331
28A
  5
28A
331
1C4
  5
1C4
331
185
  5
185
331
24B
  5
24B
331
530
  5
530
331
56F
  5
56F
331
18D
  5
18D
331
538
  5
538
331
5AE
  5
5AE
331
577
  5
577
331
2BA
  5
2BA
331
195
  5
195
331
25B
  5
25B
331
540
  5
540
331
5B6
  5
5B6
331
5BE
  5
5BE
331
548
  5
548
331
2C2
  5
2C2
331
19D
  5
19D
331
57F
  5
57F
331
B21
  5
B21
331
AEA
  5
AEA
331
5C6
  5
5C6
331
587
  5
587
331
A8B
  5
A8B
331
B60
  5
B60
331
B9F
  5
B9F
331
B68
  5
B68
331
AF2
  5
AF2
331
A93
  5
A93
331
B29
  5
B29
331
BE6
  5
BE6
331
B70
  5
B70
331
AFA
  5
AFA
331
B31
  5
B31
331
BA7
  5
BA7
331
C0E
  5
C0E
331
B78
  5
B78
331
B39
  5
B39
331
A6C
  5
A6C
331
B02
  5
B02
331
BAF
  5
BAF
331
D1B
  5
D1B
331
BB7
  5
BB7
331
D23
  5
D23
331
319
  5
319
331
234
  5
234
331
550
  5
550
331
58F
  5
58F
331
321
  5
321
331
1AD
  5
1AD
331
558
  5
558
331
5CE
  5
5CE
331
597
  5
597
331
2E2
  5
2E2
331
1B5
  5
1B5
331
560
  5
560
331
283
  5
283
331
1BD
  5
1BD
331
59F
  5
59F
331
B41
  5
B41
331
B0A
  5
B0A
331
5A7
  5
5A7
331
A74
  5
A74
331
AB3
  5
AB3
331
B80
  5
B80
331
BBF
  5
BBF
331
B88
  5
B88
331
B12
  5
B12
331
A7C
  5
A7C
331
625
  5
625
331
ABB
  5
ABB
331
B49
  5
B49
331
BC7
  5
BC7
331
B90
  5
B90
331
B1A
  5
B1A
331
A84
  5
A84
331
B51
  5
B51
331
AE3
  5
AE3
331
B59
  5
B59
331
D04
  5
D04
331
D53
  5
D53
331
D0C
  5
D0C
331
D14
  5
D14
331
D93
  5
D93
331
CCD
  5
CCD
331
186
  5
186
331
531
  5
531
331
568
  5
568
331
5AF
  5
5AF
331
539
  5
539
331
18E
  5
18E
331
570
  5
570
331
5B7
  5
5B7
331
578
  5
578
331
2FA
  5
2FA
331
196
  5
196
331
25C
  5
25C
331
541
  5
541
331
580
  5
580
331
549
  5
549
331
19E
  5
19E
331
312
  5
312
331
5BF
  5
5BF
331
B61
  5
B61
331
B22
  5
B22
331
5C7
  5
5C7
331
AEB
  5
AEB
331
B98
  5
B98
331
B69
  5
B69
331
B2A
  5
B2A
331
A94
  5
A94
331
AF3
  5
AF3
331
BA0
  5
BA0
331
BA8
  5
BA8
331
B32
  5
B32
331
AFB
  5
AFB
331
B71
  5
B71
331
BB0
  5
BB0
331
B79
  5
B79
331
B03
  5
B03
331
AAC
  5
AAC
331
A6D
  5
A6D
331
B3A
  5
B3A
331
C0F
  5
C0F
331
D1C
  5
D1C
331
D24
  5
D24
331
588
  5
588
331
551
  5
551
331
31A
  5
31A
331
5CF
  5
5CF
331
559
  5
559
331
322
  5
322
331
1AE
  5
1AE
331
590
  5
590
331
598
  5
598
331
2E3
  5
2E3
331
1B6
  5
1B6
331
561
  5
561
331
5A0
  5
5A0
331
1BE
  5
1BE
331
B81
  5
B81
331
B0B
  5
B0B
331
61E
  5
61E
331
AB4
  5
AB4
331
B42
  5
B42
331
BB8
  5
BB8
331
B89
  5
B89
331
B4A
  5
B4A
331
626
  5
626
331
A7D
  5
A7D
331
B13
  5
B13
331
BC0
  5
BC0
331
BC8
  5
BC8
331
B52
  5
B52
331
A85
  5
A85
331
B1B
  5
B1B
331
B91
  5
B91
331
BD0
  5
BD0
331
AE4
  5
AE4
331
B5A
  5
B5A
331
C76
  5
C76
331
D05
  5
D05
331
D64
  5
D64
331
D0D
  5
D0D
331
D15
  5
D15
331
CCE
  5
CCE
331
D94
  5
D94
331
5A8
  5
5A8
331
569
  5
569
331
2EB
  5
2EB
331
1C6
  5
1C6
331
187
  5
187
331
532
  5
532
331
571
  5
571
331
53A
  5
53A
331
18F
  5
18F
331
255
  5
255
331
5B0
  5
5B0
331
5B8
  5
5B8
331
2BC
  5
2BC
331
25D
  5
25D
331
197
  5
197
331
206
  5
206
331
542
  5
542
331
579
  5
579
331
5C0
  5
5C0
331
54A
  5
54A
331
265
  5
265
331
22E
  5
22E
331
19F
  5
19F
331
313
  5
313
331
581
  5
581
331
B99
  5
B99
331
B23
  5
B23
331
AEC
  5
AEC
331
B62
  5
B62
331
BA1
  5
BA1
331
B6A
  5
B6A
331
AF4
  5
AF4
331
A5E
  5
A5E
331
A95
  5
A95
331
B2B
  5
B2B
331
B72
  5
B72
331
B33
  5
B33
331
60F
  5
60F
331
AFC
  5
AFC
331
BA9
  5
BA9
331
C10
  5
C10
331
B7A
  5
B7A
331
B3B
  5
B3B
331
AAD
  5
AAD
331
B04
  5
B04
331
BB1
  5
BB1
331
D25
  5
D25
331
C5F
  5
C5F
331
D35
  5
D35
331
5C8
  5
5C8
331
589
  5
589
331
31B
  5
31B
331
1A7
  5
1A7
331
26D
  5
26D
331
552
  5
552
331
591
  5
591
331
2DC
  5
2DC
331
1AF
  5
1AF
331
275
  5
275
331
55A
  5
55A
331
5D0
  5
5D0
331
599
  5
599
331
2E4
  5
2E4
331
27D
  5
27D
331
1B7
  5
1B7
331
246
  5
246
331
562
  5
562
331
5A1
  5
5A1
331
1BF
  5
1BF
331
C20
  5
C20
331
BB9
  5
BB9
331
B43
  5
B43
331
B0C
  5
B0C
331
61F
  5
61F
331
AB5
  5
AB5
331
B82
  5
B82
331
BC1
  5
BC1
331
B8A
  5
B8A
331
B14
  5
B14
331
627
  5
627
331
B4B
  5
B4B
331
B92
  5
B92
331
B1C
  5
B1C
331
A86
  5
A86
331
B53
  5
B53
331
BC9
  5
BC9
331
D06
  5
D06
331
AE5
  5
AE5
331
B5B
  5
B5B
331
BD1
  5
BD1
331
C77
  5
C77
331
D55
  5
D55
331
D0E
  5
D0E
331
D16
  5
D16
331
D95
  5
D95
331
CCF
  5
CCF
331
5A9
  5
5A9
331
533
  5
533
331
188
  5
188
331
1C7
  5
1C7
331
56A
  5
56A
331
5B1
  5
5B1
331
53B
  5
53B
331
190
  5
190
331
572
  5
572
331
5B9
  5
5B9
331
57A
  5
57A
331
198
  5
198
331
543
  5
543
331
582
  5
582
331
54B
  5
54B
331
2C5
  5
2C5
331
314
  5
314
331
5C1
  5
5C1
331
BE1
  5
BE1
331
B63
  5
B63
331
B24
  5
B24
331
AED
  5
AED
331
B9A
  5
B9A
331
BE9
  5
BE9
331
BA2
  5
BA2
331
B2C
  5
B2C
331
A96
  5
A96
331
A5F
  5
A5F
331
AF5
  5
AF5
331
B6B
  5
B6B
331
BAA
  5
BAA
331
B34
  5
B34
331
A67
  5
A67
331
AFD
  5
AFD
331
B73
  5
B73
331
BB2
  5
BB2
331
B7B
  5
B7B
331
AAE
  5
AAE
331
B05
  5
B05
331
B3C
  5
B3C
331
C11
  5
C11
331
D26
  5
D26
331
C60
  5
C60
331
D36
  5
D36
331
DC5
  5
DC5
331
CFF
  5
CFF
331
1A0
  5
1A0
331
5C9
  5
5C9
331
553
  5
553
331
2CD
  5
2CD
331
1A8
  5
1A8
331
31C
  5
31C
331
58A
  5
58A
331
5D1
  5
5D1
331
55B
  5
55B
331
23F
  5
23F
331
2DD
  5
2DD
331
592
  5
592
331
59A
  5
59A
331
247
  5
247
331
1B8
  5
1B8
331
2E5
  5
2E5
331
563
  5
563
331
5A2
  5
5A2
331
286
  5
286
331
52C
  5
52C
331
B83
  5
B83
331
B44
  5
B44
331
620
  5
620
331
AB6
  5
AB6
331
B0D
  5
B0D
331
BBA
  5
BBA
331
B8B
  5
B8B
331
B4C
  5
B4C
331
628
  5
628
331
B15
  5
B15
331
BC2
  5
BC2
331
BCA
  5
BCA
331
B54
  5
B54
331
A87
  5
A87
331
B1D
  5
B1D
331
B93
  5
B93
331
C70
  5
C70
331
BD2
  5
BD2
331
AE6
  5
AE6
331
B5C
  5
B5C
331
C78
  5
C78
331
D07
  5
D07
331
D0F
  5
D0F
331
D17
  5
D17
331
D96
  5
D96
331
1C0
  5
1C0
331
5AA
  5
5AA
331
56B
  5
56B
331
1C8
  5
1C8
331
189
  5
189
331
534
  5
534
331
573
  5
573
331
2B6
  5
2B6
331
191
  5
191
331
53C
  5
53C
331
5B2
  5
5B2
331
5BA
  5
5BA
331
544
  5
544
331
199
  5
199
331
25F
  5
25F
331
57B
  5
57B
331
5C2
  5
5C2
331
54C
  5
54C
331
315
  5
315
331
583
  5
583
331
5F1
  5
5F1
331
B9B
  5
B9B
331
B25
  5
B25
331
AEE
  5
AEE
331
B64
  5
B64
331
BE2
  5
BE2
331
BA3
  5
BA3
331
B6C
  5
B6C
331
AF6
  5
AF6
331
A97
  5
A97
331
B2D
  5
B2D
331
B74
  5
B74
331
B35
  5
B35
331
A68
  5
A68
331
AFE
  5
AFE
331
BAB
  5
BAB
331
CD0
  5
CD0
331
BB3
  5
BB3
331
B3D
  5
B3D
331
AAF
  5
AAF
331
B06
  5
B06
331
B7C
  5
B7C
331
D1F
  5
D1F
331
D37
  5
D37
331
DC6
  5
DC6
331
5CA
  5
5CA
331
58B
  5
58B
331
31D
  5
31D
331
1A9
  5
1A9
331
554
  5
554
331
593
  5
593
331
55C
  5
55C
331
5D2
  5
5D2
331
1B9
  5
1B9
331
564
  5
564
331
59B
  5
59B
331
287
  5
287
331
52D
  5
52D
331
5A3
  5
5A3
331
A70
  5
A70
331
BBB
  5
BBB
331
B45
  5
B45
331
A78
  5
A78
331
621
  5
621
331
B0E
  5
B0E
331
B84
  5
B84
331
BC3
  5
BC3
331
B8C
  5
B8C
331
B16
  5
B16
331
629
  5
629
331
A80
  5
A80
331
B4D
  5
B4D
331
D00
  5
D00
331
B94
  5
B94
331
B55
  5
B55
331
B1E
  5
B1E
331
BCB
  5
BCB
331
C71
  5
C71
331
AE7
  5
AE7
331
B5D
  5
B5D
331
D57
  5
D57
331
C89
  5
C89
331
D10
  5
D10
331
1C1
  5
1C1
331
5AB
  5
5AB
331
535
  5
535
331
1C9
  5
1C9
331
18A
  5
18A
331
56C
  5
56C
331
5B3
  5
5B3
331
574
  5
574
331
258
  5
258
331
192
  5
192
331
53D
  5
53D
331
5BB
  5
5BB
331
57C
  5
57C
331
2BF
  5
2BF
331
19A
  5
19A
331
260
  5
260
331
545
  5
545
331
584
  5
584
331
54D
  5
54D
331
316
  5
316
331
5C3
  5
5C3
331
959
  5
959
331
BE3
  5
BE3
331
B65
  5
B65
331
B26
  5
B26
331
AEF
  5
AEF
331
B9C
  5
B9C
331
BEB
  5
BEB
331
BA4
  5
BA4
331
B2E
  5
B2E
331
AF7
  5
AF7
331
A98
  5
A98
331
B6D
  5
B6D
331
BAC
  5
BAC
331
B36
  5
B36
331
A69
  5
A69
331
AFF
  5
AFF
331
B75
  5
B75
331
BB4
  5
BB4
331
B7D
  5
B7D
331
B07
  5
B07
331
B3E
  5
B3E
331
D30
  5
D30
331
D38
  5
D38
331
DC7
  5
DC7
331
5CB
  5
5CB
331
555
  5
555
331
31E
  5
31E
331
1AA
  5
1AA
331
239
  5
239
331
58C
  5
58C
331
5D3
  5
5D3
331
55D
  5
55D
331
2DF
  5
2DF
331
594
  5
594
331
5EB
  5
5EB
331
59C
  5
59C
331
565
  5
565
331
1BA
  5
1BA
331
280
  5
280
331
5A4
  5
5A4
331
52E
  5
52E
331
A71
  5
A71
331
AB0
  5
AB0
331
B85
  5
B85
331
B46
  5
B46
331
AB8
  5
AB8
331
622
  5
622
331
A79
  5
A79
331
B0F
  5
B0F
331
BBC
  5
BBC
331
BC4
  5
BC4
331
B4E
  5
B4E
331
A81
  5
A81
331
B17
  5
B17
331
B8D
  5
B8D
331
D50
  5
D50
331
BCC
  5
BCC
331
B56
  5
B56
331
B1F
  5
B1F
331
B95
  5
B95
331
C72
  5
C72
331
D01
  5
D01
331
B5E
  5
B5E
331
D09
  5
D09
331
D11
  5
D11
331
1C2
  5
1C2
331
56D
  5
56D
331
1CA
  5
1CA
331
18B
  5
18B
331
536
  5
536
331
5AC
  5
5AC
331
575
  5
575
331
53E
  5
53E
331
193
  5
193
331
259
  5
259
331
5B4
  5
5B4
331
5BC
  5
5BC
331
546
  5
546
331
19B
  5
19B
331
57D
  5
57D
331
5C4
  5
5C4
331
585
  5
585
331
317
  5
317
331
54E
  5
54E
331
AE8
  5
AE8
331
B9D
  5
B9D
331
B66
  5
B66
331
AF0
  5
AF0
331
603
  5
603
331
A91
  5
A91
331
B27
  5
B27
331
BE4
  5
BE4
331
BA5
  5
BA5
331
B6E
  5
B6E
331
AF8
  5
AF8
331
B2F
  5
B2F
331
B76
  5
B76
331
B37
  5
B37
331
A6A
  5
A6A
331
B00
  5
B00
331
BAD
  5
BAD
331
BB5
  5
BB5
331
B3F
  5
B3F
331
B7E
  5
B7E
331
C4B
  5
C4B
331
D21
  5
D21
331
269
  5
269
331
5CC
  5
5CC
331
58D
  5
58D
331
31F
  5
31F
331
1AB
  5
1AB
331
556
  5
556
331
595
  5
595
331
55E
  5
55E
331
1B3
  5
1B3
331
242
  5
242
331
5EC
  5
5EC
331
1BB
  5
1BB
331
566
  5
566
331
59D
  5
59D
331
B08
  5
B08
331
52F
  5
52F
331
5A5
  5
5A5
331
A72
  5
A72
331
AB1
  5
AB1
331
BBD
  5
BBD
331
B47
  5
B47
331
B10
  5
B10
331
623
  5
623
331
AB9
  5
AB9
331
B86
  5
B86
331
BC5
  5
BC5
331
B8E
  5
B8E
331
B18
  5
B18
331
A82
  5
A82
331
B4F
  5
B4F
331
D02
  5
D02
331
C3C
  5
C3C
331
B96
  5
B96
331
B57
  5
B57
331
BCD
  5
BCD
331
C73
  5
C73
331
D51
  5
D51
331
D0A
  5
D0A
331
B5F
  5
B5F
331
BD5
  5
BD5
331
C7B
  5
C7B
331
184
  5
184
331
1C3
  5
1C3
331
5AD
  5
5AD
331
537
  5
537
331
252
  5
252
331
18C
  5
18C
331
56E
  5
56E
331
5B5
  5
5B5
331
576
  5
576
331
203
  5
203
331
194
  5
194
331
2B9
  5
2B9
331
53F
  5
53F
331
57E
  5
57E
331
547
  5
547
331
19C
  5
19C
331
262
  5
262
331
5BD
  5
5BD
331
AE9
  5
AE9
331
586
  5
586
331
54F
  5
54F
331
5C5
  5
5C5
331
A8A
  5
A8A
331
B20
  5
B20
331
BE5
  5
BE5
331
B67
  5
B67
331
B28
  5
B28
331
A92
  5
A92
331
AF1
  5
AF1
331
B9E
  5
B9E
331
BA6
  5
BA6
331
B30
  5
B30
331
AF9
  5
AF9
331
A9A
  5
A9A
331
B6F
  5
B6F
331
BAE
  5
BAE
331
B77
  5
B77
331
A6B
  5
A6B
331
B01
  5
B01
331
B38
  5
B38
331
BB6
  5
BB6
331
B7F
  5
B7F
331
D22
  5
D22
331
318
  5
318
331
5CD
  5
5CD
331
557
  5
557
331
272
  5
272
331
1AC
  5
1AC
331
320
  5
320
331
58E
  5
58E
331
596
  5
596
331
27A
  5
27A
331
243
  5
243
331
1B4
  5
1B4
331
2E1
  5
2E1
331
55F
  5
55F
331
5ED
  5
5ED
331
59E
  5
59E
331
1BC
  5
1BC
331
567
  5
567
331
B09
  5
B09
331
5A6
  5
5A6
331
61C
  5
61C
331
A73
  5
A73
331
AB2
  5
AB2
331
B40
  5
B40
331
B87
  5
B87
331
B48
  5
B48
331
ABA
  5
ABA
331
624
  5
624
331
A7B
  5
A7B
331
B11
  5
B11
331
BBE
  5
BBE
331
BC6
  5
BC6
331
B50
  5
B50
331
B19
  5
B19
331
A83
  5
A83
331
ADA
  5
ADA
331
B8F
  5
B8F
331
D52
  5
D52
331
B58
  5
B58
331
AE2
  5
AE2
331
B97
  5
B97
331
C74
  5
C74
331
D03
  5
D03
331
D0B
  5
D0B
331
CCC
  5
CCC
331
D92
  5
D92
  0
LAYOUT
  5
DB1
102
{ACAD_REACTORS
330
DAF
102
}
330
DAF
100
AcDbPlotSettings
  1

  2
none_device
  4
ISO_A4_(210.00_x_297.00_MM)
  6

 40
7.5
 41
20.0
 42
7.5
 43
20.0
 44
210.0
 45
297.0
 46
0.0
 47
0.0
 48
0.0
 49
0.0
140
0.0
141
0.0
142
1.0
143
2.261003353191355
 70
 11952
 72
     1
 73
     1
 74
     0
  7
AutoCad LT 98.ctb
 75
     0
147
0.4422815200997037
 76
     0
 77
     2
 78
   300
148
6.862273098760283
149
1.977935860194037
100
AcDbLayout
  1
Model
 70
     1
 71
     0
 10
0.0
 20
0.0
 11
12.0
 21
9.0
 12
0.0
 22
0.0
 32
0.0
 14
0.0
 24
0.0
 34
0.0
 15
0.0
 25
0.0
 35
0.0
146
0.0
 13
0.0
 23
0.0
 33
0.0
 16
1.0
 26
0.0
 36
0.0
 17
0.0
 27
1.0
 37
0.0
 76
     0
330
18
1001
ACAD_PSEXT
1000
なし
1000
なし
1000
適切ではありません
1000
新しいプロッタ環境設定名を選択しない限り、レイアウトは印刷されません。
1070
     0
  0
LAYOUT
  5
DB2
102
{ACAD_REACTORS
330
DAF
102
}
330
DAF
100
AcDbPlotSettings
  1

  2
WIDR Printer
  4

  6

 40
0.0
 41
0.0
 42
0.0
 43
0.0
 44
0.0
 45
0.0
 46
0.0
 47
0.0
 48
0.0
 49
0.0
140
0.0
141
0.0
142
1.0
143
1.0
 70
   688
 72
     0
 73
     0
 74
     5
  7
AutoCad LT 98.ctb
 75
    16
147
1.0
 76
     0
 77
     2
 78
   300
148
0.0
149
0.0
100
AcDbLayout
  1
レイアウト1
 70
     1
 71
     1
 10
0.0
 20
0.0
 11
420.0
 21
297.0
 12
0.0
 22
0.0
 32
0.0
 14
1.000000000000000E+20
 24
1.000000000000000E+20
 34
1.000000000000000E+20
 15
-1.000000000000000E+20
 25
-1.000000000000000E+20
 35
-1.000000000000000E+20
146
0.0
 13
0.0
 23
0.0
 33
0.0
 16
1.0
 26
0.0
 36
0.0
 17
0.0
 27
1.0
 37
0.0
 76
     0
330
15
  0
MLINESTYLE
  5
1C
102
{ACAD_REACTORS
330
1B
102
}
330
1B
100
AcDbMlineStyle
  2
STANDARD
 70
     0
  3

 62
   256
 51
90.0
 52
90.0
 71
     2
 49
0.5
 62
   256
  6
BYLAYER
 49
-0.5
 62
   256
  6
BYLAYER
  0
ACDBPLACEHOLDER
  5
DAA
102
{ACAD_REACTORS
330
DA9
102
}
330
DA9
  0
ACAD_PROXY_OBJECT
  5
DAE
102
{ACAD_REACTORS
330
DAD
102
}
330
DAD
100
AcDbProxyObject
 90
      499
 91
      503
 95
  2555929
 70
     0
 93
     1849
310
4214DD185B99185C992420000000000000F83F0000000000003E0FC00000000000004901028000000C1008070000C3001FDFF8000000C1003FBFF000000182007F7FE00000030400FEFFC00000060801FDFF8000000C1003FBFF000000182000000000000000C2020B0000001820100E000186003FBFF000000182007F7FE0
310
0000030400FEFFC00000060801FDFF8000000C1003FBFF000000182007F7FE0000003040000000000000012404160000003040201C00030C007F7FE00000030400FEFFC00000060801FDFF8000000C1003FBFF000000182007F7FE00000030400FEFFC000000608000
340
F
340
F
340
F
 94
        0
  0
DICTIONARYVAR
  5
DBA
102
{ACAD_REACTORS
330
DB9
102
}
330
DB9
100
DictionaryVariables
280
     0
  1
STANDARD
  0
ENDSEC
  0
EOF
