  0
SECTION
  2
HEADER
  9
$ACADVER
  1
AC1018
  9
$ACADMAINTVER
 70
     0
  9
$DWGCODEPAGE
  3
ANSI_932
  9
$INSBASE
 10
0.0
 20
0.0
 30
0.0
  9
$EXTMIN
 10
-0.4345321105388394
 20
-0.423088542624555
 30
-0.0000610323622112
  9
$EXTMAX
 10
565.4345373801231
 20
377.9230920659252
 30
1.000061041675721
  9
$LIMMIN
 10
0.0
 20
0.0
  9
$LIMMAX
 10
420.0
 20
297.0
  9
$ORTHOMODE
 70
     0
  9
$REGENMODE
 70
     1
  9
$FILLMODE
 70
     1
  9
$QTEXTMODE
 70
     0
  9
$MIRRTEXT
 70
     1
  9
$LTSCALE
 40
1.0
  9
$ATTMODE
 70
     1
  9
$TEXTSIZE
 40
2.5
  9
$TRACEWID
 40
1.0
  9
$TEXTSTYLE
  7
STYLE3
  9
$CLAYER
  8
文字
  9
$CELTYPE
  6
BYLAYER
  9
$CECOLOR
 62
   256
  9
$CELTSCALE
 40
1.0
  9
$DISPSILH
 70
     0
  9
$DIMSCALE
 40
1.0
  9
$DIMASZ
 40
2.5
  9
$DIMEXO
 40
0.0
  9
$DIMDLI
 40
3.75
  9
$DIMRND
 40
0.0
  9
$DIMDLE
 40
0.0
  9
$DIMEXE
 40
1.25
  9
$DIMTP
 40
0.0
  9
$DIMTM
 40
0.0
  9
$DIMTXT
 40
2.5
  9
$DIMCEN
 40
2.5
  9
$DIMTSZ
 40
0.0
  9
$DIMTOL
 70
     0
  9
$DIMLIM
 70
     0
  9
$DIMTIH
 70
     0
  9
$DIMTOH
 70
     0
  9
$DIMSE1
 70
     0
  9
$DIMSE2
 70
     0
  9
$DIMTAD
 70
     1
  9
$DIMZIN
 70
     8
  9
$DIMBLK
  1

  9
$DIMASO
 70
     1
  9
$DIMSHO
 70
     1
  9
$DIMPOST
  1

  9
$DIMAPOST
  1

  9
$DIMALT
 70
     0
  9
$DIMALTD
 70
     4
  9
$DIMALTF
 40
0.0394
  9
$DIMLFAC
 40
1.0
  9
$DIMTOFL
 70
     1
  9
$DIMTVP
 40
0.0
  9
$DIMTIX
 70
     0
  9
$DIMSOXD
 70
     0
  9
$DIMSAH
 70
     1
  9
$DIMBLK1
  1
OPEN
  9
$DIMBLK2
  1
OPEN
  9
$DIMSTYLE
  2
STYLE3
  9
$DIMCLRD
 70
     2
  9
$DIMCLRE
 70
     2
  9
$DIMCLRT
 70
     6
  9
$DIMTFAC
 40
1.0
  9
$DIMGAP
 40
0.625
  9
$DIMJUST
 70
     0
  9
$DIMSD1
 70
     0
  9
$DIMSD2
 70
     0
  9
$DIMTOLJ
 70
     1
  9
$DIMTZIN
 70
     0
  9
$DIMALTZ
 70
     0
  9
$DIMALTTZ
 70
     0
  9
$DIMUPT
 70
     0
  9
$DIMDEC
 70
     2
  9
$DIMTDEC
 70
     4
  9
$DIMALTU
 70
     8
  9
$DIMALTTD
 70
     4
  9
$DIMTXSTY
  7
STYLE3
  9
$DIMAUNIT
 70
     0
  9
$DIMADEC
 70
     0
  9
$DIMALTRND
 40
0.0
  9
$DIMAZIN
 70
     0
  9
$DIMDSEP
 70
    46
  9
$DIMATFIT
 70
     3
  9
$DIMFRAC
 70
     0
  9
$DIMLDRBLK
  1

  9
$DIMLUNIT
 70
     2
  9
$DIMLWD
 70
    -2
  9
$DIMLWE
 70
    -2
  9
$DIMTMOVE
 70
     0
  9
$LUNITS
 70
     2
  9
$LUPREC
 70
     4
  9
$SKETCHINC
 40
1.0
  9
$FILLETRAD
 40
0.0
  9
$AUNITS
 70
     0
  9
$AUPREC
 70
     0
  9
$MENU
  1
.
  9
$ELEVATION
 40
0.0
  9
$PELEVATION
 40
0.0
  9
$THICKNESS
 40
0.0
  9
$LIMCHECK
 70
     0
  9
$CHAMFERA
 40
10.0
  9
$CHAMFERB
 40
10.0
  9
$CHAMFERC
 40
20.0
  9
$CHAMFERD
 40
0.0
  9
$SKPOLY
 70
     0
  9
$TDCREATE
 40
2450903.398109954
  9
$TDUCREATE
 40
2450903.023109954
  9
$TDUPDATE
 40
2455376.476362292
  9
$TDUUPDATE
 40
2455376.101362292
  9
$TDINDWG
 40
1.0122110185
  9
$TDUSRTIMER
 40
1.0122110185
  9
$USRTIMER
 70
     1
  9
$ANGBASE
 50
0.0
  9
$ANGDIR
 70
     0
  9
$PDMODE
 70
     0
  9
$PDSIZE
 40
0.0
  9
$PLINEWID
 40
0.0
  9
$SPLFRAME
 70
     0
  9
$SPLINETYPE
 70
     6
  9
$SPLINESEGS
 70
     8
  9
$HANDSEED
  5
A3A
  9
$SURFTAB1
 70
     6
  9
$SURFTAB2
 70
     6
  9
$SURFTYPE
 70
     6
  9
$SURFU
 70
     6
  9
$SURFV
 70
     6
  9
$UCSBASE
  2

  9
$UCSNAME
  2

  9
$UCSORG
 10
0.0
 20
0.0
 30
0.0
  9
$UCSXDIR
 10
1.0
 20
0.0
 30
0.0
  9
$UCSYDIR
 10
0.0
 20
1.0
 30
0.0
  9
$UCSORTHOREF
  2

  9
$UCSORTHOVIEW
 70
     0
  9
$UCSORGTOP
 10
0.0
 20
0.0
 30
0.0
  9
$UCSORGBOTTOM
 10
0.0
 20
0.0
 30
0.0
  9
$UCSORGLEFT
 10
0.0
 20
0.0
 30
0.0
  9
$UCSORGRIGHT
 10
0.0
 20
0.0
 30
0.0
  9
$UCSORGFRONT
 10
0.0
 20
0.0
 30
0.0
  9
$UCSORGBACK
 10
0.0
 20
0.0
 30
0.0
  9
$PUCSBASE
  2

  9
$PUCSNAME
  2

  9
$PUCSORG
 10
0.0
 20
0.0
 30
0.0
  9
$PUCSXDIR
 10
1.0
 20
0.0
 30
0.0
  9
$PUCSYDIR
 10
0.0
 20
1.0
 30
0.0
  9
$PUCSORTHOREF
  2

  9
$PUCSORTHOVIEW
 70
     0
  9
$PUCSORGTOP
 10
0.0
 20
0.0
 30
0.0
  9
$PUCSORGBOTTOM
 10
0.0
 20
0.0
 30
0.0
  9
$PUCSORGLEFT
 10
0.0
 20
0.0
 30
0.0
  9
$PUCSORGRIGHT
 10
0.0
 20
0.0
 30
0.0
  9
$PUCSORGFRONT
 10
0.0
 20
0.0
 30
0.0
  9
$PUCSORGBACK
 10
0.0
 20
0.0
 30
0.0
  9
$USERI1
 70
     0
  9
$USERI2
 70
     0
  9
$USERI3
 70
     0
  9
$USERI4
 70
     0
  9
$USERI5
 70
     0
  9
$USERR1
 40
0.0
  9
$USERR2
 40
0.0
  9
$USERR3
 40
0.0
  9
$USERR4
 40
0.0
  9
$USERR5
 40
0.0
  9
$WORLDVIEW
 70
     1
  9
$SHADEDGE
 70
     3
  9
$SHADEDIF
 70
    70
  9
$TILEMODE
 70
     1
  9
$MAXACTVP
 70
    48
  9
$PINSBASE
 10
0.0
 20
0.0
 30
0.0
  9
$PLIMCHECK
 70
     0
  9
$PEXTMIN
 10
1.000000000000000E+20
 20
1.000000000000000E+20
 30
1.000000000000000E+20
  9
$PEXTMAX
 10
-1.000000000000000E+20
 20
-1.000000000000000E+20
 30
-1.000000000000000E+20
  9
$PLIMMIN
 10
0.0
 20
0.0
  9
$PLIMMAX
 10
420.0
 20
297.0
  9
$UNITMODE
 70
     0
  9
$VISRETAIN
 70
     1
  9
$PLINEGEN
 70
     0
  9
$PSLTSCALE
 70
     1
  9
$TREEDEPTH
 70
  3020
  9
$CMLSTYLE
  2
STANDARD
  9
$CMLJUST
 70
     0
  9
$CMLSCALE
 40
20.0
  9
$PROXYGRAPHICS
 70
     1
  9
$MEASUREMENT
 70
     1
  9
$CELWEIGHT
370
    -1
  9
$ENDCAPS
280
     0
  9
$JOINSTYLE
280
     0
  9
$LWDISPLAY
290
     0
  9
$INSUNITS
 70
     0
  9
$HYPERLINKBASE
  1

  9
$STYLESHEET
  1
AutoCAD LT 98.ctb
  9
$XEDIT
290
     1
  9
$CEPSNTYPE
380
     0
  9
$PSTYLEMODE
290
     1
  9
$FINGERPRINTGUID
  2
{09B9EB6C-68FF-4E5E-8069-9B23CFBB56DE}
  9
$VERSIONGUID
  2
{13D5897A-D3F7-4578-A002-D7FFA8466603}
  9
$EXTNAMES
290
     1
  9
$PSVPSCALE
 40
0.0
  9
$OLESTARTUP
290
     0
  9
$SORTENTS
280
   127
  9
$INDEXCTL
280
     0
  9
$HIDETEXT
280
     0
  9
$XCLIPFRAME
290
     0
  9
$HALOGAP
280
     0
  9
$OBSCOLOR
 70
   257
  9
$OBSLTYPE
280
     0
  9
$INTERSECTIONDISPLAY
280
     0
  9
$INTERSECTIONCOLOR
 70
   257
  9
$DIMASSOC
280
     1
  9
$PROJECTNAME
  1

  0
ENDSEC
  0
SECTION
  2
CLASSES
  0
CLASS
  1
HATCH
  2
AcDbHatch
  3
ObjectDBX Classes
 90
        0
 91
       19
280
     0
281
     1
  0
CLASS
  1
RASTERVARIABLES
  2
AcDbRasterVariables
  3
ISM
 90
        0
 91
        1
280
     0
281
     0
  0
CLASS
  1
LWPOLYLINE
  2
AcDbPolyline
  3
ObjectDBX Classes
 90
        0
 91
        1
280
     0
281
     1
  0
CLASS
  1
ACDBDICTIONARYWDFLT
  2
AcDbDictionaryWithDefault
  3
ObjectDBX Classes
 90
        0
 91
        1
280
     0
281
     0
  0
CLASS
  1
TABLESTYLE
  2
AcDbTableStyle
  3
ObjectDBX Classes
 90
     2047
 91
        1
280
     0
281
     0
  0
CLASS
  1
DICTIONARYVAR
  2
AcDbDictionaryVar
  3
ObjectDBX Classes
 90
        0
 91
        1
280
     0
281
     0
  0
CLASS
  1
SORTENTSTABLE
  2
AcDbSortentsTable
  3
ObjectDBX Classes
 90
        0
 91
        1
280
     0
281
     0
  0
ENDSEC
  0
SECTION
  2
TABLES
  0
TABLE
  2
VPORT
  5
8
330
0
100
AcDbSymbolTable
 70
     2
  0
VPORT
  5
A39
330
8
100
AcDbSymbolTableRecord
100
AcDbViewportTableRecord
  2
*Active
 70
     0
 10
0.0
 20
0.0
 11
1.0
 21
1.0
 12
282.5000026347922
 22
188.7500017616503
 13
0.0
 23
0.0
 14
10.0
 24
10.0
 15
10.0
 25
10.0
 16
0.0
 26
0.0
 36
1.0
 17
0.0
 27
0.0
 37
0.0
 40
381.2233378755349
 41
1.530456852791878
 42
50.0
 43
0.0
 44
0.0
 50
0.0
 51
0.0
 71
     0
 72
   100
 73
     1
 74
     1
 75
     0
 76
     0
 77
     0
 78
     0
281
     0
 65
     1
110
0.0
120
0.0
130
0.0
111
1.0
121
0.0
131
0.0
112
0.0
122
1.0
132
0.0
 79
     0
146
0.0
  0
ENDTAB
  0
TABLE
  2
LTYPE
  5
5
330
0
100
AcDbSymbolTable
 70
    13
  0
LTYPE
  5
12
330
5
100
AcDbSymbolTableRecord
100
AcDbLinetypeTableRecord
  2
BYBLOCK
 70
     0
  3

 72
    65
 73
     0
 40
0.0
  0
LTYPE
  5
13
330
5
100
AcDbSymbolTableRecord
100
AcDbLinetypeTableRecord
  2
BYLAYER
 70
     0
  3

 72
    65
 73
     0
 40
0.0
  0
LTYPE
  5
14
330
5
100
AcDbSymbolTableRecord
100
AcDbLinetypeTableRecord
  2
CONTINUOUS
 70
     0
  3
Solid line
 72
    65
 73
     0
 40
0.0
  0
LTYPE
  5
22
330
5
100
AcDbSymbolTableRecord
100
AcDbLinetypeTableRecord
  2
CENTER2
 70
     0
  3
Center (.5x) ___ _ ___ _ ___ _ ___ _ ___ _ ___
 72
    65
 73
     4
 40
28.575
 49
19.05
 74
     0
 49
-3.174999999999999
 74
     0
 49
3.174999999999999
 74
     0
 49
-3.174999999999999
 74
     0
  0
LTYPE
  5
23
330
5
100
AcDbSymbolTableRecord
100
AcDbLinetypeTableRecord
  2
HIDDEN2
 70
     0
  3
Hidden (.5x) _ _ _ _ _ _ _ _ _ _ _ _ _ _ _ _ _
 72
    65
 73
     2
 40
4.762499999999999
 49
3.174999999999999
 74
     0
 49
-1.587499999999999
 74
     0
  0
LTYPE
  5
24
330
5
100
AcDbSymbolTableRecord
100
AcDbLinetypeTableRecord
  2
PHANTOM2
 70
     0
  3
Phantom (.5x) ___ _ _ ___ _ _ ___ _ _ ___ _ _
 72
    65
 73
     6
 40
31.75
 49
15.875
 74
     0
 49
-3.174999999999999
 74
     0
 49
3.174999999999999
 74
     0
 49
-3.174999999999999
 74
     0
 49
3.174999999999999
 74
     0
 49
-3.174999999999999
 74
     0
  0
ENDTAB
  0
TABLE
  2
LAYER
  5
2
330
0
100
AcDbSymbolTable
 70
    16
  0
LAYER
  5
E
330
2
100
AcDbSymbolTableRecord
100
AcDbLayerTableRecord
  2
0
 70
     0
 62
     7
  6
CONTINUOUS
370
    -3
390
990
  0
LAYER
  5
25
330
2
100
AcDbSymbolTableRecord
100
AcDbLayerTableRecord
  2
外形線
 70
     0
 62
     7
  6
CONTINUOUS
370
    -3
390
990
  0
LAYER
  5
26
330
2
100
AcDbSymbolTableRecord
100
AcDbLayerTableRecord
  2
寸法線
 70
     0
 62
     2
  6
CONTINUOUS
370
    -3
390
990
  0
LAYER
  5
27
330
2
100
AcDbSymbolTableRecord
100
AcDbLayerTableRecord
  2
中心線
 70
     0
 62
     4
  6
CENTER2
370
    -3
390
990
  0
LAYER
  5
28
330
2
100
AcDbSymbolTableRecord
100
AcDbLayerTableRecord
  2
隠れ線
 70
     0
 62
     6
  6
HIDDEN2
370
    -3
390
990
  0
LAYER
  5
29
330
2
100
AcDbSymbolTableRecord
100
AcDbLayerTableRecord
  2
想像線
 70
     0
 62
     1
  6
PHANTOM2
370
    -3
390
990
  0
LAYER
  5
2B
330
2
100
AcDbSymbolTableRecord
100
AcDbLayerTableRecord
  2
文字
 70
     0
 62
     6
  6
CONTINUOUS
370
    -3
390
990
  0
LAYER
  5
2C
330
2
100
AcDbSymbolTableRecord
100
AcDbLayerTableRecord
  2
目盛
 70
     0
 62
    72
  6
CONTINUOUS
370
    -3
390
990
  0
LAYER
  5
2D
330
2
100
AcDbSymbolTableRecord
100
AcDbLayerTableRecord
  2
針
 70
     0
 62
     5
  6
CONTINUOUS
370
    -3
390
990
  0
LAYER
  5
53
330
2
100
AcDbSymbolTableRecord
100
AcDbLayerTableRecord
  2
DEFPOINTS
 70
     0
 62
     7
  6
CONTINUOUS
290
     0
370
    -3
390
990
  0
LAYER
  5
A5
330
2
100
AcDbSymbolTableRecord
100
AcDbLayerTableRecord
  2
C
 70
     0
 62
     7
  6
CONTINUOUS
370
    -3
390
990
  0
LAYER
  5
32B
330
2
100
AcDbSymbolTableRecord
100
AcDbLayerTableRecord
  2
ROGO
 70
     0
 62
     6
  6
CONTINUOUS
370
    -3
390
990
  0
LAYER
  5
484
330
2
100
AcDbSymbolTableRecord
100
AcDbLayerTableRecord
  2
握り
 70
     0
 62
     3
  6
CONTINUOUS
370
    -3
390
990
  0
LAYER
  5
9A6
330
2
100
AcDbSymbolTableRecord
100
AcDbLayerTableRecord
  2
隠れ線2
 70
     0
 62
     1
  6
HIDDEN2
370
    -3
390
990
  0
ENDTAB
  0
TABLE
  2
STYLE
  5
3
330
0
100
AcDbSymbolTable
 70
     6
  0
STYLE
  5
F
330
3
100
AcDbSymbolTableRecord
100
AcDbTextStyleTableRecord
  2
STANDARD
 70
     0
 40
0.0
 41
1.0
 50
0.0
 71
     0
 42
2.5
  3
txt
  4

  0
STYLE
  5
3F
330
3
100
AcDbSymbolTableRecord
100
AcDbTextStyleTableRecord
  2
STYLE3
 70
     0
 40
0.0
 41
1.0
 50
0.0
 71
     0
 42
2.5
  3
romans.shx
  4
bigfont.shx
  0
ENDTAB
  0
TABLE
  2
VIEW
  5
6
330
0
100
AcDbSymbolTable
 70
     0
  0
ENDTAB
  0
TABLE
  2
UCS
  5
7
330
0
100
AcDbSymbolTable
 70
     0
  0
ENDTAB
  0
TABLE
  2
APPID
  5
9
330
0
100
AcDbSymbolTable
 70
     2
  0
APPID
  5
10
330
9
100
AcDbSymbolTableRecord
100
AcDbRegAppTableRecord
  2
ACAD
 70
     0
  0
APPID
  5
9A8
330
9
100
AcDbSymbolTableRecord
100
AcDbRegAppTableRecord
  2
ACAD_PSEXT
 70
     0
  0
ENDTAB
  0
TABLE
  2
DIMSTYLE
  5
A
330
0
100
AcDbSymbolTable
 70
     5
100
AcDbDimStyleTable
 71
     1
340
8F
  0
DIMSTYLE
105
1D
330
A
100
AcDbSymbolTableRecord
100
AcDbDimStyleTableRecord
  2
STANDARD
 70
     0
 41
2.5
 42
0.625
 43
3.75
 44
1.25
 73
     0
 74
     0
 77
     1
 78
     8
140
2.5
141
2.5
143
0.0394
147
0.625
171
     4
172
     1
273
     8
274
     4
277
     6
340
F
  0
DIMSTYLE
105
8F
102
{ACAD_REACTORS
330
5E6
330
7AA
330
7B7
330
7C3
330
835
330
875
330
7F4
330
90B
102
}
330
A
100
AcDbSymbolTableRecord
100
AcDbDimStyleTableRecord
  2
STYLE3
 70
     0
 41
2.5
 42
0.0
 43
3.75
 44
1.25
 73
     0
 74
     0
 77
     1
 78
     8
140
2.5
141
2.5
143
0.0394
147
0.625
171
     4
172
     1
173
     1
176
     2
177
     2
178
     6
271
     1
273
     8
274
     4
340
3F
341
45
343
45
344
45
  0
ENDTAB
  0
TABLE
  2
BLOCK_RECORD
  5
1
330
0
100
AcDbSymbolTable
 70
    13
  0
BLOCK_RECORD
  5
18
102
{ACAD_XDICTIONARY
360
9A3
102
}
330
1
100
AcDbSymbolTableRecord
100
AcDbBlockTableRecord
  2
*MODEL_SPACE
340
997
  0
BLOCK_RECORD
  5
15
330
1
100
AcDbSymbolTableRecord
100
AcDbBlockTableRecord
  2
*PAPER_SPACE
340
998
  0
BLOCK_RECORD
  5
45
330
1
100
AcDbSymbolTableRecord
100
AcDbBlockTableRecord
  2
_OPEN
340
0
102
{BLKREFS
331
801
331
88E
331
5DF
331
5E0
331
7A3
331
7A4
331
7B0
331
7B1
331
7BC
331
7BD
331
813
331
814
331
959
331
95A
331
9CB
331
9CC
331
9D6
331
9D7
102
}
  0
BLOCK_RECORD
  5
5DA
330
1
100
AcDbSymbolTableRecord
100
AcDbBlockTableRecord
  2
*D4
340
0
  0
BLOCK_RECORD
  5
79E
330
1
100
AcDbSymbolTableRecord
100
AcDbBlockTableRecord
  2
*D5
340
0
  0
BLOCK_RECORD
  5
7AB
330
1
100
AcDbSymbolTableRecord
100
AcDbBlockTableRecord
  2
*D6
340
0
  0
BLOCK_RECORD
  5
7B8
330
1
100
AcDbSymbolTableRecord
100
AcDbBlockTableRecord
  2
*D7
340
0
  0
BLOCK_RECORD
  5
7E8
330
1
100
AcDbSymbolTableRecord
100
AcDbBlockTableRecord
  2
*D8
340
0
  0
BLOCK_RECORD
  5
827
330
1
100
AcDbSymbolTableRecord
100
AcDbBlockTableRecord
  2
*D9
340
0
  0
BLOCK_RECORD
  5
867
330
1
100
AcDbSymbolTableRecord
100
AcDbBlockTableRecord
  2
*D10
340
0
  0
BLOCK_RECORD
  5
8FF
330
1
100
AcDbSymbolTableRecord
100
AcDbBlockTableRecord
  2
*D11
340
0
  0
ENDTAB
  0
ENDSEC
  0
SECTION
  2
BLOCKS
  0
BLOCK
  5
19
330
18
100
AcDbEntity
  8
0
100
AcDbBlockBegin
  2
*MODEL_SPACE
 70
     0
 10
0.0
 20
0.0
 30
0.0
  3
*MODEL_SPACE
  1

  0
ENDBLK
  5
1A
330
18
100
AcDbEntity
  8
0
100
AcDbBlockEnd
  0
BLOCK
  5
16
330
15
100
AcDbEntity
 67
     1
  8
0
100
AcDbBlockBegin
  2
*PAPER_SPACE
 70
     0
 10
0.0
 20
0.0
 30
0.0
  3
*PAPER_SPACE
  1

  0
ENDBLK
  5
17
330
15
100
AcDbEntity
 67
     1
  8
0
100
AcDbBlockEnd
  0
BLOCK
  5
46
330
45
100
AcDbEntity
  8
0
100
AcDbBlockBegin
  2
_OPEN
 70
     0
 10
0.0
 20
0.0
 30
0.0
  3
_OPEN
  1

  0
LINE
  5
47
330
45
100
AcDbEntity
  8
0
  6
ByBlock
 62
     0
100
AcDbLine
 10
-1.0
 20
0.1666666666666666
 30
0.0
 11
0.0
 21
0.0
 31
0.0
  0
LINE
  5
48
330
45
100
AcDbEntity
  8
0
  6
ByBlock
 62
     0
100
AcDbLine
 10
0.0
 20
0.0
 30
0.0
 11
-1.0
 21
-0.1666666666666666
 31
0.0
  0
LINE
  5
49
330
45
100
AcDbEntity
  8
0
  6
ByBlock
 62
     0
100
AcDbLine
 10
0.0
 20
0.0
 30
0.0
 11
-1.0
 21
0.0
 31
0.0
  0
ENDBLK
  5
4A
330
45
100
AcDbEntity
  8
0
100
AcDbBlockEnd
  0
BLOCK
  5
5DB
330
5DA
100
AcDbEntity
  8
0
100
AcDbBlockBegin
  2
*D4
 70
     1
 10
0.0
 20
0.0
 30
0.0
  3
*D4
  1

  0
LINE
  5
5DC
330
5DA
100
AcDbEntity
  8
0
  6
ByBlock
 62
     2
100
AcDbLine
 10
518.5482572305502
 20
191.4180384166635
 30
0.0
 11
538.1833831278324
 21
191.4180384166635
 31
0.0
  0
LINE
  5
5DD
330
5DA
100
AcDbEntity
  8
0
  6
ByBlock
 62
     2
100
AcDbLine
 10
518.5482572305502
 20
161.4180384166635
 30
0.0
 11
538.1833831278324
 21
161.4180384166635
 31
0.0
  0
LINE
  5
5DE
330
5DA
100
AcDbEntity
  8
0
  6
ByBlock
 62
     2
100
AcDbLine
 10
536.9333831278324
 20
188.9180384166635
 30
0.0
 11
536.9333831278324
 21
163.9180384166635
 31
0.0
  0
INSERT
  5
5DF
330
5DA
100
AcDbEntity
  8
0
  6
ByBlock
 62
     2
100
AcDbBlockReference
  2
_OPEN
 10
536.9333831278324
 20
191.4180384166635
 30
0.0
 41
2.5
 42
2.5
 43
2.5
 50
90.0
  0
INSERT
  5
5E0
330
5DA
100
AcDbEntity
  8
0
  6
ByBlock
 62
     2
100
AcDbBlockReference
  2
_OPEN
 10
536.9333831278324
 20
161.4180384166635
 30
0.0
 41
2.5
 42
2.5
 43
2.5
 50
270.0
  0
MTEXT
  5
5E1
330
5DA
100
AcDbEntity
  8
0
  6
ByBlock
 62
     6
100
AcDbMText
 10
535.0583831278324
 20
176.4180384166635
 30
0.0
 40
2.5
 41
0.0
 71
     5
 72
     1
  1
\A1;30
  7
STYLE3
 11
0.0000000000000001
 21
1.0
 31
0.0
 73
     1
 44
1.0
  0
POINT
  5
5E2
330
5DA
100
AcDbEntity
  8
DEFPOINTS
  6
ByBlock
 62
     0
100
AcDbPoint
 10
518.5482572305502
 20
191.4180384166635
 30
0.0
  0
POINT
  5
5E3
330
5DA
100
AcDbEntity
  8
DEFPOINTS
  6
ByBlock
 62
     0
100
AcDbPoint
 10
518.5482572305502
 20
161.4180384166635
 30
0.0
  0
POINT
  5
5E4
330
5DA
100
AcDbEntity
  8
DEFPOINTS
  6
ByBlock
 62
     0
100
AcDbPoint
 10
536.9333831278324
 20
161.4180384166635
 30
0.0
  0
ENDBLK
  5
5E5
330
5DA
100
AcDbEntity
  8
0
100
AcDbBlockEnd
  0
BLOCK
  5
79F
330
79E
100
AcDbEntity
  8
0
100
AcDbBlockBegin
  2
*D5
 70
     1
 10
0.0
 20
0.0
 30
0.0
  3
*D5
  1

  0
LINE
  5
7A0
330
79E
100
AcDbEntity
  8
0
  6
ByBlock
 62
     2
100
AcDbLine
 10
39.03221865468191
 20
239.3476604591481
 30
0.0
 11
39.03221865468191
 21
280.8299270777979
 31
0.0
  0
LINE
  5
7A1
330
79E
100
AcDbEntity
  8
0
  6
ByBlock
 62
     2
100
AcDbLine
 10
339.0322186546819
 20
255.8670188303401
 30
0.0
 11
339.0322186546819
 21
280.8299270777979
 31
0.0
  0
LINE
  5
7A2
330
79E
100
AcDbEntity
  8
0
  6
ByBlock
 62
     2
100
AcDbLine
 10
41.53221865468191
 20
279.579927077798
 30
0.0
 11
336.5322186546819
 21
279.579927077798
 31
0.0
  0
INSERT
  5
7A3
330
79E
100
AcDbEntity
  8
0
  6
ByBlock
 62
     2
100
AcDbBlockReference
  2
_OPEN
 10
39.03221865468191
 20
279.579927077798
 30
0.0
 41
2.5
 42
2.5
 43
2.5
 50
180.0
  0
INSERT
  5
7A4
330
79E
100
AcDbEntity
  8
0
  6
ByBlock
 62
     2
100
AcDbBlockReference
  2
_OPEN
 10
339.0322186546819
 20
279.579927077798
 30
0.0
 41
2.5
 42
2.5
 43
2.5
  0
MTEXT
  5
7A5
330
79E
100
AcDbEntity
  8
0
  6
ByBlock
 62
     6
100
AcDbMText
 10
189.0322186546819
 20
281.454927077798
 30
0.0
 40
2.5
 41
0.0
 71
     5
 72
     1
  1
\A1;300
  7
STYLE3
 73
     1
 44
1.0
  0
POINT
  5
7A6
330
79E
100
AcDbEntity
  8
DEFPOINTS
  6
ByBlock
 62
     0
100
AcDbPoint
 10
39.03221865468191
 20
239.3476604591481
 30
0.0
  0
POINT
  5
7A7
330
79E
100
AcDbEntity
  8
DEFPOINTS
  6
ByBlock
 62
     0
100
AcDbPoint
 10
339.0322186546819
 20
255.8670188303401
 30
0.0
  0
POINT
  5
7A8
330
79E
100
AcDbEntity
  8
DEFPOINTS
  6
ByBlock
 62
     0
100
AcDbPoint
 10
339.0322186546819
 20
279.579927077798
 30
0.0
  0
ENDBLK
  5
7A9
330
79E
100
AcDbEntity
  8
0
100
AcDbBlockEnd
  0
BLOCK
  5
7AC
330
7AB
100
AcDbEntity
  8
0
100
AcDbBlockBegin
  2
*D6
 70
     1
 10
0.0
 20
0.0
 30
0.0
  3
*D6
  1

  0
LINE
  5
7AD
330
7AB
100
AcDbEntity
  8
0
  6
ByBlock
 62
     2
100
AcDbLine
 10
368.5482572305502
 20
125.6134145030043
 30
0.0
 11
368.5482572305502
 21
83.961359518064
 31
0.0
  0
LINE
  5
7AE
330
7AB
100
AcDbEntity
  8
0
  6
ByBlock
 62
     2
100
AcDbLine
 10
423.5482572305502
 20
162.7180384166635
 30
0.0
 11
423.5482572305502
 21
83.961359518064
 31
0.0
  0
LINE
  5
7AF
330
7AB
100
AcDbEntity
  8
0
  6
ByBlock
 62
     2
100
AcDbLine
 10
371.0482572305502
 20
85.211359518064
 30
0.0
 11
421.0482572305502
 21
85.211359518064
 31
0.0
  0
INSERT
  5
7B0
330
7AB
100
AcDbEntity
  8
0
  6
ByBlock
 62
     2
100
AcDbBlockReference
  2
_OPEN
 10
368.5482572305502
 20
85.211359518064
 30
0.0
 41
2.5
 42
2.5
 43
2.5
 50
180.0
  0
INSERT
  5
7B1
330
7AB
100
AcDbEntity
  8
0
  6
ByBlock
 62
     2
100
AcDbBlockReference
  2
_OPEN
 10
423.5482572305502
 20
85.211359518064
 30
0.0
 41
2.5
 42
2.5
 43
2.5
  0
MTEXT
  5
7B2
330
7AB
100
AcDbEntity
  8
0
  6
ByBlock
 62
     6
100
AcDbMText
 10
396.0482572305502
 20
87.086359518064
 30
0.0
 40
2.5
 41
0.0
 71
     5
 72
     1
  1
\A1;55
  7
STYLE3
 73
     1
 44
1.0
  0
POINT
  5
7B3
330
7AB
100
AcDbEntity
  8
DEFPOINTS
  6
ByBlock
 62
     0
100
AcDbPoint
 10
368.5482572305502
 20
125.6134145030043
 30
0.0
  0
POINT
  5
7B4
330
7AB
100
AcDbEntity
  8
DEFPOINTS
  6
ByBlock
 62
     0
100
AcDbPoint
 10
423.5482572305502
 20
162.7180384166635
 30
0.0
  0
POINT
  5
7B5
330
7AB
100
AcDbEntity
  8
DEFPOINTS
  6
ByBlock
 62
     0
100
AcDbPoint
 10
423.5482572305502
 20
85.211359518064
 30
0.0
  0
ENDBLK
  5
7B6
330
7AB
100
AcDbEntity
  8
0
100
AcDbBlockEnd
  0
BLOCK
  5
7B9
330
7B8
100
AcDbEntity
  8
0
100
AcDbBlockBegin
  2
*D7
 70
     1
 10
0.0
 20
0.0
 30
0.0
  3
*D7
  1

  0
LINE
  5
7BA
330
7B8
100
AcDbEntity
  8
0
  6
ByBlock
 62
     2
100
AcDbLine
 10
523.5482572305502
 20
162.7180384166635
 30
0.0
 11
523.5482572305502
 21
83.961359518064
 31
0.0
  0
LINE
  5
7BB
330
7B8
100
AcDbEntity
  8
0
  6
ByBlock
 62
     2
100
AcDbLine
 10
426.0482572305502
 20
85.211359518064
 30
0.0
 11
521.0482572305502
 21
85.211359518064
 31
0.0
  0
INSERT
  5
7BC
330
7B8
100
AcDbEntity
  8
0
  6
ByBlock
 62
     2
100
AcDbBlockReference
  2
_OPEN
 10
423.5482572305502
 20
85.211359518064
 30
0.0
 41
2.5
 42
2.5
 43
2.5
 50
180.0
  0
INSERT
  5
7BD
330
7B8
100
AcDbEntity
  8
0
  6
ByBlock
 62
     2
100
AcDbBlockReference
  2
_OPEN
 10
523.5482572305502
 20
85.211359518064
 30
0.0
 41
2.5
 42
2.5
 43
2.5
  0
MTEXT
  5
7BE
330
7B8
100
AcDbEntity
  8
0
  6
ByBlock
 62
     6
100
AcDbMText
 10
473.5482572305502
 20
87.086359518064
 30
0.0
 40
2.5
 41
0.0
 71
     5
 72
     1
  1
\A1;100
  7
STYLE3
 73
     1
 44
1.0
  0
POINT
  5
7BF
330
7B8
100
AcDbEntity
  8
DEFPOINTS
  6
ByBlock
 62
     0
100
AcDbPoint
 10
423.5482572305502
 20
162.7180384166635
 30
0.0
  0
POINT
  5
7C0
330
7B8
100
AcDbEntity
  8
DEFPOINTS
  6
ByBlock
 62
     0
100
AcDbPoint
 10
523.5482572305502
 20
162.7180384166635
 30
0.0
  0
POINT
  5
7C1
330
7B8
100
AcDbEntity
  8
DEFPOINTS
  6
ByBlock
 62
     0
100
AcDbPoint
 10
523.5482572305502
 20
85.211359518064
 30
0.0
  0
ENDBLK
  5
7C2
330
7B8
100
AcDbEntity
  8
0
100
AcDbBlockEnd
  0
BLOCK
  5
80F
330
7E8
100
AcDbEntity
  8
0
100
AcDbBlockBegin
  2
*D8
 70
     1
 10
0.0
 20
0.0
 30
0.0
  3
*D8
  1

  0
LINE
  5
810
330
7E8
100
AcDbEntity
  8
0
  6
ByBlock
 62
     2
100
AcDbLine
 10
39.03221865468191
 20
142.9102217670795
 30
0.0
 11
39.03221865468191
 21
77.45296097110281
 31
0.0
  0
LINE
  5
811
330
7E8
100
AcDbEntity
  8
0
  6
ByBlock
 62
     2
100
AcDbLine
 10
523.5482572305502
 20
83.961359518064
 30
0.0
 11
523.5482572305502
 21
77.45296097110281
 31
0.0
  0
LINE
  5
812
330
7E8
100
AcDbEntity
  8
0
  6
ByBlock
 62
     2
100
AcDbLine
 10
41.5322186546819
 20
78.70296097110281
 30
0.0
 11
521.0482572305502
 21
78.70296097110281
 31
0.0
  0
INSERT
  5
813
330
7E8
100
AcDbEntity
  8
0
  6
ByBlock
 62
     2
100
AcDbBlockReference
  2
_OPEN
 10
39.03221865468191
 20
78.70296097110281
 30
0.0
 41
2.5
 42
2.5
 43
2.5
 50
180.0
  0
INSERT
  5
814
330
7E8
100
AcDbEntity
  8
0
  6
ByBlock
 62
     2
100
AcDbBlockReference
  2
_OPEN
 10
523.5482572305502
 20
78.70296097110281
 30
0.0
 41
2.5
 42
2.5
 43
2.5
  0
MTEXT
  5
815
330
7E8
100
AcDbEntity
  8
0
  6
ByBlock
 62
     6
100
AcDbMText
 10
281.290237942616
 20
80.57796097110282
 30
0.0
 40
2.5
 41
0.0
 71
     5
 72
     1
  1
\A1;485
  7
STYLE3
 73
     1
 44
1.0
  0
POINT
  5
816
330
7E8
100
AcDbEntity
  8
DEFPOINTS
  6
ByBlock
 62
     0
100
AcDbPoint
 10
39.03221865468191
 20
142.9102217670795
 30
0.0
  0
POINT
  5
817
330
7E8
100
AcDbEntity
  8
DEFPOINTS
  6
ByBlock
 62
     0
100
AcDbPoint
 10
523.5482572305502
 20
83.961359518064
 30
0.0
  0
POINT
  5
818
330
7E8
100
AcDbEntity
  8
DEFPOINTS
  6
ByBlock
 62
     0
100
AcDbPoint
 10
523.5482572305502
 20
78.70296097110281
 30
0.0
  0
ENDBLK
  5
819
330
7E8
100
AcDbEntity
  8
0
100
AcDbBlockEnd
  0
BLOCK
  5
928
330
827
100
AcDbEntity
  8
0
100
AcDbBlockBegin
  2
*D9
 70
     1
 10
0.0
 20
0.0
 30
0.0
  3
*D9
  1

  0
LINE
  5
9C6
330
827
100
AcDbEntity
  8
外形線
 62
     2
370
    -2
100
AcDbLine
 10
142.2006307204737
 20
254.4714448299905
 30
0.0
 11
142.2006307204737
 21
270.3609579139345
 31
0.0
  0
LINE
  5
9C7
330
827
100
AcDbEntity
  8
外形線
 62
     2
370
    -2
100
AcDbLine
 10
146.2006307204737
 20
254.4998056030757
 30
0.0
 11
146.2006307204737
 21
270.3609579139345
 31
0.0
  0
LINE
  5
9C8
330
827
100
AcDbEntity
  8
外形線
 62
     2
370
    -2
100
AcDbLine
 10
139.7006307204738
 20
269.1109579139345
 30
0.0
 11
137.2006307204738
 21
269.1109579139345
 31
0.0
  0
LINE
  5
9C9
330
827
100
AcDbEntity
  8
外形線
 62
     2
370
    -2
100
AcDbLine
 10
148.7006307204738
 20
269.1109579139345
 30
0.0
 11
151.2006307204738
 21
269.1109579139345
 31
0.0
  0
LINE
  5
9CA
330
827
100
AcDbEntity
  8
外形線
 62
     2
370
    -2
100
AcDbLine
 10
142.2006307204737
 20
269.1109579139345
 30
0.0
 11
146.2006307204737
 21
269.1109579139345
 31
0.0
  0
INSERT
  5
9CB
330
827
100
AcDbEntity
  8
外形線
 62
     2
370
    -2
100
AcDbBlockReference
  2
_OPEN
 10
142.2006307204737
 20
269.1109579139345
 30
0.0
 41
2.5
 42
2.5
 43
2.5
  0
INSERT
  5
9CC
330
827
100
AcDbEntity
  8
外形線
 62
     2
370
    -2
100
AcDbBlockReference
  2
_OPEN
 10
146.2006307204737
 20
269.1109579139345
 30
0.0
 41
2.5
 42
2.5
 43
2.5
 50
180.0
  0
MTEXT
  5
9CD
330
827
100
AcDbEntity
  8
外形線
 62
     6
100
AcDbMText
 10
144.2006307204738
 20
270.9859579139345
 30
0.0
 40
2.5
 41
0.0
 71
     5
 72
     1
  1
\A1;3
  7
STYLE3
 73
     1
 44
1.0
  0
POINT
  5
9CE
330
827
100
AcDbEntity
  8
DEFPOINTS
 62
     0
100
AcDbPoint
 10
142.2006307204737
 20
254.4714448299905
 30
0.0
  0
POINT
  5
9CF
330
827
100
AcDbEntity
  8
DEFPOINTS
 62
     0
100
AcDbPoint
 10
146.2006307204737
 20
254.4998056030757
 30
0.0
  0
POINT
  5
9D0
330
827
100
AcDbEntity
  8
DEFPOINTS
 62
     0
100
AcDbPoint
 10
146.2006307204737
 20
269.1109579139345
 30
0.0
  0
ENDBLK
  5
934
330
827
100
AcDbEntity
  8
0
100
AcDbBlockEnd
  0
BLOCK
  5
935
330
867
100
AcDbEntity
  8
0
100
AcDbBlockBegin
  2
*D10
 70
     1
 10
0.0
 20
0.0
 30
0.0
  3
*D10
  1

  0
LINE
  5
9D1
330
867
100
AcDbEntity
  8
外形線
 62
     2
370
    -2
100
AcDbLine
 10
142.2006307204737
 20
127.0083291796169
 30
0.0
 11
142.2006307204737
 21
105.1808790606159
 31
0.0
  0
LINE
  5
9D2
330
867
100
AcDbEntity
  8
外形線
 62
     2
370
    -2
100
AcDbLine
 10
146.2006307204737
 20
126.6246397053157
 30
0.0
 11
146.2006307204737
 21
105.1808790606159
 31
0.0
  0
LINE
  5
9D3
330
867
100
AcDbEntity
  8
外形線
 62
     2
370
    -2
100
AcDbLine
 10
139.7006307204737
 20
106.4308790606159
 30
0.0
 11
137.2006307204737
 21
106.4308790606159
 31
0.0
  0
LINE
  5
9D4
330
867
100
AcDbEntity
  8
外形線
 62
     2
370
    -2
100
AcDbLine
 10
148.7006307204737
 20
106.4308790606159
 30
0.0
 11
151.2006307204737
 21
106.4308790606159
 31
0.0
  0
LINE
  5
9D5
330
867
100
AcDbEntity
  8
外形線
 62
     2
370
    -2
100
AcDbLine
 10
142.2006307204737
 20
106.4308790606159
 30
0.0
 11
146.2006307204737
 21
106.4308790606159
 31
0.0
  0
INSERT
  5
9D6
330
867
100
AcDbEntity
  8
外形線
 62
     2
370
    -2
100
AcDbBlockReference
  2
_OPEN
 10
142.2006307204737
 20
106.4308790606159
 30
0.0
 41
2.5
 42
2.5
 43
2.5
  0
INSERT
  5
9D7
330
867
100
AcDbEntity
  8
外形線
 62
     2
370
    -2
100
AcDbBlockReference
  2
_OPEN
 10
146.2006307204737
 20
106.4308790606159
 30
0.0
 41
2.5
 42
2.5
 43
2.5
 50
180.0
  0
MTEXT
  5
9D8
330
867
100
AcDbEntity
  8
外形線
 62
     6
100
AcDbMText
 10
144.2006307204737
 20
108.3058790606159
 30
0.0
 40
2.5
 41
0.0
 71
     5
 72
     1
  1
\A1;3
  7
STYLE3
 73
     1
 44
1.0
  0
POINT
  5
9D9
330
867
100
AcDbEntity
  8
DEFPOINTS
 62
     0
100
AcDbPoint
 10
142.2006307204737
 20
127.0083291796169
 30
0.0
  0
POINT
  5
9DA
330
867
100
AcDbEntity
  8
DEFPOINTS
 62
     0
100
AcDbPoint
 10
146.2006307204737
 20
126.6246397053157
 30
0.0
  0
POINT
  5
9DB
330
867
100
AcDbEntity
  8
DEFPOINTS
 62
     0
100
AcDbPoint
 10
146.2006307204737
 20
106.4308790606159
 30
0.0
  0
ENDBLK
  5
941
330
867
100
AcDbEntity
  8
0
100
AcDbBlockEnd
  0
BLOCK
  5
955
330
8FF
100
AcDbEntity
  8
0
100
AcDbBlockBegin
  2
*D11
 70
     1
 10
0.0
 20
0.0
 30
0.0
  3
*D11
  1

  0
LINE
  5
956
330
8FF
100
AcDbEntity
  8
0
  6
ByBlock
 62
     2
100
AcDbLine
 10
39.15417071268155
 20
196.3915336055708
 30
0.0
 11
13.21154150330521
 21
194.8038147116675
 31
0.0
  0
LINE
  5
957
330
8FF
100
AcDbEntity
  8
0
  6
ByBlock
 62
     2
100
AcDbLine
 10
44.04111280343665
 20
116.5410467750759
 30
0.0
 11
18.09848359406034
 21
114.9533278811726
 31
0.0
  0
LINE
  5
958
330
8FF
100
AcDbEntity
  8
0
  6
ByBlock
 62
     2
100
AcDbLine
 10
14.61192422041794
 20
192.3848421517545
 30
0.0
 11
19.19343201172309
 21
117.5250175908105
 31
0.0
  0
INSERT
  5
959
330
8FF
100
AcDbEntity
  8
0
  6
ByBlock
 62
     2
100
AcDbBlockReference
  2
_OPEN
 10
14.45920707069295
 20
194.88017328653
 30
0.0
 41
2.5
 42
2.5
 43
2.5
 50
93.50219970008131
  0
INSERT
  5
95A
330
8FF
100
AcDbEntity
  8
0
  6
ByBlock
 62
     2
100
AcDbBlockReference
  2
_OPEN
 10
19.34614916144808
 20
115.0296864560351
 30
0.0
 41
2.5
 42
2.5
 43
2.5
 50
273.5021997000813
  0
MTEXT
  5
95B
330
8FF
100
AcDbEntity
  8
0
  6
ByBlock
 62
     6
100
AcDbMText
 10
15.0311797649889
 20
154.8403920089888
 30
0.0
 40
2.5
 41
0.0
 71
     5
 72
     1
  1
\A1;80
  7
STYLE3
 11
-0.061086859889996
 21
0.9981324539101912
 31
0.0
 73
     1
 44
1.0
  0
POINT
  5
95C
330
8FF
100
AcDbEntity
  8
DEFPOINTS
  6
ByBlock
 62
     0
100
AcDbPoint
 10
39.15417071268155
 20
196.3915336055708
 30
0.0
 50
180.0
  0
POINT
  5
95D
330
8FF
100
AcDbEntity
  8
DEFPOINTS
  6
ByBlock
 62
     0
100
AcDbPoint
 10
44.04111280343665
 20
116.5410467750759
 30
0.0
 50
180.0
  0
POINT
  5
95E
330
8FF
100
AcDbEntity
  8
DEFPOINTS
  6
ByBlock
 62
     0
100
AcDbPoint
 10
19.34614916144808
 20
115.0296864560351
 30
0.0
 50
180.0
  0
ENDBLK
  5
95F
330
8FF
100
AcDbEntity
  8
0
100
AcDbBlockEnd
  0
ENDSEC
  0
SECTION
  2
ENTITIES
  0
LWPOLYLINE
  5
1A0
330
18
100
AcDbEntity
  8
C
100
AcDbPolyline
 90
        5
 70
     0
 43
0.8
 38
1.0
 10
0.0
 20
377.5
 10
565.0
 20
377.5
 10
565.0
 20
0.0
 10
0.0
 20
0.0
 10
0.0
 20
377.5
  0
LINE
  5
221
330
18
100
AcDbEntity
  8
中心線
 48
0.5
100
AcDbLine
 10
23.22405001171637
 20
176.4180384166635
 30
0.0
 11
529.8701129910198
 21
176.4180384166635
 31
0.0
  0
LINE
  5
222
330
18
100
AcDbEntity
  8
中心線
 48
0.5
100
AcDbLine
 10
368.5482572305502
 20
204.7454674329406
 30
0.0
 11
368.5482572305502
 21
125.6134145030043
 31
0.0
  0
ARC
  5
224
330
18
100
AcDbEntity
  8
隠れ線2
100
AcDbCircle
 10
401.5482572305502
 20
233.4180384166635
 30
0.0
 40
25.0
100
AcDbArc
 50
314.3108038919754
 51
114.6825078219777
  0
ARC
  5
226
330
18
100
AcDbEntity
  8
隠れ線2
100
AcDbCircle
 10
368.5482572305502
 20
176.4180384166635
 30
0.0
 40
17.0
100
AcDbArc
 50
191.4970063601246
 51
268.3145869597774
  0
CIRCLE
  5
22B
330
18
100
AcDbEntity
  8
隠れ線
 62
     4
100
AcDbCircle
 10
387.9772572305502
 20
171.6730384166635
 30
0.0
 40
3.9
  0
ARC
  5
243
330
18
100
AcDbEntity
  8
外形線
100
AcDbCircle
 10
432.7856537670613
 20
204.0123031241316
 30
0.0
 40
18.3403985478251
100
AcDbArc
 50
156.607106792276
 51
238.8760342281968
  0
LINE
  5
247
330
18
100
AcDbEntity
  8
外形線
100
AcDbLine
 10
404.7951865959852
 20
162.8779725833642
 30
0.0
 11
423.5482572305502
 21
164.6680384166635
 31
0.0
  0
ARC
  5
24B
330
18
100
AcDbEntity
  8
外形線
100
AcDbCircle
 10
372.5482572305502
 20
297.1280384166635
 30
0.0
 40
45.0
100
AcDbArc
 50
257.5698911457308
 51
285.8054832189966
  0
ARC
  5
250
330
18
100
AcDbEntity
  8
外形線
100
AcDbCircle
 10
343.5482572305502
 20
205.8990384166635
 30
0.0
 40
50.0
100
AcDbArc
 50
78.8135409263165
 51
90.81246268654229
  0
LINE
  5
251
330
18
100
AcDbEntity
  8
外形線
100
AcDbLine
 10
353.2483828800142
 20
254.9490900209647
 30
0.0
 11
362.8620730453476
 21
253.1828699003143
 31
0.0
  0
ARC
  5
255
330
18
100
AcDbEntity
  8
外形線
100
AcDbCircle
 10
319.5482572305502
 20
193.8250384166635
 30
0.0
 40
35.0
100
AcDbArc
 50
340.1198066044082
 51
90.00000000000241
  0
LINE
  5
257
330
18
100
AcDbEntity
  8
外形線
100
AcDbLine
 10
352.4432401640139
 20
181.861238329084
 30
0.0
 11
352.462458018146
 21
181.9231315730593
 31
0.0
  0
ARC
  5
25B
330
18
100
AcDbEntity
  8
外形線
100
AcDbCircle
 10
39.03221865468191
 20
198.3952551441457
 30
0.0
 40
2.0
100
AcDbArc
 50
180.0
 51
0.0
  0
LINE
  5
262
330
18
100
AcDbEntity
  8
外形線
100
AcDbLine
 10
43.34791054256939
 20
220.559734642497
 30
0.0
 11
41.03221865468191
 21
198.3952551441457
 31
0.0
  0
LINE
  5
263
330
18
100
AcDbEntity
  8
外形線
100
AcDbLine
 10
34.89431025782343
 20
221.1105318607673
 30
0.0
 11
37.03221865468191
 21
198.3952551441457
 31
0.0
  0
LINE
  5
264
330
18
100
AcDbEntity
  8
外形線
100
AcDbLine
 10
64.54961411552426
 20
253.9208841145488
 30
0.0
 11
343.5482572305502
 21
255.8990384166635
 31
0.0
  0
LINE
  5
265
330
18
100
AcDbEntity
  8
外形線
100
AcDbLine
 10
63.99371652853199
 20
238.4672733836727
 30
0.0
 11
319.5482572305502
 21
228.8250384166635
 31
0.0
  0
ARC
  5
276
330
18
100
AcDbEntity
  8
外形線
100
AcDbCircle
 10
368.5482572305502
 20
176.4180384166635
 30
0.0
 40
17.0
100
AcDbArc
 50
39.54802467229227
 51
188.0270063601246
  0
CIRCLE
  5
279
330
18
100
AcDbEntity
  8
外形線
100
AcDbCircle
 10
387.229122844092
 20
169.2742648390092
 30
0.0
 40
1.274999999999999
  0
LINE
  5
27B
330
18
100
AcDbEntity
  8
外形線
100
AcDbLine
 10
397.3135116730794
 20
171.6682871751191
 30
0.0
 11
398.130671115126
 21
171.6187370131132
 31
0.0
  0
LINE
  5
280
330
18
100
AcDbEntity
  8
外形線
100
AcDbLine
 10
405.2988446853898
 20
171.1840799028631
 30
0.0
 11
404.6270070951346
 21
160.1044303482824
 31
0.0
  0
LINE
  5
283
330
18
100
AcDbEntity
  8
外形線
100
AcDbLine
 10
397.3135116730794
 20
171.6682871751191
 30
0.0
 11
381.6568069309441
 21
187.2423594000926
 31
0.0
  0
ARC
  5
286
330
18
100
AcDbEntity
  8
外形線
100
AcDbCircle
 10
424.5903396259107
 20
158.8939121676425
 30
0.0
 40
20.0
100
AcDbArc
 50
176.53
 51
242.834215298427
  0
ARC
  5
28A
330
18
100
AcDbEntity
  8
外形線
100
AcDbCircle
 10
448.6297466670148
 20
115.860007986031
 30
0.0
 40
2.2
100
AcDbArc
 50
240.6819998495902
 51
47.72551964889161
  0
ARC
  5
28D
330
18
100
AcDbEntity
  8
外形線
100
AcDbCircle
 10
332.1364886724297
 20
-18.4573856225669
 30
0.0
 40
180.0
100
AcDbArc
 50
49.07931576779723
 51
62.39145364330955
  0
ARC
  5
293
330
18
100
AcDbEntity
  8
外形線
100
AcDbCircle
 10
377.4773380631638
 20
-7.260153039166766
 30
0.0
 40
140.0
100
AcDbArc
 50
60.01809450530237
 51
80.62061453642309
  0
ARC
  5
297
330
18
100
AcDbEntity
  8
外形線
100
AcDbCircle
 10
392.1485615418141
 20
81.53365002523349
 30
0.0
 40
50.0
100
AcDbArc
 50
80.70798275274626
 51
129.5138530282112
  0
LINE
  5
29A
330
18
100
AcDbEntity
  8
外形線
100
AcDbLine
 10
450.1096492970904
 20
117.4878557078697
 30
0.0
 11
450.0389439015207
 21
117.553683967199
 31
0.0
  0
LINE
  5
29B
330
18
100
AcDbEntity
  8
外形線
100
AcDbLine
 10
447.4390448038215
 20
114.0055040527494
 30
0.0
 11
447.5526641844504
 21
113.941703180805
 31
0.0
  0
LINE
  5
29C
330
18
100
AcDbEntity
  8
外形線
100
AcDbLine
 10
415.4590053627821
 20
141.1001285740665
 30
0.0
 11
415.5535678979819
 21
141.046817749877
 31
0.0
  0
ARC
  5
2B0
330
18
100
AcDbEntity
  8
外形線
100
AcDbCircle
 10
316.9052509212
 20
170.3326214767642
 30
0.0
 40
35.0
100
AcDbArc
 50
266.5300000000007
 51
4.958299726147592
  0
LINE
  5
2B2
330
18
100
AcDbEntity
  8
外形線
100
AcDbLine
 10
351.7148171188454
 20
174.0441609965668
 30
0.0
 11
351.7742762595101
 21
173.3576953529343
 31
0.0
  0
ARC
  5
2BA
330
18
100
AcDbEntity
  8
外形線
100
AcDbCircle
 10
59.7176607916652
 20
167.0931950827233
 30
0.0
 40
20.0
100
AcDbArc
 50
176.53
 51
268.2273962118847
  0
ARC
  5
2BD
330
18
100
AcDbEntity
  8
外形線
100
AcDbCircle
 10
58.14767758652073
 20
162.6801289450403
 30
0.0
 40
27.5
100
AcDbArc
 50
162.8669237162563
 51
266.53
  0
ARC
  5
2BE
330
18
100
AcDbEntity
  8
外形線
100
AcDbCircle
 10
39.03221865468191
 20
194.3952551441457
 30
0.0
 40
2.0
100
AcDbArc
 50
356.5299999999784
 51
176.5299999999983
  0
LINE
  5
2BF
330
18
100
AcDbEntity
  8
外形線
100
AcDbLine
 10
41.02855190775949
 20
194.2742033260817
 30
0.0
 11
39.75432826088917
 21
168.3037132633633
 31
0.0
  0
LINE
  5
2C1
330
18
100
AcDbEntity
  8
外形線
100
AcDbLine
 10
37.03588540160434
 20
194.5163069622097
 30
0.0
 11
31.86804208939373
 21
170.7814102102565
 31
0.0
  0
LINE
  5
2C2
330
18
100
AcDbEntity
  8
外形線
100
AcDbLine
 10
59.09900404474877
 20
147.1027657769406
 30
0.0
 11
314.78684410508
 21
135.3967895479062
 31
0.0
  0
ARC
  5
2C9
330
18
100
AcDbEntity
  8
外形線
100
AcDbCircle
 10
329.2380368706441
 20
159.2658789241792
 30
0.0
 40
50.0
100
AcDbArc
 50
262.5116338461345
 51
308.455435807068
  0
LINE
  5
2CC
330
18
100
AcDbEntity
  8
外形線
100
AcDbLine
 10
56.48321508814075
 20
135.2305467152232
 30
0.0
 11
322.7217929845115
 21
109.6923117172852
 31
0.0
  0
CIRCLE
  5
2CE
330
18
100
AcDbEntity
  8
外形線
100
AcDbCircle
 10
368.5482572305502
 20
176.4180384166635
 30
0.0
 40
9.0
  0
CIRCLE
  5
2CF
330
18
100
AcDbEntity
  8
外形線
100
AcDbCircle
 10
368.5482572305502
 20
176.4180384166635
 30
0.0
 40
10.0
  0
ARC
  5
2D0
330
18
100
AcDbEntity
  8
中心線
 48
0.4
100
AcDbCircle
 10
368.5482572305502
 20
176.4180384166635
 30
0.0
 40
20.00020602393886
100
AcDbArc
 50
325.7901978815073
 51
3.2569512046384
  0
LINE
  5
2D5
330
18
100
AcDbEntity
  8
隠れ線2
100
AcDbLine
 10
369.0482572305502
 20
159.4657656893908
 30
0.0
 11
397.1087226463385
 21
162.1442646608979
 31
0.0
  0
ARC
  5
471
330
18
100
AcDbEntity
  8
外形線
100
AcDbCircle
 10
64.76231456741505
 20
223.9216381487288
 30
0.0
 40
30.0
100
AcDbArc
 50
90.4062313432715
 51
185.3767054280507
  0
ARC
  5
472
330
18
100
AcDbEntity
  8
外形線
100
AcDbCircle
 10
63.23964039955751
 20
218.4814942096773
 30
0.0
 40
20.0
100
AcDbArc
 50
87.83921885975216
 51
174.0355128987468
  0
LINE
  5
531
330
18
100
AcDbEntity
  8
握り
100
AcDbLine
 10
519.8749071466924
 20
190.6180384166635
 30
0.0
 11
523.0482572305502
 21
190.6180384166635
 31
0.0
  0
LINE
  5
532
330
18
100
AcDbEntity
  8
握り
100
AcDbLine
 10
499.8749071466923
 20
190.6180384166635
 30
0.0
 11
507.2216073144081
 21
190.6180384166635
 31
0.0
  0
LINE
  5
533
330
18
100
AcDbEntity
  8
握り
100
AcDbLine
 10
497.221607314408
 20
190.6180384166635
 30
0.0
 11
497.221607314408
 21
183.0713384166636
 31
0.0
  0
LINE
  5
534
330
18
100
AcDbEntity
  8
握り
100
AcDbLine
 10
509.8749071466925
 20
190.6180384166635
 30
0.0
 11
517.221607314408
 21
190.6180384166635
 31
0.0
  0
LINE
  5
535
330
18
100
AcDbEntity
  8
握り
100
AcDbLine
 10
497.2216073144081
 20
180.4180384166635
 30
0.0
 11
497.2216073144079
 21
172.4180384166635
 31
0.0
  0
LINE
  5
536
330
18
100
AcDbEntity
  8
握り
100
AcDbLine
 10
479.8749071466923
 20
190.6180384166636
 30
0.0
 11
487.221607314408
 21
190.6180384166635
 31
0.0
  0
LINE
  5
537
330
18
100
AcDbEntity
  8
握り
100
AcDbLine
 10
479.8749071466925
 20
183.0713384166635
 30
0.0
 11
487.221607314408
 21
183.0713384166635
 31
0.0
  0
LINE
  5
538
330
18
100
AcDbEntity
  8
握り
100
AcDbLine
 10
479.8749071466923
 20
190.6180384166635
 30
0.0
 11
479.8749071466925
 21
183.0713384166635
 31
0.0
  0
LINE
  5
539
330
18
100
AcDbEntity
  8
握り
100
AcDbLine
 10
487.221607314408
 20
190.6180384166635
 30
0.0
 11
487.2216073144081
 21
183.0713384166635
 31
0.0
  0
LINE
  5
53A
330
18
100
AcDbEntity
  8
握り
100
AcDbLine
 10
489.8749071466924
 20
190.6180384166635
 30
0.0
 11
489.8749071466925
 21
183.0713384166635
 31
0.0
  0
LINE
  5
53B
330
18
100
AcDbEntity
  8
握り
100
AcDbLine
 10
469.8749071466925
 20
190.6180384166635
 30
0.0
 11
477.221607314408
 21
190.6180384166636
 31
0.0
  0
LINE
  5
53C
330
18
100
AcDbEntity
  8
握り
100
AcDbLine
 10
469.8749071466924
 20
183.0713384166635
 30
0.0
 11
477.2216073144082
 21
183.0713384166635
 31
0.0
  0
LINE
  5
53D
330
18
100
AcDbEntity
  8
握り
100
AcDbLine
 10
467.221607314408
 20
190.6180384166635
 30
0.0
 11
467.2216073144081
 21
183.0713384166635
 31
0.0
  0
LINE
  5
53E
330
18
100
AcDbEntity
  8
握り
100
AcDbLine
 10
469.8749071466924
 20
190.6180384166635
 30
0.0
 11
469.8749071466925
 21
183.0713384166635
 31
0.0
  0
LINE
  5
53F
330
18
100
AcDbEntity
  8
握り
100
AcDbLine
 10
477.221607314408
 20
190.6180384166635
 30
0.0
 11
477.2216073144082
 21
183.0713384166635
 31
0.0
  0
LINE
  5
540
330
18
100
AcDbEntity
  8
握り
100
AcDbLine
 10
479.8749071466923
 20
169.7647384166635
 30
0.0
 11
487.221607314408
 21
169.7647384166636
 31
0.0
  0
LINE
  5
541
330
18
100
AcDbEntity
  8
握り
100
AcDbLine
 10
469.8749071466921
 20
169.7647384166635
 30
0.0
 11
477.221607314408
 21
169.7647384166635
 31
0.0
  0
LINE
  5
542
330
18
100
AcDbEntity
  8
握り
100
AcDbLine
 10
489.8749071466925
 20
190.6180384166635
 30
0.0
 11
497.2216073144079
 21
190.6180384166635
 31
0.0
  0
LINE
  5
543
330
18
100
AcDbEntity
  8
握り
100
AcDbLine
 10
489.8749071466925
 20
183.0713384166635
 30
0.0
 11
497.2216073144079
 21
183.0713384166635
 31
0.0
  0
LINE
  5
544
330
18
100
AcDbEntity
  8
握り
100
AcDbLine
 10
489.8749071466924
 20
169.7647384166636
 30
0.0
 11
497.2216073144079
 21
169.7647384166636
 31
0.0
  0
ARC
  5
545
330
18
100
AcDbEntity
  8
握り
100
AcDbCircle
 10
523.0482572305502
 20
162.7180384166635
 30
0.0
 40
0.5
100
AcDbArc
 50
270.0
 51
0.0
  0
ARC
  5
546
330
18
100
AcDbEntity
  8
握り
100
AcDbCircle
 10
518.5482572305502
 20
162.9180384166635
 30
0.0
 40
1.5
100
AcDbArc
 50
207.8181392846543
 51
332.1818607153458
  0
LINE
  5
547
330
18
100
AcDbEntity
  8
握り
100
AcDbLine
 10
519.8749071466924
 20
162.2180384166635
 30
0.0
 11
523.0482572305502
 21
162.2180384166635
 31
0.0
  0
ARC
  5
548
330
18
100
AcDbEntity
  8
握り
100
AcDbCircle
 10
508.5482572305502
 20
162.9180384166635
 30
0.0
 40
1.5
100
AcDbArc
 50
207.8181392846543
 51
332.1818607153458
  0
ARC
  5
549
330
18
100
AcDbEntity
  8
握り
100
AcDbCircle
 10
498.5482572305502
 20
162.9180384166635
 30
0.0
 40
1.5
100
AcDbArc
 50
207.8181392846543
 51
332.1818607153458
  0
LINE
  5
54A
330
18
100
AcDbEntity
  8
握り
100
AcDbLine
 10
499.8749071466923
 20
162.2180384166635
 30
0.0
 11
507.2216073144081
 21
162.2180384166635
 31
0.0
  0
LINE
  5
54B
330
18
100
AcDbEntity
  8
握り
100
AcDbLine
 10
509.8749071466925
 20
162.2180384166635
 30
0.0
 11
517.221607314408
 21
162.2180384166635
 31
0.0
  0
ARC
  5
54C
330
18
100
AcDbEntity
  8
握り
100
AcDbCircle
 10
488.5482572305502
 20
162.9180384166635
 30
0.0
 40
1.5
100
AcDbArc
 50
207.8181392846543
 51
332.1818607153458
  0
LINE
  5
54D
330
18
100
AcDbEntity
  8
握り
100
AcDbLine
 10
479.8749071466923
 20
162.2180384166635
 30
0.0
 11
487.221607314408
 21
162.2180384166635
 31
0.0
  0
LINE
  5
54E
330
18
100
AcDbEntity
  8
握り
100
AcDbLine
 10
469.8749071466925
 20
162.2180384166635
 30
0.0
 11
477.221607314408
 21
162.2180384166635
 31
0.0
  0
ARC
  5
54F
330
18
100
AcDbEntity
  8
握り
100
AcDbCircle
 10
468.5482572305502
 20
162.9180384166635
 30
0.0
 40
1.5
100
AcDbArc
 50
207.8181392846543
 51
332.1818607153458
  0
ARC
  5
550
330
18
100
AcDbEntity
  8
握り
100
AcDbCircle
 10
478.5482572305502
 20
162.9180384166635
 30
0.0
 40
1.5
100
AcDbArc
 50
207.8181392846543
 51
332.1818607153458
  0
LINE
  5
551
330
18
100
AcDbEntity
  8
握り
100
AcDbLine
 10
489.8749071466925
 20
162.2180384166635
 30
0.0
 11
497.2216073144079
 21
162.2180384166635
 31
0.0
  0
LINE
  5
552
330
18
100
AcDbEntity
  8
握り
100
AcDbLine
 10
523.5482572305502
 20
190.1180384166635
 30
0.0
 11
523.5482572305502
 21
162.7180384166635
 31
0.0
  0
LINE
  5
553
330
18
100
AcDbEntity
  8
握り
100
AcDbLine
 10
499.8749071466924
 20
190.6180384166635
 30
0.0
 11
499.8749071466924
 21
162.2180384166635
 31
0.0
  0
LINE
  5
554
330
18
100
AcDbEntity
  8
握り
100
AcDbLine
 10
507.2216073144081
 20
190.6180384166635
 30
0.0
 11
507.2216073144081
 21
162.2180384166635
 31
0.0
  0
LINE
  5
555
330
18
100
AcDbEntity
  8
握り
100
AcDbLine
 10
509.8749071466924
 20
190.6180384166635
 30
0.0
 11
509.8749071466924
 21
162.2180384166635
 31
0.0
  0
LINE
  5
556
330
18
100
AcDbEntity
  8
握り
100
AcDbLine
 10
517.221607314408
 20
190.6180384166635
 30
0.0
 11
517.221607314408
 21
162.2180384166635
 31
0.0
  0
LINE
  5
557
330
18
100
AcDbEntity
  8
握り
100
AcDbLine
 10
519.8749071466924
 20
190.6180384166635
 30
0.0
 11
519.8749071466924
 21
162.2180384166635
 31
0.0
  0
LINE
  5
558
330
18
100
AcDbEntity
  8
握り
100
AcDbLine
 10
497.2216073144079
 20
169.7647384166636
 30
0.0
 11
497.221607314408
 21
162.2180384166635
 31
0.0
  0
LINE
  5
559
330
18
100
AcDbEntity
  8
握り
100
AcDbLine
 10
467.2216073144079
 20
169.7647384166635
 30
0.0
 11
467.221607314408
 21
162.2180384166635
 31
0.0
  0
LINE
  5
55A
330
18
100
AcDbEntity
  8
握り
100
AcDbLine
 10
469.8749071466923
 20
169.7647384166635
 30
0.0
 11
469.8749071466924
 21
162.2180384166635
 31
0.0
  0
LINE
  5
55B
330
18
100
AcDbEntity
  8
握り
100
AcDbLine
 10
477.221607314408
 20
169.7647384166635
 30
0.0
 11
477.221607314408
 21
162.2180384166635
 31
0.0
  0
LINE
  5
55C
330
18
100
AcDbEntity
  8
握り
100
AcDbLine
 10
479.8749071466923
 20
169.7647384166635
 30
0.0
 11
479.8749071466923
 21
162.2180384166635
 31
0.0
  0
LINE
  5
55D
330
18
100
AcDbEntity
  8
握り
100
AcDbLine
 10
487.2216073144081
 20
169.7647384166635
 30
0.0
 11
487.221607314408
 21
162.2180384166635
 31
0.0
  0
LINE
  5
55E
330
18
100
AcDbEntity
  8
握り
100
AcDbLine
 10
489.8749071466924
 20
169.7647384166635
 30
0.0
 11
489.8749071466924
 21
162.2180384166635
 31
0.0
  0
LINE
  5
55F
330
18
100
AcDbEntity
  8
握り
100
AcDbLine
 10
449.8749071466924
 20
190.6180384166635
 30
0.0
 11
457.2216073144081
 21
190.6180384166635
 31
0.0
  0
LINE
  5
560
330
18
100
AcDbEntity
  8
握り
100
AcDbLine
 10
449.8749071466924
 20
183.0713384166635
 30
0.0
 11
457.2216073144082
 21
183.0713384166635
 31
0.0
  0
LINE
  5
561
330
18
100
AcDbEntity
  8
握り
100
AcDbLine
 10
449.8749071466924
 20
190.6180384166635
 30
0.0
 11
449.8749071466924
 21
183.0713384166635
 31
0.0
  0
LINE
  5
562
330
18
100
AcDbEntity
  8
握り
100
AcDbLine
 10
457.2216073144081
 20
190.6180384166635
 30
0.0
 11
457.2216073144081
 21
183.0713384166635
 31
0.0
  0
LINE
  5
563
330
18
100
AcDbEntity
  8
握り
100
AcDbLine
 10
459.8749071466924
 20
190.6180384166635
 30
0.0
 11
459.8749071466925
 21
183.0713384166635
 31
0.0
  0
LINE
  5
564
330
18
100
AcDbEntity
  8
握り
100
AcDbLine
 10
429.8749071466923
 20
190.6180384166635
 30
0.0
 11
437.2216073144081
 21
190.6180384166635
 31
0.0
  0
LINE
  5
565
330
18
100
AcDbEntity
  8
握り
100
AcDbLine
 10
439.8749071466924
 20
190.6180384166635
 30
0.0
 11
447.221607314408
 21
190.6180384166635
 31
0.0
  0
LINE
  5
566
330
18
100
AcDbEntity
  8
握り
100
AcDbLine
 10
449.8749071466924
 20
169.7647384166635
 30
0.0
 11
457.2216073144081
 21
169.7647384166635
 31
0.0
  0
LINE
  5
567
330
18
100
AcDbEntity
  8
握り
100
AcDbLine
 10
449.8749071466924
 20
180.4180384166635
 30
0.0
 11
449.8749071466924
 21
172.4180384166635
 31
0.0
  0
LINE
  5
568
330
18
100
AcDbEntity
  8
握り
100
AcDbLine
 10
424.0482572305502
 20
190.6180384166635
 30
0.0
 11
427.221607314408
 21
190.6180384166635
 31
0.0
  0
ARC
  5
569
330
18
100
AcDbEntity
  8
握り
100
AcDbCircle
 10
458.5482572305502
 20
162.9180384166635
 30
0.0
 40
1.5
100
AcDbArc
 50
207.8181392846543
 51
332.1818607153458
  0
ARC
  5
56A
330
18
100
AcDbEntity
  8
握り
100
AcDbCircle
 10
448.5482572305502
 20
162.9180384166635
 30
0.0
 40
1.5
100
AcDbArc
 50
207.8181392846543
 51
332.1818607153458
  0
LINE
  5
56B
330
18
100
AcDbEntity
  8
握り
100
AcDbLine
 10
449.8749071466924
 20
162.2180384166635
 30
0.0
 11
457.2216073144081
 21
162.2180384166635
 31
0.0
  0
ARC
  5
56C
330
18
100
AcDbEntity
  8
握り
100
AcDbCircle
 10
438.5482572305502
 20
162.9180384166635
 30
0.0
 40
1.5
100
AcDbArc
 50
207.8181392846543
 51
332.1818607153458
  0
ARC
  5
56D
330
18
100
AcDbEntity
  8
握り
100
AcDbCircle
 10
428.5482572305502
 20
162.9180384166635
 30
0.0
 40
1.5
100
AcDbArc
 50
207.8181392846543
 51
332.1818607153458
  0
LINE
  5
56E
330
18
100
AcDbEntity
  8
握り
100
AcDbLine
 10
429.8749071466923
 20
162.2180384166636
 30
0.0
 11
437.2216073144081
 21
162.2180384166636
 31
0.0
  0
LINE
  5
56F
330
18
100
AcDbEntity
  8
握り
100
AcDbLine
 10
439.8749071466924
 20
162.2180384166636
 30
0.0
 11
447.221607314408
 21
162.2180384166635
 31
0.0
  0
ARC
  5
570
330
18
100
AcDbEntity
  8
握り
100
AcDbCircle
 10
424.0482572305502
 20
162.7180384166635
 30
0.0
 40
0.5
100
AcDbArc
 50
180.0
 51
270.0
  0
LINE
  5
571
330
18
100
AcDbEntity
  8
握り
100
AcDbLine
 10
424.0482572305502
 20
162.2180384166635
 30
0.0
 11
427.2216073144082
 21
162.2180384166636
 31
0.0
  0
LINE
  5
572
330
18
100
AcDbEntity
  8
握り
100
AcDbLine
 10
423.5482572305502
 20
190.1180384166635
 30
0.0
 11
423.5482572305502
 21
162.7180384166635
 31
0.0
  0
LINE
  5
573
330
18
100
AcDbEntity
  8
握り
100
AcDbLine
 10
429.8749071466923
 20
190.6180384166635
 30
0.0
 11
429.8749071466923
 21
162.2180384166635
 31
0.0
  0
LINE
  5
574
330
18
100
AcDbEntity
  8
握り
100
AcDbLine
 10
427.221607314408
 20
190.6180384166635
 30
0.0
 11
427.221607314408
 21
162.2180384166635
 31
0.0
  0
LINE
  5
575
330
18
100
AcDbEntity
  8
握り
100
AcDbLine
 10
437.221607314408
 20
190.6180384166635
 30
0.0
 11
437.221607314408
 21
162.2180384166635
 31
0.0
  0
LINE
  5
576
330
18
100
AcDbEntity
  8
握り
100
AcDbLine
 10
439.8749071466924
 20
190.6180384166635
 30
0.0
 11
439.8749071466924
 21
162.2180384166635
 31
0.0
  0
LINE
  5
577
330
18
100
AcDbEntity
  8
握り
100
AcDbLine
 10
447.221607314408
 20
190.6180384166635
 30
0.0
 11
447.221607314408
 21
162.2180384166635
 31
0.0
  0
LINE
  5
578
330
18
100
AcDbEntity
  8
握り
100
AcDbLine
 10
449.8749071466924
 20
169.7647384166636
 30
0.0
 11
449.8749071466924
 21
162.2180384166635
 31
0.0
  0
LINE
  5
579
330
18
100
AcDbEntity
  8
握り
100
AcDbLine
 10
457.2216073144081
 20
169.7647384166635
 30
0.0
 11
457.2216073144081
 21
162.2180384166635
 31
0.0
  0
LINE
  5
57A
330
18
100
AcDbEntity
  8
握り
100
AcDbLine
 10
459.8749071466922
 20
169.7647384166635
 30
0.0
 11
459.8749071466924
 21
162.2180384166635
 31
0.0
  0
LINE
  5
57B
330
18
100
AcDbEntity
  8
握り
100
AcDbLine
 10
459.8749071466924
 20
190.6180384166635
 30
0.0
 11
467.221607314408
 21
190.6180384166635
 31
0.0
  0
LINE
  5
57C
330
18
100
AcDbEntity
  8
握り
100
AcDbLine
 10
459.8749071466924
 20
162.2180384166635
 30
0.0
 11
467.221607314408
 21
162.2180384166635
 31
0.0
  0
LINE
  5
57D
330
18
100
AcDbEntity
  8
握り
100
AcDbLine
 10
449.8749071466924
 20
180.4180384166635
 30
0.0
 11
497.2216073144081
 21
180.4180384166635
 31
0.0
  0
LINE
  5
57E
330
18
100
AcDbEntity
  8
握り
100
AcDbLine
 10
449.8749071466924
 20
172.4180384166635
 30
0.0
 11
497.2216073144079
 21
172.4180384166635
 31
0.0
  0
LINE
  5
57F
330
18
100
AcDbEntity
  8
握り
100
AcDbLine
 10
459.8749071466925
 20
183.0713384166635
 30
0.0
 11
467.2216073144083
 21
183.0713384166635
 31
0.0
  0
LINE
  5
580
330
18
100
AcDbEntity
  8
握り
100
AcDbLine
 10
459.8749071466924
 20
169.7647384166635
 30
0.0
 11
467.2216073144078
 21
169.7647384166635
 31
0.0
  0
ARC
  5
581
330
18
100
AcDbEntity
  8
握り
100
AcDbCircle
 10
523.0482572305502
 20
190.1180384166635
 30
0.0
 40
0.5
100
AcDbArc
 50
0.0
 51
90.0
  0
ARC
  5
582
330
18
100
AcDbEntity
  8
握り
100
AcDbCircle
 10
424.0482572305502
 20
190.1180384166635
 30
0.0
 40
0.5
100
AcDbArc
 50
90.0
 51
180.0
  0
ARC
  5
583
330
18
100
AcDbEntity
  8
握り
100
AcDbCircle
 10
428.5482572305502
 20
189.9180384166635
 30
0.0
 40
1.5
100
AcDbArc
 50
27.81813928465427
 51
152.1818607153457
  0
ARC
  5
584
330
18
100
AcDbEntity
  8
握り
100
AcDbCircle
 10
438.5482572305502
 20
189.9180384166635
 30
0.0
 40
1.5
100
AcDbArc
 50
27.81813928465427
 51
152.1818607153457
  0
ARC
  5
585
330
18
100
AcDbEntity
  8
握り
100
AcDbCircle
 10
448.5482572305502
 20
189.9180384166635
 30
0.0
 40
1.5
100
AcDbArc
 50
27.81813928465427
 51
152.1818607153457
  0
ARC
  5
586
330
18
100
AcDbEntity
  8
握り
100
AcDbCircle
 10
458.5482572305502
 20
189.9180384166635
 30
0.0
 40
1.5
100
AcDbArc
 50
27.81813928465427
 51
152.1818607153457
  0
ARC
  5
587
330
18
100
AcDbEntity
  8
握り
100
AcDbCircle
 10
468.5482572305502
 20
189.9180384166635
 30
0.0
 40
1.5
100
AcDbArc
 50
27.81813928465427
 51
152.1818607153457
  0
ARC
  5
588
330
18
100
AcDbEntity
  8
握り
100
AcDbCircle
 10
478.5482572305502
 20
189.9180384166635
 30
0.0
 40
1.5
100
AcDbArc
 50
27.81813928465427
 51
152.1818607153457
  0
ARC
  5
589
330
18
100
AcDbEntity
  8
握り
100
AcDbCircle
 10
488.5482572305502
 20
189.9180384166635
 30
0.0
 40
1.5
100
AcDbArc
 50
27.81813928465427
 51
152.1818607153457
  0
ARC
  5
58A
330
18
100
AcDbEntity
  8
握り
100
AcDbCircle
 10
498.5482572305502
 20
189.9180384166635
 30
0.0
 40
1.5
100
AcDbArc
 50
27.81813928465427
 51
152.1818607153457
  0
ARC
  5
58B
330
18
100
AcDbEntity
  8
握り
100
AcDbCircle
 10
508.5482572305502
 20
189.9180384166635
 30
0.0
 40
1.5
100
AcDbArc
 50
27.81813928465427
 51
152.1818607153457
  0
ARC
  5
58C
330
18
100
AcDbEntity
  8
握り
100
AcDbCircle
 10
518.5482572305502
 20
189.9180384166635
 30
0.0
 40
1.5
100
AcDbArc
 50
27.81813928465427
 51
152.1818607153457
  0
HATCH
  5
58D
330
18
100
AcDbEntity
  8
ROGO
 62
     4
100
AcDbHatch
 10
0.0
 20
0.0
 30
0.0
210
0.0
220
0.0
230
1.0
  2
SOLID
 70
     1
 71
     1
 91
        2
 92
        5
 93
        6
 72
     4
 94
        3
 73
     0
 74
     0
 95
       38
 96
       34
 40
0.0
 40
0.0
 40
0.0
 40
0.0
 40
0.2582400211805774
 40
0.3393418442955424
 40
0.443552172800835
 40
0.530394283206717
 40
0.6036667919818254
 40
0.7009894053152177
 40
0.7507174249931042
 40
0.8067242281503032
 40
0.8892677166883521
 40
0.9827715778106668
 40
1.043426616793024
 40
1.109318337455068
 40
1.182564491755753
 40
1.293719242428883
 40
1.399327847180614
 40
1.448424760475743
 40
1.50441322219426
 40
1.570741059842362
 40
1.617957956886697
 40
1.657539314700464
 40
1.714052551848318
 40
1.776150918813051
 40
1.838248940024221
 40
1.892584795022379
 40
2.017023561310864
 40
2.066120474605993
 40
2.164314359515976
 40
2.251113385583432
 40
2.417283613623161
 40
2.622320469312984
 40
2.918423525691272
 40
2.918423525691272
 40
2.918423525691272
 40
2.918423525691272
 10
467.85334592155
 20
177.1379526438671
 10
467.7672667820847
 20
177.1318717594373
 10
467.6541539740546
 20
177.1238811368842
 10
467.5105271561838
 20
177.0845316708771
 10
467.4322346498396
 20
177.0376537859372
 10
467.3507556479577
 20
177.0031962935079
 10
467.281287210265
 20
176.9521715802948
 10
467.2110213521278
 20
176.9258790371613
 10
467.1618190473054
 20
176.8784688823433
 10
467.1048713928298
 20
176.8495087135219
 10
467.0595229644937
 20
176.7846874363585
 10
467.008836283734
 20
176.7240818911321
 10
466.9500333574379
 20
176.6798425460214
 10
466.901773006639
 20
176.6333782903609
 10
466.8575008453185
 20
176.5616699829554
 10
466.8312985987882
 20
176.4663908762616
 10
466.7574388639177
 20
176.4062350844256
 10
466.7463179003704
 20
176.3339098734597
 10
466.7054638286624
 20
176.2912392160446
 10
466.6876990494396
 20
176.2361575274945
 10
466.6809333664056
 20
176.185692971322
 10
466.6728129334878
 20
176.1385625692816
 10
466.6515714188699
 20
176.0889834682275
 10
466.658504722529
 20
176.0277402126062
 10
466.6565296324691
 20
175.9684363354255
 10
466.6576919752877
 20
175.8883742545519
 10
466.6534969190791
 20
175.8104239732384
 10
466.6869508483864
 20
175.7255955787121
 10
466.7067477735332
 20
175.649982800617
 10
466.7609648734528
 20
175.5452877402578
 10
466.8544882346212
 20
175.4244922778165
 10
467.0323307289319
 20
175.2778694731125
 10
467.2033314868738
 20
175.2629952720878
 10
467.3043688336313
 20
175.2542067156816
 72
     1
 10
467.3043688336312
 20
175.2542067156816
 11
468.3764457238964
 21
175.2542067156816
 72
     4
 94
        3
 73
     0
 74
     0
 95
       11
 96
        7
 40
0.1647869275458135
 40
0.1647869275458135
 40
0.1647869275458135
 40
0.1647869275458135
 40
0.2545010798212315
 40
0.5111620267764023
 40
0.7602998271033902
 40
0.8850764140209603
 40
0.8850764140209603
 40
0.8850764140209603
 40
0.8850764140209603
 10
468.3764457238961
 20
175.2542067156816
 10
468.3914055814959
 20
175.2539184076202
 10
468.4491637169653
 20
175.2528052863248
 10
468.5478730628172
 20
175.2669860443029
 10
468.6517284444432
 20
175.2805751791219
 10
468.7136441750634
 20
175.2904717359561
 10
468.7336135219218
 20
175.2960302112653
 72
     4
 94
        3
 73
     0
 74
     0
 95
        9
 96
        5
 40
0.0
 40
0.0
 40
0.0
 40
0.0
 40
0.1622561919360204
 40
0.3804197703110171
 40
0.3804197703110171
 40
0.3804197703110171
 40
0.3804197703110171
 10
468.7336135219218
 20
175.2960302112653
 10
468.7857349052332
 20
175.3119764108699
 10
468.9079367419152
 20
175.3493632712328
 10
469.0089034522535
 20
175.4283808680534
 10
469.0668059603333
 20
175.4736959726361
 72
     4
 94
        3
 73
     0
 74
     0
 95
       25
 96
       21
 40
0.0
 40
0.0
 40
0.0
 40
0.0
 40
0.165525918914855
 40
0.3412380755365305
 40
0.5940540902285263
 40
0.7697671103696209
 40
0.9377330196075423
 40
1.11479469302833
 40
1.274661249598185
 40
1.574522170874768
 40
1.815540668866877
 40
2.15849091873445
 40
2.536227739636605
 40
2.738070817316548
 40
2.925680654369045
 40
3.162706124480894
 40
3.395643218188267
 40
3.648478129958861
 40
3.928509979727306
 40
4.337226830236035
 40
4.337226830236035
 40
4.337226830236035
 40
4.337226830236035
 10
469.0668059603333
 20
175.4736959726361
 10
469.0880811851816
 20
175.4912770354156
 10
469.1284344699014
 20
175.5330914971609
 10
469.200007665101
 20
175.6008634233589
 10
469.2630793219676
 20
175.6798230954361
 10
469.3408827515636
 20
175.7438171423981
 10
469.3813869737622
 20
175.8220546086089
 10
469.4397706127681
 20
175.8835867093218
 10
469.4887449255072
 20
175.9786169693084
 10
469.5302972093643
 20
176.0877766338
 10
469.5699115743606
 20
176.2300641819478
 10
469.5850922076988
 20
176.3905856862986
 10
469.5626229824885
 20
176.5458901612
 10
469.5083430143816
 20
176.6619751548242
 10
469.4684370704257
 20
176.7587200329185
 10
469.4078748009364
 20
176.8503544667431
 10
469.3387814368499
 20
176.9500170472204
 10
469.2414411214794
 20
177.0324541362419
 10
469.1142273234492
 20
177.1318865496354
 10
468.9957371695656
 20
177.1356935160726
 10
468.9254228118149
 20
177.1379526438671
 72
     1
 10
468.9254228118149
 20
177.1379526438671
 11
467.85334592155
 21
177.137952643867
 97
        6
330
593
330
592
330
594
330
591
330
590
330
58F
 92
       20
 93
        1
 72
     3
 10
468.0997150567368
 20
176.1698155121257
 11
0.2546924415247531
 21
0.2239701316915159
 40
0.6788083417438792
 50
0.0
 51
360.0
 73
     1
 97
        1
330
58E
 75
     0
 76
     1
 47
0.088756267210375
 98
        2
 10
468.1746168792634
 20
176.6176544697314
 10
468.1746168792634
 20
176.6176544697314
450
        0
451
        0
460
0.0
461
0.0
452
        0
462
0.0
453
        0
470

  0
ELLIPSE
  5
58E
102
{ACAD_REACTORS
330
58D
102
}
330
18
100
AcDbEntity
  8
ROGO
 62
     4
100
AcDbEllipse
 10
468.0997150567368
 20
176.1698155121257
 30
0.0
 11
0.2546924415247531
 21
0.2239701316915159
 31
0.0
210
0.0
220
0.0
230
1.0
 40
0.6788083417438792
 41
0.0
 42
6.283185307179586
  0
SPLINE
  5
58F
102
{ACAD_REACTORS
330
58D
102
}
330
18
100
AcDbEntity
  8
ROGO
 62
     4
100
AcDbSpline
210
0.0
220
0.0
230
1.0
 70
     8
 71
     3
 72
     9
 73
     5
 74
     3
 42
0.0000000001
 43
0.0000000001
 44
0.0000000001
 40
0.0
 40
0.0
 40
0.0
 40
0.0
 40
0.1622561919360204
 40
0.3804197703110171
 40
0.3804197703110171
 40
0.3804197703110171
 40
0.3804197703110171
 10
468.7336135219218
 20
175.2960302112653
 30
0.0
 10
468.7857349052332
 20
175.3119764108699
 30
0.0
 10
468.9079367419151
 20
175.3493632712327
 30
0.0
 10
469.0089034522535
 20
175.4283808680534
 30
0.0
 10
469.0668059603333
 20
175.4736959726361
 30
0.0
 11
468.7336135219218
 21
175.2960302112653
 31
0.0
 11
468.8861146136713
 21
175.3514422030792
 31
0.0
 11
469.0668059603333
 21
175.4736959726361
 31
0.0
  0
SPLINE
  5
590
102
{ACAD_REACTORS
330
58D
102
}
330
18
100
AcDbEntity
  8
ROGO
 62
     4
100
AcDbSpline
210
0.0
220
0.0
230
1.0
 70
     8
 71
     3
 72
    11
 73
     7
 74
     0
 42
0.0000000001
 43
0.0000000001
 40
0.1647869275458134
 40
0.1647869275458134
 40
0.1647869275458134
 40
0.1647869275458134
 40
0.2895635144633836
 40
0.5387013147903714
 40
0.7953622617455423
 40
0.8850764140209602
 40
0.8850764140209602
 40
0.8850764140209602
 40
0.8850764140209602
 10
468.7336135219218
 20
175.2960302112653
 30
0.0
 10
468.7136441750634
 20
175.2904717359561
 30
0.0
 10
468.6517284444432
 20
175.2805751791219
 30
0.0
 10
468.5478730628172
 20
175.2669860443029
 30
0.0
 10
468.4491637169653
 20
175.2528052863248
 30
0.0
 10
468.3914055814959
 20
175.2539184076202
 30
0.0
 10
468.3764457238961
 20
175.2542067156816
 30
0.0
  0
LINE
  5
591
102
{ACAD_REACTORS
330
58D
102
}
330
18
100
AcDbEntity
  8
ROGO
 62
     4
100
AcDbLine
 10
467.3043688336313
 20
175.2542067156816
 30
0.0
 11
468.376445723896
 21
175.2542067156816
 31
0.0
  0
LINE
  5
592
102
{ACAD_REACTORS
330
58D
102
}
330
18
100
AcDbEntity
  8
ROGO
 62
     4
100
AcDbLine
 10
467.85334592155
 20
177.1379526438671
 30
0.0
 11
468.9254228118149
 21
177.1379526438671
 31
0.0
  0
SPLINE
  5
593
102
{ACAD_REACTORS
330
58D
102
}
330
18
100
AcDbEntity
  8
ROGO
 62
     4
100
AcDbSpline
210
0.0
220
0.0
230
1.0
 70
     8
 71
     3
 72
    25
 73
    21
 74
     0
 42
0.0000000001
 43
0.0000000001
 40
0.0
 40
0.0
 40
0.0
 40
0.0
 40
0.4087168505087288
 40
0.6887487002771746
 40
0.9415836120477687
 40
1.17452070575514
 40
1.41154617586699
 40
1.599156012919487
 40
1.80099909059943
 40
2.178735911501585
 40
2.521686161369157
 40
2.762704659361267
 40
3.06256558063785
 40
3.222432137207705
 40
3.399493810628493
 40
3.567459719866414
 40
3.743172740007509
 40
3.995988754699505
 40
4.17170091132118
 40
4.337226830236035
 40
4.337226830236035
 40
4.337226830236035
 40
4.337226830236035
 10
468.9254228118149
 20
177.1379526438671
 30
0.0
 10
468.9957371695656
 20
177.1356935160726
 30
0.0
 10
469.1142273234492
 20
177.1318865496354
 30
0.0
 10
469.2414411214794
 20
177.0324541362419
 30
0.0
 10
469.3387814368499
 20
176.9500170472204
 30
0.0
 10
469.4078748009364
 20
176.8503544667431
 30
0.0
 10
469.4684370704257
 20
176.7587200329185
 30
0.0
 10
469.5083430143816
 20
176.6619751548242
 30
0.0
 10
469.5626229824885
 20
176.5458901612
 30
0.0
 10
469.5850922076988
 20
176.3905856862986
 30
0.0
 10
469.5699115743606
 20
176.2300641819478
 30
0.0
 10
469.5302972093643
 20
176.0877766338
 30
0.0
 10
469.4887449255072
 20
175.9786169693084
 30
0.0
 10
469.4397706127681
 20
175.8835867093218
 30
0.0
 10
469.3813869737622
 20
175.8220546086089
 30
0.0
 10
469.3408827515636
 20
175.7438171423981
 30
0.0
 10
469.2630793219676
 20
175.6798230954361
 30
0.0
 10
469.200007665101
 20
175.6008634233589
 30
0.0
 10
469.1284344699014
 20
175.5330914971609
 30
0.0
 10
469.0880811851816
 20
175.4912770354156
 30
0.0
 10
469.0668059603333
 20
175.4736959726361
 30
0.0
  0
SPLINE
  5
594
102
{ACAD_REACTORS
330
58D
102
}
330
18
100
AcDbEntity
  8
ROGO
 62
     4
100
AcDbSpline
210
0.0
220
0.0
230
1.0
 70
     8
 71
     3
 72
    38
 73
    34
 74
    32
 42
0.0000000001
 43
0.0000000001
 44
0.0000000001
 40
0.0
 40
0.0
 40
0.0
 40
0.0
 40
0.2582400211805774
 40
0.3393418442955424
 40
0.443552172800835
 40
0.530394283206717
 40
0.6036667919818254
 40
0.7009894053152177
 40
0.7507174249931042
 40
0.8067242281503032
 40
0.8892677166883521
 40
0.9827715778106668
 40
1.043426616793024
 40
1.109318337455068
 40
1.182564491755753
 40
1.293719242428883
 40
1.399327847180614
 40
1.448424760475743
 40
1.50441322219426
 40
1.570741059842362
 40
1.617957956886697
 40
1.657539314700464
 40
1.714052551848318
 40
1.776150918813051
 40
1.838248940024221
 40
1.892584795022379
 40
2.017023561310864
 40
2.066120474605993
 40
2.164314359515976
 40
2.251113385583432
 40
2.417283613623161
 40
2.622320469312984
 40
2.918423525691272
 40
2.918423525691272
 40
2.918423525691272
 40
2.918423525691272
 10
467.85334592155
 20
177.1379526438671
 30
0.0
 10
467.7672667820847
 20
177.1318717594373
 30
0.0
 10
467.6541539740545
 20
177.1238811368842
 30
0.0
 10
467.5105271561838
 20
177.0845316708771
 30
0.0
 10
467.4322346498395
 20
177.0376537859372
 30
0.0
 10
467.3507556479578
 20
177.003196293508
 30
0.0
 10
467.281287210265
 20
176.9521715802948
 30
0.0
 10
467.2110213521278
 20
176.9258790371613
 30
0.0
 10
467.1618190473054
 20
176.8784688823433
 30
0.0
 10
467.1048713928297
 20
176.8495087135219
 30
0.0
 10
467.0595229644937
 20
176.7846874363585
 30
0.0
 10
467.008836283734
 20
176.7240818911321
 30
0.0
 10
466.9500333574381
 20
176.6798425460214
 30
0.0
 10
466.9017730066388
 20
176.6333782903609
 30
0.0
 10
466.8575008453185
 20
176.5616699829554
 30
0.0
 10
466.8312985987881
 20
176.4663908762616
 30
0.0
 10
466.7574388639176
 20
176.4062350844256
 30
0.0
 10
466.7463179003705
 20
176.3339098734598
 30
0.0
 10
466.7054638286622
 20
176.2912392160445
 30
0.0
 10
466.6876990494396
 20
176.2361575274945
 30
0.0
 10
466.6809333664056
 20
176.185692971322
 30
0.0
 10
466.6728129334878
 20
176.1385625692816
 30
0.0
 10
466.6515714188699
 20
176.0889834682275
 30
0.0
 10
466.658504722529
 20
176.0277402126062
 30
0.0
 10
466.6565296324689
 20
175.9684363354254
 30
0.0
 10
466.6576919752878
 20
175.8883742545519
 30
0.0
 10
466.6534969190791
 20
175.8104239732383
 30
0.0
 10
466.6869508483864
 20
175.7255955787121
 30
0.0
 10
466.7067477735332
 20
175.649982800617
 30
0.0
 10
466.7609648734528
 20
175.5452877402578
 30
0.0
 10
466.8544882346212
 20
175.4244922778165
 30
0.0
 10
467.0323307289319
 20
175.2778694731125
 30
0.0
 10
467.2033314868738
 20
175.2629952720877
 30
0.0
 10
467.3043688336313
 20
175.2542067156816
 30
0.0
 11
467.85334592155
 21
177.1379526438671
 31
0.0
 11
467.5969792973396
 21
177.106903287508
 31
0.0
 11
467.5192924600137
 21
177.0836167888689
 31
0.0
 11
467.4260686214308
 21
177.0370431000837
 31
0.0
 11
467.348381784105
 21
176.9982319232651
 31
0.0
 11
467.286232558383
 21
176.959420400693
 31
0.0
 11
467.2007772204286
 21
176.9128470576614
 31
0.0
 11
467.161933496592
 21
176.8817980470558
 31
0.0
 11
467.1153212721271
 21
176.8507486906966
 31
0.0
 11
467.0609405470336
 21
176.7886506694855
 31
0.0
 11
466.9987913213117
 21
176.7187904820612
 31
0.0
 11
466.9521790968466
 21
176.6799789594891
 31
0.0
 11
466.9055674827289
 21
176.6334056164575
 31
0.0
 11
466.8667237588922
 21
176.5713075952463
 31
0.0
 11
466.8201121447745
 21
176.470398051463
 31
0.0
 11
466.7579623087053
 21
176.3850131858592
 31
0.0
 11
466.7424253074485
 21
176.3384394970741
 31
0.0
 11
466.7113506945876
 21
176.2918661540424
 31
0.0
 11
466.6880445823551
 21
176.2297677870777
 31
0.0
 11
466.6802754713794
 21
176.1831944440461
 31
0.0
 11
466.6725069707509
 21
176.1443829214739
 31
0.0
 11
466.6569699694941
 21
176.0900474122293
 31
0.0
 11
466.6569699694941
 21
176.0279490452646
 31
0.0
 11
466.6569699694941
 21
175.9658510240534
 31
0.0
 11
466.6569699694941
 21
175.9115151690552
 31
0.0
 11
466.6647384701226
 21
175.7873191266328
 31
0.0
 11
466.6802754713794
 21
175.7407454378477
 31
0.0
 11
466.7113506945876
 21
175.6475984060309
 31
0.0
 11
466.750193808077
 21
175.5699757066401
 31
0.0
 11
466.8511867576354
 21
175.4380174980047
 31
0.0
 11
467.0143289329159
 21
175.3138211098288
 31
0.0
 11
467.3043688336313
 21
175.2542067156816
 31
0.0
  0
HATCH
  5
595
330
18
100
AcDbEntity
  8
ROGO
 62
     4
100
AcDbHatch
 10
0.0
 20
0.0
 30
0.0
210
0.0
220
0.0
230
1.0
  2
SOLID
 70
     1
 71
     1
 91
        2
 92
        7
 72
     0
 73
     1
 93
        8
 10
462.9133441594847
 20
177.1301280450495
 10
461.4127677555254
 20
177.1301280450494
 10
460.0600044268124
 20
175.2542067156817
 10
461.0989290720861
 20
175.2542067156817
 10
461.3564868400589
 20
175.611370530097
 10
462.542025395465
 20
175.611370530097
 10
462.700691714135
 20
175.2542067156817
 10
463.7467027457467
 20
175.2542067156817
 97
        8
330
5BC
330
5C2
330
5BD
330
5BE
330
5C0
330
596
330
5BB
330
598
 92
       22
 72
     0
 73
     1
 93
        3
 10
462.3746752446073
 20
175.9880819753771
 10
461.6281407845518
 20
175.9880819753771
 10
462.0900932649995
 20
176.6286866494041
 97
        3
330
5BF
330
5C1
330
597
 75
     0
 76
     1
 47
0.0128389261915577
 98
        2
 10
462.795837170205
 20
176.6800681638937
 10
462.795837170205
 20
176.6800681638937
450
        0
451
        0
460
0.0
461
0.0
452
        0
462
0.0
453
        0
470

  0
LINE
  5
596
102
{ACAD_REACTORS
330
595
102
}
330
18
100
AcDbEntity
  8
ROGO
 62
     4
100
AcDbLine
 10
462.5420253954651
 20
175.611370530097
 30
0.0
 11
462.700691714135
 21
175.2542067156817
 31
0.0
  0
LINE
  5
597
102
{ACAD_REACTORS
330
595
102
}
330
18
100
AcDbEntity
  8
ROGO
 62
     4
100
AcDbLine
 10
462.0900932649995
 20
176.6286866494041
 30
0.0
 11
462.3746752446071
 21
175.9880819753771
 31
0.0
  0
LINE
  5
598
102
{ACAD_REACTORS
330
595
102
}
330
18
100
AcDbEntity
  8
ROGO
 62
     4
100
AcDbLine
 10
462.9133441594847
 20
177.1301280450495
 30
0.0
 11
463.7467027457467
 21
175.2542067156817
 31
0.0
  0
HATCH
  5
599
330
18
100
AcDbEntity
  8
ROGO
 62
     4
100
AcDbHatch
 10
0.0
 20
0.0
 30
0.0
210
0.0
220
0.0
230
1.0
  2
SOLID
 70
     1
 71
     1
 91
        2
 92
        5
 93
        6
 72
     1
 10
453.0256959555756
 20
174.1988726380409
 11
454.3882687497705
 21
174.1988726380409
 72
     1
 10
454.3882687497705
 20
174.1988726380409
 11
454.8657318223826
 21
175.2542067156817
 72
     1
 10
454.8657318223826
 20
175.2542067156817
 11
456.1394579197716
 21
175.2542067156816
 72
     4
 94
        3
 73
     0
 74
     0
 95
       18
 96
       14
 40
0.108740278791501
 40
0.108740278791501
 40
0.108740278791501
 40
0.108740278791501
 40
0.6623149649549278
 40
1.384304701649787
 40
2.097394834876493
 40
2.774073369849618
 40
3.428974823686337
 40
4.005208313035923
 40
4.455173659284313
 40
4.720999734343524
 40
5.086034088486724
 40
5.569973738255373
 40
6.060470601257719
 40
6.060470601257719
 40
6.060470601257719
 40
6.060470601257719
 10
456.1394579197714
 20
175.2542067156816
 10
456.2291006581923
 20
175.2548742580118
 10
456.435658311126
 20
175.2564124303098
 10
456.7246308512793
 20
175.4107879110175
 10
456.9986593842693
 20
175.6074510257913
 10
457.2193707258141
 20
175.853161069794
 10
457.3568805413514
 20
176.1340884091093
 10
457.378180377133
 20
176.403331459926
 10
457.3651773506888
 20
176.6162993658639
 10
457.2722641956273
 20
176.7647432834394
 10
457.1756696328777
 20
176.9153986794004
 10
456.9985478678104
 20
177.0459019791024
 10
456.8534222280239
 20
177.1030818238385
 10
456.7796228885438
 20
177.1301280450495
 72
     1
 10
456.7796228885439
 20
177.1301280450495
 11
454.4760538699935
 21
177.1301280450495
 72
     1
 10
454.4760538699935
 20
177.1301280450495
 11
453.0256959555756
 21
174.1988726380409
 97
        6
330
5D4
330
5D7
330
5D5
330
5D6
330
5CE
330
5D3
 92
       20
 93
        4
 72
     1
 10
455.1605382399684
 20
175.9058157649085
 11
455.3862493776219
 21
176.4047038861733
 72
     1
 10
455.3862493776219
 20
176.4047038861733
 11
455.9662308049036
 21
176.4047038861733
 72
     4
 94
        3
 73
     0
 74
     0
 95
       15
 96
       11
 40
0.0
 40
0.0
 40
0.0
 40
0.0
 40
0.2199578613106558
 40
0.3202465475123651
 40
0.4340808827708152
 40
0.5116301246390283
 40
0.634275054953107
 40
0.7077360179240892
 40
0.8337709579493377
 40
0.875782631437913
 40
0.875782631437913
 40
0.875782631437913
 40
0.875782631437913
 10
455.966230804904
 20
176.4047038861732
 10
456.0488427121314
 20
176.4050822928052
 10
456.1691211050715
 20
176.4056332320476
 10
456.2348936141638
 20
176.2568485121485
 10
456.2054112395446
 20
176.1610543626664
 10
456.1683494917958
 20
176.0627036280267
 10
456.1028529895926
 20
175.995872820499
 10
456.0149470901708
 20
175.9315034867319
 10
455.931871814377
 20
175.923711290647
 10
455.8778406729875
 20
175.9093948714267
 10
455.8643328811743
 20
175.9058157649084
 72
     1
 10
455.8643328811742
 20
175.9058157649083
 11
455.1605382399684
 21
175.9058157649085
 97
        4
330
5D2
330
5D0
330
5D1
330
5CF
 75
     0
 76
     1
 47
0.0514683685270805
 98
        2
 10
454.4883660890035
 20
176.2184298209224
 10
454.4883660890035
 20
176.2184298209224
450
        0
451
        0
460
0.0
461
0.0
452
        0
462
0.0
453
        0
470

  0
HATCH
  5
59A
330
18
100
AcDbEntity
  8
ROGO
 62
     4
100
AcDbHatch
 10
0.0
 20
0.0
 30
0.0
210
0.0
220
0.0
230
1.0
  2
SOLID
 70
     1
 71
     1
 91
        1
 92
        7
 72
     0
 73
     1
 93
       11
 10
471.7872581334606
 20
174.1988726380409
 10
472.8673777656094
 20
174.1988726380409
 10
473.2488767501318
 20
174.9639634410689
 10
473.6303757346542
 20
174.1988726380409
 10
474.7104717346542
 20
174.1988726380409
 10
473.9796624263187
 20
175.6645003415451
 10
475.7552463482205
 20
177.1301280450495
 10
474.6751503482204
 20
177.1301280450495
 10
474.1694173723935
 20
176.8100946038758
 10
474.3289963822807
 20
177.1301280450495
 10
473.2488767501318
 20
177.1301280450495
 97
       11
330
5A2
330
5A7
330
5A8
330
5AA
330
5A9
330
5D6
330
5A4
330
5A6
330
5A1
330
5A5
330
5A3
 75
     0
 76
     1
 47
0.0514683685270805
 98
        1
 10
473.1559178266977
 20
175.8725623544188
450
        0
451
        0
460
0.0
461
0.0
452
        0
462
0.0
453
        0
470

  0
HATCH
  5
59B
330
18
100
AcDbEntity
  8
ROGO
 62
     4
100
AcDbHatch
 10
0.0
 20
0.0
 30
0.0
210
0.0
220
0.0
230
1.0
  2
SOLID
 70
     1
 71
     1
 91
        1
 92
        7
 72
     0
 73
     1
 93
        4
 10
454.5211988003734
 20
174.492687218457
 10
454.3882687497705
 20
174.1988726380409
 10
471.7872581334607
 20
174.1988726380409
 10
471.9337635725838
 20
174.4926872184571
 97
        4
330
59F
330
5CE
330
5D6
330
5A9
 75
     0
 76
     1
 47
0.0514683685270805
 98
        1
 10
465.5158206016422
 20
174.4149779838787
450
        0
451
        0
460
0.0
461
0.0
452
        0
462
0.0
453
        0
470

  0
HATCH
  5
59C
330
18
100
AcDbEntity
  8
ROGO
 62
     4
100
AcDbHatch
 10
0.0
 20
0.0
 30
0.0
210
0.0
220
0.0
230
1.0
  2
SOLID
 70
     1
 71
     1
 91
        1
 92
        5
 93
        8
 72
     4
 94
        3
 73
     0
 74
     0
 95
       26
 96
       22
 40
0.0
 40
0.0
 40
0.0
 40
0.0
 40
0.3403136209416859
 40
0.5681272389515052
 40
0.7323994099695983
 40
0.8550561247335963
 40
1.014148321321381
 40
1.13027011535639
 40
1.339959009792003
 40
1.510642755247356
 40
1.626735051276114
 40
1.740569491433573
 40
1.94419717410045
 40
2.088186249714629
 40
2.165735491582895
 40
2.275891898886364
 40
2.355438312276665
 40
2.470674802864995
 40
2.535888688806186
 40
2.677801419664424
 40
2.74260000535881
 40
2.74260000535881
 40
2.74260000535881
 40
2.74260000535881
 10
470.9773575055197
 20
177.1301280450495
 10
470.8618498044359
 20
177.1232366575279
 10
470.6690186414846
 20
177.1117320196754
 10
470.4572911976107
 20
176.9831098713064
 10
470.3021672770246
 20
176.9083346065315
 10
470.1915330849902
 20
176.8066840045035
 10
470.1104377737506
 20
176.7016863580443
 10
470.0082019098972
 20
176.576582432151
 10
469.9248314843172
 20
176.4309039729157
 10
469.8823759949842
 20
176.270340914254
 10
469.8447693254787
 20
176.1423712248841
 10
469.8168795898032
 20
175.9997657064664
 10
469.8239755281074
 20
175.8457015805774
 10
469.8341372365137
 20
175.7026147077148
 10
469.879506793548
 20
175.6004721035339
 10
469.9311746826767
 20
175.5277536079205
 10
469.9944413053265
 20
175.4476622469224
 10
470.06366882578
 20
175.3946179978791
 10
470.120925635938
 20
175.2985247762497
 10
470.2211517505985
 20
175.2862625881409
 10
470.2848594564212
 20
175.2618571740309
 10
470.3048301542232
 20
175.2542067156816
 72
     1
 10
470.3048301542231
 20
175.2542067156816
 11
471.9205858899441
 21
175.2542067156816
 72
     1
 10
471.9205858899441
 20
175.2542067156816
 11
472.2686097766282
 21
175.9521636847396
 72
     1
 10
472.2686097766282
 20
175.9521636847396
 11
471.0690654610965
 21
175.9521636847397
 72
     4
 94
        3
 73
     0
 74
     0
 95
       16
 96
       12
 40
0.0
 40
0.0
 40
0.0
 40
0.0
 40
0.1027738093187964
 40
0.2066076558227444
 40
0.268539878558716
 40
0.3279201337292112
 40
0.3931337605654557
 40
0.4386740937218511
 40
0.4818879174817272
 40
0.569519347887583
 40
0.7489346372632488
 40
0.7489346372632488
 40
0.7489346372632488
 40
0.7489346372632488
 10
471.0690654610965
 20
175.9521636847396
 10
471.0328829772798
 20
175.962809102009
 10
470.9601448136097
 20
175.9842097362938
 10
470.9540572166845
 20
176.087952149347
 10
470.9623506867729
 20
176.1618771078602
 10
470.997083758026
 20
176.2156987945973
 10
471.039220997827
 20
176.2548611532199
 10
471.0549105610432
 20
176.3058640020515
 10
471.1010286026495
 20
176.3443775339321
 10
471.1828082474935
 20
176.4091134010404
 10
471.2732423777955
 20
176.4229006943054
 10
471.3340005315406
 20
176.4321636847397
 72
     1
 10
471.3340005315405
 20
176.4321636847397
 11
472.507953279185
 21
176.4321636847397
 72
     1
 10
472.507953279185
 20
176.4321636847397
 11
472.855980851386
 21
177.1301280450495
 72
     1
 10
472.855980851386
 20
177.1301280450495
 11
470.9773575055198
 21
177.1301280450495
 97
        8
330
5B1
330
5AF
330
5B2
330
5AE
330
5AD
330
5B0
330
5AC
330
5AB
 75
     0
 76
     1
 47
0.0514683685270805
 98
        1
 10
471.3015252622124
 20
176.7866404690793
450
        0
451
        0
460
0.0
461
0.0
452
        0
462
0.0
453
        0
470

  0
HATCH
  5
59D
330
18
100
AcDbEntity
  8
ROGO
 62
     4
100
AcDbHatch
 10
0.0
 20
0.0
 30
0.0
210
0.0
220
0.0
230
1.0
  2
SOLID
 70
     1
 71
     1
 91
        1
 92
        5
 93
        8
 72
     1
 10
466.4635678921452
 20
176.4321636847397
 11
466.811595464346
 21
177.1301280450495
 72
     1
 10
466.811595464346
 20
177.1301280450495
 11
464.9329721184803
 21
177.1301280450495
 72
     4
 94
        3
 73
     0
 74
     0
 95
       26
 96
       22
 40
0.0
 40
0.0
 40
0.0
 40
0.0
 40
0.3403136209417982
 40
0.5681272389515159
 40
0.7323994099697078
 40
0.8550561247337057
 40
1.014148321321447
 40
1.13027011535643
 40
1.339959009791999
 40
1.510642755247373
 40
1.626735051276186
 40
1.740569491433665
 40
1.944197174100541
 40
2.088186249714737
 40
2.16573549158295
 40
2.275891898886404
 40
2.355438312276705
 40
2.470674802865115
 40
2.535888688806235
 40
2.677801419664453
 40
2.742600005358966
 40
2.742600005358966
 40
2.742600005358966
 40
2.742600005358966
 10
464.93297211848
 20
177.1301280450495
 10
464.8174644173963
 20
177.1232366575279
 10
464.6246332544449
 20
177.1117320196755
 10
464.4129058105709
 20
176.9831098713063
 10
464.2577818899848
 20
176.9083346065315
 10
464.1471476979504
 20
176.8066840045035
 10
464.066052386711
 20
176.7016863580445
 10
463.9638165228573
 20
176.5765824321509
 10
463.8804460972774
 20
176.4309039729159
 10
463.8379906079444
 20
176.270340914254
 10
463.8003839384391
 20
176.1423712248842
 10
463.7724942027634
 20
175.9997657064664
 10
463.7795901410676
 20
175.8457015805774
 10
463.7897518494738
 20
175.7026147077148
 10
463.8351214065083
 20
175.6004721035339
 10
463.8867892956368
 20
175.5277536079205
 10
463.9500559182867
 20
175.4476622469223
 10
464.0192834387403
 20
175.3946179978792
 10
464.0765402488981
 20
175.2985247762497
 10
464.1767663635588
 20
175.2862625881409
 10
464.2404740693814
 20
175.2618571740309
 10
464.2604447671835
 20
175.2542067156816
 72
     1
 10
464.2604447671835
 20
175.2542067156816
 11
465.8762005029044
 21
175.2542067156817
 72
     1
 10
465.8762005029044
 20
175.2542067156817
 11
466.2242243895883
 21
175.9521636847396
 72
     1
 10
466.2242243895883
 20
175.9521636847396
 11
465.0246800740568
 21
175.9521636847396
 72
     4
 94
        3
 73
     0
 74
     0
 95
       16
 96
       12
 40
0.0
 40
0.0
 40
0.0
 40
0.0
 40
0.1027738093189234
 40
0.2066076558227377
 40
0.2685398785587465
 40
0.3279201337292418
 40
0.3931337605655129
 40
0.4386740937218573
 40
0.4818879174818138
 40
0.5695193478876036
 40
0.7489346372632694
 40
0.7489346372632694
 40
0.7489346372632694
 40
0.7489346372632694
 10
465.0246800740568
 20
175.9521636847396
 10
464.9884975902401
 20
175.9628091020091
 10
464.91575942657
 20
175.9842097362938
 10
464.9096718296447
 20
176.087952149347
 10
464.9179652997331
 20
176.1618771078602
 10
464.952698370986
 20
176.2156987945975
 10
464.9948356107874
 20
176.2548611532198
 10
465.0105251740036
 20
176.3058640020515
 10
465.0566432156096
 20
176.3443775339322
 10
465.1384228604538
 20
176.4091134010403
 10
465.2288569907558
 20
176.4229006943054
 10
465.2896151445007
 20
176.4321636847397
 72
     1
 10
465.2896151445007
 20
176.4321636847397
 11
466.4635678921452
 21
176.4321636847397
 97
        8
330
5B3
330
5B6
330
5BA
330
5B4
330
5B7
330
5B5
330
5B8
330
5B9
 75
     0
 76
     1
 47
0.0514683685270805
 98
        1
 10
465.589996257347
 20
176.7125259645538
450
        0
451
        0
460
0.0
461
0.0
452
        0
462
0.0
453
        0
470

  0
HATCH
  5
59E
330
18
100
AcDbEntity
  8
ROGO
 62
     4
100
AcDbHatch
 10
0.0
 20
0.0
 30
0.0
210
0.0
220
0.0
230
1.0
  2
SOLID
 70
     1
 71
     1
 91
        1
 92
        1
 93
       12
 72
     1
 10
458.1405143074089
 20
177.1301280450495
 11
460.6777759481003
 21
177.1301280450495
 72
     1
 10
460.6777759481003
 20
177.1301280450495
 11
460.4651556684794
 21
176.700410429775
 72
     1
 10
460.4651556684794
 20
176.700410429775
 11
459.131635065311
 21
176.700410429775
 72
     1
 10
459.131635065311
 20
176.700410429775
 11
458.9653924280587
 21
176.3644246537977
 72
     1
 10
458.9653924280587
 20
176.3644246537977
 11
460.2989130312273
 21
176.3644246537977
 72
     1
 10
460.2989130312273
 20
176.3644246537977
 11
460.1284467803361
 21
176.0199027156816
 72
     1
 10
460.1284467803361
 20
176.0199027156817
 11
458.7949261771676
 21
176.0199027156816
 72
     1
 10
458.7949261771676
 20
176.0199027156816
 11
458.6286765020012
 21
175.6839027156816
 72
     1
 10
458.6286765020012
 20
175.6839027156816
 11
459.9621971051699
 21
175.6839027156816
 72
     1
 10
459.9621971051699
 20
175.6839027156816
 11
459.7495875205859
 21
175.2542067156817
 72
     1
 10
459.7495875205859
 20
175.2542067156817
 11
457.2123258798945
 21
175.2542067156817
 72
     1
 10
457.2123258798946
 20
175.2542067156817
 11
458.1405143074089
 21
177.1301280450495
 97
       12
330
5A0
330
5CC
330
5C9
330
5CA
330
5C8
330
5C5
330
5C6
330
5C3
330
5C7
330
5C4
330
5CB
330
5CD
 75
     0
 76
     1
 98
        1
 10
354.3546157663961
 20
47.41856226203333
450
        0
451
        0
460
0.0
461
0.0
452
        0
462
0.0
453
        0
470

  0
LINE
  5
59F
102
{ACAD_REACTORS
330
59B
102
}
330
18
100
AcDbEntity
  8
ROGO
 62
     4
100
AcDbLine
 10
454.5008224476353
 20
174.492687218457
 30
0.0
 11
471.9337635725836
 21
174.492687218457
 31
0.0
  0
LINE
  5
5A0
102
{ACAD_REACTORS
330
59E
102
}
330
18
100
AcDbEntity
  8
ROGO
 62
     4
100
AcDbLine
 10
458.1405143074089
 20
177.1301280450495
 30
0.0
 11
460.6777759481003
 21
177.1301280450495
 31
0.0
  0
LINE
  5
5A1
102
{ACAD_REACTORS
330
59A
102
}
330
18
100
AcDbEntity
  8
ROGO
 62
     4
100
AcDbLine
 10
473.6303757346543
 20
174.1988726380409
 30
0.0
 11
474.7104717346542
 21
174.1988726380409
 31
0.0
  0
LINE
  5
5A2
102
{ACAD_REACTORS
330
59A
102
}
330
18
100
AcDbEntity
  8
ROGO
 62
     4
100
AcDbLine
 10
474.6751503482205
 20
177.1301280450495
 30
0.0
 11
475.7552463482205
 21
177.1301280450495
 31
0.0
  0
LINE
  5
5A3
102
{ACAD_REACTORS
330
59A
102
}
330
18
100
AcDbEntity
  8
ROGO
 62
     4
100
AcDbLine
 10
473.9796624263187
 20
175.6645003415452
 30
0.0
 11
475.7552463482205
 21
177.1301280450495
 31
0.0
  0
LINE
  5
5A4
102
{ACAD_REACTORS
330
59A
102
}
330
18
100
AcDbEntity
  8
ROGO
 62
     4
100
AcDbLine
 10
473.2488767501319
 20
174.9639634410689
 30
0.0
 11
472.8673777656094
 21
174.1988726380409
 31
0.0
  0
LINE
  5
5A5
102
{ACAD_REACTORS
330
59A
102
}
330
18
100
AcDbEntity
  8
ROGO
 62
     4
100
AcDbLine
 10
473.9796624263187
 20
175.6645003415452
 30
0.0
 11
474.7104717346542
 21
174.1988726380409
 31
0.0
  0
LINE
  5
5A6
102
{ACAD_REACTORS
330
59A
102
}
330
18
100
AcDbEntity
  8
ROGO
 62
     4
100
AcDbLine
 10
473.2488767501319
 20
174.9639634410689
 30
0.0
 11
473.6303757346543
 21
174.1988726380409
 31
0.0
  0
LINE
  5
5A7
102
{ACAD_REACTORS
330
59A
102
}
330
18
100
AcDbEntity
  8
ROGO
 62
     4
100
AcDbLine
 10
474.1694173723935
 20
176.8100946038758
 30
0.0
 11
474.6751503482205
 21
177.1301280450495
 31
0.0
  0
LINE
  5
5A8
102
{ACAD_REACTORS
330
59A
102
}
330
18
100
AcDbEntity
  8
ROGO
 62
     4
100
AcDbLine
 10
474.3289963822807
 20
177.1301280450495
 30
0.0
 11
474.1694173723935
 21
176.8100946038758
 31
0.0
  0
LINE
  5
5A9
102
{ACAD_REACTORS
330
59B
330
59A
102
}
330
18
100
AcDbEntity
  8
ROGO
 62
     4
100
AcDbLine
 10
473.2488767501319
 20
177.1301280450495
 30
0.0
 11
471.7872581334606
 21
174.1988726380409
 31
0.0
  0
LINE
  5
5AA
102
{ACAD_REACTORS
330
59A
102
}
330
18
100
AcDbEntity
  8
ROGO
 62
     4
100
AcDbLine
 10
473.2488767501319
 20
177.1301280450495
 30
0.0
 11
474.3289963822807
 21
177.1301280450495
 31
0.0
  0
LINE
  5
5AB
102
{ACAD_REACTORS
330
59C
102
}
330
18
100
AcDbEntity
  8
ROGO
 62
     4
100
AcDbLine
 10
472.855980851386
 20
177.1301280450495
 30
0.0
 11
472.507953279185
 21
176.4321636847397
 31
0.0
  0
LINE
  5
5AC
102
{ACAD_REACTORS
330
59C
102
}
330
18
100
AcDbEntity
  8
ROGO
 62
     4
100
AcDbLine
 10
471.3340005315404
 20
176.4321636847397
 30
0.0
 11
472.507953279185
 21
176.4321636847397
 31
0.0
  0
LINE
  5
5AD
102
{ACAD_REACTORS
330
59C
102
}
330
18
100
AcDbEntity
  8
ROGO
 62
     4
100
AcDbLine
 10
471.0690654610964
 20
175.9521636847396
 30
0.0
 11
472.2686097766281
 21
175.9521636847396
 31
0.0
  0
LINE
  5
5AE
102
{ACAD_REACTORS
330
59C
102
}
330
18
100
AcDbEntity
  8
ROGO
 62
     4
100
AcDbLine
 10
472.2686097766281
 20
175.9521636847396
 30
0.0
 11
471.9205858899441
 21
175.2542067156816
 31
0.0
  0
SPLINE
  5
5AF
102
{ACAD_REACTORS
330
59C
102
}
330
18
100
AcDbEntity
  8
ROGO
 62
     4
100
AcDbSpline
210
0.0
220
0.0
230
1.0
 70
     8
 71
     3
 72
    26
 73
    22
 74
    20
 42
0.0000000001
 43
0.0000000001
 44
0.0000000001
 40
0.0
 40
0.0
 40
0.0
 40
0.0
 40
0.3403136209416859
 40
0.5681272389515052
 40
0.7323994099695983
 40
0.8550561247335963
 40
1.014148321321381
 40
1.13027011535639
 40
1.339959009792003
 40
1.510642755247356
 40
1.626735051276114
 40
1.740569491433573
 40
1.94419717410045
 40
2.088186249714629
 40
2.165735491582895
 40
2.275891898886364
 40
2.355438312276665
 40
2.470674802864995
 40
2.535888688806186
 40
2.677801419664424
 40
2.74260000535881
 40
2.74260000535881
 40
2.74260000535881
 40
2.74260000535881
 10
470.9773575055197
 20
177.1301280450495
 30
0.0
 10
470.8618498044359
 20
177.1232366575279
 30
0.0
 10
470.6690186414846
 20
177.1117320196754
 30
0.0
 10
470.4572911976107
 20
176.9831098713064
 30
0.0
 10
470.3021672770246
 20
176.9083346065315
 30
0.0
 10
470.1915330849901
 20
176.8066840045035
 30
0.0
 10
470.1104377737507
 20
176.7016863580443
 30
0.0
 10
470.0082019098971
 20
176.576582432151
 30
0.0
 10
469.9248314843172
 20
176.4309039729158
 30
0.0
 10
469.8823759949842
 20
176.270340914254
 30
0.0
 10
469.8447693254788
 20
176.1423712248841
 30
0.0
 10
469.8168795898031
 20
175.9997657064664
 30
0.0
 10
469.8239755281075
 20
175.8457015805774
 30
0.0
 10
469.8341372365137
 20
175.7026147077148
 30
0.0
 10
469.879506793548
 20
175.6004721035339
 30
0.0
 10
469.9311746826766
 20
175.5277536079205
 30
0.0
 10
469.9944413053265
 20
175.4476622469224
 30
0.0
 10
470.06366882578
 20
175.3946179978791
 30
0.0
 10
470.120925635938
 20
175.2985247762497
 30
0.0
 10
470.2211517505985
 20
175.2862625881409
 30
0.0
 10
470.2848594564212
 20
175.2618571740309
 30
0.0
 10
470.3048301542232
 20
175.2542067156816
 30
0.0
 11
470.9773575055197
 21
177.1301280450495
 31
0.0
 11
470.6410938298715
 21
177.0777820706299
 31
0.0
 11
470.4372973964786
 21
176.9759682292965
 31
0.0
 11
470.2946401860702
 21
176.8945172226144
 31
0.0
 11
470.2029322304935
 21
176.8130658840089
 31
0.0
 11
470.1010343067638
 21
176.6908892080241
 31
0.0
 11
470.0297057015595
 21
176.5992567840164
 31
0.0
 11
469.9278071918964
 21
176.4159916040774
 31
0.0
 11
469.8768585229982
 21
176.2530892587899
 31
0.0
 11
469.8462892044727
 21
176.1410940001308
 31
0.0
 11
469.8259092681666
 21
176.0290987414717
 31
0.0
 11
469.8259092681666
 21
175.8254710588048
 31
0.0
 11
469.8462892044727
 21
175.6829315481687
 31
0.0
 11
469.8768585229982
 21
175.6116616268889
 31
0.0
 11
469.9379971600493
 21
175.5200292028812
 31
0.0
 11
469.988946414881
 21
175.458940698927
 31
0.0
 11
470.0704644023046
 21
175.377489692245
 31
0.0
 11
470.1112236889834
 21
175.3265826056165
 31
0.0
 11
470.2436915171721
 21
175.2756758509115
 31
0.0
 11
470.3048301542232
 21
175.2542067156816
 31
0.0
  0
SPLINE
  5
5B0
102
{ACAD_REACTORS
330
59C
102
}
330
18
100
AcDbEntity
  8
ROGO
 62
     4
100
AcDbSpline
210
0.0
220
0.0
230
1.0
 70
     8
 71
     3
 72
    16
 73
    12
 74
    10
 42
0.0000000001
 43
0.0000000001
 44
0.0000000001
 40
0.0
 40
0.0
 40
0.0
 40
0.0
 40
0.1794152893756658
 40
0.2670467197815217
 40
0.3102605435413978
 40
0.3558008766977931
 40
0.4210145035340376
 40
0.4803947587045328
 40
0.5423269814405045
 40
0.6461608279444525
 40
0.7489346372632488
 40
0.7489346372632488
 40
0.7489346372632488
 40
0.7489346372632488
 10
471.3340005315406
 20
176.4321636847397
 30
0.0
 10
471.2732423777956
 20
176.4229006943054
 30
0.0
 10
471.1828082474935
 20
176.4091134010404
 30
0.0
 10
471.1010286026495
 20
176.3443775339321
 30
0.0
 10
471.0549105610432
 20
176.3058640020515
 30
0.0
 10
471.039220997827
 20
176.2548611532199
 30
0.0
 10
470.997083758026
 20
176.2156987945973
 30
0.0
 10
470.9623506867729
 20
176.1618771078602
 30
0.0
 10
470.9540572166845
 20
176.087952149347
 30
0.0
 10
470.9601448136098
 20
175.9842097362938
 30
0.0
 10
471.0328829772797
 20
175.962809102009
 30
0.0
 10
471.0690654610965
 20
175.9521636847396
 30
0.0
 11
471.3340005315406
 21
176.4321636847397
 31
0.0
 11
471.1607740026066
 21
176.3854473521004
 31
0.0
 11
471.0894453974025
 21
176.3345405973953
 31
0.0
 11
471.058876078877
 21
176.3039963454183
 31
0.0
 11
471.0384961425709
 21
176.2632706761156
 31
0.0
 11
470.9977368558924
 21
176.2123639214106
 31
0.0
 11
470.9671675373668
 21
176.1614568347822
 31
0.0
 11
470.9569775692137
 21
176.1003686627514
 31
0.0
 11
470.9773575055197
 21
175.9985544894946
 31
0.0
 11
471.0690654610965
 21
175.9521636847396
 31
0.0
  0
LINE
  5
5B1
102
{ACAD_REACTORS
330
59C
102
}
330
18
100
AcDbEntity
  8
ROGO
 62
     4
100
AcDbLine
 10
470.9773575055203
 20
177.1301280450495
 30
0.0
 11
472.855980851386
 21
177.1301280450495
 31
0.0
  0
LINE
  5
5B2
102
{ACAD_REACTORS
330
59C
102
}
330
18
100
AcDbEntity
  8
ROGO
 62
     4
100
AcDbLine
 10
470.3048301542232
 20
175.2542067156816
 30
0.0
 11
471.9205858899441
 21
175.2542067156816
 31
0.0
  0
LINE
  5
5B3
102
{ACAD_REACTORS
330
59D
102
}
330
18
100
AcDbEntity
  8
ROGO
 62
     4
100
AcDbLine
 10
464.9329721184805
 20
177.1301280450495
 30
0.0
 11
466.8115954643461
 21
177.1301280450495
 31
0.0
  0
LINE
  5
5B4
102
{ACAD_REACTORS
330
59D
102
}
330
18
100
AcDbEntity
  8
ROGO
 62
     4
100
AcDbLine
 10
466.2242243895883
 20
175.9521636847396
 30
0.0
 11
465.8762005029043
 21
175.2542067156816
 31
0.0
  0
SPLINE
  5
5B5
102
{ACAD_REACTORS
330
59D
102
}
330
18
100
AcDbEntity
  8
ROGO
 62
     4
100
AcDbSpline
210
0.0
220
0.0
230
1.0
 70
     8
 71
     3
 72
    16
 73
    12
 74
    10
 42
0.0000000001
 43
0.0000000001
 44
0.0000000001
 40
0.0
 40
0.0
 40
0.0
 40
0.0
 40
0.1794152893756658
 40
0.2670467197814556
 40
0.3102605435414121
 40
0.3558008766977565
 40
0.4210145035340276
 40
0.4803947587045229
 40
0.5423269814405317
 40
0.646160827944346
 40
0.7489346372632694
 40
0.7489346372632694
 40
0.7489346372632694
 40
0.7489346372632694
 10
465.2896151445007
 20
176.4321636847397
 30
0.0
 10
465.2288569907558
 20
176.4229006943054
 30
0.0
 10
465.1384228604538
 20
176.4091134010403
 30
0.0
 10
465.0566432156097
 20
176.3443775339322
 30
0.0
 10
465.0105251740035
 20
176.3058640020515
 30
0.0
 10
464.9948356107874
 20
176.2548611532198
 30
0.0
 10
464.952698370986
 20
176.2156987945975
 30
0.0
 10
464.9179652997331
 20
176.1618771078602
 30
0.0
 10
464.9096718296448
 20
176.087952149347
 30
0.0
 10
464.9157594265699
 20
175.9842097362938
 30
0.0
 10
464.9884975902399
 20
175.9628091020091
 30
0.0
 10
465.0246800740568
 20
175.9521636847396
 30
0.0
 11
465.2896151445007
 21
176.4321636847397
 31
0.0
 11
465.1163886155668
 21
176.3854473521004
 31
0.0
 11
465.0450600103627
 21
176.3345405973954
 31
0.0
 11
465.0144906918371
 21
176.3039963454183
 31
0.0
 11
464.9941107555312
 21
176.2632706761156
 31
0.0
 11
464.9533514688526
 21
176.2123639214106
 31
0.0
 11
464.9227821503269
 21
176.1614568347822
 31
0.0
 11
464.9125921821739
 21
176.1003686627514
 31
0.0
 11
464.9329721184799
 21
175.9985544894948
 31
0.0
 11
465.0246800740568
 21
175.9521636847396
 31
0.0
  0
SPLINE
  5
5B6
102
{ACAD_REACTORS
330
59D
102
}
330
18
100
AcDbEntity
  8
ROGO
 62
     4
100
AcDbSpline
210
0.0
220
0.0
230
1.0
 70
     8
 71
     3
 72
    26
 73
    22
 74
    20
 42
0.0000000001
 43
0.0000000001
 44
0.0000000001
 40
0.0
 40
0.0
 40
0.0
 40
0.0
 40
0.3403136209417982
 40
0.5681272389515159
 40
0.7323994099697078
 40
0.8550561247337057
 40
1.014148321321447
 40
1.13027011535643
 40
1.339959009791999
 40
1.510642755247373
 40
1.626735051276186
 40
1.740569491433665
 40
1.944197174100541
 40
2.088186249714737
 40
2.16573549158295
 40
2.275891898886404
 40
2.355438312276705
 40
2.470674802865115
 40
2.535888688806235
 40
2.677801419664453
 40
2.742600005358966
 40
2.742600005358966
 40
2.742600005358966
 40
2.742600005358966
 10
464.93297211848
 20
177.1301280450495
 30
0.0
 10
464.8174644173963
 20
177.123236657528
 30
0.0
 10
464.6246332544449
 20
177.1117320196756
 30
0.0
 10
464.4129058105709
 20
176.9831098713063
 30
0.0
 10
464.2577818899848
 20
176.9083346065315
 30
0.0
 10
464.1471476979504
 20
176.8066840045035
 30
0.0
 10
464.066052386711
 20
176.7016863580445
 30
0.0
 10
463.9638165228573
 20
176.5765824321509
 30
0.0
 10
463.8804460972774
 20
176.430903972916
 30
0.0
 10
463.8379906079444
 20
176.270340914254
 30
0.0
 10
463.8003839384391
 20
176.1423712248841
 30
0.0
 10
463.7724942027634
 20
175.9997657064664
 30
0.0
 10
463.7795901410676
 20
175.8457015805774
 30
0.0
 10
463.7897518494738
 20
175.7026147077148
 30
0.0
 10
463.8351214065084
 20
175.6004721035339
 30
0.0
 10
463.8867892956367
 20
175.5277536079205
 30
0.0
 10
463.9500559182867
 20
175.4476622469224
 30
0.0
 10
464.0192834387403
 20
175.3946179978792
 30
0.0
 10
464.0765402488981
 20
175.2985247762497
 30
0.0
 10
464.1767663635588
 20
175.2862625881409
 30
0.0
 10
464.2404740693815
 20
175.2618571740309
 30
0.0
 10
464.2604447671835
 20
175.2542067156816
 30
0.0
 11
464.93297211848
 21
177.1301280450495
 31
0.0
 11
464.5967084428316
 21
177.0777820706299
 31
0.0
 11
464.3929120094388
 21
176.9759682292965
 31
0.0
 11
464.2502547990305
 21
176.8945172226144
 31
0.0
 11
464.1585468434536
 21
176.8130658840089
 31
0.0
 11
464.0566489197239
 21
176.6908892080241
 31
0.0
 11
463.9853203145198
 21
176.5992567840164
 31
0.0
 11
463.8834218048566
 21
176.4159916040775
 31
0.0
 11
463.8324731359585
 21
176.25308925879
 31
0.0
 11
463.8019038174329
 21
176.1410940001308
 31
0.0
 11
463.7815238811269
 21
176.0290987414717
 31
0.0
 11
463.7815238811269
 21
175.8254710588048
 31
0.0
 11
463.8019038174329
 21
175.6829315481687
 31
0.0
 11
463.8324731359585
 21
175.6116616268889
 31
0.0
 11
463.8936117730095
 21
175.5200292028812
 31
0.0
 11
463.9445610278412
 21
175.458940698927
 31
0.0
 11
464.0260790152649
 21
175.377489692245
 31
0.0
 11
464.0668383019435
 21
175.3265826056165
 31
0.0
 11
464.1993061301323
 21
175.2756758509115
 31
0.0
 11
464.2604447671835
 21
175.2542067156816
 31
0.0
  0
LINE
  5
5B7
102
{ACAD_REACTORS
330
59D
102
}
330
18
100
AcDbEntity
  8
ROGO
 62
     4
100
AcDbLine
 10
465.0246800740567
 20
175.9521636847396
 30
0.0
 11
466.2242243895884
 21
175.9521636847396
 31
0.0
  0
LINE
  5
5B8
102
{ACAD_REACTORS
330
59D
102
}
330
18
100
AcDbEntity
  8
ROGO
 62
     4
100
AcDbLine
 10
465.2896151445006
 20
176.4321636847397
 30
0.0
 11
466.4635678921452
 21
176.4321636847397
 31
0.0
  0
LINE
  5
5B9
102
{ACAD_REACTORS
330
59D
102
}
330
18
100
AcDbEntity
  8
ROGO
 62
     4
100
AcDbLine
 10
466.811595464346
 20
177.1301280450495
 30
0.0
 11
466.4635678921452
 21
176.4321636847397
 31
0.0
  0
LINE
  5
5BA
102
{ACAD_REACTORS
330
59D
102
}
330
18
100
AcDbEntity
  8
ROGO
 62
     4
100
AcDbLine
 10
464.2604447671835
 20
175.2542067156817
 30
0.0
 11
465.8762005029043
 21
175.2542067156817
 31
0.0
  0
LINE
  5
5BB
102
{ACAD_REACTORS
330
595
102
}
330
18
100
AcDbEntity
  8
ROGO
 62
     4
100
AcDbLine
 10
463.7467027457467
 20
175.2542067156817
 30
0.0
 11
462.700691714135
 21
175.2542067156817
 31
0.0
  0
LINE
  5
5BC
102
{ACAD_REACTORS
330
595
102
}
330
18
100
AcDbEntity
  8
ROGO
 62
     4
100
AcDbLine
 10
461.4127677555256
 20
177.1301280450495
 30
0.0
 11
462.9133441594847
 21
177.1301280450495
 31
0.0
  0
LINE
  5
5BD
102
{ACAD_REACTORS
330
595
102
}
330
18
100
AcDbEntity
  8
ROGO
 62
     4
100
AcDbLine
 10
460.0600044268125
 20
175.2542067156817
 30
0.0
 11
461.0989290720862
 21
175.2542067156817
 31
0.0
  0
LINE
  5
5BE
102
{ACAD_REACTORS
330
595
102
}
330
18
100
AcDbEntity
  8
ROGO
 62
     4
100
AcDbLine
 10
461.3564868400588
 20
175.611370530097
 30
0.0
 11
461.0989290720862
 21
175.2542067156817
 31
0.0
  0
LINE
  5
5BF
102
{ACAD_REACTORS
330
595
102
}
330
18
100
AcDbEntity
  8
ROGO
 62
     4
100
AcDbLine
 10
461.6281407845519
 20
175.9880819753771
 30
0.0
 11
462.3746752446071
 21
175.9880819753771
 31
0.0
  0
LINE
  5
5C0
102
{ACAD_REACTORS
330
595
102
}
330
18
100
AcDbEntity
  8
ROGO
 62
     4
100
AcDbLine
 10
461.3564868400588
 20
175.611370530097
 30
0.0
 11
462.5420253954651
 21
175.611370530097
 31
0.0
  0
LINE
  5
5C1
102
{ACAD_REACTORS
330
595
102
}
330
18
100
AcDbEntity
  8
ROGO
 62
     4
100
AcDbLine
 10
462.0900932649994
 20
176.628686649404
 30
0.0
 11
461.6281407845518
 21
175.9880819753771
 31
0.0
  0
LINE
  5
5C2
102
{ACAD_REACTORS
330
595
102
}
330
18
100
AcDbEntity
  8
ROGO
 62
     4
100
AcDbLine
 10
461.4127677555256
 20
177.1301280450495
 30
0.0
 11
460.0600044268125
 21
175.2542067156817
 31
0.0
  0
LINE
  5
5C3
102
{ACAD_REACTORS
330
59E
102
}
330
18
100
AcDbEntity
  8
ROGO
 62
     4
100
AcDbLine
 10
458.7949261771676
 20
176.0199027156816
 30
0.0
 11
458.6286765020012
 21
175.6839027156816
 31
0.0
  0
LINE
  5
5C4
102
{ACAD_REACTORS
330
59E
102
}
330
18
100
AcDbEntity
  8
ROGO
 62
     4
100
AcDbLine
 10
459.9621971051699
 20
175.6839027156816
 30
0.0
 11
459.7495875205859
 21
175.2542067156817
 31
0.0
  0
LINE
  5
5C5
102
{ACAD_REACTORS
330
59E
102
}
330
18
100
AcDbEntity
  8
ROGO
 62
     4
100
AcDbLine
 10
460.2989130312273
 20
176.3644246537977
 30
0.0
 11
460.1284467803361
 21
176.0199027156816
 31
0.0
  0
LINE
  5
5C6
102
{ACAD_REACTORS
330
59E
102
}
330
18
100
AcDbEntity
  8
ROGO
 62
     4
100
AcDbLine
 10
458.7949261771676
 20
176.0199027156816
 30
0.0
 11
460.1284467803361
 21
176.0199027156817
 31
0.0
  0
LINE
  5
5C7
102
{ACAD_REACTORS
330
59E
102
}
330
18
100
AcDbEntity
  8
ROGO
 62
     4
100
AcDbLine
 10
458.6286765020012
 20
175.6839027156816
 30
0.0
 11
459.9621971051699
 21
175.6839027156816
 31
0.0
  0
LINE
  5
5C8
102
{ACAD_REACTORS
330
59E
102
}
330
18
100
AcDbEntity
  8
ROGO
 62
     4
100
AcDbLine
 10
458.9653924280587
 20
176.3644246537977
 30
0.0
 11
460.2989130312273
 21
176.3644246537977
 31
0.0
  0
LINE
  5
5C9
102
{ACAD_REACTORS
330
59E
102
}
330
18
100
AcDbEntity
  8
ROGO
 62
     4
100
AcDbLine
 10
459.131635065311
 20
176.700410429775
 30
0.0
 11
460.4651556684794
 21
176.700410429775
 31
0.0
  0
LINE
  5
5CA
102
{ACAD_REACTORS
330
59E
102
}
330
18
100
AcDbEntity
  8
ROGO
 62
     4
100
AcDbLine
 10
459.131635065311
 20
176.700410429775
 30
0.0
 11
458.9653924280587
 21
176.3644246537977
 31
0.0
  0
LINE
  5
5CB
102
{ACAD_REACTORS
330
59E
102
}
330
18
100
AcDbEntity
  8
ROGO
 62
     4
100
AcDbLine
 10
457.2123258798945
 20
175.2542067156817
 30
0.0
 11
459.7495875205859
 21
175.2542067156817
 31
0.0
  0
LINE
  5
5CC
102
{ACAD_REACTORS
330
59E
102
}
330
18
100
AcDbEntity
  8
ROGO
 62
     4
100
AcDbLine
 10
460.6777759481003
 20
177.1301280450495
 30
0.0
 11
460.4651556684794
 21
176.700410429775
 31
0.0
  0
LINE
  5
5CD
102
{ACAD_REACTORS
330
59E
102
}
330
18
100
AcDbEntity
  8
ROGO
 62
     4
100
AcDbLine
 10
458.1405143074089
 20
177.1301280450495
 30
0.0
 11
457.2123258798946
 21
175.2542067156817
 31
0.0
  0
LINE
  5
5CE
102
{ACAD_REACTORS
330
59B
330
599
102
}
330
18
100
AcDbEntity
  8
ROGO
 62
     4
100
AcDbLine
 10
454.8657318223826
 20
175.2542067156817
 30
0.0
 11
454.3882687497705
 21
174.1988726380409
 31
0.0
  0
LINE
  5
5CF
102
{ACAD_REACTORS
330
599
102
}
330
18
100
AcDbEntity
  8
ROGO
 62
     4
100
AcDbLine
 10
455.8643328811744
 20
175.9058157649084
 30
0.0
 11
455.1605382399685
 21
175.9058157649085
 31
0.0
  0
LINE
  5
5D0
102
{ACAD_REACTORS
330
599
102
}
330
18
100
AcDbEntity
  8
ROGO
 62
     4
100
AcDbLine
 10
455.966230804904
 20
176.4047038861733
 30
0.0
 11
455.386249377622
 21
176.4047038861733
 31
0.0
  0
SPLINE
  5
5D1
102
{ACAD_REACTORS
330
599
102
}
330
18
100
AcDbEntity
  8
ROGO
 62
     4
100
AcDbSpline
210
0.0
220
0.0
230
1.0
 70
     8
 71
     3
 72
    15
 73
    11
 74
     9
 42
0.0000000001
 43
0.0000000001
 44
0.0000000001
 40
0.0
 40
0.0
 40
0.0
 40
0.0
 40
0.2199578613106558
 40
0.3202465475123651
 40
0.4340808827708152
 40
0.5116301246390283
 40
0.634275054953107
 40
0.7077360179240892
 40
0.8337709579493377
 40
0.875782631437913
 40
0.875782631437913
 40
0.875782631437913
 40
0.875782631437913
 10
455.966230804904
 20
176.4047038861732
 30
0.0
 10
456.0488427121314
 20
176.4050822928052
 30
0.0
 10
456.1691211050715
 20
176.4056332320476
 30
0.0
 10
456.2348936141638
 20
176.2568485121485
 30
0.0
 10
456.2054112395445
 20
176.1610543626664
 30
0.0
 10
456.168349491796
 20
176.0627036280267
 30
0.0
 10
456.1028529895925
 20
175.995872820499
 30
0.0
 10
456.0149470901708
 20
175.931503486732
 30
0.0
 10
455.931871814377
 20
175.9237112906469
 30
0.0
 10
455.8778406729875
 20
175.9093948714267
 30
0.0
 10
455.8643328811743
 20
175.9058157649084
 30
0.0
 11
455.966230804904
 21
176.4047038861732
 31
0.0
 11
456.1802166205166
 21
176.3537967995448
 31
0.0
 11
456.2209759071951
 21
176.2621643755371
 31
0.0
 11
456.2005965568225
 21
176.1501691168779
 31
0.0
 11
456.170027238297
 21
176.0788991955982
 31
0.0
 11
456.0885086649398
 21
175.9872667715904
 31
0.0
 11
456.0273700278886
 21
175.9465411022878
 31
0.0
 11
455.9050921678529
 21
175.9159971822341
 31
0.0
 11
455.8643328811743
 21
175.9058157649084
 31
0.0
  0
LINE
  5
5D2
102
{ACAD_REACTORS
330
599
102
}
330
18
100
AcDbEntity
  8
ROGO
 62
     4
100
AcDbLine
 10
455.386249377622
 20
176.4047038861733
 30
0.0
 11
455.1605382399684
 21
175.9058157649085
 31
0.0
  0
LINE
  5
5D3
102
{ACAD_REACTORS
330
599
102
}
330
18
100
AcDbEntity
  8
ROGO
 62
     4
100
AcDbLine
 10
456.1394579202129
 20
175.2542067156817
 30
0.0
 11
454.8657318223826
 21
175.2542067156817
 31
0.0
  0
SPLINE
  5
5D4
102
{ACAD_REACTORS
330
599
102
}
330
18
100
AcDbEntity
  8
ROGO
 62
     4
100
AcDbSpline
210
0.0
220
0.0
230
1.0
 70
     8
 71
     3
 72
    18
 73
    14
 74
     0
 42
0.0000000001
 43
0.0000000001
 40
0.1087402787915014
 40
0.1087402787915014
 40
0.1087402787915014
 40
0.1087402787915014
 40
0.5992371417938475
 40
1.083176791562496
 40
1.448211145705696
 40
1.714037220764907
 40
2.164002567013297
 40
2.740236056362883
 40
3.395137510199602
 40
4.071816045172726
 40
4.784906178399433
 40
5.506895915094292
 40
6.060470601257719
 40
6.060470601257719
 40
6.060470601257719
 40
6.060470601257719
 10
456.7796228885438
 20
177.1301280450495
 30
0.0
 10
456.8534222280239
 20
177.1030818238385
 30
0.0
 10
456.9985478678104
 20
177.0459019791024
 30
0.0
 10
457.1756696328777
 20
176.9153986794004
 30
0.0
 10
457.2722641956273
 20
176.7647432834394
 30
0.0
 10
457.3651773506888
 20
176.6162993658639
 30
0.0
 10
457.378180377133
 20
176.403331459926
 30
0.0
 10
457.3568805413514
 20
176.1340884091093
 30
0.0
 10
457.2193707258141
 20
175.853161069794
 30
0.0
 10
456.9986593842693
 20
175.6074510257913
 30
0.0
 10
456.7246308512793
 20
175.4107879110175
 30
0.0
 10
456.435658311126
 20
175.2564124303098
 30
0.0
 10
456.2291006581923
 20
175.2548742580118
 30
0.0
 10
456.1394579197714
 20
175.2542067156816
 30
0.0
  0
LINE
  5
5D5
102
{ACAD_REACTORS
330
599
102
}
330
18
100
AcDbEntity
  8
ROGO
 62
     4
100
AcDbLine
 10
454.4760538699936
 20
177.1301280450495
 30
0.0
 11
453.0256959555755
 21
174.1988726380409
 31
0.0
  0
LINE
  5
5D6
102
{ACAD_REACTORS
330
59B
330
59A
330
599
102
}
330
18
100
AcDbEntity
  8
ROGO
 62
     4
100
AcDbLine
 10
453.0256959555755
 20
174.1988726380409
 30
0.0
 11
472.8673777656094
 21
174.1988726380409
 31
0.0
  0
LINE
  5
5D7
102
{ACAD_REACTORS
330
599
102
}
330
18
100
AcDbEntity
  8
ROGO
 62
     4
100
AcDbLine
 10
454.4760538699936
 20
177.1301280450495
 30
0.0
 11
456.7796228885438
 21
177.1301280450495
 31
0.0
  0
TEXT
  5
5D8
330
18
100
AcDbEntity
  8
文字
100
AcDbText
 10
480.3235935623413
 20
174.1274292651244
 30
0.0
 40
3.0
  1
LA-23
  7
STYLE3
100
AcDbText
  0
DIMENSION
  5
5E6
330
18
100
AcDbEntity
  8
外形線
100
AcDbDimension
  2
*D4
 10
536.9333831278324
 20
161.4180384166635
 30
0.0
 11
535.0583831278324
 21
176.4180384166635
 31
0.0
 70
    32
 71
     5
 42
-1.0
  3
STYLE3
100
AcDbAlignedDimension
 13
518.5482572305502
 23
191.4180384166635
 33
0.0
 14
518.5482572305502
 24
161.4180384166635
 34
0.0
 50
90.0
100
AcDbRotatedDimension
1001
ACAD
1000
DSTYLE
1002
{
1070
   271
1070
     2
1002
}
  0
LINE
  5
638
330
18
100
AcDbEntity
  8
中心線
100
AcDbLine
 10
390.5482572305502
 20
193.3310766100064
 30
0.0
 11
390.5482572305502
 21
182.076511293284
 31
0.0
  0
LINE
  5
639
330
18
100
AcDbEntity
  8
想像線
 48
0.5
100
AcDbLine
 10
409.5482572305502
 20
192.7077037933072
 30
0.0
 11
409.5482572305503
 21
157.7077037933072
 31
0.0
  0
LINE
  5
63A
330
18
100
AcDbEntity
  8
想像線
 48
0.6
100
AcDbLine
 10
393.5482572305501
 20
192.7077037933071
 30
0.0
 11
393.5482572305501
 21
157.7077037933072
 31
0.0
  0
LINE
  5
63B
330
18
100
AcDbEntity
  8
中心線
 48
0.5
100
AcDbLine
 10
400.2352792638219
 20
155.7810561397328
 30
0.0
 11
402.0245762051597
 21
185.2893530059069
 31
0.0
  0
LINE
  5
63C
330
18
100
AcDbEntity
  8
想像線
 48
0.5
100
AcDbLine
 10
393.5482572305501
 20
157.7077037933072
 30
0.0
 11
409.5482572305503
 21
157.7077037933072
 31
0.0
  0
LINE
  5
63D
330
18
100
AcDbEntity
  8
外形線
100
AcDbLine
 10
401.6349595400521
 20
173.9852287864611
 30
0.0
 11
403.8622511404927
 21
170.0618214163204
 31
0.0
  0
LINE
  5
63E
330
18
100
AcDbEntity
  8
外形線
100
AcDbLine
 10
403.1609038714357
 20
174.8155685707434
 30
0.0
 11
404.6107556520187
 21
170.0144822546748
 31
0.0
  0
LINE
  5
63F
330
18
100
AcDbEntity
  8
外形線
100
AcDbLine
 10
399.6310279843596
 20
175.0296099353363
 30
0.0
 11
397.6116842293954
 21
170.4388855045642
 31
0.0
  0
LINE
  5
640
330
18
100
AcDbEntity
  8
外形線
100
AcDbLine
 10
401.0454622100268
 20
174.0209741828939
 30
0.0
 11
398.3604246049789
 21
170.3954361090426
 31
0.0
  0
LINE
  5
641
330
18
100
AcDbEntity
  8
外形線
100
AcDbLine
 10
404.6107556520187
 20
170.0144822546748
 30
0.0
 11
403.8622511404927
 21
170.0618214163204
 31
0.0
  0
LINE
  5
642
330
18
100
AcDbEntity
  8
外形線
100
AcDbLine
 10
403.9570736285232
 20
159.2342463085016
 30
0.0
 11
403.2085691169972
 21
159.281585470147
 31
0.0
  0
LINE
  5
643
330
18
100
AcDbEntity
  8
外形線
100
AcDbLine
 10
403.4265111797423
 20
158.7668027419146
 30
0.0
 11
403.9570736285232
 21
159.2342463085016
 31
0.0
  0
LINE
  5
644
330
18
100
AcDbEntity
  8
外形線
100
AcDbLine
 10
403.8622511404927
 20
170.0618214163204
 30
0.0
 11
403.1782669539319
 21
158.7818555467566
 31
0.0
  0
LINE
  5
645
330
18
100
AcDbEntity
  8
外形線
100
AcDbLine
 10
397.6116842293954
 20
170.4388855045642
 30
0.0
 11
396.9580022059
 21
159.658649558391
 31
0.0
  0
LINE
  5
646
330
18
100
AcDbEntity
  8
外形線
100
AcDbLine
 10
398.3604246049789
 20
170.3954361090426
 30
0.0
 11
397.676440418418
 21
159.1154702394789
 31
0.0
  0
LINE
  5
647
330
18
100
AcDbEntity
  8
外形線
100
AcDbLine
 10
397.4281961926077
 20
159.1305230443209
 30
0.0
 11
400.427353686175
 21
158.9486628931177
 31
0.0
  0
LINE
  5
648
330
18
100
AcDbEntity
  8
外形線
100
AcDbLine
 10
397.4281961926077
 20
159.1305230443209
 30
0.0
 11
396.9580022059
 21
159.658649558391
 31
0.0
  0
LINE
  5
649
330
18
100
AcDbEntity
  8
外形線
100
AcDbLine
 10
396.9580022059
 20
159.658649558391
 30
0.0
 11
397.7067425814833
 21
159.6152001628693
 31
0.0
  0
LINE
  5
64A
330
18
100
AcDbEntity
  8
外形線
100
AcDbLine
 10
403.4265111797423
 20
158.7668027419146
 30
0.0
 11
400.427353686175
 21
158.9486628931177
 31
0.0
  0
LINE
  5
64B
330
18
100
AcDbEntity
  8
外形線
100
AcDbLine
 10
400.0240242103949
 20
161.415039664462
 30
0.0
 11
401.1455281820984
 21
162.4135209175616
 31
0.0
  0
LINE
  5
64C
330
18
100
AcDbEntity
  8
外形線
100
AcDbLine
 10
400.1508749315418
 20
162.4825652626199
 30
0.0
 11
401.0983484820702
 21
161.4183536445219
 31
0.0
  0
LINE
  5
64D
330
18
100
AcDbEntity
  8
中心線
100
AcDbLine
 10
402.6071718876361
 20
161.828767310105
 30
0.0
 11
398.9867824788102
 21
162.0482971503068
 31
0.0
  0
CIRCLE
  5
64E
330
18
100
AcDbEntity
  8
外形線
100
AcDbCircle
 10
400.624966005011
 20
161.9500615023396
 30
0.0
 40
1.25
  0
LINE
  5
64F
330
18
100
AcDbEntity
  8
外形線
100
AcDbLine
 10
397.6116842293954
 20
170.4388855045642
 30
0.0
 11
398.3604246049789
 21
170.3954361090426
 31
0.0
  0
LINE
  5
650
330
18
100
AcDbEntity
  8
外形線
100
AcDbLine
 10
400.3716193745688
 20
167.4049626691293
 30
0.0
 11
401.493123346272
 21
168.403443922229
 31
0.0
  0
LINE
  5
651
330
18
100
AcDbEntity
  8
外形線
100
AcDbLine
 10
400.4984700957157
 20
168.4724882672871
 30
0.0
 11
401.4459436462439
 21
167.4082766491893
 31
0.0
  0
CIRCLE
  5
652
330
18
100
AcDbEntity
  8
外形線
100
AcDbCircle
 10
400.9725611691849
 20
167.9399845070072
 30
0.0
 40
1.25
  0
LINE
  5
653
330
18
100
AcDbEntity
  8
中心線
100
AcDbLine
 10
402.958161266576
 20
167.8185047846094
 30
0.0
 11
399.2011536278424
 21
168.0463187552718
 31
0.0
  0
LINE
  5
654
330
18
100
AcDbEntity
  8
外形線
100
AcDbLine
 10
404.6107556520187
 20
170.0144822546748
 30
0.0
 11
403.9570736285232
 21
159.2342463085017
 31
0.0
  0
LINE
  5
655
330
18
100
AcDbEntity
  8
外形線
100
AcDbLine
 10
397.5482572305503
 20
188.4180384166635
 30
0.0
 11
405.5482572305503
 21
188.4180384166635
 31
0.0
  0
LINE
  5
656
330
18
100
AcDbEntity
  8
外形線
100
AcDbLine
 10
404.6566994415301
 20
178.4231565878233
 30
0.0
 11
404.6566994415305
 21
175.9231565878233
 31
0.0
  0
LINE
  5
657
330
18
100
AcDbEntity
  8
外形線
100
AcDbLine
 10
398.2566994415305
 20
178.4231565878233
 30
0.0
 11
398.2566994415305
 21
175.9231565878233
 31
0.0
  0
LINE
  5
658
330
18
100
AcDbEntity
  8
外形線
100
AcDbLine
 10
398.2566994415305
 20
175.9231565878233
 30
0.0
 11
404.6566994415305
 21
175.9231565878234
 31
0.0
  0
LINE
  5
65A
330
18
100
AcDbEntity
  8
隠れ線2
100
AcDbLine
 10
398.130671115126
 20
171.6187370131131
 30
0.0
 11
404.2199772620115
 21
171.2494992725242
 31
0.0
  0
LINE
  5
65B
330
18
100
AcDbEntity
  8
外形線
100
AcDbLine
 10
403.1609038714357
 20
174.8155685707434
 30
0.0
 11
401.3962439621912
 21
174.9271744721194
 31
0.0
  0
ARC
  5
65C
330
18
100
AcDbEntity
  8
外形線
100
AcDbCircle
 10
401.3402286579641
 20
173.7533695465254
 30
0.0
 40
0.375
100
AcDbArc
 50
38.19146370738413
 51
88.84278054262303
  0
ARC
  5
65D
330
18
100
AcDbEntity
  8
外形線
100
AcDbCircle
 10
401.3828339034449
 20
174.4270236068989
 30
0.0
 40
1.5
100
AcDbArc
 50
15.85236944608506
 51
87.17503471626827
  0
ARC
  5
65E
330
18
100
AcDbEntity
  8
外形線
100
AcDbCircle
 10
401.3491225970398
 20
174.4290677620635
 30
0.0
 40
1.5
100
AcDbArc
 50
85.88496528373175
 51
157.2076305539149
  0
ARC
  5
65F
330
18
100
AcDbEntity
  8
外形線
100
AcDbCircle
 10
401.3100181410702
 20
173.7552014240384
 30
0.0
 40
0.375
100
AcDbArc
 50
84.21721945737697
 51
134.8685362926158
  0
LINE
  5
660
330
18
100
AcDbEntity
  8
外形線
100
AcDbLine
 10
399.6310279843596
 20
175.0296099353363
 30
0.0
 11
401.3962439621913
 21
174.9271744721194
 31
0.0
  0
LINE
  5
661
330
18
100
AcDbEntity
  8
外形線
100
AcDbLine
 10
398.2566994415303
 20
178.4231565878233
 30
0.0
 11
404.6566994415301
 21
178.4231565878233
 31
0.0
  0
LINE
  5
662
330
18
100
AcDbEntity
  8
外形線
100
AcDbLine
 10
397.5482572305515
 20
207.3228281281832
 30
0.0
 11
397.5482572305503
 21
188.4180384166635
 31
0.0
  0
LINE
  5
663
330
18
100
AcDbEntity
  8
外形線
100
AcDbLine
 10
403.4566994415309
 20
188.4180384166635
 30
0.0
 11
403.4566994415302
 21
178.4231565878233
 31
0.0
  0
LINE
  5
664
330
18
100
AcDbEntity
  8
外形線
100
AcDbLine
 10
399.4566994415303
 20
188.4180384166635
 30
0.0
 11
399.4566994415306
 21
178.4231565878231
 31
0.0
  0
LINE
  5
665
330
18
100
AcDbEntity
  8
想像線
 48
0.5
100
AcDbLine
 10
387.5482572305502
 20
182.707703793307
 30
0.0
 11
393.5482572305505
 21
182.707703793307
 31
0.0
  0
LINE
  5
666
330
18
100
AcDbEntity
  8
外形線
100
AcDbLine
 10
405.5482572305509
 20
207.3228281281835
 30
0.0
 11
405.5482572305503
 21
188.4180384166635
 31
0.0
  0
LINE
  5
667
330
18
100
AcDbEntity
  8
想像線
100
AcDbLine
 10
389.7990705398321
 20
185.8568904840253
 30
0.0
 11
391.3245698663666
 21
184.3313911574906
 31
0.0
  0
LINE
  5
668
330
18
100
AcDbEntity
  8
想像線
100
AcDbLine
 10
389.809482886181
 20
184.368929448938
 30
0.0
 11
391.2870874079825
 21
185.8465339707393
 31
0.0
  0
CIRCLE
  5
669
330
18
100
AcDbEntity
  8
想像線
100
AcDbCircle
 10
390.5482572305502
 20
185.1077037933071
 30
0.0
 40
1.5
  0
LINE
  5
66A
330
18
100
AcDbEntity
  8
中心線
100
AcDbLine
 10
388.2496548663602
 20
185.107703793307
 30
0.0
 11
393.0305847749358
 21
185.107703793307
 31
0.0
  0
LINE
  5
66B
330
18
100
AcDbEntity
  8
想像線
 48
0.5
100
AcDbLine
 10
393.5482572305501
 20
192.7077037933071
 30
0.0
 11
409.5482572305502
 21
192.7077037933072
 31
0.0
  0
LINE
  5
66C
330
18
100
AcDbEntity
  8
想像線
 48
0.5
100
AcDbLine
 10
387.54825723055
 20
192.7077037933071
 30
0.0
 11
393.5482572305501
 21
192.7077037933071
 31
0.0
  0
LINE
  5
66D
330
18
100
AcDbEntity
  8
想像線
100
AcDbLine
 10
389.7990705398322
 20
190.8568904840253
 30
0.0
 11
391.3245698663666
 21
189.3313911574907
 31
0.0
  0
LINE
  5
66E
330
18
100
AcDbEntity
  8
想像線
100
AcDbLine
 10
389.8094828861811
 20
189.3689294489381
 30
0.0
 11
391.2870874079826
 21
190.8465339707394
 31
0.0
  0
CIRCLE
  5
66F
330
18
100
AcDbEntity
  8
想像線
100
AcDbCircle
 10
390.5482572305502
 20
190.1077037933072
 30
0.0
 40
1.5
  0
LINE
  5
670
330
18
100
AcDbEntity
  8
中心線
100
AcDbLine
 10
388.4510844194823
 20
190.107703793307
 30
0.0
 11
392.7766874342328
 21
190.107703793307
 31
0.0
  0
LINE
  5
671
330
18
100
AcDbEntity
  8
想像線
100
AcDbLine
 10
387.54825723055
 20
192.7077037933071
 30
0.0
 11
387.5482572305504
 21
182.707703793307
 31
0.0
  0
LINE
  5
672
330
18
100
AcDbEntity
  8
外形線
100
AcDbLine
 10
404.2381325864679
 20
171.2483983866729
 30
0.0
 11
405.2988446853898
 21
171.1840799028631
 31
0.0
  0
LINE
  5
674
330
18
100
AcDbEntity
  8
中心線
 48
0.5
100
AcDbLine
 10
370.3370983454451
 20
233.4180384166635
 30
0.0
 11
433.3555588254346
 21
233.4180384166635
 31
0.0
  0
LINE
  5
676
330
18
100
AcDbEntity
  8
中心線
 48
0.5
100
AcDbLine
 10
401.5482572305503
 20
156.8712642695158
 30
0.0
 11
401.5482572305502
 21
279.7344120818424
 31
0.0
  0
LINE
  5
681
330
18
100
AcDbEntity
  8
中心線
 48
0.5
100
AcDbLine
 10
343.576969428853
 20
230.2185923766357
 30
0.0
 11
342.7581014991295
 21
136.0872493269051
 31
0.0
  0
LINE
  5
68A
330
18
100
AcDbEntity
  8
中心線
 48
0.5
100
AcDbLine
 10
340.2300961731968
 20
226.9469037827309
 30
0.0
 11
346.9586185014961
 21
226.8883709819596
 31
0.0
  0
LINE
  5
68B
330
18
100
AcDbEntity
  8
中心線
100
AcDbLine
 10
340.8139928856484
 20
139.9272669675877
 30
0.0
 11
345.0766285650861
 21
139.8901854223669
 31
0.0
  0
CIRCLE
  5
694
330
18
100
AcDbEntity
  8
外形線
100
AcDbCircle
 10
343.5482572305503
 20
226.9180384166636
 30
0.0
 40
2.5
  0
CIRCLE
  5
695
330
18
100
AcDbEntity
  8
外形線
100
AcDbCircle
 10
343.5482572305503
 20
226.9180384166636
 30
0.0
 40
1.85
  0
CIRCLE
  5
696
330
18
100
AcDbEntity
  8
外形線
100
AcDbCircle
 10
342.7913569636723
 20
139.910065470441
 30
0.0
 40
1.85
  0
CIRCLE
  5
697
330
18
100
AcDbEntity
  8
外形線
100
AcDbCircle
 10
342.7913569636723
 20
139.910065470441
 30
0.0
 40
2.5
  0
LINE
  5
698
330
18
100
AcDbEntity
  8
中心線
 48
0.5
100
AcDbLine
 10
339.2777797052084
 20
139.9406308022674
 30
0.0
 11
346.7507944548217
 21
139.8756215086724
 31
0.0
  0
LINE
  5
699
330
18
100
AcDbEntity
  8
外形線
100
AcDbLine
 10
346.1633614584872
 20
222.8951377371756
 30
0.0
 11
345.4760522052339
 21
143.8868621034032
 31
0.0
  0
LINE
  5
69A
330
18
100
AcDbEntity
  8
外形線
100
AcDbLine
 10
340.8635619889889
 20
222.9412417837017
 30
0.0
 11
340.1762527357356
 21
143.9329661499293
 31
0.0
  0
LINE
  5
69B
330
18
100
AcDbEntity
  8
外形線
100
AcDbLine
 10
340.8635619889889
 20
222.9412417837017
 30
0.0
 11
346.1633614584872
 21
222.8951377371757
 31
0.0
  0
LINE
  5
69C
330
18
100
AcDbEntity
  8
外形線
100
AcDbLine
 10
340.1762527357356
 20
143.9329661499293
 30
0.0
 11
345.4760522052339
 21
143.8868621034032
 31
0.0
  0
LINE
  5
69D
330
18
100
AcDbEntity
  8
想像線
 48
0.7
100
AcDbLine
 10
345.8719083794159
 20
223.878936981946
 30
0.0
 11
345.16206490283
 21
142.2802842801835
 31
0.0
  0
LINE
  5
69E
330
18
100
AcDbEntity
  8
想像線
 48
0.7
100
AcDbLine
 10
341.1713396216034
 20
223.8339992996848
 30
0.0
 11
340.4622460259652
 21
142.3215476789115
 31
0.0
  0
TEXT
  5
6A0
330
18
100
AcDbEntity
  8
文字
100
AcDbText
 10
407.2029011402961
 20
232.9269440386576
 30
0.0
 40
1.0
  1
0.1mm
  7
STYLE3
100
AcDbText
  0
HATCH
  5
6A1
330
18
100
AcDbEntity
  8
ROGO
 62
     4
100
AcDbHatch
 10
0.0
 20
0.0
 30
0.0
210
0.0
220
0.0
230
1.0
  2
SOLID
 70
     1
 71
     1
 91
        1
 92
        7
 72
     0
 73
     1
 93
       11
 10
406.9987241001353
 20
240.7311262728641
 10
407.7548078426396
 20
240.7311262728641
 10
408.0218571318051
 20
241.2666898349835
 10
408.2889064209709
 20
240.7311262728641
 10
409.0449736209708
 20
240.7311262728641
 10
408.5334071051359
 20
241.757065665317
 10
409.7763158504672
 20
242.78300505777
 10
409.0202486504672
 20
242.7830050577701
 10
408.6662355673883
 20
242.5589816489484
 10
408.7779408743093
 20
242.78300505777
 10
408.0218571318052
 20
242.78300505777
 97
       11
330
776
330
779
330
77A
330
6A3
330
735
330
6FD
330
734
330
6A2
330
775
330
778
330
777
 75
     0
 76
     1
 47
0.0514683685270805
 98
        1
 10
407.9567858854013
 20
241.9027090743285
450
        0
451
        0
460
0.0
461
0.0
452
        0
462
0.0
453
        0
470

  0
LINE
  5
6A2
102
{ACAD_REACTORS
330
6A1
102
}
330
18
100
AcDbEntity
  8
ROGO
 62
     4
100
AcDbLine
 10
408.0218571318052
 20
241.2666898349836
 30
0.0
 11
408.2889064209709
 21
240.7311262728641
 31
0.0
  0
LINE
  5
6A3
102
{ACAD_REACTORS
330
6A1
102
}
330
18
100
AcDbEntity
  8
ROGO
 62
     4
100
AcDbLine
 10
408.0218571318052
 20
242.78300505777
 30
0.0
 11
408.7779408743093
 21
242.78300505777
 31
0.0
  0
LINE
  5
6A4
330
18
100
AcDbEntity
  8
目盛
100
AcDbLine
 10
408.6556481011742
 20
255.292338291452
 30
0.0
 11
407.7285971180493
 21
252.4391687425666
 31
0.0
  0
LINE
  5
6A5
330
18
100
AcDbEntity
  8
目盛
100
AcDbLine
 10
408.6556481011741
 20
211.543738541875
 30
0.0
 11
407.7285971180493
 21
214.3969080907605
 31
0.0
  0
CIRCLE
  5
6A6
330
18
100
AcDbEntity
  8
外形線
100
AcDbCircle
 10
401.5482572305502
 20
233.4180384166635
 30
0.0
 40
23.0
  0
CIRCLE
  5
6A7
330
18
100
AcDbEntity
  8
外形線
100
AcDbCircle
 10
401.5482572305502
 20
233.4180384166635
 30
0.0
 40
15.5
  0
LINE
  5
6A8
330
18
100
AcDbEntity
  8
中心線
 48
0.2
100
AcDbLine
 10
398.3482572305502
 20
231.2072744238713
 30
0.0
 11
398.3482572305502
 21
215.5176804018358
 31
0.0
  0
LINE
  5
6A9
330
18
100
AcDbEntity
  8
目盛
100
AcDbLine
 10
388.0291964278234
 20
214.8106475460397
 30
0.0
 11
389.7925521847008
 21
217.2376985291645
 31
0.0
  0
LINE
  5
6AA
330
18
100
AcDbEntity
  8
目盛
100
AcDbLine
 10
386.8875054663304
 20
215.6962338328203
 30
0.0
 11
388.1623534458277
 21
217.2372603183719
 31
0.0
  0
LINE
  5
6AB
330
18
100
AcDbEntity
  8
目盛
100
AcDbLine
 10
385.8036737941904
 20
216.651759985971
 30
0.0
 11
387.1727680060478
 21
218.1096972408138
 31
0.0
  0
LINE
  5
6AC
330
18
100
AcDbEntity
  8
目盛
100
AcDbLine
 10
389.2242409460333
 20
213.9984961301171
 30
0.0
 11
390.2958945359913
 21
215.6871519811212
 31
0.0
  0
LINE
  5
6AD
330
18
100
AcDbEntity
  8
目盛
100
AcDbLine
 10
394.4408663599265
 20
211.543738541875
 30
0.0
 11
395.3679173430514
 21
214.3969080907605
 31
0.0
  0
LINE
  5
6AE
330
18
100
AcDbEntity
  8
目盛
100
AcDbLine
 10
393.0813925188027
 20
212.0331792412337
 30
0.0
 11
393.817641624172
 21
213.8927322130102
 31
0.0
  0
LINE
  5
6AF
330
18
100
AcDbEntity
  8
目盛
100
AcDbLine
 10
391.7553335245537
 20
212.6070162099451
 30
0.0
 11
392.6068921076838
 21
214.4166703148771
 31
0.0
  0
LINE
  5
6B0
330
18
100
AcDbEntity
  8
目盛
100
AcDbLine
 10
390.4679227262109
 20
213.2629847756547
 30
0.0
 11
391.4314300744143
 21
215.0155981357424
 31
0.0
  0
TEXT
  5
6B1
330
18
100
AcDbEntity
  8
文字
100
AcDbText
 10
400.417590814505
 20
214.0172787337511
 30
0.0
 40
2.0
  1
5
  7
STYLE3
100
AcDbText
  0
LINE
  5
6B2
330
18
100
AcDbEntity
  8
目盛
100
AcDbLine
 10
401.5482572305502
 20
213.4180384166636
 30
0.0
 11
401.5482572305502
 21
210.4180384166635
 31
0.0
  0
LINE
  5
6B3
330
18
100
AcDbEntity
  8
目盛
100
AcDbLine
 10
400.1040752813761
 20
210.4634236628133
 30
0.0
 11
400.2296563204346
 21
212.4594771196698
 31
0.0
  0
LINE
  5
6B4
330
18
100
AcDbEntity
  8
目盛
100
AcDbLine
 10
398.6655928585713
 20
210.5994002864305
 30
0.0
 11
398.9162593257
 21
212.5836296890595
 31
0.0
  0
LINE
  5
6B5
330
18
100
AcDbEntity
  8
目盛
100
AcDbLine
 10
397.2384869950786
 20
210.8254316499037
 30
0.0
 11
397.6132496242501
 21
212.790006151361
 31
0.0
  0
LINE
  5
6B6
330
18
100
AcDbEntity
  8
目盛
100
AcDbLine
 10
395.8283898257588
 20
211.140625710705
 30
0.0
 11
396.3257696000884
 21
213.0777920329623
 31
0.0
  0
LINE
  5
6B7
330
18
100
AcDbEntity
  8
目盛
100
AcDbLine
 10
407.2681246353418
 20
211.140625710705
 30
0.0
 11
406.7707448610122
 21
213.0777920329623
 31
0.0
  0
LINE
  5
6B8
330
18
100
AcDbEntity
  8
目盛
100
AcDbLine
 10
405.8580274660219
 20
210.8254316499038
 30
0.0
 11
405.4832648368505
 21
212.7900061513611
 31
0.0
  0
LINE
  5
6B9
330
18
100
AcDbEntity
  8
目盛
100
AcDbLine
 10
404.4309216025292
 20
210.5994002864305
 30
0.0
 11
404.1802551354006
 21
212.5836296890595
 31
0.0
  0
LINE
  5
6BA
330
18
100
AcDbEntity
  8
目盛
100
AcDbLine
 10
402.9924391797244
 20
210.4634236628133
 30
0.0
 11
402.8668581406657
 21
212.4594771196698
 31
0.0
  0
LINE
  5
6BB
330
18
100
AcDbEntity
  8
外形線
  6
Continuous
100
AcDbLine
 10
397.8482572305503
 20
261.4180384166634
 30
0.0
 11
397.8482572305503
 21
259.5574722284354
 31
0.0
  0
LINE
  5
6BC
330
18
100
AcDbEntity
  8
外形線
  6
Continuous
100
AcDbLine
 10
405.2482572305502
 20
261.4180384166634
 30
0.0
 11
405.2482572305502
 21
259.5574722284354
 31
0.0
  0
TEXT
  5
6BD
330
18
100
AcDbEntity
  8
文字
100
AcDbText
 10
383.125280145682
 20
238.485063988613
 30
0.0
 40
2.0
  1
8
  7
STYLE3
100
AcDbText
  0
TEXT
  5
6BE
330
18
100
AcDbEntity
  8
文字
100
AcDbText
 10
383.0195977908402
 20
226.3356123166691
 30
0.0
 40
2.0
  1
7
  7
STYLE3
100
AcDbText
  0
LINE
  5
6BF
330
18
100
AcDbEntity
  8
目盛
100
AcDbLine
 10
382.9408663599265
 20
219.8989776139366
 30
0.0
 11
385.3679173430513
 21
221.662333370814
 31
0.0
  0
LINE
  5
6C0
330
18
100
AcDbEntity
  8
目盛
100
AcDbLine
 10
382.1287149440039
 20
221.0940221321466
 30
0.0
 11
383.817370795008
 21
222.1656757221046
 31
0.0
  0
LINE
  5
6C1
330
18
100
AcDbEntity
  8
目盛
100
AcDbLine
 10
382.1287149440039
 20
245.7420547011805
 30
0.0
 11
383.817370795008
 21
244.6704011112225
 31
0.0
  0
LINE
  5
6C2
330
18
100
AcDbEntity
  8
目盛
100
AcDbLine
 10
382.9408663599263
 20
246.9370992193904
 30
0.0
 11
385.3679173430513
 21
245.173743462513
 31
0.0
  0
LINE
  5
6C3
330
18
100
AcDbEntity
  8
目盛
100
AcDbLine
 10
379.2708445245917
 20
227.6981710118719
 30
0.0
 11
381.208010846849
 21
228.1955507862016
 31
0.0
  0
LINE
  5
6C4
330
18
100
AcDbEntity
  8
目盛
100
AcDbLine
 10
381.3932035895414
 20
222.3377039123241
 30
0.0
 11
383.1458169496291
 21
223.3012112605274
 31
0.0
  0
LINE
  5
6C5
330
18
100
AcDbEntity
  8
目盛
100
AcDbLine
 10
380.7372350238318
 20
223.6251147106669
 30
0.0
 11
382.5468891287638
 21
224.476673293797
 31
0.0
  0
LINE
  5
6C6
330
18
100
AcDbEntity
  8
目盛
100
AcDbLine
 10
380.1633980551205
 20
224.9511737049159
 30
0.0
 11
382.0229510268969
 21
225.6874228102852
 31
0.0
  0
LINE
  5
6C7
330
18
100
AcDbEntity
  8
目盛
100
AcDbLine
 10
379.6739573557618
 20
226.3106475460397
 30
0.0
 11
382.5271269046471
 21
227.2376985291646
 31
0.0
  0
LINE
  5
6C8
330
18
100
AcDbEntity
  8
目盛
100
AcDbLine
 10
378.5482572305503
 20
233.4180384166635
 30
0.0
 11
381.5482572305503
 21
233.4180384166635
 31
0.0
  0
LINE
  5
6C9
330
18
100
AcDbEntity
  8
目盛
100
AcDbLine
 10
378.9556504637904
 20
229.1082681811919
 30
0.0
 11
380.9202249652476
 21
229.4830308103633
 31
0.0
  0
LINE
  5
6CA
330
18
100
AcDbEntity
  8
目盛
100
AcDbLine
 10
378.7296191003173
 20
230.5353740446845
 30
0.0
 11
380.7138485029463
 21
230.7860405118132
 31
0.0
  0
LINE
  5
6CB
330
18
100
AcDbEntity
  8
目盛
100
AcDbLine
 10
378.5936424766999
 20
231.9738564674893
 30
0.0
 11
380.5896959335565
 21
232.0994375065479
 31
0.0
  0
LINE
  5
6CC
330
18
100
AcDbEntity
  8
目盛
100
AcDbLine
 10
378.5936424766999
 20
234.8622203658377
 30
0.0
 11
380.5896959335565
 21
234.7366393267791
 31
0.0
  0
LINE
  5
6CD
330
18
100
AcDbEntity
  8
目盛
100
AcDbLine
 10
378.7296191003173
 20
236.3007027886425
 30
0.0
 11
380.7138485029462
 21
236.0500363215139
 31
0.0
  0
LINE
  5
6CE
330
18
100
AcDbEntity
  8
目盛
100
AcDbLine
 10
378.9556504637904
 20
237.7278086521352
 30
0.0
 11
380.9202249652478
 21
237.3530460229637
 31
0.0
  0
LINE
  5
6CF
330
18
100
AcDbEntity
  8
目盛
100
AcDbLine
 10
379.2708445245917
 20
239.1379058214552
 30
0.0
 11
381.208010846849
 21
238.6405260471255
 31
0.0
  0
LINE
  5
6D0
330
18
100
AcDbEntity
  8
目盛
100
AcDbLine
 10
379.6739573557616
 20
240.5254292872874
 30
0.0
 11
382.5271269046471
 21
239.5983783041625
 31
0.0
  0
LINE
  5
6D1
330
18
100
AcDbEntity
  8
目盛
100
AcDbLine
 10
380.1633980551203
 20
241.8849031284111
 30
0.0
 11
382.0229510268969
 21
241.1486540230418
 31
0.0
  0
LINE
  5
6D2
330
18
100
AcDbEntity
  8
目盛
100
AcDbLine
 10
380.7372350238318
 20
243.2109621226602
 30
0.0
 11
382.5468891287638
 21
242.35940353953
 31
0.0
  0
LINE
  5
6D3
330
18
100
AcDbEntity
  8
目盛
100
AcDbLine
 10
381.3932035895414
 20
244.498372921003
 30
0.0
 11
383.1458169496291
 21
243.5348655727996
 31
0.0
  0
HATCH
  5
6D4
330
18
100
AcDbEntity
  8
針
  6
Continuous
100
AcDbHatch
 10
0.0
 20
0.0
 30
0.0
210
0.0
220
0.0
230
1.0
  2
SOLID
 70
     1
 71
     0
 91
        1
 92
        1
 93
        3
 72
     1
 10
401.5482572305502
 20
256.4180384166635
 11
402.0482572305502
 21
234.8322519790366
 72
     2
 10
401.5482572305502
 20
233.4180384166635
 40
1.5
 50
70.52877936551252
 51
109.4712206344913
 73
     1
 72
     1
 10
401.0482572305502
 20
234.8322519790366
 11
401.5482572305502
 21
256.4180384166625
 97
        0
 75
     0
 76
     1
 98
        1
 10
173.9958364810841
 20
247.6736336468962
450
        0
451
        0
460
0.0
461
0.0
452
        0
462
0.0
453
        0
470

  0
LINE
  5
6D5
330
18
100
AcDbEntity
  8
針
  6
Continuous
100
AcDbLine
 10
401.5482572305502
 20
256.4180384166626
 30
0.0
 11
401.0482572305502
 21
234.8322519790366
 31
0.0
  0
LINE
  5
6D6
330
18
100
AcDbEntity
  8
針
  6
Continuous
100
AcDbLine
 10
401.5482572305502
 20
256.4180384166635
 30
0.0
 11
402.0482572305501
 21
234.8322519790366
 31
0.0
  0
LINE
  5
6D7
330
18
100
AcDbEntity
  8
目盛
100
AcDbLine
 10
395.5562772821609
 20
219.5012362818686
 30
0.0
 11
395.8501699083072
 21
219.9057447790561
 31
0.0
  0
LINE
  5
6D8
330
18
100
AcDbEntity
  8
目盛
100
AcDbLine
 10
395.5562772821609
 20
227.1868977284306
 30
0.0
 11
395.8501699083072
 21
226.7823892312431
 31
0.0
  0
LINE
  5
6D9
330
18
100
AcDbEntity
  8
中心線
 48
0.2
100
AcDbLine
 10
391.3889820436205
 20
223.3440670051496
 30
0.0
 11
405.9169694916007
 21
223.3440670051496
 31
0.0
  0
CIRCLE
  5
6DA
330
18
100
AcDbEntity
  8
外形線
100
AcDbCircle
 10
398.3482572305502
 20
223.3440670051496
 30
0.0
 40
4.75
  0
TEXT
  5
6DB
330
18
100
AcDbEntity
  8
文字
100
AcDbText
 10
389.3984542573861
 20
217.7005835026441
 30
0.0
 40
2.0
  1
6
  7
STYLE3
100
AcDbText
  0
LINE
  5
6DC
330
18
100
AcDbEntity
  8
目盛
100
AcDbLine
 10
384.7819787998579
 20
217.6734549803036
 30
0.0
 11
386.2399160547007
 21
219.042549192161
 31
0.0
  0
LINE
  5
6DD
330
18
100
AcDbEntity
  8
目盛
100
AcDbLine
 10
383.8264526467071
 20
218.7572866524437
 30
0.0
 11
385.3674791322587
 21
220.0321346319411
 31
0.0
  0
TEXT
  5
6DE
330
18
100
AcDbEntity
  8
文字
100
AcDbText
 10
394.520254565627
 20
224.0587333126955
 30
0.0
 40
0.7
  1
20
  7
STYLE3
100
AcDbText
  0
TEXT
  5
6DF
330
18
100
AcDbEntity
  8
文字
100
AcDbText
 10
394.4910115615934
 20
221.8370875974587
 30
0.0
 40
0.7
  1
30
  7
STYLE3
100
AcDbText
  0
LINE
  5
6E0
330
18
100
AcDbEntity
  8
目盛
100
AcDbLine
 10
393.8307387781481
 20
221.8762362818686
 30
0.0
 11
394.3062670362958
 21
222.0307447790561
 31
0.0
  0
LINE
  5
6E1
330
18
100
AcDbEntity
  8
目盛
100
AcDbLine
 10
393.8307387781481
 20
224.8118977284306
 30
0.0
 11
394.3062670362959
 21
224.6573892312432
 31
0.0
  0
HATCH
  5
6E2
330
18
100
AcDbEntity
  8
針
100
AcDbHatch
 10
0.0
 20
0.0
 30
0.0
210
0.0
220
0.0
230
1.0
  2
SOLID
 70
     1
 71
     0
 91
        3
 92
        7
 72
     1
 73
     1
 93
        5
 10
398.5482572305502
 20
228.0898546110165
 42
0.0105298176880202
 10
398.3482572305502
 20
228.0940670051496
 42
0.0
 10
398.3482572305502
 20
227.5940670051496
 42
0.0
 10
398.3482572305502
 20
224.4940670051496
 42
-0.0437283108272093
 10
398.5482572305502
 20
224.4765421704402
 42
0.0
 97
        0
 92
        7
 72
     1
 73
     1
 93
        4
 10
398.3482572305503
 20
228.0940670051496
 42
0.0105298176880232
 10
398.1482572305503
 20
228.0898546110165
 42
0.0
 10
398.1482572305503
 20
224.4765421704402
 42
-0.0437283108272093
 10
398.3482572305502
 20
224.4940670051496
 42
0.0
 97
        0
 92
      137
 93
        4
 72
     1
 10
397.754737934277
 20
226.1218409336245
 11
398.9214046009437
 21
226.1218409336245
 72
     1
 10
398.9214046009437
 20
226.1218409336245
 11
398.9214046009437
 21
227.6218409336244
 72
     1
 10
398.9214046009437
 20
227.6218409336244
 11
397.754737934277
 21
227.6218409336244
 72
     1
 10
397.754737934277
 20
227.6218409336244
 11
397.754737934277
 21
226.1218409336245
 97
        0
 75
     0
 76
     1
 47
0.0128177587452554
 98
        3
 10
398.4969597854816
 20
225.027846254297
 10
398.4199897034629
 20
226.2327159420451
 10
398.2403925777159
 20
226.1814447753448
450
        0
451
        0
460
0.0
461
0.0
452
        0
462
0.0
453
        0
470

  0
LINE
  5
6E3
330
18
100
AcDbEntity
  8
針
 48
0.2
100
AcDbLine
 10
398.1482572305503
 20
228.0898546110165
 30
0.0
 11
398.1482572305503
 21
224.4765421704402
 31
0.0
  0
LINE
  5
6E4
330
18
100
AcDbEntity
  8
針
 48
0.2
100
AcDbLine
 10
398.5482572305502
 20
228.0898546110165
 30
0.0
 11
398.5482572305502
 21
224.4765421704402
 31
0.0
  0
LINE
  5
6E5
330
18
100
AcDbEntity
  8
目盛
100
AcDbLine
 10
398.3482572305502
 20
228.0940670051496
 30
0.0
 11
398.3482572305502
 21
227.5940670051496
 31
0.0
  0
TEXT
  5
6E6
330
18
100
AcDbEntity
  8
文字
100
AcDbText
 10
400.9496746027271
 20
221.7255661139293
 30
0.0
 40
0.7
  1
70
  7
STYLE3
100
AcDbText
  0
TEXT
  5
6E7
330
18
100
AcDbEntity
  8
文字
100
AcDbText
 10
400.8655557513709
 20
223.9056050794892
 30
0.0
 40
0.7
  1
80
  7
STYLE3
100
AcDbText
  0
TEXT
  5
6E8
330
18
100
AcDbEntity
  8
文字
100
AcDbText
 10
395.8186916167548
 20
225.8403032225789
 30
0.0
 40
0.7
  1
10
  7
STYLE3
100
AcDbText
  0
TEXT
  5
6E9
330
18
100
AcDbEntity
  8
文字
100
AcDbText
 10
395.7886593341435
 20
220.040098637951
 30
0.0
 40
0.7
  1
40
  7
STYLE3
100
AcDbText
  0
TEXT
  5
6EA
330
18
100
AcDbEntity
  8
文字
100
AcDbText
 10
397.6860001035796
 20
219.4417723910587
 30
0.0
 40
0.7
  1
50
  7
STYLE3
100
AcDbText
  0
TEXT
  5
6EB
330
18
100
AcDbEntity
  8
文字
100
AcDbText
 10
399.7571589851141
 20
220.1214463746401
 30
0.0
 40
0.7
  1
60
  7
STYLE3
100
AcDbText
  0
TEXT
  5
6EC
330
18
100
AcDbEntity
  8
文字
100
AcDbText
 10
399.7598449209125
 20
225.7896973108052
 30
0.0
 40
0.7
  1
90
  7
STYLE3
100
AcDbText
  0
TEXT
  5
6ED
330
18
100
AcDbEntity
  8
文字
100
AcDbText
 10
398.0150374160991
 20
226.3924390299025
 30
0.0
 40
0.7
  1
0
  7
STYLE3
100
AcDbText
  0
CIRCLE
  5
6EE
330
18
100
AcDbEntity
  8
外形線
100
AcDbCircle
 10
398.3482572305502
 20
223.3440670051496
 30
0.0
 40
1.149999999999999
  0
LINE
  5
6EF
330
18
100
AcDbEntity
  8
目盛
100
AcDbLine
 10
401.1402371789394
 20
227.1868977284306
 30
0.0
 11
400.8463445527932
 21
226.7823892312431
 31
0.0
  0
LINE
  5
6F0
330
18
100
AcDbEntity
  8
目盛
100
AcDbLine
 10
401.1402371789396
 20
219.5012362818686
 30
0.0
 11
400.8463445527932
 21
219.9057447790561
 31
0.0
  0
LINE
  5
6F1
330
18
100
AcDbEntity
  8
目盛
100
AcDbLine
 10
398.3482572305502
 20
218.5940670051496
 30
0.0
 11
398.3482572305502
 21
219.0940670051496
 31
0.0
  0
LINE
  5
6F2
330
18
100
AcDbEntity
  8
目盛
100
AcDbLine
 10
402.8657756829521
 20
224.8118977284306
 30
0.0
 11
402.3902474248045
 21
224.6573892312431
 31
0.0
  0
LINE
  5
6F3
330
18
100
AcDbEntity
  8
目盛
100
AcDbLine
 10
402.8657756829521
 20
221.8762362818686
 30
0.0
 11
402.3902474248045
 21
222.0307447790561
 31
0.0
  0
CIRCLE
  5
6F4
330
18
100
AcDbEntity
  8
外形線
100
AcDbCircle
 10
401.5482572305502
 20
233.4180384166635
 30
0.0
 40
1.5
  0
POINT
  5
6F5
330
18
100
AcDbEntity
  8
DEFPOINTS
  6
ByBlock
 62
     0
100
AcDbPoint
 10
401.5482572305502
 20
233.4180384166635
 30
0.0
  0
POINT
  5
6F6
330
18
100
AcDbEntity
  8
DEFPOINTS
  6
ByBlock
 62
     0
100
AcDbPoint
 10
401.5482572305502
 20
233.4180384166635
 30
0.0
  0
HATCH
  5
6F7
330
18
100
AcDbEntity
  8
ROGO
 62
     4
100
AcDbHatch
 10
0.0
 20
0.0
 30
0.0
210
0.0
220
0.0
230
1.0
  2
SOLID
 70
     1
 71
     1
 91
        2
 92
        5
 93
        6
 72
     1
 10
393.8656305756158
 20
240.7311262728641
 11
394.8194315315523
 21
240.731126272864
 72
     1
 10
394.8194315315523
 20
240.731126272864
 11
395.1536556823808
 21
241.4698601272126
 72
     1
 10
395.1536556823808
 20
241.4698601272126
 11
396.0452639505533
 21
241.4698601272125
 72
     4
 94
        3
 73
     0
 74
     0
 95
       18
 96
       14
 40
0.108740278791501
 40
0.108740278791501
 40
0.108740278791501
 40
0.108740278791501
 40
0.6623149649549278
 40
1.384304701649787
 40
2.097394834876493
 40
2.774073369849618
 40
3.428974823686337
 40
4.005208313035923
 40
4.455173659284313
 40
4.720999734343524
 40
5.086034088486724
 40
5.569973738255373
 40
6.060470601257719
 40
6.060470601257719
 40
6.060470601257719
 40
6.060470601257719
 10
396.0452639505529
 20
241.4698601272125
 10
396.1080138674476
 20
241.4703274068437
 10
396.2526042245012
 20
241.4714041274523
 10
396.4548850026084
 20
241.5794669639477
 10
396.6467049757014
 20
241.7171311442894
 10
396.8012029147828
 20
241.8891281750912
 10
396.897459785659
 20
242.0857773126119
 10
396.912369670706
 20
242.2742474481836
 10
396.9032675521951
 20
242.4233249823401
 10
396.8382283436521
 20
242.5272357246429
 10
396.7706121497274
 20
242.6326945018157
 10
396.6466269141802
 20
242.7240468116071
 10
396.5450389663297
 20
242.7640727029224
 10
396.4933794286936
 20
242.7830050577701
 72
     1
 10
396.4933794286937
 20
242.78300505777
 11
394.8808811157085
 21
242.78300505777
 72
     1
 10
394.8808811157085
 20
242.78300505777
 11
393.8656305756158
 21
240.7311262728641
 97
        6
330
72A
330
6FE
330
705
330
6FD
330
703
330
6FC
 92
       20
 93
        4
 72
     1
 10
395.3600201746909
 20
241.9259864616712
 11
395.5180179710483
 21
242.2752081465567
 72
     1
 10
395.5180179710483
 20
242.2752081465567
 11
395.9240049701457
 21
242.2752081465567
 72
     4
 94
        3
 73
     0
 74
     0
 95
       15
 96
       11
 40
0.0
 40
0.0
 40
0.0
 40
0.0
 40
0.4399157226213117
 40
0.6404930950247764
 40
0.8681617655417579
 40
1.023260249278236
 40
1.268550109906271
 40
1.415472035848321
 40
1.667541915898791
 40
1.751565262875804
 40
1.751565262875804
 40
1.751565262875804
 40
1.751565262875804
 10
395.9240049701458
 20
242.2752081465567
 10
395.981833305205
 20
242.2754730311991
 10
396.0660281802631
 20
242.2758586886688
 10
396.1120689366276
 20
242.1717093847393
 10
396.0914312743942
 20
242.1046534801019
 10
396.0654880509701
 20
242.0358079658541
 10
396.0196404994277
 20
241.9890264005847
 10
395.9581063698325
 20
241.9439678669477
 10
395.8999536767768
 20
241.9385133296882
 10
395.8621318778043
 20
241.9284918362341
 10
395.852676423535
 20
241.9259864616713
 72
     1
 10
395.8526764235348
 20
241.9259864616713
 11
395.3600201746909
 21
241.9259864616712
 97
        4
330
704
330
6FB
330
729
330
6FA
 75
     0
 76
     1
 47
0.0514683685270805
 98
        2
 10
394.8894996690154
 20
242.1448163008811
 10
394.8894996690154
 20
242.1448163008811
450
        0
451
        0
460
0.0
461
0.0
452
        0
462
0.0
453
        0
470

  0
HATCH
  5
6F8
330
18
100
AcDbEntity
  8
ROGO
 62
     4
100
AcDbHatch
 10
0.0
 20
0.0
 30
0.0
210
0.0
220
0.0
230
1.0
  2
SOLID
 70
     1
 71
     1
 91
        1
 92
        7
 72
     0
 73
     1
 93
        4
 10
394.9124825669743
 20
240.9367964791553
 10
394.8194315315523
 20
240.7311262728641
 10
406.9987241001353
 20
240.731126272864
 10
407.1012779075215
 20
240.9367964791553
 97
        4
330
6F9
330
703
330
6FD
330
735
 75
     0
 76
     1
 47
0.0514683685270805
 98
        1
 10
402.6087178278626
 20
240.8824000149505
450
        0
451
        0
460
0.0
461
0.0
452
        0
462
0.0
453
        0
470

  0
LINE
  5
6F9
102
{ACAD_REACTORS
330
6F8
102
}
330
18
100
AcDbEntity
  8
ROGO
 62
     4
100
AcDbLine
 10
394.8982191200576
 20
240.9367964791553
 30
0.0
 11
407.1012779075215
 21
240.9367964791553
 31
0.0
  0
LINE
  5
6FA
102
{ACAD_REACTORS
330
6F7
102
}
330
18
100
AcDbEntity
  8
ROGO
 62
     4
100
AcDbLine
 10
395.852676423535
 20
241.9259864616713
 30
0.0
 11
395.3600201746909
 21
241.9259864616713
 31
0.0
  0
LINE
  5
6FB
102
{ACAD_REACTORS
330
6F7
102
}
330
18
100
AcDbEntity
  8
ROGO
 62
     4
100
AcDbLine
 10
395.9240049701458
 20
242.2752081465567
 30
0.0
 11
395.5180179710483
 21
242.2752081465567
 31
0.0
  0
LINE
  5
6FC
102
{ACAD_REACTORS
330
6F7
102
}
330
18
100
AcDbEntity
  8
ROGO
 62
     4
100
AcDbLine
 10
396.045263950862
 20
241.4698601272125
 30
0.0
 11
395.1536556823808
 21
241.4698601272125
 31
0.0
  0
LINE
  5
6FD
102
{ACAD_REACTORS
330
6F8
330
6A1
330
6F7
102
}
330
18
100
AcDbEntity
  8
ROGO
 62
     4
100
AcDbLine
 10
393.8656305756158
 20
240.7311262728641
 30
0.0
 11
407.7548078426396
 21
240.7311262728641
 31
0.0
  0
LINE
  5
6FE
102
{ACAD_REACTORS
330
6F7
102
}
330
18
100
AcDbEntity
  8
ROGO
 62
     4
100
AcDbLine
 10
394.8808811157085
 20
242.78300505777
 30
0.0
 11
396.4933794286936
 21
242.78300505777
 31
0.0
  0
TEXT
  5
6FF
330
18
100
AcDbEntity
  8
文字
100
AcDbText
 10
389.8313331938176
 20
247.4354317453209
 30
0.0
 40
2.0
  1
9
  7
STYLE3
100
AcDbText
  0
LINE
  5
700
330
18
100
AcDbEntity
  8
目盛
100
AcDbLine
 10
385.8036737941905
 20
250.184316847356
 30
0.0
 11
387.1727680060479
 21
248.7263795925132
 31
0.0
  0
LINE
  5
701
330
18
100
AcDbEntity
  8
目盛
100
AcDbLine
 10
383.8264526467072
 20
248.0787901808834
 30
0.0
 11
385.3674791322587
 21
246.803942201386
 31
0.0
  0
LINE
  5
702
330
18
100
AcDbEntity
  8
目盛
100
AcDbLine
 10
384.7819787998578
 20
249.1626218530234
 30
0.0
 11
386.2399160547006
 21
247.793527641166
 31
0.0
  0
LINE
  5
703
102
{ACAD_REACTORS
330
6F8
330
6F7
102
}
330
18
100
AcDbEntity
  8
ROGO
 62
     4
100
AcDbLine
 10
395.1536556823808
 20
241.4698601272125
 30
0.0
 11
394.8194315315523
 21
240.7311262728641
 31
0.0
  0
LINE
  5
704
102
{ACAD_REACTORS
330
6F7
102
}
330
18
100
AcDbEntity
  8
ROGO
 62
     4
100
AcDbLine
 10
395.5180179710483
 20
242.2752081465567
 30
0.0
 11
395.3600201746909
 21
241.9259864616713
 31
0.0
  0
LINE
  5
705
102
{ACAD_REACTORS
330
6F7
102
}
330
18
100
AcDbEntity
  8
ROGO
 62
     4
100
AcDbLine
 10
394.8808811157085
 20
242.78300505777
 30
0.0
 11
393.8656305756158
 21
240.731126272864
 31
0.0
  0
LINE
  5
706
330
18
100
AcDbEntity
  8
目盛
100
AcDbLine
 10
388.0291964278234
 20
252.0254292872873
 30
0.0
 11
389.7925521847008
 21
249.5983783041625
 31
0.0
  0
LINE
  5
707
330
18
100
AcDbEntity
  8
目盛
100
AcDbLine
 10
389.2242409460333
 20
252.8375807032098
 30
0.0
 11
390.2958945359913
 21
251.1489248522058
 31
0.0
  0
LINE
  5
708
330
18
100
AcDbEntity
  8
目盛
100
AcDbLine
 10
386.8875054663304
 20
251.1398430005067
 30
0.0
 11
388.1623534458277
 21
249.5988165149551
 31
0.0
  0
LINE
  5
709
330
18
100
AcDbEntity
  8
目盛
100
AcDbLine
 10
390.4679227262107
 20
253.5730920576724
 30
0.0
 11
391.4314300744142
 21
251.8204786975847
 31
0.0
  0
LINE
  5
70A
330
18
100
AcDbEntity
  8
目盛
100
AcDbLine
 10
391.7553335245535
 20
254.2290606233819
 30
0.0
 11
392.6068921076837
 21
252.4194065184499
 31
0.0
  0
LINE
  5
70B
330
18
100
AcDbEntity
  8
目盛
100
AcDbLine
 10
393.0813925188027
 20
254.8028975920933
 30
0.0
 11
393.817641624172
 21
252.9433446203168
 31
0.0
  0
LINE
  5
70C
330
18
100
AcDbEntity
  8
目盛
100
AcDbLine
 10
394.4408663599265
 20
255.2923382914521
 30
0.0
 11
395.3679173430513
 21
252.4391687425666
 31
0.0
  0
HATCH
  5
70D
330
18
100
AcDbEntity
  8
ROGO
 62
     4
100
AcDbHatch
 10
0.0
 20
0.0
 30
0.0
210
0.0
220
0.0
230
1.0
  2
SOLID
 70
     1
 71
     1
 91
        1
 92
        5
 93
        8
 72
     1
 10
403.2721409312146
 20
242.2944300055532
 11
403.5157602317553
 21
242.7830050577701
 72
     1
 10
403.5157602317553
 20
242.7830050577701
 11
402.200723889649
 21
242.7830050577701
 72
     4
 94
        3
 73
     0
 74
     0
 95
       26
 96
       22
 40
0.0
 40
0.0
 40
0.0
 40
0.0
 40
0.6806272418834842
 40
1.136254477903046
 40
1.46479881993938
 40
1.710112249467339
 40
2.028296642642858
 40
2.26054023071286
 40
2.679918019583943
 40
3.021285510494669
 40
3.253470102552404
 40
3.481138982867296
 40
3.88839434820105
 40
4.176372499429433
 40
4.331470983165859
 40
4.55178379777286
 40
4.710876624553383
 40
4.941349605730123
 40
5.071777377612479
 40
5.355602839328967
 40
5.485200010717811
 40
5.485200010717811
 40
5.485200010717811
 40
5.485200010717811
 10
402.2007238896489
 20
242.78300505777
 10
402.1198684988902
 20
242.778181086505
 10
401.9848866848243
 20
242.7701278400083
 10
401.8366774741125
 20
242.6800923361498
 10
401.7280907297023
 20
242.6277496508074
 10
401.6506467952781
 20
242.5565942293878
 10
401.5938800774105
 20
242.4830958768666
 10
401.5223149727131
 20
242.395523128741
 10
401.4639556748071
 20
242.2935482072765
 10
401.434236832274
 20
242.1811540662133
 10
401.4079121636203
 20
242.0915752836543
 10
401.3883893486474
 20
241.9917514207619
 10
401.3933565054601
 20
241.8839065326396
 10
401.4004697013446
 20
241.7837457216358
 10
401.4322283912687
 20
241.7122458987091
 10
401.4683959136587
 20
241.6613429517798
 10
401.5126825495136
 20
241.6052789990811
 10
401.5611418138311
 20
241.5681480247508
 10
401.6012215809416
 20
241.5008827696102
 10
401.6713798612041
 20
241.4922992379341
 10
401.71597525528
 20
241.4752154480571
 10
401.7299547437414
 20
241.4698601272125
 72
     1
 10
401.7299547437414
 20
241.4698601272125
 11
402.860983758746
 21
241.4698601272125
 72
     1
 10
402.860983758746
 20
241.4698601272125
 11
403.1046004794247
 21
241.9584300055532
 72
     1
 10
403.1046004794247
 20
241.9584300055532
 11
402.2649194585526
 21
241.9584300055532
 72
     4
 94
        3
 73
     0
 74
     0
 95
       16
 96
       12
 40
0.0
 40
0.0
 40
0.0
 40
0.0
 40
0.2055476186376435
 40
0.413215311645417
 40
0.5370797571173976
 40
0.655840267458388
 40
0.7862675211309036
 40
0.8773481874435923
 40
0.9637758349635053
 40
1.139038695775164
 40
1.497869274526411
 40
1.497869274526411
 40
1.497869274526411
 40
1.497869274526411
 10
402.2649194585526
 20
241.9584300055532
 10
402.2395917198809
 20
241.9658817976418
 10
402.1886750053118
 20
241.9808622416411
 10
402.1844136874642
 20
242.0534819307783
 10
402.190219116526
 20
242.1052294017375
 10
402.2145322664033
 20
242.1429045824536
 10
402.2440283342639
 20
242.1703182334892
 10
402.2550110285155
 20
242.2060202276715
 10
402.2872936576396
 20
242.2329796999879
 10
402.3445394090306
 20
242.2782948069637
 10
402.407843300242
 20
242.2879459122492
 10
402.4503740078634
 20
242.2944300055532
 72
     1
 10
402.4503740078635
 20
242.2944300055533
 11
403.2721409312146
 21
242.2944300055532
 97
        8
330
73E
330
70E
330
70F
330
73F
330
741
330
740
330
742
330
743
 75
     0
 76
     1
 47
0.0514683685270805
 98
        1
 10
402.6606407868558
 20
242.4906836014231
450
        0
451
        0
460
0.0
461
0.0
452
        0
462
0.0
453
        0
470

  0
SPLINE
  5
70E
102
{ACAD_REACTORS
330
70D
102
}
330
18
100
AcDbEntity
  8
ROGO
 62
     4
100
AcDbSpline
210
0.0
220
0.0
230
1.0
 70
     8
 71
     3
 72
    26
 73
    22
 74
    20
 42
0.0000000001
 43
0.0000000001
 44
0.0000000001
 40
0.0
 40
0.0
 40
0.0
 40
0.0
 40
0.2382195346591896
 40
0.397689067266058
 40
0.5126795869787669
 40
0.5985392873135731
 40
0.7099038249249733
 40
0.7911890807494741
 40
0.9379713068543702
 40
1.057449928673087
 40
1.138714535893316
 40
1.218398644003506
 40
1.36093802187036
 40
1.461730374800257
 40
1.516014844108008
 40
1.593124329220501
 40
1.648806818593631
 40
1.729472362005518
 40
1.775122082164342
 40
1.874460993765092
 40
1.919820003751207
 40
1.919820003751207
 40
1.919820003751207
 40
1.919820003751207
 10
402.2007238896489
 20
242.78300505777
 30
0.0
 10
402.1198684988902
 20
242.7781810865049
 30
0.0
 10
401.9848866848243
 20
242.7701278400082
 30
0.0
 10
401.8366774741125
 20
242.6800923361498
 30
0.0
 10
401.7280907297023
 20
242.6277496508075
 30
0.0
 10
401.6506467952781
 20
242.5565942293878
 30
0.0
 10
401.5938800774105
 20
242.4830958768665
 30
0.0
 10
401.5223149727131
 20
242.3955231287411
 30
0.0
 10
401.4639556748071
 20
242.2935482072765
 30
0.0
 10
401.4342368322741
 20
242.1811540662133
 30
0.0
 10
401.4079121636202
 20
242.0915752836543
 30
0.0
 10
401.3883893486473
 20
241.9917514207619
 30
0.0
 10
401.3933565054602
 20
241.8839065326396
 30
0.0
 10
401.4004697013448
 20
241.7837457216358
 30
0.0
 10
401.4322283912687
 20
241.7122458987092
 30
0.0
 10
401.4683959136588
 20
241.6613429517798
 30
0.0
 10
401.5126825495135
 20
241.6052789990811
 30
0.0
 10
401.5611418138311
 20
241.5681480247508
 30
0.0
 10
401.6012215809416
 20
241.5008827696102
 30
0.0
 10
401.6713798612041
 20
241.4922992379341
 30
0.0
 10
401.7159752552799
 20
241.4752154480571
 30
0.0
 10
401.7299547437414
 20
241.4698601272125
 30
0.0
 11
402.2007238896489
 21
242.78300505777
 31
0.0
 11
401.9653393166951
 21
242.7463628756763
 31
0.0
 11
401.8226818133201
 21
242.6750931867429
 31
0.0
 11
401.7228217660342
 21
242.6180774820655
 31
0.0
 11
401.6586261971305
 21
242.5610615450416
 31
0.0
 11
401.5872976505197
 21
242.4755378718523
 31
0.0
 11
401.5373676268768
 21
242.4113951750469
 31
0.0
 11
401.4660386701126
 21
242.2831095490896
 31
0.0
 11
401.4303746018838
 21
242.1690779073884
 31
0.0
 11
401.4089760789159
 21
242.090681226327
 31
0.0
 11
401.3947101235017
 21
242.0122845452656
 31
0.0
 11
401.3947101235017
 21
241.8697451673988
 31
0.0
 11
401.4089760789159
 21
241.7699675099535
 31
0.0
 11
401.4303746018838
 21
241.7200785650577
 31
0.0
 11
401.4731716478196
 21
241.6559358682522
 31
0.0
 11
401.5088361262018
 21
241.6131739154844
 31
0.0
 11
401.5658987173983
 21
241.5561582108069
 31
0.0
 11
401.5944302180734
 21
241.520523250167
 31
0.0
 11
401.6871576978055
 21
241.4848885218735
 31
0.0
 11
401.7299547437414
 21
241.4698601272125
 31
0.0
  0
LINE
  5
70F
102
{ACAD_REACTORS
330
70D
102
}
330
18
100
AcDbEntity
  8
ROGO
 62
     4
100
AcDbLine
 10
401.7299547437414
 20
241.4698601272125
 30
0.0
 11
402.860983758746
 21
241.4698601272125
 31
0.0
  0
HATCH
  5
710
330
18
100
AcDbEntity
  8
ROGO
 62
     4
100
AcDbHatch
 10
0.0
 20
0.0
 30
0.0
210
0.0
220
0.0
230
1.0
  2
SOLID
 70
     1
 71
     1
 91
        2
 92
        7
 72
     0
 73
     1
 93
        8
 10
400.7869843183522
 20
242.7830050577701
 10
399.7365808355807
 20
242.78300505777
 10
398.7896465054817
 20
241.4698601272125
 10
399.5168937571733
 20
241.4698601272125
 10
399.6971841947542
 20
241.7198747973034
 10
400.5270611835384
 20
241.7198747973034
 10
400.6381276066074
 20
241.4698601272126
 10
401.3703353287355
 20
241.4698601272126
 97
        8
330
717
330
71D
330
718
330
719
330
71B
330
711
330
716
330
713
 92
       22
 72
     0
 73
     1
 93
        3
 10
400.4099160779379
 20
241.9835728089994
 10
399.8873419558993
 20
241.9835728089994
 10
400.2107086922126
 20
242.4319960808184
 97
        3
330
71A
330
71C
330
712
 75
     0
 76
     1
 47
0.0128389261915577
 98
        2
 10
400.7047294258565
 20
242.467963140961
 10
400.7047294258565
 20
242.467963140961
450
        0
451
        0
460
0.0
461
0.0
452
        0
462
0.0
453
        0
470

  0
LINE
  5
711
102
{ACAD_REACTORS
330
710
102
}
330
18
100
AcDbEntity
  8
ROGO
 62
     4
100
AcDbLine
 10
400.5270611835385
 20
241.7198747973034
 30
0.0
 11
400.6381276066074
 21
241.4698601272125
 31
0.0
  0
LINE
  5
712
102
{ACAD_REACTORS
330
710
102
}
330
18
100
AcDbEntity
  8
ROGO
 62
     4
100
AcDbLine
 10
400.2107086922126
 20
242.4319960808183
 30
0.0
 11
400.409916077938
 21
241.9835728089994
 31
0.0
  0
LINE
  5
713
102
{ACAD_REACTORS
330
710
102
}
330
18
100
AcDbEntity
  8
ROGO
 62
     4
100
AcDbLine
 10
400.7869843183522
 20
242.78300505777
 30
0.0
 11
401.3703353287355
 21
241.4698601272125
 31
0.0
  0
HATCH
  5
714
330
18
100
AcDbEntity
  8
ROGO
 62
     4
100
AcDbHatch
 10
0.0
 20
0.0
 30
0.0
210
0.0
220
0.0
230
1.0
  2
SOLID
 70
     1
 71
     1
 91
        1
 92
        1
 93
       12
 72
     1
 10
397.4460034218992
 20
242.78300505777
 11
399.2220865703831
 21
242.7830050577701
 72
     1
 10
399.2220865703831
 20
242.78300505777
 11
399.0732523746486
 21
242.482202727078
 72
     1
 10
399.0732523746486
 20
242.482202727078
 11
398.1397879524306
 21
242.482202727078
 72
     1
 10
398.1397879524306
 20
242.482202727078
 11
398.0234181063541
 21
242.2470126838938
 72
     1
 10
398.0234181063541
 20
242.2470126838938
 11
398.9568825285721
 21
242.2470126838938
 72
     1
 10
398.9568825285721
 20
242.2470126838938
 11
398.8375561529482
 21
242.0058473272125
 72
     1
 10
398.8375561529482
 20
242.0058473272125
 11
397.9040917307303
 21
242.0058473272125
 72
     1
 10
397.9040917307303
 20
242.0058473272125
 11
397.7877169581139
 21
241.7706473272126
 72
     1
 10
397.787716958114
 20
241.7706473272126
 11
398.7211813803319
 21
241.7706473272126
 72
     1
 10
398.7211813803319
 20
241.7706473272126
 11
398.5723546711231
 21
241.4698601272125
 72
     1
 10
398.5723546711231
 20
241.4698601272125
 11
396.7962715226391
 21
241.4698601272125
 72
     1
 10
396.7962715226391
 20
241.4698601272125
 11
397.4460034218992
 21
242.78300505777
 97
       12
330
715
330
727
330
724
330
725
330
723
330
720
330
721
330
71E
330
722
330
71F
330
726
330
728
 75
     0
 76
     1
 98
        1
 10
324.7958744431902
 20
151.9849090096587
450
        0
451
        0
460
0.0
461
0.0
452
        0
462
0.0
453
        0
470

  0
LINE
  5
715
102
{ACAD_REACTORS
330
714
102
}
330
18
100
AcDbEntity
  8
ROGO
 62
     4
100
AcDbLine
 10
397.4460034218992
 20
242.78300505777
 30
0.0
 11
399.2220865703831
 21
242.7830050577701
 31
0.0
  0
LINE
  5
716
102
{ACAD_REACTORS
330
710
102
}
330
18
100
AcDbEntity
  8
ROGO
 62
     4
100
AcDbLine
 10
401.3703353287355
 20
241.4698601272126
 30
0.0
 11
400.6381276066074
 21
241.4698601272125
 31
0.0
  0
LINE
  5
717
102
{ACAD_REACTORS
330
710
102
}
330
18
100
AcDbEntity
  8
ROGO
 62
     4
100
AcDbLine
 10
399.7365808355808
 20
242.78300505777
 30
0.0
 11
400.7869843183522
 21
242.7830050577701
 31
0.0
  0
LINE
  5
718
102
{ACAD_REACTORS
330
710
102
}
330
18
100
AcDbEntity
  8
ROGO
 62
     4
100
AcDbLine
 10
398.7896465054817
 20
241.4698601272125
 30
0.0
 11
399.5168937571733
 21
241.4698601272125
 31
0.0
  0
LINE
  5
719
102
{ACAD_REACTORS
330
710
102
}
330
18
100
AcDbEntity
  8
ROGO
 62
     4
100
AcDbLine
 10
399.6971841947542
 20
241.7198747973034
 30
0.0
 11
399.5168937571733
 21
241.4698601272126
 31
0.0
  0
LINE
  5
71A
102
{ACAD_REACTORS
330
710
102
}
330
18
100
AcDbEntity
  8
ROGO
 62
     4
100
AcDbLine
 10
399.8873419558993
 20
241.9835728089994
 30
0.0
 11
400.409916077938
 21
241.9835728089994
 31
0.0
  0
LINE
  5
71B
102
{ACAD_REACTORS
330
710
102
}
330
18
100
AcDbEntity
  8
ROGO
 62
     4
100
AcDbLine
 10
399.6971841947542
 20
241.7198747973034
 30
0.0
 11
400.5270611835385
 21
241.7198747973034
 31
0.0
  0
LINE
  5
71C
102
{ACAD_REACTORS
330
710
102
}
330
18
100
AcDbEntity
  8
ROGO
 62
     4
100
AcDbLine
 10
400.2107086922125
 20
242.4319960808183
 30
0.0
 11
399.8873419558993
 21
241.9835728089994
 31
0.0
  0
LINE
  5
71D
102
{ACAD_REACTORS
330
710
102
}
330
18
100
AcDbEntity
  8
ROGO
 62
     4
100
AcDbLine
 10
399.7365808355808
 20
242.78300505777
 30
0.0
 11
398.7896465054817
 21
241.4698601272125
 31
0.0
  0
LINE
  5
71E
102
{ACAD_REACTORS
330
714
102
}
330
18
100
AcDbEntity
  8
ROGO
 62
     4
100
AcDbLine
 10
397.9040917307303
 20
242.0058473272125
 30
0.0
 11
397.7877169581139
 21
241.7706473272126
 31
0.0
  0
LINE
  5
71F
102
{ACAD_REACTORS
330
714
102
}
330
18
100
AcDbEntity
  8
ROGO
 62
     4
100
AcDbLine
 10
398.7211813803319
 20
241.7706473272126
 30
0.0
 11
398.5723546711231
 21
241.4698601272125
 31
0.0
  0
LINE
  5
720
102
{ACAD_REACTORS
330
714
102
}
330
18
100
AcDbEntity
  8
ROGO
 62
     4
100
AcDbLine
 10
398.9568825285721
 20
242.2470126838938
 30
0.0
 11
398.8375561529482
 21
242.0058473272125
 31
0.0
  0
LINE
  5
721
102
{ACAD_REACTORS
330
714
102
}
330
18
100
AcDbEntity
  8
ROGO
 62
     4
100
AcDbLine
 10
397.9040917307303
 20
242.0058473272125
 30
0.0
 11
398.8375561529482
 21
242.0058473272125
 31
0.0
  0
LINE
  5
722
102
{ACAD_REACTORS
330
714
102
}
330
18
100
AcDbEntity
  8
ROGO
 62
     4
100
AcDbLine
 10
397.787716958114
 20
241.7706473272126
 30
0.0
 11
398.7211813803319
 21
241.7706473272126
 31
0.0
  0
LINE
  5
723
102
{ACAD_REACTORS
330
714
102
}
330
18
100
AcDbEntity
  8
ROGO
 62
     4
100
AcDbLine
 10
398.0234181063541
 20
242.2470126838938
 30
0.0
 11
398.9568825285721
 21
242.2470126838938
 31
0.0
  0
LINE
  5
724
102
{ACAD_REACTORS
330
714
102
}
330
18
100
AcDbEntity
  8
ROGO
 62
     4
100
AcDbLine
 10
398.1397879524306
 20
242.482202727078
 30
0.0
 11
399.0732523746486
 21
242.482202727078
 31
0.0
  0
LINE
  5
725
102
{ACAD_REACTORS
330
714
102
}
330
18
100
AcDbEntity
  8
ROGO
 62
     4
100
AcDbLine
 10
398.1397879524306
 20
242.482202727078
 30
0.0
 11
398.0234181063541
 21
242.2470126838938
 31
0.0
  0
LINE
  5
726
102
{ACAD_REACTORS
330
714
102
}
330
18
100
AcDbEntity
  8
ROGO
 62
     4
100
AcDbLine
 10
396.7962715226391
 20
241.4698601272125
 30
0.0
 11
398.5723546711231
 21
241.4698601272125
 31
0.0
  0
LINE
  5
727
102
{ACAD_REACTORS
330
714
102
}
330
18
100
AcDbEntity
  8
ROGO
 62
     4
100
AcDbLine
 10
399.2220865703831
 20
242.78300505777
 30
0.0
 11
399.0732523746486
 21
242.482202727078
 31
0.0
  0
LINE
  5
728
102
{ACAD_REACTORS
330
714
102
}
330
18
100
AcDbEntity
  8
ROGO
 62
     4
100
AcDbLine
 10
397.4460034218992
 20
242.78300505777
 30
0.0
 11
396.7962715226391
 21
241.4698601272125
 31
0.0
  0
SPLINE
  5
729
102
{ACAD_REACTORS
330
6F7
102
}
330
18
100
AcDbEntity
  8
ROGO
 62
     4
100
AcDbSpline
210
0.0
220
0.0
230
1.0
 70
     8
 71
     3
 72
    15
 73
    11
 74
     9
 42
0.0000000001
 43
0.0000000001
 44
0.0000000001
 40
0.0
 40
0.0
 40
0.0
 40
0.0
 40
0.1539705029175028
 40
0.2241725832587281
 40
0.3038566179396687
 40
0.3581410872474193
 40
0.443992538467216
 40
0.4954152125469665
 40
0.5836396705646186
 40
0.6130478420065743
 40
0.6130478420065743
 40
0.6130478420065743
 40
0.6130478420065743
 10
395.9240049701458
 20
242.2752081465567
 30
0.0
 10
395.9818333052049
 20
242.2754730311992
 30
0.0
 10
396.0660281802631
 20
242.2758586886688
 30
0.0
 10
396.1120689366277
 20
242.1717093847393
 30
0.0
 10
396.0914312743942
 20
242.1046534801019
 30
0.0
 10
396.06548805097
 20
242.0358079658541
 30
0.0
 10
396.0196404994276
 20
241.9890264005847
 30
0.0
 10
395.9581063698326
 20
241.9439678669478
 30
0.0
 10
395.8999536767768
 20
241.9385133296882
 30
0.0
 10
395.8621318778042
 20
241.9284918362341
 30
0.0
 10
395.852676423535
 20
241.9259864616713
 30
0.0
 11
395.9240049701458
 21
242.2752081465567
 31
0.0
 11
396.0737950410745
 21
242.2395731859168
 31
0.0
 11
396.1023265417495
 21
242.1754304891114
 31
0.0
 11
396.0880609964887
 21
242.09703380805
 31
0.0
 11
396.0666624735209
 21
242.0471448631541
 31
0.0
 11
396.0095994721708
 21
241.9830021663488
 31
0.0
 11
395.966802426235
 21
241.9544941978368
 31
0.0
 11
395.8812079242099
 21
241.9331134537992
 31
0.0
 11
395.852676423535
 21
241.9259864616713
 31
0.0
  0
SPLINE
  5
72A
102
{ACAD_REACTORS
330
6F7
102
}
330
18
100
AcDbEntity
  8
ROGO
 62
     4
100
AcDbSpline
210
0.0
220
0.0
230
1.0
 70
     8
 71
     3
 72
    18
 73
    14
 74
     0
 42
0.0000000001
 43
0.0000000001
 40
0.1087402787915014
 40
0.1087402787915014
 40
0.1087402787915014
 40
0.1087402787915014
 40
0.5992371417938475
 40
1.083176791562496
 40
1.448211145705696
 40
1.714037220764907
 40
2.164002567013297
 40
2.740236056362883
 40
3.395137510199602
 40
4.071816045172726
 40
4.784906178399433
 40
5.506895915094292
 40
6.060470601257719
 40
6.060470601257719
 40
6.060470601257719
 40
6.060470601257719
 10
396.4933794286936
 20
242.7830050577701
 30
0.0
 10
396.5450389663297
 20
242.7640727029224
 30
0.0
 10
396.6466269141802
 20
242.7240468116071
 30
0.0
 10
396.7706121497274
 20
242.6326945018157
 30
0.0
 10
396.8382283436521
 20
242.5272357246429
 30
0.0
 10
396.9032675521951
 20
242.4233249823401
 30
0.0
 10
396.912369670706
 20
242.2742474481836
 30
0.0
 10
396.897459785659
 20
242.0857773126119
 30
0.0
 10
396.8012029147828
 20
241.8891281750912
 30
0.0
 10
396.6467049757014
 20
241.7171311442894
 30
0.0
 10
396.4548850026084
 20
241.5794669639477
 30
0.0
 10
396.2526042245012
 20
241.4714041274523
 30
0.0
 10
396.1080138674476
 20
241.4703274068437
 30
0.0
 10
396.0452639505529
 20
241.4698601272125
 30
0.0
  0
HATCH
  5
72B
330
18
100
AcDbEntity
  8
ROGO
 62
     4
100
AcDbHatch
 10
0.0
 20
0.0
 30
0.0
210
0.0
220
0.0
230
1.0
  2
SOLID
 70
     1
 71
     1
 91
        2
 92
        5
 93
        6
 72
     4
 94
        3
 73
     0
 74
     0
 95
       38
 96
       34
 40
0.0
 40
0.0
 40
0.0
 40
0.0
 40
0.5164800423611548
 40
0.6786836885910848
 40
0.88710434560167
 40
1.060788566413433
 40
1.20733358396365
 40
1.401978810630435
 40
1.501434849986208
 40
1.613448456300606
 40
1.778535433376704
 40
1.965543155621333
 40
2.086853233586049
 40
2.218636674910137
 40
2.365128983511507
 40
2.587438484857767
 40
2.798655694361229
 40
2.896849520951487
 40
3.008826444388521
 40
3.141482119684725
 40
3.235915913773394
 40
3.315078629400928
 40
3.428105103696636
 40
3.552301837626102
 40
3.676497880048442
 40
3.785169590044758
 40
4.034047122621728
 40
4.132240949211986
 40
4.328628719031952
 40
4.502226771166864
 40
4.834567227246322
 40
5.244640938625969
 40
5.836847051382449
 40
5.836847051382449
 40
5.836847051382449
 40
5.836847051382449
 10
404.2449855517979
 20
242.7884822769424
 10
404.1847301541722
 20
242.7842256578415
 10
404.1055511885511
 20
242.7786322220543
 10
404.0050124160416
 20
242.7510875958494
 10
403.9502076616006
 20
242.7182730763915
 10
403.8931723602834
 20
242.694152831691
 10
403.8445444538984
 20
242.6584355324417
 10
403.7953583532025
 20
242.6400307522483
 10
403.7609167398267
 20
242.6068436438757
 10
403.7210533816937
 20
242.5865715257007
 10
403.6893094818585
 20
242.5411966316863
 10
403.6538288053267
 20
242.4987727500279
 10
403.6126667569196
 20
242.4678052084504
 10
403.5788845113602
 20
242.435280229488
 10
403.5478939984359
 20
242.3850844143042
 10
403.5295524258647
 20
242.3183890396185
 10
403.4778506114554
 20
242.2762799853334
 10
403.4700659369723
 20
242.2256523376572
 10
403.4414680867766
 20
242.1957828774666
 10
403.4290327413207
 20
242.1572256954815
 10
403.4242967631969
 20
242.1219005061608
 10
403.4186124601544
 20
242.0889092247326
 10
403.4037433999219
 20
242.0542038539946
 10
403.4085967124833
 20
242.0113335750597
 10
403.4072141494411
 20
241.9698208610332
 10
403.4080277894144
 20
241.9137774044218
 10
403.4050912500683
 20
241.8592122075023
 10
403.4285090005834
 20
241.7998323313339
 10
403.4423668481863
 20
241.7469033866673
 10
403.4803188181299
 20
241.6736168444158
 10
403.5457851709479
 20
241.5890600207069
 10
403.6702749169653
 20
241.4864240574141
 10
403.7899754475246
 20
241.4760121166968
 10
403.8607015902548
 20
241.4698601272125
 72
     1
 10
403.8607015902549
 20
241.4698601272125
 11
404.611155413441
 21
241.4698601272125
 72
     4
 94
        3
 73
     0
 74
     0
 95
       11
 96
        7
 40
0.1647869275458135
 40
0.1647869275458135
 40
0.1647869275458135
 40
0.1647869275458135
 40
0.2545010798212315
 40
0.5111620267764023
 40
0.7602998271033902
 40
0.8850764140209603
 40
0.8850764140209603
 40
0.8850764140209603
 40
0.8850764140209603
 10
404.6111554134402
 20
241.4698601272125
 10
404.6216273137601
 20
241.4696583115695
 10
404.6620580085886
 20
241.4688791266628
 10
404.731154550685
 20
241.4788056572474
 10
404.8038533178231
 20
241.4883180516207
 10
404.8471943292573
 20
241.4952456414046
 10
404.8611728720581
 20
241.4991365741212
 72
     4
 94
        3
 73
     0
 74
     0
 95
        9
 96
        5
 40
0.0
 40
0.0
 40
0.0
 40
0.0
 40
0.3245123838720408
 40
0.7608395406220814
 40
0.7608395406220814
 40
0.7608395406220814
 40
0.7608395406220814
 10
404.8611728720581
 20
241.4991365741212
 10
404.8976578403761
 20
241.5102989138444
 10
404.9831991260536
 20
241.5364697160983
 10
405.0538758232904
 20
241.5917820338727
 10
405.0944075789463
 20
241.6235026070807
 72
     4
 94
        3
 73
     0
 74
     0
 95
       25
 96
       21
 40
0.0
 40
0.0
 40
0.0
 40
0.0
 40
0.165525918914855
 40
0.3412380755365305
 40
0.5940540902285263
 40
0.7697671103696209
 40
0.9377330196075423
 40
1.11479469302833
 40
1.274661249598185
 40
1.574522170874768
 40
1.815540668866877
 40
2.15849091873445
 40
2.536227739636605
 40
2.738070817316548
 40
2.925680654369045
 40
3.162706124480894
 40
3.395643218188267
 40
3.648478129958861
 40
3.928509979727306
 40
4.337226830236035
 40
4.337226830236035
 40
4.337226830236035
 40
4.337226830236035
 10
405.0944075789463
 20
241.6235026070807
 10
405.1093002363399
 20
241.6358093510264
 10
405.1375475356439
 20
241.665079474248
 10
405.1876487722836
 20
241.7125198225867
 10
405.2317989320902
 20
241.7677915930407
 10
405.2862613328074
 20
241.8125874259141
 10
405.3146142883464
 20
241.8673536522616
 10
405.3554828356506
 20
241.9104261227607
 10
405.3897648545679
 20
241.9769473047513
 10
405.4188514532679
 20
242.0533590698954
 10
405.4465815087654
 20
242.1529603535989
 10
405.4572079521021
 20
242.2653254066444
 10
405.4414794944548
 20
242.3740385390754
 10
405.4034835167801
 20
242.4552980346123
 10
405.3755493560109
 20
242.5230194492784
 10
405.3331557673685
 20
242.5871635529556
 10
405.2847904125078
 20
242.6569273592897
 10
405.2166521917485
 20
242.7146333216047
 10
405.1276025331274
 20
242.7842360109802
 10
405.0446594254088
 20
242.7869008874862
 10
404.9954393749833
 20
242.7884822769424
 72
     1
 10
404.9954393749832
 20
242.7884822769424
 11
404.2449855517977
 21
242.7884822769424
 97
        6
330
731
330
730
330
732
330
72F
330
72E
330
72D
 92
       20
 93
        1
 72
     3
 10
404.4174439464287
 20
242.1107862847234
 11
0.1782847090673272
 21
0.1567790921840611
 40
0.6788083417438792
 50
0.0
 51
360.0
 73
     1
 97
        1
330
72C
 75
     0
 76
     1
 47
0.088756267210375
 98
        2
 10
404.4698752221973
 20
242.4242735550474
 10
404.4698752221973
 20
242.4242735550474
450
        0
451
        0
460
0.0
461
0.0
452
        0
462
0.0
453
        0
470

  0
ELLIPSE
  5
72C
102
{ACAD_REACTORS
330
72B
102
}
330
18
100
AcDbEntity
  8
ROGO
 62
     4
100
AcDbEllipse
 10
404.4174439464287
 20
242.1107862847234
 30
0.0
 11
0.1782847090673272
 21
0.1567790921840611
 31
0.0
210
0.0
220
0.0
230
0.9999999999999998
 40
0.6788083417438792
 41
0.0
 42
6.283185307179586
  0
SPLINE
  5
72D
102
{ACAD_REACTORS
330
72B
102
}
330
18
100
AcDbEntity
  8
ROGO
 62
     4
100
AcDbSpline
210
0.0
220
0.0
230
1.0
 70
     8
 71
     3
 72
     9
 73
     5
 74
     3
 42
0.0000000001
 43
0.0000000001
 44
0.0000000001
 40
0.0
 40
0.0
 40
0.0
 40
0.0
 40
0.1135793343552172
 40
0.2662938392177403
 40
0.2662938392177403
 40
0.2662938392177403
 40
0.2662938392177403
 10
404.8611728720581
 20
241.4991365741212
 30
0.0
 10
404.8976578403761
 20
241.5102989138444
 30
0.0
 10
404.9831991260536
 20
241.5364697160983
 30
0.0
 10
405.0538758232904
 20
241.5917820338727
 30
0.0
 10
405.0944075789463
 20
241.6235026070807
 30
0.0
 11
404.8611728720581
 21
241.4991365741212
 31
0.0
 11
404.9679236362829
 21
241.5379249683909
 31
0.0
 11
405.0944075789463
 21
241.6235026070807
 31
0.0
  0
SPLINE
  5
72E
102
{ACAD_REACTORS
330
72B
102
}
330
18
100
AcDbEntity
  8
ROGO
 62
     4
100
AcDbSpline
210
0.0
220
0.0
230
1.0
 70
     8
 71
     3
 72
    11
 73
     7
 74
     0
 42
0.0000000001
 43
0.0000000001
 40
0.1647869275458134
 40
0.1647869275458134
 40
0.1647869275458134
 40
0.1647869275458134
 40
0.2895635144633836
 40
0.5387013147903714
 40
0.7953622617455423
 40
0.8850764140209602
 40
0.8850764140209602
 40
0.8850764140209602
 40
0.8850764140209602
 10
404.8611728720581
 20
241.4991365741212
 30
0.0
 10
404.8471943292573
 20
241.4952456414046
 30
0.0
 10
404.8038533178231
 20
241.4883180516207
 30
0.0
 10
404.731154550685
 20
241.4788056572474
 30
0.0
 10
404.6620580085886
 20
241.4688791266628
 30
0.0
 10
404.6216273137601
 20
241.4696583115695
 30
0.0
 10
404.6111554134402
 20
241.4698601272125
 30
0.0
  0
LINE
  5
72F
102
{ACAD_REACTORS
330
72B
102
}
330
18
100
AcDbEntity
  8
ROGO
 62
     4
100
AcDbLine
 10
403.8607015902548
 20
241.4698601272125
 30
0.0
 11
404.6111554134402
 21
241.4698601272125
 31
0.0
  0
LINE
  5
730
102
{ACAD_REACTORS
330
72B
102
}
330
18
100
AcDbEntity
  8
ROGO
 62
     4
100
AcDbLine
 10
404.2449855517979
 20
242.7884822769424
 30
0.0
 11
404.9954393749833
 21
242.7884822769424
 31
0.0
  0
SPLINE
  5
731
102
{ACAD_REACTORS
330
72B
102
}
330
18
100
AcDbEntity
  8
ROGO
 62
     4
100
AcDbSpline
210
0.0
220
0.0
230
1.0
 70
     8
 71
     3
 72
    25
 73
    21
 74
     0
 42
0.0000000001
 43
0.0000000001
 40
0.0
 40
0.0
 40
0.0
 40
0.0
 40
0.4087168505087288
 40
0.6887487002771746
 40
0.9415836120477687
 40
1.17452070575514
 40
1.41154617586699
 40
1.599156012919487
 40
1.80099909059943
 40
2.178735911501585
 40
2.521686161369157
 40
2.762704659361267
 40
3.06256558063785
 40
3.222432137207705
 40
3.399493810628493
 40
3.567459719866414
 40
3.743172740007509
 40
3.995988754699505
 40
4.17170091132118
 40
4.337226830236035
 40
4.337226830236035
 40
4.337226830236035
 40
4.337226830236035
 10
404.9954393749833
 20
242.7884822769424
 30
0.0
 10
405.0446594254088
 20
242.7869008874862
 30
0.0
 10
405.1276025331274
 20
242.7842360109802
 30
0.0
 10
405.2166521917485
 20
242.7146333216047
 30
0.0
 10
405.2847904125078
 20
242.6569273592897
 30
0.0
 10
405.3331557673685
 20
242.5871635529556
 30
0.0
 10
405.3755493560109
 20
242.5230194492784
 30
0.0
 10
405.4034835167801
 20
242.4552980346123
 30
0.0
 10
405.4414794944548
 20
242.3740385390754
 30
0.0
 10
405.4572079521021
 20
242.2653254066444
 30
0.0
 10
405.4465815087654
 20
242.1529603535989
 30
0.0
 10
405.4188514532679
 20
242.0533590698954
 30
0.0
 10
405.3897648545679
 20
241.9769473047513
 30
0.0
 10
405.3554828356506
 20
241.9104261227607
 30
0.0
 10
405.3146142883464
 20
241.8673536522616
 30
0.0
 10
405.2862613328074
 20
241.8125874259141
 30
0.0
 10
405.2317989320902
 20
241.7677915930407
 30
0.0
 10
405.1876487722836
 20
241.7125198225867
 30
0.0
 10
405.1375475356439
 20
241.665079474248
 30
0.0
 10
405.1093002363399
 20
241.6358093510264
 30
0.0
 10
405.0944075789463
 20
241.6235026070807
 30
0.0
  0
SPLINE
  5
732
102
{ACAD_REACTORS
330
72B
102
}
330
18
100
AcDbEntity
  8
ROGO
 62
     4
100
AcDbSpline
210
0.0
220
0.0
230
1.0
 70
     8
 71
     3
 72
    38
 73
    34
 74
    32
 42
0.0000000001
 43
0.0000000001
 44
0.0000000001
 40
0.0
 40
0.0
 40
0.0
 40
0.0
 40
0.1807680148264315
 40
0.2375392910068956
 40
0.3104865209606157
 40
0.3712759982447458
 40
0.422566754387306
 40
0.490692583720658
 40
0.5255021974951946
 40
0.5647069597052371
 40
0.622487401681883
 40
0.6879401044674746
 40
0.7303986317551266
 40
0.7765228362185534
 40
0.8277951442290254
 40
0.9056034697002209
 40
0.9795294930264187
 40
1.013897332332996
 40
1.053089255536027
 40
1.099518741889647
 40
1.132570569820733
 40
1.160277520290299
 40
1.19983678629386
 40
1.243305643169139
 40
1.286774258016964
 40
1.324809356515675
 40
1.411916492917645
 40
1.446284332224223
 40
1.5150200516612
 40
1.575779369908399
 40
1.69209852953623
 40
1.835624328519098
 40
2.042896467983898
 40
2.042896467983898
 40
2.042896467983898
 40
2.042896467983898
 10
404.2449855517979
 20
242.7884822769424
 30
0.0
 10
404.1847301541723
 20
242.7842256578415
 30
0.0
 10
404.1055511885512
 20
242.7786322220542
 30
0.0
 10
404.0050124160416
 20
242.7510875958495
 30
0.0
 10
403.9502076616006
 20
242.7182730763915
 30
0.0
 10
403.8931723602833
 20
242.6941528316909
 30
0.0
 10
403.8445444538983
 20
242.6584355324417
 30
0.0
 10
403.7953583532026
 20
242.6400307522483
 30
0.0
 10
403.7609167398267
 20
242.6068436438758
 30
0.0
 10
403.7210533816938
 20
242.5865715257007
 30
0.0
 10
403.6893094818585
 20
242.5411966316863
 30
0.0
 10
403.6538288053267
 20
242.4987727500279
 30
0.0
 10
403.6126667569195
 20
242.4678052084504
 30
0.0
 10
403.5788845113602
 20
242.435280229488
 30
0.0
 10
403.5478939984359
 20
242.3850844143041
 30
0.0
 10
403.5295524258647
 20
242.3183890396185
 30
0.0
 10
403.4778506114554
 20
242.2762799853334
 30
0.0
 10
403.4700659369722
 20
242.2256523376573
 30
0.0
 10
403.4414680867767
 20
242.1957828774665
 30
0.0
 10
403.4290327413206
 20
242.1572256954816
 30
0.0
 10
403.4242967631969
 20
242.1219005061608
 30
0.0
 10
403.4186124601545
 20
242.0889092247325
 30
0.0
 10
403.4037433999219
 20
242.0542038539947
 30
0.0
 10
403.4085967124833
 20
242.0113335750597
 30
0.0
 10
403.4072141494411
 20
241.9698208610332
 30
0.0
 10
403.4080277894144
 20
241.9137774044218
 30
0.0
 10
403.4050912500683
 20
241.8592122075023
 30
0.0
 10
403.4285090005835
 20
241.7998323313339
 30
0.0
 10
403.4423668481863
 20
241.7469033866674
 30
0.0
 10
403.4803188181299
 20
241.6736168444158
 30
0.0
 10
403.5457851709479
 20
241.589060020707
 30
0.0
 10
403.6702749169653
 20
241.4864240574141
 30
0.0
 10
403.7899754475246
 20
241.4760121166968
 30
0.0
 10
403.8607015902548
 20
241.4698601272125
 30
0.0
 11
404.2449855517979
 21
242.7884822769424
 31
0.0
 11
404.0655289148507
 21
242.7667477274909
 31
0.0
 11
404.0111481287225
 21
242.7504471784437
 31
0.0
 11
403.9458914417145
 21
242.717845596294
 31
0.0
 11
403.8915106555863
 21
242.690677772521
 31
0.0
 11
403.848006197581
 21
242.6635097067205
 31
0.0
 11
403.788187461013
 21
242.6309083665984
 31
0.0
 11
403.7609968543273
 21
242.6091740591744
 31
0.0
 11
403.7283682972018
 21
242.587439509723
 31
0.0
 11
403.6903017896364
 21
242.5439708948752
 31
0.0
 11
403.6467973316311
 21
242.4950687636783
 31
0.0
 11
403.6141687745056
 21
242.4679006978778
 31
0.0
 11
403.5815406446231
 21
242.4352993577556
 31
0.0
 11
403.5543500379374
 21
242.3918307429078
 31
0.0
 11
403.5217219080551
 21
242.3211940622595
 31
0.0
 11
403.4782170228067
 21
242.2614246563369
 31
0.0
 11
403.4673411219269
 21
242.2288230741873
 31
0.0
 11
403.4455888929242
 21
242.196221734065
 31
0.0
 11
403.4292746143615
 21
242.1527528771898
 31
0.0
 11
403.4238362366785
 21
242.1201515370676
 31
0.0
 11
403.4183982862386
 21
242.0929834712672
 31
0.0
 11
403.4075223853588
 21
242.0549486147959
 31
0.0
 11
403.4075223853588
 21
242.0114797579206
 31
0.0
 11
403.4075223853588
 21
241.9680111430728
 31
0.0
 11
403.4075223853588
 21
241.9299760445741
 31
0.0
 11
403.4129603357987
 21
241.8430388148784
 31
0.0
 11
403.4238362366785
 21
241.8104372327288
 31
0.0
 11
403.4455888929242
 21
241.745234310457
 31
0.0
 11
403.4727790723668
 21
241.6908984208835
 31
0.0
 11
403.5434741370577
 21
241.5985276748387
 31
0.0
 11
403.657673659754
 21
241.5115902031156
 31
0.0
 11
403.8607015902548
 21
241.4698601272125
 31
0.0
  0
HATCH
  5
733
330
18
100
AcDbEntity
  8
ROGO
 62
     4
100
AcDbHatch
 10
0.0
 20
0.0
 30
0.0
210
0.0
220
0.0
230
1.0
  2
SOLID
 70
     1
 71
     1
 91
        1
 92
        5
 93
        8
 72
     4
 94
        3
 73
     0
 74
     0
 95
       26
 96
       22
 40
0.0
 40
0.0
 40
0.0
 40
0.0
 40
0.680627241883428
 40
1.136254477903041
 40
1.464798819939375
 40
1.710112249467291
 40
2.028296642642898
 40
2.260540230712845
 40
2.679918019584077
 40
3.021285510494803
 40
3.253470102552373
 40
3.481138982867256
 40
3.888394348201009
 40
4.176372499429384
 40
4.331470983165915
 40
4.5517837977729
 40
4.710876624553423
 40
4.941349605730163
 40
5.071777377612483
 40
5.355602839329045
 40
5.485200010717817
 40
5.485200010717817
 40
5.485200010717817
 40
5.485200010717817
 10
406.4317936605768
 20
242.78300505777
 10
406.3509382698181
 20
242.7781810865049
 10
406.2159564557522
 20
242.7701278400083
 10
406.0677472450404
 20
242.6800923361498
 10
405.9591605006302
 20
242.6277496508074
 10
405.881716566206
 20
242.5565942293879
 10
405.8249498483384
 20
242.4830958768665
 10
405.7533847436409
 20
242.395523128741
 10
405.695025445735
 20
242.2935482072765
 10
405.6653066032018
 20
242.1811540662132
 10
405.6389819345481
 20
242.0915752836543
 10
405.6194591195752
 20
241.9917514207619
 10
405.6244262763881
 20
241.8839065326396
 10
405.6315394722725
 20
241.7837457216358
 10
405.6632981621965
 20
241.7122458987091
 10
405.6994656845866
 20
241.6613429517798
 10
405.7437523204415
 20
241.6052789990811
 10
405.7922115847589
 20
241.5681480247508
 10
405.8322913518694
 20
241.5008827696102
 10
405.9024496321319
 20
241.492299237934
 10
405.9470450262077
 20
241.4752154480571
 10
405.9610245146692
 20
241.4698601272125
 72
     1
 10
405.9610245146693
 20
241.4698601272125
 11
407.0920535296737
 21
241.4698601272125
 72
     1
 10
407.0920535296737
 20
241.4698601272125
 11
407.3356702503526
 21
241.9584300055532
 72
     1
 10
407.3356702503526
 20
241.9584300055532
 11
406.4959892294806
 21
241.9584300055532
 72
     4
 94
        3
 73
     0
 74
     0
 95
       16
 96
       12
 40
0.0
 40
0.0
 40
0.0
 40
0.0
 40
0.2055476186376692
 40
0.4132153116455541
 40
0.5370797571174224
 40
0.6558402674583835
 40
0.7862675211309879
 40
0.877348187443702
 40
0.9637758349634946
 40
1.139038695775252
 40
1.497869274526499
 40
1.497869274526499
 40
1.497869274526499
 40
1.497869274526499
 10
406.4959892294805
 20
241.9584300055531
 10
406.4706614908088
 20
241.9658817976417
 10
406.4197447762397
 20
241.9808622416411
 10
406.4154834583921
 20
242.0534819307783
 10
406.4212888874539
 20
242.1052294017375
 10
406.4456020373311
 20
242.1429045824536
 10
406.4750981051918
 20
242.1703182334893
 10
406.4860807994433
 20
242.2060202276715
 10
406.5183634285674
 20
242.2329796999879
 10
406.5756091799585
 20
242.2782948069638
 10
406.6389130711699
 20
242.2879459122492
 10
406.6814437787913
 20
242.2944300055532
 72
     1
 10
406.6814437787913
 20
242.2944300055532
 11
407.5032107021425
 21
242.2944300055532
 72
     1
 10
407.5032107021425
 20
242.2944300055532
 11
407.746830002683
 21
242.78300505777
 72
     1
 10
407.746830002683
 20
242.78300505777
 11
406.4317936605768
 21
242.78300505777
 97
        8
330
73C
330
73A
330
73D
330
739
330
738
330
73B
330
737
330
736
 75
     0
 76
     1
 47
0.0514683685270805
 98
        1
 10
406.6587110902616
 20
242.542563754591
450
        0
451
        0
460
0.0
461
0.0
452
        0
462
0.0
453
        0
470

  0
LINE
  5
734
102
{ACAD_REACTORS
330
6A1
102
}
330
18
100
AcDbEntity
  8
ROGO
 62
     4
100
AcDbLine
 10
408.0218571318052
 20
241.2666898349836
 30
0.0
 11
407.7548078426396
 21
240.7311262728641
 31
0.0
  0
LINE
  5
735
102
{ACAD_REACTORS
330
6F8
330
6A1
102
}
330
18
100
AcDbEntity
  8
ROGO
 62
     4
100
AcDbLine
 10
408.0218571318052
 20
242.78300505777
 30
0.0
 11
406.9987241001353
 21
240.7311262728641
 31
0.0
  0
LINE
  5
736
102
{ACAD_REACTORS
330
733
102
}
330
18
100
AcDbEntity
  8
ROGO
 62
     4
100
AcDbLine
 10
407.746830002683
 20
242.78300505777
 30
0.0
 11
407.5032107021424
 21
242.2944300055532
 31
0.0
  0
LINE
  5
737
102
{ACAD_REACTORS
330
733
102
}
330
18
100
AcDbEntity
  8
ROGO
 62
     4
100
AcDbLine
 10
406.6814437787912
 20
242.2944300055532
 30
0.0
 11
407.5032107021424
 21
242.2944300055532
 31
0.0
  0
LINE
  5
738
102
{ACAD_REACTORS
330
733
102
}
330
18
100
AcDbEntity
  8
ROGO
 62
     4
100
AcDbLine
 10
406.4959892294805
 20
241.9584300055532
 30
0.0
 11
407.3356702503526
 21
241.9584300055532
 31
0.0
  0
LINE
  5
739
102
{ACAD_REACTORS
330
733
102
}
330
18
100
AcDbEntity
  8
ROGO
 62
     4
100
AcDbLine
 10
407.3356702503526
 20
241.9584300055532
 30
0.0
 11
407.0920535296738
 21
241.4698601272125
 31
0.0
  0
SPLINE
  5
73A
102
{ACAD_REACTORS
330
733
102
}
330
18
100
AcDbEntity
  8
ROGO
 62
     4
100
AcDbSpline
210
0.0
220
0.0
230
1.0
 70
     8
 71
     3
 72
    26
 73
    22
 74
    20
 42
0.0000000001
 43
0.0000000001
 44
0.0000000001
 40
0.0
 40
0.0
 40
0.0
 40
0.0
 40
0.2382195346591896
 40
0.397689067266058
 40
0.5126795869787176
 40
0.5985392873135238
 40
0.7099038249250041
 40
0.7911890807494602
 40
0.9379713068544059
 40
1.057449928673177
 40
1.138714535893296
 40
1.218398644003487
 40
1.36093802187034
 40
1.461730374800238
 40
1.51601484410804
 40
1.593124329220486
 40
1.648806818593696
 40
1.729472362005543
 40
1.775122082164332
 40
1.874460993765135
 40
1.919820003751196
 40
1.919820003751196
 40
1.919820003751196
 40
1.919820003751196
 10
406.4317936605768
 20
242.78300505777
 30
0.0
 10
406.3509382698181
 20
242.7781810865049
 30
0.0
 10
406.2159564557522
 20
242.7701278400082
 30
0.0
 10
406.0677472450404
 20
242.6800923361499
 30
0.0
 10
405.9591605006301
 20
242.6277496508074
 30
0.0
 10
405.881716566206
 20
242.5565942293878
 30
0.0
 10
405.8249498483385
 20
242.4830958768665
 30
0.0
 10
405.7533847436408
 20
242.395523128741
 30
0.0
 10
405.695025445735
 20
242.2935482072765
 30
0.0
 10
405.6653066032017
 20
242.1811540662131
 30
0.0
 10
405.6389819345482
 20
242.0915752836544
 30
0.0
 10
405.6194591195749
 20
241.9917514207618
 30
0.0
 10
405.6244262763882
 20
241.8839065326397
 30
0.0
 10
405.6315394722727
 20
241.7837457216358
 30
0.0
 10
405.6632981621964
 20
241.7122458987091
 30
0.0
 10
405.6994656845867
 20
241.6613429517798
 30
0.0
 10
405.7437523204414
 20
241.605278999081
 30
0.0
 10
405.7922115847588
 20
241.5681480247508
 30
0.0
 10
405.8322913518696
 20
241.5008827696102
 30
0.0
 10
405.9024496321321
 20
241.4922992379341
 30
0.0
 10
405.9470450262077
 20
241.4752154480571
 30
0.0
 10
405.9610245146692
 20
241.4698601272125
 30
0.0
 11
406.4317936605768
 21
242.78300505777
 31
0.0
 11
406.1964090876229
 21
242.7463628756763
 31
0.0
 11
406.0537515842479
 21
242.6750931867429
 31
0.0
 11
405.9538915369621
 21
242.6180774820655
 31
0.0
 11
405.8896959680583
 21
242.5610615450416
 31
0.0
 11
405.8183674214475
 21
242.4755378718522
 31
0.0
 11
405.7684373978046
 21
242.4113951750469
 31
0.0
 11
405.6971084410404
 21
242.2831095490896
 31
0.0
 11
405.6614443728117
 21
242.1690779073883
 31
0.0
 11
405.6400458498438
 21
242.090681226327
 31
0.0
 11
405.6257798944296
 21
242.0122845452656
 31
0.0
 11
405.6257798944296
 21
241.8697451673988
 31
0.0
 11
405.6400458498438
 21
241.7699675099535
 31
0.0
 11
405.6614443728117
 21
241.7200785650576
 31
0.0
 11
405.7042414187474
 21
241.6559358682522
 31
0.0
 11
405.7399058971297
 21
241.6131739154843
 31
0.0
 11
405.7969684883262
 21
241.5561582108069
 31
0.0
 11
405.8254999890013
 21
241.520523250167
 31
0.0
 11
405.9182274687334
 21
241.4848885218735
 31
0.0
 11
405.9610245146692
 21
241.4698601272125
 31
0.0
  0
SPLINE
  5
73B
102
{ACAD_REACTORS
330
733
102
}
330
18
100
AcDbEntity
  8
ROGO
 62
     4
100
AcDbSpline
210
0.0
220
0.0
230
1.0
 70
     8
 71
     3
 72
    16
 73
    12
 74
    10
 42
0.0000000001
 43
0.0000000001
 44
0.0000000001
 40
0.0
 40
0.0
 40
0.0
 40
0.0
 40
0.1255907025629163
 40
0.1869327038470616
 40
0.217182380479003
 40
0.2490606136884339
 40
0.2947101524738157
 40
0.3362763310931585
 40
0.3796288870082937
 40
0.4523125795610796
 40
0.5242542460842448
 40
0.5242542460842448
 40
0.5242542460842448
 40
0.5242542460842448
 10
406.6814437787913
 20
242.2944300055532
 30
0.0
 10
406.6389130711699
 20
242.2879459122492
 30
0.0
 10
406.5756091799584
 20
242.2782948069636
 30
0.0
 10
406.5183634285675
 20
242.232979699988
 30
0.0
 10
406.4860807994433
 20
242.2060202276715
 30
0.0
 10
406.4750981051918
 20
242.1703182334892
 30
0.0
 10
406.4456020373312
 20
242.1429045824535
 30
0.0
 10
406.4212888874538
 20
242.1052294017375
 30
0.0
 10
406.4154834583922
 20
242.0534819307783
 30
0.0
 10
406.4197447762396
 20
241.9808622416411
 30
0.0
 10
406.4706614908088
 20
241.9658817976417
 30
0.0
 10
406.4959892294805
 20
241.9584300055531
 30
0.0
 11
406.6814437787913
 21
242.2944300055532
 31
0.0
 11
406.5601852085376
 21
242.2617285727057
 31
0.0
 11
406.5102551848946
 21
242.2260938444122
 31
0.0
 11
406.4888566619268
 21
242.2047128680282
 31
0.0
 11
406.4745907065125
 21
242.1762048995163
 31
0.0
 11
406.4460592058376
 21
242.1405701712228
 31
0.0
 11
406.4246606828696
 21
242.1049352105829
 31
0.0
 11
406.4175277051625
 21
242.0621734901615
 31
0.0
 11
406.4317936605768
 21
241.9909035688817
 31
0.0
 11
406.4959892294805
 21
241.9584300055531
 31
0.0
  0
LINE
  5
73C
102
{ACAD_REACTORS
330
733
102
}
330
18
100
AcDbEntity
  8
ROGO
 62
     4
100
AcDbLine
 10
406.4317936605771
 20
242.78300505777
 30
0.0
 11
407.746830002683
 21
242.78300505777
 31
0.0
  0
LINE
  5
73D
102
{ACAD_REACTORS
330
733
102
}
330
18
100
AcDbEntity
  8
ROGO
 62
     4
100
AcDbLine
 10
405.9610245146691
 20
241.4698601272125
 30
0.0
 11
407.0920535296738
 21
241.4698601272125
 31
0.0
  0
LINE
  5
73E
102
{ACAD_REACTORS
330
70D
102
}
330
18
100
AcDbEntity
  8
ROGO
 62
     4
100
AcDbLine
 10
402.2007238896493
 20
242.7830050577701
 30
0.0
 11
403.5157602317552
 21
242.7830050577701
 31
0.0
  0
LINE
  5
73F
102
{ACAD_REACTORS
330
70D
102
}
330
18
100
AcDbEntity
  8
ROGO
 62
     4
100
AcDbLine
 10
403.1046004794247
 20
241.9584300055532
 30
0.0
 11
402.860983758746
 21
241.4698601272125
 31
0.0
  0
SPLINE
  5
740
102
{ACAD_REACTORS
330
70D
102
}
330
18
100
AcDbEntity
  8
ROGO
 62
     4
100
AcDbSpline
210
0.0
220
0.0
230
1.0
 70
     8
 71
     3
 72
    16
 73
    12
 74
    10
 42
0.0000000001
 43
0.0000000001
 44
0.0000000001
 40
0.0
 40
0.0
 40
0.0
 40
0.0
 40
0.1255907025629711
 40
0.1869327038470372
 40
0.2171823804790188
 40
0.2490606136884497
 40
0.2947101524738226
 40
0.3362763310931653
 40
0.3796288870083566
 40
0.452312579561098
 40
0.5242542460842631
 40
0.5242542460842631
 40
0.5242542460842631
 40
0.5242542460842631
 10
402.4503740078634
 20
242.2944300055532
 30
0.0
 10
402.4078433002421
 20
242.2879459122492
 30
0.0
 10
402.3445394090308
 20
242.2782948069637
 30
0.0
 10
402.2872936576394
 20
242.2329796999879
 30
0.0
 10
402.2550110285156
 20
242.2060202276715
 30
0.0
 10
402.2440283342636
 20
242.1703182334892
 30
0.0
 10
402.2145322664035
 20
242.1429045824537
 30
0.0
 10
402.190219116526
 20
242.1052294017375
 30
0.0
 10
402.1844136874643
 20
242.0534819307785
 30
0.0
 10
402.1886750053118
 20
241.9808622416411
 30
0.0
 10
402.2395917198809
 20
241.9658817976417
 30
0.0
 10
402.2649194585526
 20
241.9584300055532
 30
0.0
 11
402.4503740078634
 21
242.2944300055532
 31
0.0
 11
402.3291154376097
 21
242.2617285727057
 31
0.0
 11
402.2791854139668
 21
242.2260938444122
 31
0.0
 11
402.257786890999
 21
242.2047128680282
 31
0.0
 11
402.2435209355847
 21
242.1762048995163
 31
0.0
 11
402.2149894349097
 21
242.1405701712229
 31
0.0
 11
402.1935909119418
 21
242.104935210583
 31
0.0
 11
402.1864579342347
 21
242.0621734901615
 31
0.0
 11
402.2007238896489
 21
241.9909035688817
 31
0.0
 11
402.2649194585526
 21
241.9584300055532
 31
0.0
  0
LINE
  5
741
102
{ACAD_REACTORS
330
70D
102
}
330
18
100
AcDbEntity
  8
ROGO
 62
     4
100
AcDbLine
 10
402.2649194585526
 20
241.9584300055532
 30
0.0
 11
403.1046004794247
 21
241.9584300055532
 31
0.0
  0
LINE
  5
742
102
{ACAD_REACTORS
330
70D
102
}
330
18
100
AcDbEntity
  8
ROGO
 62
     4
100
AcDbLine
 10
402.4503740078634
 20
242.2944300055532
 30
0.0
 11
403.2721409312146
 21
242.2944300055532
 31
0.0
  0
LINE
  5
743
102
{ACAD_REACTORS
330
70D
102
}
330
18
100
AcDbEntity
  8
ROGO
 62
     4
100
AcDbLine
 10
403.5157602317552
 20
242.78300505777
 30
0.0
 11
403.2721409312146
 21
242.2944300055532
 31
0.0
  0
TEXT
  5
744
330
18
100
AcDbEntity
  8
文字
100
AcDbText
 10
400.5664933271516
 20
250.3394437615586
 30
0.0
 40
2.0
  1
0
  7
STYLE3
100
AcDbText
  0
LINE
  5
745
330
18
100
AcDbEntity
  8
目盛
100
AcDbLine
 10
401.5482572305502
 20
256.4180384166635
 30
0.0
 11
401.5482572305502
 21
253.4180384166635
 31
0.0
  0
LINE
  5
746
330
18
100
AcDbEntity
  8
目盛
100
AcDbLine
 10
395.8283898257586
 20
255.6954511226221
 30
0.0
 11
396.3257696000884
 21
253.7582848003648
 31
0.0
  0
LINE
  5
747
330
18
100
AcDbEntity
  8
目盛
100
AcDbLine
 10
397.2384869950786
 20
256.0106451834234
 30
0.0
 11
397.6132496242501
 21
254.046070681966
 31
0.0
  0
LINE
  5
748
330
18
100
AcDbEntity
  8
目盛
100
AcDbLine
 10
398.6655928585713
 20
256.2366765468965
 30
0.0
 11
398.9162593256999
 21
254.2524471442675
 31
0.0
  0
LINE
  5
749
330
18
100
AcDbEntity
  8
目盛
100
AcDbLine
 10
400.1040752813761
 20
256.3726531705138
 30
0.0
 11
400.2296563204346
 21
254.3765997136572
 31
0.0
  0
LINE
  5
74A
330
18
100
AcDbEntity
  8
目盛
100
AcDbLine
 10
402.9924391797247
 20
256.3726531705138
 30
0.0
 11
402.866858140666
 21
254.3765997136572
 31
0.0
  0
LINE
  5
74B
330
18
100
AcDbEntity
  8
目盛
100
AcDbLine
 10
404.4309216025295
 20
256.2366765468965
 30
0.0
 11
404.1802551354008
 21
254.2524471442675
 31
0.0
  0
LINE
  5
74C
330
18
100
AcDbEntity
  8
目盛
100
AcDbLine
 10
405.858027466022
 20
256.0106451834233
 30
0.0
 11
405.4832648368506
 21
254.046070681966
 31
0.0
  0
LINE
  5
74D
330
18
100
AcDbEntity
  8
目盛
100
AcDbLine
 10
407.268124635342
 20
255.695451122622
 30
0.0
 11
406.7707448610123
 21
253.7582848003647
 31
0.0
  0
LINE
  5
74E
330
18
100
AcDbEntity
  8
外形線
  6
Continuous
100
AcDbLine
 10
397.8482572305503
 20
273.9180384166634
 30
0.0
 11
397.8482572305503
 21
267.4180384166634
 31
0.0
  0
LINE
  5
74F
330
18
100
AcDbEntity
  8
外形線
  6
Continuous
100
AcDbLine
 10
405.2482572305502
 20
273.9180384166634
 30
0.0
 11
405.2482572305502
 21
267.4180384166634
 31
0.0
  0
LINE
  5
750
330
18
100
AcDbEntity
  8
外形線
  6
Continuous
100
AcDbLine
 10
397.5482572305502
 20
261.4180384166634
 30
0.0
 11
405.5482572305502
 21
261.4180384166634
 31
0.0
  0
LINE
  5
751
330
18
100
AcDbEntity
  8
外形線
  6
Continuous
100
AcDbLine
 10
397.5482572305503
 20
267.4180384166634
 30
0.0
 11
405.5482572305502
 21
267.4180384166634
 31
0.0
  0
HATCH
  5
752
330
18
100
AcDbEntity
  8
寸法線
100
AcDbHatch
 10
0.0
 20
0.0
 30
0.0
210
0.0
220
0.0
230
1.0
  2
ANSI37
 70
     0
 71
     0
 91
        1
 92
        7
 72
     0
 73
     1
 93
        4
 10
401.5482572305503
 20
267.4180384166634
 10
397.5482572305503
 20
267.4180384166634
 10
397.5482572305503
 20
261.4180384166634
 10
401.5482572305503
 20
261.4180384166634
 97
        0
 75
     0
 76
     1
 52
0.0
 41
10.0
 77
     0
 78
     2
 53
45.0
 43
209.0752530940922
 44
112.2991001828641
 45
-0.8838834764831842
 46
0.8838834764831844
 79
     0
 53
135.0
 43
209.0752530940922
 44
112.2991001828641
 45
-0.8838834764831844
 46
-0.8838834764831842
 79
     0
 47
0.1856754751158765
 98
        1
 10
399.8014094475942
 20
265.1940844608499
  0
LINE
  5
753
330
18
100
AcDbEntity
  8
外形線
  6
Continuous
100
AcDbLine
 10
397.5482572305503
 20
267.4180384166634
 30
0.0
 11
397.5482572305503
 21
261.4180384166634
 31
0.0
  0
LINE
  5
754
330
18
100
AcDbEntity
  8
外形線
  6
Continuous
100
AcDbLine
 10
405.5482572305502
 20
267.4180384166634
 30
0.0
 11
405.5482572305502
 21
261.4180384166634
 31
0.0
  0
ARC
  5
755
330
18
100
AcDbEntity
  8
外形線
  6
Continuous
100
AcDbCircle
 10
401.5482572305502
 20
267.5730384166636
 30
0.0
 40
7.344999999999885
100
AcDbArc
 50
59.75198538337817
 51
120.2480146166212
  0
LINE
  5
756
330
18
100
AcDbEntity
  8
外形線
  6
Continuous
100
AcDbLine
 10
397.8482572305503
 20
273.9180384166634
 30
0.0
 11
405.2482572305502
 21
273.9180384166634
 31
0.0
  0
POINT
  5
757
330
18
100
AcDbEntity
  8
DEFPOINTS
  6
ByBlock
 62
     0
100
AcDbPoint
 10
401.5482572305502
 20
274.9180384166635
 30
0.0
  0
LINE
  5
758
330
18
100
AcDbEntity
  8
目盛
100
AcDbLine
 10
417.29284066691
 20
216.6517599859711
 30
0.0
 11
415.9237464550527
 21
218.1096972408139
 31
0.0
  0
LINE
  5
759
330
18
100
AcDbEntity
  8
目盛
100
AcDbLine
 10
416.2090089947701
 20
215.6962338328205
 30
0.0
 11
414.9341610152728
 21
217.237260318372
 31
0.0
  0
LINE
  5
75A
330
18
100
AcDbEntity
  8
目盛
100
AcDbLine
 10
415.0673180332772
 20
214.8106475460398
 30
0.0
 11
413.3039622763996
 21
217.2376985291645
 31
0.0
  0
LINE
  5
75B
330
18
100
AcDbEntity
  8
目盛
100
AcDbLine
 10
413.8722735150672
 20
213.9984961301172
 30
0.0
 11
412.8006199251093
 21
215.6871519811212
 31
0.0
  0
LINE
  5
75C
330
18
100
AcDbEntity
  8
目盛
100
AcDbLine
 10
412.6285917348896
 20
213.2629847756547
 30
0.0
 11
411.6650843866862
 21
215.0155981357425
 31
0.0
  0
LINE
  5
75D
330
18
100
AcDbEntity
  8
目盛
100
AcDbLine
 10
411.3411809365469
 20
212.6070162099451
 30
0.0
 11
410.4896223534168
 21
214.4166703148772
 31
0.0
  0
LINE
  5
75E
330
18
100
AcDbEntity
  8
目盛
100
AcDbLine
 10
410.0151219422978
 20
212.0331792412338
 30
0.0
 11
409.2788728369285
 21
213.8927322130103
 31
0.0
  0
TEXT
  5
75F
330
18
100
AcDbEntity
  8
文字
100
AcDbText
 10
417.639785082467
 20
238.0864486474437
 30
0.0
 40
2.0
  1
2
  7
STYLE3
100
AcDbText
  0
LINE
  5
760
330
18
100
AcDbEntity
  8
目盛
100
AcDbLine
 10
421.7033108715591
 20
222.3377039123242
 30
0.0
 11
419.9506975114714
 21
223.3012112605276
 31
0.0
  0
LINE
  5
761
330
18
100
AcDbEntity
  8
目盛
100
AcDbLine
 10
420.9677995170967
 20
221.0940221321467
 30
0.0
 11
419.2791436660925
 21
222.1656757221047
 31
0.0
  0
TEXT
  5
762
330
18
100
AcDbEntity
  8
文字
100
AcDbText
 10
417.7754587093327
 20
226.5907467406778
 30
0.0
 40
2.0
  1
3
  7
STYLE3
100
AcDbText
  0
TEXT
  5
763
330
18
100
AcDbEntity
  8
文字
100
AcDbText
 10
410.8352079617091
 20
217.4925240031321
 30
0.0
 40
2.0
  1
4
  7
STYLE3
100
AcDbText
  0
LINE
  5
764
330
18
100
AcDbEntity
  8
目盛
100
AcDbLine
 10
420.1556481011739
 20
219.8989776139367
 30
0.0
 11
417.7285971180493
 21
221.6623333708142
 31
0.0
  0
LINE
  5
765
330
18
100
AcDbEntity
  8
目盛
100
AcDbLine
 10
419.2700618143933
 20
218.7572866524437
 30
0.0
 11
417.7290353288418
 21
220.0321346319411
 31
0.0
  0
LINE
  5
766
330
18
100
AcDbEntity
  8
目盛
100
AcDbLine
 10
418.3145356612427
 20
217.6734549803037
 30
0.0
 11
416.8565984063999
 21
219.0425491921611
 31
0.0
  0
LINE
  5
767
330
18
100
AcDbEntity
  8
目盛
100
AcDbLine
 10
423.8256699365087
 20
227.6981710118719
 30
0.0
 11
421.8885036142514
 21
228.1955507862016
 31
0.0
  0
LINE
  5
768
330
18
100
AcDbEntity
  8
目盛
100
AcDbLine
 10
423.4225571053387
 20
226.3106475460398
 30
0.0
 11
420.5693875564533
 21
227.2376985291646
 31
0.0
  0
LINE
  5
769
330
18
100
AcDbEntity
  8
目盛
100
AcDbLine
 10
422.9331164059799
 20
224.9511737049159
 30
0.0
 11
421.0735634342034
 21
225.6874228102853
 31
0.0
  0
LINE
  5
76A
330
18
100
AcDbEntity
  8
目盛
100
AcDbLine
 10
422.3592794372687
 20
223.6251147106669
 30
0.0
 11
420.5496253323365
 21
224.4766732937971
 31
0.0
  0
LINE
  5
76B
330
18
100
AcDbEntity
  8
目盛
100
AcDbLine
 10
421.5482572305503
 20
233.4180384166635
 30
0.0
 11
424.5482572305503
 21
233.4180384166635
 31
0.0
  0
LINE
  5
76C
330
18
100
AcDbEntity
  8
目盛
100
AcDbLine
 10
424.1408639973101
 20
237.7278086521351
 30
0.0
 11
422.1762894958526
 21
237.3530460229637
 31
0.0
  0
LINE
  5
76D
330
18
100
AcDbEntity
  8
目盛
100
AcDbLine
 10
424.3668953607833
 20
236.3007027886426
 30
0.0
 11
422.3826659581542
 21
236.050036321514
 31
0.0
  0
LINE
  5
76E
330
18
100
AcDbEntity
  8
目盛
100
AcDbLine
 10
424.5028719844004
 20
234.8622203658377
 30
0.0
 11
422.5068185275438
 21
234.7366393267791
 31
0.0
  0
LINE
  5
76F
330
18
100
AcDbEntity
  8
目盛
100
AcDbLine
 10
424.5028719844004
 20
231.9738564674893
 30
0.0
 11
422.5068185275438
 21
232.0994375065479
 31
0.0
  0
LINE
  5
770
330
18
100
AcDbEntity
  8
目盛
100
AcDbLine
 10
424.3668953607833
 20
230.5353740446846
 30
0.0
 11
422.3826659581543
 21
230.7860405118132
 31
0.0
  0
LINE
  5
771
330
18
100
AcDbEntity
  8
目盛
100
AcDbLine
 10
424.1408639973101
 20
229.1082681811919
 30
0.0
 11
422.1762894958526
 21
229.4830308103633
 31
0.0
  0
LINE
  5
772
330
18
100
AcDbEntity
  8
目盛
100
AcDbLine
 10
420.9677995170967
 20
245.7420547011804
 30
0.0
 11
419.2791436660925
 21
244.6704011112224
 31
0.0
  0
LINE
  5
773
330
18
100
AcDbEntity
  8
目盛
100
AcDbLine
 10
421.7033108715591
 20
244.4983729210029
 30
0.0
 11
419.9506975114714
 21
243.5348655727995
 31
0.0
  0
LINE
  5
774
330
18
100
AcDbEntity
  8
目盛
100
AcDbLine
 10
417.29284066691
 20
250.184316847356
 30
0.0
 11
415.9237464550527
 21
248.7263795925131
 31
0.0
  0
LINE
  5
775
102
{ACAD_REACTORS
330
6A1
102
}
330
18
100
AcDbEntity
  8
ROGO
 62
     4
100
AcDbLine
 10
408.2889064209709
 20
240.7311262728641
 30
0.0
 11
409.0449736209708
 21
240.7311262728641
 31
0.0
  0
LINE
  5
776
102
{ACAD_REACTORS
330
6A1
102
}
330
18
100
AcDbEntity
  8
ROGO
 62
     4
100
AcDbLine
 10
409.0202486504672
 20
242.78300505777
 30
0.0
 11
409.7763158504672
 21
242.78300505777
 31
0.0
  0
LINE
  5
777
102
{ACAD_REACTORS
330
6A1
102
}
330
18
100
AcDbEntity
  8
ROGO
 62
     4
100
AcDbLine
 10
408.5334071051359
 20
241.757065665317
 30
0.0
 11
409.7763158504672
 21
242.78300505777
 31
0.0
  0
LINE
  5
778
102
{ACAD_REACTORS
330
6A1
102
}
330
18
100
AcDbEntity
  8
ROGO
 62
     4
100
AcDbLine
 10
408.5334071051359
 20
241.757065665317
 30
0.0
 11
409.0449736209708
 21
240.7311262728641
 31
0.0
  0
LINE
  5
779
102
{ACAD_REACTORS
330
6A1
102
}
330
18
100
AcDbEntity
  8
ROGO
 62
     4
100
AcDbLine
 10
408.6662355673884
 20
242.5589816489484
 30
0.0
 11
409.0202486504672
 21
242.78300505777
 31
0.0
  0
LINE
  5
77A
102
{ACAD_REACTORS
330
6A1
102
}
330
18
100
AcDbEntity
  8
ROGO
 62
     4
100
AcDbLine
 10
408.7779408743093
 20
242.78300505777
 30
0.0
 11
408.6662355673884
 21
242.5589816489484
 31
0.0
  0
TEXT
  5
77B
330
18
100
AcDbEntity
  8
文字
100
AcDbText
 10
410.987454536294
 20
247.1785777649746
 30
0.0
 40
2.0
  1
1
  7
STYLE3
100
AcDbText
  0
LINE
  5
77C
330
18
100
AcDbEntity
  8
目盛
100
AcDbLine
 10
418.3145356612427
 20
249.1626218530233
 30
0.0
 11
416.8565984063999
 21
247.793527641166
 31
0.0
  0
LINE
  5
77D
330
18
100
AcDbEntity
  8
目盛
100
AcDbLine
 10
419.2700618143933
 20
248.0787901808834
 30
0.0
 11
417.7290353288418
 21
246.8039422013859
 31
0.0
  0
LINE
  5
77E
330
18
100
AcDbEntity
  8
目盛
100
AcDbLine
 10
420.1556481011739
 20
246.9370992193903
 30
0.0
 11
417.7285971180491
 21
245.173743462513
 31
0.0
  0
LINE
  5
77F
330
18
100
AcDbEntity
  8
目盛
100
AcDbLine
 10
415.0673180332772
 20
252.0254292872873
 30
0.0
 11
413.3039622763997
 21
249.5983783041625
 31
0.0
  0
LINE
  5
780
330
18
100
AcDbEntity
  8
目盛
100
AcDbLine
 10
410.0151219422979
 20
254.8028975920932
 30
0.0
 11
409.2788728369285
 21
252.9433446203167
 31
0.0
  0
LINE
  5
781
330
18
100
AcDbEntity
  8
目盛
100
AcDbLine
 10
411.3411809365471
 20
254.2290606233819
 30
0.0
 11
410.4896223534169
 21
252.4194065184499
 31
0.0
  0
LINE
  5
782
330
18
100
AcDbEntity
  8
目盛
100
AcDbLine
 10
412.6285917348899
 20
253.5730920576723
 30
0.0
 11
411.6650843866863
 21
251.8204786975846
 31
0.0
  0
LINE
  5
783
330
18
100
AcDbEntity
  8
目盛
100
AcDbLine
 10
413.8722735150673
 20
252.8375807032098
 30
0.0
 11
412.8006199251093
 21
251.1489248522058
 31
0.0
  0
LINE
  5
784
330
18
100
AcDbEntity
  8
目盛
100
AcDbLine
 10
416.2090089947701
 20
251.1398430005066
 30
0.0
 11
414.9341610152728
 21
249.5988165149551
 31
0.0
  0
LINE
  5
785
330
18
100
AcDbEntity
  8
目盛
100
AcDbLine
 10
422.3592794372687
 20
243.2109621226602
 30
0.0
 11
420.5496253323366
 21
242.35940353953
 31
0.0
  0
LINE
  5
786
330
18
100
AcDbEntity
  8
目盛
100
AcDbLine
 10
422.9331164059799
 20
241.8849031284111
 30
0.0
 11
421.0735634342034
 21
241.1486540230417
 31
0.0
  0
LINE
  5
787
330
18
100
AcDbEntity
  8
目盛
100
AcDbLine
 10
423.4225571053387
 20
240.5254292872873
 30
0.0
 11
420.5693875564533
 21
239.5983783041625
 31
0.0
  0
LINE
  5
788
330
18
100
AcDbEntity
  8
目盛
100
AcDbLine
 10
423.8256699365088
 20
239.1379058214551
 30
0.0
 11
421.8885036142514
 21
238.6405260471254
 31
0.0
  0
CIRCLE
  5
789
330
18
100
AcDbEntity
  8
外形線
100
AcDbCircle
 10
401.5482572305502
 20
233.4180384166635
 30
0.0
 40
26.4
  0
ARC
  5
78A
330
18
100
AcDbEntity
  8
隠れ線2
100
AcDbCircle
 10
372.5482572305502
 20
297.1280384166635
 30
0.0
 40
45.0
100
AcDbArc
 50
285.8054832189966
 51
293.1974114188815
  0
ARC
  5
78C
330
18
100
AcDbEntity
  8
隠れ線2
100
AcDbCircle
 10
430.2782572305502
 20
204.1680384166635
 30
0.0
 40
16.0
100
AcDbArc
 50
140.2650291139888
 51
153.5525565186013
  0
ARC
  5
797
330
18
100
AcDbEntity
  8
寸法線
100
AcDbCircle
 10
368.5482572305502
 20
176.4180384166635
 30
0.0
 40
33.0
100
AcDbArc
 50
304.4695429513601
 51
17.04301677733418
  0
LINE
  5
79C
330
18
100
AcDbEntity
  8
中心線
 48
0.5
100
AcDbLine
 10
39.03221865468191
 20
239.3476604591481
 30
0.0
 11
39.03221865468191
 21
142.9102217670795
 31
0.0
  0
LINE
  5
79D
330
18
100
AcDbEntity
  8
想像線
 48
0.7
100
AcDbLine
 10
339.0322186546819
 20
255.8670188303401
 30
0.0
 11
339.0322186546819
 21
98.50553426684109
 31
0.0
  0
DIMENSION
  5
7AA
330
18
100
AcDbEntity
  8
寸法線
100
AcDbDimension
  2
*D5
 10
339.0322186546819
 20
279.579927077798
 30
0.0
 11
189.0322186546819
 21
281.454927077798
 31
0.0
 70
    32
 71
     5
 42
-1.0
  3
STYLE3
100
AcDbAlignedDimension
 13
39.03221865468191
 23
239.3476604591481
 33
0.0
 14
339.0322186546819
 24
255.8670188303401
 34
0.0
100
AcDbRotatedDimension
1001
ACAD
1000
DSTYLE
1002
{
1070
   271
1070
     2
1002
}
  0
DIMENSION
  5
7B7
330
18
100
AcDbEntity
  8
寸法線
100
AcDbDimension
  2
*D6
 10
423.5482572305502
 20
85.211359518064
 30
0.0
 11
396.0482572305502
 21
87.086359518064
 31
0.0
 70
    32
 71
     5
 42
-1.0
  3
STYLE3
100
AcDbAlignedDimension
 13
368.5482572305502
 23
125.6134145030043
 33
0.0
 14
423.5482572305502
 24
162.7180384166635
 34
0.0
100
AcDbRotatedDimension
1001
ACAD
1000
DSTYLE
1002
{
1070
   271
1070
     2
1002
}
  0
DIMENSION
  5
7C3
330
18
100
AcDbEntity
  8
寸法線
100
AcDbDimension
  2
*D7
 10
523.5482572305502
 20
85.211359518064
 30
0.0
 11
473.5482572305502
 21
87.086359518064
 31
0.0
 70
    32
 71
     5
 42
-1.0
  3
STYLE3
100
AcDbAlignedDimension
 13
423.5482572305502
 23
162.7180384166635
 33
0.0
 14
523.5482572305502
 24
162.7180384166635
 34
0.0
100
AcDbRotatedDimension
1001
ACAD
1000
DSTYLE
1002
{
1070
    75
1070
     1
1070
   271
1070
     2
1070
   279
1070
     1
1002
}
  0
ARC
  5
7CF
330
18
100
AcDbEntity
  8
寸法線
100
AcDbCircle
 10
368.5482572305502
 20
176.4180384166635
 30
0.0
 40
330.0
100
AcDbArc
 50
170.086629793363
 51
201.2218871670163
  0
DIMENSION
  5
7F4
330
18
100
AcDbEntity
  8
寸法線
100
AcDbDimension
  2
*D8
 10
523.5482572305502
 20
78.70296097110281
 30
0.0
 11
281.290237942616
 21
80.57796097110282
 31
0.0
 70
    32
  1
485
 71
     5
 42
-1.0
  3
STYLE3
100
AcDbAlignedDimension
 13
39.03221865468191
 23
142.9102217670795
 33
0.0
 14
523.5482572305502
 24
83.961359518064
 34
0.0
100
AcDbRotatedDimension
1001
ACAD
1000
DSTYLE
1002
{
1070
   271
1070
     2
1002
}
  0
LINE
  5
7FF
330
18
100
AcDbEntity
  8
0
  6
ByBlock
 62
     2
100
AcDbLine
 10
368.5482572305503
 20
176.4180384166635
 30
0.0
 11
390.014839105494
 21
151.3544021560101
 31
0.0
  0
MTEXT
  5
800
330
18
100
AcDbEntity
  8
0
  6
ByBlock
 62
     6
100
AcDbMText
 10
380.5964680860398
 20
165.2333525699665
 30
0.0
 40
2.5
 41
0.0
 71
     5
 72
     1
  1
\A1;R33
  7
STYLE3
 11
0.6505024810589021
 21
-0.7595041291107066
 31
0.0
 73
     1
 44
1.0
  0
INSERT
  5
801
330
18
100
AcDbEntity
  8
0
  6
ByBlock
 62
     2
100
AcDbBlockReference
  2
_OPEN
 10
390.014839105494
 20
151.3544021560101
 30
0.0
 41
2.5
 42
2.5
 43
2.5
 50
310.5794975119306
  0
POINT
  5
802
330
18
100
AcDbEntity
  8
DEFPOINTS
  6
ByBlock
 62
     0
100
AcDbPoint
 10
390.014839105494
 20
151.3544021560101
 30
0.0
  0
POINT
  5
803
330
18
100
AcDbEntity
  8
DEFPOINTS
  6
ByBlock
 62
     0
100
AcDbPoint
 10
368.5482572305502
 20
176.4180384166635
 30
0.0
  0
LINE
  5
81B
330
18
100
AcDbEntity
  8
想像線
 48
0.5
100
AcDbLine
 10
142.2006307204737
 20
254.4714448299905
 30
0.0
 11
142.2006307204737
 21
235.5164768898522
 31
0.0
  0
LINE
  5
81C
330
18
100
AcDbEntity
  8
想像線
 48
0.5
100
AcDbLine
 10
146.2006307204737
 20
254.4998056030757
 30
0.0
 11
146.2006307204737
 21
235.3655543518998
 31
0.0
  0
LINE
  5
81D
330
18
100
AcDbEntity
  8
想像線
 48
0.3
100
AcDbLine
 10
146.2006307204737
 20
143.1150533728792
 30
0.0
 11
146.2006307204737
 21
126.6246397053157
 31
0.0
  0
LINE
  5
81E
330
18
100
AcDbEntity
  8
想像線
 48
0.3
100
AcDbLine
 10
142.2006307204737
 20
143.2981825545606
 30
0.0
 11
142.2006307204737
 21
127.0083291796169
 31
0.0
  0
DIMENSION
  5
835
330
18
100
AcDbEntity
  8
外形線
100
AcDbDimension
  2
*D9
 10
146.2006307204737
 20
269.1109579139345
 30
0.0
 11
144.2006307204738
 21
270.9859579139345
 31
0.0
 70
    32
  1
3
 71
     5
 42
4.0
  3
STYLE3
100
AcDbAlignedDimension
 13
142.2006307204737
 23
254.4714448299905
 33
0.0
 14
146.2006307204737
 24
254.4998056030757
 34
0.0
100
AcDbRotatedDimension
1001
ACAD
1000
DSTYLE
1002
{
1070
   271
1070
     2
1002
}
  0
LINE
  5
851
330
18
100
AcDbEntity
  8
隠れ線2
100
AcDbLine
 10
423.8225501141952
 20
188.1680384166635
 30
0.0
 11
512.0482572305502
 21
188.1680384166635
 31
0.0
  0
LINE
  5
852
330
18
100
AcDbEntity
  8
隠れ線2
100
AcDbLine
 10
423.5482572305502
 20
164.6680384166635
 30
0.0
 11
512.0482572305503
 21
164.6680384166635
 31
0.0
  0
LINE
  5
853
330
18
100
AcDbEntity
  8
隠れ線2
100
AcDbLine
 10
513.5482572305502
 20
186.6680384166635
 30
0.0
 11
513.5482572305503
 21
166.1680384166635
 31
0.0
  0
ARC
  5
854
330
18
100
AcDbEntity
  8
隠れ線2
100
AcDbCircle
 10
512.0482572305502
 20
186.6680384166635
 30
0.0
 40
1.5
100
AcDbArc
 50
0.0
 51
90.0
  0
ARC
  5
855
330
18
100
AcDbEntity
  8
隠れ線2
100
AcDbCircle
 10
512.0482572305503
 20
166.1680384166635
 30
0.0
 40
1.5
100
AcDbArc
 50
270.0
 51
0.0
  0
ARC
  5
856
330
18
100
AcDbEntity
  8
外形線
100
AcDbCircle
 10
423.8225501141952
 20
189.1680384166635
 30
0.0
 40
1.0
100
AcDbArc
 50
238.8760342281952
 51
270.0
  0
DIMENSION
  5
875
330
18
100
AcDbEntity
  8
外形線
100
AcDbDimension
  2
*D10
 10
146.2006307204737
 20
106.4308790606159
 30
0.0
 11
144.2006307204737
 21
108.3058790606159
 31
0.0
 70
    32
  1
3
 71
     5
 42
3.999999999999971
  3
STYLE3
100
AcDbAlignedDimension
 13
142.2006307204737
 23
127.0083291796169
 33
0.0
 14
146.2006307204737
 24
126.6246397053157
 34
0.0
100
AcDbRotatedDimension
1001
ACAD
1000
DSTYLE
1002
{
1070
   271
1070
     2
1002
}
  0
LINE
  5
88C
330
18
100
AcDbEntity
  8
0
  6
ByBlock
 62
     2
100
AcDbLine
 10
368.5482572305502
 20
176.4180384166635
 30
0.0
 11
58.2074619960133
 21
64.21914888029056
 31
0.0
  0
MTEXT
  5
88D
330
18
100
AcDbEntity
  8
0
  6
ByBlock
 62
     6
100
AcDbMText
 10
161.1043064594267
 20
103.4136791269483
 30
0.0
 40
2.5
 41
0.0
 71
     5
 72
     1
  1
\A1;R330
  7
STYLE3
 11
0.9404266522258694
 21
0.339996634958706
 31
0.0
 73
     1
 44
1.0
  0
INSERT
  5
88E
330
18
100
AcDbEntity
  8
0
  6
ByBlock
 62
     2
100
AcDbBlockReference
  2
_OPEN
 10
58.2074619960133
 20
64.21914888029056
 30
0.0
 41
2.5
 42
2.5
 43
2.5
 50
199.876669053783
  0
POINT
  5
88F
330
18
100
AcDbEntity
  8
DEFPOINTS
  6
ByBlock
 62
     0
100
AcDbPoint
 10
58.2074619960133
 20
64.21914888029056
 30
0.0
  0
POINT
  5
890
330
18
100
AcDbEntity
  8
DEFPOINTS
  6
ByBlock
 62
     0
100
AcDbPoint
 10
368.5482572305503
 20
176.4180384166635
 30
0.0
  0
POINT
  5
8ED
330
18
100
AcDbEntity
  8
DEFPOINTS
  6
ByBlock
 62
     0
100
AcDbPoint
 10
39.1532704727459
 20
196.3915883972234
 30
0.0
  0
DIMENSION
  5
90B
330
18
100
AcDbEntity
  8
外形線
100
AcDbDimension
  2
*D11
 10
19.34614916144808
 20
115.0296864560351
 30
0.0
 11
15.0311797649889
 21
154.8403920089888
 31
0.0
 70
    33
  1
80
 71
     5
 42
-1.0
 51
180.0
  3
STYLE3
100
AcDbAlignedDimension
 13
39.15417071268155
 23
196.3915336055708
 33
0.0
 14
44.04111280343666
 24
116.5410467750759
 34
0.0
1001
ACAD
1000
DSTYLE
1002
{
1070
   271
1070
     2
1002
}
  0
LINE
  5
90C
330
18
100
AcDbEntity
  8
想像線
100
AcDbLine
 10
42.49602463046795
 20
114.1657038956634
 30
0.0
 11
42.67301799330073
 21
110.8312181040714
 31
0.0
  0
LINE
  5
90D
330
18
100
AcDbEntity
  8
想像線
100
AcDbLine
 10
46.41075315526794
 20
114.9872272228531
 30
0.0
 11
47.07131660872236
 21
112.0107820135217
 31
0.0
  0
ARC
  5
90E
330
18
100
AcDbEntity
  8
想像線
100
AcDbCircle
 10
44.45338889286796
 20
114.5764655592582
 30
0.0
 40
2.0
100
AcDbArc
 50
11.85179348288885
 51
191.8517934829088
  0
POINT
  5
90F
330
18
100
AcDbEntity
  8
想像線
  6
ByBlock
 62
     0
100
AcDbPoint
 10
44.04262722927305
 20
116.5338298216583
 30
0.0
  0
LINE
  5
94E
330
18
100
AcDbEntity
  8
隠れ線
 62
     4
 48
0.3
100
AcDbLine
 10
40.0322186546819
 20
201.3915883972233
 30
0.0
 11
40.03221865468191
 21
196.6632043365768
 31
0.0
  0
LINE
  5
94F
330
18
100
AcDbEntity
  8
隠れ線
 62
     4
 48
0.3
100
AcDbLine
 10
38.03221865468191
 20
201.3915883972233
 30
0.0
 11
38.03221865468191
 21
196.6632043365768
 31
0.0
  0
LINE
  5
951
330
18
100
AcDbEntity
  8
隠れ線
 62
     4
 48
0.3
100
AcDbLine
 10
38.03221865468191
 20
201.3915883972233
 30
0.0
 11
40.0322186546819
 21
201.3915883972233
 31
0.0
  0
LINE
  5
952
330
18
100
AcDbEntity
  8
隠れ線
 62
     4
 48
0.3
100
AcDbLine
 10
38.03221865468191
 20
191.3915883972233
 30
0.0
 11
40.0322186546819
 21
191.3915883972233
 31
0.0
  0
LINE
  5
954
330
18
100
AcDbEntity
  8
隠れ線
 62
     4
 48
0.3
100
AcDbLine
 10
40.03221865468191
 20
196.1273059517146
 30
0.0
 11
40.0322186546819
 21
191.3915883972233
 31
0.0
  0
LINE
  5
960
330
18
100
AcDbEntity
  8
隠れ線
 62
     4
 48
0.3
100
AcDbLine
 10
38.03221865468191
 20
196.1273059517146
 30
0.0
 11
38.03221865468191
 21
191.3915883972233
 31
0.0
  0
POINT
  5
971
330
18
100
AcDbEntity
  8
DEFPOINTS
  6
ByBlock
 62
     0
100
AcDbPoint
 10
40.51904512633863
 20
195.7329199164937
 30
0.0
  0
POINT
  5
972
330
18
100
AcDbEntity
  8
DEFPOINTS
  6
ByBlock
 62
     0
100
AcDbPoint
 10
39.03221865468193
 20
194.3952551441457
 30
0.0
  0
TEXT
  5
A20
330
18
100
AcDbEntity
  8
文字
100
AcDbText
 10
211.0083856274058
 20
352.7249846423365
 30
0.0
 40
4.0
  1
Model No.LA-23 Outside Dial Caliper Gauge
  7
STYLE3
100
AcDbText
  0
LINE
  5
A21
330
18
100
AcDbEntity
  8
外形線
100
AcDbLine
 10
210.4756156274058
 20
350.2202676423365
 30
0.0
 11
340.4756156274058
 21
350.2202676423365
 31
0.0
  0
LINE
  5
A22
330
18
100
AcDbEntity
  8
外形線
100
AcDbLine
 10
210.4756156274058
 20
349.2202676423365
 30
0.0
 11
340.4756156274058
 21
349.2202676423365
 31
0.0
  0
LINE
  5
A23
330
18
100
AcDbEntity
  8
外形線
100
AcDbLine
 10
525.8722393924265
 20
10.37616089931352
 30
0.0
 11
525.8722393924265
 21
0.7613838993135183
 31
0.0
  0
TEXT
  5
A24
330
18
100
AcDbEntity
  8
0
  6
Continuous
100
AcDbText
 10
498.0718413924265
 20
2.509525899313519
 30
0.0
 40
2.1
  1
Date
  7
STYLE3
100
AcDbText
  0
LINE
  5
A25
330
18
100
AcDbEntity
  8
外形線
100
AcDbLine
 10
496.1398893924265
 20
10.37616089931352
 30
0.0
 11
496.1398893924265
 21
0.7613838993135183
 31
0.0
  0
TEXT
  5
A26
330
18
100
AcDbEntity
  8
0
  6
Continuous
100
AcDbText
 10
497.6884803924265
 20
5.842608899313518
 30
0.0
 40
3.0
  1
日 付
  7
STYLE3
100
AcDbText
  0
TEXT
  5
A27
330
18
100
AcDbEntity
  8
0
  6
Continuous
100
AcDbText
 10
506.8166483924265
 20
4.257665899313519
 30
0.0
 40
2.1
  1
2010.06.28
  7
STYLE3
100
AcDbText
  0
TEXT
  5
A28
330
18
100
AcDbEntity
  8
0
  6
Continuous
100
AcDbText
 10
487.9780693924265
 20
4.549023899313517
 30
0.0
 40
2.399999999999999
  1
1/1
  7
STYLE3
100
AcDbText
  0
LINE
  5
A29
330
18
100
AcDbEntity
  8
外形線
100
AcDbLine
 10
476.6098173924265
 20
10.37616089931352
 30
0.0
 11
476.6098173924265
 21
0.7613838993135183
 31
0.0
  0
TEXT
  5
A2A
330
18
100
AcDbEntity
  8
0
  6
Continuous
100
AcDbText
 10
477.8955653924265
 20
5.720403899313517
 30
0.0
 40
3.0
  1
尺 度
  7
STYLE3
100
AcDbText
  0
TEXT
  5
A2B
330
18
100
AcDbEntity
  8
0
  6
Continuous
100
AcDbText
 10
478.3587803924265
 20
2.800881899313516
 30
0.0
 40
2.1
  1
Scale
  7
STYLE3
100
AcDbText
  0
TEXT
  5
A2C
330
18
100
AcDbEntity
  8
0
  6
Continuous
100
AcDbText
 10
460.7493903924265
 20
2.509524899313518
 30
0.0
 40
2.1
  1
Unit
  7
STYLE3
100
AcDbText
  0
LINE
  5
A2D
330
18
100
AcDbEntity
  8
外形線
100
AcDbLine
 10
459.1202003924265
 20
10.37616089931352
 30
0.0
 11
459.1202003924265
 21
0.7613838993135183
 31
0.0
  0
TEXT
  5
A2E
330
18
100
AcDbEntity
  8
0
  6
Continuous
100
AcDbText
 10
460.5776693924266
 20
6.011760899313518
 30
0.0
 40
3.0
  1
単位
  7
STYLE3
100
AcDbText
  0
TEXT
  5
A2F
330
18
100
AcDbEntity
  8
0
  6
Continuous
100
AcDbText
 10
468.6197173924265
 20
4.25766689931352
 30
0.0
 40
2.399999999999999
  1
mm
  7
STYLE3
100
AcDbText
  0
TEXT
  5
A30
330
18
100
AcDbEntity
  8
0
  6
Continuous
100
AcDbText
 10
527.2212023924265
 20
6.297163899313517
 30
0.0
 40
3.0
  1
株式会社　尾崎製作所
  7
STYLE3
100
AcDbText
  0
TEXT
  5
A31
330
18
100
AcDbEntity
  8
0
  6
Continuous
100
AcDbText
 10
528.0956813924265
 20
2.509524899313518
 30
0.0
 40
2.1
  1
OZAKI MFG. CO., LTD.
  7
STYLE3
100
AcDbText
  0
LINE
  5
A32
330
18
100
AcDbEntity
  8
外形線
100
AcDbLine
 10
423.8494723924264
 20
0.7613838993135183
 30
0.0
 11
423.8494723924264
 21
21.15636689931352
 31
0.0
  0
LINE
  5
A33
330
18
100
AcDbEntity
  8
外形線
100
AcDbLine
 10
423.8494723924264
 20
21.15636689931352
 30
0.0
 11
564.6408903924265
 21
21.15636689931352
 31
0.0
  0
LINE
  5
A34
330
18
100
AcDbEntity
  8
外形線
100
AcDbLine
 10
423.8494723924264
 20
10.37616089931352
 30
0.0
 11
564.6408903924265
 21
10.37616089931352
 31
0.0
  0
TEXT
  5
A35
330
18
100
AcDbEntity
  8
0
  6
Continuous
100
AcDbText
 10
425.3069393924264
 20
12.27415189931352
 30
0.0
 40
2.1
  1
Design and specifications are subject to change without notice for future improvement.
  7
STYLE3
100
AcDbText
  0
TEXT
  5
A36
330
18
100
AcDbEntity
  8
0
  6
Continuous
100
AcDbText
 10
425.5984343924264
 20
16.20329989931352
 30
0.0
 40
3.5
  1
仕様及び外観は予告なく変更される場合がございますのでご了承下さい。
  7
STYLE3
100
AcDbText
  0
TEXT
  5
A37
330
18
100
AcDbEntity
  8
0
  6
Continuous
100
AcDbText
 10
425.0154483924265
 20
2.509523899313517
 30
0.0
 40
2.1
  1
3RD Angle Projection
  7
STYLE3
100
AcDbText
  0
TEXT
  5
A38
330
18
100
AcDbEntity
  8
0
  6
Continuous
100
AcDbText
 10
427.6388913924265
 20
6.005806899313519
 30
0.0
 40
3.0
  1
三　　角　　法
  7
STYLE3
100
AcDbText
  0
ENDSEC
  0
SECTION
  2
OBJECTS
  0
DICTIONARY
  5
C
330
0
100
AcDbDictionary
281
     1
  3
ACAD_COLOR
350
992
  3
ACAD_GROUP
350
D
  3
ACAD_IMAGE_VARS
350
680
  3
ACAD_LAYOUT
350
995
  3
ACAD_MATERIAL
350
991
  3
ACAD_MLINESTYLE
350
1B
  3
ACAD_PLOTSETTINGS
350
996
  3
ACAD_PLOTSTYLENAME
350
98F
  3
ACAD_TABLESTYLE
350
993
  3
AcDbVariableDictionary
350
99F
  0
DICTIONARY
  5
9A3
330
18
100
AcDbDictionary
280
     1
281
     1
  3
ACAD_SORTENTS
360
9A4
  0
DICTIONARY
  5
992
102
{ACAD_REACTORS
330
C
102
}
330
C
100
AcDbDictionary
281
     1
  0
DICTIONARY
  5
D
102
{ACAD_REACTORS
330
C
102
}
330
C
100
AcDbDictionary
281
     1
  0
RASTERVARIABLES
  5
680
102
{ACAD_REACTORS
330
C
102
}
330
C
100
AcDbRasterVariables
 90
        0
 70
     1
 71
     1
 72
     0
  0
DICTIONARY
  5
995
102
{ACAD_REACTORS
330
C
102
}
330
C
100
AcDbDictionary
281
     1
  3
Model
350
997
  3
レイアウト1
350
998
  0
DICTIONARY
  5
991
102
{ACAD_REACTORS
330
C
102
}
330
C
100
AcDbDictionary
281
     1
  0
DICTIONARY
  5
1B
102
{ACAD_REACTORS
330
C
102
}
330
C
100
AcDbDictionary
281
     1
  3
STANDARD
350
1C
  0
DICTIONARY
  5
996
102
{ACAD_REACTORS
330
C
102
}
330
C
100
AcDbDictionary
281
     1
  0
ACDBDICTIONARYWDFLT
  5
98F
102
{ACAD_REACTORS
330
C
102
}
330
C
100
AcDbDictionary
281
     1
  3
Normal
350
990
100
AcDbDictionaryWithDefault
340
990
  0
DICTIONARY
  5
993
102
{ACAD_REACTORS
330
C
102
}
330
C
100
AcDbDictionary
281
     1
  3
Standard
350
994
  0
DICTIONARY
  5
99F
102
{ACAD_REACTORS
330
C
102
}
330
C
100
AcDbDictionary
281
     1
  3
CTABLESTYLE
350
9A0
  0
SORTENTSTABLE
  5
9A4
102
{ACAD_REACTORS
330
9A3
102
}
330
9A3
100
AcDbSortentsTable
330
18
331
768
  5
768
331
6F2
  5
6F2
331
6B3
  5
6B3
331
674
  5
674
331
729
  5
729
331
851
  5
851
331
770
  5
770
331
731
  5
731
331
6BB
  5
6BB
331
63D
  5
63D
331
6FA
  5
6FA
331
96F
  5
96F
331
739
  5
739
331
6C3
  5
6C3
331
645
  5
645
331
702
  5
702
331
778
  5
778
331
7B7
  5
7B7
331
741
  5
741
331
70A
  5
70A
331
694
  5
694
331
64D
  5
64D
331
6CB
  5
6CB
331
780
  5
780
331
24B
  5
24B
331
185
  5
185
331
1C4
  5
1C4
331
5AE
  5
5AE
331
538
  5
538
331
29A
  5
29A
331
18D
  5
18D
331
56F
  5
56F
331
5B6
  5
5B6
331
577
  5
577
331
25B
  5
25B
331
195
  5
195
331
2B2
  5
2B2
331
540
  5
540
331
5BE
  5
5BE
331
57F
  5
57F
331
311
  5
311
331
2BA
  5
2BA
331
19D
  5
19D
331
263
  5
263
331
548
  5
548
331
587
  5
587
331
5C6
  5
5C6
331
788
  5
788
331
712
  5
712
331
6D3
  5
6D3
331
655
  5
655
331
69C
  5
69C
331
749
  5
749
331
81E
  5
81E
331
751
  5
751
331
6DB
  5
6DB
331
65D
  5
65D
331
6A4
  5
6A4
331
71A
  5
71A
331
759
  5
759
331
6E3
  5
6E3
331
6AC
  5
6AC
331
665
  5
665
331
722
  5
722
331
7CF
  5
7CF
331
960
  5
960
331
761
  5
761
331
66D
  5
66D
331
6EB
  5
6EB
331
550
  5
550
331
2C2
  5
2C2
331
224
  5
224
331
319
  5
319
331
5CE
  5
5CE
331
558
  5
558
331
1AD
  5
1AD
331
27B
  5
27B
331
58F
  5
58F
331
5D6
  5
5D6
331
560
  5
560
331
283
  5
283
331
1B5
  5
1B5
331
471
  5
471
331
597
  5
597
331
59F
  5
59F
331
1BD
  5
1BD
331
5A7
  5
5A7
331
72A
  5
72A
331
6F3
  5
6F3
331
5E6
  5
5E6
331
6B4
  5
6B4
331
769
  5
769
331
852
  5
852
331
732
  5
732
331
6FB
  5
6FB
331
63E
  5
63E
331
6BC
  5
6BC
331
771
  5
771
331
7FF
  5
7FF
331
970
  5
970
331
779
  5
779
331
703
  5
703
331
646
  5
646
331
6C4
  5
6C4
331
73A
  5
73A
331
781
  5
781
331
742
  5
742
331
6CC
  5
6CC
331
695
  5
695
331
64E
  5
64E
331
70B
  5
70B
331
568
  5
568
331
293
  5
293
331
186
  5
186
331
531
  5
531
331
570
  5
570
331
29B
  5
29B
331
18E
  5
18E
331
539
  5
539
331
5AF
  5
5AF
331
578
  5
578
331
196
  5
196
331
541
  5
541
331
5B7
  5
5B7
331
5BF
  5
5BF
331
549
  5
549
331
264
  5
264
331
19E
  5
19E
331
312
  5
312
331
580
  5
580
331
5C7
  5
5C7
331
74A
  5
74A
331
6D4
  5
6D4
331
69D
  5
69D
331
656
  5
656
331
713
  5
713
331
789
  5
789
331
951
  5
951
331
752
  5
752
331
71B
  5
71B
331
6A5
  5
6A5
331
65E
  5
65E
331
6DC
  5
6DC
331
723
  5
723
331
6E4
  5
6E4
331
666
  5
666
331
6AD
  5
6AD
331
75A
  5
75A
331
66E
  5
66E
331
6EC
  5
6EC
331
762
  5
762
331
588
  5
588
331
31A
  5
31A
331
551
  5
551
331
5CF
  5
5CF
331
590
  5
590
331
1AE
  5
1AE
331
559
  5
559
331
598
  5
598
331
561
  5
561
331
1B6
  5
1B6
331
472
  5
472
331
5D7
  5
5D7
331
1BE
  5
1BE
331
5A0
  5
5A0
331
76A
  5
76A
331
6F4
  5
6F4
331
6B5
  5
6B5
331
676
  5
676
331
72B
  5
72B
331
853
  5
853
331
772
  5
772
331
733
  5
733
331
6BD
  5
6BD
331
63F
  5
63F
331
6FC
  5
6FC
331
800
  5
800
331
971
  5
971
331
73B
  5
73B
331
704
  5
704
331
647
  5
647
331
6C5
  5
6C5
331
77A
  5
77A
331
979
  5
979
331
743
  5
743
331
70C
  5
70C
331
696
  5
696
331
64F
  5
64F
331
6CD
  5
6CD
331
782
  5
782
331
569
  5
569
331
532
  5
532
331
187
  5
187
331
1C6
  5
1C6
331
5A8
  5
5A8
331
5B0
  5
5B0
331
53A
  5
53A
331
255
  5
255
331
18F
  5
18F
331
29C
  5
29C
331
571
  5
571
331
5B8
  5
5B8
331
579
  5
579
331
216
  5
216
331
197
  5
197
331
542
  5
542
331
581
  5
581
331
313
  5
313
331
19F
  5
19F
331
265
  5
265
331
54A
  5
54A
331
5C0
  5
5C0
331
78A
  5
78A
331
714
  5
714
331
6D5
  5
6D5
331
657
  5
657
331
69E
  5
69E
331
74B
  5
74B
331
952
  5
952
331
753
  5
753
331
6DD
  5
6DD
331
6A6
  5
6A6
331
65F
  5
65F
331
71C
  5
71C
331
75B
  5
75B
331
6E5
  5
6E5
331
6AE
  5
6AE
331
667
  5
667
331
724
  5
724
331
9A1
  5
9A1
331
763
  5
763
331
66F
  5
66F
331
6ED
  5
6ED
331
90B
  5
90B
331
589
  5
589
331
552
  5
552
331
31B
  5
31B
331
1A7
  5
1A7
331
226
  5
226
331
5C8
  5
5C8
331
5D0
  5
5D0
331
55A
  5
55A
331
2CC
  5
2CC
331
1AF
  5
1AF
331
591
  5
591
331
5D8
  5
5D8
331
599
  5
599
331
1B7
  5
1B7
331
562
  5
562
331
5A1
  5
5A1
331
1BF
  5
1BF
331
28D
  5
28D
331
72C
  5
72C
331
6F5
  5
6F5
331
638
  5
638
331
6B6
  5
6B6
331
76B
  5
76B
331
854
  5
854
331
7AA
  5
7AA
331
773
  5
773
331
6FD
  5
6FD
331
640
  5
640
331
6BE
  5
6BE
331
734
  5
734
331
801
  5
801
331
972
  5
972
331
77B
  5
77B
331
705
  5
705
331
648
  5
648
331
6C6
  5
6C6
331
73C
  5
73C
331
97A
  5
97A
331
783
  5
783
331
744
  5
744
331
6CE
  5
6CE
331
697
  5
697
331
70D
  5
70D
331
88C
  5
88C
331
5A9
  5
5A9
331
56A
  5
56A
331
1C7
  5
1C7
331
188
  5
188
331
533
  5
533
331
572
  5
572
331
190
  5
190
331
53B
  5
53B
331
5B1
  5
5B1
331
57A
  5
57A
331
543
  5
543
331
198
  5
198
331
217
  5
217
331
5B9
  5
5B9
331
5C1
  5
5C1
331
54B
  5
54B
331
314
  5
314
331
2BD
  5
2BD
331
582
  5
582
331
650
  5
650
331
74C
  5
74C
331
715
  5
715
331
658
  5
658
331
6D6
  5
6D6
331
9F1
  5
9F1
331
754
  5
754
331
71D
  5
71D
331
6A7
  5
6A7
331
660
  5
660
331
6DE
  5
6DE
331
725
  5
725
331
6E6
  5
6E6
331
668
  5
668
331
6AF
  5
6AF
331
75C
  5
75C
331
9A2
  5
9A2
331
6EE
  5
6EE
331
764
  5
764
331
90C
  5
90C
331
1A0
  5
1A0
331
5C9
  5
5C9
331
58A
  5
58A
331
31C
  5
31C
331
1A8
  5
1A8
331
276
  5
276
331
553
  5
553
331
592
  5
592
331
55B
  5
55B
331
5D1
  5
5D1
331
59A
  5
59A
331
2D5
  5
2D5
331
286
  5
286
331
1B8
  5
1B8
331
247
  5
247
331
563
  5
563
331
5A2
  5
5A2
331
670
  5
670
331
76C
  5
76C
331
6F6
  5
6F6
331
639
  5
639
331
6B7
  5
6B7
331
72D
  5
72D
331
774
  5
774
331
735
  5
735
331
6BF
  5
6BF
331
641
  5
641
331
6FE
  5
6FE
331
802
  5
802
331
855
  5
855
331
73D
  5
73D
331
706
  5
706
331
649
  5
649
331
6C7
  5
6C7
331
77C
  5
77C
331
97B
  5
97B
331
784
  5
784
331
70E
  5
70E
331
6CF
  5
6CF
331
745
  5
745
331
875
  5
875
331
88D
  5
88D
331
1C0
  5
1C0
331
5AA
  5
5AA
331
534
  5
534
331
189
  5
189
331
1C8
  5
1C8
331
56B
  5
56B
331
5B2
  5
5B2
331
53C
  5
53C
331
257
  5
257
331
191
  5
191
331
573
  5
573
331
5BA
  5
5BA
331
57B
  5
57B
331
30D
  5
30D
331
218
  5
218
331
199
  5
199
331
544
  5
544
331
583
  5
583
331
54C
  5
54C
331
2BE
  5
2BE
331
315
  5
315
331
5C2
  5
5C2
331
698
  5
698
331
651
  5
651
331
7C3
  5
7C3
331
78C
  5
78C
331
716
  5
716
331
6D7
  5
6D7
331
6A0
  5
6A0
331
74D
  5
74D
331
9F2
  5
9F2
331
755
  5
755
331
6DF
  5
6DF
331
6A8
  5
6A8
331
661
  5
661
331
71E
  5
71E
331
954
  5
954
331
75D
  5
75D
331
726
  5
726
331
669
  5
669
331
6E7
  5
6E7
331
79C
  5
79C
331
8ED
  5
8ED
331
765
  5
765
331
6EF
  5
6EF
331
90D
  5
90D
331
58B
  5
58B
331
1A9
  5
1A9
331
554
  5
554
331
5CA
  5
5CA
331
5D2
  5
5D2
331
55C
  5
55C
331
2CE
  5
2CE
331
593
  5
593
331
59B
  5
59B
331
1B9
  5
1B9
331
564
  5
564
331
5A3
  5
5A3
331
6B0
  5
6B0
331
671
  5
671
331
72E
  5
72E
331
6F7
  5
6F7
331
681
  5
681
331
63A
  5
63A
331
6B8
  5
6B8
331
76D
  5
76D
331
775
  5
775
331
6FF
  5
6FF
331
642
  5
642
331
6C0
  5
6C0
331
736
  5
736
331
803
  5
803
331
856
  5
856
331
77D
  5
77D
331
707
  5
707
331
64A
  5
64A
331
6C8
  5
6C8
331
73E
  5
73E
331
785
  5
785
331
746
  5
746
331
70F
  5
70F
331
88E
  5
88E
331
1C1
  5
1C1
331
5AB
  5
5AB
331
56C
  5
56C
331
297
  5
297
331
1C9
  5
1C9
331
18A
  5
18A
331
250
  5
250
331
535
  5
535
331
574
  5
574
331
192
  5
192
331
53D
  5
53D
331
5B3
  5
5B3
331
5BB
  5
5BB
331
545
  5
545
331
30E
  5
30E
331
19A
  5
19A
331
219
  5
219
331
57C
  5
57C
331
5C3
  5
5C3
331
54D
  5
54D
331
316
  5
316
331
2BF
  5
2BF
331
584
  5
584
331
6D0
  5
6D0
331
699
  5
699
331
652
  5
652
331
81B
  5
81B
331
74E
  5
74E
331
717
  5
717
331
6A1
  5
6A1
331
65A
  5
65A
331
6D8
  5
6D8
331
71F
  5
71F
331
6A9
  5
6A9
331
662
  5
662
331
6E0
  5
6E0
331
756
  5
756
331
9F3
  5
9F3
331
79D
  5
79D
331
727
  5
727
331
66A
  5
66A
331
6E8
  5
6E8
331
75E
  5
75E
331
766
  5
766
331
7F4
  5
7F4
331
90E
  5
90E
331
221
  5
221
331
5CB
  5
5CB
331
58C
  5
58C
331
1AA
  5
1AA
331
555
  5
555
331
594
  5
594
331
2CF
  5
2CF
331
280
  5
280
331
55D
  5
55D
331
5D3
  5
5D3
331
59C
  5
59C
331
1BA
  5
1BA
331
565
  5
565
331
5A4
  5
5A4
331
6F0
  5
6F0
331
6B1
  5
6B1
331
672
  5
672
331
76E
  5
76E
331
72F
  5
72F
331
63B
  5
63B
331
6B9
  5
6B9
331
6F8
  5
6F8
331
776
  5
776
331
737
  5
737
331
6C1
  5
6C1
331
68A
  5
68A
331
643
  5
643
331
700
  5
700
331
96D
  5
96D
331
73F
  5
73F
331
708
  5
708
331
64B
  5
64B
331
6C9
  5
6C9
331
77E
  5
77E
331
786
  5
786
331
747
  5
747
331
94E
  5
94E
331
88F
  5
88F
331
1C2
  5
1C2
331
5AC
  5
5AC
331
536
  5
536
331
251
  5
251
331
18B
  5
18B
331
1CA
  5
1CA
331
56D
  5
56D
331
5B4
  5
5B4
331
53E
  5
53E
331
2B0
  5
2B0
331
193
  5
193
331
575
  5
575
331
5BC
  5
5BC
331
57D
  5
57D
331
30F
  5
30F
331
19B
  5
19B
331
546
  5
546
331
585
  5
585
331
54E
  5
54E
331
317
  5
317
331
5C4
  5
5C4
331
710
  5
710
331
6D1
  5
6D1
331
653
  5
653
331
69A
  5
69A
331
81C
  5
81C
331
718
  5
718
331
6D9
  5
6D9
331
65B
  5
65B
331
6A2
  5
6A2
331
74F
  5
74F
331
757
  5
757
331
6E1
  5
6E1
331
6AA
  5
6AA
331
663
  5
663
331
720
  5
720
331
75F
  5
75F
331
66B
  5
66B
331
6E9
  5
6E9
331
767
  5
767
331
90F
  5
90F
331
222
  5
222
331
5CC
  5
5CC
331
556
  5
556
331
1AB
  5
1AB
331
279
  5
279
331
58D
  5
58D
331
5D4
  5
5D4
331
55E
  5
55E
331
2D0
  5
2D0
331
1B3
  5
1B3
331
595
  5
595
331
59D
  5
59D
331
1BB
  5
1BB
331
566
  5
566
331
5A5
  5
5A5
331
728
  5
728
331
6B2
  5
6B2
331
6F1
  5
6F1
331
730
  5
730
331
6F9
  5
6F9
331
63C
  5
63C
331
6BA
  5
6BA
331
76F
  5
76F
331
777
  5
777
331
701
  5
701
331
6C2
  5
6C2
331
644
  5
644
331
68B
  5
68B
331
738
  5
738
331
77F
  5
77F
331
740
  5
740
331
64C
  5
64C
331
6CA
  5
6CA
331
709
  5
709
331
787
  5
787
331
94F
  5
94F
331
1C3
  5
1C3
331
184
  5
184
331
5AD
  5
5AD
331
56E
  5
56E
331
18C
  5
18C
331
537
  5
537
331
576
  5
576
331
194
  5
194
331
53F
  5
53F
331
5B5
  5
5B5
331
5BD
  5
5BD
331
547
  5
547
331
19C
  5
19C
331
262
  5
262
331
310
  5
310
331
57E
  5
57E
331
5C5
  5
5C5
331
54F
  5
54F
331
586
  5
586
331
748
  5
748
331
6D2
  5
6D2
331
69B
  5
69B
331
654
  5
654
331
711
  5
711
331
81D
  5
81D
331
750
  5
750
331
719
  5
719
331
6A3
  5
6A3
331
65C
  5
65C
331
6DA
  5
6DA
331
890
  5
890
331
797
  5
797
331
721
  5
721
331
6E2
  5
6E2
331
664
  5
664
331
6AB
  5
6AB
331
758
  5
758
331
835
  5
835
331
66C
  5
66C
331
6EA
  5
6EA
331
760
  5
760
331
318
  5
318
331
2C1
  5
2C1
331
5CD
  5
5CD
331
58E
  5
58E
331
22B
  5
22B
331
1AC
  5
1AC
331
2C9
  5
2C9
331
557
  5
557
331
596
  5
596
331
55F
  5
55F
331
1B4
  5
1B4
331
243
  5
243
331
5D5
  5
5D5
331
567
  5
567
331
1BC
  5
1BC
331
28A
  5
28A
331
59E
  5
59E
331
5A6
  5
5A6
  0
LAYOUT
  5
997
102
{ACAD_REACTORS
330
995
102
}
330
995
100
AcDbPlotSettings
  1

  2
A3 EPSON LP-6100.pc3
  4
A3
  6

 40
5.873749732971191
 41
5.873747825622558
 42
5.873748779296875
 43
5.873748779296875
 44
297.0106506347656
 45
419.9466552734374
 46
6.535827640907143
 47
0.549554337617991
 48
0.0
 49
0.0
140
0.0
141
0.0
142
1.0
143
1.389999999999999
 70
 28324
 72
     1
 73
     1
 74
     1
  7
AutoCAD LT 98.ctb
 75
     0
147
0.5041151169108122
 76
     1
 77
     2
 78
   300
148
0.4345321105388394
149
0.4230885426246687
100
AcDbLayout
  1
Model
 70
     1
 71
     0
 10
0.0
 20
0.0
 11
12.0
 21
9.0
 12
0.0
 22
0.0
 32
0.0
 14
0.0
 24
0.0
 34
0.0
 15
0.0
 25
0.0
 35
0.0
146
0.0
 13
0.0
 23
0.0
 33
0.0
 16
1.0
 26
0.0
 36
0.0
 17
0.0
 27
1.0
 37
0.0
 76
     0
330
18
1001
ACAD_PSEXT
1000
A3 EPSON LP-6100.pc3
1000
EPSON LP-6100
1000
USB002
1000

1070
     0
  0
LAYOUT
  5
998
102
{ACAD_REACTORS
330
995
102
}
330
995
100
AcDbPlotSettings
  1

  2
C:\Documents and Settings\佐藤\Application Data\Autodesk\AutoCAD LT 2005\R10\jpn\plotters\PEACOCK EPSON LP-6100.pc3
  4

  6

 40
0.0
 41
0.0
 42
0.0
 43
0.0
 44
0.0
 45
0.0
 46
0.0
 47
0.0
 48
0.0
 49
0.0
140
0.0
141
0.0
142
1.0
143
1.0
 70
   688
 72
     0
 73
     0
 74
     5
  7
AutoCAD LT 98.ctb
 75
    16
147
1.0
 76
     0
 77
     2
 78
   300
148
0.0
149
0.0
100
AcDbLayout
  1
レイアウト1
 70
     1
 71
     1
 10
0.0
 20
0.0
 11
420.0
 21
297.0
 12
0.0
 22
0.0
 32
0.0
 14
1.000000000000000E+20
 24
1.000000000000000E+20
 34
1.000000000000000E+20
 15
-1.000000000000000E+20
 25
-1.000000000000000E+20
 35
-1.000000000000000E+20
146
0.0
 13
0.0
 23
0.0
 33
0.0
 16
1.0
 26
0.0
 36
0.0
 17
0.0
 27
1.0
 37
0.0
 76
     0
330
15
  0
MLINESTYLE
  5
1C
102
{ACAD_REACTORS
330
1B
102
}
330
1B
100
AcDbMlineStyle
  2
STANDARD
 70
     0
  3

 62
   256
 51
90.0
 52
90.0
 71
     2
 49
0.5
 62
   256
  6
BYLAYER
 49
-0.5
 62
   256
  6
BYLAYER
  0
ACDBPLACEHOLDER
  5
990
102
{ACAD_REACTORS
330
98F
102
}
330
98F
  0
ACAD_PROXY_OBJECT
  5
994
102
{ACAD_REACTORS
330
993
102
}
330
993
100
AcDbProxyObject
 90
      499
 91
      504
 95
  2555929
 70
     0
 93
     1849
310
4214DD185B99185C992420000000000000F83F0000000000003E0FC00000000000004901028000000C1008070000C3001FDFF8000000C1003FBFF000000182007F7FE00000030400FEFFC00000060801FDFF8000000C1003FBFF000000182000000000000000C2020B0000001820100E000186003FBFF000000182007F7FE0
310
0000030400FEFFC00000060801FDFF8000000C1003FBFF000000182007F7FE0000003040000000000000012404160000003040201C00030C007F7FE00000030400FEFFC00000060801FDFF8000000C1003FBFF000000182007F7FE00000030400FEFFC000000608000
340
F
340
F
340
F
 94
        0
  0
DICTIONARYVAR
  5
9A0
102
{ACAD_REACTORS
330
99F
102
}
330
99F
100
DictionaryVariables
280
     0
  1
STANDARD
  0
ENDSEC
  0
EOF
