  0
SECTION
  2
HEADER
  9
$ACADVER
  1
AC1018
  9
$ACADMAINTVER
 70
     0
  9
$DWGCODEPAGE
  3
ANSI_932
  9
$INSBASE
 10
0.0
 20
0.0
 30
0.0
  9
$EXTMIN
 10
68.07604022723808
 20
6.83404610961918
 30
-0.000000000000013
  9
$EXTMAX
 10
746.3311167155275
 20
282.1445624417911
 30
0.0000000000000023
  9
$LIMMIN
 10
0.0
 20
0.0
  9
$LIMMAX
 10
420.0
 20
297.0
  9
$ORTHOMODE
 70
     0
  9
$REGENMODE
 70
     1
  9
$FILLMODE
 70
     1
  9
$QTEXTMODE
 70
     0
  9
$MIRRTEXT
 70
     1
  9
$LTSCALE
 40
1.0
  9
$ATTMODE
 70
     1
  9
$TEXTSIZE
 40
3.0
  9
$TRACEWID
 40
1.0
  9
$TEXTSTYLE
  7
STYLE3
  9
$CLAYER
  8
寸法線
  9
$CELTYPE
  6
BYLAYER
  9
$CECOLOR
 62
   256
  9
$CELTSCALE
 40
1.0
  9
$DISPSILH
 70
     0
  9
$DIMSCALE
 40
0.0
  9
$DIMASZ
 40
2.5
  9
$DIMEXO
 40
0.0
  9
$DIMDLI
 40
3.75
  9
$DIMRND
 40
0.0
  9
$DIMDLE
 40
0.0
  9
$DIMEXE
 40
1.25
  9
$DIMTP
 40
0.0
  9
$DIMTM
 40
0.0
  9
$DIMTXT
 40
2.5
  9
$DIMCEN
 40
2.5
  9
$DIMTSZ
 40
0.0
  9
$DIMTOL
 70
     0
  9
$DIMLIM
 70
     0
  9
$DIMTIH
 70
     0
  9
$DIMTOH
 70
     0
  9
$DIMSE1
 70
     0
  9
$DIMSE2
 70
     0
  9
$DIMTAD
 70
     1
  9
$DIMZIN
 70
     8
  9
$DIMBLK
  1

  9
$DIMASO
 70
     1
  9
$DIMSHO
 70
     1
  9
$DIMPOST
  1

  9
$DIMAPOST
  1

  9
$DIMALT
 70
     0
  9
$DIMALTD
 70
     4
  9
$DIMALTF
 40
0.0394
  9
$DIMLFAC
 40
1.0
  9
$DIMTOFL
 70
     1
  9
$DIMTVP
 40
0.0
  9
$DIMTIX
 70
     0
  9
$DIMSOXD
 70
     0
  9
$DIMSAH
 70
     1
  9
$DIMBLK1
  1
OPEN
  9
$DIMBLK2
  1
OPEN
  9
$DIMSTYLE
  2
STYLE3
  9
$DIMCLRD
 70
     2
  9
$DIMCLRE
 70
     2
  9
$DIMCLRT
 70
     6
  9
$DIMTFAC
 40
1.0
  9
$DIMGAP
 40
0.625
  9
$DIMJUST
 70
     0
  9
$DIMSD1
 70
     0
  9
$DIMSD2
 70
     0
  9
$DIMTOLJ
 70
     1
  9
$DIMTZIN
 70
     0
  9
$DIMALTZ
 70
     0
  9
$DIMALTTZ
 70
     0
  9
$DIMUPT
 70
     0
  9
$DIMDEC
 70
     2
  9
$DIMTDEC
 70
     4
  9
$DIMALTU
 70
     8
  9
$DIMALTTD
 70
     4
  9
$DIMTXSTY
  7
STYLE3
  9
$DIMAUNIT
 70
     0
  9
$DIMADEC
 70
     0
  9
$DIMALTRND
 40
0.0
  9
$DIMAZIN
 70
     0
  9
$DIMDSEP
 70
    46
  9
$DIMATFIT
 70
     3
  9
$DIMFRAC
 70
     0
  9
$DIMLDRBLK
  1

  9
$DIMLUNIT
 70
     2
  9
$DIMLWD
 70
    -2
  9
$DIMLWE
 70
    -2
  9
$DIMTMOVE
 70
     0
  9
$LUNITS
 70
     2
  9
$LUPREC
 70
     4
  9
$SKETCHINC
 40
1.0
  9
$FILLETRAD
 40
1.5
  9
$AUNITS
 70
     0
  9
$AUPREC
 70
     0
  9
$MENU
  1
.
  9
$ELEVATION
 40
0.0
  9
$PELEVATION
 40
0.0
  9
$THICKNESS
 40
0.0
  9
$LIMCHECK
 70
     0
  9
$CHAMFERA
 40
10.0
  9
$CHAMFERB
 40
10.0
  9
$CHAMFERC
 40
20.0
  9
$CHAMFERD
 40
0.0
  9
$SKPOLY
 70
     0
  9
$TDCREATE
 40
2450767.656962268
  9
$TDUCREATE
 40
2450767.281962269
  9
$TDUPDATE
 40
2455372.676695775
  9
$TDUUPDATE
 40
2455372.301695775
  9
$TDINDWG
 40
1.2043878935
  9
$TDUSRTIMER
 40
1.2043878935
  9
$USRTIMER
 70
     1
  9
$ANGBASE
 50
0.0
  9
$ANGDIR
 70
     0
  9
$PDMODE
 70
     0
  9
$PDSIZE
 40
0.0
  9
$PLINEWID
 40
0.0
  9
$SPLFRAME
 70
     0
  9
$SPLINETYPE
 70
     6
  9
$SPLINESEGS
 70
     8
  9
$HANDSEED
  5
13C6
  9
$SURFTAB1
 70
     6
  9
$SURFTAB2
 70
     6
  9
$SURFTYPE
 70
     6
  9
$SURFU
 70
     6
  9
$SURFV
 70
     6
  9
$UCSBASE
  2

  9
$UCSNAME
  2

  9
$UCSORG
 10
0.0
 20
0.0
 30
0.0
  9
$UCSXDIR
 10
1.0
 20
0.0
 30
0.0
  9
$UCSYDIR
 10
0.0
 20
1.0
 30
0.0
  9
$UCSORTHOREF
  2

  9
$UCSORTHOVIEW
 70
     0
  9
$UCSORGTOP
 10
0.0
 20
0.0
 30
0.0
  9
$UCSORGBOTTOM
 10
0.0
 20
0.0
 30
0.0
  9
$UCSORGLEFT
 10
0.0
 20
0.0
 30
0.0
  9
$UCSORGRIGHT
 10
0.0
 20
0.0
 30
0.0
  9
$UCSORGFRONT
 10
0.0
 20
0.0
 30
0.0
  9
$UCSORGBACK
 10
0.0
 20
0.0
 30
0.0
  9
$PUCSBASE
  2

  9
$PUCSNAME
  2

  9
$PUCSORG
 10
0.0
 20
0.0
 30
0.0
  9
$PUCSXDIR
 10
1.0
 20
0.0
 30
0.0
  9
$PUCSYDIR
 10
0.0
 20
1.0
 30
0.0
  9
$PUCSORTHOREF
  2

  9
$PUCSORTHOVIEW
 70
     0
  9
$PUCSORGTOP
 10
0.0
 20
0.0
 30
0.0
  9
$PUCSORGBOTTOM
 10
0.0
 20
0.0
 30
0.0
  9
$PUCSORGLEFT
 10
0.0
 20
0.0
 30
0.0
  9
$PUCSORGRIGHT
 10
0.0
 20
0.0
 30
0.0
  9
$PUCSORGFRONT
 10
0.0
 20
0.0
 30
0.0
  9
$PUCSORGBACK
 10
0.0
 20
0.0
 30
0.0
  9
$USERI1
 70
     0
  9
$USERI2
 70
     0
  9
$USERI3
 70
     0
  9
$USERI4
 70
     0
  9
$USERI5
 70
     0
  9
$USERR1
 40
0.0
  9
$USERR2
 40
0.0
  9
$USERR3
 40
0.0
  9
$USERR4
 40
0.0
  9
$USERR5
 40
0.0
  9
$WORLDVIEW
 70
     1
  9
$SHADEDGE
 70
     3
  9
$SHADEDIF
 70
    70
  9
$TILEMODE
 70
     1
  9
$MAXACTVP
 70
    48
  9
$PINSBASE
 10
0.0
 20
0.0
 30
0.0
  9
$PLIMCHECK
 70
     0
  9
$PEXTMIN
 10
1.000000000000000E+20
 20
1.000000000000000E+20
 30
1.000000000000000E+20
  9
$PEXTMAX
 10
-1.000000000000000E+20
 20
-1.000000000000000E+20
 30
-1.000000000000000E+20
  9
$PLIMMIN
 10
0.0
 20
0.0
  9
$PLIMMAX
 10
420.0
 20
297.0
  9
$UNITMODE
 70
     0
  9
$VISRETAIN
 70
     1
  9
$PLINEGEN
 70
     0
  9
$PSLTSCALE
 70
     1
  9
$TREEDEPTH
 70
  3020
  9
$CMLSTYLE
  2
STANDARD
  9
$CMLJUST
 70
     0
  9
$CMLSCALE
 40
20.0
  9
$PROXYGRAPHICS
 70
     1
  9
$MEASUREMENT
 70
     1
  9
$CELWEIGHT
370
    -1
  9
$ENDCAPS
280
     0
  9
$JOINSTYLE
280
     0
  9
$LWDISPLAY
290
     0
  9
$INSUNITS
 70
     0
  9
$HYPERLINKBASE
  1

  9
$STYLESHEET
  1
AutoCAD LT 98.ctb
  9
$XEDIT
290
     1
  9
$CEPSNTYPE
380
     0
  9
$PSTYLEMODE
290
     1
  9
$FINGERPRINTGUID
  2
{F55F0FBB-B855-44A6-AC2D-61DEBAD86705}
  9
$VERSIONGUID
  2
{1526B818-5243-48EC-81E7-2FCDD3C81CE7}
  9
$EXTNAMES
290
     1
  9
$PSVPSCALE
 40
0.0
  9
$OLESTARTUP
290
     0
  9
$SORTENTS
280
   127
  9
$INDEXCTL
280
     0
  9
$HIDETEXT
280
     0
  9
$XCLIPFRAME
290
     0
  9
$HALOGAP
280
     0
  9
$OBSCOLOR
 70
   257
  9
$OBSLTYPE
280
     0
  9
$INTERSECTIONDISPLAY
280
     0
  9
$INTERSECTIONCOLOR
 70
   257
  9
$DIMASSOC
280
     1
  9
$PROJECTNAME
  1

  0
ENDSEC
  0
SECTION
  2
CLASSES
  0
CLASS
  1
HATCH
  2
AcDbHatch
  3
ObjectDBX Classes
 90
        0
 91
       22
280
     0
281
     1
  0
CLASS
  1
LWPOLYLINE
  2
AcDbPolyline
  3
ObjectDBX Classes
 90
        0
 91
        2
280
     0
281
     1
  0
CLASS
  1
IMAGEDEF
  2
AcDbRasterImageDef
  3
ISM
 90
        0
 91
        1
280
     0
281
     0
  0
CLASS
  1
DICTIONARYVAR
  2
AcDbDictionaryVar
  3
ObjectDBX Classes
 90
        0
 91
        2
280
     0
281
     0
  0
CLASS
  1
ACDBDICTIONARYWDFLT
  2
AcDbDictionaryWithDefault
  3
ObjectDBX Classes
 90
        0
 91
        1
280
     0
281
     0
  0
CLASS
  1
TABLESTYLE
  2
AcDbTableStyle
  3
ObjectDBX Classes
 90
     2047
 91
        1
280
     0
281
     0
  0
CLASS
  1
SORTENTSTABLE
  2
AcDbSortentsTable
  3
ObjectDBX Classes
 90
        0
 91
        1
280
     0
281
     0
  0
ENDSEC
  0
SECTION
  2
TABLES
  0
TABLE
  2
VPORT
  5
8
330
0
100
AcDbSymbolTable
 70
     2
  0
VPORT
  5
13C5
330
8
100
AcDbSymbolTableRecord
100
AcDbViewportTableRecord
  2
*Active
 70
     0
 10
0.0
 20
0.0
 11
1.0
 21
1.0
 12
407.2035784713827
 22
144.4893042757051
 13
0.0
 23
0.0
 14
10.0
 24
10.0
 15
10.0
 25
10.0
 16
0.0
 26
0.0
 36
1.0
 17
0.0
 27
0.0
 37
0.0
 40
445.3736815906468
 41
1.530456852791878
 42
50.0
 43
0.0
 44
0.0
 50
0.0
 51
0.0
 71
     0
 72
   100
 73
     1
 74
     1
 75
     0
 76
     0
 77
     0
 78
     0
281
     0
 65
     1
110
0.0
120
0.0
130
0.0
111
1.0
121
0.0
131
0.0
112
0.0
122
1.0
132
0.0
 79
     0
146
0.0
  0
ENDTAB
  0
TABLE
  2
LTYPE
  5
5
330
0
100
AcDbSymbolTable
 70
    14
  0
LTYPE
  5
12
330
5
100
AcDbSymbolTableRecord
100
AcDbLinetypeTableRecord
  2
BYBLOCK
 70
     0
  3

 72
    65
 73
     0
 40
0.0
  0
LTYPE
  5
13
330
5
100
AcDbSymbolTableRecord
100
AcDbLinetypeTableRecord
  2
BYLAYER
 70
     0
  3

 72
    65
 73
     0
 40
0.0
  0
LTYPE
  5
14
330
5
100
AcDbSymbolTableRecord
100
AcDbLinetypeTableRecord
  2
CONTINUOUS
 70
     0
  3
Solid line
 72
    65
 73
     0
 40
0.0
  0
LTYPE
  5
22
330
5
100
AcDbSymbolTableRecord
100
AcDbLinetypeTableRecord
  2
CENTER2
 70
     0
  3
Center (.5x) ___ _ ___ _ ___ _ ___ _ ___ _ ___
 72
    65
 73
     4
 40
28.575
 49
19.05
 74
     0
 49
-3.174999999999999
 74
     0
 49
3.174999999999999
 74
     0
 49
-3.174999999999999
 74
     0
  0
LTYPE
  5
23
330
5
100
AcDbSymbolTableRecord
100
AcDbLinetypeTableRecord
  2
HIDDEN2
 70
     0
  3
Hidden (.5x) _ _ _ _ _ _ _ _ _ _ _ _ _ _ _ _ _
 72
    65
 73
     2
 40
4.762499999999999
 49
3.174999999999999
 74
     0
 49
-1.587499999999999
 74
     0
  0
LTYPE
  5
24
330
5
100
AcDbSymbolTableRecord
100
AcDbLinetypeTableRecord
  2
PHANTOM2
 70
     0
  3
Phantom (.5x) ___ _ _ ___ _ _ ___ _ _ ___ _ _
 72
    65
 73
     6
 40
31.75
 49
15.875
 74
     0
 49
-3.174999999999999
 74
     0
 49
3.174999999999999
 74
     0
 49
-3.174999999999999
 74
     0
 49
3.174999999999999
 74
     0
 49
-3.174999999999999
 74
     0
  0
ENDTAB
  0
TABLE
  2
LAYER
  5
2
102
{ACAD_XDICTIONARY
360
1349
102
}
330
0
100
AcDbSymbolTable
 70
    21
  0
LAYER
  5
E
330
2
100
AcDbSymbolTableRecord
100
AcDbLayerTableRecord
  2
0
 70
     0
 62
     7
  6
CONTINUOUS
370
    -3
390
1241
  0
LAYER
  5
25
330
2
100
AcDbSymbolTableRecord
100
AcDbLayerTableRecord
  2
外形線
 70
     0
 62
     7
  6
CONTINUOUS
370
    -3
390
1241
  0
LAYER
  5
26
330
2
100
AcDbSymbolTableRecord
100
AcDbLayerTableRecord
  2
寸法線
 70
     0
 62
     2
  6
CONTINUOUS
370
    -3
390
1241
  0
LAYER
  5
27
330
2
100
AcDbSymbolTableRecord
100
AcDbLayerTableRecord
  2
中心線
 70
     0
 62
     4
  6
CENTER2
370
    -3
390
1241
  0
LAYER
  5
28
330
2
100
AcDbSymbolTableRecord
100
AcDbLayerTableRecord
  2
隠れ線
 70
     0
 62
     6
  6
HIDDEN2
370
    -3
390
1241
  0
LAYER
  5
29
330
2
100
AcDbSymbolTableRecord
100
AcDbLayerTableRecord
  2
想像線
 70
     0
 62
     1
  6
PHANTOM2
370
    -3
390
1241
  0
LAYER
  5
2A
330
2
100
AcDbSymbolTableRecord
100
AcDbLayerTableRecord
  2
ﾊｯﾁﾝｸ
 70
     0
 62
     6
  6
CONTINUOUS
370
    -3
390
1241
  0
LAYER
  5
2B
330
2
100
AcDbSymbolTableRecord
100
AcDbLayerTableRecord
  2
文字
 70
     0
 62
     6
  6
CONTINUOUS
370
    -3
390
1241
  0
LAYER
  5
2C
330
2
100
AcDbSymbolTableRecord
100
AcDbLayerTableRecord
  2
目盛
 70
     0
 62
    72
  6
CONTINUOUS
370
    -3
390
1241
  0
LAYER
  5
53
330
2
100
AcDbSymbolTableRecord
100
AcDbLayerTableRecord
  2
DEFPOINTS
 70
     0
 62
     7
  6
CONTINUOUS
290
     0
370
    -3
390
1241
  0
LAYER
  5
A5
330
2
100
AcDbSymbolTableRecord
100
AcDbLayerTableRecord
  2
C
 70
     0
 62
     7
  6
CONTINUOUS
370
    -3
390
1241
  0
LAYER
  5
2AF
330
2
100
AcDbSymbolTableRecord
100
AcDbLayerTableRecord
  2
握り
 70
     0
 62
     3
  6
CONTINUOUS
370
    -3
390
1241
  0
LAYER
  5
A0D
330
2
100
AcDbSymbolTableRecord
100
AcDbLayerTableRecord
  2
ROGO
 70
     0
 62
     6
  6
CONTINUOUS
370
    -3
390
1241
  0
LAYER
  5
1292
330
2
100
AcDbSymbolTableRecord
100
AcDbLayerTableRecord
  2
隠れ線2
 70
     0
 62
     1
  6
HIDDEN2
370
    -3
390
1241
  0
ENDTAB
  0
TABLE
  2
STYLE
  5
3
330
0
100
AcDbSymbolTable
 70
     7
  0
STYLE
  5
F
330
3
100
AcDbSymbolTableRecord
100
AcDbTextStyleTableRecord
  2
STANDARD
 70
     0
 40
0.0
 41
1.0
 50
0.0
 71
     0
 42
2.5
  3
txt
  4

  0
STYLE
  5
3F
330
3
100
AcDbSymbolTableRecord
100
AcDbTextStyleTableRecord
  2
STYLE3
 70
     0
 40
0.0
 41
1.0
 50
0.0
 71
     0
 42
3.0
  3
romans.shx
  4
bigfont.shx
  0
ENDTAB
  0
TABLE
  2
VIEW
  5
6
330
0
100
AcDbSymbolTable
 70
     0
  0
ENDTAB
  0
TABLE
  2
UCS
  5
7
330
0
100
AcDbSymbolTable
 70
     0
  0
ENDTAB
  0
TABLE
  2
APPID
  5
9
330
0
100
AcDbSymbolTable
 70
     2
  0
APPID
  5
10
330
9
100
AcDbSymbolTableRecord
100
AcDbRegAppTableRecord
  2
ACAD
 70
     0
  0
APPID
  5
1297
330
9
100
AcDbSymbolTableRecord
100
AcDbRegAppTableRecord
  2
ACAD_PSEXT
 70
     0
  0
ENDTAB
  0
TABLE
  2
DIMSTYLE
  5
A
330
0
100
AcDbSymbolTable
 70
    16
100
AcDbDimStyleTable
 71
     1
340
8F
  0
DIMSTYLE
105
1D
330
A
100
AcDbSymbolTableRecord
100
AcDbDimStyleTableRecord
  2
STANDARD
 70
     0
 41
2.5
 42
0.625
 43
3.75
 44
1.25
 73
     0
 74
     0
 77
     1
 78
     8
140
2.5
141
2.5
143
0.0394
147
0.625
171
     4
172
     1
273
     8
274
     4
277
     6
340
F
  0
DIMSTYLE
105
8F
102
{ACAD_REACTORS
330
106C
330
10A4
330
10B1
102
}
330
A
100
AcDbSymbolTableRecord
100
AcDbDimStyleTableRecord
  2
STYLE3
 70
     0
 41
2.5
 42
0.0
 43
3.75
 44
1.25
 73
     0
 74
     0
 77
     1
 78
     8
140
2.5
141
2.5
143
0.0394
147
0.625
171
     4
172
     1
173
     1
176
     2
177
     2
178
     6
271
     1
273
     8
274
     4
340
3F
341
45
343
45
344
45
  0
ENDTAB
  0
TABLE
  2
BLOCK_RECORD
  5
1
330
0
100
AcDbSymbolTable
 70
     6
  0
BLOCK_RECORD
  5
18
102
{ACAD_XDICTIONARY
360
12D9
102
}
330
1
100
AcDbSymbolTableRecord
100
AcDbBlockTableRecord
  2
*MODEL_SPACE
340
1248
  0
BLOCK_RECORD
  5
15
330
1
100
AcDbSymbolTableRecord
100
AcDbBlockTableRecord
  2
*PAPER_SPACE
340
1249
  0
BLOCK_RECORD
  5
45
330
1
100
AcDbSymbolTableRecord
100
AcDbBlockTableRecord
  2
_OPEN
340
0
102
{BLKREFS
331
10B6
331
10B7
331
10C8
331
112E
331
112F
331
114E
331
1180
331
1181
331
109D
331
109E
331
10AA
331
10AB
331
12D6
331
12D7
331
1373
331
1374
102
}
  0
BLOCK_RECORD
  5
105E
330
1
100
AcDbSymbolTableRecord
100
AcDbBlockTableRecord
  2
*D1
340
0
  0
BLOCK_RECORD
  5
1099
330
1
100
AcDbSymbolTableRecord
100
AcDbBlockTableRecord
  2
*D2
340
0
  0
BLOCK_RECORD
  5
10A5
330
1
100
AcDbSymbolTableRecord
100
AcDbBlockTableRecord
  2
*D3
340
0
  0
ENDTAB
  0
ENDSEC
  0
SECTION
  2
BLOCKS
  0
BLOCK
  5
19
330
18
100
AcDbEntity
  8
0
100
AcDbBlockBegin
  2
*MODEL_SPACE
 70
     0
 10
0.0
 20
0.0
 30
0.0
  3
*MODEL_SPACE
  1

  0
ENDBLK
  5
1A
330
18
100
AcDbEntity
  8
0
100
AcDbBlockEnd
  0
BLOCK
  5
16
330
15
100
AcDbEntity
 67
     1
  8
0
100
AcDbBlockBegin
  2
*PAPER_SPACE
 70
     0
 10
0.0
 20
0.0
 30
0.0
  3
*PAPER_SPACE
  1

  0
ENDBLK
  5
17
330
15
100
AcDbEntity
 67
     1
  8
0
100
AcDbBlockEnd
  0
BLOCK
  5
46
330
45
100
AcDbEntity
  8
0
100
AcDbBlockBegin
  2
_OPEN
 70
     0
 10
0.0
 20
0.0
 30
0.0
  3
_OPEN
  1

  0
LINE
  5
47
330
45
100
AcDbEntity
  8
0
  6
ByBlock
 62
     0
100
AcDbLine
 10
-1.0
 20
0.1666666666666666
 30
0.0
 11
0.0
 21
0.0
 31
0.0
  0
LINE
  5
48
330
45
100
AcDbEntity
  8
0
  6
ByBlock
 62
     0
100
AcDbLine
 10
0.0
 20
0.0
 30
0.0
 11
-1.0
 21
-0.1666666666666666
 31
0.0
  0
LINE
  5
49
330
45
100
AcDbEntity
  8
0
  6
ByBlock
 62
     0
100
AcDbLine
 10
0.0
 20
0.0
 30
0.0
 11
-1.0
 21
0.0
 31
0.0
  0
ENDBLK
  5
4A
330
45
100
AcDbEntity
  8
0
100
AcDbBlockEnd
  0
BLOCK
  5
105F
330
105E
100
AcDbEntity
  8
0
100
AcDbBlockBegin
  2
*D1
 70
     1
 10
0.0
 20
0.0
 30
0.0
  3
*D1
  1

  0
LINE
  5
136E
330
105E
100
AcDbEntity
  8
外形線
 62
     2
370
    -2
100
AcDbLine
 10
167.7772748953772
 20
83.69528976610864
 30
0.0
 11
167.7772748953772
 21
98.94421970904524
 31
0.0
  0
LINE
  5
136F
330
105E
100
AcDbEntity
  8
外形線
 62
     2
370
    -2
100
AcDbLine
 10
170.7734630014914
 20
83.54410500239302
 30
0.0
 11
170.7734630014914
 21
98.94421970904524
 31
0.0
  0
LINE
  5
1370
330
105E
100
AcDbEntity
  8
外形線
 62
     2
370
    -2
100
AcDbLine
 10
165.2772748953772
 20
97.69421970904524
 30
0.0
 11
162.7772748953772
 21
97.69421970904524
 31
0.0
  0
LINE
  5
1371
330
105E
100
AcDbEntity
  8
外形線
 62
     2
370
    -2
100
AcDbLine
 10
173.2734630014914
 20
97.69421970904524
 30
0.0
 11
175.7734630014914
 21
97.69421970904524
 31
0.0
  0
LINE
  5
1372
330
105E
100
AcDbEntity
  8
外形線
 62
     2
370
    -2
100
AcDbLine
 10
167.7772748953772
 20
97.69421970904524
 30
0.0
 11
170.7734630014914
 21
97.69421970904524
 31
0.0
  0
INSERT
  5
1373
330
105E
100
AcDbEntity
  8
外形線
 62
     2
370
    -2
100
AcDbBlockReference
  2
_OPEN
 10
167.7772748953772
 20
97.69421970904524
 30
0.0
 41
2.5
 42
2.5
 43
2.5
  0
INSERT
  5
1374
330
105E
100
AcDbEntity
  8
外形線
 62
     2
370
    -2
100
AcDbBlockReference
  2
_OPEN
 10
170.7734630014914
 20
97.69421970904524
 30
0.0
 41
2.5
 42
2.5
 43
2.5
 50
180.0
  0
MTEXT
  5
1375
330
105E
100
AcDbEntity
  8
外形線
 62
     6
100
AcDbMText
 10
169.2753689484343
 20
99.56921970904524
 30
0.0
 40
2.5
 41
0.0
 71
     5
 72
     1
  1
\A1;3
  7
STYLE3
 73
     1
 44
1.0
  0
POINT
  5
1376
330
105E
100
AcDbEntity
  8
DEFPOINTS
 62
     0
100
AcDbPoint
 10
167.7772748953772
 20
83.69528976610864
 30
0.0
  0
POINT
  5
1377
330
105E
100
AcDbEntity
  8
DEFPOINTS
 62
     0
100
AcDbPoint
 10
170.7734630014914
 20
83.54410500239302
 30
0.0
  0
POINT
  5
1378
330
105E
100
AcDbEntity
  8
DEFPOINTS
 62
     0
100
AcDbPoint
 10
170.7734630014914
 20
97.69421970904524
 30
0.0
  0
ENDBLK
  5
106B
330
105E
100
AcDbEntity
  8
0
100
AcDbBlockEnd
  0
BLOCK
  5
109A
330
1099
100
AcDbEntity
  8
0
100
AcDbBlockBegin
  2
*D2
 70
     1
 10
0.0
 20
0.0
 30
0.0
  3
*D2
  1

  0
LINE
  5
109B
330
1099
100
AcDbEntity
  8
0
  6
ByBlock
 62
     2
100
AcDbLine
 10
726.2754528548757
 20
135.8378898667694
 30
0.0
 11
726.2754528548757
 21
51.08358667117297
 31
0.0
  0
LINE
  5
109C
330
1099
100
AcDbEntity
  8
0
  6
ByBlock
 62
     2
100
AcDbLine
 10
628.7754528548758
 20
52.33358667117297
 30
0.0
 11
723.7754528548757
 21
52.33358667117297
 31
0.0
  0
INSERT
  5
109D
330
1099
100
AcDbEntity
  8
0
  6
ByBlock
 62
     2
100
AcDbBlockReference
  2
_OPEN
 10
626.2754528548757
 20
52.33358667117297
 30
0.0
 41
2.5
 42
2.5
 43
2.5
 50
180.0
  0
INSERT
  5
109E
330
1099
100
AcDbEntity
  8
0
  6
ByBlock
 62
     2
100
AcDbBlockReference
  2
_OPEN
 10
726.2754528548757
 20
52.33358667117297
 30
0.0
 41
2.5
 42
2.5
 43
2.5
  0
MTEXT
  5
109F
330
1099
100
AcDbEntity
  8
0
  6
ByBlock
 62
     6
100
AcDbMText
 10
676.2754528548757
 20
54.20858667117297
 30
0.0
 40
2.5
 41
0.0
 71
     5
 72
     1
  1
\A1;100
  7
STYLE3
 73
     1
 44
1.0
  0
POINT
  5
10A0
330
1099
100
AcDbEntity
  8
DEFPOINTS
  6
ByBlock
 62
     0
100
AcDbPoint
 10
626.2754528548757
 20
135.8378898667694
 30
0.0
  0
POINT
  5
10A1
330
1099
100
AcDbEntity
  8
DEFPOINTS
  6
ByBlock
 62
     0
100
AcDbPoint
 10
726.2754528548757
 20
135.8378898667694
 30
0.0
  0
POINT
  5
10A2
330
1099
100
AcDbEntity
  8
DEFPOINTS
  6
ByBlock
 62
     0
100
AcDbPoint
 10
726.2754528548757
 20
52.33358667117297
 30
0.0
  0
ENDBLK
  5
10A3
330
1099
100
AcDbEntity
  8
0
100
AcDbBlockEnd
  0
BLOCK
  5
10A6
330
10A5
100
AcDbEntity
  8
0
100
AcDbBlockBegin
  2
*D3
 70
     1
 10
0.0
 20
0.0
 30
0.0
  3
*D3
  1

  0
LINE
  5
10A7
330
10A5
100
AcDbEntity
  8
0
  6
ByBlock
 62
     2
100
AcDbLine
 10
721.2754528548757
 20
164.5378898667694
 30
0.0
 11
750.6354816645284
 21
164.5378898667694
 31
0.0
  0
LINE
  5
10A8
330
10A5
100
AcDbEntity
  8
0
  6
ByBlock
 62
     2
100
AcDbLine
 10
721.2754528548757
 20
134.5378898667694
 30
0.0
 11
750.6354816645284
 21
134.5378898667694
 31
0.0
  0
LINE
  5
10A9
330
10A5
100
AcDbEntity
  8
0
  6
ByBlock
 62
     2
100
AcDbLine
 10
749.3854816645284
 20
162.0378898667694
 30
0.0
 11
749.3854816645284
 21
137.0378898667694
 31
0.0
  0
INSERT
  5
10AA
330
10A5
100
AcDbEntity
  8
0
  6
ByBlock
 62
     2
100
AcDbBlockReference
  2
_OPEN
 10
749.3854816645284
 20
164.5378898667694
 30
0.0
 41
2.5
 42
2.5
 43
2.5
 50
90.0
  0
INSERT
  5
10AB
330
10A5
100
AcDbEntity
  8
0
  6
ByBlock
 62
     2
100
AcDbBlockReference
  2
_OPEN
 10
749.3854816645284
 20
134.5378898667694
 30
0.0
 41
2.5
 42
2.5
 43
2.5
 50
270.0
  0
MTEXT
  5
10AC
330
10A5
100
AcDbEntity
  8
0
  6
ByBlock
 62
     6
100
AcDbMText
 10
747.5104816645284
 20
149.5378898667694
 30
0.0
 40
2.5
 41
0.0
 71
     5
 72
     1
  1
\A1;30
  7
STYLE3
 11
0.0000000000000001
 21
1.0
 31
0.0
 73
     1
 44
1.0
  0
POINT
  5
10AD
330
10A5
100
AcDbEntity
  8
DEFPOINTS
  6
ByBlock
 62
     0
100
AcDbPoint
 10
721.2754528548757
 20
164.5378898667694
 30
0.0
  0
POINT
  5
10AE
330
10A5
100
AcDbEntity
  8
DEFPOINTS
  6
ByBlock
 62
     0
100
AcDbPoint
 10
721.2754528548757
 20
134.5378898667694
 30
0.0
  0
POINT
  5
10AF
330
10A5
100
AcDbEntity
  8
DEFPOINTS
  6
ByBlock
 62
     0
100
AcDbPoint
 10
749.3854816645284
 20
134.5378898667694
 30
0.0
  0
ENDBLK
  5
10B0
330
10A5
100
AcDbEntity
  8
0
100
AcDbBlockEnd
  0
ENDSEC
  0
SECTION
  2
ENTITIES
  0
LWPOLYLINE
  5
1A0
330
18
100
AcDbEntity
  8
C
100
AcDbPolyline
 90
        5
 70
     0
 43
0.8
 10
68.49884144071018
 20
281.7245359674232
 10
745.8855568077258
 20
281.7245359674232
 10
745.8855568077258
 20
7.25
 10
68.49884144071018
 20
7.250000000000014
 10
68.49884144071018
 20
281.7245359674232
  0
LINE
  5
1F2
330
18
100
AcDbEntity
  8
中心線
100
AcDbLine
 10
93.98792311336626
 20
149.5378898667695
 30
0.0
 11
728.4687839350949
 21
149.5378898667694
 31
0.0
  0
LINE
  5
1F3
330
18
100
AcDbEntity
  8
中心線
 48
0.9
100
AcDbLine
 10
546.2754528548757
 20
177.3655940348395
 30
0.0
 11
546.2754528548757
 21
121.7101856986994
 31
0.0
  0
ARC
  5
201
330
18
100
AcDbEntity
  8
外形線
100
AcDbCircle
 10
500.6754528548757
 20
175.2378898667694
 30
0.0
 40
34.0
100
AcDbArc
 50
336.7920609833417
 51
60.91800066894536
  0
ARC
  5
208
330
18
100
AcDbEntity
  8
外形線
100
AcDbCircle
 10
630.6484528548757
 20
200.2878898667694
 30
0.0
 40
35.0
100
AcDbArc
 50
227.0019699235006
 51
260.0817283557065
  0
ARC
  5
20B
330
18
100
AcDbEntity
  8
外形線
100
AcDbCircle
 10
612.2754528548758
 20
180.5028898667694
 30
0.0
 40
8.0
100
AcDbArc
 50
160.9197291399402
 51
226.6062843961421
  0
ARC
  5
219
330
18
100
AcDbEntity
  8
外形線
100
AcDbCircle
 10
624.725629620834
 20
107.6817497877761
 30
0.0
 40
26.0
100
AcDbArc
 50
90.92122643160889
 51
146.4722332890005
  0
ARC
  5
222
330
18
100
AcDbEntity
  8
外形線
100
AcDbCircle
 10
546.2754528548757
 20
149.5378898667694
 30
0.0
 40
63.0
100
AcDbArc
 50
326.8838154010261
 51
331.9893006641163
  0
LINE
  5
227
330
18
100
AcDbEntity
  8
外形線
100
AcDbLine
 10
601.8956271208679
 20
119.9507944598077
 30
0.0
 11
603.051555272631
 21
122.0426167932381
 31
0.0
  0
LINE
  5
229
330
18
100
AcDbEntity
  8
外形線
100
AcDbLine
 10
531.9241981869481
 20
161.8395349240431
 30
0.0
 11
530.0115930468731
 21
157.2506626590691
 31
0.0
  0
ARC
  5
22D
330
18
100
AcDbEntity
  8
外形線
100
AcDbCircle
 10
119.4754528548757
 20
196.7378898667694
 30
0.0
 40
14.0
100
AcDbArc
 50
85.16772685283591
 51
179.9999999999994
  0
ARC
  5
230
330
18
100
AcDbEntity
  8
外形線
100
AcDbCircle
 10
122.4754528548757
 20
198.8378898667694
 30
0.0
 40
30.0
100
AcDbArc
 50
89.99999999999991
 51
188.6299952107037
  0
ARC
  5
231
330
18
100
AcDbEntity
  8
外形線
100
AcDbCircle
 10
101.2754528548757
 20
151.8378898667694
 30
0.0
 40
2.299999999999999
100
AcDbArc
 50
187.3319423421018
 51
0.0000000000063722
  0
LINE
  5
232
330
18
100
AcDbEntity
  8
外形線
100
AcDbLine
 10
105.4754528548757
 20
196.7378898667694
 30
0.0
 11
103.5754528548757
 21
151.8378898667694
 31
0.0
  0
LINE
  5
234
330
18
100
AcDbEntity
  8
外形線
100
AcDbLine
 10
92.81511400885483
 20
194.3363013094686
 30
0.0
 11
99.00441037512798
 21
151.4740684061861
 31
0.0
  0
LINE
  5
236
102
{ACAD_REACTORS
330
1335
102
}
330
18
100
AcDbEntity
  8
外形線
100
AcDbLine
 10
500.6754528548799
 20
209.2378898667694
 30
0.0
 11
120.6548006360902
 21
210.6881278149532
 31
0.0
  0
ARC
  5
244
330
18
100
AcDbEntity
  8
外形線
100
AcDbCircle
 10
546.2754528548757
 20
149.5378898667694
 30
0.0
 40
18.0
100
AcDbArc
 50
53.4604004266669
 51
208.0724869358529
  0
ARC
  5
249
330
18
100
AcDbEntity
  8
外形線
100
AcDbCircle
 10
625.6698861138424
 20
236.6867987066896
 30
0.0
 40
100.0
100
AcDbArc
 50
226.6245400745261
 51
248.0081949250812
  0
ARC
  5
24E
330
18
100
AcDbEntity
  8
外形線
100
AcDbCircle
 10
617.2754528548757
 20
129.1378898667694
 30
0.0
 40
23.0
100
AcDbArc
 50
180.0
 51
258.5713058776322
  0
LINE
  5
24F
330
18
100
AcDbEntity
  8
外形線
100
AcDbLine
 10
594.2754528548757
 20
129.1378898667694
 30
0.0
 11
594.2754528548757
 21
141.7426595492445
 31
0.0
  0
ARC
  5
252
330
18
100
AcDbEntity
  8
外形線
100
AcDbCircle
 10
654.0254528548757
 20
73.5378898667694
 30
0.0
 40
3.0
100
AcDbArc
 50
222.1435401799266
 51
28.83497883135365
  0
ARC
  5
255
330
18
100
AcDbEntity
  8
外形線
100
AcDbCircle
 10
614.0406939131753
 20
43.49786876928305
 30
0.0
 40
47.0
100
AcDbArc
 50
36.85736942333619
 51
145.6394801758071
  0
ARC
  5
258
330
18
100
AcDbEntity
  8
外形線
100
AcDbCircle
 10
601.4606939131754
 20
44.60786876928307
 30
0.0
 40
63.0
100
AcDbArc
 50
28.82665072824841
 51
79.70664619254285
  0
LINE
  5
25F
330
18
100
AcDbEntity
  8
外形線
100
AcDbLine
 10
651.646859190515
 20
71.6896465268743
 30
0.0
 11
651.8010543852917
 21
71.52491906506558
 31
0.0
  0
ARC
  5
262
330
18
100
AcDbEntity
  8
外形線
100
AcDbCircle
 10
508.4766150146174
 20
115.8871428140555
 30
0.0
 40
81.0
100
AcDbArc
 50
263.1517786991631
 51
325.6061585098962
  0
ARC
  5
267
330
18
100
AcDbEntity
  8
外形線
100
AcDbCircle
 10
486.2754528548757
 20
117.5378898667694
 30
0.0
 40
50.0
100
AcDbArc
 50
271.5462983986611
 51
288.6065690808425
  0
ARC
  5
268
330
18
100
AcDbEntity
  8
中心線
 48
0.35
100
AcDbCircle
 10
546.2754528548757
 20
149.5378898667694
 30
0.0
 40
50.0
100
AcDbArc
 50
281.9317274423515
 51
306.3560075706332
  0
ARC
  5
26F
330
18
100
AcDbEntity
  8
外形線
100
AcDbCircle
 10
546.2754528548757
 20
149.5378898667694
 30
0.0
 40
46.85
100
AcDbArc
 50
288.9999999999997
 51
296.194951070918
  0
ARC
  5
270
330
18
100
AcDbEntity
  8
外形線
100
AcDbCircle
 10
546.2754528548757
 20
149.5378898667694
 30
0.0
 40
53.15
100
AcDbArc
 50
288.9999999999997
 51
296.4276504677829
  0
ARC
  5
271
330
18
100
AcDbEntity
  8
外形線
100
AcDbCircle
 10
562.5538605777332
 20
102.2619610868035
 30
0.0
 40
3.149999999999999
100
AcDbArc
 50
108.999999999995
 51
289.0000000000041
  0
ARC
  5
29D
330
18
100
AcDbEntity
  8
外形線
100
AcDbCircle
 10
101.2754528548757
 20
146.7378898667694
 30
0.0
 40
2.799999999999999
100
AcDbArc
 50
355.5376507838618
 51
180.0000000000151
  0
ARC
  5
2A2
330
18
100
AcDbEntity
  8
外形線
100
AcDbCircle
 10
116.7754528548757
 20
100.5378898667694
 30
0.0
 40
14.5
100
AcDbArc
 50
190.2973237167332
 51
256.4771312814344
  0
ARC
  5
2A5
330
18
100
AcDbEntity
  8
外形線
100
AcDbCircle
 10
117.2754528548757
 20
97.53788986676941
 30
0.0
 40
28.0
100
AcDbArc
 50
178.1832136015018
 51
255.2128655967068
  0
LINE
  5
2A7
330
18
100
AcDbEntity
  8
外形線
100
AcDbLine
 10
98.47545285487582
 20
146.7378898667694
 30
0.0
 11
89.28952804019457
 21
98.4255904170733
 31
0.0
  0
LINE
  5
2AB
330
18
100
AcDbEntity
  8
外形線
100
AcDbLine
 10
104.0669651485771
 20
146.5200387384397
 30
0.0
 11
102.508998718674
 21
97.94592413018031
 31
0.0
  0
LINE
  5
2AD
102
{ACAD_REACTORS
330
133C
102
}
330
18
100
AcDbEntity
  8
外形線
100
AcDbLine
 10
113.3848678071225
 20
86.43987819724836
 30
0.0
 11
487.6246889682227
 21
67.55609756286698
 31
0.0
  0
LINE
  5
2AE
102
{ACAD_REACTORS
330
133C
102
}
330
18
100
AcDbEntity
  8
外形線
100
AcDbLine
 10
498.8182052786125
 20
35.46503688930719
 30
0.0
 11
110.1290505377183
 21
70.46522959997393
 31
0.0
  0
ARC
  5
311
330
18
100
AcDbEntity
  8
握り
100
AcDbCircle
 10
721.2754528548757
 20
163.0378898667694
 30
0.0
 40
1.5
100
AcDbArc
 50
27.81813928465427
 51
152.1818607153457
  0
ARC
  5
312
330
18
100
AcDbEntity
  8
握り
100
AcDbCircle
 10
711.2754528548757
 20
163.0378898667694
 30
0.0
 40
1.5
100
AcDbArc
 50
27.81813928465427
 51
152.1818607153457
  0
ARC
  5
313
330
18
100
AcDbEntity
  8
握り
100
AcDbCircle
 10
701.2754528548757
 20
163.0378898667694
 30
0.0
 40
1.5
100
AcDbArc
 50
27.81813928465427
 51
152.1818607153457
  0
ARC
  5
314
330
18
100
AcDbEntity
  8
握り
100
AcDbCircle
 10
691.2754528548758
 20
163.0378898667694
 30
0.0
 40
1.5
100
AcDbArc
 50
27.81813928465427
 51
152.1818607153457
  0
ARC
  5
315
330
18
100
AcDbEntity
  8
握り
100
AcDbCircle
 10
681.2754528548757
 20
163.0378898667694
 30
0.0
 40
1.5
100
AcDbArc
 50
27.81813928465427
 51
152.1818607153457
  0
ARC
  5
316
330
18
100
AcDbEntity
  8
握り
100
AcDbCircle
 10
671.2754528548757
 20
163.0378898667694
 30
0.0
 40
1.5
100
AcDbArc
 50
27.81813928465427
 51
152.1818607153457
  0
ARC
  5
317
330
18
100
AcDbEntity
  8
握り
100
AcDbCircle
 10
661.2754528548757
 20
163.0378898667694
 30
0.0
 40
1.5
100
AcDbArc
 50
27.81813928465427
 51
152.1818607153457
  0
ARC
  5
318
330
18
100
AcDbEntity
  8
握り
100
AcDbCircle
 10
651.2754528548757
 20
163.0378898667694
 30
0.0
 40
1.5
100
AcDbArc
 50
27.81813928465427
 51
152.1818607153457
  0
ARC
  5
319
330
18
100
AcDbEntity
  8
握り
100
AcDbCircle
 10
641.2754528548758
 20
163.0378898667694
 30
0.0
 40
1.5
100
AcDbArc
 50
27.81813928465427
 51
152.1818607153457
  0
ARC
  5
31A
330
18
100
AcDbEntity
  8
握り
100
AcDbCircle
 10
631.2754528548757
 20
163.0378898667694
 30
0.0
 40
1.5
100
AcDbArc
 50
27.81813928465427
 51
152.1818607153457
  0
ARC
  5
31B
330
18
100
AcDbEntity
  8
握り
100
AcDbCircle
 10
626.7754528548757
 20
163.2378898667694
 30
0.0
 40
0.5
100
AcDbArc
 50
90.0
 51
180.0
  0
ARC
  5
31C
330
18
100
AcDbEntity
  8
握り
100
AcDbCircle
 10
725.7754528548757
 20
163.2378898667694
 30
0.0
 40
0.5
100
AcDbArc
 50
0.0
 51
90.0
  0
LINE
  5
31D
330
18
100
AcDbEntity
  8
握り
100
AcDbLine
 10
662.6021027710179
 20
142.8845898667694
 30
0.0
 11
669.9488029387334
 21
142.8845898667694
 31
0.0
  0
LINE
  5
31E
330
18
100
AcDbEntity
  8
握り
100
AcDbLine
 10
662.602102771018
 20
156.1911898667695
 30
0.0
 11
669.9488029387338
 21
156.1911898667695
 31
0.0
  0
LINE
  5
31F
330
18
100
AcDbEntity
  8
握り
100
AcDbLine
 10
652.6021027710179
 20
145.5378898667694
 30
0.0
 11
699.9488029387334
 21
145.5378898667694
 31
0.0
  0
LINE
  5
320
330
18
100
AcDbEntity
  8
握り
100
AcDbLine
 10
652.6021027710179
 20
153.5378898667694
 30
0.0
 11
699.9488029387337
 21
153.5378898667694
 31
0.0
  0
LINE
  5
321
330
18
100
AcDbEntity
  8
握り
100
AcDbLine
 10
662.6021027710179
 20
135.3378898667694
 30
0.0
 11
669.9488029387335
 21
135.3378898667694
 31
0.0
  0
LINE
  5
322
330
18
100
AcDbEntity
  8
握り
100
AcDbLine
 10
662.6021027710179
 20
163.7378898667694
 30
0.0
 11
669.9488029387335
 21
163.7378898667694
 31
0.0
  0
LINE
  5
323
330
18
100
AcDbEntity
  8
握り
100
AcDbLine
 10
662.6021027710178
 20
142.8845898667694
 30
0.0
 11
662.6021027710179
 21
135.3378898667694
 31
0.0
  0
LINE
  5
324
330
18
100
AcDbEntity
  8
握り
100
AcDbLine
 10
659.9488029387336
 20
142.8845898667694
 30
0.0
 11
659.9488029387336
 21
135.3378898667694
 31
0.0
  0
LINE
  5
325
330
18
100
AcDbEntity
  8
握り
100
AcDbLine
 10
652.6021027710179
 20
142.8845898667694
 30
0.0
 11
652.6021027710179
 21
135.3378898667694
 31
0.0
  0
LINE
  5
326
330
18
100
AcDbEntity
  8
握り
100
AcDbLine
 10
649.9488029387336
 20
163.7378898667694
 30
0.0
 11
649.9488029387336
 21
135.3378898667694
 31
0.0
  0
LINE
  5
327
330
18
100
AcDbEntity
  8
握り
100
AcDbLine
 10
642.6021027710179
 20
163.7378898667694
 30
0.0
 11
642.6021027710179
 21
135.3378898667694
 31
0.0
  0
LINE
  5
328
330
18
100
AcDbEntity
  8
握り
100
AcDbLine
 10
639.9488029387335
 20
163.7378898667694
 30
0.0
 11
639.9488029387335
 21
135.3378898667694
 31
0.0
  0
LINE
  5
329
330
18
100
AcDbEntity
  8
握り
100
AcDbLine
 10
629.9488029387336
 20
163.7378898667694
 30
0.0
 11
629.9488029387336
 21
135.3378898667694
 31
0.0
  0
LINE
  5
32A
330
18
100
AcDbEntity
  8
握り
100
AcDbLine
 10
632.6021027710179
 20
163.7378898667694
 30
0.0
 11
632.6021027710179
 21
135.3378898667694
 31
0.0
  0
LINE
  5
32B
330
18
100
AcDbEntity
  8
握り
100
AcDbLine
 10
626.2754528548757
 20
163.2378898667694
 30
0.0
 11
626.2754528548757
 21
135.8378898667694
 31
0.0
  0
LINE
  5
32C
330
18
100
AcDbEntity
  8
握り
100
AcDbLine
 10
626.7754528548757
 20
135.3378898667694
 30
0.0
 11
629.9488029387337
 21
135.3378898667695
 31
0.0
  0
ARC
  5
32D
330
18
100
AcDbEntity
  8
握り
100
AcDbCircle
 10
626.7754528548757
 20
135.8378898667694
 30
0.0
 40
0.5
100
AcDbArc
 50
180.0
 51
270.0
  0
LINE
  5
32E
330
18
100
AcDbEntity
  8
握り
100
AcDbLine
 10
642.6021027710179
 20
135.3378898667694
 30
0.0
 11
649.9488029387336
 21
135.3378898667694
 31
0.0
  0
LINE
  5
32F
330
18
100
AcDbEntity
  8
握り
100
AcDbLine
 10
632.6021027710179
 20
135.3378898667695
 30
0.0
 11
639.9488029387336
 21
135.3378898667694
 31
0.0
  0
ARC
  5
330
330
18
100
AcDbEntity
  8
握り
100
AcDbCircle
 10
631.2754528548757
 20
136.0378898667694
 30
0.0
 40
1.5
100
AcDbArc
 50
207.8181392846543
 51
332.1818607153458
  0
ARC
  5
331
330
18
100
AcDbEntity
  8
握り
100
AcDbCircle
 10
641.2754528548758
 20
136.0378898667694
 30
0.0
 40
1.5
100
AcDbArc
 50
207.8181392846543
 51
332.1818607153458
  0
LINE
  5
332
330
18
100
AcDbEntity
  8
握り
100
AcDbLine
 10
652.6021027710179
 20
135.3378898667694
 30
0.0
 11
659.9488029387336
 21
135.3378898667694
 31
0.0
  0
ARC
  5
333
330
18
100
AcDbEntity
  8
握り
100
AcDbCircle
 10
651.2754528548757
 20
136.0378898667694
 30
0.0
 40
1.5
100
AcDbArc
 50
207.8181392846543
 51
332.1818607153458
  0
ARC
  5
334
330
18
100
AcDbEntity
  8
握り
100
AcDbCircle
 10
661.2754528548757
 20
136.0378898667694
 30
0.0
 40
1.5
100
AcDbArc
 50
207.8181392846543
 51
332.1818607153458
  0
LINE
  5
335
330
18
100
AcDbEntity
  8
握り
100
AcDbLine
 10
626.7754528548757
 20
163.7378898667694
 30
0.0
 11
629.9488029387336
 21
163.7378898667694
 31
0.0
  0
LINE
  5
337
330
18
100
AcDbEntity
  8
握り
100
AcDbLine
 10
652.6021027710179
 20
153.5378898667694
 30
0.0
 11
652.6021027710179
 21
145.5378898667694
 31
0.0
  0
LINE
  5
338
330
18
100
AcDbEntity
  8
握り
100
AcDbLine
 10
652.6021027710179
 20
142.8845898667694
 30
0.0
 11
659.9488029387337
 21
142.8845898667694
 31
0.0
  0
LINE
  5
339
330
18
100
AcDbEntity
  8
握り
100
AcDbLine
 10
642.6021027710179
 20
163.7378898667694
 30
0.0
 11
649.9488029387336
 21
163.7378898667694
 31
0.0
  0
LINE
  5
33A
330
18
100
AcDbEntity
  8
握り
100
AcDbLine
 10
632.6021027710179
 20
163.7378898667694
 30
0.0
 11
639.9488029387336
 21
163.7378898667694
 31
0.0
  0
LINE
  5
33B
330
18
100
AcDbEntity
  8
握り
100
AcDbLine
 10
662.6021027710179
 20
163.7378898667694
 30
0.0
 11
662.602102771018
 21
156.1911898667694
 31
0.0
  0
LINE
  5
33C
330
18
100
AcDbEntity
  8
握り
100
AcDbLine
 10
659.9488029387336
 20
163.7378898667694
 30
0.0
 11
659.9488029387337
 21
156.1911898667694
 31
0.0
  0
LINE
  5
33D
330
18
100
AcDbEntity
  8
握り
100
AcDbLine
 10
652.6021027710179
 20
163.7378898667694
 30
0.0
 11
652.6021027710179
 21
156.1911898667695
 31
0.0
  0
LINE
  5
33E
330
18
100
AcDbEntity
  8
握り
100
AcDbLine
 10
652.602102771018
 20
156.1911898667694
 30
0.0
 11
659.9488029387337
 21
156.1911898667695
 31
0.0
  0
LINE
  5
33F
330
18
100
AcDbEntity
  8
握り
100
AcDbLine
 10
652.6021027710179
 20
163.7378898667694
 30
0.0
 11
659.9488029387336
 21
163.7378898667694
 31
0.0
  0
LINE
  5
340
330
18
100
AcDbEntity
  8
握り
100
AcDbLine
 10
692.6021027710179
 20
142.8845898667694
 30
0.0
 11
692.6021027710179
 21
135.3378898667694
 31
0.0
  0
LINE
  5
341
330
18
100
AcDbEntity
  8
握り
100
AcDbLine
 10
689.9488029387336
 20
142.8845898667694
 30
0.0
 11
689.9488029387335
 21
135.3378898667694
 31
0.0
  0
LINE
  5
342
330
18
100
AcDbEntity
  8
握り
100
AcDbLine
 10
682.6021027710179
 20
142.8845898667694
 30
0.0
 11
682.6021027710179
 21
135.3378898667694
 31
0.0
  0
LINE
  5
343
330
18
100
AcDbEntity
  8
握り
100
AcDbLine
 10
679.9488029387336
 20
142.8845898667694
 30
0.0
 11
679.9488029387336
 21
135.3378898667694
 31
0.0
  0
LINE
  5
344
330
18
100
AcDbEntity
  8
握り
100
AcDbLine
 10
672.6021027710178
 20
142.8845898667694
 30
0.0
 11
672.6021027710179
 21
135.3378898667694
 31
0.0
  0
LINE
  5
345
330
18
100
AcDbEntity
  8
握り
100
AcDbLine
 10
669.9488029387334
 20
142.8845898667694
 30
0.0
 11
669.9488029387335
 21
135.3378898667694
 31
0.0
  0
LINE
  5
346
330
18
100
AcDbEntity
  8
握り
100
AcDbLine
 10
699.9488029387334
 20
142.8845898667694
 30
0.0
 11
699.9488029387336
 21
135.3378898667694
 31
0.0
  0
LINE
  5
347
330
18
100
AcDbEntity
  8
握り
100
AcDbLine
 10
722.6021027710179
 20
163.7378898667694
 30
0.0
 11
722.6021027710179
 21
135.3378898667694
 31
0.0
  0
LINE
  5
348
330
18
100
AcDbEntity
  8
握り
100
AcDbLine
 10
719.9488029387335
 20
163.7378898667694
 30
0.0
 11
719.9488029387335
 21
135.3378898667694
 31
0.0
  0
LINE
  5
349
330
18
100
AcDbEntity
  8
握り
100
AcDbLine
 10
712.6021027710179
 20
163.7378898667694
 30
0.0
 11
712.6021027710179
 21
135.3378898667694
 31
0.0
  0
LINE
  5
34A
330
18
100
AcDbEntity
  8
握り
100
AcDbLine
 10
709.9488029387336
 20
163.7378898667694
 30
0.0
 11
709.9488029387336
 21
135.3378898667694
 31
0.0
  0
LINE
  5
34B
330
18
100
AcDbEntity
  8
握り
100
AcDbLine
 10
702.6021027710179
 20
163.7378898667694
 30
0.0
 11
702.6021027710179
 21
135.3378898667694
 31
0.0
  0
LINE
  5
34C
330
18
100
AcDbEntity
  8
握り
100
AcDbLine
 10
726.2754528548757
 20
163.2378898667694
 30
0.0
 11
726.2754528548757
 21
135.8378898667694
 31
0.0
  0
LINE
  5
34D
330
18
100
AcDbEntity
  8
握り
100
AcDbLine
 10
692.602102771018
 20
135.3378898667694
 30
0.0
 11
699.9488029387334
 21
135.3378898667694
 31
0.0
  0
ARC
  5
34E
330
18
100
AcDbEntity
  8
握り
100
AcDbCircle
 10
681.2754528548757
 20
136.0378898667694
 30
0.0
 40
1.5
100
AcDbArc
 50
207.8181392846543
 51
332.1818607153458
  0
ARC
  5
34F
330
18
100
AcDbEntity
  8
握り
100
AcDbCircle
 10
671.2754528548757
 20
136.0378898667694
 30
0.0
 40
1.5
100
AcDbArc
 50
207.8181392846543
 51
332.1818607153458
  0
LINE
  5
350
330
18
100
AcDbEntity
  8
握り
100
AcDbLine
 10
672.6021027710181
 20
135.3378898667694
 30
0.0
 11
679.9488029387336
 21
135.3378898667694
 31
0.0
  0
LINE
  5
351
330
18
100
AcDbEntity
  8
握り
100
AcDbLine
 10
682.6021027710179
 20
135.3378898667694
 30
0.0
 11
689.9488029387335
 21
135.3378898667694
 31
0.0
  0
ARC
  5
352
330
18
100
AcDbEntity
  8
握り
100
AcDbCircle
 10
691.2754528548758
 20
136.0378898667694
 30
0.0
 40
1.5
100
AcDbArc
 50
207.8181392846543
 51
332.1818607153458
  0
LINE
  5
353
330
18
100
AcDbEntity
  8
握り
100
AcDbLine
 10
712.602102771018
 20
135.3378898667694
 30
0.0
 11
719.9488029387335
 21
135.3378898667694
 31
0.0
  0
LINE
  5
354
330
18
100
AcDbEntity
  8
握り
100
AcDbLine
 10
702.6021027710178
 20
135.3378898667694
 30
0.0
 11
709.9488029387337
 21
135.3378898667694
 31
0.0
  0
ARC
  5
355
330
18
100
AcDbEntity
  8
握り
100
AcDbCircle
 10
701.2754528548757
 20
136.0378898667694
 30
0.0
 40
1.5
100
AcDbArc
 50
207.8181392846543
 51
332.1818607153458
  0
ARC
  5
356
330
18
100
AcDbEntity
  8
握り
100
AcDbCircle
 10
711.2754528548757
 20
136.0378898667694
 30
0.0
 40
1.5
100
AcDbArc
 50
207.8181392846543
 51
332.1818607153458
  0
LINE
  5
357
330
18
100
AcDbEntity
  8
握り
100
AcDbLine
 10
722.6021027710179
 20
135.3378898667694
 30
0.0
 11
725.7754528548757
 21
135.3378898667694
 31
0.0
  0
ARC
  5
358
330
18
100
AcDbEntity
  8
握り
100
AcDbCircle
 10
721.2754528548757
 20
136.0378898667694
 30
0.0
 40
1.5
100
AcDbArc
 50
207.8181392846543
 51
332.1818607153458
  0
ARC
  5
359
330
18
100
AcDbEntity
  8
握り
100
AcDbCircle
 10
725.7754528548757
 20
135.8378898667694
 30
0.0
 40
0.5
100
AcDbArc
 50
270.0
 51
0.0
  0
LINE
  5
35A
330
18
100
AcDbEntity
  8
握り
100
AcDbLine
 10
692.6021027710179
 20
142.8845898667694
 30
0.0
 11
699.9488029387334
 21
142.8845898667694
 31
0.0
  0
LINE
  5
35B
330
18
100
AcDbEntity
  8
握り
100
AcDbLine
 10
692.602102771018
 20
156.1911898667695
 30
0.0
 11
699.9488029387334
 21
156.1911898667695
 31
0.0
  0
LINE
  5
35C
330
18
100
AcDbEntity
  8
握り
100
AcDbLine
 10
692.602102771018
 20
163.7378898667694
 30
0.0
 11
699.9488029387334
 21
163.7378898667694
 31
0.0
  0
LINE
  5
35D
330
18
100
AcDbEntity
  8
握り
100
AcDbLine
 10
672.6021027710177
 20
142.8845898667694
 30
0.0
 11
679.9488029387336
 21
142.8845898667694
 31
0.0
  0
LINE
  5
35E
330
18
100
AcDbEntity
  8
握り
100
AcDbLine
 10
682.6021027710179
 20
142.8845898667694
 30
0.0
 11
689.9488029387335
 21
142.8845898667694
 31
0.0
  0
LINE
  5
35F
330
18
100
AcDbEntity
  8
握り
100
AcDbLine
 10
679.9488029387336
 20
163.7378898667694
 30
0.0
 11
679.9488029387337
 21
156.1911898667695
 31
0.0
  0
LINE
  5
360
330
18
100
AcDbEntity
  8
握り
100
AcDbLine
 10
672.6021027710179
 20
163.7378898667694
 30
0.0
 11
672.6021027710181
 21
156.1911898667694
 31
0.0
  0
LINE
  5
361
330
18
100
AcDbEntity
  8
握り
100
AcDbLine
 10
669.9488029387335
 20
163.7378898667694
 30
0.0
 11
669.9488029387337
 21
156.1911898667694
 31
0.0
  0
LINE
  5
362
330
18
100
AcDbEntity
  8
握り
100
AcDbLine
 10
672.6021027710179
 20
156.1911898667695
 30
0.0
 11
679.9488029387337
 21
156.1911898667695
 31
0.0
  0
LINE
  5
363
330
18
100
AcDbEntity
  8
握り
100
AcDbLine
 10
672.6021027710181
 20
163.7378898667694
 30
0.0
 11
679.9488029387336
 21
163.7378898667695
 31
0.0
  0
LINE
  5
364
330
18
100
AcDbEntity
  8
握り
100
AcDbLine
 10
692.6021027710179
 20
163.7378898667694
 30
0.0
 11
692.602102771018
 21
156.1911898667695
 31
0.0
  0
LINE
  5
365
330
18
100
AcDbEntity
  8
握り
100
AcDbLine
 10
689.9488029387335
 20
163.7378898667694
 30
0.0
 11
689.9488029387336
 21
156.1911898667695
 31
0.0
  0
LINE
  5
366
330
18
100
AcDbEntity
  8
握り
100
AcDbLine
 10
682.6021027710179
 20
163.7378898667694
 30
0.0
 11
682.602102771018
 21
156.1911898667695
 31
0.0
  0
LINE
  5
367
330
18
100
AcDbEntity
  8
握り
100
AcDbLine
 10
682.602102771018
 20
156.1911898667695
 30
0.0
 11
689.9488029387335
 21
156.1911898667695
 31
0.0
  0
LINE
  5
368
330
18
100
AcDbEntity
  8
握り
100
AcDbLine
 10
682.6021027710179
 20
163.7378898667695
 30
0.0
 11
689.9488029387335
 21
163.7378898667694
 31
0.0
  0
LINE
  5
369
330
18
100
AcDbEntity
  8
握り
100
AcDbLine
 10
699.9488029387337
 20
153.5378898667694
 30
0.0
 11
699.9488029387334
 21
145.5378898667694
 31
0.0
  0
LINE
  5
36A
330
18
100
AcDbEntity
  8
握り
100
AcDbLine
 10
712.602102771018
 20
163.7378898667694
 30
0.0
 11
719.9488029387335
 21
163.7378898667694
 31
0.0
  0
LINE
  5
36B
330
18
100
AcDbEntity
  8
握り
100
AcDbLine
 10
699.9488029387336
 20
163.7378898667694
 30
0.0
 11
699.9488029387336
 21
156.1911898667695
 31
0.0
  0
LINE
  5
36C
330
18
100
AcDbEntity
  8
握り
100
AcDbLine
 10
702.6021027710178
 20
163.7378898667694
 30
0.0
 11
709.9488029387337
 21
163.7378898667694
 31
0.0
  0
LINE
  5
36D
330
18
100
AcDbEntity
  8
握り
100
AcDbLine
 10
722.6021027710179
 20
163.7378898667694
 30
0.0
 11
725.7754528548757
 21
163.7378898667694
 31
0.0
  0
LINE
  5
370
330
18
100
AcDbEntity
  8
外形線
100
AcDbLine
 10
626.2754528548757
 20
163.8408752976719
 30
0.0
 11
626.2754528548757
 21
163.2378898667694
 31
0.0
  0
LINE
  5
371
330
18
100
AcDbEntity
  8
外形線
100
AcDbLine
 10
626.2754528548757
 20
135.8378898667694
 30
0.0
 11
626.2754528548757
 21
135.6781306410112
 31
0.0
  0
MTEXT
  5
A68
330
18
100
AcDbEntity
  8
DEFPOINTS
  6
Continuous
100
AcDbMText
 10
1068.968345407897
 20
112.232364494773
 30
0.0
 40
0.5
 41
0.0
 71
     4
 72
     1
  1
\A1;
 73
     1
 44
1.0
  0
LINE
  5
A69
102
{ACAD_REACTORS
330
AA7
102
}
330
18
100
AcDbEntity
  8
ROGO
 62
     4
100
AcDbLine
 10
656.8753466381078
 20
150.7868427594011
 30
0.0
 11
659.1789156566581
 21
150.7868427594011
 31
0.0
  0
LINE
  5
A6A
102
{ACAD_REACTORS
330
AA5
330
AA6
330
AA7
102
}
330
18
100
AcDbEntity
  8
ROGO
 62
     4
100
AcDbLine
 10
655.4249887236898
 20
147.8555873523926
 30
0.0
 11
675.2666705337238
 21
147.8555873523926
 31
0.0
  0
LINE
  5
A6B
102
{ACAD_REACTORS
330
AA7
102
}
330
18
100
AcDbEntity
  8
ROGO
 62
     4
100
AcDbLine
 10
656.8753466381078
 20
150.7868427594011
 30
0.0
 11
655.4249887236898
 21
147.8555873523925
 31
0.0
  0
SPLINE
  5
A6C
102
{ACAD_REACTORS
330
AA7
102
}
330
18
100
AcDbEntity
  8
ROGO
 62
     4
100
AcDbSpline
210
0.0
220
0.0
230
1.0
 70
     8
 71
     3
 72
    18
 73
    14
 74
     0
 42
0.0000000001
 43
0.0000000001
 40
0.1087402787915014
 40
0.1087402787915014
 40
0.1087402787915014
 40
0.1087402787915014
 40
0.5992371417938475
 40
1.083176791562496
 40
1.448211145705696
 40
1.714037220764907
 40
2.164002567013297
 40
2.740236056362883
 40
3.395137510199602
 40
4.071816045172726
 40
4.784906178399433
 40
5.506895915094292
 40
6.060470601257719
 40
6.060470601257719
 40
6.060470601257719
 40
6.060470601257719
 10
659.1789156566581
 20
150.7868427594012
 30
0.0
 10
659.2527149961381
 20
150.7597965381902
 30
0.0
 10
659.3978406359247
 20
150.7026166934541
 30
0.0
 10
659.574962400992
 20
150.5721133937521
 30
0.0
 10
659.6715569637416
 20
150.421457997791
 30
0.0
 10
659.7644701188031
 20
150.2730140802155
 30
0.0
 10
659.7774731452473
 20
150.0600461742777
 30
0.0
 10
659.7561733094656
 20
149.790803123461
 30
0.0
 10
659.6186634939283
 20
149.5098757841457
 30
0.0
 10
659.3979521523835
 20
149.264165740143
 30
0.0
 10
659.1239236193936
 20
149.0675026253692
 30
0.0
 10
658.8349510792403
 20
148.9131271446615
 30
0.0
 10
658.6283934263065
 20
148.9115889723635
 30
0.0
 10
658.5387506878856
 20
148.9109214300333
 30
0.0
  0
LINE
  5
A6D
102
{ACAD_REACTORS
330
AA7
102
}
330
18
100
AcDbEntity
  8
ROGO
 62
     4
100
AcDbLine
 10
658.5387506883272
 20
148.9109214300333
 30
0.0
 11
657.2650245904968
 21
148.9109214300333
 31
0.0
  0
LINE
  5
A6E
102
{ACAD_REACTORS
330
AA7
102
}
330
18
100
AcDbEntity
  8
ROGO
 62
     4
100
AcDbLine
 10
657.7855421457362
 20
150.0614186005249
 30
0.0
 11
657.5598310080827
 21
149.5625304792601
 31
0.0
  0
SPLINE
  5
A6F
102
{ACAD_REACTORS
330
AA7
102
}
330
18
100
AcDbEntity
  8
ROGO
 62
     4
100
AcDbSpline
210
0.0
220
0.0
230
1.0
 70
     8
 71
     3
 72
    15
 73
    11
 74
     9
 42
0.0000000001
 43
0.0000000001
 44
0.0000000001
 40
0.0
 40
0.0
 40
0.0
 40
0.0
 40
0.2199578613106558
 40
0.3202465475123651
 40
0.4340808827708432
 40
0.5116301246390825
 40
0.6342750549531187
 40
0.7077360179241323
 40
0.8337709579493811
 40
0.8757826314379425
 40
0.8757826314379425
 40
0.8757826314379425
 40
0.8757826314379425
 10
658.3655235730183
 20
150.0614186005249
 30
0.0
 10
658.4481354802456
 20
150.0617970071569
 30
0.0
 10
658.5684138731858
 20
150.0623479463993
 30
0.0
 10
658.6341863822781
 20
149.9135632265002
 30
0.0
 10
658.6047040076587
 20
149.817769077018
 30
0.0
 10
658.5676422599102
 20
149.7194183423784
 30
0.0
 10
658.502145757707
 20
149.6525875348508
 30
0.0
 10
658.414239858285
 20
149.5882182010835
 30
0.0
 10
658.3311645824912
 20
149.5804260049987
 30
0.0
 10
658.2771334411017
 20
149.5661095857783
 30
0.0
 10
658.2636256492885
 20
149.56253047926
 30
0.0
 11
658.3655235730183
 21
150.0614186005249
 31
0.0
 11
658.5795093886308
 21
150.0105115138965
 31
0.0
 11
658.6202686753093
 21
149.9188790898888
 31
0.0
 11
658.5998893249368
 21
149.8068838312296
 31
0.0
 11
658.5693200064113
 21
149.7356139099498
 31
0.0
 11
658.487801433054
 21
149.6439814859421
 31
0.0
 11
658.4266627960029
 21
149.6032558166394
 31
0.0
 11
658.3043849359671
 21
149.5727118965857
 31
0.0
 11
658.2636256492885
 21
149.56253047926
 31
0.0
  0
LINE
  5
A70
102
{ACAD_REACTORS
330
AA7
102
}
330
18
100
AcDbEntity
  8
ROGO
 62
     4
100
AcDbLine
 10
658.3655235730183
 20
150.0614186005249
 30
0.0
 11
657.7855421457362
 21
150.0614186005249
 31
0.0
  0
LINE
  5
A71
102
{ACAD_REACTORS
330
AA7
102
}
330
18
100
AcDbEntity
  8
ROGO
 62
     4
100
AcDbLine
 10
658.2636256492886
 20
149.56253047926
 30
0.0
 11
657.5598310080827
 21
149.5625304792601
 31
0.0
  0
LINE
  5
A72
102
{ACAD_REACTORS
330
AA5
330
AA7
102
}
330
18
100
AcDbEntity
  8
ROGO
 62
     4
100
AcDbLine
 10
657.2650245904968
 20
148.9109214300333
 30
0.0
 11
656.7875615178848
 21
147.8555873523926
 31
0.0
  0
LINE
  5
A73
102
{ACAD_REACTORS
330
AA2
102
}
330
18
100
AcDbEntity
  8
ROGO
 62
     4
100
AcDbLine
 10
660.5398070755231
 20
150.7868427594011
 30
0.0
 11
659.6116186480088
 21
148.9109214300333
 31
0.0
  0
LINE
  5
A74
102
{ACAD_REACTORS
330
AA2
102
}
330
18
100
AcDbEntity
  8
ROGO
 62
     4
100
AcDbLine
 10
663.0770687162146
 20
150.7868427594011
 30
0.0
 11
662.8644484365938
 21
150.3571251441267
 31
0.0
  0
LINE
  5
A75
102
{ACAD_REACTORS
330
AA2
102
}
330
18
100
AcDbEntity
  8
ROGO
 62
     4
100
AcDbLine
 10
659.6116186480087
 20
148.9109214300333
 30
0.0
 11
662.1488802887001
 21
148.9109214300333
 31
0.0
  0
LINE
  5
A76
102
{ACAD_REACTORS
330
AA2
102
}
330
18
100
AcDbEntity
  8
ROGO
 62
     4
100
AcDbLine
 10
661.5309278334252
 20
150.3571251441267
 30
0.0
 11
661.364685196173
 21
150.0211393681494
 31
0.0
  0
LINE
  5
A77
102
{ACAD_REACTORS
330
AA2
102
}
330
18
100
AcDbEntity
  8
ROGO
 62
     4
100
AcDbLine
 10
661.5309278334252
 20
150.3571251441267
 30
0.0
 11
662.8644484365938
 21
150.3571251441267
 31
0.0
  0
LINE
  5
A78
102
{ACAD_REACTORS
330
AA2
102
}
330
18
100
AcDbEntity
  8
ROGO
 62
     4
100
AcDbLine
 10
661.364685196173
 20
150.0211393681494
 30
0.0
 11
662.6982057993416
 21
150.0211393681494
 31
0.0
  0
LINE
  5
A79
102
{ACAD_REACTORS
330
AA2
102
}
330
18
100
AcDbEntity
  8
ROGO
 62
     4
100
AcDbLine
 10
661.0279692701156
 20
149.3406174300333
 30
0.0
 11
662.3614898732841
 21
149.3406174300333
 31
0.0
  0
LINE
  5
A7A
102
{ACAD_REACTORS
330
AA2
102
}
330
18
100
AcDbEntity
  8
ROGO
 62
     4
100
AcDbLine
 10
661.1942189452819
 20
149.6766174300333
 30
0.0
 11
662.5277395484504
 21
149.6766174300334
 31
0.0
  0
LINE
  5
A7B
102
{ACAD_REACTORS
330
AA2
102
}
330
18
100
AcDbEntity
  8
ROGO
 62
     4
100
AcDbLine
 10
662.6982057993416
 20
150.0211393681494
 30
0.0
 11
662.5277395484504
 21
149.6766174300333
 31
0.0
  0
LINE
  5
A7C
102
{ACAD_REACTORS
330
AA2
102
}
330
18
100
AcDbEntity
  8
ROGO
 62
     4
100
AcDbLine
 10
662.3614898732841
 20
149.3406174300333
 30
0.0
 11
662.1488802887001
 21
148.9109214300333
 31
0.0
  0
LINE
  5
A7D
102
{ACAD_REACTORS
330
AA2
102
}
330
18
100
AcDbEntity
  8
ROGO
 62
     4
100
AcDbLine
 10
661.1942189452819
 20
149.6766174300333
 30
0.0
 11
661.0279692701156
 21
149.3406174300333
 31
0.0
  0
LINE
  5
A7E
102
{ACAD_REACTORS
330
AAB
102
}
330
18
100
AcDbEntity
  8
ROGO
 62
     4
100
AcDbLine
 10
663.8120605236398
 20
150.7868427594011
 30
0.0
 11
662.4592971949267
 21
148.9109214300333
 31
0.0
  0
LINE
  5
A7F
102
{ACAD_REACTORS
330
AAB
102
}
330
18
100
AcDbEntity
  8
ROGO
 62
     4
100
AcDbLine
 10
664.4893860331136
 20
150.2854013637557
 30
0.0
 11
664.0274335526661
 21
149.6447966897288
 31
0.0
  0
LINE
  5
A80
102
{ACAD_REACTORS
330
AAB
102
}
330
18
100
AcDbEntity
  8
ROGO
 62
     4
100
AcDbLine
 10
663.7557796081731
 20
149.2680852444487
 30
0.0
 11
664.9413181635793
 21
149.2680852444487
 31
0.0
  0
LINE
  5
A81
102
{ACAD_REACTORS
330
AAB
102
}
330
18
100
AcDbEntity
  8
ROGO
 62
     4
100
AcDbLine
 10
664.0274335526662
 20
149.6447966897288
 30
0.0
 11
664.7739680127214
 21
149.6447966897288
 31
0.0
  0
LINE
  5
A82
102
{ACAD_REACTORS
330
AAB
102
}
330
18
100
AcDbEntity
  8
ROGO
 62
     4
100
AcDbLine
 10
663.7557796081731
 20
149.2680852444487
 30
0.0
 11
663.4982218402004
 21
148.9109214300333
 31
0.0
  0
LINE
  5
A83
102
{ACAD_REACTORS
330
AAB
102
}
330
18
100
AcDbEntity
  8
ROGO
 62
     4
100
AcDbLine
 10
662.4592971949267
 20
148.9109214300333
 30
0.0
 11
663.4982218402004
 21
148.9109214300333
 31
0.0
  0
LINE
  5
A84
102
{ACAD_REACTORS
330
AAB
102
}
330
18
100
AcDbEntity
  8
ROGO
 62
     4
100
AcDbLine
 10
663.8120605236398
 20
150.7868427594011
 30
0.0
 11
665.3126369275989
 21
150.7868427594012
 31
0.0
  0
LINE
  5
A85
102
{ACAD_REACTORS
330
AAB
102
}
330
18
100
AcDbEntity
  8
ROGO
 62
     4
100
AcDbLine
 10
666.1459955138609
 20
148.9109214300333
 30
0.0
 11
665.0999844822493
 21
148.9109214300333
 31
0.0
  0
LINE
  5
A86
102
{ACAD_REACTORS
330
AA3
102
}
330
18
100
AcDbEntity
  8
ROGO
 62
     4
100
AcDbLine
 10
666.6597375352977
 20
148.9109214300333
 30
0.0
 11
668.2754932710186
 21
148.9109214300333
 31
0.0
  0
LINE
  5
A87
102
{ACAD_REACTORS
330
AA3
102
}
330
18
100
AcDbEntity
  8
ROGO
 62
     4
100
AcDbLine
 10
669.2108882324603
 20
150.7868427594011
 30
0.0
 11
668.8628606602594
 21
150.0888783990913
 31
0.0
  0
LINE
  5
A88
102
{ACAD_REACTORS
330
AA3
102
}
330
18
100
AcDbEntity
  8
ROGO
 62
     4
100
AcDbLine
 10
667.6889079126149
 20
150.0888783990913
 30
0.0
 11
668.8628606602594
 21
150.0888783990914
 31
0.0
  0
LINE
  5
A89
102
{ACAD_REACTORS
330
AA3
102
}
330
18
100
AcDbEntity
  8
ROGO
 62
     4
100
AcDbLine
 10
667.423972842171
 20
149.6088783990913
 30
0.0
 11
668.6235171577027
 21
149.6088783990913
 31
0.0
  0
SPLINE
  5
A8A
102
{ACAD_REACTORS
330
AA3
102
}
330
18
100
AcDbEntity
  8
ROGO
 62
     4
100
AcDbSpline
210
0.0
220
0.0
230
1.0
 70
     8
 71
     3
 72
    26
 73
    22
 74
    20
 42
0.0000000001
 43
0.0000000001
 44
0.0000000001
 40
0.0
 40
0.0
 40
0.0
 40
0.0
 40
0.3403136209417982
 40
0.5681272389515285
 40
0.7323994099697205
 40
0.8550561247336995
 40
1.014148321321441
 40
1.130270115356424
 40
1.339959009791993
 40
1.51064275524734
 40
1.626735051276207
 40
1.740569491433658
 40
1.944197174100535
 40
2.08818624971473
 40
2.165735491582943
 40
2.275891898886396
 40
2.355438312276676
 40
2.470674802865087
 40
2.535888688806229
 40
2.677801419664447
 40
2.74260000535895
 40
2.74260000535895
 40
2.74260000535895
 40
2.74260000535895
 10
667.3322648865942
 20
150.7868427594011
 30
0.0
 10
667.2167571855104
 20
150.7799513718796
 30
0.0
 10
667.0239260225589
 20
150.7684467340272
 30
0.0
 10
666.8121985786852
 20
150.6398245856579
 30
0.0
 10
666.6570746580991
 20
150.5650493208832
 30
0.0
 10
666.5464404660646
 20
150.4633987188551
 30
0.0
 10
666.4653451548253
 20
150.3584010723961
 30
0.0
 10
666.3631092909717
 20
150.2332971465026
 30
0.0
 10
666.2797388653916
 20
150.0876186872677
 30
0.0
 10
666.2372833760585
 20
149.9270556286056
 30
0.0
 10
666.1996767065534
 20
149.7990859392358
 30
0.0
 10
666.1717869708779
 20
149.6564804208181
 30
0.0
 10
666.1788829091817
 20
149.502416294929
 30
0.0
 10
666.1890446175882
 20
149.3593294220665
 30
0.0
 10
666.2344141746225
 20
149.2571868178855
 30
0.0
 10
666.2860820637511
 20
149.1844683222722
 30
0.0
 10
666.3493486864009
 20
149.104376961274
 30
0.0
 10
666.4185762068545
 20
149.0513327122308
 30
0.0
 10
666.4758330170124
 20
148.9552394906014
 30
0.0
 10
666.5760591316731
 20
148.9429773024925
 30
0.0
 10
666.6397668374957
 20
148.9185718883826
 30
0.0
 10
666.6597375352978
 20
148.9109214300333
 30
0.0
 11
667.3322648865942
 21
150.7868427594011
 31
0.0
 11
666.9960012109458
 21
150.7344967849815
 31
0.0
 11
666.7922047775531
 21
150.6326829436481
 31
0.0
 11
666.6495475671447
 21
150.551231936966
 31
0.0
 11
666.5578396115679
 21
150.4697805983606
 31
0.0
 11
666.4559416878383
 21
150.3476039223758
 31
0.0
 11
666.3846130826341
 21
150.255971498368
 31
0.0
 11
666.2827145729709
 21
150.0727063184292
 31
0.0
 11
666.2317659040727
 21
149.9098039731417
 31
0.0
 11
666.2011965855472
 21
149.7978087144825
 31
0.0
 11
666.1808166492411
 21
149.6858134558234
 31
0.0
 11
666.1808166492411
 21
149.4821857731565
 31
0.0
 11
666.2011965855472
 21
149.3396462625204
 31
0.0
 11
666.2317659040727
 21
149.2683763412406
 31
0.0
 11
666.2929045411238
 21
149.1767439172328
 31
0.0
 11
666.3438537959555
 21
149.1156554132787
 31
0.0
 11
666.4253717833791
 21
149.0342044065966
 31
0.0
 11
666.4661310700578
 21
148.9832973199682
 31
0.0
 11
666.5985988982465
 21
148.9323905652632
 31
0.0
 11
666.6597375352978
 21
148.9109214300333
 31
0.0
  0
SPLINE
  5
A8B
102
{ACAD_REACTORS
330
AA3
102
}
330
18
100
AcDbEntity
  8
ROGO
 62
     4
100
AcDbSpline
210
0.0
220
0.0
230
1.0
 70
     8
 71
     3
 72
    16
 73
    12
 74
    10
 42
0.0000000001
 43
0.0000000001
 44
0.0000000001
 40
0.0
 40
0.0
 40
0.0
 40
0.0
 40
0.179415289375651
 40
0.2670467197814573
 40
0.3102605435414138
 40
0.3558008766977327
 40
0.4210145035340262
 40
0.4803947587045214
 40
0.5423269814405022
 40
0.6461608279443722
 40
0.74893463726327
 40
0.74893463726327
 40
0.74893463726327
 40
0.74893463726327
 10
667.688907912615
 20
150.0888783990913
 30
0.0
 10
667.62814975887
 20
150.079615408657
 30
0.0
 10
667.5377156285679
 20
150.0658281153921
 30
0.0
 10
667.4559359837239
 20
150.0010922482839
 30
0.0
 10
667.4098179421179
 20
149.9625787164032
 30
0.0
 10
667.3941283789015
 20
149.9115758675714
 30
0.0
 10
667.3519911391005
 20
149.8724135089492
 30
0.0
 10
667.3172580678472
 20
149.8185918222118
 30
0.0
 10
667.3089645977592
 20
149.7446668636987
 30
0.0
 10
667.3150521946841
 20
149.6409244506454
 30
0.0
 10
667.3877903583543
 20
149.6195238163607
 30
0.0
 10
667.4239728421711
 20
149.6088783990913
 30
0.0
 11
667.688907912615
 21
150.0888783990913
 31
0.0
 11
667.5156813836811
 21
150.0421620664521
 31
0.0
 11
667.4443527784769
 21
149.9912553117471
 31
0.0
 11
667.4137834599514
 21
149.96071105977
 31
0.0
 11
667.3934035236454
 21
149.9199853904673
 31
0.0
 11
667.3526442369668
 21
149.8690786357623
 31
0.0
 11
667.3220749184411
 21
149.8181715491339
 31
0.0
 11
667.3118849502882
 21
149.7570833771031
 31
0.0
 11
667.3322648865942
 21
149.6552692038464
 31
0.0
 11
667.4239728421711
 21
149.6088783990913
 31
0.0
  0
LINE
  5
A8C
102
{ACAD_REACTORS
330
AA3
102
}
330
18
100
AcDbEntity
  8
ROGO
 62
     4
100
AcDbLine
 10
668.6235171577026
 20
149.6088783990913
 30
0.0
 11
668.2754932710186
 21
148.9109214300333
 31
0.0
  0
LINE
  5
A8D
102
{ACAD_REACTORS
330
AA3
102
}
330
18
100
AcDbEntity
  8
ROGO
 62
     4
100
AcDbLine
 10
667.3322648865949
 20
150.7868427594012
 30
0.0
 11
669.2108882324604
 21
150.7868427594012
 31
0.0
  0
LINE
  5
A8E
102
{ACAD_REACTORS
330
AA4
102
}
330
18
100
AcDbEntity
  8
ROGO
 62
     4
100
AcDbLine
 10
672.7041229223375
 20
148.9109214300333
 30
0.0
 11
674.3198786580584
 21
148.9109214300333
 31
0.0
  0
LINE
  5
A8F
102
{ACAD_REACTORS
330
AA4
102
}
330
18
100
AcDbEntity
  8
ROGO
 62
     4
100
AcDbLine
 10
673.3766502736346
 20
150.7868427594011
 30
0.0
 11
675.2552736195002
 21
150.7868427594011
 31
0.0
  0
SPLINE
  5
A90
102
{ACAD_REACTORS
330
AA4
102
}
330
18
100
AcDbEntity
  8
ROGO
 62
     4
100
AcDbSpline
210
0.0
220
0.0
230
1.0
 70
     8
 71
     3
 72
    16
 73
    12
 74
    10
 42
0.0000000001
 43
0.0000000001
 44
0.0000000001
 40
0.0
 40
0.0
 40
0.0
 40
0.0
 40
0.179415289375651
 40
0.2670467197815069
 40
0.3102605435414031
 40
0.3558008766977729
 40
0.4210145035340397
 40
0.4803947587045349
 40
0.5423269814404783
 40
0.6461608279444264
 40
0.7489346372632355
 40
0.7489346372632355
 40
0.7489346372632355
 40
0.7489346372632355
 10
673.7332932996548
 20
150.0888783990913
 30
0.0
 10
673.6725351459099
 20
150.0796154086571
 30
0.0
 10
673.5821010156079
 20
150.0658281153921
 30
0.0
 10
673.5003213707637
 20
150.0010922482838
 30
0.0
 10
673.4542033291577
 20
149.9625787164032
 30
0.0
 10
673.4385137659411
 20
149.9115758675715
 30
0.0
 10
673.3963765261404
 20
149.8724135089491
 30
0.0
 10
673.3616434548872
 20
149.8185918222118
 30
0.0
 10
673.3533499847986
 20
149.7446668636987
 30
0.0
 10
673.359437581724
 20
149.6409244506454
 30
0.0
 10
673.432175745394
 20
149.6195238163607
 30
0.0
 10
673.4683582292108
 20
149.6088783990913
 30
0.0
 11
673.7332932996548
 21
150.0888783990913
 31
0.0
 11
673.5600667707209
 21
150.0421620664521
 31
0.0
 11
673.4887381655168
 21
149.991255311747
 31
0.0
 11
673.4581688469912
 21
149.96071105977
 31
0.0
 11
673.4377889106852
 21
149.9199853904673
 31
0.0
 11
673.3970296240066
 21
149.8690786357622
 31
0.0
 11
673.366460305481
 21
149.8181715491338
 31
0.0
 11
673.3562703373279
 21
149.7570833771031
 31
0.0
 11
673.376650273634
 21
149.6552692038463
 31
0.0
 11
673.4683582292108
 21
149.6088783990913
 31
0.0
  0
SPLINE
  5
A91
102
{ACAD_REACTORS
330
AA4
102
}
330
18
100
AcDbEntity
  8
ROGO
 62
     4
100
AcDbSpline
210
0.0
220
0.0
230
1.0
 70
     8
 71
     3
 72
    26
 73
    22
 74
    20
 42
0.0000000001
 43
0.0000000001
 44
0.0000000001
 40
0.0
 40
0.0
 40
0.0
 40
0.0
 40
0.3403136209416859
 40
0.5681272389515179
 40
0.7323994099696112
 40
0.8550561247335902
 40
1.014148321321375
 40
1.130270115356383
 40
1.339959009791972
 40
1.510642755247352
 40
1.626735051276137
 40
1.740569491433568
 40
1.944197174100445
 40
2.088186249714624
 40
2.16573549158289
 40
2.275891898886382
 40
2.355438312276662
 40
2.470674802864992
 40
2.535888688806205
 40
2.677801419664433
 40
2.742600005358819
 40
2.742600005358819
 40
2.742600005358819
 40
2.742600005358819
 10
673.376650273634
 20
150.7868427594011
 30
0.0
 10
673.2611425725503
 20
150.7799513718796
 30
0.0
 10
673.068311409599
 20
150.7684467340272
 30
0.0
 10
672.8565839657249
 20
150.639824585658
 30
0.0
 10
672.7014600451387
 20
150.5650493208831
 30
0.0
 10
672.5908258531044
 20
150.4633987188552
 30
0.0
 10
672.509730541865
 20
150.358401072396
 30
0.0
 10
672.4074946780115
 20
150.2332971465027
 30
0.0
 10
672.3241242524314
 20
150.0876186872674
 30
0.0
 10
672.2816687630984
 20
149.9270556286056
 30
0.0
 10
672.2440620935929
 20
149.7990859392358
 30
0.0
 10
672.2161723579175
 20
149.656480420818
 30
0.0
 10
672.2232682962217
 20
149.5024162949291
 30
0.0
 10
672.2334300046279
 20
149.3593294220665
 30
0.0
 10
672.2787995616622
 20
149.2571868178855
 30
0.0
 10
672.330467450791
 20
149.1844683222722
 30
0.0
 10
672.3937340734407
 20
149.104376961274
 30
0.0
 10
672.4629615938944
 20
149.0513327122308
 30
0.0
 10
672.5202184040522
 20
148.9552394906014
 30
0.0
 10
672.6204445187131
 20
148.9429773024926
 30
0.0
 10
672.6841522245353
 20
148.9185718883826
 30
0.0
 10
672.7041229223375
 20
148.9109214300333
 30
0.0
 11
673.376650273634
 21
150.7868427594011
 31
0.0
 11
673.0403865979857
 21
150.7344967849815
 31
0.0
 11
672.8365901645928
 21
150.6326829436481
 31
0.0
 11
672.6939329541846
 21
150.551231936966
 31
0.0
 11
672.6022249986077
 21
150.4697805983606
 31
0.0
 11
672.500327074878
 21
150.3476039223757
 31
0.0
 11
672.4289984696738
 21
150.255971498368
 31
0.0
 11
672.3270999600107
 21
150.0727063184291
 31
0.0
 11
672.2761512911124
 21
149.9098039731416
 31
0.0
 11
672.2455819725869
 21
149.7978087144825
 31
0.0
 11
672.2252020362809
 21
149.6858134558234
 31
0.0
 11
672.2252020362809
 21
149.4821857731565
 31
0.0
 11
672.2455819725869
 21
149.3396462625204
 31
0.0
 11
672.2761512911124
 21
149.2683763412406
 31
0.0
 11
672.3372899281636
 21
149.1767439172328
 31
0.0
 11
672.3882391829953
 21
149.1156554132787
 31
0.0
 11
672.4697571704189
 21
149.0342044065966
 31
0.0
 11
672.5105164570976
 21
148.9832973199682
 31
0.0
 11
672.6429842852864
 21
148.9323905652631
 31
0.0
 11
672.7041229223375
 21
148.9109214300333
 31
0.0
  0
LINE
  5
A92
102
{ACAD_REACTORS
330
AA4
102
}
330
18
100
AcDbEntity
  8
ROGO
 62
     4
100
AcDbLine
 10
674.6679025447424
 20
149.6088783990913
 30
0.0
 11
674.3198786580584
 21
148.9109214300333
 31
0.0
  0
LINE
  5
A93
102
{ACAD_REACTORS
330
AA4
102
}
330
18
100
AcDbEntity
  8
ROGO
 62
     4
100
AcDbLine
 10
673.4683582292107
 20
149.6088783990913
 30
0.0
 11
674.6679025447424
 21
149.6088783990913
 31
0.0
  0
LINE
  5
A94
102
{ACAD_REACTORS
330
AA4
102
}
330
18
100
AcDbEntity
  8
ROGO
 62
     4
100
AcDbLine
 10
673.7332932996547
 20
150.0888783990913
 30
0.0
 11
674.9072460472993
 21
150.0888783990913
 31
0.0
  0
LINE
  5
A95
102
{ACAD_REACTORS
330
AA4
102
}
330
18
100
AcDbEntity
  8
ROGO
 62
     4
100
AcDbLine
 10
675.2552736195002
 20
150.7868427594011
 30
0.0
 11
674.9072460472993
 21
150.0888783990913
 31
0.0
  0
LINE
  5
A96
102
{ACAD_REACTORS
330
AA6
102
}
330
18
100
AcDbEntity
  8
ROGO
 62
     4
100
AcDbLine
 10
675.6481695182461
 20
150.7868427594011
 30
0.0
 11
676.7282891503949
 21
150.7868427594011
 31
0.0
  0
LINE
  5
A97
102
{ACAD_REACTORS
330
AA5
330
AA6
102
}
330
18
100
AcDbEntity
  8
ROGO
 62
     4
100
AcDbLine
 10
675.6481695182461
 20
150.7868427594011
 30
0.0
 11
674.1865509015749
 21
147.8555873523926
 31
0.0
  0
LINE
  5
A98
102
{ACAD_REACTORS
330
AA6
102
}
330
18
100
AcDbEntity
  8
ROGO
 62
     4
100
AcDbLine
 10
676.7282891503949
 20
150.7868427594011
 30
0.0
 11
676.5687101405078
 21
150.4668093182274
 31
0.0
  0
LINE
  5
A99
102
{ACAD_REACTORS
330
AA6
102
}
330
18
100
AcDbEntity
  8
ROGO
 62
     4
100
AcDbLine
 10
676.5687101405078
 20
150.4668093182274
 30
0.0
 11
677.0744431163348
 21
150.7868427594011
 31
0.0
  0
LINE
  5
A9A
102
{ACAD_REACTORS
330
AA6
102
}
330
18
100
AcDbEntity
  8
ROGO
 62
     4
100
AcDbLine
 10
675.6481695182461
 20
148.6206781554205
 30
0.0
 11
676.0296685027685
 21
147.8555873523926
 31
0.0
  0
LINE
  5
A9B
102
{ACAD_REACTORS
330
AA6
102
}
330
18
100
AcDbEntity
  8
ROGO
 62
     4
100
AcDbLine
 10
676.3789551944329
 20
149.3212150558968
 30
0.0
 11
677.1097645027684
 21
147.8555873523926
 31
0.0
  0
LINE
  5
A9C
102
{ACAD_REACTORS
330
AA6
102
}
330
18
100
AcDbEntity
  8
ROGO
 62
     4
100
AcDbLine
 10
675.6481695182461
 20
148.6206781554205
 30
0.0
 11
675.2666705337238
 21
147.8555873523926
 31
0.0
  0
LINE
  5
A9D
102
{ACAD_REACTORS
330
AA6
102
}
330
18
100
AcDbEntity
  8
ROGO
 62
     4
100
AcDbLine
 10
676.3789551944329
 20
149.3212150558968
 30
0.0
 11
678.1545391163347
 21
150.7868427594011
 31
0.0
  0
LINE
  5
A9E
102
{ACAD_REACTORS
330
AA6
102
}
330
18
100
AcDbEntity
  8
ROGO
 62
     4
100
AcDbLine
 10
677.0744431163348
 20
150.7868427594011
 30
0.0
 11
678.1545391163347
 21
150.7868427594011
 31
0.0
  0
LINE
  5
A9F
102
{ACAD_REACTORS
330
AA6
102
}
330
18
100
AcDbEntity
  8
ROGO
 62
     4
100
AcDbLine
 10
676.0296685027685
 20
147.8555873523926
 30
0.0
 11
677.1097645027684
 21
147.8555873523926
 31
0.0
  0
LINE
  5
AA0
102
{ACAD_REACTORS
330
AA2
102
}
330
18
100
AcDbEntity
  8
ROGO
 62
     4
100
AcDbLine
 10
660.5398070755231
 20
150.7868427594011
 30
0.0
 11
663.0770687162146
 21
150.7868427594012
 31
0.0
  0
LINE
  5
AA1
102
{ACAD_REACTORS
330
AA5
102
}
330
18
100
AcDbEntity
  8
ROGO
 62
     4
100
AcDbLine
 10
656.9001152157495
 20
148.1494019328087
 30
0.0
 11
674.3330563406979
 21
148.1494019328087
 31
0.0
  0
HATCH
  5
AA2
330
18
100
AcDbEntity
  8
ROGO
 62
     4
100
AcDbHatch
 10
0.0
 20
0.0
 30
0.0
210
0.0
220
0.0
230
1.0
  2
SOLID
 70
     1
 71
     1
 91
        1
 92
        1
 93
       12
 72
     1
 10
660.5398070755231
 20
150.7868427594011
 11
663.0770687162146
 21
150.7868427594012
 72
     1
 10
663.0770687162146
 20
150.7868427594011
 11
662.8644484365938
 21
150.3571251441267
 72
     1
 10
662.8644484365938
 20
150.3571251441267
 11
661.5309278334252
 21
150.3571251441267
 72
     1
 10
661.5309278334252
 20
150.3571251441267
 11
661.364685196173
 21
150.0211393681494
 72
     1
 10
661.364685196173
 20
150.0211393681494
 11
662.6982057993416
 21
150.0211393681494
 72
     1
 10
662.6982057993416
 20
150.0211393681494
 11
662.5277395484504
 21
149.6766174300333
 72
     1
 10
662.5277395484504
 20
149.6766174300334
 11
661.1942189452819
 21
149.6766174300333
 72
     1
 10
661.1942189452819
 20
149.6766174300333
 11
661.0279692701156
 21
149.3406174300333
 72
     1
 10
661.0279692701156
 20
149.3406174300333
 11
662.3614898732841
 21
149.3406174300333
 72
     1
 10
662.3614898732841
 20
149.3406174300333
 11
662.1488802887001
 21
148.9109214300333
 72
     1
 10
662.1488802887001
 20
148.9109214300333
 11
659.6116186480087
 21
148.9109214300333
 72
     1
 10
659.6116186480088
 20
148.9109214300333
 11
660.5398070755231
 21
150.7868427594011
 97
       12
330
AA0
330
A74
330
A77
330
A76
330
A78
330
A7B
330
A7A
330
A7D
330
A79
330
A7C
330
A75
330
A73
 75
     0
 76
     1
 98
        1
 10
556.7539085345104
 20
21.07527697638499
450
        0
451
        0
460
0.0
461
0.0
452
        0
462
0.0
453
        0
470

  0
HATCH
  5
AA3
330
18
100
AcDbEntity
  8
ROGO
 62
     4
100
AcDbHatch
 10
0.0
 20
0.0
 30
0.0
210
0.0
220
0.0
230
1.0
  2
SOLID
 70
     1
 71
     1
 91
        1
 92
        5
 93
        8
 72
     1
 10
668.8628606602593
 20
150.0888783990914
 11
669.2108882324603
 21
150.7868427594012
 72
     1
 10
669.2108882324603
 20
150.7868427594012
 11
667.3322648865944
 21
150.7868427594012
 72
     4
 94
        3
 73
     0
 74
     0
 95
       26
 96
       22
 40
0.0
 40
0.0
 40
0.0
 40
0.0
 40
0.3403136209417982
 40
0.5681272389515285
 40
0.7323994099697205
 40
0.8550561247336995
 40
1.014148321321441
 40
1.130270115356424
 40
1.339959009791993
 40
1.51064275524734
 40
1.626735051276207
 40
1.740569491433658
 40
1.944197174100535
 40
2.08818624971473
 40
2.165735491582943
 40
2.275891898886396
 40
2.355438312276676
 40
2.470674802865087
 40
2.535888688806229
 40
2.677801419664447
 40
2.74260000535895
 40
2.74260000535895
 40
2.74260000535895
 40
2.74260000535895
 10
667.3322648865942
 20
150.7868427594011
 10
667.2167571855104
 20
150.7799513718796
 10
667.0239260225589
 20
150.7684467340272
 10
666.8121985786852
 20
150.6398245856579
 10
666.657074658099
 20
150.5650493208831
 10
666.5464404660647
 20
150.4633987188552
 10
666.465345154825
 20
150.3584010723961
 10
666.3631092909717
 20
150.2332971465026
 10
666.2797388653916
 20
150.0876186872676
 10
666.2372833760587
 20
149.9270556286056
 10
666.1996767065533
 20
149.7990859392358
 10
666.1717869708779
 20
149.6564804208181
 10
666.1788829091817
 20
149.502416294929
 10
666.1890446175883
 20
149.3593294220665
 10
666.2344141746225
 20
149.2571868178855
 10
666.2860820637513
 20
149.1844683222723
 10
666.3493486864008
 20
149.104376961274
 10
666.4185762068547
 20
149.0513327122309
 10
666.4758330170124
 20
148.9552394906014
 10
666.5760591316731
 20
148.9429773024926
 10
666.6397668374957
 20
148.9185718883826
 10
666.6597375352978
 20
148.9109214300333
 72
     1
 10
666.6597375352978
 20
148.9109214300333
 11
668.2754932710184
 21
148.9109214300333
 72
     1
 10
668.2754932710184
 20
148.9109214300333
 11
668.6235171577025
 21
149.6088783990914
 72
     1
 10
668.6235171577025
 20
149.6088783990914
 11
667.4239728421711
 21
149.6088783990913
 72
     4
 94
        3
 73
     0
 74
     0
 95
       16
 96
       12
 40
0.0
 40
0.0
 40
0.0
 40
0.0
 40
0.1027738093188978
 40
0.2066076558227677
 40
0.2685398785587486
 40
0.3279201337292438
 40
0.3931337605655372
 40
0.4386740937218561
 40
0.4818879174818126
 40
0.5695193478876189
 40
0.74893463726327
 40
0.74893463726327
 40
0.74893463726327
 40
0.74893463726327
 10
667.4239728421711
 20
149.6088783990913
 10
667.3877903583543
 20
149.6195238163607
 10
667.3150521946843
 20
149.6409244506454
 10
667.308964597759
 20
149.7446668636987
 10
667.3172580678472
 20
149.8185918222118
 10
667.3519911391005
 20
149.8724135089492
 10
667.3941283789014
 20
149.9115758675714
 10
667.4098179421179
 20
149.9625787164032
 10
667.4559359837237
 20
150.0010922482839
 10
667.5377156285682
 20
150.0658281153921
 10
667.6281497588701
 20
150.079615408657
 10
667.688907912615
 20
150.0888783990913
 72
     1
 10
667.688907912615
 20
150.0888783990913
 11
668.8628606602593
 21
150.0888783990914
 97
        8
330
A8D
330
A8A
330
A86
330
A8C
330
A89
330
A8B
330
A88
330
A87
 75
     0
 76
     1
 47
0.0514683685270805
 98
        1
 10
667.9892890254612
 20
150.3692406789055
450
        0
451
        0
460
0.0
461
0.0
452
        0
462
0.0
453
        0
470

  0
HATCH
  5
AA4
330
18
100
AcDbEntity
  8
ROGO
 62
     4
100
AcDbHatch
 10
0.0
 20
0.0
 30
0.0
210
0.0
220
0.0
230
1.0
  2
SOLID
 70
     1
 71
     1
 91
        1
 92
        5
 93
        8
 72
     4
 94
        3
 73
     0
 74
     0
 95
       26
 96
       22
 40
0.0
 40
0.0
 40
0.0
 40
0.0
 40
0.3403136209416859
 40
0.5681272389515179
 40
0.7323994099696112
 40
0.8550561247335902
 40
1.014148321321375
 40
1.130270115356383
 40
1.339959009791972
 40
1.510642755247352
 40
1.626735051276137
 40
1.740569491433568
 40
1.944197174100445
 40
2.088186249714624
 40
2.16573549158289
 40
2.275891898886382
 40
2.355438312276662
 40
2.470674802864992
 40
2.535888688806205
 40
2.677801419664433
 40
2.742600005358819
 40
2.742600005358819
 40
2.742600005358819
 40
2.742600005358819
 10
673.376650273634
 20
150.7868427594011
 10
673.2611425725504
 20
150.7799513718796
 10
673.0683114095991
 20
150.7684467340272
 10
672.8565839657249
 20
150.639824585658
 10
672.701460045139
 20
150.5650493208831
 10
672.5908258531044
 20
150.4633987188552
 10
672.509730541865
 20
150.358401072396
 10
672.4074946780115
 20
150.2332971465027
 10
672.3241242524315
 20
150.0876186872674
 10
672.2816687630986
 20
149.9270556286056
 10
672.2440620935929
 20
149.7990859392357
 10
672.2161723579176
 20
149.656480420818
 10
672.2232682962214
 20
149.5024162949291
 10
672.2334300046279
 20
149.3593294220664
 10
672.2787995616624
 20
149.2571868178855
 10
672.330467450791
 20
149.1844683222722
 10
672.3937340734405
 20
149.104376961274
 10
672.4629615938945
 20
149.0513327122308
 10
672.5202184040522
 20
148.9552394906014
 10
672.620444518713
 20
148.9429773024926
 10
672.6841522245355
 20
148.9185718883825
 10
672.7041229223375
 20
148.9109214300333
 72
     1
 10
672.7041229223374
 20
148.9109214300333
 11
674.3198786580584
 21
148.9109214300333
 72
     1
 10
674.3198786580584
 20
148.9109214300333
 11
674.6679025447424
 21
149.6088783990913
 72
     1
 10
674.6679025447424
 20
149.6088783990913
 11
673.4683582292108
 21
149.6088783990913
 72
     4
 94
        3
 73
     0
 74
     0
 95
       16
 96
       12
 40
0.0
 40
0.0
 40
0.0
 40
0.0
 40
0.1027738093188092
 40
0.2066076558227572
 40
0.2685398785587007
 40
0.3279201337291959
 40
0.3931337605654626
 40
0.4386740937218324
 40
0.4818879174817287
 40
0.5695193478875844
 40
0.7489346372632355
 40
0.7489346372632355
 40
0.7489346372632355
 40
0.7489346372632355
 10
673.4683582292108
 20
149.6088783990913
 10
673.432175745394
 20
149.6195238163607
 10
673.359437581724
 20
149.6409244506454
 10
673.3533499847985
 20
149.7446668636987
 10
673.3616434548872
 20
149.8185918222118
 10
673.3963765261403
 20
149.872413508949
 10
673.4385137659412
 20
149.9115758675715
 10
673.4542033291575
 20
149.9625787164031
 10
673.5003213707638
 20
150.0010922482838
 10
673.5821010156075
 20
150.065828115392
 10
673.6725351459097
 20
150.079615408657
 10
673.7332932996548
 20
150.0888783990913
 72
     1
 10
673.7332932996548
 20
150.0888783990913
 11
674.9072460472992
 21
150.0888783990913
 72
     1
 10
674.9072460472992
 20
150.0888783990913
 11
675.2552736195004
 21
150.7868427594012
 72
     1
 10
675.2552736195004
 20
150.7868427594012
 11
673.376650273634
 21
150.7868427594011
 97
        8
330
A8F
330
A91
330
A8E
330
A92
330
A93
330
A90
330
A94
330
A95
 75
     0
 76
     1
 47
0.0514683685270805
 98
        1
 10
673.7008180303266
 20
150.443355183431
450
        0
451
        0
460
0.0
461
0.0
452
        0
462
0.0
453
        0
470

  0
HATCH
  5
AA5
330
18
100
AcDbEntity
  8
ROGO
 62
     4
100
AcDbHatch
 10
0.0
 20
0.0
 30
0.0
210
0.0
220
0.0
230
1.0
  2
SOLID
 70
     1
 71
     1
 91
        1
 92
        7
 72
     0
 73
     1
 93
        4
 10
656.9204915684876
 20
148.1494019328087
 10
656.7875615178849
 20
147.8555873523926
 10
674.1865509015751
 20
147.8555873523926
 10
674.333056340698
 20
148.1494019328087
 97
        4
330
AA1
330
A72
330
A6A
330
A97
 75
     0
 76
     1
 47
0.0514683685270805
 98
        1
 10
667.9151133697565
 20
148.0716926982304
450
        0
451
        0
460
0.0
461
0.0
452
        0
462
0.0
453
        0
470

  0
HATCH
  5
AA6
330
18
100
AcDbEntity
  8
ROGO
 62
     4
100
AcDbHatch
 10
0.0
 20
0.0
 30
0.0
210
0.0
220
0.0
230
1.0
  2
SOLID
 70
     1
 71
     1
 91
        1
 92
        7
 72
     0
 73
     1
 93
       11
 10
674.1865509015749
 20
147.8555873523926
 10
675.2666705337236
 20
147.8555873523926
 10
675.6481695182462
 20
148.6206781554205
 10
676.0296685027684
 20
147.8555873523926
 10
677.1097645027683
 20
147.8555873523926
 10
676.378955194433
 20
149.3212150558969
 10
678.1545391163347
 20
150.7868427594011
 10
677.0744431163348
 20
150.7868427594011
 10
676.5687101405078
 20
150.4668093182274
 10
676.7282891503948
 20
150.7868427594011
 10
675.6481695182461
 20
150.7868427594012
 97
       11
330
A9E
330
A99
330
A98
330
A96
330
A97
330
A6A
330
A9C
330
A9A
330
A9F
330
A9B
330
A9D
 75
     0
 76
     1
 47
0.0514683685270805
 98
        1
 10
675.555210594812
 20
149.5292770687704
450
        0
451
        0
460
0.0
461
0.0
452
        0
462
0.0
453
        0
470

  0
HATCH
  5
AA7
330
18
100
AcDbEntity
  8
ROGO
 62
     4
100
AcDbHatch
 10
0.0
 20
0.0
 30
0.0
210
0.0
220
0.0
230
1.0
  2
SOLID
 70
     1
 71
     1
 91
        2
 92
        5
 93
        6
 72
     1
 10
655.4249887236898
 20
147.8555873523925
 11
656.7875615178847
 21
147.8555873523925
 72
     1
 10
656.7875615178847
 20
147.8555873523925
 11
657.2650245904967
 21
148.9109214300333
 72
     1
 10
657.2650245904967
 20
148.9109214300333
 11
658.5387506878856
 21
148.9109214300333
 72
     4
 94
        3
 73
     0
 74
     0
 95
       18
 96
       14
 40
0.108740278791501
 40
0.108740278791501
 40
0.108740278791501
 40
0.108740278791501
 40
0.6623149649549278
 40
1.384304701649787
 40
2.097394834876493
 40
2.774073369849618
 40
3.428974823686337
 40
4.005208313035923
 40
4.455173659284313
 40
4.720999734343524
 40
5.086034088486724
 40
5.569973738255373
 40
6.060470601257719
 40
6.060470601257719
 40
6.060470601257719
 40
6.060470601257719
 10
658.5387506878856
 20
148.9109214300333
 10
658.6283934263065
 20
148.9115889723635
 10
658.8349510792403
 20
148.9131271446615
 10
659.1239236193936
 20
149.0675026253692
 10
659.3979521523835
 20
149.264165740143
 10
659.6186634939283
 20
149.5098757841457
 10
659.7561733094656
 20
149.790803123461
 10
659.7774731452473
 20
150.0600461742777
 10
659.7644701188031
 20
150.2730140802155
 10
659.6715569637416
 20
150.421457997791
 10
659.574962400992
 20
150.5721133937521
 10
659.3978406359247
 20
150.7026166934541
 10
659.2527149961381
 20
150.7597965381902
 10
659.1789156566581
 20
150.7868427594012
 72
     1
 10
659.1789156566582
 20
150.7868427594011
 11
656.8753466381078
 21
150.7868427594011
 72
     1
 10
656.8753466381078
 20
150.7868427594011
 11
655.4249887236898
 21
147.8555873523925
 97
        6
330
A6C
330
A69
330
A6B
330
A6A
330
A72
330
A6D
 92
       20
 93
        4
 72
     1
 10
657.5598310080827
 20
149.5625304792601
 11
657.7855421457362
 21
150.0614186005249
 72
     1
 10
657.7855421457362
 20
150.0614186005249
 11
658.3655235730181
 21
150.0614186005249
 72
     4
 94
        3
 73
     0
 74
     0
 95
       15
 96
       11
 40
0.0
 40
0.0
 40
0.0
 40
0.0
 40
0.2199578613106558
 40
0.3202465475123651
 40
0.4340808827708432
 40
0.5116301246390825
 40
0.6342750549531187
 40
0.7077360179241323
 40
0.8337709579493811
 40
0.8757826314379425
 40
0.8757826314379425
 40
0.8757826314379425
 40
0.8757826314379425
 10
658.3655235730183
 20
150.0614186005249
 10
658.4481354802456
 20
150.061797007157
 10
658.5684138731858
 20
150.0623479463994
 10
658.6341863822781
 20
149.9135632265002
 10
658.6047040076589
 20
149.8177690770181
 10
658.5676422599101
 20
149.7194183423784
 10
658.502145757707
 20
149.6525875348508
 10
658.414239858285
 20
149.5882182010836
 10
658.3311645824912
 20
149.5804260049985
 10
658.2771334411017
 20
149.5661095857784
 10
658.2636256492885
 20
149.56253047926
 72
     1
 10
658.2636256492885
 20
149.56253047926
 11
657.5598310080827
 21
149.5625304792601
 97
        4
330
A6E
330
A70
330
A6F
330
A71
 75
     0
 76
     1
 47
0.0514683685270805
 98
        2
 10
656.8876588571177
 20
149.8751445352741
 10
656.8876588571177
 20
149.8751445352741
450
        0
451
        0
460
0.0
461
0.0
452
        0
462
0.0
453
        0
470

  0
LINE
  5
AA8
102
{ACAD_REACTORS
330
AAB
102
}
330
18
100
AcDbEntity
  8
ROGO
 62
     4
100
AcDbLine
 10
665.3126369275989
 20
150.7868427594011
 30
0.0
 11
666.1459955138609
 21
148.9109214300333
 31
0.0
  0
LINE
  5
AA9
102
{ACAD_REACTORS
330
AAB
102
}
330
18
100
AcDbEntity
  8
ROGO
 62
     4
100
AcDbLine
 10
664.4893860331137
 20
150.2854013637558
 30
0.0
 11
664.7739680127214
 21
149.6447966897288
 31
0.0
  0
LINE
  5
AAA
102
{ACAD_REACTORS
330
AAB
102
}
330
18
100
AcDbEntity
  8
ROGO
 62
     4
100
AcDbLine
 10
664.9413181635793
 20
149.2680852444487
 30
0.0
 11
665.0999844822493
 21
148.9109214300333
 31
0.0
  0
HATCH
  5
AAB
330
18
100
AcDbEntity
  8
ROGO
 62
     4
100
AcDbHatch
 10
0.0
 20
0.0
 30
0.0
210
0.0
220
0.0
230
1.0
  2
SOLID
 70
     1
 71
     1
 91
        2
 92
        7
 72
     0
 73
     1
 93
        8
 10
665.3126369275989
 20
150.7868427594012
 10
663.8120605236397
 20
150.7868427594012
 10
662.4592971949266
 20
148.9109214300333
 10
663.4982218402003
 20
148.9109214300333
 10
663.7557796081733
 20
149.2680852444487
 10
664.9413181635793
 20
149.2680852444487
 10
665.0999844822494
 20
148.9109214300333
 10
666.145995513861
 20
148.9109214300334
 97
        8
330
A84
330
A7E
330
A83
330
A82
330
A80
330
AAA
330
A85
330
AA8
 92
       22
 72
     0
 73
     1
 93
        3
 10
664.7739680127214
 20
149.6447966897289
 10
664.0274335526664
 20
149.6447966897289
 10
664.4893860331136
 20
150.2854013637559
 97
        3
330
A81
330
A7F
330
AA9
 75
     0
 76
     1
 47
0.0128389261915577
 98
        2
 10
665.1951299383194
 20
150.3367828782454
 10
665.1951299383194
 20
150.3367828782454
450
        0
451
        0
460
0.0
461
0.0
452
        0
462
0.0
453
        0
470

  0
SPLINE
  5
AAC
102
{ACAD_REACTORS
330
AB3
102
}
330
18
100
AcDbEntity
  8
ROGO
 62
     4
100
AcDbSpline
210
0.0
220
0.0
230
1.0
 70
     8
 71
     3
 72
    38
 73
    34
 74
    32
 42
0.0000000001
 43
0.0000000001
 44
0.0000000001
 40
0.0
 40
0.0
 40
0.0
 40
0.0
 40
0.2582400211805774
 40
0.3393418442955424
 40
0.443552172800835
 40
0.530394283206717
 40
0.6036667919818254
 40
0.7009894053152177
 40
0.7507174249931042
 40
0.8067242281503032
 40
0.8892677166883521
 40
0.9827715778106668
 40
1.043426616793024
 40
1.109318337455068
 40
1.182564491755753
 40
1.293719242428883
 40
1.399327847180614
 40
1.448424760475743
 40
1.50441322219426
 40
1.570741059842362
 40
1.617957956886697
 40
1.657539314700464
 40
1.714052551848318
 40
1.776150918813051
 40
1.838248940024221
 40
1.892584795022379
 40
2.017023561310864
 40
2.066120474605993
 40
2.164314359515976
 40
2.251113385583432
 40
2.417283613623161
 40
2.622320469312984
 40
2.918423525691266
 40
2.918423525691266
 40
2.918423525691266
 40
2.918423525691266
 10
670.2526386896643
 20
150.7946673582187
 30
0.0
 10
670.1665595501988
 20
150.7885864737889
 30
0.0
 10
670.0534467421687
 20
150.7805958512358
 30
0.0
 10
669.909819924298
 20
150.7412463852288
 30
0.0
 10
669.831527417954
 20
150.6943685002889
 30
0.0
 10
669.7500484160719
 20
150.6599110078596
 30
0.0
 10
669.6805799783795
 20
150.6088862946464
 30
0.0
 10
669.610314120242
 20
150.582593751513
 30
0.0
 10
669.5611118154196
 20
150.5351835966949
 30
0.0
 10
669.504164160944
 20
150.5062234278736
 30
0.0
 10
669.4588157326079
 20
150.4414021507102
 30
0.0
 10
669.4081290518483
 20
150.3807966054838
 30
0.0
 10
669.3493261255524
 20
150.3365572603731
 30
0.0
 10
669.3010657747533
 20
150.2900930047125
 30
0.0
 10
669.2567936134328
 20
150.2183846973071
 30
0.0
 10
669.2305913669025
 20
150.1231055906132
 30
0.0
 10
669.156731632032
 20
150.0629497987773
 30
0.0
 10
669.1456106684849
 20
149.9906245878114
 30
0.0
 10
669.1047565967766
 20
149.9479539303962
 30
0.0
 10
669.0869918175539
 20
149.8928722418462
 30
0.0
 10
669.0802261345197
 20
149.8424076856737
 30
0.0
 10
669.0721057016022
 20
149.7952772836333
 30
0.0
 10
669.0508641869842
 20
149.7456981825792
 30
0.0
 10
669.0577974906434
 20
149.6844549269578
 30
0.0
 10
669.0558224005833
 20
149.6251510497771
 30
0.0
 10
669.056984743402
 20
149.5450889689036
 30
0.0
 10
669.0527896871933
 20
149.46713868759
 30
0.0
 10
669.0862436165007
 20
149.3823102930637
 30
0.0
 10
669.1060405416475
 20
149.3066975149687
 30
0.0
 10
669.1602576415672
 20
149.2020024546095
 30
0.0
 10
669.2537810027356
 20
149.0812069921681
 30
0.0
 10
669.431623497046
 20
148.9345841874641
 30
0.0
 10
669.6026242549881
 20
148.9197099864395
 30
0.0
 10
669.7036616017456
 20
148.9109214300333
 30
0.0
 11
670.2526386896643
 21
150.7946673582187
 31
0.0
 11
669.9962720654539
 21
150.7636180018596
 31
0.0
 11
669.918585228128
 21
150.7403315032206
 31
0.0
 11
669.8253613895452
 21
150.6937578144354
 31
0.0
 11
669.7476745522192
 21
150.6549466376168
 31
0.0
 11
669.6855253264973
 21
150.6161351150447
 31
0.0
 11
669.6000699885429
 21
150.569561772013
 31
0.0
 11
669.5612262647062
 21
150.5385127614074
 31
0.0
 11
669.5146140402413
 21
150.5074634050483
 31
0.0
 11
669.4602333151479
 21
150.4453653838371
 31
0.0
 11
669.3980840894259
 21
150.3755051964129
 31
0.0
 11
669.3514718649609
 21
150.3366936738408
 31
0.0
 11
669.3048602508431
 21
150.2901203308091
 31
0.0
 11
669.2660165270065
 21
150.2280223095979
 31
0.0
 11
669.2194049128889
 21
150.1271127658147
 31
0.0
 11
669.1572550768196
 21
150.0417279002109
 31
0.0
 11
669.1417180755628
 21
149.9951542114257
 31
0.0
 11
669.1106434627019
 21
149.948580868394
 31
0.0
 11
669.0873373504693
 21
149.8864825014294
 31
0.0
 11
669.0795682394937
 21
149.8399091583977
 31
0.0
 11
669.0717997388652
 21
149.8010976358256
 31
0.0
 11
669.0562627376084
 21
149.7467621265809
 31
0.0
 11
669.0562627376084
 21
149.6846637596162
 31
0.0
 11
669.0562627376084
 21
149.622565738405
 31
0.0
 11
669.0562627376084
 21
149.5682298834069
 31
0.0
 11
669.0640312382369
 21
149.4440338409845
 31
0.0
 11
669.0795682394937
 21
149.3974601521993
 31
0.0
 11
669.1106434627019
 21
149.3043131203825
 31
0.0
 11
669.1494865761913
 21
149.2266904209918
 31
0.0
 11
669.2504795257497
 21
149.0947322123564
 31
0.0
 11
669.4136217010301
 21
148.9705358241805
 31
0.0
 11
669.7036616017456
 21
148.9109214300333
 31
0.0
  0
SPLINE
  5
AAD
102
{ACAD_REACTORS
330
AB3
102
}
330
18
100
AcDbEntity
  8
ROGO
 62
     4
100
AcDbSpline
210
0.0
220
0.0
230
1.0
 70
     8
 71
     3
 72
    25
 73
    21
 74
     0
 42
0.0000000001
 43
0.0000000001
 40
0.0
 40
0.0
 40
0.0
 40
0.0
 40
0.4087168505087288
 40
0.6887487002771746
 40
0.9415836120477687
 40
1.17452070575514
 40
1.41154617586699
 40
1.599156012919487
 40
1.80099909059943
 40
2.178735911501585
 40
2.521686161369157
 40
2.762704659361267
 40
3.06256558063785
 40
3.222432137207705
 40
3.399493810628493
 40
3.567459719866414
 40
3.743172740007509
 40
3.995988754699505
 40
4.17170091132118
 40
4.337226830236035
 40
4.337226830236035
 40
4.337226830236035
 40
4.337226830236035
 10
671.3247155799291
 20
150.7946673582187
 30
0.0
 10
671.3950299376798
 20
150.7924082304243
 30
0.0
 10
671.5135200915636
 20
150.7886012639871
 30
0.0
 10
671.6407338895936
 20
150.6891688505936
 30
0.0
 10
671.7380742049641
 20
150.6067317615721
 30
0.0
 10
671.8071675690508
 20
150.5070691810947
 30
0.0
 10
671.8677298385399
 20
150.4154347472702
 30
0.0
 10
671.907635782496
 20
150.3186898691758
 30
0.0
 10
671.9619157506027
 20
150.2026048755517
 30
0.0
 10
671.9843849758131
 20
150.0473004006503
 30
0.0
 10
671.969204342475
 20
149.8867788962995
 30
0.0
 10
671.9295899774786
 20
149.7444913481517
 30
0.0
 10
671.8880376936215
 20
149.63533168366
 30
0.0
 10
671.8390633808824
 20
149.5403014236735
 30
0.0
 10
671.7806797418765
 20
149.4787693229606
 30
0.0
 10
671.7401755196779
 20
149.4005318567498
 30
0.0
 10
671.6623720900818
 20
149.3365378097878
 30
0.0
 10
671.5993004332152
 20
149.2575781377106
 30
0.0
 10
671.5277272380157
 20
149.1898062115126
 30
0.0
 10
671.4873739532959
 20
149.1479917497673
 30
0.0
 10
671.4660987284475
 20
149.1304106869877
 30
0.0
  0
LINE
  5
AAE
102
{ACAD_REACTORS
330
AB3
102
}
330
18
100
AcDbEntity
  8
ROGO
 62
     4
100
AcDbLine
 10
670.2526386896643
 20
150.7946673582187
 30
0.0
 11
671.3247155799291
 21
150.7946673582187
 31
0.0
  0
LINE
  5
AAF
102
{ACAD_REACTORS
330
AB3
102
}
330
18
100
AcDbEntity
  8
ROGO
 62
     4
100
AcDbLine
 10
669.7036616017456
 20
148.9109214300333
 30
0.0
 11
670.7757384920102
 21
148.9109214300333
 31
0.0
  0
SPLINE
  5
AB0
102
{ACAD_REACTORS
330
AB3
102
}
330
18
100
AcDbEntity
  8
ROGO
 62
     4
100
AcDbSpline
210
0.0
220
0.0
230
1.0
 70
     8
 71
     3
 72
    11
 73
     7
 74
     0
 42
0.0000000001
 43
0.0000000001
 40
0.1647869275458134
 40
0.1647869275458134
 40
0.1647869275458134
 40
0.1647869275458134
 40
0.2895635144633836
 40
0.5387013147903714
 40
0.7953622617455423
 40
0.8850764140209602
 40
0.8850764140209602
 40
0.8850764140209602
 40
0.8850764140209602
 10
671.1329062900361
 20
148.952744925617
 30
0.0
 10
671.1129369431777
 20
148.9471864503078
 30
0.0
 10
671.0510212125575
 20
148.9372898934736
 30
0.0
 10
670.9471658309316
 20
148.9237007586545
 30
0.0
 10
670.8484564850796
 20
148.9095200006765
 30
0.0
 10
670.7906983496102
 20
148.9106331219719
 30
0.0
 10
670.7757384920104
 20
148.9109214300333
 30
0.0
  0
SPLINE
  5
AB1
102
{ACAD_REACTORS
330
AB3
102
}
330
18
100
AcDbEntity
  8
ROGO
 62
     4
100
AcDbSpline
210
0.0
220
0.0
230
1.0
 70
     8
 71
     3
 72
     9
 73
     5
 74
     3
 42
0.0000000001
 43
0.0000000001
 44
0.0000000001
 40
0.0
 40
0.0
 40
0.0
 40
0.0
 40
0.1622561919360204
 40
0.3804197703110171
 40
0.3804197703110171
 40
0.3804197703110171
 40
0.3804197703110171
 10
671.1329062900361
 20
148.952744925617
 30
0.0
 10
671.1850276733474
 20
148.9686911252216
 30
0.0
 10
671.3072295100293
 20
149.0060779855844
 30
0.0
 10
671.4081962203676
 20
149.085095582405
 30
0.0
 10
671.4660987284475
 20
149.1304106869877
 30
0.0
 11
671.1329062900361
 21
148.952744925617
 31
0.0
 11
671.2854073817855
 21
149.0081569174309
 31
0.0
 11
671.4660987284475
 21
149.1304106869877
 31
0.0
  0
ELLIPSE
  5
AB2
102
{ACAD_REACTORS
330
AB3
102
}
330
18
100
AcDbEntity
  8
ROGO
 62
     4
100
AcDbEllipse
 10
670.4990078248511
 20
149.8265302264773
 30
0.0
 11
0.2546924415247531
 21
0.2239701316915159
 31
0.0
210
0.0
220
0.0
230
1.0
 40
0.6788083417438792
 41
0.0
 42
6.283185307179586
  0
HATCH
  5
AB3
330
18
100
AcDbEntity
  8
ROGO
 62
     4
100
AcDbHatch
 10
0.0
 20
0.0
 30
0.0
210
0.0
220
0.0
230
1.0
  2
SOLID
 70
     1
 71
     1
 91
        2
 92
        5
 93
        6
 72
     4
 94
        3
 73
     0
 74
     0
 95
       38
 96
       34
 40
0.0
 40
0.0
 40
0.0
 40
0.0
 40
0.2582400211805774
 40
0.3393418442955424
 40
0.443552172800835
 40
0.530394283206717
 40
0.6036667919818254
 40
0.7009894053152177
 40
0.7507174249931042
 40
0.8067242281503032
 40
0.8892677166883521
 40
0.9827715778106668
 40
1.043426616793024
 40
1.109318337455068
 40
1.182564491755753
 40
1.293719242428883
 40
1.399327847180614
 40
1.448424760475743
 40
1.50441322219426
 40
1.570741059842362
 40
1.617957956886697
 40
1.657539314700464
 40
1.714052551848318
 40
1.776150918813051
 40
1.838248940024221
 40
1.892584795022379
 40
2.017023561310864
 40
2.066120474605993
 40
2.164314359515976
 40
2.251113385583432
 40
2.417283613623161
 40
2.622320469312984
 40
2.918423525691266
 40
2.918423525691266
 40
2.918423525691266
 40
2.918423525691266
 10
670.2526386896643
 20
150.7946673582187
 10
670.1665595501988
 20
150.7885864737889
 10
670.0534467421687
 20
150.7805958512359
 10
669.909819924298
 20
150.7412463852288
 10
669.8315274179539
 20
150.6943685002889
 10
669.7500484160721
 20
150.6599110078596
 10
669.6805799783793
 20
150.6088862946464
 10
669.6103141202423
 20
150.582593751513
 10
669.5611118154197
 20
150.5351835966949
 10
669.504164160944
 20
150.5062234278736
 10
669.4588157326079
 20
150.4414021507101
 10
669.4081290518483
 20
150.3807966054838
 10
669.3493261255521
 20
150.3365572603731
 10
669.3010657747533
 20
150.2900930047126
 10
669.2567936134326
 20
150.2183846973071
 10
669.2305913669026
 20
150.1231055906132
 10
669.156731632032
 20
150.0629497987773
 10
669.1456106684848
 20
149.9906245878114
 10
669.1047565967767
 20
149.9479539303962
 10
669.0869918175539
 20
149.8928722418462
 10
669.0802261345198
 20
149.8424076856737
 10
669.0721057016021
 20
149.7952772836333
 10
669.0508641869842
 20
149.7456981825792
 10
669.0577974906432
 20
149.6844549269578
 10
669.0558224005833
 20
149.6251510497772
 10
669.0569847434019
 20
149.5450889689036
 10
669.0527896871936
 20
149.46713868759
 10
669.0862436165007
 20
149.3823102930638
 10
669.1060405416475
 20
149.3066975149687
 10
669.1602576415672
 20
149.2020024546095
 10
669.2537810027356
 20
149.0812069921681
 10
669.431623497046
 20
148.9345841874642
 10
669.6026242549882
 20
148.9197099864395
 10
669.7036616017456
 20
148.9109214300333
 72
     1
 10
669.7036616017456
 20
148.9109214300333
 11
670.7757384920107
 21
148.9109214300333
 72
     4
 94
        3
 73
     0
 74
     0
 95
       11
 96
        7
 40
0.1647869275458135
 40
0.1647869275458135
 40
0.1647869275458135
 40
0.1647869275458135
 40
0.2545010798212315
 40
0.5111620267764023
 40
0.7602998271033902
 40
0.8850764140209603
 40
0.8850764140209603
 40
0.8850764140209603
 40
0.8850764140209603
 10
670.7757384920104
 20
148.9109214300333
 10
670.7906983496102
 20
148.9106331219719
 10
670.8484564850796
 20
148.9095200006765
 10
670.9471658309316
 20
148.9237007586545
 10
671.0510212125575
 20
148.9372898934736
 10
671.1129369431777
 20
148.9471864503078
 10
671.1329062900361
 20
148.952744925617
 72
     4
 94
        3
 73
     0
 74
     0
 95
        9
 96
        5
 40
0.0
 40
0.0
 40
0.0
 40
0.0
 40
0.1622561919360204
 40
0.3804197703110171
 40
0.3804197703110171
 40
0.3804197703110171
 40
0.3804197703110171
 10
671.1329062900361
 20
148.952744925617
 10
671.1850276733474
 20
148.9686911252216
 10
671.3072295100295
 20
149.0060779855844
 10
671.4081962203676
 20
149.085095582405
 10
671.4660987284475
 20
149.1304106869877
 72
     4
 94
        3
 73
     0
 74
     0
 95
       25
 96
       21
 40
0.0
 40
0.0
 40
0.0
 40
0.0
 40
0.165525918914855
 40
0.3412380755365305
 40
0.5940540902285263
 40
0.7697671103696209
 40
0.9377330196075423
 40
1.11479469302833
 40
1.274661249598185
 40
1.574522170874768
 40
1.815540668866877
 40
2.15849091873445
 40
2.536227739636605
 40
2.738070817316548
 40
2.925680654369045
 40
3.162706124480894
 40
3.395643218188267
 40
3.648478129958861
 40
3.928509979727306
 40
4.337226830236035
 40
4.337226830236035
 40
4.337226830236035
 40
4.337226830236035
 10
671.4660987284475
 20
149.1304106869877
 10
671.4873739532959
 20
149.1479917497673
 10
671.5277272380157
 20
149.1898062115126
 10
671.5993004332152
 20
149.2575781377106
 10
671.6623720900818
 20
149.3365378097878
 10
671.7401755196779
 20
149.4005318567498
 10
671.7806797418765
 20
149.4787693229606
 10
671.8390633808824
 20
149.5403014236735
 10
671.8880376936215
 20
149.63533168366
 10
671.9295899774786
 20
149.7444913481517
 10
671.969204342475
 20
149.8867788962995
 10
671.9843849758131
 20
150.0473004006503
 10
671.9619157506027
 20
150.2026048755517
 10
671.907635782496
 20
150.3186898691758
 10
671.8677298385399
 20
150.4154347472702
 10
671.8071675690508
 20
150.5070691810947
 10
671.7380742049641
 20
150.6067317615721
 10
671.6407338895936
 20
150.6891688505936
 10
671.5135200915636
 20
150.7886012639871
 10
671.3950299376798
 20
150.7924082304243
 10
671.3247155799291
 20
150.7946673582187
 72
     1
 10
671.3247155799291
 20
150.7946673582187
 11
670.2526386896642
 21
150.7946673582187
 97
        6
330
AAD
330
AAE
330
AAC
330
AAF
330
AB0
330
AB1
 92
       20
 93
        1
 72
     3
 10
670.4990078248511
 20
149.8265302264773
 11
0.2546924415247531
 21
0.2239701316915159
 40
0.6788083417438792
 50
0.0
 51
360.0
 73
     1
 97
        1
330
AB2
 75
     0
 76
     1
 47
0.088756267210375
 98
        2
 10
670.5739096473777
 20
150.2743691840831
 10
670.5739096473777
 20
150.2743691840831
450
        0
451
        0
460
0.0
461
0.0
452
        0
462
0.0
453
        0
470

  0
ARC
  5
AB6
330
18
100
AcDbEntity
  8
隠れ線2
100
AcDbCircle
 10
546.2754528548757
 20
149.5378898667694
 30
0.0
 40
63.0
100
AcDbArc
 50
290.694351027089
 51
326.8838154010261
  0
ARC
  5
AB9
330
18
100
AcDbEntity
  8
隠れ線2
100
AcDbCircle
 10
562.8754528548758
 20
104.4998898667694
 30
0.0
 40
15.0
100
AcDbArc
 50
209.8005891337617
 51
292.1716428142529
  0
LINE
  5
AD2
330
18
100
AcDbEntity
  8
隠れ線2
100
AcDbLine
 10
533.5335187636943
 20
133.8680829629258
 30
0.0
 11
549.8590477057383
 21
97.04514661206872
 31
0.0
  0
LINE
  5
AD3
330
18
100
AcDbEntity
  8
中心線
100
AcDbLine
 10
513.0387433161173
 20
219.5323879107215
 30
0.0
 11
506.5056983773138
 21
58.3839460869075
 31
0.0
  0
LINE
  5
D0D
330
18
100
AcDbEntity
  8
中心線
 48
0.7
100
AcDbLine
 10
590.775452854876
 20
128.0680808620542
 30
0.0
 11
590.7754528548757
 21
249.4482416150041
 31
0.0
  0
LINE
  5
D0E
330
18
100
AcDbEntity
  8
外形線
100
AcDbLine
 10
594.7754528548769
 20
179.3915528405063
 30
0.0
 11
594.7754528548759
 21
159.6378898667694
 31
0.0
  0
LINE
  5
D0F
330
18
100
AcDbEntity
  8
外形線
100
AcDbLine
 10
586.7754528548768
 20
179.4985865649796
 30
0.0
 11
586.7754528548759
 21
159.6378898667694
 31
0.0
  0
LINE
  5
D10
330
18
100
AcDbEntity
  8
想像線
 48
0.5
100
AcDbLine
 10
576.7754528548761
 20
168.5378898667694
 30
0.0
 11
598.7754528548761
 21
168.5378898667695
 31
0.0
  0
LINE
  5
D1C
330
18
100
AcDbEntity
  8
想像線
 48
0.5
100
AcDbLine
 10
598.7754528548761
 20
168.5378898667695
 30
0.0
 11
598.7754528548761
 21
129.5378898667695
 31
0.0
  0
LINE
  5
D1E
330
18
100
AcDbEntity
  8
外形線
100
AcDbLine
 10
592.7754528548761
 20
159.6378898667694
 30
0.0
 11
592.7754528548761
 21
149.6378898667694
 31
0.0
  0
LINE
  5
D1F
330
18
100
AcDbEntity
  8
外形線
100
AcDbLine
 10
588.7754528548761
 20
159.6378898667694
 30
0.0
 11
588.7754528548763
 21
149.6378898667694
 31
0.0
  0
LINE
  5
D20
330
18
100
AcDbEntity
  8
外形線
100
AcDbLine
 10
593.9754528548761
 20
149.6378898667694
 30
0.0
 11
593.9754528548763
 21
147.1378898667694
 31
0.0
  0
LINE
  5
D21
330
18
100
AcDbEntity
  8
外形線
100
AcDbLine
 10
587.5754528548762
 20
149.6378898667694
 30
0.0
 11
587.5754528548762
 21
147.1378898667695
 31
0.0
  0
LINE
  5
D22
330
18
100
AcDbEntity
  8
想像線
 48
0.5
100
AcDbLine
 10
582.7754528548759
 20
129.5378898667695
 30
0.0
 11
598.7754528548761
 21
129.5378898667695
 31
0.0
  0
LINE
  5
D23
330
18
100
AcDbEntity
  8
想像線
 48
0.5
100
AcDbLine
 10
582.775452854876
 20
168.5378898667694
 30
0.0
 11
582.7754528548759
 21
129.5378898667695
 31
0.0
  0
CIRCLE
  5
D26
330
18
100
AcDbEntity
  8
外形線
100
AcDbCircle
 10
590.792339467546
 20
139.1379118020133
 30
0.0
 40
1.25
  0
LINE
  5
D29
330
18
100
AcDbEntity
  8
外形線
100
AcDbLine
 10
587.7720044535341
 20
130.1456631024963
 30
0.0
 11
587.2863760158862
 21
130.6287748024997
 31
0.0
  0
LINE
  5
D2E
330
18
100
AcDbEntity
  8
中心線
100
AcDbLine
 10
588.8197585861646
 20
133.1327668891483
 30
0.0
 11
592.5048781921985
 21
133.1423406425995
 31
0.0
  0
LINE
  5
D2F
330
18
100
AcDbEntity
  8
外形線
100
AcDbLine
 10
590.2404697492221
 20
132.567518558497
 30
0.0
 11
591.299483599812
 21
133.6320492699361
 31
0.0
  0
LINE
  5
D30
330
18
100
AcDbEntity
  8
外形線
100
AcDbLine
 10
590.3024749483798
 20
133.6407647387628
 30
0.0
 11
591.3126238016332
 21
132.6358509159321
 31
0.0
  0
CIRCLE
  5
D31
330
18
100
AcDbEntity
  8
外形線
100
AcDbCircle
 10
590.8079271100107
 20
133.1379320499304
 30
0.0
 40
1.25
  0
LINE
  5
D33
330
18
100
AcDbEntity
  8
外形線
100
AcDbLine
 10
589.0275185325527
 20
146.1424345751618
 30
0.0
 11
587.2863760158861
 21
141.4288112488738
 31
0.0
  0
LINE
  5
D34
330
18
100
AcDbEntity
  8
外形線
100
AcDbLine
 10
592.524147979028
 20
146.1424345751618
 30
0.0
 11
594.2863523933161
 21
141.4469968317493
 31
0.0
  0
ARC
  5
D35
330
18
100
AcDbEntity
  8
外形線
100
AcDbCircle
 10
590.7772064646533
 20
144.9628921446602
 30
0.0
 40
0.375
100
AcDbArc
 50
41.95916608419317
 51
138.3385362926159
  0
LINE
  5
D36
330
18
100
AcDbEntity
  8
中心線
100
AcDbLine
 10
588.8041709436999
 20
139.132746641231
 30
0.0
 11
592.4892905497337
 21
139.1423203946822
 31
0.0
  0
LINE
  5
D37
330
18
100
AcDbEntity
  8
外形線
100
AcDbLine
 10
590.2248821067575
 20
138.5674983105797
 30
0.0
 11
591.2838959573471
 21
139.6320290220187
 31
0.0
  0
LINE
  5
D38
330
18
100
AcDbEntity
  8
外形線
100
AcDbLine
 10
590.2868873059153
 20
139.6407444908455
 30
0.0
 11
591.2970361591685
 21
138.6358306680149
 31
0.0
  0
LINE
  5
D39
330
18
100
AcDbEntity
  8
外形線
100
AcDbLine
 10
590.4970494256072
 20
145.212165154577
 30
0.0
 11
588.0363734848966
 21
141.4307597041819
 31
0.0
  0
LINE
  5
D3A
330
18
100
AcDbEntity
  8
外形線
100
AcDbLine
 10
587.2863760158861
 20
141.4288112488738
 30
0.0
 11
588.0363734848966
 21
141.4307597041819
 31
0.0
  0
LINE
  5
D3B
330
18
100
AcDbEntity
  8
外形線
100
AcDbLine
 10
591.0560645334938
 20
145.2136174474169
 30
0.0
 11
593.5363549243058
 21
141.4450483764413
 31
0.0
  0
LINE
  5
D3C
330
18
100
AcDbEntity
  8
外形線
100
AcDbLine
 10
593.5363549243058
 20
141.4450483764413
 30
0.0
 11
594.2863523933162
 21
141.4469968317492
 31
0.0
  0
ARC
  5
D3D
330
18
100
AcDbEntity
  8
外形線
100
AcDbCircle
 10
590.775452854876
 20
145.6378898667695
 30
0.0
 40
1.5
100
AcDbArc
 50
19.65545105105513
 51
160.3445489489448
  0
LINE
  5
D3F
330
18
100
AcDbEntity
  8
外形線
100
AcDbLine
 10
587.5754528548762
 20
147.1378898667695
 30
0.0
 11
593.9754528548763
 21
147.1378898667694
 31
0.0
  0
LINE
  5
D40
330
18
100
AcDbEntity
  8
外形線
100
AcDbLine
 10
587.575452854876
 20
149.6378898667694
 30
0.0
 11
593.9754528548761
 21
149.6378898667694
 31
0.0
  0
LINE
  5
D42
330
18
100
AcDbEntity
  8
中心線
100
AcDbLine
 10
582.074055219066
 20
160.9378898667694
 30
0.0
 11
577.2931253104906
 21
160.9378898667693
 31
0.0
  0
LINE
  5
D43
330
18
100
AcDbEntity
  8
中心線
100
AcDbLine
 10
581.8726256659441
 20
165.9378898667694
 30
0.0
 11
577.5470226511934
 21
165.9378898667694
 31
0.0
  0
CIRCLE
  5
D44
330
18
100
AcDbEntity
  8
想像線
100
AcDbCircle
 10
579.7754528548761
 20
165.9378898667694
 30
0.0
 40
1.5
  0
LINE
  5
D45
330
18
100
AcDbEntity
  8
想像線
 48
0.5
100
AcDbLine
 10
582.775452854876
 20
158.5378898667694
 30
0.0
 11
576.7754528548758
 21
158.5378898667693
 31
0.0
  0
CIRCLE
  5
D46
330
18
100
AcDbEntity
  8
想像線
100
AcDbCircle
 10
579.7754528548761
 20
160.9378898667693
 30
0.0
 40
1.5
  0
LINE
  5
D47
330
18
100
AcDbEntity
  8
想像線
 48
0.5
100
AcDbLine
 10
576.7754528548761
 20
168.5378898667695
 30
0.0
 11
576.7754528548758
 21
158.5378898667693
 31
0.0
  0
LINE
  5
D48
330
18
100
AcDbEntity
  8
想像線
100
AcDbLine
 10
580.5246395455943
 20
161.6870765574876
 30
0.0
 11
578.9991402190597
 21
160.161577230953
 31
0.0
  0
LINE
  5
D49
330
18
100
AcDbEntity
  8
想像線
100
AcDbLine
 10
580.5142271992452
 20
160.1991155224004
 30
0.0
 11
579.0366226774438
 21
161.6767200442017
 31
0.0
  0
LINE
  5
D4A
330
18
100
AcDbEntity
  8
想像線
100
AcDbLine
 10
580.5246395455941
 20
166.6870765574876
 30
0.0
 11
578.9991402190597
 21
165.1615772309531
 31
0.0
  0
LINE
  5
D4B
330
18
100
AcDbEntity
  8
想像線
100
AcDbLine
 10
580.5142271992452
 20
165.1991155224005
 30
0.0
 11
579.0366226774438
 21
166.6767200442018
 31
0.0
  0
LINE
  5
D4C
330
18
100
AcDbEntity
  8
中心線
100
AcDbLine
 10
579.7754528548761
 20
158.4801939814015
 30
0.0
 11
579.7754528548761
 21
167.8071140632859
 31
0.0
  0
LINE
  5
D4E
330
18
100
AcDbEntity
  8
外形線
100
AcDbLine
 10
586.775452854876
 20
159.6378898667694
 30
0.0
 11
594.7754528548759
 21
159.6378898667694
 31
0.0
  0
LINE
  5
D51
330
18
100
AcDbEntity
  8
外形線
100
AcDbLine
 10
594.2863523933162
 20
141.4469968317492
 30
0.0
 11
594.2863523933162
 21
130.6469603853753
 31
0.0
  0
LINE
  5
D52
330
18
100
AcDbEntity
  8
外形線
100
AcDbLine
 10
593.5363549243058
 20
141.4450483764413
 30
0.0
 11
593.5363549243057
 21
130.1456631024963
 31
0.0
  0
LINE
  5
D53
330
18
100
AcDbEntity
  8
外形線
100
AcDbLine
 10
593.7876530508479
 20
130.1456631024963
 30
0.0
 11
587.7720044535339
 21
130.1456631024963
 31
0.0
  0
LINE
  5
D54
330
18
100
AcDbEntity
  8
外形線
100
AcDbLine
 10
594.2863523933162
 20
130.6469603853752
 30
0.0
 11
593.7876530508479
 21
130.1456631024963
 31
0.0
  0
LINE
  5
D55
330
18
100
AcDbEntity
  8
外形線
100
AcDbLine
 10
588.0363734848966
 20
141.4307597041819
 30
0.0
 11
588.0363734848966
 21
130.1456631024963
 31
0.0
  0
LINE
  5
D56
330
18
100
AcDbEntity
  8
外形線
100
AcDbLine
 10
587.2863760158861
 20
141.4288112488738
 30
0.0
 11
587.2863760158861
 21
130.6287748024999
 31
0.0
  0
LINE
  5
D57
330
18
100
AcDbEntity
  8
外形線
100
AcDbLine
 10
587.2863760158861
 20
130.6287748024999
 30
0.0
 11
588.0363734848966
 21
130.6287748024999
 31
0.0
  0
LINE
  5
D58
330
18
100
AcDbEntity
  8
外形線
100
AcDbLine
 10
594.2863523933162
 20
130.6469603853752
 30
0.0
 11
593.5363549243058
 21
130.6469603853752
 31
0.0
  0
LINE
  5
D59
330
18
100
AcDbEntity
  8
外形線
100
AcDbLine
 10
592.524147979028
 20
146.1424345751618
 30
0.0
 11
589.0275185325527
 21
146.1424345751618
 31
0.0
  0
ARC
  5
D6C
330
18
100
AcDbEntity
  8
寸法線
100
AcDbCircle
 10
546.2754528548757
 20
149.5378898667694
 30
0.0
 40
44.5
100
AcDbArc
 50
321.4631932974987
 51
2.601056475274087
  0
CIRCLE
  5
D6D
330
18
100
AcDbEntity
  8
外形線
100
AcDbCircle
 10
546.2754528548757
 20
149.5378898667694
 30
0.0
 40
10.0
  0
CIRCLE
  5
D6F
330
18
100
AcDbEntity
  8
外形線
100
AcDbCircle
 10
546.2754528548757
 20
149.5378898667694
 30
0.0
 40
9.0
  0
CIRCLE
  5
D70
330
18
100
AcDbEntity
  8
外形線
100
AcDbCircle
 10
571.2754528548756
 20
106.2366196775474
 30
0.0
 40
4.5
  0
LINE
  5
D71
330
18
100
AcDbEntity
  8
中心線
 48
0.3
100
AcDbLine
 10
571.2754528548756
 20
111.4455948536486
 30
0.0
 11
571.2754528548756
 21
100.5610544432414
 31
0.0
  0
LINE
  5
D73
330
18
100
AcDbEntity
  8
ﾊｯﾁﾝｸ
 48
0.3
100
AcDbLine
 10
575.3676898703341
 20
104.3648301035538
 30
0.0
 11
567.0331658146691
 21
107.7376195671196
 31
0.0
  0
LINE
  5
D74
330
18
100
AcDbEntity
  8
ﾊｯﾁﾝｸ
 48
0.3
100
AcDbLine
 10
575.5177398950821
 20
104.7356197879751
 30
0.0
 11
567.1832158394171
 21
108.1084092515409
 31
0.0
  0
HATCH
  5
D87
330
18
100
AcDbEntity
  8
ﾊｯﾁﾝｸ
100
AcDbHatch
 10
0.0
 20
0.0
 30
0.0
210
0.0
220
0.0
230
1.0
  2
SOLID
 70
     1
 71
     0
 91
        4
 92
        7
 72
     1
 73
     1
 93
        4
 10
571.2754528548756
 20
106.2366196775474
 42
-0.0011531696219285
 10
571.2440094590183
 20
106.4650998264998
 42
0.0
 10
567.1832158394171
 20
108.1084092515409
 42
0.0111152300675879
 10
567.1040689051373
 20
107.9246824559615
 42
0.0
 97
        0
 92
        7
 72
     1
 73
     1
 93
        4
 10
575.4468368046137
 20
104.5485568991334
 42
0.0111152300675879
 10
575.5177398950821
 20
104.7356197879751
 42
0.0
 10
571.2440094590183
 20
106.4650998264998
 42
0.0011531696219283
 10
571.2754528548755
 20
106.2366196775474
 42
0.0
 97
        0
 92
        7
 72
     1
 73
     1
 93
        4
 10
571.3080380031
 20
106.0076774877719
 42
-0.0011562489041105
 10
571.2754528548756
 20
106.2366196775474
 42
0.0
 10
567.1040689051373
 20
107.9246824559615
 42
0.0111152300675879
 10
567.0331658146691
 20
107.7376195671196
 42
0.0
 97
        0
 92
        7
 72
     1
 73
     1
 93
        4
 10
575.3676898703341
 20
104.3648301035538
 42
0.0111152300675879
 10
575.4468368046137
 20
104.5485568991334
 42
0.0
 10
571.2754528548756
 20
106.2366196775474
 42
0.0011562489041103
 10
571.3080380031
 20
106.0076774877719
 42
0.0
 97
        0
 75
     0
 76
     1
 47
0.0443109720174514
 98
        4
 10
570.206466419646
 20
106.7943888927935
 10
571.9149866831714
 20
106.0551499182182
 10
570.8870790092362
 20
106.2319150545054
 10
572.0538187728486
 20
105.807602678125
450
        0
451
        0
460
0.0
461
0.0
452
        0
462
0.0
453
        0
470

  0
ARC
  5
D94
330
18
100
AcDbEntity
  8
外形線
100
AcDbCircle
 10
536.7754528548756
 20
104.0048898667694
 30
0.0
 40
140.0
100
AcDbArc
 50
72.1660728430294
 51
94.35396843077343
  0
CIRCLE
  5
DDA
330
18
100
AcDbEntity
  8
外形線
100
AcDbCircle
 10
590.7754528548756
 20
205.5378898667694
 30
0.0
 40
26.4
  0
LINE
  5
DDB
330
18
100
AcDbEntity
  8
目盛
100
AcDbLine
 10
596.4953202596674
 20
227.8153025727279
 30
0.0
 11
595.9979404853378
 21
225.8781362504706
 31
0.0
  0
LINE
  5
DDC
330
18
100
AcDbEntity
  8
目盛
100
AcDbLine
 10
595.0852230903475
 20
228.1304966335292
 30
0.0
 11
594.710460461176
 21
226.1659221320718
 31
0.0
  0
LINE
  5
DDD
330
18
100
AcDbEntity
  8
目盛
100
AcDbLine
 10
593.6581172268549
 20
228.3565279970024
 30
0.0
 11
593.4074507597261
 21
226.3722985943734
 31
0.0
  0
LINE
  5
DDE
330
18
100
AcDbEntity
  8
目盛
100
AcDbLine
 10
592.21963480405
 20
228.4925046206197
 30
0.0
 11
592.0940537649913
 21
226.4964511637631
 31
0.0
  0
LINE
  5
DDF
330
18
100
AcDbEntity
  8
目盛
100
AcDbLine
 10
589.3312709057014
 20
228.4925046206197
 30
0.0
 11
589.4568519447601
 21
226.4964511637631
 31
0.0
  0
LINE
  5
DE0
330
18
100
AcDbEntity
  8
目盛
100
AcDbLine
 10
587.8927884828966
 20
228.3565279970024
 30
0.0
 11
588.1434549500253
 21
226.3722985943734
 31
0.0
  0
LINE
  5
DE1
330
18
100
AcDbEntity
  8
目盛
100
AcDbLine
 10
586.465682619404
 20
228.1304966335293
 30
0.0
 11
586.8404452485755
 21
226.1659221320719
 31
0.0
  0
LINE
  5
DE2
330
18
100
AcDbEntity
  8
目盛
100
AcDbLine
 10
585.055585450084
 20
227.8153025727279
 30
0.0
 11
585.5529652244136
 21
225.8781362504707
 31
0.0
  0
LINE
  5
DE3
330
18
100
AcDbEntity
  8
目盛
100
AcDbLine
 10
590.7754528548756
 20
228.5378898667694
 30
0.0
 11
590.7754528548756
 21
225.5378898667694
 31
0.0
  0
LINE
  5
DE4
330
18
100
AcDbEntity
  8
目盛
100
AcDbLine
 10
583.6680619842519
 20
227.412189741558
 30
0.0
 11
584.5951129673766
 21
224.5590201926725
 31
0.0
  0
LINE
  5
DE5
330
18
100
AcDbEntity
  8
ROGO
  6
Continuous
100
AcDbLine
 10
590.7754528548756
 20
228.5378898667694
 30
0.0
 11
591.2754528548756
 21
206.9521034291426
 31
0.0
  0
LINE
  5
DE6
330
18
100
AcDbEntity
  8
ROGO
  6
Continuous
100
AcDbLine
 10
590.7754528548756
 20
228.5378898667685
 30
0.0
 11
590.2754528548756
 21
206.9521034291426
 31
0.0
  0
HATCH
  5
DE7
330
18
100
AcDbEntity
  8
ROGO
  6
Continuous
100
AcDbHatch
 10
0.0
 20
0.0
 30
0.0
210
0.0
220
0.0
230
1.0
  2
SOLID
 70
     1
 71
     0
 91
        1
 92
        1
 93
        3
 72
     1
 10
590.7754528548756
 20
228.5378898667694
 11
591.2754528548756
 21
206.9521034291426
 72
     2
 10
590.7754528548756
 20
205.5378898667694
 40
1.5
 50
70.52877936551252
 51
109.4712206344913
 73
     1
 72
     1
 10
590.2754528548756
 20
206.9521034291426
 11
590.7754528548756
 21
228.5378898667685
 97
        0
 75
     0
 76
     1
 98
        1
 10
363.2230321054095
 20
219.7934850970021
450
        0
451
        0
460
0.0
461
0.0
452
        0
462
0.0
453
        0
470

  0
CIRCLE
  5
DE8
330
18
100
AcDbEntity
  8
外形線
100
AcDbCircle
 10
590.7754528548756
 20
205.5378898667694
 30
0.0
 40
23.0
  0
LINE
  5
DE9
330
18
100
AcDbEntity
  8
目盛
100
AcDbLine
 10
597.8828437254995
 20
227.4121897415579
 30
0.0
 11
596.9557927423746
 21
224.5590201926725
 31
0.0
  0
LINE
  5
E4A
330
18
100
AcDbEntity
  8
中心線
 48
0.8
100
AcDbLine
 10
562.2306714132561
 20
205.5378898667694
 30
0.0
 11
619.320234296495
 21
205.5378898667694
 31
0.0
  0
LINE
  5
E4B
330
18
100
AcDbEntity
  8
目盛
100
AcDbLine
 10
600.5683765608725
 20
226.3489120734878
 30
0.0
 11
599.7168179777424
 21
224.5392579685558
 31
0.0
  0
TEXT
  5
E4C
330
18
100
AcDbEntity
  8
文字
100
AcDbText
 10
600.0624035860345
 20
189.6123754532379
 30
0.0
 40
2.0
  1
4
  7
STYLE3
100
AcDbText
  0
LINE
  5
E4D
330
18
100
AcDbEntity
  8
目盛
100
AcDbLine
 10
600.5683765608722
 20
184.726867660051
 30
0.0
 11
599.7168179777421
 21
186.5365217649831
 31
0.0
  0
CIRCLE
  5
E4E
330
18
100
AcDbEntity
  8
外形線
100
AcDbCircle
 10
590.7754528548756
 20
205.5378898667694
 30
0.0
 40
15.5
  0
TEXT
  5
E4F
330
18
100
AcDbEntity
  8
文字
100
AcDbText
 10
596.4300967646217
 20
205.0467954887635
 30
0.0
 40
1.0
  1
0.1mm
  7
STYLE3
100
AcDbText
  0
CIRCLE
  5
E50
330
18
100
AcDbEntity
  8
外形線
100
AcDbCircle
 10
590.7754528548756
 20
205.5378898667694
 30
0.0
 40
1.5
  0
LINE
  5
E51
330
18
100
AcDbEntity
  8
目盛
100
AcDbLine
 10
567.8208381010253
 20
204.0937079175952
 30
0.0
 11
569.8168915578817
 21
204.2192889566538
 31
0.0
  0
LINE
  5
E52
330
18
100
AcDbEntity
  8
目盛
100
AcDbLine
 10
567.9568147246426
 20
202.6552254947904
 30
0.0
 11
569.9410441272717
 21
202.9058919619191
 31
0.0
  0
LINE
  5
E53
330
18
100
AcDbEntity
  8
目盛
100
AcDbLine
 10
568.1828460881157
 20
201.2281196312978
 30
0.0
 11
570.1474205895729
 21
201.6028822604692
 31
0.0
  0
TEXT
  5
E54
330
18
100
AcDbEntity
  8
文字
100
AcDbText
 10
588.9843546094395
 20
192.241297824746
 30
0.0
 40
0.7
  1
60
  7
STYLE3
100
AcDbText
  0
TEXT
  5
E55
330
18
100
AcDbEntity
  8
文字
100
AcDbText
 10
585.0158549584688
 20
192.1599500880568
 30
0.0
 40
0.7
  1
40
  7
STYLE3
100
AcDbText
  0
CIRCLE
  5
E56
330
18
100
AcDbEntity
  8
外形線
100
AcDbCircle
 10
587.5754528548756
 20
195.4639184552555
 30
0.0
 40
4.75
  0
LINE
  5
E57
330
18
100
AcDbEntity
  8
目盛
100
AcDbLine
 10
572.1680619842519
 20
192.0188290640425
 30
0.0
 11
574.5951129673766
 21
193.7821848209199
 31
0.0
  0
LINE
  5
E58
330
18
100
AcDbEntity
  8
中心線
 48
0.2
100
AcDbLine
 10
587.5754528548756
 20
203.3271258739773
 30
0.0
 11
587.5754528548756
 21
187.6375318519417
 31
0.0
  0
LINE
  5
E59
330
18
100
AcDbEntity
  8
目盛
100
AcDbLine
 10
583.6680619842519
 20
183.6635899919808
 30
0.0
 11
584.5951129673768
 21
186.5167595408663
 31
0.0
  0
LINE
  5
E5A
330
18
100
AcDbEntity
  8
目盛
100
AcDbLine
 10
579.6951183505362
 20
185.3828362257605
 30
0.0
 11
580.6586256987396
 21
187.1354495858483
 31
0.0
  0
LINE
  5
E5B
330
18
100
AcDbEntity
  8
目盛
100
AcDbLine
 10
578.4514365703586
 20
186.118347580223
 30
0.0
 11
579.5230901603166
 21
187.8070034312271
 31
0.0
  0
LINE
  5
E5C
330
18
100
AcDbEntity
  8
目盛
100
AcDbLine
 10
580.982529148879
 20
184.726867660051
 30
0.0
 11
581.8340877320091
 21
186.536521764983
 31
0.0
  0
LINE
  5
E5D
330
18
100
AcDbEntity
  8
目盛
100
AcDbLine
 10
582.308588143128
 20
184.1530306913396
 30
0.0
 11
583.0448372484974
 21
186.0125836631161
 31
0.0
  0
LINE
  5
E5E
330
18
100
AcDbEntity
  8
目盛
100
AcDbLine
 10
575.0308694185158
 20
188.7716114360769
 30
0.0
 11
576.3999636303732
 21
190.2295486909197
 31
0.0
  0
LINE
  5
E5F
330
18
100
AcDbEntity
  8
目盛
100
AcDbLine
 10
576.1147010906557
 20
187.8160852829262
 30
0.0
 11
577.389549070153
 21
189.3571117684778
 31
0.0
  0
LINE
  5
E60
330
18
100
AcDbEntity
  8
目盛
100
AcDbLine
 10
573.0536482710325
 20
190.8771381025495
 30
0.0
 11
574.5946747565841
 21
192.1519860820469
 31
0.0
  0
LINE
  5
E61
330
18
100
AcDbEntity
  8
目盛
100
AcDbLine
 10
574.0091744241832
 20
189.7933064304095
 30
0.0
 11
575.4671116790261
 21
191.1624006422669
 31
0.0
  0
TEXT
  5
E62
330
18
100
AcDbEntity
  8
文字
100
AcDbText
 10
578.6256498817116
 20
189.82043495275
 30
0.0
 40
2.0
  1
6
  7
STYLE3
100
AcDbText
  0
LINE
  5
E63
330
18
100
AcDbEntity
  8
目盛
100
AcDbLine
 10
577.2563920521487
 20
186.9304989961456
 30
0.0
 11
579.0197478090261
 21
189.3575499792704
 31
0.0
  0
TEXT
  5
E64
330
18
100
AcDbEntity
  8
文字
100
AcDbText
 10
589.6447864388305
 20
186.137130183857
 30
0.0
 40
2.0
  1
5
  7
STYLE3
100
AcDbText
  0
LINE
  5
E65
330
18
100
AcDbEntity
  8
目盛
100
AcDbLine
 10
592.2196348040499
 20
182.5832751129192
 30
0.0
 11
592.0940537649911
 21
184.5793285697757
 31
0.0
  0
LINE
  5
E66
330
18
100
AcDbEntity
  8
目盛
100
AcDbLine
 10
585.055585450084
 20
183.2604771608109
 30
0.0
 11
585.5529652244136
 21
185.1976434830682
 31
0.0
  0
LINE
  5
E67
330
18
100
AcDbEntity
  8
目盛
100
AcDbLine
 10
586.465682619404
 20
182.9452831000096
 30
0.0
 11
586.8404452485755
 21
184.9098576014669
 31
0.0
  0
LINE
  5
E68
330
18
100
AcDbEntity
  8
目盛
100
AcDbLine
 10
587.8927884828966
 20
182.7192517365364
 30
0.0
 11
588.1434549500253
 21
184.7034811391653
 31
0.0
  0
LINE
  5
E69
330
18
100
AcDbEntity
  8
目盛
100
AcDbLine
 10
589.3312709057014
 20
182.5832751129192
 30
0.0
 11
589.4568519447601
 21
184.5793285697757
 31
0.0
  0
LINE
  5
E6A
330
18
100
AcDbEntity
  8
目盛
100
AcDbLine
 10
590.7754528548756
 20
185.5378898667694
 30
0.0
 11
590.7754528548756
 21
182.5378898667694
 31
0.0
  0
LINE
  5
E6B
330
18
100
AcDbEntity
  8
目盛
100
AcDbLine
 10
599.2423175666232
 20
184.1530306913396
 30
0.0
 11
598.5060684612538
 21
186.0125836631161
 31
0.0
  0
LINE
  5
E6C
330
18
100
AcDbEntity
  8
目盛
100
AcDbLine
 10
593.6581172268546
 20
182.7192517365364
 30
0.0
 11
593.407450759726
 21
184.7034811391654
 31
0.0
  0
LINE
  5
E6D
330
18
100
AcDbEntity
  8
目盛
100
AcDbLine
 10
595.0852230903473
 20
182.9452831000096
 30
0.0
 11
594.710460461176
 21
184.909857601467
 31
0.0
  0
LINE
  5
E6E
330
18
100
AcDbEntity
  8
目盛
100
AcDbLine
 10
596.4953202596672
 20
183.2604771608109
 30
0.0
 11
595.9979404853376
 21
185.1976434830682
 31
0.0
  0
LINE
  5
E6F
330
18
100
AcDbEntity
  8
目盛
100
AcDbLine
 10
597.8828437254995
 20
183.6635899919809
 30
0.0
 11
596.9557927423746
 21
186.5167595408663
 31
0.0
  0
LINE
  5
E70
330
18
100
AcDbEntity
  8
目盛
100
AcDbLine
 10
587.5754528548756
 20
190.7139184552555
 30
0.0
 11
587.5754528548756
 21
191.2139184552555
 31
0.0
  0
LINE
  5
E71
330
18
100
AcDbEntity
  8
目盛
100
AcDbLine
 10
590.3674328032649
 20
191.6210877319745
 30
0.0
 11
590.0735401771186
 21
192.025596229162
 31
0.0
  0
TEXT
  5
E72
330
18
100
AcDbEntity
  8
文字
100
AcDbText
 10
586.913195727905
 20
191.5616238411646
 30
0.0
 40
0.7
  1
50
  7
STYLE3
100
AcDbText
  0
LINE
  5
E73
330
18
100
AcDbEntity
  8
目盛
100
AcDbLine
 10
584.7834729064863
 20
191.6210877319745
 30
0.0
 11
585.0773655326325
 21
192.0255962291619
 31
0.0
  0
TEXT
  5
E74
330
18
100
AcDbEntity
  8
文字
100
AcDbText
 10
583.7182071859187
 20
193.9569390475645
 30
0.0
 40
0.7
  1
30
  7
STYLE3
100
AcDbText
  0
TEXT
  5
E75
330
18
100
AcDbEntity
  8
文字
100
AcDbText
 10
583.7474501899522
 20
196.1785847628014
 30
0.0
 40
0.7
  1
20
  7
STYLE3
100
AcDbText
  0
LINE
  5
E76
330
18
100
AcDbEntity
  8
中心線
 48
0.2
100
AcDbLine
 10
580.6161776679458
 20
195.4639184552555
 30
0.0
 11
595.144165115926
 21
195.4639184552555
 31
0.0
  0
LINE
  5
E77
330
18
100
AcDbEntity
  8
目盛
100
AcDbLine
 10
569.3905936794459
 20
197.0710251550218
 30
0.0
 11
571.2501466512223
 21
197.8072742603911
 31
0.0
  0
LINE
  5
E78
330
18
100
AcDbEntity
  8
目盛
100
AcDbLine
 10
569.9644306481571
 20
195.7449661607727
 30
0.0
 11
571.7740847530891
 21
196.5965247439029
 31
0.0
  0
LINE
  5
E79
330
18
100
AcDbEntity
  8
目盛
100
AcDbLine
 10
570.6203992138667
 20
194.4575553624299
 30
0.0
 11
572.3730125739544
 21
195.4210627106333
 31
0.0
  0
LINE
  5
E7A
330
18
100
AcDbEntity
  8
目盛
100
AcDbLine
 10
571.3559105683292
 20
193.2138735822525
 30
0.0
 11
573.0445664193333
 21
194.2855271722105
 31
0.0
  0
LINE
  5
E7B
330
18
100
AcDbEntity
  8
目盛
100
AcDbLine
 10
583.0579344024735
 20
196.9317491785365
 30
0.0
 11
583.5334626606212
 21
196.777240681349
 31
0.0
  0
LINE
  5
E7C
330
18
100
AcDbEntity
  8
目盛
100
AcDbLine
 10
583.0579344024735
 20
193.9960877319745
 30
0.0
 11
583.5334626606212
 21
194.1505962291619
 31
0.0
  0
LINE
  5
E7D
330
18
100
AcDbEntity
  8
目盛
100
AcDbLine
 10
568.9011529800872
 20
198.4304989961456
 30
0.0
 11
571.7543225289724
 21
199.3575499792704
 31
0.0
  0
LINE
  5
E7E
330
18
100
AcDbEntity
  8
目盛
100
AcDbLine
 10
568.4980401489171
 20
199.8180224619778
 30
0.0
 11
570.4352064711744
 21
200.3154022363075
 31
0.0
  0
TEXT
  5
E7F
330
18
100
AcDbEntity
  8
文字
100
AcDbText
 10
572.2467934151656
 20
198.455463766775
 30
0.0
 40
2.0
  1
7
  7
STYLE3
100
AcDbText
  0
TEXT
  5
E80
330
18
100
AcDbEntity
  8
文字
100
AcDbText
 10
588.9870405452378
 20
197.909548760911
 30
0.0
 40
0.7
  1
90
  7
STYLE3
100
AcDbText
  0
TEXT
  5
E81
330
18
100
AcDbEntity
  8
文字
100
AcDbText
 10
585.0458872410803
 20
197.9601546726848
 30
0.0
 40
0.7
  1
10
  7
STYLE3
100
AcDbText
  0
LINE
  5
E82
330
18
100
AcDbEntity
  8
ROGO
 48
0.2
100
AcDbLine
 10
587.7754528548756
 20
200.2097060611224
 30
0.0
 11
587.7754528548756
 21
196.5963936205461
 31
0.0
  0
LINE
  5
E83
330
18
100
AcDbEntity
  8
ROGO
 48
0.2
100
AcDbLine
 10
587.3754528548755
 20
200.2097060611224
 30
0.0
 11
587.3754528548755
 21
196.5963936205461
 31
0.0
  0
HATCH
  5
E84
330
18
100
AcDbEntity
  8
ROGO
100
AcDbHatch
 10
0.0
 20
0.0
 30
0.0
210
0.0
220
0.0
230
1.0
  2
SOLID
 70
     1
 71
     0
 91
        3
 92
        7
 72
     1
 73
     1
 93
        5
 10
587.7754528548756
 20
200.2097060611224
 42
0.0105298176880202
 10
587.5754528548756
 20
200.2139184552555
 42
0.0
 10
587.5754528548756
 20
199.7139184552555
 42
0.0
 10
587.5754528548756
 20
196.6139184552555
 42
-0.0437283108272093
 10
587.7754528548756
 20
196.5963936205461
 42
0.0
 97
        0
 92
        7
 72
     1
 73
     1
 93
        4
 10
587.5754528548758
 20
200.2139184552555
 42
0.0105298176880232
 10
587.3754528548755
 20
200.2097060611224
 42
0.0
 10
587.3754528548755
 20
196.5963936205461
 42
-0.0437283108272093
 10
587.5754528548756
 20
196.6139184552555
 42
0.0
 97
        0
 92
      137
 93
        4
 72
     1
 10
586.9819335586024
 20
198.2416923837303
 11
588.1486002252691
 21
198.2416923837303
 72
     1
 10
588.148600225269
 20
198.2416923837303
 11
588.148600225269
 21
199.7416923837303
 72
     1
 10
588.148600225269
 20
199.7416923837303
 11
586.9819335586023
 21
199.7416923837303
 72
     1
 10
586.9819335586024
 20
199.7416923837303
 11
586.9819335586024
 21
198.2416923837303
 97
        0
 75
     0
 76
     1
 47
0.0128177587452554
 98
        3
 10
587.7241554098069
 20
197.1476977044029
 10
587.6471853277884
 20
198.3525673921509
 10
587.4675882020413
 20
198.3012962254507
450
        0
451
        0
460
0.0
461
0.0
452
        0
462
0.0
453
        0
470

  0
LINE
  5
E85
330
18
100
AcDbEntity
  8
目盛
100
AcDbLine
 10
592.0929713072775
 20
193.9960877319745
 30
0.0
 11
591.61744304913
 21
194.1505962291619
 31
0.0
  0
LINE
  5
E86
330
18
100
AcDbEntity
  8
目盛
100
AcDbLine
 10
592.0929713072775
 20
196.9317491785365
 30
0.0
 11
591.61744304913
 21
196.7772406813489
 31
0.0
  0
CIRCLE
  5
E87
330
18
100
AcDbEntity
  8
外形線
100
AcDbCircle
 10
587.5754528548756
 20
195.4639184552555
 30
0.0
 40
1.149999999999999
  0
TEXT
  5
E88
330
18
100
AcDbEntity
  8
文字
100
AcDbText
 10
590.0927513756963
 20
196.0254565295951
 30
0.0
 40
0.7
  1
80
  7
STYLE3
100
AcDbText
  0
TEXT
  5
E89
330
18
100
AcDbEntity
  8
文字
100
AcDbText
 10
590.1768702270524
 20
193.8454175640352
 30
0.0
 40
0.7
  1
70
  7
STYLE3
100
AcDbText
  0
LINE
  5
E8A
330
18
100
AcDbEntity
  8
目盛
100
AcDbLine
 10
590.3674328032649
 20
199.3067491785365
 30
0.0
 11
590.0735401771186
 21
198.902240681349
 31
0.0
  0
TEXT
  5
E8B
330
18
100
AcDbEntity
  8
文字
100
AcDbText
 10
587.2127667281969
 20
198.5122904800084
 30
0.0
 40
0.7
  1
0
  7
STYLE3
100
AcDbText
  0
LINE
  5
E8C
330
18
100
AcDbEntity
  8
目盛
100
AcDbLine
 10
587.5754528548756
 20
200.2139184552555
 30
0.0
 11
587.5754528548756
 21
199.7139184552555
 31
0.0
  0
LINE
  5
E8D
330
18
100
AcDbEntity
  8
目盛
100
AcDbLine
 10
584.7834729064863
 20
199.3067491785365
 30
0.0
 11
585.0773655326325
 21
198.902240681349
 31
0.0
  0
LINE
  5
E8F
330
18
100
AcDbEntity
  8
目盛
100
AcDbLine
 10
568.1828460881157
 20
209.8476601022411
 30
0.0
 11
570.1474205895732
 21
209.4728974730696
 31
0.0
  0
LINE
  5
E90
330
18
100
AcDbEntity
  8
目盛
100
AcDbLine
 10
567.9568147246426
 20
208.4205542387484
 30
0.0
 11
569.9410441272715
 21
208.1698877716198
 31
0.0
  0
LINE
  5
E91
330
18
100
AcDbEntity
  8
目盛
100
AcDbLine
 10
567.8208381010253
 20
206.9820718159436
 30
0.0
 11
569.8168915578817
 21
206.8564907768851
 31
0.0
  0
LINE
  5
E92
330
18
100
AcDbEntity
  8
目盛
100
AcDbLine
 10
567.7754528548756
 20
205.5378898667694
 30
0.0
 11
570.7754528548756
 21
205.5378898667694
 31
0.0
  0
LINE
  5
E93
330
18
100
AcDbEntity
  8
目盛
100
AcDbLine
 10
570.6203992138667
 20
216.6182243711089
 30
0.0
 11
572.3730125739544
 21
215.6547170229055
 31
0.0
  0
LINE
  5
E94
102
{ACAD_REACTORS
330
E98
330
E99
102
}
330
18
100
AcDbEntity
  8
ROGO
 62
     4
100
AcDbLine
 10
584.3808513067061
 20
213.5897115773184
 30
0.0
 11
584.0466271558776
 21
212.8509777229699
 31
0.0
  0
LINE
  5
E95
102
{ACAD_REACTORS
330
E99
102
}
330
18
100
AcDbEntity
  8
ROGO
 62
     4
100
AcDbLine
 10
584.1080767400338
 20
214.9028565078759
 30
0.0
 11
585.7205750530191
 21
214.9028565078759
 31
0.0
  0
LINE
  5
E96
102
{ACAD_REACTORS
330
E98
330
EE5
330
E99
102
}
330
18
100
AcDbEntity
  8
ROGO
 62
     4
100
AcDbLine
 10
583.0928261999412
 20
212.8509777229699
 30
0.0
 11
596.982003466965
 21
212.8509777229699
 31
0.0
  0
LINE
  5
E97
102
{ACAD_REACTORS
330
E98
102
}
330
18
100
AcDbEntity
  8
ROGO
 62
     4
100
AcDbLine
 10
584.1254147443829
 20
213.0566479292612
 30
0.0
 11
596.3284735318469
 21
213.0566479292612
 31
0.0
  0
HATCH
  5
E98
330
18
100
AcDbEntity
  8
ROGO
 62
     4
100
AcDbHatch
 10
0.0
 20
0.0
 30
0.0
210
0.0
220
0.0
230
1.0
  2
SOLID
 70
     1
 71
     1
 91
        1
 92
        7
 72
     0
 73
     1
 93
        4
 10
584.1396781912996
 20
213.0566479292612
 10
584.0466271558778
 20
212.8509777229699
 10
596.2259197244608
 20
212.8509777229699
 10
596.3284735318469
 20
213.0566479292612
 97
        4
330
E97
330
E94
330
E96
330
ED8
 75
     0
 76
     1
 47
0.0514683685270805
 98
        1
 10
591.835913452188
 20
213.0022514650564
450
        0
451
        0
460
0.0
461
0.0
452
        0
462
0.0
453
        0
470

  0
HATCH
  5
E99
330
18
100
AcDbEntity
  8
ROGO
 62
     4
100
AcDbHatch
 10
0.0
 20
0.0
 30
0.0
210
0.0
220
0.0
230
1.0
  2
SOLID
 70
     1
 71
     1
 91
        2
 92
        5
 93
        6
 72
     1
 10
583.0928261999412
 20
212.8509777229699
 11
584.0466271558776
 21
212.8509777229699
 72
     1
 10
584.0466271558776
 20
212.8509777229699
 11
584.3808513067061
 21
213.5897115773185
 72
     1
 10
584.3808513067061
 20
213.5897115773185
 11
585.2724595748783
 21
213.5897115773185
 72
     4
 94
        3
 73
     0
 74
     0
 95
       18
 96
       14
 40
0.108740278791501
 40
0.108740278791501
 40
0.108740278791501
 40
0.108740278791501
 40
0.6623149649549278
 40
1.384304701649787
 40
2.097394834876493
 40
2.774073369849618
 40
3.428974823686337
 40
4.005208313035923
 40
4.455173659284313
 40
4.720999734343524
 40
5.086034088486724
 40
5.569973738255373
 40
6.060470601257719
 40
6.060470601257719
 40
6.060470601257719
 40
6.060470601257719
 10
585.2724595748783
 20
213.5897115773184
 10
585.335209491773
 20
213.5901788569496
 10
585.4797998488264
 20
213.5912555775582
 10
585.6820806269337
 20
213.6993184140536
 10
585.8739006000267
 20
213.8369825943953
 10
586.0283985391082
 20
214.0089796251971
 10
586.1246554099842
 20
214.2056287627178
 10
586.1395652950315
 20
214.3940988982895
 10
586.1304631765205
 20
214.543176432446
 10
586.0654239679774
 20
214.6470871747488
 10
585.9978077740528
 20
214.7525459519216
 10
585.8738225385056
 20
214.843898261713
 10
585.7722345906551
 20
214.8839241530283
 10
585.7205750530191
 20
214.902856507876
 72
     1
 10
585.7205750530193
 20
214.9028565078759
 11
584.1080767400338
 21
214.9028565078759
 72
     1
 10
584.1080767400338
 20
214.9028565078759
 11
583.0928261999412
 21
212.8509777229699
 97
        6
330
EA8
330
E95
330
E9F
330
E96
330
E94
330
EC6
 92
       20
 93
        4
 72
     1
 10
584.5872157990164
 20
214.0458379117772
 11
584.7452135953736
 21
214.3950595966626
 72
     1
 10
584.7452135953736
 20
214.3950595966626
 11
585.151200594471
 21
214.3950595966625
 72
     4
 94
        3
 73
     0
 74
     0
 95
       15
 96
       11
 40
0.0
 40
0.0
 40
0.0
 40
0.0
 40
0.1539705029176134
 40
0.2241725832588156
 40
0.3038566179397562
 40
0.3581410872475068
 40
0.4439925384673412
 40
0.4954152125470444
 40
0.5836396705646413
 40
0.6130478420066522
 40
0.6130478420066522
 40
0.6130478420066522
 40
0.6130478420066522
 10
585.151200594471
 20
214.3950595966626
 10
585.2090289295302
 20
214.395324481305
 10
585.2932238045883
 20
214.3957101387747
 10
585.3392645609532
 20
214.2915608348452
 10
585.3186268987193
 20
214.2245049302078
 10
585.2926836752957
 20
214.15565941596
 10
585.246836123753
 20
214.1088778506907
 10
585.1853019941578
 20
214.0638193170536
 10
585.1271493011021
 20
214.0583647797942
 10
585.0893275021298
 20
214.04834328634
 10
585.0798720478604
 20
214.0458379117772
 72
     1
 10
585.0798720478604
 20
214.0458379117772
 11
584.5872157990164
 21
214.0458379117772
 97
        4
330
EC5
330
EC7
330
EA9
330
EC8
 75
     0
 76
     1
 47
0.0514683685270805
 98
        2
 10
584.1166952933407
 20
214.264667750987
 10
584.1166952933407
 20
214.264667750987
450
        0
451
        0
460
0.0
461
0.0
452
        0
462
0.0
453
        0
470

  0
LINE
  5
E9A
330
18
100
AcDbEntity
  8
目盛
100
AcDbLine
 10
569.9644306481571
 20
215.3308135727661
 30
0.0
 11
571.7740847530891
 21
214.4792549896359
 31
0.0
  0
LINE
  5
E9B
330
18
100
AcDbEntity
  8
目盛
100
AcDbLine
 10
569.3905936794457
 20
214.004754578517
 30
0.0
 11
571.2501466512223
 21
213.2685054731477
 31
0.0
  0
LINE
  5
E9C
330
18
100
AcDbEntity
  8
目盛
100
AcDbLine
 10
568.9011529800869
 20
212.6452807373933
 30
0.0
 11
571.7543225289724
 21
211.7182297542684
 31
0.0
  0
LINE
  5
E9D
330
18
100
AcDbEntity
  8
目盛
100
AcDbLine
 10
568.4980401489171
 20
211.2577572715611
 30
0.0
 11
570.4352064711744
 21
210.7603774972314
 31
0.0
  0
TEXT
  5
E9E
330
18
100
AcDbEntity
  8
文字
100
AcDbText
 10
572.3524757700073
 20
210.6049154387189
 30
0.0
 40
2.0
  1
8
  7
STYLE3
100
AcDbText
  0
LINE
  5
E9F
102
{ACAD_REACTORS
330
E99
102
}
330
18
100
AcDbEntity
  8
ROGO
 62
     4
100
AcDbLine
 10
584.1080767400338
 20
214.9028565078759
 30
0.0
 11
583.0928261999412
 21
212.8509777229699
 31
0.0
  0
POINT
  5
EA0
330
18
100
AcDbEntity
  8
DEFPOINTS
  6
ByBlock
 62
     0
100
AcDbPoint
 10
590.7754528548756
 20
205.5378898667694
 30
0.0
  0
POINT
  5
EA1
330
18
100
AcDbEntity
  8
DEFPOINTS
  6
ByBlock
 62
     0
100
AcDbPoint
 10
590.7754528548756
 20
205.5378898667694
 30
0.0
  0
LINE
  5
EA2
102
{ACAD_REACTORS
330
EA4
102
}
330
18
100
AcDbEntity
  8
ROGO
 62
     4
100
AcDbLine
 10
591.6775696321889
 20
214.4142814556591
 30
0.0
 11
592.49933655554
 21
214.4142814556591
 31
0.0
  0
LINE
  5
EA3
102
{ACAD_REACTORS
330
EA4
102
}
330
18
100
AcDbEntity
  8
ROGO
 62
     4
100
AcDbLine
 10
591.4279195139746
 20
214.902856507876
 30
0.0
 11
592.7429558560805
 21
214.902856507876
 31
0.0
  0
HATCH
  5
EA4
330
18
100
AcDbEntity
  8
ROGO
 62
     4
100
AcDbHatch
 10
0.0
 20
0.0
 30
0.0
210
0.0
220
0.0
230
1.0
  2
SOLID
 70
     1
 71
     1
 91
        1
 92
        5
 93
        8
 72
     1
 10
592.49933655554
 20
214.4142814556591
 11
592.7429558560807
 21
214.902856507876
 72
     1
 10
592.7429558560807
 20
214.902856507876
 11
591.4279195139746
 21
214.902856507876
 72
     4
 94
        3
 73
     0
 74
     0
 95
       26
 96
       22
 40
0.0
 40
0.0
 40
0.0
 40
0.0
 40
0.2382195346592458
 40
0.397689067266165
 40
0.5126795869788247
 40
0.5985392873136309
 40
0.709903824925031
 40
0.791189080749497
 40
0.9379713068544484
 40
1.057449928673148
 40
1.138714535893377
 40
1.218398644003578
 40
1.360938021870431
 40
1.461730374800337
 40
1.516014844108087
 40
1.59312432922058
 40
1.64880681859371
 40
1.729472362005597
 40
1.775122082164457
 40
1.874460993765154
 40
1.919820003751323
 40
1.919820003751323
 40
1.919820003751323
 40
1.919820003751323
 10
591.4279195139743
 20
214.9028565078759
 10
591.3470641232158
 20
214.8980325366109
 10
591.2120823091497
 20
214.8899792901141
 10
591.0638730984381
 20
214.7999437862558
 10
590.9552863540276
 20
214.7476011009134
 10
590.8778424196038
 20
214.6764456794937
 10
590.8210757017358
 20
214.6029473269724
 10
590.7495105970387
 20
214.5153745788469
 10
590.6911512991326
 20
214.4133996573825
 10
590.6614324565993
 20
214.3010055163192
 10
590.6351077879456
 20
214.2114267337602
 10
590.6155849729726
 20
214.1116028708678
 10
590.6205521297855
 20
214.0037579827455
 10
590.6276653256701
 20
213.9035971717417
 10
590.659424015594
 20
213.8320973488151
 10
590.6955915379838
 20
213.7811944018856
 10
590.7398781738391
 20
213.725130449187
 10
590.7883374381563
 20
213.6879994748567
 10
590.8284172052673
 20
213.6207342197161
 10
590.8985754855295
 20
213.6121506880399
 10
590.9431708796054
 20
213.5950668981629
 10
590.9571503680669
 20
213.5897115773184
 72
     1
 10
590.9571503680669
 20
213.5897115773184
 11
592.0881793830712
 21
213.5897115773184
 72
     1
 10
592.0881793830712
 20
213.5897115773184
 11
592.3317961037501
 21
214.078281455659
 72
     1
 10
592.3317961037501
 20
214.078281455659
 11
591.4921150828781
 21
214.0782814556591
 72
     4
 94
        3
 73
     0
 74
     0
 95
       16
 96
       12
 40
0.0
 40
0.0
 40
0.0
 40
0.0
 40
0.0719416665230637
 40
0.1446253590758162
 40
0.1879779149910075
 40
0.2295440936103503
 40
0.2751936323956877
 40
0.3070718656051441
 40
0.3373215422371256
 40
0.3986635435211917
 40
0.5242542460841629
 40
0.5242542460841629
 40
0.5242542460841629
 40
0.5242542460841629
 10
591.4921150828781
 20
214.0782814556591
 10
591.4667873442066
 20
214.0857332477477
 10
591.4158706296374
 20
214.100713691747
 10
591.4116093117896
 20
214.1733333808843
 10
591.4174147408515
 20
214.2250808518434
 10
591.4417278907286
 20
214.2627560325595
 10
591.4712239585891
 20
214.2901696835952
 10
591.4822066528407
 20
214.3258716777772
 10
591.5144892819652
 20
214.3528311500939
 10
591.571735033356
 20
214.3981462570696
 10
591.6350389245675
 20
214.4077973623551
 10
591.6775696321889
 20
214.4142814556591
 72
     1
 10
591.6775696321888
 20
214.4142814556591
 11
592.49933655554
 21
214.4142814556591
 97
        8
330
EA3
330
EC4
330
EC3
330
EA7
330
EA5
330
EA6
330
EA2
330
ECF
 75
     0
 76
     1
 47
0.0514683685270805
 98
        1
 10
591.8878364111813
 20
214.610535051529
450
        0
451
        0
460
0.0
461
0.0
452
        0
462
0.0
453
        0
470

  0
LINE
  5
EA5
102
{ACAD_REACTORS
330
EA4
102
}
330
18
100
AcDbEntity
  8
ROGO
 62
     4
100
AcDbLine
 10
591.4921150828781
 20
214.0782814556591
 30
0.0
 11
592.3317961037501
 21
214.0782814556591
 31
0.0
  0
SPLINE
  5
EA6
102
{ACAD_REACTORS
330
EA4
102
}
330
18
100
AcDbEntity
  8
ROGO
 62
     4
100
AcDbSpline
210
0.0
220
0.0
230
1.0
 70
     8
 71
     3
 72
    16
 73
    12
 74
    10
 42
0.0000000001
 43
0.0000000001
 44
0.0000000001
 40
0.0
 40
0.0
 40
0.0
 40
0.0
 40
0.1255907025629711
 40
0.1869327038470372
 40
0.2171823804789384
 40
0.2490606136884456
 40
0.294710152473783
 40
0.3362763310931258
 40
0.3796288870082984
 40
0.4523125795610286
 40
0.5242542460840923
 40
0.5242542460840923
 40
0.5242542460840923
 40
0.5242542460840923
 10
591.6775696321889
 20
214.4142814556591
 30
0.0
 10
591.6350389245675
 20
214.407797362355
 30
0.0
 10
591.5717350333562
 20
214.3981462570695
 30
0.0
 10
591.5144892819649
 20
214.352831150094
 30
0.0
 10
591.4822066528411
 20
214.3258716777772
 30
0.0
 10
591.4712239585892
 20
214.2901696835953
 30
0.0
 10
591.4417278907286
 20
214.2627560325595
 30
0.0
 10
591.4174147408514
 20
214.2250808518435
 30
0.0
 10
591.4116093117898
 20
214.1733333808842
 30
0.0
 10
591.4158706296374
 20
214.100713691747
 30
0.0
 10
591.4667873442063
 20
214.0857332477476
 30
0.0
 10
591.4921150828781
 20
214.0782814556591
 30
0.0
 11
591.6775696321889
 21
214.4142814556591
 31
0.0
 11
591.5563110619351
 21
214.3815800228117
 31
0.0
 11
591.5063810382922
 21
214.3459452945181
 31
0.0
 11
591.4849825153245
 21
214.3245643181341
 31
0.0
 11
591.4707165599101
 21
214.2960563496222
 31
0.0
 11
591.4421850592352
 21
214.2604216213288
 31
0.0
 11
591.4207865362672
 21
214.2247866606889
 31
0.0
 11
591.4136535585602
 21
214.1820249402674
 31
0.0
 11
591.4279195139743
 21
214.1107550189876
 31
0.0
 11
591.4921150828781
 21
214.0782814556591
 31
0.0
  0
LINE
  5
EA7
102
{ACAD_REACTORS
330
EA4
102
}
330
18
100
AcDbEntity
  8
ROGO
 62
     4
100
AcDbLine
 10
592.3317961037501
 20
214.0782814556591
 30
0.0
 11
592.0881793830714
 21
213.5897115773184
 31
0.0
  0
SPLINE
  5
EA8
102
{ACAD_REACTORS
330
E99
102
}
330
18
100
AcDbEntity
  8
ROGO
 62
     4
100
AcDbSpline
210
0.0
220
0.0
230
1.0
 70
     8
 71
     3
 72
    18
 73
    14
 74
     0
 42
0.0000000001
 43
0.0000000001
 40
0.1087402787915014
 40
0.1087402787915014
 40
0.1087402787915014
 40
0.1087402787915014
 40
0.5992371417938475
 40
1.083176791562496
 40
1.448211145705696
 40
1.714037220764907
 40
2.164002567013297
 40
2.740236056362883
 40
3.395137510199602
 40
4.071816045172726
 40
4.784906178399433
 40
5.506895915094292
 40
6.060470601257719
 40
6.060470601257719
 40
6.060470601257719
 40
6.060470601257719
 10
585.7205750530191
 20
214.902856507876
 30
0.0
 10
585.7722345906551
 20
214.8839241530283
 30
0.0
 10
585.8738225385056
 20
214.843898261713
 30
0.0
 10
585.9978077740528
 20
214.7525459519216
 30
0.0
 10
586.0654239679774
 20
214.6470871747488
 30
0.0
 10
586.1304631765205
 20
214.543176432446
 30
0.0
 10
586.1395652950315
 20
214.3940988982895
 30
0.0
 10
586.1246554099842
 20
214.2056287627178
 30
0.0
 10
586.0283985391082
 20
214.0089796251971
 30
0.0
 10
585.8739006000267
 20
213.8369825943953
 30
0.0
 10
585.6820806269337
 20
213.6993184140536
 30
0.0
 10
585.4797998488264
 20
213.5912555775582
 30
0.0
 10
585.335209491773
 20
213.5901788569496
 30
0.0
 10
585.2724595748783
 20
213.5897115773184
 30
0.0
  0
SPLINE
  5
EA9
102
{ACAD_REACTORS
330
E99
102
}
330
18
100
AcDbEntity
  8
ROGO
 62
     4
100
AcDbSpline
210
0.0
220
0.0
230
1.0
 70
     8
 71
     3
 72
    15
 73
    11
 74
     9
 42
0.0000000001
 43
0.0000000001
 44
0.0000000001
 40
0.0
 40
0.0
 40
0.0
 40
0.0
 40
0.1539705029176134
 40
0.2241725832588156
 40
0.3038566179397764
 40
0.3581410872474823
 40
0.4439925384673167
 40
0.4954152125471146
 40
0.5836396705646011
 40
0.6130478420065017
 40
0.6130478420065017
 40
0.6130478420065017
 40
0.6130478420065017
 10
585.151200594471
 20
214.3950595966626
 30
0.0
 10
585.2090289295303
 20
214.395324481305
 30
0.0
 10
585.2932238045885
 20
214.3957101387747
 30
0.0
 10
585.3392645609532
 20
214.2915608348452
 30
0.0
 10
585.3186268987194
 20
214.2245049302079
 30
0.0
 10
585.2926836752954
 20
214.1556594159599
 30
0.0
 10
585.2468361237529
 20
214.1088778506905
 30
0.0
 10
585.1853019941579
 20
214.0638193170538
 30
0.0
 10
585.1271493011021
 20
214.0583647797941
 30
0.0
 10
585.0893275021298
 20
214.04834328634
 30
0.0
 10
585.0798720478604
 20
214.0458379117772
 30
0.0
 11
585.151200594471
 21
214.3950595966626
 31
0.0
 11
585.3009906654
 21
214.3594246360227
 31
0.0
 11
585.329522166075
 21
214.2952819392172
 31
0.0
 11
585.315256620814
 21
214.2168852581558
 31
0.0
 11
585.2938580978462
 21
214.16699631326
 31
0.0
 11
585.2367950964961
 21
214.1028536164546
 31
0.0
 11
585.1939980505602
 21
214.0743456479427
 31
0.0
 11
585.1084035485354
 21
214.0529649039052
 31
0.0
 11
585.0798720478604
 21
214.0458379117772
 31
0.0
  0
LINE
  5
EAA
102
{ACAD_REACTORS
330
EBE
102
}
330
18
100
AcDbEntity
  8
ROGO
 62
     4
100
AcDbLine
 10
586.6731990462246
 20
214.9028565078759
 30
0.0
 11
586.0234671469647
 21
213.5897115773184
 31
0.0
  0
LINE
  5
EAB
102
{ACAD_REACTORS
330
EBE
102
}
330
18
100
AcDbEntity
  8
ROGO
 62
     4
100
AcDbLine
 10
588.4492821947086
 20
214.9028565078759
 30
0.0
 11
588.3004479989739
 21
214.6020541771838
 31
0.0
  0
LINE
  5
EAC
102
{ACAD_REACTORS
330
EBE
102
}
330
18
100
AcDbEntity
  8
ROGO
 62
     4
100
AcDbLine
 10
586.0234671469647
 20
213.5897115773184
 30
0.0
 11
587.7995502954485
 21
213.5897115773184
 31
0.0
  0
LINE
  5
EAD
102
{ACAD_REACTORS
330
EBE
102
}
330
18
100
AcDbEntity
  8
ROGO
 62
     4
100
AcDbLine
 10
587.366983576756
 20
214.6020541771838
 30
0.0
 11
587.2506137306794
 21
214.3668641339997
 31
0.0
  0
LINE
  5
EAE
102
{ACAD_REACTORS
330
EBE
102
}
330
18
100
AcDbEntity
  8
ROGO
 62
     4
100
AcDbLine
 10
587.366983576756
 20
214.6020541771838
 30
0.0
 11
588.3004479989739
 21
214.6020541771838
 31
0.0
  0
LINE
  5
EAF
102
{ACAD_REACTORS
330
EBE
102
}
330
18
100
AcDbEntity
  8
ROGO
 62
     4
100
AcDbLine
 10
587.2506137306794
 20
214.3668641339997
 30
0.0
 11
588.1840781528975
 21
214.3668641339997
 31
0.0
  0
LINE
  5
EB0
102
{ACAD_REACTORS
330
EBE
102
}
330
18
100
AcDbEntity
  8
ROGO
 62
     4
100
AcDbLine
 10
587.0149125824394
 20
213.8904987773185
 30
0.0
 11
587.9483770046573
 21
213.8904987773185
 31
0.0
  0
LINE
  5
EB1
102
{ACAD_REACTORS
330
EBE
102
}
330
18
100
AcDbEntity
  8
ROGO
 62
     4
100
AcDbLine
 10
587.1312873550556
 20
214.1256987773185
 30
0.0
 11
588.0647517772735
 21
214.1256987773185
 31
0.0
  0
LINE
  5
EB2
102
{ACAD_REACTORS
330
EBE
102
}
330
18
100
AcDbEntity
  8
ROGO
 62
     4
100
AcDbLine
 10
588.1840781528975
 20
214.3668641339997
 30
0.0
 11
588.0647517772735
 21
214.1256987773185
 31
0.0
  0
LINE
  5
EB3
102
{ACAD_REACTORS
330
EBE
102
}
330
18
100
AcDbEntity
  8
ROGO
 62
     4
100
AcDbLine
 10
587.9483770046573
 20
213.8904987773185
 30
0.0
 11
587.7995502954485
 21
213.5897115773184
 31
0.0
  0
LINE
  5
EB4
102
{ACAD_REACTORS
330
EBE
102
}
330
18
100
AcDbEntity
  8
ROGO
 62
     4
100
AcDbLine
 10
587.1312873550556
 20
214.1256987773185
 30
0.0
 11
587.0149125824392
 21
213.8904987773185
 31
0.0
  0
LINE
  5
EB5
102
{ACAD_REACTORS
330
EC2
102
}
330
18
100
AcDbEntity
  8
ROGO
 62
     4
100
AcDbLine
 10
588.9637764599061
 20
214.9028565078759
 30
0.0
 11
588.016842129807
 21
213.5897115773184
 31
0.0
  0
LINE
  5
EB6
102
{ACAD_REACTORS
330
EC2
102
}
330
18
100
AcDbEntity
  8
ROGO
 62
     4
100
AcDbLine
 10
589.437904316538
 20
214.5518475309242
 30
0.0
 11
589.1145375802246
 21
214.1034242591053
 31
0.0
  0
LINE
  5
EB7
102
{ACAD_REACTORS
330
EC2
102
}
330
18
100
AcDbEntity
  8
ROGO
 62
     4
100
AcDbLine
 10
588.9243798190794
 20
213.8397262474093
 30
0.0
 11
589.7542568078639
 21
213.8397262474093
 31
0.0
  0
LINE
  5
EB8
102
{ACAD_REACTORS
330
EC2
102
}
330
18
100
AcDbEntity
  8
ROGO
 62
     4
100
AcDbLine
 10
589.1145375802246
 20
214.1034242591053
 30
0.0
 11
589.6371117022635
 21
214.1034242591053
 31
0.0
  0
LINE
  5
EB9
102
{ACAD_REACTORS
330
EC2
102
}
330
18
100
AcDbEntity
  8
ROGO
 62
     4
100
AcDbLine
 10
588.9243798190794
 20
213.8397262474093
 30
0.0
 11
588.7440893814986
 21
213.5897115773185
 31
0.0
  0
LINE
  5
EBA
102
{ACAD_REACTORS
330
EC2
102
}
330
18
100
AcDbEntity
  8
ROGO
 62
     4
100
AcDbLine
 10
588.016842129807
 20
213.5897115773184
 30
0.0
 11
588.7440893814986
 21
213.5897115773184
 31
0.0
  0
LINE
  5
EBB
102
{ACAD_REACTORS
330
EC2
102
}
330
18
100
AcDbEntity
  8
ROGO
 62
     4
100
AcDbLine
 10
588.9637764599061
 20
214.9028565078759
 30
0.0
 11
590.0141799426777
 21
214.902856507876
 31
0.0
  0
LINE
  5
EBC
102
{ACAD_REACTORS
330
EC2
102
}
330
18
100
AcDbEntity
  8
ROGO
 62
     4
100
AcDbLine
 10
590.5975309530609
 20
213.5897115773185
 30
0.0
 11
589.8653232309328
 21
213.5897115773184
 31
0.0
  0
LINE
  5
EBD
102
{ACAD_REACTORS
330
EBE
102
}
330
18
100
AcDbEntity
  8
ROGO
 62
     4
100
AcDbLine
 10
586.6731990462246
 20
214.9028565078759
 30
0.0
 11
588.4492821947086
 21
214.902856507876
 31
0.0
  0
HATCH
  5
EBE
330
18
100
AcDbEntity
  8
ROGO
 62
     4
100
AcDbHatch
 10
0.0
 20
0.0
 30
0.0
210
0.0
220
0.0
230
1.0
  2
SOLID
 70
     1
 71
     1
 91
        1
 92
        1
 93
       12
 72
     1
 10
586.6731990462246
 20
214.9028565078759
 11
588.4492821947086
 21
214.902856507876
 72
     1
 10
588.4492821947086
 20
214.9028565078759
 11
588.3004479989739
 21
214.6020541771838
 72
     1
 10
588.3004479989739
 20
214.6020541771838
 11
587.366983576756
 21
214.6020541771838
 72
     1
 10
587.366983576756
 20
214.6020541771838
 11
587.2506137306794
 21
214.3668641339997
 72
     1
 10
587.2506137306794
 20
214.3668641339997
 11
588.1840781528975
 21
214.3668641339997
 72
     1
 10
588.1840781528975
 20
214.3668641339997
 11
588.0647517772735
 21
214.1256987773185
 72
     1
 10
588.0647517772735
 20
214.1256987773185
 11
587.1312873550556
 21
214.1256987773185
 72
     1
 10
587.1312873550556
 20
214.1256987773185
 11
587.0149125824392
 21
213.8904987773185
 72
     1
 10
587.0149125824394
 20
213.8904987773185
 11
587.9483770046573
 21
213.8904987773185
 72
     1
 10
587.9483770046573
 20
213.8904987773185
 11
587.7995502954485
 21
213.5897115773184
 72
     1
 10
587.7995502954485
 20
213.5897115773184
 11
586.0234671469647
 21
213.5897115773184
 72
     1
 10
586.0234671469647
 20
213.5897115773184
 11
586.6731990462246
 21
214.9028565078759
 97
       12
330
EBD
330
EAB
330
EAE
330
EAD
330
EAF
330
EB2
330
EB1
330
EB4
330
EB0
330
EB3
330
EAC
330
EAA
 75
     0
 76
     1
 98
        1
 10
514.0230700675157
 20
124.1047604597646
450
        0
451
        0
460
0.0
461
0.0
452
        0
462
0.0
453
        0
470

  0
LINE
  5
EBF
102
{ACAD_REACTORS
330
EC2
102
}
330
18
100
AcDbEntity
  8
ROGO
 62
     4
100
AcDbLine
 10
590.0141799426777
 20
214.9028565078759
 30
0.0
 11
590.5975309530609
 21
213.5897115773184
 31
0.0
  0
LINE
  5
EC0
102
{ACAD_REACTORS
330
EC2
102
}
330
18
100
AcDbEntity
  8
ROGO
 62
     4
100
AcDbLine
 10
589.437904316538
 20
214.5518475309242
 30
0.0
 11
589.6371117022635
 21
214.1034242591053
 31
0.0
  0
LINE
  5
EC1
102
{ACAD_REACTORS
330
EC2
102
}
330
18
100
AcDbEntity
  8
ROGO
 62
     4
100
AcDbLine
 10
589.7542568078639
 20
213.8397262474093
 30
0.0
 11
589.8653232309328
 21
213.5897115773184
 31
0.0
  0
HATCH
  5
EC2
330
18
100
AcDbEntity
  8
ROGO
 62
     4
100
AcDbHatch
 10
0.0
 20
0.0
 30
0.0
210
0.0
220
0.0
230
1.0
  2
SOLID
 70
     1
 71
     1
 91
        2
 92
        7
 72
     0
 73
     1
 93
        8
 10
590.0141799426775
 20
214.902856507876
 10
588.9637764599062
 20
214.902856507876
 10
588.016842129807
 20
213.5897115773184
 10
588.7440893814986
 20
213.5897115773184
 10
588.9243798190794
 20
213.8397262474093
 10
589.754256807864
 20
213.8397262474093
 10
589.8653232309328
 20
213.5897115773185
 10
590.5975309530609
 20
213.5897115773185
 97
        8
330
EBB
330
EB5
330
EBA
330
EB9
330
EB7
330
EC1
330
EBC
330
EBF
 92
       22
 72
     0
 73
     1
 93
        3
 10
589.6371117022635
 20
214.1034242591053
 10
589.1145375802246
 20
214.1034242591054
 10
589.437904316538
 20
214.5518475309241
 97
        3
330
EB8
330
EB6
330
EC0
 75
     0
 76
     1
 47
0.0128389261915577
 98
        2
 10
589.931925050182
 20
214.5878145910669
 10
589.931925050182
 20
214.5878145910669
450
        0
451
        0
460
0.0
461
0.0
452
        0
462
0.0
453
        0
470

  0
LINE
  5
EC3
102
{ACAD_REACTORS
330
EA4
102
}
330
18
100
AcDbEntity
  8
ROGO
 62
     4
100
AcDbLine
 10
590.9571503680666
 20
213.5897115773184
 30
0.0
 11
592.0881793830714
 21
213.5897115773184
 31
0.0
  0
SPLINE
  5
EC4
102
{ACAD_REACTORS
330
EA4
102
}
330
18
100
AcDbEntity
  8
ROGO
 62
     4
100
AcDbSpline
210
0.0
220
0.0
230
1.0
 70
     8
 71
     3
 72
    26
 73
    22
 74
    20
 42
0.0000000001
 43
0.0000000001
 44
0.0000000001
 40
0.0
 40
0.0
 40
0.0
 40
0.0
 40
0.2382195346591335
 40
0.3976890672661544
 40
0.512679586978814
 40
0.5985392873137052
 40
0.7099038249250326
 40
0.7911890807494987
 40
0.93797130685445
 40
1.05744992867315
 40
1.138714535893408
 40
1.218398644003589
 40
1.360938021870442
 40
1.461730374800332
 40
1.516014844108127
 40
1.593124329220683
 40
1.648806818593667
 40
1.729472362005635
 40
1.775122082164495
 40
1.874460993765192
 40
1.91982000375136
 40
1.91982000375136
 40
1.91982000375136
 40
1.91982000375136
 10
591.4279195139743
 20
214.9028565078759
 30
0.0
 10
591.3470641232159
 20
214.8980325366108
 30
0.0
 10
591.2120823091498
 20
214.8899792901141
 30
0.0
 10
591.0638730984378
 20
214.7999437862558
 30
0.0
 10
590.9552863540277
 20
214.7476011009132
 30
0.0
 10
590.8778424196033
 20
214.6764456794938
 30
0.0
 10
590.821075701736
 20
214.6029473269724
 30
0.0
 10
590.7495105970387
 20
214.5153745788469
 30
0.0
 10
590.6911512991325
 20
214.4133996573826
 30
0.0
 10
590.6614324565993
 20
214.301005516319
 30
0.0
 10
590.6351077879455
 20
214.2114267337603
 30
0.0
 10
590.6155849729727
 20
214.1116028708677
 30
0.0
 10
590.6205521297856
 20
214.0037579827455
 30
0.0
 10
590.62766532567
 20
213.9035971717416
 30
0.0
 10
590.659424015594
 20
213.832097348815
 30
0.0
 10
590.6955915379843
 20
213.7811944018858
 30
0.0
 10
590.7398781738388
 20
213.7251304491869
 30
0.0
 10
590.7883374381565
 20
213.6879994748567
 30
0.0
 10
590.8284172052672
 20
213.6207342197161
 30
0.0
 10
590.8985754855293
 20
213.6121506880399
 30
0.0
 10
590.9431708796055
 20
213.595066898163
 30
0.0
 10
590.9571503680669
 20
213.5897115773184
 30
0.0
 11
591.4279195139743
 21
214.9028565078759
 31
0.0
 11
591.1925349410206
 21
214.8662143257822
 31
0.0
 11
591.0498774376454
 21
214.7949446368488
 31
0.0
 11
590.9500173903596
 21
214.7379289321714
 31
0.0
 11
590.8858218214557
 21
214.6809129951475
 31
0.0
 11
590.8144932748451
 21
214.5953893219582
 31
0.0
 11
590.7645632512022
 21
214.5312466251528
 31
0.0
 11
590.6932342944379
 21
214.4029609991956
 31
0.0
 11
590.6575702262093
 21
214.2889293574943
 31
0.0
 11
590.6361717032413
 21
214.2105326764329
 31
0.0
 11
590.6219057478271
 21
214.1321359953715
 31
0.0
 11
590.6219057478271
 21
213.9895966175047
 31
0.0
 11
590.6361717032413
 21
213.8898189600594
 31
0.0
 11
590.6575702262093
 21
213.8399300151636
 31
0.0
 11
590.7003672721451
 21
213.7757873183581
 31
0.0
 11
590.7360317505271
 21
213.7330253655903
 31
0.0
 11
590.7930943417238
 21
213.6760096609128
 31
0.0
 11
590.8216258423989
 21
213.6403747002729
 31
0.0
 11
590.914353322131
 21
213.6047399719794
 31
0.0
 11
590.9571503680669
 21
213.5897115773184
 31
0.0
  0
LINE
  5
EC5
102
{ACAD_REACTORS
330
E99
102
}
330
18
100
AcDbEntity
  8
ROGO
 62
     4
100
AcDbLine
 10
584.7452135953736
 20
214.3950595966626
 30
0.0
 11
584.5872157990164
 21
214.0458379117772
 31
0.0
  0
LINE
  5
EC6
102
{ACAD_REACTORS
330
E99
102
}
330
18
100
AcDbEntity
  8
ROGO
 62
     4
100
AcDbLine
 10
585.2724595751872
 20
213.5897115773184
 30
0.0
 11
584.3808513067061
 21
213.5897115773184
 31
0.0
  0
LINE
  5
EC7
102
{ACAD_REACTORS
330
E99
102
}
330
18
100
AcDbEntity
  8
ROGO
 62
     4
100
AcDbLine
 10
585.1512005944713
 20
214.3950595966626
 30
0.0
 11
584.7452135953736
 21
214.3950595966626
 31
0.0
  0
LINE
  5
EC8
102
{ACAD_REACTORS
330
E99
102
}
330
18
100
AcDbEntity
  8
ROGO
 62
     4
100
AcDbLine
 10
585.0798720478604
 20
214.0458379117772
 30
0.0
 11
584.5872157990164
 21
214.0458379117772
 31
0.0
  0
LINE
  5
EC9
102
{ACAD_REACTORS
330
EE5
102
}
330
18
100
AcDbEntity
  8
ROGO
 62
     4
100
AcDbLine
 10
598.0051364986349
 20
214.9028565078759
 30
0.0
 11
597.8934311917138
 21
214.6788330990543
 31
0.0
  0
LINE
  5
ECA
102
{ACAD_REACTORS
330
EE5
102
}
330
18
100
AcDbEntity
  8
ROGO
 62
     4
100
AcDbLine
 10
597.8934311917138
 20
214.6788330990543
 30
0.0
 11
598.2474442747927
 21
214.9028565078759
 31
0.0
  0
LINE
  5
ECB
102
{ACAD_REACTORS
330
EE5
102
}
330
18
100
AcDbEntity
  8
ROGO
 62
     4
100
AcDbLine
 10
597.7606027294613
 20
213.8769171154229
 30
0.0
 11
598.2721692452964
 21
212.8509777229699
 31
0.0
  0
LINE
  5
ECC
102
{ACAD_REACTORS
330
EE5
102
}
330
18
100
AcDbEntity
  8
ROGO
 62
     4
100
AcDbLine
 10
597.7606027294613
 20
213.8769171154229
 30
0.0
 11
599.0035114747926
 21
214.9028565078759
 31
0.0
  0
LINE
  5
ECD
102
{ACAD_REACTORS
330
EE5
102
}
330
18
100
AcDbEntity
  8
ROGO
 62
     4
100
AcDbLine
 10
598.2474442747927
 20
214.9028565078759
 30
0.0
 11
599.0035114747926
 21
214.9028565078759
 31
0.0
  0
LINE
  5
ECE
102
{ACAD_REACTORS
330
EE5
102
}
330
18
100
AcDbEntity
  8
ROGO
 62
     4
100
AcDbLine
 10
597.5161020452964
 20
212.8509777229699
 30
0.0
 11
598.2721692452964
 21
212.8509777229699
 31
0.0
  0
LINE
  5
ECF
102
{ACAD_REACTORS
330
EA4
102
}
330
18
100
AcDbEntity
  8
ROGO
 62
     4
100
AcDbLine
 10
592.7429558560805
 20
214.9028565078759
 30
0.0
 11
592.49933655554
 21
214.4142814556591
 31
0.0
  0
LINE
  5
ED0
102
{ACAD_REACTORS
330
EDA
102
}
330
18
100
AcDbEntity
  8
ROGO
 62
     4
100
AcDbLine
 10
595.1882201389945
 20
213.5897115773184
 30
0.0
 11
596.3192491539992
 21
213.5897115773184
 31
0.0
  0
LINE
  5
ED1
102
{ACAD_REACTORS
330
EDA
102
}
330
18
100
AcDbEntity
  8
ROGO
 62
     4
100
AcDbLine
 10
595.6589892849025
 20
214.9028565078759
 30
0.0
 11
596.9740256270084
 21
214.9028565078759
 31
0.0
  0
SPLINE
  5
ED2
102
{ACAD_REACTORS
330
EDA
102
}
330
18
100
AcDbEntity
  8
ROGO
 62
     4
100
AcDbSpline
210
0.0
220
0.0
230
1.0
 70
     8
 71
     3
 72
    16
 73
    12
 74
    10
 42
0.0000000001
 43
0.0000000001
 44
0.0000000001
 40
0.0
 40
0.0
 40
0.0
 40
0.0
 40
0.1255907025629711
 40
0.1869327038470702
 40
0.217182380479092
 40
0.2490606136884975
 40
0.2947101524738793
 40
0.336276331093222
 40
0.3796288870083759
 40
0.4523125795612065
 40
0.5242542460842702
 40
0.5242542460842702
 40
0.5242542460842702
 40
0.5242542460842702
 10
595.9086394031167
 20
214.4142814556591
 30
0.0
 10
595.8661086954953
 20
214.4077973623552
 30
0.0
 10
595.8028048042838
 20
214.3981462570697
 30
0.0
 10
595.7455590528931
 20
214.3528311500937
 30
0.0
 10
595.7132764237687
 20
214.3258716777774
 30
0.0
 10
595.7022937295172
 20
214.2901696835952
 30
0.0
 10
595.6727976616567
 20
214.2627560325595
 30
0.0
 10
595.6484845117794
 20
214.2250808518435
 30
0.0
 10
595.6426790827171
 20
214.1733333808842
 30
0.0
 10
595.6469404005654
 20
214.100713691747
 30
0.0
 10
595.6978571151344
 20
214.0857332477476
 30
0.0
 10
595.7231848538059
 20
214.078281455659
 30
0.0
 11
595.9086394031167
 21
214.4142814556591
 31
0.0
 11
595.787380832863
 21
214.3815800228117
 31
0.0
 11
595.7374508092201
 21
214.345945294518
 31
0.0
 11
595.7160522862522
 21
214.3245643181341
 31
0.0
 11
595.7017863308379
 21
214.2960563496222
 31
0.0
 11
595.673254830163
 21
214.2604216213287
 31
0.0
 11
595.651856307195
 21
214.2247866606888
 31
0.0
 11
595.6447233294879
 21
214.1820249402674
 31
0.0
 11
595.6589892849023
 21
214.1107550189876
 31
0.0
 11
595.7231848538059
 21
214.078281455659
 31
0.0
  0
SPLINE
  5
ED3
102
{ACAD_REACTORS
330
EDA
102
}
330
18
100
AcDbEntity
  8
ROGO
 62
     4
100
AcDbSpline
210
0.0
220
0.0
230
1.0
 70
     8
 71
     3
 72
    26
 73
    22
 74
    20
 42
0.0000000001
 43
0.0000000001
 44
0.0000000001
 40
0.0
 40
0.0
 40
0.0
 40
0.0
 40
0.2382195346593581
 40
0.3976890672661757
 40
0.5126795869788353
 40
0.5985392873135565
 40
0.7099038249250731
 40
0.7911890807494944
 40
0.9379713068544953
 40
1.057449928673249
 40
1.138714535893398
 40
1.218398644003579
 40
1.360938021870432
 40
1.461730374800322
 40
1.51601484410817
 40
1.593124329220552
 40
1.648806818593871
 40
1.729472362005637
 40
1.775122082164356
 40
1.874460993765265
 40
1.919820003751433
 40
1.919820003751433
 40
1.919820003751433
 40
1.919820003751433
 10
595.6589892849023
 20
214.9028565078759
 30
0.0
 10
595.5781338941435
 20
214.8980325366109
 30
0.0
 10
595.4431520800775
 20
214.8899792901142
 30
0.0
 10
595.2949428693658
 20
214.7999437862558
 30
0.0
 10
595.1863561249559
 20
214.7476011009134
 30
0.0
 10
595.1089121905314
 20
214.6764456794936
 30
0.0
 10
595.0521454726639
 20
214.6029473269724
 30
0.0
 10
594.9805803679665
 20
214.515374578847
 30
0.0
 10
594.9222210700602
 20
214.4133996573823
 30
0.0
 10
594.8925022275274
 20
214.3010055163192
 30
0.0
 10
594.8661775588733
 20
214.2114267337602
 30
0.0
 10
594.8466547439006
 20
214.1116028708678
 30
0.0
 10
594.8516219007133
 20
214.0037579827454
 30
0.0
 10
594.8587350965978
 20
213.9035971717416
 30
0.0
 10
594.890493786522
 20
213.832097348815
 30
0.0
 10
594.9266613089118
 20
213.7811944018856
 30
0.0
 10
594.9709479447668
 20
213.725130449187
 30
0.0
 10
595.0194072090845
 20
213.6879994748567
 30
0.0
 10
595.0594869761947
 20
213.620734219716
 30
0.0
 10
595.1296452564573
 20
213.61215068804
 30
0.0
 10
595.1742406505332
 20
213.5950668981629
 30
0.0
 10
595.1882201389947
 20
213.5897115773184
 30
0.0
 11
595.6589892849023
 21
214.9028565078759
 31
0.0
 11
595.4236047119483
 21
214.8662143257822
 31
0.0
 11
595.2809472085733
 21
214.7949446368488
 31
0.0
 11
595.1810871612876
 21
214.7379289321714
 31
0.0
 11
595.1168915923839
 21
214.6809129951475
 31
0.0
 11
595.0455630457731
 21
214.5953893219581
 31
0.0
 11
594.9956330221302
 21
214.5312466251528
 31
0.0
 11
594.9243040653658
 21
214.4029609991955
 31
0.0
 11
594.8886399971371
 21
214.2889293574942
 31
0.0
 11
594.8672414741691
 21
214.2105326764329
 31
0.0
 11
594.8529755187549
 21
214.1321359953715
 31
0.0
 11
594.8529755187549
 21
213.9895966175047
 31
0.0
 11
594.8672414741691
 21
213.8898189600594
 31
0.0
 11
594.8886399971371
 21
213.8399300151635
 31
0.0
 11
594.9314370430728
 21
213.7757873183581
 31
0.0
 11
594.9671015214552
 21
213.7330253655902
 31
0.0
 11
595.0241641126516
 21
213.6760096609128
 31
0.0
 11
595.0526956133265
 21
213.6403747002729
 31
0.0
 11
595.1454230930588
 21
213.6047399719794
 31
0.0
 11
595.1882201389947
 21
213.5897115773184
 31
0.0
  0
LINE
  5
ED4
102
{ACAD_REACTORS
330
EDA
102
}
330
18
100
AcDbEntity
  8
ROGO
 62
     4
100
AcDbLine
 10
596.5628658746781
 20
214.0782814556591
 30
0.0
 11
596.3192491539992
 21
213.5897115773184
 31
0.0
  0
LINE
  5
ED5
102
{ACAD_REACTORS
330
EDA
102
}
330
18
100
AcDbEntity
  8
ROGO
 62
     4
100
AcDbLine
 10
595.7231848538059
 20
214.0782814556591
 30
0.0
 11
596.5628658746781
 21
214.0782814556591
 31
0.0
  0
LINE
  5
ED6
102
{ACAD_REACTORS
330
EDA
102
}
330
18
100
AcDbEntity
  8
ROGO
 62
     4
100
AcDbLine
 10
595.9086394031167
 20
214.4142814556591
 30
0.0
 11
596.7304063264679
 21
214.4142814556591
 31
0.0
  0
LINE
  5
ED7
102
{ACAD_REACTORS
330
EDA
102
}
330
18
100
AcDbEntity
  8
ROGO
 62
     4
100
AcDbLine
 10
596.9740256270084
 20
214.9028565078759
 30
0.0
 11
596.7304063264679
 21
214.4142814556591
 31
0.0
  0
LINE
  5
ED8
102
{ACAD_REACTORS
330
E98
330
EE5
102
}
330
18
100
AcDbEntity
  8
ROGO
 62
     4
100
AcDbLine
 10
597.2490527561307
 20
214.9028565078759
 30
0.0
 11
596.2259197244608
 21
212.8509777229699
 31
0.0
  0
LINE
  5
ED9
102
{ACAD_REACTORS
330
EE5
102
}
330
18
100
AcDbEntity
  8
ROGO
 62
     4
100
AcDbLine
 10
597.2490527561307
 20
213.3865412850895
 30
0.0
 11
596.982003466965
 21
212.8509777229699
 31
0.0
  0
HATCH
  5
EDA
330
18
100
AcDbEntity
  8
ROGO
 62
     4
100
AcDbHatch
 10
0.0
 20
0.0
 30
0.0
210
0.0
220
0.0
230
1.0
  2
SOLID
 70
     1
 71
     1
 91
        1
 92
        5
 93
        8
 72
     4
 94
        3
 73
     0
 74
     0
 95
       26
 96
       22
 40
0.0
 40
0.0
 40
0.0
 40
0.0
 40
0.2382195346592458
 40
0.3976890672660633
 40
0.512679586978723
 40
0.5985392873135292
 40
0.709903824924973
 40
0.7911890807494641
 40
0.9379713068544097
 40
1.057449928673164
 40
1.138714535893313
 40
1.218398644003493
 40
1.360938021870347
 40
1.461730374800236
 40
1.516014844108084
 40
1.593124329220467
 40
1.648806818593713
 40
1.72947236200556
 40
1.775122082164349
 40
1.874460993765152
 40
1.919820003751213
 40
1.919820003751213
 40
1.919820003751213
 40
1.919820003751213
 10
595.6589892849023
 20
214.9028565078759
 10
595.5781338941436
 20
214.8980325366108
 10
595.4431520800775
 20
214.8899792901141
 10
595.2949428693658
 20
214.7999437862558
 10
595.1863561249557
 20
214.7476011009134
 10
595.1089121905314
 20
214.6764456794937
 10
595.0521454726639
 20
214.6029473269723
 10
594.9805803679663
 20
214.515374578847
 10
594.9222210700603
 20
214.4133996573824
 10
594.8925022275274
 20
214.3010055163191
 10
594.8661775588733
 20
214.2114267337602
 10
594.8466547439005
 20
214.1116028708677
 10
594.8516219007134
 20
214.0037579827455
 10
594.858735096598
 20
213.9035971717416
 10
594.8904937865219
 20
213.8320973488151
 10
594.926661308912
 20
213.7811944018856
 10
594.9709479447673
 20
213.7251304491871
 10
595.0194072090843
 20
213.6879994748567
 10
595.059486976195
 20
213.6207342197161
 10
595.1296452564573
 20
213.6121506880399
 10
595.1742406505332
 20
213.5950668981629
 10
595.1882201389947
 20
213.5897115773184
 72
     1
 10
595.1882201389947
 20
213.5897115773184
 11
596.3192491539992
 21
213.5897115773184
 72
     1
 10
596.3192491539992
 20
213.5897115773184
 11
596.5628658746779
 21
214.078281455659
 72
     1
 10
596.5628658746779
 20
214.078281455659
 11
595.7231848538059
 21
214.0782814556591
 72
     4
 94
        3
 73
     0
 74
     0
 95
       16
 96
       12
 40
0.0
 40
0.0
 40
0.0
 40
0.0
 40
0.0719416665231652
 40
0.1446253590759511
 40
0.1879779149910863
 40
0.2295440936104291
 40
0.2751936323958108
 40
0.3070718656052164
 40
0.3373215422372382
 40
0.3986635435213372
 40
0.5242542460843084
 40
0.5242542460843084
 40
0.5242542460843084
 40
0.5242542460843084
 10
595.7231848538059
 20
214.078281455659
 10
595.6978571151343
 20
214.0857332477476
 10
595.6469404005651
 20
214.1007136917469
 10
595.6426790827175
 20
214.1733333808842
 10
595.6484845117792
 20
214.2250808518434
 10
595.6727976616565
 20
214.2627560325595
 10
595.7022937295172
 20
214.2901696835952
 10
595.7132764237688
 20
214.3258716777774
 10
595.7455590528929
 20
214.3528311500938
 10
595.8028048042839
 20
214.3981462570696
 10
595.8661086954951
 20
214.4077973623551
 10
595.9086394031167
 20
214.4142814556591
 72
     1
 10
595.9086394031167
 20
214.4142814556591
 11
596.7304063264678
 21
214.4142814556591
 72
     1
 10
596.7304063264678
 20
214.4142814556591
 11
596.9740256270084
 21
214.9028565078759
 72
     1
 10
596.9740256270084
 20
214.9028565078759
 11
595.6589892849023
 21
214.902856507876
 97
        8
330
ED1
330
ED3
330
ED0
330
ED4
330
ED5
330
ED2
330
ED6
330
ED7
 75
     0
 76
     1
 47
0.0514683685270805
 98
        1
 10
595.8859067145871
 20
214.6624152046968
450
        0
451
        0
460
0.0
461
0.0
452
        0
462
0.0
453
        0
470

  0
SPLINE
  5
EDB
102
{ACAD_REACTORS
330
EE2
102
}
330
18
100
AcDbEntity
  8
ROGO
 62
     4
100
AcDbSpline
210
0.0
220
0.0
230
1.0
 70
     8
 71
     3
 72
    38
 73
    34
 74
    32
 42
0.0000000001
 43
0.0000000001
 44
0.0000000001
 40
0.0
 40
0.0
 40
0.0
 40
0.0
 40
0.1807680148265444
 40
0.2375392910070084
 40
0.310486520960576
 40
0.3712759982447061
 40
0.4225667543873144
 40
0.4906925837207164
 40
0.5255021974952974
 40
0.5647069597053398
 40
0.6224874016819859
 40
0.6879401044674641
 40
0.7303986317552034
 40
0.7765228362185899
 40
0.8277951442291222
 40
0.9056034697002225
 40
0.9795294930265539
 40
1.013897332333113
 40
1.053089255536144
 40
1.099518741889764
 40
1.13257056982086
 40
1.160277520290392
 40
1.199836786293985
 40
1.243305643169264
 40
1.286774258017089
 40
1.324809356515799
 40
1.41191649291777
 40
1.446284332224329
 40
1.515020051661325
 40
1.575779369908549
 40
1.69209852953638
 40
1.835624328519202
 40
2.042896467984058
 40
2.042896467984058
 40
2.042896467984058
 40
2.042896467984058
 10
593.4721811761233
 20
214.9083337270483
 30
0.0
 10
593.4119257784975
 20
214.9040771079474
 30
0.0
 10
593.3327468128764
 20
214.8984836721602
 30
0.0
 10
593.232208040367
 20
214.8709390459554
 30
0.0
 10
593.177403285926
 20
214.8381245264973
 30
0.0
 10
593.1203679846089
 20
214.8140042817969
 30
0.0
 10
593.0717400782238
 20
214.7782869825476
 30
0.0
 10
593.0225539775279
 20
214.7598822023542
 30
0.0
 10
592.9881123641519
 20
214.7266950939816
 30
0.0
 10
592.948249006019
 20
214.7064229758066
 30
0.0
 10
592.9165051061838
 20
214.6610480817923
 30
0.0
 10
592.881024429652
 20
214.6186242001336
 30
0.0
 10
592.8398623812451
 20
214.5876566585564
 30
0.0
 10
592.8060801356856
 20
214.5551316795939
 30
0.0
 10
592.7750896227612
 20
214.5049358644103
 30
0.0
 10
592.7567480501902
 20
214.4382404897242
 30
0.0
 10
592.7050462357806
 20
214.3961314354394
 30
0.0
 10
592.6972615612976
 20
214.3455037877631
 30
0.0
 10
592.668663711102
 20
214.3156343275725
 30
0.0
 10
592.6562283656461
 20
214.2770771455874
 30
0.0
 10
592.6514923875221
 20
214.2417519562668
 30
0.0
 10
592.64580808448
 20
214.2087606748384
 30
0.0
 10
592.6309390242472
 20
214.1740553041006
 30
0.0
 10
592.6357923368086
 20
214.1311850251657
 30
0.0
 10
592.6344097737666
 20
214.0896723111391
 30
0.0
 10
592.6352234137397
 20
214.0336288545277
 30
0.0
 10
592.6322868743938
 20
213.9790636576083
 30
0.0
 10
592.6557046249086
 20
213.9196837814397
 30
0.0
 10
592.6695624725119
 20
213.8667548367733
 30
0.0
 10
592.7075144424551
 20
213.7934682945218
 30
0.0
 10
592.7729807952732
 20
213.7089114708129
 30
0.0
 10
592.8974705412906
 20
213.60627550752
 30
0.0
 10
593.0171710718501
 20
213.5958635668028
 30
0.0
 10
593.0878972145802
 20
213.5897115773184
 30
0.0
 11
593.4721811761233
 21
214.9083337270483
 31
0.0
 11
593.2927245391759
 21
214.8865991775969
 31
0.0
 11
593.2383437530478
 21
214.8702986285496
 31
0.0
 11
593.17308706604
 21
214.8376970463999
 31
0.0
 11
593.1187062799118
 21
214.8105292226269
 31
0.0
 11
593.0752018219065
 21
214.7833611568264
 31
0.0
 11
593.0153830853384
 21
214.7507598167043
 31
0.0
 11
592.9881924786526
 21
214.7290255092804
 31
0.0
 11
592.9555639215272
 21
214.7072909598289
 31
0.0
 11
592.9174974139617
 21
214.6638223449811
 31
0.0
 11
592.8739929559566
 21
214.6149202137841
 31
0.0
 11
592.8413643988309
 21
214.5877521479837
 31
0.0
 11
592.8087362689486
 21
214.5551508078615
 31
0.0
 11
592.7815456622628
 21
214.5116821930137
 31
0.0
 11
592.7489175323806
 21
214.4410455123654
 31
0.0
 11
592.7054126471319
 21
214.3812761064428
 31
0.0
 11
592.6945367462523
 21
214.3486745242932
 31
0.0
 11
592.6727845172496
 21
214.3160731841709
 31
0.0
 11
592.6564702386868
 21
214.2726043272957
 31
0.0
 11
592.6510318610038
 21
214.2400029871735
 31
0.0
 11
592.6455939105641
 21
214.2128349213731
 31
0.0
 11
592.6347180096842
 21
214.1748000649018
 31
0.0
 11
592.6347180096842
 21
214.1313312080265
 31
0.0
 11
592.6347180096842
 21
214.0878625931787
 31
0.0
 11
592.6347180096842
 21
214.04982749468
 31
0.0
 11
592.6401559601242
 21
213.9628902649842
 31
0.0
 11
592.6510318610038
 21
213.9302886828347
 31
0.0
 11
592.6727845172496
 21
213.8650857605629
 31
0.0
 11
592.6999746966922
 21
213.8107498709894
 31
0.0
 11
592.7706697613831
 21
213.7183791249446
 31
0.0
 11
592.8848692840793
 21
213.6314416532215
 31
0.0
 11
593.0878972145802
 21
213.5897115773184
 31
0.0
  0
SPLINE
  5
EDC
102
{ACAD_REACTORS
330
EE2
102
}
330
18
100
AcDbEntity
  8
ROGO
 62
     4
100
AcDbSpline
210
0.0
220
0.0
230
1.0
 70
     8
 71
     3
 72
    25
 73
    21
 74
     0
 42
0.0000000001
 43
0.0000000001
 40
0.0
 40
0.0
 40
0.0
 40
0.0
 40
0.4087168505087288
 40
0.6887487002771746
 40
0.9415836120477687
 40
1.17452070575514
 40
1.41154617586699
 40
1.599156012919487
 40
1.80099909059943
 40
2.178735911501585
 40
2.521686161369157
 40
2.762704659361267
 40
3.06256558063785
 40
3.222432137207705
 40
3.399493810628493
 40
3.567459719866414
 40
3.743172740007509
 40
3.995988754699505
 40
4.17170091132118
 40
4.337226830236035
 40
4.337226830236035
 40
4.337226830236035
 40
4.337226830236035
 10
594.2226349993087
 20
214.9083337270483
 30
0.0
 10
594.2718550497342
 20
214.9067523375921
 30
0.0
 10
594.3547981574528
 20
214.9040874610861
 30
0.0
 10
594.443847816074
 20
214.8344847717106
 30
0.0
 10
594.5119860368333
 20
214.7767788093956
 30
0.0
 10
594.5603513916938
 20
214.7070150030615
 30
0.0
 10
594.6027449803363
 20
214.6428708993843
 30
0.0
 10
594.6306791411055
 20
214.5751494847182
 30
0.0
 10
594.6686751187802
 20
214.4938899891814
 30
0.0
 10
594.6844035764276
 20
214.3851768567503
 30
0.0
 10
594.6737771330908
 20
214.2728118037048
 30
0.0
 10
594.6460470775933
 20
214.1732105200013
 30
0.0
 10
594.6169604788932
 20
214.0967987548572
 30
0.0
 10
594.5826784599761
 20
214.0302775728666
 30
0.0
 10
594.5418099126719
 20
213.9872051023675
 30
0.0
 10
594.5134569571329
 20
213.93243887602
 30
0.0
 10
594.4589945564156
 20
213.8876430431466
 30
0.0
 10
594.414844396609
 20
213.8323712726926
 30
0.0
 10
594.3647431599694
 20
213.7849309243539
 30
0.0
 10
594.3364958606654
 20
213.7556608011323
 30
0.0
 10
594.3216032032718
 20
213.7433540571866
 30
0.0
  0
LINE
  5
EDD
102
{ACAD_REACTORS
330
EE2
102
}
330
18
100
AcDbEntity
  8
ROGO
 62
     4
100
AcDbLine
 10
593.4721811761233
 20
214.9083337270483
 30
0.0
 11
594.2226349993087
 21
214.9083337270483
 31
0.0
  0
LINE
  5
EDE
102
{ACAD_REACTORS
330
EE2
102
}
330
18
100
AcDbEntity
  8
ROGO
 62
     4
100
AcDbLine
 10
593.0878972145802
 20
213.5897115773184
 30
0.0
 11
593.8383510377656
 21
213.5897115773184
 31
0.0
  0
SPLINE
  5
EDF
102
{ACAD_REACTORS
330
EE2
102
}
330
18
100
AcDbEntity
  8
ROGO
 62
     4
100
AcDbSpline
210
0.0
220
0.0
230
1.0
 70
     8
 71
     3
 72
    11
 73
     7
 74
     0
 42
0.0000000001
 43
0.0000000001
 40
0.1647869275458134
 40
0.1647869275458134
 40
0.1647869275458134
 40
0.1647869275458134
 40
0.2895635144633836
 40
0.5387013147903714
 40
0.7953622617455423
 40
0.8850764140209602
 40
0.8850764140209602
 40
0.8850764140209602
 40
0.8850764140209602
 10
594.0883684963836
 20
213.618988024227
 30
0.0
 10
594.0743899535826
 20
213.6150970915106
 30
0.0
 10
594.0310489421484
 20
213.6081695017267
 30
0.0
 10
593.9583501750104
 20
213.5986571073533
 30
0.0
 10
593.8892536329141
 20
213.5887305767687
 30
0.0
 10
593.8488229380856
 20
213.5895097616755
 30
0.0
 10
593.8383510377656
 20
213.5897115773184
 30
0.0
  0
SPLINE
  5
EE0
102
{ACAD_REACTORS
330
EE2
102
}
330
18
100
AcDbEntity
  8
ROGO
 62
     4
100
AcDbSpline
210
0.0
220
0.0
230
1.0
 70
     8
 71
     3
 72
     9
 73
     5
 74
     3
 42
0.0000000001
 43
0.0000000001
 44
0.0000000001
 40
0.0
 40
0.0
 40
0.0
 40
0.0
 40
0.1135793343552172
 40
0.2662938392178344
 40
0.2662938392178344
 40
0.2662938392178344
 40
0.2662938392178344
 10
594.0883684963836
 20
213.618988024227
 30
0.0
 10
594.1248534647017
 20
213.6301503639503
 30
0.0
 10
594.2103947503791
 20
213.6563211662042
 30
0.0
 10
594.2810714476158
 20
213.7116334839787
 30
0.0
 10
594.3216032032718
 20
213.7433540571866
 30
0.0
 11
594.0883684963836
 21
213.618988024227
 31
0.0
 11
594.1951192606082
 21
213.6577764184968
 31
0.0
 11
594.3216032032718
 21
213.7433540571866
 31
0.0
  0
ELLIPSE
  5
EE1
102
{ACAD_REACTORS
330
EE2
102
}
330
18
100
AcDbEntity
  8
ROGO
 62
     4
100
AcDbEllipse
 10
593.644639570754
 20
214.2306377348293
 30
0.0
 11
0.1782847090673272
 21
0.1567790921840611
 31
0.0
210
0.0
220
0.0
230
0.9999999999999998
 40
0.6788083417438792
 41
0.0
 42
6.283185307179586
  0
HATCH
  5
EE2
330
18
100
AcDbEntity
  8
ROGO
 62
     4
100
AcDbHatch
 10
0.0
 20
0.0
 30
0.0
210
0.0
220
0.0
230
1.0
  2
SOLID
 70
     1
 71
     1
 91
        2
 92
        5
 93
        6
 72
     4
 94
        3
 73
     0
 74
     0
 95
       38
 96
       34
 40
0.0
 40
0.0
 40
0.0
 40
0.0
 40
0.1807680148264315
 40
0.2375392910068956
 40
0.3104865209605649
 40
0.371275998244695
 40
0.4225667543873034
 40
0.4906925837207053
 40
0.5255021974951975
 40
0.5647069597052399
 40
0.6224874016818859
 40
0.6879401044674396
 40
0.730398631755179
 40
0.7765228362185655
 40
0.8277951442290374
 40
0.9056034697002331
 40
0.9795294930264308
 40
1.013897332333026
 40
1.053089255536057
 40
1.099518741889677
 40
1.132570569820754
 40
1.160277520290309
 40
1.199836786293901
 40
1.24330564316918
 40
1.286774258017005
 40
1.324809356515716
 40
1.411916492917686
 40
1.446284332224282
 40
1.515020051661241
 40
1.575779369908466
 40
1.692098529536296
 40
1.835624328519119
 40
2.042896467983974
 40
2.042896467983974
 40
2.042896467983974
 40
2.042896467983974
 10
593.4721811761233
 20
214.9083337270483
 10
593.4119257784977
 20
214.9040771079474
 10
593.3327468128767
 20
214.8984836721602
 10
593.2322080403667
 20
214.8709390459552
 10
593.177403285926
 20
214.8381245264973
 10
593.120367984609
 20
214.8140042817969
 10
593.0717400782235
 20
214.7782869825476
 10
593.0225539775279
 20
214.7598822023543
 10
592.988112364152
 20
214.7266950939815
 10
592.9482490060191
 20
214.7064229758066
 10
592.916505106184
 20
214.6610480817923
 10
592.881024429652
 20
214.6186242001336
 10
592.8398623812453
 20
214.5876566585565
 10
592.8060801356856
 20
214.5551316795939
 10
592.7750896227611
 20
214.50493586441
 10
592.7567480501901
 20
214.4382404897243
 10
592.705046235781
 20
214.3961314354393
 10
592.6972615612974
 20
214.3455037877631
 10
592.668663711102
 20
214.3156343275725
 10
592.6562283656458
 20
214.2770771455873
 10
592.6514923875223
 20
214.2417519562668
 10
592.6458080844798
 20
214.2087606748384
 10
592.6309390242473
 20
214.1740553041007
 10
592.6357923368085
 20
214.1311850251656
 10
592.6344097737666
 20
214.0896723111391
 10
592.6352234137399
 20
214.0336288545277
 10
592.632286874394
 20
213.9790636576082
 10
592.6557046249087
 20
213.9196837814397
 10
592.6695624725117
 20
213.8667548367731
 10
592.7075144424551
 20
213.7934682945218
 10
592.7729807952731
 20
213.7089114708128
 10
592.8974705412905
 20
213.60627550752
 10
593.0171710718499
 20
213.5958635668028
 10
593.0878972145802
 20
213.5897115773184
 72
     1
 10
593.0878972145803
 20
213.5897115773185
 11
593.8383510377653
 21
213.5897115773184
 72
     4
 94
        3
 73
     0
 74
     0
 95
       11
 96
        7
 40
0.1647869275458135
 40
0.1647869275458135
 40
0.1647869275458135
 40
0.1647869275458135
 40
0.2545010798212315
 40
0.5111620267764023
 40
0.7602998271033902
 40
0.8850764140209603
 40
0.8850764140209603
 40
0.8850764140209603
 40
0.8850764140209603
 10
593.8383510377656
 20
213.5897115773184
 10
593.8488229380856
 20
213.5895097616755
 10
593.8892536329141
 20
213.5887305767687
 10
593.9583501750104
 20
213.5986571073533
 10
594.0310489421484
 20
213.6081695017267
 10
594.0743899535826
 20
213.6150970915106
 10
594.0883684963836
 20
213.618988024227
 72
     4
 94
        3
 73
     0
 74
     0
 95
        9
 96
        5
 40
0.0
 40
0.0
 40
0.0
 40
0.0
 40
0.1135793343552172
 40
0.2662938392177403
 40
0.2662938392177403
 40
0.2662938392177403
 40
0.2662938392177403
 10
594.0883684963836
 20
213.618988024227
 10
594.1248534647017
 20
213.6301503639503
 10
594.2103947503788
 20
213.6563211662042
 10
594.2810714476157
 20
213.7116334839787
 10
594.3216032032718
 20
213.7433540571866
 72
     4
 94
        3
 73
     0
 74
     0
 95
       25
 96
       21
 40
0.0
 40
0.0
 40
0.0
 40
0.0
 40
0.165525918914855
 40
0.3412380755365305
 40
0.5940540902285263
 40
0.7697671103696209
 40
0.9377330196075423
 40
1.11479469302833
 40
1.274661249598185
 40
1.574522170874768
 40
1.815540668866877
 40
2.15849091873445
 40
2.536227739636605
 40
2.738070817316548
 40
2.925680654369045
 40
3.162706124480894
 40
3.395643218188267
 40
3.648478129958861
 40
3.928509979727306
 40
4.337226830236035
 40
4.337226830236035
 40
4.337226830236035
 40
4.337226830236035
 10
594.3216032032718
 20
213.7433540571866
 10
594.3364958606654
 20
213.7556608011323
 10
594.3647431599694
 20
213.7849309243539
 10
594.414844396609
 20
213.8323712726926
 10
594.4589945564156
 20
213.8876430431466
 10
594.5134569571329
 20
213.93243887602
 10
594.5418099126719
 20
213.9872051023675
 10
594.5826784599761
 20
214.0302775728666
 10
594.6169604788932
 20
214.0967987548572
 10
594.6460470775933
 20
214.1732105200013
 10
594.6737771330908
 20
214.2728118037048
 10
594.6844035764276
 20
214.3851768567503
 10
594.6686751187802
 20
214.4938899891814
 10
594.6306791411055
 20
214.5751494847182
 10
594.6027449803363
 20
214.6428708993843
 10
594.5603513916938
 20
214.7070150030615
 10
594.5119860368333
 20
214.7767788093956
 10
594.443847816074
 20
214.8344847717106
 10
594.3547981574528
 20
214.9040874610861
 10
594.2718550497342
 20
214.9067523375921
 10
594.2226349993087
 20
214.9083337270483
 72
     1
 10
594.2226349993086
 20
214.9083337270483
 11
593.4721811761233
 21
214.9083337270483
 97
        6
330
EDC
330
EDD
330
EDB
330
EDE
330
EDF
330
EE0
 92
       20
 93
        1
 72
     3
 10
593.644639570754
 20
214.2306377348293
 11
0.1782847090673272
 21
0.1567790921840611
 40
0.678808341743879
 50
0.0
 51
360.0
 73
     1
 97
        1
330
EE1
 75
     0
 76
     1
 47
0.088756267210375
 98
        2
 10
593.6970708465227
 20
214.5441250051533
 10
593.6970708465227
 20
214.5441250051533
450
        0
451
        0
460
0.0
461
0.0
452
        0
462
0.0
453
        0
470

  0
LINE
  5
EE3
102
{ACAD_REACTORS
330
EE5
102
}
330
18
100
AcDbEntity
  8
ROGO
 62
     4
100
AcDbLine
 10
597.2490527561307
 20
214.9028565078759
 30
0.0
 11
598.0051364986349
 21
214.9028565078759
 31
0.0
  0
LINE
  5
EE4
102
{ACAD_REACTORS
330
EE5
102
}
330
18
100
AcDbEntity
  8
ROGO
 62
     4
100
AcDbLine
 10
597.2490527561307
 20
213.3865412850895
 30
0.0
 11
597.5161020452964
 21
212.8509777229699
 31
0.0
  0
HATCH
  5
EE5
330
18
100
AcDbEntity
  8
ROGO
 62
     4
100
AcDbHatch
 10
0.0
 20
0.0
 30
0.0
210
0.0
220
0.0
230
1.0
  2
SOLID
 70
     1
 71
     1
 91
        1
 92
        7
 72
     0
 73
     1
 93
       11
 10
596.2259197244606
 20
212.85097772297
 10
596.982003466965
 20
212.8509777229699
 10
597.2490527561307
 20
213.3865412850895
 10
597.5161020452964
 20
212.8509777229699
 10
598.2721692452962
 20
212.8509777229699
 10
597.7606027294613
 20
213.8769171154229
 10
599.0035114747925
 20
214.9028565078759
 10
598.2474442747927
 20
214.9028565078759
 10
597.8934311917138
 20
214.6788330990544
 10
598.0051364986349
 20
214.9028565078759
 10
597.2490527561307
 20
214.9028565078759
 97
       11
330
ECD
330
ECA
330
EC9
330
EE3
330
ED8
330
E96
330
ED9
330
EE4
330
ECE
330
ECB
330
ECC
 75
     0
 76
     1
 47
0.0514683685270805
 98
        1
 10
597.1839815097268
 20
214.0225605244344
450
        0
451
        0
460
0.0
461
0.0
452
        0
462
0.0
453
        0
470

  0
LINE
  5
EE7
330
18
100
AcDbEntity
  8
目盛
100
AcDbLine
 10
575.0308694185158
 20
222.304168297462
 30
0.0
 11
576.3999636303732
 21
220.8462310426191
 31
0.0
  0
LINE
  5
EE8
330
18
100
AcDbEntity
  8
目盛
100
AcDbLine
 10
574.0091744241832
 20
221.2824733031293
 30
0.0
 11
575.4671116790261
 21
219.9133790912719
 31
0.0
  0
LINE
  5
EE9
330
18
100
AcDbEntity
  8
目盛
100
AcDbLine
 10
573.0536482710325
 20
220.1986416309893
 30
0.0
 11
574.5946747565841
 21
218.9237936514919
 31
0.0
  0
LINE
  5
EEA
330
18
100
AcDbEntity
  8
目盛
100
AcDbLine
 10
572.1680619842516
 20
219.0569506694963
 30
0.0
 11
574.5951129673766
 21
217.2935949126189
 31
0.0
  0
LINE
  5
EEB
330
18
100
AcDbEntity
  8
目盛
100
AcDbLine
 10
571.3559105683292
 20
217.8619061512863
 30
0.0
 11
573.0445664193333
 21
216.7902525613284
 31
0.0
  0
TEXT
  5
EEC
330
18
100
AcDbEntity
  8
文字
100
AcDbText
 10
579.0585288181429
 20
219.5552831954268
 30
0.0
 40
2.0
  1
9
  7
STYLE3
100
AcDbText
  0
LINE
  5
EED
330
18
100
AcDbEntity
  8
目盛
100
AcDbLine
 10
576.1147010906557
 20
223.2596944506127
 30
0.0
 11
577.389549070153
 21
221.7186679650611
 31
0.0
  0
LINE
  5
EEE
330
18
100
AcDbEntity
  8
目盛
100
AcDbLine
 10
582.308588143128
 20
226.9227490421992
 30
0.0
 11
583.0448372484974
 21
225.0631960704227
 31
0.0
  0
LINE
  5
EEF
330
18
100
AcDbEntity
  8
目盛
100
AcDbLine
 10
580.9825291488788
 20
226.3489120734878
 30
0.0
 11
581.8340877320091
 21
224.5392579685558
 31
0.0
  0
LINE
  5
EF0
330
18
100
AcDbEntity
  8
目盛
100
AcDbLine
 10
579.6951183505361
 20
225.6929435077783
 30
0.0
 11
580.6586256987396
 21
223.9403301476906
 31
0.0
  0
LINE
  5
EF1
330
18
100
AcDbEntity
  8
目盛
100
AcDbLine
 10
578.4514365703586
 20
224.9574321533157
 30
0.0
 11
579.5230901603166
 21
223.2687763023117
 31
0.0
  0
LINE
  5
EF2
330
18
100
AcDbEntity
  8
目盛
100
AcDbLine
 10
577.2563920521487
 20
224.1452807373932
 30
0.0
 11
579.0197478090261
 21
221.7182297542684
 31
0.0
  0
TEXT
  5
EF3
330
18
100
AcDbEntity
  8
文字
100
AcDbText
 10
589.793688951477
 20
222.4592952116645
 30
0.0
 40
2.0
  1
0
  7
STYLE3
100
AcDbText
  0
LINE
  5
EF4
330
18
100
AcDbEntity
  8
目盛
100
AcDbLine
 10
599.2423175666234
 20
226.9227490421991
 30
0.0
 11
598.5060684612538
 21
225.0631960704226
 31
0.0
  0
LINE
  5
EF5
330
18
100
AcDbEntity
  8
目盛
100
AcDbLine
 10
613.7300676087257
 20
204.0937079175952
 30
0.0
 11
611.7340141518692
 21
204.2192889566538
 31
0.0
  0
LINE
  5
EF6
330
18
100
AcDbEntity
  8
目盛
100
AcDbLine
 10
609.3828437254993
 20
192.0188290640425
 30
0.0
 11
606.9557927423747
 21
193.78218482092
 31
0.0
  0
ARC
  5
EF7
330
18
100
AcDbEntity
  8
隠れ線2
100
AcDbCircle
 10
612.2754528548756
 20
180.5028898667694
 30
0.0
 40
8.0
100
AcDbArc
 50
128.3805190428288
 51
160.9197291399402
  0
LINE
  5
EF8
330
18
100
AcDbEntity
  8
目盛
100
AcDbLine
 10
601.855787359215
 20
185.3828362257606
 30
0.0
 11
600.8922800110116
 21
187.1354495858484
 31
0.0
  0
LINE
  5
EF9
330
18
100
AcDbEntity
  8
目盛
100
AcDbLine
 10
603.0994691393926
 20
186.1183475802231
 30
0.0
 11
602.0278155494346
 21
187.8070034312271
 31
0.0
  0
LINE
  5
EFA
330
18
100
AcDbEntity
  8
目盛
100
AcDbLine
 10
608.4972574387187
 20
190.8771381025495
 30
0.0
 11
606.9562309531671
 21
192.1519860820469
 31
0.0
  0
LINE
  5
EFB
330
18
100
AcDbEntity
  8
目盛
100
AcDbLine
 10
607.541731285568
 20
189.7933064304096
 30
0.0
 11
606.0837940307252
 21
191.162400642267
 31
0.0
  0
LINE
  5
EFC
330
18
100
AcDbEntity
  8
目盛
100
AcDbLine
 10
604.2945136576025
 20
186.9304989961456
 30
0.0
 11
602.5311579007251
 21
189.3575499792704
 31
0.0
  0
LINE
  5
EFD
330
18
100
AcDbEntity
  8
目盛
100
AcDbLine
 10
605.4362046190955
 20
187.8160852829263
 30
0.0
 11
604.1613566395982
 21
189.3571117684778
 31
0.0
  0
LINE
  5
EFE
330
18
100
AcDbEntity
  8
目盛
100
AcDbLine
 10
606.5200362912354
 20
188.771611436077
 30
0.0
 11
605.150942079378
 21
190.2295486909198
 31
0.0
  0
LINE
  5
EFF
330
18
100
AcDbEntity
  8
目盛
100
AcDbLine
 10
611.5864750615941
 20
195.7449661607728
 30
0.0
 11
609.7768209566619
 21
196.5965247439029
 31
0.0
  0
LINE
  5
F00
330
18
100
AcDbEntity
  8
目盛
100
AcDbLine
 10
612.1603120303054
 20
197.0710251550218
 30
0.0
 11
610.3007590585288
 21
197.8072742603912
 31
0.0
  0
LINE
  5
F01
330
18
100
AcDbEntity
  8
目盛
100
AcDbLine
 10
610.194995141422
 20
193.2138735822525
 30
0.0
 11
608.5063392904179
 21
194.2855271722105
 31
0.0
  0
LINE
  5
F02
330
18
100
AcDbEntity
  8
目盛
100
AcDbLine
 10
610.9305064958845
 20
194.45755536243
 30
0.0
 11
609.1778931357968
 21
195.4210627106334
 31
0.0
  0
TEXT
  5
F03
330
18
100
AcDbEntity
  8
文字
100
AcDbText
 10
607.0026543336581
 20
198.7105981907837
 30
0.0
 40
2.0
  1
3
  7
STYLE3
100
AcDbText
  0
LINE
  5
F04
330
18
100
AcDbEntity
  8
目盛
100
AcDbLine
 10
613.3680596216355
 20
201.2281196312978
 30
0.0
 11
611.403485120178
 21
201.6028822604692
 31
0.0
  0
LINE
  5
F05
330
18
100
AcDbEntity
  8
目盛
100
AcDbLine
 10
613.5940909851086
 20
202.6552254947905
 30
0.0
 11
611.6098615824797
 21
202.9058919619191
 31
0.0
  0
LINE
  5
F06
330
18
100
AcDbEntity
  8
目盛
100
AcDbLine
 10
612.6497527296641
 20
198.4304989961457
 30
0.0
 11
609.7965831807786
 21
199.3575499792705
 31
0.0
  0
LINE
  5
F07
330
18
100
AcDbEntity
  8
目盛
100
AcDbLine
 10
613.0528655608342
 20
199.8180224619778
 30
0.0
 11
611.1156992385769
 21
200.3154022363075
 31
0.0
  0
LINE
  5
F08
330
18
100
AcDbEntity
  8
目盛
100
AcDbLine
 10
610.9305064958845
 20
216.6182243711089
 30
0.0
 11
609.1778931357968
 21
215.6547170229054
 31
0.0
  0
LINE
  5
F09
330
18
100
AcDbEntity
  8
目盛
100
AcDbLine
 10
613.7300676087257
 20
206.9820718159436
 30
0.0
 11
611.7340141518692
 21
206.856490776885
 31
0.0
  0
LINE
  5
F0A
330
18
100
AcDbEntity
  8
目盛
100
AcDbLine
 10
613.5940909851086
 20
208.4205542387485
 30
0.0
 11
611.6098615824795
 21
208.1698877716199
 31
0.0
  0
LINE
  5
F0B
330
18
100
AcDbEntity
  8
目盛
100
AcDbLine
 10
613.3680596216355
 20
209.847660102241
 30
0.0
 11
611.403485120178
 21
209.4728974730696
 31
0.0
  0
LINE
  5
F0C
330
18
100
AcDbEntity
  8
目盛
100
AcDbLine
 10
610.7754528548756
 20
205.5378898667694
 30
0.0
 11
613.7754528548756
 21
205.5378898667694
 31
0.0
  0
TEXT
  5
F0D
330
18
100
AcDbEntity
  8
文字
100
AcDbText
 10
606.8669807067926
 20
210.2063000975496
 30
0.0
 40
2.0
  1
2
  7
STYLE3
100
AcDbText
  0
LINE
  5
F0E
330
18
100
AcDbEntity
  8
目盛
100
AcDbLine
 10
613.0528655608342
 20
211.257757271561
 30
0.0
 11
611.1156992385769
 21
210.7603774972313
 31
0.0
  0
LINE
  5
F0F
330
18
100
AcDbEntity
  8
目盛
100
AcDbLine
 10
612.6497527296641
 20
212.6452807373932
 30
0.0
 11
609.7965831807786
 21
211.7182297542684
 31
0.0
  0
LINE
  5
F10
330
18
100
AcDbEntity
  8
目盛
100
AcDbLine
 10
612.1603120303054
 20
214.004754578517
 30
0.0
 11
610.3007590585288
 21
213.2685054731476
 31
0.0
  0
LINE
  5
F11
330
18
100
AcDbEntity
  8
目盛
100
AcDbLine
 10
611.5864750615941
 20
215.3308135727661
 30
0.0
 11
609.7768209566622
 21
214.4792549896359
 31
0.0
  0
LINE
  5
F12
330
18
100
AcDbEntity
  8
目盛
100
AcDbLine
 10
606.5200362912354
 20
222.3041682974618
 30
0.0
 11
605.150942079378
 21
220.846231042619
 31
0.0
  0
LINE
  5
F13
330
18
100
AcDbEntity
  8
目盛
100
AcDbLine
 10
609.3828437254993
 20
219.0569506694962
 30
0.0
 11
606.9557927423747
 21
217.2935949126189
 31
0.0
  0
LINE
  5
F14
330
18
100
AcDbEntity
  8
目盛
100
AcDbLine
 10
608.4972574387187
 20
220.1986416309893
 30
0.0
 11
606.9562309531671
 21
218.9237936514918
 31
0.0
  0
LINE
  5
F15
330
18
100
AcDbEntity
  8
目盛
100
AcDbLine
 10
607.541731285568
 20
221.2824733031292
 30
0.0
 11
606.0837940307252
 21
219.9133790912719
 31
0.0
  0
TEXT
  5
F16
330
18
100
AcDbEntity
  8
文字
100
AcDbText
 10
600.2146501606195
 20
219.2984292150805
 30
0.0
 40
2.0
  1
1
  7
STYLE3
100
AcDbText
  0
LINE
  5
F17
330
18
100
AcDbEntity
  8
目盛
100
AcDbLine
 10
610.194995141422
 20
217.8619061512863
 30
0.0
 11
608.5063392904179
 21
216.7902525613283
 31
0.0
  0
LINE
  5
F18
330
18
100
AcDbEntity
  8
目盛
100
AcDbLine
 10
605.4362046190955
 20
223.2596944506125
 30
0.0
 11
604.1613566395982
 21
221.7186679650609
 31
0.0
  0
LINE
  5
F19
330
18
100
AcDbEntity
  8
目盛
100
AcDbLine
 10
603.0994691393926
 20
224.9574321533157
 30
0.0
 11
602.0278155494346
 21
223.2687763023117
 31
0.0
  0
LINE
  5
F1A
330
18
100
AcDbEntity
  8
目盛
100
AcDbLine
 10
601.8557873592152
 20
225.6929435077782
 30
0.0
 11
600.8922800110118
 21
223.9403301476905
 31
0.0
  0
LINE
  5
F1B
330
18
100
AcDbEntity
  8
目盛
100
AcDbLine
 10
604.2945136576025
 20
224.1452807373931
 30
0.0
 11
602.5311579007251
 21
221.7182297542684
 31
0.0
  0
LINE
  5
F1C
330
18
100
AcDbEntity
  8
外形線
  6
Continuous
100
AcDbLine
 10
594.7754528548756
 20
239.5378898667693
 30
0.0
 11
594.7754528548756
 21
233.5378898667693
 31
0.0
  0
LINE
  5
F1D
330
18
100
AcDbEntity
  8
外形線
  6
Continuous
100
AcDbLine
 10
586.7754528548756
 20
239.5378898667693
 30
0.0
 11
586.7754528548756
 21
233.5378898667693
 31
0.0
  0
HATCH
  5
F1E
330
18
100
AcDbEntity
  8
ﾊｯﾁﾝｸ
  6
Continuous
100
AcDbHatch
 10
0.0
 20
0.0
 30
0.0
210
0.0
220
0.0
230
1.0
  2
ANSI37
 70
     0
 71
     0
 91
        1
 92
        7
 72
     0
 73
     1
 93
        4
 10
590.7754528548756
 20
239.5378898667693
 10
586.7754528548756
 20
239.5378898667693
 10
586.7754528548756
 20
233.5378898667693
 10
590.7754528548756
 20
233.5378898667693
 97
        0
 75
     0
 76
     1
 52
0.0
 41
10.0
 77
     0
 78
     2
 53
45.0
 43
398.3024487184176
 44
84.41895163296999
 45
-0.8838834764831842
 46
0.8838834764831844
 79
     0
 53
135.0
 43
398.3024487184176
 44
84.41895163296999
 45
-0.8838834764831844
 46
-0.8838834764831842
 79
     0
 47
0.1856754751158765
 98
        1
 10
589.0286050719195
 20
237.3139359109558
  0
LINE
  5
F1F
330
18
100
AcDbEntity
  8
外形線
  6
Continuous
100
AcDbLine
 10
594.4754528548757
 20
233.5378898667693
 30
0.0
 11
594.4754528548757
 21
231.6773236785413
 31
0.0
  0
LINE
  5
F20
330
18
100
AcDbEntity
  8
外形線
  6
Continuous
100
AcDbLine
 10
587.0754528548758
 20
233.5378898667693
 30
0.0
 11
587.0754528548758
 21
231.6773236785413
 31
0.0
  0
LINE
  5
F21
330
18
100
AcDbEntity
  8
外形線
  6
Continuous
100
AcDbLine
 10
586.7754528548756
 20
233.5378898667693
 30
0.0
 11
594.7754528548756
 21
233.5378898667693
 31
0.0
  0
LINE
  5
F22
330
18
100
AcDbEntity
  8
外形線
  6
Continuous
100
AcDbLine
 10
594.4754528548757
 20
246.0378898667693
 30
0.0
 11
594.4754528548757
 21
239.5378898667693
 31
0.0
  0
LINE
  5
F23
330
18
100
AcDbEntity
  8
外形線
  6
Continuous
100
AcDbLine
 10
587.0754528548758
 20
246.0378898667693
 30
0.0
 11
587.0754528548758
 21
239.5378898667693
 31
0.0
  0
LINE
  5
F24
330
18
100
AcDbEntity
  8
外形線
  6
Continuous
100
AcDbLine
 10
586.7754528548756
 20
239.5378898667693
 30
0.0
 11
594.7754528548756
 21
239.5378898667693
 31
0.0
  0
LINE
  5
F25
330
18
100
AcDbEntity
  8
外形線
  6
Continuous
100
AcDbLine
 10
587.0754528548758
 20
246.0378898667693
 30
0.0
 11
594.4754528548757
 21
246.0378898667693
 31
0.0
  0
ARC
  5
F26
330
18
100
AcDbEntity
  8
外形線
  6
Continuous
100
AcDbCircle
 10
590.7754528548756
 20
239.6928898667695
 30
0.0
 40
7.344999999999885
100
AcDbArc
 50
59.75198538337817
 51
120.2480146166212
  0
POINT
  5
F27
330
18
100
AcDbEntity
  8
DEFPOINTS
  6
ByBlock
 62
     0
100
AcDbPoint
 10
590.7754528548756
 20
247.0378898667694
 30
0.0
  0
ARC
  5
F9C
330
18
100
AcDbEntity
  8
隠れ線2
100
AcDbCircle
 10
536.7754528548756
 20
104.5902341598346
 30
0.0
 40
140.0
100
AcDbArc
 50
62.18435502243147
 51
64.92144622052625
  0
ARC
  5
FA5
330
18
100
AcDbEntity
  8
隠れ線2
100
AcDbCircle
 10
590.7754528548756
 20
206.1232341598346
 30
0.0
 40
25.0
100
AcDbArc
 50
311.4004677745564
 51
63.05611003598112
  0
ARC
  5
FA6
330
18
100
AcDbEntity
  8
外形線
100
AcDbCircle
 10
547.3419051673147
 20
120.9232775768271
 30
0.0
 40
120.757035453509
100
AcDbArc
 50
66.17766087590374
 51
67.02576219092382
  0
LINE
  5
FB5
102
{ACAD_REACTORS
330
1335
102
}
330
18
100
AcDbEntity
  8
外形線
100
AcDbLine
 10
122.4754528548758
 20
228.8378898667694
 30
0.0
 11
526.1469372177186
 21
243.6008592045362
 31
0.0
  0
ARC
  5
FFF
330
18
100
AcDbEntity
  8
寸法線
100
AcDbCircle
 10
546.2754528548757
 20
149.5378898667694
 30
0.0
 40
445.0
100
AcDbArc
 50
165.7230456362646
 51
193.6637291498396
  0
LINE
  5
1000
330
18
100
AcDbEntity
  8
中心線
100
AcDbLine
 10
105.9861046753498
 20
265.7339681051289
 30
0.0
 11
97.84977717920009
 21
65.03788986676943
 31
0.0
  0
CIRCLE
  5
100E
330
18
100
AcDbEntity
  8
外形線
100
AcDbCircle
 10
512.7754528548758
 20
213.0378898667695
 30
0.0
 40
3.25
  0
LINE
  5
100F
330
18
100
AcDbEntity
  8
外形線
100
AcDbLine
 10
517.3287796700176
 20
208.0903737187913
 30
0.0
 11
511.7210542129938
 21
69.76647911220722
 31
0.0
  0
LINE
  5
1010
330
18
100
AcDbEntity
  8
外形線
100
AcDbLine
 10
507.8365768534023
 20
208.4751927518972
 30
0.0
 11
502.2288513963785
 21
70.15129814531326
 31
0.0
  0
LINE
  5
1011
330
18
100
AcDbEntity
  8
外形線
100
AcDbLine
 10
507.8365768534023
 20
208.4751927518972
 30
0.0
 11
517.3287796700176
 21
208.0903737187913
 31
0.0
  0
LINE
  5
1012
330
18
100
AcDbEntity
  8
外形線
100
AcDbLine
 10
502.2288513963785
 20
70.15129814531326
 30
0.0
 11
511.7210542129938
 21
69.76647911220722
 31
0.0
  0
CIRCLE
  5
1013
330
18
100
AcDbEntity
  8
外形線
100
AcDbCircle
 10
506.7754528548757
 20
65.03788986676943
 30
0.0
 40
3.25
  0
LINE
  5
1021
330
18
100
AcDbEntity
  8
中心線
100
AcDbLine
 10
506.2756200331889
 20
213.0378898667695
 30
0.0
 11
519.2752856765628
 21
213.0378898667695
 31
0.0
  0
LINE
  5
1023
330
18
100
AcDbEntity
  8
中心線
100
AcDbLine
 10
500.1215090750135
 20
65.30764434433144
 30
0.0
 11
513.4293966347375
 21
64.76813538920746
 31
0.0
  0
ARC
  5
102C
330
18
100
AcDbEntity
  8
外形線
100
AcDbCircle
 10
624.2754528548758
 20
163.840875297672
 30
0.0
 40
2.0
100
AcDbArc
 50
359.9999999999959
 51
80.08172835570567
  0
ARC
  5
102D
330
18
100
AcDbEntity
  8
外形線
100
AcDbCircle
 10
624.2754528548759
 20
135.6781306410112
 30
0.0
 40
2.0
100
AcDbArc
 50
270.9212264316092
 51
0.0
  0
LINE
  5
102F
102
{ACAD_REACTORS
330
1335
102
}
330
18
100
AcDbEntity
  8
寸法線
 48
0.5
100
AcDbLine
 10
167.773484846421
 20
230.494517801259
 30
0.0
 11
167.773484846421
 21
210.5083131035386
 31
0.0
  0
LINE
  5
1030
102
{ACAD_REACTORS
330
1335
102
}
330
18
100
AcDbEntity
  8
寸法線
 48
0.5
100
AcDbLine
 10
170.7734630014914
 20
230.6042322280464
 30
0.0
 11
170.7734630014915
 21
210.4968645621533
 31
0.0
  0
LINE
  5
1041
102
{ACAD_REACTORS
330
133C
102
}
330
18
100
AcDbEntity
  8
寸法線
 48
0.5
100
AcDbLine
 10
167.7772748953772
 20
65.27419471429299
 30
0.0
 11
167.7772748953772
 21
83.69528976610864
 31
0.0
  0
LINE
  5
1042
102
{ACAD_REACTORS
330
133C
102
}
330
18
100
AcDbEntity
  8
寸法線
 48
0.5
100
AcDbLine
 10
170.7734630014914
 20
65.00439773171109
 30
0.0
 11
170.7734630014914
 21
83.54410500239302
 31
0.0
  0
DIMENSION
  5
106C
330
18
100
AcDbEntity
  8
外形線
100
AcDbDimension
  2
*D1
 10
170.7734630014914
 20
97.69421970904524
 30
0.0
 11
169.2753689484343
 21
97.69421970904524
 31
0.0
 70
   160
 71
     5
 42
2.996188106114232
  3
STYLE3
100
AcDbAlignedDimension
 13
167.7772748953772
 23
83.69528976610864
 33
0.0
 14
170.7734630014914
 24
83.54410500239302
 34
0.0
100
AcDbRotatedDimension
1001
ACAD
1000
DSTYLE
1002
{
1070
   271
1070
     2
1002
}
  0
DIMENSION
  5
10A4
330
18
100
AcDbEntity
  8
外形線
100
AcDbDimension
  2
*D2
 10
726.2754528548757
 20
52.33358667117297
 30
0.0
 11
676.2754528548757
 21
54.20858667117297
 31
0.0
 70
    32
 71
     5
 42
-1.0
  3
STYLE3
100
AcDbAlignedDimension
 13
626.2754528548757
 23
135.8378898667694
 33
0.0
 14
726.2754528548757
 24
135.8378898667694
 34
0.0
100
AcDbRotatedDimension
1001
ACAD
1000
DSTYLE
1002
{
1070
    75
1070
     1
1070
   271
1070
     2
1070
   279
1070
     1
1002
}
  0
DIMENSION
  5
10B1
330
18
100
AcDbEntity
  8
外形線
100
AcDbDimension
  2
*D3
 10
737.8804369991439
 20
134.5378898667694
 30
0.0
 11
736.005436999144
 21
149.5378898667694
 31
0.0
 12
-11.5050446653845
 22
0.0
 32
0.0
 70
    32
 71
     5
 42
-1.0
  3
STYLE3
100
AcDbAlignedDimension
 13
709.7704081894912
 23
164.5378898667694
 33
0.0
 14
709.7704081894912
 24
134.5378898667694
 34
0.0
 50
90.0
100
AcDbRotatedDimension
1001
ACAD
1000
DSTYLE
1002
{
1070
   271
1070
     2
1002
}
  0
LINE
  5
10B4
330
18
100
AcDbEntity
  8
0
  6
ByBlock
 62
     2
100
AcDbLine
 10
626.2754528548757
 20
135.8378898667694
 30
0.0
 11
626.2754528548757
 21
51.08358667117297
 31
0.0
  0
LINE
  5
10B5
330
18
100
AcDbEntity
  8
0
  6
ByBlock
 62
     2
100
AcDbLine
 10
548.7754528548757
 20
52.33358667117297
 30
0.0
 11
623.7754528548757
 21
52.33358667117297
 31
0.0
  0
INSERT
  5
10B6
330
18
100
AcDbEntity
  8
0
  6
ByBlock
 62
     2
100
AcDbBlockReference
  2
_OPEN
 10
546.2754528548757
 20
52.33358667117297
 30
0.0
 41
2.5
 42
2.5
 43
2.5
 50
180.0
  0
INSERT
  5
10B7
330
18
100
AcDbEntity
  8
0
  6
ByBlock
 62
     2
100
AcDbBlockReference
  2
_OPEN
 10
626.2754528548757
 20
52.33358667117297
 30
0.0
 41
2.5
 42
2.5
 43
2.5
  0
MTEXT
  5
10B8
330
18
100
AcDbEntity
  8
0
  6
ByBlock
 62
     6
100
AcDbMText
 10
586.2754528548757
 20
54.20858667117297
 30
0.0
 40
2.5
 41
0.0
 71
     5
 72
     1
  1
\A1;80
  7
STYLE3
 73
     1
 44
1.0
  0
POINT
  5
10BA
330
18
100
AcDbEntity
  8
DEFPOINTS
  6
ByBlock
 62
     0
100
AcDbPoint
 10
626.2754528548757
 20
135.8378898667694
 30
0.0
  0
POINT
  5
10BB
330
18
100
AcDbEntity
  8
DEFPOINTS
  6
ByBlock
 62
     0
100
AcDbPoint
 10
626.2754528548757
 20
52.33358667117297
 30
0.0
  0
LINE
  5
10C6
330
18
100
AcDbEntity
  8
0
  6
ByBlock
 62
     2
100
AcDbLine
 10
546.2754528548757
 20
149.5378898667693
 30
0.0
 11
583.4327159447643
 21
125.0514078885677
 31
0.0
  0
MTEXT
  5
10C7
330
18
100
AcDbEntity
  8
0
  6
ByBlock
 62
     6
100
AcDbMText
 10
566.4608994503508
 20
138.9876565104004
 30
0.0
 40
2.5
 41
0.0
 71
     5
 72
     1
  1
\A1;R44.5
  7
STYLE3
 11
0.8349946761772724
 21
-0.5502580219820624
 31
0.0
 73
     1
 44
1.0
  0
INSERT
  5
10C8
330
18
100
AcDbEntity
  8
0
  6
ByBlock
 62
     2
100
AcDbBlockReference
  2
_OPEN
 10
583.4327159447643
 20
125.0514078885677
 30
0.0
 41
2.5
 42
2.5
 43
2.5
 50
326.615283844964
  0
POINT
  5
10C9
330
18
100
AcDbEntity
  8
DEFPOINTS
  6
ByBlock
 62
     0
100
AcDbPoint
 10
583.4327159447643
 20
125.0514078885677
 30
0.0
  0
POINT
  5
10CA
330
18
100
AcDbEntity
  8
DEFPOINTS
  6
ByBlock
 62
     0
100
AcDbPoint
 10
546.2754528548756
 20
149.5378898667694
 30
0.0
  0
LINE
  5
10D3
330
18
100
AcDbEntity
  8
隠れ線
 62
     4
 48
0.5
100
AcDbLine
 10
102.5986902318718
 20
157.490816550959
 30
0.0
 11
102.2857515440505
 21
149.771662251367
 31
0.0
  0
LINE
  5
10D4
330
18
100
AcDbEntity
  8
隠れ線
 62
     4
 48
0.5
100
AcDbLine
 10
100.6003317441633
 20
157.5718310842445
 30
0.0
 11
100.2837443595948
 21
149.7626755982208
 31
0.0
  0
LINE
  5
10D6
330
18
100
AcDbEntity
  8
外形線
 62
     4
100
AcDbLine
 10
100.6003317441633
 20
157.5718310842445
 30
0.0
 11
102.5986902318718
 21
157.490816550959
 31
0.0
  0
LINE
  5
10D7
330
18
100
AcDbEntity
  8
外形線
 62
     4
100
AcDbLine
 10
99.95221547787956
 20
141.5849631825766
 30
0.0
 11
101.950573965588
 21
141.5039486492911
 31
0.0
  0
LINE
  5
10D8
330
18
100
AcDbEntity
  8
隠れ線
 62
     4
 48
0.5
100
AcDbLine
 10
102.268889401475
 20
149.3557294011719
 30
0.0
 11
101.950573965588
 21
141.5039486492911
 31
0.0
  0
LINE
  5
10D9
330
18
100
AcDbEntity
  8
隠れ線
 62
     4
 48
0.5
100
AcDbLine
 10
100.2670137338079
 20
149.3499868288097
 30
0.0
 11
99.95221547787956
 21
141.5849631825766
 31
0.0
  0
LINE
  5
10E6
330
18
100
AcDbEntity
  8
隠れ線
 62
     4
 48
0.5
100
AcDbLine
 10
102.398854383101
 20
157.4989180042876
 30
0.0
 11
102.0820316027089
 21
149.683956087949
 31
0.0
  0
LINE
  5
10E7
330
18
100
AcDbEntity
  8
隠れ線
 62
     4
 48
0.5
100
AcDbLine
 10
100.8001675929342
 20
157.5637296309159
 30
0.0
 11
100.4805416456089
 21
149.6796229302248
 31
0.0
  0
LINE
  5
10E8
330
18
100
AcDbEntity
  8
隠れ線
 62
     4
 48
0.5
100
AcDbLine
 10
102.0714267012768
 20
149.4223685192912
 30
0.0
 11
101.7507381168172
 21
141.5120501026197
 31
0.0
  0
LINE
  5
10E9
330
18
100
AcDbEntity
  8
隠れ線
 62
     4
 48
0.5
100
AcDbLine
 10
100.4699977019081
 20
149.4195389856062
 30
0.0
 11
100.1520513266504
 21
141.5768617292481
 31
0.0
  0
ARC
  5
10F0
330
18
100
AcDbEntity
  8
想像線
 48
0.2
100
AcDbCircle
 10
109.0192547410437
 20
67.11185075923141
 30
0.0
 40
2.799999999999999
100
AcDbArc
 50
6.905777084108009
 51
191.3681263002613
  0
LINE
  5
10F1
330
18
100
AcDbEntity
  8
想像線
 48
0.5
100
AcDbLine
 10
111.798941367093
 20
67.44851418308808
 30
0.0
 11
111.9412553555423
 21
66.60090145165472
 31
0.0
  0
LINE
  5
10F2
330
18
100
AcDbEntity
  8
想像線
 48
0.5
100
AcDbLine
 10
106.2741879972941
 20
66.55993720408023
 30
0.0
 11
106.2797954800622
 21
66.02680863108114
 31
0.0
  0
POINT
  5
110B
330
18
100
AcDbEntity
  8
DEFPOINTS
  6
ByBlock
 62
     0
100
AcDbPoint
 10
101.2754528548757
 20
149.5378898667678
 30
0.0
  0
POINT
  5
110C
330
18
100
AcDbEntity
  8
DEFPOINTS
  6
ByBlock
 62
     0
100
AcDbPoint
 10
108.4673411858922
 20
69.85691750298101
 30
0.0
  0
LINE
  5
112B
330
18
100
AcDbEntity
  8
0
  6
ByBlock
 62
     2
100
AcDbLine
 10
101.2754528548757
 20
149.5378898667678
 30
0.0
 11
75.26709913497362
 21
146.9005472954284
 31
0.0
  0
LINE
  5
112C
330
18
100
AcDbEntity
  8
0
  6
ByBlock
 62
     2
100
AcDbLine
 10
108.4673411858922
 20
69.85691750298108
 30
0.0
 11
83.33800366171198
 21
67.30871040168494
 31
0.0
  0
LINE
  5
112D
330
18
100
AcDbEntity
  8
0
  6
ByBlock
 62
     2
100
AcDbLine
 10
76.76293735289892
 20
144.5394102757292
 30
0.0
 11
84.32941034671612
 21
69.92206318784472
 31
0.0
  0
INSERT
  5
112E
330
18
100
AcDbEntity
  8
0
  6
ByBlock
 62
     2
100
AcDbBlockReference
  2
_OPEN
 10
76.51072158643834
 20
147.0266551786587
 30
0.0
 41
2.5
 42
2.5
 43
2.5
 50
95.79021022389422
  0
INSERT
  5
112F
330
18
100
AcDbEntity
  8
0
  6
ByBlock
 62
     2
100
AcDbBlockReference
  2
_OPEN
 10
84.58162611317671
 20
67.43481828491524
 30
0.0
 41
2.5
 42
2.5
 43
2.5
 50
275.7902102238942
  0
MTEXT
  5
1130
330
18
100
AcDbEntity
  8
0
  6
ByBlock
 62
     6
100
AcDbMText
 10
78.70015020753943
 20
104.8421967853035
 30
0.0
 40
2.5
 41
0.0
 71
     5
 72
     1
  1
\A1;80
  7
STYLE3
 11
-0.1008863065842289
 21
0.9948979611717943
 31
0.0
 73
     1
 44
1.0
  0
POINT
  5
1131
330
18
100
AcDbEntity
  8
DEFPOINTS
  6
ByBlock
 62
     0
100
AcDbPoint
 10
101.2754528548757
 20
149.5378898667678
 30
0.0
  0
POINT
  5
1133
330
18
100
AcDbEntity
  8
DEFPOINTS
  6
ByBlock
 62
     0
100
AcDbPoint
 10
84.58162611317671
 20
67.43481828491524
 30
0.0
  0
TEXT
  5
113D
330
18
100
AcDbEntity
  8
文字
100
AcDbText
 10
682.2049736003418
 20
147.4442515330177
 30
0.0
 40
3.0
  1
LA-3
  7
STYLE3
100
AcDbText
  0
LINE
  5
114C
330
18
100
AcDbEntity
  8
0
  6
ByBlock
 62
     2
100
AcDbLine
 10
546.2754528548757
 20
149.5378898667694
 30
0.0
 11
516.6367094274892
 21
142.6150067068307
 31
0.0
  0
MTEXT
  5
114D
330
18
100
AcDbEntity
  8
0
  6
ByBlock
 62
     6
100
AcDbMText
 10
338.0871526483414
 20
102.8356801039168
 30
0.0
 40
2.5
 41
0.0
 71
     5
 72
     1
  1
\A1;R445
  7
STYLE3
 11
0.9737890090779139
 21
0.2274532167261092
 31
0.0
 73
     1
 44
1.0
  0
INSERT
  5
114E
330
18
100
AcDbEntity
  8
0
  6
ByBlock
 62
     2
100
AcDbBlockReference
  2
_OPEN
 10
112.9393438152041
 20
48.32120842365083
 30
0.0
 41
2.5
 42
2.5
 43
2.5
 50
193.1471781922237
  0
POINT
  5
114F
330
18
100
AcDbEntity
  8
DEFPOINTS
  6
ByBlock
 62
     0
100
AcDbPoint
 10
112.9393438152041
 20
48.32120842365083
 30
0.0
  0
POINT
  5
1150
330
18
100
AcDbEntity
  8
DEFPOINTS
  6
ByBlock
 62
     0
100
AcDbPoint
 10
546.2754528548757
 20
149.5378898667695
 30
0.0
  0
LINE
  5
1156
330
18
100
AcDbEntity
  8
0
  6
ByBlock
 62
     2
100
AcDbLine
 10
516.6367094274892
 20
142.6150067068307
 30
0.0
 11
112.9393438152041
 21
48.32120842365083
 31
0.0
  0
LINE
  5
116E
330
18
100
AcDbEntity
  8
中心線
100
AcDbLine
 10
505.6578022170464
 20
249.5310614480331
 30
0.0
 11
497.5214747208966
 21
48.83498320967362
 31
0.0
  0
LINE
  5
117F
330
18
100
AcDbEntity
  8
0
  6
ByBlock
 62
     2
100
AcDbLine
 10
108.4334187016819
 20
264.3837258837042
 30
0.0
 11
503.1092200241073
 21
248.3833555598222
 31
0.0
  0
INSERT
  5
1180
330
18
100
AcDbEntity
  8
0
  6
ByBlock
 62
     2
100
AcDbBlockReference
  2
_OPEN
 10
105.9354705920463
 20
264.484994050311
 30
0.0
 41
2.5
 42
2.5
 43
2.5
 50
177.6784694101673
  0
INSERT
  5
1181
330
18
100
AcDbEntity
  8
0
  6
ByBlock
 62
     2
100
AcDbBlockReference
  2
_OPEN
 10
505.6071681337429
 20
248.2820873932154
 30
0.0
 41
2.5
 42
2.5
 43
2.5
 50
357.6784694101673
  0
MTEXT
  5
1182
330
18
100
AcDbEntity
  8
0
  6
ByBlock
 62
     6
100
AcDbMText
 10
305.8472704878497
 20
258.2570018039898
 30
0.0
 40
2.5
 41
0.0
 71
     5
 72
     1
  1
\A1;400
  7
STYLE3
 11
0.9991792438542416
 21
-0.0405072666427392
 31
0.0
 73
     1
 44
1.0
  0
POINT
  5
1183
330
18
100
AcDbEntity
  8
DEFPOINTS
  6
ByBlock
 62
     0
100
AcDbPoint
 10
105.1447466650766
 20
244.9804705183908
 30
0.0
  0
POINT
  5
1184
330
18
100
AcDbEntity
  8
DEFPOINTS
  6
ByBlock
 62
     0
100
AcDbPoint
 10
504.8164442067732
 20
228.7775638612949
 30
0.0
  0
POINT
  5
1185
330
18
100
AcDbEntity
  8
DEFPOINTS
  6
ByBlock
 62
     0
100
AcDbPoint
 10
505.6071681337429
 20
248.2820873932154
 30
0.0
  0
ARC
  5
1192
330
18
100
AcDbEntity
  8
隠れ線2
 48
0.65
100
AcDbCircle
 10
625.6698861138423
 20
236.6867987066896
 30
0.0
 40
100.0
100
AcDbArc
 50
248.0081949250813
 51
251.6339303858394
  0
ARC
  5
119F
330
18
100
AcDbEntity
  8
外形線
100
AcDbCircle
 10
625.6698861138424
 20
236.6867987066896
 30
0.0
 40
100.0
100
AcDbArc
 50
251.6339303858393
 51
251.7029041176971
  0
TEXT
  5
11AC
330
18
100
AcDbEntity
  8
文字
100
AcDbText
 10
172.7556504889687
 20
195.4672915154049
 30
0.0
 40
3.0
  1

  7
STYLE3
100
AcDbText
  0
LINE
  5
11BC
330
18
100
AcDbEntity
  8
想像線
100
AcDbLine
 10
508.236248550944
 20
208.4589898452402
 30
0.0
 11
502.6285230939203
 21
70.13509523865616
 31
0.0
  0
LINE
  5
11BD
330
18
100
AcDbEntity
  8
想像線
100
AcDbLine
 10
516.929107972476
 20
208.1065766254484
 30
0.0
 11
511.3213825154521
 21
69.78268201886432
 31
0.0
  0
CIRCLE
  5
11E0
330
18
100
AcDbEntity
  8
外形線
100
AcDbCircle
 10
512.7754528548758
 20
213.0378898667695
 30
0.0
 40
4.0
  0
LINE
  5
11E1
330
18
100
AcDbEntity
  8
外形線
100
AcDbLine
 10
507.8365768534023
 20
208.4751927518973
 30
0.0
 11
513.9005795068612
 21
209.9888588703721
 31
0.0
  0
CIRCLE
  5
11E2
330
18
100
AcDbEntity
  8
外形線
100
AcDbCircle
 10
506.7754528548757
 20
65.03788986676943
 30
0.0
 40
4.0
  0
LINE
  5
11E4
330
18
100
AcDbEntity
  8
外形線
100
AcDbLine
 10
511.7210542129938
 20
69.76647911220722
 30
0.0
 11
505.1780702617349
 21
67.86823769895022
 31
0.0
  0
LINE
  5
1205
330
18
100
AcDbEntity
  8
隠れ線2
100
AcDbLine
 10
626.2754528548758
 20
161.2878898667695
 30
0.0
 11
714.7754528548757
 21
161.2878898667695
 31
0.0
  0
LINE
  5
1206
330
18
100
AcDbEntity
  8
隠れ線2
100
AcDbLine
 10
626.2754528548758
 20
137.7878898667694
 30
0.0
 11
714.7754528548757
 21
137.7878898667694
 31
0.0
  0
LINE
  5
1207
330
18
100
AcDbEntity
  8
隠れ線2
100
AcDbLine
 10
716.2754528548758
 20
159.7878898667694
 30
0.0
 11
716.2754528548758
 21
139.2878898667694
 31
0.0
  0
ARC
  5
1208
330
18
100
AcDbEntity
  8
隠れ線2
100
AcDbCircle
 10
714.7754528548757
 20
159.7878898667694
 30
0.0
 40
1.5
100
AcDbArc
 50
0.0
 51
90.0
  0
ARC
  5
1209
330
18
100
AcDbEntity
  8
隠れ線2
100
AcDbCircle
 10
714.7754528548757
 20
139.2878898667694
 30
0.0
 40
1.5
100
AcDbArc
 50
270.0
 51
0.0
  0
LINE
  5
12D1
330
18
100
AcDbEntity
  8
外形線
 62
     2
100
AcDbLine
 10
167.773484846421
 20
210.5121293951535
 30
0.0
 11
167.773484846421
 21
193.7854091156585
 31
0.0
  0
LINE
  5
12D2
330
18
100
AcDbEntity
  8
外形線
 62
     2
100
AcDbLine
 10
170.7734630014914
 20
210.4968645621533
 30
0.0
 11
170.7734630014914
 21
193.7854091156585
 31
0.0
  0
LINE
  5
12D3
330
18
100
AcDbEntity
  8
外形線
 62
     2
100
AcDbLine
 10
165.273484846421
 20
195.0354091156585
 30
0.0
 11
162.773484846421
 21
195.0354091156585
 31
0.0
  0
LINE
  5
12D4
330
18
100
AcDbEntity
  8
外形線
 62
     2
100
AcDbLine
 10
173.2734630014914
 20
195.0354091156585
 30
0.0
 11
175.9817963348247
 21
195.0354091156585
 31
0.0
  0
LINE
  5
12D5
330
18
100
AcDbEntity
  8
外形線
 62
     2
100
AcDbLine
 10
167.773484846421
 20
195.0354091156585
 30
0.0
 11
170.7734630014914
 21
195.0354091156585
 31
0.0
  0
INSERT
  5
12D6
330
18
100
AcDbEntity
  8
外形線
 62
     2
100
AcDbBlockReference
  2
_OPEN
 10
167.773484846421
 20
195.0354091156585
 30
0.0
 41
2.5
 42
2.5
 43
2.5
  0
INSERT
  5
12D7
330
18
100
AcDbEntity
  8
外形線
 62
     2
100
AcDbBlockReference
  2
_OPEN
 10
170.7734630014914
 20
195.0354091156585
 30
0.0
 41
2.5
 42
2.5
 43
2.5
 50
180.0
  0
MTEXT
  5
12D8
330
18
100
AcDbEntity
  8
外形線
 62
     6
100
AcDbMText
 10
169.2876596816274
 20
196.9104091156585
 30
0.0
 40
2.5
 41
0.0
 71
     5
 72
     1
  1
\A1;3
  7
STYLE3
 73
     1
 44
1.0
  0
HATCH
  5
1335
330
18
100
AcDbEntity
  8
寸法線
100
AcDbHatch
 10
0.0
 20
0.0
 30
0.0
210
0.0
220
0.0
230
1.0
  2
ANSI31
 70
     0
 71
     1
 91
        1
 92
        7
 72
     0
 73
     1
 93
        4
 10
170.7734630014915
 20
230.6042322280464
 10
167.773484846421
 20
230.494517801259
 10
167.773484846421
 20
210.5083131035386
 10
170.7734630014915
 20
210.4968645621533
 97
        4
330
FB5
330
102F
330
236
330
1030
 75
     0
 76
     1
 52
0.0
 41
0.5
 77
     0
 78
     1
 53
45.0
 43
0.0
 44
0.0
 45
-1.122532015133643
 46
1.122532015133644
 79
     0
 47
0.2475453726123038
 98
        1
 10
169.4523295666674
 20
216.9080520147056
  0
HATCH
  5
133C
330
18
100
AcDbEntity
  8
寸法線
100
AcDbHatch
 10
0.0
 20
0.0
 30
0.0
210
0.0
220
0.0
230
1.0
  2
ANSI31
 70
     0
 71
     1
 91
        1
 92
        7
 72
     0
 73
     1
 93
        4
 10
170.7734630014914
 20
83.54410500239302
 10
167.7772748953772
 20
83.6952897661086
 10
167.7772748953772
 20
65.27419471429299
 10
170.7734630014914
 20
65.00439773171109
 97
        4
330
2AD
330
1041
330
2AE
330
1042
 75
     0
 76
     1
 52
0.0
 41
0.5
 77
     0
 78
     1
 53
45.0
 43
0.0
 44
0.0
 45
-1.122532015133643
 46
1.122532015133644
 79
     0
 47
0.1071984390973848
 98
        1
 10
168.8604014705493
 20
77.75906561761053
  0
ARC
  5
133F
330
18
100
AcDbEntity
  8
隠れ線2
100
AcDbCircle
 10
486.2754528548757
 20
117.5378898667694
 30
0.0
 40
50.0
100
AcDbArc
 50
288.6065690808425
 51
300.8533363287236
  0
ARC
  5
1340
330
18
100
AcDbEntity
  8
外形線
100
AcDbCircle
 10
486.2754528548757
 20
117.5378898667694
 30
0.0
 40
50.0
100
AcDbArc
 50
300.8533363287236
 51
28.07248693585302
  0
ARC
  5
1341
330
18
100
AcDbEntity
  8
外形線
100
AcDbCircle
 10
500.6754528548757
 20
175.2378898667694
 30
0.0
 40
34.0
100
AcDbArc
 50
77.84123586001747
 51
89.99999999999293
  0
ARC
  5
1342
330
18
100
AcDbEntity
  8
隠れ線2
100
AcDbCircle
 10
500.6754528548757
 20
175.2378898667694
 30
0.0
 40
34.0
100
AcDbArc
 50
60.91800066894536
 51
77.84123586001747
  0
ARC
  5
1343
330
18
100
AcDbEntity
  8
外形線
100
AcDbCircle
 10
547.3419051673147
 20
120.9232775768271
 30
0.0
 40
120.757035453509
100
AcDbArc
 50
70.94032270405332
 51
74.4808455396613
  0
ARC
  5
1344
330
18
100
AcDbEntity
  8
隠れ線2
 48
0.8
100
AcDbCircle
 10
547.3419051673147
 20
120.9232775768271
 30
0.0
 40
120.757035453509
100
AcDbArc
 50
67.02576219092382
 51
70.94032270405332
  0
LINE
  5
134F
330
18
100
AcDbEntity
  8
寸法線
100
AcDbLine
 10
546.2754528548757
 20
121.7101856986994
 30
0.0
 11
546.2754528548757
 21
50.71524102443482
 31
0.0
  0
LINE
  5
1352
330
18
100
AcDbEntity
  8
寸法線
100
AcDbLine
 10
105.9861046753498
 20
265.7339681051289
 30
0.0
 11
103.824222466255
 21
212.4075402807909
 31
0.0
  0
TEXT
  5
13AC
330
18
100
AcDbEntity
  8
文字
100
AcDbText
 10
602.9722998100778
 20
264.9540117304847
 30
0.0
 40
4.0
  1
Model No.LA-3 Outside Dial Caliper Gauge
  7
STYLE3
100
AcDbText
  0
LINE
  5
13AD
330
18
100
AcDbEntity
  8
外形線
100
AcDbLine
 10
601.6693498100778
 20
261.0305817304848
 30
0.0
 11
728.6693498100778
 21
261.0305817304848
 31
0.0
  0
LINE
  5
13AE
330
18
100
AcDbEntity
  8
外形線
100
AcDbLine
 10
601.6693498100778
 20
262.0305817304847
 30
0.0
 11
728.6693498100778
 21
262.0305817304847
 31
0.0
  0
TEXT
  5
13AF
330
18
100
AcDbEntity
  8
0
  6
Continuous
100
AcDbText
 10
709.4118885311537
 20
9.840008077892974
 30
0.0
 40
2.1
  1
OZAKI MFG. CO., LTD.
  7
STYLE3
100
AcDbText
  0
TEXT
  5
13B0
330
18
100
AcDbEntity
  8
0
  6
Continuous
100
AcDbText
 10
708.5374095311538
 20
13.62764707789299
 30
0.0
 40
3.0
  1
株式会社　尾崎製作所
  7
STYLE3
100
AcDbText
  0
TEXT
  5
13B1
330
18
100
AcDbEntity
  8
0
  6
Continuous
100
AcDbText
 10
606.9146415311537
 20
23.53378307789296
 30
0.0
 40
3.5
  1
仕様及び外観は予告なく変更される場合がございますのでご了承下さい。
  7
STYLE3
100
AcDbText
  0
TEXT
  5
13B2
330
18
100
AcDbEntity
  8
0
  6
Continuous
100
AcDbText
 10
606.6231475311537
 20
19.60463507789296
 30
0.0
 40
2.1
  1
Design and specifications are subject to change without notice for future improvement.
  7
STYLE3
100
AcDbText
  0
LINE
  5
13B3
330
18
100
AcDbEntity
  8
外形線
100
AcDbLine
 10
605.1656795311536
 20
17.70664507789297
 30
0.0
 11
745.9570975311537
 21
17.70664507789297
 31
0.0
  0
LINE
  5
13B4
330
18
100
AcDbEntity
  8
外形線
100
AcDbLine
 10
605.1656795311536
 20
28.48685007789297
 30
0.0
 11
745.9570975311537
 21
28.48685007789299
 31
0.0
  0
LINE
  5
13B5
330
18
100
AcDbEntity
  8
外形線
100
AcDbLine
 10
640.4364075311538
 20
17.70664507789297
 30
0.0
 11
640.4364075311538
 21
8.09186707789297
 31
0.0
  0
LINE
  5
13B6
330
18
100
AcDbEntity
  8
外形線
100
AcDbLine
 10
657.9260245311537
 20
17.70664507789297
 30
0.0
 11
657.9260245311537
 21
8.09186707789297
 31
0.0
  0
LINE
  5
13B7
330
18
100
AcDbEntity
  8
外形線
100
AcDbLine
 10
677.4560975311537
 20
17.70664507789297
 30
0.0
 11
677.4560975311537
 21
8.09186707789297
 31
0.0
  0
LINE
  5
13B8
330
18
100
AcDbEntity
  8
外形線
100
AcDbLine
 10
707.1884465311537
 20
17.70664507789297
 30
0.0
 11
707.1884465311537
 21
8.09186707789297
 31
0.0
  0
LINE
  5
13B9
330
18
100
AcDbEntity
  8
外形線
100
AcDbLine
 10
605.1656795311536
 20
8.09186707789297
 30
0.0
 11
605.1656795311536
 21
28.48685007789297
 31
0.0
  0
TEXT
  5
13BA
330
18
100
AcDbEntity
  8
0
  6
Continuous
100
AcDbText
 10
608.9550985311537
 20
13.33629007789298
 30
0.0
 40
3.0
  1
三　　角　　法
  7
STYLE3
100
AcDbText
  0
TEXT
  5
13BB
330
18
100
AcDbEntity
  8
0
  6
Continuous
100
AcDbText
 10
606.3316555311537
 20
9.840007077892977
 30
0.0
 40
2.1
  1
3RD Angle Projection
  7
STYLE3
100
AcDbText
  0
TEXT
  5
13BC
330
18
100
AcDbEntity
  8
0
  6
Continuous
100
AcDbText
 10
641.8938765311537
 20
13.34224507789298
 30
0.0
 40
3.0
  1
単位
  7
STYLE3
100
AcDbText
  0
TEXT
  5
13BD
330
18
100
AcDbEntity
  8
0
  6
Continuous
100
AcDbText
 10
649.9359245311538
 20
11.58815107789297
 30
0.0
 40
2.399999999999999
  1
mm
  7
STYLE3
100
AcDbText
  0
TEXT
  5
13BE
330
18
100
AcDbEntity
  8
0
  6
Continuous
100
AcDbText
 10
642.0655975311538
 20
9.840008077892974
 30
0.0
 40
2.1
  1
Unit
  7
STYLE3
100
AcDbText
  0
TEXT
  5
13BF
330
18
100
AcDbEntity
  8
0
  6
Continuous
100
AcDbText
 10
688.1328555311537
 20
11.58814907789298
 30
0.0
 40
2.1
  1
2010.06.24
  7
STYLE3
100
AcDbText
  0
TEXT
  5
13C0
330
18
100
AcDbEntity
  8
0
  6
Continuous
100
AcDbText
 10
669.2942765311537
 20
11.87950807789298
 30
0.0
 40
2.399999999999999
  1
1/1
  7
STYLE3
100
AcDbText
  0
TEXT
  5
13C1
330
18
100
AcDbEntity
  8
0
  6
Continuous
100
AcDbText
 10
659.2117725311537
 20
13.05088707789298
 30
0.0
 40
3.0
  1
尺 度
  7
STYLE3
100
AcDbText
  0
TEXT
  5
13C2
330
18
100
AcDbEntity
  8
0
  6
Continuous
100
AcDbText
 10
659.6749875311537
 20
10.13136507789298
 30
0.0
 40
2.1
  1
Scale
  7
STYLE3
100
AcDbText
  0
TEXT
  5
13C3
330
18
100
AcDbEntity
  8
0
  6
Continuous
100
AcDbText
 10
679.0046875311538
 20
13.17309207789299
 30
0.0
 40
3.0
  1
日 付
  7
STYLE3
100
AcDbText
  0
TEXT
  5
13C4
330
18
100
AcDbEntity
  8
0
  6
Continuous
100
AcDbText
 10
679.3880485311537
 20
9.840009077892972
 30
0.0
 40
2.1
  1
Date
  7
STYLE3
100
AcDbText
  0
ENDSEC
  0
SECTION
  2
OBJECTS
  0
DICTIONARY
  5
C
330
0
100
AcDbDictionary
281
     1
  3
ACAD_COLOR
350
1243
  3
ACAD_GROUP
350
D
  3
ACAD_IMAGE_DICT
350
A65
  3
ACAD_LAYOUT
350
1246
  3
ACAD_MATERIAL
350
1242
  3
ACAD_MLINESTYLE
350
1B
  3
ACAD_PLOTSETTINGS
350
1247
  3
ACAD_PLOTSTYLENAME
350
1240
  3
ACAD_TABLESTYLE
350
1244
  3
ACDBVARIABLEDICTIONARY
350
D75
  0
DICTIONARY
  5
1349
330
2
100
AcDbDictionary
280
     1
281
     1
  3
ACAD_LAYERSTATES
360
134A
  0
DICTIONARY
  5
12D9
330
18
100
AcDbDictionary
280
     1
281
     1
  3
ACAD_SORTENTS
360
12DA
  0
DICTIONARY
  5
1243
102
{ACAD_REACTORS
330
C
102
}
330
C
100
AcDbDictionary
281
     1
  0
DICTIONARY
  5
D
102
{ACAD_REACTORS
330
C
102
}
330
C
100
AcDbDictionary
281
     1
  0
DICTIONARY
  5
A65
102
{ACAD_REACTORS
330
C
102
}
330
C
100
AcDbDictionary
281
     1
  3
ROGO01
350
A66
  0
DICTIONARY
  5
1246
102
{ACAD_REACTORS
330
C
102
}
330
C
100
AcDbDictionary
281
     1
  3
Model
350
1248
  3
レイアウト1
350
1249
  0
DICTIONARY
  5
1242
102
{ACAD_REACTORS
330
C
102
}
330
C
100
AcDbDictionary
281
     1
  0
DICTIONARY
  5
1B
102
{ACAD_REACTORS
330
C
102
}
330
C
100
AcDbDictionary
281
     1
  3
STANDARD
350
1C
  0
DICTIONARY
  5
1247
102
{ACAD_REACTORS
330
C
102
}
330
C
100
AcDbDictionary
281
     1
  0
ACDBDICTIONARYWDFLT
  5
1240
102
{ACAD_REACTORS
330
C
102
}
330
C
100
AcDbDictionary
281
     1
  3
Normal
350
1241
100
AcDbDictionaryWithDefault
340
1241
  0
DICTIONARY
  5
1244
102
{ACAD_REACTORS
330
C
102
}
330
C
100
AcDbDictionary
281
     1
  3
Standard
350
1245
  0
DICTIONARY
  5
D75
102
{ACAD_REACTORS
330
C
102
}
330
C
100
AcDbDictionary
281
     1
  3
CTABLESTYLE
350
1254
  3
SORTENTS
350
D76
  0
DICTIONARY
  5
134A
102
{ACAD_REACTORS
330
1349
102
}
330
1349
100
AcDbDictionary
281
     1
  0
SORTENTSTABLE
  5
12DA
102
{ACAD_REACTORS
330
12D9
102
}
330
12D9
100
AcDbSortentsTable
330
18
331
1012
  5
1042
331
EFC
  5
F03
331
E4F
  5
E56
331
E86
  5
E8D
331
EC5
  5
ECC
331
10E6
  5
113D
331
F04
  5
F0B
331
1A0
  5
1A0
331
34C
  5
354
331
1A8
  5
1A8
331
315
  5
31D
331
A9A
  5
AA2
331
AA2
  5
AAA
331
31D
  5
325
331
354
  5
35C
331
A6B
  5
A73
331
AAA
  5
AB2
331
325
  5
32D
331
1B8
  5
1B8
331
227
  5
22D
331
35C
  5
364
331
A73
  5
A7B
331
D21
  5
D31
331
AB2
  5
D0F
331
364
  5
36C
331
D70
  5
DDC
331
D29
  5
D36
331
11AC
  5
12D2
331
ECD
  5
ED4
331
E57
  5
E5E
331
D31
  5
D3A
331
E96
  5
E9D
331
F0C
  5
F13
331
1342
  5
208
331
10B7
  5
10E8
331
11BC
  5
12D4
331
FEB
  5
FF5
331
E9E
  5
EA5
331
D39
  5
D43
331
E5F
  5
E66
331
ED5
  5
EDC
331
F14
  5
F1B
331
11E4
  5
1324
331
F1C
  5
F23
331
E67
  5
E6E
331
EA6
  5
EAD
331
EDD
  5
EE4
331
FF3
  5
100E
331
1042
  5
10D4
331
10C7
  5
110B
331
112E
  5
117F
331
EE5
  5
EED
331
E6F
  5
E76
331
EAE
  5
EB5
331
F24
  5
FA6
331
1C0
  5
1C0
331
36C
  5
A6C
331
189
  5
189
331
1C8
  5
1C8
331
32D
  5
335
331
A7B
  5
A83
331
AD2
  5
D1F
331
A83
  5
A8B
331
191
  5
191
331
335
  5
33E
331
33D
  5
345
331
199
  5
199
331
A8B
  5
A93
331
A93
  5
A9B
331
2AE
  5
318
331
24F
  5
25F
331
345
  5
34D
331
D49
  5
D54
331
DE0
  5
DE8
331
1185
  5
1205
331
12A3
  5
1343
331
EED
  5
EF4
331
DE8
  5
E4F
331
D51
  5
D59
331
E77
  5
E7E
331
EB6
  5
EBD
331
F9C
  5
FE7
331
10D7
  5
1130
331
12D3
  5
10BB
331
EBE
  5
EC5
331
D59
  5
D87
331
E7F
  5
E86
331
EF5
  5
EFC
331
114E
  5
119F
331
1013
  5
106C
331
E87
  5
E8F
331
EC6
  5
ECD
331
EFD
  5
F04
331
10E7
  5
113F
331
1023
  5
10B1
331
E8F
  5
E96
331
F05
  5
F0C
331
208
  5
219
331
A9B
  5
AA3
331
1A9
  5
1A9
331
316
  5
31E
331
34D
  5
355
331
A6C
  5
A74
331
25F
  5
26F
331
31E
  5
326
331
355
  5
35D
331
AA3
  5
AAB
331
D22
  5
D33
331
35D
  5
365
331
267
  5
271
331
1B9
  5
1B9
331
326
  5
32E
331
A74
  5
A7C
331
AAB
  5
AB3
331
AB3
  5
D10
331
365
  5
36D
331
26F
  5
2A7
331
D71
  5
DDD
331
E50
  5
E57
331
1156
  5
11A3
331
F0D
  5
F14
331
E58
  5
E5F
331
E97
  5
E9E
331
ECE
  5
ED5
331
1343
  5
FEE
331
115E
  5
11AC
331
10B8
  5
10E9
331
11BD
  5
12D5
331
FEC
  5
FF6
331
ED6
  5
EDD
331
E60
  5
E67
331
D3A
  5
D44
331
E9F
  5
EA6
331
F15
  5
F1C
331
134B
  5
1347
331
116E
  5
11AD
331
EDE
  5
EE5
331
E68
  5
E6F
331
D42
  5
D4A
331
EA7
  5
EAE
331
F1D
  5
F24
331
112F
  5
1180
331
EAF
  5
EB6
331
F25
  5
FB5
331
1C1
  5
1C1
331
32E
  5
337
331
1C9
  5
1C9
331
18A
  5
18A
331
230
  5
232
331
36D
  5
A6D
331
A7C
  5
A84
331
192
  5
192
331
A84
  5
A8C
331
AD3
  5
D20
331
A8C
  5
A94
331
2A7
  5
314
331
19A
  5
19A
331
201
  5
201
331
33E
  5
346
331
A94
  5
A9C
331
346
  5
34E
331
10C8
  5
110C
331
D4A
  5
D55
331
DE1
  5
DE9
331
E70
  5
E77
331
E78
  5
E7F
331
D52
  5
D6C
331
DE9
  5
E50
331
EB7
  5
EBE
331
EEE
  5
EF5
331
10D8
  5
1131
331
1205
  5
1336
331
12D4
  5
10C6
331
EF6
  5
EFD
331
E80
  5
E87
331
EBF
  5
EC6
331
FA5
  5
FEB
331
114F
  5
11A1
331
FB5
  5
FEF
331
EFE
  5
F05
331
E88
  5
E90
331
EC7
  5
ECE
331
11A6
  5
12A3
331
F06
  5
F0D
331
34E
  5
356
331
219
  5
227
331
1AA
  5
1AA
331
258
  5
268
331
317
  5
31F
331
A9C
  5
AA4
331
AA4
  5
AAC
331
31F
  5
327
331
356
  5
35E
331
A6D
  5
A75
331
A75
  5
A7D
331
327
  5
32F
331
1BA
  5
1BA
331
268
  5
2A5
331
35E
  5
366
331
AAC
  5
AB6
331
D23
  5
D34
331
366
  5
370
331
10E8
  5
1140
331
133C
  5
316
331
10B1
  5
10D8
331
10F0
  5
114C
331
E51
  5
E58
331
E90
  5
E97
331
FE5
  5
FF0
331
E98
  5
E9F
331
E59
  5
E60
331
1344
  5
FED
331
D33
  5
D3B
331
ECF
  5
ED6
331
F0E
  5
F15
331
102C
  5
10B4
331
FED
  5
FF7
331
EA0
  5
EA7
331
134C
  5
134B
331
D3B
  5
D45
331
E61
  5
E68
331
ED7
  5
EDE
331
F16
  5
F1D
331
F1E
  5
F25
331
E69
  5
E70
331
117F
  5
11BC
331
D43
  5
D4B
331
DDA
  5
DE2
331
EA8
  5
EAF
331
EDF
  5
EE7
331
FF5
  5
100F
331
EE7
  5
EEE
331
F26
  5
FE5
331
270
  5
2AB
331
1C2
  5
1C2
331
229
  5
230
331
A7D
  5
A85
331
231
  5
234
331
18B
  5
18B
331
1CA
  5
1CA
331
32F
  5
338
331
337
  5
33F
331
193
  5
193
331
1F2
  5
1F2
331
A85
  5
A8D
331
33F
  5
347
331
249
  5
255
331
19B
  5
19B
331
A8D
  5
A95
331
A95
  5
A9D
331
347
  5
34F
331
10C9
  5
112B
331
1130
  5
1181
331
DE2
  5
E4A
331
D4B
  5
D56
331
E71
  5
E78
331
EB0
  5
EB7
331
EEF
  5
EF6
331
E79
  5
E80
331
1206
  5
1337
331
10D9
  5
1133
331
12D5
  5
10C7
331
D53
  5
D6D
331
EB8
  5
EBF
331
106C
  5
10D6
331
FA6
  5
FEC
331
EC0
  5
EC7
331
119F
  5
1207
331
E4A
  5
E51
331
E81
  5
E88
331
EF7
  5
EFE
331
1335
  5
24E
331
E89
  5
E91
331
EFF
  5
F06
331
10A4
  5
10D7
331
F07
  5
F0E
331
A9D
  5
AA5
331
1AB
  5
1AB
331
318
  5
320
331
34F
  5
357
331
D1C
  5
D29
331
A6E
  5
A76
331
320
  5
328
331
1B3
  5
1B3
331
222
  5
229
331
357
  5
35F
331
AA5
  5
AAD
331
35F
  5
367
331
1BB
  5
1BB
331
A76
  5
A7E
331
AAD
  5
AB9
331
367
  5
371
331
10E9
  5
1141
331
1150
  5
11A2
331
E91
  5
E98
331
10F1
  5
114D
331
D73
  5
DDE
331
E52
  5
E59
331
EC8
  5
ECF
331
102D
  5
10B5
331
F0F
  5
F16
331
E5A
  5
E61
331
10BA
  5
10F0
331
D34
  5
D3C
331
E99
  5
EA0
331
ED0
  5
ED7
331
FE6
  5
FF1
331
FEE
  5
FF8
331
ED8
  5
EDF
331
E62
  5
E69
331
D3C
  5
D46
331
EA1
  5
EA8
331
F17
  5
F1E
331
FF6
  5
1010
331
EA9
  5
EB0
331
DDB
  5
DE3
331
D44
  5
D4C
331
E6A
  5
E71
331
EE0
  5
EE8
331
F1F
  5
F26
331
F27
  5
FE6
331
328
  5
330
331
1C3
  5
1C3
331
184
  5
184
331
271
  5
2AD
331
A7E
  5
A86
331
330
  5
339
331
232
  5
244
331
18C
  5
18C
331
A86
  5
A8E
331
194
  5
194
331
1F3
  5
1F3
331
338
  5
340
331
A8E
  5
A96
331
19C
  5
19C
331
340
  5
348
331
D0D
  5
D21
331
A96
  5
A9E
331
1131
  5
1182
331
10CA
  5
112C
331
1180
  5
11BD
331
EB1
  5
EB8
331
D4C
  5
D57
331
DE3
  5
E4B
331
E72
  5
E79
331
EE8
  5
EEF
331
E7A
  5
E81
331
1207
  5
133F
331
12D6
  5
10C8
331
D54
  5
D6F
331
EB9
  5
EC0
331
EF0
  5
EF7
331
100E
  5
102D
331
EF8
  5
EFF
331
E4B
  5
E52
331
E82
  5
E89
331
EC1
  5
EC8
331
F00
  5
F07
331
E8A
  5
E92
331
D6C
  5
D94
331
348
  5
350
331
252
  5
262
331
20B
  5
222
331
311
  5
319
331
350
  5
358
331
1AC
  5
1AC
331
319
  5
321
331
A9E
  5
AA6
331
AA6
  5
AAE
331
321
  5
329
331
1B4
  5
1B4
331
262
  5
270
331
358
  5
360
331
A6F
  5
A77
331
A77
  5
A7F
331
1BC
  5
1BC
331
360
  5
368
331
AAE
  5
AD2
331
AB6
  5
D1C
331
EC9
  5
ED0
331
D74
  5
DDF
331
E53
  5
E5A
331
E92
  5
E99
331
F08
  5
F0F
331
10F2
  5
114E
331
FE7
  5
FF2
331
E9A
  5
EA1
331
D35
  5
D3D
331
E5B
  5
E62
331
ED1
  5
ED8
331
F10
  5
F17
331
1346
  5
1344
331
10BB
  5
10F1
331
11E0
  5
12D6
331
F18
  5
F1F
331
EA2
  5
EA9
331
D3D
  5
D47
331
D94
  5
DE1
331
E63
  5
E6A
331
ED9
  5
EE0
331
FEF
  5
FF9
331
F20
  5
F27
331
E6B
  5
E72
331
D45
  5
D4E
331
DDC
  5
DE4
331
EAA
  5
EB1
331
EE1
  5
EE9
331
FF7
  5
1011
331
FFF
  5
1023
331
185
  5
185
331
1C4
  5
1C4
331
329
  5
331
331
368
  5
A68
331
370
  5
A6E
331
18D
  5
18D
331
331
  5
33A
331
A7F
  5
A87
331
339
  5
341
331
195
  5
195
331
2A2
  5
312
331
A87
  5
A8F
331
A8F
  5
A97
331
341
  5
349
331
19D
  5
19D
331
A97
  5
A9F
331
D0E
  5
D22
331
1181
  5
11E0
331
EE9
  5
EF0
331
DE4
  5
E4C
331
E73
  5
E7A
331
EB2
  5
EB9
331
10D3
  5
112D
331
EBA
  5
EC1
331
E7B
  5
E82
331
D55
  5
D70
331
EF1
  5
EF8
331
1208
  5
1340
331
12D7
  5
10C9
331
100F
  5
102F
331
EC2
  5
EC9
331
E4C
  5
E53
331
E83
  5
E8A
331
EF9
  5
F00
331
11A1
  5
1208
331
E8B
  5
E93
331
D6D
  5
DDA
331
F01
  5
F08
331
312
  5
31A
331
349
  5
351
331
A68
  5
A70
331
1AD
  5
1AD
331
31A
  5
322
331
351
  5
359
331
A9F
  5
AA7
331
D1E
  5
D2E
331
359
  5
361
331
1B5
  5
1B5
331
322
  5
32A
331
A70
  5
A78
331
AA7
  5
AAF
331
D26
  5
D35
331
361
  5
369
331
1BD
  5
1BD
331
AAF
  5
AD3
331
F09
  5
F10
331
E54
  5
E5B
331
D2E
  5
D37
331
E93
  5
E9A
331
ECA
  5
ED1
331
133F
  5
29D
331
115A
  5
11A4
331
10B4
  5
10D9
331
102F
  5
10B6
331
F11
  5
F18
331
E5C
  5
E63
331
D36
  5
D3F
331
E9B
  5
EA2
331
ED2
  5
ED9
331
1347
  5
1346
331
11E1
  5
12D7
331
110B
  5
114F
331
FF0
  5
FFA
331
EDA
  5
EE1
331
E64
  5
E6B
331
EA3
  5
EAA
331
F19
  5
F20
331
134F
  5
134C
331
112B
  5
115C
331
FF8
  5
1012
331
EAB
  5
EB2
331
D46
  5
D51
331
DDD
  5
DE5
331
E6C
  5
E73
331
EE2
  5
EEA
331
F21
  5
F7F
331
32A
  5
332
331
186
  5
186
331
369
  5
A69
331
A78
  5
A80
331
A80
  5
A88
331
332
  5
33B
331
234
  5
249
331
18E
  5
18E
331
371
  5
A6F
331
A88
  5
A90
331
33A
  5
342
331
196
  5
196
331
244
  5
252
331
A90
  5
A98
331
19E
  5
19E
331
2AB
  5
315
331
342
  5
34A
331
D0F
  5
D23
331
1133
  5
1183
331
1182
  5
11E1
331
1000
  5
102C
331
EB3
  5
EBA
331
D4E
  5
D58
331
DE5
  5
E4D
331
E74
  5
E7B
331
EEA
  5
EF1
331
1192
  5
1206
331
10D4
  5
112E
331
E7C
  5
E83
331
D56
  5
D71
331
EBB
  5
EC2
331
EF2
  5
EF9
331
1209
  5
1341
331
12D8
  5
10CA
331
1010
  5
1030
331
EFA
  5
F01
331
E4D
  5
E54
331
E84
  5
E8B
331
EC3
  5
ECA
331
11A2
  5
1209
331
F02
  5
F09
331
E8C
  5
E94
331
34A
  5
352
331
313
  5
31B
331
A98
  5
AA0
331
AA0
  5
AA8
331
352
  5
35A
331
1AE
  5
1AE
331
31B
  5
323
331
A69
  5
A71
331
AA8
  5
AB0
331
1B6
  5
1B6
331
323
  5
32B
331
35A
  5
362
331
A71
  5
A79
331
D1F
  5
D2F
331
AB0
  5
D0D
331
1BE
  5
1BE
331
362
  5
36A
331
ECB
  5
ED2
331
E55
  5
E5C
331
D2F
  5
D38
331
E94
  5
E9B
331
F0A
  5
F11
331
1340
  5
2A2
331
115B
  5
11A5
331
10B5
  5
10E6
331
FE9
  5
FF3
331
E9C
  5
EA3
331
D37
  5
D40
331
E5D
  5
E64
331
ED3
  5
EDA
331
F12
  5
F19
331
1030
  5
10B7
331
11E2
  5
1323
331
110C
  5
1150
331
F1A
  5
F21
331
E65
  5
E6C
331
D3F
  5
D48
331
EA4
  5
EAB
331
EDB
  5
EE2
331
FF1
  5
FFF
331
112C
  5
115E
331
F22
  5
F9C
331
E6D
  5
E74
331
D47
  5
D52
331
DDE
  5
DE6
331
EAC
  5
EB3
331
EE3
  5
EEB
331
FF9
  5
1013
331
36A
  5
A6A
331
32B
  5
333
331
187
  5
187
331
1C6
  5
1C6
331
22D
  5
231
331
A79
  5
A81
331
A81
  5
A89
331
18F
  5
18F
331
333
  5
33C
331
33B
  5
343
331
197
  5
197
331
A89
  5
A91
331
A91
  5
A99
331
343
  5
34B
331
19F
  5
19F
331
1183
  5
11E2
331
EEB
  5
EF2
331
DE6
  5
E4E
331
E75
  5
E7C
331
EB4
  5
EBB
331
12D1
  5
10B8
331
EBC
  5
EC3
331
D57
  5
D73
331
E7D
  5
E84
331
EF3
  5
EFA
331
114C
  5
1185
331
1011
  5
1041
331
EC4
  5
ECB
331
E4E
  5
E55
331
E85
  5
E8C
331
EFB
  5
F02
331
11A3
  5
12A2
331
1021
  5
10A4
331
E8D
  5
E95
331
D6F
  5
DDB
331
F03
  5
F0A
331
A99
  5
AA1
331
314
  5
31C
331
1A7
  5
1A7
331
255
  5
267
331
34B
  5
353
331
D10
  5
D26
331
A6A
  5
A72
331
1AF
  5
1AF
331
31C
  5
324
331
353
  5
35B
331
AA1
  5
AA9
331
D20
  5
D30
331
35B
  5
363
331
1B7
  5
1B7
331
324
  5
32C
331
A72
  5
A7A
331
AA9
  5
AB1
331
AB1
  5
D0E
331
363
  5
36B
331
1BF
  5
1BF
331
F0B
  5
F12
331
E56
  5
E5D
331
D30
  5
D39
331
E95
  5
E9C
331
ECC
  5
ED3
331
1341
  5
20B
331
10B6
  5
10E7
331
ED4
  5
EDB
331
E5E
  5
E65
331
D38
  5
D42
331
D87
  5
DE0
331
E9D
  5
EA4
331
F13
  5
F1A
331
FF2
  5
1000
331
EDC
  5
EE3
331
E66
  5
E6D
331
D40
  5
D49
331
EA5
  5
EAC
331
F1B
  5
F22
331
1041
  5
10D3
331
10C6
  5
10F2
331
112D
  5
116E
331
FFA
  5
1021
331
EAD
  5
EB4
331
DDF
  5
DE7
331
E6E
  5
E75
331
EE4
  5
EEC
331
F23
  5
FA5
331
AB9
  5
D1E
331
1C7
  5
1C7
331
188
  5
188
331
32C
  5
334
331
36B
  5
A6B
331
A7A
  5
A82
331
A82
  5
A8A
331
29D
  5
2AE
331
190
  5
190
331
236
  5
24F
331
334
  5
33D
331
A8A
  5
A92
331
198
  5
198
331
2A5
  5
313
331
33C
  5
344
331
A92
  5
A9A
331
24E
  5
258
331
2AD
  5
317
331
344
  5
34C
331
D48
  5
D53
331
12A2
  5
1342
331
1184
  5
11E4
331
E76
  5
E7D
331
DE7
  5
134F
331
EB5
  5
EBC
331
EEC
  5
EF3
331
113D
  5
1184
331
10D6
  5
112F
331
12D2
  5
10BA
331
E7E
  5
E85
331
D58
  5
D74
331
EBD
  5
EC4
331
EF4
  5
EFB
331
114D
  5
1192
  0
IMAGEDEF
  5
A66
102
{ACAD_REACTORS
330
A65
102
}
330
A65
100
AcDbRasterImageDef
 90
        0
  1
D:\ﾃｽﾄ\rogo01.TIF
 10
3388.0
 20
4668.0
 11
0.0635
 21
0.0635
280
     1
281
     5
  0
LAYOUT
  5
1248
102
{ACAD_REACTORS
330
1246
102
}
330
1246
100
AcDbPlotSettings
  1

  2
A4 EPSON LP-6100.pc3
  4
A4
  6

 40
5.873749732971191
 41
5.873747825622558
 42
5.873748779296875
 43
5.873748779296875
 44
209.9733276367187
 45
297.0106506347656
 46
0.8
 47
25.0
 48
0.0
 49
0.0
140
0.0
141
0.0
142
1.0
143
1.0
 70
 28336
 72
     1
 73
     1
 74
     1
  7
AutoCAD LT 98.ctb
 75
    16
147
1.0
 76
     1
 77
     2
 78
   300
148
-68.07500113645346
149
-6.83404610961918
100
AcDbLayout
  1
Model
 70
     1
 71
     0
 10
0.0
 20
0.0
 11
12.0
 21
9.0
 12
0.0
 22
0.0
 32
0.0
 14
0.0
 24
0.0
 34
0.0
 15
0.0
 25
0.0
 35
0.0
146
0.0
 13
0.0
 23
0.0
 33
0.0
 16
1.0
 26
0.0
 36
0.0
 17
0.0
 27
1.0
 37
0.0
 76
     0
330
18
1001
ACAD_PSEXT
1000
A4 EPSON LP-6100.pc3
1000
EPSON LP-6100
1000
\\SATO-MATE2
1000

1070
     0
  0
LAYOUT
  5
1249
102
{ACAD_REACTORS
330
1246
102
}
330
1246
100
AcDbPlotSettings
  1

  2
Mytalk FAX
  4

  6

 40
0.0
 41
0.0
 42
0.0
 43
0.0
 44
0.0
 45
0.0
 46
0.0
 47
0.0
 48
0.0
 49
0.0
140
0.0
141
0.0
142
1.0
143
1.0
 70
   688
 72
     0
 73
     0
 74
     5
  7
AutoCAD LT 98.ctb
 75
    16
147
1.0
 76
     0
 77
     2
 78
   300
148
0.0
149
0.0
100
AcDbLayout
  1
レイアウト1
 70
     1
 71
     1
 10
0.0
 20
0.0
 11
420.0
 21
297.0
 12
0.0
 22
0.0
 32
0.0
 14
1.000000000000000E+20
 24
1.000000000000000E+20
 34
1.000000000000000E+20
 15
-1.000000000000000E+20
 25
-1.000000000000000E+20
 35
-1.000000000000000E+20
146
0.0
 13
0.0
 23
0.0
 33
0.0
 16
1.0
 26
0.0
 36
0.0
 17
0.0
 27
1.0
 37
0.0
 76
     0
330
15
  0
MLINESTYLE
  5
1C
102
{ACAD_REACTORS
330
1B
102
}
330
1B
100
AcDbMlineStyle
  2
STANDARD
 70
     0
  3

 62
   256
 51
90.0
 52
90.0
 71
     2
 49
0.5
 62
   256
  6
BYLAYER
 49
-0.5
 62
   256
  6
BYLAYER
  0
ACDBPLACEHOLDER
  5
1241
102
{ACAD_REACTORS
330
1240
102
}
330
1240
  0
ACAD_PROXY_OBJECT
  5
1245
102
{ACAD_REACTORS
330
1244
102
}
330
1244
100
AcDbProxyObject
 90
      499
 91
      505
 95
  2555929
 70
     0
 93
     1849
310
4214DD185B99185C992420000000000000F83F0000000000003E0FC00000000000004901028000000C1008070000C3001FDFF8000000C1003FBFF000000182007F7FE00000030400FEFFC00000060801FDFF8000000C1003FBFF000000182000000000000000C2020B0000001820100E000186003FBFF000000182007F7FE0
310
0000030400FEFFC00000060801FDFF8000000C1003FBFF000000182007F7FE0000003040000000000000012404160000003040201C00030C007F7FE00000030400FEFFC00000060801FDFF8000000C1003FBFF000000182007F7FE00000030400FEFFC000000608000
340
F
340
F
340
F
 94
        0
  0
DICTIONARYVAR
  5
1254
102
{ACAD_REACTORS
330
D75
102
}
330
D75
100
DictionaryVariables
280
     0
  1
STANDARD
  0
DICTIONARYVAR
  5
D76
102
{ACAD_REACTORS
330
D75
102
}
330
D75
100
DictionaryVariables
280
     0
  1
96
  0
ENDSEC
  0
EOF
