  0
SECTION
  2
HEADER
  9
$ACADVER
  1
AC1018
  9
$ACADMAINTVER
 70
     0
  9
$DWGCODEPAGE
  3
ANSI_932
  9
$INSBASE
 10
0.0
 20
0.0
 30
0.0
  9
$EXTMIN
 10
255.8176900309641
 20
176.0635400423978
 30
-0.0000457728747811
  9
$EXTMAX
 10
634.1546142674312
 20
459.3857883045838
 30
0.000030519906467
  9
$LIMMIN
 10
0.0
 20
0.0
  9
$LIMMAX
 10
420.0
 20
297.0
  9
$ORTHOMODE
 70
     0
  9
$REGENMODE
 70
     1
  9
$FILLMODE
 70
     1
  9
$QTEXTMODE
 70
     0
  9
$MIRRTEXT
 70
     1
  9
$LTSCALE
 40
1.0
  9
$ATTMODE
 70
     1
  9
$TEXTSIZE
 40
3.0
  9
$TRACEWID
 40
1.0
  9
$TEXTSTYLE
  7
STYLE3
  9
$CLAYER
  8
外形線
  9
$CELTYPE
  6
BYLAYER
  9
$CECOLOR
 62
   256
  9
$CELTSCALE
 40
1.0
  9
$DISPSILH
 70
     0
  9
$DIMSCALE
 40
1.0
  9
$DIMASZ
 40
2.5
  9
$DIMEXO
 40
0.0
  9
$DIMDLI
 40
3.75
  9
$DIMRND
 40
0.0
  9
$DIMDLE
 40
0.0
  9
$DIMEXE
 40
1.25
  9
$DIMTP
 40
0.0
  9
$DIMTM
 40
0.0
  9
$DIMTXT
 40
2.5
  9
$DIMCEN
 40
2.5
  9
$DIMTSZ
 40
0.0
  9
$DIMTOL
 70
     0
  9
$DIMLIM
 70
     0
  9
$DIMTIH
 70
     0
  9
$DIMTOH
 70
     0
  9
$DIMSE1
 70
     0
  9
$DIMSE2
 70
     0
  9
$DIMTAD
 70
     1
  9
$DIMZIN
 70
     8
  9
$DIMBLK
  1

  9
$DIMASO
 70
     1
  9
$DIMSHO
 70
     1
  9
$DIMPOST
  1

  9
$DIMAPOST
  1

  9
$DIMALT
 70
     0
  9
$DIMALTD
 70
     4
  9
$DIMALTF
 40
0.0394
  9
$DIMLFAC
 40
1.0
  9
$DIMTOFL
 70
     1
  9
$DIMTVP
 40
0.0
  9
$DIMTIX
 70
     0
  9
$DIMSOXD
 70
     0
  9
$DIMSAH
 70
     1
  9
$DIMBLK1
  1
OPEN
  9
$DIMBLK2
  1
OPEN
  9
$DIMSTYLE
  2
STYLE3
  9
$DIMCLRD
 70
     2
  9
$DIMCLRE
 70
     2
  9
$DIMCLRT
 70
     6
  9
$DIMTFAC
 40
1.0
  9
$DIMGAP
 40
0.625
  9
$DIMJUST
 70
     0
  9
$DIMSD1
 70
     0
  9
$DIMSD2
 70
     0
  9
$DIMTOLJ
 70
     1
  9
$DIMTZIN
 70
     0
  9
$DIMALTZ
 70
     0
  9
$DIMALTTZ
 70
     0
  9
$DIMUPT
 70
     0
  9
$DIMDEC
 70
     2
  9
$DIMTDEC
 70
     4
  9
$DIMALTU
 70
     8
  9
$DIMALTTD
 70
     4
  9
$DIMTXSTY
  7
STYLE3
  9
$DIMAUNIT
 70
     0
  9
$DIMADEC
 70
     0
  9
$DIMALTRND
 40
0.0
  9
$DIMAZIN
 70
     0
  9
$DIMDSEP
 70
    46
  9
$DIMATFIT
 70
     3
  9
$DIMFRAC
 70
     0
  9
$DIMLDRBLK
  1

  9
$DIMLUNIT
 70
     2
  9
$DIMLWD
 70
    -2
  9
$DIMLWE
 70
    -2
  9
$DIMTMOVE
 70
     0
  9
$LUNITS
 70
     2
  9
$LUPREC
 70
     4
  9
$SKETCHINC
 40
1.0
  9
$FILLETRAD
 40
1.5
  9
$AUNITS
 70
     0
  9
$AUPREC
 70
     0
  9
$MENU
  1
.
  9
$ELEVATION
 40
0.0
  9
$PELEVATION
 40
0.0
  9
$THICKNESS
 40
0.0
  9
$LIMCHECK
 70
     0
  9
$CHAMFERA
 40
10.0
  9
$CHAMFERB
 40
10.0
  9
$CHAMFERC
 40
20.0
  9
$CHAMFERD
 40
0.0
  9
$SKPOLY
 70
     0
  9
$TDCREATE
 40
2450857.403841551
  9
$TDUCREATE
 40
2450857.028841551
  9
$TDUPDATE
 40
2455376.423598195
  9
$TDUUPDATE
 40
2455376.048598195
  9
$TDINDWG
 40
0.8221239583
  9
$TDUSRTIMER
 40
0.8221239583
  9
$USRTIMER
 70
     1
  9
$ANGBASE
 50
0.0
  9
$ANGDIR
 70
     0
  9
$PDMODE
 70
     0
  9
$PDSIZE
 40
0.0
  9
$PLINEWID
 40
0.0
  9
$SPLFRAME
 70
     0
  9
$SPLINETYPE
 70
     6
  9
$SPLINESEGS
 70
     8
  9
$HANDSEED
  5
E3C
  9
$SURFTAB1
 70
     6
  9
$SURFTAB2
 70
     6
  9
$SURFTYPE
 70
     6
  9
$SURFU
 70
     6
  9
$SURFV
 70
     6
  9
$UCSBASE
  2

  9
$UCSNAME
  2

  9
$UCSORG
 10
0.0
 20
0.0
 30
0.0
  9
$UCSXDIR
 10
1.0
 20
0.0
 30
0.0
  9
$UCSYDIR
 10
0.0
 20
1.0
 30
0.0
  9
$UCSORTHOREF
  2

  9
$UCSORTHOVIEW
 70
     0
  9
$UCSORGTOP
 10
0.0
 20
0.0
 30
0.0
  9
$UCSORGBOTTOM
 10
0.0
 20
0.0
 30
0.0
  9
$UCSORGLEFT
 10
0.0
 20
0.0
 30
0.0
  9
$UCSORGRIGHT
 10
0.0
 20
0.0
 30
0.0
  9
$UCSORGFRONT
 10
0.0
 20
0.0
 30
0.0
  9
$UCSORGBACK
 10
0.0
 20
0.0
 30
0.0
  9
$PUCSBASE
  2

  9
$PUCSNAME
  2

  9
$PUCSORG
 10
0.0
 20
0.0
 30
0.0
  9
$PUCSXDIR
 10
1.0
 20
0.0
 30
0.0
  9
$PUCSYDIR
 10
0.0
 20
1.0
 30
0.0
  9
$PUCSORTHOREF
  2

  9
$PUCSORTHOVIEW
 70
     0
  9
$PUCSORGTOP
 10
0.0
 20
0.0
 30
0.0
  9
$PUCSORGBOTTOM
 10
0.0
 20
0.0
 30
0.0
  9
$PUCSORGLEFT
 10
0.0
 20
0.0
 30
0.0
  9
$PUCSORGRIGHT
 10
0.0
 20
0.0
 30
0.0
  9
$PUCSORGFRONT
 10
0.0
 20
0.0
 30
0.0
  9
$PUCSORGBACK
 10
0.0
 20
0.0
 30
0.0
  9
$USERI1
 70
     0
  9
$USERI2
 70
     0
  9
$USERI3
 70
     0
  9
$USERI4
 70
     0
  9
$USERI5
 70
     0
  9
$USERR1
 40
0.0
  9
$USERR2
 40
0.0
  9
$USERR3
 40
0.0
  9
$USERR4
 40
0.0
  9
$USERR5
 40
0.0
  9
$WORLDVIEW
 70
     1
  9
$SHADEDGE
 70
     3
  9
$SHADEDIF
 70
    70
  9
$TILEMODE
 70
     1
  9
$MAXACTVP
 70
    48
  9
$PINSBASE
 10
0.0
 20
0.0
 30
0.0
  9
$PLIMCHECK
 70
     0
  9
$PEXTMIN
 10
1.000000000000000E+20
 20
1.000000000000000E+20
 30
1.000000000000000E+20
  9
$PEXTMAX
 10
-1.000000000000000E+20
 20
-1.000000000000000E+20
 30
-1.000000000000000E+20
  9
$PLIMMIN
 10
0.0
 20
0.0
  9
$PLIMMAX
 10
420.0
 20
297.0
  9
$UNITMODE
 70
     0
  9
$VISRETAIN
 70
     1
  9
$PLINEGEN
 70
     0
  9
$PSLTSCALE
 70
     1
  9
$TREEDEPTH
 70
  3020
  9
$CMLSTYLE
  2
STANDARD
  9
$CMLJUST
 70
     0
  9
$CMLSCALE
 40
20.0
  9
$PROXYGRAPHICS
 70
     1
  9
$MEASUREMENT
 70
     1
  9
$CELWEIGHT
370
    -1
  9
$ENDCAPS
280
     0
  9
$JOINSTYLE
280
     0
  9
$LWDISPLAY
290
     0
  9
$INSUNITS
 70
     0
  9
$HYPERLINKBASE
  1

  9
$STYLESHEET
  1
AutoCAD LT 98.ctb
  9
$XEDIT
290
     1
  9
$CEPSNTYPE
380
     0
  9
$PSTYLEMODE
290
     1
  9
$FINGERPRINTGUID
  2
{33A40628-45C4-4B4E-BB41-4BD4E9F820A5}
  9
$VERSIONGUID
  2
{0DBF09BB-2DA0-43FE-9686-9324D7F6A4BE}
  9
$EXTNAMES
290
     1
  9
$PSVPSCALE
 40
0.0
  9
$OLESTARTUP
290
     0
  9
$SORTENTS
280
   127
  9
$INDEXCTL
280
     0
  9
$HIDETEXT
280
     0
  9
$XCLIPFRAME
290
     0
  9
$HALOGAP
280
     0
  9
$OBSCOLOR
 70
   257
  9
$OBSLTYPE
280
     0
  9
$INTERSECTIONDISPLAY
280
     0
  9
$INTERSECTIONCOLOR
 70
   257
  9
$DIMASSOC
280
     1
  9
$PROJECTNAME
  1

  0
ENDSEC
  0
SECTION
  2
CLASSES
  0
CLASS
  1
HATCH
  2
AcDbHatch
  3
ObjectDBX Classes
 90
        0
 91
       19
280
     0
281
     1
  0
CLASS
  1
LWPOLYLINE
  2
AcDbPolyline
  3
ObjectDBX Classes
 90
        0
 91
        1
280
     0
281
     1
  0
CLASS
  1
ACDBDICTIONARYWDFLT
  2
AcDbDictionaryWithDefault
  3
ObjectDBX Classes
 90
        0
 91
        1
280
     0
281
     0
  0
CLASS
  1
TABLESTYLE
  2
AcDbTableStyle
  3
ObjectDBX Classes
 90
     2047
 91
        1
280
     0
281
     0
  0
CLASS
  1
DICTIONARYVAR
  2
AcDbDictionaryVar
  3
ObjectDBX Classes
 90
        0
 91
        1
280
     0
281
     0
  0
CLASS
  1
SORTENTSTABLE
  2
AcDbSortentsTable
  3
ObjectDBX Classes
 90
        0
 91
        2
280
     0
281
     0
  0
ENDSEC
  0
SECTION
  2
TABLES
  0
TABLE
  2
VPORT
  5
8
330
0
100
AcDbSymbolTable
 70
     2
  0
VPORT
  5
E3B
330
8
100
AcDbSymbolTableRecord
100
AcDbViewportTableRecord
  2
*Active
 70
     0
 10
0.0
 20
0.0
 11
1.0
 21
1.0
 12
444.9861521491976
 22
317.7246641734909
 13
0.0
 23
0.0
 14
10.0
 24
10.0
 15
10.0
 25
10.0
 16
0.0
 26
0.0
 36
1.0
 17
0.0
 27
0.0
 37
0.0
 40
285.4767900740659
 41
1.530456852791878
 42
50.0
 43
0.0
 44
0.0
 50
0.0
 51
0.0
 71
     0
 72
   100
 73
     1
 74
     1
 75
     0
 76
     0
 77
     0
 78
     0
281
     0
 65
     1
110
0.0
120
0.0
130
0.0
111
1.0
121
0.0
131
0.0
112
0.0
122
1.0
132
0.0
 79
     0
146
0.0
  0
ENDTAB
  0
TABLE
  2
LTYPE
  5
5
330
0
100
AcDbSymbolTable
 70
    13
  0
LTYPE
  5
12
330
5
100
AcDbSymbolTableRecord
100
AcDbLinetypeTableRecord
  2
BYBLOCK
 70
     0
  3

 72
    65
 73
     0
 40
0.0
  0
LTYPE
  5
13
330
5
100
AcDbSymbolTableRecord
100
AcDbLinetypeTableRecord
  2
BYLAYER
 70
     0
  3

 72
    65
 73
     0
 40
0.0
  0
LTYPE
  5
14
330
5
100
AcDbSymbolTableRecord
100
AcDbLinetypeTableRecord
  2
CONTINUOUS
 70
     0
  3
Solid line
 72
    65
 73
     0
 40
0.0
  0
LTYPE
  5
22
330
5
100
AcDbSymbolTableRecord
100
AcDbLinetypeTableRecord
  2
CENTER2
 70
     0
  3
Center (.5x) ___ _ ___ _ ___ _ ___ _ ___ _ ___
 72
    65
 73
     4
 40
28.575
 49
19.05
 74
     0
 49
-3.174999999999999
 74
     0
 49
3.174999999999999
 74
     0
 49
-3.174999999999999
 74
     0
  0
LTYPE
  5
23
330
5
100
AcDbSymbolTableRecord
100
AcDbLinetypeTableRecord
  2
HIDDEN2
 70
     0
  3
Hidden (.5x) _ _ _ _ _ _ _ _ _ _ _ _ _ _ _ _ _
 72
    65
 73
     2
 40
4.762499999999999
 49
3.174999999999999
 74
     0
 49
-1.587499999999999
 74
     0
  0
LTYPE
  5
24
330
5
100
AcDbSymbolTableRecord
100
AcDbLinetypeTableRecord
  2
PHANTOM2
 70
     0
  3
Phantom (.5x) ___ _ _ ___ _ _ ___ _ _ ___ _ _
 72
    65
 73
     6
 40
31.75
 49
15.875
 74
     0
 49
-3.174999999999999
 74
     0
 49
3.174999999999999
 74
     0
 49
-3.174999999999999
 74
     0
 49
3.174999999999999
 74
     0
 49
-3.174999999999999
 74
     0
  0
ENDTAB
  0
TABLE
  2
LAYER
  5
2
330
0
100
AcDbSymbolTable
 70
    16
  0
LAYER
  5
E
330
2
100
AcDbSymbolTableRecord
100
AcDbLayerTableRecord
  2
0
 70
     0
 62
     7
  6
CONTINUOUS
370
    -3
390
D2F
  0
LAYER
  5
25
330
2
100
AcDbSymbolTableRecord
100
AcDbLayerTableRecord
  2
外形線
 70
     0
 62
     7
  6
CONTINUOUS
370
    -3
390
D2F
  0
LAYER
  5
26
330
2
100
AcDbSymbolTableRecord
100
AcDbLayerTableRecord
  2
寸法線
 70
     0
 62
     2
  6
CONTINUOUS
370
    -3
390
D2F
  0
LAYER
  5
27
330
2
100
AcDbSymbolTableRecord
100
AcDbLayerTableRecord
  2
中心線
 70
     0
 62
     4
  6
CENTER2
370
    -3
390
D2F
  0
LAYER
  5
28
330
2
100
AcDbSymbolTableRecord
100
AcDbLayerTableRecord
  2
隠れ線
 70
     0
 62
     6
  6
HIDDEN2
370
    -3
390
D2F
  0
LAYER
  5
29
330
2
100
AcDbSymbolTableRecord
100
AcDbLayerTableRecord
  2
想像線
 70
     0
 62
     1
  6
PHANTOM2
370
    -3
390
D2F
  0
LAYER
  5
2A
330
2
100
AcDbSymbolTableRecord
100
AcDbLayerTableRecord
  2
ﾊｯﾁﾝｸ
 70
     0
 62
     6
  6
CONTINUOUS
370
    -3
390
D2F
  0
LAYER
  5
2B
330
2
100
AcDbSymbolTableRecord
100
AcDbLayerTableRecord
  2
文字
 70
     0
 62
     6
  6
CONTINUOUS
370
    -3
390
D2F
  0
LAYER
  5
2C
330
2
100
AcDbSymbolTableRecord
100
AcDbLayerTableRecord
  2
目盛
 70
     0
 62
    72
  6
CONTINUOUS
370
    -3
390
D2F
  0
LAYER
  5
2D
330
2
100
AcDbSymbolTableRecord
100
AcDbLayerTableRecord
  2
針
 70
     0
 62
     5
  6
CONTINUOUS
370
    -3
390
D2F
  0
LAYER
  5
53
330
2
100
AcDbSymbolTableRecord
100
AcDbLayerTableRecord
  2
DEFPOINTS
 70
     0
 62
     7
  6
CONTINUOUS
290
     0
370
    -3
390
D2F
  0
LAYER
  5
A5
330
2
100
AcDbSymbolTableRecord
100
AcDbLayerTableRecord
  2
C
 70
     0
 62
     7
  6
CONTINUOUS
370
    -3
390
D2F
  0
LAYER
  5
2A5
330
2
100
AcDbSymbolTableRecord
100
AcDbLayerTableRecord
  2
握り
 70
     0
 62
     3
  6
CONTINUOUS
370
    -3
390
D2F
  0
LAYER
  5
364
330
2
100
AcDbSymbolTableRecord
100
AcDbLayerTableRecord
  2
ROGO
 70
     0
 62
     6
  6
CONTINUOUS
370
    -3
390
D2F
  0
LAYER
  5
D59
330
2
100
AcDbSymbolTableRecord
100
AcDbLayerTableRecord
  2
隠れ線2
 70
     0
 62
     1
  6
HIDDEN2
370
    -3
390
D2F
  0
ENDTAB
  0
TABLE
  2
STYLE
  5
3
330
0
100
AcDbSymbolTable
 70
     6
  0
STYLE
  5
F
330
3
100
AcDbSymbolTableRecord
100
AcDbTextStyleTableRecord
  2
STANDARD
 70
     0
 40
0.0
 41
1.0
 50
0.0
 71
     0
 42
2.5
  3
txt
  4

  0
STYLE
  5
3F
330
3
100
AcDbSymbolTableRecord
100
AcDbTextStyleTableRecord
  2
STYLE3
 70
     0
 40
0.0
 41
1.0
 50
0.0
 71
     0
 42
3.0
  3
romans.shx
  4
bigfont.shx
  0
ENDTAB
  0
TABLE
  2
VIEW
  5
6
330
0
100
AcDbSymbolTable
 70
     0
  0
ENDTAB
  0
TABLE
  2
UCS
  5
7
330
0
100
AcDbSymbolTable
 70
     0
  0
ENDTAB
  0
TABLE
  2
APPID
  5
9
330
0
100
AcDbSymbolTable
 70
     2
  0
APPID
  5
10
330
9
100
AcDbSymbolTableRecord
100
AcDbRegAppTableRecord
  2
ACAD
 70
     0
  0
APPID
  5
D5E
330
9
100
AcDbSymbolTableRecord
100
AcDbRegAppTableRecord
  2
ACAD_PSEXT
 70
     0
  0
ENDTAB
  0
TABLE
  2
DIMSTYLE
  5
A
330
0
100
AcDbSymbolTable
 70
     8
100
AcDbDimStyleTable
 71
     1
340
8F
  0
DIMSTYLE
105
1D
330
A
100
AcDbSymbolTableRecord
100
AcDbDimStyleTableRecord
  2
STANDARD
 70
     0
 41
2.5
 42
0.625
 43
3.75
 44
1.25
 73
     0
 74
     0
 77
     1
 78
     8
140
2.5
141
2.5
143
0.0394
147
0.625
171
     4
172
     1
273
     8
274
     4
277
     6
340
F
  0
DIMSTYLE
105
8F
102
{ACAD_REACTORS
330
B56
330
B9E
330
BAC
330
BDC
330
BEF
330
C27
330
C60
330
CF5
102
}
330
A
100
AcDbSymbolTableRecord
100
AcDbDimStyleTableRecord
  2
STYLE3
 70
     0
 41
2.5
 42
0.0
 43
3.75
 44
1.25
 73
     0
 74
     0
 77
     1
 78
     8
140
2.5
141
2.5
143
0.0394
147
0.625
171
     4
172
     1
173
     1
176
     2
177
     2
178
     6
271
     1
273
     8
274
     4
340
3F
341
45
343
45
344
45
  0
ENDTAB
  0
TABLE
  2
BLOCK_RECORD
  5
1
330
0
100
AcDbSymbolTable
 70
    15
  0
BLOCK_RECORD
  5
18
102
{ACAD_XDICTIONARY
360
D4E
102
}
330
1
100
AcDbSymbolTableRecord
100
AcDbBlockTableRecord
  2
*MODEL_SPACE
340
D36
  0
BLOCK_RECORD
  5
15
330
1
100
AcDbSymbolTableRecord
100
AcDbBlockTableRecord
  2
*PAPER_SPACE
340
D37
  0
BLOCK_RECORD
  5
45
330
1
100
AcDbSymbolTableRecord
100
AcDbBlockTableRecord
  2
_OPEN
340
0
102
{BLKREFS
331
B7F
331
B80
331
B8A
331
B8B
331
BC9
331
BCA
331
C4A
331
C4F
331
CDA
331
CDB
331
B4F
331
B50
331
B97
331
B98
331
BA5
331
BA6
331
BD5
331
BD6
331
C05
331
C06
331
C2E
331
C2F
331
C59
331
C5A
331
CEE
331
CEF
102
}
  0
BLOCK_RECORD
  5
B4A
330
1
100
AcDbSymbolTableRecord
100
AcDbBlockTableRecord
  2
*D2
340
0
  0
BLOCK_RECORD
  5
B92
330
1
100
AcDbSymbolTableRecord
100
AcDbBlockTableRecord
  2
*D3
340
0
  0
BLOCK_RECORD
  5
BA0
330
1
100
AcDbSymbolTableRecord
100
AcDbBlockTableRecord
  2
*D4
340
0
  0
BLOCK_RECORD
  5
BD0
330
1
100
AcDbSymbolTableRecord
100
AcDbBlockTableRecord
  2
*D5
340
0
  0
BLOCK_RECORD
  5
BE1
330
1
100
AcDbSymbolTableRecord
100
AcDbBlockTableRecord
  2
*D6
340
0
  0
BLOCK_RECORD
  5
C19
330
1
100
AcDbSymbolTableRecord
100
AcDbBlockTableRecord
  2
*D7
340
0
  0
BLOCK_RECORD
  5
C54
330
1
100
AcDbSymbolTableRecord
100
AcDbBlockTableRecord
  2
*D8
340
0
  0
BLOCK_RECORD
  5
CE9
330
1
100
AcDbSymbolTableRecord
100
AcDbBlockTableRecord
  2
*D11
340
0
  0
ENDTAB
  0
ENDSEC
  0
SECTION
  2
BLOCKS
  0
BLOCK
  5
19
330
18
100
AcDbEntity
  8
0
100
AcDbBlockBegin
  2
*MODEL_SPACE
 70
     0
 10
0.0
 20
0.0
 30
0.0
  3
*MODEL_SPACE
  1

  0
ENDBLK
  5
1A
330
18
100
AcDbEntity
  8
0
100
AcDbBlockEnd
  0
BLOCK
  5
16
330
15
100
AcDbEntity
 67
     1
  8
0
100
AcDbBlockBegin
  2
*PAPER_SPACE
 70
     0
 10
0.0
 20
0.0
 30
0.0
  3
*PAPER_SPACE
  1

  0
ENDBLK
  5
17
330
15
100
AcDbEntity
 67
     1
  8
0
100
AcDbBlockEnd
  0
BLOCK
  5
46
330
45
100
AcDbEntity
  8
0
100
AcDbBlockBegin
  2
_OPEN
 70
     0
 10
0.0
 20
0.0
 30
0.0
  3
_OPEN
  1

  0
LINE
  5
47
330
45
100
AcDbEntity
  8
0
  6
ByBlock
 62
     0
100
AcDbLine
 10
-1.0
 20
0.1666666666666666
 30
0.0
 11
0.0
 21
0.0
 31
0.0
  0
LINE
  5
48
330
45
100
AcDbEntity
  8
0
  6
ByBlock
 62
     0
100
AcDbLine
 10
0.0
 20
0.0
 30
0.0
 11
-1.0
 21
-0.1666666666666666
 31
0.0
  0
LINE
  5
49
330
45
100
AcDbEntity
  8
0
  6
ByBlock
 62
     0
100
AcDbLine
 10
0.0
 20
0.0
 30
0.0
 11
-1.0
 21
0.0
 31
0.0
  0
ENDBLK
  5
4A
330
45
100
AcDbEntity
  8
0
100
AcDbBlockEnd
  0
BLOCK
  5
B4B
330
B4A
100
AcDbEntity
  8
0
100
AcDbBlockBegin
  2
*D2
 70
     1
 10
0.0
 20
0.0
 30
0.0
  3
*D2
  1

  0
LINE
  5
B4C
330
B4A
100
AcDbEntity
  8
0
  6
ByBlock
 62
     2
100
AcDbLine
 10
350.9475826009466
 20
339.319120973129
 30
0.0
 11
353.2206636327507
 21
339.319120973129
 31
0.0
  0
LINE
  5
B4D
330
B4A
100
AcDbEntity
  8
0
  6
ByBlock
 62
     2
100
AcDbLine
 10
351.9706636327508
 20
314.319120973129
 30
0.0
 11
350.7206636327508
 21
314.319120973129
 31
0.0
  0
LINE
  5
B4E
330
B4A
100
AcDbEntity
  8
0
  6
ByBlock
 62
     2
100
AcDbLine
 10
351.9706636327508
 20
336.819120973129
 30
0.0
 11
351.9706636327508
 21
316.819120973129
 31
0.0
  0
INSERT
  5
B4F
330
B4A
100
AcDbEntity
  8
0
  6
ByBlock
 62
     2
100
AcDbBlockReference
  2
_OPEN
 10
351.9706636327508
 20
339.319120973129
 30
0.0
 41
2.5
 42
2.5
 43
2.5
 50
90.0
  0
INSERT
  5
B50
330
B4A
100
AcDbEntity
  8
0
  6
ByBlock
 62
     2
100
AcDbBlockReference
  2
_OPEN
 10
351.9706636327508
 20
314.319120973129
 30
0.0
 41
2.5
 42
2.5
 43
2.5
 50
270.0
  0
MTEXT
  5
B51
330
B4A
100
AcDbEntity
  8
0
  6
ByBlock
 62
     6
100
AcDbMText
 10
350.0956636327507
 20
326.819120973129
 30
0.0
 40
2.5
 41
0.0
 71
     5
 72
     1
  1
\A1;25
  7
STYLE3
 11
0.0000000000000001
 21
1.0
 31
0.0
 73
     1
 44
1.0
  0
POINT
  5
B52
330
B4A
100
AcDbEntity
  8
DEFPOINTS
  6
ByBlock
 62
     0
100
AcDbPoint
 10
350.9475826009466
 20
339.319120973129
 30
0.0
  0
POINT
  5
B53
330
B4A
100
AcDbEntity
  8
DEFPOINTS
  6
ByBlock
 62
     0
100
AcDbPoint
 10
351.9706636327508
 20
314.319120973129
 30
0.0
  0
POINT
  5
B54
330
B4A
100
AcDbEntity
  8
DEFPOINTS
  6
ByBlock
 62
     0
100
AcDbPoint
 10
351.9706636327508
 20
314.319120973129
 30
0.0
  0
ENDBLK
  5
B55
330
B4A
100
AcDbEntity
  8
0
100
AcDbBlockEnd
  0
BLOCK
  5
B93
330
B92
100
AcDbEntity
  8
0
100
AcDbBlockBegin
  2
*D3
 70
     1
 10
0.0
 20
0.0
 30
0.0
  3
*D3
  1

  0
LINE
  5
B94
330
B92
100
AcDbEntity
  8
0
  6
ByBlock
 62
     2
100
AcDbLine
 10
314.072282597763
 20
332.335342849306
 30
0.0
 11
314.072282597763
 21
375.5991161215984
 31
0.0
  0
LINE
  5
B95
330
B92
100
AcDbEntity
  8
0
  6
ByBlock
 62
     2
100
AcDbLine
 10
399.072282597763
 20
355.1704934092838
 30
0.0
 11
399.072282597763
 21
375.5991161215984
 31
0.0
  0
LINE
  5
B96
330
B92
100
AcDbEntity
  8
0
  6
ByBlock
 62
     2
100
AcDbLine
 10
316.572282597763
 20
374.3491161215985
 30
0.0
 11
396.572282597763
 21
374.3491161215985
 31
0.0
  0
INSERT
  5
B97
330
B92
100
AcDbEntity
  8
0
  6
ByBlock
 62
     2
100
AcDbBlockReference
  2
_OPEN
 10
314.072282597763
 20
374.3491161215985
 30
0.0
 41
2.5
 42
2.5
 43
2.5
 50
180.0
  0
INSERT
  5
B98
330
B92
100
AcDbEntity
  8
0
  6
ByBlock
 62
     2
100
AcDbBlockReference
  2
_OPEN
 10
399.072282597763
 20
374.3491161215985
 30
0.0
 41
2.5
 42
2.5
 43
2.5
  0
MTEXT
  5
B99
330
B92
100
AcDbEntity
  8
0
  6
ByBlock
 62
     6
100
AcDbMText
 10
356.572282597763
 20
376.2241161215984
 30
0.0
 40
2.5
 41
0.0
 71
     5
 72
     1
  1
\A1;85
  7
STYLE3
 73
     1
 44
1.0
  0
POINT
  5
B9A
330
B92
100
AcDbEntity
  8
DEFPOINTS
  6
ByBlock
 62
     0
100
AcDbPoint
 10
314.072282597763
 20
332.335342849306
 30
0.0
  0
POINT
  5
B9B
330
B92
100
AcDbEntity
  8
DEFPOINTS
  6
ByBlock
 62
     0
100
AcDbPoint
 10
399.072282597763
 20
355.1704934092838
 30
0.0
  0
POINT
  5
B9C
330
B92
100
AcDbEntity
  8
DEFPOINTS
  6
ByBlock
 62
     0
100
AcDbPoint
 10
399.072282597763
 20
374.3491161215985
 30
0.0
  0
ENDBLK
  5
B9D
330
B92
100
AcDbEntity
  8
0
100
AcDbBlockEnd
  0
BLOCK
  5
BA1
330
BA0
100
AcDbEntity
  8
0
100
AcDbBlockBegin
  2
*D4
 70
     1
 10
0.0
 20
0.0
 30
0.0
  3
*D4
  1

  0
LINE
  5
BA2
330
BA0
100
AcDbEntity
  8
0
  6
ByBlock
 62
     2
100
AcDbLine
 10
408.5722825977629
 20
411.319120973129
 30
0.0
 11
408.5722825977629
 21
420.6295356198432
 31
0.0
  0
LINE
  5
BA3
330
BA0
100
AcDbEntity
  8
0
  6
ByBlock
 62
     2
100
AcDbLine
 10
419.572282597763
 20
411.319120973129
 30
0.0
 11
419.572282597763
 21
420.6295356198432
 31
0.0
  0
LINE
  5
BA4
330
BA0
100
AcDbEntity
  8
0
  6
ByBlock
 62
     2
100
AcDbLine
 10
411.0722825977629
 20
419.3795356198432
 30
0.0
 11
417.0722825977629
 21
419.3795356198432
 31
0.0
  0
INSERT
  5
BA5
330
BA0
100
AcDbEntity
  8
0
  6
ByBlock
 62
     2
100
AcDbBlockReference
  2
_OPEN
 10
408.5722825977629
 20
419.3795356198432
 30
0.0
 41
2.5
 42
2.5
 43
2.5
 50
180.0
  0
INSERT
  5
BA6
330
BA0
100
AcDbEntity
  8
0
  6
ByBlock
 62
     2
100
AcDbBlockReference
  2
_OPEN
 10
419.572282597763
 20
419.3795356198432
 30
0.0
 41
2.5
 42
2.5
 43
2.5
  0
MTEXT
  5
BA7
330
BA0
100
AcDbEntity
  8
0
  6
ByBlock
 62
     6
100
AcDbMText
 10
414.0722825977629
 20
421.2545356198432
 30
0.0
 40
2.5
 41
0.0
 71
     5
 72
     1
  1
\A1;11
  7
STYLE3
 73
     1
 44
1.0
  0
POINT
  5
BA8
330
BA0
100
AcDbEntity
  8
DEFPOINTS
  6
ByBlock
 62
     0
100
AcDbPoint
 10
408.5722825977629
 20
411.319120973129
 30
0.0
  0
POINT
  5
BA9
330
BA0
100
AcDbEntity
  8
DEFPOINTS
  6
ByBlock
 62
     0
100
AcDbPoint
 10
419.572282597763
 20
411.319120973129
 30
0.0
  0
POINT
  5
BAA
330
BA0
100
AcDbEntity
  8
DEFPOINTS
  6
ByBlock
 62
     0
100
AcDbPoint
 10
419.572282597763
 20
419.3795356198432
 30
0.0
  0
ENDBLK
  5
BAB
330
BA0
100
AcDbEntity
  8
0
100
AcDbBlockEnd
  0
BLOCK
  5
BD1
330
BD0
100
AcDbEntity
  8
0
100
AcDbBlockBegin
  2
*D5
 70
     1
 10
0.0
 20
0.0
 30
0.0
  3
*D5
  1

  0
LINE
  5
BD2
330
BD0
100
AcDbEntity
  8
0
  6
ByBlock
 62
     2
100
AcDbLine
 10
314.072282597763
 20
303.5429455241065
 30
0.0
 11
314.072282597763
 21
245.3809285261434
 31
0.0
  0
LINE
  5
BD3
330
BD0
100
AcDbEntity
  8
0
  6
ByBlock
 62
     2
100
AcDbLine
 10
594.0722825977628
 20
256.0858095723014
 30
0.0
 11
594.0722825977628
 21
245.3809285261434
 31
0.0
  0
LINE
  5
BD4
330
BD0
100
AcDbEntity
  8
0
  6
ByBlock
 62
     2
100
AcDbLine
 10
316.572282597763
 20
246.6309285261433
 30
0.0
 11
591.5722825977629
 21
246.6309285261433
 31
0.0
  0
INSERT
  5
BD5
330
BD0
100
AcDbEntity
  8
0
  6
ByBlock
 62
     2
100
AcDbBlockReference
  2
_OPEN
 10
314.072282597763
 20
246.6309285261433
 30
0.0
 41
2.5
 42
2.5
 43
2.5
 50
180.0
  0
INSERT
  5
BD6
330
BD0
100
AcDbEntity
  8
0
  6
ByBlock
 62
     2
100
AcDbBlockReference
  2
_OPEN
 10
594.0722825977628
 20
246.6309285261433
 30
0.0
 41
2.5
 42
2.5
 43
2.5
  0
MTEXT
  5
BD7
330
BD0
100
AcDbEntity
  8
0
  6
ByBlock
 62
     6
100
AcDbMText
 10
454.0722825977629
 20
248.5059285261434
 30
0.0
 40
2.5
 41
0.0
 71
     5
 72
     1
  1
\A1;280
  7
STYLE3
 73
     1
 44
1.0
  0
POINT
  5
BD8
330
BD0
100
AcDbEntity
  8
DEFPOINTS
  6
ByBlock
 62
     0
100
AcDbPoint
 10
314.072282597763
 20
303.5429455241065
 30
0.0
  0
POINT
  5
BD9
330
BD0
100
AcDbEntity
  8
DEFPOINTS
  6
ByBlock
 62
     0
100
AcDbPoint
 10
594.0722825977628
 20
256.0858095723014
 30
0.0
  0
POINT
  5
BDA
330
BD0
100
AcDbEntity
  8
DEFPOINTS
  6
ByBlock
 62
     0
100
AcDbPoint
 10
594.0722825977628
 20
246.6309285261433
 30
0.0
  0
ENDBLK
  5
BDB
330
BD0
100
AcDbEntity
  8
0
100
AcDbBlockEnd
  0
BLOCK
  5
BFF
330
BE1
100
AcDbEntity
  8
0
100
AcDbBlockBegin
  2
*D6
 70
     1
 10
0.0
 20
0.0
 30
0.0
  3
*D6
  1

  0
LINE
  5
C00
330
BE1
100
AcDbEntity
  8
0
  6
ByBlock
 62
     2
100
AcDbLine
 10
336.3912261569022
 20
350.1638858627185
 30
0.0
 11
336.3912261569022
 21
360.1863079499735
 31
0.0
  0
LINE
  5
C01
330
BE1
100
AcDbEntity
  8
0
  6
ByBlock
 62
     2
100
AcDbLine
 10
339.3912261569022
 20
350.3069132763061
 30
0.0
 11
339.3912261569022
 21
360.1863079499735
 31
0.0
  0
LINE
  5
C02
330
BE1
100
AcDbEntity
  8
0
  6
ByBlock
 62
     2
100
AcDbLine
 10
333.8912261569022
 20
358.9363079499735
 30
0.0
 11
331.3912261569022
 21
358.9363079499735
 31
0.0
  0
LINE
  5
C03
330
BE1
100
AcDbEntity
  8
0
  6
ByBlock
 62
     2
100
AcDbLine
 10
341.8912261569023
 20
358.9363079499735
 30
0.0
 11
350.403130918807
 21
358.9363079499735
 31
0.0
  0
LINE
  5
C04
330
BE1
100
AcDbEntity
  8
0
  6
ByBlock
 62
     2
100
AcDbLine
 10
336.3912261569022
 20
358.9363079499735
 30
0.0
 11
339.3912261569022
 21
358.9363079499735
 31
0.0
  0
INSERT
  5
C05
330
BE1
100
AcDbEntity
  8
0
  6
ByBlock
 62
     2
100
AcDbBlockReference
  2
_OPEN
 10
336.3912261569022
 20
358.9363079499735
 30
0.0
 41
2.5
 42
2.5
 43
2.5
  0
INSERT
  5
C06
330
BE1
100
AcDbEntity
  8
0
  6
ByBlock
 62
     2
100
AcDbBlockReference
  2
_OPEN
 10
339.3912261569022
 20
358.9363079499735
 30
0.0
 41
2.5
 42
2.5
 43
2.5
 50
180.0
  0
MTEXT
  5
C07
330
BE1
100
AcDbEntity
  8
0
  6
ByBlock
 62
     6
100
AcDbMText
 10
347.3971785378546
 20
361.4660698547354
 30
0.0
 40
2.5
 41
0.0
 71
     5
 72
     1
  1
\A1;(3)
  7
STYLE3
 73
     1
 44
1.0
  0
POINT
  5
C08
330
BE1
100
AcDbEntity
  8
DEFPOINTS
  6
ByBlock
 62
     0
100
AcDbPoint
 10
336.3912261569022
 20
350.1638858627185
 30
0.0
  0
POINT
  5
C09
330
BE1
100
AcDbEntity
  8
DEFPOINTS
  6
ByBlock
 62
     0
100
AcDbPoint
 10
339.3912261569022
 20
350.3069132763061
 30
0.0
  0
POINT
  5
C0A
330
BE1
100
AcDbEntity
  8
DEFPOINTS
  6
ByBlock
 62
     0
100
AcDbPoint
 10
339.3912261569022
 20
358.9363079499735
 30
0.0
  0
ENDBLK
  5
C0B
330
BE1
100
AcDbEntity
  8
0
100
AcDbBlockEnd
  0
BLOCK
  5
C28
330
C19
100
AcDbEntity
  8
0
100
AcDbBlockBegin
  2
*D7
 70
     1
 10
0.0
 20
0.0
 30
0.0
  3
*D7
  1

  0
LINE
  5
C29
330
C19
100
AcDbEntity
  8
0
  6
ByBlock
 62
     2
100
AcDbLine
 10
365.1826061913106
 20
289.5541825435575
 30
0.0
 11
365.1826061913106
 21
273.2392572009313
 31
0.0
  0
LINE
  5
C2A
330
C19
100
AcDbEntity
  8
0
  6
ByBlock
 62
     2
100
AcDbLine
 10
368.1826061913106
 20
289.2260739468205
 30
0.0
 11
368.1826061913106
 21
273.2392572009313
 31
0.0
  0
LINE
  5
C2B
330
C19
100
AcDbEntity
  8
0
  6
ByBlock
 62
     2
100
AcDbLine
 10
362.6826061913106
 20
274.4892572009312
 30
0.0
 11
360.1826061913106
 21
274.4892572009312
 31
0.0
  0
LINE
  5
C2C
330
C19
100
AcDbEntity
  8
0
  6
ByBlock
 62
     2
100
AcDbLine
 10
370.6826061913106
 20
274.4892572009312
 30
0.0
 11
379.1945109532154
 21
274.4892572009312
 31
0.0
  0
LINE
  5
C2D
330
C19
100
AcDbEntity
  8
0
  6
ByBlock
 62
     2
100
AcDbLine
 10
365.1826061913106
 20
274.4892572009312
 30
0.0
 11
368.1826061913106
 21
274.4892572009312
 31
0.0
  0
INSERT
  5
C2E
330
C19
100
AcDbEntity
  8
0
  6
ByBlock
 62
     2
100
AcDbBlockReference
  2
_OPEN
 10
365.1826061913106
 20
274.4892572009312
 30
0.0
 41
2.5
 42
2.5
 43
2.5
  0
INSERT
  5
C2F
330
C19
100
AcDbEntity
  8
0
  6
ByBlock
 62
     2
100
AcDbBlockReference
  2
_OPEN
 10
368.1826061913106
 20
274.4892572009312
 30
0.0
 41
2.5
 42
2.5
 43
2.5
 50
180.0
  0
MTEXT
  5
C30
330
C19
100
AcDbEntity
  8
0
  6
ByBlock
 62
     6
100
AcDbMText
 10
376.188558572263
 20
277.0190191056932
 30
0.0
 40
2.5
 41
0.0
 71
     5
 72
     1
  1
\A1;(3)
  7
STYLE3
 73
     1
 44
1.0
  0
POINT
  5
C31
330
C19
100
AcDbEntity
  8
DEFPOINTS
  6
ByBlock
 62
     0
100
AcDbPoint
 10
365.1826061913106
 20
289.5541825435575
 30
0.0
  0
POINT
  5
C32
330
C19
100
AcDbEntity
  8
DEFPOINTS
  6
ByBlock
 62
     0
100
AcDbPoint
 10
368.1826061913106
 20
289.2260739468205
 30
0.0
  0
POINT
  5
C33
330
C19
100
AcDbEntity
  8
DEFPOINTS
  6
ByBlock
 62
     0
100
AcDbPoint
 10
368.1826061913106
 20
274.4892572009312
 30
0.0
  0
ENDBLK
  5
C34
330
C19
100
AcDbEntity
  8
0
100
AcDbBlockEnd
  0
BLOCK
  5
C55
330
C54
100
AcDbEntity
  8
0
100
AcDbBlockBegin
  2
*D8
 70
     1
 10
0.0
 20
0.0
 30
0.0
  3
*D8
  1

  0
LINE
  5
C56
330
C54
100
AcDbEntity
  8
0
  6
ByBlock
 62
     2
100
AcDbLine
 10
489.4618053262473
 20
321.319120973129
 30
0.0
 11
486.0565154920626
 21
321.319120973129
 31
0.0
  0
LINE
  5
C57
330
C54
100
AcDbEntity
  8
0
  6
ByBlock
 62
     2
100
AcDbLine
 10
487.9497015559105
 20
314.319120973129
 30
0.0
 11
486.0565154920626
 21
314.319120973129
 31
0.0
  0
LINE
  5
C58
330
C54
100
AcDbEntity
  8
0
  6
ByBlock
 62
     2
100
AcDbLine
 10
487.3065154920626
 20
318.819120973129
 30
0.0
 11
487.3065154920626
 21
316.819120973129
 31
0.0
  0
INSERT
  5
C59
330
C54
100
AcDbEntity
  8
0
  6
ByBlock
 62
     2
100
AcDbBlockReference
  2
_OPEN
 10
487.3065154920626
 20
321.319120973129
 30
0.0
 41
2.5
 42
2.5
 43
2.5
 50
90.0
  0
INSERT
  5
C5A
330
C54
100
AcDbEntity
  8
0
  6
ByBlock
 62
     2
100
AcDbBlockReference
  2
_OPEN
 10
487.3065154920626
 20
314.319120973129
 30
0.0
 41
2.5
 42
2.5
 43
2.5
 50
270.0
  0
MTEXT
  5
C5B
330
C54
100
AcDbEntity
  8
0
  6
ByBlock
 62
     6
100
AcDbMText
 10
485.4315154920626
 20
317.819120973129
 30
0.0
 40
2.5
 41
0.0
 71
     5
 72
     1
  1
\A1;7
  7
STYLE3
 11
0.0000000000000001
 21
1.0
 31
0.0
 73
     1
 44
1.0
  0
POINT
  5
C5C
330
C54
100
AcDbEntity
  8
DEFPOINTS
  6
ByBlock
 62
     0
100
AcDbPoint
 10
489.4618053262473
 20
321.319120973129
 30
0.0
  0
POINT
  5
C5D
330
C54
100
AcDbEntity
  8
DEFPOINTS
  6
ByBlock
 62
     0
100
AcDbPoint
 10
487.9497015559105
 20
314.319120973129
 30
0.0
  0
POINT
  5
C5E
330
C54
100
AcDbEntity
  8
DEFPOINTS
  6
ByBlock
 62
     0
100
AcDbPoint
 10
487.3065154920626
 20
314.319120973129
 30
0.0
  0
ENDBLK
  5
C5F
330
C54
100
AcDbEntity
  8
0
100
AcDbBlockEnd
  0
BLOCK
  5
CEA
330
CE9
100
AcDbEntity
  8
0
100
AcDbBlockBegin
  2
*D11
 70
     1
 10
0.0
 20
0.0
 30
0.0
  3
*D11
  1

  0
LINE
  5
CEB
330
CE9
100
AcDbEntity
  8
0
  6
ByBlock
 62
     2
100
AcDbLine
 10
589.0722825977628
 20
336.5700679748627
 30
0.0
 11
609.5718744716468
 21
336.5700679748627
 31
0.0
  0
LINE
  5
CEC
330
CE9
100
AcDbEntity
  8
0
  6
ByBlock
 62
     2
100
AcDbLine
 10
589.0722825977628
 20
306.5700679748627
 30
0.0
 11
609.5718744716468
 21
306.5700679748627
 31
0.0
  0
LINE
  5
CED
330
CE9
100
AcDbEntity
  8
0
  6
ByBlock
 62
     2
100
AcDbLine
 10
608.3218744716468
 20
334.0700679748627
 30
0.0
 11
608.3218744716468
 21
309.0700679748627
 31
0.0
  0
INSERT
  5
CEE
330
CE9
100
AcDbEntity
  8
0
  6
ByBlock
 62
     2
100
AcDbBlockReference
  2
_OPEN
 10
608.3218744716468
 20
336.5700679748627
 30
0.0
 41
2.5
 42
2.5
 43
2.5
 50
90.0
  0
INSERT
  5
CEF
330
CE9
100
AcDbEntity
  8
0
  6
ByBlock
 62
     2
100
AcDbBlockReference
  2
_OPEN
 10
608.3218744716468
 20
306.5700679748627
 30
0.0
 41
2.5
 42
2.5
 43
2.5
 50
270.0
  0
MTEXT
  5
CF0
330
CE9
100
AcDbEntity
  8
0
  6
ByBlock
 62
     6
100
AcDbMText
 10
606.4468744716468
 20
321.5700679748627
 30
0.0
 40
2.5
 41
0.0
 71
     5
 72
     1
  1
\A1;30
  7
STYLE3
 11
0.0000000000000001
 21
1.0
 31
0.0
 73
     1
 44
1.0
  0
POINT
  5
CF1
330
CE9
100
AcDbEntity
  8
DEFPOINTS
  6
ByBlock
 62
     0
100
AcDbPoint
 10
589.0722825977628
 20
336.5700679748627
 30
0.0
  0
POINT
  5
CF2
330
CE9
100
AcDbEntity
  8
DEFPOINTS
  6
ByBlock
 62
     0
100
AcDbPoint
 10
589.0722825977628
 20
306.5700679748627
 30
0.0
  0
POINT
  5
CF3
330
CE9
100
AcDbEntity
  8
DEFPOINTS
  6
ByBlock
 62
     0
100
AcDbPoint
 10
608.3218744716468
 20
306.5700679748627
 30
0.0
  0
ENDBLK
  5
CF4
330
CE9
100
AcDbEntity
  8
0
100
AcDbBlockEnd
  0
ENDSEC
  0
SECTION
  2
ENTITIES
  0
LWPOLYLINE
  5
1A0
330
18
100
AcDbEntity
  8
C
100
AcDbPolyline
 90
        5
 70
     0
 43
0.8
 10
256.2352605185929
 20
458.9717683211813
 10
633.7352605185929
 20
458.9717683211813
 10
633.7352605185929
 20
176.4717683211813
 10
256.2352605185929
 20
176.4717683211813
 10
256.2352605185929
 20
458.9717683211813
  0
LINE
  5
1ED
330
18
100
AcDbEntity
  8
中心線
 48
0.5
100
AcDbLine
 10
298.0884942396985
 20
314.3191209731291
 30
0.0
 11
487.9497015559105
 21
314.319120973129
 31
0.0
  0
LINE
  5
1EE
330
18
100
AcDbEntity
  8
中心線
 48
0.5
100
AcDbLine
 10
414.0722825977629
 20
416.7186262656475
 30
0.0
 11
414.0722825977629
 21
256.0858095723014
 31
0.0
  0
ARC
  5
1F0
330
18
100
AcDbEntity
  8
外形線
100
AcDbCircle
 10
414.0722825977629
 20
314.319120973129
 30
0.0
 40
12.5
100
AcDbArc
 50
54.24736886219522
 51
182.8717148027125
  0
ARC
  5
1F1
330
18
100
AcDbEntity
  8
外形線
100
AcDbCircle
 10
414.0722825977629
 20
314.319120973129
 30
0.0
 40
30.0
100
AcDbArc
 50
259.9422918104705
 51
298.725024612657
  0
ARC
  5
1F4
330
18
100
AcDbEntity
  8
外形線
100
AcDbCircle
 10
468.2132825977629
 20
389.319120973129
 30
0.0
 40
80.0
100
AcDbArc
 50
234.1639646183198
 51
265.0542125164584
  0
ARC
  5
1F7
330
18
100
AcDbEntity
  8
外形線
100
AcDbCircle
 10
391.208282597763
 20
311.819120973129
 30
0.0
 40
10.5
100
AcDbArc
 50
265.2370981443184
 51
8.260897944240298
  0
ARC
  5
1FA
330
18
100
AcDbEntity
  8
外形線
100
AcDbCircle
 10
457.072282597763
 20
235.2561209731291
 30
0.0
 40
60.0
100
AcDbArc
 50
79.29633824992769
 51
118.6327353533807
  0
ARC
  5
1FE
330
18
100
AcDbEntity
  8
外形線
100
AcDbCircle
 10
314.072282597763
 20
317.319120973129
 30
0.0
 40
2.0
100
AcDbArc
 50
0.0
 51
180.0000000000049
  0
ARC
  5
201
330
18
100
AcDbEntity
  8
外形線
100
AcDbCircle
 10
319.072282597763
 20
306.819120973129
 30
0.0
 40
2.5
100
AcDbArc
 50
180.0000000000416
 51
269.9999999999987
  0
ARC
  5
204
330
18
100
AcDbEntity
  8
外形線
100
AcDbCircle
 10
318.872282597763
 20
303.6191209731291
 30
0.0
 40
9.0
100
AcDbArc
 50
161.754207589244
 51
270.0000000000003
  0
LINE
  5
205
330
18
100
AcDbEntity
  8
外形線
100
AcDbLine
 10
312.072282597763
 20
317.319120973129
 30
0.0
 11
310.3247835067122
 21
306.4369675424947
 31
0.0
  0
LINE
  5
206
330
18
100
AcDbEntity
  8
外形線
100
AcDbLine
 10
316.072282597763
 20
317.319120973129
 30
0.0
 11
316.572282597763
 21
306.819120973129
 31
0.0
  0
LINE
  5
209
330
18
100
AcDbEntity
  8
外形線
100
AcDbLine
 10
401.5879799516127
 20
313.6928722690764
 30
0.0
 11
401.5993353947407
 21
313.327769961602
 31
0.0
  0
LINE
  5
20A
330
18
100
AcDbEntity
  8
外形線
100
AcDbLine
 10
319.072282597763
 20
304.319120973129
 30
0.0
 11
390.3364401728921
 21
301.3553792529701
 31
0.0
  0
LINE
  5
20C
330
18
100
AcDbEntity
  8
外形線
100
AcDbLine
 10
318.872282597763
 20
294.619120973129
 30
0.0
 11
408.8330830257445
 21
284.7801503098754
 31
0.0
  0
ARC
  5
213
330
18
100
AcDbEntity
  8
外形線
100
AcDbCircle
 10
314.072282597763
 20
321.319120973129
 30
0.0
 40
2.0
100
AcDbArc
 50
180.0
 51
0.0000000000276835
  0
ARC
  5
217
330
18
100
AcDbEntity
  8
外形線
100
AcDbCircle
 10
318.672282597763
 20
340.819120973129
 30
0.0
 40
8.5
100
AcDbArc
 50
90.00000000000305
 51
191.130197669823
  0
ARC
  5
21A
330
18
100
AcDbEntity
  8
外形線
100
AcDbCircle
 10
320.472282597763
 20
336.819120973129
 30
0.0
 40
2.5
100
AcDbArc
 50
90.0
 51
180.0
  0
ARC
  5
21C
330
18
100
AcDbEntity
  8
外形線
100
AcDbCircle
 10
391.572282597763
 20
328.319120973129
 30
0.0
 40
11.0
100
AcDbArc
 50
0.0
 51
90.0
  0
LINE
  5
21D
330
18
100
AcDbEntity
  8
外形線
100
AcDbLine
 10
310.3321585942201
 20
339.1782883779121
 30
0.0
 11
312.072282597763
 21
321.319120973129
 31
0.0
  0
LINE
  5
21E
330
18
100
AcDbEntity
  8
外形線
100
AcDbLine
 10
317.972282597763
 20
336.819120973129
 30
0.0
 11
316.072282597763
 21
321.319120973129
 31
0.0
  0
LINE
  5
21F
330
18
100
AcDbEntity
  8
外形線
100
AcDbLine
 10
320.472282597763
 20
339.319120973129
 30
0.0
 11
391.572282597763
 21
339.319120973129
 31
0.0
  0
LINE
  5
220
330
18
100
AcDbEntity
  8
外形線
100
AcDbLine
 10
402.5722825977629
 20
353.319120973129
 30
0.0
 11
424.072282597763
 21
353.3191209731293
 31
0.0
  0
LINE
  5
222
330
18
100
AcDbEntity
  8
外形線
100
AcDbLine
 10
318.672282597763
 20
349.319120973129
 30
0.0
 11
402.5722825977629
 21
353.319120973129
 31
0.0
  0
LINE
  5
223
330
18
100
AcDbEntity
  8
外形線
100
AcDbLine
 10
402.5722825977629
 20
328.3191209731291
 30
0.0
 11
424.072282597763
 21
328.3191209731289
 31
0.0
  0
LINE
  5
224
330
18
100
AcDbEntity
  8
中心線
100
AcDbLine
 10
404.1985042088744
 20
330.8191209731291
 30
0.0
 11
407.9081903873612
 21
330.8191209731291
 31
0.0
  0
LINE
  5
225
330
18
100
AcDbEntity
  8
中心線
100
AcDbLine
 10
404.3083536154796
 20
350.819120973129
 30
0.0
 11
407.90514292579
 21
350.819120973129
 31
0.0
  0
LINE
  5
226
330
18
100
AcDbEntity
  8
中心線
100
AcDbLine
 10
406.0722825977629
 20
352.5088494664483
 30
0.0
 11
406.0722825977631
 21
349.0352644765447
 31
0.0
  0
LINE
  5
232
330
18
100
AcDbEntity
  8
中心線
100
AcDbLine
 10
406.0722825977628
 20
332.6895625206026
 30
0.0
 11
406.0722825977628
 21
328.9640884405635
 31
0.0
  0
ARC
  5
236
330
18
100
AcDbEntity
  8
隠れ線2
100
AcDbCircle
 10
414.0722825977629
 20
314.319120973129
 30
0.0
 40
12.5
100
AcDbArc
 50
184.5487953243072
 51
253.4932785913512
  0
LINE
  5
23A
330
18
100
AcDbEntity
  8
外形線
100
AcDbLine
 10
405.0722825977629
 20
328.319120973129
 30
0.0
 11
408.0480185290512
 21
328.3191209731291
 31
0.0
  0
LINE
  5
23B
330
18
100
AcDbEntity
  8
外形線
100
AcDbLine
 10
405.072282597763
 20
328.3191209731291
 30
0.0
 11
402.2481087706475
 21
318.3736139508216
 31
0.0
  0
ARC
  5
23F
330
18
100
AcDbEntity
  8
外形線
100
AcDbCircle
 10
429.8232825977629
 20
338.319120973129
 30
0.0
 40
12.0
100
AcDbArc
 50
236.4426902380782
 51
359.0077215458528
  0
LINE
  5
242
330
18
100
AcDbEntity
  8
外形線
100
AcDbLine
 10
420.0965466664748
 20
328.3191209731291
 30
0.0
 11
423.1902825977631
 21
328.3191209731291
 31
0.0
  0
ARC
  5
245
330
18
100
AcDbEntity
  8
隠れ線2
100
AcDbCircle
 10
438.8722825977629
 20
459.6191209731308
 30
0.0
 40
160.0000000000018
100
AcDbArc
 50
260.3317874428991
 51
280.3333347875489
  0
LINE
  5
249
330
18
100
AcDbEntity
  8
外形線
100
AcDbLine
 10
408.5722825977629
 20
411.319120973129
 30
0.0
 11
419.572282597763
 21
411.319120973129
 31
0.0
  0
LINE
  5
25C
330
18
100
AcDbEntity
  8
中心線
100
AcDbLine
 10
412.1424717822228
 20
408.3191209731291
 30
0.0
 11
416.2851101426126
 21
408.3191209731291
 31
0.0
  0
CIRCLE
  5
25D
330
18
100
AcDbEntity
  8
外形線
100
AcDbCircle
 10
414.0722825977629
 20
408.3191209731291
 30
0.0
 40
1.225
  0
ARC
  5
263
330
18
100
AcDbEntity
  8
外形線
100
AcDbCircle
 10
497.8884493084771
 20
342.9406513350945
 30
0.0
 40
10.0
100
AcDbArc
 50
189.7998928966194
 51
247.5661410086737
  0
LINE
  5
26F
330
18
100
AcDbEntity
  8
中心線
100
AcDbLine
 10
444.0722825977629
 20
327.9640541276789
 30
0.0
 11
444.0722825977629
 21
320.8494324272752
 31
0.0
  0
LINE
  5
278
330
18
100
AcDbEntity
  8
中心線
100
AcDbLine
 10
440.0713036294636
 20
324.319120973129
 30
0.0
 11
448.3803468309457
 21
324.319120973129
 31
0.0
  0
LINE
  5
296
330
18
100
AcDbEntity
  8
中心線
100
AcDbLine
 10
476.0722825977628
 20
326.3216565727285
 30
0.0
 11
476.0722825977628
 21
317.2191513779984
 31
0.0
  0
ARC
  5
307
330
18
100
AcDbEntity
  8
握り
100
AcDbCircle
 10
589.0722825977628
 20
335.0700679748627
 30
0.0
 40
1.5
100
AcDbArc
 50
27.81813928465427
 51
152.1818607153457
  0
ARC
  5
308
330
18
100
AcDbEntity
  8
握り
100
AcDbCircle
 10
579.0722825977629
 20
335.0700679748627
 30
0.0
 40
1.5
100
AcDbArc
 50
27.81813928465427
 51
152.1818607153457
  0
ARC
  5
309
330
18
100
AcDbEntity
  8
握り
100
AcDbCircle
 10
569.0722825977628
 20
335.0700679748627
 30
0.0
 40
1.5
100
AcDbArc
 50
27.81813928465427
 51
152.1818607153457
  0
ARC
  5
30A
330
18
100
AcDbEntity
  8
握り
100
AcDbCircle
 10
559.0722825977628
 20
335.0700679748627
 30
0.0
 40
1.5
100
AcDbArc
 50
27.81813928465427
 51
152.1818607153457
  0
ARC
  5
30B
330
18
100
AcDbEntity
  8
握り
100
AcDbCircle
 10
549.0722825977628
 20
335.0700679748627
 30
0.0
 40
1.5
100
AcDbArc
 50
27.81813928465427
 51
152.1818607153457
  0
ARC
  5
30C
330
18
100
AcDbEntity
  8
握り
100
AcDbCircle
 10
539.0722825977628
 20
335.0700679748627
 30
0.0
 40
1.5
100
AcDbArc
 50
27.81813928465427
 51
152.1818607153457
  0
ARC
  5
30D
330
18
100
AcDbEntity
  8
握り
100
AcDbCircle
 10
529.0722825977629
 20
335.0700679748627
 30
0.0
 40
1.5
100
AcDbArc
 50
27.81813928465427
 51
152.1818607153457
  0
ARC
  5
30E
330
18
100
AcDbEntity
  8
握り
100
AcDbCircle
 10
519.0722825977628
 20
335.0700679748627
 30
0.0
 40
1.5
100
AcDbArc
 50
27.81813928465427
 51
152.1818607153457
  0
ARC
  5
30F
330
18
100
AcDbEntity
  8
握り
100
AcDbCircle
 10
509.0722825977628
 20
335.0700679748627
 30
0.0
 40
1.5
100
AcDbArc
 50
27.81813928465427
 51
152.1818607153457
  0
ARC
  5
310
330
18
100
AcDbEntity
  8
握り
100
AcDbCircle
 10
499.0722825977628
 20
335.0700679748627
 30
0.0
 40
1.5
100
AcDbArc
 50
27.81813928465427
 51
152.1818607153457
  0
ARC
  5
311
330
18
100
AcDbEntity
  8
握り
100
AcDbCircle
 10
494.5722825977628
 20
335.2700679748627
 30
0.0
 40
0.5
100
AcDbArc
 50
90.0
 51
180.0
  0
ARC
  5
312
330
18
100
AcDbEntity
  8
握り
100
AcDbCircle
 10
593.5722825977628
 20
335.2700679748627
 30
0.0
 40
0.5
100
AcDbArc
 50
0.0
 51
90.0
  0
LINE
  5
313
330
18
100
AcDbEntity
  8
握り
100
AcDbLine
 10
530.398932513905
 20
314.9167679748627
 30
0.0
 11
537.7456326816204
 21
314.9167679748627
 31
0.0
  0
LINE
  5
314
330
18
100
AcDbEntity
  8
握り
100
AcDbLine
 10
530.3989325139051
 20
328.2233679748627
 30
0.0
 11
537.7456326816209
 21
328.2233679748627
 31
0.0
  0
LINE
  5
315
330
18
100
AcDbEntity
  8
握り
100
AcDbLine
 10
520.398932513905
 20
317.5700679748627
 30
0.0
 11
567.7456326816205
 21
317.5700679748627
 31
0.0
  0
LINE
  5
316
330
18
100
AcDbEntity
  8
握り
100
AcDbLine
 10
520.398932513905
 20
325.5700679748627
 30
0.0
 11
567.7456326816208
 21
325.5700679748628
 31
0.0
  0
LINE
  5
317
330
18
100
AcDbEntity
  8
握り
100
AcDbLine
 10
530.398932513905
 20
307.3700679748627
 30
0.0
 11
537.7456326816207
 21
307.3700679748627
 31
0.0
  0
LINE
  5
318
330
18
100
AcDbEntity
  8
握り
100
AcDbLine
 10
530.398932513905
 20
335.7700679748627
 30
0.0
 11
537.7456326816207
 21
335.7700679748627
 31
0.0
  0
LINE
  5
319
330
18
100
AcDbEntity
  8
握り
100
AcDbLine
 10
530.3989325139049
 20
314.9167679748627
 30
0.0
 11
530.398932513905
 21
307.3700679748627
 31
0.0
  0
LINE
  5
31A
330
18
100
AcDbEntity
  8
握り
100
AcDbLine
 10
527.7456326816206
 20
314.9167679748627
 30
0.0
 11
527.7456326816206
 21
307.3700679748627
 31
0.0
  0
LINE
  5
31B
330
18
100
AcDbEntity
  8
握り
100
AcDbLine
 10
520.398932513905
 20
314.9167679748627
 30
0.0
 11
520.398932513905
 21
307.3700679748627
 31
0.0
  0
LINE
  5
31C
330
18
100
AcDbEntity
  8
握り
100
AcDbLine
 10
517.7456326816207
 20
335.7700679748627
 30
0.0
 11
517.7456326816207
 21
307.3700679748627
 31
0.0
  0
LINE
  5
31D
330
18
100
AcDbEntity
  8
握り
100
AcDbLine
 10
510.398932513905
 20
335.7700679748627
 30
0.0
 11
510.398932513905
 21
307.3700679748627
 31
0.0
  0
LINE
  5
31E
330
18
100
AcDbEntity
  8
握り
100
AcDbLine
 10
507.7456326816206
 20
335.7700679748627
 30
0.0
 11
507.7456326816206
 21
307.3700679748627
 31
0.0
  0
LINE
  5
31F
330
18
100
AcDbEntity
  8
握り
100
AcDbLine
 10
497.7456326816207
 20
335.7700679748627
 30
0.0
 11
497.7456326816207
 21
307.3700679748627
 31
0.0
  0
LINE
  5
320
330
18
100
AcDbEntity
  8
握り
100
AcDbLine
 10
500.398932513905
 20
335.7700679748627
 30
0.0
 11
500.398932513905
 21
307.3700679748627
 31
0.0
  0
LINE
  5
321
330
18
100
AcDbEntity
  8
握り
100
AcDbLine
 10
494.0722825977628
 20
335.2700679748627
 30
0.0
 11
494.0722825977628
 21
307.8700679748627
 31
0.0
  0
LINE
  5
322
330
18
100
AcDbEntity
  8
握り
100
AcDbLine
 10
494.5722825977628
 20
307.3700679748627
 30
0.0
 11
497.7456326816207
 21
307.3700679748628
 31
0.0
  0
ARC
  5
323
330
18
100
AcDbEntity
  8
握り
100
AcDbCircle
 10
494.5722825977628
 20
307.8700679748627
 30
0.0
 40
0.5
100
AcDbArc
 50
180.0
 51
270.0
  0
LINE
  5
324
330
18
100
AcDbEntity
  8
握り
100
AcDbLine
 10
510.398932513905
 20
307.3700679748627
 30
0.0
 11
517.7456326816207
 21
307.3700679748627
 31
0.0
  0
LINE
  5
325
330
18
100
AcDbEntity
  8
握り
100
AcDbLine
 10
500.398932513905
 20
307.3700679748628
 30
0.0
 11
507.7456326816208
 21
307.3700679748627
 31
0.0
  0
ARC
  5
326
330
18
100
AcDbEntity
  8
握り
100
AcDbCircle
 10
499.0722825977628
 20
308.0700679748627
 30
0.0
 40
1.5
100
AcDbArc
 50
207.8181392846543
 51
332.1818607153458
  0
ARC
  5
327
330
18
100
AcDbEntity
  8
握り
100
AcDbCircle
 10
509.0722825977628
 20
308.0700679748627
 30
0.0
 40
1.5
100
AcDbArc
 50
207.8181392846543
 51
332.1818607153458
  0
LINE
  5
328
330
18
100
AcDbEntity
  8
握り
100
AcDbLine
 10
520.398932513905
 20
307.3700679748627
 30
0.0
 11
527.7456326816206
 21
307.3700679748627
 31
0.0
  0
ARC
  5
329
330
18
100
AcDbEntity
  8
握り
100
AcDbCircle
 10
519.0722825977628
 20
308.0700679748627
 30
0.0
 40
1.5
100
AcDbArc
 50
207.8181392846543
 51
332.1818607153458
  0
ARC
  5
32A
330
18
100
AcDbEntity
  8
握り
100
AcDbCircle
 10
529.0722825977629
 20
308.0700679748627
 30
0.0
 40
1.5
100
AcDbArc
 50
207.8181392846543
 51
332.1818607153458
  0
LINE
  5
32B
330
18
100
AcDbEntity
  8
握り
100
AcDbLine
 10
494.5722825977628
 20
335.7700679748627
 30
0.0
 11
497.7456326816207
 21
335.7700679748627
 31
0.0
  0
LINE
  5
32D
330
18
100
AcDbEntity
  8
握り
100
AcDbLine
 10
520.398932513905
 20
325.5700679748627
 30
0.0
 11
520.398932513905
 21
317.5700679748627
 31
0.0
  0
LINE
  5
32E
330
18
100
AcDbEntity
  8
握り
100
AcDbLine
 10
520.398932513905
 20
314.9167679748627
 30
0.0
 11
527.7456326816207
 21
314.9167679748627
 31
0.0
  0
LINE
  5
32F
330
18
100
AcDbEntity
  8
握り
100
AcDbLine
 10
510.398932513905
 20
335.7700679748627
 30
0.0
 11
517.7456326816207
 21
335.7700679748627
 31
0.0
  0
LINE
  5
330
330
18
100
AcDbEntity
  8
握り
100
AcDbLine
 10
500.398932513905
 20
335.7700679748627
 30
0.0
 11
507.7456326816208
 21
335.7700679748627
 31
0.0
  0
LINE
  5
331
330
18
100
AcDbEntity
  8
握り
100
AcDbLine
 10
530.398932513905
 20
335.7700679748627
 30
0.0
 11
530.3989325139051
 21
328.2233679748627
 31
0.0
  0
LINE
  5
332
330
18
100
AcDbEntity
  8
握り
100
AcDbLine
 10
527.7456326816206
 20
335.7700679748627
 30
0.0
 11
527.7456326816207
 21
328.2233679748627
 31
0.0
  0
LINE
  5
333
330
18
100
AcDbEntity
  8
握り
100
AcDbLine
 10
520.398932513905
 20
335.7700679748627
 30
0.0
 11
520.398932513905
 21
328.2233679748627
 31
0.0
  0
LINE
  5
334
330
18
100
AcDbEntity
  8
握り
100
AcDbLine
 10
520.3989325139051
 20
328.2233679748627
 30
0.0
 11
527.7456326816209
 21
328.2233679748627
 31
0.0
  0
LINE
  5
335
330
18
100
AcDbEntity
  8
握り
100
AcDbLine
 10
520.398932513905
 20
335.7700679748627
 30
0.0
 11
527.7456326816206
 21
335.7700679748627
 31
0.0
  0
LINE
  5
336
330
18
100
AcDbEntity
  8
握り
100
AcDbLine
 10
560.398932513905
 20
314.9167679748627
 30
0.0
 11
560.398932513905
 21
307.3700679748627
 31
0.0
  0
LINE
  5
337
330
18
100
AcDbEntity
  8
握り
100
AcDbLine
 10
557.7456326816208
 20
314.9167679748627
 30
0.0
 11
557.7456326816206
 21
307.3700679748627
 31
0.0
  0
LINE
  5
338
330
18
100
AcDbEntity
  8
握り
100
AcDbLine
 10
550.398932513905
 20
314.9167679748627
 30
0.0
 11
550.398932513905
 21
307.3700679748627
 31
0.0
  0
LINE
  5
339
330
18
100
AcDbEntity
  8
握り
100
AcDbLine
 10
547.7456326816207
 20
314.9167679748627
 30
0.0
 11
547.7456326816207
 21
307.3700679748627
 31
0.0
  0
LINE
  5
33A
330
18
100
AcDbEntity
  8
握り
100
AcDbLine
 10
540.3989325139049
 20
314.9167679748627
 30
0.0
 11
540.398932513905
 21
307.3700679748627
 31
0.0
  0
LINE
  5
33B
330
18
100
AcDbEntity
  8
握り
100
AcDbLine
 10
537.7456326816205
 20
314.9167679748627
 30
0.0
 11
537.7456326816207
 21
307.3700679748627
 31
0.0
  0
LINE
  5
33C
330
18
100
AcDbEntity
  8
握り
100
AcDbLine
 10
567.7456326816205
 20
314.9167679748627
 30
0.0
 11
567.7456326816207
 21
307.3700679748627
 31
0.0
  0
LINE
  5
33D
330
18
100
AcDbEntity
  8
握り
100
AcDbLine
 10
590.398932513905
 20
335.7700679748627
 30
0.0
 11
590.398932513905
 21
307.3700679748627
 31
0.0
  0
LINE
  5
33E
330
18
100
AcDbEntity
  8
握り
100
AcDbLine
 10
587.7456326816207
 20
335.7700679748627
 30
0.0
 11
587.7456326816207
 21
307.3700679748627
 31
0.0
  0
LINE
  5
33F
330
18
100
AcDbEntity
  8
握り
100
AcDbLine
 10
580.398932513905
 20
335.7700679748627
 30
0.0
 11
580.398932513905
 21
307.3700679748627
 31
0.0
  0
LINE
  5
340
330
18
100
AcDbEntity
  8
握り
100
AcDbLine
 10
577.7456326816206
 20
335.7700679748627
 30
0.0
 11
577.7456326816206
 21
307.3700679748627
 31
0.0
  0
LINE
  5
341
330
18
100
AcDbEntity
  8
握り
100
AcDbLine
 10
570.398932513905
 20
335.7700679748627
 30
0.0
 11
570.398932513905
 21
307.3700679748627
 31
0.0
  0
LINE
  5
342
330
18
100
AcDbEntity
  8
握り
100
AcDbLine
 10
594.0722825977628
 20
335.2700679748627
 30
0.0
 11
594.0722825977628
 21
307.8700679748627
 31
0.0
  0
LINE
  5
343
330
18
100
AcDbEntity
  8
握り
100
AcDbLine
 10
560.3989325139052
 20
307.3700679748627
 30
0.0
 11
567.7456326816205
 21
307.3700679748627
 31
0.0
  0
ARC
  5
344
330
18
100
AcDbEntity
  8
握り
100
AcDbCircle
 10
549.0722825977628
 20
308.0700679748627
 30
0.0
 40
1.5
100
AcDbArc
 50
207.8181392846543
 51
332.1818607153458
  0
ARC
  5
345
330
18
100
AcDbEntity
  8
握り
100
AcDbCircle
 10
539.0722825977628
 20
308.0700679748627
 30
0.0
 40
1.5
100
AcDbArc
 50
207.8181392846543
 51
332.1818607153458
  0
LINE
  5
346
330
18
100
AcDbEntity
  8
握り
100
AcDbLine
 10
540.3989325139051
 20
307.3700679748627
 30
0.0
 11
547.7456326816207
 21
307.3700679748627
 31
0.0
  0
LINE
  5
347
330
18
100
AcDbEntity
  8
握り
100
AcDbLine
 10
550.398932513905
 20
307.3700679748627
 30
0.0
 11
557.7456326816206
 21
307.3700679748627
 31
0.0
  0
ARC
  5
348
330
18
100
AcDbEntity
  8
握り
100
AcDbCircle
 10
559.0722825977628
 20
308.0700679748627
 30
0.0
 40
1.5
100
AcDbArc
 50
207.8181392846543
 51
332.1818607153458
  0
LINE
  5
349
330
18
100
AcDbEntity
  8
握り
100
AcDbLine
 10
580.3989325139051
 20
307.3700679748627
 30
0.0
 11
587.7456326816207
 21
307.3700679748626
 31
0.0
  0
LINE
  5
34A
330
18
100
AcDbEntity
  8
握り
100
AcDbLine
 10
570.3989325139048
 20
307.3700679748627
 30
0.0
 11
577.7456326816207
 21
307.3700679748627
 31
0.0
  0
ARC
  5
34B
330
18
100
AcDbEntity
  8
握り
100
AcDbCircle
 10
569.0722825977628
 20
308.0700679748627
 30
0.0
 40
1.5
100
AcDbArc
 50
207.8181392846543
 51
332.1818607153458
  0
ARC
  5
34C
330
18
100
AcDbEntity
  8
握り
100
AcDbCircle
 10
579.0722825977629
 20
308.0700679748627
 30
0.0
 40
1.5
100
AcDbArc
 50
207.8181392846543
 51
332.1818607153458
  0
LINE
  5
34D
330
18
100
AcDbEntity
  8
握り
100
AcDbLine
 10
590.398932513905
 20
307.3700679748626
 30
0.0
 11
593.5722825977628
 21
307.3700679748627
 31
0.0
  0
ARC
  5
34E
330
18
100
AcDbEntity
  8
握り
100
AcDbCircle
 10
589.0722825977628
 20
308.0700679748627
 30
0.0
 40
1.5
100
AcDbArc
 50
207.8181392846543
 51
332.1818607153458
  0
ARC
  5
34F
330
18
100
AcDbEntity
  8
握り
100
AcDbCircle
 10
593.5722825977628
 20
307.8700679748627
 30
0.0
 40
0.5
100
AcDbArc
 50
270.0
 51
0.0
  0
LINE
  5
350
330
18
100
AcDbEntity
  8
握り
100
AcDbLine
 10
560.398932513905
 20
314.9167679748627
 30
0.0
 11
567.7456326816205
 21
314.9167679748627
 31
0.0
  0
LINE
  5
351
330
18
100
AcDbEntity
  8
握り
100
AcDbLine
 10
560.3989325139052
 20
328.2233679748627
 30
0.0
 11
567.7456326816205
 21
328.2233679748627
 31
0.0
  0
LINE
  5
352
330
18
100
AcDbEntity
  8
握り
100
AcDbLine
 10
560.3989325139052
 20
335.7700679748627
 30
0.0
 11
567.7456326816205
 21
335.7700679748627
 31
0.0
  0
LINE
  5
353
330
18
100
AcDbEntity
  8
握り
100
AcDbLine
 10
540.3989325139048
 20
314.9167679748627
 30
0.0
 11
547.7456326816207
 21
314.9167679748627
 31
0.0
  0
LINE
  5
354
330
18
100
AcDbEntity
  8
握り
100
AcDbLine
 10
550.398932513905
 20
314.9167679748627
 30
0.0
 11
557.7456326816206
 21
314.9167679748627
 31
0.0
  0
LINE
  5
355
330
18
100
AcDbEntity
  8
握り
100
AcDbLine
 10
547.7456326816207
 20
335.7700679748627
 30
0.0
 11
547.7456326816207
 21
328.2233679748627
 31
0.0
  0
LINE
  5
356
330
18
100
AcDbEntity
  8
握り
100
AcDbLine
 10
540.398932513905
 20
335.7700679748627
 30
0.0
 11
540.3989325139051
 21
328.2233679748627
 31
0.0
  0
LINE
  5
357
330
18
100
AcDbEntity
  8
握り
100
AcDbLine
 10
537.7456326816207
 20
335.7700679748627
 30
0.0
 11
537.7456326816208
 21
328.2233679748627
 31
0.0
  0
LINE
  5
358
330
18
100
AcDbEntity
  8
握り
100
AcDbLine
 10
540.398932513905
 20
328.2233679748627
 30
0.0
 11
547.7456326816207
 21
328.2233679748627
 31
0.0
  0
LINE
  5
359
330
18
100
AcDbEntity
  8
握り
100
AcDbLine
 10
540.3989325139051
 20
335.7700679748627
 30
0.0
 11
547.7456326816207
 21
335.7700679748627
 31
0.0
  0
LINE
  5
35A
330
18
100
AcDbEntity
  8
握り
100
AcDbLine
 10
560.398932513905
 20
335.7700679748627
 30
0.0
 11
560.3989325139052
 21
328.2233679748627
 31
0.0
  0
LINE
  5
35B
330
18
100
AcDbEntity
  8
握り
100
AcDbLine
 10
557.7456326816206
 20
335.7700679748627
 30
0.0
 11
557.7456326816208
 21
328.2233679748627
 31
0.0
  0
LINE
  5
35C
330
18
100
AcDbEntity
  8
握り
100
AcDbLine
 10
550.398932513905
 20
335.7700679748627
 30
0.0
 11
550.3989325139051
 21
328.2233679748627
 31
0.0
  0
LINE
  5
35D
330
18
100
AcDbEntity
  8
握り
100
AcDbLine
 10
550.3989325139051
 20
328.2233679748627
 30
0.0
 11
557.7456326816206
 21
328.2233679748627
 31
0.0
  0
LINE
  5
35E
330
18
100
AcDbEntity
  8
握り
100
AcDbLine
 10
550.398932513905
 20
335.7700679748627
 30
0.0
 11
557.7456326816206
 21
335.7700679748627
 31
0.0
  0
LINE
  5
35F
330
18
100
AcDbEntity
  8
握り
100
AcDbLine
 10
567.7456326816208
 20
325.5700679748628
 30
0.0
 11
567.7456326816205
 21
317.5700679748627
 31
0.0
  0
LINE
  5
360
330
18
100
AcDbEntity
  8
握り
100
AcDbLine
 10
580.3989325139051
 20
335.7700679748627
 30
0.0
 11
587.7456326816207
 21
335.7700679748627
 31
0.0
  0
LINE
  5
361
330
18
100
AcDbEntity
  8
握り
100
AcDbLine
 10
567.7456326816207
 20
335.7700679748627
 30
0.0
 11
567.7456326816207
 21
328.2233679748628
 31
0.0
  0
LINE
  5
362
330
18
100
AcDbEntity
  8
握り
100
AcDbLine
 10
570.3989325139048
 20
335.7700679748627
 30
0.0
 11
577.7456326816207
 21
335.7700679748627
 31
0.0
  0
LINE
  5
363
330
18
100
AcDbEntity
  8
握り
100
AcDbLine
 10
590.398932513905
 20
335.7700679748627
 30
0.0
 11
593.5722825977628
 21
335.7700679748627
 31
0.0
  0
TEXT
  5
401
330
18
100
AcDbEntity
  8
文字
100
AcDbText
 10
550.847618929554
 20
319.3844623312313
 30
0.0
 40
3.0
  1
LA-7
  7
STYLE3
100
AcDbText
  0
LINE
  5
402
102
{ACAD_REACTORS
330
440
102
}
330
18
100
AcDbEntity
  8
ROGO
 62
     4
100
AcDbLine
 10
525.0000792372062
 20
322.3871611111564
 30
0.0
 11
527.3036482557564
 21
322.3871611111564
 31
0.0
  0
LINE
  5
403
102
{ACAD_REACTORS
330
43E
330
43F
330
440
102
}
330
18
100
AcDbEntity
  8
ROGO
 62
     4
100
AcDbLine
 10
523.5497213227882
 20
319.4559057041478
 30
0.0
 11
543.3914031328221
 21
319.4559057041478
 31
0.0
  0
LINE
  5
404
102
{ACAD_REACTORS
330
440
102
}
330
18
100
AcDbEntity
  8
ROGO
 62
     4
100
AcDbLine
 10
525.0000792372062
 20
322.3871611111564
 30
0.0
 11
523.5497213227882
 21
319.4559057041478
 31
0.0
  0
SPLINE
  5
405
102
{ACAD_REACTORS
330
440
102
}
330
18
100
AcDbEntity
  8
ROGO
 62
     4
100
AcDbSpline
210
0.0
220
0.0
230
1.0
 70
     8
 71
     3
 72
    18
 73
    14
 74
     0
 42
0.0000000001
 43
0.0000000001
 40
0.1087402787915014
 40
0.1087402787915014
 40
0.1087402787915014
 40
0.1087402787915014
 40
0.5992371417938475
 40
1.083176791562496
 40
1.448211145705696
 40
1.714037220764907
 40
2.164002567013297
 40
2.740236056362883
 40
3.395137510199602
 40
4.071816045172726
 40
4.784906178399433
 40
5.506895915094292
 40
6.060470601257719
 40
6.060470601257719
 40
6.060470601257719
 40
6.060470601257719
 10
527.3036482557564
 20
322.3871611111564
 30
0.0
 10
527.3774475952365
 20
322.3601148899454
 30
0.0
 10
527.522573235023
 20
322.3029350452093
 30
0.0
 10
527.6996950000904
 20
322.1724317455073
 30
0.0
 10
527.79628956284
 20
322.0217763495463
 30
0.0
 10
527.8892027179015
 20
321.8733324319708
 30
0.0
 10
527.9022057443456
 20
321.6603645260329
 30
0.0
 10
527.880905908564
 20
321.3911214752162
 30
0.0
 10
527.7433960930267
 20
321.1101941359009
 30
0.0
 10
527.522684751482
 20
320.8644840918982
 30
0.0
 10
527.2486562184919
 20
320.6678209771244
 30
0.0
 10
526.9596836783387
 20
320.5134454964167
 30
0.0
 10
526.753126025405
 20
320.5119073241188
 30
0.0
 10
526.663483286984
 20
320.5112397817885
 30
0.0
  0
LINE
  5
406
102
{ACAD_REACTORS
330
440
102
}
330
18
100
AcDbEntity
  8
ROGO
 62
     4
100
AcDbLine
 10
526.6634832874256
 20
320.5112397817885
 30
0.0
 11
525.3897571895952
 21
320.5112397817885
 31
0.0
  0
LINE
  5
407
102
{ACAD_REACTORS
330
440
102
}
330
18
100
AcDbEntity
  8
ROGO
 62
     4
100
AcDbLine
 10
525.9102747448346
 20
321.6617369522802
 30
0.0
 11
525.684563607181
 21
321.1628488310154
 31
0.0
  0
SPLINE
  5
408
102
{ACAD_REACTORS
330
440
102
}
330
18
100
AcDbEntity
  8
ROGO
 62
     4
100
AcDbSpline
210
0.0
220
0.0
230
1.0
 70
     8
 71
     3
 72
    15
 73
    11
 74
     9
 42
0.0000000001
 43
0.0000000001
 44
0.0000000001
 40
0.0
 40
0.0
 40
0.0
 40
0.0
 40
0.2199578613106558
 40
0.3202465475123651
 40
0.4340808827708152
 40
0.5116301246390283
 40
0.634275054953107
 40
0.7077360179240892
 40
0.8337709579493377
 40
0.875782631437913
 40
0.875782631437913
 40
0.875782631437913
 40
0.875782631437913
 10
526.4902561721166
 20
321.6617369522801
 30
0.0
 10
526.572868079344
 20
321.6621153589122
 30
0.0
 10
526.6931464722841
 20
321.6626662981547
 30
0.0
 10
526.7589189813763
 20
321.5138815782554
 30
0.0
 10
526.7294366067573
 20
321.4180874287734
 30
0.0
 10
526.6923748590084
 20
321.3197366941336
 30
0.0
 10
526.6268783568052
 20
321.2529058866059
 30
0.0
 10
526.5389724573834
 20
321.1885365528388
 30
0.0
 10
526.4558971815895
 20
321.180744356754
 30
0.0
 10
526.4018660402002
 20
321.1664279375336
 30
0.0
 10
526.3883582483869
 20
321.1628488310152
 30
0.0
 11
526.4902561721166
 21
321.6617369522801
 31
0.0
 11
526.7042419877292
 21
321.6108298656517
 31
0.0
 11
526.7450012744077
 21
321.519197441644
 31
0.0
 11
526.7246219240352
 21
321.4072021829849
 31
0.0
 11
526.6940526055097
 21
321.3359322617051
 31
0.0
 11
526.6125340321524
 21
321.2442998376973
 31
0.0
 11
526.5513953951012
 21
321.2035741683946
 31
0.0
 11
526.4291175350655
 21
321.173030248341
 31
0.0
 11
526.3883582483869
 21
321.1628488310152
 31
0.0
  0
LINE
  5
409
102
{ACAD_REACTORS
330
440
102
}
330
18
100
AcDbEntity
  8
ROGO
 62
     4
100
AcDbLine
 10
526.4902561721166
 20
321.6617369522802
 30
0.0
 11
525.9102747448346
 21
321.6617369522802
 31
0.0
  0
LINE
  5
40A
102
{ACAD_REACTORS
330
440
102
}
330
18
100
AcDbEntity
  8
ROGO
 62
     4
100
AcDbLine
 10
526.3883582483869
 20
321.1628488310152
 30
0.0
 11
525.6845636071812
 21
321.1628488310154
 31
0.0
  0
LINE
  5
40B
102
{ACAD_REACTORS
330
43E
330
440
102
}
330
18
100
AcDbEntity
  8
ROGO
 62
     4
100
AcDbLine
 10
525.3897571895952
 20
320.5112397817885
 30
0.0
 11
524.9122941169831
 21
319.4559057041478
 31
0.0
  0
LINE
  5
40C
102
{ACAD_REACTORS
330
43B
102
}
330
18
100
AcDbEntity
  8
ROGO
 62
     4
100
AcDbLine
 10
528.6645396746215
 20
322.3871611111564
 30
0.0
 11
527.7363512471072
 21
320.5112397817885
 31
0.0
  0
LINE
  5
40D
102
{ACAD_REACTORS
330
43B
102
}
330
18
100
AcDbEntity
  8
ROGO
 62
     4
100
AcDbLine
 10
531.201801315313
 20
322.3871611111564
 30
0.0
 11
530.9891810356921
 21
321.9574434958819
 31
0.0
  0
LINE
  5
40E
102
{ACAD_REACTORS
330
43B
102
}
330
18
100
AcDbEntity
  8
ROGO
 62
     4
100
AcDbLine
 10
527.7363512471071
 20
320.5112397817885
 30
0.0
 11
530.2736128877985
 21
320.5112397817885
 31
0.0
  0
LINE
  5
40F
102
{ACAD_REACTORS
330
43B
102
}
330
18
100
AcDbEntity
  8
ROGO
 62
     4
100
AcDbLine
 10
529.6556604325236
 20
321.9574434958819
 30
0.0
 11
529.4894177952714
 21
321.6214577199046
 31
0.0
  0
LINE
  5
410
102
{ACAD_REACTORS
330
43B
102
}
330
18
100
AcDbEntity
  8
ROGO
 62
     4
100
AcDbLine
 10
529.6556604325236
 20
321.9574434958819
 30
0.0
 11
530.9891810356921
 21
321.9574434958819
 31
0.0
  0
LINE
  5
411
102
{ACAD_REACTORS
330
43B
102
}
330
18
100
AcDbEntity
  8
ROGO
 62
     4
100
AcDbLine
 10
529.4894177952714
 20
321.6214577199046
 30
0.0
 11
530.8229383984399
 21
321.6214577199046
 31
0.0
  0
LINE
  5
412
102
{ACAD_REACTORS
330
43B
102
}
330
18
100
AcDbEntity
  8
ROGO
 62
     4
100
AcDbLine
 10
529.1527018692139
 20
320.9409357817885
 30
0.0
 11
530.4862224723826
 21
320.9409357817885
 31
0.0
  0
LINE
  5
413
102
{ACAD_REACTORS
330
43B
102
}
330
18
100
AcDbEntity
  8
ROGO
 62
     4
100
AcDbLine
 10
529.3189515443803
 20
321.2769357817886
 30
0.0
 11
530.6524721475487
 21
321.2769357817886
 31
0.0
  0
LINE
  5
414
102
{ACAD_REACTORS
330
43B
102
}
330
18
100
AcDbEntity
  8
ROGO
 62
     4
100
AcDbLine
 10
530.8229383984399
 20
321.6214577199046
 30
0.0
 11
530.6524721475487
 21
321.2769357817886
 31
0.0
  0
LINE
  5
415
102
{ACAD_REACTORS
330
43B
102
}
330
18
100
AcDbEntity
  8
ROGO
 62
     4
100
AcDbLine
 10
530.4862224723826
 20
320.9409357817885
 30
0.0
 11
530.2736128877985
 21
320.5112397817885
 31
0.0
  0
LINE
  5
416
102
{ACAD_REACTORS
330
43B
102
}
330
18
100
AcDbEntity
  8
ROGO
 62
     4
100
AcDbLine
 10
529.3189515443803
 20
321.2769357817886
 30
0.0
 11
529.1527018692139
 21
320.9409357817885
 31
0.0
  0
LINE
  5
417
102
{ACAD_REACTORS
330
444
102
}
330
18
100
AcDbEntity
  8
ROGO
 62
     4
100
AcDbLine
 10
531.9367931227382
 20
322.3871611111564
 30
0.0
 11
530.5840297940251
 21
320.5112397817885
 31
0.0
  0
LINE
  5
418
102
{ACAD_REACTORS
330
444
102
}
330
18
100
AcDbEntity
  8
ROGO
 62
     4
100
AcDbLine
 10
532.614118632212
 20
321.885719715511
 30
0.0
 11
532.1521661517644
 21
321.245115041484
 31
0.0
  0
LINE
  5
419
102
{ACAD_REACTORS
330
444
102
}
330
18
100
AcDbEntity
  8
ROGO
 62
     4
100
AcDbLine
 10
531.8805122072715
 20
320.868403596204
 30
0.0
 11
533.0660507626777
 21
320.868403596204
 31
0.0
  0
LINE
  5
41A
102
{ACAD_REACTORS
330
444
102
}
330
18
100
AcDbEntity
  8
ROGO
 62
     4
100
AcDbLine
 10
532.1521661517646
 20
321.245115041484
 30
0.0
 11
532.8987006118198
 21
321.245115041484
 31
0.0
  0
LINE
  5
41B
102
{ACAD_REACTORS
330
444
102
}
330
18
100
AcDbEntity
  8
ROGO
 62
     4
100
AcDbLine
 10
531.8805122072715
 20
320.868403596204
 30
0.0
 11
531.6229544392988
 21
320.5112397817886
 31
0.0
  0
LINE
  5
41C
102
{ACAD_REACTORS
330
444
102
}
330
18
100
AcDbEntity
  8
ROGO
 62
     4
100
AcDbLine
 10
530.5840297940251
 20
320.5112397817885
 30
0.0
 11
531.6229544392988
 21
320.5112397817885
 31
0.0
  0
LINE
  5
41D
102
{ACAD_REACTORS
330
444
102
}
330
18
100
AcDbEntity
  8
ROGO
 62
     4
100
AcDbLine
 10
531.9367931227382
 20
322.3871611111564
 30
0.0
 11
533.4373695266974
 21
322.3871611111564
 31
0.0
  0
LINE
  5
41E
102
{ACAD_REACTORS
330
444
102
}
330
18
100
AcDbEntity
  8
ROGO
 62
     4
100
AcDbLine
 10
534.2707281129593
 20
320.5112397817886
 30
0.0
 11
533.2247170813476
 21
320.5112397817885
 31
0.0
  0
LINE
  5
41F
102
{ACAD_REACTORS
330
43C
102
}
330
18
100
AcDbEntity
  8
ROGO
 62
     4
100
AcDbLine
 10
534.784470134396
 20
320.5112397817885
 30
0.0
 11
536.4002258701169
 21
320.5112397817885
 31
0.0
  0
LINE
  5
420
102
{ACAD_REACTORS
330
43C
102
}
330
18
100
AcDbEntity
  8
ROGO
 62
     4
100
AcDbLine
 10
537.3356208315587
 20
322.3871611111564
 30
0.0
 11
536.9875932593578
 21
321.6891967508466
 31
0.0
  0
LINE
  5
421
102
{ACAD_REACTORS
330
43C
102
}
330
18
100
AcDbEntity
  8
ROGO
 62
     4
100
AcDbLine
 10
535.8136405117132
 20
321.6891967508466
 30
0.0
 11
536.9875932593578
 21
321.6891967508467
 31
0.0
  0
LINE
  5
422
102
{ACAD_REACTORS
330
43C
102
}
330
18
100
AcDbEntity
  8
ROGO
 62
     4
100
AcDbLine
 10
535.5487054412694
 20
321.2091967508466
 30
0.0
 11
536.7482497568011
 21
321.2091967508466
 31
0.0
  0
SPLINE
  5
423
102
{ACAD_REACTORS
330
43C
102
}
330
18
100
AcDbEntity
  8
ROGO
 62
     4
100
AcDbSpline
210
0.0
220
0.0
230
1.0
 70
     8
 71
     3
 72
    26
 73
    22
 74
    20
 42
0.0000000001
 43
0.0000000001
 44
0.0000000001
 40
0.0
 40
0.0
 40
0.0
 40
0.0
 40
0.3403136209417982
 40
0.5681272389515159
 40
0.7323994099697078
 40
0.8550561247337057
 40
1.014148321321447
 40
1.13027011535643
 40
1.339959009791999
 40
1.510642755247373
 40
1.626735051276186
 40
1.740569491433665
 40
1.944197174100541
 40
2.088186249714737
 40
2.16573549158295
 40
2.275891898886404
 40
2.355438312276705
 40
2.470674802865115
 40
2.535888688806235
 40
2.677801419664453
 40
2.742600005358966
 40
2.742600005358966
 40
2.742600005358966
 40
2.742600005358966
 10
535.4569974856927
 20
322.3871611111564
 30
0.0
 10
535.3414897846089
 20
322.3802697236349
 30
0.0
 10
535.1486586216577
 20
322.3687650857824
 30
0.0
 10
534.9369311777834
 20
322.2401429374133
 30
0.0
 10
534.7818072571975
 20
322.1653676726384
 30
0.0
 10
534.6711730651628
 20
322.0637170706104
 30
0.0
 10
534.5900777539236
 20
321.9587194241514
 30
0.0
 10
534.4878418900699
 20
321.8336154982578
 30
0.0
 10
534.40447146449
 20
321.6879370390229
 30
0.0
 10
534.3620159751572
 20
321.5273739803608
 30
0.0
 10
534.3244093056516
 20
321.3994042909911
 30
0.0
 10
534.2965195699762
 20
321.2567987725734
 30
0.0
 10
534.3036155082802
 20
321.1027346466843
 30
0.0
 10
534.3137772166865
 20
320.9596477738216
 30
0.0
 10
534.359146773721
 20
320.8575051696409
 30
0.0
 10
534.4108146628493
 20
320.7847866740274
 30
0.0
 10
534.4740812854992
 20
320.7046953130293
 30
0.0
 10
534.5433088059529
 20
320.651651063986
 30
0.0
 10
534.6005656161107
 20
320.5555578423566
 30
0.0
 10
534.7007917307713
 20
320.5432956542477
 30
0.0
 10
534.7644994365942
 20
320.5188902401379
 30
0.0
 10
534.7844701343961
 20
320.5112397817885
 30
0.0
 11
535.4569974856927
 21
322.3871611111564
 31
0.0
 11
535.1207338100443
 21
322.3348151367368
 31
0.0
 11
534.9169373766515
 21
322.2330012954034
 31
0.0
 11
534.774280166243
 21
322.1515502887213
 31
0.0
 11
534.6825722106663
 21
322.0700989501158
 31
0.0
 11
534.5806742869366
 21
321.947922274131
 31
0.0
 11
534.5093456817324
 21
321.8562898501233
 31
0.0
 11
534.4074471720692
 21
321.6730246701844
 31
0.0
 11
534.3564985031711
 21
321.5101223248969
 31
0.0
 11
534.3259291846456
 21
321.3981270662377
 31
0.0
 11
534.3055492483395
 21
321.2861318075786
 31
0.0
 11
534.3055492483395
 21
321.0825041249117
 31
0.0
 11
534.3259291846456
 21
320.9399646142756
 31
0.0
 11
534.3564985031711
 21
320.8686946929959
 31
0.0
 11
534.4176371402221
 21
320.7770622689881
 31
0.0
 11
534.4685863950538
 21
320.7159737650339
 31
0.0
 11
534.5501043824775
 21
320.6345227583519
 31
0.0
 11
534.5908636691562
 21
320.5836156717235
 31
0.0
 11
534.7233314973449
 21
320.5327089170185
 31
0.0
 11
534.7844701343961
 21
320.5112397817885
 31
0.0
  0
SPLINE
  5
424
102
{ACAD_REACTORS
330
43C
102
}
330
18
100
AcDbEntity
  8
ROGO
 62
     4
100
AcDbSpline
210
0.0
220
0.0
230
1.0
 70
     8
 71
     3
 72
    16
 73
    12
 74
    10
 42
0.0000000001
 43
0.0000000001
 44
0.0000000001
 40
0.0
 40
0.0
 40
0.0
 40
0.0
 40
0.1794152893756658
 40
0.2670467197814556
 40
0.3102605435414121
 40
0.3558008766977565
 40
0.4210145035340276
 40
0.4803947587045229
 40
0.5423269814405317
 40
0.646160827944346
 40
0.7489346372632694
 40
0.7489346372632694
 40
0.7489346372632694
 40
0.7489346372632694
 10
535.8136405117134
 20
321.6891967508466
 30
0.0
 10
535.7528823579684
 20
321.6799337604123
 30
0.0
 10
535.6624482276664
 20
321.6661464671471
 30
0.0
 10
535.5806685828222
 20
321.6014106000392
 30
0.0
 10
535.5345505412162
 20
321.5628970681585
 30
0.0
 10
535.5188609779998
 20
321.5118942193267
 30
0.0
 10
535.4767237381988
 20
321.4727318607044
 30
0.0
 10
535.4419906669455
 20
321.4189101739671
 30
0.0
 10
535.4336971968574
 20
321.344985215454
 30
0.0
 10
535.4397847937825
 20
321.2412428024007
 30
0.0
 10
535.5125229574526
 20
321.2198421681159
 30
0.0
 10
535.5487054412694
 20
321.2091967508466
 30
0.0
 11
535.8136405117134
 21
321.6891967508466
 31
0.0
 11
535.6404139827795
 21
321.6424804182074
 31
0.0
 11
535.5690853775753
 21
321.5915736635023
 31
0.0
 11
535.5385160590498
 21
321.5610294115252
 31
0.0
 11
535.5181361227438
 21
321.5203037422225
 31
0.0
 11
535.4773768360652
 21
321.4693969875175
 31
0.0
 11
535.4468075175396
 21
321.4184899008892
 31
0.0
 11
535.4366175493866
 21
321.3574017288583
 31
0.0
 11
535.4569974856925
 21
321.2555875556017
 31
0.0
 11
535.5487054412694
 21
321.2091967508466
 31
0.0
  0
LINE
  5
425
102
{ACAD_REACTORS
330
43C
102
}
330
18
100
AcDbEntity
  8
ROGO
 62
     4
100
AcDbLine
 10
536.7482497568009
 20
321.2091967508466
 30
0.0
 11
536.4002258701169
 21
320.5112397817885
 31
0.0
  0
LINE
  5
426
102
{ACAD_REACTORS
330
43C
102
}
330
18
100
AcDbEntity
  8
ROGO
 62
     4
100
AcDbLine
 10
535.4569974856932
 20
322.3871611111564
 30
0.0
 11
537.3356208315588
 21
322.3871611111564
 31
0.0
  0
LINE
  5
427
102
{ACAD_REACTORS
330
43D
102
}
330
18
100
AcDbEntity
  8
ROGO
 62
     4
100
AcDbLine
 10
540.8288555214359
 20
320.5112397817885
 30
0.0
 11
542.4446112571567
 21
320.5112397817885
 31
0.0
  0
LINE
  5
428
102
{ACAD_REACTORS
330
43D
102
}
330
18
100
AcDbEntity
  8
ROGO
 62
     4
100
AcDbLine
 10
541.5013828727329
 20
322.3871611111564
 30
0.0
 11
543.3800062185986
 21
322.3871611111564
 31
0.0
  0
SPLINE
  5
429
102
{ACAD_REACTORS
330
43D
102
}
330
18
100
AcDbEntity
  8
ROGO
 62
     4
100
AcDbSpline
210
0.0
220
0.0
230
1.0
 70
     8
 71
     3
 72
    16
 73
    12
 74
    10
 42
0.0000000001
 43
0.0000000001
 44
0.0000000001
 40
0.0
 40
0.0
 40
0.0
 40
0.0
 40
0.1794152893756658
 40
0.2670467197815217
 40
0.3102605435413978
 40
0.3558008766977931
 40
0.4210145035340376
 40
0.4803947587045328
 40
0.5423269814405045
 40
0.6461608279444525
 40
0.7489346372632488
 40
0.7489346372632488
 40
0.7489346372632488
 40
0.7489346372632488
 10
541.8580258987532
 20
321.6891967508466
 30
0.0
 10
541.7972677450084
 20
321.6799337604123
 30
0.0
 10
541.7068336147062
 20
321.6661464671473
 30
0.0
 10
541.6250539698621
 20
321.601410600039
 30
0.0
 10
541.5789359282558
 20
321.5628970681584
 30
0.0
 10
541.5632463650397
 20
321.5118942193268
 30
0.0
 10
541.5211091252386
 20
321.4727318607042
 30
0.0
 10
541.4863760539855
 20
321.418910173967
 30
0.0
 10
541.4780825838971
 20
321.344985215454
 30
0.0
 10
541.4841701808224
 20
321.2412428024007
 30
0.0
 10
541.5569083444924
 20
321.2198421681159
 30
0.0
 10
541.5930908283091
 20
321.2091967508465
 30
0.0
 11
541.8580258987532
 21
321.6891967508466
 31
0.0
 11
541.6847993698192
 21
321.6424804182074
 31
0.0
 11
541.6134707646151
 21
321.5915736635022
 31
0.0
 11
541.5829014460896
 21
321.5610294115252
 31
0.0
 11
541.5625215097835
 21
321.5203037422225
 31
0.0
 11
541.521762223105
 21
321.4693969875175
 31
0.0
 11
541.4911929045794
 21
321.4184899008891
 31
0.0
 11
541.4810029364263
 21
321.3574017288583
 31
0.0
 11
541.5013828727324
 21
321.2555875556016
 31
0.0
 11
541.5930908283091
 21
321.2091967508465
 31
0.0
  0
SPLINE
  5
42A
102
{ACAD_REACTORS
330
43D
102
}
330
18
100
AcDbEntity
  8
ROGO
 62
     4
100
AcDbSpline
210
0.0
220
0.0
230
1.0
 70
     8
 71
     3
 72
    26
 73
    22
 74
    20
 42
0.0000000001
 43
0.0000000001
 44
0.0000000001
 40
0.0
 40
0.0
 40
0.0
 40
0.0
 40
0.3403136209416859
 40
0.5681272389515052
 40
0.7323994099695983
 40
0.8550561247335963
 40
1.014148321321381
 40
1.13027011535639
 40
1.339959009792003
 40
1.510642755247356
 40
1.626735051276114
 40
1.740569491433573
 40
1.94419717410045
 40
2.088186249714629
 40
2.165735491582895
 40
2.275891898886364
 40
2.355438312276665
 40
2.470674802864995
 40
2.535888688806186
 40
2.677801419664424
 40
2.74260000535881
 40
2.74260000535881
 40
2.74260000535881
 40
2.74260000535881
 10
541.5013828727324
 20
322.3871611111564
 30
0.0
 10
541.3858751716486
 20
322.3802697236348
 30
0.0
 10
541.1930440086971
 20
322.3687650857824
 30
0.0
 10
540.9813165648233
 20
322.2401429374133
 30
0.0
 10
540.8261926442373
 20
322.1653676726384
 30
0.0
 10
540.7155584522028
 20
322.0637170706104
 30
0.0
 10
540.6344631409633
 20
321.9587194241512
 30
0.0
 10
540.5322272771098
 20
321.833615498258
 30
0.0
 10
540.4488568515298
 20
321.6879370390227
 30
0.0
 10
540.4064013621969
 20
321.5273739803609
 30
0.0
 10
540.3687946926914
 20
321.3994042909911
 30
0.0
 10
540.3409049570159
 20
321.2567987725732
 30
0.0
 10
540.34800089532
 20
321.1027346466843
 30
0.0
 10
540.3581626037264
 20
320.9596477738217
 30
0.0
 10
540.4035321607606
 20
320.8575051696408
 30
0.0
 10
540.4552000498893
 20
320.7847866740275
 30
0.0
 10
540.518466672539
 20
320.7046953130293
 30
0.0
 10
540.5876941929927
 20
320.651651063986
 30
0.0
 10
540.6449510031505
 20
320.5555578423566
 30
0.0
 10
540.7451771178113
 20
320.5432956542477
 30
0.0
 10
540.8088848236339
 20
320.5188902401378
 30
0.0
 10
540.8288555214359
 20
320.5112397817885
 30
0.0
 11
541.5013828727324
 21
322.3871611111564
 31
0.0
 11
541.165119197084
 21
322.3348151367368
 31
0.0
 11
540.9613227636912
 21
322.2330012954034
 31
0.0
 11
540.8186655532829
 21
322.1515502887213
 31
0.0
 11
540.7269575977061
 21
322.0700989501158
 31
0.0
 11
540.6250596739765
 21
321.947922274131
 31
0.0
 11
540.5537310687722
 21
321.8562898501233
 31
0.0
 11
540.4518325591091
 21
321.6730246701843
 31
0.0
 11
540.4008838902107
 21
321.5101223248968
 31
0.0
 11
540.3703145716852
 21
321.3981270662377
 31
0.0
 11
540.3499346353793
 21
321.2861318075786
 31
0.0
 11
540.3499346353793
 21
321.0825041249117
 31
0.0
 11
540.3703145716852
 21
320.9399646142756
 31
0.0
 11
540.4008838902107
 21
320.8686946929958
 31
0.0
 11
540.4620225272619
 21
320.7770622689881
 31
0.0
 11
540.5129717820937
 21
320.7159737650339
 31
0.0
 11
540.5944897695173
 21
320.6345227583519
 31
0.0
 11
540.6352490561959
 21
320.5836156717235
 31
0.0
 11
540.7677168843847
 21
320.5327089170184
 31
0.0
 11
540.8288555214359
 21
320.5112397817885
 31
0.0
  0
LINE
  5
42B
102
{ACAD_REACTORS
330
43D
102
}
330
18
100
AcDbEntity
  8
ROGO
 62
     4
100
AcDbLine
 10
542.7926351438408
 20
321.2091967508466
 30
0.0
 11
542.4446112571567
 21
320.5112397817885
 31
0.0
  0
LINE
  5
42C
102
{ACAD_REACTORS
330
43D
102
}
330
18
100
AcDbEntity
  8
ROGO
 62
     4
100
AcDbLine
 10
541.593090828309
 20
321.2091967508466
 30
0.0
 11
542.7926351438408
 21
321.2091967508466
 31
0.0
  0
LINE
  5
42D
102
{ACAD_REACTORS
330
43D
102
}
330
18
100
AcDbEntity
  8
ROGO
 62
     4
100
AcDbLine
 10
541.8580258987531
 20
321.6891967508466
 30
0.0
 11
543.0319786463976
 21
321.6891967508466
 31
0.0
  0
LINE
  5
42E
102
{ACAD_REACTORS
330
43D
102
}
330
18
100
AcDbEntity
  8
ROGO
 62
     4
100
AcDbLine
 10
543.3800062185986
 20
322.3871611111564
 30
0.0
 11
543.0319786463976
 21
321.6891967508466
 31
0.0
  0
LINE
  5
42F
102
{ACAD_REACTORS
330
43F
102
}
330
18
100
AcDbEntity
  8
ROGO
 62
     4
100
AcDbLine
 10
543.7729021173445
 20
322.3871611111564
 30
0.0
 11
544.8530217494933
 21
322.3871611111564
 31
0.0
  0
LINE
  5
430
102
{ACAD_REACTORS
330
43E
330
43F
102
}
330
18
100
AcDbEntity
  8
ROGO
 62
     4
100
AcDbLine
 10
543.7729021173445
 20
322.3871611111564
 30
0.0
 11
542.3112835006732
 21
319.4559057041478
 31
0.0
  0
LINE
  5
431
102
{ACAD_REACTORS
330
43F
102
}
330
18
100
AcDbEntity
  8
ROGO
 62
     4
100
AcDbLine
 10
544.8530217494933
 20
322.3871611111564
 30
0.0
 11
544.6934427396062
 21
322.0671276699826
 31
0.0
  0
LINE
  5
432
102
{ACAD_REACTORS
330
43F
102
}
330
18
100
AcDbEntity
  8
ROGO
 62
     4
100
AcDbLine
 10
544.6934427396062
 20
322.0671276699826
 30
0.0
 11
545.1991757154331
 21
322.3871611111564
 31
0.0
  0
LINE
  5
433
102
{ACAD_REACTORS
330
43F
102
}
330
18
100
AcDbEntity
  8
ROGO
 62
     4
100
AcDbLine
 10
543.7729021173445
 20
320.2209965071757
 30
0.0
 11
544.1544011018669
 21
319.4559057041478
 31
0.0
  0
LINE
  5
434
102
{ACAD_REACTORS
330
43F
102
}
330
18
100
AcDbEntity
  8
ROGO
 62
     4
100
AcDbLine
 10
544.5036877935312
 20
320.9215334076521
 30
0.0
 11
545.2344971018668
 21
319.4559057041478
 31
0.0
  0
LINE
  5
435
102
{ACAD_REACTORS
330
43F
102
}
330
18
100
AcDbEntity
  8
ROGO
 62
     4
100
AcDbLine
 10
543.7729021173445
 20
320.2209965071757
 30
0.0
 11
543.3914031328221
 21
319.4559057041478
 31
0.0
  0
LINE
  5
436
102
{ACAD_REACTORS
330
43F
102
}
330
18
100
AcDbEntity
  8
ROGO
 62
     4
100
AcDbLine
 10
544.5036877935312
 20
320.9215334076521
 30
0.0
 11
546.279271715433
 21
322.3871611111564
 31
0.0
  0
LINE
  5
437
102
{ACAD_REACTORS
330
43F
102
}
330
18
100
AcDbEntity
  8
ROGO
 62
     4
100
AcDbLine
 10
545.1991757154331
 20
322.3871611111564
 30
0.0
 11
546.279271715433
 21
322.3871611111564
 31
0.0
  0
LINE
  5
438
102
{ACAD_REACTORS
330
43F
102
}
330
18
100
AcDbEntity
  8
ROGO
 62
     4
100
AcDbLine
 10
544.1544011018669
 20
319.4559057041478
 30
0.0
 11
545.2344971018668
 21
319.4559057041478
 31
0.0
  0
LINE
  5
439
102
{ACAD_REACTORS
330
43B
102
}
330
18
100
AcDbEntity
  8
ROGO
 62
     4
100
AcDbLine
 10
528.6645396746215
 20
322.3871611111564
 30
0.0
 11
531.201801315313
 21
322.3871611111564
 31
0.0
  0
LINE
  5
43A
102
{ACAD_REACTORS
330
43E
102
}
330
18
100
AcDbEntity
  8
ROGO
 62
     4
100
AcDbLine
 10
525.0248478148479
 20
319.7497202845639
 30
0.0
 11
542.4577889397962
 21
319.7497202845639
 31
0.0
  0
HATCH
  5
43B
330
18
100
AcDbEntity
  8
ROGO
 62
     4
100
AcDbHatch
 10
0.0
 20
0.0
 30
0.0
210
0.0
220
0.0
230
1.0
  2
SOLID
 70
     1
 71
     1
 91
        1
 92
        1
 93
       12
 72
     1
 10
528.6645396746215
 20
322.3871611111564
 11
531.201801315313
 21
322.3871611111564
 72
     1
 10
531.201801315313
 20
322.3871611111564
 11
530.9891810356921
 21
321.9574434958819
 72
     1
 10
530.9891810356921
 20
321.9574434958819
 11
529.6556604325236
 21
321.9574434958819
 72
     1
 10
529.6556604325236
 20
321.9574434958819
 11
529.4894177952714
 21
321.6214577199046
 72
     1
 10
529.4894177952714
 20
321.6214577199046
 11
530.8229383984399
 21
321.6214577199046
 72
     1
 10
530.8229383984399
 20
321.6214577199046
 11
530.6524721475487
 21
321.2769357817886
 72
     1
 10
530.6524721475487
 20
321.2769357817886
 11
529.3189515443803
 21
321.2769357817886
 72
     1
 10
529.3189515443803
 20
321.2769357817886
 11
529.1527018692139
 21
320.9409357817885
 72
     1
 10
529.1527018692139
 20
320.9409357817885
 11
530.4862224723826
 21
320.9409357817885
 72
     1
 10
530.4862224723826
 20
320.9409357817885
 11
530.2736128877985
 21
320.5112397817885
 72
     1
 10
530.2736128877985
 20
320.5112397817885
 11
527.7363512471071
 21
320.5112397817885
 72
     1
 10
527.7363512471072
 20
320.5112397817885
 11
528.6645396746215
 21
322.3871611111564
 97
       12
330
439
330
40D
330
410
330
40F
330
411
330
414
330
413
330
416
330
412
330
415
330
40E
330
40C
 75
     0
 76
     1
 98
        1
 10
424.8786411336087
 20
192.6755953281402
450
        0
451
        0
460
0.0
461
0.0
452
        0
462
0.0
453
        0
470

  0
HATCH
  5
43C
330
18
100
AcDbEntity
  8
ROGO
 62
     4
100
AcDbHatch
 10
0.0
 20
0.0
 30
0.0
210
0.0
220
0.0
230
1.0
  2
SOLID
 70
     1
 71
     1
 91
        1
 92
        5
 93
        8
 72
     1
 10
536.9875932593578
 20
321.6891967508467
 11
537.3356208315587
 21
322.3871611111564
 72
     1
 10
537.3356208315587
 20
322.3871611111564
 11
535.4569974856937
 21
322.3871611111564
 72
     4
 94
        3
 73
     0
 74
     0
 95
       26
 96
       22
 40
0.0
 40
0.0
 40
0.0
 40
0.0
 40
0.3403136209417982
 40
0.5681272389515159
 40
0.7323994099697078
 40
0.8550561247337057
 40
1.014148321321447
 40
1.13027011535643
 40
1.339959009791999
 40
1.510642755247373
 40
1.626735051276186
 40
1.740569491433665
 40
1.944197174100541
 40
2.088186249714737
 40
2.16573549158295
 40
2.275891898886404
 40
2.355438312276705
 40
2.470674802865115
 40
2.535888688806235
 40
2.677801419664453
 40
2.742600005358966
 40
2.742600005358966
 40
2.742600005358966
 40
2.742600005358966
 10
535.4569974856927
 20
322.3871611111564
 10
535.3414897846088
 20
322.3802697236349
 10
535.1486586216574
 20
322.3687650857824
 10
534.9369311777835
 20
322.2401429374132
 10
534.7818072571975
 20
322.1653676726384
 10
534.6711730651628
 20
322.0637170706104
 10
534.5900777539236
 20
321.9587194241514
 10
534.4878418900698
 20
321.8336154982578
 10
534.4044714644901
 20
321.6879370390229
 10
534.362015975157
 20
321.5273739803609
 10
534.3244093056519
 20
321.3994042909911
 10
534.296519569976
 20
321.2567987725733
 10
534.3036155082801
 20
321.1027346466842
 10
534.3137772166865
 20
320.9596477738216
 10
534.359146773721
 20
320.8575051696408
 10
534.4108146628493
 20
320.7847866740274
 10
534.4740812854992
 20
320.7046953130293
 10
534.5433088059528
 20
320.651651063986
 10
534.6005656161109
 20
320.5555578423566
 10
534.7007917307714
 20
320.5432956542479
 10
534.764499436594
 20
320.5188902401378
 10
534.7844701343961
 20
320.5112397817885
 72
     1
 10
534.7844701343956
 20
320.5112397817885
 11
536.4002258701169
 21
320.5112397817885
 72
     1
 10
536.4002258701169
 20
320.5112397817885
 11
536.7482497568009
 21
321.2091967508466
 72
     1
 10
536.7482497568009
 20
321.2091967508466
 11
535.5487054412695
 21
321.2091967508466
 72
     4
 94
        3
 73
     0
 74
     0
 95
       16
 96
       12
 40
0.0
 40
0.0
 40
0.0
 40
0.0
 40
0.1027738093189234
 40
0.2066076558227377
 40
0.2685398785587465
 40
0.3279201337292418
 40
0.3931337605655129
 40
0.4386740937218573
 40
0.4818879174818138
 40
0.5695193478876036
 40
0.7489346372632694
 40
0.7489346372632694
 40
0.7489346372632694
 40
0.7489346372632694
 10
535.5487054412694
 20
321.2091967508466
 10
535.5125229574526
 20
321.219842168116
 10
535.4397847937825
 20
321.2412428024007
 10
535.4336971968574
 20
321.344985215454
 10
535.4419906669455
 20
321.4189101739671
 10
535.4767237381988
 20
321.4727318607044
 10
535.5188609779998
 20
321.5118942193268
 10
535.5345505412162
 20
321.5628970681585
 10
535.5806685828222
 20
321.6014106000391
 10
535.6624482276664
 20
321.6661464671472
 10
535.7528823579684
 20
321.6799337604123
 10
535.8136405117134
 20
321.6891967508466
 72
     1
 10
535.8136405117131
 20
321.6891967508466
 11
536.9875932593578
 21
321.6891967508467
 97
        8
330
426
330
423
330
41F
330
425
330
422
330
424
330
421
330
420
 75
     0
 76
     1
 47
0.0514683685270805
 98
        1
 10
536.1140216245596
 20
321.9695590306607
450
        0
451
        0
460
0.0
461
0.0
452
        0
462
0.0
453
        0
470

  0
HATCH
  5
43D
330
18
100
AcDbEntity
  8
ROGO
 62
     4
100
AcDbHatch
 10
0.0
 20
0.0
 30
0.0
210
0.0
220
0.0
230
1.0
  2
SOLID
 70
     1
 71
     1
 91
        1
 92
        5
 93
        8
 72
     4
 94
        3
 73
     0
 74
     0
 95
       26
 96
       22
 40
0.0
 40
0.0
 40
0.0
 40
0.0
 40
0.3403136209416859
 40
0.5681272389515052
 40
0.7323994099695983
 40
0.8550561247335963
 40
1.014148321321381
 40
1.13027011535639
 40
1.339959009792003
 40
1.510642755247356
 40
1.626735051276114
 40
1.740569491433573
 40
1.94419717410045
 40
2.088186249714629
 40
2.165735491582895
 40
2.275891898886364
 40
2.355438312276665
 40
2.470674802864995
 40
2.535888688806186
 40
2.677801419664424
 40
2.74260000535881
 40
2.74260000535881
 40
2.74260000535881
 40
2.74260000535881
 10
541.5013828727324
 20
322.3871611111564
 10
541.3858751716486
 20
322.3802697236348
 10
541.1930440086972
 20
322.3687650857824
 10
540.9813165648233
 20
322.2401429374134
 10
540.8261926442373
 20
322.1653676726384
 10
540.7155584522028
 20
322.0637170706105
 10
540.6344631409632
 20
321.9587194241512
 10
540.5322272771099
 20
321.833615498258
 10
540.4488568515298
 20
321.6879370390227
 10
540.4064013621969
 20
321.5273739803609
 10
540.3687946926914
 20
321.399404290991
 10
540.3409049570159
 20
321.2567987725732
 10
540.34800089532
 20
321.1027346466843
 10
540.3581626037264
 20
320.9596477738218
 10
540.4035321607606
 20
320.8575051696407
 10
540.4552000498893
 20
320.7847866740274
 10
540.5184666725391
 20
320.7046953130293
 10
540.5876941929925
 20
320.6516510639859
 10
540.6449510031506
 20
320.5555578423567
 10
540.7451771178113
 20
320.5432956542478
 10
540.8088848236339
 20
320.5188902401378
 10
540.8288555214359
 20
320.5112397817885
 72
     1
 10
540.8288555214357
 20
320.5112397817885
 11
542.4446112571567
 21
320.5112397817885
 72
     1
 10
542.4446112571567
 20
320.5112397817885
 11
542.7926351438408
 21
321.2091967508465
 72
     1
 10
542.7926351438408
 20
321.2091967508465
 11
541.593090828309
 21
321.2091967508466
 72
     4
 94
        3
 73
     0
 74
     0
 95
       16
 96
       12
 40
0.0
 40
0.0
 40
0.0
 40
0.0
 40
0.1027738093187964
 40
0.2066076558227444
 40
0.268539878558716
 40
0.3279201337292112
 40
0.3931337605654557
 40
0.4386740937218511
 40
0.4818879174817272
 40
0.569519347887583
 40
0.7489346372632488
 40
0.7489346372632488
 40
0.7489346372632488
 40
0.7489346372632488
 10
541.5930908283091
 20
321.2091967508465
 10
541.5569083444924
 20
321.2198421681159
 10
541.4841701808224
 20
321.2412428024007
 10
541.478082583897
 20
321.3449852154539
 10
541.4863760539856
 20
321.418910173967
 10
541.5211091252386
 20
321.4727318607043
 10
541.5632463650395
 20
321.5118942193268
 10
541.578935928256
 20
321.5628970681584
 10
541.6250539698621
 20
321.6014106000391
 10
541.7068336147061
 20
321.6661464671473
 10
541.7972677450083
 20
321.6799337604123
 10
541.8580258987532
 20
321.6891967508466
 72
     1
 10
541.8580258987533
 20
321.6891967508466
 11
543.0319786463977
 21
321.6891967508466
 72
     1
 10
543.0319786463977
 20
321.6891967508466
 11
543.3800062185986
 21
322.3871611111564
 72
     1
 10
543.3800062185986
 20
322.3871611111564
 11
541.5013828727323
 21
322.3871611111564
 97
        8
330
428
330
42A
330
427
330
42B
330
42C
330
429
330
42D
330
42E
 75
     0
 76
     1
 47
0.0514683685270805
 98
        1
 10
541.825550629425
 20
322.0436735351863
450
        0
451
        0
460
0.0
461
0.0
452
        0
462
0.0
453
        0
470

  0
HATCH
  5
43E
330
18
100
AcDbEntity
  8
ROGO
 62
     4
100
AcDbHatch
 10
0.0
 20
0.0
 30
0.0
210
0.0
220
0.0
230
1.0
  2
SOLID
 70
     1
 71
     1
 91
        1
 92
        7
 72
     0
 73
     1
 93
        4
 10
525.045224167586
 20
319.7497202845639
 10
524.9122941169832
 20
319.4559057041478
 10
542.3112835006732
 20
319.4559057041478
 10
542.4577889397964
 20
319.7497202845639
 97
        4
330
43A
330
40B
330
403
330
430
 75
     0
 76
     1
 47
0.0514683685270805
 98
        1
 10
536.0398459688549
 20
319.6720110499856
450
        0
451
        0
460
0.0
461
0.0
452
        0
462
0.0
453
        0
470

  0
HATCH
  5
43F
330
18
100
AcDbEntity
  8
ROGO
 62
     4
100
AcDbHatch
 10
0.0
 20
0.0
 30
0.0
210
0.0
220
0.0
230
1.0
  2
SOLID
 70
     1
 71
     1
 91
        1
 92
        7
 72
     0
 73
     1
 93
       11
 10
542.3112835006732
 20
319.4559057041478
 10
543.3914031328221
 20
319.4559057041478
 10
543.7729021173445
 20
320.2209965071757
 10
544.1544011018669
 20
319.4559057041478
 10
545.2344971018669
 20
319.4559057041478
 10
544.5036877935312
 20
320.9215334076521
 10
546.2792717154331
 20
322.3871611111564
 10
545.1991757154331
 20
322.3871611111564
 10
544.6934427396062
 20
322.0671276699826
 10
544.8530217494934
 20
322.3871611111563
 10
543.7729021173445
 20
322.3871611111564
 97
       11
330
437
330
432
330
431
330
42F
330
430
330
403
330
435
330
433
330
438
330
434
330
436
 75
     0
 76
     1
 47
0.0514683685270805
 98
        1
 10
543.6799431939103
 20
321.1295954205257
450
        0
451
        0
460
0.0
461
0.0
452
        0
462
0.0
453
        0
470

  0
HATCH
  5
440
330
18
100
AcDbEntity
  8
ROGO
 62
     4
100
AcDbHatch
 10
0.0
 20
0.0
 30
0.0
210
0.0
220
0.0
230
1.0
  2
SOLID
 70
     1
 71
     1
 91
        2
 92
        5
 93
        6
 72
     1
 10
523.5497213227882
 20
319.4559057041478
 11
524.9122941169831
 21
319.4559057041478
 72
     1
 10
524.9122941169831
 20
319.4559057041478
 11
525.3897571895952
 21
320.5112397817886
 72
     1
 10
525.3897571895952
 20
320.5112397817886
 11
526.6634832869853
 21
320.5112397817886
 72
     4
 94
        3
 73
     0
 74
     0
 95
       18
 96
       14
 40
0.108740278791501
 40
0.108740278791501
 40
0.108740278791501
 40
0.108740278791501
 40
0.6623149649549278
 40
1.384304701649787
 40
2.097394834876493
 40
2.774073369849618
 40
3.428974823686337
 40
4.005208313035923
 40
4.455173659284313
 40
4.720999734343524
 40
5.086034088486724
 40
5.569973738255373
 40
6.060470601257719
 40
6.060470601257719
 40
6.060470601257719
 40
6.060470601257719
 10
526.663483286984
 20
320.5112397817885
 10
526.753126025405
 20
320.5119073241188
 10
526.9596836783387
 20
320.5134454964167
 10
527.2486562184919
 20
320.6678209771244
 10
527.522684751482
 20
320.8644840918982
 10
527.7433960930267
 20
321.1101941359009
 10
527.880905908564
 20
321.3911214752162
 10
527.9022057443456
 20
321.6603645260329
 10
527.8892027179015
 20
321.8733324319708
 10
527.79628956284
 20
322.0217763495463
 10
527.6996950000904
 20
322.1724317455073
 10
527.522573235023
 20
322.3029350452093
 10
527.3774475952365
 20
322.3601148899454
 10
527.3036482557564
 20
322.3871611111564
 72
     1
 10
527.3036482557566
 20
322.3871611111564
 11
525.0000792372062
 21
322.3871611111564
 72
     1
 10
525.0000792372062
 20
322.3871611111564
 11
523.5497213227882
 21
319.4559057041478
 97
        6
330
405
330
402
330
404
330
403
330
40B
330
406
 92
       20
 93
        4
 72
     1
 10
525.684563607181
 20
321.1628488310154
 11
525.9102747448346
 21
321.6617369522802
 72
     1
 10
525.9102747448346
 20
321.6617369522802
 11
526.4902561721122
 21
321.6617369522802
 72
     4
 94
        3
 73
     0
 74
     0
 95
       15
 96
       11
 40
0.0
 40
0.0
 40
0.0
 40
0.0
 40
0.2199578613106558
 40
0.3202465475123651
 40
0.4340808827708152
 40
0.5116301246390283
 40
0.634275054953107
 40
0.7077360179240892
 40
0.8337709579493377
 40
0.875782631437913
 40
0.875782631437913
 40
0.875782631437913
 40
0.875782631437913
 10
526.4902561721166
 20
321.6617369522801
 10
526.572868079344
 20
321.6621153589122
 10
526.6931464722842
 20
321.6626662981546
 10
526.7589189813763
 20
321.5138815782553
 10
526.7294366067574
 20
321.4180874287734
 10
526.6923748590085
 20
321.3197366941336
 10
526.6268783568051
 20
321.2529058866059
 10
526.5389724573835
 20
321.1885365528388
 10
526.4558971815895
 20
321.1807443567539
 10
526.4018660402002
 20
321.1664279375336
 10
526.3883582483869
 20
321.1628488310152
 72
     1
 10
526.3883582483869
 20
321.1628488310153
 11
525.684563607181
 21
321.1628488310154
 97
        4
330
407
330
409
330
408
330
40A
 75
     0
 76
     1
 47
0.0514683685270805
 98
        2
 10
525.0123914562161
 20
321.4754628870293
 10
525.0123914562161
 20
321.4754628870293
450
        0
451
        0
460
0.0
461
0.0
452
        0
462
0.0
453
        0
470

  0
LINE
  5
441
102
{ACAD_REACTORS
330
444
102
}
330
18
100
AcDbEntity
  8
ROGO
 62
     4
100
AcDbLine
 10
533.4373695266974
 20
322.3871611111564
 30
0.0
 11
534.2707281129593
 21
320.5112397817885
 31
0.0
  0
LINE
  5
442
102
{ACAD_REACTORS
330
444
102
}
330
18
100
AcDbEntity
  8
ROGO
 62
     4
100
AcDbLine
 10
532.6141186322121
 20
321.885719715511
 30
0.0
 11
532.8987006118198
 21
321.245115041484
 31
0.0
  0
LINE
  5
443
102
{ACAD_REACTORS
330
444
102
}
330
18
100
AcDbEntity
  8
ROGO
 62
     4
100
AcDbLine
 10
533.0660507626777
 20
320.868403596204
 30
0.0
 11
533.2247170813476
 21
320.5112397817885
 31
0.0
  0
HATCH
  5
444
330
18
100
AcDbEntity
  8
ROGO
 62
     4
100
AcDbHatch
 10
0.0
 20
0.0
 30
0.0
210
0.0
220
0.0
230
1.0
  2
SOLID
 70
     1
 71
     1
 91
        2
 92
        7
 72
     0
 73
     1
 93
        8
 10
533.4373695266974
 20
322.3871611111564
 10
531.9367931227382
 20
322.3871611111564
 10
530.5840297940252
 20
320.5112397817885
 10
531.6229544392987
 20
320.5112397817886
 10
531.8805122072715
 20
320.868403596204
 10
533.0660507626778
 20
320.8684035962039
 10
533.2247170813476
 20
320.5112397817885
 10
534.2707281129593
 20
320.5112397817886
 97
        8
330
41D
330
417
330
41C
330
41B
330
419
330
443
330
41E
330
441
 92
       22
 72
     0
 73
     1
 93
        3
 10
532.8987006118196
 20
321.245115041484
 10
532.1521661517644
 20
321.2451150414841
 10
532.6141186322121
 20
321.885719715511
 97
        3
330
41A
330
418
330
442
 75
     0
 76
     1
 47
0.0128389261915577
 98
        2
 10
533.3198625374177
 20
321.9371012300006
 10
533.3198625374177
 20
321.9371012300006
450
        0
451
        0
460
0.0
461
0.0
452
        0
462
0.0
453
        0
470

  0
SPLINE
  5
445
102
{ACAD_REACTORS
330
44C
102
}
330
18
100
AcDbEntity
  8
ROGO
 62
     4
100
AcDbSpline
210
0.0
220
0.0
230
1.0
 70
     8
 71
     3
 72
    38
 73
    34
 74
    32
 42
0.0000000001
 43
0.0000000001
 44
0.0000000001
 40
0.0
 40
0.0
 40
0.0
 40
0.0
 40
0.2582400211805774
 40
0.3393418442955424
 40
0.443552172800835
 40
0.530394283206717
 40
0.6036667919818254
 40
0.7009894053152177
 40
0.7507174249931042
 40
0.8067242281503032
 40
0.8892677166883521
 40
0.9827715778106668
 40
1.043426616793024
 40
1.109318337455068
 40
1.182564491755753
 40
1.293719242428883
 40
1.399327847180614
 40
1.448424760475743
 40
1.50441322219426
 40
1.570741059842362
 40
1.617957956886697
 40
1.657539314700464
 40
1.714052551848318
 40
1.776150918813051
 40
1.838248940024221
 40
1.892584795022379
 40
2.017023561310864
 40
2.066120474605993
 40
2.164314359515976
 40
2.251113385583432
 40
2.417283613623161
 40
2.622320469312984
 40
2.918423525691272
 40
2.918423525691272
 40
2.918423525691272
 40
2.918423525691272
 10
538.3773712887626
 20
322.394985709974
 30
0.0
 10
538.2912921492972
 20
322.3889048255442
 30
0.0
 10
538.1781793412669
 20
322.3809142029911
 30
0.0
 10
538.0345525233965
 20
322.341564736984
 30
0.0
 10
537.9562600170523
 20
322.2946868520442
 30
0.0
 10
537.8747810151703
 20
322.2602293596149
 30
0.0
 10
537.8053125774778
 20
322.2092046464017
 30
0.0
 10
537.7350467193405
 20
322.1829121032681
 30
0.0
 10
537.6858444145181
 20
322.1355019484502
 30
0.0
 10
537.6288967600422
 20
322.1065417796288
 30
0.0
 10
537.5835483317063
 20
322.0417205024654
 30
0.0
 10
537.5328616509466
 20
321.981114957239
 30
0.0
 10
537.4740587246507
 20
321.9368756121284
 30
0.0
 10
537.4257983738515
 20
321.8904113564678
 30
0.0
 10
537.3815262125311
 20
321.8187030490623
 30
0.0
 10
537.3553239660009
 20
321.7234239423684
 30
0.0
 10
537.2814642311304
 20
321.6632681505325
 30
0.0
 10
537.2703432675831
 20
321.5909429395667
 30
0.0
 10
537.2294891958749
 20
321.5482722821513
 30
0.0
 10
537.2117244166524
 20
321.4931905936014
 30
0.0
 10
537.2049587336181
 20
321.4427260374289
 30
0.0
 10
537.1968383007006
 20
321.3955956353885
 30
0.0
 10
537.1755967860824
 20
321.3460165343344
 30
0.0
 10
537.1825300897417
 20
321.284773278713
 30
0.0
 10
537.1805549996816
 20
321.2254694015324
 30
0.0
 10
537.1817173425005
 20
321.1454073206588
 30
0.0
 10
537.1775222862918
 20
321.0674570393453
 30
0.0
 10
537.210976215599
 20
320.982628644819
 30
0.0
 10
537.2307731407459
 20
320.9070158667238
 30
0.0
 10
537.2849902406655
 20
320.8023208063647
 30
0.0
 10
537.3785136018337
 20
320.6815253439233
 30
0.0
 10
537.5563560961446
 20
320.5349025392194
 30
0.0
 10
537.7273568540864
 20
320.5200283381947
 30
0.0
 10
537.8283942008439
 20
320.5112397817885
 30
0.0
 11
538.3773712887626
 21
322.394985709974
 31
0.0
 11
538.1210046645523
 21
322.3639363536149
 31
0.0
 11
538.0433178272263
 21
322.3406498549758
 31
0.0
 11
537.9500939886435
 21
322.2940761661906
 31
0.0
 11
537.8724071513175
 21
322.255264989372
 31
0.0
 11
537.8102579255957
 21
322.2164534667999
 31
0.0
 11
537.7248025876412
 21
322.1698801237683
 31
0.0
 11
537.6859588638047
 21
322.1388311131627
 31
0.0
 11
537.6393466393396
 21
322.1077817568036
 31
0.0
 11
537.5849659142462
 21
322.0456837355924
 31
0.0
 11
537.5228166885243
 21
321.9758235481681
 31
0.0
 11
537.4762044640593
 21
321.937012025596
 31
0.0
 11
537.4295928499415
 21
321.8904386825644
 31
0.0
 11
537.3907491261048
 21
321.8283406613532
 31
0.0
 11
537.3441375119872
 21
321.7274311175699
 31
0.0
 11
537.2819876759179
 21
321.6420462519661
 31
0.0
 11
537.2664506746612
 21
321.595472563181
 31
0.0
 11
537.2353760618002
 21
321.5488992201493
 31
0.0
 11
537.2120699495678
 21
321.4868008531846
 31
0.0
 11
537.204300838592
 21
321.440227510153
 31
0.0
 11
537.1965323379636
 21
321.4014159875808
 31
0.0
 11
537.1809953367068
 21
321.3470804783362
 31
0.0
 11
537.1809953367068
 21
321.2849821113715
 31
0.0
 11
537.1809953367068
 21
321.2228840901603
 31
0.0
 11
537.1809953367068
 21
321.1685482351621
 31
0.0
 11
537.1887638373352
 21
321.0443521927397
 31
0.0
 11
537.204300838592
 21
320.9977785039546
 31
0.0
 11
537.2353760618002
 21
320.9046314721378
 31
0.0
 11
537.2742191752896
 21
320.827008772747
 31
0.0
 11
537.3752121248481
 21
320.6950505641116
 31
0.0
 11
537.5383543001285
 21
320.5708541759357
 31
0.0
 11
537.8283942008439
 21
320.5112397817885
 31
0.0
  0
SPLINE
  5
446
102
{ACAD_REACTORS
330
44C
102
}
330
18
100
AcDbEntity
  8
ROGO
 62
     4
100
AcDbSpline
210
0.0
220
0.0
230
1.0
 70
     8
 71
     3
 72
    25
 73
    21
 74
     0
 42
0.0000000001
 43
0.0000000001
 40
0.0
 40
0.0
 40
0.0
 40
0.0
 40
0.4087168505087288
 40
0.6887487002771746
 40
0.9415836120477687
 40
1.17452070575514
 40
1.41154617586699
 40
1.599156012919487
 40
1.80099909059943
 40
2.178735911501585
 40
2.521686161369157
 40
2.762704659361267
 40
3.06256558063785
 40
3.222432137207705
 40
3.399493810628493
 40
3.567459719866414
 40
3.743172740007509
 40
3.995988754699505
 40
4.17170091132118
 40
4.337226830236035
 40
4.337226830236035
 40
4.337226830236035
 40
4.337226830236035
 10
539.4494481790275
 20
322.394985709974
 30
0.0
 10
539.5197625367782
 20
322.3927265821795
 30
0.0
 10
539.6382526906619
 20
322.3889196157423
 30
0.0
 10
539.765466488692
 20
322.2894872023488
 30
0.0
 10
539.8628068040625
 20
322.2070501133273
 30
0.0
 10
539.9319001681491
 20
322.10738753285
 30
0.0
 10
539.9924624376382
 20
322.0157530990255
 30
0.0
 10
540.0323683815943
 20
321.9190082209311
 30
0.0
 10
540.0866483497011
 20
321.802923227307
 30
0.0
 10
540.1091175749114
 20
321.6476187524055
 30
0.0
 10
540.0939369415733
 20
321.4870972480547
 30
0.0
 10
540.0543225765769
 20
321.3448096999069
 30
0.0
 10
540.0127702927199
 20
321.2356500354153
 30
0.0
 10
539.9637959799807
 20
321.1406197754287
 30
0.0
 10
539.9054123409748
 20
321.0790876747158
 30
0.0
 10
539.8649081187762
 20
321.000850208505
 30
0.0
 10
539.7871046891801
 20
320.936856161543
 30
0.0
 10
539.7240330323135
 20
320.8578964894658
 30
0.0
 10
539.652459837114
 20
320.7901245632679
 30
0.0
 10
539.6121065523942
 20
320.7483101015225
 30
0.0
 10
539.590831327546
 20
320.730729038743
 30
0.0
  0
LINE
  5
447
102
{ACAD_REACTORS
330
44C
102
}
330
18
100
AcDbEntity
  8
ROGO
 62
     4
100
AcDbLine
 10
538.3773712887626
 20
322.394985709974
 30
0.0
 11
539.4494481790275
 21
322.394985709974
 31
0.0
  0
LINE
  5
448
102
{ACAD_REACTORS
330
44C
102
}
330
18
100
AcDbEntity
  8
ROGO
 62
     4
100
AcDbLine
 10
537.8283942008439
 20
320.5112397817885
 30
0.0
 11
538.9004710911087
 21
320.5112397817885
 31
0.0
  0
SPLINE
  5
449
102
{ACAD_REACTORS
330
44C
102
}
330
18
100
AcDbEntity
  8
ROGO
 62
     4
100
AcDbSpline
210
0.0
220
0.0
230
1.0
 70
     8
 71
     3
 72
    11
 73
     7
 74
     0
 42
0.0000000001
 43
0.0000000001
 40
0.1647869275458134
 40
0.1647869275458134
 40
0.1647869275458134
 40
0.1647869275458134
 40
0.2895635144633836
 40
0.5387013147903714
 40
0.7953622617455423
 40
0.8850764140209602
 40
0.8850764140209602
 40
0.8850764140209602
 40
0.8850764140209602
 10
539.2576388891344
 20
320.5530632773723
 30
0.0
 10
539.237669542276
 20
320.547504802063
 30
0.0
 10
539.1757538116559
 20
320.5376082452289
 30
0.0
 10
539.0718984300299
 20
320.5240191104098
 30
0.0
 10
538.973189084178
 20
320.5098383524318
 30
0.0
 10
538.9154309487086
 20
320.5109514737271
 30
0.0
 10
538.9004710911088
 20
320.5112397817885
 30
0.0
  0
SPLINE
  5
44A
102
{ACAD_REACTORS
330
44C
102
}
330
18
100
AcDbEntity
  8
ROGO
 62
     4
100
AcDbSpline
210
0.0
220
0.0
230
1.0
 70
     8
 71
     3
 72
     9
 73
     5
 74
     3
 42
0.0000000001
 43
0.0000000001
 44
0.0000000001
 40
0.0
 40
0.0
 40
0.0
 40
0.0
 40
0.1622561919360204
 40
0.3804197703110171
 40
0.3804197703110171
 40
0.3804197703110171
 40
0.3804197703110171
 10
539.2576388891344
 20
320.5530632773723
 30
0.0
 10
539.3097602724458
 20
320.5690094769768
 30
0.0
 10
539.4319621091279
 20
320.6063963373396
 30
0.0
 10
539.5329288194662
 20
320.6854139341603
 30
0.0
 10
539.590831327546
 20
320.730729038743
 30
0.0
 11
539.2576388891344
 21
320.5530632773723
 31
0.0
 11
539.4101399808839
 21
320.6084752691861
 31
0.0
 11
539.590831327546
 21
320.730729038743
 31
0.0
  0
ELLIPSE
  5
44B
102
{ACAD_REACTORS
330
44C
102
}
330
18
100
AcDbEntity
  8
ROGO
 62
     4
100
AcDbEllipse
 10
538.6237404239494
 20
321.4268485782326
 30
0.0
 11
0.2546924415247531
 21
0.2239701316915159
 31
0.0
210
0.0
220
0.0
230
1.0
 40
0.6788083417438792
 41
0.0
 42
6.283185307179586
  0
HATCH
  5
44C
330
18
100
AcDbEntity
  8
ROGO
 62
     4
100
AcDbHatch
 10
0.0
 20
0.0
 30
0.0
210
0.0
220
0.0
230
1.0
  2
SOLID
 70
     1
 71
     1
 91
        2
 92
        5
 93
        6
 72
     4
 94
        3
 73
     0
 74
     0
 95
       38
 96
       34
 40
0.0
 40
0.0
 40
0.0
 40
0.0
 40
0.2582400211805774
 40
0.3393418442955424
 40
0.443552172800835
 40
0.530394283206717
 40
0.6036667919818254
 40
0.7009894053152177
 40
0.7507174249931042
 40
0.8067242281503032
 40
0.8892677166883521
 40
0.9827715778106668
 40
1.043426616793024
 40
1.109318337455068
 40
1.182564491755753
 40
1.293719242428883
 40
1.399327847180614
 40
1.448424760475743
 40
1.50441322219426
 40
1.570741059842362
 40
1.617957956886697
 40
1.657539314700464
 40
1.714052551848318
 40
1.776150918813051
 40
1.838248940024221
 40
1.892584795022379
 40
2.017023561310864
 40
2.066120474605993
 40
2.164314359515976
 40
2.251113385583432
 40
2.417283613623161
 40
2.622320469312984
 40
2.918423525691272
 40
2.918423525691272
 40
2.918423525691272
 40
2.918423525691272
 10
538.3773712887626
 20
322.394985709974
 10
538.2912921492972
 20
322.3889048255442
 10
538.178179341267
 20
322.3809142029911
 10
538.0345525233965
 20
322.341564736984
 10
537.9562600170522
 20
322.2946868520442
 10
537.8747810151704
 20
322.2602293596149
 10
537.8053125774776
 20
322.2092046464017
 10
537.7350467193405
 20
322.1829121032682
 10
537.6858444145181
 20
322.1355019484501
 10
537.6288967600423
 20
322.1065417796289
 10
537.5835483317064
 20
322.0417205024654
 10
537.5328616509465
 20
321.981114957239
 10
537.4740587246507
 20
321.9368756121284
 10
537.4257983738515
 20
321.8904113564678
 10
537.3815262125311
 20
321.8187030490624
 10
537.3553239660009
 20
321.7234239423684
 10
537.2814642311304
 20
321.6632681505326
 10
537.2703432675831
 20
321.5909429395667
 10
537.2294891958751
 20
321.5482722821515
 10
537.2117244166522
 20
321.4931905936014
 10
537.2049587336182
 20
321.4427260374289
 10
537.1968383007003
 20
321.3955956353885
 10
537.1755967860827
 20
321.3460165343345
 10
537.1825300897415
 20
321.284773278713
 10
537.1805549996817
 20
321.2254694015324
 10
537.1817173425003
 20
321.1454073206588
 10
537.1775222862918
 20
321.0674570393453
 10
537.210976215599
 20
320.982628644819
 10
537.2307731407459
 20
320.9070158667239
 10
537.2849902406655
 20
320.8023208063647
 10
537.3785136018337
 20
320.6815253439233
 10
537.5563560961446
 20
320.5349025392194
 10
537.7273568540865
 20
320.5200283381947
 10
537.8283942008439
 20
320.5112397817885
 72
     1
 10
537.8283942008437
 20
320.5112397817885
 11
538.9004710911092
 21
320.5112397817885
 72
     4
 94
        3
 73
     0
 74
     0
 95
       11
 96
        7
 40
0.1647869275458135
 40
0.1647869275458135
 40
0.1647869275458135
 40
0.1647869275458135
 40
0.2545010798212315
 40
0.5111620267764023
 40
0.7602998271033902
 40
0.8850764140209603
 40
0.8850764140209603
 40
0.8850764140209603
 40
0.8850764140209603
 10
538.9004710911088
 20
320.5112397817885
 10
538.9154309487086
 20
320.5109514737271
 10
538.973189084178
 20
320.5098383524318
 10
539.0718984300299
 20
320.5240191104098
 10
539.1757538116559
 20
320.5376082452289
 10
539.237669542276
 20
320.547504802063
 10
539.2576388891344
 20
320.5530632773723
 72
     4
 94
        3
 73
     0
 74
     0
 95
        9
 96
        5
 40
0.0
 40
0.0
 40
0.0
 40
0.0
 40
0.1622561919360204
 40
0.3804197703110171
 40
0.3804197703110171
 40
0.3804197703110171
 40
0.3804197703110171
 10
539.2576388891344
 20
320.5530632773723
 10
539.3097602724458
 20
320.5690094769768
 10
539.4319621091279
 20
320.6063963373396
 10
539.5329288194662
 20
320.6854139341603
 10
539.590831327546
 20
320.730729038743
 72
     4
 94
        3
 73
     0
 74
     0
 95
       25
 96
       21
 40
0.0
 40
0.0
 40
0.0
 40
0.0
 40
0.165525918914855
 40
0.3412380755365305
 40
0.5940540902285263
 40
0.7697671103696209
 40
0.9377330196075423
 40
1.11479469302833
 40
1.274661249598185
 40
1.574522170874768
 40
1.815540668866877
 40
2.15849091873445
 40
2.536227739636605
 40
2.738070817316548
 40
2.925680654369045
 40
3.162706124480894
 40
3.395643218188267
 40
3.648478129958861
 40
3.928509979727306
 40
4.337226830236035
 40
4.337226830236035
 40
4.337226830236035
 40
4.337226830236035
 10
539.590831327546
 20
320.730729038743
 10
539.6121065523942
 20
320.7483101015225
 10
539.652459837114
 20
320.7901245632679
 10
539.7240330323135
 20
320.8578964894658
 10
539.7871046891801
 20
320.936856161543
 10
539.8649081187762
 20
321.000850208505
 10
539.9054123409748
 20
321.0790876747158
 10
539.9637959799807
 20
321.1406197754287
 10
540.0127702927199
 20
321.2356500354153
 10
540.0543225765769
 20
321.3448096999069
 10
540.0939369415733
 20
321.4870972480547
 10
540.1091175749114
 20
321.6476187524055
 10
540.0866483497011
 20
321.802923227307
 10
540.0323683815943
 20
321.9190082209311
 10
539.9924624376382
 20
322.0157530990255
 10
539.9319001681491
 20
322.10738753285
 10
539.8628068040625
 20
322.2070501133273
 10
539.765466488692
 20
322.2894872023488
 10
539.6382526906619
 20
322.3889196157423
 10
539.5197625367782
 20
322.3927265821795
 10
539.4494481790275
 20
322.394985709974
 72
     1
 10
539.4494481790273
 20
322.394985709974
 11
538.377371288763
 21
322.394985709974
 97
        6
330
446
330
447
330
445
330
448
330
449
330
44A
 92
       20
 93
        1
 72
     3
 10
538.6237404239494
 20
321.4268485782326
 11
0.2546924415247531
 21
0.2239701316915159
 40
0.6788083417438792
 50
0.0
 51
360.0
 73
     1
 97
        1
330
44B
 75
     0
 76
     1
 47
0.088756267210375
 98
        2
 10
538.6986422464761
 20
321.8746875358383
 10
538.6986422464761
 20
321.8746875358383
450
        0
451
        0
460
0.0
461
0.0
452
        0
462
0.0
453
        0
470

  0
LINE
  5
557
330
18
100
AcDbEntity
  8
外形線
  6
Continuous
100
AcDbLine
 10
460.372282597763
 20
380.3191209731289
 30
0.0
 11
460.372282597763
 21
378.4585547849009
 31
0.0
  0
LINE
  5
558
330
18
100
AcDbEntity
  8
外形線
  6
Continuous
100
AcDbLine
 10
467.772282597763
 20
380.3191209731289
 30
0.0
 11
467.772282597763
 21
378.4585547849009
 31
0.0
  0
LINE
  5
5EA
330
18
100
AcDbEntity
  8
外形線
  6
Continuous
100
AcDbLine
 10
460.372282597763
 20
392.8191209731289
 30
0.0
 11
460.372282597763
 21
386.3191209731289
 31
0.0
  0
LINE
  5
5EB
330
18
100
AcDbEntity
  8
外形線
  6
Continuous
100
AcDbLine
 10
467.772282597763
 20
392.8191209731289
 30
0.0
 11
467.772282597763
 21
386.3191209731289
 31
0.0
  0
LINE
  5
5EC
330
18
100
AcDbEntity
  8
外形線
  6
Continuous
100
AcDbLine
 10
460.0722825977629
 20
380.3191209731289
 30
0.0
 11
468.0722825977629
 21
380.3191209731289
 31
0.0
  0
LINE
  5
5ED
330
18
100
AcDbEntity
  8
外形線
  6
Continuous
100
AcDbLine
 10
460.0722825977631
 20
386.3191209731289
 30
0.0
 11
468.0722825977629
 21
386.3191209731289
 31
0.0
  0
HATCH
  5
5EE
330
18
100
AcDbEntity
  8
ﾊｯﾁﾝｸ
  6
Continuous
100
AcDbHatch
 10
0.0
 20
0.0
 30
0.0
210
0.0
220
0.0
230
1.0
  2
ANSI37
 70
     0
 71
     0
 91
        1
 92
        7
 72
     0
 73
     1
 93
        4
 10
464.0722825977631
 20
386.3191209731289
 10
460.0722825977631
 20
386.3191209731289
 10
460.0722825977631
 20
380.3191209731289
 10
464.0722825977631
 20
380.3191209731289
 97
        0
 75
     0
 76
     1
 52
0.0
 41
10.0
 77
     0
 78
     2
 53
45.0
 43
271.599278461305
 44
231.2001827393296
 45
-0.8838834764831842
 46
0.8838834764831844
 79
     0
 53
135.0
 43
271.599278461305
 44
231.2001827393296
 45
-0.8838834764831844
 46
-0.8838834764831842
 79
     0
 47
0.1856754751158765
 98
        1
 10
462.3254348148069
 20
384.0951670173154
  0
LINE
  5
5EF
330
18
100
AcDbEntity
  8
外形線
  6
Continuous
100
AcDbLine
 10
460.0722825977631
 20
386.3191209731289
 30
0.0
 11
460.0722825977631
 21
380.3191209731289
 31
0.0
  0
LINE
  5
5F0
330
18
100
AcDbEntity
  8
外形線
  6
Continuous
100
AcDbLine
 10
468.0722825977629
 20
386.3191209731289
 30
0.0
 11
468.0722825977629
 21
380.3191209731289
 31
0.0
  0
ARC
  5
5F1
330
18
100
AcDbEntity
  8
外形線
  6
Continuous
100
AcDbCircle
 10
464.0722825977629
 20
386.4741209731291
 30
0.0
 40
7.344999999999885
100
AcDbArc
 50
59.75198538337817
 51
120.2480146166212
  0
LINE
  5
5F2
330
18
100
AcDbEntity
  8
外形線
  6
Continuous
100
AcDbLine
 10
460.372282597763
 20
392.8191209731289
 30
0.0
 11
467.772282597763
 21
392.8191209731289
 31
0.0
  0
POINT
  5
5F3
330
18
100
AcDbEntity
  8
DEFPOINTS
  6
ByBlock
 62
     0
100
AcDbPoint
 10
464.0722825977629
 20
393.819120973129
 30
0.0
  0
CIRCLE
  5
625
330
18
100
AcDbEntity
  8
外形線
100
AcDbCircle
 10
464.0722825977629
 20
352.319120973129
 30
0.0
 40
26.4
  0
ARC
  5
627
330
18
100
AcDbEntity
  8
隠れ線2
100
AcDbCircle
 10
497.8884493084771
 20
342.9406513350945
 30
0.0
 40
10.0
100
AcDbArc
 50
172.2854084206007
 51
189.7998928966194
  0
ARC
  5
628
330
18
100
AcDbEntity
  8
隠れ線2
100
AcDbCircle
 10
429.8232825977629
 20
338.319120973129
 30
0.0
 40
12.0
100
AcDbArc
 50
359.0077215458528
 51
22.40644032502665
  0
ARC
  5
629
330
18
100
AcDbEntity
  8
隠れ線2
100
AcDbCircle
 10
464.0722825977629
 20
352.319120973129
 30
0.0
 40
25.0
100
AcDbArc
 50
344.4847075942793
 51
198.0721595132937
  0
ARC
  5
630
330
18
100
AcDbEntity
  8
隠れ線2
100
AcDbCircle
 10
464.0722825977629
 20
352.319120973129
 30
0.0
 40
25.0
100
AcDbArc
 50
200.3650472748071
 51
202.3164192778861
  0
ARC
  5
63B
330
18
100
AcDbEntity
  8
外形線
100
AcDbCircle
 10
512.072282597763
 20
275.319120973129
 30
0.0
 40
2.7
100
AcDbArc
 50
220.212280400635
 51
27.67253785527774
  0
ARC
  5
63E
330
18
100
AcDbEntity
  8
外形線
100
AcDbCircle
 10
451.193282597763
 20
236.319120973129
 30
0.0
 40
75.0
100
AcDbArc
 50
32.51415343234144
 51
76.73852446384272
  0
ARC
  5
643
330
18
100
AcDbEntity
  8
外形線
100
AcDbCircle
 10
464.6352825977629
 20
234.3191209731291
 30
0.0
 40
60.0
100
AcDbArc
 50
40.86510639066241
 51
86.5785884671787
  0
LINE
  5
647
330
18
100
AcDbEntity
  8
外形線
100
AcDbLine
 10
514.437684661738
 20
276.6322157137993
 30
0.0
 11
514.4634466755019
 21
276.5730485441357
 31
0.0
  0
LINE
  5
648
330
18
100
AcDbEntity
  8
中心線
100
AcDbLine
 10
464.0722825977629
 20
307.4556255237486
 30
0.0
 11
464.0722825977629
 21
297.6217482992407
 31
0.0
  0
ARC
  5
66C
330
18
100
AcDbEntity
  8
外形線
100
AcDbCircle
 10
438.8722825977629
 20
459.619120973129
 30
0.0
 40
160.0
100
AcDbArc
 50
285.2009981374478
 51
290.1817957668774
  0
LINE
  5
66D
330
18
100
AcDbEntity
  8
中心線
100
AcDbLine
 10
422.072282597763
 20
332.6895625206026
 30
0.0
 11
422.072282597763
 21
328.9640884405635
 31
0.0
  0
LINE
  5
66F
330
18
100
AcDbEntity
  8
中心線
100
AcDbLine
 10
423.9460609866515
 20
330.8191209731291
 30
0.0
 11
420.2363748081646
 21
330.8191209731291
 31
0.0
  0
LINE
  5
670
330
18
100
AcDbEntity
  8
中心線
100
AcDbLine
 10
423.8362115800462
 20
350.819120973129
 30
0.0
 11
420.239422269736
 21
350.819120973129
 31
0.0
  0
LINE
  5
672
330
18
100
AcDbEntity
  8
中心線
100
AcDbLine
 10
422.0722825977629
 20
352.5088494664483
 30
0.0
 11
422.0722825977628
 21
349.0352644765447
 31
0.0
  0
LINE
  5
673
330
18
100
AcDbEntity
  8
外形線
100
AcDbLine
 10
424.072282597763
 20
353.3191209731293
 30
0.0
 11
424.072282597763
 21
328.3191209731289
 31
0.0
  0
LINE
  5
674
330
18
100
AcDbEntity
  8
外形線
100
AcDbLine
 10
404.0722825977629
 20
353.3191209731291
 30
0.0
 11
404.0722825977629
 21
328.319120973129
 31
0.0
  0
LINE
  5
6C1
330
18
100
AcDbEntity
  8
寸法線
100
AcDbLine
 10
410.5722825977629
 20
350.819120973129
 30
0.0
 11
417.5722825977629
 21
350.819120973129
 31
0.0
  0
LINE
  5
6C2
330
18
100
AcDbEntity
  8
外形線
100
AcDbLine
 10
410.5722825977629
 20
360.819120973129
 30
0.0
 11
417.5722825977629
 21
360.819120973129
 31
0.0
  0
LINE
  5
6C3
330
18
100
AcDbEntity
  8
外形線
100
AcDbLine
 10
410.5722825977629
 20
370.819120973129
 30
0.0
 11
417.5722825977629
 21
370.819120973129
 31
0.0
  0
LINE
  5
6C4
330
18
100
AcDbEntity
  8
外形線
100
AcDbLine
 10
410.5722825977629
 20
380.819120973129
 30
0.0
 11
417.5722825977629
 21
380.819120973129
 31
0.0
  0
LINE
  5
6C5
330
18
100
AcDbEntity
  8
外形線
100
AcDbLine
 10
410.5722825977629
 20
390.819120973129
 30
0.0
 11
417.5722825977629
 21
390.819120973129
 31
0.0
  0
LINE
  5
6E0
330
18
100
AcDbEntity
  8
外形線
100
AcDbLine
 10
428.072282597763
 20
345.8191209731291
 30
0.0
 11
428.072282597763
 21
335.8191209731291
 31
0.0
  0
LINE
  5
6E1
330
18
100
AcDbEntity
  8
外形線
100
AcDbLine
 10
425.0722825977629
 20
345.8191209731291
 30
0.0
 11
425.0722825977629
 21
335.8191209731291
 31
0.0
  0
LINE
  5
6E2
330
18
100
AcDbEntity
  8
外形線
100
AcDbLine
 10
417.5722825977629
 20
345.8191209731291
 30
0.0
 11
417.5722825977629
 21
335.8191209731291
 31
0.0
  0
LINE
  5
6E3
330
18
100
AcDbEntity
  8
外形線
100
AcDbLine
 10
410.5722825977629
 20
345.8191209731291
 30
0.0
 11
410.5722825977629
 21
335.8191209731291
 31
0.0
  0
ARC
  5
6E9
330
18
100
AcDbEntity
  8
外形線
100
AcDbCircle
 10
414.0722825977629
 20
335.8191209731291
 30
0.0
 40
3.5
100
AcDbArc
 50
180.0
 51
0.0
  0
LINE
  5
6EB
330
18
100
AcDbEntity
  8
外形線
100
AcDbLine
 10
405.5543106337364
 20
331.3370929371556
 30
0.0
 11
406.6166811224393
 21
330.2747224484528
 31
0.0
  0
LINE
  5
6EC
330
18
100
AcDbEntity
  8
外形線
100
AcDbLine
 10
405.511680959621
 20
330.2585193349873
 30
0.0
 11
406.5924194461533
 21
331.3392578215198
 31
0.0
  0
CIRCLE
  5
6ED
330
18
100
AcDbEntity
  8
外形線
100
AcDbCircle
 10
406.0722825977628
 20
330.8191209731291
 30
0.0
 40
1.25
  0
LINE
  5
6F0
330
18
100
AcDbEntity
  8
外形線
100
AcDbLine
 10
425.0722825977629
 20
335.8191209731291
 30
0.0
 11
428.072282597763
 21
335.8191209731291
 31
0.0
  0
LINE
  5
6F3
330
18
100
AcDbEntity
  8
外形線
100
AcDbLine
 10
421.5543106337366
 20
331.3370929371554
 30
0.0
 11
422.6166811224394
 21
330.2747224484527
 31
0.0
  0
LINE
  5
6F4
330
18
100
AcDbEntity
  8
外形線
100
AcDbLine
 10
421.5116809596211
 20
330.2585193349872
 30
0.0
 11
422.5924194461535
 21
331.3392578215196
 31
0.0
  0
CIRCLE
  5
6F5
330
18
100
AcDbEntity
  8
外形線
100
AcDbCircle
 10
422.072282597763
 20
330.8191209731291
 30
0.0
 40
1.25
  0
LINE
  5
6F6
330
18
100
AcDbEntity
  8
隠れ線2
100
AcDbLine
 10
419.6722825977629
 20
339.7191209731291
 30
0.0
 11
424.072282597763
 21
339.7191209731291
 31
0.0
  0
LINE
  5
6F7
330
18
100
AcDbEntity
  8
隠れ線2
100
AcDbLine
 10
419.6722825977629
 20
341.9191209731291
 30
0.0
 11
424.072282597763
 21
341.9191209731291
 31
0.0
  0
LINE
  5
6F8
330
18
100
AcDbEntity
  8
隠れ線2
100
AcDbLine
 10
419.6722825977629
 20
339.3191209731291
 30
0.0
 11
424.072282597763
 21
339.3191209731291
 31
0.0
  0
LINE
  5
6F9
330
18
100
AcDbEntity
  8
隠れ線2
100
AcDbLine
 10
419.6722825977629
 20
342.3191209731291
 30
0.0
 11
424.072282597763
 21
342.3191209731291
 31
0.0
  0
CIRCLE
  5
6FA
330
18
100
AcDbEntity
  8
外形線
100
AcDbCircle
 10
406.072282597763
 20
350.819120973129
 30
0.0
 40
1.25
  0
ARC
  5
6FD
330
18
100
AcDbEntity
  8
外形線
100
AcDbCircle
 10
414.0722825977629
 20
345.8191209731291
 30
0.0
 40
3.5
100
AcDbArc
 50
0.0
 51
180.0
  0
LINE
  5
6FF
330
18
100
AcDbEntity
  8
外形線
100
AcDbLine
 10
405.5543106337366
 20
351.3370929371554
 30
0.0
 11
406.6166811224395
 21
350.2747224484527
 31
0.0
  0
LINE
  5
700
330
18
100
AcDbEntity
  8
外形線
100
AcDbLine
 10
405.5116809596212
 20
350.2585193349872
 30
0.0
 11
406.5924194461535
 21
351.3392578215197
 31
0.0
  0
CIRCLE
  5
702
330
18
100
AcDbEntity
  8
外形線
100
AcDbCircle
 10
422.0722825977629
 20
350.819120973129
 30
0.0
 40
1.25
  0
LINE
  5
704
330
18
100
AcDbEntity
  8
外形線
100
AcDbLine
 10
425.0722825977629
 20
341.6191209731291
 30
0.0
 11
428.072282597763
 21
341.6191209731291
 31
0.0
  0
LINE
  5
705
330
18
100
AcDbEntity
  8
外形線
100
AcDbLine
 10
425.0722825977629
 20
342.3191209731292
 30
0.0
 11
428.072282597763
 21
342.3191209731291
 31
0.0
  0
LINE
  5
706
330
18
100
AcDbEntity
  8
外形線
100
AcDbLine
 10
425.0722825977629
 20
343.0191209731291
 30
0.0
 11
428.072282597763
 21
343.0191209731291
 31
0.0
  0
LINE
  5
707
330
18
100
AcDbEntity
  8
外形線
100
AcDbLine
 10
425.0722825977629
 20
343.7191209731292
 30
0.0
 11
428.072282597763
 21
343.7191209731291
 31
0.0
  0
LINE
  5
708
330
18
100
AcDbEntity
  8
外形線
100
AcDbLine
 10
425.0722825977629
 20
344.4191209731291
 30
0.0
 11
428.072282597763
 21
344.4191209731291
 31
0.0
  0
LINE
  5
709
330
18
100
AcDbEntity
  8
外形線
100
AcDbLine
 10
425.0722825977629
 20
345.1191209731292
 30
0.0
 11
428.072282597763
 21
345.1191209731291
 31
0.0
  0
LINE
  5
70A
330
18
100
AcDbEntity
  8
外形線
100
AcDbLine
 10
425.0722825977629
 20
345.8191209731291
 30
0.0
 11
428.072282597763
 21
345.8191209731291
 31
0.0
  0
LINE
  5
70B
330
18
100
AcDbEntity
  8
外形線
100
AcDbLine
 10
424.072282597763
 20
339.7191209731291
 30
0.0
 11
425.0722825977629
 21
339.7191209731291
 31
0.0
  0
LINE
  5
70C
330
18
100
AcDbEntity
  8
外形線
100
AcDbLine
 10
424.072282597763
 20
341.9191209731291
 30
0.0
 11
425.0722825977629
 21
341.9191209731291
 31
0.0
  0
LINE
  5
70D
330
18
100
AcDbEntity
  8
外形線
100
AcDbLine
 10
424.072282597763
 20
339.3191209731291
 30
0.0
 11
425.0722825977629
 21
339.3191209731291
 31
0.0
  0
LINE
  5
70E
330
18
100
AcDbEntity
  8
外形線
100
AcDbLine
 10
424.072282597763
 20
342.3191209731291
 30
0.0
 11
425.0722825977629
 21
342.3191209731291
 31
0.0
  0
LINE
  5
710
330
18
100
AcDbEntity
  8
外形線
100
AcDbLine
 10
421.5116809596209
 20
350.2585193349871
 30
0.0
 11
422.5924194461534
 21
351.3392578215196
 31
0.0
  0
LINE
  5
711
330
18
100
AcDbEntity
  8
外形線
100
AcDbLine
 10
421.5543106337364
 20
351.3370929371554
 30
0.0
 11
422.6166811224392
 21
350.2747224484526
 31
0.0
  0
CIRCLE
  5
73F
330
18
100
AcDbEntity
  8
外形線
100
AcDbCircle
 10
414.0722825977629
 20
314.319120973129
 30
0.0
 40
9.0
  0
CIRCLE
  5
740
330
18
100
AcDbEntity
  8
外形線
100
AcDbCircle
 10
414.0722825977629
 20
314.319120973129
 30
0.0
 40
10.0
  0
TEXT
  5
741
330
18
100
AcDbEntity
  8
文字
100
AcDbText
 10
412.1395459106659
 20
387.945419882461
 30
0.0
 40
2.0
  1
50
  7
STYLE3
100
AcDbText
  0
TEXT
  5
742
330
18
100
AcDbEntity
  8
文字
100
AcDbText
 10
412.1395459106659
 20
377.9454198824609
 30
0.0
 40
2.0
  1
40
  7
STYLE3
100
AcDbText
  0
TEXT
  5
743
330
18
100
AcDbEntity
  8
文字
100
AcDbText
 10
412.1395459106659
 20
357.945419882461
 30
0.0
 40
2.0
  1
20
  7
STYLE3
100
AcDbText
  0
TEXT
  5
744
330
18
100
AcDbEntity
  8
文字
100
AcDbText
 10
412.1395459106659
 20
367.9454198824609
 30
0.0
 40
2.0
  1
30
  7
STYLE3
100
AcDbText
  0
LINE
  5
74B
330
18
100
AcDbEntity
  8
文字
100
AcDbLine
 10
413.1887667982584
 20
349.2057712107571
 30
0.0
 11
413.1887667982584
 21
347.9461498763786
 31
0.0
  0
ELLIPSE
  5
74C
330
18
100
AcDbEntity
  8
文字
100
AcDbEllipse
 10
414.998097457515
 20
348.9456069074007
 30
0.0
 11
0.0
 21
1.02885251564794
 31
0.0
210
0.0
220
0.0
230
1.0
 40
0.643387103357667
 41
1.213187748726643
 42
4.705252191600084
  0
ELLIPSE
  5
74D
330
18
100
AcDbEntity
  8
外形線
 62
     4
100
AcDbEllipse
 10
414.998097457515
 20
348.9456069074007
 30
0.0
 11
0.0
 21
1.02885251564794
 31
0.0
210
0.0
220
0.0
230
1.0
 40
0.643387103357667
 41
4.705252191600084
 42
7.496373055906161
  0
LINE
  5
74E
330
18
100
AcDbEntity
  8
外形線
 62
     4
100
AcDbLine
 10
413.1887667982584
 20
349.9377152321689
 30
0.0
 11
413.1887667982585
 21
349.2057712107571
 31
0.0
  0
LINE
  5
74F
330
18
100
AcDbEntity
  8
外形線
 62
     4
100
AcDbLine
 10
412.7180462011012
 20
349.5702680464967
 30
0.0
 11
412.9239863896434
 21
349.6658038662371
 31
0.0
  0
LINE
  5
750
330
18
100
AcDbEntity
  8
外形線
 62
     4
100
AcDbLine
 10
412.9239863896434
 20
349.6658038662371
 30
0.0
 11
413.1887667982584
 21
349.9377152321689
 31
0.0
  0
LINE
  5
76A
330
18
100
AcDbEntity
  8
外形線
100
AcDbLine
 10
424.072282597763
 20
340.8191209731291
 30
0.0
 11
404.0722825977629
 21
340.8191209731291
 31
0.0
  0
CIRCLE
  5
76D
330
18
100
AcDbEntity
  8
外形線
100
AcDbCircle
 10
414.0722825977629
 20
339.3191209731291
 30
0.0
 40
0.75
  0
LINE
  5
76E
330
18
100
AcDbEntity
  8
中心線
100
AcDbLine
 10
424.072282597763
 20
340.8191209731291
 30
0.0
 11
431.2078103694306
 21
340.8191209731291
 31
0.0
  0
LINE
  5
771
330
18
100
AcDbEntity
  8
外形線
100
AcDbLine
 10
468.0724129263041
 20
326.2239306623709
 30
0.0
 11
468.0724129263039
 21
322.8191209718224
 31
0.0
  0
LINE
  5
772
330
18
100
AcDbEntity
  8
外形線
100
AcDbLine
 10
460.0724129263041
 20
326.2238907075931
 30
0.0
 11
460.072412926304
 21
322.8191209718224
 31
0.0
  0
LINE
  5
773
330
18
100
AcDbEntity
  8
想像線
 48
0.5
100
AcDbLine
 10
457.0722825977627
 20
326.919120973129
 30
0.0
 11
479.0722825977627
 21
326.9191209731291
 31
0.0
  0
LINE
  5
774
330
18
100
AcDbEntity
  8
想像線
100
AcDbLine
 10
475.3335082533937
 20
318.58034662876
 30
0.0
 11
476.8111127751951
 21
320.0579511505613
 31
0.0
  0
LINE
  5
775
330
18
100
AcDbEntity
  8
想像線
100
AcDbLine
 10
475.3230959070447
 20
320.0683076638473
 30
0.0
 11
476.8485952335793
 21
318.5428083373126
 31
0.0
  0
CIRCLE
  5
776
330
18
100
AcDbEntity
  8
想像線
100
AcDbCircle
 10
476.0722825977627
 20
319.3191209731289
 30
0.0
 40
1.5
  0
LINE
  5
777
330
18
100
AcDbEntity
  8
想像線
 48
0.5
100
AcDbLine
 10
479.0722825977627
 20
326.9191209731291
 30
0.0
 11
479.0722825977629
 21
316.919120973129
 31
0.0
  0
LINE
  5
779
330
18
100
AcDbEntity
  8
想像線
 48
0.5
100
AcDbLine
 10
473.0722825977629
 20
316.919120973129
 30
0.0
 11
479.0722825977629
 21
316.919120973129
 31
0.0
  0
LINE
  5
77A
330
18
100
AcDbEntity
  8
想像線
100
AcDbLine
 10
475.3335082533937
 20
323.5803466287602
 30
0.0
 11
476.8111127751951
 21
325.0579511505614
 31
0.0
  0
LINE
  5
77B
330
18
100
AcDbEntity
  8
想像線
100
AcDbLine
 10
475.3230959070447
 20
325.0683076638472
 30
0.0
 11
476.8485952335793
 21
323.5428083373126
 31
0.0
  0
CIRCLE
  5
77C
330
18
100
AcDbEntity
  8
想像線
100
AcDbCircle
 10
476.0722825977629
 20
324.319120973129
 30
0.0
 40
1.5
  0
LINE
  5
77D
330
18
100
AcDbEntity
  8
中心線
100
AcDbLine
 10
473.9094810903877
 20
324.319120973129
 30
0.0
 11
478.2350841051381
 21
324.319120973129
 31
0.0
  0
LINE
  5
77E
330
18
100
AcDbEntity
  8
中心線
100
AcDbLine
 10
473.7080515372656
 20
319.319120973129
 30
0.0
 11
478.4889814458413
 21
319.319120973129
 31
0.0
  0
LINE
  5
77F
330
18
100
AcDbEntity
  8
想像線
 48
0.5
100
AcDbLine
 10
473.0722825977627
 20
326.919120973129
 30
0.0
 11
473.0722825977629
 21
291.919120973129
 31
0.0
  0
LINE
  5
780
330
18
100
AcDbEntity
  8
外形線
100
AcDbLine
 10
460.072412926304
 20
322.8191209718224
 30
0.0
 11
468.072412926304
 21
322.8191209718224
 31
0.0
  0
LINE
  5
781
330
18
100
AcDbEntity
  8
外形線
100
AcDbLine
 10
466.0724129263041
 20
322.8191209718224
 30
0.0
 11
466.0724129263041
 21
315.8191209718224
 31
0.0
  0
LINE
  5
782
330
18
100
AcDbEntity
  8
外形線
100
AcDbLine
 10
462.0724129263042
 20
322.8191209718224
 30
0.0
 11
462.0724129263042
 21
315.8191209718224
 31
0.0
  0
LINE
  5
783
330
18
100
AcDbEntity
  8
外形線
100
AcDbLine
 10
467.2724129263039
 20
315.8191209718224
 30
0.0
 11
467.2724129263041
 21
313.3191209718224
 31
0.0
  0
LINE
  5
784
330
18
100
AcDbEntity
  8
外形線
100
AcDbLine
 10
460.8724129263042
 20
315.8191209718224
 30
0.0
 11
460.8724129263042
 21
313.3191209718225
 31
0.0
  0
LINE
  5
785
330
18
100
AcDbEntity
  8
想像線
 48
0.5
100
AcDbLine
 10
457.0722825977627
 20
291.919120973129
 30
0.0
 11
473.0722825977629
 21
291.919120973129
 31
0.0
  0
LINE
  5
786
330
18
100
AcDbEntity
  8
想像線
 48
0.5
100
AcDbLine
 10
457.0722825977627
 20
326.919120973129
 30
0.0
 11
457.0722825977627
 21
291.919120973129
 31
0.0
  0
LINE
  5
787
330
18
100
AcDbEntity
  8
外形線
100
AcDbLine
 10
461.322328714569
 20
307.6191761116651
 30
0.0
 11
461.3221021434124
 21
296.3191761139364
 31
0.0
  0
LINE
  5
788
330
18
100
AcDbEntity
  8
外形線
100
AcDbLine
 10
466.8223287134634
 20
307.6190658336685
 30
0.0
 11
466.8221021423069
 21
296.3190658359398
 31
0.0
  0
CIRCLE
  5
789
330
18
100
AcDbEntity
  8
外形線
100
AcDbCircle
 10
464.0722825977629
 20
305.319120973129
 30
0.0
 40
1.25
  0
LINE
  5
78A
330
18
100
AcDbEntity
  8
外形線
100
AcDbLine
 10
460.5723287147197
 20
307.6191911495739
 30
0.0
 11
460.5721121688354
 21
296.8191911517445
 31
0.0
  0
LINE
  5
78B
330
18
100
AcDbEntity
  8
外形線
100
AcDbLine
 10
467.5723287133125
 20
307.6190507957599
 30
0.0
 11
467.5721121674286
 21
296.8190507979306
 31
0.0
  0
LINE
  5
78C
330
18
100
AcDbEntity
  8
外形線
100
AcDbLine
 10
461.0721021434625
 20
296.3191811265725
 30
0.0
 11
460.5721121688354
 21
296.8191911517445
 31
0.0
  0
LINE
  5
78D
330
18
100
AcDbEntity
  8
外形線
100
AcDbLine
 10
461.0721021434625
 20
296.3191811265725
 30
0.0
 11
467.0721021422566
 21
296.3190608233036
 31
0.0
  0
LINE
  5
78E
330
18
100
AcDbEntity
  8
外形線
100
AcDbLine
 10
466.8221121675794
 20
296.8190658358393
 30
0.0
 11
467.5721121674286
 21
296.8190507979306
 31
0.0
  0
LINE
  5
78F
330
18
100
AcDbEntity
  8
外形線
100
AcDbLine
 10
467.0721021422566
 20
296.3190608233036
 30
0.0
 11
467.5721121674286
 21
296.8190507979306
 31
0.0
  0
LINE
  5
790
330
18
100
AcDbEntity
  8
外形線
100
AcDbLine
 10
467.5721121674286
 20
296.8190507979306
 30
0.0
 11
467.0721021422566
 21
296.3190608233036
 31
0.0
  0
LINE
  5
791
330
18
100
AcDbEntity
  8
中心線
100
AcDbLine
 10
462.0839870616464
 20
299.3191608383316
 30
0.0
 11
465.769119102981
 21
299.3190869494265
 31
0.0
  0
LINE
  5
792
330
18
100
AcDbEntity
  8
外形線
100
AcDbLine
 10
463.5032135410274
 20
298.7501950358762
 30
0.0
 11
464.565010694138
 21
299.8119496106176
 31
0.0
  0
LINE
  5
793
330
18
100
AcDbEntity
  8
外形線
100
AcDbLine
 10
463.5680282764167
 20
299.823275209141
 30
0.0
 11
464.5755428127158
 21
298.815720269601
 31
0.0
  0
CIRCLE
  5
794
330
18
100
AcDbEntity
  8
外形線
100
AcDbCircle
 10
464.072162294494
 20
299.3191209743351
 30
0.0
 40
1.25
  0
LINE
  5
795
330
18
100
AcDbEntity
  8
外形線
100
AcDbLine
 10
460.5721121688354
 20
296.8191911517445
 30
0.0
 11
461.3221121686847
 21
296.8191761138358
 31
0.0
  0
LINE
  5
796
330
18
100
AcDbEntity
  8
外形線
100
AcDbLine
 10
462.3224229519284
 20
312.3191560601753
 30
0.0
 11
460.5723287147196
 21
307.6191911495736
 31
0.0
  0
LINE
  5
797
330
18
100
AcDbEntity
  8
外形線
100
AcDbLine
 10
465.8224229512249
 20
312.3190858832684
 30
0.0
 11
467.5723287133124
 21
307.6190507957599
 31
0.0
  0
ARC
  5
798
330
18
100
AcDbEntity
  8
外形線
100
AcDbCircle
 10
464.0723993921866
 20
311.1441209719581
 30
0.0
 40
0.375
100
AcDbArc
 50
41.80916608419315
 51
138.1885362926159
  0
LINE
  5
799
330
18
100
AcDbEntity
  8
中心線
100
AcDbLine
 10
462.0841073649154
 20
305.3191608371257
 30
0.0
 11
465.7692394062499
 21
305.3190869482204
 31
0.0
  0
LINE
  5
79A
330
18
100
AcDbEntity
  8
外形線
100
AcDbLine
 10
463.5033338442965
 20
304.7501950346702
 30
0.0
 11
464.5651309974068
 21
305.8119496094116
 31
0.0
  0
LINE
  5
79B
330
18
100
AcDbEntity
  8
外形線
100
AcDbLine
 10
463.5681485796858
 20
305.823275207935
 30
0.0
 11
464.5756631159845
 21
304.8157202683951
 31
0.0
  0
LINE
  5
79C
330
18
100
AcDbEntity
  8
外形線
100
AcDbLine
 10
463.7928959076914
 20
311.3941265762055
 30
0.0
 11
461.3223287145689
 21
307.6191761116649
 31
0.0
  0
LINE
  5
79D
330
18
100
AcDbEntity
  8
外形線
100
AcDbLine
 10
460.5723287147196
 20
307.6191911495736
 30
0.0
 11
461.3223287145689
 21
307.6191761116649
 31
0.0
  0
LINE
  5
79E
330
18
100
AcDbEntity
  8
外形線
100
AcDbLine
 10
464.3519129019542
 20
311.3941153676103
 30
0.0
 11
466.8223287134634
 21
307.6190658336685
 31
0.0
  0
LINE
  5
79F
330
18
100
AcDbEntity
  8
外形線
100
AcDbLine
 10
466.8223287134634
 20
307.6190658336685
 30
0.0
 11
467.5723287133125
 21
307.6190507957597
 31
0.0
  0
ARC
  5
7A0
330
18
100
AcDbEntity
  8
外形線
100
AcDbCircle
 10
464.0724129263043
 20
311.8191209718224
 30
0.0
 40
1.5
100
AcDbArc
 50
19.47007182289408
 51
160.527630553915
  0
LINE
  5
7A1
330
18
100
AcDbEntity
  8
外形線
100
AcDbLine
 10
462.3224229519284
 20
312.3191560601753
 30
0.0
 11
465.8224229512249
 21
312.3190858832684
 31
0.0
  0
LINE
  5
7A2
330
18
100
AcDbEntity
  8
外形線
100
AcDbLine
 10
460.8724129263042
 20
313.3191209718225
 30
0.0
 11
467.2724129263043
 21
313.3191209718224
 31
0.0
  0
LINE
  5
7A3
330
18
100
AcDbEntity
  8
外形線
100
AcDbLine
 10
460.872412926304
 20
315.8191209718224
 30
0.0
 11
467.2724129263039
 21
315.8191209718224
 31
0.0
  0
LINE
  5
829
330
18
100
AcDbEntity
  8
外形線
100
AcDbLine
 10
419.572282597763
 20
411.319120973129
 30
0.0
 11
419.572282597763
 21
353.3191209731292
 31
0.0
  0
LINE
  5
82A
330
18
100
AcDbEntity
  8
外形線
100
AcDbLine
 10
408.5722825977629
 20
411.319120973129
 30
0.0
 11
408.5722825977629
 21
353.3191209731291
 31
0.0
  0
LINE
  5
82B
330
18
100
AcDbEntity
  8
隠れ線2
100
AcDbLine
 10
419.572282597763
 20
353.3191209731292
 30
0.0
 11
419.572282597763
 21
328.3191209731289
 31
0.0
  0
LINE
  5
82C
330
18
100
AcDbEntity
  8
隠れ線2
100
AcDbLine
 10
408.5722825977629
 20
353.3191209731291
 30
0.0
 11
408.5722825977629
 21
328.319120973129
 31
0.0
  0
LINE
  5
988
330
18
100
AcDbEntity
  8
中心線
 48
0.5
100
AcDbLine
 10
436.1876275249483
 20
352.2802058700238
 30
0.0
 11
491.5000127507827
 21
352.3334821003667
 31
0.0
  0
TEXT
  5
989
330
18
100
AcDbEntity
  8
文字
100
AcDbText
 10
469.3957169797372
 20
351.9324170853323
 30
0.0
 40
1.0
  1
0.01mm
 50
0.030000000000189
  7
STYLE3
100
AcDbText
  0
LINE
  5
98A
330
18
100
AcDbEntity
  8
目盛
100
AcDbLine
 10
453.6412327228775
 20
331.8205064221978
 30
0.0
 11
455.0018044456886
 21
334.4942387549279
 31
0.0
  0
LINE
  5
98B
330
18
100
AcDbEntity
  8
目盛
100
AcDbLine
 10
453.0025027732183
 20
332.1582684456168
 30
0.0
 11
453.9650923231787
 21
333.9113860567048
 31
0.0
  0
TEXT
  5
98C
330
18
100
AcDbEntity
  8
文字
100
AcDbText
 10
451.5792257373463
 20
336.8453468640863
 30
0.0
 40
2.0
  1
.2
 50
0.030000000000189
  7
STYLE3
100
AcDbText
  0
LINE
  5
98D
330
18
100
AcDbEntity
  8
目盛
100
AcDbLine
 10
452.9813964513652
 20
372.4683702020121
 30
0.0
 11
453.9458213336608
 21
370.7162615734136
 31
0.0
  0
TEXT
  5
98E
330
18
100
AcDbEntity
  8
文字
100
AcDbText
 10
451.7034524659942
 20
365.7282105066788
 30
0.0
 40
2.0
  1
.8
 50
0.030000000000189
  7
STYLE3
100
AcDbText
  0
LINE
  5
98F
330
18
100
AcDbEntity
  8
目盛
100
AcDbLine
 10
453.6197723473028
 20
372.8068009165494
 30
0.0
 11
454.9831432495369
 21
370.1344948369727
 31
0.0
  0
CIRCLE
  5
990
330
18
100
AcDbEntity
  8
外形線
100
AcDbCircle
 10
464.0722825977629
 20
352.319120973129
 30
0.0
 40
15.5
  0
CIRCLE
  5
991
330
18
100
AcDbEntity
  8
外形線
100
AcDbCircle
 10
464.0722825977629
 20
352.319120973129
 30
0.0
 40
23.0
  0
TEXT
  5
992
330
18
100
AcDbEntity
  8
文字
100
AcDbText
 10
444.7745374463765
 20
351.4051616738432
 30
0.0
 40
2.0
  1
.5
 50
0.030000000000189
  7
STYLE3
100
AcDbText
  0
LINE
  5
993
330
18
100
AcDbEntity
  8
目盛
100
AcDbLine
 10
449.4208119579647
 20
334.5896424672301
 30
0.0
 11
450.6948528831645
 21
336.1313362503517
 31
0.0
  0
LINE
  5
994
330
18
100
AcDbEntity
  8
目盛
100
AcDbLine
 10
451.154327021488
 20
333.2895013308611
 30
0.0
 11
452.2776275063814
 21
334.9442508649715
 31
0.0
  0
LINE
  5
995
330
18
100
AcDbEntity
  8
目盛
100
AcDbLine
 10
449.9849379522082
 20
334.1381770802129
 30
0.0
 11
451.2099244431261
 21
335.7191287230752
 31
0.0
  0
LINE
  5
996
330
18
100
AcDbEntity
  8
目盛
100
AcDbLine
 10
450.5629664548315
 20
333.704654089806
 30
0.0
 11
452.3250511691271
 21
336.132628031109
 31
0.0
  0
LINE
  5
997
330
18
100
AcDbEntity
  8
目盛
100
AcDbLine
 10
452.3746973597747
 20
332.5159267964311
 30
0.0
 11
453.3918786848172
 21
334.2379436813614
 31
0.0
  0
LINE
  5
998
330
18
100
AcDbEntity
  8
目盛
100
AcDbLine
 10
451.7584360506949
 20
332.8931285090293
 30
0.0
 11
452.8292053156572
 21
334.5823452450379
 31
0.0
  0
LINE
  5
999
330
18
100
AcDbEntity
  8
目盛
100
AcDbLine
 10
441.357337782533
 20
348.7092342656187
 30
0.0
 11
444.320156671476
 21
349.1800890535548
 31
0.0
  0
LINE
  5
99A
330
18
100
AcDbEntity
  8
目盛
100
AcDbLine
 10
441.2551569549264
 20
349.4245091858595
 30
0.0
 11
443.2392548369121
 21
349.6762145586654
 31
0.0
  0
LINE
  5
99B
330
18
100
AcDbEntity
  8
目盛
100
AcDbLine
 10
441.1754938755836
 20
350.1426407384639
 30
0.0
 11
443.1665189818602
 21
350.3318998893043
 31
0.0
  0
LINE
  5
99C
330
18
100
AcDbEntity
  8
目盛
100
AcDbLine
 10
441.1184271623473
 20
350.8629202142899
 30
0.0
 11
443.1144145915139
 21
350.9895463672322
 31
0.0
  0
LINE
  5
99D
330
18
100
AcDbEntity
  8
目盛
100
AcDbLine
 10
441.0840131331731
 20
351.5846367844559
 30
0.0
 11
443.0829930866157
 21
351.6485049747753
 31
0.0
  0
LINE
  5
99E
330
18
100
AcDbEntity
  8
目盛
100
AcDbLine
 10
441.0722857505533
 20
352.3070782018405
 30
0.0
 11
444.0722853393197
 21
352.3086489980956
 31
0.0
  0
LINE
  5
99F
330
18
100
AcDbEntity
  8
目盛
100
AcDbLine
 10
442.9687118617336
 20
343.1736684315972
 30
0.0
 11
444.8038049692145
 21
343.968925174339
 31
0.0
  0
LINE
  5
9A0
330
18
100
AcDbEntity
  8
目盛
100
AcDbLine
 10
447.3142503095888
 20
336.5657608925461
 30
0.0
 11
448.7714705085604
 21
337.9356182908575
 31
0.0
  0
LINE
  5
9A1
330
18
100
AcDbEntity
  8
目盛
100
AcDbLine
 10
445.4719728411602
 20
338.7903192169338
 30
0.0
 11
447.898100200717
 21
340.5549455329593
 31
0.0
  0
LINE
  5
9A2
330
18
100
AcDbEntity
  8
目盛
100
AcDbLine
 10
446.3581567945086
 20
337.6490921038157
 30
0.0
 11
447.8985155600091
 21
338.9247467881038
 31
0.0
  0
LINE
  5
9A3
330
18
100
AcDbEntity
  8
目盛
100
AcDbLine
 10
446.8276943887497
 20
337.09991673961
 30
0.0
 11
448.327223798229
 21
338.4233258033944
 31
0.0
  0
LINE
  5
9A4
330
18
100
AcDbEntity
  8
目盛
100
AcDbLine
 10
445.0562010386239
 20
339.3812447124679
 30
0.0
 11
446.7097733481144
 21
340.5062774307863
 31
0.0
  0
LINE
  5
9A5
330
18
100
AcDbEntity
  8
目盛
100
AcDbLine
 10
444.2813489597575
 20
340.6008042964017
 30
0.0
 11
446.0022997108884
 21
341.6197883552476
 31
0.0
  0
LINE
  5
9A6
330
18
100
AcDbEntity
  8
目盛
100
AcDbLine
 10
443.5846026543425
 20
341.866610722669
 30
0.0
 11
446.2569087339191
 21
343.2299816249031
 31
0.0
  0
LINE
  5
9A7
330
18
100
AcDbEntity
  8
目盛
100
AcDbLine
 10
444.6591958127477
 20
339.9849383298623
 30
0.0
 11
446.3472903157923
 21
341.0574759510159
 31
0.0
  0
LINE
  5
9A8
330
18
100
AcDbEntity
  8
目盛
100
AcDbLine
 10
443.9230333688799
 20
341.2282348267315
 30
0.0
 11
445.6751419974785
 21
342.1926597090267
 31
0.0
  0
LINE
  5
9A9
330
18
100
AcDbEntity
  8
目盛
100
AcDbLine
 10
445.9061009037831
 20
338.2127450153815
 30
0.0
 11
447.4857688771727
 21
339.4393864030117
 31
0.0
  0
LINE
  5
9AA
330
18
100
AcDbEntity
  8
目盛
100
AcDbLine
 10
443.2663908064021
 20
342.5153019842765
 30
0.0
 11
445.0755987882596
 21
343.3678079833073
 31
0.0
  0
LINE
  5
9AB
330
18
100
AcDbEntity
  8
目盛
100
AcDbLine
 10
448.871145196349
 20
335.058604709027
 30
0.0
 11
450.1929832312545
 21
336.559519166775
 31
0.0
  0
LINE
  5
9AC
330
18
100
AcDbEntity
  8
目盛
100
AcDbLine
 10
447.8173443850738
 20
336.0471517099554
 30
0.0
 11
449.9375537171638
 21
338.169582483413
 31
0.0
  0
LINE
  5
9AD
330
18
100
AcDbEntity
  8
目盛
100
AcDbLine
 10
448.3364801220931
 20
335.5446009964889
 30
0.0
 11
449.7048107721513
 21
337.0032549075009
 31
0.0
  0
TEXT
  5
9AE
330
18
100
AcDbEntity
  8
文字
100
AcDbText
 10
448.4531603512374
 20
340.870888643887
 30
0.0
 40
2.0
  1
.3
 50
0.030000000000189
  7
STYLE3
100
AcDbText
  0
TEXT
  5
9AF
330
18
100
AcDbEntity
  8
文字
100
AcDbText
 10
445.62545495817
 20
345.8501818380704
 30
0.0
 40
2.0
  1
.4
 50
0.030000000000189
  7
STYLE3
100
AcDbText
  0
LINE
  5
9B0
330
18
100
AcDbEntity
  8
目盛
100
AcDbLine
 10
441.4819355182641
 20
347.9975218677311
 30
0.0
 11
443.446313525177
 21
348.3733130942876
 31
0.0
  0
LINE
  5
9B1
330
18
100
AcDbEntity
  8
目盛
100
AcDbLine
 10
442.4361072215155
 20
344.5168190635468
 30
0.0
 11
444.317513775972
 21
345.1952800991626
 31
0.0
  0
LINE
  5
9B2
330
18
100
AcDbEntity
  8
目盛
100
AcDbLine
 10
442.6918595935172
 20
343.8410603364319
 30
0.0
 11
444.5510268112776
 21
344.5782830004925
 31
0.0
  0
LINE
  5
9B3
330
18
100
AcDbEntity
  8
目盛
100
AcDbLine
 10
441.9888906808792
 20
345.8907618166009
 30
0.0
 11
443.9091856301736
 21
346.4497495693425
 31
0.0
  0
LINE
  5
9B4
330
18
100
AcDbEntity
  8
目盛
100
AcDbLine
 10
442.2017071424439
 20
345.2002777206628
 30
0.0
 11
445.0543908974854
 21
346.1288224927236
 31
0.0
  0
LINE
  5
9B5
330
18
100
AcDbEntity
  8
目盛
100
AcDbLine
 10
441.6288271991968
 20
347.2900743664078
 30
0.0
 11
443.5804320164634
 21
347.7273827669924
 31
0.0
  0
LINE
  5
9B6
330
18
100
AcDbEntity
  8
目盛
100
AcDbLine
 10
441.7978678609769
 20
346.587589926921
 30
0.0
 11
443.7347734902628
 21
347.0859839309392
 31
0.0
  0
LINE
  5
9B7
330
18
100
AcDbEntity
  8
目盛
100
AcDbLine
 10
451.1344063371018
 20
371.3352025322679
 30
0.0
 11
452.2594390554202
 21
369.6816302227775
 31
0.0
  0
LINE
  5
9B8
330
18
100
AcDbEntity
  8
目盛
100
AcDbLine
 10
452.3539659210357
 20
372.1100546111344
 30
0.0
 11
453.3729499798816
 21
370.3891038600036
 31
0.0
  0
LINE
  5
9B9
330
18
100
AcDbEntity
  8
目盛
100
AcDbLine
 10
450.5434808415681
 20
370.9194307297319
 30
0.0
 11
452.3081071575935
 21
368.493303370175
 31
0.0
  0
LINE
  5
9BA
330
18
100
AcDbEntity
  8
目盛
100
AcDbLine
 10
451.738099954496
 20
371.7322077581443
 30
0.0
 11
452.8106375756498
 21
370.0441132550995
 31
0.0
  0
LINE
  5
9BB
330
18
100
AcDbEntity
  8
目盛
100
AcDbLine
 10
441.1732272257965
 20
354.471622557708
 30
0.0
 11
443.1644494320543
 21
354.2844485068751
 31
0.0
  0
LINE
  5
9BC
330
18
100
AcDbEntity
  8
目盛
100
AcDbLine
 10
441.3535699735648
 20
355.9052186710592
 30
0.0
 11
444.3168803158516
 21
355.4374667974162
 31
0.0
  0
LINE
  5
9BD
330
18
100
AcDbEntity
  8
目盛
100
AcDbLine
 10
441.1169148186156
 20
353.7512837167076
 30
0.0
 11
443.113033755933
 21
353.6267478259618
 31
0.0
  0
LINE
  5
9BE
330
18
100
AcDbEntity
  8
目盛
100
AcDbLine
 10
441.252138235993
 20
355.1898371395187
 30
0.0
 11
443.2364986152772
 21
354.9402096467892
 31
0.0
  0
LINE
  5
9BF
330
18
100
AcDbEntity
  8
目盛
100
AcDbLine
 10
441.083256587998
 20
353.0295315039868
 30
0.0
 11
443.0823023279775
 21
352.9677566752166
 31
0.0
  0
LINE
  5
9C0
330
18
100
AcDbEntity
  8
目盛
100
AcDbLine
 10
443.5736680468316
 20
362.7501708480145
 30
0.0
 11
446.2474003795619
 21
361.3895991252034
 31
0.0
  0
LINE
  5
9C1
330
18
100
AcDbEntity
  8
目盛
100
AcDbLine
 10
443.2561356811468
 20
362.1011467114844
 30
0.0
 11
445.0662354130263
 21
361.2505357777143
 31
0.0
  0
TEXT
  5
9C2
330
18
100
AcDbEntity
  8
文字
100
AcDbText
 10
445.5502268882525
 20
356.9321439102879
 30
0.0
 40
2.0
  1
.6
 50
0.030000000000189
  7
STYLE3
100
AcDbText
  0
LINE
  5
9C3
330
18
100
AcDbEntity
  8
目盛
100
AcDbLine
 10
442.6829931139297
 20
360.774787438688
 30
0.0
 11
444.5429313299151
 21
360.0395120938568
 31
0.0
  0
LINE
  5
9C4
330
18
100
AcDbEntity
  8
目盛
100
AcDbLine
 10
441.9821710287163
 20
358.7243509352045
 30
0.0
 11
443.9030502955899
 21
358.1673744167631
 31
0.0
  0
LINE
  5
9C5
330
18
100
AcDbEntity
  8
目盛
100
AcDbLine
 10
442.4279485349152
 20
360.098761258891
 30
0.0
 11
444.3100645403803
 21
359.4222707992595
 31
0.0
  0
LINE
  5
9C6
330
18
100
AcDbEntity
  8
目盛
100
AcDbLine
 10
442.1942643004684
 20
359.4150575133788
 30
0.0
 11
445.0479188609851
 21
358.4895005733463
 31
0.0
  0
LINE
  5
9C7
330
18
100
AcDbEntity
  8
目盛
100
AcDbLine
 10
442.9591463393046
 20
361.4424688965489
 30
0.0
 11
444.7950712313445
 21
360.6491342945125
 31
0.0
  0
LINE
  5
9C8
330
18
100
AcDbEntity
  8
目盛
100
AcDbLine
 10
441.4774223376335
 20
356.6170611571265
 30
0.0
 11
443.4421927950361
 21
356.2433272280833
 31
0.0
  0
LINE
  5
9C9
330
18
100
AcDbEntity
  8
目盛
100
AcDbLine
 10
441.6235731008684
 20
357.324662095129
 30
0.0
 11
443.5756347962506
 21
356.8893976497377
 31
0.0
  0
LINE
  5
9CA
330
18
100
AcDbEntity
  8
目盛
100
AcDbLine
 10
441.7918780301111
 20
358.0273231683704
 30
0.0
 11
443.7293045142548
 21
357.5309577600884
 31
0.0
  0
LINE
  5
9CB
330
18
100
AcDbEntity
  8
目盛
100
AcDbLine
 10
446.8117663336606
 20
367.5202583745429
 30
0.0
 11
448.3126807914088
 21
366.1984203396373
 31
0.0
  0
LINE
  5
9CC
330
18
100
AcDbEntity
  8
目盛
100
AcDbLine
 10
447.2977626211227
 20
368.0549234487989
 30
0.0
 11
448.7564165321348
 21
366.6865927987406
 31
0.0
  0
LINE
  5
9CD
330
18
100
AcDbEntity
  8
目盛
100
AcDbLine
 10
446.3428040918643
 20
366.9705916129272
 30
0.0
 11
447.8844978749857
 21
365.6965506877273
 31
0.0
  0
LINE
  5
9CE
330
18
100
AcDbEntity
  8
目盛
100
AcDbLine
 10
445.4578157144399
 20
365.8284371160605
 30
0.0
 11
447.8857896557429
 21
364.0663524017651
 31
0.0
  0
LINE
  5
9CF
330
18
100
AcDbEntity
  8
目盛
100
AcDbLine
 10
444.2690884210651
 20
364.0167062111171
 30
0.0
 11
445.9911053059953
 21
362.9995248860748
 31
0.0
  0
LINE
  5
9D0
330
18
100
AcDbEntity
  8
目盛
100
AcDbLine
 10
445.042662955495
 20
365.237076549404
 30
0.0
 11
446.6974124896053
 21
364.1137760645105
 31
0.0
  0
LINE
  5
9D1
330
18
100
AcDbEntity
  8
目盛
100
AcDbLine
 10
445.8913387048469
 20
366.4064656186837
 30
0.0
 11
447.4722903477093
 21
365.1814791277659
 31
0.0
  0
LINE
  5
9D2
330
18
100
AcDbEntity
  8
目盛
100
AcDbLine
 10
443.9114300702506
 20
363.3889007976737
 30
0.0
 11
445.6645476813386
 21
362.4263112477135
 31
0.0
  0
LINE
  5
9D3
330
18
100
AcDbEntity
  8
目盛
100
AcDbLine
 10
444.6462901336633
 20
364.632967520197
 30
0.0
 11
446.3355068696719
 21
363.5621982552349
 31
0.0
  0
LINE
  5
9D4
330
18
100
AcDbEntity
  8
目盛
100
AcDbLine
 10
448.8530783642442
 20
369.5637091821424
 30
0.0
 11
450.1764874280286
 21
368.064179772663
 31
0.0
  0
LINE
  5
9D5
330
18
100
AcDbEntity
  8
目盛
100
AcDbLine
 10
449.9659066400156
 20
370.4853026671087
 30
0.0
 11
451.1925480276456
 21
368.9056346937192
 31
0.0
  0
LINE
  5
9D6
330
18
100
AcDbEntity
  8
目盛
100
AcDbLine
 10
449.4022537284497
 20
370.0332467763833
 30
0.0
 11
450.6779084127379
 21
368.4928880108828
 31
0.0
  0
LINE
  5
9D7
330
18
100
AcDbEntity
  8
目盛
100
AcDbLine
 10
447.8003133345894
 20
368.5740591858179
 30
0.0
 11
449.9227441080469
 21
366.453849853728
 31
0.0
  0
LINE
  5
9D8
330
18
100
AcDbEntity
  8
目盛
100
AcDbLine
 10
448.3189225171803
 20
369.0771532613034
 30
0.0
 11
449.6887799154917
 21
367.6199330623318
 31
0.0
  0
TEXT
  5
9D9
330
18
100
AcDbEntity
  8
文字
100
AcDbText
 10
448.0701548632578
 20
361.6532650397998
 30
0.0
 40
2.0
  1
.7
 50
0.030000000000189
  7
STYLE3
100
AcDbText
  0
TEXT
  5
9DA
330
18
100
AcDbEntity
  8
文字
100
AcDbText
 10
480.6917777686641
 20
351.3818914275454
 30
0.0
 40
2.0
  1
.5
 50
0.030000000000189
  7
STYLE3
100
AcDbText
  0
CIRCLE
  5
9DB
330
18
100
AcDbEntity
  8
外形線
100
AcDbCircle
 10
464.0722825977629
 20
352.319120973129
 30
0.0
 40
1.5
  0
LINE
  5
9DC
330
18
100
AcDbEntity
  8
中心線
 48
0.5
100
AcDbLine
 10
464.0494075927569
 20
396.0071584201427
 30
0.0
 11
464.10314016897
 21
293.3855064855695
 31
0.0
  0
LINE
  5
9DD
330
18
100
AcDbEntity
  8
目盛
100
AcDbLine
 10
479.825642678346
 20
335.5610886849547
 30
0.0
 11
478.4557852800345
 21
337.0183088839265
 31
0.0
  0
LINE
  5
9DE
330
18
100
AcDbEntity
  8
目盛
100
AcDbLine
 10
480.3442518609365
 20
336.0641827604401
 30
0.0
 11
478.221821087479
 21
338.1843920925299
 31
0.0
  0
LINE
  5
9DF
330
18
100
AcDbEntity
  8
目盛
100
AcDbLine
 10
479.2914868312816
 20
335.0745327641156
 30
0.0
 11
477.9680777674975
 21
336.5740621735951
 31
0.0
  0
LINE
  5
9E0
330
18
100
AcDbEntity
  8
目盛
100
AcDbLine
 10
478.7423114670763
 20
334.6049951698751
 30
0.0
 11
477.4666567827884
 21
336.1453539353752
 31
0.0
  0
TEXT
  5
9E1
330
18
100
AcDbEntity
  8
文字
100
AcDbText
 10
477.1493815671907
 20
340.86925245625
 30
0.0
 40
2.0
  1
.7
 50
0.030000000000189
  7
STYLE3
100
AcDbText
  0
LINE
  5
9E2
330
18
100
AcDbEntity
  8
目盛
100
AcDbLine
 10
477.6010843539581
 20
333.7188112165264
 30
0.0
 11
475.8364580379325
 21
336.1449385760831
 31
0.0
  0
LINE
  5
9E3
330
18
100
AcDbEntity
  8
目盛
100
AcDbLine
 10
477.010158858424
 20
333.30303941399
 30
0.0
 11
475.8851261401056
 21
334.9566117234804
 31
0.0
  0
LINE
  5
9E4
330
18
100
AcDbEntity
  8
目盛
100
AcDbLine
 10
478.1786585555105
 20
334.1529392791493
 30
0.0
 11
476.9520171678802
 21
335.7326072525389
 31
0.0
  0
TEXT
  5
9E5
330
18
100
AcDbEntity
  8
文字
100
AcDbText
 10
463.1482252426847
 20
333.4573390285783
 30
0.0
 40
2.0
  1
0
 50
0.030000000000189
  7
STYLE3
100
AcDbText
  0
LINE
  5
9E6
330
18
100
AcDbEntity
  8
中心線
 48
0.2
100
AcDbLine
 10
461.154525418427
 20
350.1108003551224
 30
0.0
 11
461.1627404702711
 21
334.4212084837823
 31
0.0
  0
TEXT
  5
9E7
330
18
100
AcDbEntity
  8
文字
100
AcDbText
 10
456.6521487756771
 20
334.2057309335082
 30
0.0
 40
2.0
  1
.1
 50
0.030000000000189
  7
STYLE3
100
AcDbText
  0
TEXT
  5
9E8
330
18
100
AcDbEntity
  8
文字
100
AcDbText
 10
468.322274783908
 20
334.7964709650966
 30
0.0
 40
2.0
  1
.9
 50
0.030000000000189
  7
STYLE3
100
AcDbText
  0
LINE
  5
9E9
330
18
100
AcDbEntity
  8
目盛
100
AcDbLine
 10
466.2487628324281
 20
329.4223322509497
 30
0.0
 11
466.0595036815876
 21
331.4133573572263
 31
0.0
  0
LINE
  5
9EA
330
18
100
AcDbEntity
  8
目盛
100
AcDbLine
 10
459.7743424137656
 20
329.7242607129996
 30
0.0
 11
460.1480763428088
 21
331.689031170402
 31
0.0
  0
LINE
  5
9EB
330
18
100
AcDbEntity
  8
目盛
100
AcDbLine
 10
459.0667414757628
 20
329.8704114762343
 30
0.0
 11
459.502005921154
 21
331.8224731716165
 31
0.0
  0
LINE
  5
9EC
330
18
100
AcDbEntity
  8
目盛
100
AcDbLine
 10
458.3640804025221
 20
330.0387164054772
 30
0.0
 11
458.8604458108037
 21
331.9761428896208
 31
0.0
  0
LINE
  5
9ED
330
18
100
AcDbEntity
  8
目盛
100
AcDbLine
 10
455.6166161322039
 20
330.9298314892956
 30
0.0
 11
456.3518914770353
 21
332.7897697052813
 31
0.0
  0
LINE
  5
9EE
330
18
100
AcDbEntity
  8
目盛
100
AcDbLine
 10
454.9489346743428
 20
331.2059847146706
 30
0.0
 11
455.7422692763794
 21
333.0419096067106
 31
0.0
  0
LINE
  5
9EF
330
18
100
AcDbEntity
  8
目盛
100
AcDbLine
 10
454.2902568594078
 20
331.5029740565127
 30
0.0
 11
455.1408677931777
 21
333.3130737883927
 31
0.0
  0
LINE
  5
9F0
330
18
100
AcDbEntity
  8
目盛
100
AcDbLine
 10
456.2926423120009
 20
330.6747869102812
 30
0.0
 11
456.9691327716325
 21
332.5569029157463
 31
0.0
  0
LINE
  5
9F1
330
18
100
AcDbEntity
  8
目盛
100
AcDbLine
 10
456.9763460575131
 20
330.4411026758347
 30
0.0
 11
457.9019029975459
 21
333.2947572363512
 31
0.0
  0
LINE
  5
9F2
330
18
100
AcDbEntity
  8
目盛
100
AcDbLine
 10
457.6670526356873
 20
330.2290094040823
 30
0.0
 11
458.2240291541287
 21
332.1498886709559
 31
0.0
  0
LINE
  5
9F3
330
18
100
AcDbEntity
  8
目盛
100
AcDbLine
 10
461.9197810131839
 20
329.4200656011625
 30
0.0
 11
462.1069550640169
 21
331.4112878074206
 31
0.0
  0
LINE
  5
9F4
330
18
100
AcDbEntity
  8
目盛
100
AcDbLine
 10
460.4861848998325
 20
329.6004083489309
 30
0.0
 11
460.9539367734758
 21
332.5637186912176
 31
0.0
  0
LINE
  5
9F5
330
18
100
AcDbEntity
  8
目盛
100
AcDbLine
 10
461.2015664313734
 20
329.4989766113589
 30
0.0
 11
461.451193924103
 21
331.4833369906434
 31
0.0
  0
LINE
  5
9F6
330
18
100
AcDbEntity
  8
目盛
100
AcDbLine
 10
462.6401198541846
 20
329.3637531939821
 30
0.0
 11
462.7646557449305
 21
331.359872131299
 31
0.0
  0
LINE
  5
9F7
330
18
100
AcDbEntity
  8
目盛
100
AcDbLine
 10
463.3618720669053
 20
329.3300949633642
 30
0.0
 11
463.4236468956755
 21
331.3291407033438
 31
0.0
  0
LINE
  5
9F8
330
18
100
AcDbEntity
  8
目盛
100
AcDbLine
 10
464.0827545727965
 20
332.3191237146858
 30
0.0
 11
464.0843253690517
 21
329.3191241259193
 31
0.0
  0
LINE
  5
9F9
330
18
100
AcDbEntity
  8
目盛
100
AcDbLine
 10
464.8067667864361
 20
329.3308515085393
 30
0.0
 11
464.7428985961166
 21
331.329831461982
 31
0.0
  0
LINE
  5
9FA
330
18
100
AcDbEntity
  8
目盛
100
AcDbLine
 10
465.5284833566021
 20
329.3652655377134
 30
0.0
 11
465.4018572036595
 21
331.36125296688
 31
0.0
  0
LINE
  5
9FB
330
18
100
AcDbEntity
  8
目盛
100
AcDbLine
 10
472.5503432344602
 20
330.938697968883
 30
0.0
 11
471.8131205703995
 21
332.7978651866437
 31
0.0
  0
LINE
  5
9FC
330
18
100
AcDbEntity
  8
目盛
100
AcDbLine
 10
467.6821693052731
 20
329.604176157899
 30
0.0
 11
467.211314517337
 21
332.5669950468421
 31
0.0
  0
LINE
  5
9FD
330
18
100
AcDbEntity
  8
目盛
100
AcDbLine
 10
468.3938817031611
 20
329.7287738936301
 30
0.0
 11
468.0180904766046
 21
331.6931519005432
 31
0.0
  0
LINE
  5
9FE
330
18
100
AcDbEntity
  8
目盛
100
AcDbLine
 10
471.8745845073451
 20
330.6829455968816
 30
0.0
 11
471.1961234717292
 21
332.564352151338
 31
0.0
  0
LINE
  5
9FF
330
18
100
AcDbEntity
  8
目盛
100
AcDbLine
 10
470.5006417542911
 20
330.2357290562453
 30
0.0
 11
469.9416540015495
 21
332.1560240055396
 31
0.0
  0
LINE
  5
A00
330
18
100
AcDbEntity
  8
目盛
100
AcDbLine
 10
471.1911258502294
 20
330.4485455178099
 30
0.0
 11
470.2625810781687
 21
333.3012292728514
 31
0.0
  0
LINE
  5
A01
330
18
100
AcDbEntity
  8
目盛
100
AcDbLine
 10
469.101329204484
 20
329.8756655745629
 30
0.0
 11
468.6640208038995
 21
331.8272703918296
 31
0.0
  0
LINE
  5
A02
330
18
100
AcDbEntity
  8
目盛
100
AcDbLine
 10
469.8038136439712
 20
330.0447062363431
 30
0.0
 11
469.305419639953
 21
331.9816118656288
 31
0.0
  0
LINE
  5
A03
330
18
100
AcDbEntity
  8
目盛
100
AcDbLine
 10
466.9668943850326
 20
329.5019953302922
 30
0.0
 11
466.7151890122267
 21
331.4860932122781
 31
0.0
  0
LINE
  5
A04
330
18
100
AcDbEntity
  8
目盛
100
AcDbLine
 10
475.7905992744902
 20
332.5281873351234
 30
0.0
 11
474.7716152156443
 21
334.2491380862544
 31
0.0
  0
LINE
  5
A05
330
18
100
AcDbEntity
  8
目盛
100
AcDbLine
 10
476.40646524103
 20
332.9060341881139
 30
0.0
 11
475.3339276198764
 21
334.5941286911586
 31
0.0
  0
LINE
  5
A06
330
18
100
AcDbEntity
  8
目盛
100
AcDbLine
 10
473.2177351392947
 20
331.2155502370996
 30
0.0
 11
472.4224783965529
 21
333.0506433445805
 31
0.0
  0
LINE
  5
A07
330
18
100
AcDbEntity
  8
目盛
100
AcDbLine
 10
473.8761015866153
 20
331.5132291817683
 30
0.0
 11
473.0235955875848
 21
333.3224371636257
 31
0.0
  0
LINE
  5
A08
330
18
100
AcDbEntity
  8
目盛
100
AcDbLine
 10
474.5247928482231
 20
331.8314410297086
 30
0.0
 11
473.1614219459889
 21
334.5037471092852
 31
0.0
  0
LINE
  5
A09
330
18
100
AcDbEntity
  8
目盛
100
AcDbLine
 10
475.1631687441606
 20
332.1698717442459
 30
0.0
 11
474.198743861865
 21
333.9219803728446
 31
0.0
  0
LINE
  5
A0A
330
18
100
AcDbEntity
  8
中心線
 48
0.2
100
AcDbLine
 10
454.1993683510484
 20
342.2439501464717
 30
0.0
 11
468.7273538075633
 21
342.2515569825638
 31
0.0
  0
CIRCLE
  5
A0B
330
18
100
AcDbEntity
  8
外形線
100
AcDbCircle
 10
461.1586425840155
 20
342.247594014272
 30
0.0
 40
4.75
  0
LINE
  5
A0C
330
18
100
AcDbEntity
  8
中心線
 48
0.2
100
AcDbLine
 10
461.3561576681338
 20
346.9934856893471
 30
0.0
 11
461.3580495940173
 21
343.3801737440758
 31
0.0
  0
LINE
  5
A0D
330
18
100
AcDbEntity
  8
中心線
 48
0.2
100
AcDbLine
 10
460.956157722965
 20
346.9932762498463
 30
0.0
 11
460.9580496488483
 21
343.3799643045751
 31
0.0
  0
HATCH
  5
A0E
330
18
100
AcDbEntity
  8
ﾊｯﾁﾝｸ
100
AcDbHatch
 10
0.0
 20
0.0
 30
0.0
210
0.0
220
0.0
230
1.0
  2
SOLID
 70
     1
 71
     0
 91
        3
 92
        7
 72
     1
 73
     1
 93
        5
 10
461.3561576681338
 20
346.9934856893471
 42
0.0105298176880202
 10
461.156155489945
 20
346.9975933631524
 42
0.0
 10
461.1564172893208
 20
346.4975934316913
 42
0.0
 10
461.1580404454509
 20
343.3975938566326
 42
-0.0437283108272093
 10
461.3580495940173
 20
343.3801737440758
 42
0.0
 97
        0
 92
        7
 72
     1
 73
     1
 93
        4
 10
461.1561554899453
 20
346.9975933631524
 42
0.0105298176880232
 10
460.956157722965
 20
346.9932762498463
 42
0.0
 10
460.9580496488483
 20
343.3799643045751
 42
-0.0437283108272093
 10
461.1580404454509
 20
343.3975938566326
 42
0.0
 97
        0
 92
      137
 93
        4
 72
     1
 10
460.5636689301392
 20
345.0250567960131
 11
461.7303354368816
 21
345.0256676612234
 72
     1
 10
461.7303354368819
 20
345.0256676612234
 11
461.7295500387542
 21
346.5256674556067
 72
     1
 10
461.7295500387544
 20
346.5256674556067
 11
460.5628835320119
 21
346.5250565903963
 72
     1
 10
460.5628835320118
 20
346.5250565903965
 11
460.5636689301394
 21
345.0250567960133
 97
        0
 75
     0
 76
     1
 47
0.0128177587452554
 98
        3
 10
461.3064634938503
 20
343.9314508930829
 10
461.228862554118
 20
345.1362801142311
 10
461.0492922985084
 20
345.0849149177281
450
        0
451
        0
460
0.0
461
0.0
452
        0
462
0.0
453
        0
470

  0
CIRCLE
  5
A0F
330
18
100
AcDbEntity
  8
外形線
100
AcDbCircle
 10
461.1586425840155
 20
342.247594014272
 30
0.0
 40
1.149999999999999
  0
LINE
  5
A10
330
18
100
AcDbEntity
  8
目盛
100
AcDbLine
 10
458.3686751197143
 20
338.4033019405424
 30
0.0
 11
458.6623559054301
 21
338.807964264093
 31
0.0
  0
TEXT
  5
A11
330
18
100
AcDbEntity
  8
文字
100
AcDbText
 10
458.9074750717921
 20
339.1749763673169
 30
0.0
 40
0.7
  1
8
 50
0.030000000000189
  7
STYLE3
100
AcDbText
  0
LINE
  5
A12
330
18
100
AcDbEntity
  8
目盛
100
AcDbLine
 10
456.640356196531
 20
343.7130591693238
 30
0.0
 11
457.1159652899504
 21
343.5587996793183
 31
0.0
  0
TEXT
  5
A13
330
18
100
AcDbEntity
  8
文字
100
AcDbText
 10
457.8028651947796
 20
343.0377818004652
 30
0.0
 40
0.7
  1
4
 50
0.030000000000189
  7
STYLE3
100
AcDbText
  0
LINE
  5
A14
330
18
100
AcDbEntity
  8
目盛
100
AcDbLine
 10
456.6418933051996
 20
340.7773981251759
 30
0.0
 11
457.1173405977065
 21
340.9321555871859
 31
0.0
  0
TEXT
  5
A15
330
18
100
AcDbEntity
  8
文字
100
AcDbText
 10
457.7298912063467
 20
340.9185797006148
 30
0.0
 40
0.7
  1
6
 50
0.030000000000189
  7
STYLE3
100
AcDbText
  0
LINE
  5
A16
330
18
100
AcDbEntity
  8
目盛
100
AcDbLine
 10
465.6753918628314
 20
343.7177899033685
 30
0.0
 11
465.1999445703245
 21
343.5630324413583
 31
0.0
  0
TEXT
  5
A17
330
18
100
AcDbEntity
  8
文字
100
AcDbText
 10
464.0527627727314
 20
342.932813030328
 30
0.0
 40
0.7
  1
6
 50
0.030000000000189
  7
STYLE3
100
AcDbText
  0
LINE
  5
A18
330
18
100
AcDbEntity
  8
目盛
100
AcDbLine
 10
465.6769289715002
 20
340.7821288592207
 30
0.0
 11
465.2013198780808
 21
340.936388349226
 31
0.0
  0
TEXT
  5
A19
330
18
100
AcDbEntity
  8
文字
100
AcDbText
 10
460.8277401846179
 20
338.5939241369744
 30
0.0
 40
0.7
  1
0
 50
0.030000000000189
  7
STYLE3
100
AcDbText
  0
TEXT
  5
A1A
330
18
100
AcDbEntity
  8
文字
100
AcDbText
 10
462.7287755993708
 20
339.269259982316
 30
0.0
 40
0.7
  1
2
 50
0.030000000000189
  7
STYLE3
100
AcDbText
  0
LINE
  5
A1B
330
18
100
AcDbEntity
  8
目盛
100
AcDbLine
 10
461.1611296780861
 20
337.4975946653918
 30
0.0
 11
461.1608678787103
 21
337.9975945968528
 31
0.0
  0
LINE
  5
A1C
330
18
100
AcDbEntity
  8
目盛
100
AcDbLine
 10
463.952634251056
 20
338.4062256949739
 30
0.0
 11
463.6585298650516
 21
338.8105802549
 31
0.0
  0
TEXT
  5
A1D
330
18
100
AcDbEntity
  8
文字
100
AcDbText
 10
464.057224788455
 20
340.7249216475179
 30
0.0
 40
0.7
  1
4
 50
0.030000000000189
  7
STYLE3
100
AcDbText
  0
LINE
  5
A1E
330
18
100
AcDbEntity
  8
目盛
100
AcDbLine
 10
458.3646509169752
 20
346.0889623335706
 30
0.0
 11
458.6587553029794
 21
345.6846077736445
 31
0.0
  0
TEXT
  5
A1F
330
18
100
AcDbEntity
  8
文字
100
AcDbText
 10
459.0527544562966
 20
344.5617702875034
 30
0.0
 40
0.7
  1
2
 50
0.030000000000189
  7
STYLE3
100
AcDbText
  0
TEXT
  5
A20
330
18
100
AcDbEntity
  8
文字
100
AcDbText
 10
462.7158877485211
 20
344.6240418084922
 30
0.0
 40
0.7
  1
8
 50
0.030000000000189
  7
STYLE3
100
AcDbText
  0
LINE
  5
A21
330
18
100
AcDbEntity
  8
目盛
100
AcDbLine
 10
463.9486100483166
 20
346.091886088002
 30
0.0
 11
463.6549292626008
 21
345.6872237644515
 31
0.0
  0
LINE
  5
A22
330
18
100
AcDbEntity
  8
目盛
100
AcDbLine
 10
461.156155489945
 20
346.9975933631524
 30
0.0
 11
461.1564172893208
 21
346.4975934316913
 31
0.0
  0
TEXT
  5
A23
330
18
100
AcDbEntity
  8
文字
100
AcDbText
 10
460.8221489599771
 20
345.3188099271495
 30
0.0
 40
0.7
  1
0
 50
0.030000000000189
  7
STYLE3
100
AcDbText
  0
POINT
  5
A24
330
18
100
AcDbEntity
  8
DEFPOINTS
  6
ByBlock
 62
     0
100
AcDbPoint
 10
464.0722825977631
 20
352.319120973129
 30
0.0
  0
POINT
  5
A25
330
18
100
AcDbEntity
  8
DEFPOINTS
  6
ByBlock
 62
     0
100
AcDbPoint
 10
464.0722825977631
 20
352.319120973129
 30
0.0
  0
TEXT
  5
A26
330
18
100
AcDbEntity
  8
文字
100
AcDbText
 10
473.1696015968122
 20
337.0640581675277
 30
0.0
 40
2.0
  1
.8
 50
0.030000000000189
  7
STYLE3
100
AcDbText
  0
LINE
  5
A27
330
18
100
AcDbEntity
  8
目盛
100
AcDbLine
 10
485.1854188562213
 20
343.1957730497089
 30
0.0
 11
483.3494939641813
 21
343.9891076517455
 31
0.0
  0
LINE
  5
A28
330
18
100
AcDbEntity
  8
目盛
100
AcDbLine
 10
484.8884295143793
 20
342.5370952347738
 30
0.0
 11
483.0783297824997
 21
343.3877061685437
 31
0.0
  0
LINE
  5
A29
330
18
100
AcDbEntity
  8
目盛
100
AcDbLine
 10
483.8754767744608
 20
340.6215357351408
 30
0.0
 11
482.1534598895304
 21
341.6387170601832
 31
0.0
  0
LINE
  5
A2A
330
18
100
AcDbEntity
  8
目盛
100
AcDbLine
 10
483.1019022400307
 20
339.401165396854
 30
0.0
 11
481.4471527059204
 21
340.5244658817474
 31
0.0
  0
LINE
  5
A2B
330
18
100
AcDbEntity
  8
目盛
100
AcDbLine
 10
483.4982750618628
 20
340.0052744260611
 30
0.0
 11
481.8090583258542
 21
341.0760436910234
 31
0.0
  0
LINE
  5
A2C
330
18
100
AcDbEntity
  8
目盛
100
AcDbLine
 10
484.2331351252755
 20
341.2493411485843
 30
0.0
 11
482.4800175141874
 21
342.2119306985446
 31
0.0
  0
LINE
  5
A2D
330
18
100
AcDbEntity
  8
目盛
100
AcDbLine
 10
482.686749481086
 20
338.8098048301976
 30
0.0
 11
480.2587755397833
 21
340.5718895444932
 31
0.0
  0
LINE
  5
A2E
330
18
100
AcDbEntity
  8
目盛
100
AcDbLine
 10
484.5708971486942
 20
341.8880710982436
 30
0.0
 11
481.8971648159639
 21
343.2486428210546
 31
0.0
  0
LINE
  5
A2F
330
18
100
AcDbEntity
  8
目盛
100
AcDbLine
 10
482.253226490679
 20
338.2317763275743
 30
0.0
 11
480.6722748478166
 21
339.4567628184922
 31
0.0
  0
LINE
  5
A30
330
18
100
AcDbEntity
  8
目盛
100
AcDbLine
 10
481.3327988618651
 20
337.1179835717149
 30
0.0
 11
479.8318844041168
 21
338.4398216066206
 31
0.0
  0
LINE
  5
A31
330
18
100
AcDbEntity
  8
目盛
100
AcDbLine
 10
480.8468025744033
 20
336.5833184974594
 30
0.0
 11
479.3881486633911
 21
337.9516491475174
 31
0.0
  0
LINE
  5
A32
330
18
100
AcDbEntity
  8
目盛
100
AcDbLine
 10
481.8017611036619
 20
337.6676503333309
 30
0.0
 11
480.2600673205406
 21
338.9416912585307
 31
0.0
  0
LINE
  5
A33
330
18
100
AcDbEntity
  8
目盛
100
AcDbLine
 10
486.7909952219608
 20
348.7330232751987
 30
0.0
 11
483.8276848796742
 21
349.2007751488416
 31
0.0
  0
LINE
  5
A34
330
18
100
AcDbEntity
  8
目盛
100
AcDbLine
 10
486.6671428578926
 20
348.0211807891316
 30
0.0
 11
484.70237240049
 21
348.3949147181749
 31
0.0
  0
LINE
  5
A35
330
18
100
AcDbEntity
  8
目盛
100
AcDbLine
 10
484.0722798562064
 20
352.3295929481627
 30
0.0
 11
487.0722794449728
 21
352.3311637444177
 31
0.0
  0
LINE
  5
A36
330
18
100
AcDbEntity
  8
目盛
100
AcDbLine
 10
486.1623941668096
 20
345.9138910110534
 30
0.0
 11
484.2415148999358
 21
346.4708675294946
 31
0.0
  0
LINE
  5
A37
330
18
100
AcDbEntity
  8
目盛
100
AcDbLine
 10
485.7166166606107
 20
344.539480687367
 30
0.0
 11
483.8345006551455
 21
345.2159711469986
 31
0.0
  0
LINE
  5
A38
330
18
100
AcDbEntity
  8
目盛
100
AcDbLine
 10
486.3526871654149
 20
346.6109187778878
 30
0.0
 11
484.4152606812713
 21
347.1072841861696
 31
0.0
  0
LINE
  5
A39
330
18
100
AcDbEntity
  8
目盛
100
AcDbLine
 10
485.461572081596
 20
343.86345450757
 30
0.0
 11
483.6016338656107
 21
344.5987298524012
 31
0.0
  0
LINE
  5
A3A
330
18
100
AcDbEntity
  8
目盛
100
AcDbLine
 10
485.9503008950573
 20
345.2231844328793
 30
0.0
 11
483.0966463345407
 21
346.1487413729118
 31
0.0
  0
LINE
  5
A3B
330
18
100
AcDbEntity
  8
目盛
100
AcDbLine
 10
486.5209920946576
 20
347.3135798511288
 30
0.0
 11
484.5689303992753
 21
347.7488442965201
 31
0.0
  0
TEXT
  5
A3C
330
18
100
AcDbEntity
  8
文字
100
AcDbText
 10
479.2730368968133
 20
346.1289701121728
 30
0.0
 40
2.0
  1
.6
 50
0.030000000000189
  7
STYLE3
100
AcDbText
  0
LINE
  5
A3D
330
18
100
AcDbEntity
  8
目盛
100
AcDbLine
 10
486.9713379697294
 20
350.16661938855
 30
0.0
 11
484.9801157634714
 21
350.3537934393829
 31
0.0
  0
LINE
  5
A3E
330
18
100
AcDbEntity
  8
目盛
100
AcDbLine
 10
486.8924269595331
 20
349.4484048067397
 30
0.0
 11
484.9080665802487
 21
349.6980322994691
 31
0.0
  0
LINE
  5
A3F
330
18
100
AcDbEntity
  8
目盛
100
AcDbLine
 10
487.0613086075279
 20
351.6087104422713
 30
0.0
 11
485.0622628675482
 21
351.6704852710414
 31
0.0
  0
LINE
  5
A40
330
18
100
AcDbEntity
  8
目盛
100
AcDbLine
 10
487.02765037691
 20
350.8869582295504
 30
0.0
 11
485.0315314395929
 21
351.0114941202966
 31
0.0
  0
LINE
  5
A41
330
18
100
AcDbEntity
  8
目盛
100
AcDbLine
 10
480.327220810452
 20
368.5910902363024
 30
0.0
 11
478.207011478362
 21
366.4686594628449
 31
0.0
  0
LINE
  5
A42
330
18
100
AcDbEntity
  8
目盛
100
AcDbLine
 10
479.273419999177
 20
369.579637237231
 30
0.0
 11
477.9515819642714
 21
368.0787227794829
 31
0.0
  0
LINE
  5
A43
330
18
100
AcDbEntity
  8
目盛
100
AcDbLine
 10
479.8080850734329
 20
369.0936409497691
 30
0.0
 11
478.4397544233747
 21
367.6349870387572
 31
0.0
  0
LINE
  5
A44
330
18
100
AcDbEntity
  8
目盛
100
AcDbLine
 10
478.7237532375614
 20
370.0485994790278
 30
0.0
 11
477.4497123123615
 21
368.5069056959064
 31
0.0
  0
TEXT
  5
A45
330
18
100
AcDbEntity
  8
文字
100
AcDbText
 10
476.9861041437733
 20
361.9183286061351
 30
0.0
 40
2.0
  1
.3
 50
0.030000000000189
  7
STYLE3
100
AcDbText
  0
LINE
  5
A46
330
18
100
AcDbEntity
  8
目盛
100
AcDbLine
 10
477.5815987406947
 20
370.9335878564522
 30
0.0
 11
475.819514026399
 21
368.505613915149
 31
0.0
  0
LINE
  5
A47
330
18
100
AcDbEntity
  8
目盛
100
AcDbLine
 10
475.7698678357513
 20
372.1223151498266
 30
0.0
 11
474.7526865107088
 21
370.4002982648964
 31
0.0
  0
LINE
  5
A48
330
18
100
AcDbEntity
  8
目盛
100
AcDbLine
 10
476.990238174038
 20
371.3487406153969
 30
0.0
 11
475.8669376891446
 21
369.6939910812865
 31
0.0
  0
LINE
  5
A49
330
18
100
AcDbEntity
  8
目盛
100
AcDbLine
 10
476.3861291448313
 20
371.7451134372289
 30
0.0
 11
475.3153598798688
 21
370.0558967012199
 31
0.0
  0
LINE
  5
A4A
330
18
100
AcDbEntity
  8
目盛
100
AcDbLine
 10
474.5033324726485
 20
372.8177355240602
 30
0.0
 11
473.1427607498375
 21
370.1440031913299
 31
0.0
  0
LINE
  5
A4B
330
18
100
AcDbEntity
  8
針
  6
Continuous
100
AcDbLine
 10
464.0602398264745
 20
375.3191178203388
 30
0.0
 11
464.5715420487682
 21
353.7335961410205
 31
0.0
  0
LINE
  5
A4C
330
18
100
AcDbEntity
  8
針
  6
Continuous
100
AcDbLine
 10
464.0602398264745
 20
375.3191178203378
 30
0.0
 11
463.571542185846
 21
353.733072542269
 31
0.0
  0
HATCH
  5
A4D
330
18
100
AcDbEntity
  8
ﾊｯﾁﾝｸ
  6
Continuous
100
AcDbHatch
 10
0.0
 20
0.0
 30
0.0
210
0.0
220
0.0
230
1.0
  2
SOLID
 70
     1
 71
     0
 91
        1
 92
        1
 93
        3
 72
     1
 10
464.0602398264745
 20
375.3191178203388
 11
464.5715420487682
 21
353.7335961410207
 72
     2
 10
464.0722825977631
 20
352.319120973129
 40
1.499999999999999
 50
-649.4412206344873
 51
-610.4987793655085
 73
     1
 72
     1
 10
463.571542185846
 20
353.733072542269
 11
464.0602398264743
 21
375.3191178203379
 97
        0
 75
     0
 76
     1
 98
        1
 10
236.5124288288233
 20
366.4555680857903
450
        0
451
        0
460
0.0
461
0.0
452
        0
462
0.0
453
        0
470

  0
TEXT
  5
A4E
330
18
100
AcDbEntity
  8
文字
100
AcDbText
 10
463.081658802227
 20
369.2400099481202
 30
0.0
 40
2.0
  1
0
 50
0.030000000000189
  7
STYLE3
100
AcDbText
  0
HATCH
  5
A4F
330
18
100
AcDbEntity
  8
ROGO
 62
     4
100
AcDbHatch
 10
0.0
 20
0.0
 30
0.0
210
0.0
220
0.0
230
1.0
  2
SOLID
 70
     1
 71
     1
 91
        2
 92
        5
 93
        6
 72
     4
 94
        3
 73
     0
 74
     0
 95
       38
 96
       34
 40
0.0
 40
0.0
 40
0.0
 40
0.0
 40
0.1807680148266234
 40
0.2375392910070504
 40
0.3104865209604311
 40
0.3712759982447127
 40
0.4225667543874042
 40
0.4906925837206038
 40
0.5255021974953167
 40
0.564706959705285
 40
0.6224874016815965
 40
0.687940104467359
 40
0.7303986317547352
 40
0.7765228362183909
 40
0.8277951442288461
 40
0.9056034696997027
 40
0.9795294930262862
 40
1.013897332332629
 40
1.053089255535575
 40
1.099518741889242
 40
1.13257056982044
 40
1.160277520290035
 40
1.19983678629359
 40
1.243305643168931
 40
1.286774258016615
 40
1.324809356515473
 40
1.411916492917487
 40
1.446284332224344
 40
1.515020051661041
 40
1.575779369908437
 40
1.692098529535964
 40
1.835624328518832
 40
2.042896467984016
 40
2.042896467984016
 40
2.042896467984016
 40
2.042896467984016
 10
466.7638447831142
 20
362.1864188486003
 10
466.7035916225085
 20
362.1821306804321
 10
466.6244155964569
 20
362.1764957874044
 10
466.5238912600613
 20
362.1488985229983
 10
466.4691036947742
 20
362.116055312338
 10
466.4120810306052
 20
362.0919052073312
 10
466.3634718324193
 20
362.056162451467
 10
466.3142953751861
 20
362.0377319200149
 10
466.2798711432591
 20
362.0045267826068
 10
466.2400184050471
 20
361.9842337948051
 10
466.208298267801
 20
361.9388422859446
 10
466.1728398092243
 20
361.8963998324638
 10
466.1316939810258
 20
361.8654107427341
 10
466.097928770135
 20
361.832868079889
 10
466.0669645439257
 20
361.7826560449915
 10
466.0486578954829
 20
361.7159510758244
 10
465.9969781364096
 20
361.6738149563056
 10
465.9892199715665
 20
361.6231832395237
 10
465.9606377649034
 20
361.5932988096286
 10
465.948222609644
 20
361.5547351217977
 10
465.9435051283944
 20
361.5194074575671
 10
465.9378381003252
 20
361.486413204367
 10
465.9229872138197
 20
361.4517000529652
 10
465.9278629725394
 20
361.4088323210952
 10
465.9265021456932
 20
361.3673188888508
 10
465.9273451298379
 20
361.3112758659426
 10
465.9244371611635
 20
361.2567091389342
 10
465.9478859996982
 20
361.1973415324106
 10
465.9617715589303
 20
361.1444198509509
 10
465.9997618964138
 20
361.0711531903497
 10
466.0652725141054
 20
360.9866306563326
 10
466.1898159831198
 20
360.8840598897839
 10
466.3095219489504
 20
360.8737106255424
 10
466.3802513031597
 20
360.8675956690214
 72
     1
 10
466.3802513031594
 20
360.8675956690217
 11
467.1307050234745
 21
360.8679886057065
 72
     4
 94
        3
 73
     0
 74
     0
 95
       11
 96
        7
 40
0.1647869275458135
 40
0.1647869275458135
 40
0.1647869275458135
 40
0.1647869275458135
 40
0.2545010798212315
 40
0.5111620267764023
 40
0.7602998271033902
 40
0.8850764140209603
 40
0.8850764140209603
 40
0.8850764140209603
 40
0.8850764140209603
 10
467.1307050234745
 20
360.8679886057065
 10
467.141177028029
 20
360.8677922731652
 10
467.1816081252956
 20
360.8670342578266
 10
467.2506994604015
 20
360.8769969659136
 10
467.3233932368964
 20
360.8865474239668
 10
467.3667306151124
 20
360.8934977061005
 10
467.3807071187093
 20
360.8973959574312
 72
     4
 94
        3
 73
     0
 74
     0
 95
        9
 96
        5
 40
0.0
 40
0.0
 40
0.0
 40
0.0
 40
0.1135793343552586
 40
0.2662938392176748
 40
0.2662938392176748
 40
0.2662938392176748
 40
0.2662938392176748
 10
467.3807071187093
 20
360.8973959574312
 10
467.4171862374389
 20
360.9085773991081
 10
467.5027138083911
 20
360.9347929870851
 10
467.5733615344791
 20
360.9901423035079
 10
467.6138766757263
 20
361.0218840947443
 72
     4
 94
        3
 73
     0
 74
     0
 95
       25
 96
       21
 40
0.0
 40
0.0
 40
0.0
 40
0.0
 40
0.165525918914855
 40
0.3412380755365305
 40
0.5940540902285263
 40
0.7697671103696209
 40
0.9377330196075423
 40
1.11479469302833
 40
1.274661249598185
 40
1.574522170874768
 40
1.815540668866877
 40
2.15849091873445
 40
2.536227739636605
 40
2.738070817316548
 40
2.925680654369045
 40
3.162706124480894
 40
3.395643218188267
 40
3.648478129958861
 40
3.928509979727306
 40
4.337226830236035
 40
4.337226830236035
 40
4.337226830236035
 40
4.337226830236035
 10
467.6138766757263
 20
361.0218840947443
 10
467.6287628872828
 20
361.0341986347799
 10
467.6569948569149
 20
361.0634835442397
 10
467.7070712469799
 20
361.1109501190207
 10
467.751192460504
 20
361.1662449988665
 10
467.8056313987138
 20
361.2110693420444
 10
467.8339556748384
 20
361.2658504064569
 10
467.8748016638484
 20
361.3089442697722
 10
467.9090488476585
 20
361.3754833926665
 10
467.9380954332668
 20
361.4519103770431
 10
467.9657733338551
 20
361.5515261665155
 10
467.9763409415335
 20
361.6638967681512
 10
467.9605555639822
 20
361.7726016502787
 10
467.9225170441452
 20
361.8538412400306
 10
467.8945474283568
 20
361.9215480191219
 10
467.8521202597533
 20
361.985669916776
 10
467.8037183832807
 20
362.0554083895078
 10
467.7355499570918
 20
362.1130786668251
 10
467.646463866796
 20
362.1826347203694
 10
467.5635193751206
 20
362.1852561676027
 10
467.5142985034288
 20
362.1868117852852
 72
     1
 10
467.5142985034288
 20
362.1868117852851
 11
466.7638447831139
 21
362.1864188486001
 97
        6
330
A87
330
A96
330
A52
330
A91
330
A92
330
A93
 92
       20
 93
        1
 72
     3
 10
466.9366579948804
 20
361.5088132482783
 11
0.1782025952914886
 21
0.1568724203442331
 40
0.6788083417438791
 50
0.0
 51
360.0
 73
     1
 97
        1
330
A94
 75
     0
 76
     1
 47
0.088756267210375
 98
        2
 10
466.9889251219183
 20
361.8223279285807
 10
466.9889251219183
 20
361.8223279285807
450
        0
451
        0
460
0.0
461
0.0
452
        0
462
0.0
453
        0
470

  0
HATCH
  5
A50
330
18
100
AcDbEntity
  8
ROGO
 62
     4
100
AcDbHatch
 10
0.0
 20
0.0
 30
0.0
210
0.0
220
0.0
230
1.0
  2
SOLID
 70
     1
 71
     1
 91
        1
 92
        7
 72
     0
 73
     1
 93
        4
 10
457.4323126179421
 20
360.3298468177255
 10
457.3393692839385
 20
360.1241279182208
 10
469.5186601830106
 20
360.130504980606
 10
469.6211062876755
 20
360.33622885575
 97
        4
330
A51
330
A65
330
A53
330
A86
 75
     0
 76
     1
 47
0.0514683685270805
 98
        1
 10
465.128575305768
 20
360.2794801001522
450
        0
451
        0
460
0.0
461
0.0
452
        0
462
0.0
453
        0
470

  0
LINE
  5
A51
102
{ACAD_REACTORS
330
A50
102
}
330
18
100
AcDbEntity
  8
ROGO
 62
     4
100
AcDbLine
 10
457.4180491729805
 20
360.3298393494025
 30
0.0
 11
469.6211062876756
 21
360.3362288557501
 31
0.0
  0
SPLINE
  5
A52
102
{ACAD_REACTORS
330
A4F
102
}
330
18
100
AcDbEntity
  8
ROGO
 62
     4
100
AcDbSpline
210
0.0
220
0.0
230
1.0
 70
     8
 71
     3
 72
    38
 73
    34
 74
    32
 42
0.0000000001
 43
0.0000000001
 44
0.0000000001
 40
0.0
 40
0.0
 40
0.0
 40
0.0
 40
0.1807680148266234
 40
0.2375392910070504
 40
0.3104865209604311
 40
0.3712759982447127
 40
0.4225667543874042
 40
0.4906925837206038
 40
0.5255021974953167
 40
0.564706959705285
 40
0.6224874016815965
 40
0.687940104467359
 40
0.7303986317547352
 40
0.7765228362183909
 40
0.8277951442288461
 40
0.9056034696997027
 40
0.9795294930262862
 40
1.013897332332629
 40
1.053089255535575
 40
1.099518741889242
 40
1.13257056982044
 40
1.160277520290035
 40
1.19983678629359
 40
1.243305643168931
 40
1.286774258016615
 40
1.324809356515473
 40
1.411916492917487
 40
1.446284332224344
 40
1.515020051661041
 40
1.575779369908437
 40
1.692098529535964
 40
1.835624328518832
 40
2.042896467984016
 40
2.042896467984016
 40
2.042896467984016
 40
2.042896467984016
 10
466.7638447831142
 20
362.1864188486003
 30
0.0
 10
466.7035916225085
 20
362.1821306804321
 30
0.0
 10
466.624415596457
 20
362.1764957874045
 30
0.0
 10
466.5238912600612
 20
362.1488985229983
 30
0.0
 10
466.4691036947742
 20
362.116055312338
 30
0.0
 10
466.4120810306053
 20
362.0919052073314
 30
0.0
 10
466.3634718324193
 20
362.056162451467
 30
0.0
 10
466.3142953751861
 20
362.0377319200152
 30
0.0
 10
466.2798711432592
 20
362.0045267826067
 30
0.0
 10
466.2400184050471
 20
361.9842337948051
 30
0.0
 10
466.2082982678012
 20
361.9388422859447
 30
0.0
 10
466.1728398092243
 20
361.8963998324638
 30
0.0
 10
466.1316939810256
 20
361.8654107427341
 30
0.0
 10
466.0979287701352
 20
361.8328680798891
 30
0.0
 10
466.0669645439257
 20
361.7826560449914
 30
0.0
 10
466.0486578954829
 20
361.7159510758244
 30
0.0
 10
465.9969781364096
 20
361.6738149563055
 30
0.0
 10
465.9892199715662
 20
361.6231832395237
 30
0.0
 10
465.9606377649035
 20
361.5932988096288
 30
0.0
 10
465.9482226096441
 20
361.5547351217977
 30
0.0
 10
465.9435051283945
 20
361.5194074575671
 30
0.0
 10
465.9378381003251
 20
361.4864132043669
 30
0.0
 10
465.9229872138197
 20
361.4517000529652
 30
0.0
 10
465.9278629725394
 20
361.4088323210952
 30
0.0
 10
465.9265021456933
 20
361.3673188888508
 30
0.0
 10
465.9273451298379
 20
361.3112758659426
 30
0.0
 10
465.9244371611635
 20
361.2567091389341
 30
0.0
 10
465.9478859996982
 20
361.1973415324106
 30
0.0
 10
465.9617715589303
 20
361.1444198509509
 30
0.0
 10
465.9997618964137
 20
361.0711531903496
 30
0.0
 10
466.0652725141055
 20
360.9866306563328
 30
0.0
 10
466.1898159831198
 20
360.8840598897839
 30
0.0
 10
466.3095219489504
 20
360.8737106255424
 30
0.0
 10
466.3802513031597
 20
360.8675956690214
 30
0.0
 11
466.7638447831142
 21
362.1864188486003
 31
0.0
 11
466.5843995509492
 21
362.1645903388571
 31
0.0
 11
466.5300273072228
 21
362.1482613183321
 31
0.0
 11
466.4647876993079
 21
362.1156255723318
 31
0.0
 11
466.4104211456726
 21
362.0884292785711
 31
0.0
 11
466.3669309187961
 21
362.0612384376148
 31
0.0
 11
466.3071292604491
 21
362.0286057809457
 31
0.0
 11
466.2799500375464
 21
362.0068572395336
 31
0.0
 11
466.2473328650769
 21
361.9851056087894
 31
0.0
 11
466.2092891228423
 21
361.9416170683245
 31
0.0
 11
466.1658102758951
 21
361.892692164951
 31
0.0
 11
466.1331959484077
 21
361.8655070186031
 31
0.0
 11
466.1005848930185
 21
361.8328885989019
 31
0.0
 11
466.0734170501728
 21
361.7894057530447
 31
0.0
 11
466.0408259100408
 21
361.7187519980315
 31
0.0
 11
465.9973523259422
 21
361.6589598211979
 31
0.0
 11
465.9864934967011
 21
361.6263525489093
 31
0.0
 11
465.9647583407013
 21
361.593739823816
 31
0.0
 11
465.9484668246139
 21
361.5502624307636
 31
0.0
 11
465.9430455176972
 21
361.5176582475824
 31
0.0
 11
465.9376217931683
 21
361.490487338202
 31
0.0
 11
465.9267658087826
 21
361.4524467923363
 31
0.0
 11
465.9267885690215
 21
361.4089779414196
 31
0.0
 11
465.9268113291345
 21
361.3655093325305
 31
0.0
 11
465.9268312442642
 21
361.3274742392454
 31
0.0
 11
465.9323147141837
 21
361.2405398687709
 31
0.0
 11
465.9432076837206
 21
361.2079439856982
 31
0.0
 11
465.9649944771529
 21
361.1427524620282
 31
0.0
 11
465.9922131030724
 21
361.0884308166468
 31
0.0
 11
466.06295652328
 21
360.996097099112
 31
0.0
 11
466.1772015506735
 21
360.9092194340334
 31
0.0
 11
466.3802513031597
 21
360.8675956690214
 31
0.0
  0
LINE
  5
A53
102
{ACAD_REACTORS
330
A50
330
A82
330
A57
102
}
330
18
100
AcDbEntity
  8
ROGO
 62
     4
100
AcDbLine
 10
456.385568458747
 20
360.1236285092309
 30
0.0
 11
470.2747438218724
 21
360.1309008651097
 31
0.0
  0
HATCH
  5
A54
330
18
100
AcDbEntity
  8
ROGO
 62
     4
100
AcDbHatch
 10
0.0
 20
0.0
 30
0.0
210
0.0
220
0.0
230
1.0
  2
SOLID
 70
     1
 71
     1
 91
        1
 92
        5
 93
        8
 72
     1
 10
465.7912589810389
 20
361.6918572647056
 11
466.0346224308975
 21
362.1805598087113
 72
     1
 10
466.0346224308975
 20
362.1805598087113
 11
464.7195862690532
 21
362.179871257324
 72
     4
 94
        3
 73
     0
 74
     0
 95
       26
 96
       22
 40
0.0
 40
0.0
 40
0.0
 40
0.0
 40
0.2382195346593405
 40
0.3976890672662945
 40
0.5126795869789734
 40
0.5985392873135568
 40
0.7099038249250997
 40
0.7911890807497605
 40
0.9379713068545376
 40
1.057449928672953
 40
1.138714535893079
 40
1.218398644003547
 40
1.360938021870204
 40
1.461730374800209
 40
1.51601484410778
 40
1.593124329220305
 40
1.648806818593884
 40
1.729472362005811
 40
1.775122082164261
 40
1.874460993765315
 40
1.91982000375118
 40
1.91982000375118
 40
1.91982000375118
 40
1.91982000375118
 10
464.7195862690534
 20
362.1798712573241
 10
464.6387334152036
 20
362.1750049509384
 10
464.5037558363106
 20
362.1668810292359
 10
464.3555937883919
 20
362.0767679355625
 10
464.2470344654315
 20
362.024368401511
 10
464.1696277985129
 20
361.953172440298
 10
464.1128995720719
 20
361.8796443748693
 10
464.041380330167
 20
361.7920341673479
 10
463.9830744342018
 20
361.6900287030069
 10
463.9534144451751
 20
361.5776190166014
 10
463.9271366834681
 20
361.4880264627582
 10
463.9076661388217
 20
361.3881923914278
 10
463.9126897624025
 20
361.2803501188858
 10
463.9198554013865
 20
361.1801930460721
 10
463.9516515241765
 20
361.1087098617574
 10
463.9878456943272
 20
361.0578258590747
 10
464.0321616791273
 20
361.0017851024883
 10
464.080640378534
 20
360.9646795064584
 10
464.1207553601542
 20
360.8974352462543
 10
464.1909181251261
 20
360.8888884505432
 10
464.2355224581399
 20
360.8718280131007
 10
464.2495047487243
 20
360.866480012633
 72
     1
 10
464.2495047487245
 20
360.8664800126327
 11
465.3805336086898
 21
360.8670722180129
 72
     1
 10
465.3805336086898
 20
360.8670722180129
 11
465.6238944813956
 21
361.3557695867923
 72
     1
 10
465.6238944813956
 20
361.3557695867923
 11
464.7842135756252
 21
361.3553299308579
 72
     4
 94
        3
 73
     0
 74
     0
 95
       16
 96
       12
 40
0.0
 40
0.0
 40
0.0
 40
0.0
 40
0.0719416665234767
 40
0.144625359076022
 40
0.1879779149912705
 40
0.2295440936105088
 40
0.2751936323959496
 40
0.3070718656053962
 40
0.3373215422374903
 40
0.3986635435212928
 40
0.5242542460841375
 40
0.5242542460841375
 40
0.5242542460841375
 40
0.5242542460841375
 10
464.7842135756252
 20
361.3553299308577
 10
464.7588819386762
 20
361.3627684603526
 10
464.707957387345
 20
361.3777222423706
 10
464.7036580465031
 20
361.4503396903326
 10
464.7094363798579
 20
361.5020901939137
 10
464.7337297997247
 20
361.5397780998003
 10
464.7632115097892
 20
361.567207191182
 10
464.774175509015
 20
361.6029149309957
 10
464.8064440177679
 20
361.6298913027609
 10
464.8636660343784
 20
361.6752363773287
 10
464.9269648636055
 20
361.6849206271295
 10
464.9694921703337
 20
361.69142698857
 72
     1
 10
464.9694921703343
 20
361.6914269885703
 11
465.7912589810389
 21
361.6918572647056
 97
        8
330
A80
330
A60
330
A77
330
A74
330
A76
330
A75
330
A78
330
A5F
 75
     0
 76
     1
 47
0.0514683685270805
 98
        1
 10
465.1796561623654
 20
361.8877906529613
450
        0
451
        0
460
0.0
461
0.0
452
        0
462
0.0
453
        0
470

  0
HATCH
  5
A55
330
18
100
AcDbEntity
  8
ROGO
 62
     4
100
AcDbHatch
 10
0.0
 20
0.0
 30
0.0
210
0.0
220
0.0
230
1.0
  2
SOLID
 70
     1
 71
     1
 91
        1
 92
        1
 93
       12
 72
     1
 10
459.9648664530702
 20
362.1773816916226
 11
461.7409493580926
 21
362.1783116465419
 72
     1
 10
461.7409493580926
 20
362.1783116465419
 11
461.5922726824846
 21
361.8774314276842
 72
     1
 10
461.5922726824846
 20
361.8774314276842
 11
460.6588083882241
 21
361.8769426668781
 72
     1
 10
460.6588083882241
 20
361.8769426668781
 11
460.5425617033126
 21
361.6416917248272
 72
     1
 10
460.5425617033126
 20
361.6416917248272
 11
461.4760259975732
 21
361.6421804856332
 72
     1
 10
461.4760259975732
 20
361.6421804856332
 11
461.3568259121859
 21
361.4009526828692
 72
     1
 10
461.3568259121859
 20
361.4009526828692
 11
460.4233616179254
 21
361.4004639220629
 72
     1
 10
460.4233616179254
 20
361.4004639220629
 11
460.3071100116876
 21
361.1652030206179
 72
     1
 10
460.3071100116876
 20
361.165203020618
 11
461.2405743059484
 21
361.1656917814242
 72
     1
 10
461.2405743059484
 20
361.1656917814242
 11
461.0919051089429
 21
360.8648266971763
 72
     1
 10
461.0919051089429
 20
360.8648266971763
 11
459.3158222039205
 21
360.8638967422569
 72
     1
 10
459.3158222039205
 20
360.8638967422569
 11
459.9648664530702
 21
362.1773816916226
 97
       12
330
A7A
330
A7E
330
A7F
330
A5C
330
A6C
330
A6B
330
A6E
330
A70
330
A6D
330
A6F
330
A62
330
A5B
 75
     0
 76
     1
 98
        1
 10
387.3622892028291
 20
271.3412585730755
450
        0
451
        0
460
0.0
461
0.0
452
        0
462
0.0
453
        0
470

  0
HATCH
  5
A56
330
18
100
AcDbEntity
  8
ROGO
 62
     4
100
AcDbHatch
 10
0.0
 20
0.0
 30
0.0
210
0.0
220
0.0
230
1.0
  2
SOLID
 70
     1
 71
     1
 91
        2
 92
        7
 72
     0
 73
     1
 93
        8
 10
463.3058468915491
 20
362.1791310250495
 10
462.2554435527645
 20
362.1785810350971
 10
461.3091969135156
 20
360.8649404709094
 10
462.0364440655176
 20
360.8653212566626
 10
462.2166035710155
 20
361.1154302923301
 10
463.046480446042
 20
361.1158648148854
 10
463.1576777612557
 20
360.8659083333064
 10
463.8898853830142
 20
360.866291716356
 97
        8
330
A7D
330
A5D
330
A72
330
A71
330
A69
330
A79
330
A73
330
A58
 92
       22
 72
     0
 73
     1
 93
        3
 10
462.9291972845497
 20
361.3795014534034
 10
462.4066232341446
 20
361.3792278342452
 10
462.7297551322659
 20
361.8278203590147
 97
        3
330
A6A
330
A59
330
A5A
 75
     0
 76
     1
 47
0.0128389261915577
 98
        2
 10
463.2237569658829
 20
361.8640460828665
 10
463.2237569658829
 20
361.8640460828665
450
        0
451
        0
460
0.0
461
0.0
452
        0
462
0.0
453
        0
470

  0
HATCH
  5
A57
330
18
100
AcDbEntity
  8
ROGO
 62
     4
100
AcDbHatch
 10
0.0
 20
0.0
 30
0.0
210
0.0
220
0.0
230
1.0
  2
SOLID
 70
     1
 71
     1
 91
        2
 92
        5
 93
        6
 72
     1
 10
456.3855684587469
 20
360.1236285092308
 11
457.3393692839385
 21
360.1241279182207
 72
     1
 10
457.3393692839385
 20
360.1241279182207
 11
457.6732065888283
 21
360.8630366706535
 72
     1
 10
457.6732065888283
 20
360.8630366706535
 11
458.5648147347804
 21
360.8635035156297
 72
     4
 94
        3
 73
     0
 74
     0
 95
       18
 96
       14
 40
0.108740278791501
 40
0.108740278791501
 40
0.108740278791501
 40
0.108740278791501
 40
0.6623149649549278
 40
1.384304701649787
 40
2.097394834876493
 40
2.774073369849618
 40
3.428974823686337
 40
4.005208313035923
 40
4.455173659284313
 40
4.720999734343524
 40
5.086034088486724
 40
5.569973738255373
 40
6.060470601257719
 40
6.060470601257719
 40
6.060470601257719
 40
6.060470601257719
 10
458.5648147347807
 20
360.8635035156297
 10
458.6275643984069
 20
360.8640036509748
 10
458.772154171871
 20
360.8651560787659
 10
458.9743783406836
 20
360.9733248144116
 10
459.1661262066891
 20
361.111089412581
 10
459.3205340671619
 20
361.2831673147338
 10
459.4166879596003
 20
361.4798668252758
 10
459.4314991598757
 20
361.6683447418098
 10
459.4223189858021
 20
361.8174174896728
 10
459.3572253786391
 20
361.9212941632836
 10
459.289553975899
 20
362.0267175222457
 10
459.1655209253924
 20
362.1180049010003
 10
459.0639120339603
 20
362.157977595506
 10
459.0122425904486
 20
362.1768828988889
 72
     1
 10
459.0122425904486
 20
362.1768828988889
 11
457.3997444985011
 21
362.1760385967853
 72
     1
 10
457.3997444985011
 20
362.1760385967853
 11
456.3855684587469
 21
360.1236285092308
 97
        6
330
A5E
330
A7C
330
A61
330
A53
330
A65
330
A68
 92
       20
 93
        4
 72
     1
 10
457.8793322256712
 20
361.319270994778
 11
458.0371471483324
 21
361.6685753592415
 72
     1
 10
458.0371471483324
 20
361.6685753592415
 11
458.4431340917779
 21
361.6687879335276
 72
     4
 94
        3
 73
     0
 74
     0
 95
       15
 96
       11
 40
0.0
 40
0.0
 40
0.0
 40
0.0
 40
0.1539705029171565
 40
0.2241725832584159
 40
0.303856617939432
 40
0.3581410872472801
 40
0.4439925384670368
 40
0.4954152125467918
 40
0.5836396705644895
 40
0.6130478420064851
 40
0.6130478420064851
 40
0.6130478420064851
 40
0.6130478420064851
 10
458.443134091778
 20
361.6687879335275
 10
458.5009622802167
 20
361.6690830969777
 10
458.5851569418036
 20
361.6695128387261
 10
458.631252224303
 20
361.5653876559559
 10
458.6106496752861
 20
361.4983209546561
 10
458.5847425028442
 20
361.4294618660058
 10
458.5389194523551
 20
361.382656301429
 10
458.4774089237872
 20
361.3375655547745
 10
458.4192590946917
 20
361.3320805695853
 10
458.3814425481451
 20
361.3220392740583
 10
458.3719884069829
 20
361.3195289489749
 72
     1
 10
458.3719884069828
 20
361.3195289489747
 11
457.8793322256712
 21
361.319270994778
 97
        4
330
A64
330
A66
330
A63
330
A67
 75
     0
 76
     1
 47
0.0514683685270805
 98
        2
 10
457.408697205463
 20
361.5378544400415
 10
457.408697205463
 20
361.5378544400415
450
        0
451
        0
460
0.0
461
0.0
452
        0
462
0.0
453
        0
470

  0
LINE
  5
A58
102
{ACAD_REACTORS
330
A56
102
}
330
18
100
AcDbEntity
  8
ROGO
 62
     4
100
AcDbLine
 10
463.3058468915489
 20
362.1791310250495
 30
0.0
 11
463.8898853830141
 21
360.8662917163559
 31
0.0
  0
LINE
  5
A59
102
{ACAD_REACTORS
330
A56
102
}
330
18
100
AcDbEntity
  8
ROGO
 62
     4
100
AcDbLine
 10
462.729755132266
 20
361.8278203590147
 30
0.0
 11
462.4066232341444
 21
361.3792278342451
 31
0.0
  0
LINE
  5
A5A
102
{ACAD_REACTORS
330
A56
102
}
330
18
100
AcDbEntity
  8
ROGO
 62
     4
100
AcDbLine
 10
462.729755132266
 20
361.8278203590147
 30
0.0
 11
462.9291972845499
 21
361.3795014534031
 31
0.0
  0
LINE
  5
A5B
102
{ACAD_REACTORS
330
A55
102
}
330
18
100
AcDbEntity
  8
ROGO
 62
     4
100
AcDbLine
 10
459.9648664530702
 20
362.1773816916226
 30
0.0
 11
459.3158222039205
 21
360.8638967422569
 31
0.0
  0
LINE
  5
A5C
102
{ACAD_REACTORS
330
A55
102
}
330
18
100
AcDbEntity
  8
ROGO
 62
     4
100
AcDbLine
 10
460.6588083882241
 20
361.8769426668781
 30
0.0
 11
460.5425617033126
 21
361.6416917248272
 31
0.0
  0
LINE
  5
A5D
102
{ACAD_REACTORS
330
A56
102
}
330
18
100
AcDbEntity
  8
ROGO
 62
     4
100
AcDbLine
 10
462.2554435527645
 20
362.1785810350971
 30
0.0
 11
461.3091969135155
 21
360.8649404709094
 31
0.0
  0
SPLINE
  5
A5E
102
{ACAD_REACTORS
330
A57
102
}
330
18
100
AcDbEntity
  8
ROGO
 62
     4
100
AcDbSpline
210
0.0
220
0.0
230
1.0
 70
     8
 71
     3
 72
    18
 73
    14
 74
     0
 42
0.0000000001
 43
0.0000000001
 40
0.1087402787915014
 40
0.1087402787915014
 40
0.1087402787915014
 40
0.1087402787915014
 40
0.5992371417938475
 40
1.083176791562496
 40
1.448211145705696
 40
1.714037220764907
 40
2.164002567013297
 40
2.740236056362883
 40
3.395137510199602
 40
4.071816045172726
 40
4.784906178399433
 40
5.506895915094292
 40
6.060470601257719
 40
6.060470601257719
 40
6.060470601257719
 40
6.060470601257719
 10
459.0122425904486
 20
362.1768828988889
 30
0.0
 10
459.0639120339603
 20
362.157977595506
 30
0.0
 10
459.1655209253924
 20
362.1180049010003
 30
0.0
 10
459.289553975899
 20
362.0267175222457
 30
0.0
 10
459.3572253786391
 20
361.9212941632836
 30
0.0
 10
459.4223189858021
 20
361.8174174896728
 30
0.0
 10
459.4314991598757
 20
361.6683447418098
 30
0.0
 10
459.4166879596003
 20
361.4798668252758
 30
0.0
 10
459.3205340671619
 20
361.2831673147338
 30
0.0
 10
459.1661262066891
 20
361.111089412581
 30
0.0
 10
458.9743783406836
 20
360.9733248144116
 30
0.0
 10
458.772154171871
 20
360.8651560787659
 30
0.0
 10
458.6275643984069
 20
360.8640036509748
 30
0.0
 10
458.5648147347807
 20
360.8635035156297
 30
0.0
  0
LINE
  5
A5F
102
{ACAD_REACTORS
330
A54
102
}
330
18
100
AcDbEntity
  8
ROGO
 62
     4
100
AcDbLine
 10
466.0346224308973
 20
362.1805598087111
 30
0.0
 11
465.7912589810388
 21
361.6918572647055
 31
0.0
  0
SPLINE
  5
A60
102
{ACAD_REACTORS
330
A54
102
}
330
18
100
AcDbEntity
  8
ROGO
 62
     4
100
AcDbSpline
210
0.0
220
0.0
230
1.0
 70
     8
 71
     3
 72
    26
 73
    22
 74
    20
 42
0.0000000001
 43
0.0000000001
 44
0.0000000001
 40
0.0
 40
0.0
 40
0.0
 40
0.0
 40
0.2382195346593405
 40
0.3976890672662945
 40
0.5126795869789734
 40
0.5985392873135568
 40
0.7099038249250997
 40
0.7911890807497605
 40
0.9379713068545376
 40
1.057449928672953
 40
1.138714535893079
 40
1.218398644003547
 40
1.360938021870204
 40
1.461730374800209
 40
1.51601484410778
 40
1.593124329220305
 40
1.648806818593884
 40
1.729472362005811
 40
1.775122082164261
 40
1.874460993765315
 40
1.91982000375118
 40
1.91982000375118
 40
1.91982000375118
 40
1.91982000375118
 10
464.7195862690534
 20
362.1798712573241
 30
0.0
 10
464.6387334152036
 20
362.1750049509384
 30
0.0
 10
464.5037558363106
 20
362.1668810292359
 30
0.0
 10
464.3555937883919
 20
362.0767679355623
 30
0.0
 10
464.2470344654315
 20
362.0243684015111
 30
0.0
 10
464.1696277985128
 20
361.9531724402979
 30
0.0
 10
464.1128995720719
 20
361.8796443748694
 30
0.0
 10
464.0413803301671
 20
361.7920341673479
 30
0.0
 10
463.9830744342017
 20
361.6900287030068
 30
0.0
 10
463.9534144451751
 20
361.5776190166015
 30
0.0
 10
463.9271366834681
 20
361.4880264627582
 30
0.0
 10
463.9076661388217
 20
361.3881923914277
 30
0.0
 10
463.9126897624026
 20
361.2803501188858
 30
0.0
 10
463.9198554013865
 20
361.1801930460721
 30
0.0
 10
463.9516515241765
 20
361.1087098617574
 30
0.0
 10
463.9878456943271
 20
361.0578258590747
 30
0.0
 10
464.0321616791275
 20
361.0017851024883
 30
0.0
 10
464.0806403785339
 20
360.9646795064583
 30
0.0
 10
464.1207553601543
 20
360.8974352462543
 30
0.0
 10
464.190918125126
 20
360.8888884505431
 30
0.0
 10
464.2355224581399
 20
360.8718280131007
 30
0.0
 10
464.2495047487243
 20
360.866480012633
 30
0.0
 11
464.7195862690534
 21
362.1798712573241
 31
0.0
 11
464.4842209141663
 21
362.1431058331844
 31
0.0
 11
464.3416007470664
 21
362.0717614587301
 31
0.0
 11
464.241770566821
 21
362.0146934752721
 31
0.0
 11
464.1776048601906
 21
361.9576439333443
 31
0.0
 11
464.1063211034456
 21
361.8720829243405
 31
0.0
 11
464.0564246716833
 21
361.8079140930291
 31
0.0
 11
463.9851628948902
 21
361.6795911369044
 31
0.0
 11
463.9495585383758
 21
361.565540837173
 31
0.0
 11
463.9282010667455
 21
361.4871329626183
 31
0.0
 11
463.9139761616912
 21
361.4087288226666
 31
0.0
 11
463.9140507951314
 21
361.2661894643389
 31
0.0
 11
463.9283689920467
 21
361.1664192902073
 31
0.0
 11
463.949793633871
 21
361.1165415563904
 31
0.0
 11
463.9926242589758
 21
361.0524212768569
 31
0.0
 11
464.0283111225744
 21
361.0096780038268
 31
0.0
 11
464.0854035593009
 21
360.9526921848666
 31
0.0
 11
464.1139537144856
 21
360.9170721681699
 31
0.0
 11
464.2066998398065
 21
360.881485996754
 31
0.0
 11
464.2495047487243
 21
360.866480012633
 31
0.0
  0
LINE
  5
A61
102
{ACAD_REACTORS
330
A57
102
}
330
18
100
AcDbEntity
  8
ROGO
 62
     4
100
AcDbLine
 10
457.3997444985011
 20
362.1760385967852
 30
0.0
 11
456.385568458747
 21
360.1236285092309
 31
0.0
  0
LINE
  5
A62
102
{ACAD_REACTORS
330
A55
102
}
330
18
100
AcDbEntity
  8
ROGO
 62
     4
100
AcDbLine
 10
459.3158222039205
 20
360.8638967422569
 30
0.0
 11
461.0919051089429
 21
360.8648266971763
 31
0.0
  0
SPLINE
  5
A63
102
{ACAD_REACTORS
330
A57
102
}
330
18
100
AcDbEntity
  8
ROGO
 62
     4
100
AcDbSpline
210
0.0
220
0.0
230
1.0
 70
     8
 71
     3
 72
    15
 73
    11
 74
     9
 42
0.0000000001
 43
0.0000000001
 44
0.0000000001
 40
0.0
 40
0.0
 40
0.0
 40
0.0
 40
0.1539705029171565
 40
0.2241725832584159
 40
0.303856617939432
 40
0.3581410872472801
 40
0.4439925384670368
 40
0.4954152125467918
 40
0.5836396705644895
 40
0.6130478420064851
 40
0.6130478420064851
 40
0.6130478420064851
 40
0.6130478420064851
 10
458.443134091778
 20
361.6687879335275
 30
0.0
 10
458.5009622802168
 20
361.6690830969778
 30
0.0
 10
458.5851569418037
 20
361.6695128387261
 30
0.0
 10
458.6312522243029
 20
361.5653876559559
 30
0.0
 10
458.6106496752861
 20
361.4983209546561
 30
0.0
 10
458.5847425028442
 20
361.4294618660059
 30
0.0
 10
458.5389194523551
 20
361.3826563014289
 30
0.0
 10
458.4774089237873
 20
361.3375655547746
 30
0.0
 10
458.4192590946918
 20
361.3320805695853
 30
0.0
 10
458.3814425481451
 20
361.3220392740583
 30
0.0
 10
458.3719884069829
 20
361.3195289489749
 30
0.0
 11
458.443134091778
 21
361.6687879335275
 31
0.0
 11
458.5929428005945
 21
361.6332314076668
 31
0.0
 11
458.6215078823946
 21
361.5691036587121
 31
0.0
 11
458.6072833874936
 21
361.4906995189754
 31
0.0
 11
458.5859109892485
 21
361.4407993766781
 31
0.0
 11
458.5288815807563
 21
361.3766268105492
 31
0.0
 11
458.4860994674238
 21
361.3480964374651
 31
0.0
 11
458.4005161720628
 21
361.326670879184
 31
0.0
 11
458.3719884069829
 21
361.3195289489749
 31
0.0
  0
LINE
  5
A64
102
{ACAD_REACTORS
330
A57
102
}
330
18
100
AcDbEntity
  8
ROGO
 62
     4
100
AcDbLine
 10
458.0371471483324
 20
361.6685753592415
 30
0.0
 11
457.8793322256712
 21
361.319270994778
 31
0.0
  0
LINE
  5
A65
102
{ACAD_REACTORS
330
A50
330
A57
102
}
330
18
100
AcDbEntity
  8
ROGO
 62
     4
100
AcDbLine
 10
457.6732065888283
 20
360.8630366706535
 30
0.0
 11
457.3393692839386
 21
360.1241279182207
 31
0.0
  0
LINE
  5
A66
102
{ACAD_REACTORS
330
A57
102
}
330
18
100
AcDbEntity
  8
ROGO
 62
     4
100
AcDbLine
 10
458.443134091778
 20
361.6687879335276
 30
0.0
 11
458.0371471483324
 21
361.6685753592415
 31
0.0
  0
LINE
  5
A67
102
{ACAD_REACTORS
330
A57
102
}
330
18
100
AcDbEntity
  8
ROGO
 62
     4
100
AcDbLine
 10
458.3719884069832
 20
361.3195289489748
 30
0.0
 11
457.8793322256712
 21
361.319270994778
 31
0.0
  0
LINE
  5
A68
102
{ACAD_REACTORS
330
A57
102
}
330
18
100
AcDbEntity
  8
ROGO
 62
     4
100
AcDbLine
 10
458.5648147350901
 20
360.8635035156298
 30
0.0
 11
457.6732065888283
 21
360.8630366706535
 31
0.0
  0
LINE
  5
A69
102
{ACAD_REACTORS
330
A56
102
}
330
18
100
AcDbEntity
  8
ROGO
 62
     4
100
AcDbLine
 10
462.2166035710155
 20
361.1154302923301
 30
0.0
 11
463.046480446042
 21
361.1158648148853
 31
0.0
  0
LINE
  5
A6A
102
{ACAD_REACTORS
330
A56
102
}
330
18
100
AcDbEntity
  8
ROGO
 62
     4
100
AcDbLine
 10
462.4066232341444
 20
361.3792278342453
 30
0.0
 11
462.9291972845499
 21
361.3795014534034
 31
0.0
  0
LINE
  5
A6B
102
{ACAD_REACTORS
330
A55
102
}
330
18
100
AcDbEntity
  8
ROGO
 62
     4
100
AcDbLine
 10
461.4760259975732
 20
361.6421804856332
 30
0.0
 11
461.3568259121859
 21
361.4009526828692
 31
0.0
  0
LINE
  5
A6C
102
{ACAD_REACTORS
330
A55
102
}
330
18
100
AcDbEntity
  8
ROGO
 62
     4
100
AcDbLine
 10
460.5425617033126
 20
361.6416917248272
 30
0.0
 11
461.4760259975732
 21
361.6421804856332
 31
0.0
  0
LINE
  5
A6D
102
{ACAD_REACTORS
330
A55
102
}
330
18
100
AcDbEntity
  8
ROGO
 62
     4
100
AcDbLine
 10
460.3071100116876
 20
361.165203020618
 30
0.0
 11
461.2405743059484
 21
361.1656917814242
 31
0.0
  0
LINE
  5
A6E
102
{ACAD_REACTORS
330
A55
102
}
330
18
100
AcDbEntity
  8
ROGO
 62
     4
100
AcDbLine
 10
460.4233616179254
 20
361.4004639220629
 30
0.0
 11
461.3568259121859
 21
361.4009526828692
 31
0.0
  0
LINE
  5
A6F
102
{ACAD_REACTORS
330
A55
102
}
330
18
100
AcDbEntity
  8
ROGO
 62
     4
100
AcDbLine
 10
461.2405743059484
 20
361.1656917814242
 30
0.0
 11
461.0919051089429
 21
360.8648266971763
 31
0.0
  0
LINE
  5
A70
102
{ACAD_REACTORS
330
A55
102
}
330
18
100
AcDbEntity
  8
ROGO
 62
     4
100
AcDbLine
 10
460.4233616179254
 20
361.4004639220629
 30
0.0
 11
460.3071100116876
 21
361.1652030206179
 31
0.0
  0
LINE
  5
A71
102
{ACAD_REACTORS
330
A56
102
}
330
18
100
AcDbEntity
  8
ROGO
 62
     4
100
AcDbLine
 10
462.2166035710155
 20
361.1154302923301
 30
0.0
 11
462.0364440655176
 21
360.8653212566627
 31
0.0
  0
LINE
  5
A72
102
{ACAD_REACTORS
330
A56
102
}
330
18
100
AcDbEntity
  8
ROGO
 62
     4
100
AcDbLine
 10
461.3091969135155
 20
360.8649404709094
 30
0.0
 11
462.0364440655178
 21
360.8653212566625
 31
0.0
  0
LINE
  5
A73
102
{ACAD_REACTORS
330
A56
102
}
330
18
100
AcDbEntity
  8
ROGO
 62
     4
100
AcDbLine
 10
463.8898853830141
 20
360.8662917163559
 30
0.0
 11
463.1576777612556
 21
360.8659083333063
 31
0.0
  0
LINE
  5
A74
102
{ACAD_REACTORS
330
A54
102
}
330
18
100
AcDbEntity
  8
ROGO
 62
     4
100
AcDbLine
 10
465.6238944813956
 20
361.3557695867923
 30
0.0
 11
465.3805336086898
 21
360.8670722180129
 31
0.0
  0
SPLINE
  5
A75
102
{ACAD_REACTORS
330
A54
102
}
330
18
100
AcDbEntity
  8
ROGO
 62
     4
100
AcDbSpline
210
0.0
220
0.0
230
1.0
 70
     8
 71
     3
 72
    16
 73
    12
 74
    10
 42
0.0000000001
 43
0.0000000001
 44
0.0000000001
 40
0.0
 40
0.0
 40
0.0
 40
0.0
 40
0.1255907025628448
 40
0.1869327038466472
 40
0.2171823804787413
 40
0.2490606136881879
 40
0.2947101524736287
 40
0.336276331092867
 40
0.3796288870081155
 40
0.4523125795606609
 40
0.5242542460841375
 40
0.5242542460841375
 40
0.5242542460841375
 40
0.5242542460841375
 10
464.9694921703337
 20
361.69142698857
 30
0.0
 10
464.9269648636054
 20
361.6849206271294
 30
0.0
 10
464.8636660343782
 20
361.6752363773284
 30
0.0
 10
464.8064440177681
 20
361.629891302761
 30
0.0
 10
464.7741755090149
 20
361.6029149309957
 30
0.0
 10
464.7632115097892
 20
361.567207191182
 30
0.0
 10
464.7337297997248
 20
361.5397780998003
 30
0.0
 10
464.709436379858
 20
361.5020901939137
 30
0.0
 10
464.703658046503
 20
361.4503396903326
 30
0.0
 10
464.7079573873449
 20
361.3777222423705
 30
0.0
 10
464.7588819386761
 20
361.3627684603526
 30
0.0
 10
464.7842135756252
 20
361.3553299308577
 30
0.0
 11
464.9694921703337
 21
361.69142698857
 31
0.0
 11
464.8482507391313
 21
361.6586620693694
 31
0.0
 11
464.798339380632
 21
361.6230012026629
 31
0.0
 11
464.77695205565
 21
361.6016090249697
 31
0.0
 11
464.7627010289284
 21
361.573093590729
 31
0.0
 11
464.7341881904634
 21
361.5374439282622
 31
0.0
 11
464.7128083288496
 21
361.5017977682673
 31
0.0
 11
464.7056977421036
 21
361.4590323188892
 31
0.0
 11
464.7200010124039
 21
361.3877698770156
 31
0.0
 11
464.7842135756252
 21
361.3553299308577
 31
0.0
  0
LINE
  5
A76
102
{ACAD_REACTORS
330
A54
102
}
330
18
100
AcDbEntity
  8
ROGO
 62
     4
100
AcDbLine
 10
464.7842135756252
 20
361.3553299308579
 30
0.0
 11
465.6238944813956
 21
361.3557695867923
 31
0.0
  0
LINE
  5
A77
102
{ACAD_REACTORS
330
A54
102
}
330
18
100
AcDbEntity
  8
ROGO
 62
     4
100
AcDbLine
 10
464.2495047487243
 20
360.8664800126327
 30
0.0
 11
465.3805336086898
 21
360.8670722180129
 31
0.0
  0
LINE
  5
A78
102
{ACAD_REACTORS
330
A54
102
}
330
18
100
AcDbEntity
  8
ROGO
 62
     4
100
AcDbLine
 10
464.9694921703337
 20
361.6914269885703
 30
0.0
 11
465.7912589810388
 21
361.6918572647055
 31
0.0
  0
LINE
  5
A79
102
{ACAD_REACTORS
330
A56
102
}
330
18
100
AcDbEntity
  8
ROGO
 62
     4
100
AcDbLine
 10
463.046480446042
 20
361.1158648148853
 30
0.0
 11
463.1576777612556
 21
360.8659083333063
 31
0.0
  0
LINE
  5
A7A
102
{ACAD_REACTORS
330
A55
102
}
330
18
100
AcDbEntity
  8
ROGO
 62
     4
100
AcDbLine
 10
459.9648664530702
 20
362.1773816916226
 30
0.0
 11
461.7409493580926
 21
362.1783116465419
 31
0.0
  0
TEXT
  5
A7B
330
18
100
AcDbEntity
  8
文字
100
AcDbText
 10
457.0377688440853
 20
368.3503470124384
 30
0.0
 40
2.0
  1
.9
 50
0.030000000000189
  7
STYLE3
100
AcDbText
  0
LINE
  5
A7C
102
{ACAD_REACTORS
330
A57
102
}
330
18
100
AcDbEntity
  8
ROGO
 62
     4
100
AcDbLine
 10
457.3997444985011
 20
362.1760385967852
 30
0.0
 11
459.0122425904485
 21
362.1768828988889
 31
0.0
  0
LINE
  5
A7D
102
{ACAD_REACTORS
330
A56
102
}
330
18
100
AcDbEntity
  8
ROGO
 62
     4
100
AcDbLine
 10
462.2554435527645
 20
362.1785810350971
 30
0.0
 11
463.3058468915489
 21
362.1791310250495
 31
0.0
  0
LINE
  5
A7E
102
{ACAD_REACTORS
330
A55
102
}
330
18
100
AcDbEntity
  8
ROGO
 62
     4
100
AcDbLine
 10
461.7409493580926
 20
362.1783116465419
 30
0.0
 11
461.5922726824846
 21
361.8774314276842
 31
0.0
  0
LINE
  5
A7F
102
{ACAD_REACTORS
330
A55
102
}
330
18
100
AcDbEntity
  8
ROGO
 62
     4
100
AcDbLine
 10
460.6588083882241
 20
361.8769426668781
 30
0.0
 11
461.5922726824846
 21
361.8774314276842
 31
0.0
  0
LINE
  5
A80
102
{ACAD_REACTORS
330
A54
102
}
330
18
100
AcDbEntity
  8
ROGO
 62
     4
100
AcDbLine
 10
464.7195862690536
 20
362.179871257324
 30
0.0
 11
466.0346224308972
 21
362.1805598087113
 31
0.0
  0
HATCH
  5
A81
330
18
100
AcDbEntity
  8
ROGO
 62
     4
100
AcDbHatch
 10
0.0
 20
0.0
 30
0.0
210
0.0
220
0.0
230
1.0
  2
SOLID
 70
     1
 71
     1
 91
        1
 92
        5
 93
        8
 72
     4
 94
        3
 73
     0
 74
     0
 95
       26
 96
       22
 40
0.0
 40
0.0
 40
0.0
 40
0.0
 40
0.2382195346593054
 40
0.3976890672660053
 40
0.5126795869788109
 40
0.5985392873137437
 40
0.7099038249254615
 40
0.7911890807495686
 40
0.9379713068544397
 40
1.057449928673425
 40
1.138714535893082
 40
1.218398644003286
 40
1.360938021870341
 40
1.461730374800306
 40
1.516014844107743
 40
1.593124329220457
 40
1.6488068185936
 40
1.729472362005244
 40
1.775122082164316
 40
1.874460993765305
 40
1.919820003751119
 40
1.919820003751119
 40
1.919820003751119
 40
1.919820003751119
 10
468.9506554599952
 20
362.1820866401746
 10
468.8698026061453
 20
362.1772203337891
 10
468.7348250272521
 20
362.1690964120871
 10
468.5866629793343
 20
362.0789833184121
 10
468.4781036563733
 20
362.0265837843616
 10
468.4006969894547
 20
361.9553878231481
 10
468.3439687630148
 20
361.8818597577188
 10
468.2724495211082
 20
361.7942495501987
 10
468.214143625144
 20
361.6922440858569
 10
468.1844836361165
 20
361.5798343994517
 10
468.1582058744097
 20
361.4902418456085
 10
468.1387353297637
 20
361.3904077742781
 10
468.1437589533445
 20
361.2825655017362
 10
468.1509245923289
 20
361.1824084289224
 10
468.1827207151181
 20
361.1109252446075
 10
468.2189148852694
 20
361.0600412419251
 10
468.2632308700692
 20
361.0040004853388
 10
468.3117095694758
 20
360.9668948893087
 10
468.3518245510963
 20
360.8996506291048
 10
468.4219873160682
 20
360.8911038333935
 10
468.4665916490819
 20
360.8740433959508
 10
468.4805739396663
 20
360.8686953954831
 72
     1
 10
468.4805739396665
 20
360.868695395483
 11
469.6116027996316
 21
360.8692876008634
 72
     1
 10
469.6116027996316
 20
360.8692876008634
 11
469.8549636723376
 21
361.3579849696427
 72
     1
 10
469.8549636723376
 20
361.3579849696427
 11
469.0152827665673
 21
361.3575453137084
 72
     4
 94
        3
 73
     0
 74
     0
 95
       16
 96
       12
 40
0.0
 40
0.0
 40
0.0
 40
0.0
 40
0.0719416665233228
 40
0.1446253590759463
 40
0.1879779149909704
 40
0.2295440936102477
 40
0.2751936323958128
 40
0.3070718656049035
 40
0.3373215422371182
 40
0.3986635435211784
 40
0.5242542460841478
 40
0.5242542460841478
 40
0.5242542460841478
 40
0.5242542460841478
 10
469.0152827665673
 20
361.3575453137083
 10
468.9899511296183
 20
361.3649838432031
 10
468.939026578287
 20
361.3799376252208
 10
468.934727237445
 20
361.4525550731828
 10
468.9405055708
 20
361.5043055767638
 10
468.9647989906667
 20
361.5419934826504
 10
468.9942807007305
 20
361.5694225740325
 10
469.0052446999569
 20
361.6051303138458
 10
469.0375132087097
 20
361.6321066856112
 10
469.0947352253203
 20
361.6774517601792
 10
469.1580340545474
 20
361.6871360099801
 10
469.2005613612757
 20
361.6936423714206
 72
     1
 10
469.2005613612758
 20
361.6936423714206
 11
470.0223281719806
 21
361.6940726475558
 72
     1
 10
470.0223281719806
 20
361.6940726475558
 11
470.2656916218391
 21
362.1827751915617
 72
     1
 10
470.2656916218391
 20
362.1827751915617
 11
468.950655459995
 21
362.1820866401745
 97
        8
330
A97
330
A85
330
A88
330
A8A
330
A8B
330
A89
330
A8C
330
A84
 75
     0
 76
     1
 47
0.0514683685270805
 98
        1
 10
469.177698753341
 20
361.9417641836374
450
        0
451
        0
460
0.0
461
0.0
452
        0
462
0.0
453
        0
470

  0
HATCH
  5
A82
330
18
100
AcDbEntity
  8
ROGO
 62
     4
100
AcDbHatch
 10
0.0
 20
0.0
 30
0.0
210
0.0
220
0.0
230
1.0
  2
SOLID
 70
     1
 71
     1
 91
        1
 92
        7
 72
     0
 73
     1
 93
       11
 10
469.5186601830106
 20
360.130504980606
 10
470.2747438218724
 20
360.1309008651097
 10
470.5415126540189
 20
360.66660418049
 10
470.8088423269908
 20
360.1311805184587
 10
471.5649094233505
 20
360.1315763943007
 10
471.0528057970551
 20
361.1572477905314
 10
472.2951771914259
 20
362.1838378278182
 10
471.5391100950657
 20
362.1834419519759
 10
471.1852143588918
 20
361.9592332130546
 10
471.2968023521232
 20
362.183315079927
 10
470.5407187132611
 20
362.1829191954232
 97
       11
330
A9A
330
A98
330
A99
330
A95
330
A86
330
A53
330
A8E
330
A8F
330
A90
330
A8D
330
A83
 75
     0
 76
     1
 47
0.0514683685270805
 98
        1
 10
470.4761083976551
 20
361.3025892614273
450
        0
451
        0
460
0.0
461
0.0
452
        0
462
0.0
453
        0
470

  0
LINE
  5
A83
102
{ACAD_REACTORS
330
A82
102
}
330
18
100
AcDbEntity
  8
ROGO
 62
     4
100
AcDbLine
 10
471.0528057970551
 20
361.1572477905314
 30
0.0
 11
472.2951771914258
 21
362.1838378278182
 31
0.0
  0
LINE
  5
A84
102
{ACAD_REACTORS
330
A81
102
}
330
18
100
AcDbEntity
  8
ROGO
 62
     4
100
AcDbLine
 10
470.2656916218391
 20
362.1827751915617
 30
0.0
 11
470.0223281719807
 21
361.6940726475558
 31
0.0
  0
SPLINE
  5
A85
102
{ACAD_REACTORS
330
A81
102
}
330
18
100
AcDbEntity
  8
ROGO
 62
     4
100
AcDbSpline
210
0.0
220
0.0
230
1.0
 70
     8
 71
     3
 72
    26
 73
    22
 74
    20
 42
0.0000000001
 43
0.0000000001
 44
0.0000000001
 40
0.0
 40
0.0
 40
0.0
 40
0.0
 40
0.2382195346593054
 40
0.3976890672660053
 40
0.5126795869788109
 40
0.5985392873137437
 40
0.7099038249254615
 40
0.7911890807495686
 40
0.9379713068544397
 40
1.057449928673425
 40
1.138714535893082
 40
1.218398644003286
 40
1.360938021870341
 40
1.461730374800306
 40
1.516014844107743
 40
1.593124329220457
 40
1.6488068185936
 40
1.729472362005244
 40
1.775122082164316
 40
1.874460993765305
 40
1.919820003751119
 40
1.919820003751119
 40
1.919820003751119
 40
1.919820003751119
 10
468.9506554599952
 20
362.1820866401746
 30
0.0
 10
468.8698026061453
 20
362.1772203337892
 30
0.0
 10
468.7348250272521
 20
362.1690964120871
 30
0.0
 10
468.5866629793343
 20
362.0789833184121
 30
0.0
 10
468.4781036563732
 20
362.0265837843615
 30
0.0
 10
468.4006969894547
 20
361.9553878231481
 30
0.0
 10
468.3439687630147
 20
361.8818597577188
 30
0.0
 10
468.2724495211083
 20
361.7942495501988
 30
0.0
 10
468.2141436251441
 20
361.6922440858569
 30
0.0
 10
468.1844836361165
 20
361.5798343994517
 30
0.0
 10
468.1582058744099
 20
361.4902418456085
 30
0.0
 10
468.1387353297635
 20
361.3904077742781
 30
0.0
 10
468.1437589533446
 20
361.2825655017362
 30
0.0
 10
468.150924592329
 20
361.1824084289225
 30
0.0
 10
468.1827207151182
 20
361.1109252446075
 30
0.0
 10
468.2189148852693
 20
361.0600412419251
 30
0.0
 10
468.2632308700693
 20
361.0040004853388
 30
0.0
 10
468.3117095694758
 20
360.9668948893087
 30
0.0
 10
468.3518245510962
 20
360.8996506291048
 30
0.0
 10
468.4219873160683
 20
360.8911038333936
 30
0.0
 10
468.4665916490819
 20
360.8740433959507
 30
0.0
 10
468.4805739396663
 20
360.8686953954831
 30
0.0
 11
468.9506554599952
 21
362.1820866401746
 31
0.0
 11
468.7152901051081
 21
362.145321216035
 31
0.0
 11
468.5726699380087
 21
362.0739768415802
 31
0.0
 11
468.472839757763
 21
362.0169088581225
 31
0.0
 11
468.4086740511324
 21
361.9598593161944
 31
0.0
 11
468.3373902943879
 21
361.87429830719
 31
0.0
 11
468.2874938626252
 21
361.8101294758797
 31
0.0
 11
468.2162320858322
 21
361.6818065197548
 31
0.0
 11
468.1806277293174
 21
361.5677562200229
 31
0.0
 11
468.1592702576871
 21
361.4893483454686
 31
0.0
 11
468.1450453526331
 21
361.4109442055172
 31
0.0
 11
468.1451199860735
 21
361.2684048471891
 31
0.0
 11
468.1594381829889
 21
361.1686346730575
 31
0.0
 11
468.1808628248128
 21
361.1187569392407
 31
0.0
 11
468.2236934499179
 21
361.0546366597072
 31
0.0
 11
468.2593803135163
 21
361.0118933866774
 31
0.0
 11
468.3164727502425
 21
360.9549075677173
 31
0.0
 11
468.3450229054279
 21
360.9192875510202
 31
0.0
 11
468.4377690307486
 21
360.8837013796042
 31
0.0
 11
468.4805739396663
 21
360.8686953954831
 31
0.0
  0
LINE
  5
A86
102
{ACAD_REACTORS
330
A50
330
A82
102
}
330
18
100
AcDbEntity
  8
ROGO
 62
     4
100
AcDbLine
 10
470.5407187132611
 20
362.1829191954232
 30
0.0
 11
469.5186601830108
 21
360.1305049806061
 31
0.0
  0
SPLINE
  5
A87
102
{ACAD_REACTORS
330
A4F
102
}
330
18
100
AcDbEntity
  8
ROGO
 62
     4
100
AcDbSpline
210
0.0
220
0.0
230
1.0
 70
     8
 71
     3
 72
    25
 73
    21
 74
     0
 42
0.0000000001
 43
0.0000000001
 40
0.0
 40
0.0
 40
0.0
 40
0.0
 40
0.4087168505087288
 40
0.6887487002771746
 40
0.9415836120477687
 40
1.17452070575514
 40
1.41154617586699
 40
1.599156012919487
 40
1.80099909059943
 40
2.178735911501585
 40
2.521686161369157
 40
2.762704659361267
 40
3.06256558063785
 40
3.222432137207705
 40
3.399493810628493
 40
3.567459719866414
 40
3.743172740007509
 40
3.995988754699505
 40
4.17170091132118
 40
4.337226830236035
 40
4.337226830236035
 40
4.337226830236035
 40
4.337226830236035
 10
467.5142985034288
 20
362.1868117852852
 30
0.0
 10
467.5635193751206
 20
362.1852561676027
 30
0.0
 10
467.646463866796
 20
362.1826347203694
 30
0.0
 10
467.7355499570918
 20
362.1130786668251
 30
0.0
 10
467.8037183832807
 20
362.0554083895078
 30
0.0
 10
467.8521202597533
 20
361.985669916776
 30
0.0
 10
467.8945474283568
 20
361.9215480191219
 30
0.0
 10
467.9225170441452
 20
361.8538412400306
 30
0.0
 10
467.9605555639822
 20
361.7726016502787
 30
0.0
 10
467.9763409415335
 20
361.6638967681512
 30
0.0
 10
467.9657733338551
 20
361.5515261665155
 30
0.0
 10
467.9380954332668
 20
361.4519103770431
 30
0.0
 10
467.9090488476585
 20
361.3754833926665
 30
0.0
 10
467.8748016638484
 20
361.3089442697722
 30
0.0
 10
467.8339556748384
 20
361.2658504064569
 30
0.0
 10
467.8056313987138
 20
361.2110693420444
 30
0.0
 10
467.751192460504
 20
361.1662449988665
 30
0.0
 10
467.7070712469799
 20
361.1109501190207
 30
0.0
 10
467.6569948569149
 20
361.0634835442397
 30
0.0
 10
467.6287628872828
 20
361.0341986347799
 30
0.0
 10
467.6138766757263
 20
361.0218840947443
 30
0.0
  0
LINE
  5
A88
102
{ACAD_REACTORS
330
A81
102
}
330
18
100
AcDbEntity
  8
ROGO
 62
     4
100
AcDbLine
 10
468.4805739396663
 20
360.868695395483
 30
0.0
 11
469.6116027996318
 21
360.8692876008634
 31
0.0
  0
SPLINE
  5
A89
102
{ACAD_REACTORS
330
A81
102
}
330
18
100
AcDbEntity
  8
ROGO
 62
     4
100
AcDbSpline
210
0.0
220
0.0
230
1.0
 70
     8
 71
     3
 72
    16
 73
    12
 74
    10
 42
0.0000000001
 43
0.0000000001
 44
0.0000000001
 40
0.0
 40
0.0
 40
0.0
 40
0.0
 40
0.1255907025629694
 40
0.1869327038470295
 40
0.2171823804792442
 40
0.2490606136883349
 40
0.2947101524739
 40
0.3362763310931773
 40
0.3796288870082014
 40
0.452312579560825
 40
0.5242542460841478
 40
0.5242542460841478
 40
0.5242542460841478
 40
0.5242542460841478
 10
469.2005613612757
 20
361.6936423714206
 30
0.0
 10
469.1580340545475
 20
361.6871360099801
 30
0.0
 10
469.0947352253203
 20
361.6774517601793
 30
0.0
 10
469.0375132087096
 20
361.6321066856111
 30
0.0
 10
469.0052446999571
 20
361.605130313846
 30
0.0
 10
468.9942807007303
 20
361.5694225740324
 30
0.0
 10
468.9647989906669
 20
361.5419934826504
 30
0.0
 10
468.9405055707999
 20
361.5043055767638
 30
0.0
 10
468.934727237445
 20
361.4525550731829
 30
0.0
 10
468.939026578287
 20
361.3799376252208
 30
0.0
 10
468.9899511296184
 20
361.3649838432031
 30
0.0
 10
469.0152827665673
 20
361.3575453137083
 30
0.0
 11
469.2005613612757
 21
361.6936423714206
 31
0.0
 11
469.0793199300732
 21
361.6608774522199
 31
0.0
 11
469.0294085715739
 21
361.6252165855131
 31
0.0
 11
469.0080212465917
 21
361.6038244078198
 31
0.0
 11
468.99377021987
 21
361.5753089735795
 31
0.0
 11
468.9652573814052
 21
361.5396593111124
 31
0.0
 11
468.9438775197916
 21
361.5040131511174
 31
0.0
 11
468.9367669330456
 21
361.4612477017395
 31
0.0
 11
468.951070203346
 21
361.3899852598659
 31
0.0
 11
469.0152827665673
 21
361.3575453137083
 31
0.0
  0
LINE
  5
A8A
102
{ACAD_REACTORS
330
A81
102
}
330
18
100
AcDbEntity
  8
ROGO
 62
     4
100
AcDbLine
 10
469.8549636723376
 20
361.3579849696427
 30
0.0
 11
469.6116027996317
 21
360.8692876008633
 31
0.0
  0
LINE
  5
A8B
102
{ACAD_REACTORS
330
A81
102
}
330
18
100
AcDbEntity
  8
ROGO
 62
     4
100
AcDbLine
 10
469.0152827665672
 20
361.3575453137084
 30
0.0
 11
469.8549636723376
 21
361.3579849696427
 31
0.0
  0
LINE
  5
A8C
102
{ACAD_REACTORS
330
A81
102
}
330
18
100
AcDbEntity
  8
ROGO
 62
     4
100
AcDbLine
 10
469.2005613612756
 20
361.6936423714207
 30
0.0
 11
470.0223281719807
 21
361.6940726475558
 31
0.0
  0
LINE
  5
A8D
102
{ACAD_REACTORS
330
A82
102
}
330
18
100
AcDbEntity
  8
ROGO
 62
     4
100
AcDbLine
 10
471.0528057970551
 20
361.1572477905314
 30
0.0
 11
471.5649094233506
 21
360.1315763943008
 31
0.0
  0
LINE
  5
A8E
102
{ACAD_REACTORS
330
A82
102
}
330
18
100
AcDbEntity
  8
ROGO
 62
     4
100
AcDbLine
 10
470.541512654019
 20
360.66660418049
 30
0.0
 11
470.2747438218724
 21
360.1309008651097
 31
0.0
  0
LINE
  5
A8F
102
{ACAD_REACTORS
330
A82
102
}
330
18
100
AcDbEntity
  8
ROGO
 62
     4
100
AcDbLine
 10
470.541512654019
 20
360.66660418049
 30
0.0
 11
470.8088423269909
 21
360.1311805184587
 31
0.0
  0
LINE
  5
A90
102
{ACAD_REACTORS
330
A82
102
}
330
18
100
AcDbEntity
  8
ROGO
 62
     4
100
AcDbLine
 10
470.8088423269909
 20
360.1311805184587
 30
0.0
 11
471.5649094233506
 21
360.1315763943008
 31
0.0
  0
LINE
  5
A91
102
{ACAD_REACTORS
330
A4F
102
}
330
18
100
AcDbEntity
  8
ROGO
 62
     4
100
AcDbLine
 10
466.3802513031596
 20
360.8675956690217
 30
0.0
 11
467.1307050234743
 21
360.8679886057065
 31
0.0
  0
SPLINE
  5
A92
102
{ACAD_REACTORS
330
A4F
102
}
330
18
100
AcDbEntity
  8
ROGO
 62
     4
100
AcDbSpline
210
0.0
220
0.0
230
1.0
 70
     8
 71
     3
 72
    11
 73
     7
 74
     0
 42
0.0000000001
 43
0.0000000001
 40
0.1647869275458134
 40
0.1647869275458134
 40
0.1647869275458134
 40
0.1647869275458134
 40
0.2895635144633836
 40
0.5387013147903714
 40
0.7953622617455423
 40
0.8850764140209602
 40
0.8850764140209602
 40
0.8850764140209602
 40
0.8850764140209602
 10
467.3807071187093
 20
360.8973959574312
 30
0.0
 10
467.3667306151124
 20
360.8934977061005
 30
0.0
 10
467.3233932368964
 20
360.8865474239668
 30
0.0
 10
467.2506994604015
 20
360.8769969659136
 30
0.0
 10
467.1816081252956
 20
360.8670342578266
 30
0.0
 10
467.141177028029
 20
360.8677922731652
 30
0.0
 10
467.1307050234745
 20
360.8679886057065
 30
0.0
  0
SPLINE
  5
A93
102
{ACAD_REACTORS
330
A4F
102
}
330
18
100
AcDbEntity
  8
ROGO
 62
     4
100
AcDbSpline
210
0.0
220
0.0
230
1.0
 70
     8
 71
     3
 72
     9
 73
     5
 74
     3
 42
0.0000000001
 43
0.0000000001
 44
0.0000000001
 40
0.0
 40
0.0
 40
0.0
 40
0.0
 40
0.1135793343552586
 40
0.2662938392176748
 40
0.2662938392176748
 40
0.2662938392176748
 40
0.2662938392176748
 10
467.3807071187093
 20
360.8973959574312
 30
0.0
 10
467.4171862374389
 20
360.9085773991081
 30
0.0
 10
467.5027138083912
 20
360.9347929870852
 30
0.0
 10
467.5733615344791
 20
360.9901423035079
 30
0.0
 10
467.6138766757263
 20
361.0218840947443
 30
0.0
 11
467.3807071187093
 21
360.8973959574312
 31
0.0
 11
467.487437558746
 21
360.9362402409508
 31
0.0
 11
467.6138766757263
 21
361.0218840947443
 31
0.0
  0
ELLIPSE
  5
A94
102
{ACAD_REACTORS
330
A4F
102
}
330
18
100
AcDbEntity
  8
ROGO
 62
     4
100
AcDbEllipse
 10
466.9366579948804
 20
361.5088132482783
 30
0.0
 11
0.1782025952914886
 21
0.1568724203442331
 31
0.0
210
0.0
220
0.0
230
1.0
 40
0.6788083417438791
 41
0.0
 42
6.283185307179586
  0
LINE
  5
A95
102
{ACAD_REACTORS
330
A82
102
}
330
18
100
AcDbEntity
  8
ROGO
 62
     4
100
AcDbLine
 10
470.5407187132611
 20
362.1829191954232
 30
0.0
 11
471.2968023521232
 21
362.183315079927
 31
0.0
  0
LINE
  5
A96
102
{ACAD_REACTORS
330
A4F
102
}
330
18
100
AcDbEntity
  8
ROGO
 62
     4
100
AcDbLine
 10
466.7638447831142
 20
362.1864188486001
 30
0.0
 11
467.514298503429
 21
362.1868117852851
 31
0.0
  0
LINE
  5
A97
102
{ACAD_REACTORS
330
A81
102
}
330
18
100
AcDbEntity
  8
ROGO
 62
     4
100
AcDbLine
 10
468.9506554599955
 20
362.1820866401745
 30
0.0
 11
470.2656916218391
 21
362.1827751915617
 31
0.0
  0
LINE
  5
A98
102
{ACAD_REACTORS
330
A82
102
}
330
18
100
AcDbEntity
  8
ROGO
 62
     4
100
AcDbLine
 10
471.1852143588917
 20
361.9592332130545
 30
0.0
 11
471.5391100950657
 21
362.1834419519759
 31
0.0
  0
LINE
  5
A99
102
{ACAD_REACTORS
330
A82
102
}
330
18
100
AcDbEntity
  8
ROGO
 62
     4
100
AcDbLine
 10
471.2968023521232
 20
362.183315079927
 30
0.0
 11
471.1852143588917
 21
361.9592332130545
 31
0.0
  0
LINE
  5
A9A
102
{ACAD_REACTORS
330
A82
102
}
330
18
100
AcDbEntity
  8
ROGO
 62
     4
100
AcDbLine
 10
471.5391100950657
 20
362.1834419519759
 30
0.0
 11
472.2951771914258
 21
362.1838378278182
 31
0.0
  0
TEXT
  5
A9B
330
18
100
AcDbEntity
  8
文字
100
AcDbText
 10
468.1760543569277
 20
368.504545010703
 30
0.0
 40
2.0
  1
.1
 50
0.030000000000189
  7
STYLE3
100
AcDbText
  0
LINE
  5
A9C
330
18
100
AcDbEntity
  8
目盛
100
AcDbLine
 10
478.1596272433177
 20
370.5000648660449
 30
0.0
 11
476.9346407523999
 21
368.9191132231826
 31
0.0
  0
TEXT
  5
A9D
330
18
100
AcDbEntity
  8
文字
100
AcDbText
 10
473.0151187331899
 20
365.7733556239776
 30
0.0
 40
2.0
  1
.2
 50
0.030000000000189
  7
STYLE3
100
AcDbText
  0
LINE
  5
A9E
330
18
100
AcDbEntity
  8
目盛
100
AcDbLine
 10
459.7506834923652
 20
374.9094680526279
 30
0.0
 11
460.1264747189215
 21
372.945090045715
 31
0.0
  0
LINE
  5
A9F
330
18
100
AcDbEntity
  8
目盛
100
AcDbLine
 10
456.2699806881806
 20
373.9552963493764
 30
0.0
 11
456.9484417237966
 21
372.0738897949199
 31
0.0
  0
LINE
  5
AA0
330
18
100
AcDbEntity
  8
目盛
100
AcDbLine
 10
456.9534393452967
 20
374.1896964284485
 30
0.0
 11
457.8819841173574
 21
371.3370126734067
 31
0.0
  0
LINE
  5
AA1
330
18
100
AcDbEntity
  8
目盛
100
AcDbLine
 10
454.9268300562309
 20
373.4226917091581
 30
0.0
 11
455.7220867989729
 21
371.5875986016773
 31
0.0
  0
LINE
  5
AA2
330
18
100
AcDbEntity
  8
目盛
100
AcDbLine
 10
454.2684636089103
 20
373.1250127644899
 30
0.0
 11
455.1209696079411
 21
371.3158047826324
 31
0.0
  0
LINE
  5
AA3
330
18
100
AcDbEntity
  8
目盛
100
AcDbLine
 10
455.5942219610658
 20
373.699543977375
 30
0.0
 11
456.3314446251265
 21
371.8403767596145
 31
0.0
  0
LINE
  5
AA4
330
18
100
AcDbEntity
  8
目盛
100
AcDbLine
 10
457.6439234412348
 20
374.4025128900126
 30
0.0
 11
458.2029111939764
 21
372.4822179407184
 31
0.0
  0
LINE
  5
AA5
330
18
100
AcDbEntity
  8
目盛
100
AcDbLine
 10
458.3407515515552
 20
374.5935357099151
 30
0.0
 11
458.8391455555729
 21
372.6566300806295
 31
0.0
  0
LINE
  5
AA6
330
18
100
AcDbEntity
  8
目盛
100
AcDbLine
 10
459.0432359910419
 20
374.7625763716951
 30
0.0
 11
459.4805443916263
 21
372.8109715544285
 31
0.0
  0
LINE
  5
AA7
330
18
100
AcDbEntity
  8
目盛
100
AcDbLine
 10
464.0602398264745
 20
375.3191178203388
 30
0.0
 11
464.0618106227296
 21
372.3191182315722
 31
0.0
  0
LINE
  5
AA8
330
18
100
AcDbEntity
  8
目盛
100
AcDbLine
 10
461.8958023630977
 20
375.2159096953081
 30
0.0
 11
462.0850615139383
 21
373.2248845890316
 31
0.0
  0
LINE
  5
AA9
330
18
100
AcDbEntity
  8
目盛
100
AcDbLine
 10
463.3377984090897
 20
375.3073904377187
 30
0.0
 11
463.4016665994092
 21
373.308410484276
 31
0.0
  0
LINE
  5
AAA
330
18
100
AcDbEntity
  8
目盛
100
AcDbLine
 10
461.1776708104936
 20
375.1362466159658
 30
0.0
 11
461.4293761832995
 21
373.1521487339799
 31
0.0
  0
LINE
  5
AAB
330
18
100
AcDbEntity
  8
目盛
100
AcDbLine
 10
462.6160818389239
 20
375.2729764085446
 30
0.0
 11
462.7427079918666
 21
373.276988979378
 31
0.0
  0
LINE
  5
AAC
330
18
100
AcDbEntity
  8
目盛
100
AcDbLine
 10
460.4623958902528
 20
375.0340657883589
 30
0.0
 11
460.9332506781891
 21
372.0712468994158
 31
0.0
  0
LINE
  5
AAD
330
18
100
AcDbEntity
  8
目盛
100
AcDbLine
 10
464.7826931286207
 20
375.3081469828938
 30
0.0
 11
464.7209182998503
 21
373.3091012429142
 31
0.0
  0
LINE
  5
AAE
330
18
100
AcDbEntity
  8
目盛
100
AcDbLine
 10
465.5044453413417
 20
375.2744887522761
 30
0.0
 11
465.3799094505957
 21
373.2783698149589
 31
0.0
  0
LINE
  5
AAF
330
18
100
AcDbEntity
  8
目盛
100
AcDbLine
 10
466.2247841823421
 20
375.2181763450954
 30
0.0
 11
466.0376101315091
 21
373.2269541388374
 31
0.0
  0
LINE
  5
AB0
330
18
100
AcDbEntity
  8
目盛
100
AcDbLine
 10
473.1956305211831
 20
373.4322572315873
 30
0.0
 11
472.4022959191465
 21
371.5963323395472
 31
0.0
  0
LINE
  5
AB1
330
18
100
AcDbEntity
  8
目盛
100
AcDbLine
 10
472.5279490633222
 20
373.7084104569624
 30
0.0
 11
471.7926737184909
 21
371.8484722409767
 31
0.0
  0
LINE
  5
AB2
330
18
100
AcDbEntity
  8
目盛
100
AcDbLine
 10
469.0778237197633
 20
374.7678304700234
 30
0.0
 11
468.6425592743719
 21
372.8157687746413
 31
0.0
  0
LINE
  5
AB3
330
18
100
AcDbEntity
  8
目盛
100
AcDbLine
 10
470.4775125598387
 20
374.4092325421756
 30
0.0
 11
469.9205360413973
 21
372.4883532753019
 31
0.0
  0
LINE
  5
AB4
330
18
100
AcDbEntity
  8
目盛
100
AcDbLine
 10
471.851922883525
 20
373.9634550359766
 30
0.0
 11
471.1754324238935
 21
372.0813390305115
 31
0.0
  0
LINE
  5
AB5
330
18
100
AcDbEntity
  8
目盛
100
AcDbLine
 10
469.7804847930043
 20
374.5995255407809
 30
0.0
 11
469.2841193847224
 21
372.6620990566372
 31
0.0
  0
LINE
  5
AB6
330
18
100
AcDbEntity
  8
目盛
100
AcDbLine
 10
471.1682191380131
 20
374.1971392704235
 30
0.0
 11
470.2426621979802
 21
371.3434847099068
 31
0.0
  0
LINE
  5
AB7
330
18
100
AcDbEntity
  8
目盛
100
AcDbLine
 10
466.9429987641528
 20
375.1392653348991
 30
0.0
 11
466.6933712714234
 21
373.1549049556148
 31
0.0
  0
LINE
  5
AB8
330
18
100
AcDbEntity
  8
目盛
100
AcDbLine
 10
467.6583802956933
 20
375.037833597327
 30
0.0
 11
467.1906284220503
 21
372.0745232550402
 31
0.0
  0
LINE
  5
AB9
330
18
100
AcDbEntity
  8
目盛
100
AcDbLine
 10
468.3702227817605
 20
374.9139812332586
 30
0.0
 11
467.9964888527175
 21
372.9492107758561
 31
0.0
  0
LINE
  5
ABA
330
18
100
AcDbEntity
  8
目盛
100
AcDbLine
 10
475.142062422308
 20
372.4799735006413
 30
0.0
 11
474.1794728723475
 21
370.7268558895533
 31
0.0
  0
LINE
  5
ABB
330
18
100
AcDbEntity
  8
目盛
100
AcDbLine
 10
473.8543083361186
 20
373.1352678897453
 30
0.0
 11
473.0036974023485
 21
371.3251681578655
 31
0.0
  0
LINE
  5
ABC
330
18
100
AcDbEntity
  8
目盛
100
AcDbLine
 10
484.8781743891239
 20
362.1229399619814
 30
0.0
 11
483.0689664072663
 21
361.2704339629511
 31
0.0
  0
LINE
  5
ABD
330
18
100
AcDbEntity
  8
目盛
100
AcDbLine
 10
484.5599625411835
 20
362.7716312235888
 30
0.0
 11
481.8876564616068
 21
361.4082603213549
 31
0.0
  0
LINE
  5
ABE
330
18
100
AcDbEntity
  8
目盛
100
AcDbLine
 10
485.1758533337922
 20
361.4645735146608
 30
0.0
 11
483.3407602263113
 21
360.6693167719188
 31
0.0
  0
LINE
  5
ABF
330
18
100
AcDbEntity
  8
目盛
100
AcDbLine
 10
486.3466973345492
 20
358.050652019337
 30
0.0
 11
484.4097917052635
 21
357.5522580153191
 31
0.0
  0
LINE
  5
AC0
330
18
100
AcDbEntity
  8
目盛
100
AcDbLine
 10
485.7084579740102
 20
360.1214228827112
 30
0.0
 11
483.8270514195539
 21
359.4429618470953
 31
0.0
  0
LINE
  5
AC1
330
18
100
AcDbEntity
  8
目盛
100
AcDbLine
 10
485.9428580530823
 20
359.4379642255954
 30
0.0
 11
483.0901742980407
 21
358.5094194535346
 31
0.0
  0
LINE
  5
AC2
330
18
100
AcDbEntity
  8
目盛
100
AcDbLine
 10
485.4527056020088
 20
360.7971816098262
 30
0.0
 11
483.5935383842481
 21
360.0599589457656
 31
0.0
  0
LINE
  5
AC3
330
18
100
AcDbEntity
  8
目盛
100
AcDbLine
 10
486.1556745146465
 20
358.747480129657
 30
0.0
 11
484.2353795653523
 21
358.1884923769155
 31
0.0
  0
LINE
  5
AC4
330
18
100
AcDbEntity
  8
目盛
100
AcDbLine
 10
486.5157379963291
 20
357.3481675798499
 30
0.0
 11
484.5641331790623
 21
356.9108591792655
 31
0.0
  0
LINE
  5
AC5
330
18
100
AcDbEntity
  8
目盛
100
AcDbLine
 10
486.7872274129929
 20
355.9290076806391
 30
0.0
 11
483.8244085240498
 21
355.4581528927029
 31
0.0
  0
LINE
  5
AC6
330
18
100
AcDbEntity
  8
目盛
100
AcDbLine
 10
486.6626296772617
 20
356.6407200785269
 30
0.0
 11
484.6982516703489
 21
356.2649288519706
 31
0.0
  0
TEXT
  5
AC7
330
18
100
AcDbEntity
  8
文字
100
AcDbText
 10
479.5170251916178
 20
356.8359850075215
 30
0.0
 40
2.0
  1
.4
 50
0.030000000000189
  7
STYLE3
100
AcDbText
  0
LINE
  5
AC8
330
18
100
AcDbEntity
  8
目盛
100
AcDbLine
 10
486.9690713199422
 20
354.4956012077941
 30
0.0
 11
484.9780462136656
 21
354.3063420569537
 31
0.0
  0
LINE
  5
AC9
330
18
100
AcDbEntity
  8
目盛
100
AcDbLine
 10
487.0605520623526
 20
353.053605161802
 30
0.0
 11
485.0615721089099
 21
352.9897369714826
 31
0.0
  0
LINE
  5
ACA
330
18
100
AcDbEntity
  8
目盛
100
AcDbLine
 10
487.0261380331784
 20
353.7753217319683
 30
0.0
 11
485.030150604012
 21
353.6486955790258
 31
0.0
  0
LINE
  5
ACB
330
18
100
AcDbEntity
  8
目盛
100
AcDbLine
 10
486.8894082405997
 20
355.2137327603987
 30
0.0
 11
484.9053103586138
 21
354.9620273875927
 31
0.0
  0
LINE
  5
ACC
330
18
100
AcDbEntity
  8
目盛
100
AcDbLine
 10
481.3168708067763
 20
367.5383252066477
 30
0.0
 11
479.8173413972969
 21
366.2149161428634
 31
0.0
  0
LINE
  5
ACD
330
18
100
AcDbEntity
  8
目盛
100
AcDbLine
 10
482.2384642917426
 20
366.4254969308764
 30
0.0
 11
480.6587963183532
 21
365.1988555432461
 31
0.0
  0
LINE
  5
ACE
330
18
100
AcDbEntity
  8
目盛
100
AcDbLine
 10
483.088364156902
 20
365.25699723379
 30
0.0
 11
481.4347918474116
 21
364.1319645154715
 31
0.0
  0
LINE
  5
ACF
330
18
100
AcDbEntity
  8
目盛
100
AcDbLine
 10
483.4853693827784
 20
364.6533036163957
 30
0.0
 11
481.7972748797333
 21
363.5807659952421
 31
0.0
  0
LINE
  5
AD0
330
18
100
AcDbEntity
  8
目盛
100
AcDbLine
 10
481.786408401017
 20
366.9891498424423
 30
0.0
 11
480.2460496355167
 21
365.7134951581541
 31
0.0
  0
LINE
  5
AD1
330
18
100
AcDbEntity
  8
目盛
100
AcDbLine
 10
482.6725923543659
 20
365.8479227293241
 30
0.0
 11
480.2464649948088
 21
364.0832964132986
 31
0.0
  0
LINE
  5
AD2
330
18
100
AcDbEntity
  8
目盛
100
AcDbLine
 10
480.8303148859372
 20
368.072481053712
 30
0.0
 11
479.3730946869657
 21
366.7026236554005
 31
0.0
  0
LINE
  5
AD3
330
18
100
AcDbEntity
  8
目盛
100
AcDbLine
 10
483.8632162357686
 20
364.0374376498561
 30
0.0
 11
482.1422654846376
 21
363.0184535910102
 31
0.0
  0
LINE
  5
AD4
330
18
100
AcDbEntity
  8
目盛
100
AcDbLine
 10
484.2215318266461
 20
363.4100071195267
 30
0.0
 11
482.4694231980475
 21
362.4455822372312
 31
0.0
  0
LINE
  5
AF5
330
18
100
AcDbEntity
  8
中心線
 48
0.5
100
AcDbLine
 10
489.4618053262473
 20
321.319120973129
 30
0.0
 11
596.8672493321537
 21
321.319120973129
 31
0.0
  0
ARC
  5
B13
330
18
100
AcDbEntity
  8
中心線
100
AcDbCircle
 10
414.0722825977629
 20
314.319120973129
 30
0.0
 40
12.5
100
AcDbArc
 50
348.0403449826532
 51
18.04892939099732
  0
ARC
  5
B1E
330
18
100
AcDbEntity
  8
寸法線
100
AcDbCircle
 10
414.0722825977629
 20
314.319120973129
 30
0.0
 40
50.0
100
AcDbArc
 50
318.1825652390631
 51
16.25945187082733
  0
ARC
  5
B21
330
18
100
AcDbEntity
  8
寸法線
100
AcDbCircle
 10
414.0722825977629
 20
314.319120973129
 30
0.0
 40
100.0
100
AcDbArc
 50
169.943728210372
 51
203.3246988158538
  0
LINE
  5
B26
330
18
100
AcDbEntity
  8
寸法線
100
AcDbLine
 10
314.072282597763
 20
332.335342849306
 30
0.0
 11
314.072282597763
 21
303.5429455241065
 31
0.0
  0
LINE
  5
B28
330
18
100
AcDbEntity
  8
隠れ線
 62
     4
 48
0.3
100
AcDbLine
 10
315.072282597763
 20
324.319120973129
 30
0.0
 11
315.072282597763
 21
319.5870701655602
 31
0.0
  0
LINE
  5
B29
330
18
100
AcDbEntity
  8
隠れ線
 62
     4
 48
0.3
100
AcDbLine
 10
313.072282597763
 20
324.319120973129
 30
0.0
 11
313.072282597763
 21
319.5870701655601
 31
0.0
  0
LINE
  5
B2B
330
18
100
AcDbEntity
  8
隠れ線
 62
     4
 48
0.3
100
AcDbLine
 10
313.072282597763
 20
324.319120973129
 30
0.0
 11
315.072282597763
 21
324.319120973129
 31
0.0
  0
LINE
  5
B2E
330
18
100
AcDbEntity
  8
隠れ線
 62
     4
 48
0.3
100
AcDbLine
 10
313.072282597763
 20
314.319120973129
 30
0.0
 11
313.072282597763
 21
319.0511717806979
 31
0.0
  0
LINE
  5
B2F
330
18
100
AcDbEntity
  8
隠れ線
 62
     4
 48
0.3
100
AcDbLine
 10
315.072282597763
 20
314.319120973129
 30
0.0
 11
315.072282597763
 21
319.0511717806979
 31
0.0
  0
LINE
  5
B30
330
18
100
AcDbEntity
  8
隠れ線
 62
     4
 48
0.3
100
AcDbLine
 10
313.072282597763
 20
314.319120973129
 30
0.0
 11
315.072282597763
 21
314.319120973129
 31
0.0
  0
DIMENSION
  5
B56
330
18
100
AcDbEntity
  8
寸法線
100
AcDbDimension
  2
*D2
 10
351.9706636327508
 20
314.319120973129
 30
0.0
 11
350.0956636327507
 21
326.819120973129
 31
0.0
 70
    32
 71
     5
 42
-1.0
  3
STYLE3
100
AcDbAlignedDimension
 13
350.9475826009466
 23
339.319120973129
 33
0.0
 14
351.9706636327508
 24
314.319120973129
 34
0.0
 50
90.0
100
AcDbRotatedDimension
1001
ACAD
1000
DSTYLE
1002
{
1070
   271
1070
     2
1002
}
  0
LINE
  5
B57
330
18
100
AcDbEntity
  8
寸法線
  6
PHANTOM2
 48
0.7
100
AcDbLine
 10
399.072282597763
 20
355.1704934092838
 30
0.0
 11
399.072282597763
 21
282.9614626372283
 31
0.0
  0
LINE
  5
B5B
330
18
100
AcDbEntity
  8
想像線
 48
0.3
100
AcDbLine
 10
312.2446865948973
 20
307.1501544431729
 30
0.0
 11
311.4033745154431
 21
296.1607408852957
 31
0.0
  0
ARC
  5
B5C
330
18
100
AcDbEntity
  8
想像線
 48
0.3
100
AcDbCircle
 10
314.2378318550518
 20
307.3155992131828
 30
0.0
 40
2.0
100
AcDbArc
 50
4.745065803649716
 51
184.7450658036546
  0
LINE
  5
B5D
330
18
100
AcDbEntity
  8
想像線
 48
0.3
100
AcDbLine
 10
316.2309771152063
 20
307.4810439831927
 30
0.0
 11
317.5978484727969
 21
297.058392559884
 31
0.0
  0
LINE
  5
B7C
330
18
100
AcDbEntity
  8
0
  6
ByBlock
 62
     2
100
AcDbLine
 10
314.072282597763
 20
319.319120973129
 30
0.0
 11
293.1296091885916
 21
319.319120973129
 31
0.0
  0
LINE
  5
B7D
330
18
100
AcDbEntity
  8
0
  6
ByBlock
 62
     2
100
AcDbLine
 10
314.2378318550518
 20
309.3155992131828
 30
0.0
 11
293.1296091885916
 21
309.3155992131828
 31
0.0
  0
LINE
  5
B7E
330
18
100
AcDbEntity
  8
0
  6
ByBlock
 62
     2
100
AcDbLine
 10
294.3796091885916
 20
316.819120973129
 30
0.0
 11
294.3796091885916
 21
311.8155992131828
 31
0.0
  0
INSERT
  5
B7F
330
18
100
AcDbEntity
  8
0
  6
ByBlock
 62
     2
100
AcDbBlockReference
  2
_OPEN
 10
294.3796091885916
 20
319.319120973129
 30
0.0
 41
2.5
 42
2.5
 43
2.5
 50
90.0
  0
INSERT
  5
B80
330
18
100
AcDbEntity
  8
0
  6
ByBlock
 62
     2
100
AcDbBlockReference
  2
_OPEN
 10
294.3796091885916
 20
309.3155992131828
 30
0.0
 41
2.5
 42
2.5
 43
2.5
 50
270.0
  0
MTEXT
  5
B81
330
18
100
AcDbEntity
  8
0
  6
ByBlock
 62
     6
100
AcDbMText
 10
292.5046091885917
 20
314.3173600931559
 30
0.0
 40
2.5
 41
0.0
 71
     5
 72
     1
  1
\A1;10
  7
STYLE3
 11
0.0000000000000001
 21
1.0
 31
0.0
 73
     1
 44
1.0
  0
POINT
  5
B82
330
18
100
AcDbEntity
  8
DEFPOINTS
  6
ByBlock
 62
     0
100
AcDbPoint
 10
314.072282597763
 20
319.319120973129
 30
0.0
  0
POINT
  5
B83
330
18
100
AcDbEntity
  8
DEFPOINTS
  6
ByBlock
 62
     0
100
AcDbPoint
 10
314.2378318550518
 20
309.3155992131828
 30
0.0
  0
POINT
  5
B84
330
18
100
AcDbEntity
  8
DEFPOINTS
  6
ByBlock
 62
     0
100
AcDbPoint
 10
294.3796091885916
 20
309.3155992131828
 30
0.0
  0
LINE
  5
B85
330
18
100
AcDbEntity
  8
0
  6
ByBlock
 62
     2
100
AcDbLine
 10
305.8231890913247
 20
319.319120973129
 30
0.0
 11
298.0884942396984
 21
319.319120973129
 31
0.0
  0
LINE
  5
B87
330
18
100
AcDbEntity
  8
0
  6
ByBlock
 62
     2
100
AcDbLine
 10
299.3384942396984
 20
321.8191209731291
 30
0.0
 11
299.3384942396984
 21
322.5663176626073
 31
0.0
  0
LINE
  5
B88
330
18
100
AcDbEntity
  8
0
  6
ByBlock
 62
     2
100
AcDbLine
 10
299.3384942396984
 20
311.819120973129
 30
0.0
 11
299.3384942396984
 21
310.8204251844582
 31
0.0
  0
LINE
  5
B89
330
18
100
AcDbEntity
  8
0
  6
ByBlock
 62
     2
100
AcDbLine
 10
299.3384942396984
 20
319.319120973129
 30
0.0
 11
299.3384942396984
 21
314.319120973129
 31
0.0
  0
INSERT
  5
B8A
330
18
100
AcDbEntity
  8
0
  6
ByBlock
 62
     2
100
AcDbBlockReference
  2
_OPEN
 10
299.3384942396984
 20
319.319120973129
 30
0.0
 41
2.5
 42
2.5
 43
2.5
 50
270.0
  0
INSERT
  5
B8B
330
18
100
AcDbEntity
  8
0
  6
ByBlock
 62
     2
100
AcDbBlockReference
  2
_OPEN
 10
299.3384942396984
 20
314.319120973129
 30
0.0
 41
2.5
 42
2.5
 43
2.5
 50
90.0
  0
MTEXT
  5
B8C
330
18
100
AcDbEntity
  8
0
  6
ByBlock
 62
     6
100
AcDbMText
 10
297.4634942396984
 20
316.819120973129
 30
0.0
 40
2.5
 41
0.0
 71
     5
 72
     1
  1
\A1;5
  7
STYLE3
 11
0.0000000000000001
 21
1.0
 31
0.0
 73
     1
 44
1.0
  0
POINT
  5
B8D
330
18
100
AcDbEntity
  8
DEFPOINTS
  6
ByBlock
 62
     0
100
AcDbPoint
 10
305.8231890913247
 20
319.319120973129
 30
0.0
  0
POINT
  5
B8E
330
18
100
AcDbEntity
  8
DEFPOINTS
  6
ByBlock
 62
     0
100
AcDbPoint
 10
313.072282597763
 20
314.319120973129
 30
0.0
  0
POINT
  5
B8F
330
18
100
AcDbEntity
  8
DEFPOINTS
  6
ByBlock
 62
     0
100
AcDbPoint
 10
299.3384942396984
 20
314.319120973129
 30
0.0
  0
DIMENSION
  5
B9E
330
18
100
AcDbEntity
  8
寸法線
100
AcDbDimension
  2
*D3
 10
399.072282597763
 20
374.3491161215985
 30
0.0
 11
356.572282597763
 21
376.2241161215984
 31
0.0
 70
    32
 71
     5
 42
-1.0
  3
STYLE3
100
AcDbAlignedDimension
 13
314.072282597763
 23
332.335342849306
 33
0.0
 14
399.072282597763
 24
355.1704934092838
 34
0.0
100
AcDbRotatedDimension
1001
ACAD
1000
DSTYLE
1002
{
1070
   271
1070
     2
1002
}
  0
DIMENSION
  5
BAC
330
18
100
AcDbEntity
  8
寸法線
100
AcDbDimension
  2
*D4
 10
419.572282597763
 20
419.3795356198432
 30
0.0
 11
414.0722825977629
 21
421.2545356198432
 31
0.0
 70
    32
 71
     5
 42
-1.0
  3
STYLE3
100
AcDbAlignedDimension
 13
408.5722825977629
 23
411.319120973129
 33
0.0
 14
419.572282597763
 24
411.319120973129
 34
0.0
100
AcDbRotatedDimension
1001
ACAD
1000
DSTYLE
1002
{
1070
   271
1070
     2
1002
}
  0
LINE
  5
BC7
330
18
100
AcDbEntity
  8
0
  6
ByBlock
 62
     2
100
AcDbLine
 10
494.0722825977628
 20
307.8700679748627
 30
0.0
 11
494.0722825977628
 21
256.0858095723014
 31
0.0
  0
LINE
  5
BC8
330
18
100
AcDbEntity
  8
0
  6
ByBlock
 62
     2
100
AcDbLine
 10
416.5722825977629
 20
257.3358095723015
 30
0.0
 11
491.5722825977629
 21
257.3358095723015
 31
0.0
  0
INSERT
  5
BC9
330
18
100
AcDbEntity
  8
0
  6
ByBlock
 62
     2
100
AcDbBlockReference
  2
_OPEN
 10
414.0722825977629
 20
257.3358095723015
 30
0.0
 41
2.5
 42
2.5
 43
2.5
 50
180.0
  0
INSERT
  5
BCA
330
18
100
AcDbEntity
  8
0
  6
ByBlock
 62
     2
100
AcDbBlockReference
  2
_OPEN
 10
494.0722825977628
 20
257.3358095723015
 30
0.0
 41
2.5
 42
2.5
 43
2.5
  0
MTEXT
  5
BCB
330
18
100
AcDbEntity
  8
0
  6
ByBlock
 62
     6
100
AcDbMText
 10
454.0722825977629
 20
259.2108095723014
 30
0.0
 40
2.5
 41
0.0
 71
     5
 72
     1
  1
\A1;80
  7
STYLE3
 73
     1
 44
1.0
  0
POINT
  5
BCC
330
18
100
AcDbEntity
  8
DEFPOINTS
  6
ByBlock
 62
     0
100
AcDbPoint
 10
414.0722825977629
 20
270.6437464159173
 30
0.0
  0
POINT
  5
BCD
330
18
100
AcDbEntity
  8
DEFPOINTS
  6
ByBlock
 62
     0
100
AcDbPoint
 10
494.0722825977628
 20
307.8700679748627
 30
0.0
  0
POINT
  5
BCE
330
18
100
AcDbEntity
  8
DEFPOINTS
  6
ByBlock
 62
     0
100
AcDbPoint
 10
494.0722825977628
 20
257.3358095723015
 30
0.0
  0
DIMENSION
  5
BDC
330
18
100
AcDbEntity
  8
寸法線
100
AcDbDimension
  2
*D5
 10
594.0722825977628
 20
246.6309285261433
 30
0.0
 11
454.0722825977629
 21
248.5059285261434
 31
0.0
 70
    32
 71
     5
 42
-1.0
  3
STYLE3
100
AcDbAlignedDimension
 13
314.072282597763
 23
303.5429455241065
 33
0.0
 14
594.0722825977628
 24
256.0858095723014
 34
0.0
100
AcDbRotatedDimension
1001
ACAD
1000
DSTYLE
1002
{
1070
   271
1070
     2
1002
}
  0
LINE
  5
BDD
330
18
100
AcDbEntity
  8
想像線
 48
0.3
100
AcDbLine
 10
336.3912261569022
 20
350.1638858627185
 30
0.0
 11
336.3912261569022
 21
339.3191209731291
 31
0.0
  0
LINE
  5
BDE
330
18
100
AcDbEntity
  8
想像線
 48
0.3
100
AcDbLine
 10
339.3912261569022
 20
350.3069132763061
 30
0.0
 11
339.3912261569023
 21
339.319120973129
 31
0.0
  0
LINE
  5
BDF
330
18
100
AcDbEntity
  8
想像線
 48
0.3
100
AcDbLine
 10
365.1826061913106
 20
302.4014797013557
 30
0.0
 11
365.1826061913106
 21
289.5541825435575
 31
0.0
  0
LINE
  5
BE0
330
18
100
AcDbEntity
  8
想像線
 48
0.3
100
AcDbLine
 10
368.1826061913107
 20
302.27671536732
 30
0.0
 11
368.1826061913106
 21
289.2260739468205
 31
0.0
  0
DIMENSION
  5
BEF
330
18
100
AcDbEntity
  8
想像線
100
AcDbDimension
  2
*D6
 10
339.3912261569022
 20
358.9363079499735
 30
0.0
 11
347.3971785378546
 21
361.4660698547354
 31
0.0
 70
    32
  1
(3)
 71
     5
 42
-1.0
  3
STYLE3
100
AcDbAlignedDimension
 13
336.3912261569022
 23
350.1638858627185
 33
0.0
 14
339.3912261569022
 24
350.3069132763061
 34
0.0
100
AcDbRotatedDimension
1001
ACAD
1000
DSTYLE
1002
{
1070
   271
1070
     2
1002
}
  0
DIMENSION
  5
C27
330
18
100
AcDbEntity
  8
想像線
100
AcDbDimension
  2
*D7
 10
368.1826061913106
 20
274.4892572009312
 30
0.0
 11
376.188558572263
 21
277.0190191056932
 31
0.0
 70
    32
  1
(3)
 71
     5
 42
-1.0
  3
STYLE3
100
AcDbAlignedDimension
 13
365.1826061913106
 23
289.5541825435575
 33
0.0
 14
368.1826061913106
 24
289.2260739468205
 34
0.0
100
AcDbRotatedDimension
1001
ACAD
1000
DSTYLE
1002
{
1070
   271
1070
     2
1002
}
  0
LINE
  5
C48
330
18
100
AcDbEntity
  8
0
  6
ByBlock
 62
     2
100
AcDbLine
 10
414.072282597763
 20
314.319120973129
 30
0.0
 11
453.6477957709284
 21
283.7613272523677
 31
0.0
  0
MTEXT
  5
C49
330
18
100
AcDbEntity
  8
0
  6
ByBlock
 62
     6
100
AcDbMText
 10
447.7973276709152
 20
290.6475903862816
 30
0.0
 40
2.5
 41
0.0
 71
     5
 72
     1
  1
\A1;R50
  7
STYLE3
 11
0.791510263463311
 21
-0.6111558744152265
 31
0.0
 73
     1
 44
1.0
  0
INSERT
  5
C4A
330
18
100
AcDbEntity
  8
0
  6
ByBlock
 62
     2
100
AcDbBlockReference
  2
_OPEN
 10
453.6477957709284
 20
283.7613272523677
 30
0.0
 41
2.5
 42
2.5
 43
2.5
 50
322.3268727840569
  0
POINT
  5
C4B
330
18
100
AcDbEntity
  8
DEFPOINTS
  6
ByBlock
 62
     0
100
AcDbPoint
 10
453.6477957709284
 20
283.7613272523677
 30
0.0
  0
POINT
  5
C4C
330
18
100
AcDbEntity
  8
DEFPOINTS
  6
ByBlock
 62
     0
100
AcDbPoint
 10
414.0722825977629
 20
314.319120973129
 30
0.0
  0
LINE
  5
C4D
330
18
100
AcDbEntity
  8
0
  6
ByBlock
 62
     2
100
AcDbLine
 10
414.0722825977629
 20
314.319120973129
 30
0.0
 11
321.2623136933021
 21
277.0859412545903
 31
0.0
  0
MTEXT
  5
C4E
330
18
100
AcDbEntity
  8
0
  6
ByBlock
 62
     6
100
AcDbMText
 10
336.9908732275946
 20
285.4161270415279
 30
0.0
 40
2.5
 41
0.0
 71
     5
 72
     1
  1
\A1;R100
  7
STYLE3
 11
0.928099689044609
 21
0.3723317971853868
 31
0.0
 73
     1
 44
1.0
  0
INSERT
  5
C4F
330
18
100
AcDbEntity
  8
0
  6
ByBlock
 62
     2
100
AcDbBlockReference
  2
_OPEN
 10
321.2623136933021
 20
277.0859412545903
 30
0.0
 41
2.5
 42
2.5
 43
2.5
 50
201.8594973168431
  0
POINT
  5
C50
330
18
100
AcDbEntity
  8
DEFPOINTS
  6
ByBlock
 62
     0
100
AcDbPoint
 10
321.2623136933021
 20
277.0859412545903
 30
0.0
  0
POINT
  5
C51
330
18
100
AcDbEntity
  8
DEFPOINTS
  6
ByBlock
 62
     0
100
AcDbPoint
 10
414.0722825977629
 20
314.3191209731291
 30
0.0
  0
DIMENSION
  5
C60
330
18
100
AcDbEntity
  8
寸法線
100
AcDbDimension
  2
*D8
 10
487.3065154920626
 20
314.319120973129
 30
0.0
 11
485.4315154920626
 21
317.819120973129
 31
0.0
 70
    32
 71
     5
 42
-1.0
  3
STYLE3
100
AcDbAlignedDimension
 13
489.4618053262473
 23
321.319120973129
 33
0.0
 14
487.9497015559105
 24
314.319120973129
 34
0.0
 50
90.0
100
AcDbRotatedDimension
1001
ACAD
1000
DSTYLE
1002
{
1070
   271
1070
     2
1002
}
  0
CIRCLE
  5
C96
330
18
100
AcDbEntity
  8
外形線
100
AcDbCircle
 10
444.0722825977629
 20
324.319120973129
 30
0.0
 40
2.5
  0
ARC
  5
C97
330
18
100
AcDbEntity
  8
外形線
100
AcDbCircle
 10
439.4015663559928
 20
323.0801322373644
 30
0.0
 40
6.0
100
AcDbArc
 50
38.54644267984919
 51
212.3287926267279
  0
ARC
  5
C98
330
18
100
AcDbEntity
  8
外形線
100
AcDbCircle
 10
448.765290631657
 20
330.6264121264407
 30
0.0
 40
18.0
100
AcDbArc
 50
216.6908278460525
 51
274.4484913969501
  0
LINE
  5
C9A
330
18
100
AcDbEntity
  8
外形線
100
AcDbLine
 10
446.5722825977628
 20
325.8191209731289
 30
0.0
 11
446.5722825977629
 21
322.8191209731289
 31
0.0
  0
LINE
  5
C9B
330
18
100
AcDbEntity
  8
外形線
100
AcDbLine
 10
447.5722825977629
 20
325.819120973129
 30
0.0
 11
447.5722825977629
 21
322.8191209731289
 31
0.0
  0
LINE
  5
C9C
330
18
100
AcDbEntity
  8
外形線
100
AcDbLine
 10
446.5722825977628
 20
325.8191209731289
 30
0.0
 11
447.5722825977629
 21
325.819120973129
 31
0.0
  0
LINE
  5
C9D
330
18
100
AcDbEntity
  8
外形線
100
AcDbLine
 10
446.5722825977629
 20
322.8191209731289
 30
0.0
 11
447.5722825977629
 21
322.8191209731289
 31
0.0
  0
LINE
  5
CD8
330
18
100
AcDbEntity
  8
0
  6
ByBlock
 62
     2
100
AcDbLine
 10
594.0722825977628
 20
307.8700679748627
 30
0.0
 11
594.0722825977628
 21
256.0858095723014
 31
0.0
  0
LINE
  5
CD9
330
18
100
AcDbEntity
  8
0
  6
ByBlock
 62
     2
100
AcDbLine
 10
496.5722825977628
 20
257.3358095723015
 30
0.0
 11
591.5722825977629
 21
257.3358095723015
 31
0.0
  0
INSERT
  5
CDA
330
18
100
AcDbEntity
  8
0
  6
ByBlock
 62
     2
100
AcDbBlockReference
  2
_OPEN
 10
494.0722825977628
 20
257.3358095723015
 30
0.0
 41
2.5
 42
2.5
 43
2.5
 50
180.0
  0
INSERT
  5
CDB
330
18
100
AcDbEntity
  8
0
  6
ByBlock
 62
     2
100
AcDbBlockReference
  2
_OPEN
 10
594.0722825977628
 20
257.3358095723015
 30
0.0
 41
2.5
 42
2.5
 43
2.5
  0
MTEXT
  5
CDC
330
18
100
AcDbEntity
  8
0
  6
ByBlock
 62
     6
100
AcDbMText
 10
544.0722825977628
 20
259.2108095723014
 30
0.0
 40
2.5
 41
0.0
 71
     5
 72
     1
  1
\A1;100
  7
STYLE3
 73
     1
 44
1.0
  0
POINT
  5
CDD
330
18
100
AcDbEntity
  8
DEFPOINTS
  6
ByBlock
 62
     0
100
AcDbPoint
 10
494.0722825977628
 20
307.3876878898715
 30
0.0
  0
POINT
  5
CDE
330
18
100
AcDbEntity
  8
DEFPOINTS
  6
ByBlock
 62
     0
100
AcDbPoint
 10
594.0722825977628
 20
307.3876878898715
 30
0.0
  0
POINT
  5
CDF
330
18
100
AcDbEntity
  8
DEFPOINTS
  6
ByBlock
 62
     0
100
AcDbPoint
 10
594.0722825977628
 20
257.3358095723015
 30
0.0
  0
DIMENSION
  5
CF5
330
18
100
AcDbEntity
  8
外形線
100
AcDbDimension
  2
*D11
 10
608.3218744716468
 20
306.5700679748627
 30
0.0
 11
606.4468744716468
 21
321.5700679748627
 31
0.0
 70
    32
 71
     5
 42
-1.0
  3
STYLE3
100
AcDbAlignedDimension
 13
589.0722825977628
 23
336.5700679748627
 33
0.0
 14
589.0722825977628
 24
306.5700679748627
 34
0.0
 50
90.0
100
AcDbRotatedDimension
1001
ACAD
1000
DSTYLE
1002
{
1070
   271
1070
     2
1002
}
  0
ARC
  5
CF8
330
18
100
AcDbEntity
  8
隠れ線2
100
AcDbCircle
 10
438.8722825977629
 20
459.619120973129
 30
0.0
 40
160.0
100
AcDbArc
 50
280.333334787549
 51
285.2009981374478
  0
ARC
  5
CFB
330
18
100
AcDbEntity
  8
隠れ線
 62
     4
 48
0.5
100
AcDbCircle
 10
468.2132825977629
 20
389.319120973129
 30
0.0
 40
80.0
100
AcDbArc
 50
265.0542125164585
 51
269.0848621751463
  0
ARC
  5
CFC
330
18
100
AcDbEntity
  8
外形線
100
AcDbCircle
 10
468.2132825977629
 20
389.319120973129
 30
0.0
 40
80.0
100
AcDbArc
 50
269.0848621751463
 51
270.1316049903923
  0
LINE
  5
D1F
330
18
100
AcDbEntity
  8
隠れ線2
100
AcDbLine
 10
494.0722825977628
 20
333.069120973129
 30
0.0
 11
582.5722825977628
 21
333.069120973129
 31
0.0
  0
LINE
  5
D20
330
18
100
AcDbEntity
  8
隠れ線2
100
AcDbLine
 10
494.0722825977629
 20
309.569120973129
 30
0.0
 11
582.5722825977627
 21
309.569120973129
 31
0.0
  0
LINE
  5
D21
330
18
100
AcDbEntity
  8
隠れ線2
100
AcDbLine
 10
584.0722825977628
 20
331.569120973129
 30
0.0
 11
584.0722825977628
 21
311.069120973129
 31
0.0
  0
ARC
  5
D22
330
18
100
AcDbEntity
  8
隠れ線2
100
AcDbCircle
 10
582.5722825977628
 20
331.569120973129
 30
0.0
 40
1.5
100
AcDbArc
 50
0.0
 51
90.0
  0
ARC
  5
D23
330
18
100
AcDbEntity
  8
隠れ線2
100
AcDbCircle
 10
582.5722825977627
 20
311.069120973129
 30
0.0
 40
1.5
100
AcDbArc
 50
270.0
 51
0.0
  0
CIRCLE
  5
DB2
330
18
100
AcDbEntity
  8
隠れ線2
 48
0.5
100
AcDbCircle
 10
426.5722825977629
 20
314.319120973129
 30
0.0
 40
1.274999999999999
  0
LINE
  5
DB3
330
18
100
AcDbEntity
  8
外形線
100
AcDbLine
 10
426.5097825977672
 20
315.567557495301
 30
0.0
 11
426.5722825977629
 21
314.319120973129
 31
0.0
  0
CIRCLE
  5
DE2
330
18
100
AcDbEntity
  8
隠れ線2
 48
0.5
100
AcDbCircle
 10
426.5362320626494
 20
314.8955532791282
 30
0.0
 40
1.85
  0
TEXT
  5
E22
330
18
100
AcDbEntity
  8
文字
100
AcDbText
 10
468.3698829517467
 20
444.9887541503685
 30
0.0
 40
4.0
  1
Model No.LA-7 Outside Dial Caliper Gauge
  7
STYLE3
100
AcDbText
  0
LINE
  5
E23
330
18
100
AcDbEntity
  8
外形線
100
AcDbLine
 10
467.0669339517466
 20
441.0653241503685
 30
0.0
 11
594.0669339517467
 21
441.0653241503685
 31
0.0
  0
LINE
  5
E24
330
18
100
AcDbEntity
  8
外形線
100
AcDbLine
 10
467.0669339517466
 20
442.0653241503685
 30
0.0
 11
594.0669339517467
 21
442.0653241503685
 31
0.0
  0
TEXT
  5
E25
330
18
100
AcDbEntity
  8
0
  6
Continuous
100
AcDbText
 10
596.7146891349646
 20
178.5520986604691
 30
0.0
 40
2.1
  1
OZAKI MFG. CO., LTD.
  7
STYLE3
100
AcDbText
  0
TEXT
  5
E26
330
18
100
AcDbEntity
  8
0
  6
Continuous
100
AcDbText
 10
595.8402101349646
 20
182.3397376604691
 30
0.0
 40
3.0
  1
株式会社　尾崎製作所
  7
STYLE3
100
AcDbText
  0
TEXT
  5
E27
330
18
100
AcDbEntity
  8
0
  6
Continuous
100
AcDbText
 10
575.4356551349645
 20
180.3002406604691
 30
0.0
 40
2.1
  1
2010.06.28
  7
STYLE3
100
AcDbText
  0
TEXT
  5
E28
330
18
100
AcDbEntity
  8
0
  6
Continuous
100
AcDbText
 10
566.3074871349646
 20
181.8851826604691
 30
0.0
 40
3.0
  1
日 付
  7
STYLE3
100
AcDbText
  0
TEXT
  5
E29
330
18
100
AcDbEntity
  8
0
  6
Continuous
100
AcDbText
 10
566.6908481349646
 20
178.5520996604691
 30
0.0
 40
2.1
  1
Date
  7
STYLE3
100
AcDbText
  0
TEXT
  5
E2A
330
18
100
AcDbEntity
  8
0
  6
Continuous
100
AcDbText
 10
556.5970761349645
 20
180.5915986604691
 30
0.0
 40
2.399999999999999
  1
1/1
  7
STYLE3
100
AcDbText
  0
TEXT
  5
E2B
330
18
100
AcDbEntity
  8
0
  6
Continuous
100
AcDbText
 10
546.9777881349646
 20
178.8434556604691
 30
0.0
 40
2.1
  1
Scale
  7
STYLE3
100
AcDbText
  0
TEXT
  5
E2C
330
18
100
AcDbEntity
  8
0
  6
Continuous
100
AcDbText
 10
537.2387241349646
 20
180.3002416604691
 30
0.0
 40
2.399999999999999
  1
mm
  7
STYLE3
100
AcDbText
  0
TEXT
  5
E2D
330
18
100
AcDbEntity
  8
0
  6
Continuous
100
AcDbText
 10
546.5145721349646
 20
181.7629776604691
 30
0.0
 40
3.0
  1
尺 度
  7
STYLE3
100
AcDbText
  0
TEXT
  5
E2E
330
18
100
AcDbEntity
  8
0
  6
Continuous
100
AcDbText
 10
529.3683971349646
 20
178.5520986604691
 30
0.0
 40
2.1
  1
Unit
  7
STYLE3
100
AcDbText
  0
TEXT
  5
E2F
330
18
100
AcDbEntity
  8
0
  6
Continuous
100
AcDbText
 10
529.1966761349645
 20
182.0543356604691
 30
0.0
 40
3.0
  1
単位
  7
STYLE3
100
AcDbText
  0
LINE
  5
E30
330
18
100
AcDbEntity
  8
外形線
100
AcDbLine
 10
527.7392071349646
 20
186.4187356604691
 30
0.0
 11
527.7392071349646
 21
176.8039576604691
 31
0.0
  0
LINE
  5
E31
330
18
100
AcDbEntity
  8
外形線
100
AcDbLine
 10
545.2288251349646
 20
186.4187356604691
 30
0.0
 11
545.2288251349646
 21
176.8039576604691
 31
0.0
  0
LINE
  5
E32
330
18
100
AcDbEntity
  8
外形線
100
AcDbLine
 10
564.7588971349646
 20
186.4187356604691
 30
0.0
 11
564.7588971349646
 21
176.8039576604691
 31
0.0
  0
LINE
  5
E33
330
18
100
AcDbEntity
  8
外形線
100
AcDbLine
 10
594.4912461349646
 20
186.4187356604691
 30
0.0
 11
594.4912461349646
 21
176.8039576604691
 31
0.0
  0
LINE
  5
E34
330
18
100
AcDbEntity
  8
外形線
100
AcDbLine
 10
492.4684801349646
 20
176.8039576604691
 30
0.0
 11
492.4684801349646
 21
197.1989416604691
 31
0.0
  0
TEXT
  5
E35
330
18
100
AcDbEntity
  8
0
  6
Continuous
100
AcDbText
 10
496.2578981349646
 20
182.0483806604691
 30
0.0
 40
3.0
  1
三　　角　　法
  7
STYLE3
100
AcDbText
  0
TEXT
  5
E36
330
18
100
AcDbEntity
  8
0
  6
Continuous
100
AcDbText
 10
493.6344551349646
 20
178.5520976604691
 30
0.0
 40
2.1
  1
3RD Angle Projection
  7
STYLE3
100
AcDbText
  0
TEXT
  5
E37
330
18
100
AcDbEntity
  8
0
  6
Continuous
100
AcDbText
 10
494.2174411349646
 20
192.2458736604691
 30
0.0
 40
3.5
  1
仕様及び外観は予告なく変更される場合がございますのでご了承下さい。
  7
STYLE3
100
AcDbText
  0
TEXT
  5
E38
330
18
100
AcDbEntity
  8
0
  6
Continuous
100
AcDbText
 10
493.9259471349646
 20
188.3167256604691
 30
0.0
 40
2.1
  1
Design and specifications are subject to change without notice for future improvement.
  7
STYLE3
100
AcDbText
  0
LINE
  5
E39
330
18
100
AcDbEntity
  8
外形線
100
AcDbLine
 10
492.4684801349646
 20
186.4187356604691
 30
0.0
 11
633.2598971349645
 21
186.4187356604691
 31
0.0
  0
LINE
  5
E3A
330
18
100
AcDbEntity
  8
外形線
100
AcDbLine
 10
492.4684801349646
 20
197.1989416604691
 30
0.0
 11
633.2598971349645
 21
197.1989416604691
 31
0.0
  0
ENDSEC
  0
SECTION
  2
OBJECTS
  0
DICTIONARY
  5
C
330
0
100
AcDbDictionary
281
     1
  3
ACAD_COLOR
350
D31
  3
ACAD_GROUP
350
D
  3
ACAD_LAYOUT
350
D34
  3
ACAD_MATERIAL
350
D30
  3
ACAD_MLINESTYLE
350
1B
  3
ACAD_PLOTSETTINGS
350
D35
  3
ACAD_PLOTSTYLENAME
350
D2E
  3
ACAD_TABLESTYLE
350
D32
  3
AcDbVariableDictionary
350
D3F
  0
DICTIONARY
  5
D4E
330
18
100
AcDbDictionary
280
     1
281
     1
  3
ACAD_SORTENTS
360
D4F
  0
DICTIONARY
  5
D31
102
{ACAD_REACTORS
330
C
102
}
330
C
100
AcDbDictionary
281
     1
  0
DICTIONARY
  5
D
102
{ACAD_REACTORS
330
C
102
}
330
C
100
AcDbDictionary
281
     1
  0
DICTIONARY
  5
D34
102
{ACAD_REACTORS
330
C
102
}
330
C
100
AcDbDictionary
281
     1
  3
Model
350
D36
  3
レイアウト1
350
D37
  0
DICTIONARY
  5
D30
102
{ACAD_REACTORS
330
C
102
}
330
C
100
AcDbDictionary
281
     1
  0
DICTIONARY
  5
1B
102
{ACAD_REACTORS
330
C
102
}
330
C
100
AcDbDictionary
281
     1
  3
STANDARD
350
1C
  0
DICTIONARY
  5
D35
102
{ACAD_REACTORS
330
C
102
}
330
C
100
AcDbDictionary
281
     1
  0
ACDBDICTIONARYWDFLT
  5
D2E
102
{ACAD_REACTORS
330
C
102
}
330
C
100
AcDbDictionary
281
     1
  3
Normal
350
D2F
100
AcDbDictionaryWithDefault
340
D2F
  0
DICTIONARY
  5
D32
102
{ACAD_REACTORS
330
C
102
}
330
C
100
AcDbDictionary
281
     1
  3
Standard
350
D33
  0
DICTIONARY
  5
D3F
102
{ACAD_REACTORS
330
C
102
}
330
C
100
AcDbDictionary
281
     1
  3
CTABLESTYLE
350
D40
  0
SORTENTSTABLE
  5
D4F
102
{ACAD_REACTORS
330
D4E
102
}
330
D4E
100
AcDbSortentsTable
330
18
331
201
  5
201
331
1AA
  5
1AA
331
336
  5
336
331
40D
  5
40D
331
444
  5
444
331
44C
  5
44C
331
307
  5
307
331
209
  5
209
331
33E
  5
33E
331
415
  5
415
331
63B
  5
63B
331
A38
  5
A38
331
A01
  5
A01
331
9C2
  5
9C2
331
41D
  5
41D
331
1BA
  5
1BA
331
30F
  5
30F
331
346
  5
346
331
643
  5
643
331
78C
  5
78C
331
98B
  5
98B
331
A40
  5
A40
331
A09
  5
A09
331
9CA
  5
9CA
331
993
  5
993
331
74D
  5
74D
331
794
  5
794
331
A7F
  5
A7F
331
34E
  5
34E
331
A48
  5
A48
331
A11
  5
A11
331
9D2
  5
9D2
331
99B
  5
99B
331
6F6
  5
6F6
331
79C
  5
79C
331
A87
  5
A87
331
AB0
  5
AB0
331
A8F
  5
A8F
331
A50
  5
A50
331
9DA
  5
9DA
331
AB8
  5
AB8
331
CDA
  5
CDA
331
BDD
  5
BDD
331
AC0
  5
AC0
331
B2F
  5
B2F
331
B8E
  5
B8E
331
C7B
  5
C7B
331
AC8
  5
AC8
331
B9E
  5
B9E
331
1C2
  5
1C2
331
356
  5
356
331
18B
  5
18B
331
1CA
  5
1CA
331
317
  5
317
331
425
  5
425
331
5EC
  5
5EC
331
31F
  5
31F
331
193
  5
193
331
278
  5
278
331
35E
  5
35E
331
42D
  5
42D
331
A19
  5
A19
331
9E2
  5
9E2
331
9A3
  5
9A3
331
76D
  5
76D
331
706
  5
706
331
80C
  5
80C
331
A58
  5
A58
331
327
  5
327
331
19B
  5
19B
331
435
  5
435
331
A60
  5
A60
331
A21
  5
A21
331
9EA
  5
9EA
331
9AB
  5
9AB
331
775
  5
775
331
66F
  5
66F
331
70E
  5
70E
331
814
  5
814
331
43D
  5
43D
331
32F
  5
32F
331
406
  5
406
331
A68
  5
A68
331
A29
  5
A29
331
9F2
  5
9F2
331
9B3
  5
9B3
331
77D
  5
77D
331
A91
  5
A91
331
AD0
  5
AD0
331
A70
  5
A70
331
A31
  5
A31
331
9FA
  5
9FA
331
9BB
  5
9BB
331
82C
  5
82C
331
785
  5
785
331
C4C
  5
C4C
331
A99
  5
A99
331
C9B
  5
C9B
331
B57
  5
B57
331
AA1
  5
AA1
331
AA9
  5
AA9
331
CB3
  5
CB3
331
D22
  5
D22
331
BCE
  5
BCE
331
B7F
  5
B7F
331
CBB
  5
CBB
331
1FA
  5
1FA
331
40E
  5
40E
331
1AB
  5
1AB
331
337
  5
337
331
445
  5
445
331
416
  5
416
331
249
  5
249
331
1B3
  5
1B3
331
20A
  5
20A
331
308
  5
308
331
33F
  5
33F
331
A78
  5
A78
331
A39
  5
A39
331
A02
  5
A02
331
9C3
  5
9C3
331
98C
  5
98C
331
78D
  5
78D
331
347
  5
347
331
1BB
  5
1BB
331
41E
  5
41E
331
A41
  5
A41
331
A0A
  5
A0A
331
9CB
  5
9CB
331
795
  5
795
331
74E
  5
74E
331
994
  5
994
331
A80
  5
A80
331
34F
  5
34F
331
A88
  5
A88
331
A12
  5
A12
331
9D3
  5
9D3
331
99C
  5
99C
331
79D
  5
79D
331
6F7
  5
6F7
331
A49
  5
A49
331
AB1
  5
AB1
331
A51
  5
A51
331
9DB
  5
9DB
331
6FF
  5
6FF
331
B87
  5
B87
331
AB9
  5
AB9
331
B28
  5
B28
331
CDB
  5
CDB
331
B8F
  5
B8F
331
AC1
  5
AC1
331
B30
  5
B30
331
BDE
  5
BDE
331
C7C
  5
C7C
331
AC9
  5
AC9
331
CFB
  5
CFB
331
1C3
  5
1C3
331
184
  5
184
331
310
  5
310
331
426
  5
426
331
318
  5
318
331
21A
  5
21A
331
18C
  5
18C
331
357
  5
357
331
5ED
  5
5ED
331
648
  5
648
331
42E
  5
42E
331
320
  5
320
331
194
  5
194
331
222
  5
222
331
35F
  5
35F
331
A59
  5
A59
331
A1A
  5
A1A
331
9E3
  5
9E3
331
9A4
  5
9A4
331
707
  5
707
331
76E
  5
76E
331
80D
  5
80D
331
436
  5
436
331
232
  5
232
331
19C
  5
19C
331
328
  5
328
331
625
  5
625
331
A61
  5
A61
331
A22
  5
A22
331
9EB
  5
9EB
331
9AC
  5
9AC
331
815
  5
815
331
776
  5
776
331
670
  5
670
331
407
  5
407
331
43E
  5
43E
331
A2A
  5
A2A
331
9F3
  5
9F3
331
9B4
  5
9B4
331
77E
  5
77E
331
A69
  5
A69
331
AD1
  5
AD1
331
A92
  5
A92
331
A71
  5
A71
331
A32
  5
A32
331
9FB
  5
9FB
331
786
  5
786
331
73F
  5
73F
331
9BC
  5
9BC
331
C4D
  5
C4D
331
A9A
  5
A9A
331
C9C
  5
C9C
331
AA2
  5
AA2
331
AAA
  5
AAA
331
BC7
  5
BC7
331
D23
  5
D23
331
23A
  5
23A
331
330
  5
330
331
338
  5
338
331
242
  5
242
331
1AC
  5
1AC
331
40F
  5
40F
331
446
  5
446
331
6E0
  5
6E0
331
1B4
  5
1B4
331
309
  5
309
331
340
  5
340
331
417
  5
417
331
A79
  5
A79
331
A3A
  5
A3A
331
A03
  5
A03
331
78E
  5
78E
331
98D
  5
98D
331
9C4
  5
9C4
331
1BC
  5
1BC
331
348
  5
348
331
41F
  5
41F
331
A42
  5
A42
331
6F0
  5
6F0
331
74F
  5
74F
331
796
  5
796
331
995
  5
995
331
9CC
  5
9CC
331
A0B
  5
A0B
331
A81
  5
A81
331
9D4
  5
9D4
331
6F8
  5
6F8
331
79E
  5
79E
331
99D
  5
99D
331
A13
  5
A13
331
A4A
  5
A4A
331
A89
  5
A89
331
B21
  5
B21
331
AB2
  5
AB2
331
B80
  5
B80
331
A52
  5
A52
331
9DC
  5
9DC
331
B29
  5
B29
331
ABA
  5
ABA
331
B88
  5
B88
331
CDC
  5
CDC
331
AC2
  5
AC2
331
BDF
  5
BDF
331
C7D
  5
C7D
331
ACA
  5
ACA
331
CFC
  5
CFC
331
185
  5
185
331
1C4
  5
1C4
331
213
  5
213
331
311
  5
311
331
350
  5
350
331
18D
  5
18D
331
319
  5
319
331
358
  5
358
331
427
  5
427
331
5EE
  5
5EE
331
700
  5
700
331
223
  5
223
331
195
  5
195
331
321
  5
321
331
360
  5
360
331
42F
  5
42F
331
A5A
  5
A5A
331
A1B
  5
A1B
331
708
  5
708
331
80E
  5
80E
331
9A5
  5
9A5
331
9E4
  5
9E4
331
1F4
  5
1F4
331
19D
  5
19D
331
329
  5
329
331
437
  5
437
331
A62
  5
A62
331
A23
  5
A23
331
9EC
  5
9EC
331
710
  5
710
331
777
  5
777
331
816
  5
816
331
9AD
  5
9AD
331
43F
  5
43F
331
A6A
  5
A6A
331
A2B
  5
A2B
331
6C1
  5
6C1
331
77F
  5
77F
331
9B5
  5
9B5
331
9F4
  5
9F4
331
D4B
  5
D4B
331
A33
  5
A33
331
9FC
  5
9FC
331
787
  5
787
331
9BD
  5
9BD
331
A72
  5
A72
331
A93
  5
A93
331
AD2
  5
AD2
331
C4E
  5
C4E
331
A9B
  5
A9B
331
BEF
  5
BEF
331
C9D
  5
C9D
331
AA3
  5
AA3
331
BC8
  5
BC8
331
AAB
  5
AAB
331
23B
  5
23B
331
331
  5
331
331
408
  5
408
331
1AD
  5
1AD
331
204
  5
204
331
339
  5
339
331
410
  5
410
331
447
  5
447
331
6E1
  5
6E1
331
740
  5
740
331
341
  5
341
331
1B5
  5
1B5
331
20C
  5
20C
331
30A
  5
30A
331
418
  5
418
331
63E
  5
63E
331
A3B
  5
A3B
331
A04
  5
A04
331
6E9
  5
6E9
331
78F
  5
78F
331
98E
  5
98E
331
9C5
  5
9C5
331
A7A
  5
A7A
331
349
  5
349
331
1BD
  5
1BD
331
557
  5
557
331
A82
  5
A82
331
A43
  5
A43
331
A0C
  5
A0C
331
9CD
  5
9CD
331
750
  5
750
331
797
  5
797
331
996
  5
996
331
A8A
  5
A8A
331
A14
  5
A14
331
9D5
  5
9D5
331
6F9
  5
6F9
331
79F
  5
79F
331
99E
  5
99E
331
A4B
  5
A4B
331
A53
  5
A53
331
9DD
  5
9DD
331
AB3
  5
AB3
331
B81
  5
B81
331
B89
  5
B89
331
ABB
  5
ABB
331
CDD
  5
CDD
331
C27
  5
C27
331
AC3
  5
AC3
331
BE0
  5
BE0
331
C7E
  5
C7E
331
CF5
  5
CF5
331
ACB
  5
ACB
331
C96
  5
C96
331
312
  5
312
331
186
  5
186
331
263
  5
263
331
351
  5
351
331
420
  5
420
331
21C
  5
21C
331
18E
  5
18E
331
31A
  5
31A
331
359
  5
359
331
428
  5
428
331
5EF
  5
5EF
331
196
  5
196
331
1ED
  5
1ED
331
224
  5
224
331
322
  5
322
331
361
  5
361
331
430
  5
430
331
A5B
  5
A5B
331
A1C
  5
A1C
331
709
  5
709
331
80F
  5
80F
331
9A6
  5
9A6
331
9E5
  5
9E5
331
19E
  5
19E
331
32A
  5
32A
331
401
  5
401
331
438
  5
438
331
627
  5
627
331
A63
  5
A63
331
A24
  5
A24
331
9ED
  5
9ED
331
672
  5
672
331
711
  5
711
331
817
  5
817
331
9AE
  5
9AE
331
A2C
  5
A2C
331
6C2
  5
6C2
331
780
  5
780
331
9B6
  5
9B6
331
9F5
  5
9F5
331
A6B
  5
A6B
331
D4C
  5
D4C
331
AD3
  5
AD3
331
A73
  5
A73
331
A34
  5
A34
331
9FD
  5
9FD
331
9BE
  5
9BE
331
A94
  5
A94
331
A9C
  5
A9C
331
C4F
  5
C4F
331
AA4
  5
AA4
331
B13
  5
B13
331
AAC
  5
AAC
331
BC9
  5
BC9
331
332
  5
332
331
409
  5
409
331
440
  5
440
331
205
  5
205
331
1AE
  5
1AE
331
33A
  5
33A
331
411
  5
411
331
448
  5
448
331
788
  5
788
331
6E2
  5
6E2
331
741
  5
741
331
1B6
  5
1B6
331
30B
  5
30B
331
342
  5
342
331
419
  5
419
331
A7B
  5
A7B
331
A3C
  5
A3C
331
A05
  5
A05
331
9C6
  5
9C6
331
790
  5
790
331
98F
  5
98F
331
25C
  5
25C
331
1BE
  5
1BE
331
34A
  5
34A
331
558
  5
558
331
647
  5
647
331
A83
  5
A83
331
A44
  5
A44
331
A0D
  5
A0D
331
9CE
  5
9CE
331
997
  5
997
331
798
  5
798
331
A8B
  5
A8B
331
A15
  5
A15
331
9D6
  5
9D6
331
99F
  5
99F
331
7A0
  5
7A0
331
6FA
  5
6FA
331
A4C
  5
A4C
331
B82
  5
B82
331
AB4
  5
AB4
331
A54
  5
A54
331
9DE
  5
9DE
331
B2B
  5
B2B
331
ABC
  5
ABC
331
B8A
  5
B8A
331
CDE
  5
CDE
331
AC4
  5
AC4
331
ACC
  5
ACC
331
C97
  5
C97
331
352
  5
352
331
187
  5
187
331
1C6
  5
1C6
331
313
  5
313
331
421
  5
421
331
21D
  5
21D
331
18F
  5
18F
331
31B
  5
31B
331
35A
  5
35A
331
429
  5
429
331
5F0
  5
5F0
331
808
  5
808
331
323
  5
323
331
1EE
  5
1EE
331
197
  5
197
331
225
  5
225
331
362
  5
362
331
431
  5
431
331
702
  5
702
331
A5C
  5
A5C
331
A1D
  5
A1D
331
9E6
  5
9E6
331
9A7
  5
9A7
331
771
  5
771
331
19F
  5
19F
331
32B
  5
32B
331
402
  5
402
331
439
  5
439
331
628
  5
628
331
70A
  5
70A
331
810
  5
810
331
A64
  5
A64
331
A25
  5
A25
331
9EE
  5
9EE
331
9AF
  5
9AF
331
818
  5
818
331
779
  5
779
331
673
  5
673
331
A2D
  5
A2D
331
9B7
  5
9B7
331
781
  5
781
331
6C3
  5
6C3
331
9F6
  5
9F6
331
A6C
  5
A6C
331
C48
  5
C48
331
D4D
  5
D4D
331
A95
  5
A95
331
AD4
  5
AD4
331
A35
  5
A35
331
9FE
  5
9FE
331
9BF
  5
9BF
331
A74
  5
A74
331
C50
  5
C50
331
A9D
  5
A9D
331
B5B
  5
B5B
331
AA5
  5
AA5
331
AAD
  5
AAD
331
BCA
  5
BCA
331
C60
  5
C60
331
1A7
  5
1A7
331
1FE
  5
1FE
331
333
  5
333
331
40A
  5
40A
331
441
  5
441
331
630
  5
630
331
245
  5
245
331
1AF
  5
1AF
331
206
  5
206
331
33B
  5
33B
331
412
  5
412
331
449
  5
449
331
988
  5
988
331
742
  5
742
331
343
  5
343
331
1B7
  5
1B7
331
30C
  5
30C
331
41A
  5
41A
331
6E3
  5
6E3
331
789
  5
789
331
A3D
  5
A3D
331
A06
  5
A06
331
9C7
  5
9C7
331
791
  5
791
331
25D
  5
25D
331
1BF
  5
1BF
331
34B
  5
34B
331
6EB
  5
6EB
331
990
  5
990
331
A7C
  5
A7C
331
A84
  5
A84
331
A0E
  5
A0E
331
9CF
  5
9CF
331
998
  5
998
331
799
  5
799
331
6F3
  5
6F3
331
A45
  5
A45
331
A8C
  5
A8C
331
A16
  5
A16
331
9D7
  5
9D7
331
7A1
  5
7A1
331
A4D
  5
A4D
331
AB5
  5
AB5
331
B83
  5
B83
331
A55
  5
A55
331
9DF
  5
9DF
331
B8B
  5
B8B
331
ABD
  5
ABD
331
C78
  5
C78
331
CDF
  5
CDF
331
AC5
  5
AC5
331
ACD
  5
ACD
331
1C7
  5
1C7
331
188
  5
188
331
314
  5
314
331
353
  5
353
331
422
  5
422
331
42A
  5
42A
331
190
  5
190
331
21E
  5
21E
331
31C
  5
31C
331
35B
  5
35B
331
5F1
  5
5F1
331
9A0
  5
9A0
331
324
  5
324
331
198
  5
198
331
226
  5
226
331
363
  5
363
331
432
  5
432
331
76A
  5
76A
331
A5D
  5
A5D
331
A1E
  5
A1E
331
9E7
  5
9E7
331
9A8
  5
9A8
331
811
  5
811
331
772
  5
772
331
70B
  5
70B
331
236
  5
236
331
1F7
  5
1F7
331
403
  5
403
331
43A
  5
43A
331
629
  5
629
331
66C
  5
66C
331
A26
  5
A26
331
9EF
  5
9EF
331
9B0
  5
9B0
331
819
  5
819
331
77A
  5
77A
331
674
  5
674
331
A65
  5
A65
331
A6D
  5
A6D
331
A2E
  5
A2E
331
9F7
  5
9F7
331
9B8
  5
9B8
331
782
  5
782
331
6C4
  5
6C4
331
829
  5
829
331
C49
  5
C49
331
A96
  5
A96
331
C98
  5
C98
331
A75
  5
A75
331
A36
  5
A36
331
9FF
  5
9FF
331
A9E
  5
A9E
331
AF5
  5
AF5
331
C51
  5
C51
331
B5C
  5
B5C
331
AA6
  5
AA6
331
D1F
  5
D1F
331
B7C
  5
B7C
331
AAE
  5
AAE
331
BCB
  5
BCB
331
CB8
  5
CB8
331
1A0
  5
1A0
331
334
  5
334
331
1A8
  5
1A8
331
40B
  5
40B
331
442
  5
442
331
33C
  5
33C
331
413
  5
413
331
44A
  5
44A
331
9C0
  5
9C0
331
78A
  5
78A
331
1B8
  5
1B8
331
30D
  5
30D
331
344
  5
344
331
41B
  5
41B
331
743
  5
743
331
989
  5
989
331
A3E
  5
A3E
331
A07
  5
A07
331
9C8
  5
9C8
331
792
  5
792
331
74B
  5
74B
331
34C
  5
34C
331
6EC
  5
6EC
331
991
  5
991
331
A7D
  5
A7D
331
A46
  5
A46
331
A0F
  5
A0F
331
9D0
  5
9D0
331
999
  5
999
331
6F4
  5
6F4
331
79A
  5
79A
331
A85
  5
A85
331
A17
  5
A17
331
9D8
  5
9D8
331
7A2
  5
7A2
331
A4E
  5
A4E
331
A8D
  5
A8D
331
B84
  5
B84
331
AB6
  5
AB6
331
CD8
  5
CD8
331
A56
  5
A56
331
ABE
  5
ABE
331
B8C
  5
B8C
331
AC6
  5
AC6
331
ACE
  5
ACE
331
CF8
  5
CF8
331
1C0
  5
1C0
331
217
  5
217
331
189
  5
189
331
1C8
  5
1C8
331
315
  5
315
331
354
  5
354
331
423
  5
423
331
5EA
  5
5EA
331
21F
  5
21F
331
191
  5
191
331
31D
  5
31D
331
35C
  5
35C
331
42B
  5
42B
331
5F2
  5
5F2
331
9E0
  5
9E0
331
9A1
  5
9A1
331
80A
  5
80A
331
1F0
  5
1F0
331
199
  5
199
331
325
  5
325
331
433
  5
433
331
704
  5
704
331
A5E
  5
A5E
331
A1F
  5
A1F
331
9E8
  5
9E8
331
9A9
  5
9A9
331
773
  5
773
331
296
  5
296
331
32D
  5
32D
331
404
  5
404
331
43B
  5
43B
331
66D
  5
66D
331
70C
  5
70C
331
A66
  5
A66
331
A27
  5
A27
331
9F0
  5
9F0
331
9B1
  5
9B1
331
77B
  5
77B
331
81A
  5
81A
331
A2F
  5
A2F
331
9B9
  5
9B9
331
82A
  5
82A
331
783
  5
783
331
6C5
  5
6C5
331
9F8
  5
9F8
331
A6E
  5
A6E
331
C4A
  5
C4A
331
A97
  5
A97
331
A37
  5
A37
331
A76
  5
A76
331
A9F
  5
A9F
331
BAC
  5
BAC
331
CA9
  5
CA9
331
B5D
  5
B5D
331
AA7
  5
AA7
331
D20
  5
D20
331
BCC
  5
BCC
331
AAF
  5
AAF
331
B1E
  5
B1E
331
B7D
  5
B7D
331
CB9
  5
CB9
331
335
  5
335
331
1A9
  5
1A9
331
23F
  5
23F
331
40C
  5
40C
331
443
  5
443
331
33D
  5
33D
331
414
  5
414
331
44B
  5
44B
331
A00
  5
A00
331
9C1
  5
9C1
331
98A
  5
98A
331
78B
  5
78B
331
345
  5
345
331
1B9
  5
1B9
331
30E
  5
30E
331
41C
  5
41C
331
744
  5
744
331
A3F
  5
A3F
331
A08
  5
A08
331
9C9
  5
9C9
331
793
  5
793
331
74C
  5
74C
331
34D
  5
34D
331
6ED
  5
6ED
331
992
  5
992
331
A7E
  5
A7E
331
A86
  5
A86
331
A10
  5
A10
331
9D1
  5
9D1
331
99A
  5
99A
331
79B
  5
79B
331
6F5
  5
6F5
331
A47
  5
A47
331
A4F
  5
A4F
331
9D9
  5
9D9
331
7A3
  5
7A3
331
6FD
  5
6FD
331
A8E
  5
A8E
331
B85
  5
B85
331
AB7
  5
AB7
331
B26
  5
B26
331
CD9
  5
CD9
331
A57
  5
A57
331
B8D
  5
B8D
331
ABF
  5
ABF
331
B2E
  5
B2E
331
BDC
  5
BDC
331
AC7
  5
AC7
331
ACF
  5
ACF
331
1C1
  5
1C1
331
1C9
  5
1C9
331
18A
  5
18A
331
316
  5
316
331
355
  5
355
331
424
  5
424
331
5EB
  5
5EB
331
192
  5
192
331
220
  5
220
331
26F
  5
26F
331
31E
  5
31E
331
35D
  5
35D
331
42C
  5
42C
331
5F3
  5
5F3
331
A18
  5
A18
331
9E1
  5
9E1
331
9A2
  5
9A2
331
80B
  5
80B
331
19A
  5
19A
331
1F1
  5
1F1
331
326
  5
326
331
434
  5
434
331
705
  5
705
331
A5F
  5
A5F
331
A20
  5
A20
331
9E9
  5
9E9
331
9AA
  5
9AA
331
774
  5
774
331
32E
  5
32E
331
405
  5
405
331
43C
  5
43C
331
70D
  5
70D
331
A28
  5
A28
331
9F1
  5
9F1
331
9B2
  5
9B2
331
77C
  5
77C
331
A67
  5
A67
331
A90
  5
A90
331
A6F
  5
A6F
331
A30
  5
A30
331
9F9
  5
9F9
331
9BA
  5
9BA
331
784
  5
784
331
82B
  5
82B
331
C4B
  5
C4B
331
A98
  5
A98
331
C9A
  5
C9A
331
A77
  5
A77
331
AA0
  5
AA0
331
B56
  5
B56
331
AA8
  5
AA8
331
D21
  5
D21
331
B7E
  5
B7E
331
BCD
  5
BCD
331
CBA
  5
CBA
  0
LAYOUT
  5
D36
102
{ACAD_REACTORS
330
D34
102
}
330
D34
100
AcDbPlotSettings
  1

  2
A4 EPSON LP-6100.pc3
  4
A4
  6

 40
5.873749732971191
 41
5.873747825622558
 42
5.873748779296875
 43
5.873748779296875
 44
209.9733276367187
 45
297.0106506347656
 46
0.8
 47
25.0
 48
0.0
 49
0.0
140
0.0
141
0.0
142
1.0
143
1.0
 70
 28336
 72
     1
 73
     1
 74
     1
  7
AutoCAD LT 98.ctb
 75
    16
147
1.0
 76
     1
 77
     2
 78
   300
148
-255.8333053331939
149
-176.0392376680199
100
AcDbLayout
  1
Model
 70
     1
 71
     0
 10
0.0
 20
0.0
 11
12.0
 21
9.0
 12
0.0
 22
0.0
 32
0.0
 14
0.0
 24
0.0
 34
0.0
 15
0.0
 25
0.0
 35
0.0
146
0.0
 13
0.0
 23
0.0
 33
0.0
 16
1.0
 26
0.0
 36
0.0
 17
0.0
 27
1.0
 37
0.0
 76
     0
330
18
1001
ACAD_PSEXT
1000
A4 EPSON LP-6100.pc3
1000
EPSON LP-6100
1000
\\SATO-MATE2
1000

1070
     0
  0
LAYOUT
  5
D37
102
{ACAD_REACTORS
330
D34
102
}
330
D34
100
AcDbPlotSettings
  1

  2
C:\Documents and Settings\佐藤\Application Data\Autodesk\AutoCAD LT 2005\R10\jpn\plotters\PEACOCK EPSON LP-6100.pc3
  4

  6

 40
0.0
 41
0.0
 42
0.0
 43
0.0
 44
0.0
 45
0.0
 46
0.0
 47
0.0
 48
0.0
 49
0.0
140
0.0
141
0.0
142
1.0
143
1.0
 70
   688
 72
     0
 73
     0
 74
     5
  7
AutoCAD LT 98.ctb
 75
    16
147
1.0
 76
     0
 77
     2
 78
   300
148
0.0
149
0.0
100
AcDbLayout
  1
レイアウト1
 70
     1
 71
     1
 10
0.0
 20
0.0
 11
420.0
 21
297.0
 12
0.0
 22
0.0
 32
0.0
 14
1.000000000000000E+20
 24
1.000000000000000E+20
 34
1.000000000000000E+20
 15
-1.000000000000000E+20
 25
-1.000000000000000E+20
 35
-1.000000000000000E+20
146
0.0
 13
0.0
 23
0.0
 33
0.0
 16
1.0
 26
0.0
 36
0.0
 17
0.0
 27
1.0
 37
0.0
 76
     0
330
15
  0
MLINESTYLE
  5
1C
102
{ACAD_REACTORS
330
1B
102
}
330
1B
100
AcDbMlineStyle
  2
STANDARD
 70
     0
  3

 62
   256
 51
90.0
 52
90.0
 71
     2
 49
0.5
 62
   256
  6
BYLAYER
 49
-0.5
 62
   256
  6
BYLAYER
  0
ACDBPLACEHOLDER
  5
D2F
102
{ACAD_REACTORS
330
D2E
102
}
330
D2E
  0
ACAD_PROXY_OBJECT
  5
D33
102
{ACAD_REACTORS
330
D32
102
}
330
D32
100
AcDbProxyObject
 90
      499
 91
      503
 95
  2555929
 70
     0
 93
     1849
310
4214DD185B99185C992420000000000000F83F0000000000003E0FC00000000000004901028000000C1008070000C3001FDFF8000000C1003FBFF000000182007F7FE00000030400FEFFC00000060801FDFF8000000C1003FBFF000000182000000000000000C2020B0000001820100E000186003FBFF000000182007F7FE0
310
0000030400FEFFC00000060801FDFF8000000C1003FBFF000000182007F7FE0000003040000000000000012404160000003040201C00030C007F7FE00000030400FEFFC00000060801FDFF8000000C1003FBFF000000182007F7FE00000030400FEFFC000000608000
340
F
340
F
340
F
 94
        0
  0
DICTIONARYVAR
  5
D40
102
{ACAD_REACTORS
330
D3F
102
}
330
D3F
100
DictionaryVariables
280
     0
  1
STANDARD
  0
ENDSEC
  0
EOF
