  0
SECTION
  2
HEADER
  9
$ACADVER
  1
AC1018
  9
$ACADMAINTVER
 70
     0
  9
$DWGCODEPAGE
  3
ANSI_932
  9
$INSBASE
 10
0.0
 20
0.0
 30
0.0
  9
$EXTMIN
 10
-0.4128286110385489
 20
-0.4090752353065455
 30
-0.0000457728747811
  9
$EXTMAX
 10
377.9317758321901
 20
282.9186987961628
 30
0.000030519906467
  9
$LIMMIN
 10
0.0
 20
0.0
  9
$LIMMAX
 10
420.0
 20
297.0
  9
$ORTHOMODE
 70
     0
  9
$REGENMODE
 70
     1
  9
$FILLMODE
 70
     1
  9
$QTEXTMODE
 70
     0
  9
$MIRRTEXT
 70
     1
  9
$LTSCALE
 40
1.0
  9
$ATTMODE
 70
     1
  9
$TEXTSIZE
 40
5.0
  9
$TRACEWID
 40
1.0
  9
$TEXTSTYLE
  7
STYLE3
  9
$CLAYER
  8
隠れ線2
  9
$CELTYPE
  6
BYLAYER
  9
$CECOLOR
 62
   256
  9
$CELTSCALE
 40
1.0
  9
$DISPSILH
 70
     0
  9
$DIMSCALE
 40
1.0
  9
$DIMASZ
 40
2.5
  9
$DIMEXO
 40
0.0
  9
$DIMDLI
 40
3.75
  9
$DIMRND
 40
0.0
  9
$DIMDLE
 40
0.0
  9
$DIMEXE
 40
1.25
  9
$DIMTP
 40
0.0
  9
$DIMTM
 40
0.0
  9
$DIMTXT
 40
2.5
  9
$DIMCEN
 40
2.5
  9
$DIMTSZ
 40
0.0
  9
$DIMTOL
 70
     0
  9
$DIMLIM
 70
     0
  9
$DIMTIH
 70
     0
  9
$DIMTOH
 70
     0
  9
$DIMSE1
 70
     0
  9
$DIMSE2
 70
     0
  9
$DIMTAD
 70
     1
  9
$DIMZIN
 70
     8
  9
$DIMBLK
  1

  9
$DIMASO
 70
     1
  9
$DIMSHO
 70
     1
  9
$DIMPOST
  1

  9
$DIMAPOST
  1

  9
$DIMALT
 70
     0
  9
$DIMALTD
 70
     4
  9
$DIMALTF
 40
0.0394
  9
$DIMLFAC
 40
1.0
  9
$DIMTOFL
 70
     1
  9
$DIMTVP
 40
0.0
  9
$DIMTIX
 70
     0
  9
$DIMSOXD
 70
     0
  9
$DIMSAH
 70
     1
  9
$DIMBLK1
  1
OPEN
  9
$DIMBLK2
  1
OPEN
  9
$DIMSTYLE
  2
STYLE3
  9
$DIMCLRD
 70
     2
  9
$DIMCLRE
 70
     2
  9
$DIMCLRT
 70
     6
  9
$DIMTFAC
 40
1.0
  9
$DIMGAP
 40
0.625
  9
$DIMJUST
 70
     0
  9
$DIMSD1
 70
     0
  9
$DIMSD2
 70
     0
  9
$DIMTOLJ
 70
     1
  9
$DIMTZIN
 70
     0
  9
$DIMALTZ
 70
     0
  9
$DIMALTTZ
 70
     0
  9
$DIMUPT
 70
     0
  9
$DIMDEC
 70
     2
  9
$DIMTDEC
 70
     4
  9
$DIMALTU
 70
     8
  9
$DIMALTTD
 70
     4
  9
$DIMTXSTY
  7
STYLE3
  9
$DIMAUNIT
 70
     0
  9
$DIMADEC
 70
     0
  9
$DIMALTRND
 40
0.0
  9
$DIMAZIN
 70
     0
  9
$DIMDSEP
 70
    46
  9
$DIMATFIT
 70
     3
  9
$DIMFRAC
 70
     0
  9
$DIMLDRBLK
  1

  9
$DIMLUNIT
 70
     2
  9
$DIMLWD
 70
    -2
  9
$DIMLWE
 70
    -2
  9
$DIMTMOVE
 70
     0
  9
$LUNITS
 70
     2
  9
$LUPREC
 70
     4
  9
$SKETCHINC
 40
1.0
  9
$FILLETRAD
 40
1.5
  9
$AUNITS
 70
     0
  9
$AUPREC
 70
     0
  9
$MENU
  1
.
  9
$ELEVATION
 40
0.0
  9
$PELEVATION
 40
0.0
  9
$THICKNESS
 40
0.0
  9
$LIMCHECK
 70
     0
  9
$CHAMFERA
 40
10.0
  9
$CHAMFERB
 40
10.0
  9
$CHAMFERC
 40
20.0
  9
$CHAMFERD
 40
0.0
  9
$SKPOLY
 70
     0
  9
$TDCREATE
 40
2451269.641820255
  9
$TDUCREATE
 40
2451269.266820255
  9
$TDUPDATE
 40
2455377.439306632
  9
$TDUUPDATE
 40
2455377.064306632
  9
$TDINDWG
 40
0.3619462847
  9
$TDUSRTIMER
 40
0.3619462847
  9
$USRTIMER
 70
     1
  9
$ANGBASE
 50
0.0
  9
$ANGDIR
 70
     0
  9
$PDMODE
 70
     0
  9
$PDSIZE
 40
0.0
  9
$PLINEWID
 40
0.0
  9
$SPLFRAME
 70
     0
  9
$SPLINETYPE
 70
     6
  9
$SPLINESEGS
 70
     8
  9
$HANDSEED
  5
D41
  9
$SURFTAB1
 70
     6
  9
$SURFTAB2
 70
     6
  9
$SURFTYPE
 70
     6
  9
$SURFU
 70
     6
  9
$SURFV
 70
     6
  9
$UCSBASE
  2

  9
$UCSNAME
  2

  9
$UCSORG
 10
0.0
 20
0.0
 30
0.0
  9
$UCSXDIR
 10
1.0
 20
0.0
 30
0.0
  9
$UCSYDIR
 10
0.0
 20
1.0
 30
0.0
  9
$UCSORTHOREF
  2

  9
$UCSORTHOVIEW
 70
     0
  9
$UCSORGTOP
 10
0.0
 20
0.0
 30
0.0
  9
$UCSORGBOTTOM
 10
0.0
 20
0.0
 30
0.0
  9
$UCSORGLEFT
 10
0.0
 20
0.0
 30
0.0
  9
$UCSORGRIGHT
 10
0.0
 20
0.0
 30
0.0
  9
$UCSORGFRONT
 10
0.0
 20
0.0
 30
0.0
  9
$UCSORGBACK
 10
0.0
 20
0.0
 30
0.0
  9
$PUCSBASE
  2

  9
$PUCSNAME
  2

  9
$PUCSORG
 10
0.0
 20
0.0
 30
0.0
  9
$PUCSXDIR
 10
1.0
 20
0.0
 30
0.0
  9
$PUCSYDIR
 10
0.0
 20
1.0
 30
0.0
  9
$PUCSORTHOREF
  2

  9
$PUCSORTHOVIEW
 70
     0
  9
$PUCSORGTOP
 10
0.0
 20
0.0
 30
0.0
  9
$PUCSORGBOTTOM
 10
0.0
 20
0.0
 30
0.0
  9
$PUCSORGLEFT
 10
0.0
 20
0.0
 30
0.0
  9
$PUCSORGRIGHT
 10
0.0
 20
0.0
 30
0.0
  9
$PUCSORGFRONT
 10
0.0
 20
0.0
 30
0.0
  9
$PUCSORGBACK
 10
0.0
 20
0.0
 30
0.0
  9
$USERI1
 70
     0
  9
$USERI2
 70
     0
  9
$USERI3
 70
     0
  9
$USERI4
 70
     0
  9
$USERI5
 70
     0
  9
$USERR1
 40
0.0
  9
$USERR2
 40
0.0
  9
$USERR3
 40
0.0
  9
$USERR4
 40
0.0
  9
$USERR5
 40
0.0
  9
$WORLDVIEW
 70
     1
  9
$SHADEDGE
 70
     3
  9
$SHADEDIF
 70
    70
  9
$TILEMODE
 70
     1
  9
$MAXACTVP
 70
    48
  9
$PINSBASE
 10
0.0
 20
0.0
 30
0.0
  9
$PLIMCHECK
 70
     0
  9
$PEXTMIN
 10
1.000000000000000E+20
 20
1.000000000000000E+20
 30
1.000000000000000E+20
  9
$PEXTMAX
 10
-1.000000000000000E+20
 20
-1.000000000000000E+20
 30
-1.000000000000000E+20
  9
$PLIMMIN
 10
0.0
 20
0.0
  9
$PLIMMAX
 10
420.0
 20
297.0
  9
$UNITMODE
 70
     0
  9
$VISRETAIN
 70
     1
  9
$PLINEGEN
 70
     0
  9
$PSLTSCALE
 70
     1
  9
$TREEDEPTH
 70
  3020
  9
$CMLSTYLE
  2
STANDARD
  9
$CMLJUST
 70
     0
  9
$CMLSCALE
 40
20.0
  9
$PROXYGRAPHICS
 70
     1
  9
$MEASUREMENT
 70
     1
  9
$CELWEIGHT
370
    -1
  9
$ENDCAPS
280
     0
  9
$JOINSTYLE
280
     0
  9
$LWDISPLAY
290
     0
  9
$INSUNITS
 70
     0
  9
$HYPERLINKBASE
  1

  9
$STYLESHEET
  1
monochrome.ctb
  9
$XEDIT
290
     1
  9
$CEPSNTYPE
380
     0
  9
$PSTYLEMODE
290
     1
  9
$FINGERPRINTGUID
  2
{05F5B2BC-78A4-4BD8-BAF6-9ED5B713AD58}
  9
$VERSIONGUID
  2
{0F03E30D-4467-4A59-B0D8-2D4C1235AE9D}
  9
$EXTNAMES
290
     1
  9
$PSVPSCALE
 40
0.0
  9
$OLESTARTUP
290
     0
  9
$SORTENTS
280
   127
  9
$INDEXCTL
280
     0
  9
$HIDETEXT
280
     0
  9
$XCLIPFRAME
290
     0
  9
$HALOGAP
280
     0
  9
$OBSCOLOR
 70
   257
  9
$OBSLTYPE
280
     0
  9
$INTERSECTIONDISPLAY
280
     0
  9
$INTERSECTIONCOLOR
 70
   257
  9
$DIMASSOC
280
     1
  9
$PROJECTNAME
  1

  0
ENDSEC
  0
SECTION
  2
CLASSES
  0
CLASS
  1
HATCH
  2
AcDbHatch
  3
ObjectDBX Classes
 90
        0
 91
       19
280
     0
281
     1
  0
CLASS
  1
ACDBDICTIONARYWDFLT
  2
AcDbDictionaryWithDefault
  3
ObjectDBX Classes
 90
        0
 91
        1
280
     0
281
     0
  0
CLASS
  1
TABLESTYLE
  2
AcDbTableStyle
  3
ObjectDBX Classes
 90
     2047
 91
        1
280
     0
281
     0
  0
CLASS
  1
DICTIONARYVAR
  2
AcDbDictionaryVar
  3
ObjectDBX Classes
 90
        0
 91
        1
280
     0
281
     0
  0
ENDSEC
  0
SECTION
  2
TABLES
  0
TABLE
  2
VPORT
  5
8
330
0
100
AcDbSymbolTable
 70
     2
  0
VPORT
  5
D40
330
8
100
AcDbSymbolTableRecord
100
AcDbViewportTableRecord
  2
*Active
 70
     0
 10
0.0
 20
0.0
 11
1.0
 21
1.0
 12
188.7594736105757
 22
141.2548117804281
 13
0.0
 23
0.0
 14
10.0
 24
10.0
 15
10.0
 25
10.0
 16
0.0
 26
0.0
 36
1.0
 17
0.0
 27
0.0
 37
0.0
 40
285.4823578644083
 41
1.530456852791878
 42
50.0
 43
0.0
 44
0.0
 50
0.0
 51
0.0
 71
     0
 72
   100
 73
     1
 74
     1
 75
     0
 76
     0
 77
     0
 78
     0
281
     0
 65
     1
110
0.0
120
0.0
130
0.0
111
1.0
121
0.0
131
0.0
112
0.0
122
1.0
132
0.0
 79
     0
146
0.0
  0
ENDTAB
  0
TABLE
  2
LTYPE
  5
5
330
0
100
AcDbSymbolTable
 70
     4
  0
LTYPE
  5
12
330
5
100
AcDbSymbolTableRecord
100
AcDbLinetypeTableRecord
  2
BYBLOCK
 70
     0
  3

 72
    65
 73
     0
 40
0.0
  0
LTYPE
  5
13
330
5
100
AcDbSymbolTableRecord
100
AcDbLinetypeTableRecord
  2
BYLAYER
 70
     0
  3

 72
    65
 73
     0
 40
0.0
  0
LTYPE
  5
14
330
5
100
AcDbSymbolTableRecord
100
AcDbLinetypeTableRecord
  2
CONTINUOUS
 70
     0
  3
Solid line
 72
    65
 73
     0
 40
0.0
  0
LTYPE
  5
22
330
5
100
AcDbSymbolTableRecord
100
AcDbLinetypeTableRecord
  2
CENTER2
 70
     0
  3
Center (.5x) ___ _ ___ _ ___ _ ___ _ ___ _ ___
 72
    65
 73
     4
 40
28.575
 49
19.05
 74
     0
 49
-3.174999999999999
 74
     0
 49
3.174999999999999
 74
     0
 49
-3.174999999999999
 74
     0
  0
LTYPE
  5
23
330
5
100
AcDbSymbolTableRecord
100
AcDbLinetypeTableRecord
  2
HIDDEN2
 70
     0
  3
Hidden (.5x) _ _ _ _ _ _ _ _ _ _ _ _ _ _ _ _ _
 72
    65
 73
     2
 40
4.762499999999999
 49
3.174999999999999
 74
     0
 49
-1.587499999999999
 74
     0
  0
LTYPE
  5
24
330
5
100
AcDbSymbolTableRecord
100
AcDbLinetypeTableRecord
  2
PHANTOM2
 70
     0
  3
Phantom (.5x) ___ _ _ ___ _ _ ___ _ _ ___ _ _
 72
    65
 73
     6
 40
31.75
 49
15.875
 74
     0
 49
-3.174999999999999
 74
     0
 49
3.174999999999999
 74
     0
 49
-3.174999999999999
 74
     0
 49
3.174999999999999
 74
     0
 49
-3.174999999999999
 74
     0
  0
ENDTAB
  0
TABLE
  2
LAYER
  5
2
330
0
100
AcDbSymbolTable
 70
    15
  0
LAYER
  5
E
330
2
100
AcDbSymbolTableRecord
100
AcDbLayerTableRecord
  2
0
 70
     0
 62
     7
  6
CONTINUOUS
370
    -3
390
98D
  0
LAYER
  5
25
330
2
100
AcDbSymbolTableRecord
100
AcDbLayerTableRecord
  2
外形線
 70
     0
 62
     7
  6
CONTINUOUS
370
    -3
390
98D
  0
LAYER
  5
26
330
2
100
AcDbSymbolTableRecord
100
AcDbLayerTableRecord
  2
寸法線
 70
     0
 62
     2
  6
CONTINUOUS
370
    -3
390
98D
  0
LAYER
  5
27
330
2
100
AcDbSymbolTableRecord
100
AcDbLayerTableRecord
  2
中心線
 70
     0
 62
     4
  6
CENTER2
370
    -3
390
98D
  0
LAYER
  5
29
330
2
100
AcDbSymbolTableRecord
100
AcDbLayerTableRecord
  2
想像線
 70
     0
 62
     1
  6
PHANTOM2
370
    -3
390
98D
  0
LAYER
  5
2A
330
2
100
AcDbSymbolTableRecord
100
AcDbLayerTableRecord
  2
ﾊｯﾁﾝｸ
 70
     0
 62
     6
  6
CONTINUOUS
370
    -3
390
98D
  0
LAYER
  5
2B
330
2
100
AcDbSymbolTableRecord
100
AcDbLayerTableRecord
  2
文字
 70
     0
 62
     6
  6
CONTINUOUS
370
    -3
390
98D
  0
LAYER
  5
2C
330
2
100
AcDbSymbolTableRecord
100
AcDbLayerTableRecord
  2
目盛
 70
     0
 62
    72
  6
CONTINUOUS
370
    -3
390
98D
  0
LAYER
  5
2D
330
2
100
AcDbSymbolTableRecord
100
AcDbLayerTableRecord
  2
針
 70
     0
 62
     5
  6
CONTINUOUS
370
    -3
390
98D
  0
LAYER
  5
53
330
2
100
AcDbSymbolTableRecord
100
AcDbLayerTableRecord
  2
DEFPOINTS
 70
     0
 62
     7
  6
CONTINUOUS
290
     0
370
    -3
390
98D
  0
LAYER
  5
A5
330
2
100
AcDbSymbolTableRecord
100
AcDbLayerTableRecord
  2
C
 70
     0
 62
     7
  6
CONTINUOUS
370
    -3
390
98D
  0
LAYER
  5
1FE
330
2
100
AcDbSymbolTableRecord
100
AcDbLayerTableRecord
  2
隠れ線2
 70
     0
 62
     1
  6
HIDDEN2
370
    -3
390
98D
  0
LAYER
  5
304
330
2
100
AcDbSymbolTableRecord
100
AcDbLayerTableRecord
  2
握り
 70
     0
 62
     3
  6
CONTINUOUS
370
    -3
390
98D
  0
LAYER
  5
305
330
2
100
AcDbSymbolTableRecord
100
AcDbLayerTableRecord
  2
ROGO
 70
     0
 62
     6
  6
CONTINUOUS
370
    -3
390
98D
  0
ENDTAB
  0
TABLE
  2
STYLE
  5
3
330
0
100
AcDbSymbolTable
 70
     3
  0
STYLE
  5
F
330
3
100
AcDbSymbolTableRecord
100
AcDbTextStyleTableRecord
  2
STANDARD
 70
     0
 40
0.0
 41
1.0
 50
0.0
 71
     0
 42
2.5
  3
txt
  4

  0
STYLE
  5
3F
330
3
100
AcDbSymbolTableRecord
100
AcDbTextStyleTableRecord
  2
STYLE3
 70
     0
 40
0.0
 41
1.0
 50
0.0
 71
     0
 42
5.0
  3
romans.shx
  4
bigfont.shx
  0
ENDTAB
  0
TABLE
  2
VIEW
  5
6
330
0
100
AcDbSymbolTable
 70
     0
  0
ENDTAB
  0
TABLE
  2
UCS
  5
7
330
0
100
AcDbSymbolTable
 70
     0
  0
ENDTAB
  0
TABLE
  2
APPID
  5
9
330
0
100
AcDbSymbolTable
 70
     2
  0
APPID
  5
10
330
9
100
AcDbSymbolTableRecord
100
AcDbRegAppTableRecord
  2
ACAD
 70
     0
  0
APPID
  5
C85
330
9
100
AcDbSymbolTableRecord
100
AcDbRegAppTableRecord
  2
ACAD_PSEXT
 70
     0
  0
ENDTAB
  0
TABLE
  2
DIMSTYLE
  5
A
330
0
100
AcDbSymbolTable
 70
     2
100
AcDbDimStyleTable
 71
     1
340
8F
  0
DIMSTYLE
105
1D
330
A
100
AcDbSymbolTableRecord
100
AcDbDimStyleTableRecord
  2
STANDARD
 70
     0
 41
2.5
 42
0.625
 43
3.75
 44
1.25
 73
     0
 74
     0
 77
     1
 78
     8
140
2.5
141
2.5
143
0.0394
147
0.625
171
     4
172
     1
273
     8
274
     4
277
     6
340
F
  0
DIMSTYLE
105
8F
102
{ACAD_REACTORS
330
96F
102
}
330
A
100
AcDbSymbolTableRecord
100
AcDbDimStyleTableRecord
  2
STYLE3
 70
     0
 41
2.5
 42
0.0
 43
3.75
 44
1.25
 73
     0
 74
     0
 77
     1
 78
     8
140
2.5
141
2.5
143
0.0394
147
0.625
171
     4
172
     1
173
     1
176
     2
177
     2
178
     6
271
     1
273
     8
274
     4
340
3F
341
45
343
45
344
45
  0
ENDTAB
  0
TABLE
  2
BLOCK_RECORD
  5
1
330
0
100
AcDbSymbolTable
 70
     3
  0
BLOCK_RECORD
  5
18
330
1
100
AcDbSymbolTableRecord
100
AcDbBlockTableRecord
  2
*MODEL_SPACE
340
994
  0
BLOCK_RECORD
  5
15
330
1
100
AcDbSymbolTableRecord
100
AcDbBlockTableRecord
  2
*PAPER_SPACE
340
995
  0
BLOCK_RECORD
  5
45
330
1
100
AcDbSymbolTableRecord
100
AcDbBlockTableRecord
  2
_OPEN
340
0
102
{BLKREFS
331
720
331
732
331
791
331
7A7
331
7B0
331
7B1
331
7CC
331
7CD
331
903
331
904
331
90C
331
90D
331
915
331
916
331
91D
331
91E
331
926
331
927
331
92E
331
92F
331
937
331
938
331
D24
331
D25
102
}
  0
BLOCK_RECORD
  5
961
330
1
100
AcDbSymbolTableRecord
100
AcDbBlockTableRecord
  2
*D1
340
0
  0
ENDTAB
  0
ENDSEC
  0
SECTION
  2
BLOCKS
  0
BLOCK
  5
19
330
18
100
AcDbEntity
  8
0
100
AcDbBlockBegin
  2
*MODEL_SPACE
 70
     0
 10
0.0
 20
0.0
 30
0.0
  3
*MODEL_SPACE
  1

  0
ENDBLK
  5
1A
330
18
100
AcDbEntity
  8
0
100
AcDbBlockEnd
  0
BLOCK
  5
16
330
15
100
AcDbEntity
 67
     1
  8
0
100
AcDbBlockBegin
  2
*PAPER_SPACE
 70
     0
 10
0.0
 20
0.0
 30
0.0
  3
*PAPER_SPACE
  1

  0
ENDBLK
  5
17
330
15
100
AcDbEntity
 67
     1
  8
0
100
AcDbBlockEnd
  0
BLOCK
  5
46
330
45
100
AcDbEntity
  8
0
100
AcDbBlockBegin
  2
_OPEN
 70
     0
 10
0.0
 20
0.0
 30
0.0
  3
_OPEN
  1

  0
LINE
  5
47
330
45
100
AcDbEntity
  8
0
  6
ByBlock
 62
     0
100
AcDbLine
 10
-1.0
 20
0.1666666666666666
 30
0.0
 11
0.0
 21
0.0
 31
0.0
  0
LINE
  5
48
330
45
100
AcDbEntity
  8
0
  6
ByBlock
 62
     0
100
AcDbLine
 10
0.0
 20
0.0
 30
0.0
 11
-1.0
 21
-0.1666666666666666
 31
0.0
  0
LINE
  5
49
330
45
100
AcDbEntity
  8
0
  6
ByBlock
 62
     0
100
AcDbLine
 10
0.0
 20
0.0
 30
0.0
 11
-1.0
 21
0.0
 31
0.0
  0
ENDBLK
  5
4A
330
45
100
AcDbEntity
  8
0
100
AcDbBlockEnd
  0
BLOCK
  5
97D
330
961
100
AcDbEntity
  8
0
100
AcDbBlockBegin
  2
*D1
 70
     1
 10
0.0
 20
0.0
 30
0.0
  3
*D1
  1

  0
LINE
  5
D1F
330
961
100
AcDbEntity
  8
寸法線
 62
     2
370
    -2
100
AcDbLine
 10
66.60644152447284
 20
127.9479676518364
 30
0.0
 11
67.55664929967892
 21
117.0870430827404
 31
0.0
  0
LINE
  5
D20
330
961
100
AcDbEntity
  8
寸法線
 62
     2
370
    -2
100
AcDbLine
 10
69.61180904383542
 20
128.0175994535115
 30
0.0
 11
70.54523339395415
 21
117.3485103109834
 31
0.0
  0
LINE
  5
D21
330
961
100
AcDbEntity
  8
寸法線
 62
     2
370
    -2
100
AcDbLine
 10
64.957217876015
 20
118.114397098486
 30
0.0
 11
62.46673113078561
 21
117.8965077416168
 31
0.0
  0
LINE
  5
D22
330
961
100
AcDbEntity
  8
寸法線
 62
     2
370
    -2
100
AcDbLine
 10
72.92677546074894
 20
118.8116430404672
 30
0.0
 11
81.40628985522033
 21
119.5535044221884
 31
0.0
  0
LINE
  5
D23
330
961
100
AcDbEntity
  8
寸法線
 62
     2
370
    -2
100
AcDbLine
 10
67.44770462124435
 20
118.3322864553551
 30
0.0
 11
70.43628871551958
 21
118.5937536835981
 31
0.0
  0
INSERT
  5
D24
330
961
100
AcDbEntity
  8
寸法線
 62
     2
370
    -2
100
AcDbBlockReference
  2
_OPEN
 10
67.44770462124435
 20
118.3322864553551
 30
0.0
 41
2.5
 42
2.5
 43
2.5
 50
4.999999999999994
  0
INSERT
  5
D25
330
961
100
AcDbEntity
  8
寸法線
 62
     2
370
    -2
100
AcDbBlockReference
  2
_OPEN
 10
70.43628871551958
 20
118.5937536835981
 30
0.0
 41
2.5
 42
2.5
 43
2.5
 50
185.0
  0
MTEXT
  5
D26
330
961
100
AcDbEntity
  8
寸法線
 62
     6
100
AcDbMText
 10
78.19129275281508
 20
121.8116538067206
 30
0.0
 40
2.5
 41
0.0
 71
     5
 72
     1
  1
\A1;(3)
  7
STYLE3
 11
0.9961946980917455
 21
0.0871557427476583
 31
0.0
 73
     1
 44
1.0
  0
POINT
  5
D27
330
961
100
AcDbEntity
  8
DEFPOINTS
 62
     0
100
AcDbPoint
 10
66.60644152447284
 20
127.9479676518364
 30
0.0
  0
POINT
  5
D28
330
961
100
AcDbEntity
  8
DEFPOINTS
 62
     0
100
AcDbPoint
 10
69.61180904383542
 20
128.0175994535115
 30
0.0
  0
POINT
  5
D29
330
961
100
AcDbEntity
  8
DEFPOINTS
 62
     0
100
AcDbPoint
 10
70.43628871551958
 20
118.5937536835981
 30
0.0
  0
ENDBLK
  5
989
330
961
100
AcDbEntity
  8
0
100
AcDbBlockEnd
  0
ENDSEC
  0
SECTION
  2
ENTITIES
  0
LWPOLYLINE
  5
1A0
330
18
100
AcDbEntity
  8
C
100
AcDbPolyline
 90
        5
 70
     0
 43
0.8
 10
0.0
 20
282.5
 10
377.4999999999999
 20
282.5
 10
377.4999999999999
 20
0.0
 10
0.0
 20
0.0
 10
0.0
 20
282.5
  0
LINE
  5
227
330
18
100
AcDbEntity
  8
外形線
100
AcDbLine
 10
232.5915972995554
 20
155.9339159083346
 30
0.0
 11
232.5915972995554
 21
140.9339159083346
 31
0.0
  0
LINE
  5
228
330
18
100
AcDbEntity
  8
外形線
100
AcDbLine
 10
211.5915972995553
 20
155.9339159083346
 30
0.0
 11
222.5915972995553
 21
155.9339159083346
 31
0.0
  0
ARC
  5
22B
330
18
100
AcDbEntity
  8
外形線
100
AcDbCircle
 10
248.5915972995554
 20
140.9339159083346
 30
0.0
 40
16.0
100
AcDbArc
 50
180.0
 51
260.0899700540249
  0
ARC
  5
22E
330
18
100
AcDbEntity
  8
外形線
100
AcDbCircle
 10
237.3474669362719
 20
51.87337525172011
 30
0.0
 40
73.78937689327767
100
AcDbArc
 50
39.13817542620954
 51
83.39267979925926
  0
ARC
  5
231
330
18
100
AcDbEntity
  8
外形線
100
AcDbCircle
 10
249.1761898807157
 20
59.51918179209048
 30
0.0
 40
54.85930691953882
100
AcDbArc
 50
40.26395037165547
 51
96.44832629534624
  0
ARC
  5
234
330
18
100
AcDbEntity
  8
外形線
100
AcDbCircle
 10
292.5915972995554
 20
96.9339159083346
 30
0.0
 40
2.5
100
AcDbArc
 50
231.5776170990622
 51
37.2944426177933
  0
ARC
  5
239
330
18
100
AcDbEntity
  8
外形線
100
AcDbCircle
 10
231.5917460465519
 20
172.9461086829397
 30
0.0
 40
60.01194147734441
100
AcDbArc
 50
234.2831871218638
 51
280.9732899637356
  0
ARC
  5
23D
330
18
100
AcDbEntity
  8
外形線
100
AcDbCircle
 10
174.5915972995553
 20
94.4479159083346
 30
0.0
 40
37.0
100
AcDbArc
 50
53.58093238036925
 51
77.92464434585781
  0
LINE
  5
23F
330
18
100
AcDbEntity
  8
中心線
 48
0.5
100
AcDbLine
 10
211.5915972995554
 20
143.9339159083346
 30
0.0
 11
82.08628654762842
 21
132.603669351139
 31
0.0
  0
LINE
  5
242
330
18
100
AcDbEntity
  8
外形線
100
AcDbLine
 10
50.20805620869257
 20
129.814685583214
 30
0.0
 11
49.97273570327388
 21
132.5044112680617
 31
0.0
  0
LINE
  5
244
330
18
100
AcDbEntity
  8
外形線
100
AcDbLine
 10
101.5090349886642
 20
140.0749037201197
 30
0.0
 11
56.94609858991611
 21
133.1145014672953
 31
0.0
  0
LINE
  5
253
330
18
100
AcDbEntity
  8
外形線
100
AcDbLine
 10
82.08628654762842
 20
132.603669351139
 30
0.0
 11
101.7728541281225
 21
128.7627434329221
 31
0.0
  0
LINE
  5
254
330
18
100
AcDbEntity
  8
外形線
100
AcDbLine
 10
82.08628654762845
 20
132.603669351139
 30
0.0
 11
50.20805620869257
 21
129.814685583214
 31
0.0
  0
LINE
  5
256
330
18
100
AcDbEntity
  8
外形線
100
AcDbLine
 10
56.94609858991611
 20
133.1145014672953
 30
0.0
 11
49.97273570327388
 21
132.5044112680617
 31
0.0
  0
CIRCLE
  5
266
330
18
100
AcDbEntity
  8
外形線
100
AcDbCircle
 10
198.1755972995553
 20
139.9339159083346
 30
0.0
 40
1.274999999999999
  0
ARC
  5
272
330
18
100
AcDbEntity
  8
隠れ線2
100
AcDbCircle
 10
227.5915972995554
 20
192.4339159083346
 30
0.0
 40
25.0
100
AcDbArc
 50
359.9999999999992
 51
184.6576782532617
  0
LINE
  5
273
330
18
100
AcDbEntity
  8
中心線
 48
0.5
100
AcDbLine
 10
211.5915972995554
 20
160.6034131243489
 30
0.0
 11
211.5915972995554
 21
118.4134943093755
 31
0.0
  0
LINE
  5
274
330
18
100
AcDbEntity
  8
中心線
 48
0.5
100
AcDbLine
 10
211.5915972995554
 20
143.9339159083346
 30
0.0
 11
356.5630775663203
 21
143.9339159083346
 31
0.0
  0
LINE
  5
279
330
18
100
AcDbEntity
  8
隠れ線2
100
AcDbLine
 10
252.5915972995554
 20
192.4339159083346
 30
0.0
 11
251.7540802615424
 21
181.7974495255698
 31
0.0
  0
ARC
  5
286
330
18
100
AcDbEntity
  8
外形線
100
AcDbCircle
 10
165.2765972995553
 20
187.6339159083346
 30
0.0
 40
37.5
100
AcDbArc
 50
278.580924800807
 51
354.350827694239
  0
LINE
  5
297
330
18
100
AcDbEntity
  8
外形線
100
AcDbLine
 10
82.08628654762842
 20
132.603669351139
 30
0.0
 11
50.20805620869257
 21
129.814685583214
 31
0.0
  0
LINE
  5
299
330
18
100
AcDbEntity
  8
外形線
100
AcDbLine
 10
57.41673960075357
 20
127.7350500975999
 30
0.0
 11
50.44337671411125
 21
127.1249598983663
 31
0.0
  0
LINE
  5
29B
330
18
100
AcDbEntity
  8
外形線
100
AcDbLine
 10
50.44337671411125
 20
127.1249598983663
 30
0.0
 11
50.20805620869257
 21
129.814685583214
 31
0.0
  0
LINE
  5
2A0
330
18
100
AcDbEntity
  8
外形線
100
AcDbLine
 10
170.8718280525588
 20
150.5536867717631
 30
0.0
 11
101.5090349886642
 21
140.0749037201197
 31
0.0
  0
LINE
  5
2A3
330
18
100
AcDbEntity
  8
隠れ線2
100
AcDbLine
 10
82.08628654762842
 20
132.603669351139
 30
0.0
 11
101.5090349886642
 21
140.0749037201197
 31
0.0
  0
LINE
  5
2A4
330
18
100
AcDbEntity
  8
外形線
100
AcDbLine
 10
57.41673960075357
 20
127.7350500975999
 30
0.0
 11
182.3319223573079
 21
130.6292283223465
 31
0.0
  0
CIRCLE
  5
2A7
330
18
100
AcDbEntity
  8
隠れ線2
100
AcDbCircle
 10
197.6005972995553
 20
143.4339159083346
 30
0.0
 40
5.0
  0
LINE
  5
3BD
330
18
100
AcDbEntity
  8
握り
100
AcDbLine
 10
347.9182472156975
 20
158.1339159083345
 30
0.0
 11
351.0915972995554
 21
158.1339159083346
 31
0.0
  0
LINE
  5
3BE
330
18
100
AcDbEntity
  8
握り
100
AcDbLine
 10
327.9182472156974
 20
158.1339159083346
 30
0.0
 11
335.2649473834133
 21
158.1339159083345
 31
0.0
  0
LINE
  5
3BF
330
18
100
AcDbEntity
  8
握り
100
AcDbLine
 10
325.2649473834132
 20
158.1339159083346
 30
0.0
 11
325.2649473834132
 21
150.5872159083346
 31
0.0
  0
LINE
  5
3C0
330
18
100
AcDbEntity
  8
握り
100
AcDbLine
 10
337.9182472156977
 20
158.1339159083345
 30
0.0
 11
345.2649473834132
 21
158.1339159083345
 31
0.0
  0
LINE
  5
3C1
330
18
100
AcDbEntity
  8
握り
100
AcDbLine
 10
325.2649473834133
 20
147.9339159083346
 30
0.0
 11
325.2649473834131
 21
139.9339159083346
 31
0.0
  0
LINE
  5
3C2
330
18
100
AcDbEntity
  8
握り
100
AcDbLine
 10
307.9182472156976
 20
158.1339159083346
 30
0.0
 11
315.2649473834132
 21
158.1339159083346
 31
0.0
  0
LINE
  5
3C3
330
18
100
AcDbEntity
  8
握り
100
AcDbLine
 10
307.9182472156976
 20
150.5872159083346
 30
0.0
 11
315.2649473834132
 21
150.5872159083346
 31
0.0
  0
LINE
  5
3C4
330
18
100
AcDbEntity
  8
握り
100
AcDbLine
 10
307.9182472156976
 20
158.1339159083346
 30
0.0
 11
307.9182472156976
 21
150.5872159083346
 31
0.0
  0
LINE
  5
3C5
330
18
100
AcDbEntity
  8
握り
100
AcDbLine
 10
315.2649473834132
 20
158.1339159083346
 30
0.0
 11
315.2649473834133
 21
150.5872159083346
 31
0.0
  0
LINE
  5
3C6
330
18
100
AcDbEntity
  8
握り
100
AcDbLine
 10
317.9182472156975
 20
158.1339159083346
 30
0.0
 11
317.9182472156977
 21
150.5872159083346
 31
0.0
  0
LINE
  5
3C7
330
18
100
AcDbEntity
  8
握り
100
AcDbLine
 10
297.9182472156976
 20
158.1339159083346
 30
0.0
 11
305.2649473834132
 21
158.1339159083346
 31
0.0
  0
LINE
  5
3C8
330
18
100
AcDbEntity
  8
握り
100
AcDbLine
 10
297.9182472156976
 20
150.5872159083346
 30
0.0
 11
305.2649473834133
 21
150.5872159083346
 31
0.0
  0
LINE
  5
3C9
330
18
100
AcDbEntity
  8
握り
100
AcDbLine
 10
295.2649473834132
 20
158.1339159083346
 30
0.0
 11
295.2649473834133
 21
150.5872159083346
 31
0.0
  0
LINE
  5
3CA
330
18
100
AcDbEntity
  8
握り
100
AcDbLine
 10
297.9182472156976
 20
158.1339159083346
 30
0.0
 11
297.9182472156976
 21
150.5872159083346
 31
0.0
  0
LINE
  5
3CB
330
18
100
AcDbEntity
  8
握り
100
AcDbLine
 10
305.2649473834132
 20
158.1339159083346
 30
0.0
 11
305.2649473834133
 21
150.5872159083346
 31
0.0
  0
LINE
  5
3CC
330
18
100
AcDbEntity
  8
握り
100
AcDbLine
 10
307.9182472156976
 20
137.2806159083346
 30
0.0
 11
315.2649473834132
 21
137.2806159083346
 31
0.0
  0
LINE
  5
3CD
330
18
100
AcDbEntity
  8
握り
100
AcDbLine
 10
297.9182472156973
 20
137.2806159083346
 30
0.0
 11
305.2649473834132
 21
137.2806159083346
 31
0.0
  0
LINE
  5
3CE
330
18
100
AcDbEntity
  8
握り
100
AcDbLine
 10
317.9182472156977
 20
158.1339159083346
 30
0.0
 11
325.2649473834131
 21
158.1339159083346
 31
0.0
  0
LINE
  5
3CF
330
18
100
AcDbEntity
  8
握り
100
AcDbLine
 10
317.9182472156977
 20
150.5872159083346
 30
0.0
 11
325.2649473834131
 21
150.5872159083346
 31
0.0
  0
LINE
  5
3D0
330
18
100
AcDbEntity
  8
握り
100
AcDbLine
 10
317.9182472156975
 20
137.2806159083346
 30
0.0
 11
325.2649473834131
 21
137.2806159083346
 31
0.0
  0
ARC
  5
3D1
330
18
100
AcDbEntity
  8
握り
100
AcDbCircle
 10
351.0915972995554
 20
130.2339159083345
 30
0.0
 40
0.5
100
AcDbArc
 50
270.0
 51
0.0
  0
ARC
  5
3D2
330
18
100
AcDbEntity
  8
握り
100
AcDbCircle
 10
346.5915972995554
 20
130.4339159083346
 30
0.0
 40
1.5
100
AcDbArc
 50
207.8181392846543
 51
332.1818607153458
  0
LINE
  5
3D3
330
18
100
AcDbEntity
  8
握り
100
AcDbLine
 10
347.9182472156975
 20
129.7339159083345
 30
0.0
 11
351.0915972995554
 21
129.7339159083346
 31
0.0
  0
ARC
  5
3D4
330
18
100
AcDbEntity
  8
握り
100
AcDbCircle
 10
336.5915972995554
 20
130.4339159083346
 30
0.0
 40
1.5
100
AcDbArc
 50
207.8181392846543
 51
332.1818607153458
  0
ARC
  5
3D5
330
18
100
AcDbEntity
  8
握り
100
AcDbCircle
 10
326.5915972995554
 20
130.4339159083346
 30
0.0
 40
1.5
100
AcDbArc
 50
207.8181392846543
 51
332.1818607153458
  0
LINE
  5
3D6
330
18
100
AcDbEntity
  8
握り
100
AcDbLine
 10
327.9182472156974
 20
129.7339159083346
 30
0.0
 11
335.2649473834133
 21
129.7339159083346
 31
0.0
  0
LINE
  5
3D7
330
18
100
AcDbEntity
  8
握り
100
AcDbLine
 10
337.9182472156977
 20
129.7339159083346
 30
0.0
 11
345.2649473834132
 21
129.7339159083345
 31
0.0
  0
ARC
  5
3D8
330
18
100
AcDbEntity
  8
握り
100
AcDbCircle
 10
316.5915972995553
 20
130.4339159083346
 30
0.0
 40
1.5
100
AcDbArc
 50
207.8181392846543
 51
332.1818607153458
  0
LINE
  5
3D9
330
18
100
AcDbEntity
  8
握り
100
AcDbLine
 10
307.9182472156976
 20
129.7339159083346
 30
0.0
 11
315.2649473834132
 21
129.7339159083346
 31
0.0
  0
LINE
  5
3DA
330
18
100
AcDbEntity
  8
握り
100
AcDbLine
 10
297.9182472156976
 20
129.7339159083346
 30
0.0
 11
305.2649473834132
 21
129.7339159083346
 31
0.0
  0
ARC
  5
3DB
330
18
100
AcDbEntity
  8
握り
100
AcDbCircle
 10
296.5915972995554
 20
130.4339159083346
 30
0.0
 40
1.5
100
AcDbArc
 50
207.8181392846543
 51
332.1818607153458
  0
ARC
  5
3DC
330
18
100
AcDbEntity
  8
握り
100
AcDbCircle
 10
306.5915972995554
 20
130.4339159083346
 30
0.0
 40
1.5
100
AcDbArc
 50
207.8181392846543
 51
332.1818607153458
  0
LINE
  5
3DD
330
18
100
AcDbEntity
  8
握り
100
AcDbLine
 10
317.9182472156977
 20
129.7339159083346
 30
0.0
 11
325.2649473834131
 21
129.7339159083346
 31
0.0
  0
LINE
  5
3DE
330
18
100
AcDbEntity
  8
握り
100
AcDbLine
 10
351.5915972995554
 20
157.6339159083346
 30
0.0
 11
351.5915972995554
 21
130.2339159083345
 31
0.0
  0
LINE
  5
3DF
330
18
100
AcDbEntity
  8
握り
100
AcDbLine
 10
327.9182472156975
 20
158.1339159083346
 30
0.0
 11
327.9182472156975
 21
129.7339159083346
 31
0.0
  0
LINE
  5
3E0
330
18
100
AcDbEntity
  8
握り
100
AcDbLine
 10
335.2649473834132
 20
158.1339159083346
 30
0.0
 11
335.2649473834132
 21
129.7339159083346
 31
0.0
  0
LINE
  5
3E1
330
18
100
AcDbEntity
  8
握り
100
AcDbLine
 10
337.9182472156975
 20
158.1339159083346
 30
0.0
 11
337.9182472156975
 21
129.7339159083346
 31
0.0
  0
LINE
  5
3E2
330
18
100
AcDbEntity
  8
握り
100
AcDbLine
 10
345.2649473834132
 20
158.1339159083346
 30
0.0
 11
345.2649473834132
 21
129.7339159083346
 31
0.0
  0
LINE
  5
3E3
330
18
100
AcDbEntity
  8
握り
100
AcDbLine
 10
347.9182472156975
 20
158.1339159083346
 30
0.0
 11
347.9182472156975
 21
129.7339159083346
 31
0.0
  0
LINE
  5
3E4
330
18
100
AcDbEntity
  8
握り
100
AcDbLine
 10
325.2649473834131
 20
137.2806159083346
 30
0.0
 11
325.2649473834132
 21
129.7339159083346
 31
0.0
  0
LINE
  5
3E5
330
18
100
AcDbEntity
  8
握り
100
AcDbLine
 10
295.2649473834131
 20
137.2806159083346
 30
0.0
 11
295.2649473834132
 21
129.7339159083346
 31
0.0
  0
LINE
  5
3E6
330
18
100
AcDbEntity
  8
握り
100
AcDbLine
 10
297.9182472156974
 20
137.2806159083346
 30
0.0
 11
297.9182472156976
 21
129.7339159083346
 31
0.0
  0
LINE
  5
3E7
330
18
100
AcDbEntity
  8
握り
100
AcDbLine
 10
305.2649473834132
 20
137.2806159083346
 30
0.0
 11
305.2649473834132
 21
129.7339159083346
 31
0.0
  0
LINE
  5
3E8
330
18
100
AcDbEntity
  8
握り
100
AcDbLine
 10
307.9182472156976
 20
137.2806159083346
 30
0.0
 11
307.9182472156976
 21
129.7339159083346
 31
0.0
  0
LINE
  5
3E9
330
18
100
AcDbEntity
  8
握り
100
AcDbLine
 10
315.2649473834133
 20
137.2806159083346
 30
0.0
 11
315.2649473834132
 21
129.7339159083346
 31
0.0
  0
LINE
  5
3EA
330
18
100
AcDbEntity
  8
握り
100
AcDbLine
 10
317.9182472156975
 20
137.2806159083346
 30
0.0
 11
317.9182472156975
 21
129.7339159083346
 31
0.0
  0
LINE
  5
3EB
330
18
100
AcDbEntity
  8
握り
100
AcDbLine
 10
277.9182472156975
 20
158.1339159083346
 30
0.0
 11
285.2649473834132
 21
158.1339159083346
 31
0.0
  0
LINE
  5
3EC
330
18
100
AcDbEntity
  8
握り
100
AcDbLine
 10
277.9182472156977
 20
150.5872159083346
 30
0.0
 11
285.2649473834134
 21
150.5872159083346
 31
0.0
  0
LINE
  5
3ED
330
18
100
AcDbEntity
  8
握り
100
AcDbLine
 10
277.9182472156975
 20
158.1339159083346
 30
0.0
 11
277.9182472156975
 21
150.5872159083346
 31
0.0
  0
LINE
  5
3EE
330
18
100
AcDbEntity
  8
握り
100
AcDbLine
 10
285.2649473834132
 20
158.1339159083346
 30
0.0
 11
285.2649473834133
 21
150.5872159083346
 31
0.0
  0
LINE
  5
3EF
330
18
100
AcDbEntity
  8
握り
100
AcDbLine
 10
287.9182472156975
 20
158.1339159083346
 30
0.0
 11
287.9182472156976
 21
150.5872159083346
 31
0.0
  0
LINE
  5
3F0
330
18
100
AcDbEntity
  8
握り
100
AcDbLine
 10
257.9182472156976
 20
158.1339159083346
 30
0.0
 11
265.2649473834133
 21
158.1339159083346
 31
0.0
  0
LINE
  5
3F1
330
18
100
AcDbEntity
  8
握り
100
AcDbLine
 10
267.9182472156975
 20
158.1339159083346
 30
0.0
 11
275.2649473834132
 21
158.1339159083346
 31
0.0
  0
LINE
  5
3F2
330
18
100
AcDbEntity
  8
握り
100
AcDbLine
 10
277.9182472156975
 20
137.2806159083346
 30
0.0
 11
285.2649473834133
 21
137.2806159083346
 31
0.0
  0
LINE
  5
3F3
330
18
100
AcDbEntity
  8
握り
100
AcDbLine
 10
277.9182472156975
 20
147.9339159083346
 30
0.0
 11
277.9182472156975
 21
139.9339159083346
 31
0.0
  0
LINE
  5
3F4
330
18
100
AcDbEntity
  8
握り
100
AcDbLine
 10
252.0915972995553
 20
158.1339159083346
 30
0.0
 11
255.2649473834132
 21
158.1339159083346
 31
0.0
  0
ARC
  5
3F5
330
18
100
AcDbEntity
  8
握り
100
AcDbCircle
 10
286.5915972995554
 20
130.4339159083346
 30
0.0
 40
1.5
100
AcDbArc
 50
207.8181392846543
 51
332.1818607153458
  0
ARC
  5
3F6
330
18
100
AcDbEntity
  8
握り
100
AcDbCircle
 10
276.5915972995554
 20
130.4339159083346
 30
0.0
 40
1.5
100
AcDbArc
 50
207.8181392846543
 51
332.1818607153458
  0
LINE
  5
3F7
330
18
100
AcDbEntity
  8
握り
100
AcDbLine
 10
277.9182472156975
 20
129.7339159083346
 30
0.0
 11
285.2649473834132
 21
129.7339159083346
 31
0.0
  0
ARC
  5
3F8
330
18
100
AcDbEntity
  8
握り
100
AcDbCircle
 10
266.5915972995553
 20
130.4339159083346
 30
0.0
 40
1.5
100
AcDbArc
 50
207.8181392846543
 51
332.1818607153458
  0
ARC
  5
3F9
330
18
100
AcDbEntity
  8
握り
100
AcDbCircle
 10
256.5915972995554
 20
130.4339159083346
 30
0.0
 40
1.5
100
AcDbArc
 50
207.8181392846543
 51
332.1818607153458
  0
LINE
  5
3FA
330
18
100
AcDbEntity
  8
握り
100
AcDbLine
 10
257.9182472156976
 20
129.7339159083346
 30
0.0
 11
265.2649473834133
 21
129.7339159083346
 31
0.0
  0
LINE
  5
3FB
330
18
100
AcDbEntity
  8
握り
100
AcDbLine
 10
267.9182472156975
 20
129.7339159083346
 30
0.0
 11
275.2649473834132
 21
129.7339159083346
 31
0.0
  0
ARC
  5
3FC
330
18
100
AcDbEntity
  8
握り
100
AcDbCircle
 10
252.0915972995553
 20
130.2339159083346
 30
0.0
 40
0.5
100
AcDbArc
 50
180.0
 51
270.0
  0
LINE
  5
3FD
330
18
100
AcDbEntity
  8
握り
100
AcDbLine
 10
252.0915972995553
 20
129.7339159083346
 30
0.0
 11
255.2649473834133
 21
129.7339159083346
 31
0.0
  0
LINE
  5
3FE
330
18
100
AcDbEntity
  8
握り
100
AcDbLine
 10
251.5915972995554
 20
157.6339159083346
 30
0.0
 11
251.5915972995554
 21
130.2339159083346
 31
0.0
  0
LINE
  5
3FF
330
18
100
AcDbEntity
  8
握り
100
AcDbLine
 10
257.9182472156976
 20
158.1339159083346
 30
0.0
 11
257.9182472156976
 21
129.7339159083346
 31
0.0
  0
LINE
  5
400
330
18
100
AcDbEntity
  8
握り
100
AcDbLine
 10
255.2649473834132
 20
158.1339159083346
 30
0.0
 11
255.2649473834132
 21
129.7339159083346
 31
0.0
  0
LINE
  5
401
330
18
100
AcDbEntity
  8
握り
100
AcDbLine
 10
265.2649473834132
 20
158.1339159083346
 30
0.0
 11
265.2649473834132
 21
129.7339159083346
 31
0.0
  0
LINE
  5
402
330
18
100
AcDbEntity
  8
握り
100
AcDbLine
 10
267.9182472156975
 20
158.1339159083346
 30
0.0
 11
267.9182472156975
 21
129.7339159083346
 31
0.0
  0
LINE
  5
403
330
18
100
AcDbEntity
  8
握り
100
AcDbLine
 10
275.2649473834132
 20
158.1339159083346
 30
0.0
 11
275.2649473834132
 21
129.7339159083346
 31
0.0
  0
LINE
  5
404
330
18
100
AcDbEntity
  8
握り
100
AcDbLine
 10
277.9182472156975
 20
137.2806159083346
 30
0.0
 11
277.9182472156975
 21
129.7339159083346
 31
0.0
  0
LINE
  5
405
330
18
100
AcDbEntity
  8
握り
100
AcDbLine
 10
285.2649473834132
 20
137.2806159083346
 30
0.0
 11
285.2649473834132
 21
129.7339159083346
 31
0.0
  0
LINE
  5
406
330
18
100
AcDbEntity
  8
握り
100
AcDbLine
 10
287.9182472156974
 20
137.2806159083346
 30
0.0
 11
287.9182472156975
 21
129.7339159083346
 31
0.0
  0
LINE
  5
407
330
18
100
AcDbEntity
  8
握り
100
AcDbLine
 10
287.9182472156975
 20
158.1339159083346
 30
0.0
 11
295.2649473834132
 21
158.1339159083346
 31
0.0
  0
LINE
  5
408
330
18
100
AcDbEntity
  8
握り
100
AcDbLine
 10
287.9182472156975
 20
129.7339159083346
 30
0.0
 11
295.2649473834132
 21
129.7339159083346
 31
0.0
  0
LINE
  5
409
330
18
100
AcDbEntity
  8
握り
100
AcDbLine
 10
277.9182472156975
 20
147.9339159083346
 30
0.0
 11
325.2649473834133
 21
147.9339159083346
 31
0.0
  0
LINE
  5
40A
330
18
100
AcDbEntity
  8
握り
100
AcDbLine
 10
277.9182472156975
 20
139.9339159083346
 30
0.0
 11
325.2649473834131
 21
139.9339159083346
 31
0.0
  0
LINE
  5
40B
330
18
100
AcDbEntity
  8
握り
100
AcDbLine
 10
287.9182472156976
 20
150.5872159083346
 30
0.0
 11
295.2649473834134
 21
150.5872159083346
 31
0.0
  0
LINE
  5
40C
330
18
100
AcDbEntity
  8
握り
100
AcDbLine
 10
287.9182472156975
 20
137.2806159083346
 30
0.0
 11
295.264947383413
 21
137.2806159083346
 31
0.0
  0
ARC
  5
40D
330
18
100
AcDbEntity
  8
握り
100
AcDbCircle
 10
351.0915972995554
 20
157.6339159083346
 30
0.0
 40
0.5
100
AcDbArc
 50
0.0
 51
90.0
  0
ARC
  5
40E
330
18
100
AcDbEntity
  8
握り
100
AcDbCircle
 10
252.0915972995553
 20
157.6339159083346
 30
0.0
 40
0.5
100
AcDbArc
 50
90.0
 51
180.0
  0
ARC
  5
40F
330
18
100
AcDbEntity
  8
握り
100
AcDbCircle
 10
256.5915972995554
 20
157.4339159083346
 30
0.0
 40
1.5
100
AcDbArc
 50
27.81813928465427
 51
152.1818607153457
  0
ARC
  5
410
330
18
100
AcDbEntity
  8
握り
100
AcDbCircle
 10
266.5915972995553
 20
157.4339159083346
 30
0.0
 40
1.5
100
AcDbArc
 50
27.81813928465427
 51
152.1818607153457
  0
ARC
  5
411
330
18
100
AcDbEntity
  8
握り
100
AcDbCircle
 10
276.5915972995554
 20
157.4339159083346
 30
0.0
 40
1.5
100
AcDbArc
 50
27.81813928465427
 51
152.1818607153457
  0
ARC
  5
412
330
18
100
AcDbEntity
  8
握り
100
AcDbCircle
 10
286.5915972995554
 20
157.4339159083346
 30
0.0
 40
1.5
100
AcDbArc
 50
27.81813928465427
 51
152.1818607153457
  0
ARC
  5
413
330
18
100
AcDbEntity
  8
握り
100
AcDbCircle
 10
296.5915972995554
 20
157.4339159083346
 30
0.0
 40
1.5
100
AcDbArc
 50
27.81813928465427
 51
152.1818607153457
  0
ARC
  5
414
330
18
100
AcDbEntity
  8
握り
100
AcDbCircle
 10
306.5915972995554
 20
157.4339159083346
 30
0.0
 40
1.5
100
AcDbArc
 50
27.81813928465427
 51
152.1818607153457
  0
ARC
  5
415
330
18
100
AcDbEntity
  8
握り
100
AcDbCircle
 10
316.5915972995553
 20
157.4339159083346
 30
0.0
 40
1.5
100
AcDbArc
 50
27.81813928465427
 51
152.1818607153457
  0
ARC
  5
416
330
18
100
AcDbEntity
  8
握り
100
AcDbCircle
 10
326.5915972995554
 20
157.4339159083346
 30
0.0
 40
1.5
100
AcDbArc
 50
27.81813928465427
 51
152.1818607153457
  0
ARC
  5
417
330
18
100
AcDbEntity
  8
握り
100
AcDbCircle
 10
336.5915972995554
 20
157.4339159083346
 30
0.0
 40
1.5
100
AcDbArc
 50
27.81813928465427
 51
152.1818607153457
  0
ARC
  5
418
330
18
100
AcDbEntity
  8
握り
100
AcDbCircle
 10
346.5915972995554
 20
157.4339159083346
 30
0.0
 40
1.5
100
AcDbArc
 50
27.81813928465427
 51
152.1818607153457
  0
HATCH
  5
419
330
18
100
AcDbEntity
  8
ROGO
 62
     4
100
AcDbHatch
 10
0.0
 20
0.0
 30
0.0
210
0.0
220
0.0
230
1.0
  2
SOLID
 70
     1
 71
     1
 91
        2
 92
        5
 93
        6
 72
     4
 94
        3
 73
     0
 74
     0
 95
       38
 96
       34
 40
0.0
 40
0.0
 40
0.0
 40
0.0
 40
0.2582400211805774
 40
0.3393418442955424
 40
0.443552172800835
 40
0.530394283206717
 40
0.6036667919818254
 40
0.7009894053152177
 40
0.7507174249931042
 40
0.8067242281503032
 40
0.8892677166883521
 40
0.9827715778106668
 40
1.043426616793024
 40
1.109318337455068
 40
1.182564491755753
 40
1.293719242428883
 40
1.399327847180614
 40
1.448424760475743
 40
1.50441322219426
 40
1.570741059842362
 40
1.617957956886697
 40
1.657539314700464
 40
1.714052551848318
 40
1.776150918813051
 40
1.838248940024221
 40
1.892584795022379
 40
2.017023561310864
 40
2.066120474605993
 40
2.164314359515976
 40
2.251113385583432
 40
2.417283613623161
 40
2.622320469312984
 40
2.918423525691272
 40
2.918423525691272
 40
2.918423525691272
 40
2.918423525691272
 10
295.8966859905552
 20
144.6538301355381
 10
295.8106068510899
 20
144.6477492511083
 10
295.6974940430597
 20
144.6397586285552
 10
295.553867225189
 20
144.6004091625481
 10
295.4755747188447
 20
144.5535312776083
 10
295.394095716963
 20
144.519073785179
 10
295.3246272792702
 20
144.4680490719659
 10
295.2543614211331
 20
144.4417565288324
 10
295.2051591163105
 20
144.3943463740143
 10
295.1482114618349
 20
144.365386205193
 10
295.1028630334988
 20
144.3005649280296
 10
295.0521763527392
 20
144.2399593828032
 10
294.9933734264432
 20
144.1957200376925
 10
294.9451130756441
 20
144.1492557820319
 10
294.9008409143236
 20
144.0775474746264
 10
294.8746386677933
 20
143.9822683679326
 10
294.800778932923
 20
143.9221125760967
 10
294.7896579693757
 20
143.8497873651308
 10
294.7488038976675
 20
143.8071167077156
 10
294.7310391184448
 20
143.7520350191656
 10
294.7242734354107
 20
143.7015704629931
 10
294.716153002493
 20
143.6544400609527
 10
294.694911487875
 20
143.6048609598986
 10
294.7018447915342
 20
143.5436177042772
 10
294.6998697014741
 20
143.4843138270965
 10
294.701032044293
 20
143.404251746223
 10
294.6968369880843
 20
143.3263014649094
 10
294.7302909173916
 20
143.2414730703832
 10
294.7500878425385
 20
143.1658602922881
 10
294.804304942458
 20
143.0611652319289
 10
294.8978283036264
 20
142.9403697694876
 10
295.0756707979371
 20
142.7937469647836
 10
295.246671555879
 20
142.7788727637588
 10
295.3477089026364
 20
142.7700842073527
 72
     1
 10
295.3477089026365
 20
142.7700842073526
 11
296.4197857929018
 21
142.7700842073527
 72
     4
 94
        3
 73
     0
 74
     0
 95
       11
 96
        7
 40
0.1647869275458135
 40
0.1647869275458135
 40
0.1647869275458135
 40
0.1647869275458135
 40
0.2545010798212315
 40
0.5111620267764023
 40
0.7602998271033902
 40
0.8850764140209603
 40
0.8850764140209603
 40
0.8850764140209603
 40
0.8850764140209603
 10
296.4197857929013
 20
142.7700842073527
 10
296.4347456505011
 20
142.7697958992913
 10
296.4925037859705
 20
142.7686827779959
 10
296.5912131318224
 20
142.7828635359739
 10
296.6950685134484
 20
142.796452670793
 10
296.7569842440686
 20
142.8063492276272
 10
296.7769535909269
 20
142.8119077029364
 72
     4
 94
        3
 73
     0
 74
     0
 95
        9
 96
        5
 40
0.0
 40
0.0
 40
0.0
 40
0.0
 40
0.1622561919360204
 40
0.3804197703110171
 40
0.3804197703110171
 40
0.3804197703110171
 40
0.3804197703110171
 10
296.7769535909269
 20
142.8119077029364
 10
296.8290749742384
 20
142.827853902541
 10
296.9512768109204
 20
142.8652407629038
 10
297.0522435212586
 20
142.9442583597244
 10
297.1101460293385
 20
142.9895734643071
 72
     4
 94
        3
 73
     0
 74
     0
 95
       25
 96
       21
 40
0.0
 40
0.0
 40
0.0
 40
0.0
 40
0.165525918914855
 40
0.3412380755365305
 40
0.5940540902285263
 40
0.7697671103696209
 40
0.9377330196075423
 40
1.11479469302833
 40
1.274661249598185
 40
1.574522170874768
 40
1.815540668866877
 40
2.15849091873445
 40
2.536227739636605
 40
2.738070817316548
 40
2.925680654369045
 40
3.162706124480894
 40
3.395643218188267
 40
3.648478129958861
 40
3.928509979727306
 40
4.337226830236035
 40
4.337226830236035
 40
4.337226830236035
 40
4.337226830236035
 10
297.1101460293385
 20
142.9895734643071
 10
297.1314212541868
 20
143.0071545270867
 10
297.1717745389065
 20
143.048968988832
 10
297.2433477341061
 20
143.11674091503
 10
297.3064193909727
 20
143.1957005871072
 10
297.3842228205688
 20
143.2596946340692
 10
297.4247270427674
 20
143.33793210028
 10
297.4831106817733
 20
143.3994642009929
 10
297.5320849945124
 20
143.4944944609794
 10
297.5736372783694
 20
143.6036541254711
 10
297.6132516433659
 20
143.7459416736189
 10
297.6284322767039
 20
143.9064631779696
 10
297.6059630514937
 20
144.0617676528711
 10
297.5516830833868
 20
144.1778526464953
 10
297.5117771394308
 20
144.2745975245896
 10
297.4512148699416
 20
144.3662319584142
 10
297.382121505855
 20
144.4658945388915
 10
297.2847811904845
 20
144.548331627913
 10
297.1575673924544
 20
144.6477640413065
 10
297.0390772385707
 20
144.6515710077437
 10
296.96876288082
 20
144.6538301355381
 72
     1
 10
296.96876288082
 20
144.6538301355382
 11
295.8966859905552
 21
144.6538301355381
 97
        6
330
41F
330
41E
330
420
330
41D
330
41C
330
41B
 92
       20
 93
        1
 72
     3
 10
296.143055125742
 20
143.6856930037967
 11
0.2546924415247531
 21
0.2239701316915159
 40
0.6788083417438792
 50
0.0
 51
360.0
 73
     1
 97
        1
330
41A
 75
     0
 76
     1
 47
0.088756267210375
 98
        2
 10
296.2179569482686
 20
144.1335319614024
 10
296.2179569482686
 20
144.1335319614024
450
        0
451
        0
460
0.0
461
0.0
452
        0
462
0.0
453
        0
470

  0
ELLIPSE
  5
41A
102
{ACAD_REACTORS
330
419
102
}
330
18
100
AcDbEntity
  8
ROGO
 62
     4
100
AcDbEllipse
 10
296.143055125742
 20
143.6856930037967
 30
0.0
 11
0.2546924415247531
 21
0.2239701316915159
 31
0.0
210
0.0
220
0.0
230
1.0
 40
0.6788083417438792
 41
0.0
 42
6.283185307179586
  0
SPLINE
  5
41B
102
{ACAD_REACTORS
330
419
102
}
330
18
100
AcDbEntity
  8
ROGO
 62
     4
100
AcDbSpline
210
0.0
220
0.0
230
1.0
 70
     8
 71
     3
 72
     9
 73
     5
 74
     3
 42
0.0000000001
 43
0.0000000001
 44
0.0000000001
 40
0.0
 40
0.0
 40
0.0
 40
0.0
 40
0.1622561919360204
 40
0.3804197703110171
 40
0.3804197703110171
 40
0.3804197703110171
 40
0.3804197703110171
 10
296.7769535909269
 20
142.8119077029364
 30
0.0
 10
296.8290749742384
 20
142.827853902541
 30
0.0
 10
296.9512768109204
 20
142.8652407629038
 30
0.0
 10
297.0522435212586
 20
142.9442583597244
 30
0.0
 10
297.1101460293385
 20
142.9895734643071
 30
0.0
 11
296.7769535909269
 21
142.8119077029364
 31
0.0
 11
296.9294546826765
 21
142.8673196947503
 31
0.0
 11
297.1101460293385
 21
142.9895734643071
 31
0.0
  0
SPLINE
  5
41C
102
{ACAD_REACTORS
330
419
102
}
330
18
100
AcDbEntity
  8
ROGO
 62
     4
100
AcDbSpline
210
0.0
220
0.0
230
1.0
 70
     8
 71
     3
 72
    11
 73
     7
 74
     0
 42
0.0000000001
 43
0.0000000001
 40
0.1647869275458134
 40
0.1647869275458134
 40
0.1647869275458134
 40
0.1647869275458134
 40
0.2895635144633836
 40
0.5387013147903714
 40
0.7953622617455423
 40
0.8850764140209602
 40
0.8850764140209602
 40
0.8850764140209602
 40
0.8850764140209602
 10
296.7769535909269
 20
142.8119077029364
 30
0.0
 10
296.7569842440686
 20
142.8063492276272
 30
0.0
 10
296.6950685134484
 20
142.796452670793
 30
0.0
 10
296.5912131318224
 20
142.7828635359739
 30
0.0
 10
296.4925037859705
 20
142.7686827779959
 30
0.0
 10
296.4347456505011
 20
142.7697958992913
 30
0.0
 10
296.4197857929013
 20
142.7700842073527
 30
0.0
  0
LINE
  5
41D
102
{ACAD_REACTORS
330
419
102
}
330
18
100
AcDbEntity
  8
ROGO
 62
     4
100
AcDbLine
 10
295.3477089026364
 20
142.7700842073527
 30
0.0
 11
296.4197857929012
 21
142.7700842073527
 31
0.0
  0
LINE
  5
41E
102
{ACAD_REACTORS
330
419
102
}
330
18
100
AcDbEntity
  8
ROGO
 62
     4
100
AcDbLine
 10
295.8966859905552
 20
144.6538301355381
 30
0.0
 11
296.96876288082
 21
144.6538301355381
 31
0.0
  0
SPLINE
  5
41F
102
{ACAD_REACTORS
330
419
102
}
330
18
100
AcDbEntity
  8
ROGO
 62
     4
100
AcDbSpline
210
0.0
220
0.0
230
1.0
 70
     8
 71
     3
 72
    25
 73
    21
 74
     0
 42
0.0000000001
 43
0.0000000001
 40
0.0
 40
0.0
 40
0.0
 40
0.0
 40
0.4087168505087288
 40
0.6887487002771746
 40
0.9415836120477687
 40
1.17452070575514
 40
1.41154617586699
 40
1.599156012919487
 40
1.80099909059943
 40
2.178735911501585
 40
2.521686161369157
 40
2.762704659361267
 40
3.06256558063785
 40
3.222432137207705
 40
3.399493810628493
 40
3.567459719866414
 40
3.743172740007509
 40
3.995988754699505
 40
4.17170091132118
 40
4.337226830236035
 40
4.337226830236035
 40
4.337226830236035
 40
4.337226830236035
 10
296.96876288082
 20
144.6538301355381
 30
0.0
 10
297.0390772385707
 20
144.6515710077437
 30
0.0
 10
297.1575673924544
 20
144.6477640413065
 30
0.0
 10
297.2847811904845
 20
144.548331627913
 30
0.0
 10
297.382121505855
 20
144.4658945388915
 30
0.0
 10
297.4512148699416
 20
144.3662319584142
 30
0.0
 10
297.5117771394308
 20
144.2745975245896
 30
0.0
 10
297.5516830833868
 20
144.1778526464953
 30
0.0
 10
297.6059630514937
 20
144.0617676528711
 30
0.0
 10
297.6284322767039
 20
143.9064631779696
 30
0.0
 10
297.6132516433659
 20
143.7459416736189
 30
0.0
 10
297.5736372783694
 20
143.6036541254711
 30
0.0
 10
297.5320849945124
 20
143.4944944609794
 30
0.0
 10
297.4831106817733
 20
143.3994642009929
 30
0.0
 10
297.4247270427674
 20
143.33793210028
 30
0.0
 10
297.3842228205688
 20
143.2596946340692
 30
0.0
 10
297.3064193909727
 20
143.1957005871072
 30
0.0
 10
297.2433477341061
 20
143.11674091503
 30
0.0
 10
297.1717745389065
 20
143.048968988832
 30
0.0
 10
297.1314212541868
 20
143.0071545270867
 30
0.0
 10
297.1101460293385
 20
142.9895734643071
 30
0.0
  0
SPLINE
  5
420
102
{ACAD_REACTORS
330
419
102
}
330
18
100
AcDbEntity
  8
ROGO
 62
     4
100
AcDbSpline
210
0.0
220
0.0
230
1.0
 70
     8
 71
     3
 72
    38
 73
    34
 74
    32
 42
0.0000000001
 43
0.0000000001
 44
0.0000000001
 40
0.0
 40
0.0
 40
0.0
 40
0.0
 40
0.2582400211805774
 40
0.3393418442955424
 40
0.443552172800835
 40
0.530394283206717
 40
0.6036667919818254
 40
0.7009894053152177
 40
0.7507174249931042
 40
0.8067242281503032
 40
0.8892677166883521
 40
0.9827715778106668
 40
1.043426616793024
 40
1.109318337455068
 40
1.182564491755753
 40
1.293719242428883
 40
1.399327847180614
 40
1.448424760475743
 40
1.50441322219426
 40
1.570741059842362
 40
1.617957956886697
 40
1.657539314700464
 40
1.714052551848318
 40
1.776150918813051
 40
1.838248940024221
 40
1.892584795022379
 40
2.017023561310864
 40
2.066120474605993
 40
2.164314359515976
 40
2.251113385583432
 40
2.417283613623161
 40
2.622320469312984
 40
2.918423525691272
 40
2.918423525691272
 40
2.918423525691272
 40
2.918423525691272
 10
295.8966859905552
 20
144.6538301355381
 30
0.0
 10
295.8106068510899
 20
144.6477492511083
 30
0.0
 10
295.6974940430597
 20
144.6397586285552
 30
0.0
 10
295.553867225189
 20
144.6004091625481
 30
0.0
 10
295.4755747188447
 20
144.5535312776083
 30
0.0
 10
295.394095716963
 20
144.519073785179
 30
0.0
 10
295.3246272792702
 20
144.4680490719659
 30
0.0
 10
295.2543614211331
 20
144.4417565288324
 30
0.0
 10
295.2051591163105
 20
144.3943463740143
 30
0.0
 10
295.1482114618349
 20
144.365386205193
 30
0.0
 10
295.1028630334988
 20
144.3005649280296
 30
0.0
 10
295.0521763527392
 20
144.2399593828032
 30
0.0
 10
294.9933734264432
 20
144.1957200376925
 30
0.0
 10
294.9451130756441
 20
144.1492557820319
 30
0.0
 10
294.9008409143236
 20
144.0775474746264
 30
0.0
 10
294.8746386677933
 20
143.9822683679326
 30
0.0
 10
294.800778932923
 20
143.9221125760967
 30
0.0
 10
294.7896579693757
 20
143.8497873651308
 30
0.0
 10
294.7488038976675
 20
143.8071167077156
 30
0.0
 10
294.7310391184448
 20
143.7520350191656
 30
0.0
 10
294.7242734354107
 20
143.7015704629931
 30
0.0
 10
294.716153002493
 20
143.6544400609527
 30
0.0
 10
294.694911487875
 20
143.6048609598986
 30
0.0
 10
294.7018447915342
 20
143.5436177042772
 30
0.0
 10
294.6998697014741
 20
143.4843138270965
 30
0.0
 10
294.701032044293
 20
143.404251746223
 30
0.0
 10
294.6968369880843
 20
143.3263014649094
 30
0.0
 10
294.7302909173916
 20
143.2414730703832
 30
0.0
 10
294.7500878425385
 20
143.1658602922881
 30
0.0
 10
294.804304942458
 20
143.0611652319289
 30
0.0
 10
294.8978283036264
 20
142.9403697694876
 30
0.0
 10
295.0756707979371
 20
142.7937469647836
 30
0.0
 10
295.246671555879
 20
142.7788727637588
 30
0.0
 10
295.3477089026364
 20
142.7700842073527
 30
0.0
 11
295.8966859905552
 21
144.6538301355381
 31
0.0
 11
295.6403193663448
 21
144.622780779179
 31
0.0
 11
295.5626325290189
 21
144.59949428054
 31
0.0
 11
295.469408690436
 21
144.5529205917548
 31
0.0
 11
295.3917218531101
 21
144.5141094149362
 31
0.0
 11
295.3295726273882
 21
144.4752978923641
 31
0.0
 11
295.2441172894338
 21
144.4287245493324
 31
0.0
 11
295.2052735655972
 21
144.3976755387268
 31
0.0
 11
295.1586613411322
 21
144.3666261823677
 31
0.0
 11
295.1042806160387
 21
144.3045281611565
 31
0.0
 11
295.0421313903169
 21
144.2346679737323
 31
0.0
 11
294.9955191658517
 21
144.1958564511601
 31
0.0
 11
294.948907551734
 21
144.1492831081285
 31
0.0
 11
294.9100638278974
 21
144.0871850869173
 31
0.0
 11
294.8634522137798
 21
143.9862755431341
 31
0.0
 11
294.8013023777105
 21
143.9008906775303
 31
0.0
 11
294.7857653764537
 21
143.8543169887451
 31
0.0
 11
294.7546907635928
 21
143.8077436457134
 31
0.0
 11
294.7313846513603
 21
143.7456452787488
 31
0.0
 11
294.7236155403846
 21
143.6990719357171
 31
0.0
 11
294.7158470397561
 21
143.660260413145
 31
0.0
 11
294.7003100384993
 21
143.6059249039003
 31
0.0
 11
294.7003100384993
 21
143.5438265369356
 31
0.0
 11
294.7003100384993
 21
143.4817285157244
 31
0.0
 11
294.7003100384993
 21
143.4273926607263
 31
0.0
 11
294.7080785391278
 21
143.3031966183039
 31
0.0
 11
294.7236155403846
 21
143.2566229295187
 31
0.0
 11
294.7546907635928
 21
143.1634758977019
 31
0.0
 11
294.7935338770822
 21
143.0858531983112
 31
0.0
 11
294.8945268266406
 21
142.9538949896758
 31
0.0
 11
295.057669001921
 21
142.8296986014999
 31
0.0
 11
295.3477089026364
 21
142.7700842073527
 31
0.0
  0
HATCH
  5
421
330
18
100
AcDbEntity
  8
ROGO
 62
     4
100
AcDbHatch
 10
0.0
 20
0.0
 30
0.0
210
0.0
220
0.0
230
1.0
  2
SOLID
 70
     1
 71
     1
 91
        2
 92
        7
 72
     0
 73
     1
 93
        8
 10
290.9566842284899
 20
144.6460055367206
 10
289.4561078245308
 20
144.6460055367206
 10
288.1033444958175
 20
142.7700842073527
 10
289.1422691410912
 20
142.7700842073527
 10
289.3998269090641
 20
143.1272480217681
 10
290.5853654644703
 20
143.1272480217681
 10
290.7440317831401
 20
142.7700842073527
 10
291.7900428147518
 20
142.7700842073528
 97
        8
330
448
330
44E
330
449
330
44A
330
44C
330
422
330
447
330
424
 92
       22
 72
     0
 73
     1
 93
        3
 10
290.4180153136123
 20
143.5039594670482
 10
289.6714808535569
 20
143.5039594670482
 10
290.1334333340046
 20
144.1445641410752
 97
        3
330
44B
330
44D
330
423
 75
     0
 76
     1
 47
0.0128389261915577
 98
        2
 10
290.8391772392103
 20
144.1959456555648
 10
290.8391772392103
 20
144.1959456555648
450
        0
451
        0
460
0.0
461
0.0
452
        0
462
0.0
453
        0
470

  0
LINE
  5
422
102
{ACAD_REACTORS
330
421
102
}
330
18
100
AcDbEntity
  8
ROGO
 62
     4
100
AcDbLine
 10
290.5853654644702
 20
143.1272480217681
 30
0.0
 11
290.7440317831401
 21
142.7700842073527
 31
0.0
  0
LINE
  5
423
102
{ACAD_REACTORS
330
421
102
}
330
18
100
AcDbEntity
  8
ROGO
 62
     4
100
AcDbLine
 10
290.1334333340046
 20
144.1445641410752
 30
0.0
 11
290.4180153136123
 21
143.5039594670482
 31
0.0
  0
LINE
  5
424
102
{ACAD_REACTORS
330
421
102
}
330
18
100
AcDbEntity
  8
ROGO
 62
     4
100
AcDbLine
 10
290.9566842284899
 20
144.6460055367206
 30
0.0
 11
291.7900428147518
 21
142.7700842073527
 31
0.0
  0
HATCH
  5
425
330
18
100
AcDbEntity
  8
ROGO
 62
     4
100
AcDbHatch
 10
0.0
 20
0.0
 30
0.0
210
0.0
220
0.0
230
1.0
  2
SOLID
 70
     1
 71
     1
 91
        2
 92
        5
 93
        6
 72
     1
 10
281.0690360245807
 20
141.714750129712
 11
282.4316088187757
 21
141.714750129712
 72
     1
 10
282.4316088187757
 20
141.714750129712
 11
282.9090718913877
 21
142.7700842073527
 72
     1
 10
282.9090718913877
 20
142.7700842073527
 11
284.1827979887767
 21
142.7700842073527
 72
     4
 94
        3
 73
     0
 74
     0
 95
       18
 96
       14
 40
0.108740278791501
 40
0.108740278791501
 40
0.108740278791501
 40
0.108740278791501
 40
0.6623149649549278
 40
1.384304701649787
 40
2.097394834876493
 40
2.774073369849618
 40
3.428974823686337
 40
4.005208313035923
 40
4.455173659284313
 40
4.720999734343524
 40
5.086034088486724
 40
5.569973738255373
 40
6.060470601257719
 40
6.060470601257719
 40
6.060470601257719
 40
6.060470601257719
 10
284.1827979887765
 20
142.7700842073527
 10
284.2724407271975
 20
142.7707517496829
 10
284.4789983801312
 20
142.7722899219809
 10
284.7679709202845
 20
142.9266654026885
 10
285.0419994532744
 20
143.1233285174624
 10
285.2627107948192
 20
143.369038561465
 10
285.4002206103565
 20
143.6499659007804
 10
285.4215204461382
 20
143.9192089515971
 10
285.408517419694
 20
144.1321768575349
 10
285.3156042646325
 20
144.2806207751104
 10
285.2190097018829
 20
144.4312761710715
 10
285.0418879368156
 20
144.5617794707735
 10
284.896762297029
 20
144.6189593155096
 10
284.8229629575489
 20
144.6460055367206
 72
     1
 10
284.822962957549
 20
144.6460055367205
 11
282.5193939389988
 21
144.6460055367206
 72
     1
 10
282.5193939389988
 20
144.6460055367206
 11
281.0690360245807
 21
141.714750129712
 97
        6
330
460
330
463
330
461
330
462
330
45A
330
45F
 92
       20
 93
        4
 72
     1
 10
283.2038783089736
 20
143.4216932565796
 11
283.4295894466271
 21
143.9205813778444
 72
     1
 10
283.4295894466271
 20
143.9205813778444
 11
284.0095708739091
 21
143.9205813778444
 72
     4
 94
        3
 73
     0
 74
     0
 95
       15
 96
       11
 40
0.0
 40
0.0
 40
0.0
 40
0.0
 40
0.2199578613106558
 40
0.3202465475123651
 40
0.4340808827708152
 40
0.5116301246390283
 40
0.634275054953107
 40
0.7077360179240892
 40
0.8337709579493377
 40
0.875782631437913
 40
0.875782631437913
 40
0.875782631437913
 40
0.875782631437913
 10
284.0095708739092
 20
143.9205813778442
 10
284.0921827811365
 20
143.9209597844763
 10
284.2124611740767
 20
143.9215107237187
 10
284.2782336831689
 20
143.7727260038195
 10
284.2487513085497
 20
143.6769318543375
 10
284.2116895608011
 20
143.5785811196978
 10
284.1461930585976
 20
143.5117503121701
 10
284.0582871591761
 20
143.447380978403
 10
283.975211883382
 20
143.4395887823181
 10
283.9211807419927
 20
143.4252723630978
 10
283.9076729501794
 20
143.4216932565794
 72
     1
 10
283.9076729501794
 20
143.4216932565794
 11
283.2038783089736
 21
143.4216932565796
 97
        4
330
45E
330
45C
330
45D
330
45B
 75
     0
 76
     1
 47
0.0514683685270805
 98
        2
 10
282.5317061580086
 20
143.7343073125934
 10
282.5317061580086
 20
143.7343073125934
450
        0
451
        0
460
0.0
461
0.0
452
        0
462
0.0
453
        0
470

  0
HATCH
  5
426
330
18
100
AcDbEntity
  8
ROGO
 62
     4
100
AcDbHatch
 10
0.0
 20
0.0
 30
0.0
210
0.0
220
0.0
230
1.0
  2
SOLID
 70
     1
 71
     1
 91
        1
 92
        7
 72
     0
 73
     1
 93
       11
 10
299.8305982024658
 20
141.714750129712
 10
300.9107178346146
 20
141.714750129712
 10
301.292216819137
 20
142.4798409327398
 10
301.6737158036594
 20
141.714750129712
 10
302.7538118036594
 20
141.714750129712
 10
302.0230024953238
 20
143.1803778332163
 10
303.7985864172255
 20
144.6460055367206
 10
302.7184904172257
 20
144.6460055367206
 10
302.2127574413987
 20
144.3259720955468
 10
302.3723364512858
 20
144.6460055367206
 10
301.292216819137
 20
144.6460055367206
 97
       11
330
42E
330
433
330
434
330
436
330
435
330
462
330
430
330
432
330
42D
330
431
330
42F
 75
     0
 76
     1
 47
0.0514683685270805
 98
        1
 10
301.1992578957029
 20
143.3884398460898
450
        0
451
        0
460
0.0
461
0.0
452
        0
462
0.0
453
        0
470

  0
HATCH
  5
427
330
18
100
AcDbEntity
  8
ROGO
 62
     4
100
AcDbHatch
 10
0.0
 20
0.0
 30
0.0
210
0.0
220
0.0
230
1.0
  2
SOLID
 70
     1
 71
     0
 91
        1
 92
        7
 72
     0
 73
     1
 93
        4
 10
282.5645388693786
 20
142.008564710128
 10
282.4316088187757
 20
141.714750129712
 10
299.8305982024658
 20
141.714750129712
 10
299.9771036415888
 20
142.0085647101281
 97
        0
 75
     0
 76
     1
 47
0.0514683685270805
 98
        1
 10
293.5591606706474
 20
141.9308554755497
450
        0
451
        0
460
0.0
461
0.0
452
        0
462
0.0
453
        0
470

  0
HATCH
  5
428
330
18
100
AcDbEntity
  8
ROGO
 62
     4
100
AcDbHatch
 10
0.0
 20
0.0
 30
0.0
210
0.0
220
0.0
230
1.0
  2
SOLID
 70
     1
 71
     1
 91
        1
 92
        5
 93
        8
 72
     4
 94
        3
 73
     0
 74
     0
 95
       26
 96
       22
 40
0.0
 40
0.0
 40
0.0
 40
0.0
 40
0.3403136209416859
 40
0.5681272389515052
 40
0.7323994099695983
 40
0.8550561247335963
 40
1.014148321321381
 40
1.13027011535639
 40
1.339959009792003
 40
1.510642755247356
 40
1.626735051276114
 40
1.740569491433573
 40
1.94419717410045
 40
2.088186249714629
 40
2.165735491582895
 40
2.275891898886364
 40
2.355438312276665
 40
2.470674802864995
 40
2.535888688806186
 40
2.677801419664424
 40
2.74260000535881
 40
2.74260000535881
 40
2.74260000535881
 40
2.74260000535881
 10
299.0206975745249
 20
144.6460055367206
 10
298.9051898734412
 20
144.6391141491989
 10
298.7123587104898
 20
144.6276095113465
 10
298.5006312666159
 20
144.4989873629775
 10
298.3455073460298
 20
144.4242120982025
 10
298.2348731539953
 20
144.3225614961746
 10
298.153777842756
 20
144.2175638497154
 10
298.0515419789022
 20
144.0924599238221
 10
297.9681715533224
 20
143.9467814645868
 10
297.9257160639893
 20
143.7862184059251
 10
297.8881093944839
 20
143.6582487165552
 10
297.8602196588084
 20
143.5156431981375
 10
297.8673155971126
 20
143.3615790722484
 10
297.8774773055188
 20
143.2184921993858
 10
297.9228468625531
 20
143.1163495952049
 10
297.9745147516819
 20
143.0436310995916
 10
298.0377813743316
 20
142.9635397385934
 10
298.1070088947852
 20
142.9104954895502
 10
298.1642657049432
 20
142.8144022679208
 10
298.2644918196037
 20
142.8021400798119
 10
298.3281995254263
 20
142.7777346657019
 10
298.3481702232284
 20
142.7700842073527
 72
     1
 10
298.3481702232284
 20
142.7700842073527
 11
299.9639259589492
 21
142.7700842073527
 72
     1
 10
299.9639259589492
 20
142.7700842073527
 11
300.3119498456334
 21
143.4680411764107
 72
     1
 10
300.3119498456334
 20
143.4680411764107
 11
299.1124055301016
 21
143.4680411764107
 72
     4
 94
        3
 73
     0
 74
     0
 95
       16
 96
       12
 40
0.0
 40
0.0
 40
0.0
 40
0.0
 40
0.1027738093187964
 40
0.2066076558227444
 40
0.268539878558716
 40
0.3279201337292112
 40
0.3931337605654557
 40
0.4386740937218511
 40
0.4818879174817272
 40
0.569519347887583
 40
0.7489346372632488
 40
0.7489346372632488
 40
0.7489346372632488
 40
0.7489346372632488
 10
299.1124055301017
 20
143.4680411764106
 10
299.0762230462849
 20
143.47868659368
 10
299.003484882615
 20
143.5000872279648
 10
298.9973972856896
 20
143.6038296410181
 10
299.005690755778
 20
143.6777545995312
 10
299.0404238270312
 20
143.7315762862684
 10
299.0825610668321
 20
143.7707386448909
 10
299.0982506300485
 20
143.8217414937225
 10
299.1443686716547
 20
143.8602550256032
 10
299.2261483164987
 20
143.9249908927114
 10
299.3165824468008
 20
143.9387781859764
 10
299.3773406005457
 20
143.9480411764107
 72
     1
 10
299.3773406005457
 20
143.9480411764107
 11
300.5512933481901
 21
143.9480411764107
 72
     1
 10
300.5512933481901
 20
143.9480411764107
 11
300.8993209203911
 21
144.6460055367206
 72
     1
 10
300.8993209203911
 20
144.6460055367206
 11
299.020697574525
 21
144.6460055367206
 97
        8
330
43D
330
43B
330
43E
330
43A
330
439
330
43C
330
438
330
437
 75
     0
 76
     1
 47
0.0514683685270805
 98
        1
 10
299.3448653312175
 20
144.3025179607504
450
        0
451
        0
460
0.0
461
0.0
452
        0
462
0.0
453
        0
470

  0
HATCH
  5
429
330
18
100
AcDbEntity
  8
ROGO
 62
     4
100
AcDbHatch
 10
0.0
 20
0.0
 30
0.0
210
0.0
220
0.0
230
1.0
  2
SOLID
 70
     1
 71
     1
 91
        1
 92
        5
 93
        8
 72
     1
 10
294.5069079611504
 20
143.9480411764108
 11
294.8549355333512
 21
144.6460055367206
 72
     1
 10
294.8549355333512
 20
144.6460055367206
 11
292.9763121874852
 21
144.6460055367206
 72
     4
 94
        3
 73
     0
 74
     0
 95
       26
 96
       22
 40
0.0
 40
0.0
 40
0.0
 40
0.0
 40
0.3403136209417982
 40
0.5681272389515159
 40
0.7323994099697078
 40
0.8550561247337057
 40
1.014148321321447
 40
1.13027011535643
 40
1.339959009791999
 40
1.510642755247373
 40
1.626735051276186
 40
1.740569491433665
 40
1.944197174100541
 40
2.088186249714737
 40
2.16573549158295
 40
2.275891898886404
 40
2.355438312276705
 40
2.470674802865115
 40
2.535888688806235
 40
2.677801419664453
 40
2.742600005358966
 40
2.742600005358966
 40
2.742600005358966
 40
2.742600005358966
 10
292.9763121874852
 20
144.6460055367206
 10
292.8608044864014
 20
144.639114149199
 10
292.66797332345
 20
144.6276095113466
 10
292.456245879576
 20
144.4989873629774
 10
292.30112195899
 20
144.4242120982025
 10
292.1904877669555
 20
144.3225614961746
 10
292.109392455716
 20
144.2175638497155
 10
292.0071565918625
 20
144.0924599238219
 10
291.9237861662826
 20
143.946781464587
 10
291.8813306769496
 20
143.7862184059251
 10
291.8437240074443
 20
143.6582487165552
 10
291.8158342717685
 20
143.5156431981375
 10
291.8229302100727
 20
143.3615790722484
 10
291.8330919184791
 20
143.2184921993858
 10
291.8784614755135
 20
143.116349595205
 10
291.9301293646419
 20
143.0436310995916
 10
291.9933959872919
 20
142.9635397385934
 10
292.0626235077454
 20
142.9104954895502
 10
292.1198803179034
 20
142.8144022679207
 10
292.220106432564
 20
142.802140079812
 10
292.2838141383866
 20
142.777734665702
 10
292.3037848361887
 20
142.7700842073527
 72
     1
 10
292.3037848361886
 20
142.7700842073527
 11
293.9195405719095
 21
142.7700842073527
 72
     1
 10
293.9195405719095
 20
142.7700842073527
 11
294.2675644585936
 21
143.4680411764107
 72
     1
 10
294.2675644585936
 20
143.4680411764107
 11
293.068020143062
 21
143.4680411764107
 72
     4
 94
        3
 73
     0
 74
     0
 95
       16
 96
       12
 40
0.0
 40
0.0
 40
0.0
 40
0.0
 40
0.1027738093189234
 40
0.2066076558227377
 40
0.2685398785587465
 40
0.3279201337292418
 40
0.3931337605655129
 40
0.4386740937218573
 40
0.4818879174818138
 40
0.5695193478876036
 40
0.7489346372632694
 40
0.7489346372632694
 40
0.7489346372632694
 40
0.7489346372632694
 10
293.068020143062
 20
143.4680411764107
 10
293.0318376592452
 20
143.4786865936801
 10
292.9590994955751
 20
143.5000872279649
 10
292.9530118986499
 20
143.6038296410181
 10
292.9613053687382
 20
143.6777545995312
 10
292.9960384399913
 20
143.7315762862686
 10
293.0381756797924
 20
143.7707386448908
 10
293.0538652430087
 20
143.8217414937226
 10
293.0999832846148
 20
143.8602550256033
 10
293.1817629294589
 20
143.9249908927114
 10
293.2721970597609
 20
143.9387781859764
 10
293.3329552135059
 20
143.9480411764107
 72
     1
 10
293.3329552135059
 20
143.9480411764107
 11
294.5069079611504
 21
143.9480411764108
 97
        8
330
43F
330
442
330
446
330
440
330
443
330
441
330
444
330
445
 75
     0
 76
     1
 47
0.0514683685270805
 98
        1
 10
293.6333363263521
 20
144.2284034562249
450
        0
451
        0
460
0.0
461
0.0
452
        0
462
0.0
453
        0
470

  0
HATCH
  5
42A
330
18
100
AcDbEntity
  8
ROGO
 62
     4
100
AcDbHatch
 10
0.0
 20
0.0
 30
0.0
210
0.0
220
0.0
230
1.0
  2
SOLID
 70
     1
 71
     1
 91
        1
 92
        1
 93
       12
 72
     1
 10
286.183854376414
 20
144.6460055367206
 11
288.7211160171055
 21
144.6460055367206
 72
     1
 10
288.7211160171055
 20
144.6460055367206
 11
288.5084957374846
 21
144.2162879214461
 72
     1
 10
288.5084957374846
 20
144.2162879214461
 11
287.1749751343161
 21
144.2162879214461
 72
     1
 10
287.1749751343161
 20
144.2162879214461
 11
287.0087324970639
 21
143.8803021454687
 72
     1
 10
287.0087324970639
 20
143.8803021454687
 11
288.3422531002325
 21
143.8803021454687
 72
     1
 10
288.3422531002325
 20
143.8803021454687
 11
288.1717868493413
 21
143.5357802073527
 72
     1
 10
288.1717868493413
 20
143.5357802073528
 11
286.8382662461728
 21
143.5357802073527
 72
     1
 10
286.8382662461728
 20
143.5357802073527
 11
286.6720165710065
 21
143.1997802073527
 72
     1
 10
286.6720165710065
 20
143.1997802073527
 11
288.0055371741751
 21
143.1997802073527
 72
     1
 10
288.0055371741751
 20
143.1997802073527
 11
287.792927589591
 21
142.7700842073527
 72
     1
 10
287.792927589591
 20
142.7700842073527
 11
285.2556659488996
 21
142.7700842073527
 72
     1
 10
285.2556659488997
 20
142.7700842073527
 11
286.183854376414
 21
144.6460055367206
 97
       12
330
42C
330
458
330
455
330
456
330
454
330
451
330
452
330
44F
330
453
330
450
330
457
330
459
 75
     0
 76
     1
 98
        1
 10
182.3979558354012
 20
14.93443975370439
450
        0
451
        0
460
0.0
461
0.0
452
        0
462
0.0
453
        0
470

  0
LINE
  5
42B
330
18
100
AcDbEntity
  8
ROGO
 62
     4
100
AcDbLine
 10
282.5441625166405
 20
142.0085647101281
 30
0.0
 11
299.9771036415888
 21
142.0085647101281
 31
0.0
  0
LINE
  5
42C
102
{ACAD_REACTORS
330
42A
102
}
330
18
100
AcDbEntity
  8
ROGO
 62
     4
100
AcDbLine
 10
286.183854376414
 20
144.6460055367206
 30
0.0
 11
288.7211160171055
 21
144.6460055367206
 31
0.0
  0
LINE
  5
42D
102
{ACAD_REACTORS
330
426
102
}
330
18
100
AcDbEntity
  8
ROGO
 62
     4
100
AcDbLine
 10
301.6737158036594
 20
141.714750129712
 30
0.0
 11
302.7538118036594
 21
141.714750129712
 31
0.0
  0
LINE
  5
42E
102
{ACAD_REACTORS
330
426
102
}
330
18
100
AcDbEntity
  8
ROGO
 62
     4
100
AcDbLine
 10
302.7184904172257
 20
144.6460055367206
 30
0.0
 11
303.7985864172256
 21
144.6460055367206
 31
0.0
  0
LINE
  5
42F
102
{ACAD_REACTORS
330
426
102
}
330
18
100
AcDbEntity
  8
ROGO
 62
     4
100
AcDbLine
 10
302.0230024953238
 20
143.1803778332162
 30
0.0
 11
303.7985864172256
 21
144.6460055367206
 31
0.0
  0
LINE
  5
430
102
{ACAD_REACTORS
330
426
102
}
330
18
100
AcDbEntity
  8
ROGO
 62
     4
100
AcDbLine
 10
301.292216819137
 20
142.4798409327399
 30
0.0
 11
300.9107178346146
 21
141.714750129712
 31
0.0
  0
LINE
  5
431
102
{ACAD_REACTORS
330
426
102
}
330
18
100
AcDbEntity
  8
ROGO
 62
     4
100
AcDbLine
 10
302.0230024953238
 20
143.1803778332162
 30
0.0
 11
302.7538118036594
 21
141.714750129712
 31
0.0
  0
LINE
  5
432
102
{ACAD_REACTORS
330
426
102
}
330
18
100
AcDbEntity
  8
ROGO
 62
     4
100
AcDbLine
 10
301.292216819137
 20
142.4798409327399
 30
0.0
 11
301.6737158036594
 21
141.714750129712
 31
0.0
  0
LINE
  5
433
102
{ACAD_REACTORS
330
426
102
}
330
18
100
AcDbEntity
  8
ROGO
 62
     4
100
AcDbLine
 10
302.2127574413987
 20
144.3259720955468
 30
0.0
 11
302.7184904172257
 21
144.6460055367206
 31
0.0
  0
LINE
  5
434
102
{ACAD_REACTORS
330
426
102
}
330
18
100
AcDbEntity
  8
ROGO
 62
     4
100
AcDbLine
 10
302.3723364512858
 20
144.6460055367206
 30
0.0
 11
302.2127574413987
 21
144.3259720955468
 31
0.0
  0
LINE
  5
435
102
{ACAD_REACTORS
330
426
102
}
330
18
100
AcDbEntity
  8
ROGO
 62
     4
100
AcDbLine
 10
301.292216819137
 20
144.6460055367206
 30
0.0
 11
299.8305982024658
 21
141.714750129712
 31
0.0
  0
LINE
  5
436
102
{ACAD_REACTORS
330
426
102
}
330
18
100
AcDbEntity
  8
ROGO
 62
     4
100
AcDbLine
 10
301.292216819137
 20
144.6460055367206
 30
0.0
 11
302.3723364512858
 21
144.6460055367206
 31
0.0
  0
LINE
  5
437
102
{ACAD_REACTORS
330
428
102
}
330
18
100
AcDbEntity
  8
ROGO
 62
     4
100
AcDbLine
 10
300.8993209203911
 20
144.6460055367206
 30
0.0
 11
300.5512933481901
 21
143.9480411764107
 31
0.0
  0
LINE
  5
438
102
{ACAD_REACTORS
330
428
102
}
330
18
100
AcDbEntity
  8
ROGO
 62
     4
100
AcDbLine
 10
299.3773406005456
 20
143.9480411764107
 30
0.0
 11
300.5512933481901
 21
143.9480411764107
 31
0.0
  0
LINE
  5
439
102
{ACAD_REACTORS
330
428
102
}
330
18
100
AcDbEntity
  8
ROGO
 62
     4
100
AcDbLine
 10
299.1124055301016
 20
143.4680411764107
 30
0.0
 11
300.3119498456333
 21
143.4680411764107
 31
0.0
  0
LINE
  5
43A
102
{ACAD_REACTORS
330
428
102
}
330
18
100
AcDbEntity
  8
ROGO
 62
     4
100
AcDbLine
 10
300.3119498456333
 20
143.4680411764107
 30
0.0
 11
299.9639259589493
 21
142.7700842073527
 31
0.0
  0
SPLINE
  5
43B
102
{ACAD_REACTORS
330
428
102
}
330
18
100
AcDbEntity
  8
ROGO
 62
     4
100
AcDbSpline
210
0.0
220
0.0
230
1.0
 70
     8
 71
     3
 72
    26
 73
    22
 74
    20
 42
0.0000000001
 43
0.0000000001
 44
0.0000000001
 40
0.0
 40
0.0
 40
0.0
 40
0.0
 40
0.3403136209416859
 40
0.5681272389515052
 40
0.7323994099695983
 40
0.8550561247335963
 40
1.014148321321381
 40
1.13027011535639
 40
1.339959009792003
 40
1.510642755247356
 40
1.626735051276114
 40
1.740569491433573
 40
1.94419717410045
 40
2.088186249714629
 40
2.165735491582895
 40
2.275891898886364
 40
2.355438312276665
 40
2.470674802864995
 40
2.535888688806186
 40
2.677801419664424
 40
2.74260000535881
 40
2.74260000535881
 40
2.74260000535881
 40
2.74260000535881
 10
299.0206975745249
 20
144.6460055367206
 30
0.0
 10
298.9051898734412
 20
144.6391141491989
 30
0.0
 10
298.7123587104898
 20
144.6276095113465
 30
0.0
 10
298.5006312666159
 20
144.4989873629775
 30
0.0
 10
298.3455073460298
 20
144.4242120982025
 30
0.0
 10
298.2348731539953
 20
144.3225614961746
 30
0.0
 10
298.153777842756
 20
144.2175638497154
 30
0.0
 10
298.0515419789022
 20
144.0924599238221
 30
0.0
 10
297.9681715533224
 20
143.9467814645868
 30
0.0
 10
297.9257160639893
 20
143.7862184059251
 30
0.0
 10
297.8881093944839
 20
143.6582487165552
 30
0.0
 10
297.8602196588084
 20
143.5156431981375
 30
0.0
 10
297.8673155971126
 20
143.3615790722484
 30
0.0
 10
297.8774773055188
 20
143.2184921993858
 30
0.0
 10
297.9228468625531
 20
143.1163495952049
 30
0.0
 10
297.9745147516819
 20
143.0436310995916
 30
0.0
 10
298.0377813743316
 20
142.9635397385934
 30
0.0
 10
298.1070088947852
 20
142.9104954895502
 30
0.0
 10
298.1642657049432
 20
142.8144022679208
 30
0.0
 10
298.2644918196037
 20
142.8021400798119
 30
0.0
 10
298.3281995254263
 20
142.7777346657019
 30
0.0
 10
298.3481702232284
 20
142.7700842073527
 30
0.0
 11
299.0206975745249
 21
144.6460055367206
 31
0.0
 11
298.6844338988766
 21
144.5936595623009
 31
0.0
 11
298.4806374654837
 21
144.4918457209675
 31
0.0
 11
298.3379802550754
 21
144.4103947142854
 31
0.0
 11
298.2462722994986
 21
144.32894337568
 31
0.0
 11
298.144374375769
 21
144.2067666996951
 31
0.0
 11
298.0730457705647
 21
144.1151342756874
 31
0.0
 11
297.9711472609016
 21
143.9318690957485
 31
0.0
 11
297.9201985920033
 21
143.768966750461
 31
0.0
 11
297.8896292734778
 21
143.6569714918019
 31
0.0
 11
297.8692493371718
 21
143.5449762331428
 31
0.0
 11
297.8692493371718
 21
143.3413485504759
 31
0.0
 11
297.8896292734778
 21
143.1988090398397
 31
0.0
 11
297.9201985920033
 21
143.1275391185599
 31
0.0
 11
297.9813372290545
 21
143.0359066945522
 31
0.0
 11
298.0322864838862
 21
142.9748181905981
 31
0.0
 11
298.1138044713098
 21
142.893367183916
 31
0.0
 11
298.1545637579885
 21
142.8424600972876
 31
0.0
 11
298.2870315861772
 21
142.7915533425825
 31
0.0
 11
298.3481702232284
 21
142.7700842073527
 31
0.0
  0
SPLINE
  5
43C
102
{ACAD_REACTORS
330
428
102
}
330
18
100
AcDbEntity
  8
ROGO
 62
     4
100
AcDbSpline
210
0.0
220
0.0
230
1.0
 70
     8
 71
     3
 72
    16
 73
    12
 74
    10
 42
0.0000000001
 43
0.0000000001
 44
0.0000000001
 40
0.0
 40
0.0
 40
0.0
 40
0.0
 40
0.1794152893756658
 40
0.2670467197815217
 40
0.3102605435413978
 40
0.3558008766977931
 40
0.4210145035340376
 40
0.4803947587045328
 40
0.5423269814405045
 40
0.6461608279444525
 40
0.7489346372632488
 40
0.7489346372632488
 40
0.7489346372632488
 40
0.7489346372632488
 10
299.3773406005457
 20
143.9480411764107
 30
0.0
 10
299.3165824468008
 20
143.9387781859764
 30
0.0
 10
299.2261483164987
 20
143.9249908927114
 30
0.0
 10
299.1443686716547
 20
143.8602550256032
 30
0.0
 10
299.0982506300485
 20
143.8217414937225
 30
0.0
 10
299.0825610668321
 20
143.7707386448909
 30
0.0
 10
299.0404238270312
 20
143.7315762862684
 30
0.0
 10
299.005690755778
 20
143.6777545995312
 30
0.0
 10
298.9973972856896
 20
143.6038296410181
 30
0.0
 10
299.003484882615
 20
143.5000872279648
 30
0.0
 10
299.0762230462849
 20
143.47868659368
 30
0.0
 10
299.1124055301017
 20
143.4680411764106
 30
0.0
 11
299.3773406005457
 21
143.9480411764107
 31
0.0
 11
299.2041140716118
 21
143.9013248437715
 31
0.0
 11
299.1327854664076
 21
143.8504180890664
 31
0.0
 11
299.1022161478822
 21
143.8198738370894
 31
0.0
 11
299.081836211576
 21
143.7791481677867
 31
0.0
 11
299.0410769248975
 21
143.7282414130816
 31
0.0
 11
299.0105076063719
 21
143.6773343264532
 31
0.0
 11
299.0003176382188
 21
143.6162461544225
 31
0.0
 11
299.0206975745249
 21
143.5144319811657
 31
0.0
 11
299.1124055301017
 21
143.4680411764106
 31
0.0
  0
LINE
  5
43D
102
{ACAD_REACTORS
330
428
102
}
330
18
100
AcDbEntity
  8
ROGO
 62
     4
100
AcDbLine
 10
299.0206975745254
 20
144.6460055367206
 30
0.0
 11
300.8993209203911
 21
144.6460055367206
 31
0.0
  0
LINE
  5
43E
102
{ACAD_REACTORS
330
428
102
}
330
18
100
AcDbEntity
  8
ROGO
 62
     4
100
AcDbLine
 10
298.3481702232284
 20
142.7700842073527
 30
0.0
 11
299.9639259589493
 21
142.7700842073527
 31
0.0
  0
LINE
  5
43F
102
{ACAD_REACTORS
330
429
102
}
330
18
100
AcDbEntity
  8
ROGO
 62
     4
100
AcDbLine
 10
292.9763121874858
 20
144.6460055367206
 30
0.0
 11
294.8549355333513
 21
144.6460055367206
 31
0.0
  0
LINE
  5
440
102
{ACAD_REACTORS
330
429
102
}
330
18
100
AcDbEntity
  8
ROGO
 62
     4
100
AcDbLine
 10
294.2675644585935
 20
143.4680411764107
 30
0.0
 11
293.9195405719095
 21
142.7700842073527
 31
0.0
  0
SPLINE
  5
441
102
{ACAD_REACTORS
330
429
102
}
330
18
100
AcDbEntity
  8
ROGO
 62
     4
100
AcDbSpline
210
0.0
220
0.0
230
1.0
 70
     8
 71
     3
 72
    16
 73
    12
 74
    10
 42
0.0000000001
 43
0.0000000001
 44
0.0000000001
 40
0.0
 40
0.0
 40
0.0
 40
0.0
 40
0.1794152893756658
 40
0.2670467197814556
 40
0.3102605435414121
 40
0.3558008766977565
 40
0.4210145035340276
 40
0.4803947587045229
 40
0.5423269814405317
 40
0.646160827944346
 40
0.7489346372632694
 40
0.7489346372632694
 40
0.7489346372632694
 40
0.7489346372632694
 10
293.3329552135059
 20
143.9480411764107
 30
0.0
 10
293.2721970597609
 20
143.9387781859764
 30
0.0
 10
293.1817629294589
 20
143.9249908927114
 30
0.0
 10
293.0999832846148
 20
143.8602550256033
 30
0.0
 10
293.0538652430087
 20
143.8217414937226
 30
0.0
 10
293.0381756797924
 20
143.7707386448908
 30
0.0
 10
292.9960384399913
 20
143.7315762862686
 30
0.0
 10
292.9613053687382
 20
143.6777545995312
 30
0.0
 10
292.9530118986499
 20
143.6038296410181
 30
0.0
 10
292.9590994955751
 20
143.5000872279649
 30
0.0
 10
293.0318376592452
 20
143.4786865936801
 30
0.0
 10
293.068020143062
 20
143.4680411764107
 30
0.0
 11
293.3329552135059
 21
143.9480411764107
 31
0.0
 11
293.159728684572
 21
143.9013248437715
 31
0.0
 11
293.0884000793678
 21
143.8504180890665
 31
0.0
 11
293.0578307608423
 21
143.8198738370894
 31
0.0
 11
293.0374508245364
 21
143.7791481677867
 31
0.0
 11
292.9966915378577
 21
143.7282414130817
 31
0.0
 11
292.9661222193321
 21
143.6773343264533
 31
0.0
 11
292.9559322511791
 21
143.6162461544225
 31
0.0
 11
292.976312187485
 21
143.5144319811658
 31
0.0
 11
293.068020143062
 21
143.4680411764107
 31
0.0
  0
SPLINE
  5
442
102
{ACAD_REACTORS
330
429
102
}
330
18
100
AcDbEntity
  8
ROGO
 62
     4
100
AcDbSpline
210
0.0
220
0.0
230
1.0
 70
     8
 71
     3
 72
    26
 73
    22
 74
    20
 42
0.0000000001
 43
0.0000000001
 44
0.0000000001
 40
0.0
 40
0.0
 40
0.0
 40
0.0
 40
0.3403136209417982
 40
0.5681272389515159
 40
0.7323994099697078
 40
0.8550561247337057
 40
1.014148321321447
 40
1.13027011535643
 40
1.339959009791999
 40
1.510642755247373
 40
1.626735051276186
 40
1.740569491433665
 40
1.944197174100541
 40
2.088186249714737
 40
2.16573549158295
 40
2.275891898886404
 40
2.355438312276705
 40
2.470674802865115
 40
2.535888688806235
 40
2.677801419664453
 40
2.742600005358966
 40
2.742600005358966
 40
2.742600005358966
 40
2.742600005358966
 10
292.9763121874852
 20
144.6460055367206
 30
0.0
 10
292.8608044864014
 20
144.639114149199
 30
0.0
 10
292.66797332345
 20
144.6276095113466
 30
0.0
 10
292.456245879576
 20
144.4989873629774
 30
0.0
 10
292.30112195899
 20
144.4242120982025
 30
0.0
 10
292.1904877669555
 20
144.3225614961746
 30
0.0
 10
292.109392455716
 20
144.2175638497155
 30
0.0
 10
292.0071565918625
 20
144.0924599238219
 30
0.0
 10
291.9237861662826
 20
143.946781464587
 30
0.0
 10
291.8813306769496
 20
143.7862184059251
 30
0.0
 10
291.8437240074443
 20
143.6582487165552
 30
0.0
 10
291.8158342717685
 20
143.5156431981375
 30
0.0
 10
291.8229302100727
 20
143.3615790722484
 30
0.0
 10
291.8330919184791
 20
143.2184921993858
 30
0.0
 10
291.8784614755135
 20
143.116349595205
 30
0.0
 10
291.9301293646419
 20
143.0436310995916
 30
0.0
 10
291.9933959872919
 20
142.9635397385934
 30
0.0
 10
292.0626235077454
 20
142.9104954895502
 30
0.0
 10
292.1198803179034
 20
142.8144022679207
 30
0.0
 10
292.220106432564
 20
142.802140079812
 30
0.0
 10
292.2838141383866
 20
142.777734665702
 30
0.0
 10
292.3037848361887
 20
142.7700842073527
 30
0.0
 11
292.9763121874852
 21
144.6460055367206
 31
0.0
 11
292.6400485118368
 21
144.5936595623009
 31
0.0
 11
292.436252078444
 21
144.4918457209675
 31
0.0
 11
292.2935948680356
 21
144.4103947142854
 31
0.0
 11
292.2018869124588
 21
144.32894337568
 31
0.0
 11
292.0999889887291
 21
144.2067666996952
 31
0.0
 11
292.028660383525
 21
144.1151342756874
 31
0.0
 11
291.9267618738618
 21
143.9318690957486
 31
0.0
 11
291.8758132049636
 21
143.768966750461
 31
0.0
 11
291.8452438864381
 21
143.6569714918019
 31
0.0
 11
291.824863950132
 21
143.5449762331428
 31
0.0
 11
291.824863950132
 21
143.3413485504759
 31
0.0
 11
291.8452438864381
 21
143.1988090398397
 31
0.0
 11
291.8758132049636
 21
143.12753911856
 31
0.0
 11
291.9369518420147
 21
143.0359066945522
 31
0.0
 11
291.9879010968464
 21
142.9748181905981
 31
0.0
 11
292.0694190842701
 21
142.893367183916
 31
0.0
 11
292.1101783709487
 21
142.8424600972876
 31
0.0
 11
292.2426461991374
 21
142.7915533425826
 31
0.0
 11
292.3037848361887
 21
142.7700842073527
 31
0.0
  0
LINE
  5
443
102
{ACAD_REACTORS
330
429
102
}
330
18
100
AcDbEntity
  8
ROGO
 62
     4
100
AcDbLine
 10
293.0680201430618
 20
143.4680411764107
 30
0.0
 11
294.2675644585936
 21
143.4680411764107
 31
0.0
  0
LINE
  5
444
102
{ACAD_REACTORS
330
429
102
}
330
18
100
AcDbEntity
  8
ROGO
 62
     4
100
AcDbLine
 10
293.3329552135058
 20
143.9480411764107
 30
0.0
 11
294.5069079611503
 21
143.9480411764108
 31
0.0
  0
LINE
  5
445
102
{ACAD_REACTORS
330
429
102
}
330
18
100
AcDbEntity
  8
ROGO
 62
     4
100
AcDbLine
 10
294.8549355333512
 20
144.6460055367206
 30
0.0
 11
294.5069079611503
 21
143.9480411764107
 31
0.0
  0
LINE
  5
446
102
{ACAD_REACTORS
330
429
102
}
330
18
100
AcDbEntity
  8
ROGO
 62
     4
100
AcDbLine
 10
292.3037848361886
 20
142.7700842073527
 30
0.0
 11
293.9195405719095
 21
142.7700842073527
 31
0.0
  0
LINE
  5
447
102
{ACAD_REACTORS
330
421
102
}
330
18
100
AcDbEntity
  8
ROGO
 62
     4
100
AcDbLine
 10
291.7900428147518
 20
142.7700842073528
 30
0.0
 11
290.7440317831401
 21
142.7700842073527
 31
0.0
  0
LINE
  5
448
102
{ACAD_REACTORS
330
421
102
}
330
18
100
AcDbEntity
  8
ROGO
 62
     4
100
AcDbLine
 10
289.4561078245307
 20
144.6460055367206
 30
0.0
 11
290.9566842284899
 21
144.6460055367206
 31
0.0
  0
LINE
  5
449
102
{ACAD_REACTORS
330
421
102
}
330
18
100
AcDbEntity
  8
ROGO
 62
     4
100
AcDbLine
 10
288.1033444958177
 20
142.7700842073527
 30
0.0
 11
289.1422691410913
 21
142.7700842073527
 31
0.0
  0
LINE
  5
44A
102
{ACAD_REACTORS
330
421
102
}
330
18
100
AcDbEntity
  8
ROGO
 62
     4
100
AcDbLine
 10
289.399826909064
 20
143.1272480217681
 30
0.0
 11
289.1422691410913
 21
142.7700842073528
 31
0.0
  0
LINE
  5
44B
102
{ACAD_REACTORS
330
421
102
}
330
18
100
AcDbEntity
  8
ROGO
 62
     4
100
AcDbLine
 10
289.6714808535571
 20
143.5039594670482
 30
0.0
 11
290.4180153136123
 21
143.5039594670482
 31
0.0
  0
LINE
  5
44C
102
{ACAD_REACTORS
330
421
102
}
330
18
100
AcDbEntity
  8
ROGO
 62
     4
100
AcDbLine
 10
289.399826909064
 20
143.1272480217681
 30
0.0
 11
290.5853654644702
 21
143.1272480217681
 31
0.0
  0
LINE
  5
44D
102
{ACAD_REACTORS
330
421
102
}
330
18
100
AcDbEntity
  8
ROGO
 62
     4
100
AcDbLine
 10
290.1334333340045
 20
144.1445641410751
 30
0.0
 11
289.671480853557
 21
143.5039594670482
 31
0.0
  0
LINE
  5
44E
102
{ACAD_REACTORS
330
421
102
}
330
18
100
AcDbEntity
  8
ROGO
 62
     4
100
AcDbLine
 10
289.4561078245307
 20
144.6460055367206
 30
0.0
 11
288.1033444958177
 21
142.7700842073527
 31
0.0
  0
LINE
  5
44F
102
{ACAD_REACTORS
330
42A
102
}
330
18
100
AcDbEntity
  8
ROGO
 62
     4
100
AcDbLine
 10
286.8382662461728
 20
143.5357802073527
 30
0.0
 11
286.6720165710065
 21
143.1997802073527
 31
0.0
  0
LINE
  5
450
102
{ACAD_REACTORS
330
42A
102
}
330
18
100
AcDbEntity
  8
ROGO
 62
     4
100
AcDbLine
 10
288.0055371741751
 20
143.1997802073527
 30
0.0
 11
287.792927589591
 21
142.7700842073527
 31
0.0
  0
LINE
  5
451
102
{ACAD_REACTORS
330
42A
102
}
330
18
100
AcDbEntity
  8
ROGO
 62
     4
100
AcDbLine
 10
288.3422531002325
 20
143.8803021454687
 30
0.0
 11
288.1717868493413
 21
143.5357802073527
 31
0.0
  0
LINE
  5
452
102
{ACAD_REACTORS
330
42A
102
}
330
18
100
AcDbEntity
  8
ROGO
 62
     4
100
AcDbLine
 10
286.8382662461728
 20
143.5357802073527
 30
0.0
 11
288.1717868493413
 21
143.5357802073528
 31
0.0
  0
LINE
  5
453
102
{ACAD_REACTORS
330
42A
102
}
330
18
100
AcDbEntity
  8
ROGO
 62
     4
100
AcDbLine
 10
286.6720165710065
 20
143.1997802073527
 30
0.0
 11
288.0055371741751
 21
143.1997802073527
 31
0.0
  0
LINE
  5
454
102
{ACAD_REACTORS
330
42A
102
}
330
18
100
AcDbEntity
  8
ROGO
 62
     4
100
AcDbLine
 10
287.0087324970639
 20
143.8803021454687
 30
0.0
 11
288.3422531002325
 21
143.8803021454687
 31
0.0
  0
LINE
  5
455
102
{ACAD_REACTORS
330
42A
102
}
330
18
100
AcDbEntity
  8
ROGO
 62
     4
100
AcDbLine
 10
287.1749751343161
 20
144.2162879214461
 30
0.0
 11
288.5084957374846
 21
144.2162879214461
 31
0.0
  0
LINE
  5
456
102
{ACAD_REACTORS
330
42A
102
}
330
18
100
AcDbEntity
  8
ROGO
 62
     4
100
AcDbLine
 10
287.1749751343161
 20
144.2162879214461
 30
0.0
 11
287.0087324970639
 21
143.8803021454687
 31
0.0
  0
LINE
  5
457
102
{ACAD_REACTORS
330
42A
102
}
330
18
100
AcDbEntity
  8
ROGO
 62
     4
100
AcDbLine
 10
285.2556659488996
 20
142.7700842073527
 30
0.0
 11
287.792927589591
 21
142.7700842073527
 31
0.0
  0
LINE
  5
458
102
{ACAD_REACTORS
330
42A
102
}
330
18
100
AcDbEntity
  8
ROGO
 62
     4
100
AcDbLine
 10
288.7211160171055
 20
144.6460055367206
 30
0.0
 11
288.5084957374846
 21
144.2162879214461
 31
0.0
  0
LINE
  5
459
102
{ACAD_REACTORS
330
42A
102
}
330
18
100
AcDbEntity
  8
ROGO
 62
     4
100
AcDbLine
 10
286.183854376414
 20
144.6460055367206
 30
0.0
 11
285.2556659488997
 21
142.7700842073527
 31
0.0
  0
LINE
  5
45A
102
{ACAD_REACTORS
330
425
102
}
330
18
100
AcDbEntity
  8
ROGO
 62
     4
100
AcDbLine
 10
282.9090718913877
 20
142.7700842073527
 30
0.0
 11
282.4316088187757
 21
141.714750129712
 31
0.0
  0
LINE
  5
45B
102
{ACAD_REACTORS
330
425
102
}
330
18
100
AcDbEntity
  8
ROGO
 62
     4
100
AcDbLine
 10
283.9076729501795
 20
143.4216932565794
 30
0.0
 11
283.2038783089737
 21
143.4216932565795
 31
0.0
  0
LINE
  5
45C
102
{ACAD_REACTORS
330
425
102
}
330
18
100
AcDbEntity
  8
ROGO
 62
     4
100
AcDbLine
 10
284.0095708739092
 20
143.9205813778444
 30
0.0
 11
283.4295894466271
 21
143.9205813778444
 31
0.0
  0
SPLINE
  5
45D
102
{ACAD_REACTORS
330
425
102
}
330
18
100
AcDbEntity
  8
ROGO
 62
     4
100
AcDbSpline
210
0.0
220
0.0
230
1.0
 70
     8
 71
     3
 72
    15
 73
    11
 74
     9
 42
0.0000000001
 43
0.0000000001
 44
0.0000000001
 40
0.0
 40
0.0
 40
0.0
 40
0.0
 40
0.2199578613106558
 40
0.3202465475123651
 40
0.4340808827708152
 40
0.5116301246390283
 40
0.634275054953107
 40
0.7077360179240892
 40
0.8337709579493377
 40
0.875782631437913
 40
0.875782631437913
 40
0.875782631437913
 40
0.875782631437913
 10
284.0095708739092
 20
143.9205813778442
 30
0.0
 10
284.0921827811365
 20
143.9209597844763
 30
0.0
 10
284.2124611740767
 20
143.9215107237187
 30
0.0
 10
284.2782336831689
 20
143.7727260038195
 30
0.0
 10
284.2487513085497
 20
143.6769318543375
 30
0.0
 10
284.2116895608011
 20
143.5785811196978
 30
0.0
 10
284.1461930585976
 20
143.5117503121701
 30
0.0
 10
284.0582871591761
 20
143.447380978403
 30
0.0
 10
283.975211883382
 20
143.4395887823181
 30
0.0
 10
283.9211807419927
 20
143.4252723630978
 30
0.0
 10
283.9076729501794
 20
143.4216932565794
 30
0.0
 11
284.0095708739092
 21
143.9205813778442
 31
0.0
 11
284.2235566895217
 21
143.8696742912158
 31
0.0
 11
284.2643159762003
 21
143.7780418672081
 31
0.0
 11
284.2439366258277
 21
143.666046608549
 31
0.0
 11
284.2133673073022
 21
143.5947766872693
 31
0.0
 11
284.1318487339449
 21
143.5031442632615
 31
0.0
 11
284.0707100968938
 21
143.4624185939588
 31
0.0
 11
283.948432236858
 21
143.4318746739051
 31
0.0
 11
283.9076729501794
 21
143.4216932565794
 31
0.0
  0
LINE
  5
45E
102
{ACAD_REACTORS
330
425
102
}
330
18
100
AcDbEntity
  8
ROGO
 62
     4
100
AcDbLine
 10
283.4295894466271
 20
143.9205813778444
 30
0.0
 11
283.2038783089736
 21
143.4216932565795
 31
0.0
  0
LINE
  5
45F
102
{ACAD_REACTORS
330
425
102
}
330
18
100
AcDbEntity
  8
ROGO
 62
     4
100
AcDbLine
 10
284.1827979892181
 20
142.7700842073527
 30
0.0
 11
282.9090718913877
 21
142.7700842073527
 31
0.0
  0
SPLINE
  5
460
102
{ACAD_REACTORS
330
425
102
}
330
18
100
AcDbEntity
  8
ROGO
 62
     4
100
AcDbSpline
210
0.0
220
0.0
230
1.0
 70
     8
 71
     3
 72
    18
 73
    14
 74
     0
 42
0.0000000001
 43
0.0000000001
 40
0.1087402787915014
 40
0.1087402787915014
 40
0.1087402787915014
 40
0.1087402787915014
 40
0.5992371417938475
 40
1.083176791562496
 40
1.448211145705696
 40
1.714037220764907
 40
2.164002567013297
 40
2.740236056362883
 40
3.395137510199602
 40
4.071816045172726
 40
4.784906178399433
 40
5.506895915094292
 40
6.060470601257719
 40
6.060470601257719
 40
6.060470601257719
 40
6.060470601257719
 10
284.8229629575489
 20
144.6460055367206
 30
0.0
 10
284.896762297029
 20
144.6189593155096
 30
0.0
 10
285.0418879368156
 20
144.5617794707735
 30
0.0
 10
285.2190097018829
 20
144.4312761710715
 30
0.0
 10
285.3156042646325
 20
144.2806207751104
 30
0.0
 10
285.408517419694
 20
144.1321768575349
 30
0.0
 10
285.4215204461382
 20
143.9192089515971
 30
0.0
 10
285.4002206103565
 20
143.6499659007804
 30
0.0
 10
285.2627107948192
 20
143.369038561465
 30
0.0
 10
285.0419994532744
 20
143.1233285174624
 30
0.0
 10
284.7679709202845
 20
142.9266654026885
 30
0.0
 10
284.4789983801312
 20
142.7722899219809
 30
0.0
 10
284.2724407271975
 20
142.7707517496829
 30
0.0
 10
284.1827979887765
 20
142.7700842073527
 30
0.0
  0
LINE
  5
461
102
{ACAD_REACTORS
330
425
102
}
330
18
100
AcDbEntity
  8
ROGO
 62
     4
100
AcDbLine
 10
282.5193939389988
 20
144.6460055367206
 30
0.0
 11
281.0690360245807
 21
141.7147501297119
 31
0.0
  0
LINE
  5
462
102
{ACAD_REACTORS
330
426
330
425
102
}
330
18
100
AcDbEntity
  8
ROGO
 62
     4
100
AcDbLine
 10
281.0690360245807
 20
141.714750129712
 30
0.0
 11
300.9107178346146
 21
141.714750129712
 31
0.0
  0
LINE
  5
463
102
{ACAD_REACTORS
330
425
102
}
330
18
100
AcDbEntity
  8
ROGO
 62
     4
100
AcDbLine
 10
282.5193939389988
 20
144.6460055367206
 30
0.0
 11
284.8229629575489
 21
144.6460055367206
 31
0.0
  0
TEXT
  5
464
330
18
100
AcDbEntity
  8
文字
100
AcDbText
 10
308.3669336313465
 20
141.6433067567955
 30
0.0
 40
3.0
  1
LB-1
  7
STYLE3
100
AcDbText
  0
LINE
  5
466
330
18
100
AcDbEntity
  8
隠れ線2
100
AcDbLine
 10
340.0915972995553
 20
155.6339159083346
 30
0.0
 11
255.1031363717759
 21
155.6339159083346
 31
0.0
  0
LINE
  5
467
330
18
100
AcDbEntity
  8
隠れ線2
100
AcDbLine
 10
340.0915972995554
 20
132.2339159083346
 30
0.0
 11
251.5915972995553
 21
132.2339159083345
 31
0.0
  0
LINE
  5
468
330
18
100
AcDbEntity
  8
隠れ線2
100
AcDbLine
 10
341.5915972995553
 20
154.1339159083346
 30
0.0
 11
341.5915972995553
 21
133.7339159083346
 31
0.0
  0
ARC
  5
46B
330
18
100
AcDbEntity
  8
外形線
100
AcDbCircle
 10
255.1031363717759
 20
160.6339159083346
 30
0.0
 40
5.0
100
AcDbArc
 50
175.497810507959
 51
225.3875452190631
  0
CIRCLE
  5
46C
330
18
100
AcDbEntity
  8
外形線
100
AcDbCircle
 10
211.5915972995554
 20
143.9339159083346
 30
0.0
 40
9.0
  0
CIRCLE
  5
476
330
18
100
AcDbEntity
  8
外形線
100
AcDbCircle
 10
211.5915972995554
 20
143.9339159083346
 30
0.0
 40
10.0
  0
ARC
  5
477
330
18
100
AcDbEntity
  8
中心線
 48
0.3
100
AcDbCircle
 10
211.5915972995554
 20
143.9339159083346
 30
0.0
 40
13.99960913740094
100
AcDbArc
 50
155.7293842574911
 51
210.2146250685099
  0
LINE
  5
47B
330
18
100
AcDbEntity
  8
外形線
100
AcDbLine
 10
170.8718280525582
 20
150.553686771763
 30
0.0
 11
211.5915972995553
 21
155.9339159083346
 31
0.0
  0
LINE
  5
47C
330
18
100
AcDbEntity
  8
隠れ線2
100
AcDbLine
 10
182.3319223573079
 20
130.6292283223465
 30
0.0
 11
235.4140541205505
 21
131.8590960332372
 31
0.0
  0
LINE
  5
47D
330
18
100
AcDbEntity
  8
外形線
100
AcDbLine
 10
235.4140541205505
 20
131.8590960332372
 30
0.0
 11
251.5915972995553
 21
132.2339159083345
 31
0.0
  0
ARC
  5
47F
330
18
100
AcDbEntity
  8
寸法線
100
AcDbCircle
 10
211.5915972995554
 20
143.9339159083346
 30
0.0
 40
160.0
100
AcDbArc
 50
152.9522799976576
 51
192.085966653333
  0
LINE
  5
483
330
18
100
AcDbEntity
  8
中心線
 48
0.5
100
AcDbLine
 10
51.67133836160471
 20
136.2981246740017
 30
0.0
 11
52.73145571293294
 21
124.1809279012556
 31
0.0
  0
LINE
  5
486
330
18
100
AcDbEntity
  8
外形線
100
AcDbLine
 10
53.16769784136494
 20
133.5367991136967
 30
0.0
 11
53.23306464842568
 21
132.7896530901279
 31
0.0
  0
LINE
  5
487
330
18
100
AcDbEntity
  8
外形線
100
AcDbLine
 10
50.67721109613561
 20
133.3189097568276
 30
0.0
 11
50.74257790319634
 21
132.5717637332588
 31
0.0
  0
ARC
  5
489
330
18
100
AcDbEntity
  8
外形線
100
AcDbCircle
 10
51.92245446875027
 20
133.4278544352621
 30
0.0
 40
1.25
100
AcDbArc
 50
4.999999999999799
 51
184.9999999999998
  0
ARC
  5
48A
330
18
100
AcDbEntity
  8
外形線
100
AcDbCircle
 10
52.52382909370908
 20
126.554111018429
 30
0.0
 40
1.25
100
AcDbArc
 50
184.9999999999995
 51
4.999999999999618
  0
LINE
  5
48B
330
18
100
AcDbEntity
  8
外形線
100
AcDbLine
 10
51.2785857210944
 20
126.4451663399945
 30
0.0
 11
51.21321891403368
 21
127.1923123635633
 31
0.0
  0
LINE
  5
48C
330
18
100
AcDbEntity
  8
外形線
100
AcDbLine
 10
53.76907246632375
 20
126.6630556968636
 30
0.0
 11
53.703705659263
 21
127.4102017204324
 31
0.0
  0
ARC
  5
4AA
330
18
100
AcDbEntity
  8
隠れ線2
100
AcDbCircle
 10
340.0915972995553
 20
154.1339159083346
 30
0.0
 40
1.5
100
AcDbArc
 50
0.0000000000001527
 51
89.99999999999994
  0
ARC
  5
4AB
330
18
100
AcDbEntity
  8
隠れ線2
100
AcDbCircle
 10
340.0915972995554
 20
133.7339159083346
 30
0.0
 40
1.5
100
AcDbArc
 50
270.0
 51
0.0000000000001527
  0
LINE
  5
4AC
330
18
100
AcDbEntity
  8
想像線
 48
0.5
100
AcDbLine
 10
175.3475291762944
 20
156.8869507645383
 30
0.0
 11
178.167814325307
 21
124.6509440026242
 31
0.0
  0
LINE
  5
54A
330
18
100
AcDbEntity
  8
想像線
100
AcDbLine
 10
200.5055704933439
 20
169.5049333970614
 30
0.0
 11
184.5838972806935
 21
137.6600418800221
 31
0.0
  0
LINE
  5
54B
330
18
100
AcDbEntity
  8
想像線
100
AcDbLine
 10
203.0992973184172
 20
168.2077899366471
 30
0.0
 11
187.1776241057668
 21
136.3628984196078
 31
0.0
  0
LINE
  5
54C
330
18
100
AcDbEntity
  8
外形線
100
AcDbLine
 10
200.2372539252329
 20
169.639120651587
 30
0.0
 11
184.3155807125824
 21
137.7942291345477
 31
0.0
  0
LINE
  5
54D
330
18
100
AcDbEntity
  8
外形線
100
AcDbLine
 10
203.3676138865282
 20
168.0736026821215
 30
0.0
 11
187.4459406738778
 21
136.2287111650822
 31
0.0
  0
LINE
  5
54E
330
18
100
AcDbEntity
  8
中心線
 48
0.5
100
AcDbLine
 10
204.6941199111955
 20
174.638485071523
 30
0.0
 11
183.0442238906258
 21
131.3396213376004
 31
0.0
  0
CIRCLE
  5
54F
330
18
100
AcDbEntity
  8
外形線
100
AcDbCircle
 10
203.5915972995554
 20
172.4339159083346
 30
0.0
 40
1.25
  0
CIRCLE
  5
550
330
18
100
AcDbEntity
  8
外形線
100
AcDbCircle
 10
203.5915972995554
 20
172.4339159083346
 30
0.0
 40
2.0
  0
LINE
  5
551
330
18
100
AcDbEntity
  8
外形線
100
AcDbLine
 10
200.2372539252329
 20
169.639120651587
 30
0.0
 11
203.3676138865282
 21
168.0736026821215
 31
0.0
  0
LINE
  5
552
330
18
100
AcDbEntity
  8
中心線
 48
0.5
100
AcDbLine
 10
200.9512328473458
 20
173.754383217839
 30
0.0
 11
206.2506589222863
 21
171.104097994813
 31
0.0
  0
CIRCLE
  5
553
330
18
100
AcDbEntity
  8
外形線
100
AcDbCircle
 10
184.0915972995553
 20
133.4339159083346
 30
0.0
 40
2.0
  0
LINE
  5
554
330
18
100
AcDbEntity
  8
外形線
100
AcDbLine
 10
184.3155807125824
 20
137.7942291345477
 30
0.0
 11
187.4459406738778
 21
136.2287111650822
 31
0.0
  0
LINE
  5
555
330
18
100
AcDbEntity
  8
中心線
 48
0.5
100
AcDbLine
 10
181.7607458437493
 20
134.5995933011381
 30
0.0
 11
186.3424199023696
 21
132.3082615828407
 31
0.0
  0
CIRCLE
  5
556
330
18
100
AcDbEntity
  8
外形線
100
AcDbCircle
 10
184.0915972995553
 20
133.4339159083346
 30
0.0
 40
1.25
  0
LINE
  5
647
330
18
100
AcDbEntity
  8
中心線
 48
0.5
100
AcDbLine
 10
227.5915972995554
 20
237.2673821998105
 30
0.0
 11
227.5915972995554
 21
109.5831310204244
 31
0.0
  0
LINE
  5
649
330
18
100
AcDbEntity
  8
中心線
 48
0.5
100
AcDbLine
 10
197.2732828345672
 20
192.4339159083346
 30
0.0
 11
256.3826587715423
 21
192.4339159083346
 31
0.0
  0
LINE
  5
680
330
18
100
AcDbEntity
  8
外形線
 48
0.5
100
AcDbLine
 10
224.5915972995553
 20
162.9339159083347
 30
0.0
 11
230.5915972995554
 21
162.9339159083346
 31
0.0
  0
LINE
  5
681
330
18
100
AcDbEntity
  8
外形線
 48
0.5
100
AcDbLine
 10
225.8415972995554
 20
160.4339159083346
 30
0.0
 11
229.3415972995555
 21
160.4339159083346
 31
0.0
  0
LINE
  5
682
330
18
100
AcDbEntity
  8
外形線
 48
0.5
100
AcDbLine
 10
231.5915972995554
 20
163.9339159083346
 30
0.0
 11
231.5915972995553
 21
166.3387056198544
 31
0.0
  0
LINE
  5
683
330
18
100
AcDbEntity
  8
外形線
 48
0.5
100
AcDbLine
 10
223.5915972995553
 20
163.9339159083347
 30
0.0
 11
223.5915972995553
 21
166.3387056198544
 31
0.0
  0
LINE
  5
684
330
18
100
AcDbEntity
  8
外形線
 48
0.5
100
AcDbLine
 10
223.5915972995553
 20
163.9339159083346
 30
0.0
 11
231.5915972995553
 21
163.9339159083346
 31
0.0
  0
LINE
  5
685
330
18
100
AcDbEntity
  8
外形線
 48
0.5
100
AcDbLine
 10
223.5915972995553
 20
163.9339159083347
 30
0.0
 11
224.5915972995553
 21
162.9339159083347
 31
0.0
  0
LINE
  5
686
330
18
100
AcDbEntity
  8
外形線
 48
0.5
100
AcDbLine
 10
230.5915972995554
 20
162.9339159083346
 30
0.0
 11
231.5915972995554
 21
163.9339159083346
 31
0.0
  0
LINE
  5
687
330
18
100
AcDbEntity
  8
外形線
 48
0.5
100
AcDbLine
 10
229.3415972995553
 20
159.3700221938999
 30
0.0
 11
229.3415972995553
 21
162.9339159083346
 31
0.0
  0
LINE
  5
688
330
18
100
AcDbEntity
  8
外形線
 48
0.5
100
AcDbLine
 10
225.8415972995554
 20
159.3700221939002
 30
0.0
 11
225.8415972995553
 21
162.9339159083347
 31
0.0
  0
ARC
  5
689
330
18
100
AcDbEntity
  8
外形線
100
AcDbCircle
 10
227.5915972995554
 20
157.0339159083346
 30
0.0
 40
0.6
100
AcDbArc
 50
201.3119739705772
 51
338.6880260293593
  0
LINE
  5
68A
330
18
100
AcDbEntity
  8
外形線
100
AcDbLine
 10
228.1505664754183
 20
156.8158483489978
 30
0.0
 11
229.3415972995554
 21
159.3700221938999
 31
0.0
  0
LINE
  5
68B
330
18
100
AcDbEntity
  8
外形線
100
AcDbLine
 10
227.0326281236925
 20
156.8158483489978
 30
0.0
 11
225.8415972995553
 21
159.3700221939003
 31
0.0
  0
LINE
  5
68C
330
18
100
AcDbEntity
  8
外形線
100
AcDbLine
 10
225.8415972995554
 20
159.3700221939003
 30
0.0
 11
229.3415972995553
 21
159.3700221938999
 31
0.0
  0
LINE
  5
68D
330
18
100
AcDbEntity
  8
外形線
 48
0.5
100
AcDbLine
 10
232.5915972995554
 20
140.9339159083346
 30
0.0
 11
232.5915972995554
 21
156.4339159083346
 31
0.0
  0
LINE
  5
68E
330
18
100
AcDbEntity
  8
外形線
 48
0.5
100
AcDbLine
 10
222.5915972995553
 20
140.9339159083346
 30
0.0
 11
222.5915972995553
 21
156.4339159083346
 31
0.0
  0
LINE
  5
68F
330
18
100
AcDbEntity
  8
外形線
100
AcDbLine
 10
222.5915972995553
 20
156.4339159083346
 30
0.0
 11
232.5915972995554
 21
156.4339159083346
 31
0.0
  0
LINE
  5
690
330
18
100
AcDbEntity
  8
外形線
100
AcDbLine
 10
222.5915972995553
 20
140.9339159083346
 30
0.0
 11
232.5915972995554
 21
140.9339159083346
 31
0.0
  0
LINE
  5
691
330
18
100
AcDbEntity
  8
中心線
100
AcDbLine
 10
225.2125091554052
 20
143.9339159083346
 30
0.0
 11
230.0948001207286
 21
143.9339159083346
 31
0.0
  0
LINE
  5
692
330
18
100
AcDbEntity
  8
中心線
100
AcDbLine
 10
225.2125091554052
 20
149.9339159083346
 30
0.0
 11
230.0948001207286
 21
149.9339159083346
 31
0.0
  0
LINE
  5
693
330
18
100
AcDbEntity
  8
中心線
 48
0.5
100
AcDbLine
 10
227.5915972995554
 20
141.2101955350954
 30
0.0
 11
227.5915972995554
 21
152.5668107209324
 31
0.0
  0
CIRCLE
  5
694
330
18
100
AcDbEntity
  8
外形線
100
AcDbCircle
 10
227.5915972995554
 20
149.9339159083346
 30
0.0
 40
1.8
  0
CIRCLE
  5
695
330
18
100
AcDbEntity
  8
外形線
100
AcDbCircle
 10
227.5915972995554
 20
143.9339159083346
 30
0.0
 40
1.8
  0
LINE
  5
696
330
18
100
AcDbEntity
  8
想像線
 48
0.5
100
AcDbLine
 10
233.5915972995554
 20
167.0339159083345
 30
0.0
 11
211.5915972995554
 21
167.0339159083346
 31
0.0
  0
LINE
  5
697
330
18
100
AcDbEntity
  8
想像線
100
AcDbLine
 10
215.3303716439245
 20
158.6951415639656
 30
0.0
 11
213.8527671221232
 21
160.1727460857668
 31
0.0
  0
LINE
  5
698
330
18
100
AcDbEntity
  8
想像線
100
AcDbLine
 10
215.3407839902736
 20
160.1831025990528
 30
0.0
 11
213.815284663739
 21
158.6576032725182
 31
0.0
  0
CIRCLE
  5
699
330
18
100
AcDbEntity
  8
想像線
100
AcDbCircle
 10
214.5915972995553
 20
159.4339159083345
 30
0.0
 40
1.5
  0
LINE
  5
69A
330
18
100
AcDbEntity
  8
想像線
 48
0.5
100
AcDbLine
 10
211.5915972995554
 20
167.0339159083346
 30
0.0
 11
211.5915972995551
 21
157.0339159083346
 31
0.0
  0
LINE
  5
69B
330
18
100
AcDbEntity
  8
中心線
100
AcDbLine
 10
214.5915972995553
 20
156.9762200229666
 30
0.0
 11
214.5915972995553
 21
166.303140104851
 31
0.0
  0
LINE
  5
69C
330
18
100
AcDbEntity
  8
想像線
 48
0.5
100
AcDbLine
 10
217.5915972995554
 20
157.0339159083346
 30
0.0
 11
211.5915972995551
 21
157.0339159083346
 31
0.0
  0
LINE
  5
69D
330
18
100
AcDbEntity
  8
想像線
100
AcDbLine
 10
215.3303716439245
 20
163.6951415639657
 30
0.0
 11
213.8527671221232
 21
165.1727460857669
 31
0.0
  0
LINE
  5
69E
330
18
100
AcDbEntity
  8
想像線
100
AcDbLine
 10
215.3407839902734
 20
165.1831025990528
 30
0.0
 11
213.815284663739
 21
163.6576032725182
 31
0.0
  0
CIRCLE
  5
69F
330
18
100
AcDbEntity
  8
想像線
100
AcDbCircle
 10
214.5915972995553
 20
164.4339159083346
 30
0.0
 40
1.5
  0
LINE
  5
6A0
330
18
100
AcDbEntity
  8
中心線
100
AcDbLine
 10
216.6887701106234
 20
164.4339159083345
 30
0.0
 11
212.3631670958728
 21
164.4339159083345
 31
0.0
  0
LINE
  5
6A1
330
18
100
AcDbEntity
  8
中心線
100
AcDbLine
 10
216.8901996637453
 20
159.4339159083345
 30
0.0
 11
212.1092697551699
 21
159.4339159083345
 31
0.0
  0
LINE
  5
6A2
330
18
100
AcDbEntity
  8
想像線
 48
0.5
100
AcDbLine
 10
217.5915972995554
 20
167.0339159083345
 30
0.0
 11
217.5915972995551
 21
132.0339159083345
 31
0.0
  0
LINE
  5
6A3
330
18
100
AcDbEntity
  8
想像線
 48
0.5
100
AcDbLine
 10
233.5915972995554
 20
132.0339159083345
 30
0.0
 11
217.5915972995551
 21
132.0339159083345
 31
0.0
  0
LINE
  5
6A4
330
18
100
AcDbEntity
  8
想像線
 48
0.5
100
AcDbLine
 10
233.5915972995554
 20
167.0339159083345
 30
0.0
 11
233.5915972995554
 21
132.0339159083345
 31
0.0
  0
LINE
  5
6A5
330
18
100
AcDbEntity
  8
想像線
100
AcDbLine
 10
228.3303716439247
 20
149.1951415639657
 30
0.0
 11
226.8527671221233
 21
150.672746085767
 31
0.0
  0
LINE
  5
6A6
330
18
100
AcDbEntity
  8
想像線
100
AcDbLine
 10
228.3407839902736
 20
150.6831025990528
 30
0.0
 11
226.8152846637392
 21
149.1576032725182
 31
0.0
  0
LINE
  5
6A7
330
18
100
AcDbEntity
  8
想像線
100
AcDbLine
 10
228.3303716439244
 20
143.1951415639656
 30
0.0
 11
226.8527671221231
 21
144.6727460857669
 31
0.0
  0
LINE
  5
6A8
330
18
100
AcDbEntity
  8
想像線
100
AcDbLine
 10
228.3407839902735
 20
144.6831025990528
 30
0.0
 11
226.8152846637389
 21
143.1576032725182
 31
0.0
  0
POINT
  5
6A9
330
18
100
AcDbEntity
  8
DEFPOINTS
  6
ByBlock
 62
     0
100
AcDbPoint
 10
225.7716365301664
 20
159.5953798564076
 30
0.0
  0
LINE
  5
6AC
330
18
100
AcDbEntity
  8
外形線
100
AcDbLine
 10
251.7540802615424
 20
181.7974495255698
 30
0.0
 11
250.1185646978684
 21
161.02640186691
 31
0.0
  0
ARC
  5
6AD
330
18
100
AcDbEntity
  8
隠れ線2
100
AcDbCircle
 10
165.2765972995605
 20
187.6339159083345
 30
0.0
 40
37.49999999999489
100
AcDbArc
 50
354.3508276942384
 51
4.236017732967777
  0
ARC
  5
6AE
330
18
100
AcDbEntity
  8
隠れ線2
100
AcDbCircle
 10
255.1031363717759
 20
160.6339159083346
 30
0.0
 40
5.0
100
AcDbArc
 50
225.3875452190631
 51
270.0
  0
POINT
  5
6EC
330
18
100
AcDbEntity
  8
DEFPOINTS
  6
ByBlock
 62
     0
100
AcDbPoint
 10
52.52382909370908
 20
125.304111018429
 30
0.0
  0
LINE
  5
70C
330
18
100
AcDbEntity
  8
想像線
 48
0.5
100
AcDbLine
 10
71.42361830064323
 20
210.1549674203767
 30
0.0
 11
65.04329270173454
 21
213.0344543975847
 31
0.0
  0
ARC
  5
70D
330
18
100
AcDbEntity
  8
想像線
 48
0.5
100
AcDbCircle
 10
67.19552535495535
 20
212.8859782920654
 30
0.0
 40
1.25
100
AcDbArc
 50
335.7099999999998
 51
155.7099999999999
  0
LINE
  5
70E
330
18
100
AcDbEntity
  8
想像線
 48
0.5
100
AcDbLine
 10
66.05618149800736
 20
213.4001723951383
 30
0.0
 11
65.74766503616365
 21
212.7165660809695
 31
0.0
  0
LINE
  5
70F
330
18
100
AcDbEntity
  8
想像線
 48
0.5
100
AcDbLine
 10
68.33486921190331
 20
212.3717841889925
 30
0.0
 11
68.0263527500596
 21
211.6881778748238
 31
0.0
  0
LINE
  5
710
330
18
100
AcDbEntity
  8
想像線
 48
0.5
100
AcDbLine
 10
63.9326334390972
 20
210.5734716665771
 30
0.0
 11
65.04329270173454
 21
213.0344543975847
 31
0.0
  0
LINE
  5
71E
330
18
100
AcDbEntity
  8
0
  6
ByBlock
 62
     2
100
AcDbLine
 10
211.5915972995553
 20
143.9339159083347
 30
0.0
 11
52.72066616859169
 21
162.9082997344461
 31
0.0
  0
MTEXT
  5
71F
330
18
100
AcDbEntity
  8
0
  6
ByBlock
 62
     6
100
AcDbMText
 10
95.59364653555117
 20
159.6761893565649
 30
0.0
 40
2.5
 41
0.0
 71
     5
 72
     1
  1
\A1;R160
  7
STYLE3
 11
0.9929433195685229
 21
-0.118589898913197
 31
0.0
 73
     1
 44
1.0
  0
INSERT
  5
720
330
18
100
AcDbEntity
  8
0
  6
ByBlock
 62
     2
100
AcDbBlockReference
  2
_OPEN
 10
52.72066616859169
 20
162.9082997344461
 30
0.0
 41
2.5
 42
2.5
 43
2.5
 50
173.1892713715087
  0
POINT
  5
721
330
18
100
AcDbEntity
  8
DEFPOINTS
  6
ByBlock
 62
     0
100
AcDbPoint
 10
52.72066616859169
 20
162.9082997344461
 30
0.0
  0
POINT
  5
722
330
18
100
AcDbEntity
  8
DEFPOINTS
  6
ByBlock
 62
     0
100
AcDbPoint
 10
211.5915972995554
 20
143.9339159083346
 30
0.0
  0
ARC
  5
726
330
18
100
AcDbEntity
  8
寸法線
100
AcDbCircle
 10
211.5915972995554
 20
143.9339159083346
 30
0.0
 40
16.0
100
AcDbArc
 50
310.9454876282129
 51
37.53249818862395
  0
LINE
  5
730
330
18
100
AcDbEntity
  8
0
  6
ByBlock
 62
     2
100
AcDbLine
 10
211.5915972995553
 20
143.9339159083345
 30
0.0
 11
223.4035195431445
 21
133.1413956784994
 31
0.0
  0
INSERT
  5
732
330
18
100
AcDbEntity
  8
0
  6
ByBlock
 62
     2
100
AcDbBlockReference
  2
_OPEN
 10
223.4035195431445
 20
133.1413956784994
 30
0.0
 41
2.5
 42
2.5
 43
2.5
 50
317.5821422240093
  0
POINT
  5
733
330
18
100
AcDbEntity
  8
DEFPOINTS
  6
ByBlock
 62
     0
100
AcDbPoint
 10
223.4035195431445
 20
133.1413956784994
 30
0.0
  0
POINT
  5
734
330
18
100
AcDbEntity
  8
DEFPOINTS
  6
ByBlock
 62
     0
100
AcDbPoint
 10
211.5915972995553
 20
143.9339159083346
 30
0.0
  0
TEXT
  5
735
330
18
100
AcDbEntity
  8
寸法線
 62
     6
100
AcDbText
 10
219.342308627456
 20
137.6879654270482
 30
0.0
 40
2.5
  1
R16
 50
317.5821422240093
 41
0.8
  7
STYLE3
100
AcDbText
  0
LINE
  5
788
330
18
100
AcDbEntity
  8
0
  6
ByBlock
 62
     2
100
AcDbLine
 10
48.47585592055461
 20
134.3810909314994
 30
0.0
 11
44.19674438269666
 21
134.0067171819738
 31
0.0
  0
LINE
  5
78A
330
18
100
AcDbEntity
  8
0
  6
ByBlock
 62
     2
100
AcDbLine
 10
45.22409839844219
 20
136.6061486056378
 30
0.0
 11
45.00620904157304
 21
139.0966353508671
 31
0.0
  0
MTEXT
  5
78D
330
18
100
AcDbEntity
  8
0
  6
ByBlock
 62
     6
100
AcDbMText
 10
44.71325760704049
 20
119.8163587539594
 30
0.0
 40
2.5
 41
0.0
 71
     4
 72
     1
  1
\A1;2
  7
STYLE3
 11
-0.0871557427476618
 21
0.9961946980917451
 31
0.0
 73
     1
 44
1.0
  0
LINE
  5
78E
330
18
100
AcDbEntity
  8
0
  6
ByBlock
 62
     2
100
AcDbLine
 10
45.61629924080668
 20
132.1232724642247
 30
0.0
 11
45.44198775531135
 21
134.1156618604084
 31
0.0
  0
LINE
  5
78F
330
18
100
AcDbEntity
  8
0
  6
ByBlock
 62
     2
100
AcDbLine
 10
45.61629924080668
 20
132.1232724642247
 30
0.0
 11
45.44198775531135
 21
134.1156618604084
 31
0.0
  0
INSERT
  5
791
330
18
100
AcDbEntity
  8
0
  6
ByBlock
 62
     2
100
AcDbBlockReference
  2
_OPEN
 10
45.44198775531135
 20
134.1156618604084
 30
0.0
 41
2.5
 42
2.5
 43
2.5
 50
275.0000000000002
  0
POINT
  5
792
330
18
100
AcDbEntity
  8
DEFPOINTS
  6
ByBlock
 62
     0
100
AcDbPoint
 10
49.97273570327386
 20
132.5044112680616
 30
0.0
 50
264.9999999999998
  0
POINT
  5
793
330
18
100
AcDbEntity
  8
DEFPOINTS
  6
ByBlock
 62
     0
100
AcDbPoint
 10
48.47585592055461
 20
134.3810909314994
 30
0.0
 50
264.9999999999998
  0
POINT
  5
794
330
18
100
AcDbEntity
  8
DEFPOINTS
  6
ByBlock
 62
     0
100
AcDbPoint
 10
45.44198775531135
 20
134.1156618604084
 30
0.0
 50
264.9999999999998
  0
LINE
  5
795
330
18
100
AcDbEntity
  8
0
  6
ByBlock
 62
     2
100
AcDbLine
 10
49.97273570327386
 20
132.5044112680616
 30
0.0
 11
44.371055868192
 21
132.0143277857902
 31
0.0
  0
LINE
  5
796
330
18
100
AcDbEntity
  8
0
  6
ByBlock
 62
     2
100
AcDbLine
 10
46.30482960851321
 20
124.2533343492999
 30
0.0
 11
46.52271896538237
 21
121.7628476040705
 31
0.0
  0
LINE
  5
797
330
18
100
AcDbEntity
  8
0
  6
ByBlock
 62
     2
100
AcDbLine
 10
45.39840988393751
 20
134.6137592094541
 30
0.0
 11
45.18052052706837
 21
137.1042459546835
 31
0.0
  0
POINT
  5
79F
330
18
100
AcDbEntity
  8
DEFPOINTS
  6
ByBlock
 62
     0
100
AcDbPoint
 10
50.44337671411124
 20
127.1249598983661
 30
0.0
 50
264.9999999999998
  0
POINT
  5
7A0
330
18
100
AcDbEntity
  8
DEFPOINTS
  6
ByBlock
 62
     0
100
AcDbPoint
 10
49.97273570327386
 20
132.5044112680616
 30
0.0
 50
264.9999999999998
  0
POINT
  5
7A1
330
18
100
AcDbEntity
  8
DEFPOINTS
  6
ByBlock
 62
     0
100
AcDbPoint
 10
45.61629924080668
 20
132.1232724642248
 30
0.0
 50
264.9999999999998
  0
LINE
  5
7A2
330
18
100
AcDbEntity
  8
0
  6
ByBlock
 62
     2
100
AcDbLine
 10
47.87063656501699
 20
124.8922346260356
 30
0.0
 11
45.01600836452472
 21
124.6424870199112
 31
0.0
  0
LINE
  5
7A3
330
18
100
AcDbEntity
  8
0
  6
ByBlock
 62
     2
100
AcDbLine
 10
50.44337671411122
 20
127.1249598983661
 30
0.0
 11
44.8416968790294
 21
126.6348764160947
 31
0.0
  0
LINE
  5
7A4
330
18
100
AcDbEntity
  8
0
  6
ByBlock
 62
     2
100
AcDbLine
 10
46.47914109400855
 20
122.2609449531164
 30
0.0
 11
46.69703045087771
 21
119.770458207887
 31
0.0
  0
LINE
  5
7A6
330
18
100
AcDbEntity
  8
0
  6
ByBlock
 62
     2
100
AcDbLine
 10
46.2612517371394
 20
124.7514316983458
 30
0.0
 11
46.08694025164408
 21
126.7438210945293
 31
0.0
  0
INSERT
  5
7A7
330
18
100
AcDbEntity
  8
0
  6
ByBlock
 62
     2
100
AcDbBlockReference
  2
_OPEN
 10
46.2612517371394
 20
124.7514316983458
 30
0.0
 41
2.5
 42
2.5
 43
2.5
 50
95.00000000000019
  0
MTEXT
  5
7A9
330
18
100
AcDbEntity
  8
0
  6
ByBlock
 62
     6
100
AcDbMText
 10
43.21281596336823
 20
138.0819996985272
 30
0.0
 40
2.5
 41
0.0
 71
     5
 72
     1
  1
\A1;2
  7
STYLE3
 11
-0.0871557427476618
 21
0.9961946980917451
 31
0.0
 73
     1
 44
1.0
  0
POINT
  5
7AA
330
18
100
AcDbEntity
  8
DEFPOINTS
  6
ByBlock
 62
     0
100
AcDbPoint
 10
47.87063656501699
 20
124.8922346260356
 30
0.0
 50
264.9999999999998
  0
POINT
  5
7AB
330
18
100
AcDbEntity
  8
DEFPOINTS
  6
ByBlock
 62
     0
100
AcDbPoint
 10
50.44337671411122
 20
127.1249598983661
 30
0.0
 50
264.9999999999998
  0
POINT
  5
7AC
330
18
100
AcDbEntity
  8
DEFPOINTS
  6
ByBlock
 62
     0
100
AcDbPoint
 10
46.08694025164408
 20
126.7438210945293
 30
0.0
 50
264.9999999999998
  0
LINE
  5
7AD
330
18
100
AcDbEntity
  8
0
  6
ByBlock
 62
     2
100
AcDbLine
 10
51.81350979031569
 20
134.6730978078769
 30
0.0
 11
39.58864263616492
 21
133.6035605187782
 31
0.0
  0
LINE
  5
7AE
330
18
100
AcDbEntity
  8
0
  6
ByBlock
 62
     2
100
AcDbLine
 10
52.63277377214365
 20
125.3088676458144
 30
0.0
 11
40.40790661799294
 21
124.2393303567157
 31
0.0
  0
LINE
  5
7AF
330
18
100
AcDbEntity
  8
0
  6
ByBlock
 62
     2
100
AcDbLine
 10
41.05177536564875
 20
131.2220184519834
 30
0.0
 11
41.43526063373847
 21
126.8387617803796
 31
0.0
  0
INSERT
  5
7B0
330
18
100
AcDbEntity
  8
0
  6
ByBlock
 62
     2
100
AcDbBlockReference
  2
_OPEN
 10
40.8338860087796
 20
133.7125051972128
 30
0.0
 41
2.5
 42
2.5
 43
2.5
 50
95.00000000000019
  0
INSERT
  5
7B1
330
18
100
AcDbEntity
  8
0
  6
ByBlock
 62
     2
100
AcDbBlockReference
  2
_OPEN
 10
41.65314999060763
 20
124.3482750351503
 30
0.0
 41
2.5
 42
2.5
 43
2.5
 50
275.0000000000002
  0
MTEXT
  5
7B2
330
18
100
AcDbEntity
  8
0
  6
ByBlock
 62
     6
100
AcDbMText
 10
38.87241395326677
 20
130.3755141802623
 30
0.0
 40
2.5
 41
0.0
 71
     5
 72
     1
  1
10
  7
STYLE3
 11
-0.0871557427476616
 21
0.9961946980917451
 31
0.0
 73
     1
 44
1.0
  0
POINT
  5
7B3
330
18
100
AcDbEntity
  8
DEFPOINTS
  6
ByBlock
 62
     0
100
AcDbPoint
 10
51.81350979031569
 20
134.6730978078769
 30
0.0
 50
264.9999999999998
  0
POINT
  5
7B4
330
18
100
AcDbEntity
  8
DEFPOINTS
  6
ByBlock
 62
     0
100
AcDbPoint
 10
52.63277377214365
 20
125.3088676458144
 30
0.0
 50
264.9999999999998
  0
POINT
  5
7B5
330
18
100
AcDbEntity
  8
DEFPOINTS
  6
ByBlock
 62
     0
100
AcDbPoint
 10
41.65314999060763
 20
124.3482750351503
 30
0.0
 50
264.9999999999998
  0
LINE
  5
7BC
330
18
100
AcDbEntity
  8
0
  6
ByBlock
 62
     2
100
AcDbLine
 10
45.45481853246662
 20
130.0540698607968
 30
0.0
 11
45.61629924080668
 21
132.1232724642247
 31
0.0
  0
LINE
  5
7BD
330
18
100
AcDbEntity
  8
0
  6
ByBlock
 62
     2
100
AcDbLine
 10
45.61629924080668
 20
132.1232724642247
 30
0.0
 11
46.13116996544468
 21
130.1270004771069
 31
0.0
  0
LINE
  5
7BE
330
18
100
AcDbEntity
  8
0
  6
ByBlock
 62
     2
100
AcDbLine
 10
45.61629924080668
 20
132.1232724642247
 30
0.0
 11
45.83418859767583
 21
129.6327857189953
 31
0.0
  0
LINE
  5
7BF
330
18
100
AcDbEntity
  8
0
  6
ByBlock
 62
     2
100
AcDbLine
 10
46.23956418714714
 20
128.6995336247424
 30
0.0
 11
46.08694025164408
 21
126.7438210945293
 31
0.0
  0
LINE
  5
7C0
330
18
100
AcDbEntity
  8
0
  6
ByBlock
 62
     2
100
AcDbLine
 10
46.08694025164408
 20
126.7438210945293
 30
0.0
 11
45.58955911680501
 21
128.672281927291
 31
0.0
  0
LINE
  5
7C1
330
18
100
AcDbEntity
  8
0
  6
ByBlock
 62
     2
100
AcDbLine
 10
46.08694025164408
 20
126.7438210945293
 30
0.0
 11
45.86905089477491
 21
129.2343078397587
 31
0.0
  0
LINE
  5
7C6
330
18
100
AcDbEntity
  8
隠れ線2
100
AcDbLine
 10
222.5915972995553
 20
155.9339159083346
 30
0.0
 11
232.5915972995554
 21
155.9339159083346
 31
0.0
  0
LINE
  5
7C7
330
18
100
AcDbEntity
  8
0
  6
ByBlock
 62
     2
100
AcDbLine
 10
50.67721109613549
 20
133.3189097568276
 30
0.0
 11
49.84034065536249
 21
142.8843826654976
 31
0.0
  0
LINE
  5
7C8
330
18
100
AcDbEntity
  8
0
  6
ByBlock
 62
     2
100
AcDbLine
 10
53.16769784136491
 20
133.5367991136967
 30
0.0
 11
52.33082740059188
 21
143.1022720223668
 31
0.0
  0
LINE
  5
7C9
330
18
100
AcDbEntity
  8
0
  6
ByBlock
 62
     2
100
AcDbLine
 10
47.45879858856771
 20
141.4212499360137
 30
0.0
 11
44.96831184333835
 21
141.2033605791446
 31
0.0
  0
LINE
  5
7CA
330
18
100
AcDbEntity
  8
0
  6
ByBlock
 62
     2
100
AcDbLine
 10
54.93025882425583
 20
142.0749180066212
 30
0.0
 11
69.91701630541388
 21
143.386089389235
 31
0.0
  0
LINE
  5
7CB
330
18
100
AcDbEntity
  8
0
  6
ByBlock
 62
     2
100
AcDbLine
 10
49.94928533379708
 20
141.6391392928829
 30
0.0
 11
52.43977207902647
 21
141.8570286497521
 31
0.0
  0
INSERT
  5
7CC
330
18
100
AcDbEntity
  8
0
  6
ByBlock
 62
     2
100
AcDbBlockReference
  2
_OPEN
 10
49.94928533379708
 20
141.6391392928829
 30
0.0
 41
2.5
 42
2.5
 43
2.5
 50
5.000000000000198
  0
INSERT
  5
7CD
330
18
100
AcDbEntity
  8
0
  6
ByBlock
 62
     2
100
AcDbBlockReference
  2
_OPEN
 10
52.43977207902647
 20
141.8570286497521
 30
0.0
 41
2.5
 42
2.5
 43
2.5
 50
185.0000000000001
  0
MTEXT
  5
7CE
330
18
100
AcDbEntity
  8
0
  6
ByBlock
 62
     6
100
AcDbMText
 10
61.90354320370869
 20
144.4434098021593
 30
0.0
 40
2.5
 41
0.0
 71
     5
 72
     1
  1
2-φ2.5
  7
STYLE3
 11
0.9961946980917451
 21
0.0871557427476616
 31
0.0
 73
     1
 44
1.0
  0
POINT
  5
7CF
330
18
100
AcDbEntity
  8
DEFPOINTS
  6
ByBlock
 62
     0
100
AcDbPoint
 10
50.67721109613549
 20
133.3189097568276
 30
0.0
 50
84.9999999999998
  0
POINT
  5
7D0
330
18
100
AcDbEntity
  8
DEFPOINTS
  6
ByBlock
 62
     0
100
AcDbPoint
 10
53.16769784136491
 20
133.5367991136967
 30
0.0
 50
84.9999999999998
  0
POINT
  5
7D1
330
18
100
AcDbEntity
  8
DEFPOINTS
  6
ByBlock
 62
     0
100
AcDbPoint
 10
52.43977207902647
 20
141.8570286497521
 30
0.0
 50
84.9999999999998
  0
POINT
  5
7E1
330
18
100
AcDbEntity
  8
DEFPOINTS
  6
ByBlock
 62
     0
100
AcDbPoint
 10
52.15734288465455
 20
125.3590428787095
 30
0.0
  0
POINT
  5
7E2
330
18
100
AcDbEntity
  8
DEFPOINTS
  6
ByBlock
 62
     0
100
AcDbPoint
 10
52.52382909370908
 20
126.554111018429
 30
0.0
  0
LINE
  5
816
330
18
100
AcDbEntity
  8
目盛
100
AcDbLine
 10
236.058462011303
 20
171.0490567329048
 30
0.0
 11
235.3222129059336
 21
172.9086097046813
 31
0.0
  0
LINE
  5
817
330
18
100
AcDbEntity
  8
目盛
100
AcDbLine
 10
229.0357792487295
 20
169.4793011544843
 30
0.0
 11
228.9101982096708
 21
171.4753546113409
 31
0.0
  0
LINE
  5
818
330
18
100
AcDbEntity
  8
目盛
100
AcDbLine
 10
230.4742616715344
 20
169.6152777781016
 30
0.0
 11
230.2235952044057
 21
171.5995071807306
 31
0.0
  0
LINE
  5
819
330
18
100
AcDbEntity
  8
目盛
100
AcDbLine
 10
231.901367535027
 20
169.8413091415748
 30
0.0
 11
231.5266049058556
 21
171.8058836430322
 31
0.0
  0
LINE
  5
81A
330
18
100
AcDbEntity
  8
目盛
100
AcDbLine
 10
233.3114647043469
 20
170.1565032023761
 30
0.0
 11
232.8140849300173
 21
172.0936695246333
 31
0.0
  0
LINE
  5
81B
330
18
100
AcDbEntity
  8
目盛
100
AcDbLine
 10
221.8717298947638
 20
170.1565032023761
 30
0.0
 11
222.3691096690934
 21
172.0936695246333
 31
0.0
  0
LINE
  5
81C
330
18
100
AcDbEntity
  8
目盛
100
AcDbLine
 10
223.2818270640837
 20
169.8413091415747
 30
0.0
 11
223.6565896932552
 21
171.8058836430321
 31
0.0
  0
LINE
  5
81D
330
18
100
AcDbEntity
  8
目盛
100
AcDbLine
 10
224.7089329275764
 20
169.6152777781016
 30
0.0
 11
224.959599394705
 21
171.5995071807305
 31
0.0
  0
LINE
  5
81E
330
18
100
AcDbEntity
  8
目盛
100
AcDbLine
 10
226.1474153503812
 20
169.4793011544843
 30
0.0
 11
226.2729963894397
 21
171.4753546113409
 31
0.0
  0
LINE
  5
81F
330
18
100
AcDbEntity
  8
目盛
100
AcDbLine
 10
227.5915972995554
 20
172.4339159083346
 30
0.0
 11
227.5915972995554
 21
169.4339159083346
 31
0.0
  0
LINE
  5
820
330
18
100
AcDbEntity
  8
目盛
100
AcDbLine
 10
219.1247325878078
 20
171.0490567329047
 30
0.0
 11
219.8609816931771
 21
172.9086097046813
 31
0.0
  0
LINE
  5
821
330
18
100
AcDbEntity
  8
目盛
100
AcDbLine
 10
220.4842064289315
 20
170.559616033546
 30
0.0
 11
221.4112574120564
 21
173.4127855824315
 31
0.0
  0
CIRCLE
  5
822
330
18
100
AcDbEntity
  8
外形線
100
AcDbCircle
 10
227.5915972995554
 20
192.4339159083346
 30
0.0
 40
23.0
  0
LINE
  5
823
330
18
100
AcDbEntity
  8
目盛
100
AcDbLine
 10
234.6989881701792
 20
170.5596160335461
 30
0.0
 11
233.7719371870544
 21
173.4127855824315
 31
0.0
  0
LINE
  5
824
330
18
100
AcDbEntity
  8
外形線
  6
Continuous
100
AcDbLine
 10
231.5915972995553
 20
226.4339159083345
 30
0.0
 11
231.5915972995553
 21
220.4339159083345
 31
0.0
  0
LINE
  5
825
330
18
100
AcDbEntity
  8
外形線
  6
Continuous
100
AcDbLine
 10
223.5915972995554
 20
226.4339159083345
 30
0.0
 11
223.5915972995554
 21
220.4339159083345
 31
0.0
  0
HATCH
  5
826
330
18
100
AcDbEntity
  8
ﾊｯﾁﾝｸ
  6
Continuous
100
AcDbHatch
 10
0.0
 20
0.0
 30
0.0
210
0.0
220
0.0
230
1.0
  2
ANSI37
 70
     0
 71
     0
 91
        1
 92
        7
 72
     0
 73
     1
 93
        4
 10
227.5915972995554
 20
226.4339159083345
 10
223.5915972995554
 20
226.4339159083345
 10
223.5915972995554
 20
220.4339159083345
 10
227.5915972995554
 20
220.4339159083345
 97
        0
 75
     0
 76
     1
 52
0.0
 41
10.0
 77
     0
 78
     2
 53
45.0
 43
35.11859316309722
 44
71.31497767453516
 45
-0.8838834764831842
 46
0.8838834764831844
 79
     0
 53
135.0
 43
35.11859316309722
 44
71.31497767453516
 45
-0.8838834764831844
 46
-0.8838834764831842
 79
     0
 47
0.1856754751158765
 98
        1
 10
225.8447495165993
 20
224.209961952521
  0
LINE
  5
827
330
18
100
AcDbEntity
  8
外形線
  6
Continuous
100
AcDbLine
 10
223.5915972995553
 20
220.4339159083345
 30
0.0
 11
231.5915972995553
 21
220.4339159083345
 31
0.0
  0
LINE
  5
828
102
{ACAD_REACTORS
330
82E
102
}
330
18
100
AcDbEntity
  8
ROGO
 62
     4
100
AcDbLine
 10
222.8396115916442
 20
200.4857376188836
 30
0.0
 11
224.6156947401281
 21
200.4857376188836
 31
0.0
  0
LINE
  5
829
102
{ACAD_REACTORS
330
82E
102
}
330
18
100
AcDbEntity
  8
ROGO
 62
     4
100
AcDbLine
 10
224.1831280214356
 20
201.498080218749
 30
0.0
 11
225.1165924436536
 21
201.498080218749
 31
0.0
  0
LINE
  5
82A
102
{ACAD_REACTORS
330
82E
102
}
330
18
100
AcDbEntity
  8
ROGO
 62
     4
100
AcDbLine
 10
224.0667581753592
 20
201.2628901755649
 30
0.0
 11
225.0002225975771
 21
201.2628901755649
 31
0.0
  0
LINE
  5
82B
102
{ACAD_REACTORS
330
82E
102
}
330
18
100
AcDbEntity
  8
ROGO
 62
     4
100
AcDbLine
 10
223.831057027119
 20
200.7865248188837
 30
0.0
 11
224.764521449337
 21
200.7865248188837
 31
0.0
  0
LINE
  5
82C
102
{ACAD_REACTORS
330
82E
102
}
330
18
100
AcDbEntity
  8
ROGO
 62
     4
100
AcDbLine
 10
223.9474317997353
 20
201.0217248188836
 30
0.0
 11
224.8808962219533
 21
201.0217248188836
 31
0.0
  0
LINE
  5
82D
102
{ACAD_REACTORS
330
82E
102
}
330
18
100
AcDbEntity
  8
ROGO
 62
     4
100
AcDbLine
 10
223.4893434909043
 20
201.7988825494411
 30
0.0
 11
225.2654266393882
 21
201.7988825494411
 31
0.0
  0
HATCH
  5
82E
330
18
100
AcDbEntity
  8
ROGO
 62
     4
100
AcDbHatch
 10
0.0
 20
0.0
 30
0.0
210
0.0
220
0.0
230
1.0
  2
SOLID
 70
     1
 71
     1
 91
        1
 92
        1
 93
       12
 72
     1
 10
223.4893434909043
 20
201.7988825494411
 11
225.2654266393882
 21
201.7988825494411
 72
     1
 10
225.2654266393882
 20
201.7988825494411
 11
225.1165924436536
 21
201.498080218749
 72
     1
 10
225.1165924436536
 20
201.498080218749
 11
224.1831280214356
 21
201.498080218749
 72
     1
 10
224.1831280214356
 20
201.498080218749
 11
224.0667581753592
 21
201.2628901755649
 72
     1
 10
224.0667581753592
 20
201.2628901755649
 11
225.0002225975771
 21
201.2628901755649
 72
     1
 10
225.0002225975771
 20
201.2628901755649
 11
224.8808962219533
 21
201.0217248188836
 72
     1
 10
224.8808962219533
 20
201.0217248188836
 11
223.9474317997353
 21
201.0217248188836
 72
     1
 10
223.9474317997353
 20
201.0217248188836
 11
223.831057027119
 21
200.7865248188837
 72
     1
 10
223.831057027119
 20
200.7865248188837
 11
224.764521449337
 21
200.7865248188837
 72
     1
 10
224.764521449337
 20
200.7865248188837
 11
224.6156947401281
 21
200.4857376188836
 72
     1
 10
224.6156947401281
 20
200.4857376188836
 11
222.8396115916442
 21
200.4857376188836
 72
     1
 10
222.8396115916442
 20
200.4857376188836
 11
223.4893434909043
 21
201.7988825494411
 97
       12
330
82D
330
8B7
330
829
330
86E
330
82A
330
8B8
330
82C
330
86F
330
82B
330
8B9
330
828
330
86D
 75
     0
 76
     1
 98
        1
 10
150.8392145121953
 20
111.0007865013298
450
        0
451
        0
460
0.0
461
0.0
452
        0
462
0.0
453
        0
470

  0
LINE
  5
82F
102
{ACAD_REACTORS
330
8E0
330
86A
102
}
330
18
100
AcDbEntity
  8
ROGO
 62
     4
100
AcDbLine
 10
219.9089706446208
 20
199.7470037645351
 30
0.0
 11
233.7981479116447
 21
199.7470037645351
 31
0.0
  0
LINE
  5
830
330
18
100
AcDbEntity
  8
ROGO
 62
     4
100
AcDbLine
 10
220.9415591890627
 20
199.9526739708263
 30
0.0
 11
233.1446179765266
 21
199.9526739708263
 31
0.0
  0
HATCH
  5
831
330
18
100
AcDbEntity
  8
ROGO
 62
     4
100
AcDbHatch
 10
0.0
 20
0.0
 30
0.0
210
0.0
220
0.0
230
1.0
  2
SOLID
 70
     1
 71
     0
 91
        1
 92
        7
 72
     0
 73
     1
 93
        4
 10
220.9558226359793
 20
199.9526739708263
 10
220.8627716005574
 20
199.7470037645351
 10
233.0420641691404
 20
199.747003764535
 10
233.1446179765266
 20
199.9526739708263
 97
        0
 75
     0
 76
     1
 47
0.0514683685270805
 98
        1
 10
228.6520578968676
 20
199.8982775066216
450
        0
451
        0
460
0.0
461
0.0
452
        0
462
0.0
453
        0
470

  0
CIRCLE
  5
838
330
18
100
AcDbEntity
  8
外形線
100
AcDbCircle
 10
227.5915972995554
 20
192.4339159083346
 30
0.0
 40
15.5
  0
LINE
  5
839
330
18
100
AcDbEntity
  8
目盛
100
AcDbLine
 10
205.7172974247669
 20
185.3265250377108
 30
0.0
 11
208.5704669736522
 21
186.2535760208356
 31
0.0
  0
LINE
  5
83A
330
18
100
AcDbEntity
  8
目盛
100
AcDbLine
 10
206.2067381241255
 20
183.9670511965869
 30
0.0
 11
208.066291095902
 21
184.7033003019563
 31
0.0
  0
LINE
  5
83B
330
18
100
AcDbEntity
  8
目盛
100
AcDbLine
 10
206.7805750928369
 20
182.6409922023379
 30
0.0
 11
208.5902291977689
 21
183.492550785468
 31
0.0
  0
LINE
  5
83C
330
18
100
AcDbEntity
  8
目盛
100
AcDbLine
 10
207.4365436585465
 20
181.3535814039951
 30
0.0
 11
209.1891570186342
 21
182.3170887521985
 31
0.0
  0
LINE
  5
83D
330
18
100
AcDbEntity
  8
目盛
100
AcDbLine
 10
204.7729591693224
 20
189.5512515363556
 30
0.0
 11
206.7571885719514
 21
189.8019180034842
 31
0.0
  0
LINE
  5
83E
330
18
100
AcDbEntity
  8
目盛
100
AcDbLine
 10
204.9989905327954
 20
188.1241456728629
 30
0.0
 11
206.9635650342527
 21
188.4989083020344
 31
0.0
  0
LINE
  5
83F
330
18
100
AcDbEntity
  8
目盛
100
AcDbLine
 10
205.3141845935968
 20
186.7140485035429
 30
0.0
 11
207.2513509158541
 21
187.2114282778726
 31
0.0
  0
LINE
  5
840
330
18
100
AcDbEntity
  8
目盛
100
AcDbLine
 10
204.9989905327954
 20
196.7436861438062
 30
0.0
 11
206.9635650342529
 21
196.3689235146348
 31
0.0
  0
LINE
  5
841
330
18
100
AcDbEntity
  8
目盛
100
AcDbLine
 10
204.7729591693224
 20
195.3165802803136
 30
0.0
 11
206.7571885719512
 21
195.065913813185
 31
0.0
  0
LINE
  5
842
330
18
100
AcDbEntity
  8
目盛
100
AcDbLine
 10
204.636982545705
 20
193.8780978575088
 30
0.0
 11
206.6330360025615
 21
193.7525168184502
 31
0.0
  0
LINE
  5
843
330
18
100
AcDbEntity
  8
目盛
100
AcDbLine
 10
204.636982545705
 20
190.9897339591604
 30
0.0
 11
206.6330360025615
 21
191.115314998219
 31
0.0
  0
LINE
  5
844
330
18
100
AcDbEntity
  8
目盛
100
AcDbLine
 10
204.5915972995554
 20
192.4339159083346
 30
0.0
 11
207.5915972995554
 21
192.4339159083346
 31
0.0
  0
LINE
  5
847
330
18
100
AcDbEntity
  8
目盛
100
AcDbLine
 10
215.2675810150384
 20
173.0143736217882
 30
0.0
 11
216.3392346049964
 21
174.7030294727922
 31
0.0
  0
LINE
  5
848
330
18
100
AcDbEntity
  8
目盛
100
AcDbLine
 10
209.8697927157121
 20
177.7731641441147
 30
0.0
 11
211.4108192012637
 21
179.0480121236121
 31
0.0
  0
LINE
  5
849
330
18
100
AcDbEntity
  8
目盛
100
AcDbLine
 10
210.8253188688629
 20
176.6893324719747
 30
0.0
 11
212.2832561237057
 21
178.058426683832
 31
0.0
  0
LINE
  5
84A
330
18
100
AcDbEntity
  8
目盛
100
AcDbLine
 10
211.8470138631955
 20
175.667637477642
 30
0.0
 11
213.2161080750528
 21
177.1255747324849
 31
0.0
  0
LINE
  5
84B
330
18
100
AcDbEntity
  8
目盛
100
AcDbLine
 10
212.9308455353355
 20
174.7121113244913
 30
0.0
 11
214.2056935148328
 21
176.2531378100429
 31
0.0
  0
LINE
  5
84C
330
18
100
AcDbEntity
  8
目盛
100
AcDbLine
 10
214.0725364968284
 20
173.8265250377108
 30
0.0
 11
215.8358922537059
 21
176.2535760208356
 31
0.0
  0
LINE
  5
84D
330
18
100
AcDbEntity
  8
目盛
100
AcDbLine
 10
208.172055013009
 20
180.1098996238177
 30
0.0
 11
209.8607108640131
 21
181.1815532137756
 31
0.0
  0
LINE
  5
84E
330
18
100
AcDbEntity
  8
目盛
100
AcDbLine
 10
208.9842064289316
 20
178.9148551056076
 30
0.0
 11
211.4112574120563
 21
180.6782108624851
 31
0.0
  0
LINE
  5
84F
330
18
100
AcDbEntity
  8
目盛
100
AcDbLine
 10
216.511262795216
 20
172.2788622673257
 30
0.0
 11
217.4747701434194
 21
174.0314756274134
 31
0.0
  0
LINE
  5
850
330
18
100
AcDbEntity
  8
目盛
100
AcDbLine
 10
217.7986735935588
 20
171.6228937016161
 30
0.0
 11
218.6502321766889
 21
173.4325478065482
 31
0.0
  0
LINE
  5
85A
330
18
100
AcDbEntity
  8
目盛
100
AcDbLine
 10
207.4365436585465
 20
203.5142504126741
 30
0.0
 11
209.1891570186342
 21
202.5507430644706
 31
0.0
  0
LINE
  5
85B
330
18
100
AcDbEntity
  8
目盛
100
AcDbLine
 10
206.7805750928369
 20
202.2268396143313
 30
0.0
 11
208.5902291977689
 21
201.3752810312011
 31
0.0
  0
LINE
  5
85C
330
18
100
AcDbEntity
  8
目盛
100
AcDbLine
 10
206.2067381241254
 20
200.9007806200822
 30
0.0
 11
208.066291095902
 21
200.1645315147129
 31
0.0
  0
LINE
  5
85D
330
18
100
AcDbEntity
  8
目盛
100
AcDbLine
 10
205.7172974247667
 20
199.5413067789584
 30
0.0
 11
208.5704669736522
 21
198.6142557958336
 31
0.0
  0
LINE
  5
85E
330
18
100
AcDbEntity
  8
目盛
100
AcDbLine
 10
205.3141845935968
 20
198.1537833131262
 30
0.0
 11
207.2513509158541
 21
197.6564035387965
 31
0.0
  0
LINE
  5
85F
330
18
100
AcDbEntity
  8
目盛
100
AcDbLine
 10
215.2675810150384
 20
211.8534581948809
 30
0.0
 11
216.3392346049964
 21
210.1648023438769
 31
0.0
  0
LINE
  5
860
330
18
100
AcDbEntity
  8
目盛
100
AcDbLine
 10
214.0725364968284
 20
211.0413067789584
 30
0.0
 11
215.8358922537059
 21
208.6142557958336
 31
0.0
  0
LINE
  5
862
330
18
100
AcDbEntity
  8
目盛
100
AcDbLine
 10
208.172055013009
 20
204.7579321928515
 30
0.0
 11
209.8607108640131
 21
203.6862786028935
 31
0.0
  0
LINE
  5
864
330
18
100
AcDbEntity
  8
目盛
100
AcDbLine
 10
210.8253188688628
 20
208.1784993446945
 30
0.0
 11
212.2832561237057
 21
206.8094051328371
 31
0.0
  0
LINE
  5
865
330
18
100
AcDbEntity
  8
目盛
100
AcDbLine
 10
211.8470138631955
 20
209.2001943390271
 30
0.0
 11
213.2161080750529
 21
207.7422570841843
 31
0.0
  0
LINE
  5
866
330
18
100
AcDbEntity
  8
目盛
100
AcDbLine
 10
209.8697927157123
 20
207.0946676725545
 30
0.0
 11
211.4108192012637
 21
205.8198196930571
 31
0.0
  0
LINE
  5
867
330
18
100
AcDbEntity
  8
目盛
100
AcDbLine
 10
208.9842064289314
 20
205.9529767110614
 30
0.0
 11
211.4112574120563
 21
204.189620954184
 31
0.0
  0
LINE
  5
868
330
18
100
AcDbEntity
  8
目盛
100
AcDbLine
 10
212.9308455353355
 20
210.1557204921778
 30
0.0
 11
214.2056935148328
 21
208.6146940066262
 31
0.0
  0
LINE
  5
869
102
{ACAD_REACTORS
330
86A
102
}
330
18
100
AcDbEntity
  8
ROGO
 62
     4
100
AcDbLine
 10
220.9242211847135
 20
201.7988825494411
 30
0.0
 11
219.9089706446208
 21
199.747003764535
 31
0.0
  0
HATCH
  5
86A
330
18
100
AcDbEntity
  8
ROGO
 62
     4
100
AcDbHatch
 10
0.0
 20
0.0
 30
0.0
210
0.0
220
0.0
230
1.0
  2
SOLID
 70
     1
 71
     1
 91
        2
 92
        5
 93
        6
 72
     1
 10
219.9089706446208
 20
199.7470037645351
 11
220.8627716005573
 21
199.7470037645351
 72
     1
 10
220.8627716005573
 20
199.7470037645351
 11
221.1969957513858
 21
200.4857376188836
 72
     1
 10
221.1969957513858
 20
200.4857376188836
 11
222.0886040195579
 21
200.4857376188836
 72
     4
 94
        3
 73
     0
 74
     0
 95
       18
 96
       14
 40
0.108740278791501
 40
0.108740278791501
 40
0.108740278791501
 40
0.108740278791501
 40
0.6623149649549278
 40
1.384304701649787
 40
2.097394834876493
 40
2.774073369849618
 40
3.428974823686337
 40
4.005208313035923
 40
4.455173659284313
 40
4.720999734343524
 40
5.086034088486724
 40
5.569973738255373
 40
6.060470601257719
 40
6.060470601257719
 40
6.060470601257719
 40
6.060470601257719
 10
222.088604019558
 20
200.4857376188836
 10
222.1513539364527
 20
200.4862048985148
 10
222.2959442935062
 20
200.4872816191233
 10
222.4982250716135
 20
200.5953444556187
 10
222.6900450447065
 20
200.7330086359604
 10
222.8445429837879
 20
200.9050056667623
 10
222.940799854664
 20
201.101654804283
 10
222.9557097397111
 20
201.2901249398547
 10
222.9466076212002
 20
201.4392024740112
 10
222.8815684126571
 20
201.543113216314
 10
222.8139522187324
 20
201.6485719934868
 10
222.6899669831852
 20
201.7399243032782
 10
222.5883790353348
 20
201.7799501945934
 10
222.5367194976987
 20
201.7988825494411
 72
     1
 10
222.5367194976987
 20
201.798882549441
 11
220.9242211847135
 21
201.7988825494411
 72
     1
 10
220.9242211847135
 20
201.7988825494411
 11
219.9089706446208
 21
199.7470037645351
 97
        6
330
86B
330
872
330
869
330
82F
330
871
330
873
 92
       20
 93
        4
 72
     1
 10
221.403360243696
 20
200.9418639533424
 11
221.5613580400534
 21
201.2910856382277
 72
     1
 10
221.5613580400534
 20
201.2910856382277
 11
221.9673450391508
 21
201.2910856382277
 72
     4
 94
        3
 73
     0
 74
     0
 95
       15
 96
       11
 40
0.0
 40
0.0
 40
0.0
 40
0.0
 40
0.1539705029175028
 40
0.2241725832587281
 40
0.3038566179396687
 40
0.3581410872474193
 40
0.443992538467216
 40
0.4954152125469665
 40
0.5836396705646186
 40
0.6130478420065743
 40
0.6130478420065743
 40
0.6130478420065743
 40
0.6130478420065743
 10
221.9673450391508
 20
201.2910856382277
 10
222.02517337421
 20
201.2913505228702
 10
222.1093682492682
 20
201.2917361803399
 10
222.1554090056327
 20
201.1875868764103
 10
222.1347713433992
 20
201.120530971773
 10
222.1088281199751
 20
201.0516854575251
 10
222.0629805684327
 20
201.0049038922559
 10
222.0014464388377
 20
200.9598453586188
 10
221.9432937457819
 20
200.9543908213593
 10
221.9054719468093
 20
200.9443693279052
 10
221.89601649254
 20
200.9418639533424
 72
     1
 10
221.89601649254
 20
200.9418639533424
 11
221.403360243696
 21
200.9418639533424
 97
        4
330
870
330
874
330
86C
330
875
 75
     0
 76
     1
 47
0.0514683685270805
 98
        2
 10
220.9328397380204
 20
201.1606937925521
 10
220.9328397380204
 20
201.1606937925521
450
        0
451
        0
460
0.0
461
0.0
452
        0
462
0.0
453
        0
470

  0
SPLINE
  5
86B
102
{ACAD_REACTORS
330
86A
102
}
330
18
100
AcDbEntity
  8
ROGO
 62
     4
100
AcDbSpline
210
0.0
220
0.0
230
1.0
 70
     8
 71
     3
 72
    18
 73
    14
 74
     0
 42
0.0000000001
 43
0.0000000001
 40
0.1087402787915014
 40
0.1087402787915014
 40
0.1087402787915014
 40
0.1087402787915014
 40
0.5992371417938475
 40
1.083176791562496
 40
1.448211145705696
 40
1.714037220764907
 40
2.164002567013297
 40
2.740236056362883
 40
3.395137510199602
 40
4.071816045172726
 40
4.784906178399433
 40
5.506895915094292
 40
6.060470601257719
 40
6.060470601257719
 40
6.060470601257719
 40
6.060470601257719
 10
222.5367194976987
 20
201.7988825494411
 30
0.0
 10
222.5883790353348
 20
201.7799501945934
 30
0.0
 10
222.6899669831852
 20
201.7399243032782
 30
0.0
 10
222.8139522187324
 20
201.6485719934868
 30
0.0
 10
222.8815684126571
 20
201.543113216314
 30
0.0
 10
222.9466076212002
 20
201.4392024740112
 30
0.0
 10
222.9557097397111
 20
201.2901249398547
 30
0.0
 10
222.940799854664
 20
201.101654804283
 30
0.0
 10
222.8445429837879
 20
200.9050056667623
 30
0.0
 10
222.6900450447065
 20
200.7330086359604
 30
0.0
 10
222.4982250716135
 20
200.5953444556187
 30
0.0
 10
222.2959442935062
 20
200.4872816191233
 30
0.0
 10
222.1513539364527
 20
200.4862048985148
 30
0.0
 10
222.088604019558
 20
200.4857376188836
 30
0.0
  0
SPLINE
  5
86C
102
{ACAD_REACTORS
330
86A
102
}
330
18
100
AcDbEntity
  8
ROGO
 62
     4
100
AcDbSpline
210
0.0
220
0.0
230
1.0
 70
     8
 71
     3
 72
    15
 73
    11
 74
     9
 42
0.0000000001
 43
0.0000000001
 44
0.0000000001
 40
0.0
 40
0.0
 40
0.0
 40
0.0
 40
0.1539705029175028
 40
0.2241725832587281
 40
0.3038566179396687
 40
0.3581410872474193
 40
0.443992538467216
 40
0.4954152125469665
 40
0.5836396705646186
 40
0.6130478420065743
 40
0.6130478420065743
 40
0.6130478420065743
 40
0.6130478420065743
 10
221.9673450391508
 20
201.2910856382277
 30
0.0
 10
222.02517337421
 20
201.2913505228702
 30
0.0
 10
222.1093682492682
 20
201.2917361803399
 30
0.0
 10
222.1554090056327
 20
201.1875868764103
 30
0.0
 10
222.1347713433992
 20
201.120530971773
 30
0.0
 10
222.1088281199751
 20
201.0516854575251
 30
0.0
 10
222.0629805684327
 20
201.0049038922559
 30
0.0
 10
222.0014464388377
 20
200.9598453586188
 30
0.0
 10
221.9432937457819
 20
200.9543908213593
 30
0.0
 10
221.9054719468093
 20
200.9443693279052
 30
0.0
 10
221.89601649254
 20
200.9418639533424
 30
0.0
 11
221.9673450391508
 21
201.2910856382277
 31
0.0
 11
222.1171351100796
 21
201.2554506775878
 31
0.0
 11
222.1456666107546
 21
201.1913079807824
 31
0.0
 11
222.1314010654938
 21
201.112911299721
 31
0.0
 11
222.1100025425259
 21
201.0630223548252
 31
0.0
 11
222.0529395411759
 21
200.9988796580198
 31
0.0
 11
222.01014249524
 21
200.9703716895079
 31
0.0
 11
221.924547993215
 21
200.9489909454703
 31
0.0
 11
221.89601649254
 21
200.9418639533424
 31
0.0
  0
LINE
  5
86D
102
{ACAD_REACTORS
330
82E
102
}
330
18
100
AcDbEntity
  8
ROGO
 62
     4
100
AcDbLine
 10
223.4893434909043
 20
201.7988825494411
 30
0.0
 11
222.8396115916442
 21
200.4857376188836
 31
0.0
  0
LINE
  5
86E
102
{ACAD_REACTORS
330
82E
102
}
330
18
100
AcDbEntity
  8
ROGO
 62
     4
100
AcDbLine
 10
224.1831280214356
 20
201.498080218749
 30
0.0
 11
224.0667581753592
 21
201.2628901755649
 31
0.0
  0
LINE
  5
86F
102
{ACAD_REACTORS
330
82E
102
}
330
18
100
AcDbEntity
  8
ROGO
 62
     4
100
AcDbLine
 10
223.9474317997353
 20
201.0217248188836
 30
0.0
 11
223.831057027119
 21
200.7865248188837
 31
0.0
  0
LINE
  5
870
102
{ACAD_REACTORS
330
86A
102
}
330
18
100
AcDbEntity
  8
ROGO
 62
     4
100
AcDbLine
 10
221.5613580400534
 20
201.2910856382277
 30
0.0
 11
221.403360243696
 21
200.9418639533424
 31
0.0
  0
LINE
  5
871
102
{ACAD_REACTORS
330
86A
102
}
330
18
100
AcDbEntity
  8
ROGO
 62
     4
100
AcDbLine
 10
221.1969957513858
 20
200.4857376188836
 30
0.0
 11
220.8627716005574
 21
199.7470037645351
 31
0.0
  0
LINE
  5
872
102
{ACAD_REACTORS
330
86A
102
}
330
18
100
AcDbEntity
  8
ROGO
 62
     4
100
AcDbLine
 10
220.9242211847135
 20
201.7988825494411
 30
0.0
 11
222.5367194976987
 21
201.7988825494411
 31
0.0
  0
LINE
  5
873
102
{ACAD_REACTORS
330
86A
102
}
330
18
100
AcDbEntity
  8
ROGO
 62
     4
100
AcDbLine
 10
222.0886040198671
 20
200.4857376188836
 30
0.0
 11
221.1969957513858
 21
200.4857376188836
 31
0.0
  0
LINE
  5
874
102
{ACAD_REACTORS
330
86A
102
}
330
18
100
AcDbEntity
  8
ROGO
 62
     4
100
AcDbLine
 10
221.9673450391509
 20
201.2910856382277
 30
0.0
 11
221.5613580400534
 21
201.2910856382277
 31
0.0
  0
LINE
  5
875
102
{ACAD_REACTORS
330
86A
102
}
330
18
100
AcDbEntity
  8
ROGO
 62
     4
100
AcDbLine
 10
221.8960164925401
 20
200.9418639533424
 30
0.0
 11
221.403360243696
 21
200.9418639533424
 31
0.0
  0
LINE
  5
876
330
18
100
AcDbEntity
  8
目盛
100
AcDbLine
 10
219.1247325878078
 20
213.8187750837644
 30
0.0
 11
219.8609816931771
 21
211.9592221119879
 31
0.0
  0
LINE
  5
877
330
18
100
AcDbEntity
  8
目盛
100
AcDbLine
 10
217.7986735935586
 20
213.244938115053
 30
0.0
 11
218.6502321766887
 21
211.435284010121
 31
0.0
  0
LINE
  5
878
330
18
100
AcDbEntity
  8
目盛
100
AcDbLine
 10
216.5112627952158
 20
212.5889695493435
 30
0.0
 11
217.4747701434193
 21
210.8363561892558
 31
0.0
  0
LINE
  5
879
330
18
100
AcDbEntity
  8
目盛
100
AcDbLine
 10
223.2818270640837
 20
215.0265226750944
 30
0.0
 11
223.6565896932551
 21
213.0619481736371
 31
0.0
  0
LINE
  5
87A
330
18
100
AcDbEntity
  8
目盛
100
AcDbLine
 10
221.8717298947637
 20
214.7113286142931
 30
0.0
 11
222.3691096690934
 21
212.7741622920358
 31
0.0
  0
LINE
  5
87B
330
18
100
AcDbEntity
  8
目盛
100
AcDbLine
 10
220.4842064289315
 20
214.3082157831232
 30
0.0
 11
221.4112574120563
 21
211.4550462342377
 31
0.0
  0
LINE
  5
87C
330
18
100
AcDbEntity
  8
外形線
  6
Continuous
100
AcDbLine
 10
223.8915972995554
 20
220.4339159083345
 30
0.0
 11
223.8915972995554
 21
218.5733497201064
 31
0.0
  0
LINE
  5
87E
330
18
100
AcDbEntity
  8
針
  6
Continuous
100
AcDbLine
 10
227.5915972995554
 20
215.4339159083346
 30
0.0
 11
228.0915972995553
 21
193.8481294707077
 31
0.0
  0
LINE
  5
87F
330
18
100
AcDbEntity
  8
針
  6
Continuous
100
AcDbLine
 10
227.5915972995554
 20
215.4339159083337
 30
0.0
 11
227.0915972995553
 21
193.8481294707077
 31
0.0
  0
HATCH
  5
880
330
18
100
AcDbEntity
  8
針
 48
0.2
100
AcDbHatch
 10
0.0
 20
0.0
 30
0.0
210
0.0
220
0.0
230
1.0
  2
SOLID
 70
     1
 71
     0
 91
        1
 92
        1
 93
        3
 72
     1
 10
227.5915972995554
 20
215.4339159083346
 11
228.0915972995554
 21
193.8481294707077
 72
     2
 10
227.5915972995554
 20
192.4339159083346
 40
1.5
 50
70.52877936551252
 51
109.4712206344913
 73
     1
 72
     1
 10
227.0915972995553
 20
193.8481294707077
 11
227.5915972995553
 21
215.4339159083336
 97
        0
 75
     0
 76
     1
 98
        1
 10
0.0391765500891666
 20
206.6895111385672
450
        0
451
        0
460
0.0
461
0.0
452
        0
462
0.0
453
        0
470

  0
LINE
  5
881
330
18
100
AcDbEntity
  8
目盛
100
AcDbLine
 10
241.1106581022823
 20
173.8265250377108
 30
0.0
 11
239.3473023454047
 21
176.2535760208356
 31
0.0
  0
TEXT
  5
885
330
18
100
AcDbEntity
  8
文字
100
AcDbText
 10
226.4609308835102
 20
173.0331562254222
 30
0.0
 40
2.0
  1
5
  7
STYLE3
100
AcDbText
  0
LINE
  5
88D
330
18
100
AcDbEntity
  8
目盛
100
AcDbLine
 10
237.384521005552
 20
171.6228937016162
 30
0.0
 11
236.5329624224218
 21
173.4325478065482
 31
0.0
  0
LINE
  5
88E
330
18
100
AcDbEntity
  8
目盛
100
AcDbLine
 10
238.6719318038947
 20
172.2788622673258
 30
0.0
 11
237.7084244556913
 21
174.0314756274135
 31
0.0
  0
LINE
  5
88F
330
18
100
AcDbEntity
  8
目盛
100
AcDbLine
 10
239.9156135840723
 20
173.0143736217883
 30
0.0
 11
238.8439599941143
 21
174.7030294727923
 31
0.0
  0
CIRCLE
  5
893
330
18
100
AcDbEntity
  8
外形線
100
AcDbCircle
 10
227.5915972995554
 20
192.4339159083346
 30
0.0
 40
1.5
  0
POINT
  5
894
330
18
100
AcDbEntity
  8
DEFPOINTS
  6
ByBlock
 62
     0
100
AcDbPoint
 10
227.5915972995553
 20
192.4339159083346
 30
0.0
  0
POINT
  5
895
330
18
100
AcDbEntity
  8
DEFPOINTS
  6
ByBlock
 62
     0
100
AcDbPoint
 10
227.5915972995553
 20
192.4339159083346
 30
0.0
  0
TEXT
  5
896
330
18
100
AcDbEntity
  8
文字
100
AcDbText
 10
233.2462412093013
 20
191.9428215303286
 30
0.0
 40
1.0
  1
0.1mm
  7
STYLE3
100
AcDbText
  0
LINE
  5
897
330
18
100
AcDbEntity
  8
目盛
100
AcDbLine
 10
248.9764564749851
 20
183.967051196587
 30
0.0
 11
247.1169035032085
 21
184.7033003019564
 31
0.0
  0
LINE
  5
898
330
18
100
AcDbEntity
  8
目盛
100
AcDbLine
 10
244.3578757302478
 20
176.6893324719748
 30
0.0
 11
242.899938475405
 21
178.0584266838322
 31
0.0
  0
LINE
  5
899
330
18
100
AcDbEntity
  8
目盛
100
AcDbLine
 10
245.3134018833984
 20
177.7731641441147
 30
0.0
 11
243.7723753978469
 21
179.0480121236121
 31
0.0
  0
LINE
  5
89A
330
18
100
AcDbEntity
  8
目盛
100
AcDbLine
 10
242.2523490637752
 20
174.7121113244915
 30
0.0
 11
240.9775010842779
 21
176.253137810043
 31
0.0
  0
LINE
  5
89B
330
18
100
AcDbEntity
  8
目盛
100
AcDbLine
 10
243.3361807359152
 20
175.6676374776422
 30
0.0
 11
241.9670865240578
 21
177.125574732485
 31
0.0
  0
LINE
  5
89C
330
18
100
AcDbEntity
  8
目盛
100
AcDbLine
 10
246.1989881701791
 20
178.9148551056077
 30
0.0
 11
243.7719371870544
 21
180.6782108624852
 31
0.0
  0
LINE
  5
89D
330
18
100
AcDbEntity
  8
目盛
100
AcDbLine
 10
248.4026195062738
 20
182.640992202338
 30
0.0
 11
246.5929654013416
 21
183.4925507854681
 31
0.0
  0
LINE
  5
89E
330
18
100
AcDbEntity
  8
目盛
100
AcDbLine
 10
247.0111395861017
 20
180.1098996238177
 30
0.0
 11
245.3224837350977
 21
181.1815532137757
 31
0.0
  0
LINE
  5
89F
330
18
100
AcDbEntity
  8
目盛
100
AcDbLine
 10
247.7466509405642
 20
181.3535814039952
 30
0.0
 11
245.9940375804765
 21
182.3170887521986
 31
0.0
  0
LINE
  5
8A0
330
18
100
AcDbEntity
  8
目盛
100
AcDbLine
 10
250.1842040663151
 20
188.1241456728629
 30
0.0
 11
248.2196295648578
 21
188.4989083020344
 31
0.0
  0
LINE
  5
8A1
330
18
100
AcDbEntity
  8
目盛
100
AcDbLine
 10
250.4102354297884
 20
189.5512515363556
 30
0.0
 11
248.4260060271594
 21
189.8019180034842
 31
0.0
  0
LINE
  5
8A2
330
18
100
AcDbEntity
  8
目盛
100
AcDbLine
 10
250.5462120534055
 20
190.9897339591604
 30
0.0
 11
248.550158596549
 21
191.115314998219
 31
0.0
  0
LINE
  5
8A3
330
18
100
AcDbEntity
  8
目盛
100
AcDbLine
 10
250.5462120534055
 20
193.8780978575087
 30
0.0
 11
248.550158596549
 21
193.7525168184501
 31
0.0
  0
LINE
  5
8A4
330
18
100
AcDbEntity
  8
目盛
100
AcDbLine
 10
250.4102354297884
 20
195.3165802803136
 30
0.0
 11
248.4260060271592
 21
195.065913813185
 31
0.0
  0
LINE
  5
8A5
330
18
100
AcDbEntity
  8
目盛
100
AcDbLine
 10
250.1842040663151
 20
196.7436861438062
 30
0.0
 11
248.2196295648578
 21
196.3689235146348
 31
0.0
  0
LINE
  5
8A6
330
18
100
AcDbEntity
  8
目盛
100
AcDbLine
 10
247.5915972995553
 20
192.4339159083346
 30
0.0
 11
250.5915972995554
 21
192.4339159083346
 31
0.0
  0
LINE
  5
8A7
330
18
100
AcDbEntity
  8
目盛
100
AcDbLine
 10
249.4658971743438
 20
185.3265250377108
 30
0.0
 11
246.6127276254583
 21
186.2535760208356
 31
0.0
  0
LINE
  5
8A8
330
18
100
AcDbEntity
  8
目盛
100
AcDbLine
 10
249.8690100055138
 20
186.7140485035429
 30
0.0
 11
247.9318436832566
 21
187.2114282778726
 31
0.0
  0
LINE
  5
8AA
330
18
100
AcDbEntity
  8
目盛
100
AcDbLine
 10
241.1106581022823
 20
211.0413067789583
 30
0.0
 11
239.3473023454049
 21
208.6142557958335
 31
0.0
  0
LINE
  5
8AB
330
18
100
AcDbEntity
  8
目盛
100
AcDbLine
 10
239.9156135840724
 20
211.8534581948809
 30
0.0
 11
238.8439599941143
 21
210.1648023438768
 31
0.0
  0
TEXT
  5
8AC
330
18
100
AcDbEntity
  8
文字
100
AcDbText
 10
226.6098333961567
 20
209.3553212532297
 30
0.0
 40
2.0
  1
0
  7
STYLE3
100
AcDbText
  0
LINE
  5
8AD
102
{ACAD_REACTORS
330
8B1
102
}
330
18
100
AcDbEntity
  8
ROGO
 62
     4
100
AcDbLine
 10
232.0043645836743
 20
200.4857376188836
 30
0.0
 11
233.1353935986789
 21
200.4857376188836
 31
0.0
  0
LINE
  5
8AE
102
{ACAD_REACTORS
330
8B1
102
}
330
18
100
AcDbEntity
  8
ROGO
 62
     4
100
AcDbLine
 10
232.4751337295822
 20
201.7988825494411
 30
0.0
 11
233.7901700716881
 21
201.7988825494411
 31
0.0
  0
SPLINE
  5
8AF
102
{ACAD_REACTORS
330
8B1
102
}
330
18
100
AcDbEntity
  8
ROGO
 62
     4
100
AcDbSpline
210
0.0
220
0.0
230
1.0
 70
     8
 71
     3
 72
    16
 73
    12
 74
    10
 42
0.0000000001
 43
0.0000000001
 44
0.0000000001
 40
0.0
 40
0.0
 40
0.0
 40
0.0
 40
0.1255907025629163
 40
0.1869327038470616
 40
0.217182380479003
 40
0.2490606136884339
 40
0.2947101524738157
 40
0.3362763310931585
 40
0.3796288870082937
 40
0.4523125795610796
 40
0.5242542460842448
 40
0.5242542460842448
 40
0.5242542460842448
 40
0.5242542460842448
 10
232.7247838477964
 20
201.3103074972242
 30
0.0
 10
232.682253140175
 20
201.3038234039202
 30
0.0
 10
232.6189492489636
 20
201.2941722986347
 30
0.0
 10
232.5617034975726
 20
201.2488571916591
 30
0.0
 10
232.5294208684484
 20
201.2218977193425
 30
0.0
 10
232.5184381741968
 20
201.1861957251603
 30
0.0
 10
232.4889421063363
 20
201.1587820741246
 30
0.0
 10
232.464628956459
 20
201.1211068934086
 30
0.0
 10
232.4588235273973
 20
201.0693594224494
 30
0.0
 10
232.4630848452448
 20
200.9967397333121
 30
0.0
 10
232.5140015598138
 20
200.9817592893127
 30
0.0
 10
232.5393292984856
 20
200.9743074972242
 30
0.0
 11
232.7247838477964
 21
201.3103074972242
 31
0.0
 11
232.6035252775427
 21
201.2776060643768
 31
0.0
 11
232.5535952538997
 21
201.2419713360832
 31
0.0
 11
232.5321967309319
 21
201.2205903596993
 31
0.0
 11
232.5179307755176
 21
201.1920823911874
 31
0.0
 11
232.4893992748427
 21
201.1564476628939
 31
0.0
 11
232.4680007518747
 21
201.120812702254
 31
0.0
 11
232.4608677741677
 21
201.0780509818325
 31
0.0
 11
232.4751337295818
 21
201.0067810605527
 31
0.0
 11
232.5393292984856
 21
200.9743074972242
 31
0.0
  0
LINE
  5
8B0
102
{ACAD_REACTORS
330
8B1
102
}
330
18
100
AcDbEntity
  8
ROGO
 62
     4
100
AcDbLine
 10
232.5393292984856
 20
200.9743074972242
 30
0.0
 11
233.3790103193578
 21
200.9743074972242
 31
0.0
  0
HATCH
  5
8B1
330
18
100
AcDbEntity
  8
ROGO
 62
     4
100
AcDbHatch
 10
0.0
 20
0.0
 30
0.0
210
0.0
220
0.0
230
1.0
  2
SOLID
 70
     1
 71
     1
 91
        1
 92
        5
 93
        8
 72
     4
 94
        3
 73
     0
 74
     0
 95
       26
 96
       22
 40
0.0
 40
0.0
 40
0.0
 40
0.0
 40
0.2382195346591896
 40
0.397689067266058
 40
0.5126795869787176
 40
0.5985392873135238
 40
0.7099038249250041
 40
0.7911890807494602
 40
0.9379713068544059
 40
1.057449928673177
 40
1.138714535893296
 40
1.218398644003487
 40
1.36093802187034
 40
1.461730374800238
 40
1.51601484410804
 40
1.593124329220486
 40
1.648806818593696
 40
1.729472362005543
 40
1.775122082164332
 40
1.874460993765135
 40
1.919820003751196
 40
1.919820003751196
 40
1.919820003751196
 40
1.919820003751196
 10
232.4751337295818
 20
201.7988825494411
 10
232.3942783388232
 20
201.794058578176
 10
232.2592965247572
 20
201.7860053316793
 10
232.1110873140455
 20
201.695969827821
 10
232.0025005696352
 20
201.6436271424784
 10
231.9250566352111
 20
201.5724717210588
 10
231.8682899173435
 20
201.4989733685376
 10
231.796724812646
 20
201.4114006204121
 10
231.7383655147401
 20
201.3094256989476
 10
231.7086466722069
 20
201.1970315578842
 10
231.6823220035532
 20
201.1074527753254
 10
231.6627991885802
 20
201.0076289124329
 10
231.6677663453932
 20
200.8997840243107
 10
231.6748795412776
 20
200.7996232133068
 10
231.7066382312016
 20
200.7281233903802
 10
231.7428057535917
 20
200.6772204434508
 10
231.7870923894465
 20
200.6211564907521
 10
231.8355516537641
 20
200.5840255164218
 10
231.8756314208747
 20
200.5167602612813
 10
231.9457897011372
 20
200.5081767296052
 10
231.9903850952128
 20
200.4910929397281
 10
232.0043645836743
 20
200.4857376188836
 72
     1
 10
232.0043645836743
 20
200.4857376188835
 11
233.1353935986789
 21
200.4857376188836
 72
     1
 10
233.1353935986789
 20
200.4857376188836
 11
233.3790103193578
 21
200.9743074972242
 72
     1
 10
233.3790103193578
 20
200.9743074972242
 11
232.5393292984855
 21
200.9743074972242
 72
     4
 94
        3
 73
     0
 74
     0
 95
       16
 96
       12
 40
0.0
 40
0.0
 40
0.0
 40
0.0
 40
0.0719416665231652
 40
0.1446253590759511
 40
0.1879779149910863
 40
0.229544093610429
 40
0.2751936323958108
 40
0.3070718656052417
 40
0.3373215422371831
 40
0.3986635435213285
 40
0.5242542460842448
 40
0.5242542460842448
 40
0.5242542460842448
 40
0.5242542460842448
 10
232.5393292984856
 20
200.9743074972242
 10
232.5140015598138
 20
200.9817592893127
 10
232.4630848452448
 20
200.9967397333121
 10
232.4588235273973
 20
201.0693594224494
 10
232.464628956459
 20
201.1211068934086
 10
232.4889421063363
 20
201.1587820741246
 10
232.5184381741968
 20
201.1861957251603
 10
232.5294208684484
 20
201.2218977193425
 10
232.5617034975726
 20
201.2488571916591
 10
232.6189492489636
 20
201.2941722986347
 10
232.682253140175
 20
201.3038234039202
 10
232.7247838477964
 20
201.3103074972242
 72
     1
 10
232.7247838477964
 20
201.3103074972242
 11
233.5465507711475
 21
201.3103074972242
 72
     1
 10
233.5465507711475
 20
201.3103074972242
 11
233.7901700716881
 21
201.7988825494411
 72
     1
 10
233.7901700716881
 20
201.7988825494411
 11
232.4751337295819
 21
201.7988825494411
 97
        8
330
8AE
330
8CA
330
8AD
330
8D9
330
8B0
330
8AF
330
8DA
330
8DB
 75
     0
 76
     1
 47
0.0514683685270805
 98
        1
 10
232.7020511592667
 20
201.558441246262
450
        0
451
        0
460
0.0
461
0.0
452
        0
462
0.0
453
        0
470

  0
LINE
  5
8B2
102
{ACAD_REACTORS
330
8B6
102
}
330
18
100
AcDbEntity
  8
ROGO
 62
     4
100
AcDbLine
 10
228.3082595275577
 20
200.9743074972242
 30
0.0
 11
229.1479405484299
 21
200.9743074972242
 31
0.0
  0
SPLINE
  5
8B3
102
{ACAD_REACTORS
330
8B6
102
}
330
18
100
AcDbEntity
  8
ROGO
 62
     4
100
AcDbSpline
210
0.0
220
0.0
230
1.0
 70
     8
 71
     3
 72
    16
 73
    12
 74
    10
 42
0.0000000001
 43
0.0000000001
 44
0.0000000001
 40
0.0
 40
0.0
 40
0.0
 40
0.0
 40
0.1255907025629711
 40
0.1869327038470372
 40
0.2171823804790188
 40
0.2490606136884497
 40
0.2947101524738226
 40
0.3362763310931653
 40
0.3796288870083566
 40
0.452312579561098
 40
0.5242542460842631
 40
0.5242542460842631
 40
0.5242542460842631
 40
0.5242542460842631
 10
228.4937140768686
 20
201.3103074972242
 30
0.0
 10
228.4511833692472
 20
201.3038234039203
 30
0.0
 10
228.3878794780358
 20
201.2941722986348
 30
0.0
 10
228.3306337266446
 20
201.2488571916589
 30
0.0
 10
228.2983510975206
 20
201.2218977193426
 30
0.0
 10
228.2873684032689
 20
201.1861957251603
 30
0.0
 10
228.2578723354084
 20
201.1587820741247
 30
0.0
 10
228.2335591855311
 20
201.1211068934086
 30
0.0
 10
228.2277537564694
 20
201.0693594224494
 30
0.0
 10
228.232015074317
 20
200.9967397333121
 30
0.0
 10
228.2829317888861
 20
200.9817592893128
 30
0.0
 10
228.3082595275577
 20
200.9743074972242
 30
0.0
 11
228.4937140768686
 21
201.3103074972242
 31
0.0
 11
228.3724555066148
 21
201.2776060643768
 31
0.0
 11
228.3225254829719
 21
201.2419713360833
 31
0.0
 11
228.3011269600041
 21
201.2205903596993
 31
0.0
 11
228.2868610045898
 21
201.1920823911874
 31
0.0
 11
228.2583295039148
 21
201.1564476628939
 31
0.0
 11
228.2369309809468
 21
201.1208127022541
 31
0.0
 11
228.2297980032398
 21
201.0780509818325
 31
0.0
 11
228.244063958654
 21
201.0067810605528
 31
0.0
 11
228.3082595275577
 21
200.9743074972242
 31
0.0
  0
LINE
  5
8B4
102
{ACAD_REACTORS
330
8B6
102
}
330
18
100
AcDbEntity
  8
ROGO
 62
     4
100
AcDbLine
 10
228.2440639586544
 20
201.7988825494411
 30
0.0
 11
229.5591003007603
 21
201.7988825494411
 31
0.0
  0
LINE
  5
8B5
102
{ACAD_REACTORS
330
8B6
102
}
330
18
100
AcDbEntity
  8
ROGO
 62
     4
100
AcDbLine
 10
227.7732948127464
 20
200.4857376188836
 30
0.0
 11
228.904323827751
 21
200.4857376188836
 31
0.0
  0
HATCH
  5
8B6
330
18
100
AcDbEntity
  8
ROGO
 62
     4
100
AcDbHatch
 10
0.0
 20
0.0
 30
0.0
210
0.0
220
0.0
230
1.0
  2
SOLID
 70
     1
 71
     1
 91
        1
 92
        5
 93
        8
 72
     1
 10
229.3154810002197
 20
201.3103074972242
 11
229.5591003007603
 21
201.7988825494411
 72
     1
 10
229.5591003007603
 20
201.7988825494411
 11
228.2440639586541
 21
201.7988825494411
 72
     4
 94
        3
 73
     0
 74
     0
 95
       26
 96
       22
 40
0.0
 40
0.0
 40
0.0
 40
0.0
 40
0.2382195346591896
 40
0.397689067266058
 40
0.5126795869787669
 40
0.5985392873135731
 40
0.7099038249249733
 40
0.7911890807494741
 40
0.9379713068543702
 40
1.057449928673087
 40
1.138714535893316
 40
1.218398644003506
 40
1.36093802187036
 40
1.461730374800257
 40
1.516014844108008
 40
1.593124329220501
 40
1.648806818593631
 40
1.729472362005518
 40
1.775122082164342
 40
1.874460993765092
 40
1.919820003751207
 40
1.919820003751207
 40
1.919820003751207
 40
1.919820003751207
 10
228.244063958654
 20
201.7988825494411
 10
228.1632085678954
 20
201.794058578176
 10
228.0282267538294
 20
201.7860053316793
 10
227.8800175431177
 20
201.6959698278209
 10
227.7714307987074
 20
201.6436271424785
 10
227.6939868642832
 20
201.5724717210589
 10
227.6372201464157
 20
201.4989733685375
 10
227.5656550417182
 20
201.4114006204122
 10
227.5072957438123
 20
201.3094256989477
 10
227.4775769012791
 20
201.1970315578842
 10
227.4512522326253
 20
201.1074527753254
 10
227.4317294176524
 20
201.0076289124329
 10
227.4366965744653
 20
200.8997840243107
 10
227.4438097703499
 20
200.7996232133068
 10
227.4755684602739
 20
200.7281233903802
 10
227.5117359826638
 20
200.6772204434509
 10
227.5560226185187
 20
200.6211564907522
 10
227.6044818828361
 20
200.5840255164219
 10
227.6445616499468
 20
200.5167602612813
 10
227.7147199302092
 20
200.508176729605
 10
227.759315324285
 20
200.4910929397281
 10
227.7732948127465
 20
200.4857376188836
 72
     1
 10
227.7732948127465
 20
200.4857376188836
 11
228.904323827751
 21
200.4857376188836
 72
     1
 10
228.904323827751
 20
200.4857376188836
 11
229.1479405484298
 21
200.9743074972242
 72
     1
 10
229.1479405484298
 20
200.9743074972242
 11
228.3082595275578
 21
200.9743074972242
 72
     4
 94
        3
 73
     0
 74
     0
 95
       16
 96
       12
 40
0.0
 40
0.0
 40
0.0
 40
0.0
 40
0.0719416665231651
 40
0.1446253590759065
 40
0.1879779149910977
 40
0.2295440936104405
 40
0.2751936323958134
 40
0.3070718656052443
 40
0.3373215422372259
 40
0.3986635435212919
 40
0.5242542460842631
 40
0.5242542460842631
 40
0.5242542460842631
 40
0.5242542460842631
 10
228.3082595275577
 20
200.9743074972242
 10
228.2829317888861
 20
200.9817592893128
 10
228.232015074317
 20
200.9967397333121
 10
228.2277537564694
 20
201.0693594224494
 10
228.2335591855311
 20
201.1211068934086
 10
228.2578723354084
 20
201.1587820741247
 10
228.2873684032689
 20
201.1861957251603
 10
228.2983510975206
 20
201.2218977193426
 10
228.3306337266446
 20
201.2488571916589
 10
228.3878794780358
 20
201.2941722986348
 10
228.4511833692472
 20
201.3038234039203
 10
228.4937140768686
 20
201.3103074972242
 72
     1
 10
228.4937140768686
 20
201.3103074972242
 11
229.3154810002197
 21
201.3103074972242
 97
        8
330
8B4
330
8C6
330
8B5
330
8C9
330
8B2
330
8B3
330
8C8
330
8C7
 75
     0
 76
     1
 47
0.0514683685270805
 98
        1
 10
228.7039808558609
 20
201.5065610930942
450
        0
451
        0
460
0.0
461
0.0
452
        0
462
0.0
453
        0
470

  0
LINE
  5
8B7
102
{ACAD_REACTORS
330
82E
102
}
330
18
100
AcDbEntity
  8
ROGO
 62
     4
100
AcDbLine
 10
225.2654266393882
 20
201.7988825494411
 30
0.0
 11
225.1165924436536
 21
201.498080218749
 31
0.0
  0
LINE
  5
8B8
102
{ACAD_REACTORS
330
82E
102
}
330
18
100
AcDbEntity
  8
ROGO
 62
     4
100
AcDbLine
 10
225.0002225975771
 20
201.2628901755649
 30
0.0
 11
224.8808962219533
 21
201.0217248188836
 31
0.0
  0
LINE
  5
8B9
102
{ACAD_REACTORS
330
82E
102
}
330
18
100
AcDbEntity
  8
ROGO
 62
     4
100
AcDbLine
 10
224.764521449337
 20
200.7865248188837
 30
0.0
 11
224.6156947401281
 21
200.4857376188836
 31
0.0
  0
LINE
  5
8BA
102
{ACAD_REACTORS
330
8C5
102
}
330
18
100
AcDbEntity
  8
ROGO
 62
     4
100
AcDbLine
 10
225.7799209045859
 20
201.7988825494411
 30
0.0
 11
224.8329865744868
 21
200.4857376188836
 31
0.0
  0
LINE
  5
8BB
102
{ACAD_REACTORS
330
8C5
102
}
330
18
100
AcDbEntity
  8
ROGO
 62
     4
100
AcDbLine
 10
226.2540487612176
 20
201.4478735724893
 30
0.0
 11
225.9306820249043
 21
200.9994503006705
 31
0.0
  0
LINE
  5
8BC
102
{ACAD_REACTORS
330
8C5
102
}
330
18
100
AcDbEntity
  8
ROGO
 62
     4
100
AcDbLine
 10
225.7405242637593
 20
200.7357522889744
 30
0.0
 11
226.5704012525436
 21
200.7357522889744
 31
0.0
  0
LINE
  5
8BD
102
{ACAD_REACTORS
330
8C5
102
}
330
18
100
AcDbEntity
  8
ROGO
 62
     4
100
AcDbLine
 10
225.9306820249043
 20
200.9994503006705
 30
0.0
 11
226.453256146943
 21
200.9994503006705
 31
0.0
  0
LINE
  5
8BE
102
{ACAD_REACTORS
330
8C5
102
}
330
18
100
AcDbEntity
  8
ROGO
 62
     4
100
AcDbLine
 10
225.7405242637593
 20
200.7357522889744
 30
0.0
 11
225.5602338261784
 21
200.4857376188837
 31
0.0
  0
LINE
  5
8BF
102
{ACAD_REACTORS
330
8C5
102
}
330
18
100
AcDbEntity
  8
ROGO
 62
     4
100
AcDbLine
 10
224.8329865744868
 20
200.4857376188836
 30
0.0
 11
225.5602338261783
 21
200.4857376188836
 31
0.0
  0
LINE
  5
8C0
102
{ACAD_REACTORS
330
8C5
102
}
330
18
100
AcDbEntity
  8
ROGO
 62
     4
100
AcDbLine
 10
225.7799209045859
 20
201.7988825494411
 30
0.0
 11
226.8303243873573
 21
201.7988825494411
 31
0.0
  0
LINE
  5
8C1
102
{ACAD_REACTORS
330
8C5
102
}
330
18
100
AcDbEntity
  8
ROGO
 62
     4
100
AcDbLine
 10
227.4136753977406
 20
200.4857376188837
 30
0.0
 11
226.6814676756125
 21
200.4857376188836
 31
0.0
  0
LINE
  5
8C2
102
{ACAD_REACTORS
330
8C5
102
}
330
18
100
AcDbEntity
  8
ROGO
 62
     4
100
AcDbLine
 10
226.8303243873573
 20
201.7988825494411
 30
0.0
 11
227.4136753977406
 21
200.4857376188836
 31
0.0
  0
LINE
  5
8C3
102
{ACAD_REACTORS
330
8C5
102
}
330
18
100
AcDbEntity
  8
ROGO
 62
     4
100
AcDbLine
 10
226.2540487612176
 20
201.4478735724893
 30
0.0
 11
226.453256146943
 21
200.9994503006705
 31
0.0
  0
LINE
  5
8C4
102
{ACAD_REACTORS
330
8C5
102
}
330
18
100
AcDbEntity
  8
ROGO
 62
     4
100
AcDbLine
 10
226.5704012525436
 20
200.7357522889744
 30
0.0
 11
226.6814676756125
 21
200.4857376188836
 31
0.0
  0
HATCH
  5
8C5
330
18
100
AcDbEntity
  8
ROGO
 62
     4
100
AcDbHatch
 10
0.0
 20
0.0
 30
0.0
210
0.0
220
0.0
230
1.0
  2
SOLID
 70
     1
 71
     1
 91
        2
 92
        7
 72
     0
 73
     1
 93
        8
 10
226.8303243873573
 20
201.7988825494411
 10
225.7799209045859
 20
201.798882549441
 10
224.8329865744868
 20
200.4857376188836
 10
225.5602338261784
 20
200.4857376188836
 10
225.7405242637593
 20
200.7357522889744
 10
226.5704012525436
 20
200.7357522889744
 10
226.6814676756125
 20
200.4857376188836
 10
227.4136753977406
 20
200.4857376188837
 97
        8
330
8C0
330
8BA
330
8BF
330
8BE
330
8BC
330
8C4
330
8C1
330
8C2
 92
       22
 72
     0
 73
     1
 93
        3
 10
226.2540487612177
 20
201.4478735724893
 10
226.453256146943
 20
200.9994503006705
 10
225.9306820249044
 20
200.9994503006705
 97
        3
330
8BD
330
8BB
330
8C3
 75
     0
 76
     1
 47
0.0128389261915577
 98
        2
 10
226.7480694948616
 20
201.4838406326321
 10
226.7480694948616
 20
201.4838406326321
450
        0
451
        0
460
0.0
461
0.0
452
        0
462
0.0
453
        0
470

  0
SPLINE
  5
8C6
102
{ACAD_REACTORS
330
8B6
102
}
330
18
100
AcDbEntity
  8
ROGO
 62
     4
100
AcDbSpline
210
0.0
220
0.0
230
1.0
 70
     8
 71
     3
 72
    26
 73
    22
 74
    20
 42
0.0000000001
 43
0.0000000001
 44
0.0000000001
 40
0.0
 40
0.0
 40
0.0
 40
0.0
 40
0.2382195346591896
 40
0.397689067266058
 40
0.5126795869787669
 40
0.5985392873135731
 40
0.7099038249249733
 40
0.7911890807494741
 40
0.9379713068543702
 40
1.057449928673087
 40
1.138714535893316
 40
1.218398644003506
 40
1.36093802187036
 40
1.461730374800257
 40
1.516014844108008
 40
1.593124329220501
 40
1.648806818593631
 40
1.729472362005518
 40
1.775122082164342
 40
1.874460993765092
 40
1.919820003751207
 40
1.919820003751207
 40
1.919820003751207
 40
1.919820003751207
 10
228.244063958654
 20
201.7988825494411
 30
0.0
 10
228.1632085678954
 20
201.794058578176
 30
0.0
 10
228.0282267538294
 20
201.7860053316793
 30
0.0
 10
227.8800175431177
 20
201.6959698278209
 30
0.0
 10
227.7714307987074
 20
201.6436271424785
 30
0.0
 10
227.6939868642832
 20
201.5724717210589
 30
0.0
 10
227.6372201464157
 20
201.4989733685375
 30
0.0
 10
227.5656550417182
 20
201.4114006204122
 30
0.0
 10
227.5072957438123
 20
201.3094256989477
 30
0.0
 10
227.4775769012791
 20
201.1970315578842
 30
0.0
 10
227.4512522326253
 20
201.1074527753254
 30
0.0
 10
227.4317294176524
 20
201.0076289124329
 30
0.0
 10
227.4366965744653
 20
200.8997840243107
 30
0.0
 10
227.4438097703499
 20
200.7996232133068
 30
0.0
 10
227.4755684602739
 20
200.7281233903802
 30
0.0
 10
227.5117359826638
 20
200.6772204434509
 30
0.0
 10
227.5560226185187
 20
200.6211564907522
 30
0.0
 10
227.6044818828361
 20
200.5840255164219
 30
0.0
 10
227.6445616499468
 20
200.5167602612813
 30
0.0
 10
227.7147199302092
 20
200.508176729605
 30
0.0
 10
227.759315324285
 20
200.4910929397281
 30
0.0
 10
227.7732948127465
 20
200.4857376188836
 30
0.0
 11
228.244063958654
 21
201.7988825494411
 31
0.0
 11
228.0086793857002
 21
201.7622403673474
 31
0.0
 11
227.8660218823252
 21
201.690970678414
 31
0.0
 11
227.7661618350393
 21
201.6339549737365
 31
0.0
 11
227.7019662661356
 21
201.5769390367127
 31
0.0
 11
227.6306377195248
 21
201.4914153635233
 31
0.0
 11
227.5807076958819
 21
201.4272726667179
 31
0.0
 11
227.5093787391177
 21
201.2989870407607
 31
0.0
 11
227.4737146708889
 21
201.1849553990595
 31
0.0
 11
227.4523161479211
 21
201.106558717998
 31
0.0
 11
227.4380501925068
 21
201.0281620369367
 31
0.0
 11
227.4380501925068
 21
200.8856226590698
 31
0.0
 11
227.4523161479211
 21
200.7858450016246
 31
0.0
 11
227.4737146708889
 21
200.7359560567287
 31
0.0
 11
227.5165117168247
 21
200.6718133599232
 31
0.0
 11
227.5521761952069
 21
200.6290514071554
 31
0.0
 11
227.6092387864034
 21
200.5720357024779
 31
0.0
 11
227.6377702870785
 21
200.5364007418381
 31
0.0
 11
227.7304977668106
 21
200.5007660135445
 31
0.0
 11
227.7732948127465
 21
200.4857376188836
 31
0.0
  0
LINE
  5
8C7
102
{ACAD_REACTORS
330
8B6
102
}
330
18
100
AcDbEntity
  8
ROGO
 62
     4
100
AcDbLine
 10
229.5591003007603
 20
201.7988825494411
 30
0.0
 11
229.3154810002197
 21
201.3103074972242
 31
0.0
  0
LINE
  5
8C8
102
{ACAD_REACTORS
330
8B6
102
}
330
18
100
AcDbEntity
  8
ROGO
 62
     4
100
AcDbLine
 10
228.4937140768685
 20
201.3103074972242
 30
0.0
 11
229.3154810002197
 21
201.3103074972242
 31
0.0
  0
LINE
  5
8C9
102
{ACAD_REACTORS
330
8B6
102
}
330
18
100
AcDbEntity
  8
ROGO
 62
     4
100
AcDbLine
 10
229.1479405484299
 20
200.9743074972242
 30
0.0
 11
228.904323827751
 21
200.4857376188836
 31
0.0
  0
SPLINE
  5
8CA
102
{ACAD_REACTORS
330
8B1
102
}
330
18
100
AcDbEntity
  8
ROGO
 62
     4
100
AcDbSpline
210
0.0
220
0.0
230
1.0
 70
     8
 71
     3
 72
    26
 73
    22
 74
    20
 42
0.0000000001
 43
0.0000000001
 44
0.0000000001
 40
0.0
 40
0.0
 40
0.0
 40
0.0
 40
0.2382195346591896
 40
0.397689067266058
 40
0.5126795869787176
 40
0.5985392873135238
 40
0.7099038249250041
 40
0.7911890807494602
 40
0.9379713068544059
 40
1.057449928673177
 40
1.138714535893296
 40
1.218398644003487
 40
1.36093802187034
 40
1.461730374800238
 40
1.51601484410804
 40
1.593124329220486
 40
1.648806818593696
 40
1.729472362005543
 40
1.775122082164332
 40
1.874460993765135
 40
1.919820003751196
 40
1.919820003751196
 40
1.919820003751196
 40
1.919820003751196
 10
232.4751337295818
 20
201.7988825494411
 30
0.0
 10
232.3942783388232
 20
201.794058578176
 30
0.0
 10
232.2592965247572
 20
201.7860053316793
 30
0.0
 10
232.1110873140455
 20
201.695969827821
 30
0.0
 10
232.0025005696352
 20
201.6436271424784
 30
0.0
 10
231.9250566352111
 20
201.5724717210588
 30
0.0
 10
231.8682899173435
 20
201.4989733685376
 30
0.0
 10
231.796724812646
 20
201.4114006204121
 30
0.0
 10
231.7383655147401
 20
201.3094256989476
 30
0.0
 10
231.7086466722069
 20
201.1970315578842
 30
0.0
 10
231.6823220035532
 20
201.1074527753254
 30
0.0
 10
231.6627991885802
 20
201.0076289124329
 30
0.0
 10
231.6677663453932
 20
200.8997840243107
 30
0.0
 10
231.6748795412776
 20
200.7996232133068
 30
0.0
 10
231.7066382312016
 20
200.7281233903802
 30
0.0
 10
231.7428057535917
 20
200.6772204434508
 30
0.0
 10
231.7870923894465
 20
200.6211564907521
 30
0.0
 10
231.8355516537641
 20
200.5840255164218
 30
0.0
 10
231.8756314208747
 20
200.5167602612813
 30
0.0
 10
231.9457897011372
 20
200.5081767296052
 30
0.0
 10
231.9903850952128
 20
200.4910929397281
 30
0.0
 10
232.0043645836743
 20
200.4857376188836
 30
0.0
 11
232.4751337295818
 21
201.7988825494411
 31
0.0
 11
232.239749156628
 21
201.7622403673474
 31
0.0
 11
232.097091653253
 21
201.690970678414
 31
0.0
 11
231.9972316059672
 21
201.6339549737365
 31
0.0
 11
231.9330360370635
 21
201.5769390367127
 31
0.0
 11
231.8617074904527
 21
201.4914153635233
 31
0.0
 11
231.8117774668097
 21
201.4272726667179
 31
0.0
 11
231.7404485100455
 21
201.2989870407607
 31
0.0
 11
231.7047844418167
 21
201.1849553990594
 31
0.0
 11
231.6833859188489
 21
201.106558717998
 31
0.0
 11
231.6691199634346
 21
201.0281620369367
 31
0.0
 11
231.6691199634346
 21
200.8856226590698
 31
0.0
 11
231.6833859188489
 21
200.7858450016246
 31
0.0
 11
231.7047844418167
 21
200.7359560567287
 31
0.0
 11
231.7475814877525
 21
200.6718133599232
 31
0.0
 11
231.7832459661348
 21
200.6290514071554
 31
0.0
 11
231.8403085573313
 21
200.5720357024779
 31
0.0
 11
231.8688400580064
 21
200.5364007418381
 31
0.0
 11
231.9615675377385
 21
200.5007660135445
 31
0.0
 11
232.0043645836743
 21
200.4857376188836
 31
0.0
  0
SPLINE
  5
8CB
102
{ACAD_REACTORS
330
8D2
102
}
330
18
100
AcDbEntity
  8
ROGO
 62
     4
100
AcDbSpline
210
0.0
220
0.0
230
1.0
 70
     8
 71
     3
 72
    38
 73
    34
 74
    32
 42
0.0000000001
 43
0.0000000001
 44
0.0000000001
 40
0.0
 40
0.0
 40
0.0
 40
0.0
 40
0.1807680148264315
 40
0.2375392910068956
 40
0.3104865209606157
 40
0.3712759982447458
 40
0.422566754387306
 40
0.490692583720658
 40
0.5255021974951946
 40
0.5647069597052371
 40
0.622487401681883
 40
0.6879401044674746
 40
0.7303986317551266
 40
0.7765228362185534
 40
0.8277951442290254
 40
0.9056034697002209
 40
0.9795294930264187
 40
1.013897332332996
 40
1.053089255536027
 40
1.099518741889647
 40
1.132570569820733
 40
1.160277520290299
 40
1.19983678629386
 40
1.243305643169139
 40
1.286774258016964
 40
1.324809356515675
 40
1.411916492917645
 40
1.446284332224223
 40
1.5150200516612
 40
1.575779369908399
 40
1.69209852953623
 40
1.835624328519098
 40
2.042896467983898
 40
2.042896467983898
 40
2.042896467983898
 40
2.042896467983898
 10
230.288325620803
 20
201.8043597686134
 30
0.0
 10
230.2280702231773
 20
201.8001031495125
 30
0.0
 10
230.1488912575562
 20
201.7945097137253
 30
0.0
 10
230.0483524850467
 20
201.7669650875205
 30
0.0
 10
229.9935477306056
 20
201.7341505680625
 30
0.0
 10
229.9365124292886
 20
201.710030323362
 30
0.0
 10
229.8878845229034
 20
201.6743130241128
 30
0.0
 10
229.8386984222076
 20
201.6559082439193
 30
0.0
 10
229.8042568088317
 20
201.6227211355468
 30
0.0
 10
229.7643934506989
 20
201.6024490173717
 30
0.0
 10
229.7326495508635
 20
201.5570741233574
 30
0.0
 10
229.6971688743318
 20
201.5146502416989
 30
0.0
 10
229.6560068259246
 20
201.4836827001215
 30
0.0
 10
229.6222245803653
 20
201.4511577211591
 30
0.0
 10
229.591234067441
 20
201.4009619059752
 30
0.0
 10
229.5728924948698
 20
201.3342665312896
 30
0.0
 10
229.5211906804605
 20
201.2921574770045
 30
0.0
 10
229.5134060059774
 20
201.2415298293283
 30
0.0
 10
229.4848081557817
 20
201.2116603691376
 30
0.0
 10
229.4723728103258
 20
201.1731031871526
 30
0.0
 10
229.4676368322019
 20
201.1377779978319
 30
0.0
 10
229.4619525291595
 20
201.1047867164036
 30
0.0
 10
229.4470834689271
 20
201.0700813456658
 30
0.0
 10
229.4519367814884
 20
201.0272110667308
 30
0.0
 10
229.4505542184463
 20
200.9856983527043
 30
0.0
 10
229.4513678584195
 20
200.9296548960928
 30
0.0
 10
229.4484313190735
 20
200.8750896991734
 30
0.0
 10
229.4718490695885
 20
200.8157098230049
 30
0.0
 10
229.4857069171914
 20
200.7627808783384
 30
0.0
 10
229.5236588871349
 20
200.6894943360869
 30
0.0
 10
229.5891252399529
 20
200.604937512378
 30
0.0
 10
229.7136149859704
 20
200.5023015490853
 30
0.0
 10
229.8333155165297
 20
200.4918896083679
 30
0.0
 10
229.9040416592599
 20
200.4857376188836
 30
0.0
 11
230.288325620803
 21
201.8043597686134
 31
0.0
 11
230.1088689838557
 21
201.782625219162
 31
0.0
 11
230.0544881977276
 21
201.7663246701147
 31
0.0
 11
229.9892315107196
 21
201.7337230879651
 31
0.0
 11
229.9348507245915
 21
201.706555264192
 31
0.0
 11
229.8913462665861
 21
201.6793871983916
 31
0.0
 11
229.8315275300181
 21
201.6467858582694
 31
0.0
 11
229.8043369233324
 21
201.6250515508455
 31
0.0
 11
229.771708366207
 21
201.6033170013941
 31
0.0
 11
229.7336418586415
 21
201.5598483865463
 31
0.0
 11
229.6901374006362
 21
201.5109462553493
 31
0.0
 11
229.6575088435107
 21
201.4837781895488
 31
0.0
 11
229.6248807136282
 21
201.4511768494267
 31
0.0
 11
229.5976901069426
 21
201.4077082345789
 31
0.0
 11
229.5650619770602
 21
201.3370715539306
 31
0.0
 11
229.5215570918117
 21
201.277302148008
 31
0.0
 11
229.510681190932
 21
201.2447005658584
 31
0.0
 11
229.4889289619293
 21
201.2120992257361
 31
0.0
 11
229.4726146833666
 21
201.1686303688609
 31
0.0
 11
229.4671763056836
 21
201.1360290287387
 31
0.0
 11
229.4617383552437
 21
201.1088609629382
 31
0.0
 11
229.4508624543639
 21
201.070826106467
 31
0.0
 11
229.4508624543639
 21
201.0273572495917
 31
0.0
 11
229.4508624543639
 21
200.9838886347438
 31
0.0
 11
229.4508624543639
 21
200.9458535362451
 31
0.0
 11
229.4563004048039
 21
200.8589163065494
 31
0.0
 11
229.4671763056836
 21
200.8263147243998
 31
0.0
 11
229.4889289619293
 21
200.7611118021281
 31
0.0
 11
229.5161191413719
 21
200.7067759125546
 31
0.0
 11
229.5868142060628
 21
200.6144051665097
 31
0.0
 11
229.7010137287591
 21
200.5274676947867
 31
0.0
 11
229.9040416592599
 21
200.4857376188836
 31
0.0
  0
SPLINE
  5
8CC
102
{ACAD_REACTORS
330
8D2
102
}
330
18
100
AcDbEntity
  8
ROGO
 62
     4
100
AcDbSpline
210
0.0
220
0.0
230
1.0
 70
     8
 71
     3
 72
    25
 73
    21
 74
     0
 42
0.0000000001
 43
0.0000000001
 40
0.0
 40
0.0
 40
0.0
 40
0.0
 40
0.4087168505087288
 40
0.6887487002771746
 40
0.9415836120477687
 40
1.17452070575514
 40
1.41154617586699
 40
1.599156012919487
 40
1.80099909059943
 40
2.178735911501585
 40
2.521686161369157
 40
2.762704659361267
 40
3.06256558063785
 40
3.222432137207705
 40
3.399493810628493
 40
3.567459719866414
 40
3.743172740007509
 40
3.995988754699505
 40
4.17170091132118
 40
4.337226830236035
 40
4.337226830236035
 40
4.337226830236035
 40
4.337226830236035
 10
231.0387794439884
 20
201.8043597686134
 30
0.0
 10
231.087999494414
 20
201.8027783791573
 30
0.0
 10
231.1709426021325
 20
201.8001135026513
 30
0.0
 10
231.2599922607536
 20
201.7305108132758
 30
0.0
 10
231.328130481513
 20
201.6728048509608
 30
0.0
 10
231.3764958363736
 20
201.6030410446266
 30
0.0
 10
231.418889425016
 20
201.5388969409495
 30
0.0
 10
231.4468235857852
 20
201.4711755262834
 30
0.0
 10
231.48481956346
 20
201.3899160307465
 30
0.0
 10
231.5005480211072
 20
201.2812028983155
 30
0.0
 10
231.4899215777705
 20
201.1688378452699
 30
0.0
 10
231.462191522273
 20
201.0692365615665
 30
0.0
 10
231.433104923573
 20
200.9928247964223
 30
0.0
 10
231.3988229046557
 20
200.9263036144318
 30
0.0
 10
231.3579543573516
 20
200.8832311439327
 30
0.0
 10
231.3296014018126
 20
200.8284649175851
 30
0.0
 10
231.2751390010953
 20
200.7836690847117
 30
0.0
 10
231.2309888412887
 20
200.7283973142577
 30
0.0
 10
231.180887604649
 20
200.6809569659191
 30
0.0
 10
231.1526403053451
 20
200.6516868426974
 30
0.0
 10
231.1377476479513
 20
200.6393800987518
 30
0.0
  0
LINE
  5
8CD
102
{ACAD_REACTORS
330
8D2
102
}
330
18
100
AcDbEntity
  8
ROGO
 62
     4
100
AcDbLine
 10
230.288325620803
 20
201.8043597686134
 30
0.0
 11
231.0387794439884
 21
201.8043597686134
 31
0.0
  0
LINE
  5
8CE
102
{ACAD_REACTORS
330
8D2
102
}
330
18
100
AcDbEntity
  8
ROGO
 62
     4
100
AcDbLine
 10
229.9040416592599
 20
200.4857376188836
 30
0.0
 11
230.6544954824452
 21
200.4857376188836
 31
0.0
  0
SPLINE
  5
8CF
102
{ACAD_REACTORS
330
8D2
102
}
330
18
100
AcDbEntity
  8
ROGO
 62
     4
100
AcDbSpline
210
0.0
220
0.0
230
1.0
 70
     8
 71
     3
 72
    11
 73
     7
 74
     0
 42
0.0000000001
 43
0.0000000001
 40
0.1647869275458134
 40
0.1647869275458134
 40
0.1647869275458134
 40
0.1647869275458134
 40
0.2895635144633836
 40
0.5387013147903714
 40
0.7953622617455423
 40
0.8850764140209602
 40
0.8850764140209602
 40
0.8850764140209602
 40
0.8850764140209602
 10
230.9045129410633
 20
200.5150140657922
 30
0.0
 10
230.8905343982624
 20
200.5111231330757
 30
0.0
 10
230.8471933868282
 20
200.5041955432918
 30
0.0
 10
230.7744946196901
 20
200.4946831489184
 30
0.0
 10
230.7053980775938
 20
200.4847566183339
 30
0.0
 10
230.6649673827652
 20
200.4855358032406
 30
0.0
 10
230.6544954824452
 20
200.4857376188836
 30
0.0
  0
SPLINE
  5
8D0
102
{ACAD_REACTORS
330
8D2
102
}
330
18
100
AcDbEntity
  8
ROGO
 62
     4
100
AcDbSpline
210
0.0
220
0.0
230
1.0
 70
     8
 71
     3
 72
     9
 73
     5
 74
     3
 42
0.0000000001
 43
0.0000000001
 44
0.0000000001
 40
0.0
 40
0.0
 40
0.0
 40
0.0
 40
0.1135793343552172
 40
0.2662938392177403
 40
0.2662938392177403
 40
0.2662938392177403
 40
0.2662938392177403
 10
230.9045129410633
 20
200.5150140657922
 30
0.0
 10
230.9409979093813
 20
200.5261764055155
 30
0.0
 10
231.0265391950587
 20
200.5523472077694
 30
0.0
 10
231.0972158922955
 20
200.6076595255438
 30
0.0
 10
231.1377476479513
 20
200.6393800987518
 30
0.0
 11
230.9045129410633
 21
200.5150140657922
 31
0.0
 11
231.0112637052879
 21
200.5538024600619
 31
0.0
 11
231.1377476479513
 21
200.6393800987518
 31
0.0
  0
ELLIPSE
  5
8D1
102
{ACAD_REACTORS
330
8D2
102
}
330
18
100
AcDbEntity
  8
ROGO
 62
     4
100
AcDbEllipse
 10
230.4607840154338
 20
201.1266637763944
 30
0.0
 11
0.1782847090673272
 21
0.1567790921840611
 31
0.0
210
0.0
220
0.0
230
0.9999999999999998
 40
0.6788083417438792
 41
0.0
 42
6.283185307179586
  0
HATCH
  5
8D2
330
18
100
AcDbEntity
  8
ROGO
 62
     4
100
AcDbHatch
 10
0.0
 20
0.0
 30
0.0
210
0.0
220
0.0
230
1.0
  2
SOLID
 70
     1
 71
     1
 91
        2
 92
        5
 93
        6
 72
     4
 94
        3
 73
     0
 74
     0
 95
       38
 96
       34
 40
0.0
 40
0.0
 40
0.0
 40
0.0
 40
0.1807680148264315
 40
0.2375392910068956
 40
0.3104865209606157
 40
0.3712759982447458
 40
0.422566754387306
 40
0.490692583720658
 40
0.5255021974951946
 40
0.5647069597052371
 40
0.622487401681883
 40
0.6879401044674746
 40
0.7303986317551266
 40
0.7765228362185534
 40
0.8277951442290254
 40
0.9056034697002209
 40
0.9795294930264187
 40
1.013897332332996
 40
1.053089255536027
 40
1.099518741889647
 40
1.132570569820733
 40
1.160277520290299
 40
1.19983678629386
 40
1.243305643169139
 40
1.286774258016964
 40
1.324809356515675
 40
1.411916492917645
 40
1.446284332224223
 40
1.5150200516612
 40
1.575779369908399
 40
1.69209852953623
 40
1.835624328519098
 40
2.042896467983898
 40
2.042896467983898
 40
2.042896467983898
 40
2.042896467983898
 10
230.288325620803
 20
201.8043597686134
 10
230.2280702231773
 20
201.8001031495125
 10
230.1488912575562
 20
201.7945097137253
 10
230.0483524850467
 20
201.7669650875205
 10
229.9935477306056
 20
201.7341505680625
 10
229.9365124292886
 20
201.710030323362
 10
229.8878845229034
 20
201.6743130241128
 10
229.8386984222076
 20
201.6559082439193
 10
229.8042568088317
 20
201.6227211355468
 10
229.7643934506989
 20
201.6024490173717
 10
229.7326495508635
 20
201.5570741233574
 10
229.6971688743318
 20
201.5146502416989
 10
229.6560068259246
 20
201.4836827001215
 10
229.6222245803653
 20
201.4511577211591
 10
229.591234067441
 20
201.4009619059752
 10
229.5728924948698
 20
201.3342665312896
 10
229.5211906804605
 20
201.2921574770045
 10
229.5134060059774
 20
201.2415298293283
 10
229.4848081557817
 20
201.2116603691376
 10
229.4723728103258
 20
201.1731031871526
 10
229.4676368322019
 20
201.1377779978319
 10
229.4619525291595
 20
201.1047867164036
 10
229.4470834689271
 20
201.0700813456658
 10
229.4519367814884
 20
201.0272110667308
 10
229.4505542184463
 20
200.9856983527043
 10
229.4513678584195
 20
200.9296548960928
 10
229.4484313190735
 20
200.8750896991734
 10
229.4718490695885
 20
200.8157098230049
 10
229.4857069171914
 20
200.7627808783384
 10
229.5236588871349
 20
200.6894943360869
 10
229.5891252399529
 20
200.604937512378
 10
229.7136149859704
 20
200.5023015490853
 10
229.8333155165297
 20
200.4918896083679
 10
229.9040416592599
 20
200.4857376188836
 72
     1
 10
229.9040416592599
 20
200.4857376188836
 11
230.6544954824452
 21
200.4857376188836
 72
     4
 94
        3
 73
     0
 74
     0
 95
       11
 96
        7
 40
0.1647869275458135
 40
0.1647869275458135
 40
0.1647869275458135
 40
0.1647869275458135
 40
0.2545010798212315
 40
0.5111620267764023
 40
0.7602998271033902
 40
0.8850764140209603
 40
0.8850764140209603
 40
0.8850764140209603
 40
0.8850764140209603
 10
230.6544954824452
 20
200.4857376188836
 10
230.6649673827652
 20
200.4855358032406
 10
230.7053980775938
 20
200.4847566183339
 10
230.7744946196901
 20
200.4946831489184
 10
230.8471933868282
 20
200.5041955432918
 10
230.8905343982624
 20
200.5111231330757
 10
230.9045129410633
 20
200.5150140657922
 72
     4
 94
        3
 73
     0
 74
     0
 95
        9
 96
        5
 40
0.0
 40
0.0
 40
0.0
 40
0.0
 40
0.1135793343552172
 40
0.2662938392177403
 40
0.2662938392177403
 40
0.2662938392177403
 40
0.2662938392177403
 10
230.9045129410633
 20
200.5150140657922
 10
230.9409979093813
 20
200.5261764055155
 10
231.0265391950587
 20
200.5523472077694
 10
231.0972158922955
 20
200.6076595255438
 10
231.1377476479513
 20
200.6393800987518
 72
     4
 94
        3
 73
     0
 74
     0
 95
       25
 96
       21
 40
0.0
 40
0.0
 40
0.0
 40
0.0
 40
0.165525918914855
 40
0.3412380755365305
 40
0.5940540902285263
 40
0.7697671103696209
 40
0.9377330196075423
 40
1.11479469302833
 40
1.274661249598185
 40
1.574522170874768
 40
1.815540668866877
 40
2.15849091873445
 40
2.536227739636605
 40
2.738070817316548
 40
2.925680654369045
 40
3.162706124480894
 40
3.395643218188267
 40
3.648478129958861
 40
3.928509979727306
 40
4.337226830236035
 40
4.337226830236035
 40
4.337226830236035
 40
4.337226830236035
 10
231.1377476479513
 20
200.6393800987518
 10
231.1526403053451
 20
200.6516868426974
 10
231.180887604649
 20
200.6809569659191
 10
231.2309888412887
 20
200.7283973142577
 10
231.2751390010953
 20
200.7836690847117
 10
231.3296014018126
 20
200.8284649175851
 10
231.3579543573516
 20
200.8832311439327
 10
231.3988229046557
 20
200.9263036144318
 10
231.433104923573
 20
200.9928247964223
 10
231.462191522273
 20
201.0692365615665
 10
231.4899215777705
 20
201.1688378452699
 10
231.5005480211072
 20
201.2812028983155
 10
231.48481956346
 20
201.3899160307465
 10
231.4468235857852
 20
201.4711755262834
 10
231.418889425016
 20
201.5388969409495
 10
231.3764958363736
 20
201.6030410446266
 10
231.328130481513
 20
201.6728048509608
 10
231.2599922607536
 20
201.7305108132758
 10
231.1709426021325
 20
201.8001135026513
 10
231.087999494414
 20
201.8027783791573
 10
231.0387794439884
 20
201.8043597686134
 72
     1
 10
231.0387794439884
 20
201.8043597686134
 11
230.2883256208029
 21
201.8043597686134
 97
        6
330
8CC
330
8CD
330
8CB
330
8CE
330
8CF
330
8D0
 92
       20
 93
        1
 72
     3
 10
230.4607840154338
 20
201.1266637763944
 11
0.1782847090673272
 21
0.1567790921840611
 40
0.678808341743879
 50
0.0
 51
360.0
 73
     1
 97
        1
330
8D1
 75
     0
 76
     1
 47
0.088756267210375
 98
        2
 10
230.5132152912024
 20
201.4401510467184
 10
230.5132152912024
 20
201.4401510467184
450
        0
451
        0
460
0.0
461
0.0
452
        0
462
0.0
453
        0
470

  0
LINE
  5
8D3
102
{ACAD_REACTORS
330
8E0
102
}
330
18
100
AcDbEntity
  8
ROGO
 62
     4
100
AcDbLine
 10
234.8212809433145
 20
201.7988825494411
 30
0.0
 11
234.7095756363935
 21
201.5748591406195
 31
0.0
  0
LINE
  5
8D4
102
{ACAD_REACTORS
330
8E0
102
}
330
18
100
AcDbEntity
  8
ROGO
 62
     4
100
AcDbLine
 10
234.7095756363935
 20
201.5748591406195
 30
0.0
 11
235.0635887194723
 21
201.7988825494411
 31
0.0
  0
LINE
  5
8D5
102
{ACAD_REACTORS
330
8E0
102
}
330
18
100
AcDbEntity
  8
ROGO
 62
     4
100
AcDbLine
 10
234.5767471741411
 20
200.7729431569881
 30
0.0
 11
235.088313689976
 21
199.7470037645351
 31
0.0
  0
LINE
  5
8D6
102
{ACAD_REACTORS
330
8E0
102
}
330
18
100
AcDbEntity
  8
ROGO
 62
     4
100
AcDbLine
 10
234.5767471741411
 20
200.7729431569881
 30
0.0
 11
235.8196559194723
 21
201.7988825494411
 31
0.0
  0
LINE
  5
8D7
102
{ACAD_REACTORS
330
8E0
102
}
330
18
100
AcDbEntity
  8
ROGO
 62
     4
100
AcDbLine
 10
235.0635887194723
 20
201.7988825494411
 30
0.0
 11
235.8196559194723
 21
201.7988825494411
 31
0.0
  0
LINE
  5
8D8
102
{ACAD_REACTORS
330
8E0
102
}
330
18
100
AcDbEntity
  8
ROGO
 62
     4
100
AcDbLine
 10
234.332246489976
 20
199.7470037645351
 30
0.0
 11
235.088313689976
 21
199.7470037645351
 31
0.0
  0
LINE
  5
8D9
102
{ACAD_REACTORS
330
8B1
102
}
330
18
100
AcDbEntity
  8
ROGO
 62
     4
100
AcDbLine
 10
233.3790103193578
 20
200.9743074972242
 30
0.0
 11
233.1353935986789
 21
200.4857376188836
 31
0.0
  0
LINE
  5
8DA
102
{ACAD_REACTORS
330
8B1
102
}
330
18
100
AcDbEntity
  8
ROGO
 62
     4
100
AcDbLine
 10
232.7247838477963
 20
201.3103074972242
 30
0.0
 11
233.5465507711476
 21
201.3103074972242
 31
0.0
  0
LINE
  5
8DB
102
{ACAD_REACTORS
330
8B1
102
}
330
18
100
AcDbEntity
  8
ROGO
 62
     4
100
AcDbLine
 10
233.7901700716881
 20
201.7988825494411
 30
0.0
 11
233.5465507711476
 21
201.3103074972242
 31
0.0
  0
LINE
  5
8DC
102
{ACAD_REACTORS
330
8E0
102
}
330
18
100
AcDbEntity
  8
ROGO
 62
     4
100
AcDbLine
 10
234.0651972008103
 20
201.7988825494411
 30
0.0
 11
233.0420641691404
 21
199.7470037645351
 31
0.0
  0
LINE
  5
8DD
102
{ACAD_REACTORS
330
8E0
102
}
330
18
100
AcDbEntity
  8
ROGO
 62
     4
100
AcDbLine
 10
234.0651972008103
 20
200.2825673266547
 30
0.0
 11
233.7981479116447
 21
199.7470037645351
 31
0.0
  0
LINE
  5
8DE
102
{ACAD_REACTORS
330
8E0
102
}
330
18
100
AcDbEntity
  8
ROGO
 62
     4
100
AcDbLine
 10
234.0651972008103
 20
201.7988825494411
 30
0.0
 11
234.8212809433145
 21
201.7988825494411
 31
0.0
  0
LINE
  5
8DF
102
{ACAD_REACTORS
330
8E0
102
}
330
18
100
AcDbEntity
  8
ROGO
 62
     4
100
AcDbLine
 10
234.0651972008103
 20
200.2825673266547
 30
0.0
 11
234.332246489976
 21
199.7470037645351
 31
0.0
  0
HATCH
  5
8E0
330
18
100
AcDbEntity
  8
ROGO
 62
     4
100
AcDbHatch
 10
0.0
 20
0.0
 30
0.0
210
0.0
220
0.0
230
1.0
  2
SOLID
 70
     1
 71
     1
 91
        1
 92
        7
 72
     0
 73
     1
 93
       11
 10
233.0420641691405
 20
199.7470037645351
 10
233.7981479116447
 20
199.7470037645351
 10
234.0651972008104
 20
200.2825673266547
 10
234.332246489976
 20
199.7470037645351
 10
235.088313689976
 20
199.7470037645351
 10
234.5767471741411
 20
200.7729431569881
 10
235.8196559194723
 20
201.7988825494411
 10
235.0635887194723
 20
201.7988825494411
 10
234.7095756363935
 20
201.5748591406195
 10
234.8212809433145
 20
201.7988825494411
 10
234.0651972008103
 20
201.798882549441
 97
       11
330
8D7
330
8D4
330
8D3
330
8DE
330
8DC
330
82F
330
8DD
330
8DF
330
8D8
330
8D5
330
8D6
 75
     0
 76
     1
 47
0.0514683685270805
 98
        1
 10
234.0001259544064
 20
200.9185865659996
450
        0
451
        0
460
0.0
461
0.0
452
        0
462
0.0
453
        0
470

  0
LINE
  5
8E2
330
18
100
AcDbEntity
  8
目盛
100
AcDbLine
 10
226.1474153503812
 20
215.3885306621849
 30
0.0
 11
226.2729963894397
 21
213.3924772053283
 31
0.0
  0
LINE
  5
8E3
330
18
100
AcDbEntity
  8
目盛
100
AcDbLine
 10
224.7089329275764
 20
215.2525540385676
 30
0.0
 11
224.9595993947049
 21
213.2683246359386
 31
0.0
  0
LINE
  5
8E4
330
18
100
AcDbEntity
  8
目盛
100
AcDbLine
 10
227.5915972995554
 20
215.4339159083346
 30
0.0
 11
227.5915972995554
 21
212.4339159083346
 31
0.0
  0
LINE
  5
8E5
330
18
100
AcDbEntity
  8
目盛
100
AcDbLine
 10
231.9013675350271
 20
215.0265226750944
 30
0.0
 11
231.5266049058557
 21
213.061948173637
 31
0.0
  0
LINE
  5
8E6
330
18
100
AcDbEntity
  8
目盛
100
AcDbLine
 10
230.4742616715346
 20
215.2525540385676
 30
0.0
 11
230.2235952044059
 21
213.2683246359386
 31
0.0
  0
LINE
  5
8E7
330
18
100
AcDbEntity
  8
目盛
100
AcDbLine
 10
229.0357792487298
 20
215.3885306621849
 30
0.0
 11
228.9101982096711
 21
213.3924772053283
 31
0.0
  0
LINE
  5
8E8
330
18
100
AcDbEntity
  8
外形線
  6
Continuous
100
AcDbLine
 10
231.2915972995554
 20
220.4339159083345
 30
0.0
 11
231.2915972995554
 21
218.5733497201064
 31
0.0
  0
LINE
  5
8E9
330
18
100
AcDbEntity
  8
目盛
100
AcDbLine
 10
237.3845210055522
 20
213.244938115053
 30
0.0
 11
236.532962422422
 21
211.4352840101209
 31
0.0
  0
LINE
  5
8EA
330
18
100
AcDbEntity
  8
目盛
100
AcDbLine
 10
236.058462011303
 20
213.8187750837643
 30
0.0
 11
235.3222129059336
 21
211.9592221119878
 31
0.0
  0
LINE
  5
8EB
330
18
100
AcDbEntity
  8
目盛
100
AcDbLine
 10
233.3114647043471
 20
214.7113286142931
 30
0.0
 11
232.8140849300174
 21
212.7741622920358
 31
0.0
  0
LINE
  5
8EC
330
18
100
AcDbEntity
  8
目盛
100
AcDbLine
 10
234.6989881701793
 20
214.308215783123
 30
0.0
 11
233.7719371870544
 21
211.4550462342376
 31
0.0
  0
LINE
  5
8ED
330
18
100
AcDbEntity
  8
目盛
100
AcDbLine
 10
238.671931803895
 20
212.5889695493433
 30
0.0
 11
237.7084244556915
 21
210.8363561892556
 31
0.0
  0
LINE
  5
8EE
330
18
100
AcDbEntity
  8
目盛
100
AcDbLine
 10
249.8690100055139
 20
198.1537833131262
 30
0.0
 11
247.9318436832566
 21
197.6564035387965
 31
0.0
  0
LINE
  5
8EF
330
18
100
AcDbEntity
  8
目盛
100
AcDbLine
 10
249.4658971743438
 20
199.5413067789583
 30
0.0
 11
246.6127276254583
 21
198.6142557958336
 31
0.0
  0
LINE
  5
8F0
330
18
100
AcDbEntity
  8
目盛
100
AcDbLine
 10
247.0111395861017
 20
204.7579321928515
 30
0.0
 11
245.3224837350977
 21
203.6862786028935
 31
0.0
  0
LINE
  5
8F1
330
18
100
AcDbEntity
  8
目盛
100
AcDbLine
 10
248.9764564749851
 20
200.9007806200822
 30
0.0
 11
247.1169035032085
 21
200.1645315147128
 31
0.0
  0
LINE
  5
8F2
330
18
100
AcDbEntity
  8
目盛
100
AcDbLine
 10
248.4026195062738
 20
202.2268396143313
 30
0.0
 11
246.5929654013418
 21
201.3752810312011
 31
0.0
  0
LINE
  5
8F3
330
18
100
AcDbEntity
  8
目盛
100
AcDbLine
 10
247.7466509405642
 20
203.514250412674
 30
0.0
 11
245.9940375804765
 21
202.5507430644706
 31
0.0
  0
LINE
  5
8F4
330
18
100
AcDbEntity
  8
目盛
100
AcDbLine
 10
246.1989881701791
 20
205.9529767110614
 30
0.0
 11
243.7719371870543
 21
204.189620954184
 31
0.0
  0
LINE
  5
8F5
330
18
100
AcDbEntity
  8
目盛
100
AcDbLine
 10
245.3134018833984
 20
207.0946676725544
 30
0.0
 11
243.7723753978469
 21
205.819819693057
 31
0.0
  0
LINE
  5
8F6
330
18
100
AcDbEntity
  8
目盛
100
AcDbLine
 10
242.2523490637752
 20
210.1557204921777
 30
0.0
 11
240.9775010842778
 21
208.6146940066261
 31
0.0
  0
LINE
  5
8F7
330
18
100
AcDbEntity
  8
目盛
100
AcDbLine
 10
244.3578757302478
 20
208.1784993446944
 30
0.0
 11
242.899938475405
 21
206.809405132837
 31
0.0
  0
LINE
  5
8F8
330
18
100
AcDbEntity
  8
目盛
100
AcDbLine
 10
243.3361807359152
 20
209.200194339027
 30
0.0
 11
241.9670865240578
 21
207.7422570841842
 31
0.0
  0
LINE
  5
8F9
330
18
100
AcDbEntity
  8
外形線
  6
Continuous
100
AcDbLine
 10
223.8915972995554
 20
232.9339159083345
 30
0.0
 11
231.2915972995554
 21
232.9339159083345
 31
0.0
  0
ARC
  5
8FA
330
18
100
AcDbEntity
  8
外形線
  6
Continuous
100
AcDbCircle
 10
227.5915972995553
 20
226.5889159083347
 30
0.0
 40
7.344999999999885
100
AcDbArc
 50
59.75198538337817
 51
120.2480146166212
  0
LINE
  5
8FB
330
18
100
AcDbEntity
  8
外形線
  6
Continuous
100
AcDbLine
 10
223.5915972995554
 20
226.4339159083345
 30
0.0
 11
231.5915972995553
 21
226.4339159083345
 31
0.0
  0
LINE
  5
8FC
330
18
100
AcDbEntity
  8
外形線
  6
Continuous
100
AcDbLine
 10
223.8915972995554
 20
232.9339159083345
 30
0.0
 11
223.8915972995554
 21
226.4339159083345
 31
0.0
  0
LINE
  5
8FD
330
18
100
AcDbEntity
  8
外形線
  6
Continuous
100
AcDbLine
 10
231.2915972995554
 20
232.9339159083345
 30
0.0
 11
231.2915972995554
 21
226.4339159083345
 31
0.0
  0
POINT
  5
8FE
330
18
100
AcDbEntity
  8
DEFPOINTS
  6
ByBlock
 62
     0
100
AcDbPoint
 10
227.5915972995553
 20
233.9339159083346
 30
0.0
  0
CIRCLE
  5
8FF
330
18
100
AcDbEntity
  8
外形線
100
AcDbCircle
 10
227.5915972995554
 20
192.4339159083346
 30
0.0
 40
26.4
  0
LINE
  5
900
330
18
100
AcDbEntity
  8
0
  6
ByBlock
 62
     2
100
AcDbLine
 10
52.52382909370907
 20
125.304111018429
 30
0.0
 11
29.61881874973386
 21
129.2363876660106
 31
0.0
  0
LINE
  5
901
330
18
100
AcDbEntity
  8
0
  6
ByBlock
 62
     2
100
AcDbLine
 10
67.75206813416179
 20
214.0066627467303
 30
0.0
 11
44.84705779018658
 21
217.9389393943119
 31
0.0
  0
LINE
  5
902
330
18
100
AcDbEntity
  8
0
  6
ByBlock
 62
     2
100
AcDbLine
 10
31.27380098954768
 20
131.4888382838713
 30
0.0
 11
45.6560289405868
 21
215.2634832317445
 31
0.0
  0
INSERT
  5
903
330
18
100
AcDbEntity
  8
0
  6
ByBlock
 62
     2
100
AcDbBlockReference
  2
_OPEN
 10
30.85079544484088
 20
129.0248848936572
 30
0.0
 41
2.5
 42
2.5
 43
2.5
 50
260.2585624311834
  0
INSERT
  5
904
330
18
100
AcDbEntity
  8
0
  6
ByBlock
 62
     2
100
AcDbBlockReference
  2
_OPEN
 10
46.0790344852936
 20
217.7274366219585
 30
0.0
 41
2.5
 42
2.5
 43
2.5
 50
80.25856243118331
  0
MTEXT
  5
905
330
18
100
AcDbEntity
  8
0
  6
ByBlock
 62
     6
100
AcDbMText
 10
36.61694992240671
 20
173.6934149163379
 30
0.0
 40
2.5
 41
0.0
 71
     5
 72
     1
  1
\A1;90
  7
STYLE3
 11
0.169202217882721
 21
0.9855813560856192
 31
0.0
 73
     1
 44
1.0
  0
POINT
  5
906
330
18
100
AcDbEntity
  8
DEFPOINTS
  6
ByBlock
 62
     0
100
AcDbPoint
 10
52.52382909370907
 20
125.304111018429
 30
0.0
  0
POINT
  5
907
330
18
100
AcDbEntity
  8
DEFPOINTS
  6
ByBlock
 62
     0
100
AcDbPoint
 10
67.75206813416179
 20
214.0066627467303
 30
0.0
  0
POINT
  5
908
330
18
100
AcDbEntity
  8
DEFPOINTS
  6
ByBlock
 62
     0
100
AcDbPoint
 10
46.0790344852936
 20
217.7274366219585
 30
0.0
  0
LINE
  5
909
330
18
100
AcDbEntity
  8
0
  6
ByBlock
 62
     2
100
AcDbLine
 10
54.06974977654638
 20
108.8841567576776
 30
0.0
 11
54.61221004035744
 21
102.6838075701478
 31
0.0
  0
LINE
  5
90A
330
18
100
AcDbEntity
  8
0
  6
ByBlock
 62
     2
100
AcDbLine
 10
82.08628654762836
 20
132.6036693511389
 30
0.0
 11
84.47535480675623
 21
105.2964941944413
 31
0.0
  0
LINE
  5
90B
330
18
100
AcDbEntity
  8
0
  6
ByBlock
 62
     2
100
AcDbLine
 10
56.99375210715223
 20
104.1469402996316
 30
0.0
 11
81.87592338309229
 21
106.3238482101868
 31
0.0
  0
INSERT
  5
90C
330
18
100
AcDbEntity
  8
0
  6
ByBlock
 62
     2
100
AcDbBlockReference
  2
_OPEN
 10
54.50326536192287
 20
103.9290509427625
 30
0.0
 41
2.5
 42
2.5
 43
2.5
 50
185.0000000000001
  0
INSERT
  5
90D
330
18
100
AcDbEntity
  8
0
  6
ByBlock
 62
     2
100
AcDbBlockReference
  2
_OPEN
 10
84.36641012832167
 20
106.541737567056
 30
0.0
 41
2.5
 42
2.5
 43
2.5
 50
5.000000000000198
  0
MTEXT
  5
90E
330
18
100
AcDbEntity
  8
0
  6
ByBlock
 62
     6
100
AcDbMText
 10
69.27142072747042
 20
107.1032593138312
 30
0.0
 40
2.5
 41
0.0
 71
     5
 72
     1
  1
\A1;30
  7
STYLE3
 11
0.9961946980917451
 21
0.0871557427476616
 31
0.0
 73
     1
 44
1.0
  0
POINT
  5
90F
330
18
100
AcDbEntity
  8
DEFPOINTS
  6
ByBlock
 62
     0
100
AcDbPoint
 10
54.06974977654638
 20
108.8841567576776
 30
0.0
 50
84.9999999999998
  0
POINT
  5
910
330
18
100
AcDbEntity
  8
DEFPOINTS
  6
ByBlock
 62
     0
100
AcDbPoint
 10
82.08628654762836
 20
132.6036693511389
 30
0.0
 50
84.9999999999998
  0
POINT
  5
911
330
18
100
AcDbEntity
  8
DEFPOINTS
  6
ByBlock
 62
     0
100
AcDbPoint
 10
84.36641012832167
 20
106.541737567056
 30
0.0
 50
84.9999999999998
  0
LINE
  5
912
330
18
100
AcDbEntity
  8
0
  6
ByBlock
 62
     2
100
AcDbLine
 10
52.63277377214362
 20
125.3088676458143
 30
0.0
 11
55.45886012740246
 21
93.00655279308658
 31
0.0
  0
LINE
  5
913
330
18
100
AcDbEntity
  8
0
  6
ByBlock
 62
     2
100
AcDbLine
 10
178.167814325307
 20
124.650944002624
 30
0.0
 11
179.9831973888707
 21
103.9010206365443
 31
0.0
  0
LINE
  5
914
330
18
100
AcDbEntity
  8
0
  6
ByBlock
 62
     2
100
AcDbLine
 10
57.84040219419726
 20
94.46968552257043
 30
0.0
 11
177.3837659652068
 21
104.9283746522898
 31
0.0
  0
INSERT
  5
915
330
18
100
AcDbEntity
  8
0
  6
ByBlock
 62
     2
100
AcDbBlockReference
  2
_OPEN
 10
55.34991544896789
 20
94.25179616570126
 30
0.0
 41
2.5
 42
2.5
 43
2.5
 50
185.0000000000001
  0
INSERT
  5
916
330
18
100
AcDbEntity
  8
0
  6
ByBlock
 62
     2
100
AcDbBlockReference
  2
_OPEN
 10
179.8742527104361
 20
105.146264009159
 30
0.0
 41
2.5
 42
2.5
 43
2.5
 50
5.000000000000198
  0
MTEXT
  5
917
330
18
100
AcDbEntity
  8
0
  6
ByBlock
 62
     6
100
AcDbMText
 10
117.4486670620501
 20
101.5668951463521
 30
0.0
 40
2.5
 41
0.0
 71
     5
 72
     1
  1
\A1;125
  7
STYLE3
 11
0.9961946980917451
 21
0.0871557427476616
 31
0.0
 73
     1
 44
1.0
  0
POINT
  5
918
330
18
100
AcDbEntity
  8
DEFPOINTS
  6
ByBlock
 62
     0
100
AcDbPoint
 10
52.63277377214362
 20
125.3088676458143
 30
0.0
 50
84.9999999999998
  0
POINT
  5
919
330
18
100
AcDbEntity
  8
DEFPOINTS
  6
ByBlock
 62
     0
100
AcDbPoint
 10
178.167814325307
 20
124.650944002624
 30
0.0
 50
84.9999999999998
  0
POINT
  5
91A
330
18
100
AcDbEntity
  8
DEFPOINTS
  6
ByBlock
 62
     0
100
AcDbPoint
 10
179.8742527104361
 20
105.146264009159
 30
0.0
 50
84.9999999999998
  0
LINE
  5
91B
330
18
100
AcDbEntity
  8
0
  6
ByBlock
 62
     2
100
AcDbLine
 10
101.7728541281224
 20
128.7627434329221
 30
0.0
 11
103.6788958956119
 21
106.9765863392705
 31
0.0
  0
LINE
  5
91C
330
18
100
AcDbEntity
  8
0
  6
ByBlock
 62
     2
100
AcDbLine
 10
86.85689687355102
 20
106.7596269239251
 30
0.0
 11
101.079464471948
 21
108.003940355016
 31
0.0
  0
INSERT
  5
91D
330
18
100
AcDbEntity
  8
0
  6
ByBlock
 62
     2
100
AcDbBlockReference
  2
_OPEN
 10
84.36641012832165
 20
106.541737567056
 30
0.0
 41
2.5
 42
2.5
 43
2.5
 50
185.0000000000001
  0
INSERT
  5
91E
330
18
100
AcDbEntity
  8
0
  6
ByBlock
 62
     2
100
AcDbBlockReference
  2
_OPEN
 10
103.5699512171774
 20
108.2218297118852
 30
0.0
 41
2.5
 42
2.5
 43
2.5
 50
5.000000000000198
  0
MTEXT
  5
91F
330
18
100
AcDbEntity
  8
0
  6
ByBlock
 62
     6
100
AcDbMText
 10
93.80476365509764
 20
109.2496486983926
 30
0.0
 40
2.5
 41
0.0
 71
     5
 72
     1
  1
\A1;20
  7
STYLE3
 11
0.9961946980917451
 21
0.0871557427476616
 31
0.0
 73
     1
 44
1.0
  0
POINT
  5
920
330
18
100
AcDbEntity
  8
DEFPOINTS
  6
ByBlock
 62
     0
100
AcDbPoint
 10
82.08628654762835
 20
132.6036693511389
 30
0.0
 50
84.9999999999998
  0
POINT
  5
921
330
18
100
AcDbEntity
  8
DEFPOINTS
  6
ByBlock
 62
     0
100
AcDbPoint
 10
101.7728541281224
 20
128.7627434329221
 30
0.0
 50
84.9999999999998
  0
POINT
  5
922
330
18
100
AcDbEntity
  8
DEFPOINTS
  6
ByBlock
 62
     0
100
AcDbPoint
 10
103.5699512171774
 20
108.2218297118852
 30
0.0
 50
84.9999999999998
  0
LINE
  5
923
330
18
100
AcDbEntity
  8
0
  6
ByBlock
 62
     2
100
AcDbLine
 10
346.5915972995554
 20
158.9339159083346
 30
0.0
 11
364.0773977827828
 21
158.9339159083346
 31
0.0
  0
LINE
  5
924
330
18
100
AcDbEntity
  8
0
  6
ByBlock
 62
     2
100
AcDbLine
 10
346.5915972995554
 20
128.9339159083346
 30
0.0
 11
364.0773977827828
 21
128.9339159083346
 31
0.0
  0
LINE
  5
925
330
18
100
AcDbEntity
  8
0
  6
ByBlock
 62
     2
100
AcDbLine
 10
362.8273977827828
 20
156.4339159083346
 30
0.0
 11
362.8273977827828
 21
131.4339159083346
 31
0.0
  0
INSERT
  5
926
330
18
100
AcDbEntity
  8
0
  6
ByBlock
 62
     2
100
AcDbBlockReference
  2
_OPEN
 10
362.8273977827828
 20
158.9339159083346
 30
0.0
 41
2.5
 42
2.5
 43
2.5
 50
90.0
  0
INSERT
  5
927
330
18
100
AcDbEntity
  8
0
  6
ByBlock
 62
     2
100
AcDbBlockReference
  2
_OPEN
 10
362.8273977827828
 20
128.9339159083346
 30
0.0
 41
2.5
 42
2.5
 43
2.5
 50
270.0
  0
MTEXT
  5
928
330
18
100
AcDbEntity
  8
0
  6
ByBlock
 62
     6
100
AcDbMText
 10
360.9523977827828
 20
143.9339159083346
 30
0.0
 40
2.5
 41
0.0
 71
     5
 72
     1
  1
\A1;30
  7
STYLE3
 11
0.0000000000000001
 21
1.0
 31
0.0
 73
     1
 44
1.0
  0
POINT
  5
929
330
18
100
AcDbEntity
  8
DEFPOINTS
  6
ByBlock
 62
     0
100
AcDbPoint
 10
346.5915972995554
 20
158.9339159083346
 30
0.0
  0
POINT
  5
92A
330
18
100
AcDbEntity
  8
DEFPOINTS
  6
ByBlock
 62
     0
100
AcDbPoint
 10
346.5915972995554
 20
128.9339159083346
 30
0.0
  0
POINT
  5
92B
330
18
100
AcDbEntity
  8
DEFPOINTS
  6
ByBlock
 62
     0
100
AcDbPoint
 10
362.8273977827828
 20
128.9339159083346
 30
0.0
  0
LINE
  5
92C
330
18
100
AcDbEntity
  8
0
  6
ByBlock
 62
     2
100
AcDbLine
 10
351.5915972995554
 20
130.2339159083345
 30
0.0
 11
351.5915972995554
 21
84.45335569708879
 31
0.0
  0
LINE
  5
92D
330
18
100
AcDbEntity
  8
0
  6
ByBlock
 62
     2
100
AcDbLine
 10
254.0915972995553
 20
85.70335569708879
 30
0.0
 11
349.0915972995554
 21
85.70335569708879
 31
0.0
  0
INSERT
  5
92E
330
18
100
AcDbEntity
  8
0
  6
ByBlock
 62
     2
100
AcDbBlockReference
  2
_OPEN
 10
251.5915972995554
 20
85.70335569708879
 30
0.0
 41
2.5
 42
2.5
 43
2.5
 50
180.0
  0
INSERT
  5
92F
330
18
100
AcDbEntity
  8
0
  6
ByBlock
 62
     2
100
AcDbBlockReference
  2
_OPEN
 10
351.5915972995554
 20
85.70335569708879
 30
0.0
 41
2.5
 42
2.5
 43
2.5
  0
MTEXT
  5
930
330
18
100
AcDbEntity
  8
0
  6
ByBlock
 62
     6
100
AcDbMText
 10
301.5915972995554
 20
87.57835569708879
 30
0.0
 40
2.5
 41
0.0
 71
     5
 72
     1
  1
\A1;100
  7
STYLE3
 73
     1
 44
1.0
  0
POINT
  5
931
330
18
100
AcDbEntity
  8
DEFPOINTS
  6
ByBlock
 62
     0
100
AcDbPoint
 10
251.5915972995554
 20
130.2339159083346
 30
0.0
  0
POINT
  5
932
330
18
100
AcDbEntity
  8
DEFPOINTS
  6
ByBlock
 62
     0
100
AcDbPoint
 10
351.5915972995554
 20
130.2339159083345
 30
0.0
  0
POINT
  5
933
330
18
100
AcDbEntity
  8
DEFPOINTS
  6
ByBlock
 62
     0
100
AcDbPoint
 10
351.5915972995554
 20
85.70335569708879
 30
0.0
  0
LINE
  5
934
330
18
100
AcDbEntity
  8
0
  6
ByBlock
 62
     2
100
AcDbLine
 10
211.5915972995554
 20
118.4134943093755
 30
0.0
 11
211.5915972995554
 21
84.45335569708879
 31
0.0
  0
LINE
  5
935
330
18
100
AcDbEntity
  8
0
  6
ByBlock
 62
     2
100
AcDbLine
 10
251.5915972995554
 20
130.2339159083346
 30
0.0
 11
251.5915972995554
 21
84.45335569708879
 31
0.0
  0
LINE
  5
936
330
18
100
AcDbEntity
  8
0
  6
ByBlock
 62
     2
100
AcDbLine
 10
214.0915972995554
 20
85.70335569708879
 30
0.0
 11
249.0915972995554
 21
85.70335569708879
 31
0.0
  0
INSERT
  5
937
330
18
100
AcDbEntity
  8
0
  6
ByBlock
 62
     2
100
AcDbBlockReference
  2
_OPEN
 10
211.5915972995554
 20
85.70335569708879
 30
0.0
 41
2.5
 42
2.5
 43
2.5
 50
180.0
  0
INSERT
  5
938
330
18
100
AcDbEntity
  8
0
  6
ByBlock
 62
     2
100
AcDbBlockReference
  2
_OPEN
 10
251.5915972995554
 20
85.70335569708879
 30
0.0
 41
2.5
 42
2.5
 43
2.5
  0
MTEXT
  5
939
330
18
100
AcDbEntity
  8
0
  6
ByBlock
 62
     6
100
AcDbMText
 10
231.5915972995554
 20
87.57835569708879
 30
0.0
 40
2.5
 41
0.0
 71
     5
 72
     1
  1
\A1;40
  7
STYLE3
 73
     1
 44
1.0
  0
POINT
  5
93A
330
18
100
AcDbEntity
  8
DEFPOINTS
  6
ByBlock
 62
     0
100
AcDbPoint
 10
211.5915972995554
 20
118.4134943093755
 30
0.0
  0
POINT
  5
93B
330
18
100
AcDbEntity
  8
DEFPOINTS
  6
ByBlock
 62
     0
100
AcDbPoint
 10
251.5915972995554
 20
130.2339159083346
 30
0.0
  0
POINT
  5
93C
330
18
100
AcDbEntity
  8
DEFPOINTS
  6
ByBlock
 62
     0
100
AcDbPoint
 10
251.5915972995554
 20
85.70335569708879
 30
0.0
  0
LINE
  5
940
330
18
100
AcDbEntity
  8
想像線
 48
0.2
100
AcDbLine
 10
69.00115454051384
 20
134.9974123653936
 30
0.0
 11
69.61180904383543
 21
128.0175994535114
 31
0.0
  0
LINE
  5
942
330
18
100
AcDbEntity
  8
想像線
 48
0.2
100
AcDbLine
 10
66.03029211393063
 20
134.5333855485387
 30
0.0
 11
66.60644152447284
 21
127.9479676518365
 31
0.0
  0
DIMENSION
  5
96F
330
18
100
AcDbEntity
  8
寸法線
100
AcDbDimension
  2
*D1
 10
70.43628871551958
 20
118.5937536835981
 30
0.0
 11
78.19129275281508
 21
121.8116538067206
 31
0.0
 70
    32
  1
(3)
 71
     5
 42
2.999999999999985
 51
355.0
  3
STYLE3
100
AcDbAlignedDimension
 13
66.60644152447284
 23
127.9479676518365
 33
0.0
 14
69.61180904383542
 24
128.0175994535115
 34
0.0
 50
4.999999999999999
100
AcDbRotatedDimension
1001
ACAD
1000
DSTYLE
1002
{
1070
   271
1070
     2
1002
}
  0
LINE
  5
B25
330
18
100
AcDbEntity
  8
中心線
 48
0.2
100
AcDbLine
 10
224.3724268352882
 20
190.2511610082559
 30
0.0
 11
224.2355110360999
 21
174.5621643978851
 31
0.0
  0
TEXT
  5
B3A
330
18
100
AcDbEntity
  8
文字
100
AcDbText
 10
209.2135392837281
 20
197.6615173069933
 30
0.0
 40
2.0
  1
2
 50
359.4999999999994
  7
STYLE3
100
AcDbText
  0
TEXT
  5
B3B
330
18
100
AcDbEntity
  8
文字
100
AcDbText
 10
209.0018383316456
 20
185.5134504897622
 30
0.0
 40
2.0
  1
3
 50
359.4999999999994
  7
STYLE3
100
AcDbText
  0
LINE
  5
B54
330
18
100
AcDbEntity
  8
目盛
100
AcDbLine
 10
221.4784000395488
 20
178.5699329084466
 30
0.0
 11
221.7758114329244
 21
178.9718613387552
 31
0.0
  0
LINE
  5
B55
330
18
100
AcDbEntity
  8
目盛
100
AcDbLine
 10
221.5454692369906
 20
186.255301708571
 30
0.0
 11
221.8358207148462
 21
185.8482439493928
 31
0.0
  0
LINE
  5
B56
330
18
100
AcDbEntity
  8
中心線
 48
0.2
100
AcDbLine
 10
217.3447980775627
 20
182.4489833583401
 30
0.0
 11
231.8722323442971
 21
182.3222043601554
 31
0.0
  0
CIRCLE
  5
B57
330
18
100
AcDbEntity
  8
外形線
100
AcDbCircle
 10
224.3038082766177
 20
182.3882529963785
 30
0.0
 40
4.75
  0
TEXT
  5
B58
330
18
100
AcDbEntity
  8
文字
100
AcDbText
 10
215.3050980254081
 20
176.8230851537809
 30
0.0
 40
2.0
  1
4
 50
359.4999999999994
  7
STYLE3
100
AcDbText
  0
TEXT
  5
B5B
330
18
100
AcDbEntity
  8
文字
100
AcDbText
 10
220.4821879312086
 20
183.1362972927646
 30
0.0
 40
0.7
  1
80
 50
359.4999999999994
  7
STYLE3
100
AcDbText
  0
TEXT
  5
B5C
330
18
100
AcDbEntity
  8
文字
100
AcDbText
 10
220.4335587704602
 20
180.9149913611019
 30
0.0
 40
0.7
  1
70
 50
359.4999999999994
  7
STYLE3
100
AcDbText
  0
LINE
  5
B5D
330
18
100
AcDbEntity
  8
目盛
100
AcDbLine
 10
219.7736527605635
 20
180.9599004487331
 30
0.0
 11
220.2505112359377
 21
181.1102533484853
 31
0.0
  0
LINE
  5
B5E
330
18
100
AcDbEntity
  8
目盛
100
AcDbLine
 10
219.7992709143882
 20
183.8954501143026
 30
0.0
 11
220.2734327419914
 21
183.7367977861001
 31
0.0
  0
HATCH
  5
B5F
330
18
100
AcDbEntity
  8
針
100
AcDbHatch
 10
0.0
 20
0.0
 30
0.0
210
0.0
220
0.0
230
1.0
  2
SOLID
 70
     1
 71
     0
 91
        3
 92
        7
 72
     1
 73
     1
 93
        5
 10
227.2946567006887
 20
186.0784190772252
 42
0.0105298176880202
 10
227.1366289431047
 20
186.2010770247758
 42
0.0
 10
226.8384372940008
 20
185.7997271270497
 42
0.0
 10
224.9896490695567
 20
183.3113577611483
 42
-0.0437283108272093
 10
225.1397375099225
 20
183.1780139202702
 42
0.0
 97
        0
 92
        7
 72
     1
 73
     1
 93
        4
 10
227.1366289431047
 20
186.2010770247758
 42
0.0105298176880232
 10
226.9735767825078
 20
186.3169723965083
 42
0.0
 10
224.8186575917418
 20
183.4165672395533
 42
-0.0437283108272093
 10
224.9896490695567
 20
183.3113577611483
 42
0.0
 97
        0
 92
      137
 93
        4
 72
     1
 10
225.4840084360417
 20
184.9719365560387
 11
226.4204915307358
 21
184.2761560414629
 72
     1
 10
226.4204915307358
 20
184.276156041463
 11
227.3150664780475
 21
185.4802057346411
 72
     1
 10
227.3150664780476
 20
185.480205734641
 11
226.3785833833535
 21
186.1759862492168
 72
     1
 10
226.3785833833536
 20
186.1759862492168
 11
225.4840084360419
 21
184.9719365560387
 97
        0
 75
     0
 76
     1
 47
0.0128177587452554
 98
        3
 10
225.4273496091046
 20
183.6511385350936
 10
226.0841298983021
 20
184.664190858373
 10
225.9093900547015
 20
184.7301442295517
450
        0
451
        0
460
0.0
461
0.0
452
        0
462
0.0
453
        0
470

  0
LINE
  5
B60
330
18
100
AcDbEntity
  8
針
 48
0.2
100
AcDbLine
 10
226.9735767825078
 20
186.3169723965083
 30
0.0
 11
224.8186575917418
 21
183.4165672395533
 31
0.0
  0
LINE
  5
B61
330
18
100
AcDbEntity
  8
針
 48
0.2
100
AcDbLine
 10
227.2946567006887
 20
186.0784190772252
 30
0.0
 11
225.1397375099225
 21
183.1780139202702
 31
0.0
  0
LINE
  5
B62
330
18
100
AcDbEntity
  8
目盛
100
AcDbLine
 10
224.3452593202349
 20
187.1380721309332
 30
0.0
 11
224.3408960524858
 21
186.6380911694012
 31
0.0
  0
TEXT
  5
B63
330
18
100
AcDbEntity
  8
文字
100
AcDbText
 10
226.8910026893109
 20
180.7471123716683
 30
0.0
 40
0.7
  1
30
 50
359.4999999999994
  7
STYLE3
100
AcDbText
  0
TEXT
  5
B64
330
18
100
AcDbEntity
  8
文字
100
AcDbText
 10
226.8259112283637
 20
182.9278023941669
 30
0.0
 40
0.7
  1
20
 50
359.4999999999994
  7
STYLE3
100
AcDbText
  0
TEXT
  5
B65
330
18
100
AcDbEntity
  8
文字
100
AcDbText
 10
221.7961224748936
 20
184.9064685089057
 30
0.0
 40
0.7
  1
90
 50
359.4999999999994
  7
STYLE3
100
AcDbText
  0
TEXT
  5
B66
330
18
100
AcDbEntity
  8
文字
100
AcDbText
 10
221.7154756446139
 20
179.1067468560758
 30
0.0
 40
0.7
  1
60
 50
359.4999999999994
  7
STYLE3
100
AcDbText
  0
TEXT
  5
B67
330
18
100
AcDbEntity
  8
文字
100
AcDbText
 10
223.6075228538943
 20
178.4918861800367
 30
0.0
 40
0.7
  1
50
 50
359.4999999999994
  7
STYLE3
100
AcDbText
  0
TEXT
  5
B68
330
18
100
AcDbEntity
  8
文字
100
AcDbText
 10
225.68453407119
 20
179.153460242213
 30
0.0
 40
0.7
  1
40
 50
359.4999999999994
  7
STYLE3
100
AcDbText
  0
TEXT
  5
B69
330
18
100
AcDbEntity
  8
文字
100
AcDbText
 10
225.7366840977244
 20
184.8214719098367
 30
0.0
 40
0.7
  1
10
 50
359.4999999999994
  7
STYLE3
100
AcDbText
  0
TEXT
  5
B6A
330
18
100
AcDbEntity
  8
文字
100
AcDbText
 10
223.9677376866016
 20
185.4396739418246
 30
0.0
 40
0.7
  1
0
 50
359.4999999999994
  7
STYLE3
100
AcDbText
  0
CIRCLE
  5
B6B
330
18
100
AcDbEntity
  8
外形線
100
AcDbCircle
 10
224.3038082766177
 20
182.3882529963785
 30
0.0
 40
1.149999999999999
  0
LINE
  5
B6C
330
18
100
AcDbEntity
  8
目盛
100
AcDbLine
 10
227.1292165136865
 20
186.2065730843102
 30
0.0
 11
226.8318051203109
 21
185.8046446540016
 31
0.0
  0
LINE
  5
B6D
330
18
100
AcDbEntity
  8
目盛
100
AcDbLine
 10
227.0621473162448
 20
178.5212042841859
 30
0.0
 11
226.7717958383892
 21
178.9282620433641
 31
0.0
  0
LINE
  5
B6E
330
18
100
AcDbEntity
  8
目盛
100
AcDbLine
 10
224.2623572330004
 20
177.6384338618236
 30
0.0
 11
224.2667205007496
 21
178.1384148233557
 31
0.0
  0
LINE
  5
B6F
330
18
100
AcDbEntity
  8
目盛
100
AcDbLine
 10
228.8339637926717
 20
183.8166055440237
 30
0.0
 11
228.3571053172976
 21
183.6662526442716
 31
0.0
  0
LINE
  5
B70
330
18
100
AcDbEntity
  8
目盛
100
AcDbLine
 10
228.808345638847
 20
180.8810558784542
 30
0.0
 11
228.334183811244
 21
181.0397082066567
 31
0.0
  0
TEXT
  5
B7C
330
18
100
AcDbEntity
  8
文字
100
AcDbText
 10
215.9974426878644
 20
206.553023651144
 30
0.0
 40
2.0
  1
1
 50
359.4999999999994
  7
STYLE3
100
AcDbText
  0
TEXT
  5
BDB
330
18
100
AcDbEntity
  8
文字
100
AcDbText
 10
243.7232514829986
 20
196.9617250913352
 30
0.0
 40
2.0
  1
8
 50
359.4999999999994
  7
STYLE3
100
AcDbText
  0
TEXT
  5
BDE
330
18
100
AcDbEntity
  8
文字
100
AcDbText
 10
243.75860229306
 20
185.465276944952
 30
0.0
 40
2.0
  1
7
 50
359.4999999999994
  7
STYLE3
100
AcDbText
  0
TEXT
  5
BDF
330
18
100
AcDbEntity
  8
文字
100
AcDbText
 10
236.7392198452276
 20
176.4279649843664
 30
0.0
 40
2.0
  1
6
 50
359.4999999999994
  7
STYLE3
100
AcDbText
  0
TEXT
  5
BF7
330
18
100
AcDbEntity
  8
文字
100
AcDbText
 10
237.1505170246888
 20
206.1115598071073
 30
0.0
 40
2.0
  1
9
 50
359.4999999999994
  7
STYLE3
100
AcDbText
  0
TEXT
  5
D06
330
18
100
AcDbEntity
  8
文字
100
AcDbText
 10
92.00564933170426
 20
268.2884710695943
 30
0.0
 40
4.0
  1
Model No.LB-1 Inside Dial Caliper Gauge
  7
STYLE3
100
AcDbText
  0
LINE
  5
D07
330
18
100
AcDbEntity
  8
外形線
100
AcDbLine
 10
91.38494233170428
 20
265.8153590695943
 30
0.0
 11
213.3849423317043
 21
265.8153590695943
 31
0.0
  0
LINE
  5
D08
330
18
100
AcDbEntity
  8
外形線
100
AcDbLine
 10
91.38494233170428
 20
264.8153590695943
 30
0.0
 11
213.3849423317043
 21
264.8153590695943
 31
0.0
  0
TEXT
  5
D09
330
18
100
AcDbEntity
  8
0
  6
Continuous
100
AcDbText
 10
340.5460534350886
 20
2.30342968926736
 30
0.0
 40
2.1
  1
OZAKI MFG. CO., LTD.
  7
STYLE3
100
AcDbText
  0
TEXT
  5
D0A
330
18
100
AcDbEntity
  8
0
  6
Continuous
100
AcDbText
 10
339.6715744350886
 20
6.091068689267356
 30
0.0
 40
3.0
  1
株式会社　尾崎製作所
  7
STYLE3
100
AcDbText
  0
TEXT
  5
D0B
330
18
100
AcDbEntity
  8
0
  6
Continuous
100
AcDbText
 10
319.2670204350886
 20
4.051570689267357
 30
0.0
 40
2.1
  1
2010.06.29
  7
STYLE3
100
AcDbText
  0
TEXT
  5
D0C
330
18
100
AcDbEntity
  8
0
  6
Continuous
100
AcDbText
 10
310.1388514350886
 20
5.636513689267356
 30
0.0
 40
3.0
  1
日 付
  7
STYLE3
100
AcDbText
  0
TEXT
  5
D0D
330
18
100
AcDbEntity
  8
0
  6
Continuous
100
AcDbText
 10
310.5222124350886
 20
2.303430689267358
 30
0.0
 40
2.1
  1
Date
  7
STYLE3
100
AcDbText
  0
TEXT
  5
D0E
330
18
100
AcDbEntity
  8
0
  6
Continuous
100
AcDbText
 10
300.4284414350886
 20
4.342928689267356
 30
0.0
 40
2.399999999999999
  1
1/1
  7
STYLE3
100
AcDbText
  0
TEXT
  5
D0F
330
18
100
AcDbEntity
  8
0
  6
Continuous
100
AcDbText
 10
290.8091524350886
 20
2.594786689267358
 30
0.0
 40
2.1
  1
Scale
  7
STYLE3
100
AcDbText
  0
TEXT
  5
D10
330
18
100
AcDbEntity
  8
0
  6
Continuous
100
AcDbText
 10
281.0700894350885
 20
4.051571689267355
 30
0.0
 40
2.399999999999999
  1
mm
  7
STYLE3
100
AcDbText
  0
TEXT
  5
D11
330
18
100
AcDbEntity
  8
0
  6
Continuous
100
AcDbText
 10
290.3459374350886
 20
5.514308689267355
 30
0.0
 40
3.0
  1
尺 度
  7
STYLE3
100
AcDbText
  0
TEXT
  5
D12
330
18
100
AcDbEntity
  8
0
  6
Continuous
100
AcDbText
 10
273.1997624350886
 20
2.30342968926736
 30
0.0
 40
2.1
  1
Unit
  7
STYLE3
100
AcDbText
  0
TEXT
  5
D13
330
18
100
AcDbEntity
  8
0
  6
Continuous
100
AcDbText
 10
273.0280414350886
 20
5.805665689267357
 30
0.0
 40
3.0
  1
単位
  7
STYLE3
100
AcDbText
  0
LINE
  5
D14
330
18
100
AcDbEntity
  8
外形線
100
AcDbLine
 10
271.5705724350886
 20
10.17006568926736
 30
0.0
 11
271.5705724350886
 21
0.555288689267357
 31
0.0
  0
LINE
  5
D15
330
18
100
AcDbEntity
  8
外形線
100
AcDbLine
 10
289.0601894350885
 20
10.17006568926736
 30
0.0
 11
289.0601894350885
 21
0.555288689267357
 31
0.0
  0
LINE
  5
D16
330
18
100
AcDbEntity
  8
外形線
100
AcDbLine
 10
308.5902614350886
 20
10.17006568926736
 30
0.0
 11
308.5902614350886
 21
0.555288689267357
 31
0.0
  0
LINE
  5
D17
330
18
100
AcDbEntity
  8
外形線
100
AcDbLine
 10
338.3226114350886
 20
10.17006568926736
 30
0.0
 11
338.3226114350886
 21
0.555288689267357
 31
0.0
  0
LINE
  5
D18
330
18
100
AcDbEntity
  8
外形線
100
AcDbLine
 10
236.2998444350886
 20
0.555288689267357
 30
0.0
 11
236.2998444350886
 21
20.95027168926736
 31
0.0
  0
TEXT
  5
D19
330
18
100
AcDbEntity
  8
0
  6
Continuous
100
AcDbText
 10
240.0892634350885
 20
5.799711689267358
 30
0.0
 40
3.0
  1
三　　角　　法
  7
STYLE3
100
AcDbText
  0
TEXT
  5
D1A
330
18
100
AcDbEntity
  8
0
  6
Continuous
100
AcDbText
 10
237.4658204350886
 20
2.303428689267356
 30
0.0
 40
2.1
  1
3RD Angle Projection
  7
STYLE3
100
AcDbText
  0
TEXT
  5
D1B
330
18
100
AcDbEntity
  8
0
  6
Continuous
100
AcDbText
 10
238.0488054350886
 20
15.99720468926735
 30
0.0
 40
3.5
  1
仕様及び外観は予告なく変更される場合がございますのでご了承下さい。
  7
STYLE3
100
AcDbText
  0
TEXT
  5
D1C
330
18
100
AcDbEntity
  8
0
  6
Continuous
100
AcDbText
 10
237.7573114350886
 20
12.06805668926736
 30
0.0
 40
2.1
  1
Design and specifications are subject to change without notice for future improvement.
  7
STYLE3
100
AcDbText
  0
LINE
  5
D1D
330
18
100
AcDbEntity
  8
外形線
100
AcDbLine
 10
236.2998444350886
 20
10.17006568926736
 30
0.0
 11
377.0912624350886
 21
10.17006568926736
 31
0.0
  0
LINE
  5
D1E
330
18
100
AcDbEntity
  8
外形線
100
AcDbLine
 10
236.2998444350886
 20
20.95027168926736
 30
0.0
 11
377.0912624350886
 21
20.95027168926736
 31
0.0
  0
ENDSEC
  0
SECTION
  2
OBJECTS
  0
DICTIONARY
  5
C
330
0
100
AcDbDictionary
281
     1
  3
ACAD_COLOR
350
98F
  3
ACAD_GROUP
350
D
  3
ACAD_LAYOUT
350
992
  3
ACAD_MATERIAL
350
98E
  3
ACAD_MLINESTYLE
350
1B
  3
ACAD_PLOTSETTINGS
350
993
  3
ACAD_PLOTSTYLENAME
350
98C
  3
ACAD_TABLESTYLE
350
990
  3
AcDbVariableDictionary
350
99C
  0
DICTIONARY
  5
98F
102
{ACAD_REACTORS
330
C
102
}
330
C
100
AcDbDictionary
281
     1
  0
DICTIONARY
  5
D
102
{ACAD_REACTORS
330
C
102
}
330
C
100
AcDbDictionary
281
     1
  0
DICTIONARY
  5
992
102
{ACAD_REACTORS
330
C
102
}
330
C
100
AcDbDictionary
281
     1
  3
Model
350
994
  3
レイアウト1
350
995
  0
DICTIONARY
  5
98E
102
{ACAD_REACTORS
330
C
102
}
330
C
100
AcDbDictionary
281
     1
  0
DICTIONARY
  5
1B
102
{ACAD_REACTORS
330
C
102
}
330
C
100
AcDbDictionary
281
     1
  3
STANDARD
350
1C
  0
DICTIONARY
  5
993
102
{ACAD_REACTORS
330
C
102
}
330
C
100
AcDbDictionary
281
     1
  0
ACDBDICTIONARYWDFLT
  5
98C
102
{ACAD_REACTORS
330
C
102
}
330
C
100
AcDbDictionary
281
     1
  3
Normal
350
98D
100
AcDbDictionaryWithDefault
340
98D
  0
DICTIONARY
  5
990
102
{ACAD_REACTORS
330
C
102
}
330
C
100
AcDbDictionary
281
     1
  3
Standard
350
991
  0
DICTIONARY
  5
99C
102
{ACAD_REACTORS
330
C
102
}
330
C
100
AcDbDictionary
281
     1
  3
CTABLESTYLE
350
99D
  0
LAYOUT
  5
994
102
{ACAD_REACTORS
330
992
102
}
330
992
100
AcDbPlotSettings
  1

  2
A2 HP designjet 110plus.pc3
  4
User1294
  6

 40
4.995333194732666
 41
4.995328426361083
 42
4.99530029296875
 43
4.995330810546875
 44
593.9366455078125
 45
419.9466552734374
 46
40.0
 47
19.0
 48
0.0
 49
0.0
140
0.0
141
0.0
142
1.0
143
1.0
 70
 28336
 72
     1
 73
     0
 74
     1
  7
AutoCAD LT 98.ctb
 75
    16
147
1.0
 76
     1
 77
     2
 78
   300
148
0.4192271567673061
149
0.4136017041450942
100
AcDbLayout
  1
Model
 70
     1
 71
     0
 10
0.0
 20
0.0
 11
12.0
 21
9.0
 12
0.0
 22
0.0
 32
0.0
 14
0.0
 24
0.0
 34
0.0
 15
0.0
 25
0.0
 35
0.0
146
0.0
 13
0.0
 23
0.0
 33
0.0
 16
1.0
 26
0.0
 36
0.0
 17
0.0
 27
1.0
 37
0.0
 76
     0
330
18
1001
ACAD_PSEXT
1000
A2 HP designjet 110plus.pc3
1000
HP designjet 110plus
1000
\\HOSAKA-MATE3
1000

1070
     0
  0
LAYOUT
  5
995
102
{ACAD_REACTORS
330
992
102
}
330
992
100
AcDbPlotSettings
  1

  2
C:\Documents and Settings\佐藤\Application Data\Autodesk\AutoCAD LT 2005\R10\jpn\plotters\PEACOCK EPSON LP-6100.pc3
  4

  6

 40
0.0
 41
0.0
 42
0.0
 43
0.0
 44
0.0
 45
0.0
 46
0.0
 47
0.0
 48
0.0
 49
0.0
140
0.0
141
0.0
142
1.0
143
1.0
 70
   688
 72
     0
 73
     0
 74
     5
  7
AutoCAD LT 98.ctb
 75
    16
147
1.0
 76
     0
 77
     2
 78
   300
148
0.0
149
0.0
100
AcDbLayout
  1
レイアウト1
 70
     1
 71
     1
 10
0.0
 20
0.0
 11
420.0
 21
297.0
 12
0.0
 22
0.0
 32
0.0
 14
1.000000000000000E+20
 24
1.000000000000000E+20
 34
1.000000000000000E+20
 15
-1.000000000000000E+20
 25
-1.000000000000000E+20
 35
-1.000000000000000E+20
146
0.0
 13
0.0
 23
0.0
 33
0.0
 16
1.0
 26
0.0
 36
0.0
 17
0.0
 27
1.0
 37
0.0
 76
     0
330
15
  0
MLINESTYLE
  5
1C
102
{ACAD_REACTORS
330
1B
102
}
330
1B
100
AcDbMlineStyle
  2
STANDARD
 70
     0
  3

 62
   256
 51
90.0
 52
90.0
 71
     2
 49
0.5
 62
   256
  6
BYLAYER
 49
-0.5
 62
   256
  6
BYLAYER
  0
ACDBPLACEHOLDER
  5
98D
102
{ACAD_REACTORS
330
98C
102
}
330
98C
  0
ACAD_PROXY_OBJECT
  5
991
102
{ACAD_REACTORS
330
990
102
}
330
990
100
AcDbProxyObject
 90
      499
 91
      502
 95
  2555929
 70
     0
 93
     1849
310
4214DD185B99185C992420000000000000F83F0000000000003E0FC00000000000004901028000000C1008070000C3001FDFF8000000C1003FBFF000000182007F7FE00000030400FEFFC00000060801FDFF8000000C1003FBFF000000182000000000000000C2020B0000001820100E000186003FBFF000000182007F7FE0
310
0000030400FEFFC00000060801FDFF8000000C1003FBFF000000182007F7FE0000003040000000000000012404160000003040201C00030C007F7FE00000030400FEFFC00000060801FDFF8000000C1003FBFF000000182007F7FE00000030400FEFFC000000608023
340
F
340
F
340
F
 94
        0
  0
DICTIONARYVAR
  5
99D
102
{ACAD_REACTORS
330
99C
102
}
330
99C
100
DictionaryVariables
280
     0
  1
STANDARD
  0
ENDSEC
  0
EOF
