  0
SECTION
  2
HEADER
  9
$ACADVER
  1
AC1018
  9
$ACADMAINTVER
 70
     0
  9
$DWGCODEPAGE
  3
ANSI_932
  9
$INSBASE
 10
0.0
 20
0.0
 30
0.0
  9
$EXTMIN
 10
-415.232345026625
 20
40.42545558809684
 30
-0.0000610400456509
  9
$EXTMAX
 10
-9.252035706616197
 20
323.7445111498808
 30
0.0000152620489651
  9
$LIMMIN
 10
0.0
 20
0.0
  9
$LIMMAX
 10
400.0
 20
257.0
  9
$ORTHOMODE
 70
     0
  9
$REGENMODE
 70
     1
  9
$FILLMODE
 70
     1
  9
$QTEXTMODE
 70
     0
  9
$MIRRTEXT
 70
     1
  9
$LTSCALE
 40
1.0
  9
$ATTMODE
 70
     1
  9
$TEXTSIZE
 40
0.2
  9
$TRACEWID
 40
1.0
  9
$TEXTSTYLE
  7
BIGFONT
  9
$CLAYER
  8
寸法線
  9
$CELTYPE
  6
BYLAYER
  9
$CECOLOR
 62
   256
  9
$CELTSCALE
 40
1.0
  9
$DISPSILH
 70
     0
  9
$DIMSCALE
 40
1.0
  9
$DIMASZ
 40
2.5
  9
$DIMEXO
 40
0.0
  9
$DIMDLI
 40
3.75
  9
$DIMRND
 40
0.0
  9
$DIMDLE
 40
0.0
  9
$DIMEXE
 40
1.25
  9
$DIMTP
 40
0.0
  9
$DIMTM
 40
0.0
  9
$DIMTXT
 40
2.5
  9
$DIMCEN
 40
2.5
  9
$DIMTSZ
 40
0.0
  9
$DIMTOL
 70
     0
  9
$DIMLIM
 70
     0
  9
$DIMTIH
 70
     0
  9
$DIMTOH
 70
     0
  9
$DIMSE1
 70
     0
  9
$DIMSE2
 70
     0
  9
$DIMTAD
 70
     1
  9
$DIMZIN
 70
     8
  9
$DIMBLK
  1

  9
$DIMASO
 70
     1
  9
$DIMSHO
 70
     1
  9
$DIMPOST
  1

  9
$DIMAPOST
  1

  9
$DIMALT
 70
     0
  9
$DIMALTD
 70
     4
  9
$DIMALTF
 40
0.0394
  9
$DIMLFAC
 40
1.0
  9
$DIMTOFL
 70
     1
  9
$DIMTVP
 40
0.0
  9
$DIMTIX
 70
     0
  9
$DIMSOXD
 70
     0
  9
$DIMSAH
 70
     1
  9
$DIMBLK1
  1
OPEN
  9
$DIMBLK2
  1
OPEN
  9
$DIMSTYLE
  2
STYLE3
  9
$DIMCLRD
 70
     2
  9
$DIMCLRE
 70
     2
  9
$DIMCLRT
 70
     6
  9
$DIMTFAC
 40
1.0
  9
$DIMGAP
 40
0.625
  9
$DIMJUST
 70
     0
  9
$DIMSD1
 70
     0
  9
$DIMSD2
 70
     0
  9
$DIMTOLJ
 70
     1
  9
$DIMTZIN
 70
     0
  9
$DIMALTZ
 70
     0
  9
$DIMALTTZ
 70
     0
  9
$DIMUPT
 70
     0
  9
$DIMDEC
 70
     8
  9
$DIMTDEC
 70
     8
  9
$DIMALTU
 70
     8
  9
$DIMALTTD
 70
     4
  9
$DIMTXSTY
  7
STYLE3
  9
$DIMAUNIT
 70
     0
  9
$DIMADEC
 70
     8
  9
$DIMALTRND
 40
0.0
  9
$DIMAZIN
 70
     0
  9
$DIMDSEP
 70
    46
  9
$DIMATFIT
 70
     3
  9
$DIMFRAC
 70
     0
  9
$DIMLDRBLK
  1
OPEN
  9
$DIMLUNIT
 70
     2
  9
$DIMLWD
 70
    -2
  9
$DIMLWE
 70
    -2
  9
$DIMTMOVE
 70
     0
  9
$LUNITS
 70
     2
  9
$LUPREC
 70
     4
  9
$SKETCHINC
 40
1.0
  9
$FILLETRAD
 40
15.0
  9
$AUNITS
 70
     0
  9
$AUPREC
 70
     0
  9
$MENU
  1
acad
  9
$ELEVATION
 40
0.0
  9
$PELEVATION
 40
0.0
  9
$THICKNESS
 40
0.0
  9
$LIMCHECK
 70
     0
  9
$CHAMFERA
 40
10.0
  9
$CHAMFERB
 40
10.0
  9
$CHAMFERC
 40
20.0
  9
$CHAMFERD
 40
0.0
  9
$SKPOLY
 70
     0
  9
$TDCREATE
 40
2447851.677997998
  9
$TDUCREATE
 40
2447851.302997998
  9
$TDUPDATE
 40
2455377.458417419
  9
$TDUUPDATE
 40
2455377.083417419
  9
$TDINDWG
 40
0.4435446644
  9
$TDUSRTIMER
 40
0.4435446644
  9
$USRTIMER
 70
     1
  9
$ANGBASE
 50
0.0
  9
$ANGDIR
 70
     0
  9
$PDMODE
 70
     0
  9
$PDSIZE
 40
0.0
  9
$PLINEWID
 40
0.0
  9
$SPLFRAME
 70
     0
  9
$SPLINETYPE
 70
     6
  9
$SPLINESEGS
 70
     8
  9
$HANDSEED
  5
100024FC
  9
$SURFTAB1
 70
     6
  9
$SURFTAB2
 70
     6
  9
$SURFTYPE
 70
     6
  9
$SURFU
 70
     6
  9
$SURFV
 70
     6
  9
$UCSBASE
  2

  9
$UCSNAME
  2

  9
$UCSORG
 10
0.0
 20
0.0
 30
0.0
  9
$UCSXDIR
 10
1.0
 20
0.0
 30
0.0
  9
$UCSYDIR
 10
0.0
 20
1.0
 30
0.0
  9
$UCSORTHOREF
  2

  9
$UCSORTHOVIEW
 70
     0
  9
$UCSORGTOP
 10
0.0
 20
0.0
 30
0.0
  9
$UCSORGBOTTOM
 10
0.0
 20
0.0
 30
0.0
  9
$UCSORGLEFT
 10
0.0
 20
0.0
 30
0.0
  9
$UCSORGRIGHT
 10
0.0
 20
0.0
 30
0.0
  9
$UCSORGFRONT
 10
0.0
 20
0.0
 30
0.0
  9
$UCSORGBACK
 10
0.0
 20
0.0
 30
0.0
  9
$PUCSBASE
  2

  9
$PUCSNAME
  2

  9
$PUCSORG
 10
0.0
 20
0.0
 30
0.0
  9
$PUCSXDIR
 10
1.0
 20
0.0
 30
0.0
  9
$PUCSYDIR
 10
0.0
 20
1.0
 30
0.0
  9
$PUCSORTHOREF
  2

  9
$PUCSORTHOVIEW
 70
     0
  9
$PUCSORGTOP
 10
0.0
 20
0.0
 30
0.0
  9
$PUCSORGBOTTOM
 10
0.0
 20
0.0
 30
0.0
  9
$PUCSORGLEFT
 10
0.0
 20
0.0
 30
0.0
  9
$PUCSORGRIGHT
 10
0.0
 20
0.0
 30
0.0
  9
$PUCSORGFRONT
 10
0.0
 20
0.0
 30
0.0
  9
$PUCSORGBACK
 10
0.0
 20
0.0
 30
0.0
  9
$USERI1
 70
     0
  9
$USERI2
 70
     0
  9
$USERI3
 70
     0
  9
$USERI4
 70
     0
  9
$USERI5
 70
     0
  9
$USERR1
 40
0.0
  9
$USERR2
 40
0.0
  9
$USERR3
 40
0.0
  9
$USERR4
 40
0.0
  9
$USERR5
 40
0.0
  9
$WORLDVIEW
 70
     1
  9
$SHADEDGE
 70
     3
  9
$SHADEDIF
 70
    70
  9
$TILEMODE
 70
     1
  9
$MAXACTVP
 70
    48
  9
$PINSBASE
 10
0.0
 20
0.0
 30
0.0
  9
$PLIMCHECK
 70
     0
  9
$PEXTMIN
 10
1.000000000000000E+20
 20
1.000000000000000E+20
 30
1.000000000000000E+20
  9
$PEXTMAX
 10
-1.000000000000000E+20
 20
-1.000000000000000E+20
 30
-1.000000000000000E+20
  9
$PLIMMIN
 10
0.0
 20
0.0
  9
$PLIMMAX
 10
400.0
 20
257.0
  9
$UNITMODE
 70
     0
  9
$VISRETAIN
 70
     1
  9
$PLINEGEN
 70
     0
  9
$PSLTSCALE
 70
     1
  9
$TREEDEPTH
 70
  3020
  9
$CMLSTYLE
  2
STANDARD
  9
$CMLJUST
 70
     0
  9
$CMLSCALE
 40
20.0
  9
$PROXYGRAPHICS
 70
     1
  9
$MEASUREMENT
 70
     1
  9
$CELWEIGHT
370
    -1
  9
$ENDCAPS
280
     0
  9
$JOINSTYLE
280
     0
  9
$LWDISPLAY
290
     0
  9
$INSUNITS
 70
     0
  9
$HYPERLINKBASE
  1

  9
$STYLESHEET
  1

  9
$XEDIT
290
     1
  9
$CEPSNTYPE
380
     0
  9
$PSTYLEMODE
290
     1
  9
$FINGERPRINTGUID
  2
{DFE52BDC-B2D5-474B-9A0E-A0D74DEA80B2}
  9
$VERSIONGUID
  2
{C0BDCC3F-9D69-4EBD-ABA3-77E492F418F9}
  9
$EXTNAMES
290
     1
  9
$PSVPSCALE
 40
0.0
  9
$OLESTARTUP
290
     0
  9
$SORTENTS
280
   127
  9
$INDEXCTL
280
     0
  9
$HIDETEXT
280
     0
  9
$XCLIPFRAME
290
     0
  9
$HALOGAP
280
     0
  9
$OBSCOLOR
 70
   257
  9
$OBSLTYPE
280
     0
  9
$INTERSECTIONDISPLAY
280
     0
  9
$INTERSECTIONCOLOR
 70
   257
  9
$DIMASSOC
280
     1
  9
$PROJECTNAME
  1

  0
ENDSEC
  0
SECTION
  2
CLASSES
  0
CLASS
  1
HATCH
  2
AcDbHatch
  3
ObjectDBX Classes
 90
        0
 91
       70
280
     0
281
     1
  0
CLASS
  1
LWPOLYLINE
  2
AcDbPolyline
  3
ObjectDBX Classes
 90
        0
 91
        5
280
     0
281
     1
  0
CLASS
  1
ACDBDICTIONARYWDFLT
  2
AcDbDictionaryWithDefault
  3
ObjectDBX Classes
 90
        0
 91
        1
280
     0
281
     0
  0
CLASS
  1
TABLESTYLE
  2
AcDbTableStyle
  3
ObjectDBX Classes
 90
     2047
 91
        1
280
     0
281
     0
  0
CLASS
  1
DICTIONARYVAR
  2
AcDbDictionaryVar
  3
ObjectDBX Classes
 90
        0
 91
        1
280
     0
281
     0
  0
CLASS
  1
SORTENTSTABLE
  2
AcDbSortentsTable
  3
ObjectDBX Classes
 90
        0
 91
        2
280
     0
281
     0
  0
ENDSEC
  0
SECTION
  2
TABLES
  0
TABLE
  2
VPORT
  5
A2
330
0
100
AcDbSymbolTable
 70
     2
  0
VPORT
  5
100024FB
330
A2
100
AcDbSymbolTableRecord
100
AcDbViewportTableRecord
  2
*Active
 70
     0
 10
0.0
 20
0.0
 11
1.0
 21
1.0
 12
-212.2421903666207
 22
182.0849833689888
 13
0.0
 23
0.0
 14
10.0
 24
10.0
 15
10.0
 25
10.0
 16
0.0
 26
0.0
 36
1.0
 17
0.0
 27
0.0
 37
0.0
 40
285.4735730945731
 41
1.530456852791878
 42
50.0
 43
0.0
 44
0.0
 50
0.0
 51
0.0
 71
     0
 72
   100
 73
     1
 74
     1
 75
     0
 76
     0
 77
     0
 78
     0
281
     0
 65
     1
110
0.0
120
0.0
130
0.0
111
1.0
121
0.0
131
0.0
112
0.0
122
1.0
132
0.0
 79
     0
146
0.0
  0
ENDTAB
  0
TABLE
  2
LTYPE
  5
A8
330
0
100
AcDbSymbolTable
 70
    12
  0
LTYPE
  5
AB
330
A8
100
AcDbSymbolTableRecord
100
AcDbLinetypeTableRecord
  2
BYBLOCK
 70
     0
  3
BYBLOCK
 72
    65
 73
     0
 40
0.0
  0
LTYPE
  5
AE
330
A8
100
AcDbSymbolTableRecord
100
AcDbLinetypeTableRecord
  2
BYLAYER
 70
     0
  3
BYLAYER
 72
    65
 73
     0
 40
0.0
  0
LTYPE
  5
B1
330
A8
100
AcDbSymbolTableRecord
100
AcDbLinetypeTableRecord
  2
CONTINUOUS
 70
     0
  3
実線
 72
    65
 73
     0
 40
0.0
  0
LTYPE
  5
100000DC
330
A8
100
AcDbSymbolTableRecord
100
AcDbLinetypeTableRecord
  2
CENTER2
 70
     0
  3
Center (.5x) ___ _ ___ _ ___ _ ___ _ ___ _ ___
 72
    65
 73
     4
 40
28.575
 49
19.05
 74
     0
 49
-3.174999999999999
 74
     0
 49
3.174999999999999
 74
     0
 49
-3.174999999999999
 74
     0
  0
LTYPE
  5
100000DD
330
A8
100
AcDbSymbolTableRecord
100
AcDbLinetypeTableRecord
  2
HIDDEN2
 70
     0
  3
Hidden (.5x) _ _ _ _ _ _ _ _ _ _ _ _ _ _ _ _ _
 72
    65
 73
     2
 40
4.762499999999999
 49
3.174999999999999
 74
     0
 49
-1.587499999999999
 74
     0
  0
LTYPE
  5
100000DE
330
A8
100
AcDbSymbolTableRecord
100
AcDbLinetypeTableRecord
  2
PHANTOM2
 70
     0
  3
Phantom (.5x) ___ _ _ ___ _ _ ___ _ _ ___ _ _
 72
    65
 73
     6
 40
31.75
 49
15.875
 74
     0
 49
-3.174999999999999
 74
     0
 49
3.174999999999999
 74
     0
 49
-3.174999999999999
 74
     0
 49
3.174999999999999
 74
     0
 49
-3.174999999999999
 74
     0
  0
ENDTAB
  0
TABLE
  2
LAYER
  5
CC
330
0
100
AcDbSymbolTable
 70
    16
  0
LAYER
  5
CF
330
CC
100
AcDbSymbolTableRecord
100
AcDbLayerTableRecord
  2
0
 70
     0
 62
     1
  6
CONTINUOUS
370
    -3
390
1000168A
  0
LAYER
  5
100000DF
330
CC
100
AcDbSymbolTableRecord
100
AcDbLayerTableRecord
  2
外形線
 70
     0
 62
     7
  6
CONTINUOUS
370
    -3
390
1000168A
  0
LAYER
  5
100000E0
330
CC
100
AcDbSymbolTableRecord
100
AcDbLayerTableRecord
  2
寸法線
 70
     0
 62
     2
  6
CONTINUOUS
370
    -3
390
1000168A
  0
LAYER
  5
100000E1
330
CC
100
AcDbSymbolTableRecord
100
AcDbLayerTableRecord
  2
中心線
 70
     0
 62
     4
  6
CENTER2
370
    -3
390
1000168A
  0
LAYER
  5
100000E2
330
CC
100
AcDbSymbolTableRecord
100
AcDbLayerTableRecord
  2
想像線
 70
     0
 62
     1
  6
PHANTOM2
370
    -3
390
1000168A
  0
LAYER
  5
100000E3
330
CC
100
AcDbSymbolTableRecord
100
AcDbLayerTableRecord
  2
文字
 70
     0
 62
     6
  6
CONTINUOUS
370
    -3
390
1000168A
  0
LAYER
  5
100000E4
330
CC
100
AcDbSymbolTableRecord
100
AcDbLayerTableRecord
  2
目盛
 70
     0
 62
    70
  6
CONTINUOUS
370
    -3
390
1000168A
  0
LAYER
  5
100000E5
330
CC
100
AcDbSymbolTableRecord
100
AcDbLayerTableRecord
  2
針
 70
     0
 62
     5
  6
CONTINUOUS
370
    -3
390
1000168A
  0
LAYER
  5
100000E6
330
CC
100
AcDbSymbolTableRecord
100
AcDbLayerTableRecord
  2
DEFPOINTS
 70
     0
 62
     7
  6
CONTINUOUS
290
     0
370
    -3
390
1000168A
  0
LAYER
  5
100000E7
330
CC
100
AcDbSymbolTableRecord
100
AcDbLayerTableRecord
  2
隠れ線2
 70
     0
 62
     1
  6
HIDDEN2
370
    -3
390
1000168A
  0
LAYER
  5
100000E8
330
CC
100
AcDbSymbolTableRecord
100
AcDbLayerTableRecord
  2
ROGO
 70
     0
 62
     6
  6
CONTINUOUS
370
    -3
390
1000168A
  0
LAYER
  5
100000E9
330
CC
100
AcDbSymbolTableRecord
100
AcDbLayerTableRecord
  2
握り
 70
     0
 62
     3
  6
CONTINUOUS
370
    -3
390
1000168A
  0
LAYER
  5
10000340
330
CC
100
AcDbSymbolTableRecord
100
AcDbLayerTableRecord
  2
ﾊｯﾁﾝｸ
 70
     0
 62
     6
  6
CONTINUOUS
370
    -3
390
1000168A
  0
LAYER
  5
10000A07
330
CC
100
AcDbSymbolTableRecord
100
AcDbLayerTableRecord
  2
C
 70
     0
 62
     7
  6
CONTINUOUS
370
    -3
390
1000168A
  0
ENDTAB
  0
TABLE
  2
STYLE
  5
D2
330
0
100
AcDbSymbolTable
 70
     3
  0
STYLE
  5
D5
330
D2
100
AcDbSymbolTableRecord
100
AcDbTextStyleTableRecord
  2
STANDARD
 70
     0
 40
0.0
 41
0.5
 50
0.0
 71
     0
 42
0.3
  3
txt
  4

  0
STYLE
  5
D8
330
D2
100
AcDbSymbolTableRecord
100
AcDbTextStyleTableRecord
  2
BIGFONT
 70
     0
 40
0.0
 41
1.0
 50
0.0
 71
     0
 42
0.2
  3
txt.shx
  4
bigfont
  0
STYLE
  5
100000EA
330
D2
100
AcDbSymbolTableRecord
100
AcDbTextStyleTableRecord
  2
STYLE3
 70
     0
 40
0.0
 41
1.0
 50
0.0
 71
     0
 42
3.0
  3
romans.shx
  4
bigfont.shx
  0
ENDTAB
  0
TABLE
  2
VIEW
  5
DB
330
0
100
AcDbSymbolTable
 70
     1
  0
VIEW
  5
10001C33
330
DB
100
AcDbSymbolTableRecord
100
AcDbViewTableRecord
  2
OLE1
 70
     0
 40
201.787653675837
 10
-282.3737044431641
 20
245.584506723318
 41
339.4882413773739
 11
0.0
 21
0.0
 31
1.0
 12
0.0
 22
0.0
 32
0.0
 42
50.0
 43
0.0
 44
0.0
 50
0.0
 71
     0
281
     0
 72
     0
  0
ENDTAB
  0
TABLE
  2
UCS
  5
DE
330
0
100
AcDbSymbolTable
 70
     0
  0
ENDTAB
  0
TABLE
  2
APPID
  5
E1
330
0
100
AcDbSymbolTable
 70
     5
  0
APPID
  5
E4
330
E1
100
AcDbSymbolTableRecord
100
AcDbRegAppTableRecord
  2
ACAD
 70
     0
  0
APPID
  5
E7
330
E1
100
AcDbSymbolTableRecord
100
AcDbRegAppTableRecord
  2
CONTENTTABDATA
 70
     0
  0
APPID
  5
EA
330
E1
100
AcDbSymbolTableRecord
100
AcDbRegAppTableRecord
  2
CONTENTCURRENTTAB
 70
     0
  0
APPID
  5
10001CFC
330
E1
100
AcDbSymbolTableRecord
100
AcDbRegAppTableRecord
  2
ACAD_DSTYLE_DIMTEXT_FILL
 70
     0
  0
APPID
  5
1000249F
330
E1
100
AcDbSymbolTableRecord
100
AcDbRegAppTableRecord
  2
ACAD_PSEXT
 70
     0
  0
ENDTAB
  0
TABLE
  2
DIMSTYLE
  5
ED
330
0
100
AcDbSymbolTable
 70
     6
100
AcDbDimStyleTable
 71
     1
340
100000EB
  0
DIMSTYLE
105
F0
330
ED
100
AcDbSymbolTableRecord
100
AcDbDimStyleTableRecord
  2
STANDARD
 70
     0
340
D5
  0
DIMSTYLE
105
100000EB
102
{ACAD_REACTORS
330
10000161
330
10000124
330
1000010D
330
1000011E
330
10000103
330
1000022A
330
1000035D
330
100005A3
330
100005A7
330
100005F2
330
10000A09
330
10000A33
330
10000A34
330
10000A38
330
10000A39
330
10000A42
330
10000A44
330
10000ABF
330
10000ADA
330
100019E6
330
100019E7
330
100019E8
330
10001F72
330
100020D4
330
100020E5
330
10002221
330
10002306
102
}
330
ED
100
AcDbSymbolTableRecord
100
AcDbDimStyleTableRecord
  2
STYLE3
 70
     0
 41
2.5
 42
0.0
 43
3.75
 44
1.25
 73
     0
 74
     0
 77
     1
 78
     8
140
2.5
141
2.5
143
0.0394
147
0.625
171
     4
172
     1
173
     1
176
     2
177
     2
178
     6
179
     8
271
     8
272
     8
273
     8
274
     4
340
100000EA
341
10000009
343
10000009
344
10000009
  0
ENDTAB
  0
TABLE
  2
BLOCK_RECORD
  5
F3
330
0
100
AcDbSymbolTable
 70
    35
  0
BLOCK_RECORD
  5
F6
102
{ACAD_XDICTIONARY
360
10001B48
102
}
330
F3
100
AcDbSymbolTableRecord
100
AcDbBlockTableRecord
  2
*MODEL_SPACE
340
10001691
  0
BLOCK_RECORD
  5
F9
330
F3
100
AcDbSymbolTableRecord
100
AcDbBlockTableRecord
  2
*PAPER_SPACE
340
10001692
  0
BLOCK_RECORD
  5
10000009
330
F3
100
AcDbSymbolTableRecord
100
AcDbBlockTableRecord
  2
_OPEN
340
0
102
{BLKREFS
331
10000015
331
10000016
331
100000A2
331
100000A3
331
100000B0
331
100000B1
331
100000BC
331
100000BD
331
100000C8
331
100000C9
331
100000D4
331
100000D5
331
10000115
331
1000013B
331
10000149
331
1000015B
331
1000015E
331
10000169
331
1000016B
331
1000016D
331
1000016E
331
10000239
331
10000314
331
10000315
331
10000320
331
10000321
331
1000032C
331
1000032D
331
10000337
331
10000338
331
100005B0
331
100005BB
331
100005BC
331
100005CE
331
100005DB
331
100005E6
331
1000099F
331
100009A0
331
100009AB
331
100009AC
331
100009B7
331
100009B8
331
100009C2
331
100009C3
331
100009CE
331
100009CF
331
100009DA
331
100009DB
331
100009E6
331
100009E7
331
100009F1
331
100009F2
331
100009FF
331
10000A00
331
10000A50
331
10000A7E
331
10000A7F
331
10000A91
331
10000A9E
331
10000AA9
331
10000B05
331
100019E3
331
10001A1F
331
10001A20
331
10001F9F
331
10001FA0
331
10001FA7
331
10001FA8
331
100020C2
331
1000228A
331
1000228B
331
10002293
331
10002294
331
1000229B
331
1000229C
331
100022A4
331
100022A5
331
100022B8
331
100022B9
331
100022C3
331
100022C4
331
100022CC
331
100022CD
331
10002316
331
10002317
102
}
  0
BLOCK_RECORD
  5
10001A34
330
F3
100
AcDbSymbolTableRecord
100
AcDbBlockTableRecord
  2
*D26
340
0
  0
BLOCK_RECORD
  5
10001A40
330
F3
100
AcDbSymbolTableRecord
100
AcDbBlockTableRecord
  2
*D27
340
0
  0
BLOCK_RECORD
  5
10001A4C
330
F3
100
AcDbSymbolTableRecord
100
AcDbBlockTableRecord
  2
*D28
340
0
  0
BLOCK_RECORD
  5
10001F73
330
F3
100
AcDbSymbolTableRecord
100
AcDbBlockTableRecord
  2
*D29
340
0
  0
BLOCK_RECORD
  5
100020D5
330
F3
100
AcDbSymbolTableRecord
100
AcDbBlockTableRecord
  2
*D30
340
0
  0
BLOCK_RECORD
  5
100020E6
330
F3
100
AcDbSymbolTableRecord
100
AcDbBlockTableRecord
  2
*D31
340
0
  0
BLOCK_RECORD
  5
10002222
330
F3
100
AcDbSymbolTableRecord
100
AcDbBlockTableRecord
  2
*D32
340
0
  0
BLOCK_RECORD
  5
10002307
330
F3
100
AcDbSymbolTableRecord
100
AcDbBlockTableRecord
  2
*D33
340
0
  0
ENDTAB
  0
ENDSEC
  0
SECTION
  2
BLOCKS
  0
BLOCK
  5
FC
330
F6
100
AcDbEntity
  8
0
100
AcDbBlockBegin
  2
*MODEL_SPACE
 70
     0
 10
0.0
 20
0.0
 30
0.0
  3
*MODEL_SPACE
  1
 
  0
ENDBLK
  5
FF
330
F6
100
AcDbEntity
  8
0
100
AcDbBlockEnd
  0
BLOCK
  5
102
330
F9
100
AcDbEntity
 67
     1
  8
0
100
AcDbBlockBegin
  2
*PAPER_SPACE
 70
     0
 10
0.0
 20
0.0
 30
0.0
  3
*PAPER_SPACE
  1
 
  0
ENDBLK
  5
105
330
F9
100
AcDbEntity
 67
     1
  8
0
100
AcDbBlockEnd
  0
BLOCK
  5
1000000D
330
10000009
100
AcDbEntity
  8
0
100
AcDbBlockBegin
  2
_OPEN
 70
     0
 10
0.0
 20
0.0
 30
0.0
  3
_OPEN
  1

  0
LINE
  5
1000000A
330
10000009
100
AcDbEntity
  8
0
  6
ByBlock
 62
     0
100
AcDbLine
 10
-1.0
 20
0.1666666666666666
 30
0.0
 11
0.0
 21
0.0
 31
0.0
  0
LINE
  5
1000000B
330
10000009
100
AcDbEntity
  8
0
  6
ByBlock
 62
     0
100
AcDbLine
 10
0.0
 20
0.0
 30
0.0
 11
-1.0
 21
-0.1666666666666666
 31
0.0
  0
LINE
  5
1000000C
330
10000009
100
AcDbEntity
  8
0
  6
ByBlock
 62
     0
100
AcDbLine
 10
0.0
 20
0.0
 30
0.0
 11
-1.0
 21
0.0
 31
0.0
  0
ENDBLK
  5
1000000E
330
10000009
100
AcDbEntity
  8
0
100
AcDbBlockEnd
  0
BLOCK
  5
10001A3E
330
10001A34
100
AcDbEntity
  8
0
100
AcDbBlockBegin
  2
*D26
 70
     1
 10
0.0
 20
0.0
 30
0.0
  3
*D26
  1

  0
LINE
  5
10002287
330
10001A34
100
AcDbEntity
  8
寸法線
 62
     2
370
    -2
100
AcDbLine
 10
-28.42148781523167
 20
180.2218026770306
 30
0.0
 11
-33.36853743652591
 21
180.2218026770306
 31
0.0
  0
LINE
  5
10002288
330
10001A34
100
AcDbEntity
  8
寸法線
 62
     2
370
    -2
100
AcDbLine
 10
-28.42148781523167
 20
150.2218026770306
 30
0.0
 11
-33.36853743652592
 21
150.2218026770306
 31
0.0
  0
LINE
  5
10002289
330
10001A34
100
AcDbEntity
  8
寸法線
 62
     2
370
    -2
100
AcDbLine
 10
-32.11853743652591
 20
177.7218026770306
 30
0.0
 11
-32.11853743652592
 21
152.7218026770306
 31
0.0
  0
INSERT
  5
1000228A
330
10001A34
100
AcDbEntity
  8
寸法線
 62
     2
370
    -2
100
AcDbBlockReference
  2
_OPEN
 10
-32.11853743652591
 20
180.2218026770306
 30
0.0
 41
2.5
 42
2.5
 43
2.5
 50
90.0
  0
INSERT
  5
1000228B
330
10001A34
100
AcDbEntity
  8
寸法線
 62
     2
370
    -2
100
AcDbBlockReference
  2
_OPEN
 10
-32.11853743652592
 20
150.2218026770306
 30
0.0
 41
2.5
 42
2.5
 43
2.5
 50
270.0
  0
MTEXT
  5
1000228C
330
10001A34
100
AcDbEntity
  8
寸法線
 62
     6
100
AcDbMText
 10
-33.99353743652594
 20
165.2218026770306
 30
0.0
 40
2.5
 41
0.0
 71
     5
 72
     1
  1
\A1;30
  7
STYLE3
 11
0.0000000000000001
 21
1.0
 31
0.0
 73
     1
 44
1.0
  0
POINT
  5
1000228D
330
10001A34
100
AcDbEntity
  8
DEFPOINTS
 62
     0
100
AcDbPoint
 10
-28.42148781523167
 20
180.2218026770306
 30
0.0
  0
POINT
  5
1000228E
330
10001A34
100
AcDbEntity
  8
DEFPOINTS
 62
     0
100
AcDbPoint
 10
-28.42148781523167
 20
150.2218026770306
 30
0.0
  0
POINT
  5
1000228F
330
10001A34
100
AcDbEntity
  8
DEFPOINTS
 62
     0
100
AcDbPoint
 10
-32.11853743652592
 20
150.2218026770306
 30
0.0
  0
ENDBLK
  5
10001A3F
330
10001A34
100
AcDbEntity
  8
0
100
AcDbBlockEnd
  0
BLOCK
  5
10001A4A
330
10001A40
100
AcDbEntity
  8
0
100
AcDbBlockBegin
  2
*D27
 70
     1
 10
0.0
 20
0.0
 30
0.0
  3
*D27
  1

  0
LINE
  5
10002290
330
10001A40
100
AcDbEntity
  8
寸法線
 62
     2
370
    -2
100
AcDbLine
 10
-228.4214878152317
 20
142.7968026770306
 30
0.0
 11
-228.4214878152317
 21
111.5778685888129
 31
0.0
  0
LINE
  5
10002291
330
10001A40
100
AcDbEntity
  8
寸法線
 62
     2
370
    -2
100
AcDbLine
 10
-113.4214878152316
 20
151.5218026770306
 30
0.0
 11
-113.4214878152316
 21
111.5778685888129
 31
0.0
  0
LINE
  5
10002292
330
10001A40
100
AcDbEntity
  8
寸法線
 62
     2
370
    -2
100
AcDbLine
 10
-225.9214878152317
 20
112.8278685888129
 30
0.0
 11
-115.9214878152317
 21
112.8278685888129
 31
0.0
  0
INSERT
  5
10002293
330
10001A40
100
AcDbEntity
  8
寸法線
 62
     2
370
    -2
100
AcDbBlockReference
  2
_OPEN
 10
-228.4214878152317
 20
112.8278685888129
 30
0.0
 41
2.5
 42
2.5
 43
2.5
 50
180.0
  0
INSERT
  5
10002294
330
10001A40
100
AcDbEntity
  8
寸法線
 62
     2
370
    -2
100
AcDbBlockReference
  2
_OPEN
 10
-113.4214878152316
 20
112.8278685888129
 30
0.0
 41
2.5
 42
2.5
 43
2.5
  0
MTEXT
  5
10002295
330
10001A40
100
AcDbEntity
  8
寸法線
 62
     6
100
AcDbMText
 10
-170.9214878152316
 20
114.7028685888129
 30
0.0
 40
2.5
 41
0.0
 71
     5
 72
     1
  1
\A1;115
  7
STYLE3
 73
     1
 44
1.0
  0
POINT
  5
10002296
330
10001A40
100
AcDbEntity
  8
DEFPOINTS
 62
     0
100
AcDbPoint
 10
-228.4214878152317
 20
142.7968026770306
 30
0.0
  0
POINT
  5
10002297
330
10001A40
100
AcDbEntity
  8
DEFPOINTS
 62
     0
100
AcDbPoint
 10
-113.4214878152316
 20
151.5218026770306
 30
0.0
  0
POINT
  5
10002298
330
10001A40
100
AcDbEntity
  8
DEFPOINTS
 62
     0
100
AcDbPoint
 10
-113.4214878152316
 20
112.8278685888129
 30
0.0
  0
ENDBLK
  5
10001A4B
330
10001A40
100
AcDbEntity
  8
0
100
AcDbBlockEnd
  0
BLOCK
  5
10001A55
330
10001A4C
100
AcDbEntity
  8
0
100
AcDbBlockBegin
  2
*D28
 70
     1
 10
0.0
 20
0.0
 30
0.0
  3
*D28
  1

  0
LINE
  5
10002299
330
10001A4C
100
AcDbEntity
  8
寸法線
 62
     2
370
    -2
100
AcDbLine
 10
-13.42148781523167
 20
151.5218026770306
 30
0.0
 11
-13.42148781523167
 21
111.5778685888129
 31
0.0
  0
LINE
  5
1000229A
330
10001A4C
100
AcDbEntity
  8
寸法線
 62
     2
370
    -2
100
AcDbLine
 10
-110.9214878152317
 20
112.8278685888129
 30
0.0
 11
-15.92148781523167
 21
112.8278685888129
 31
0.0
  0
INSERT
  5
1000229B
330
10001A4C
100
AcDbEntity
  8
寸法線
 62
     2
370
    -2
100
AcDbBlockReference
  2
_OPEN
 10
-113.4214878152316
 20
112.8278685888129
 30
0.0
 41
2.5
 42
2.5
 43
2.5
 50
180.0
  0
INSERT
  5
1000229C
330
10001A4C
100
AcDbEntity
  8
寸法線
 62
     2
370
    -2
100
AcDbBlockReference
  2
_OPEN
 10
-13.42148781523167
 20
112.8278685888129
 30
0.0
 41
2.5
 42
2.5
 43
2.5
  0
MTEXT
  5
1000229D
330
10001A4C
100
AcDbEntity
  8
寸法線
 62
     6
100
AcDbMText
 10
-63.42148781523167
 20
114.7028685888129
 30
0.0
 40
2.5
 41
0.0
 71
     5
 72
     1
  1
\A1;100
  7
STYLE3
 73
     1
 44
1.0
  0
POINT
  5
1000229E
330
10001A4C
100
AcDbEntity
  8
DEFPOINTS
 62
     0
100
AcDbPoint
 10
-113.4214878152316
 20
151.5218026770306
 30
0.0
  0
POINT
  5
1000229F
330
10001A4C
100
AcDbEntity
  8
DEFPOINTS
 62
     0
100
AcDbPoint
 10
-13.42148781523167
 20
151.5218026770306
 30
0.0
  0
POINT
  5
100022A0
330
10001A4C
100
AcDbEntity
  8
DEFPOINTS
 62
     0
100
AcDbPoint
 10
-13.42148781523167
 20
112.8278685888129
 30
0.0
  0
ENDBLK
  5
10001A56
330
10001A4C
100
AcDbEntity
  8
0
100
AcDbBlockEnd
  0
BLOCK
  5
10001F7D
330
10001F73
100
AcDbEntity
  8
0
100
AcDbBlockBegin
  2
*D29
 70
     1
 10
0.0
 20
0.0
 30
0.0
  3
*D29
  1

  0
LINE
  5
100022A1
330
10001F73
100
AcDbEntity
  8
寸法線
 62
     2
370
    -2
100
AcDbLine
 10
-398.347942494896
 20
171.4718026770306
 30
0.0
 11
-410.9252062759783
 21
171.4718026770306
 31
0.0
  0
LINE
  5
100022A2
330
10001F73
100
AcDbEntity
  8
寸法線
 62
     2
370
    -2
100
AcDbLine
 10
-398.3231212585842
 20
151.4718026770306
 30
0.0
 11
-410.9252062759783
 21
151.4718026770306
 31
0.0
  0
LINE
  5
100022A3
330
10001F73
100
AcDbEntity
  8
寸法線
 62
     2
370
    -2
100
AcDbLine
 10
-409.6752062759783
 20
168.9718026770306
 30
0.0
 11
-409.6752062759783
 21
153.9718026770307
 31
0.0
  0
INSERT
  5
100022A4
330
10001F73
100
AcDbEntity
  8
寸法線
 62
     2
370
    -2
100
AcDbBlockReference
  2
_OPEN
 10
-409.6752062759783
 20
171.4718026770306
 30
0.0
 41
2.5
 42
2.5
 43
2.5
 50
90.0
  0
INSERT
  5
100022A5
330
10001F73
100
AcDbEntity
  8
寸法線
 62
     2
370
    -2
100
AcDbBlockReference
  2
_OPEN
 10
-409.6752062759783
 20
151.4718026770306
 30
0.0
 41
2.5
 42
2.5
 43
2.5
 50
270.0
  0
MTEXT
  5
100022A6
330
10001F73
100
AcDbEntity
  8
寸法線
 62
     6
100
AcDbMText
 10
-411.5502062759784
 20
161.4718026770306
 30
0.0
 40
2.5
 41
0.0
 71
     5
 72
     1
  1
\A1;20
  7
STYLE3
 11
0.0000000000000001
 21
1.0
 31
0.0
 73
     1
 44
1.0
  0
POINT
  5
100022A7
330
10001F73
100
AcDbEntity
  8
DEFPOINTS
 62
     0
100
AcDbPoint
 10
-398.347942494896
 20
171.4718026770306
 30
0.0
  0
POINT
  5
100022A8
330
10001F73
100
AcDbEntity
  8
DEFPOINTS
 62
     0
100
AcDbPoint
 10
-398.3231212585842
 20
151.4718026770306
 30
0.0
  0
POINT
  5
100022A9
330
10001F73
100
AcDbEntity
  8
DEFPOINTS
 62
     0
100
AcDbPoint
 10
-409.6752062759783
 20
151.4718026770306
 30
0.0
  0
ENDBLK
  5
10001F7E
330
10001F73
100
AcDbEntity
  8
0
100
AcDbBlockEnd
  0
BLOCK
  5
100020E1
330
100020D5
100
AcDbEntity
  8
0
100
AcDbBlockBegin
  2
*D30
 70
     1
 10
0.0
 20
0.0
 30
0.0
  3
*D30
  1

  0
LINE
  5
100022B3
330
100020D5
100
AcDbEntity
  8
寸法線
 62
     2
370
    -2
100
AcDbLine
 10
-354.4601241820923
 20
154.9234611347626
 30
0.0
 11
-354.4601241820923
 21
146.371516230022
 31
0.0
  0
LINE
  5
100022B4
330
100020D5
100
AcDbEntity
  8
寸法線
 62
     2
370
    -2
100
AcDbLine
 10
-351.4601241820924
 20
154.8817755435271
 30
0.0
 11
-351.4601241820924
 21
146.371516230022
 31
0.0
  0
LINE
  5
100022B5
330
100020D5
100
AcDbEntity
  8
寸法線
 62
     2
370
    -2
100
AcDbLine
 10
-356.9601241820923
 20
147.621516230022
 30
0.0
 11
-359.4601241820923
 21
147.621516230022
 31
0.0
  0
LINE
  5
100022B6
330
100020D5
100
AcDbEntity
  8
寸法線
 62
     2
370
    -2
100
AcDbLine
 10
-348.9601241820924
 20
147.621516230022
 30
0.0
 11
-346.4601241820924
 21
147.621516230022
 31
0.0
  0
LINE
  5
100022B7
330
100020D5
100
AcDbEntity
  8
寸法線
 62
     2
370
    -2
100
AcDbLine
 10
-354.4601241820923
 20
147.621516230022
 30
0.0
 11
-351.4601241820924
 21
147.621516230022
 31
0.0
  0
INSERT
  5
100022B8
330
100020D5
100
AcDbEntity
  8
寸法線
 62
     2
370
    -2
100
AcDbBlockReference
  2
_OPEN
 10
-354.4601241820923
 20
147.621516230022
 30
0.0
 41
2.5
 42
2.5
 43
2.5
  0
INSERT
  5
100022B9
330
100020D5
100
AcDbEntity
  8
寸法線
 62
     2
370
    -2
100
AcDbBlockReference
  2
_OPEN
 10
-351.4601241820924
 20
147.621516230022
 30
0.0
 41
2.5
 42
2.5
 43
2.5
 50
180.0
  0
MTEXT
  5
100022BA
330
100020D5
100
AcDbEntity
  8
寸法線
 62
     6
100
AcDbMText
 10
-352.9601241820924
 20
149.496516230022
 30
0.0
 40
2.5
 41
0.0
 71
     5
 72
     1
  1
\A1;3
  7
STYLE3
 73
     1
 44
1.0
  0
POINT
  5
100022BB
330
100020D5
100
AcDbEntity
  8
DEFPOINTS
 62
     0
100
AcDbPoint
 10
-354.4601241820923
 20
154.9234611347626
 30
0.0
  0
POINT
  5
100022BC
330
100020D5
100
AcDbEntity
  8
DEFPOINTS
 62
     0
100
AcDbPoint
 10
-351.4601241820924
 20
154.8817755435271
 30
0.0
  0
POINT
  5
100022BD
330
100020D5
100
AcDbEntity
  8
DEFPOINTS
 62
     0
100
AcDbPoint
 10
-351.4601241820924
 20
147.621516230022
 30
0.0
  0
ENDBLK
  5
100020E2
330
100020D5
100
AcDbEntity
  8
0
100
AcDbBlockEnd
  0
BLOCK
  5
100020F2
330
100020E6
100
AcDbEntity
  8
0
100
AcDbBlockBegin
  2
*D31
 70
     1
 10
0.0
 20
0.0
 30
0.0
  3
*D31
  1

  0
LINE
  5
100022BE
330
100020E6
100
AcDbEntity
  8
寸法線
 62
     2
370
    -2
100
AcDbLine
 10
-330.9508987442523
 20
167.4718026770306
 30
0.0
 11
-330.9508987442523
 21
173.6061307767727
 31
0.0
  0
LINE
  5
100022BF
330
100020E6
100
AcDbEntity
  8
寸法線
 62
     2
370
    -2
100
AcDbLine
 10
-327.9508987442523
 20
167.4718026770306
 30
0.0
 11
-327.9508987442523
 21
173.6061307767727
 31
0.0
  0
LINE
  5
100022C0
330
100020E6
100
AcDbEntity
  8
寸法線
 62
     2
370
    -2
100
AcDbLine
 10
-333.4508987442523
 20
172.3561307767727
 30
0.0
 11
-335.9508987442523
 21
172.3561307767727
 31
0.0
  0
LINE
  5
100022C1
330
100020E6
100
AcDbEntity
  8
寸法線
 62
     2
370
    -2
100
AcDbLine
 10
-325.4508987442523
 20
172.3561307767727
 30
0.0
 11
-322.9508987442523
 21
172.3561307767727
 31
0.0
  0
LINE
  5
100022C2
330
100020E6
100
AcDbEntity
  8
寸法線
 62
     2
370
    -2
100
AcDbLine
 10
-330.9508987442523
 20
172.3561307767727
 30
0.0
 11
-327.9508987442523
 21
172.3561307767727
 31
0.0
  0
INSERT
  5
100022C3
330
100020E6
100
AcDbEntity
  8
寸法線
 62
     2
370
    -2
100
AcDbBlockReference
  2
_OPEN
 10
-330.9508987442523
 20
172.3561307767727
 30
0.0
 41
2.5
 42
2.5
 43
2.5
  0
INSERT
  5
100022C4
330
100020E6
100
AcDbEntity
  8
寸法線
 62
     2
370
    -2
100
AcDbBlockReference
  2
_OPEN
 10
-327.9508987442523
 20
172.3561307767727
 30
0.0
 41
2.5
 42
2.5
 43
2.5
 50
180.0
  0
MTEXT
  5
100022C5
330
100020E6
100
AcDbEntity
  8
寸法線
 62
     6
100
AcDbMText
 10
-329.4508987442523
 20
174.2311307767727
 30
0.0
 40
2.5
 41
0.0
 71
     5
 72
     1
  1
\A1;3
  7
STYLE3
 73
     1
 44
1.0
  0
POINT
  5
100022C6
330
100020E6
100
AcDbEntity
  8
DEFPOINTS
 62
     0
100
AcDbPoint
 10
-330.9508987442523
 20
167.4718026770306
 30
0.0
  0
POINT
  5
100022C7
330
100020E6
100
AcDbEntity
  8
DEFPOINTS
 62
     0
100
AcDbPoint
 10
-327.9508987442523
 20
167.4718026770306
 30
0.0
  0
POINT
  5
100022C8
330
100020E6
100
AcDbEntity
  8
DEFPOINTS
 62
     0
100
AcDbPoint
 10
-327.9508987442523
 20
172.3561307767727
 30
0.0
  0
ENDBLK
  5
100020F3
330
100020E6
100
AcDbEntity
  8
0
100
AcDbBlockEnd
  0
BLOCK
  5
1000222C
330
10002222
100
AcDbEntity
  8
0
100
AcDbBlockBegin
  2
*D32
 70
     1
 10
0.0
 20
0.0
 30
0.0
  3
*D32
  1

  0
LINE
  5
100022C9
330
10002222
100
AcDbEntity
  8
寸法線
 62
     2
370
    -2
100
AcDbLine
 10
-398.347942494896
 20
140.8060742129094
 30
0.0
 11
-398.347942494896
 21
117.2820383173386
 31
0.0
  0
LINE
  5
100022CA
330
10002222
100
AcDbEntity
  8
寸法線
 62
     2
370
    -2
100
AcDbLine
 10
-248.347942494896
 20
144.493924530333
 30
0.0
 11
-248.347942494896
 21
117.2820383173386
 31
0.0
  0
LINE
  5
100022CB
330
10002222
100
AcDbEntity
  8
寸法線
 62
     2
370
    -2
100
AcDbLine
 10
-395.847942494896
 20
118.5320383173386
 30
0.0
 11
-250.8479424948959
 21
118.5320383173386
 31
0.0
  0
INSERT
  5
100022CC
330
10002222
100
AcDbEntity
  8
寸法線
 62
     2
370
    -2
100
AcDbBlockReference
  2
_OPEN
 10
-398.347942494896
 20
118.5320383173386
 30
0.0
 41
2.5
 42
2.5
 43
2.5
 50
180.0
  0
INSERT
  5
100022CD
330
10002222
100
AcDbEntity
  8
寸法線
 62
     2
370
    -2
100
AcDbBlockReference
  2
_OPEN
 10
-248.347942494896
 20
118.5320383173386
 30
0.0
 41
2.5
 42
2.5
 43
2.5
  0
MTEXT
  5
100022CE
330
10002222
100
AcDbEntity
  8
寸法線
 62
     6
100
AcDbMText
 10
-323.347942494896
 20
120.4070383173386
 30
0.0
 40
2.5
 41
0.0
 71
     5
 72
     1
  1
\A1;150
  7
STYLE3
 73
     1
 44
1.0
  0
POINT
  5
100022CF
330
10002222
100
AcDbEntity
  8
DEFPOINTS
 62
     0
100
AcDbPoint
 10
-398.347942494896
 20
140.8060742129094
 30
0.0
  0
POINT
  5
100022D0
330
10002222
100
AcDbEntity
  8
DEFPOINTS
 62
     0
100
AcDbPoint
 10
-248.347942494896
 20
144.493924530333
 30
0.0
  0
POINT
  5
100022D1
330
10002222
100
AcDbEntity
  8
DEFPOINTS
 62
     0
100
AcDbPoint
 10
-248.347942494896
 20
118.5320383173386
 30
0.0
  0
ENDBLK
  5
1000222D
330
10002222
100
AcDbEntity
  8
0
100
AcDbBlockEnd
  0
BLOCK
  5
10002311
330
10002307
100
AcDbEntity
  8
0
100
AcDbBlockBegin
  2
*D33
 70
     1
 10
0.0
 20
0.0
 30
0.0
  3
*D33
  1

  0
LINE
  5
10002313
330
10002307
100
AcDbEntity
  8
寸法線
 62
     2
370
    -2
100
AcDbLine
 10
-396.3974786475121
 20
191.3764677277178
 30
0.0
 11
-380.3126489081592
 21
191.3764677277178
 31
0.0
  0
LINE
  5
10002314
330
10002307
100
AcDbEntity
  8
寸法線
 62
     2
370
    -2
100
AcDbLine
 10
-398.3231212585842
 20
151.4718026770306
 30
0.0
 11
-380.3126489081592
 21
151.4718026770306
 31
0.0
  0
LINE
  5
10002315
330
10002307
100
AcDbEntity
  8
寸法線
 62
     2
370
    -2
100
AcDbLine
 10
-381.5626489081592
 20
188.8764677277178
 30
0.0
 11
-381.5626489081592
 21
153.9718026770307
 31
0.0
  0
INSERT
  5
10002316
330
10002307
100
AcDbEntity
  8
寸法線
 62
     2
370
    -2
100
AcDbBlockReference
  2
_OPEN
 10
-381.5626489081592
 20
191.3764677277178
 30
0.0
 41
2.5
 42
2.5
 43
2.5
 50
90.0
  0
INSERT
  5
10002317
330
10002307
100
AcDbEntity
  8
寸法線
 62
     2
370
    -2
100
AcDbBlockReference
  2
_OPEN
 10
-381.5626489081592
 20
151.4718026770306
 30
0.0
 41
2.5
 42
2.5
 43
2.5
 50
270.0
  0
MTEXT
  5
10002318
330
10002307
100
AcDbEntity
  8
寸法線
 62
     6
100
AcDbMText
 10
-383.4376489081592
 20
171.4241352023742
 30
0.0
 40
2.5
 41
0.0
 71
     5
 72
     1
  1
\A1;40
  7
STYLE3
 11
0.0000000000000001
 21
1.0
 31
0.0
 73
     1
 44
1.0
  0
POINT
  5
10002319
330
10002307
100
AcDbEntity
  8
DEFPOINTS
 62
     0
100
AcDbPoint
 10
-396.3974786475121
 20
191.3764677277178
 30
0.0
  0
POINT
  5
1000231A
330
10002307
100
AcDbEntity
  8
DEFPOINTS
 62
     0
100
AcDbPoint
 10
-398.3231212585842
 20
151.4718026770306
 30
0.0
  0
POINT
  5
1000231B
330
10002307
100
AcDbEntity
  8
DEFPOINTS
 62
     0
100
AcDbPoint
 10
-381.5626489081592
 20
151.4718026770306
 30
0.0
  0
ENDBLK
  5
10002312
330
10002307
100
AcDbEntity
  8
0
100
AcDbBlockEnd
  0
ENDSEC
  0
SECTION
  2
ENTITIES
  0
LINE
  5
1000170E
330
F6
100
AcDbEntity
  8
中心線
100
AcDbLine
 10
-12.30621614388292
 20
165.2218026770306
 30
0.0
 11
-402.7760947302669
 21
165.2218026770306
 31
0.0
  0
LINE
  5
1000170F
330
F6
100
AcDbEntity
  8
中心線
 48
0.5
100
AcDbLine
 10
-228.4214878152317
 20
201.6044333983006
 30
0.0
 11
-228.4214878152317
 21
142.7968026770306
 31
0.0
  0
ARC
  5
10001711
330
F6
100
AcDbEntity
  8
中心線
100
AcDbCircle
 10
-228.4214878152317
 20
165.2218026770306
 30
0.0
 40
85.0
100
AcDbArc
 50
325.6233505951692
 51
7.453125
  0
LINE
  5
10001713
330
F6
100
AcDbEntity
  8
中心線
 48
0.5
100
AcDbLine
 10
-135.8214878152316
 20
219.2218026770306
 30
0.0
 11
-107.1197106381243
 21
215.5495972768199
 31
0.0
  0
ARC
  5
10001714
330
F6
100
AcDbEntity
  8
隠れ線2
100
AcDbCircle
 10
-135.8214878152316
 20
219.2218026770306
 30
0.0
 40
24.5
100
AcDbArc
 50
306.3505742987191
 51
157.5442385763904
  0
ARC
  5
1000172B
330
F6
100
AcDbEntity
  8
外形線
100
AcDbCircle
 10
-189.4714878152317
 20
228.1468026770306
 30
0.0
 40
60.0
100
AcDbArc
 50
251.7412204666586
 51
314.8616326316449
  0
ARC
  5
1000172C
330
F6
100
AcDbEntity
  8
外形線
100
AcDbCircle
 10
-84.58186058010682
 20
122.4298643863038
 30
0.0
 40
2.480736359960629
100
AcDbArc
 50
237.5789192448446
 51
17.93738697920097
  0
ARC
  5
1000172D
330
F6
100
AcDbEntity
  8
外形線
100
AcDbCircle
 10
-130.8964878152317
 20
66.69680267703063
 30
0.0
 40
70.0
100
AcDbArc
 50
49.96875000000001
 51
94.015625
  0
ARC
  5
1000172E
330
F6
100
AcDbEntity
  8
外形線
100
AcDbCircle
 10
-136.6464878152317
 20
79.17180267703063
 30
0.0
 40
70.0
100
AcDbArc
 50
38.9680368262808
 51
82.02051210908297
  0
ARC
  5
10001731
330
F6
100
AcDbEntity
  8
外形線
100
AcDbCircle
 10
-143.2464878152316
 20
361.5718026770306
 30
0.0
 40
225.225
100
AcDbArc
 50
253.6707969165044
 51
271.9375
  0
LINE
  5
10001750
330
F6
100
AcDbEntity
  8
隠れ線2
100
AcDbLine
 10
-23.42148781523167
 20
175.4218026770306
 30
0.0
 11
-23.42148781523167
 21
155.0218026770306
 31
0.0
  0
LINE
  5
10001751
330
F6
100
AcDbEntity
  8
握り
100
AcDbLine
 10
-13.42148781523167
 20
178.9218026770306
 30
0.0
 11
-13.42148781523167
 21
151.5218026770306
 31
0.0
  0
LINE
  5
10001752
330
F6
100
AcDbEntity
  8
握り
100
AcDbLine
 10
-37.0948378990895
 20
179.4218026770306
 30
0.0
 11
-37.0948378990895
 21
151.0218026770306
 31
0.0
  0
LINE
  5
10001753
330
F6
100
AcDbEntity
  8
握り
100
AcDbLine
 10
-29.74813773137384
 20
179.4218026770306
 30
0.0
 11
-29.74813773137384
 21
151.0218026770306
 31
0.0
  0
LINE
  5
10001754
330
F6
100
AcDbEntity
  8
握り
100
AcDbLine
 10
-27.0948378990895
 20
179.4218026770306
 30
0.0
 11
-27.0948378990895
 21
151.0218026770306
 31
0.0
  0
LINE
  5
10001755
330
F6
100
AcDbEntity
  8
握り
100
AcDbLine
 10
-19.74813773137384
 20
179.4218026770306
 30
0.0
 11
-19.74813773137384
 21
151.0218026770306
 31
0.0
  0
LINE
  5
10001756
330
F6
100
AcDbEntity
  8
握り
100
AcDbLine
 10
-17.0948378990895
 20
179.4218026770306
 30
0.0
 11
-17.0948378990895
 21
151.0218026770306
 31
0.0
  0
LINE
  5
10001757
330
F6
100
AcDbEntity
  8
握り
100
AcDbLine
 10
-39.74813773137396
 20
158.5685026770306
 30
0.0
 11
-39.74813773137384
 21
151.0218026770306
 31
0.0
  0
LINE
  5
10001758
330
F6
100
AcDbEntity
  8
握り
100
AcDbLine
 10
-69.74813773137396
 20
158.5685026770306
 30
0.0
 11
-69.74813773137384
 21
151.0218026770306
 31
0.0
  0
LINE
  5
10001759
330
F6
100
AcDbEntity
  8
握り
100
AcDbLine
 10
-67.09483789908961
 20
158.5685026770306
 30
0.0
 11
-67.0948378990895
 21
151.0218026770306
 31
0.0
  0
LINE
  5
1000175A
330
F6
100
AcDbEntity
  8
握り
100
AcDbLine
 10
-59.74813773137384
 20
158.5685026770306
 30
0.0
 11
-59.74813773137384
 21
151.0218026770306
 31
0.0
  0
LINE
  5
1000175B
330
F6
100
AcDbEntity
  8
握り
100
AcDbLine
 10
-57.0948378990895
 20
158.5685026770306
 30
0.0
 11
-57.0948378990895
 21
151.0218026770306
 31
0.0
  0
LINE
  5
1000175C
330
F6
100
AcDbEntity
  8
握り
100
AcDbLine
 10
-49.74813773137373
 20
158.5685026770306
 30
0.0
 11
-49.74813773137384
 21
151.0218026770306
 31
0.0
  0
LINE
  5
1000175D
330
F6
100
AcDbEntity
  8
握り
100
AcDbLine
 10
-47.0948378990895
 20
158.5685026770306
 30
0.0
 11
-47.0948378990895
 21
151.0218026770306
 31
0.0
  0
LINE
  5
1000175E
330
F6
100
AcDbEntity
  8
握り
100
AcDbLine
 10
-113.4214878152316
 20
178.9218026770306
 30
0.0
 11
-113.4214878152316
 21
151.5218026770306
 31
0.0
  0
LINE
  5
1000175F
330
F6
100
AcDbEntity
  8
握り
100
AcDbLine
 10
-107.0948378990895
 20
179.4218026770306
 30
0.0
 11
-107.0948378990895
 21
151.0218026770306
 31
0.0
  0
LINE
  5
10001760
330
F6
100
AcDbEntity
  8
握り
100
AcDbLine
 10
-109.7481377313738
 20
179.4218026770306
 30
0.0
 11
-109.7481377313738
 21
151.0218026770306
 31
0.0
  0
LINE
  5
10001761
330
F6
100
AcDbEntity
  8
握り
100
AcDbLine
 10
-99.74813773137384
 20
179.4218026770306
 30
0.0
 11
-99.74813773137384
 21
151.0218026770306
 31
0.0
  0
LINE
  5
10001762
330
F6
100
AcDbEntity
  8
握り
100
AcDbLine
 10
-97.09483789908951
 20
179.4218026770306
 30
0.0
 11
-97.09483789908951
 21
151.0218026770306
 31
0.0
  0
LINE
  5
10001763
330
F6
100
AcDbEntity
  8
握り
100
AcDbLine
 10
-89.74813773137384
 20
179.4218026770306
 30
0.0
 11
-89.74813773137384
 21
151.0218026770306
 31
0.0
  0
LINE
  5
10001764
330
F6
100
AcDbEntity
  8
握り
100
AcDbLine
 10
-87.09483789908949
 20
158.5685026770306
 30
0.0
 11
-87.09483789908949
 21
151.0218026770306
 31
0.0
  0
LINE
  5
10001765
330
F6
100
AcDbEntity
  8
握り
100
AcDbLine
 10
-79.74813773137384
 20
158.5685026770306
 30
0.0
 11
-79.74813773137384
 21
151.0218026770306
 31
0.0
  0
LINE
  5
10001766
330
F6
100
AcDbEntity
  8
握り
100
AcDbLine
 10
-77.09483789908961
 20
158.5685026770306
 30
0.0
 11
-77.0948378990895
 21
151.0218026770306
 31
0.0
  0
LINE
  5
10001767
330
F6
100
AcDbEntity
  8
隠れ線2
100
AcDbLine
 10
-24.92148781523167
 20
153.5218026770307
 30
0.0
 11
-113.4214878152317
 21
153.5218026770306
 31
0.0
  0
LINE
  5
10001768
330
F6
100
AcDbEntity
  8
握り
100
AcDbLine
 10
-27.09483789908939
 20
151.0218026770306
 30
0.0
 11
-19.74813773137384
 21
151.0218026770306
 31
0.0
  0
LINE
  5
10001769
330
F6
100
AcDbEntity
  8
握り
100
AcDbLine
 10
-97.09483789908951
 20
151.0218026770307
 30
0.0
 11
-89.74813773137384
 21
151.0218026770306
 31
0.0
  0
ARC
  5
1000176A
330
F6
100
AcDbEntity
  8
握り
100
AcDbCircle
 10
-108.4214878152316
 20
151.7218026770306
 30
0.0
 40
1.5
100
AcDbArc
 50
207.8181392846543
 51
332.1818607153458
  0
LINE
  5
1000176B
330
F6
100
AcDbEntity
  8
握り
100
AcDbLine
 10
-112.9214878152317
 20
151.0218026770306
 30
0.0
 11
-109.7481377313737
 21
151.0218026770307
 31
0.0
  0
ARC
  5
1000176C
330
F6
100
AcDbEntity
  8
握り
100
AcDbCircle
 10
-112.9214878152317
 20
151.5218026770306
 30
0.0
 40
0.5
100
AcDbArc
 50
180.0
 51
270.0
  0
ARC
  5
1000176D
330
F6
100
AcDbEntity
  8
握り
100
AcDbCircle
 10
-98.42148781523167
 20
151.7218026770306
 30
0.0
 40
1.5
100
AcDbArc
 50
207.8181392846543
 51
332.1818607153458
  0
LINE
  5
1000176E
330
F6
100
AcDbEntity
  8
握り
100
AcDbLine
 10
-107.0948378990895
 20
151.0218026770307
 30
0.0
 11
-99.74813773137373
 21
151.0218026770307
 31
0.0
  0
ARC
  5
1000176F
330
F6
100
AcDbEntity
  8
握り
100
AcDbCircle
 10
-58.42148781523167
 20
151.7218026770306
 30
0.0
 40
1.5
100
AcDbArc
 50
207.8181392846543
 51
332.1818607153458
  0
LINE
  5
10001770
330
F6
100
AcDbEntity
  8
握り
100
AcDbLine
 10
-77.0948378990895
 20
151.0218026770306
 30
0.0
 11
-69.74813773137384
 21
151.0218026770306
 31
0.0
  0
LINE
  5
10001771
330
F6
100
AcDbEntity
  8
握り
100
AcDbLine
 10
-87.09483789908949
 20
151.0218026770306
 30
0.0
 11
-79.74813773137384
 21
151.0218026770306
 31
0.0
  0
ARC
  5
10001772
330
F6
100
AcDbEntity
  8
握り
100
AcDbCircle
 10
-88.42148781523167
 20
151.7218026770306
 30
0.0
 40
1.5
100
AcDbArc
 50
207.8181392846543
 51
332.1818607153458
  0
ARC
  5
10001773
330
F6
100
AcDbEntity
  8
握り
100
AcDbCircle
 10
-78.42148781523167
 20
151.7218026770306
 30
0.0
 40
1.5
100
AcDbArc
 50
207.8181392846543
 51
332.1818607153458
  0
LINE
  5
10001774
330
F6
100
AcDbEntity
  8
握り
100
AcDbLine
 10
-67.09483789908938
 20
151.0218026770306
 30
0.0
 11
-59.74813773137384
 21
151.0218026770306
 31
0.0
  0
ARC
  5
10001775
330
F6
100
AcDbEntity
  8
握り
100
AcDbCircle
 10
-68.42148781523167
 20
151.7218026770306
 30
0.0
 40
1.5
100
AcDbArc
 50
207.8181392846543
 51
332.1818607153458
  0
LINE
  5
10001776
330
F6
100
AcDbEntity
  8
握り
100
AcDbLine
 10
-47.09483789908938
 20
151.0218026770306
 30
0.0
 11
-39.74813773137396
 21
151.0218026770306
 31
0.0
  0
LINE
  5
10001777
330
F6
100
AcDbEntity
  8
握り
100
AcDbLine
 10
-57.0948378990895
 20
151.0218026770306
 30
0.0
 11
-49.74813773137384
 21
151.0218026770306
 31
0.0
  0
ARC
  5
10001778
330
F6
100
AcDbEntity
  8
握り
100
AcDbCircle
 10
-48.42148781523167
 20
151.7218026770306
 30
0.0
 40
1.5
100
AcDbArc
 50
207.8181392846543
 51
332.1818607153458
  0
LINE
  5
10001779
330
F6
100
AcDbEntity
  8
握り
100
AcDbLine
 10
-37.09483789908961
 20
151.0218026770306
 30
0.0
 11
-29.74813773137373
 21
151.0218026770306
 31
0.0
  0
ARC
  5
1000177A
330
F6
100
AcDbEntity
  8
握り
100
AcDbCircle
 10
-38.42148781523167
 20
151.7218026770306
 30
0.0
 40
1.5
100
AcDbArc
 50
207.8181392846543
 51
332.1818607153458
  0
ARC
  5
1000177B
330
F6
100
AcDbEntity
  8
握り
100
AcDbCircle
 10
-28.42148781523167
 20
151.7218026770306
 30
0.0
 40
1.5
100
AcDbArc
 50
207.8181392846543
 51
332.1818607153458
  0
ARC
  5
1000177C
330
F6
100
AcDbEntity
  8
握り
100
AcDbCircle
 10
-18.42148781523167
 20
151.7218026770306
 30
0.0
 40
1.5
100
AcDbArc
 50
207.8181392846543
 51
332.1818607153458
  0
ARC
  5
1000177D
330
F6
100
AcDbEntity
  8
隠れ線2
100
AcDbCircle
 10
-24.92148781523167
 20
155.0218026770306
 30
0.0
 40
1.5
100
AcDbArc
 50
270.0
 51
0.0
  0
ARC
  5
1000177E
330
F6
100
AcDbEntity
  8
握り
100
AcDbCircle
 10
-13.92148781523167
 20
151.5218026770306
 30
0.0
 40
0.5
100
AcDbArc
 50
270.0
 51
0.0
  0
LINE
  5
1000177F
330
F6
100
AcDbEntity
  8
握り
100
AcDbLine
 10
-17.0948378990895
 20
151.0218026770306
 30
0.0
 11
-13.92148781523167
 21
151.0218026770306
 31
0.0
  0
LINE
  5
10001780
330
F6
100
AcDbEntity
  8
握り
100
AcDbLine
 10
-27.09483789908939
 20
179.4218026770306
 30
0.0
 11
-19.74813773137384
 21
179.4218026770306
 31
0.0
  0
LINE
  5
10001781
330
F6
100
AcDbEntity
  8
隠れ線2
100
AcDbLine
 10
-24.92148781523167
 20
176.9218026770306
 30
0.0
 11
-113.4214878152316
 21
176.9218026770307
 31
0.0
  0
LINE
  5
10001782
330
F6
100
AcDbEntity
  8
握り
100
AcDbLine
 10
-97.09483789908951
 20
179.4218026770306
 30
0.0
 11
-89.74813773137384
 21
179.4218026770306
 31
0.0
  0
ARC
  5
10001783
330
F6
100
AcDbEntity
  8
握り
100
AcDbCircle
 10
-98.42148781523167
 20
178.7218026770306
 30
0.0
 40
1.5
100
AcDbArc
 50
27.81813928465427
 51
152.1818607153457
  0
ARC
  5
10001784
330
F6
100
AcDbEntity
  8
握り
100
AcDbCircle
 10
-108.4214878152316
 20
178.7218026770306
 30
0.0
 40
1.5
100
AcDbArc
 50
27.81813928465427
 51
152.1818607153457
  0
LINE
  5
10001785
330
F6
100
AcDbEntity
  8
握り
100
AcDbLine
 10
-112.9214878152317
 20
179.4218026770306
 30
0.0
 11
-109.7481377313738
 21
179.4218026770306
 31
0.0
  0
ARC
  5
10001786
330
F6
100
AcDbEntity
  8
握り
100
AcDbCircle
 10
-112.9214878152317
 20
178.9218026770306
 30
0.0
 40
0.5
100
AcDbArc
 50
90.0
 51
180.0
  0
LINE
  5
10001787
330
F6
100
AcDbEntity
  8
握り
100
AcDbLine
 10
-107.0948378990895
 20
179.4218026770306
 30
0.0
 11
-99.74813773137373
 21
179.4218026770306
 31
0.0
  0
ARC
  5
10001788
330
F6
100
AcDbEntity
  8
握り
100
AcDbCircle
 10
-58.42148781523167
 20
178.7218026770306
 30
0.0
 40
1.5
100
AcDbArc
 50
27.81813928465427
 51
152.1818607153457
  0
LINE
  5
10001789
330
F6
100
AcDbEntity
  8
握り
100
AcDbLine
 10
-87.09483789908949
 20
169.2218026770306
 30
0.0
 11
-39.74813773137373
 21
169.2218026770306
 31
0.0
  0
LINE
  5
1000178A
330
F6
100
AcDbEntity
  8
握り
100
AcDbLine
 10
-87.09483789908949
 20
161.2218026770306
 30
0.0
 11
-39.74813773137396
 21
161.2218026770306
 31
0.0
  0
ARC
  5
1000178B
330
F6
100
AcDbEntity
  8
握り
100
AcDbCircle
 10
-68.42148781523167
 20
178.7218026770306
 30
0.0
 40
1.5
100
AcDbArc
 50
27.81813928465427
 51
152.1818607153457
  0
ARC
  5
1000178C
330
F6
100
AcDbEntity
  8
握り
100
AcDbCircle
 10
-78.42148781523167
 20
178.7218026770306
 30
0.0
 40
1.5
100
AcDbArc
 50
27.81813928465427
 51
152.1818607153457
  0
ARC
  5
1000178D
330
F6
100
AcDbEntity
  8
握り
100
AcDbCircle
 10
-88.42148781523167
 20
178.7218026770306
 30
0.0
 40
1.5
100
AcDbArc
 50
27.81813928465427
 51
152.1818607153457
  0
LINE
  5
1000178E
330
F6
100
AcDbEntity
  8
ROGO
 62
     4
100
AcDbLine
 10
-75.55697729025633
 20
165.9338923054166
 30
0.0
 11
-74.05640088629718
 21
165.9338923054166
 31
0.0
  0
LINE
  5
1000178F
330
F6
100
AcDbEntity
  8
ROGO
 62
     4
100
AcDbLine
 10
-75.34160426122991
 20
164.7918462357442
 30
0.0
 11
-74.59506980117476
 21
164.7918462357442
 31
0.0
  0
LINE
  5
10001790
330
F6
100
AcDbEntity
  8
ROGO
 62
     4
100
AcDbLine
 10
-75.61325820572301
 20
164.4151347904642
 30
0.0
 11
-74.42771965031681
 21
164.4151347904642
 31
0.0
  0
HATCH
  5
10001791
330
F6
100
AcDbEntity
  8
ROGO
 62
     4
100
AcDbHatch
 10
0.0
 20
0.0
 30
0.0
210
0.0
220
0.0
230
1.0
  2
SOLID
 70
     1
 71
     0
 91
        2
 92
        7
 72
     0
 73
     1
 93
        8
 10
-74.05640088629718
 20
165.9338923054166
 10
-75.5569772902563
 20
165.9338923054165
 10
-76.90974061896941
 20
164.0579709760488
 10
-75.87081597369577
 20
164.0579709760487
 10
-75.61325820572304
 20
164.4151347904642
 10
-74.4277196503168
 20
164.4151347904642
 10
-74.26905333164689
 20
164.0579709760487
 10
-73.22304230003524
 20
164.0579709760488
 97
        0
 92
       22
 72
     0
 73
     1
 93
        3
 10
-74.59506980117476
 20
164.7918462357443
 10
-75.34160426123006
 20
164.7918462357443
 10
-74.87965178078244
 20
165.4324509097713
 97
        0
 75
     0
 76
     1
 47
0.0128389261915577
 98
        2
 10
-74.17390787557678
 20
165.4838324242608
 10
-74.17390787557678
 20
165.4838324242608
450
        0
451
        0
460
0.0
461
0.0
452
        0
462
0.0
453
        0
470

  0
LINE
  5
10001792
330
F6
100
AcDbEntity
  8
ROGO
 62
     4
100
AcDbLine
 10
-74.87965178078252
 20
165.4324509097712
 30
0.0
 11
-75.34160426123003
 21
164.7918462357442
 31
0.0
  0
LINE
  5
10001793
330
F6
100
AcDbEntity
  8
握り
100
AcDbLine
 10
-77.0948378990895
 20
179.4218026770306
 30
0.0
 11
-69.74813773137384
 21
179.4218026770306
 31
0.0
  0
LINE
  5
10001794
330
F6
100
AcDbEntity
  8
握り
100
AcDbLine
 10
-77.09483789908938
 20
171.8751026770306
 30
0.0
 11
-69.74813773137362
 21
171.8751026770306
 31
0.0
  0
LINE
  5
10001795
330
F6
100
AcDbEntity
  8
握り
100
AcDbLine
 10
-77.0948378990895
 20
158.5685026770306
 30
0.0
 11
-69.74813773137407
 21
158.5685026770306
 31
0.0
  0
HATCH
  5
10001796
330
F6
100
AcDbEntity
  8
ROGO
 62
     4
100
AcDbHatch
 10
0.0
 20
0.0
 30
0.0
210
0.0
220
0.0
230
1.0
  2
SOLID
 70
     1
 71
     0
 91
        1
 92
        7
 72
     0
 73
     1
 93
        4
 10
-82.44854624540852
 20
163.2964514788241
 10
-82.58147629601138
 20
163.002636898408
 10
-65.18248691232123
 20
163.0026368984081
 10
-65.03598147319819
 20
163.2964514788241
 97
        0
 75
     0
 76
     1
 47
0.0514683685270805
 98
        1
 10
-71.4539244441396
 20
163.2187422442458
450
        0
451
        0
460
0.0
461
0.0
452
        0
462
0.0
453
        0
470

  0
LINE
  5
10001797
330
F6
100
AcDbEntity
  8
ROGO
 62
     4
100
AcDbLine
 10
-82.46892259814661
 20
163.2964514788241
 30
0.0
 11
-65.03598147319826
 21
163.2964514788241
 31
0.0
  0
LINE
  5
10001798
102
{ACAD_REACTORS
330
1000179B
102
}
330
F6
100
AcDbEntity
  8
ROGO
 62
     4
100
AcDbLine
 10
-83.94404909020636
 20
163.002636898408
 30
0.0
 11
-64.10236728017242
 21
163.002636898408
 31
0.0
  0
LINE
  5
10001799
330
F6
100
AcDbEntity
  8
握り
100
AcDbLine
 10
-87.09483789908949
 20
169.2218026770306
 30
0.0
 11
-87.09483789908949
 21
161.2218026770306
 31
0.0
  0
LINE
  5
1000179A
330
F6
100
AcDbEntity
  8
握り
100
AcDbLine
 10
-87.09483789908949
 20
158.5685026770306
 30
0.0
 11
-79.74813773137373
 21
158.5685026770306
 31
0.0
  0
HATCH
  5
1000179B
330
F6
100
AcDbEntity
  8
ROGO
 62
     4
100
AcDbHatch
 10
0.0
 20
0.0
 30
0.0
210
0.0
220
0.0
230
1.0
  2
SOLID
 70
     1
 71
     1
 91
        2
 92
        5
 93
        6
 72
     4
 94
        3
 73
     0
 74
     0
 95
       18
 96
       14
 40
0.108740278791501
 40
0.108740278791501
 40
0.108740278791501
 40
0.108740278791501
 40
0.6623149649549278
 40
1.384304701649787
 40
2.097394834876493
 40
2.774073369849618
 40
3.428974823686337
 40
4.005208313035923
 40
4.455173659284313
 40
4.720999734343524
 40
5.086034088486724
 40
5.569973738255373
 40
6.060470601257719
 40
6.060470601257719
 40
6.060470601257719
 40
6.060470601257719
 10
-80.83028712601048
 20
164.0579709760487
 10
-80.74064438758956
 20
164.0586385183789
 10
-80.53408673465582
 20
164.0601766906769
 10
-80.24511419450254
 20
164.2145521713846
 10
-79.97108566151258
 20
164.4112152861584
 10
-79.75037431996781
 20
164.6569253301611
 10
-79.61286450443049
 20
164.9378526694764
 10
-79.59156466864886
 20
165.2070957202931
 10
-79.60456769509301
 20
165.420063626231
 10
-79.69748085015453
 20
165.5685075438064
 10
-79.79407541290413
 20
165.7191629397675
 10
-79.97119717797147
 20
165.8496662394695
 10
-80.11632281775803
 20
165.9068460842056
 10
-80.19012215723808
 20
165.9338923054166
 72
     1
 10
-80.19012215723803
 20
165.9338923054165
 11
-82.49369117578831
 21
165.9338923054166
 72
     1
 10
-82.49369117578831
 20
165.9338923054166
 11
-83.94404909020634
 21
163.002636898408
 72
     1
 10
-83.94404909020634
 20
163.002636898408
 11
-82.58147629601138
 21
163.0026368984081
 72
     1
 10
-82.58147629601138
 20
163.0026368984081
 11
-82.10401322339931
 21
164.0579709760488
 72
     1
 10
-82.10401322339931
 20
164.0579709760488
 11
-80.83028712601038
 21
164.0579709760488
 97
        6
330
100017A7
330
100017A1
330
1000179C
330
10001798
330
100017A2
330
100017A4
 92
       20
 93
        4
 72
     1
 10
-81.80920680581344
 20
164.7095800252756
 11
-81.58349566815992
 21
165.2084681465404
 72
     1
 10
-81.58349566815992
 20
165.2084681465404
 11
-81.00351424087795
 21
165.2084681465404
 72
     4
 94
        3
 73
     0
 74
     0
 95
       15
 96
       11
 40
0.0
 40
0.0
 40
0.0
 40
0.0
 40
0.2199578613106558
 40
0.3202465475123651
 40
0.4340808827708152
 40
0.5116301246390283
 40
0.634275054953107
 40
0.7077360179240892
 40
0.8337709579493377
 40
0.875782631437913
 40
0.875782631437913
 40
0.875782631437913
 40
0.875782631437913
 10
-81.00351424087785
 20
165.2084681465403
 10
-80.92090233365041
 20
165.2088465531723
 10
-80.80062394071029
 20
165.2093974924148
 10
-80.73485143161809
 20
165.0606127725156
 10
-80.76433380623729
 20
164.9648186230334
 10
-80.80139555398597
 20
164.8664678883939
 10
-80.86689205618929
 20
164.7996370808662
 10
-80.95479795561102
 20
164.7352677470991
 10
-81.03787323140494
 20
164.7274755510141
 10
-81.09190437279437
 20
164.7131591317938
 10
-81.10541216460763
 20
164.7095800252754
 72
     1
 10
-81.10541216460767
 20
164.7095800252754
 11
-81.80920680581344
 21
164.7095800252756
 97
        4
330
100017A6
330
100017A0
330
100017A5
330
100017A3
 75
     0
 76
     1
 47
0.0514683685270805
 98
        2
 10
-82.48137895677837
 20
165.0221940812895
 10
-82.48137895677837
 20
165.0221940812895
450
        0
451
        0
460
0.0
461
0.0
452
        0
462
0.0
453
        0
470

  0
LINE
  5
1000179C
102
{ACAD_REACTORS
330
1000179B
102
}
330
F6
100
AcDbEntity
  8
ROGO
 62
     4
100
AcDbLine
 10
-82.49369117578828
 20
165.9338923054166
 30
0.0
 11
-83.94404909020636
 21
163.002636898408
 31
0.0
  0
LINE
  5
1000179D
102
{ACAD_REACTORS
330
1000179E
102
}
330
F6
100
AcDbEntity
  8
ROGO
 62
     4
100
AcDbLine
 10
-79.75741916588742
 20
164.0579709760487
 30
0.0
 11
-77.22015752519599
 21
164.0579709760487
 31
0.0
  0
HATCH
  5
1000179E
330
F6
100
AcDbEntity
  8
ROGO
 62
     4
100
AcDbHatch
 10
0.0
 20
0.0
 30
0.0
210
0.0
220
0.0
230
1.0
  2
SOLID
 70
     1
 71
     1
 91
        1
 92
        1
 93
       12
 72
     1
 10
-78.82923073837298
 20
165.9338923054166
 11
-76.29196909768154
 21
165.9338923054166
 72
     1
 10
-76.29196909768154
 20
165.9338923054166
 11
-76.50458937730241
 21
165.5041746901421
 72
     1
 10
-76.50458937730241
 20
165.5041746901421
 11
-77.83810998047091
 21
165.5041746901421
 72
     1
 10
-77.83810998047091
 20
165.5041746901421
 11
-78.00435261772316
 21
165.1681889141648
 72
     1
 10
-78.00435261772316
 20
165.1681889141648
 11
-76.67083201455454
 21
165.1681889141648
 72
     1
 10
-76.67083201455454
 20
165.1681889141648
 11
-76.84129826544574
 21
164.8236669760487
 72
     1
 10
-76.84129826544574
 20
164.8236669760488
 11
-78.17481886861424
 21
164.8236669760487
 72
     1
 10
-78.17481886861424
 20
164.8236669760487
 11
-78.34106854378058
 21
164.4876669760487
 72
     1
 10
-78.34106854378058
 20
164.4876669760487
 11
-77.00754794061197
 21
164.4876669760487
 72
     1
 10
-77.00754794061197
 20
164.4876669760487
 11
-77.22015752519599
 21
164.0579709760487
 72
     1
 10
-77.22015752519599
 20
164.0579709760487
 11
-79.75741916588742
 21
164.0579709760487
 72
     1
 10
-79.75741916588731
 20
164.0579709760487
 11
-78.82923073837298
 21
165.9338923054166
 97
       12
330
100017A8
330
100017AC
330
100017AA
330
100017AB
330
100017A9
330
100017B4
330
100017B0
330
100017AE
330
100017B1
330
100017AF
330
1000179D
330
1000179F
 75
     0
 76
     1
 98
        1
 10
-182.6151292793857
 20
36.22232652240041
450
        0
451
        0
460
0.0
461
0.0
452
        0
462
0.0
453
        0
470

  0
LINE
  5
1000179F
102
{ACAD_REACTORS
330
1000179E
102
}
330
F6
100
AcDbEntity
  8
ROGO
 62
     4
100
AcDbLine
 10
-78.82923073837298
 20
165.9338923054166
 30
0.0
 11
-79.75741916588731
 21
164.0579709760487
 31
0.0
  0
LINE
  5
100017A0
102
{ACAD_REACTORS
330
1000179B
102
}
330
F6
100
AcDbEntity
  8
ROGO
 62
     4
100
AcDbLine
 10
-81.00351424087785
 20
165.2084681465404
 30
0.0
 11
-81.5834956681599
 21
165.2084681465404
 31
0.0
  0
LINE
  5
100017A1
102
{ACAD_REACTORS
330
1000179B
102
}
330
F6
100
AcDbEntity
  8
ROGO
 62
     4
100
AcDbLine
 10
-82.49369117578828
 20
165.9338923054166
 30
0.0
 11
-80.19012215723808
 21
165.9338923054166
 31
0.0
  0
LINE
  5
100017A2
102
{ACAD_REACTORS
330
1000179B
102
}
330
F6
100
AcDbEntity
  8
ROGO
 62
     4
100
AcDbLine
 10
-82.10401322339931
 20
164.0579709760487
 30
0.0
 11
-82.58147629601138
 21
163.002636898408
 31
0.0
  0
LINE
  5
100017A3
102
{ACAD_REACTORS
330
1000179B
102
}
330
F6
100
AcDbEntity
  8
ROGO
 62
     4
100
AcDbLine
 10
-81.10541216460751
 20
164.7095800252754
 30
0.0
 11
-81.80920680581335
 21
164.7095800252755
 31
0.0
  0
LINE
  5
100017A4
102
{ACAD_REACTORS
330
1000179B
102
}
330
F6
100
AcDbEntity
  8
ROGO
 62
     4
100
AcDbLine
 10
-80.83028712556894
 20
164.0579709760487
 30
0.0
 11
-82.10401322339931
 21
164.0579709760487
 31
0.0
  0
SPLINE
  5
100017A5
102
{ACAD_REACTORS
330
1000179B
102
}
330
F6
100
AcDbEntity
  8
ROGO
 62
     4
100
AcDbSpline
210
0.0
220
0.0
230
1.0
 70
     8
 71
     3
 72
    15
 73
    11
 74
     9
 42
0.0000000001
 43
0.0000000001
 44
0.0000000001
 40
0.0
 40
0.0
 40
0.0
 40
0.0
 40
0.2199578613106558
 40
0.3202465475123651
 40
0.4340808827708152
 40
0.5116301246390283
 40
0.634275054953107
 40
0.7077360179240892
 40
0.8337709579493377
 40
0.875782631437913
 40
0.875782631437913
 40
0.875782631437913
 40
0.875782631437913
 10
-81.00351424087785
 20
165.2084681465403
 30
0.0
 10
-80.92090233365043
 20
165.2088465531723
 30
0.0
 10
-80.80062394071033
 20
165.2093974924148
 30
0.0
 10
-80.73485143161807
 20
165.0606127725156
 30
0.0
 10
-80.76433380623727
 20
164.9648186230335
 30
0.0
 10
-80.80139555398599
 20
164.8664678883938
 30
0.0
 10
-80.86689205618929
 20
164.7996370808662
 30
0.0
 10
-80.95479795561104
 20
164.735267747099
 30
0.0
 10
-81.03787323140494
 20
164.7274755510141
 30
0.0
 10
-81.09190437279437
 20
164.7131591317938
 30
0.0
 10
-81.10541216460763
 20
164.7095800252754
 30
0.0
 11
-81.00351424087785
 21
165.2084681465403
 31
0.0
 11
-80.78952842526531
 21
165.1575610599119
 31
0.0
 11
-80.74876913858679
 21
165.0659286359042
 31
0.0
 11
-80.76914848895933
 21
164.9539333772451
 31
0.0
 11
-80.79971780748484
 21
164.8826634559653
 31
0.0
 11
-80.8812363808421
 21
164.7910310319575
 31
0.0
 11
-80.94237501789326
 21
164.7503053626548
 31
0.0
 11
-81.064652877929
 21
164.7197614426012
 31
0.0
 11
-81.10541216460763
 21
164.7095800252754
 31
0.0
  0
LINE
  5
100017A6
102
{ACAD_REACTORS
330
1000179B
102
}
330
F6
100
AcDbEntity
  8
ROGO
 62
     4
100
AcDbLine
 10
-81.5834956681599
 20
165.2084681465404
 30
0.0
 11
-81.80920680581346
 21
164.7095800252755
 31
0.0
  0
SPLINE
  5
100017A7
102
{ACAD_REACTORS
330
1000179B
102
}
330
F6
100
AcDbEntity
  8
ROGO
 62
     4
100
AcDbSpline
210
0.0
220
0.0
230
1.0
 70
     8
 71
     3
 72
    18
 73
    14
 74
     0
 42
0.0000000001
 43
0.0000000001
 40
0.1087402787915014
 40
0.1087402787915014
 40
0.1087402787915014
 40
0.1087402787915014
 40
0.5992371417938475
 40
1.083176791562496
 40
1.448211145705696
 40
1.714037220764907
 40
2.164002567013297
 40
2.740236056362883
 40
3.395137510199602
 40
4.071816045172726
 40
4.784906178399433
 40
5.506895915094292
 40
6.060470601257719
 40
6.060470601257719
 40
6.060470601257719
 40
6.060470601257719
 10
-80.19012215723808
 20
165.9338923054166
 30
0.0
 10
-80.11632281775803
 20
165.9068460842056
 30
0.0
 10
-79.97119717797147
 20
165.8496662394695
 30
0.0
 10
-79.79407541290413
 20
165.7191629397675
 30
0.0
 10
-79.69748085015453
 20
165.5685075438064
 30
0.0
 10
-79.60456769509301
 20
165.420063626231
 30
0.0
 10
-79.59156466864886
 20
165.2070957202931
 30
0.0
 10
-79.61286450443049
 20
164.9378526694764
 30
0.0
 10
-79.75037431996781
 20
164.6569253301611
 30
0.0
 10
-79.97108566151258
 20
164.4112152861584
 30
0.0
 10
-80.24511419450254
 20
164.2145521713846
 30
0.0
 10
-80.53408673465582
 20
164.0601766906769
 30
0.0
 10
-80.74064438758956
 20
164.0586385183789
 30
0.0
 10
-80.83028712601048
 20
164.0579709760487
 30
0.0
  0
LINE
  5
100017A8
102
{ACAD_REACTORS
330
1000179E
102
}
330
F6
100
AcDbEntity
  8
ROGO
 62
     4
100
AcDbLine
 10
-78.82923073837298
 20
165.9338923054166
 30
0.0
 11
-76.29196909768154
 21
165.9338923054166
 31
0.0
  0
LINE
  5
100017A9
102
{ACAD_REACTORS
330
1000179E
102
}
330
F6
100
AcDbEntity
  8
ROGO
 62
     4
100
AcDbLine
 10
-78.00435261772316
 20
165.1681889141648
 30
0.0
 11
-76.67083201455454
 21
165.1681889141648
 31
0.0
  0
LINE
  5
100017AA
102
{ACAD_REACTORS
330
1000179E
102
}
330
F6
100
AcDbEntity
  8
ROGO
 62
     4
100
AcDbLine
 10
-77.83810998047091
 20
165.5041746901421
 30
0.0
 11
-76.50458937730241
 21
165.5041746901421
 31
0.0
  0
LINE
  5
100017AB
102
{ACAD_REACTORS
330
1000179E
102
}
330
F6
100
AcDbEntity
  8
ROGO
 62
     4
100
AcDbLine
 10
-77.83810998047091
 20
165.5041746901421
 30
0.0
 11
-78.00435261772316
 21
165.1681889141648
 31
0.0
  0
LINE
  5
100017AC
102
{ACAD_REACTORS
330
1000179E
102
}
330
F6
100
AcDbEntity
  8
ROGO
 62
     4
100
AcDbLine
 10
-76.29196909768154
 20
165.9338923054166
 30
0.0
 11
-76.50458937730241
 21
165.5041746901421
 31
0.0
  0
LINE
  5
100017AD
330
F6
100
AcDbEntity
  8
ROGO
 62
     4
100
AcDbLine
 10
-75.61325820572301
 20
164.4151347904642
 30
0.0
 11
-75.8708159736957
 21
164.0579709760488
 31
0.0
  0
LINE
  5
100017AE
102
{ACAD_REACTORS
330
1000179E
102
}
330
F6
100
AcDbEntity
  8
ROGO
 62
     4
100
AcDbLine
 10
-78.17481886861424
 20
164.8236669760487
 30
0.0
 11
-78.34106854378058
 21
164.4876669760487
 31
0.0
  0
LINE
  5
100017AF
102
{ACAD_REACTORS
330
1000179E
102
}
330
F6
100
AcDbEntity
  8
ROGO
 62
     4
100
AcDbLine
 10
-77.00754794061197
 20
164.4876669760487
 30
0.0
 11
-77.22015752519599
 21
164.0579709760487
 31
0.0
  0
LINE
  5
100017B0
102
{ACAD_REACTORS
330
1000179E
102
}
330
F6
100
AcDbEntity
  8
ROGO
 62
     4
100
AcDbLine
 10
-78.17481886861424
 20
164.8236669760487
 30
0.0
 11
-76.84129826544574
 21
164.8236669760488
 31
0.0
  0
LINE
  5
100017B1
102
{ACAD_REACTORS
330
1000179E
102
}
330
F6
100
AcDbEntity
  8
ROGO
 62
     4
100
AcDbLine
 10
-78.34106854378058
 20
164.4876669760487
 30
0.0
 11
-77.00754794061197
 21
164.4876669760487
 31
0.0
  0
LINE
  5
100017B2
330
F6
100
AcDbEntity
  8
ROGO
 62
     4
100
AcDbLine
 10
-76.90974061896941
 20
164.0579709760487
 30
0.0
 11
-75.8708159736957
 21
164.0579709760487
 31
0.0
  0
LINE
  5
100017B3
330
F6
100
AcDbEntity
  8
ROGO
 62
     4
100
AcDbLine
 10
-75.55697729025633
 20
165.9338923054166
 30
0.0
 11
-76.90974061896941
 21
164.0579709760487
 31
0.0
  0
LINE
  5
100017B4
102
{ACAD_REACTORS
330
1000179E
102
}
330
F6
100
AcDbEntity
  8
ROGO
 62
     4
100
AcDbLine
 10
-76.67083201455454
 20
165.1681889141648
 30
0.0
 11
-76.84129826544574
 21
164.8236669760487
 31
0.0
  0
LINE
  5
100017B5
330
F6
100
AcDbEntity
  8
握り
100
AcDbLine
 10
-87.09483789908949
 20
179.4218026770306
 30
0.0
 11
-79.74813773137384
 21
179.4218026770306
 31
0.0
  0
LINE
  5
100017B6
330
F6
100
AcDbEntity
  8
握り
100
AcDbLine
 10
-87.09483789908938
 20
171.8751026770306
 30
0.0
 11
-79.74813773137362
 21
171.8751026770306
 31
0.0
  0
LINE
  5
100017B7
330
F6
100
AcDbEntity
  8
握り
100
AcDbLine
 10
-87.09483789908949
 20
179.4218026770306
 30
0.0
 11
-87.09483789908949
 21
171.8751026770306
 31
0.0
  0
LINE
  5
100017B8
330
F6
100
AcDbEntity
  8
握り
100
AcDbLine
 10
-79.74813773137384
 20
179.4218026770306
 30
0.0
 11
-79.74813773137373
 21
171.8751026770306
 31
0.0
  0
LINE
  5
100017B9
330
F6
100
AcDbEntity
  8
握り
100
AcDbLine
 10
-77.0948378990895
 20
179.4218026770306
 30
0.0
 11
-77.09483789908938
 21
171.8751026770306
 31
0.0
  0
LINE
  5
100017BA
330
F6
100
AcDbEntity
  8
握り
100
AcDbLine
 10
-67.09483789908972
 20
158.5685026770306
 30
0.0
 11
-59.74813773137384
 21
158.5685026770306
 31
0.0
  0
HATCH
  5
100017BB
330
F6
100
AcDbEntity
  8
ROGO
 62
     4
100
AcDbHatch
 10
0.0
 20
0.0
 30
0.0
210
0.0
220
0.0
230
1.0
  2
SOLID
 70
     1
 71
     0
 91
        1
 92
        5
 93
        8
 72
     4
 94
        3
 73
     0
 74
     0
 95
       26
 96
       22
 40
0.0
 40
0.0
 40
0.0
 40
0.0
 40
0.3403136209416859
 40
0.5681272389515052
 40
0.7323994099695983
 40
0.8550561247335963
 40
1.014148321321381
 40
1.13027011535639
 40
1.339959009792003
 40
1.510642755247356
 40
1.626735051276114
 40
1.740569491433573
 40
1.94419717410045
 40
2.088186249714629
 40
2.165735491582895
 40
2.275891898886364
 40
2.355438312276665
 40
2.470674802864995
 40
2.535888688806186
 40
2.677801419664424
 40
2.74260000535881
 40
2.74260000535881
 40
2.74260000535881
 40
2.74260000535881
 10
-65.99238754026214
 20
165.9338923054166
 10
-66.107895241346
 20
165.927000917895
 10
-66.30072640429739
 20
165.9154962800425
 10
-66.51245384817116
 20
165.7868741316735
 10
-66.66757776875726
 20
165.7120988668986
 10
-66.77821196079174
 20
165.6104482648706
 10
-66.85930727203118
 20
165.5054506184114
 10
-66.96154313588465
 20
165.3803466925181
 10
-67.04491356146462
 20
165.2346682332829
 10
-67.08736905079764
 20
165.0741051746211
 10
-67.12497572030321
 20
164.9461354852512
 10
-67.1528654559786
 20
164.8035299668334
 10
-67.14576951767435
 20
164.6494658409445
 10
-67.13560780926821
 20
164.5063789680819
 10
-67.0902382522338
 20
164.4042363639009
 10
-67.03857036310523
 20
164.3315178682876
 10
-66.97530374045538
 20
164.2514265072895
 10
-66.90607622000186
 20
164.1983822582462
 10
-66.84881940984388
 20
164.1022890366168
 10
-66.74859329518324
 20
164.090026848508
 10
-66.6848855893607
 20
164.065621434398
 10
-66.66491489155863
 20
164.0579709760487
 72
     1
 10
-66.66491489155863
 20
164.0579709760487
 11
-65.04915915583774
 21
164.0579709760487
 72
     1
 10
-65.04915915583774
 20
164.0579709760487
 11
-64.70113526915371
 21
164.7559279451068
 72
     1
 10
-64.70113526915371
 20
164.7559279451068
 11
-65.90067958468536
 21
164.7559279451068
 72
     4
 94
        3
 73
     0
 74
     0
 95
       16
 96
       12
 40
0.0
 40
0.0
 40
0.0
 40
0.0
 40
0.1027738093187964
 40
0.2066076558227444
 40
0.268539878558716
 40
0.3279201337292112
 40
0.3931337605654557
 40
0.4386740937218511
 40
0.4818879174817272
 40
0.569519347887583
 40
0.7489346372632488
 40
0.7489346372632488
 40
0.7489346372632488
 40
0.7489346372632488
 10
-65.90067958468535
 20
164.7559279451067
 10
-65.93686206850214
 20
164.7665733623761
 10
-66.00960023217203
 20
164.7879739966608
 10
-66.01568782909748
 20
164.8917164097141
 10
-66.00739435900891
 20
164.9656413682272
 10
-65.97266128775595
 20
165.0194630549645
 10
-65.93052404795486
 20
165.0586254135869
 10
-65.91483448473855
 20
165.1096282624186
 10
-65.86871644313237
 20
165.1481417942992
 10
-65.78693679828837
 20
165.2128776614075
 10
-65.69650266798629
 20
165.2266649546725
 10
-65.6357445142413
 20
165.2359279451068
 72
     1
 10
-65.63574451424132
 20
165.2359279451068
 11
-64.46179176659689
 21
165.2359279451068
 72
     1
 10
-64.46179176659689
 20
165.2359279451068
 11
-64.11376419439594
 21
165.9338923054165
 72
     1
 10
-64.11376419439594
 20
165.9338923054165
 11
-65.99238754026221
 21
165.9338923054165
 97
        0
 75
     0
 76
     1
 47
0.0514683685270805
 98
        1
 10
-65.6682197835695
 20
165.5904047294465
450
        0
451
        0
460
0.0
461
0.0
452
        0
462
0.0
453
        0
470

  0
SPLINE
  5
100017BC
330
F6
100
AcDbEntity
  8
ROGO
 62
     4
100
AcDbSpline
210
0.0
220
0.0
230
1.0
 70
     8
 71
     3
 72
    26
 73
    22
 74
    20
 42
0.0000000001
 43
0.0000000001
 44
0.0000000001
 40
0.0
 40
0.0
 40
0.0
 40
0.0
 40
0.3403136209416859
 40
0.5681272389515052
 40
0.7323994099695983
 40
0.8550561247335963
 40
1.014148321321381
 40
1.13027011535639
 40
1.339959009792003
 40
1.510642755247356
 40
1.626735051276114
 40
1.740569491433573
 40
1.94419717410045
 40
2.088186249714629
 40
2.165735491582895
 40
2.275891898886364
 40
2.355438312276665
 40
2.470674802864995
 40
2.535888688806186
 40
2.677801419664424
 40
2.74260000535881
 40
2.74260000535881
 40
2.74260000535881
 40
2.74260000535881
 10
-65.99238754026214
 20
165.9338923054166
 30
0.0
 10
-66.10789524134592
 20
165.927000917895
 30
0.0
 10
-66.30072640429723
 20
165.9154962800426
 30
0.0
 10
-66.51245384817125
 20
165.7868741316735
 30
0.0
 10
-66.66757776875717
 20
165.7120988668985
 30
0.0
 10
-66.77821196079183
 20
165.6104482648706
 30
0.0
 10
-66.8593072720311
 20
165.5054506184115
 30
0.0
 10
-66.96154313588479
 20
165.3803466925181
 30
0.0
 10
-67.04491356146457
 20
165.2346682332829
 30
0.0
 10
-67.08736905079773
 20
165.0741051746211
 30
0.0
 10
-67.12497572030315
 20
164.9461354852512
 30
0.0
 10
-67.15286545597861
 20
164.8035299668334
 30
0.0
 10
-67.14576951767448
 20
164.6494658409445
 30
0.0
 10
-67.13560780926818
 20
164.5063789680819
 30
0.0
 10
-67.0902382522339
 20
164.404236363901
 30
0.0
 10
-67.03857036310523
 20
164.3315178682876
 30
0.0
 10
-66.97530374045536
 20
164.2514265072895
 30
0.0
 10
-66.90607622000192
 20
164.1983822582462
 30
0.0
 10
-66.84881940984379
 20
164.1022890366168
 30
0.0
 10
-66.74859329518324
 20
164.0900268485079
 30
0.0
 10
-66.68488558936068
 20
164.065621434398
 30
0.0
 10
-66.66491489155863
 20
164.0579709760487
 30
0.0
 11
-65.99238754026214
 21
165.9338923054166
 31
0.0
 11
-66.32865121591044
 21
165.881546330997
 31
0.0
 11
-66.53244764930332
 21
165.7797324896636
 31
0.0
 11
-66.67510485971161
 21
165.6982814829815
 31
0.0
 11
-66.7668128152884
 21
165.616830144376
 31
0.0
 11
-66.86871073901807
 21
165.4946534683912
 31
0.0
 11
-66.94003934422233
 21
165.4030210443835
 31
0.0
 11
-67.04193785388543
 21
165.2197558644445
 31
0.0
 11
-67.09288652278371
 21
165.056853519157
 31
0.0
 11
-67.12345584130924
 21
164.9448582604979
 31
0.0
 11
-67.14383577761521
 21
164.8328630018388
 31
0.0
 11
-67.14383577761521
 21
164.6292353191719
 31
0.0
 11
-67.12345584130924
 21
164.4866958085358
 31
0.0
 11
-67.09288652278371
 21
164.415425887256
 31
0.0
 11
-67.03174788573256
 21
164.3237934632483
 31
0.0
 11
-66.98079863090083
 21
164.2627049592941
 31
0.0
 11
-66.89928064347725
 21
164.1812539526121
 31
0.0
 11
-66.85852135679851
 21
164.1303468659837
 31
0.0
 11
-66.72605352860978
 21
164.0794401112786
 31
0.0
 11
-66.66491489155863
 21
164.0579709760487
 31
0.0
  0
LINE
  5
100017BD
330
F6
100
AcDbEntity
  8
ROGO
 62
     4
100
AcDbLine
 10
-71.68012990128125
 20
165.2359279451068
 30
0.0
 11
-70.50617715363671
 21
165.2359279451068
 31
0.0
  0
LINE
  5
100017BE
330
F6
100
AcDbEntity
  8
ROGO
 62
     4
100
AcDbLine
 10
-70.74552065619355
 20
164.7559279451068
 30
0.0
 11
-71.09354454287757
 21
164.0579709760487
 31
0.0
  0
HATCH
  5
100017BF
330
F6
100
AcDbEntity
  8
ROGO
 62
     4
100
AcDbHatch
 10
0.0
 20
0.0
 30
0.0
210
0.0
220
0.0
230
1.0
  2
SOLID
 70
     1
 71
     0
 91
        1
 92
        5
 93
        8
 72
     1
 10
-70.50617715363667
 20
165.2359279451068
 11
-70.15814958143583
 21
165.9338923054166
 72
     1
 10
-70.15814958143583
 20
165.9338923054166
 11
-72.03677292730169
 21
165.9338923054166
 72
     4
 94
        3
 73
     0
 74
     0
 95
       26
 96
       22
 40
0.0
 40
0.0
 40
0.0
 40
0.0
 40
0.3403136209417982
 40
0.5681272389515159
 40
0.7323994099697078
 40
0.8550561247337057
 40
1.014148321321447
 40
1.13027011535643
 40
1.339959009791999
 40
1.510642755247373
 40
1.626735051276186
 40
1.740569491433665
 40
1.944197174100541
 40
2.088186249714737
 40
2.16573549158295
 40
2.275891898886404
 40
2.355438312276705
 40
2.470674802865115
 40
2.535888688806235
 40
2.677801419664453
 40
2.742600005358966
 40
2.742600005358966
 40
2.742600005358966
 40
2.742600005358966
 10
-72.03677292730185
 20
165.9338923054166
 10
-72.15228062838566
 20
165.927000917895
 10
-72.34511179133699
 20
165.9154962800426
 10
-72.55683923521099
 20
165.7868741316734
 10
-72.71196315579709
 20
165.7120988668986
 10
-72.82259734783156
 20
165.6104482648706
 10
-72.90369265907099
 20
165.5054506184116
 10
-73.00592852292448
 20
165.380346692518
 10
-73.08929894850456
 20
165.2346682332831
 10
-73.13175443783734
 20
165.0741051746211
 10
-73.16936110734286
 20
164.9461354852512
 10
-73.19725084301842
 20
164.8035299668335
 10
-73.19015490471435
 20
164.6494658409445
 10
-73.17999319630797
 20
164.5063789680819
 10
-73.13462363927357
 20
164.4042363639011
 10
-73.08295575014506
 20
164.3315178682876
 10
-73.01968912749521
 20
164.2514265072894
 10
-72.95046160704163
 20
164.1983822582463
 10
-72.89320479688365
 20
164.1022890366168
 10
-72.79297868222307
 20
164.090026848508
 10
-72.72927097640041
 20
164.065621434398
 10
-72.70930027859833
 20
164.0579709760487
 72
     1
 10
-72.70930027859837
 20
164.0579709760488
 11
-71.09354454287753
 21
164.0579709760488
 72
     1
 10
-71.09354454287753
 20
164.0579709760488
 11
-70.74552065619354
 21
164.7559279451068
 72
     1
 10
-70.74552065619354
 20
164.7559279451068
 11
-71.94506497172506
 21
164.7559279451068
 72
     4
 94
        3
 73
     0
 74
     0
 95
       16
 96
       12
 40
0.0
 40
0.0
 40
0.0
 40
0.0
 40
0.1027738093189234
 40
0.2066076558227377
 40
0.2685398785587465
 40
0.3279201337292418
 40
0.3931337605655129
 40
0.4386740937218573
 40
0.4818879174818138
 40
0.5695193478876036
 40
0.7489346372632694
 40
0.7489346372632694
 40
0.7489346372632694
 40
0.7489346372632694
 10
-71.94506497172506
 20
164.7559279451068
 10
-71.9812474555419
 20
164.7665733623761
 10
-72.05398561921197
 20
164.7879739966609
 10
-72.06007321613708
 20
164.8917164097142
 10
-72.0517797460489
 20
164.9656413682272
 10
-72.01704667479567
 20
165.0194630549646
 10
-71.97490943499463
 20
165.0586254135869
 10
-71.95921987177825
 20
165.1096282624186
 10
-71.91310183017242
 20
165.1481417942993
 10
-71.8313221853279
 20
165.2128776614074
 10
-71.740888055026
 20
165.2266649546725
 10
-71.68012990128113
 20
165.2359279451068
 72
     1
 10
-71.68012990128113
 20
165.2359279451068
 11
-70.50617715363667
 21
165.2359279451068
 97
        0
 75
     0
 76
     1
 47
0.0514683685270805
 98
        1
 10
-71.37974878843488
 20
165.5162902249209
450
        0
451
        0
460
0.0
461
0.0
452
        0
462
0.0
453
        0
470

  0
LINE
  5
100017C0
330
F6
100
AcDbEntity
  8
ROGO
 62
     4
100
AcDbLine
 10
-72.03677292730128
 20
165.9338923054166
 30
0.0
 11
-70.15814958143574
 21
165.9338923054166
 31
0.0
  0
LINE
  5
100017C1
330
F6
100
AcDbEntity
  8
ROGO
 62
     4
100
AcDbLine
 10
-71.94506497172517
 20
164.7559279451068
 30
0.0
 11
-70.74552065619343
 21
164.7559279451068
 31
0.0
  0
LINE
  5
100017C2
330
F6
100
AcDbEntity
  8
ROGO
 62
     4
100
AcDbLine
 10
-74.42771965031681
 20
164.4151347904642
 30
0.0
 11
-74.26905333164689
 21
164.0579709760487
 31
0.0
  0
LINE
  5
100017C3
330
F6
100
AcDbEntity
  8
ROGO
 62
     4
100
AcDbLine
 10
-73.22304230003521
 20
164.0579709760488
 30
0.0
 11
-74.26905333164689
 21
164.0579709760487
 31
0.0
  0
LINE
  5
100017C4
330
F6
100
AcDbEntity
  8
ROGO
 62
     4
100
AcDbLine
 10
-74.87965178078241
 20
165.4324509097712
 30
0.0
 11
-74.59506980117476
 21
164.7918462357442
 31
0.0
  0
LINE
  5
100017C5
330
F6
100
AcDbEntity
  8
ROGO
 62
     4
100
AcDbLine
 10
-74.05640088629718
 20
165.9338923054166
 30
0.0
 11
-73.22304230003521
 21
164.0579709760487
 31
0.0
  0
SPLINE
  5
100017C6
330
F6
100
AcDbEntity
  8
ROGO
 62
     4
100
AcDbSpline
210
0.0
220
0.0
230
1.0
 70
     8
 71
     3
 72
    26
 73
    22
 74
    20
 42
0.0000000001
 43
0.0000000001
 44
0.0000000001
 40
0.0
 40
0.0
 40
0.0
 40
0.0
 40
0.3403136209417982
 40
0.5681272389515159
 40
0.7323994099697078
 40
0.8550561247337057
 40
1.014148321321447
 40
1.13027011535643
 40
1.339959009791999
 40
1.510642755247373
 40
1.626735051276186
 40
1.740569491433665
 40
1.944197174100541
 40
2.088186249714737
 40
2.16573549158295
 40
2.275891898886404
 40
2.355438312276705
 40
2.470674802865115
 40
2.535888688806235
 40
2.677801419664453
 40
2.742600005358966
 40
2.742600005358966
 40
2.742600005358966
 40
2.742600005358966
 10
-72.03677292730185
 20
165.9338923054166
 30
0.0
 10
-72.15228062838568
 20
165.927000917895
 30
0.0
 10
-72.34511179133703
 20
165.9154962800426
 30
0.0
 10
-72.55683923521097
 20
165.7868741316734
 30
0.0
 10
-72.71196315579698
 20
165.7120988668986
 30
0.0
 10
-72.8225973478316
 20
165.6104482648706
 30
0.0
 10
-72.90369265907101
 20
165.5054506184116
 30
0.0
 10
-73.00592852292436
 20
165.380346692518
 30
0.0
 10
-73.08929894850454
 20
165.2346682332831
 30
0.0
 10
-73.1317544378374
 20
165.0741051746211
 30
0.0
 10
-73.16936110734284
 20
164.9461354852513
 30
0.0
 10
-73.19725084301852
 20
164.8035299668335
 30
0.0
 10
-73.19015490471432
 20
164.6494658409445
 30
0.0
 10
-73.17999319630789
 20
164.5063789680819
 30
0.0
 10
-73.13462363927357
 20
164.4042363639011
 30
0.0
 10
-73.08295575014509
 20
164.3315178682876
 30
0.0
 10
-73.01968912749519
 20
164.2514265072894
 30
0.0
 10
-72.95046160704159
 20
164.1983822582463
 30
0.0
 10
-72.89320479688368
 20
164.1022890366168
 30
0.0
 10
-72.79297868222298
 20
164.0900268485081
 30
0.0
 10
-72.72927097640042
 20
164.065621434398
 30
0.0
 10
-72.70930027859833
 20
164.0579709760487
 30
0.0
 11
-72.03677292730185
 21
165.9338923054166
 31
0.0
 11
-72.37303660295026
 21
165.881546330997
 31
0.0
 11
-72.57683303634303
 21
165.7797324896636
 31
0.0
 11
-72.71949024675143
 21
165.6982814829815
 31
0.0
 11
-72.81119820232823
 21
165.616830144376
 31
0.0
 11
-72.9130961260579
 21
165.4946534683912
 31
0.0
 11
-72.98442473126204
 21
165.4030210443835
 31
0.0
 11
-73.08632324092525
 21
165.2197558644446
 31
0.0
 11
-73.13727190982342
 21
165.0568535191571
 31
0.0
 11
-73.16784122834895
 21
164.9448582604979
 31
0.0
 11
-73.18822116465503
 21
164.8328630018388
 31
0.0
 11
-73.18822116465503
 21
164.6292353191719
 31
0.0
 11
-73.16784122834895
 21
164.4866958085358
 31
0.0
 11
-73.13727190982342
 21
164.4154258872561
 31
0.0
 11
-73.07613327277238
 21
164.3237934632483
 31
0.0
 11
-73.02518401794066
 21
164.2627049592941
 31
0.0
 11
-72.94366603051696
 21
164.1812539526121
 31
0.0
 11
-72.90290674383834
 21
164.1303468659837
 31
0.0
 11
-72.77043891564961
 21
164.0794401112787
 31
0.0
 11
-72.70930027859833
 21
164.0579709760487
 31
0.0
  0
SPLINE
  5
100017C7
330
F6
100
AcDbEntity
  8
ROGO
 62
     4
100
AcDbSpline
210
0.0
220
0.0
230
1.0
 70
     8
 71
     3
 72
    16
 73
    12
 74
    10
 42
0.0000000001
 43
0.0000000001
 44
0.0000000001
 40
0.0
 40
0.0
 40
0.0
 40
0.0
 40
0.1794152893756658
 40
0.2670467197814556
 40
0.3102605435414121
 40
0.3558008766977565
 40
0.4210145035340276
 40
0.4803947587045229
 40
0.5423269814405317
 40
0.646160827944346
 40
0.7489346372632694
 40
0.7489346372632694
 40
0.7489346372632694
 40
0.7489346372632694
 10
-71.68012990128113
 20
165.2359279451068
 30
0.0
 10
-71.74088805502605
 20
165.2266649546725
 30
0.0
 10
-71.83132218532796
 20
165.2128776614074
 30
0.0
 10
-71.91310183017235
 20
165.1481417942994
 30
0.0
 10
-71.95921987177834
 20
165.1096282624186
 30
0.0
 10
-71.97490943499466
 20
165.0586254135869
 30
0.0
 10
-72.01704667479571
 20
165.0194630549646
 30
0.0
 10
-72.05177974604883
 20
164.9656413682272
 30
0.0
 10
-72.06007321613707
 20
164.8917164097142
 30
0.0
 10
-72.05398561921196
 20
164.7879739966609
 30
0.0
 10
-71.98124745554188
 20
164.7665733623762
 30
0.0
 10
-71.94506497172506
 20
164.7559279451068
 30
0.0
 11
-71.68012990128113
 21
165.2359279451068
 31
0.0
 11
-71.85335643021506
 21
165.1892116124676
 31
0.0
 11
-71.9246850354192
 21
165.1383048577625
 31
0.0
 11
-71.95525435394472
 21
165.1077606057854
 31
0.0
 11
-71.9756342902507
 21
165.0670349364827
 31
0.0
 11
-72.01639357692932
 21
165.0161281817777
 31
0.0
 11
-72.04696289545495
 21
164.9652210951493
 31
0.0
 11
-72.05715286360794
 21
164.9041329231185
 31
0.0
 11
-72.03677292730197
 21
164.8023187498619
 31
0.0
 11
-71.94506497172506
 21
164.7559279451068
 31
0.0
  0
LINE
  5
100017C8
330
F6
100
AcDbEntity
  8
ROGO
 62
     4
100
AcDbLine
 10
-72.70930027859844
 20
164.0579709760487
 30
0.0
 11
-71.09354454287757
 21
164.0579709760487
 31
0.0
  0
LINE
  5
100017C9
102
{ACAD_REACTORS
330
100017CE
102
}
330
F6
100
AcDbEntity
  8
ROGO
 62
     4
100
AcDbLine
 10
-69.11639912423186
 20
165.9417169042342
 30
0.0
 11
-68.04432223396702
 21
165.9417169042342
 31
0.0
  0
LINE
  5
100017CA
330
F6
100
AcDbEntity
  8
ROGO
 62
     4
100
AcDbLine
 10
-70.15814958143585
 20
165.9338923054166
 30
0.0
 11
-70.50617715363671
 21
165.2359279451068
 31
0.0
  0
SPLINE
  5
100017CB
102
{ACAD_REACTORS
330
100017CE
102
}
330
F6
100
AcDbEntity
  8
ROGO
 62
     4
100
AcDbSpline
210
0.0
220
0.0
230
1.0
 70
     8
 71
     3
 72
     9
 73
     5
 74
     3
 42
0.0000000001
 43
0.0000000001
 44
0.0000000001
 40
0.0
 40
0.0
 40
0.0
 40
0.0
 40
0.1622561919360204
 40
0.3804197703110171
 40
0.3804197703110171
 40
0.3804197703110171
 40
0.3804197703110171
 10
-68.23613152386008
 20
164.0997944716325
 30
0.0
 10
-68.18401014054867
 20
164.115740671237
 30
0.0
 10
-68.0618083038666
 20
164.1531275315998
 30
0.0
 10
-67.96084159352834
 20
164.2321451284204
 30
0.0
 10
-67.90293908544857
 20
164.2774602330032
 30
0.0
 11
-68.23613152386008
 21
164.0997944716325
 31
0.0
 11
-68.08363043211056
 21
164.1552064634464
 31
0.0
 11
-67.90293908544857
 21
164.2774602330032
 31
0.0
  0
SPLINE
  5
100017CC
102
{ACAD_REACTORS
330
100017CE
102
}
330
F6
100
AcDbEntity
  8
ROGO
 62
     4
100
AcDbSpline
210
0.0
220
0.0
230
1.0
 70
     8
 71
     3
 72
    11
 73
     7
 74
     0
 42
0.0000000001
 43
0.0000000001
 40
0.1647869275458134
 40
0.1647869275458134
 40
0.1647869275458134
 40
0.1647869275458134
 40
0.2895635144633836
 40
0.5387013147903714
 40
0.7953622617455423
 40
0.8850764140209602
 40
0.8850764140209602
 40
0.8850764140209602
 40
0.8850764140209602
 10
-68.23613152386008
 20
164.0997944716325
 30
0.0
 10
-68.25610087071845
 20
164.0942359963232
 30
0.0
 10
-68.31801660133862
 20
164.0843394394891
 30
0.0
 10
-68.42187198296461
 20
164.07075030467
 30
0.0
 10
-68.52058132881655
 20
164.056569546692
 30
0.0
 10
-68.57833946428593
 20
164.0576826679873
 30
0.0
 10
-68.59329932188575
 20
164.0579709760487
 30
0.0
  0
LINE
  5
100017CD
102
{ACAD_REACTORS
330
100017CE
102
}
330
F6
100
AcDbEntity
  8
ROGO
 62
     4
100
AcDbLine
 10
-69.66537621215059
 20
164.0579709760487
 30
0.0
 11
-68.59329932188586
 21
164.0579709760487
 31
0.0
  0
HATCH
  5
100017CE
330
F6
100
AcDbEntity
  8
ROGO
 62
     4
100
AcDbHatch
 10
0.0
 20
0.0
 30
0.0
210
0.0
220
0.0
230
1.0
  2
SOLID
 70
     1
 71
     1
 91
        1
 92
        5
 93
        6
 72
     4
 94
        3
 73
     0
 74
     0
 95
       38
 96
       34
 40
0.0
 40
0.0
 40
0.0
 40
0.0
 40
0.2582400211805774
 40
0.3393418442955424
 40
0.443552172800835
 40
0.530394283206717
 40
0.6036667919818254
 40
0.7009894053152177
 40
0.7507174249931042
 40
0.8067242281503032
 40
0.8892677166883521
 40
0.9827715778106668
 40
1.043426616793024
 40
1.109318337455068
 40
1.182564491755753
 40
1.293719242428883
 40
1.399327847180614
 40
1.448424760475743
 40
1.50441322219426
 40
1.570741059842362
 40
1.617957956886697
 40
1.657539314700464
 40
1.714052551848318
 40
1.776150918813051
 40
1.838248940024221
 40
1.892584795022379
 40
2.017023561310864
 40
2.066120474605993
 40
2.164314359515976
 40
2.251113385583432
 40
2.417283613623161
 40
2.622320469312984
 40
2.918423525691272
 40
2.918423525691272
 40
2.918423525691272
 40
2.918423525691272
 10
-69.11639912423186
 20
165.9417169042342
 10
-69.20247826369709
 20
165.9356360198044
 10
-69.31559107172725
 20
165.9276453972513
 10
-69.45921788959811
 20
165.8882959312442
 10
-69.53751039594227
 20
165.8414180463044
 10
-69.61898939782404
 20
165.806960553875
 10
-69.68845783551694
 20
165.7559358406618
 10
-69.75872369365394
 20
165.7296432975284
 10
-69.80792599847655
 20
165.6822331427103
 10
-69.86487365295214
 20
165.653272973889
 10
-69.91022208128825
 20
165.5884516967256
 10
-69.96090876204796
 20
165.5278461514992
 10
-70.01971168834377
 20
165.4836068063886
 10
-70.06797203914293
 20
165.437142550728
 10
-70.11224420046346
 20
165.3654342433224
 10
-70.13844644699358
 20
165.2701551366287
 10
-70.21230618186407
 20
165.2099993447928
 10
-70.22342714541142
 20
165.1376741338268
 10
-70.2642812171195
 20
165.0950034764117
 10
-70.28204599634225
 20
165.0399217878616
 10
-70.28881167937623
 20
164.9894572316892
 10
-70.29693211229406
 20
164.9423268296487
 10
-70.31817362691191
 20
164.8927477285946
 10
-70.31124032325272
 20
164.8315044729734
 10
-70.313215413313
 20
164.7722005957925
 10
-70.31205307049404
 20
164.6921385149191
 10
-70.31624812670265
 20
164.6141882336055
 10
-70.28279419739544
 20
164.5293598390792
 10
-70.26299727224852
 20
164.4537470609841
 10
-70.20878017232916
 20
164.3490520006248
 10
-70.11525681116054
 20
164.2282565381836
 10
-69.93741431684994
 20
164.0816337334795
 10
-69.766413558908
 20
164.0667595324549
 10
-69.66537621215059
 20
164.0579709760487
 72
     1
 10
-69.66537621215059
 20
164.0579709760487
 11
-68.59329932188536
 21
164.0579709760487
 72
     4
 94
        3
 73
     0
 74
     0
 95
       11
 96
        7
 40
0.1647869275458135
 40
0.1647869275458135
 40
0.1647869275458135
 40
0.1647869275458135
 40
0.2545010798212315
 40
0.5111620267764023
 40
0.7602998271033902
 40
0.8850764140209603
 40
0.8850764140209603
 40
0.8850764140209603
 40
0.8850764140209603
 10
-68.59329932188575
 20
164.0579709760487
 10
-68.57833946428593
 20
164.0576826679873
 10
-68.52058132881655
 20
164.056569546692
 10
-68.42187198296461
 20
164.07075030467
 10
-68.31801660133862
 20
164.0843394394891
 10
-68.25610087071845
 20
164.0942359963232
 10
-68.23613152386008
 20
164.0997944716325
 72
     4
 94
        3
 73
     0
 74
     0
 95
        9
 96
        5
 40
0.0
 40
0.0
 40
0.0
 40
0.0
 40
0.1622561919360204
 40
0.3804197703110171
 40
0.3804197703110171
 40
0.3804197703110171
 40
0.3804197703110171
 10
-68.23613152386008
 20
164.0997944716325
 10
-68.18401014054867
 20
164.115740671237
 10
-68.0618083038666
 20
164.1531275315999
 10
-67.96084159352834
 20
164.2321451284205
 10
-67.90293908544857
 20
164.2774602330032
 72
     4
 94
        3
 73
     0
 74
     0
 95
       25
 96
       21
 40
0.0
 40
0.0
 40
0.0
 40
0.0
 40
0.165525918914855
 40
0.3412380755365305
 40
0.5940540902285263
 40
0.7697671103696209
 40
0.9377330196075423
 40
1.11479469302833
 40
1.274661249598185
 40
1.574522170874768
 40
1.815540668866877
 40
2.15849091873445
 40
2.536227739636605
 40
2.738070817316548
 40
2.925680654369045
 40
3.162706124480894
 40
3.395643218188267
 40
3.648478129958861
 40
3.928509979727306
 40
4.337226830236035
 40
4.337226830236035
 40
4.337226830236035
 40
4.337226830236035
 10
-67.90293908544857
 20
164.2774602330032
 10
-67.88166386060026
 20
164.2950412957827
 10
-67.84131057588047
 20
164.336855757528
 10
-67.76973738068091
 20
164.404627683726
 10
-67.70666572381435
 20
164.4835873558032
 10
-67.62886229421827
 20
164.5475814027652
 10
-67.58835807201967
 20
164.625818868976
 10
-67.52997443301376
 20
164.6873509696889
 10
-67.48100012027464
 20
164.7823812296755
 10
-67.43944783641757
 20
164.8915408941671
 10
-67.39983347142118
 20
165.0338284423149
 10
-67.38465283808307
 20
165.1943499466657
 10
-67.4071220632934
 20
165.3496544215672
 10
-67.46140203140021
 20
165.4657394151913
 10
-67.50130797535621
 20
165.5624842932857
 10
-67.56187024484541
 20
165.6541187271102
 10
-67.630963608932
 20
165.7537813075875
 10
-67.7283039243025
 20
165.836218396609
 10
-67.85551772233259
 20
165.9356508100025
 10
-67.97400787621632
 20
165.9394577764397
 10
-68.04432223396702
 20
165.9417169042342
 72
     1
 10
-68.04432223396701
 20
165.9417169042342
 11
-69.11639912423186
 21
165.9417169042342
 97
        6
330
100017D0
330
100017C9
330
100017D1
330
100017CD
330
100017CC
330
100017CB
 75
     0
 76
     1
 47
0.088756267210375
 98
        1
 10
-68.79512816651845
 20
165.4214187300985
450
        0
451
        0
460
0.0
461
0.0
452
        0
462
0.0
453
        0
470

  0
ELLIPSE
  5
100017CF
330
F6
100
AcDbEntity
  8
ROGO
 62
     4
100
AcDbEllipse
 10
-68.87002998904506
 20
164.9735797724928
 30
0.0
 11
0.2546924415247531
 21
0.2239701316915159
 31
0.0
210
0.0
220
0.0
230
1.0
 40
0.6788083417438792
 41
0.0
 42
6.283185307179586
  0
SPLINE
  5
100017D0
102
{ACAD_REACTORS
330
100017CE
102
}
330
F6
100
AcDbEntity
  8
ROGO
 62
     4
100
AcDbSpline
210
0.0
220
0.0
230
1.0
 70
     8
 71
     3
 72
    25
 73
    21
 74
     0
 42
0.0000000001
 43
0.0000000001
 40
0.0
 40
0.0
 40
0.0
 40
0.0
 40
0.4087168505087288
 40
0.6887487002771746
 40
0.9415836120477687
 40
1.17452070575514
 40
1.41154617586699
 40
1.599156012919487
 40
1.80099909059943
 40
2.178735911501585
 40
2.521686161369157
 40
2.762704659361267
 40
3.06256558063785
 40
3.222432137207705
 40
3.399493810628493
 40
3.567459719866414
 40
3.743172740007509
 40
3.995988754699505
 40
4.17170091132118
 40
4.337226830236035
 40
4.337226830236035
 40
4.337226830236035
 40
4.337226830236035
 10
-68.04432223396702
 20
165.9417169042342
 30
0.0
 10
-67.97400787621632
 20
165.9394577764397
 30
0.0
 10
-67.85551772233259
 20
165.9356508100025
 30
0.0
 10
-67.7283039243025
 20
165.836218396609
 30
0.0
 10
-67.630963608932
 20
165.7537813075875
 30
0.0
 10
-67.56187024484541
 20
165.6541187271102
 30
0.0
 10
-67.50130797535621
 20
165.5624842932857
 30
0.0
 10
-67.46140203140021
 20
165.4657394151913
 30
0.0
 10
-67.4071220632934
 20
165.3496544215672
 30
0.0
 10
-67.38465283808307
 20
165.1943499466657
 30
0.0
 10
-67.39983347142118
 20
165.0338284423149
 30
0.0
 10
-67.43944783641757
 20
164.8915408941671
 30
0.0
 10
-67.48100012027464
 20
164.7823812296755
 30
0.0
 10
-67.52997443301376
 20
164.6873509696889
 30
0.0
 10
-67.58835807201967
 20
164.625818868976
 30
0.0
 10
-67.62886229421827
 20
164.5475814027652
 30
0.0
 10
-67.70666572381435
 20
164.4835873558032
 30
0.0
 10
-67.76973738068091
 20
164.404627683726
 30
0.0
 10
-67.84131057588047
 20
164.336855757528
 30
0.0
 10
-67.88166386060026
 20
164.2950412957827
 30
0.0
 10
-67.90293908544857
 20
164.2774602330032
 30
0.0
  0
SPLINE
  5
100017D1
102
{ACAD_REACTORS
330
100017CE
102
}
330
F6
100
AcDbEntity
  8
ROGO
 62
     4
100
AcDbSpline
210
0.0
220
0.0
230
1.0
 70
     8
 71
     3
 72
    38
 73
    34
 74
    32
 42
0.0000000001
 43
0.0000000001
 44
0.0000000001
 40
0.0
 40
0.0
 40
0.0
 40
0.0
 40
0.2582400211805774
 40
0.3393418442955424
 40
0.443552172800835
 40
0.530394283206717
 40
0.6036667919818254
 40
0.7009894053152177
 40
0.7507174249931042
 40
0.8067242281503032
 40
0.8892677166883521
 40
0.9827715778106668
 40
1.043426616793024
 40
1.109318337455068
 40
1.182564491755753
 40
1.293719242428883
 40
1.399327847180614
 40
1.448424760475743
 40
1.50441322219426
 40
1.570741059842362
 40
1.617957956886697
 40
1.657539314700464
 40
1.714052551848318
 40
1.776150918813051
 40
1.838248940024221
 40
1.892584795022379
 40
2.017023561310864
 40
2.066120474605993
 40
2.164314359515976
 40
2.251113385583432
 40
2.417283613623161
 40
2.622320469312984
 40
2.918423525691272
 40
2.918423525691272
 40
2.918423525691272
 40
2.918423525691272
 10
-69.11639912423186
 20
165.9417169042342
 30
0.0
 10
-69.20247826369709
 20
165.9356360198044
 30
0.0
 10
-69.31559107172725
 20
165.9276453972513
 30
0.0
 10
-69.45921788959812
 20
165.8882959312442
 30
0.0
 10
-69.53751039594229
 20
165.8414180463043
 30
0.0
 10
-69.61898939782402
 20
165.806960553875
 30
0.0
 10
-69.68845783551697
 20
165.7559358406619
 30
0.0
 10
-69.7587236936539
 20
165.7296432975284
 30
0.0
 10
-69.80792599847655
 20
165.6822331427104
 30
0.0
 10
-69.86487365295213
 20
165.653272973889
 30
0.0
 10
-69.91022208128824
 20
165.5884516967256
 30
0.0
 10
-69.96090876204796
 20
165.5278461514992
 30
0.0
 10
-70.01971168834376
 20
165.4836068063886
 30
0.0
 10
-70.06797203914294
 20
165.4371425507279
 30
0.0
 10
-70.11224420046346
 20
165.3654342433225
 30
0.0
 10
-70.13844644699358
 20
165.2701551366286
 30
0.0
 10
-70.21230618186405
 20
165.2099993447928
 30
0.0
 10
-70.22342714541143
 20
165.1376741338268
 30
0.0
 10
-70.26428121711949
 20
165.0950034764116
 30
0.0
 10
-70.28204599634228
 20
165.0399217878616
 30
0.0
 10
-70.28881167937623
 20
164.9894572316891
 30
0.0
 10
-70.29693211229407
 20
164.9423268296487
 30
0.0
 10
-70.3181736269119
 20
164.8927477285946
 30
0.0
 10
-70.31124032325272
 20
164.8315044729732
 30
0.0
 10
-70.313215413313
 20
164.7722005957926
 30
0.0
 10
-70.31205307049403
 20
164.692138514919
 30
0.0
 10
-70.31624812670269
 20
164.6141882336055
 30
0.0
 10
-70.28279419739542
 20
164.5293598390791
 30
0.0
 10
-70.26299727224852
 20
164.4537470609841
 30
0.0
 10
-70.20878017232914
 20
164.3490520006249
 30
0.0
 10
-70.11525681116056
 20
164.2282565381836
 30
0.0
 10
-69.93741431684994
 20
164.0816337334795
 30
0.0
 10
-69.766413558908
 20
164.0667595324549
 30
0.0
 10
-69.66537621215059
 20
164.0579709760487
 30
0.0
 11
-69.11639912423186
 21
165.9417169042342
 31
0.0
 11
-69.37276574844225
 21
165.9106675478751
 31
0.0
 11
-69.45045258576818
 21
165.887381049236
 31
0.0
 11
-69.54367642435101
 21
165.8408073604508
 31
0.0
 11
-69.62136326167694
 21
165.8019961836322
 31
0.0
 11
-69.68351248739884
 21
165.7631846610601
 31
0.0
 11
-69.76896782535323
 21
165.7166113180285
 31
0.0
 11
-69.80781154918986
 21
165.6855623074229
 31
0.0
 11
-69.85442377365484
 21
165.6545129510637
 31
0.0
 11
-69.90880449874828
 21
165.5924149298526
 31
0.0
 11
-69.97095372447017
 21
165.5225547424283
 31
0.0
 11
-70.01756594893527
 21
165.4837432198562
 31
0.0
 11
-70.06417756305302
 21
165.4371698768246
 31
0.0
 11
-70.10302128688966
 21
165.3750718556134
 31
0.0
 11
-70.14963290100729
 21
165.2741623118301
 31
0.0
 11
-70.21178273707653
 21
165.1887774462263
 31
0.0
 11
-70.22731973833334
 21
165.1422037574412
 31
0.0
 11
-70.25839435119428
 21
165.0956304144095
 31
0.0
 11
-70.28170046342677
 21
165.0335320474448
 31
0.0
 11
-70.28946957440246
 21
164.9869587044132
 31
0.0
 11
-70.29723807503092
 21
164.948147181841
 31
0.0
 11
-70.31277507628772
 21
164.8938116725964
 31
0.0
 11
-70.31277507628772
 21
164.8317133056316
 31
0.0
 11
-70.31277507628772
 21
164.7696152844205
 31
0.0
 11
-70.31277507628772
 21
164.7152794294223
 31
0.0
 11
-70.30500657565927
 21
164.5910833869999
 31
0.0
 11
-70.28946957440246
 21
164.5445096982148
 31
0.0
 11
-70.25839435119428
 21
164.451362666398
 31
0.0
 11
-70.21955123770488
 21
164.3737399670072
 31
0.0
 11
-70.11855828814645
 21
164.2417817583718
 31
0.0
 11
-69.95541611286603
 21
164.1175853701959
 31
0.0
 11
-69.66537621215059
 21
164.0579709760487
 31
0.0
  0
LINE
  5
100017D2
330
F6
100
AcDbEntity
  8
ROGO
 62
     4
100
AcDbLine
 10
-62.80032767338832
 20
165.6138588642428
 30
0.0
 11
-62.29459469756136
 21
165.9338923054166
 31
0.0
  0
LINE
  5
100017D3
330
F6
100
AcDbEntity
  8
ROGO
 62
     4
100
AcDbLine
 10
-62.6407486635012
 20
165.9338923054166
 30
0.0
 11
-62.80032767338832
 21
165.6138588642428
 31
0.0
  0
LINE
  5
100017D4
330
F6
100
AcDbEntity
  8
ROGO
 62
     4
100
AcDbLine
 10
-63.72086829565001
 20
165.9338923054166
 30
0.0
 11
-62.6407486635012
 21
165.9338923054166
 31
0.0
  0
LINE
  5
100017D5
330
F6
100
AcDbEntity
  8
ROGO
 62
     4
100
AcDbLine
 10
-63.33936931112759
 20
163.002636898408
 30
0.0
 11
-62.25927331112768
 21
163.002636898408
 31
0.0
  0
LINE
  5
100017D6
330
F6
100
AcDbEntity
  8
ROGO
 62
     4
100
AcDbLine
 10
-62.99008261946323
 20
164.4682646019123
 30
0.0
 11
-62.25927331112768
 21
163.002636898408
 31
0.0
  0
HATCH
  5
100017D7
330
F6
100
AcDbEntity
  8
ROGO
 62
     4
100
AcDbHatch
 10
0.0
 20
0.0
 30
0.0
210
0.0
220
0.0
230
1.0
  2
SOLID
 70
     1
 71
     0
 91
        1
 92
        7
 72
     0
 73
     1
 93
       11
 10
-65.18248691232123
 20
163.002636898408
 10
-64.10236728017243
 20
163.002636898408
 10
-63.72086829565002
 20
163.7677277014359
 10
-63.33936931112758
 20
163.002636898408
 10
-62.25927331112768
 20
163.002636898408
 10
-62.99008261946323
 20
164.4682646019123
 10
-61.21449869756144
 20
165.9338923054166
 10
-62.2945946975614
 20
165.9338923054166
 10
-62.80032767338832
 20
165.6138588642429
 10
-62.6407486635012
 20
165.9338923054166
 10
-63.72086829565001
 20
165.9338923054166
 97
        0
 75
     0
 76
     1
 47
0.0514683685270805
 98
        1
 10
-63.81382721908415
 20
164.6763266147859
450
        0
451
        0
460
0.0
461
0.0
452
        0
462
0.0
453
        0
470

  0
LINE
  5
100017D8
330
F6
100
AcDbEntity
  8
ROGO
 62
     4
100
AcDbLine
 10
-62.99008261946323
 20
164.4682646019123
 30
0.0
 11
-61.21449869756145
 21
165.9338923054166
 31
0.0
  0
LINE
  5
100017D9
330
F6
100
AcDbEntity
  8
ROGO
 62
     4
100
AcDbLine
 10
-64.11376419439591
 20
165.9338923054166
 30
0.0
 11
-64.46179176659689
 21
165.2359279451068
 31
0.0
  0
LINE
  5
100017DA
330
F6
100
AcDbEntity
  8
ROGO
 62
     4
100
AcDbLine
 10
-65.63574451424142
 20
165.2359279451068
 30
0.0
 11
-64.46179176659689
 21
165.2359279451068
 31
0.0
  0
LINE
  5
100017DB
330
F6
100
AcDbEntity
  8
ROGO
 62
     4
100
AcDbLine
 10
-65.99238754026157
 20
165.9338923054166
 30
0.0
 11
-64.11376419439591
 21
165.9338923054166
 31
0.0
  0
LINE
  5
100017DC
330
F6
100
AcDbEntity
  8
ROGO
 62
     4
100
AcDbLine
 10
-63.72086829565001
 20
163.7677277014359
 30
0.0
 11
-64.10236728017242
 21
163.002636898408
 31
0.0
  0
LINE
  5
100017DD
330
F6
100
AcDbEntity
  8
ROGO
 62
     4
100
AcDbLine
 10
-65.90067958468546
 20
164.7559279451068
 30
0.0
 11
-64.70113526915373
 21
164.7559279451068
 31
0.0
  0
LINE
  5
100017DE
330
F6
100
AcDbEntity
  8
ROGO
 62
     4
100
AcDbLine
 10
-64.70113526915373
 20
164.7559279451068
 30
0.0
 11
-65.04915915583774
 21
164.0579709760487
 31
0.0
  0
LINE
  5
100017DF
330
F6
100
AcDbEntity
  8
ROGO
 62
     4
100
AcDbLine
 10
-66.66491489155863
 20
164.0579709760487
 30
0.0
 11
-65.04915915583774
 21
164.0579709760487
 31
0.0
  0
LINE
  5
100017E0
330
F6
100
AcDbEntity
  8
ROGO
 62
     4
100
AcDbLine
 10
-63.72086829565001
 20
163.7677277014359
 30
0.0
 11
-63.33936931112759
 21
163.002636898408
 31
0.0
  0
LINE
  5
100017E1
330
F6
100
AcDbEntity
  8
ROGO
 62
     4
100
AcDbLine
 10
-63.72086829565001
 20
165.9338923054166
 30
0.0
 11
-65.18248691232122
 21
163.002636898408
 31
0.0
  0
SPLINE
  5
100017E2
330
F6
100
AcDbEntity
  8
ROGO
 62
     4
100
AcDbSpline
210
0.0
220
0.0
230
1.0
 70
     8
 71
     3
 72
    16
 73
    12
 74
    10
 42
0.0000000001
 43
0.0000000001
 44
0.0000000001
 40
0.0
 40
0.0
 40
0.0
 40
0.0
 40
0.1794152893756658
 40
0.2670467197815217
 40
0.3102605435413978
 40
0.3558008766977931
 40
0.4210145035340376
 40
0.4803947587045328
 40
0.5423269814405045
 40
0.6461608279444525
 40
0.7489346372632488
 40
0.7489346372632488
 40
0.7489346372632488
 40
0.7489346372632488
 10
-65.6357445142413
 20
165.2359279451068
 30
0.0
 10
-65.69650266798626
 20
165.2266649546725
 30
0.0
 10
-65.78693679828823
 20
165.2128776614075
 30
0.0
 10
-65.86871644313245
 20
165.1481417942992
 30
0.0
 10
-65.91483448473852
 20
165.1096282624186
 30
0.0
 10
-65.93052404795497
 20
165.058625413587
 30
0.0
 10
-65.97266128775586
 20
165.0194630549644
 30
0.0
 10
-66.00739435900897
 20
164.9656413682272
 30
0.0
 10
-66.01568782909748
 20
164.8917164097141
 30
0.0
 10
-66.00960023217213
 20
164.7879739966609
 30
0.0
 10
-65.93686206850209
 20
164.766573362376
 30
0.0
 10
-65.90067958468535
 20
164.7559279451067
 30
0.0
 11
-65.6357445142413
 21
165.2359279451068
 31
0.0
 11
-65.80897104317523
 21
165.1892116124676
 31
0.0
 11
-65.88029964837938
 21
165.1383048577624
 31
0.0
 11
-65.9108689669049
 21
165.1077606057854
 31
0.0
 11
-65.93124890321099
 21
165.0670349364827
 31
0.0
 11
-65.97200818988949
 21
165.0161281817777
 31
0.0
 11
-66.00257750841513
 21
164.9652210951493
 31
0.0
 11
-66.01276747656823
 21
164.9041329231185
 31
0.0
 11
-65.99238754026214
 21
164.8023187498617
 31
0.0
 11
-65.90067958468535
 21
164.7559279451067
 31
0.0
  0
LINE
  5
100017E3
330
F6
100
AcDbEntity
  8
ROGO
 62
     4
100
AcDbLine
 10
-62.29459469756136
 20
165.9338923054166
 30
0.0
 11
-61.21449869756145
 21
165.9338923054166
 31
0.0
  0
LINE
  5
100017E4
330
F6
100
AcDbEntity
  8
握り
100
AcDbLine
 10
-67.09483789908938
 20
179.4218026770306
 30
0.0
 11
-59.74813773137384
 21
179.4218026770307
 31
0.0
  0
LINE
  5
100017E5
330
F6
100
AcDbEntity
  8
握り
100
AcDbLine
 10
-67.0948378990895
 20
171.8751026770306
 30
0.0
 11
-59.74813773137373
 21
171.8751026770306
 31
0.0
  0
LINE
  5
100017E6
330
F6
100
AcDbEntity
  8
握り
100
AcDbLine
 10
-69.74813773137384
 20
179.4218026770306
 30
0.0
 11
-69.74813773137373
 21
171.8751026770306
 31
0.0
  0
LINE
  5
100017E7
330
F6
100
AcDbEntity
  8
握り
100
AcDbLine
 10
-67.0948378990895
 20
179.4218026770306
 30
0.0
 11
-67.09483789908938
 21
171.8751026770306
 31
0.0
  0
LINE
  5
100017E8
330
F6
100
AcDbEntity
  8
握り
100
AcDbLine
 10
-59.74813773137384
 20
179.4218026770306
 30
0.0
 11
-59.74813773137373
 21
171.8751026770306
 31
0.0
  0
ARC
  5
100017E9
330
F6
100
AcDbEntity
  8
握り
100
AcDbCircle
 10
-28.42148781523167
 20
178.7218026770306
 30
0.0
 40
1.5
100
AcDbArc
 50
27.81813928465427
 51
152.1818607153457
  0
ARC
  5
100017EA
330
F6
100
AcDbEntity
  8
握り
100
AcDbCircle
 10
-48.42148781523167
 20
178.7218026770306
 30
0.0
 40
1.5
100
AcDbArc
 50
27.81813928465427
 51
152.1818607153457
  0
ARC
  5
100017EB
330
F6
100
AcDbEntity
  8
握り
100
AcDbCircle
 10
-38.42148781523167
 20
178.7218026770306
 30
0.0
 40
1.5
100
AcDbArc
 50
27.81813928465427
 51
152.1818607153457
  0
LINE
  5
100017EC
330
F6
100
AcDbEntity
  8
握り
100
AcDbLine
 10
-47.09483789908938
 20
179.4218026770306
 30
0.0
 11
-39.74813773137396
 21
179.4218026770306
 31
0.0
  0
LINE
  5
100017ED
330
F6
100
AcDbEntity
  8
握り
100
AcDbLine
 10
-47.09483789908938
 20
171.8751026770306
 30
0.0
 11
-39.74813773137396
 21
171.8751026770306
 31
0.0
  0
LINE
  5
100017EE
330
F6
100
AcDbEntity
  8
握り
100
AcDbLine
 10
-47.0948378990895
 20
158.5685026770306
 30
0.0
 11
-39.74813773137396
 21
158.5685026770306
 31
0.0
  0
LINE
  5
100017EF
330
F6
100
AcDbEntity
  8
握り
100
AcDbLine
 10
-57.0948378990895
 20
158.5685026770306
 30
0.0
 11
-49.74813773137384
 21
158.5685026770306
 31
0.0
  0
TEXT
  5
100017F0
330
F6
100
AcDbEntity
  8
文字
100
AcDbText
 10
-56.60999721661267
 20
163.3613166247679
 30
0.0
 40
3.0
  1
LB-5
  7
STYLE3
100
AcDbText
  0
LINE
  5
100017F1
330
F6
100
AcDbEntity
  8
握り
100
AcDbLine
 10
-57.0948378990895
 20
179.4218026770307
 30
0.0
 11
-49.74813773137384
 21
179.4218026770306
 31
0.0
  0
LINE
  5
100017F2
330
F6
100
AcDbEntity
  8
握り
100
AcDbLine
 10
-57.09483789908938
 20
171.8751026770306
 30
0.0
 11
-49.74813773137384
 21
171.8751026770306
 31
0.0
  0
LINE
  5
100017F3
330
F6
100
AcDbEntity
  8
握り
100
AcDbLine
 10
-57.0948378990895
 20
179.4218026770306
 30
0.0
 11
-57.09483789908938
 21
171.8751026770306
 31
0.0
  0
LINE
  5
100017F4
330
F6
100
AcDbEntity
  8
握り
100
AcDbLine
 10
-49.74813773137384
 20
179.4218026770306
 30
0.0
 11
-49.74813773137373
 21
171.8751026770306
 31
0.0
  0
LINE
  5
100017F5
330
F6
100
AcDbEntity
  8
握り
100
AcDbLine
 10
-47.0948378990895
 20
179.4218026770306
 30
0.0
 11
-47.09483789908938
 21
171.8751026770306
 31
0.0
  0
LINE
  5
100017F6
330
F6
100
AcDbEntity
  8
握り
100
AcDbLine
 10
-39.74813773137373
 20
169.2218026770306
 30
0.0
 11
-39.74813773137396
 21
161.2218026770306
 31
0.0
  0
LINE
  5
100017F7
330
F6
100
AcDbEntity
  8
握り
100
AcDbLine
 10
-37.09483789908961
 20
179.4218026770306
 30
0.0
 11
-29.74813773137373
 21
179.4218026770306
 31
0.0
  0
LINE
  5
100017F8
330
F6
100
AcDbEntity
  8
握り
100
AcDbLine
 10
-39.74813773137384
 20
179.4218026770306
 30
0.0
 11
-39.74813773137384
 21
171.8751026770307
 31
0.0
  0
ARC
  5
100017F9
330
F6
100
AcDbEntity
  8
握り
100
AcDbCircle
 10
-18.42148781523167
 20
178.7218026770306
 30
0.0
 40
1.5
100
AcDbArc
 50
27.81813928465427
 51
152.1818607153457
  0
ARC
  5
100017FA
330
F6
100
AcDbEntity
  8
隠れ線2
100
AcDbCircle
 10
-24.92148781523167
 20
175.4218026770306
 30
0.0
 40
1.5
100
AcDbArc
 50
0.0000000000001527
 51
89.99999999999998
  0
ARC
  5
100017FB
330
F6
100
AcDbEntity
  8
握り
100
AcDbCircle
 10
-13.92148781523167
 20
178.9218026770306
 30
0.0
 40
0.5
100
AcDbArc
 50
0.0
 51
90.0
  0
LINE
  5
100017FC
330
F6
100
AcDbEntity
  8
握り
100
AcDbLine
 10
-17.0948378990895
 20
179.4218026770306
 30
0.0
 11
-13.92148781523167
 21
179.4218026770306
 31
0.0
  0
CIRCLE
  5
100017FD
330
F6
100
AcDbEntity
  8
外形線
100
AcDbCircle
 10
-164.4432588526222
 20
206.2435800496398
 30
0.0
 40
2.0
  0
CIRCLE
  5
100017FE
330
F6
100
AcDbEntity
  8
外形線
100
AcDbCircle
 10
-164.4432588526222
 20
206.2435800496398
 30
0.0
 40
1.25
  0
LINE
  5
100017FF
330
F6
100
AcDbEntity
  8
中心線
 48
0.5
100
AcDbLine
 10
-164.2629529818809
 20
222.8580741067048
 30
0.0
 11
-107.3800226485824
 21
215.5855312473565
 31
0.0
  0
CIRCLE
  5
10001800
330
F6
100
AcDbEntity
  8
外形線
100
AcDbCircle
 10
-135.8214878152316
 20
219.2218026770306
 30
0.0
 40
26.4
  0
LINE
  5
10001801
330
F6
100
AcDbEntity
  8
中心線
 48
0.5
100
AcDbLine
 10
-130.1598647528597
 20
263.5047607095656
 30
0.0
 11
-144.2499734964879
 21
153.297548520743
 31
0.0
  0
HATCH
  5
10001802
330
F6
100
AcDbEntity
  8
ﾊｯﾁﾝｸ
  6
Continuous
100
AcDbHatch
 10
0.0
 20
0.0
 30
0.0
210
0.0
220
0.0
230
1.0
  2
ANSI37
 70
     0
 71
     0
 91
        1
 92
        7
 72
     0
 73
     1
 93
        4
 10
-131.4919913753924
 20
252.9450210966508
 10
-135.4594288365242
 20
253.4543736189848
 10
-136.2234576200252
 20
247.5032174272872
 10
-132.2560201588934
 20
246.9938649049531
 97
        0
 75
     0
 76
     1
 52
-7.31580000000001
 41
10.0
 77
     0
 78
     2
 53
37.68419999999998
 43
-342.1506987050729
 44
123.5980020112372
 45
-0.7641360344196811
 46
0.9892401735177175
 79
     0
 53
127.6841999999999
 43
-342.1506987050729
 44
123.5980020112372
 45
-0.9892401735177175
 46
-0.7641360344196811
 79
     0
 47
0.1856754751158765
 98
        1
 10
-133.5078128478782
 20
250.9616118687147
  0
LINE
  5
10001803
330
F6
100
AcDbEntity
  8
外形線
  6
Continuous
100
AcDbLine
 10
-135.4594288365242
 20
253.4543736189848
 30
0.0
 11
-136.2234576200252
 21
247.5032174272872
 31
0.0
  0
LINE
  5
10001804
330
F6
100
AcDbEntity
  8
外形線
  6
Continuous
100
AcDbLine
 10
-127.5245539142607
 20
252.4356685743168
 30
0.0
 11
-128.2885826977617
 21
246.4845123826191
 31
0.0
  0
LINE
  5
10001805
330
F6
100
AcDbEntity
  8
目盛
100
AcDbLine
 10
-117.2343624925581
 20
205.6748926146125
 30
0.0
 11
-118.8506342597474
 21
206.8528847939532
 31
0.0
  0
LINE
  5
10001806
330
F6
100
AcDbEntity
  8
目盛
100
AcDbLine
 10
-116.8180153886561
 20
206.2654129124246
 30
0.0
 11
-119.296729183427
 21
207.9553767947643
 31
0.0
  0
LINE
  5
10001807
330
F6
100
AcDbEntity
  8
目盛
100
AcDbLine
 10
-117.6690528451037
 20
205.0977414814935
 30
0.0
 11
-119.2475254512017
 21
206.3259207158881
 31
0.0
  0
LINE
  5
10001808
330
F6
100
AcDbEntity
  8
目盛
100
AcDbLine
 10
-151.5911609648971
 20
202.4791204321598
 30
0.0
 11
-149.53424707581
 21
204.662948551056
 31
0.0
  0
LINE
  5
10001809
330
F6
100
AcDbEntity
  8
目盛
100
AcDbLine
 10
-152.109279941461
 20
202.9827193392084
 30
0.0
 11
-150.6929501913541
 21
204.3948135424973
 31
0.0
  0
LINE
  5
1000180A
330
F6
100
AcDbEntity
  8
目盛
100
AcDbLine
 10
-152.6113248336451
 20
203.5023442609432
 30
0.0
 11
-151.151339005957
 21
204.8692536884289
 31
0.0
  0
LINE
  5
1000180B
330
F6
100
AcDbEntity
  8
中心線
 48
0.2
100
AcDbLine
 10
-138.9966960184035
 20
217.4030009352267
 30
0.0
 11
-140.98643114081
 21
201.8400862108262
 31
0.0
  0
CIRCLE
  5
1000180C
330
F6
100
AcDbEntity
  8
外形線
100
AcDbCircle
 10
-135.8214878152316
 20
219.2218026770306
 30
0.0
 40
23.0
  0
CIRCLE
  5
1000180D
330
F6
100
AcDbEntity
  8
外形線
100
AcDbCircle
 10
-135.8214878152316
 20
219.2218026770306
 30
0.0
 40
15.5
  0
TEXT
  5
1000180E
330
F6
100
AcDbEntity
  8
文字
100
AcDbText
 10
-128.6198978770928
 20
202.9101786501201
 30
0.0
 40
2.0
  1
.2
 50
352.7142000000002
  7
STYLE3
100
AcDbText
  0
LINE
  5
1000180F
330
F6
100
AcDbEntity
  8
目盛
100
AcDbLine
 10
-126.718706166034
 20
198.0997912612815
 30
0.0
 11
-127.510252396399
 21
199.9364879061293
 31
0.0
  0
LINE
  5
10001810
330
F6
100
AcDbEntity
  8
想像線
 48
0.5
100
AcDbLine
 10
-133.1247178456823
 20
193.1087803289585
 30
0.0
 11
-137.5815524161051
 21
158.3937025440552
 31
0.0
  0
LINE
  5
10001811
330
F6
100
AcDbEntity
  8
想像線
 48
0.5
100
AcDbLine
 10
-148.9944676902096
 20
195.1461904182946
 30
0.0
 11
-153.4513022606325
 21
160.4311126333913
 31
0.0
  0
LINE
  5
10001812
330
F6
100
AcDbEntity
  8
外形線
 48
0.5
100
AcDbLine
 10
-149.1661018468656
 20
170.2499795884767
 30
0.0
 11
-147.1923608228214
 21
185.6237997503624
 31
0.0
  0
LINE
  5
10001813
330
F6
100
AcDbEntity
  8
外形線
 48
0.5
100
AcDbLine
 10
-139.2475081940361
 20
168.9765982826417
 30
0.0
 11
-137.2737671699918
 21
184.3504184445274
 31
0.0
  0
LINE
  5
10001814
330
F6
100
AcDbEntity
  8
想像線
 48
0.5
100
AcDbLine
 10
-137.5815524161051
 20
158.3937025440552
 30
0.0
 11
-153.4513022606325
 21
160.4311126333913
 31
0.0
  0
CIRCLE
  5
10001815
330
F6
100
AcDbEntity
  8
外形線
100
AcDbCircle
 10
-143.0607618451994
 20
178.5400232231057
 30
0.0
 40
1.8
  0
LINE
  5
10001816
330
F6
100
AcDbEntity
  8
中心線
100
AcDbLine
 10
-145.4204827018083
 20
178.8429718598752
 30
0.0
 11
-140.577936683816
 21
178.2212700553862
 31
0.0
  0
LINE
  5
10001817
330
F6
100
AcDbEntity
  8
中心線
100
AcDbLine
 10
-146.1845114853093
 20
172.8918156681775
 30
0.0
 11
-141.3419654673171
 21
172.2701138636885
 31
0.0
  0
LINE
  5
10001818
330
F6
100
AcDbEntity
  8
外形線
100
AcDbLine
 10
-149.1661018468656
 20
170.2499795884767
 30
0.0
 11
-139.2475081940361
 21
168.9765982826417
 31
0.0
  0
LINE
  5
10001819
330
F6
100
AcDbEntity
  8
中心線
 48
0.5
100
AcDbLine
 10
-144.1716240892609
 20
169.8873194707988
 30
0.0
 11
-142.7254939417401
 21
181.1514846007857
 31
0.0
  0
LINE
  5
1000181A
330
F6
100
AcDbEntity
  8
想像線
100
AcDbLine
 10
-142.9863027605121
 20
173.2365548342882
 30
0.0
 11
-144.6936377867156
 21
171.9177282729793
 31
0.0
  0
LINE
  5
1000181B
330
F6
100
AcDbEntity
  8
想像線
100
AcDbLine
 10
-143.1861045203422
 20
171.7620326351799
 30
0.0
 11
-144.4635250059274
 21
173.4157639158609
 31
0.0
  0
CIRCLE
  5
1000181C
330
F6
100
AcDbEntity
  8
外形線
100
AcDbCircle
 10
-143.8247906287004
 20
172.588867031408
 30
0.0
 40
1.8
  0
LINE
  5
1000181D
330
F6
100
AcDbEntity
  8
想像線
100
AcDbLine
 10
-142.2222739770111
 20
179.1877110259859
 30
0.0
 11
-143.9296090032143
 21
177.868884464677
 31
0.0
  0
LINE
  5
1000181E
330
F6
100
AcDbEntity
  8
想像線
100
AcDbLine
 10
-142.4220757368409
 20
177.7131888268777
 30
0.0
 11
-143.6994962224261
 21
179.3669201075586
 31
0.0
  0
LINE
  5
1000181F
330
F6
100
AcDbEntity
  8
想像線
 48
0.5
100
AcDbLine
 10
-133.1247178456823
 20
193.1087803289585
 30
0.0
 11
-154.9456238819073
 21
195.9102192017957
 31
0.0
  0
LINE
  5
10001820
330
F6
100
AcDbEntity
  8
外形線
100
AcDbLine
 10
-147.1923608228214
 20
185.6237997503624
 30
0.0
 11
-137.2737671699918
 21
184.3504184445274
 31
0.0
  0
LINE
  5
10001821
330
F6
100
AcDbEntity
  8
外形線
 48
0.5
100
AcDbLine
 10
-143.4043510581818
 20
191.4614066823196
 30
0.0
 11
-142.5398298234823
 21
190.3422091864531
 31
0.0
  0
LINE
  5
10001822
330
F6
100
AcDbEntity
  8
外形線
 48
0.5
100
AcDbLine
 10
-143.4043510581818
 20
191.4614066823195
 30
0.0
 11
-135.4694761359181
 21
190.4427016376515
 31
0.0
  0
LINE
  5
10001823
330
F6
100
AcDbEntity
  8
外形線
 48
0.5
100
AcDbLine
 10
-143.4043510581818
 20
191.4614066823196
 30
0.0
 11
-143.0981296318704
 21
193.8466198792266
 31
0.0
  0
LINE
  5
10001824
330
F6
100
AcDbEntity
  8
目盛
100
AcDbLine
 10
-143.6448573567431
 20
197.5932361730537
 30
0.0
 11
-142.9645643531333
 21
199.473981086443
 31
0.0
  0
TEXT
  5
10001825
330
F6
100
AcDbEntity
  8
文字
100
AcDbText
 10
-145.4434780764359
 20
202.5455147386075
 30
0.0
 40
2.0
  1
.9
 50
352.7142000000002
  7
STYLE3
100
AcDbText
  0
CIRCLE
  5
10001826
330
F6
100
AcDbEntity
  8
想像線
100
AcDbCircle
 10
-152.3011249255756
 20
192.9493704603094
 30
0.0
 40
1.5
  0
LINE
  5
10001827
330
F6
100
AcDbEntity
  8
想像線
100
AcDbLine
 10
-151.6624388172172
 20
192.1225360640814
 30
0.0
 11
-152.9398593028024
 21
193.7762673447623
 31
0.0
  0
LINE
  5
10001828
330
F6
100
AcDbEntity
  8
中心線
100
AcDbLine
 10
-153.2507739780786
 20
185.5523849529751
 30
0.0
 11
-152.0631014107497
 21
194.8033779854378
 31
0.0
  0
LINE
  5
10001829
330
F6
100
AcDbEntity
  8
想像線
 48
0.5
100
AcDbLine
 10
-154.9456238819073
 20
195.9102192017957
 30
0.0
 11
-156.2190051877426
 21
185.9916255489661
 31
0.0
  0
LINE
  5
1000182A
330
F6
100
AcDbEntity
  8
中心線
100
AcDbLine
 10
-150.6579252965098
 20
187.6973739058839
 30
0.0
 11
-155.3999354010917
 21
188.3061685828926
 31
0.0
  0
LINE
  5
1000182B
330
F6
100
AcDbEntity
  8
想像線
 48
0.5
100
AcDbLine
 10
-150.2678489960447
 20
185.2275967654651
 30
0.0
 11
-156.2190051877426
 21
185.9916255489661
 31
0.0
  0
CIRCLE
  5
1000182C
330
F6
100
AcDbEntity
  8
想像線
100
AcDbCircle
 10
-152.9378155784931
 20
187.9900736338946
 30
0.0
 40
1.5
  0
LINE
  5
1000182D
330
F6
100
AcDbEntity
  8
想像線
100
AcDbLine
 10
-152.0993277103047
 20
188.6377614367748
 30
0.0
 11
-153.8066627365083
 21
187.3189348754659
 31
0.0
  0
LINE
  5
1000182E
330
F6
100
AcDbEntity
  8
想像線
100
AcDbLine
 10
-152.2991294701348
 20
187.1632392376665
 30
0.0
 11
-153.57654995572
 21
188.8169705183474
 31
0.0
  0
LINE
  5
1000182F
330
F6
100
AcDbEntity
  8
中心線
100
AcDbLine
 10
-150.2210244323009
 20
192.6823203950375
 30
0.0
 11
-154.5114142929776
 21
193.2331345965821
 31
0.0
  0
LINE
  5
10001830
330
F6
100
AcDbEntity
  8
想像線
100
AcDbLine
 10
-151.4626370573875
 20
193.5970582631895
 30
0.0
 11
-153.1699720835906
 21
192.2782317018807
 31
0.0
  0
LINE
  5
10001831
330
F6
100
AcDbEntity
  8
目盛
100
AcDbLine
 10
-145.6455648789809
 20
198.425468628802
 30
0.0
 11
-144.3641635228396
 21
201.1380339394405
 31
0.0
  0
LINE
  5
10001832
330
F6
100
AcDbEntity
  8
目盛
100
AcDbLine
 10
-144.9874886514906
 20
198.1271486464546
 30
0.0
 11
-144.1904451005116
 21
199.9614663882439
 31
0.0
  0
LINE
  5
10001833
330
F6
100
AcDbEntity
  8
目盛
100
AcDbLine
 10
-144.3203666877988
 20
197.8496465408468
 30
0.0
 11
-143.5813337423583
 21
199.708094900515
 31
0.0
  0
LINE
  5
10001834
330
F6
100
AcDbEntity
  8
目盛
100
AcDbLine
 10
-148.1745708895714
 20
199.8207372795209
 30
0.0
 11
-147.1003897526723
 21
201.507786444522
 31
0.0
  0
LINE
  5
10001835
330
F6
100
AcDbEntity
  8
目盛
100
AcDbLine
 10
-148.7778775798376
 20
200.2183302504553
 30
0.0
 11
-147.0879136974977
 21
202.697044045226
 31
0.0
  0
LINE
  5
10001836
330
F6
100
AcDbEntity
  8
目盛
100
AcDbLine
 10
-149.3683978776495
 20
200.6346773543577
 30
0.0
 11
-148.1904056983088
 21
202.2509491215466
 31
0.0
  0
LINE
  5
10001837
330
F6
100
AcDbEntity
  8
目盛
100
AcDbLine
 10
-151.0574792248305
 20
201.9920445311185
 30
0.0
 11
-149.7326104066044
 21
203.4902843698935
 31
0.0
  0
LINE
  5
10001838
330
F6
100
AcDbEntity
  8
目盛
100
AcDbLine
 10
-150.508761400706
 20
201.5219723211931
 30
0.0
 11
-149.231607175882
 21
203.0610880043094
 31
0.0
  0
LINE
  5
10001839
330
F6
100
AcDbEntity
  8
目盛
100
AcDbLine
 10
-149.9455490107688
 20
201.0693677069026
 30
0.0
 11
-148.717369776374
 21
202.6478403130008
 31
0.0
  0
LINE
  5
1000183A
330
F6
100
AcDbEntity
  8
目盛
100
AcDbLine
 10
-146.2939459284849
 20
198.7443120820833
 30
0.0
 11
-145.3832973968977
 21
200.5249634381657
 31
0.0
  0
LINE
  5
1000183B
330
F6
100
AcDbEntity
  8
目盛
100
AcDbLine
 10
-147.5590731977173
 20
199.4422908178149
 30
0.0
 11
-146.5384135992402
 21
201.1622483707903
 31
0.0
  0
LINE
  5
1000183C
330
F6
100
AcDbEntity
  8
目盛
100
AcDbLine
 10
-146.9319919261858
 20
199.0833643463043
 30
0.0
 11
-145.9658611339289
 21
200.8345328968024
 31
0.0
  0
LINE
  5
1000183D
330
F6
100
AcDbEntity
  8
外形線
100
AcDbLine
 10
-140.746211241933
 20
185.18128923749
 30
0.0
 11
-141.602302596599
 21
187.8663341247303
 31
0.0
  0
LINE
  5
1000183E
330
F6
100
AcDbEntity
  8
外形線
100
AcDbLine
 10
-139.6373736179647
 20
185.0389330576737
 30
0.0
 11
-138.1307948181086
 21
187.4206506676876
 31
0.0
  0
ARC
  5
1000183F
330
F6
100
AcDbEntity
  8
外形線
100
AcDbCircle
 10
-140.164024114602
 20
185.3264034985744
 30
0.0
 40
0.6
100
AcDbArc
 50
193.9961739705771
 51
331.3722260293593
  0
LINE
  5
10001840
330
F6
100
AcDbEntity
  8
外形線
100
AcDbLine
 10
-141.6023025965989
 20
187.8663341247303
 30
0.0
 11
-138.1307948181086
 21
187.4206506676876
 31
0.0
  0
LINE
  5
10001841
330
F6
100
AcDbEntity
  8
外形線
 48
0.5
100
AcDbLine
 10
-141.4668283598633
 20
188.9215670690576
 30
0.0
 11
-137.9953205813729
 21
188.4758836120153
 31
0.0
  0
LINE
  5
10001842
330
F6
100
AcDbEntity
  8
外形線
 48
0.5
100
AcDbLine
 10
-142.5398298234823
 20
190.3422091864531
 30
0.0
 11
-136.5886736317845
 21
189.5781804029521
 31
0.0
  0
LINE
  5
10001843
330
F6
100
AcDbEntity
  8
外形線
 48
0.5
100
AcDbLine
 10
-141.6023025965988
 20
187.8663341247302
 30
0.0
 11
-141.3047978229833
 21
190.1836517622265
 31
0.0
  0
LINE
  5
10001844
330
F6
100
AcDbEntity
  8
外形線
 48
0.5
100
AcDbLine
 10
-138.1307948181086
 20
187.4206506676876
 30
0.0
 11
-137.833290044493
 21
189.7379683051842
 31
0.0
  0
LINE
  5
10001845
330
F6
100
AcDbEntity
  8
外形線
 48
0.5
100
AcDbLine
 10
-136.5886736317845
 20
189.5781804029521
 30
0.0
 11
-135.4694761359181
 21
190.4427016376515
 31
0.0
  0
LINE
  5
10001846
330
F6
100
AcDbEntity
  8
外形線
 48
0.5
100
AcDbLine
 10
-135.4694761359181
 20
190.4427016376515
 30
0.0
 11
-135.1632547096068
 21
192.8279148345585
 31
0.0
  0
LINE
  5
10001847
330
F6
100
AcDbEntity
  8
目盛
100
AcDbLine
 10
-135.1334664858559
 20
196.2320957052068
 30
0.0
 11
-135.2232083983831
 21
199.2307531363142
 31
0.0
  0
LINE
  5
10001848
330
F6
100
AcDbEntity
  8
目盛
100
AcDbLine
 10
-138.3578633512867
 20
199.3832846088861
 30
0.0
 11
-138.7383196816949
 21
196.4075068986644
 31
0.0
  0
LINE
  5
10001849
330
F6
100
AcDbEntity
  8
目盛
100
AcDbLine
 10
-141.5747090526076
 20
196.9529804047639
 30
0.0
 11
-141.0744289450097
 21
198.8893997327871
 31
0.0
  0
LINE
  5
1000184A
330
F6
100
AcDbEntity
  8
目盛
100
AcDbLine
 10
-142.9616273044756
 20
197.3581705891517
 30
0.0
 11
-142.3407456097587
 21
199.2593559880975
 31
0.0
  0
LINE
  5
1000184B
330
F6
100
AcDbEntity
  8
目盛
100
AcDbLine
 10
-142.2713507965725
 20
197.144681770492
 30
0.0
 11
-141.4300643207455
 21
200.0243062365623
 31
0.0
  0
LINE
  5
1000184C
330
F6
100
AcDbEntity
  8
目盛
100
AcDbLine
 10
-139.4534947494774
 20
196.5103842794583
 30
0.0
 11
-139.137668059543
 21
198.4852902270733
 31
0.0
  0
LINE
  5
1000184D
330
F6
100
AcDbEntity
  8
目盛
100
AcDbLine
 10
-140.1650854649123
 20
196.6356750882278
 30
0.0
 11
-139.7873813214619
 21
198.5996861829062
 31
0.0
  0
LINE
  5
1000184E
330
F6
100
AcDbEntity
  8
目盛
100
AcDbLine
 10
-140.8723895738769
 20
196.7832556780711
 30
0.0
 11
-140.4331807252991
 21
198.7344336779807
 31
0.0
  0
LINE
  5
1000184F
330
F6
100
AcDbEntity
  8
目盛
100
AcDbLine
 10
-137.3000424956746
 20
196.2693763116778
 30
0.0
 11
-137.1714725234621
 21
198.2652394738825
 31
0.0
  0
LINE
  5
10001850
330
F6
100
AcDbEntity
  8
目盛
100
AcDbLine
 10
-136.5783597833735
 20
196.2342594236979
 30
0.0
 11
-136.5125448296219
 21
198.2331762283356
 31
0.0
  0
LINE
  5
10001851
330
F6
100
AcDbEntity
  8
目盛
100
AcDbLine
 10
-135.8559301298174
 20
196.2218284655893
 30
0.0
 11
-135.8529351459404
 21
198.221826223106
 31
0.0
  0
LINE
  5
10001852
330
F6
100
AcDbEntity
  8
目盛
100
AcDbLine
 10
-138.0202660530145
 20
196.3271444734004
 30
0.0
 11
-137.8290679453812
 21
198.3179843171944
 31
0.0
  0
TEXT
  5
10001853
330
F6
100
AcDbEntity
  8
文字
100
AcDbText
 10
-139.2136203999875
 20
200.056599715354
 30
0.0
 40
2.0
  1
0
 50
352.7142000000002
  7
STYLE3
100
AcDbText
  0
LINE
  5
10001854
330
F6
100
AcDbEntity
  8
目盛
100
AcDbLine
 10
-128.0629304965848
 20
197.569902337031
 30
0.0
 11
-129.0749162337998
 21
200.3940632509439
 31
0.0
  0
LINE
  5
10001855
330
F6
100
AcDbEntity
  8
目盛
100
AcDbLine
 10
-131.5455546585571
 20
196.6227673958589
 30
0.0
 11
-132.1032850702972
 21
199.5704676499246
 31
0.0
  0
LINE
  5
10001856
330
F6
100
AcDbEntity
  8
目盛
100
AcDbLine
 10
-130.8378117208356
 20
196.7682289617809
 30
0.0
 11
-131.2711748594787
 21
198.7207136326724
 31
0.0
  0
LINE
  5
10001857
330
F6
100
AcDbEntity
  8
目盛
100
AcDbLine
 10
-132.9729974020638
 20
196.3988733653475
 30
0.0
 11
-133.2206922206003
 21
198.3834759141894
 31
0.0
  0
LINE
  5
10001858
330
F6
100
AcDbEntity
  8
目盛
100
AcDbLine
 10
-133.6912884941984
 20
196.3206618571355
 30
0.0
 11
-133.8765232177664
 21
198.3120654066916
 31
0.0
  0
LINE
  5
10001859
330
F6
100
AcDbEntity
  8
目盛
100
AcDbLine
 10
-132.2575174260656
 20
196.499608349344
 30
0.0
 11
-132.5674278946887
 21
198.4754513343603
 31
0.0
  0
LINE
  5
1000185A
330
F6
100
AcDbEntity
  8
目盛
100
AcDbLine
 10
-134.4116818358798
 20
196.2650510100246
 30
0.0
 11
-134.5342736601715
 21
198.2612902854166
 31
0.0
  0
LINE
  5
1000185B
330
F6
100
AcDbEntity
  8
目盛
100
AcDbLine
 10
-127.3866562511072
 20
197.8242884175459
 30
0.0
 11
-128.1201198653788
 21
199.6849418314143
 31
0.0
  0
LINE
  5
1000185C
330
F6
100
AcDbEntity
  8
目盛
100
AcDbLine
 10
-128.7468615014339
 20
197.3368840680863
 30
0.0
 11
-129.3620463982859
 21
199.239920468864
 31
0.0
  0
LINE
  5
1000185D
330
F6
100
AcDbEntity
  8
目盛
100
AcDbLine
 10
-129.437774308325
 20
197.1254635716098
 30
0.0
 11
-129.9928798306647
 21
199.0468843633856
 31
0.0
  0
LINE
  5
1000185E
330
F6
100
AcDbEntity
  8
目盛
100
AcDbLine
 10
-130.1349870697318
 20
196.9358494941076
 30
0.0
 11
-130.6294653954275
 21
198.8737584665358
 31
0.0
  0
TEXT
  5
1000185F
330
F6
100
AcDbEntity
  8
文字
100
AcDbText
 10
-134.3624892097725
 20
200.7472418323233
 30
0.0
 40
2.0
  1
.1
 50
352.7142000000002
  7
STYLE3
100
AcDbText
  0
LINE
  5
10001860
330
F6
100
AcDbEntity
  8
目盛
100
AcDbLine
 10
-119.0788055703606
 20
203.452129527365
 30
0.0
 11
-121.2626336892565
 21
205.509043416452
 31
0.0
  0
LINE
  5
10001861
330
F6
100
AcDbEntity
  8
目盛
100
AcDbLine
 10
-118.5917296693194
 20
203.9858112674316
 30
0.0
 11
-120.0899695080944
 21
205.3106800856576
 31
0.0
  0
LINE
  5
10001862
330
F6
100
AcDbEntity
  8
目盛
100
AcDbLine
 10
-118.1216574593938
 20
204.5345290915564
 30
0.0
 11
-119.6607731425101
 21
205.8116833163802
 31
0.0
  0
LINE
  5
10001863
330
F6
100
AcDbEntity
  8
目盛
100
AcDbLine
 10
-126.0597394274559
 20
198.3961389801935
 30
0.0
 11
-126.9085871133492
 21
200.2070662581794
 31
0.0
  0
LINE
  5
10001864
330
F6
100
AcDbEntity
  8
目盛
100
AcDbLine
 10
-125.4104063559871
 20
198.7130391148609
 30
0.0
 11
-126.3157177872258
 21
200.4964098593975
 31
0.0
  0
LINE
  5
10001865
330
F6
100
AcDbEntity
  8
目盛
100
AcDbLine
 10
-124.7713477649727
 20
199.0501789231118
 30
0.0
 11
-126.2126703802241
 21
201.6812602823184
 31
0.0
  0
LINE
  5
10001866
330
F6
100
AcDbEntity
  8
目盛
100
AcDbLine
 10
-123.5265659569392
 20
199.7838270494484
 30
0.0
 11
-124.5956895967905
 21
201.4740857996728
 31
0.0
  0
LINE
  5
10001867
330
F6
100
AcDbEntity
  8
目盛
100
AcDbLine
 10
-124.143194328089
 20
199.4072256886575
 30
0.0
 11
-125.1586981095798
 21
201.1302323832987
 31
0.0
  0
LINE
  5
10001868
330
F6
100
AcDbEntity
  8
目盛
100
AcDbLine
 10
-122.3303065884647
 20
200.5941879852206
 30
0.0
 11
-123.5034527820965
 21
202.2139805671173
 31
0.0
  0
LINE
  5
10001869
330
F6
100
AcDbEntity
  8
目盛
100
AcDbLine
 10
-121.7518561547107
 20
201.0271478317946
 30
0.0
 11
-123.5870255017352
 21
203.4003636811732
 31
0.0
  0
LINE
  5
1000186A
330
F6
100
AcDbEntity
  8
目盛
100
AcDbLine
 10
-122.9220711892802
 20
200.179611345408
 30
0.0
 11
-124.0437595915368
 21
201.8354540698969
 31
0.0
  0
LINE
  5
1000186B
330
F6
100
AcDbEntity
  8
目盛
100
AcDbLine
 10
-120.1020293991438
 20
202.4319656586171
 30
0.0
 11
-121.4689388266295
 21
203.8919514863052
 31
0.0
  0
LINE
  5
1000186C
330
F6
100
AcDbEntity
  8
目盛
100
AcDbLine
 10
-121.1872907487579
 20
201.4780636060339
 30
0.0
 11
-122.4598296241034
 21
203.0209974382944
 31
0.0
  0
LINE
  5
1000186D
330
F6
100
AcDbEntity
  8
目盛
100
AcDbLine
 10
-120.6371675285021
 20
201.9464903085081
 30
0.0
 11
-121.9575432056091
 21
203.448691384032
 31
0.0
  0
LINE
  5
1000186E
330
F6
100
AcDbEntity
  8
目盛
100
AcDbLine
 10
-119.5824044774093
 20
202.934010550801
 30
0.0
 11
-120.9944986806983
 21
204.3503403009081
 31
0.0
  0
LINE
  5
1000186F
330
F6
100
AcDbEntity
  8
目盛
100
AcDbLine
 10
-130.068266577855
 20
241.4906249492973
 30
0.0
 11
-130.5685466854528
 21
239.5542056212741
 31
0.0
  0
LINE
  5
10001870
330
F6
100
AcDbEntity
  8
目盛
100
AcDbLine
 10
-129.3716248338903
 20
241.2989235835693
 30
0.0
 11
-130.2129113097175
 21
238.4192991174989
 31
0.0
  0
TEXT
  5
10001871
330
F6
100
AcDbEntity
  8
文字
100
AcDbText
 10
-130.1053178240379
 20
234.7695319096432
 30
0.0
 40
2.0
  1
.9
 50
352.7142000000002
  7
STYLE3
100
AcDbText
  0
LINE
  5
10001872
330
F6
100
AcDbEntity
  8
ROGO
 62
     4
100
AcDbLine
 10
-129.726896394433
 20
228.3832746627879
 30
0.0
 11
-128.4224777827762
 21
228.2165033624309
 31
0.0
  0
LINE
  5
10001873
330
F6
100
AcDbEntity
  8
ROGO
 62
     4
100
AcDbLine
 10
-129.5412224658863
 20
227.8669840901148
 30
0.0
 11
-128.726090568051
 21
227.7627686140785
 31
0.0
  0
LINE
  5
10001874
330
F6
100
AcDbEntity
  8
ROGO
 62
     4
100
AcDbLine
 10
-129.7677907462578
 20
227.5572161056662
 30
0.0
 11
-128.9348893910555
 21
227.4507287856946
 31
0.0
  0
LINE
  5
10001875
330
F6
100
AcDbEntity
  8
ROGO
 62
     4
100
AcDbLine
 10
-128.9348893910555
 20
227.4507287856946
 30
0.0
 11
-129.2384989611537
 21
226.9969988422693
 31
0.0
  0
TEXT
  5
10001876
330
F6
100
AcDbEntity
  8
文字
100
AcDbText
 10
-131.2541370338319
 20
218.0841910343531
 30
0.0
 40
1.0
  1
0.01mm
 50
352.7142000000002
  7
STYLE3
100
AcDbText
  0
LINE
  5
10001877
330
F6
100
AcDbEntity
  8
ROGO
 62
     4
100
AcDbLine
 10
-142.4518158224953
 20
227.9415883769268
 30
0.0
 11
-128.6747811143195
 21
226.1801799051259
 31
0.0
  0
LINE
  5
10001878
330
F6
100
AcDbEntity
  8
ROGO
 62
     4
100
AcDbLine
 10
-128.1496712492603
 20
228.1816247583281
 30
0.0
 11
-129.4247601636543
 21
226.2760655205109
 31
0.0
  0
HATCH
  5
10001879
330
F6
100
AcDbEntity
  8
ROGO
 62
     4
100
AcDbHatch
 10
0.0
 20
0.0
 30
0.0
210
0.0
220
0.0
230
1.0
  2
SOLID
 70
     1
 71
     0
 91
        1
 92
        5
 93
        8
 72
     4
 94
        3
 73
     0
 74
     0
 95
       26
 96
       22
 40
0.0
 40
0.0
 40
0.0
 40
0.0
 40
0.2382195346592632
 40
0.3976890672662247
 40
0.5126795869788995
 40
0.5985392873137263
 40
0.7099038249254435
 40
0.7911890807497483
 40
0.9379713068547328
 40
1.057449928673496
 40
1.138714535893208
 40
1.21839864400353
 40
1.360938021870495
 40
1.461730374800508
 40
1.516014844108054
 40
1.59312432922055
 40
1.648806818593773
 40
1.729472362005444
 40
1.775122082164324
 40
1.874460993765295
 40
1.919820003751231
 40
1.919820003751231
 40
1.919820003751231
 40
1.919820003751231
 10
-129.7268963944332
 20
228.383274662788
 10
-129.8077107210921
 20
228.3887436224869
 10
-129.942623981823
 20
228.3978736272309
 10
-130.1010547295197
 20
228.3273607895402
 10
-130.2154027693966
 20
228.2892115621987
 10
-130.3012452575211
 20
228.228452001559
 10
-130.3668746065889
 20
228.1627461675581
 10
-130.4489677565173
 20
228.0849562892997
 10
-130.5197881906193
 20
227.9912057779764
 10
-130.5635207678366
 20
227.8834880253227
 10
-130.6009931602046
 20
227.7979709727854
 10
-130.6330178862712
 20
227.7014289569188
 10
-130.6417675915582
 20
227.593824890089
 10
-130.6474140998397
 20
227.4935707003467
 10
-130.6249793527304
 20
227.418620575688
 10
-130.5955592998758
 20
227.3635419031192
 10
-130.5587402005001
 20
227.3023142392024
 10
-130.51538110571
 20
227.2593375193197
 10
-130.4841554438882
 20
227.1875325033072
 10
-130.4156521813453
 20
227.1701208886095
 10
-130.3735834001242
 20
227.1475195015743
 10
-130.3603959386419
 20
227.1404345584806
 72
     1
 10
-130.3603959386418
 20
227.1404345584806
 11
-129.2384989611537
 21
226.9969988422693
 72
     1
 10
-129.2384989611537
 20
226.9969988422693
 11
-128.9348893910555
 21
227.4507287856947
 72
     1
 10
-128.9348893910555
 20
227.4507287856947
 11
-129.7677907462579
 21
227.5572161056662
 72
     4
 94
        3
 73
     0
 74
     0
 95
       16
 96
       12
 40
0.0
 40
0.0
 40
0.0
 40
0.0
 40
0.0719416665232134
 40
0.1446253590759315
 40
0.1879779149909984
 40
0.2295440936103636
 40
0.2751936323957882
 40
0.3070718656050242
 40
0.337321542237105
 40
0.3986635435213262
 40
0.5242542460840482
 40
0.5242542460840482
 40
0.5242542460840482
 40
0.5242542460840482
 10
-129.7677907462579
 20
227.5572161056659
 10
-129.7919689591634
 20
227.567819764103
 10
-129.8405747656769
 20
227.5891364500111
 10
-129.835592137084
 20
227.6617102158807
 10
-129.823271030648
 20
227.7123036353485
 10
-129.7943762671572
 20
227.7465912590888
 10
-129.7616417877052
 20
227.770042914411
 10
-129.7462200855566
 20
227.8040638353929
 10
-129.7107791421958
 20
227.8267115907882
 10
-129.6482487920938
 20
227.8644009830449
 10
-129.5842320812477
 20
227.8659460423237
 10
-129.5412224658863
 20
227.8669840901148
 72
     1
 10
-129.5412224658863
 20
227.8669840901148
 11
-128.726090568051
 21
227.7627686140784
 72
     1
 10
-128.726090568051
 20
227.7627686140785
 11
-128.4224777827762
 21
228.2165033624309
 72
     1
 10
-128.4224777827762
 20
228.2165033624309
 11
-129.7268963944335
 21
228.3832746627879
 97
        0
 75
     0
 76
     1
 47
0.0514683685270805
 98
        1
 10
-129.5323035899563
 20
228.1159973150477
450
        0
451
        0
460
0.0
461
0.0
452
        0
462
0.0
453
        0
470

  0
HATCH
  5
1000187A
330
F6
100
AcDbEntity
  8
ROGO
 62
     4
100
AcDbHatch
 10
0.0
 20
0.0
 30
0.0
210
0.0
220
0.0
230
1.0
  2
SOLID
 70
     1
 71
     0
 91
        1
 92
        7
 72
     0
 73
     1
 93
       11
 10
-129.4247601636543
 20
226.2760655205108
 10
-128.6747811143195
 20
226.1801799051259
 10
-128.3419684910614
 20
226.6775524111155
 10
-128.1449948994995
 20
226.1124461767299
 10
-127.3950322591032
 20
226.0165626592452
 10
-127.7723599586506
 20
227.0990947577369
 10
-126.4093781997607
 20
227.9591264496764
 10
-127.1593408401575
 20
228.055009967161
 10
-127.5389059620902
 20
227.8776908511494
 10
-127.3996921999252
 20
228.0857391429433
 10
-128.1496712492603
 20
228.1816247583281
 97
        0
 75
     0
 76
     1
 47
0.0514683685270805
 98
        1
 10
-128.3258551639798
 20
227.316688625561
450
        0
451
        0
460
0.0
461
0.0
452
        0
462
0.0
453
        0
470

  0
LINE
  5
1000187B
330
F6
100
AcDbEntity
  8
外形線
  6
Continuous
100
AcDbLine
 10
-136.2234576200253
 20
247.5032174272872
 30
0.0
 11
-128.2885826977617
 21
246.4845123826191
 31
0.0
  0
LINE
  5
1000187C
102
{ACAD_REACTORS
330
1000188A
102
}
330
F6
100
AcDbEntity
  8
ROGO
 62
     4
100
AcDbLine
 10
-131.8953533890764
 20
228.6660359878214
 30
0.0
 11
-131.1509588025476
 21
228.570864351918
 31
0.0
  0
LINE
  5
1000187D
102
{ACAD_REACTORS
330
1000188D
102
}
330
F6
100
AcDbEntity
  8
ROGO
 62
     4
100
AcDbLine
 10
-137.5036384154143
 20
228.3569412241145
 30
0.0
 11
-137.6894089481792
 21
228.0774566302386
 31
0.0
  0
LINE
  5
1000187E
102
{ACAD_REACTORS
330
1000188D
102
}
330
F6
100
AcDbEntity
  8
ROGO
 62
     4
100
AcDbLine
 10
-139.4511518297655
 20
228.3026973226293
 30
0.0
 11
-137.6894089481792
 21
228.0774566302386
 31
0.0
  0
LINE
  5
1000187F
330
F6
100
AcDbEntity
  8
ROGO
 62
     4
100
AcDbLine
 10
-141.080505031065
 20
228.5110118542478
 30
0.0
 11
-141.5057159476073
 21
227.8206285063815
 31
0.0
  0
LINE
  5
10001880
330
F6
100
AcDbEntity
  8
ROGO
 62
     4
100
AcDbLine
 10
-141.4014816537152
 20
228.0146463659597
 30
0.0
 11
-129.2969515416285
 21
226.4670693772812
 31
0.0
  0
HATCH
  5
10001881
330
F6
100
AcDbEntity
  8
ROGO
 62
     4
100
AcDbHatch
 10
0.0
 20
0.0
 30
0.0
210
0.0
220
0.0
230
1.0
  2
SOLID
 70
     1
 71
     0
 91
        1
 92
        7
 72
     0
 73
     1
 93
        4
 10
-141.3873333712466
 20
228.0128374930688
 10
-141.5057159476073
 20
227.8206285063816
 10
-129.4247601636543
 20
226.2760655205108
 10
-129.2969515416283
 20
226.467069377281
 97
        0
 75
     0
 76
     1
 47
0.0514683685270805
 98
        1
 10
-133.760136750308
 20
226.9828530893978
450
        0
451
        0
460
0.0
461
0.0
452
        0
462
0.0
453
        0
470

  0
HATCH
  5
10001882
330
F6
100
AcDbEntity
  8
ﾊｯﾁﾝｸ
  6
Continuous
100
AcDbHatch
 10
0.0
 20
0.0
 30
0.0
210
0.0
220
0.0
230
1.0
  2
SOLID
 70
     1
 71
     0
 91
        1
 92
        1
 93
        3
 72
     1
 10
-132.9046559487676
 20
242.0360984553969
 11
-135.1461760294097
 21
220.561188354097
 72
     2
 10
-135.8214878152313
 20
219.2218026770306
 40
1.499999999999999
 50
-656.7570206344874
 51
-617.8145793655085
 73
     1
 72
     1
 10
-136.138101932817
 20
220.6880071308998
 11
-132.9046559487679
 21
242.0360984553961
 97
        0
 75
     0
 76
     1
 98
        1
 10
-359.7287511899543
 20
262.2202165123435
450
        0
451
        0
460
0.0
461
0.0
452
        0
462
0.0
453
        0
470

  0
LINE
  5
10001883
330
F6
100
AcDbEntity
  8
針
  6
Continuous
100
AcDbLine
 10
-132.9046559487679
 20
242.036098455396
 30
0.0
 11
-136.138101932817
 21
220.6880071308998
 31
0.0
  0
LINE
  5
10001884
330
F6
100
AcDbEntity
  8
針
  6
Continuous
100
AcDbLine
 10
-132.9046559487676
 20
242.0360984553969
 30
0.0
 11
-135.1461760294098
 21
220.5611883540969
 31
0.0
  0
SPLINE
  5
10001885
330
F6
100
AcDbEntity
  8
ROGO
 62
     4
100
AcDbSpline
210
0.0
220
0.0
230
1.0
 70
     8
 71
     3
 72
    26
 73
    22
 74
    20
 42
0.0000000001
 43
0.0000000001
 44
0.0000000001
 40
0.0
 40
0.0
 40
0.0
 40
0.0
 40
0.2382195346593808
 40
0.3976890672663183
 40
0.5126795869788915
 40
0.5985392873135432
 40
0.7099038249250342
 40
0.791189080749679
 40
0.9379713068543093
 40
1.057449928672948
 40
1.138714535892983
 40
1.218398644003429
 40
1.360938021870274
 40
1.461730374800202
 40
1.516014844107838
 40
1.593124329220283
 40
1.648806818593591
 40
1.72947236200566
 40
1.775122082164121
 40
1.874460993765195
 40
1.919820003751106
 40
1.919820003751106
 40
1.919820003751106
 40
1.919820003751106
 10
-133.9238040993398
 20
228.9198537557041
 30
0.0
 10
-134.0046184259987
 20
228.9253227154028
 30
0.0
 10
-134.1395316867296
 20
228.9344527201465
 30
0.0
 10
-134.2979624344265
 20
228.8639398824569
 30
0.0
 10
-134.4123104743032
 20
228.8257906551146
 30
0.0
 10
-134.4981529624276
 20
228.7650310944753
 30
0.0
 10
-134.5637823114959
 20
228.6993252604749
 30
0.0
 10
-134.6458754614234
 20
228.6215353822158
 30
0.0
 10
-134.7166958955259
 20
228.527784870893
 30
0.0
 10
-134.7604284727431
 20
228.4200671182393
 30
0.0
 10
-134.7979008651108
 20
228.3345500657016
 30
0.0
 10
-134.8299255911778
 20
228.2380080498351
 30
0.0
 10
-134.8386752964648
 20
228.1304039830053
 30
0.0
 10
-134.8443218047465
 20
228.030149793263
 30
0.0
 10
-134.8218870576368
 20
227.9551996686044
 30
0.0
 10
-134.7924670047825
 20
227.9001209960354
 30
0.0
 10
-134.7556479054067
 20
227.8388933321185
 30
0.0
 10
-134.7122888106163
 20
227.795916612236
 30
0.0
 10
-134.6810631487948
 20
227.7241115962234
 30
0.0
 10
-134.6125598862519
 20
227.7066999815255
 30
0.0
 10
-134.5704911050307
 20
227.6840985944907
 30
0.0
 10
-134.5573036435483
 20
227.677013651397
 30
0.0
 11
-133.9238040993398
 21
228.9198537557041
 31
0.0
 11
-134.1619350712279
 21
228.9133586097481
 31
0.0
 11
-134.3124790789147
 21
228.8607560092472
 31
0.0
 11
-134.4187635084586
 21
228.8168647839248
 31
0.0
 11
-134.4896714475297
 21
228.7684504026085
 31
0.0
 11
-134.5712700881871
 21
228.6926630548498
 31
0.0
 11
-134.6289314703458
 21
228.635370316898
 31
0.0
 11
-134.7159535363884
 21
228.5171663325239
 31
0.0
 11
-134.7657910028027
 21
228.408578266821
 31
0.0
 11
-134.7969589232266
 21
228.3335283026433
 31
0.0
 11
-134.8210518651365
 21
228.2575737949727
 31
0.0
 11
-134.839128534684
 21
228.116185293811
 31
0.0
 11
-134.8376314444412
 21
228.0154040597942
 31
0.0
 11
-134.8227325501821
 21
227.9632041885504
 31
0.0
 11
-134.7884155500793
 21
227.8941519170581
 31
0.0
 11
-134.758462048684
 21
227.8472123029036
 31
0.0
 11
-134.7090908482863
 21
227.7834203405161
 31
0.0
 11
-134.6853088958235
 21
227.7444547699749
 31
0.0
 11
-134.5978492593731
 21
227.6973481743639
 31
0.0
 11
-134.5573036435483
 21
227.677013651397
 31
0.0
  0
LINE
  5
10001886
330
F6
100
AcDbEntity
  8
ROGO
 62
     4
100
AcDbLine
 10
-135.326129000781
 20
229.0991424788537
 30
0.0
 11
-134.9140194566611
 21
227.7226201457224
 31
0.0
  0
LINE
  5
10001887
330
F6
100
AcDbEntity
  8
ROGO
 62
     4
100
AcDbLine
 10
-136.3680514243712
 20
229.2323533636881
 30
0.0
 11
-137.47387154908
 21
228.0498999455959
 31
0.0
  0
SPLINE
  5
10001888
102
{ACAD_REACTORS
330
1000188A
102
}
330
F6
100
AcDbEntity
  8
ROGO
 62
     4
100
AcDbSpline
210
0.0
220
0.0
230
1.0
 70
     8
 71
     3
 72
    38
 73
    34
 74
    32
 42
0.0000000001
 43
0.0000000001
 44
0.0000000001
 40
0.0
 40
0.0
 40
0.0
 40
0.0
 40
0.1807680148264433
 40
0.2375392910068219
 40
0.3104865209604565
 40
0.3712759982444937
 40
0.4225667543870772
 40
0.4906925837205791
 40
0.5255021974951059
 40
0.5647069597053105
 40
0.6224874016816511
 40
0.6879401044674144
 40
0.7303986317547765
 40
0.7765228362184608
 40
0.8277951442289264
 40
0.9056034696996723
 40
0.9795294930261889
 40
1.013897332332757
 40
1.053089255535718
 40
1.099518741889331
 40
1.132570569820363
 40
1.160277520290136
 40
1.199836786293458
 40
1.243305643168892
 40
1.286774258016633
 40
1.324809356515569
 40
1.411916492917298
 40
1.446284332224083
 40
1.515020051660934
 40
1.575779369908206
 40
1.692098529535833
 40
1.835624328518822
 40
2.042896467983767
 40
2.042896467983767
 40
2.042896467983767
 40
2.042896467983767
 10
-131.8953533890764
 20
228.6660359878215
 30
0.0
 10
-131.9556620980291
 20
228.6694552528971
 30
0.0
 10
-132.0349111177183
 20
228.6739483586194
 30
0.0
 10
-132.13813130627
 20
228.6593763345374
 30
0.0
 10
-132.1966550590489
 20
228.6337770346008
 30
0.0
 10
-132.2562887517631
 20
228.6170846862334
 30
0.0
 10
-132.3090536559363
 20
228.5878227035144
 30
0.0
 10
-132.3601766950156
 20
228.5758042464199
 30
0.0
 10
-132.3985489719681
 20
228.547252937246
 30
0.0
 10
-132.4406613547266
 20
228.5321999204282
 30
0.0
 10
-132.4779033398049
 20
228.4912171102391
 30
0.0
 10
-132.5184776867063
 20
228.453635379097
 30
0.0
 10
-132.5632346545022
 20
228.4281379930714
 30
0.0
 10
-132.6008689169954
 20
228.4001598469903
 30
0.0
 10
-132.637974981407
 20
228.3542994966083
 30
0.0
 10
-132.664626688186
 20
228.2904686826187
 30
0.0
 10
-132.721251275908
 20
228.2552563817668
 30
0.0
 10
-132.7353936325284
 20
228.2060247495041
 30
0.0
 10
-132.7675485893242
 20
228.180023202601
 30
0.0
 10
-132.7847733052559
 20
228.1433543703275
 30
0.0
 10
-132.793950941935
 20
228.1089150109502
 30
0.0
 10
-132.8037732633216
 20
228.0769109806737
 30
0.0
 10
-132.8229235619907
 20
228.0443715004823
 30
0.0
 10
-132.8235461918801
 20
228.0012318691581
 30
0.0
 10
-132.8301821835886
 20
227.9602296677481
 30
0.0
 10
-132.8364824756391
 20
227.9045355265927
 30
0.0
 10
-132.8463151966115
 20
227.8507833026715
 30
0.0
 10
-132.8306170065388
 20
227.7889130548832
 30
0.0
 10
-132.8235834325563
 20
227.7346540283462
 30
0.0
 10
-132.7952320001283
 20
227.6571461863105
 30
0.0
 10
-132.7410176219193
 20
227.5649697197778
 30
0.0
 10
-132.630549185457
 20
227.4473748118522
 30
0.0
 10
-132.5131355581293
 20
227.4218666632816
 30
0.0
 10
-132.4437606528885
 20
227.4067949426454
 30
0.0
 11
-131.8953533890764
 21
228.6660359878215
 31
0.0
 11
-132.0761174247785
 21
228.6672353964084
 31
0.0
 11
-132.1321263508779
 21
228.6579629643468
 31
0.0
 11
-132.2009906418617
 21
228.6339003837452
 31
0.0
 11
-132.2583777424491
 21
228.6138484203839
 31
0.0
 11
-132.3049763621312
 21
228.5924168943205
 31
0.0
 11
-132.3684465785187
 21
228.5676649195691
 31
0.0
 11
-132.3981739639019
 21
228.5495543765234
 31
0.0
 11
-132.4332954238812
 21
228.5321332276266
 31
0.0
 11
-132.4765672153515
 21
228.4938431305005
 31
0.0
 11
-132.5259221226223
 21
228.4508530219842
 31
0.0
 11
-132.5617326544987
 21
228.4280422274749
 31
0.0
 11
-132.5982318037855
 21
228.3998419732429
 31
0.0
 11
-132.6307155074506
 21
228.3601726076705
 31
0.0
 11
-132.6720382520978
 21
228.2942441139263
 31
0.0
 11
-132.7227717576499
 21
228.2404745282921
 31
0.0
 11
-132.7376943382255
 21
228.2095154429121
 31
0.0
 11
-132.7634053997065
 21
228.1799359202339
 31
0.0
 11
-132.785100622466
 21
228.1388869919596
 31
0.0
 11
-132.7946295522388
 21
228.1072385666122
 31
0.0
 11
-132.8034690170146
 21
228.0809794926222
 31
0.0
 11
-132.8190806387936
 21
228.0446310017023
 31
0.0
 11
-132.8245933060518
 21
228.0015131165761
 31
0.0
 11
-132.8301059426158
 21
227.9583954715234
 31
0.0
 11
-132.8349295072833
 21
227.9206674720837
 31
0.0
 11
-132.8405607365089
 21
227.8337425477551
 31
0.0
 11
-132.8339071414735
 21
227.8000249254825
 31
0.0
 11
-132.8205990731221
 21
227.7325898126461
 31
0.0
 11
-132.8005192408669
 21
227.6752444109955
 31
0.0
 11
-132.7421093199826
 21
227.5746540136467
 31
0.0
 11
-132.6398571590855
 21
227.473935839688
 31
0.0
 11
-132.4437606528885
 21
227.4067949426454
 31
0.0
  0
LINE
  5
10001889
330
F6
100
AcDbEntity
  8
ROGO
 62
     4
100
AcDbLine
 10
-132.6193854876828
 20
228.7530824553469
 30
0.0
 11
-132.9229982729576
 21
228.2993477069946
 31
0.0
  0
HATCH
  5
1000188A
330
F6
100
AcDbEntity
  8
ROGO
 62
     4
100
AcDbHatch
 10
0.0
 20
0.0
 30
0.0
210
0.0
220
0.0
230
1.0
  2
SOLID
 70
     1
 71
     1
 91
        1
 92
        5
 93
        6
 72
     4
 94
        3
 73
     0
 74
     0
 95
       11
 96
        7
 40
0.1647869275458135
 40
0.1647869275458135
 40
0.1647869275458135
 40
0.1647869275458135
 40
0.2545010798212315
 40
0.5111620267764023
 40
0.7602998271033902
 40
0.8850764140209603
 40
0.8850764140209603
 40
0.8850764140209603
 40
0.8850764140209603
 10
-131.6993660663599
 20
227.3116233067422
 10
-131.6890043111878
 20
227.3100950869889
 10
-131.6489988729715
 20
227.3041948220329
 10
-131.5792013525634
 20
227.3052784659006
 10
-131.5058832120745
 20
227.3054944875597
 10
-131.4620135916904
 20
227.3068696892589
 10
-131.4476544696666
 20
227.3089564645092
 72
     4
 94
        3
 73
     0
 74
     0
 95
        9
 96
        5
 40
0.0
 40
0.0
 40
0.0
 40
0.0
 40
0.1135793343548908
 40
0.2662938392175353
 40
0.2662938392175353
 40
0.2662938392175353
 40
0.2662938392175353
 10
-131.4476544696666
 20
227.3089564645092
 10
-131.4100484902371
 20
227.3154016993696
 10
-131.3218789240333
 20
227.3305129548226
 10
-131.2447582367946
 20
227.3764155433085
 10
-131.2005309741552
 20
227.4027398138704
 72
     4
 94
        3
 73
     0
 74
     0
 95
       25
 96
       21
 40
0.0
 40
0.0
 40
0.0
 40
0.0
 40
0.165525918914855
 40
0.3412380755365305
 40
0.5940540902285263
 40
0.7697671103696209
 40
0.9377330196075423
 40
1.11479469302833
 40
1.274661249598185
 40
1.574522170874768
 40
1.815540668866877
 40
2.15849091873445
 40
2.536227739636605
 40
2.738070817316548
 40
2.925680654369045
 40
3.162706124480894
 40
3.395643218188267
 40
3.648478129958861
 40
3.928509979727306
 40
4.337226830236035
 40
4.337226830236035
 40
4.337226830236035
 40
4.337226830236035
 10
-131.2005309741552
 20
227.4027398138704
 10
-131.1841978353022
 20
227.4130585233826
 10
-131.1524666061975
 20
227.4385100288564
 10
-131.0967535648342
 20
227.4792135616934
 10
-131.0459503793618
 20
227.5284399932714
 10
-130.9862467605978
 20
227.5659672852226
 10
-130.9511773437251
 20
227.6166956366284
 10
-130.9051763749971
 20
227.6542374366615
 10
-130.8627350174802
 20
227.7158739164978
 10
-130.8241928201986
 20
227.7879799988008
 10
-130.7840553468806
 20
227.8832604003998
 10
-130.7592647038916
 20
227.9933705746081
 10
-130.7610793019749
 20
228.1032006104664
 10
-130.7884632666282
 20
228.1886226123996
 10
-130.8075835373138
 20
228.259339813922
 10
-130.8415001592591
 20
228.3283423149659
 10
-130.8806276469882
 20
228.4036764767322
 10
-130.9408975136166
 20
228.4695577213436
 10
-131.020401248764
 20
228.5498916006629
 10
-131.1023367094402
 20
228.5630537041637
 10
-131.1509588025476
 20
228.570864351918
 72
     1
 10
-131.1509588025476
 20
228.570864351918
 11
-131.8953533890765
 21
228.6660359878214
 72
     4
 94
        3
 73
     0
 74
     0
 95
       38
 96
       34
 40
0.0
 40
0.0
 40
0.0
 40
0.0
 40
0.1807680148264435
 40
0.2375392910068174
 40
0.3104865209604615
 40
0.371275998244508
 40
0.4225667543870678
 40
0.4906925837205903
 40
0.5255021974951024
 40
0.564706959705307
 40
0.6224874016816287
 40
0.687940104467392
 40
0.7303986317547694
 40
0.776522836218471
 40
0.8277951442288927
 40
0.9056034696996626
 40
0.9795294930261997
 40
1.013897332332768
 40
1.053089255535707
 40
1.099518741889346
 40
1.132570569820323
 40
1.16027752029015
 40
1.199836786293472
 40
1.243305643168849
 40
1.286774258016618
 40
1.324809356515527
 40
1.411916492917312
 40
1.446284332224069
 40
1.515020051660921
 40
1.57577936990822
 40
1.692098529535847
 40
1.835624328518815
 40
2.04289646798376
 40
2.04289646798376
 40
2.04289646798376
 40
2.04289646798376
 10
-131.8953533890764
 20
228.6660359878215
 10
-131.9556620980291
 20
228.6694552528971
 10
-132.0349111177183
 20
228.6739483586194
 10
-132.13813130627
 20
228.6593763345374
 10
-132.1966550590488
 20
228.6337770346009
 10
-132.256288751763
 20
228.6170846862332
 10
-132.3090536559364
 20
228.5878227035145
 10
-132.3601766950156
 20
228.5758042464198
 10
-132.3985489719681
 20
228.547252937246
 10
-132.4406613547266
 20
228.5321999204281
 10
-132.477903339805
 20
228.4912171102392
 10
-132.5184776867063
 20
228.453635379097
 10
-132.5632346545021
 20
228.4281379930714
 10
-132.6008689169954
 20
228.4001598469903
 10
-132.6379749814071
 20
228.3542994966083
 10
-132.6646266881859
 20
228.2904686826186
 10
-132.721251275908
 20
228.2552563817668
 10
-132.7353936325284
 20
228.2060247495041
 10
-132.7675485893242
 20
228.1800232026011
 10
-132.7847733052559
 20
228.1433543703276
 10
-132.793950941935
 20
228.1089150109502
 10
-132.8037732633216
 20
228.0769109806737
 10
-132.8229235619908
 20
228.0443715004823
 10
-132.8235461918802
 20
228.0012318691581
 10
-132.8301821835886
 20
227.9602296677481
 10
-132.8364824756392
 20
227.9045355265927
 10
-132.8463151966115
 20
227.8507833026715
 10
-132.8306170065388
 20
227.7889130548832
 10
-132.8235834325563
 20
227.7346540283462
 10
-132.7952320001283
 20
227.6571461863104
 10
-132.7410176219193
 20
227.5649697197779
 10
-132.630549185457
 20
227.447374811852
 10
-132.5131355581294
 20
227.4218666632815
 10
-132.4437606528885
 20
227.4067949426454
 72
     1
 10
-132.4437606528886
 20
227.4067949426456
 11
-131.6993660663599
 21
227.3116233067422
 97
        6
330
100018E4
330
1000187C
330
10001888
330
100018E2
330
100018E1
330
100018E0
 75
     0
 76
     1
 47
0.088756267210375
 98
        1
 10
-131.7184680042101
 20
228.2762476894112
450
        0
451
        0
460
0.0
461
0.0
452
        0
462
0.0
453
        0
470

  0
HATCH
  5
1000188B
330
F6
100
AcDbEntity
  8
ROGO
 62
     4
100
AcDbHatch
 10
0.0
 20
0.0
 30
0.0
210
0.0
220
0.0
230
1.0
  2
SOLID
 70
     1
 71
     0
 91
        2
 92
        5
 93
        6
 72
     1
 10
-142.4518158224952
 20
227.9415883769268
 11
-141.5057159476072
 21
227.8206285063816
 72
     1
 10
-141.5057159476072
 20
227.8206285063816
 11
-141.080505031065
 21
228.5110118542478
 72
     1
 10
-141.080505031065
 20
228.5110118542478
 11
-140.1960956941727
 21
228.3979391842909
 72
     4
 94
        3
 73
     0
 74
     0
 95
       18
 96
       14
 40
0.108740278791501
 40
0.108740278791501
 40
0.108740278791501
 40
0.108740278791501
 40
0.6623149649549278
 40
1.384304701649787
 40
2.097394834876493
 40
2.774073369849618
 40
3.428974823686337
 40
4.005208313035923
 40
4.455173659284313
 40
4.720999734343524
 40
5.086034088486724
 40
5.569973738255373
 40
6.060470601257719
 40
6.060470601257719
 40
6.060470601257719
 40
6.060470601257719
 10
-140.1960956941727
 20
228.3979391842909
 10
-140.1337931663369
 20
228.390444823356
 10
-139.9902336974021
 20
228.3731760781992
 10
-139.7758817570941
 20
228.4547134040647
 10
-139.5681521540316
 20
228.5669396961627
 10
-139.3930891931737
 20
228.7179547666715
 10
-139.2726707064909
 20
228.9008089614376
 10
-139.2339796532392
 20
229.085866517546
 10
-139.2241024498353
 20
229.2348947048276
 10
-139.2754386922907
 20
229.3462146546318
 10
-139.3291347934105
 20
229.4593969504568
 10
-139.4405337720037
 20
229.5657353287887
 10
-139.5362254543739
 20
229.6183213064755
 10
-139.5850669098292
 20
229.6436521990345
 72
     1
 10
-139.5850669098292
 20
229.6436521990345
 11
-141.1845457556797
 21
229.8481472626838
 72
     1
 10
-141.1845457556797
 20
229.8481472626838
 11
-142.4518158224952
 21
227.9415883769268
 97
        0
 92
       20
 93
        4
 72
     1
 10
-140.8179613617953
 20
228.9372844881334
 11
-140.6169513879971
 21
229.2636494361309
 72
     1
 10
-140.6169513879971
 20
229.2636494361308
 11
-140.2142423671457
 21
229.2121626615076
 72
     4
 94
        3
 73
     0
 74
     0
 95
       15
 96
       11
 40
0.0
 40
0.0
 40
0.0
 40
0.0
 40
0.1539705029172164
 40
0.2241725832585566
 40
0.3038566179395222
 40
0.358141087247468
 40
0.4439925384670147
 40
0.4954152125467614
 40
0.5836396705644252
 40
0.6130478420063073
 40
0.6130478420063073
 40
0.6130478420063073
 40
0.6130478420063073
 10
-140.2142423671457
 20
229.2121626615075
 10
-140.1568473513032
 20
229.2050916887291
 10
-140.0732833651905
 20
229.1947967412952
 10
-140.0408224336692
 20
229.0856495165007
 10
-140.0697974132276
 20
229.0217522707947
 10
-140.1042620724653
 20
228.9567527097399
 10
-140.1556722273325
 20
228.9161631937537
 10
-140.2224237925417
 20
228.8792721501159
 10
-140.2807986928798
 20
228.8812365067185
 10
-140.3195860285358
 20
228.8760924420527
 10
-140.3292828670914
 20
228.8748064252707
 72
     1
 10
-140.3292828670917
 20
228.8748064252705
 11
-140.8179613617953
 21
228.9372844881334
 97
        0
 75
     0
 76
     1
 47
0.0514683685270805
 98
        2
 10
-141.2569311069225
 20
229.2140183090742
 10
-141.2569311069225
 20
229.2140183090742
450
        0
451
        0
460
0.0
461
0.0
452
        0
462
0.0
453
        0
470

  0
HATCH
  5
1000188C
330
F6
100
AcDbEntity
  8
ROGO
 62
     4
100
AcDbHatch
 10
0.0
 20
0.0
 30
0.0
210
0.0
220
0.0
230
1.0
  2
SOLID
 70
     1
 71
     0
 91
        2
 92
        7
 72
     0
 73
     1
 93
        8
 10
-135.326129000781
 20
229.0991424788538
 10
-136.3680514243712
 20
229.2323533636881
 10
-137.4738715490801
 20
228.0498999455959
 10
-136.7524961619455
 20
227.9576713387032
 10
-136.5419548521289
 20
228.182803153435
 10
-135.718778370312
 20
228.0775591688203
 10
-135.6403152629148
 20
227.815477833408
 10
-134.9140194566611
 20
227.7226201457224
 97
        0
 92
       22
 72
     0
 73
     1
 93
        3
 10
-135.8015357757259
 20
228.3539842562996
 10
-136.3198905838263
 20
228.4202564672452
 10
-135.942266250955
 20
228.8240501522951
 97
        0
 75
     0
 76
     1
 47
0.0128389261915577
 98
        2
 10
-135.4476729898608
 20
228.797075705764
 10
-135.4476729898608
 20
228.797075705764
450
        0
451
        0
460
0.0
461
0.0
452
        0
462
0.0
453
        0
470

  0
HATCH
  5
1000188D
330
F6
100
AcDbEntity
  8
ROGO
 62
     4
100
AcDbHatch
 10
0.0
 20
0.0
 30
0.0
210
0.0
220
0.0
230
1.0
  2
SOLID
 70
     1
 71
     1
 91
        1
 92
        1
 93
       12
 72
     1
 10
-138.6401344947616
 20
229.5228415894632
 11
-136.8783916131751
 21
229.2976008970725
 72
     1
 10
-136.8783916131754
 20
229.2976008970724
 11
-137.064171490875
 21
229.0181022441032
 72
     1
 10
-137.064171490875
 20
229.0181022441032
 11
-137.9900990311818
 21
229.1364830603179
 72
     1
 10
-137.9900990311818
 20
229.1364830603179
 11
-138.1353558094733
 21
228.9179498457963
 72
     1
 10
-138.1353558094733
 20
228.9179498457963
 11
-137.2094282691665
 21
228.7995690295815
 72
     1
 10
-137.2094282691665
 20
228.7995690295815
 11
-137.3583754876489
 21
228.5754836902821
 72
     1
 10
-137.3583754876489
 20
228.5754836902821
 11
-138.284303027956
 21
228.6938645064965
 72
     1
 10
-138.284303027956
 20
228.6938645064965
 11
-138.4295659557213
 21
228.4753220403289
 72
     1
 10
-138.4295659557212
 20
228.475322040329
 11
-137.5036384154143
 21
228.3569412241145
 72
     1
 10
-137.5036384154143
 20
228.3569412241145
 11
-137.6894089481792
 21
228.0774566302386
 72
     1
 10
-137.6894089481792
 20
228.0774566302386
 11
-139.4511518297655
 21
228.3026973226293
 72
     1
 10
-139.4511518297655
 20
228.3026973226293
 11
-138.6401344947616
 21
229.5228415894632
 97
       12
330
1000190B
330
10001923
330
1000190E
330
10001913
330
1000190D
330
1000191F
330
1000190C
330
10001911
330
10001912
330
1000187D
330
1000187E
330
1000191A
 75
     0
 76
     1
 98
        1
 10
-222.218582791461
 20
148.6712586309274
450
        0
451
        0
460
0.0
461
0.0
452
        0
462
0.0
453
        0
470

  0
HATCH
  5
1000188E
330
F6
100
AcDbEntity
  8
ROGO
 62
     4
100
AcDbHatch
 10
0.0
 20
0.0
 30
0.0
210
0.0
220
0.0
230
1.0
  2
SOLID
 70
     1
 71
     0
 91
        1
 92
        5
 93
        8
 72
     1
 10
-132.9229982729576
 20
228.2993477069946
 11
-132.6193854876828
 21
228.7530824553471
 72
     1
 10
-132.6193854876828
 20
228.7530824553471
 11
-133.9238040993399
 21
228.9198537557041
 72
     4
 94
        3
 73
     0
 74
     0
 95
       26
 96
       22
 40
0.0
 40
0.0
 40
0.0
 40
0.0
 40
0.23821953465938
 40
0.3976890672663362
 40
0.5126795869789094
 40
0.5985392873135451
 40
0.709903824925036
 40
0.7911890807497009
 40
0.9379713068543084
 40
1.057449928672947
 40
1.138714535892982
 40
1.2183986440034
 40
1.360938021870274
 40
1.461730374800202
 40
1.516014844107865
 40
1.593124329220285
 40
1.648806818593593
 40
1.729472362005662
 40
1.775122082164123
 40
1.874460993765184
 40
1.919820003751107
 40
1.919820003751107
 40
1.919820003751107
 40
1.919820003751107
 10
-133.9238040993398
 20
228.9198537557041
 10
-134.0046184259987
 20
228.9253227154028
 10
-134.1395316867297
 20
228.9344527201465
 10
-134.2979624344265
 20
228.8639398824569
 10
-134.4123104743031
 20
228.8257906551145
 10
-134.4981529624276
 20
228.7650310944753
 10
-134.5637823114959
 20
228.6993252604749
 10
-134.6458754614233
 20
228.6215353822158
 10
-134.716695895526
 20
228.5277848708929
 10
-134.7604284727431
 20
228.4200671182392
 10
-134.7979008651108
 20
228.3345500657017
 10
-134.8299255911778
 20
228.2380080498351
 10
-134.8386752964648
 20
228.1304039830053
 10
-134.8443218047466
 20
228.030149793263
 10
-134.8218870576368
 20
227.9551996686044
 10
-134.7924670047824
 20
227.9001209960355
 10
-134.7556479054067
 20
227.8388933321185
 10
-134.7122888106162
 20
227.7959166122361
 10
-134.6810631487949
 20
227.7241115962233
 10
-134.612559886252
 20
227.7066999815256
 10
-134.5704911050306
 20
227.6840985944907
 10
-134.5573036435483
 20
227.677013651397
 72
     1
 10
-134.5573036435482
 20
227.6770136513968
 11
-133.4354066660603
 21
227.5335779351855
 72
     1
 10
-133.4354066660603
 20
227.5335779351855
 11
-133.1317970959623
 21
227.9873078786109
 72
     1
 10
-133.1317970959623
 20
227.9873078786109
 11
-133.9646984511644
 21
228.0937951985822
 72
     4
 94
        3
 73
     0
 74
     0
 95
       16
 96
       12
 40
0.0
 40
0.0
 40
0.0
 40
0.0
 40
0.0719416665236385
 40
0.1446253590762069
 40
0.1879779149915733
 40
0.229544093610706
 40
0.2751936323960856
 40
0.3070718656054086
 40
0.3373215422373994
 40
0.3986635435216365
 40
0.5242542460843507
 40
0.5242542460843507
 40
0.5242542460843507
 40
0.5242542460843507
 10
-133.9646984511644
 20
228.0937951985821
 10
-133.9888766640702
 20
228.1043988570193
 10
-134.0374824705838
 20
228.1257155429273
 10
-134.0324998419908
 20
228.198289308797
 10
-134.0201787355545
 20
228.2488827282648
 10
-133.9912839720634
 20
228.2831703520049
 10
-133.9585494926119
 20
228.3066220073274
 10
-133.9431277904632
 20
228.3406429283091
 10
-133.9076868471025
 20
228.3632906837048
 10
-133.8451564970001
 20
228.4009800759606
 10
-133.7811397861541
 20
228.4025251352395
 10
-133.7381301707927
 20
228.4035631830308
 72
     1
 10
-133.7381301707923
 20
228.403563183031
 11
-132.9229982729576
 21
228.2993477069946
 97
        0
 75
     0
 76
     1
 47
0.0514683685270805
 98
        1
 10
-133.5046724651129
 20
228.5715664326972
450
        0
451
        0
460
0.0
461
0.0
452
        0
462
0.0
453
        0
470

  0
LINE
  5
1000188F
330
F6
100
AcDbEntity
  8
目盛
100
AcDbLine
 10
-157.4500543192083
 20
227.0451722185421
 30
0.0
 11
-155.569309405819
 21
226.3648792149323
 31
0.0
  0
TEXT
  5
10001890
330
F6
100
AcDbEntity
  8
文字
100
AcDbText
 10
-153.672926620227
 20
226.2011885388507
 30
0.0
 40
2.0
  1
.4
 50
352.7142000000002
  7
STYLE3
100
AcDbText
  0
LINE
  5
10001891
330
F6
100
AcDbEntity
  8
目盛
100
AcDbLine
 10
-144.6610904339299
 20
208.7202086608108
 30
0.0
 11
-144.1698070582524
 21
208.8131637294341
 31
0.0
  0
LINE
  5
10001892
330
F6
100
AcDbEntity
  8
中心線
 48
0.2
100
AcDbLine
 10
-146.8969836918468
 20
210.485848579373
 30
0.0
 11
-132.4862966178204
 21
208.6434269818141
 31
0.0
  0
CIRCLE
  5
10001893
330
F6
100
AcDbEntity
  8
外形線
100
AcDbCircle
 10
-139.9938983649924
 20
209.6032818127325
 30
0.0
 40
4.75
  0
LINE
  5
10001894
330
F6
100
AcDbEntity
  8
目盛
100
AcDbLine
 10
-158.4205230964033
 20
214.9458695203565
 30
0.0
 11
-155.4728228423374
 21
215.5035999320966
 31
0.0
  0
TEXT
  5
10001895
330
F6
100
AcDbEntity
  8
文字
100
AcDbText
 10
-153.3489493097105
 20
209.8564887128449
 30
0.0
 40
2.0
  1
.7
 50
352.7142000000002
  7
STYLE3
100
AcDbText
  0
LINE
  5
10001896
330
F6
100
AcDbEntity
  8
目盛
100
AcDbLine
 10
-153.5652268862283
 20
204.5876056105571
 30
0.0
 11
-152.0222930539677
 21
205.8601444859026
 31
0.0
  0
LINE
  5
10001897
330
F6
100
AcDbEntity
  8
目盛
100
AcDbLine
 10
-154.0161426604677
 20
205.1521710165098
 30
0.0
 11
-151.642926811089
 21
206.9873403635344
 31
0.0
  0
LINE
  5
10001898
330
F6
100
AcDbEntity
  8
目盛
100
AcDbLine
 10
-153.0968001837539
 20
204.0374823903013
 30
0.0
 11
-151.5945991082302
 21
205.3578580674084
 31
0.0
  0
LINE
  5
10001899
330
F6
100
AcDbEntity
  8
目盛
100
AcDbLine
 10
-156.3302513774012
 20
208.8107212177862
 30
0.0
 11
-154.5468806328647
 21
209.7160326490248
 31
0.0
  0
LINE
  5
1000189A
330
F6
100
AcDbEntity
  8
目盛
100
AcDbLine
 10
-155.9931115691503
 20
208.1716626267719
 30
0.0
 11
-153.3620302099438
 21
209.6129852420231
 31
0.0
  0
LINE
  5
1000189B
330
F6
100
AcDbEntity
  8
目盛
100
AcDbLine
 10
-155.2594634428139
 20
206.9268808187384
 30
0.0
 11
-153.5692046925895
 21
207.9960044585899
 31
0.0
  0
LINE
  5
1000189C
330
F6
100
AcDbEntity
  8
目盛
100
AcDbLine
 10
-154.4491025070413
 20
205.730621450264
 30
0.0
 11
-152.8293099251449
 21
206.9037676438957
 31
0.0
  0
LINE
  5
1000189D
330
F6
100
AcDbEntity
  8
目盛
100
AcDbLine
 10
-154.8636791468542
 20
206.3223860510791
 30
0.0
 11
-153.2078364223652
 21
207.4440744533357
 31
0.0
  0
LINE
  5
1000189E
330
F6
100
AcDbEntity
  8
目盛
100
AcDbLine
 10
-155.6360648036048
 20
207.5435091898882
 30
0.0
 11
-153.9130581089636
 21
208.5590129713789
 31
0.0
  0
LINE
  5
1000189F
330
F6
100
AcDbEntity
  8
目盛
100
AcDbLine
 10
-158.2750615304812
 20
214.2381265826347
 30
0.0
 11
-156.3225768595899
 21
214.6714897212778
 31
0.0
  0
LINE
  5
100018A0
330
F6
100
AcDbEntity
  8
目盛
100
AcDbLine
 10
-157.7064064241759
 20
212.147176363233
 30
0.0
 11
-155.803370023398
 21
212.7623612600852
 31
0.0
  0
LINE
  5
100018A1
330
F6
100
AcDbEntity
  8
目盛
100
AcDbLine
 10
-157.219002074716
 20
210.7869711129064
 30
0.0
 11
-155.3583486608479
 21
211.5204347271779
 31
0.0
  0
LINE
  5
100018A2
330
F6
100
AcDbEntity
  8
目盛
100
AcDbLine
 10
-157.9178269206521
 20
212.8380891701243
 30
0.0
 11
-155.9964061288764
 21
213.3931946924638
 31
0.0
  0
LINE
  5
100018A3
330
F6
100
AcDbEntity
  8
目盛
100
AcDbLine
 10
-157.4733881552313
 20
211.4632453583841
 30
0.0
 11
-154.6492272413182
 21
212.4752310955992
 31
0.0
  0
LINE
  5
100018A4
330
F6
100
AcDbEntity
  8
目盛
100
AcDbLine
 10
-156.9434992309806
 20
210.1190210278331
 30
0.0
 11
-155.1068025861328
 21
210.9105672581981
 31
0.0
  0
LINE
  5
100018A5
330
F6
100
AcDbEntity
  8
目盛
100
AcDbLine
 10
-156.6471515120687
 20
209.4600542892553
 30
0.0
 11
-154.8362242340829
 21
210.3089019751488
 31
0.0
  0
LINE
  5
100018A6
330
F6
100
AcDbEntity
  8
目盛
100
AcDbLine
 10
-158.1074409981544
 20
213.5353019315311
 30
0.0
 11
-156.1695320257263
 21
214.0297802572268
 31
0.0
  0
TEXT
  5
100018A7
330
F6
100
AcDbEntity
  8
文字
100
AcDbText
 10
-150.2880358487016
 20
205.7920785819782
 30
0.0
 40
2.0
  1
.8
 50
352.7142000000002
  7
STYLE3
100
AcDbText
  0
TEXT
  5
100018A8
330
F6
100
AcDbEntity
  8
文字
100
AcDbText
 10
-155.6041293441696
 20
220.8401019512981
 30
0.0
 40
2.0
  1
.5
 50
352.7142000000002
  7
STYLE3
100
AcDbText
  0
TEXT
  5
100018A9
330
F6
100
AcDbEntity
  8
文字
100
AcDbText
 10
-155.2166105159141
 20
215.6937406631358
 30
0.0
 40
2.0
  1
.6
 50
352.7142000000002
  7
STYLE3
100
AcDbText
  0
LINE
  5
100018AA
330
F6
100
AcDbEntity
  8
目盛
100
AcDbLine
 10
-158.7782394822375
 20
217.8119966976792
 30
0.0
 11
-156.7820002068456
 21
217.9345885219709
 31
0.0
  0
LINE
  5
100018AB
330
F6
100
AcDbEntity
  8
目盛
100
AcDbLine
 10
-158.6444171269148
 20
216.3733122638632
 30
0.0
 11
-156.6598145780726
 21
216.6210070823997
 31
0.0
  0
LINE
  5
100018AC
330
F6
100
AcDbEntity
  8
目盛
100
AcDbLine
 10
-158.7226286351268
 20
217.0916033559975
 30
0.0
 11
-156.7312250855706
 21
217.2768380795658
 31
0.0
  0
LINE
  5
100018AD
330
F6
100
AcDbEntity
  8
目盛
100
AcDbLine
 10
-158.543682142918
 20
215.6578322878646
 30
0.0
 11
-156.5678391579018
 21
215.9677427564878
 31
0.0
  0
LINE
  5
100018AE
330
F6
100
AcDbEntity
  8
目盛
100
AcDbLine
 10
-158.8214620266725
 20
219.2562449916167
 30
0.0
 11
-156.821464269156
 21
219.2532500077396
 31
0.0
  0
LINE
  5
100018AF
330
F6
100
AcDbEntity
  8
目盛
100
AcDbLine
 10
-158.7739141805843
 20
220.7003573574738
 30
0.0
 11
-156.7780510183798
 21
220.5717873852611
 31
0.0
  0
LINE
  5
100018B0
330
F6
100
AcDbEntity
  8
目盛
100
AcDbLine
 10
-158.8090310685643
 20
219.9786746451727
 30
0.0
 11
-156.8101142639266
 21
219.9128596914211
 31
0.0
  0
LINE
  5
100018B1
330
F6
100
AcDbEntity
  8
目盛
100
AcDbLine
 10
-158.8111947870553
 20
218.533781347655
 30
0.0
 11
-155.8125373559478
 21
218.6235232601823
 31
0.0
  0
LINE
  5
100018B2
330
F6
100
AcDbEntity
  8
目盛
100
AcDbLine
 10
-158.4076154040345
 20
223.5654003267118
 30
0.0
 11
-156.4436043093559
 21
223.1876961832615
 31
0.0
  0
LINE
  5
100018B3
330
F6
100
AcDbEntity
  8
目盛
100
AcDbLine
 10
-157.8986087217703
 20
225.6716656583717
 30
0.0
 11
-155.0189842556999
 21
224.8303791825446
 31
0.0
  0
LINE
  5
100018B4
330
F6
100
AcDbEntity
  8
目盛
100
AcDbLine
 10
-158.2600348141911
 20
224.2727044356761
 30
0.0
 11
-156.3088568142815
 21
223.8334955870981
 31
0.0
  0
LINE
  5
100018B5
330
F6
100
AcDbEntity
  8
目盛
100
AcDbLine
 10
-158.0903100874981
 20
224.9750239144069
 30
0.0
 11
-156.1538907594748
 21
224.474743806809
 31
0.0
  0
LINE
  5
100018B6
330
F6
100
AcDbEntity
  8
目盛
100
AcDbLine
 10
-158.6357835935976
 20
222.1386345434944
 30
0.0
 11
-155.6600058833759
 21
221.7581782130862
 31
0.0
  0
LINE
  5
100018B7
330
F6
100
AcDbEntity
  8
目盛
100
AcDbLine
 10
-158.5329062128039
 20
222.8538096112766
 30
0.0
 11
-156.5580002651888
 21
222.5379829213421
 31
0.0
  0
LINE
  5
100018B8
330
F6
100
AcDbEntity
  8
目盛
100
AcDbLine
 10
-158.7161460188618
 20
221.4205809148137
 30
0.0
 11
-156.7253061750677
 21
221.2293828071803
 31
0.0
  0
LINE
  5
100018B9
330
F6
100
AcDbEntity
  8
目盛
100
AcDbLine
 10
-157.6851199031104
 20
226.3619421662748
 30
0.0
 11
-155.7839345041644
 21
225.741060471558
 31
0.0
  0
LINE
  5
100018BA
330
F6
100
AcDbEntity
  8
目盛
100
AcDbLine
 10
-135.6990032898145
 20
207.5743963321759
 30
0.0
 11
-136.1510975082543
 21
207.7879632248659
 31
0.0
  0
CIRCLE
  5
100018BB
330
F6
100
AcDbEntity
  8
外形線
100
AcDbCircle
 10
-139.9938983649924
 20
209.6032818127325
 30
0.0
 40
1.149999999999999
  0
LINE
  5
100018BC
330
F6
100
AcDbEntity
  8
目盛
100
AcDbLine
 10
-140.5962875548054
 20
204.8916337715482
 30
0.0
 11
-140.5328781664039
 21
205.3875967232518
 31
0.0
  0
TEXT
  5
100018BD
330
F6
100
AcDbEntity
  8
文字
100
AcDbText
 10
-142.618001331973
 20
206.8423366863034
 30
0.0
 40
0.7
  1
2
 50
352.7142000000002
  7
STYLE3
100
AcDbText
  0
TEXT
  5
100018BE
330
F6
100
AcDbEntity
  8
文字
100
AcDbText
 10
-140.7873585007737
 20
206.0214916202275
 30
0.0
 40
0.7
  1
0
 50
352.7142000000002
  7
STYLE3
100
AcDbText
  0
TEXT
  5
100018BF
330
F6
100
AcDbEntity
  8
文字
100
AcDbText
 10
-143.5639717283798
 20
208.7216973098045
 30
0.0
 40
0.7
  1
4
 50
352.7142000000002
  7
STYLE3
100
AcDbText
  0
LINE
  5
100018C0
330
F6
100
AcDbEntity
  8
目盛
100
AcDbLine
 10
-143.2506786893798
 20
206.1455539578136
 30
0.0
 11
-142.9078597078654
 21
206.5095253109631
 31
0.0
  0
TEXT
  5
100018C1
330
F6
100
AcDbEntity
  8
文字
100
AcDbText
 10
-137.3128067121499
 20
207.723904926254
 30
0.0
 40
0.7
  1
6
 50
352.7142000000002
  7
STYLE3
100
AcDbText
  0
TEXT
  5
100018C2
330
F6
100
AcDbEntity
  8
文字
100
AcDbText
 10
-138.8158027168548
 20
206.4492555072531
 30
0.0
 40
0.7
  1
8
 50
352.7142000000002
  7
STYLE3
100
AcDbText
  0
TEXT
  5
100018C3
330
F6
100
AcDbEntity
  8
文字
100
AcDbText
 10
-137.0360836430152
 20
209.9143908565625
 30
0.0
 40
0.7
  1
4
 50
352.7142000000002
  7
STYLE3
100
AcDbText
  0
LINE
  5
100018C4
330
F6
100
AcDbEntity
  8
目盛
100
AcDbLine
 10
-137.7118042241778
 20
205.4374029939886
 30
0.0
 11
-137.952024660053
 21
205.8759165538563
 31
0.0
  0
TEXT
  5
100018C5
330
F6
100
AcDbEntity
  8
文字
100
AcDbText
 10
-141.7879603462345
 20
212.1667790796544
 30
0.0
 40
0.7
  1
8
 50
352.7142000000002
  7
STYLE3
100
AcDbText
  0
LINE
  5
100018C6
330
F6
100
AcDbEntity
  8
目盛
100
AcDbLine
 10
-142.2759925058065
 20
213.7691606314767
 30
0.0
 11
-142.0357720699315
 21
213.3306470716091
 31
0.0
  0
TEXT
  5
100018C7
330
F6
100
AcDbEntity
  8
文字
100
AcDbText
 10
-143.2217365608071
 20
210.8143553882001
 30
0.0
 40
0.7
  1
6
 50
352.7142000000002
  7
STYLE3
100
AcDbText
  0
LINE
  5
100018C8
330
F6
100
AcDbEntity
  8
目盛
100
AcDbLine
 10
-144.2887934401698
 20
211.6321672932896
 30
0.0
 11
-143.8366992217298
 21
211.4186004005993
 31
0.0
  0
LINE
  5
100018C9
330
F6
100
AcDbEntity
  8
目盛
100
AcDbLine
 10
-136.7371180406048
 20
213.0610096676517
 30
0.0
 11
-137.0799370221191
 21
212.6970383145023
 31
0.0
  0
TEXT
  5
100018CA
330
F6
100
AcDbEntity
  8
文字
100
AcDbText
 10
-139.9360780238682
 20
212.6883317429133
 30
0.0
 40
0.7
  1
0
 50
352.7142000000002
  7
STYLE3
100
AcDbText
  0
TEXT
  5
100018CB
330
F6
100
AcDbEntity
  8
文字
100
AcDbText
 10
-138.1467177449905
 20
211.7620871254275
 30
0.0
 40
0.7
  1
2
 50
352.7142000000002
  7
STYLE3
100
AcDbText
  0
LINE
  5
100018CC
330
F6
100
AcDbEntity
  8
目盛
100
AcDbLine
 10
-139.3915091751791
 20
214.3149298539171
 30
0.0
 11
-139.4549185635805
 21
213.8189669022134
 31
0.0
  0
HATCH
  5
100018CD
330
F6
100
AcDbEntity
  8
ﾊｯﾁﾝｸ
100
AcDbHatch
 10
0.0
 20
0.0
 30
0.0
210
0.0
220
0.0
230
1.0
  2
SOLID
 70
     1
 71
     0
 91
        3
 92
        7
 72
     1
 73
     1
 93
        5
 10
-139.1936582051689
 20
214.2853877157004
 42
0.0105298176880202
 10
-139.3915091751791
 20
214.3149298539171
 42
0.0
 10
-139.4549185635805
 20
213.8189669022134
 42
0.0
 10
-139.848056771669
 20
210.7439966016509
 42
-0.0437283108272093
 10
-139.6518940690891
 20
210.7012495087892
 42
0.0
 97
        0
 92
        7
 72
     1
 73
     1
 93
        4
 10
-139.3915091751789
 20
214.3149298539169
 42
0.0105298176880232
 10
-139.5904285665318
 20
214.3361152264214
 42
0.0
 10
-140.048664430452
 20
210.7519770195102
 42
-0.0437283108272093
 10
-139.848056771669
 20
210.7439966016509
 42
0.0
 97
        0
 92
      137
 93
        4
 72
     1
 10
-140.2303516372939
 20
212.4338971173584
 11
-139.0731047499855
 21
212.2859418777551
 72
     1
 10
-139.0731047499853
 20
212.285941877755
 11
-138.8828765847813
 21
213.7738307328659
 72
     1
 10
-138.8828765847812
 20
213.7738307328659
 11
-140.0401234720896
 21
213.9217859724692
 72
     1
 10
-140.0401234720896
 20
213.9217859724693
 11
-140.2303516372936
 21
212.4338971173584
 97
        0
 75
     0
 76
     1
 47
0.0128177587452554
 98
        3
 10
-139.63286162407
 20
211.2546077894577
 10
-139.556410142205
 20
212.4595104946171
 10
-139.7410593300572
 20
212.4314295840737
450
        0
451
        0
460
0.0
461
0.0
452
        0
462
0.0
453
        0
470

  0
LINE
  5
100018CE
330
F6
100
AcDbEntity
  8
中心線
 48
0.2
100
AcDbLine
 10
-139.5904285665318
 20
214.3361152264214
 30
0.0
 11
-140.048664430452
 21
210.7519770195102
 31
0.0
  0
LINE
  5
100018CF
330
F6
100
AcDbEntity
  8
中心線
 48
0.2
100
AcDbLine
 10
-139.1936582051689
 20
214.2853877157004
 30
0.0
 11
-139.6518940690891
 21
210.7012495087892
 31
0.0
  0
LINE
  5
100018D0
330
F6
100
AcDbEntity
  8
目盛
100
AcDbLine
 10
-135.3267062960546
 20
210.4863549646545
 30
0.0
 11
-135.8179896717321
 21
210.3933998960311
 31
0.0
  0
LINE
  5
100018D1
330
F6
100
AcDbEntity
  8
ROGO
 62
     4
100
AcDbLine
 10
-137.47387154908
 20
228.0498999455959
 30
0.0
 11
-136.7524961619455
 21
227.9576713387032
 31
0.0
  0
CIRCLE
  5
100018D2
330
F6
100
AcDbEntity
  8
外形線
100
AcDbCircle
 10
-135.8214878152316
 20
219.2218026770306
 30
0.0
 40
1.5
  0
POINT
  5
100018D3
330
F6
100
AcDbEntity
  8
DEFPOINTS
  6
ByBlock
 62
     0
100
AcDbPoint
 10
-135.8214878152313
 20
219.2218026770306
 30
0.0
  0
POINT
  5
100018D4
330
F6
100
AcDbEntity
  8
DEFPOINTS
  6
ByBlock
 62
     0
100
AcDbPoint
 10
-135.8214878152313
 20
219.2218026770306
 30
0.0
  0
LINE
  5
100018D5
330
F6
100
AcDbEntity
  8
ROGO
 62
     4
100
AcDbLine
 10
-133.7381301707928
 20
228.403563183031
 30
0.0
 11
-132.9229982729576
 21
228.2993477069946
 31
0.0
  0
LINE
  5
100018D6
330
F6
100
AcDbEntity
  8
ROGO
 62
     4
100
AcDbLine
 10
-133.1317970959623
 20
227.9873078786109
 30
0.0
 11
-133.4354066660603
 21
227.5335779351855
 31
0.0
  0
LINE
  5
100018D7
330
F6
100
AcDbEntity
  8
ROGO
 62
     4
100
AcDbLine
 10
-133.9646984511648
 20
228.0937951985823
 30
0.0
 11
-133.1317970959623
 21
227.9873078786109
 31
0.0
  0
LINE
  5
100018D8
330
F6
100
AcDbEntity
  8
ROGO
 62
     4
100
AcDbLine
 10
-134.9140194566611
 20
227.7226201457224
 30
0.0
 11
-135.6403152629148
 21
227.815477833408
 31
0.0
  0
LINE
  5
100018D9
330
F6
100
AcDbEntity
  8
ROGO
 62
     4
100
AcDbLine
 10
-135.718778370312
 20
228.0775591688203
 30
0.0
 11
-135.6403152629148
 21
227.815477833408
 31
0.0
  0
LINE
  5
100018DA
330
F6
100
AcDbEntity
  8
ROGO
 62
     4
100
AcDbLine
 10
-136.5419548521288
 20
228.182803153435
 30
0.0
 11
-136.7524961619454
 21
227.9576713387033
 31
0.0
  0
LINE
  5
100018DB
330
F6
100
AcDbEntity
  8
ROGO
 62
     4
100
AcDbLine
 10
-136.5419548521288
 20
228.182803153435
 30
0.0
 11
-135.718778370312
 21
228.0775591688203
 31
0.0
  0
LINE
  5
100018DC
330
F6
100
AcDbEntity
  8
ROGO
 62
     4
100
AcDbLine
 10
-134.5573036435485
 20
227.6770136513969
 30
0.0
 11
-133.4354066660603
 21
227.5335779351855
 31
0.0
  0
SPLINE
  5
100018DD
330
F6
100
AcDbEntity
  8
ROGO
 62
     4
100
AcDbSpline
210
0.0
220
0.0
230
1.0
 70
     8
 71
     3
 72
    16
 73
    12
 74
    10
 42
0.0000000001
 43
0.0000000001
 44
0.0000000001
 40
0.0
 40
0.0
 40
0.0
 40
0.0
 40
0.1255907025627065
 40
0.1869327038469435
 40
0.2171823804789343
 40
0.2490606136882573
 40
0.2947101524736568
 40
0.3362763310928117
 40
0.3796288870081781
 40
0.4523125795607183
 40
0.5242542460843567
 40
0.5242542460843567
 40
0.5242542460843567
 40
0.5242542460843567
 10
-133.7381301707927
 20
228.4035631830308
 30
0.0
 10
-133.7811397861541
 20
228.4025251352396
 30
0.0
 10
-133.8451564970001
 20
228.4009800759607
 30
0.0
 10
-133.9076868471025
 20
228.3632906837047
 30
0.0
 10
-133.9431277904632
 20
228.3406429283092
 30
0.0
 10
-133.9585494926119
 20
228.3066220073274
 30
0.0
 10
-133.9912839720635
 20
228.2831703520048
 30
0.0
 10
-134.0201787355546
 20
228.2488827282648
 30
0.0
 10
-134.0324998419909
 20
228.198289308797
 30
0.0
 10
-134.0374824705838
 20
228.1257155429273
 30
0.0
 10
-133.9888766640702
 20
228.1043988570193
 30
0.0
 10
-133.9646984511644
 20
228.0937951985821
 30
0.0
 11
-133.7381301707927
 21
228.4035631830308
 31
0.0
 11
-133.8625568433507
 21
228.3865036482676
 31
0.0
 11
-133.916602879814
 21
228.3574887027365
 31
0.0
 11
-133.9405401383123
 21
228.3389940929292
 31
0.0
 11
-133.9583062547202
 21
228.3125254915243
 31
0.0
 11
-133.9911265419566
 21
228.280796811485
 31
0.0
 11
-134.016871473303
 21
228.2481633054679
 31
0.0
 11
-134.0293698477369
 21
228.2066514428151
 31
0.0
 11
-134.0242574412646
 21
228.1341477707485
 31
0.0
 11
-133.9646984511644
 21
228.0937951985821
 31
0.0
  0
LINE
  5
100018DE
330
F6
100
AcDbEntity
  8
ROGO
 62
     4
100
AcDbLine
 10
-130.3603959386419
 20
227.1404345584806
 30
0.0
 11
-129.2384989611537
 21
226.9969988422693
 31
0.0
  0
ELLIPSE
  5
100018DF
330
F6
100
AcDbEntity
  8
ROGO
 62
     4
100
AcDbEllipse
 10
-131.8102320169594
 20
227.9719408158475
 30
0.0
 11
0.1967277538043349
 21
0.1329033939234843
 31
0.0
210
0.0
220
0.0
230
1.0
 40
0.6788083417438788
 41
0.0
 42
6.283185307179586
  0
SPLINE
  5
100018E0
102
{ACAD_REACTORS
330
1000188A
102
}
330
F6
100
AcDbEntity
  8
ROGO
 62
     4
100
AcDbSpline
210
0.0
220
0.0
230
1.0
 70
     8
 71
     3
 72
     9
 73
     5
 74
     3
 42
0.0000000001
 43
0.0000000001
 44
0.0000000001
 40
0.0
 40
0.0
 40
0.0
 40
0.0
 40
0.1135793343548971
 40
0.266293839217516
 40
0.266293839217516
 40
0.266293839217516
 40
0.266293839217516
 10
-131.4476544696666
 20
227.3089564645092
 30
0.0
 10
-131.4100484902371
 20
227.3154016993696
 30
0.0
 10
-131.3218789240333
 20
227.3305129548226
 30
0.0
 10
-131.2447582367946
 20
227.3764155433085
 30
0.0
 10
-131.2005309741552
 20
227.4027398138704
 30
0.0
 11
-131.4476544696666
 21
227.3089564645092
 31
0.0
 11
-131.3368465247085
 21
227.3338936761953
 31
0.0
 11
-131.2005309741552
 21
227.4027398138704
 31
0.0
  0
SPLINE
  5
100018E1
102
{ACAD_REACTORS
330
1000188A
102
}
330
F6
100
AcDbEntity
  8
ROGO
 62
     4
100
AcDbSpline
210
0.0
220
0.0
230
1.0
 70
     8
 71
     3
 72
    11
 73
     7
 74
     0
 42
0.0000000001
 43
0.0000000001
 40
0.1647869275458134
 40
0.1647869275458134
 40
0.1647869275458134
 40
0.1647869275458134
 40
0.2895635144633836
 40
0.5387013147903714
 40
0.7953622617455423
 40
0.8850764140209602
 40
0.8850764140209602
 40
0.8850764140209602
 40
0.8850764140209602
 10
-131.4476544696666
 20
227.3089564645092
 30
0.0
 10
-131.4620135916904
 20
227.3068696892589
 30
0.0
 10
-131.5058832120745
 20
227.3054944875597
 30
0.0
 10
-131.5792013525634
 20
227.3052784659006
 30
0.0
 10
-131.6489988729715
 20
227.3041948220329
 30
0.0
 10
-131.6890043111878
 20
227.3100950869889
 30
0.0
 10
-131.6993660663599
 20
227.3116233067422
 30
0.0
  0
LINE
  5
100018E2
102
{ACAD_REACTORS
330
1000188A
102
}
330
F6
100
AcDbEntity
  8
ROGO
 62
     4
100
AcDbLine
 10
-132.4437606528885
 20
227.4067949426457
 30
0.0
 11
-131.6993660663601
 21
227.3116233067422
 31
0.0
  0
SPLINE
  5
100018E3
330
F6
100
AcDbEntity
  8
ROGO
 62
     4
100
AcDbSpline
210
0.0
220
0.0
230
1.0
 70
     8
 71
     3
 72
    16
 73
    12
 74
    10
 42
0.0000000001
 43
0.0000000001
 44
0.0000000001
 40
0.0
 40
0.0
 40
0.0
 40
0.0
 40
0.125590702562722
 40
0.1869327038469432
 40
0.2171823804790239
 40
0.2490606136882835
 40
0.2947101524736884
 40
0.3362763310930759
 40
0.3796288870081427
 40
0.4523125795608041
 40
0.5242542460840495
 40
0.5242542460840495
 40
0.5242542460840495
 40
0.5242542460840495
 10
-129.5412224658863
 20
227.8669840901148
 30
0.0
 10
-129.5842320812476
 20
227.8659460423237
 30
0.0
 10
-129.6482487920938
 20
227.8644009830449
 30
0.0
 10
-129.7107791421958
 20
227.8267115907883
 30
0.0
 10
-129.7462200855566
 20
227.8040638353928
 30
0.0
 10
-129.7616417877052
 20
227.7700429144111
 30
0.0
 10
-129.7943762671572
 20
227.7465912590888
 30
0.0
 10
-129.823271030648
 20
227.7123036353485
 30
0.0
 10
-129.835592137084
 20
227.6617102158806
 30
0.0
 10
-129.8405747656769
 20
227.5891364500111
 30
0.0
 10
-129.7919689591635
 20
227.567819764103
 30
0.0
 10
-129.7677907462579
 20
227.5572161056659
 30
0.0
 11
-129.5412224658863
 21
227.8669840901148
 31
0.0
 11
-129.6656491384442
 21
227.8499245553515
 31
0.0
 11
-129.7196951749074
 21
227.8209096098202
 31
0.0
 11
-129.7436324334057
 21
227.8024150000129
 31
0.0
 11
-129.7613985498135
 21
227.775946398608
 31
0.0
 11
-129.7942188370502
 21
227.7442177185689
 31
0.0
 11
-129.8199637683965
 21
227.7115842125514
 31
0.0
 11
-129.8324621428302
 21
227.6700723498989
 31
0.0
 11
-129.8273497363577
 21
227.5975686778322
 31
0.0
 11
-129.7677907462579
 21
227.5572161056659
 31
0.0
  0
SPLINE
  5
100018E4
102
{ACAD_REACTORS
330
1000188A
102
}
330
F6
100
AcDbEntity
  8
ROGO
 62
     4
100
AcDbSpline
210
0.0
220
0.0
230
1.0
 70
     8
 71
     3
 72
    25
 73
    21
 74
     0
 42
0.0000000001
 43
0.0000000001
 40
0.0
 40
0.0
 40
0.0
 40
0.0
 40
0.4087168505087288
 40
0.6887487002771746
 40
0.9415836120477687
 40
1.17452070575514
 40
1.41154617586699
 40
1.599156012919487
 40
1.80099909059943
 40
2.178735911501585
 40
2.521686161369157
 40
2.762704659361267
 40
3.06256558063785
 40
3.222432137207705
 40
3.399493810628493
 40
3.567459719866414
 40
3.743172740007509
 40
3.995988754699505
 40
4.17170091132118
 40
4.337226830236035
 40
4.337226830236035
 40
4.337226830236035
 40
4.337226830236035
 10
-131.1509588025476
 20
228.570864351918
 30
0.0
 10
-131.1023367094402
 20
228.5630537041637
 30
0.0
 10
-131.020401248764
 20
228.5498916006629
 30
0.0
 10
-130.9408975136166
 20
228.4695577213436
 30
0.0
 10
-130.8806276469882
 20
228.4036764767322
 30
0.0
 10
-130.8415001592591
 20
228.3283423149659
 30
0.0
 10
-130.8075835373138
 20
228.259339813922
 30
0.0
 10
-130.7884632666282
 20
228.1886226123996
 30
0.0
 10
-130.7610793019749
 20
228.1032006104664
 30
0.0
 10
-130.7592647038916
 20
227.9933705746081
 30
0.0
 10
-130.7840553468806
 20
227.8832604003998
 30
0.0
 10
-130.8241928201986
 20
227.7879799988008
 30
0.0
 10
-130.8627350174802
 20
227.7158739164978
 30
0.0
 10
-130.9051763749971
 20
227.6542374366615
 30
0.0
 10
-130.9511773437251
 20
227.6166956366284
 30
0.0
 10
-130.9862467605978
 20
227.5659672852226
 30
0.0
 10
-131.0459503793618
 20
227.5284399932714
 30
0.0
 10
-131.0967535648342
 20
227.4792135616934
 30
0.0
 10
-131.1524666061975
 20
227.4385100288564
 30
0.0
 10
-131.1841978353022
 20
227.4130585233826
 30
0.0
 10
-131.2005309741552
 20
227.4027398138704
 30
0.0
  0
SPLINE
  5
100018E5
330
F6
100
AcDbEntity
  8
ROGO
 62
     4
100
AcDbSpline
210
0.0
220
0.0
230
1.0
 70
     8
 71
     3
 72
    26
 73
    22
 74
    20
 42
0.0000000001
 43
0.0000000001
 44
0.0000000001
 40
0.0
 40
0.0
 40
0.0
 40
0.0
 40
0.238219534659264
 40
0.3976890672662254
 40
0.5126795869789003
 40
0.5985392873137271
 40
0.7099038249254443
 40
0.791189080749729
 40
0.9379713068547593
 40
1.057449928673497
 40
1.138714535893208
 40
1.218398644003531
 40
1.360938021870467
 40
1.461730374800509
 40
1.516014844108028
 40
1.593124329220524
 40
1.64880681859377
 40
1.729472362005441
 40
1.775122082164322
 40
1.874460993765292
 40
1.919820003751229
 40
1.919820003751229
 40
1.919820003751229
 40
1.919820003751229
 10
-129.7268963944332
 20
228.383274662788
 30
0.0
 10
-129.807710721092
 20
228.3887436224869
 30
0.0
 10
-129.942623981823
 20
228.3978736272309
 30
0.0
 10
-130.1010547295197
 20
228.3273607895402
 30
0.0
 10
-130.2154027693966
 20
228.2892115621987
 30
0.0
 10
-130.3012452575212
 20
228.228452001559
 30
0.0
 10
-130.3668746065889
 20
228.1627461675581
 30
0.0
 10
-130.4489677565173
 20
228.0849562892997
 30
0.0
 10
-130.5197881906192
 20
227.9912057779764
 30
0.0
 10
-130.5635207678366
 20
227.8834880253227
 30
0.0
 10
-130.6009931602047
 20
227.7979709727855
 30
0.0
 10
-130.6330178862711
 20
227.7014289569188
 30
0.0
 10
-130.6417675915582
 20
227.593824890089
 30
0.0
 10
-130.6474140998398
 20
227.4935707003468
 30
0.0
 10
-130.6249793527304
 20
227.4186205756879
 30
0.0
 10
-130.5955592998757
 20
227.3635419031193
 30
0.0
 10
-130.5587402005002
 20
227.3023142392023
 30
0.0
 10
-130.51538110571
 20
227.2593375193197
 30
0.0
 10
-130.4841554438883
 20
227.1875325033072
 30
0.0
 10
-130.4156521813453
 20
227.1701208886096
 30
0.0
 10
-130.3735834001242
 20
227.1475195015743
 30
0.0
 10
-130.3603959386419
 20
227.1404345584806
 30
0.0
 11
-129.7268963944332
 21
228.383274662788
 31
0.0
 11
-129.9650273663212
 21
228.3767795168322
 31
0.0
 11
-130.1155713740079
 21
228.3241769163309
 31
0.0
 11
-130.221855803552
 21
228.2802856910087
 31
0.0
 11
-130.2927637426232
 21
228.2318713096922
 31
0.0
 11
-130.3743623832804
 21
228.1560839619331
 31
0.0
 11
-130.4320237654392
 21
228.0987912239818
 31
0.0
 11
-130.5190458314819
 21
227.9805872396073
 31
0.0
 11
-130.5688832978963
 21
227.8719991739044
 31
0.0
 11
-130.6000512183203
 21
227.7969492097271
 31
0.0
 11
-130.62414416023
 21
227.7209947020566
 31
0.0
 11
-130.6422208297773
 21
227.5796062008948
 31
0.0
 11
-130.6407237395345
 21
227.4788249668778
 31
0.0
 11
-130.6258248452756
 21
227.4266250956341
 31
0.0
 11
-130.5915078451726
 21
227.3575728241418
 31
0.0
 11
-130.5615543437775
 21
227.3106332099873
 31
0.0
 11
-130.51218314338
 21
227.2468412476001
 31
0.0
 11
-130.4884011909168
 21
227.2078756770586
 31
0.0
 11
-130.4009415544665
 21
227.1607690814477
 31
0.0
 11
-130.3603959386419
 21
227.1404345584806
 31
0.0
  0
LINE
  5
100018E6
330
F6
100
AcDbEntity
  8
目盛
100
AcDbLine
 10
-146.8716278654898
 20
239.3934264309498
 30
0.0
 11
-145.4303052502388
 21
236.762345071743
 31
0.0
  0
LINE
  5
100018E7
330
F6
100
AcDbEntity
  8
目盛
100
AcDbLine
 10
-154.4086131379046
 20
232.7687127394487
 30
0.0
 11
-152.7923413707154
 21
231.5907205601082
 31
0.0
  0
LINE
  5
100018E8
330
F6
100
AcDbEntity
  8
目盛
100
AcDbLine
 10
-155.6009996744473
 20
230.9593880595163
 30
0.0
 11
-153.8810421214718
 21
229.9387284610394
 31
0.0
  0
LINE
  5
100018E9
330
F6
100
AcDbEntity
  8
目盛
100
AcDbLine
 10
-155.2225532127411
 20
231.5748857513709
 30
0.0
 11
-153.5355040477404
 21
230.5007046144716
 31
0.0
  0
LINE
  5
100018EA
330
F6
100
AcDbEntity
  8
目盛
100
AcDbLine
 10
-154.8249602418068
 20
232.1781924416367
 30
0.0
 11
-152.3462464470361
 21
230.4882285592969
 31
0.0
  0
LINE
  5
100018EB
330
F6
100
AcDbEntity
  8
目盛
100
AcDbLine
 10
-156.9161418458076
 20
228.3878035132897
 30
0.0
 11
-155.0818241040182
 21
227.5907599623106
 31
0.0
  0
LINE
  5
100018EC
330
F6
100
AcDbEntity
  8
目盛
100
AcDbLine
 10
-157.1936439514152
 20
227.7206815495986
 30
0.0
 11
-155.3351955917471
 21
226.9816486041576
 31
0.0
  0
LINE
  5
100018ED
330
F6
100
AcDbEntity
  8
目盛
100
AcDbLine
 10
-156.6178218634602
 20
229.04587974078
 30
0.0
 11
-153.9052565528217
 21
227.7644783846389
 31
0.0
  0
LINE
  5
100018EE
330
F6
100
AcDbEntity
  8
目盛
100
AcDbLine
 10
-156.2989784101787
 20
229.6942607902841
 30
0.0
 11
-154.5183270540963
 21
228.7836122586969
 31
0.0
  0
LINE
  5
100018EF
330
F6
100
AcDbEntity
  8
目盛
100
AcDbLine
 10
-155.9599261459576
 20
230.3323067879851
 30
0.0
 11
-154.2087575954598
 21
229.3661759957282
 31
0.0
  0
LINE
  5
100018F0
330
F6
100
AcDbEntity
  8
目盛
100
AcDbLine
 10
-153.9739227853595
 20
233.3458638725677
 30
0.0
 11
-152.3954501792614
 21
232.1176846381732
 31
0.0
  0
LINE
  5
100018F1
330
F6
100
AcDbEntity
  8
目盛
100
AcDbLine
 10
-152.5641700601023
 20
234.9914758266963
 30
0.0
 11
-150.3803419412061
 21
232.9345619376096
 31
0.0
  0
LINE
  5
100018F2
330
F6
100
AcDbEntity
  8
目盛
100
AcDbLine
 10
-153.5213181710689
 20
233.9090762625049
 30
0.0
 11
-151.9822024879526
 21
232.6319220376813
 31
0.0
  0
TEXT
  5
100018F3
330
F6
100
AcDbEntity
  8
文字
100
AcDbText
 10
-150.5983180706278
 20
230.6464756863054
 30
0.0
 40
2.0
  1
.3
 50
352.7142000000002
  7
STYLE3
100
AcDbText
  0
LINE
  5
100018F4
330
F6
100
AcDbEntity
  8
目盛
100
AcDbLine
 10
-151.5409462313189
 20
236.0116396954443
 30
0.0
 11
-150.1740368038331
 21
234.5516538677561
 31
0.0
  0
LINE
  5
100018F5
330
F6
100
AcDbEntity
  8
目盛
100
AcDbLine
 10
-150.455684881705
 20
236.9655417480275
 30
0.0
 11
-149.1831460063595
 21
235.4226079157667
 31
0.0
  0
LINE
  5
100018F6
330
F6
100
AcDbEntity
  8
目盛
100
AcDbLine
 10
-151.005808101961
 20
236.4971150455529
 30
0.0
 11
-149.6854324248539
 21
234.9949139700292
 31
0.0
  0
LINE
  5
100018F7
330
F6
100
AcDbEntity
  8
目盛
100
AcDbLine
 10
-152.0605711530536
 20
235.5095948032603
 30
0.0
 11
-150.6484769497647
 21
234.0932650531532
 31
0.0
  0
LINE
  5
100018F8
330
F6
100
AcDbEntity
  8
目盛
100
AcDbLine
 10
-153.0512459611437
 20
234.4577940866297
 30
0.0
 11
-151.5530061223686
 21
233.1329252684035
 31
0.0
  0
LINE
  5
100018F9
330
F6
100
AcDbEntity
  8
目盛
100
AcDbLine
 10
-149.8911194757522
 20
237.4164575222668
 30
0.0
 11
-148.0559501287277
 21
235.043241672888
 31
0.0
  0
LINE
  5
100018FA
330
F6
100
AcDbEntity
  8
目盛
100
AcDbLine
 10
-148.1164096735235
 20
238.6597783046132
 30
0.0
 11
-147.0472860336722
 21
236.9695195543885
 31
0.0
  0
LINE
  5
100018FB
330
F6
100
AcDbEntity
  8
目盛
100
AcDbLine
 10
-149.3126690419977
 20
237.8494173688407
 30
0.0
 11
-148.1395228483662
 21
236.2296247869442
 31
0.0
  0
LINE
  5
100018FC
330
F6
100
AcDbEntity
  8
目盛
100
AcDbLine
 10
-147.4997813023739
 20
239.0363796654037
 30
0.0
 11
-146.4842775208832
 21
237.3133729707626
 31
0.0
  0
LINE
  5
100018FD
330
F6
100
AcDbEntity
  8
目盛
100
AcDbLine
 10
-148.7209044411829
 20
238.2639940086533
 30
0.0
 11
-147.5992160389262
 21
236.6081512841645
 31
0.0
  0
LINE
  5
100018FE
330
F6
100
AcDbEntity
  8
目盛
100
AcDbLine
 10
-130.7705860565859
 20
241.6603496759901
 30
0.0
 11
-131.2097949051637
 21
239.7091716760805
 31
0.0
  0
LINE
  5
100018FF
330
F6
100
AcDbEntity
  8
目盛
100
AcDbLine
 10
-131.4778901655501
 20
241.8079302658336
 30
0.0
 11
-131.8555943090007
 21
239.843919171155
 31
0.0
  0
LINE
  5
10001900
330
F6
100
AcDbEntity
  8
目盛
100
AcDbLine
 10
-136.5095091446071
 20
242.2115096488544
 30
0.0
 11
-136.4197672320797
 21
239.2128522177469
 31
0.0
  0
LINE
  5
10001901
330
F6
100
AcDbEntity
  8
目盛
100
AcDbLine
 10
-132.9046559487676
 20
242.0360984553969
 30
0.0
 11
-133.285112279176
 21
239.0603207451752
 31
0.0
  0
LINE
  5
10001902
330
F6
100
AcDbEntity
  8
目盛
100
AcDbLine
 10
-132.1894808809855
 20
241.933221074603
 30
0.0
 11
-132.50530757092
 21
239.9583151269879
 31
0.0
  0
LINE
  5
10001903
330
F6
100
AcDbEntity
  8
目盛
100
AcDbLine
 10
-140.0974209719056
 20
241.8208379582028
 30
0.0
 11
-139.5396905601657
 21
238.8731377041368
 31
0.0
  0
LINE
  5
10001904
330
F6
100
AcDbEntity
  8
目盛
100
AcDbLine
 10
-142.8961141290293
 20
241.1067212859752
 30
0.0
 11
-142.280929232177
 21
239.2036848851974
 31
0.0
  0
LINE
  5
10001905
330
F6
100
AcDbEntity
  8
目盛
100
AcDbLine
 10
-142.2052013221381
 20
241.3181417824511
 30
0.0
 11
-141.6500957997982
 21
239.3967209906754
 31
0.0
  0
LINE
  5
10001906
330
F6
100
AcDbEntity
  8
目盛
100
AcDbLine
 10
-143.580045133878
 20
240.8737030170303
 30
0.0
 11
-142.5680593966632
 21
238.0495421031172
 31
0.0
  0
LINE
  5
10001907
330
F6
100
AcDbEntity
  8
目盛
100
AcDbLine
 10
-144.2563193793559
 20
240.6193169365153
 30
0.0
 11
-143.5228557650841
 21
238.7586635226471
 31
0.0
  0
LINE
  5
10001908
330
F6
100
AcDbEntity
  8
目盛
100
AcDbLine
 10
-145.583236203007
 20
240.0474663738679
 30
0.0
 11
-144.7343885171133
 21
238.236539095882
 31
0.0
  0
LINE
  5
10001909
330
F6
100
AcDbEntity
  8
目盛
100
AcDbLine
 10
-144.924269464429
 20
240.3438140927796
 30
0.0
 11
-144.132723234064
 21
238.507117447932
 31
0.0
  0
LINE
  5
1000190A
330
F6
100
AcDbEntity
  8
目盛
100
AcDbLine
 10
-146.2325692744759
 20
239.7305662392002
 30
0.0
 11
-145.3272578432372
 21
237.9471954946637
 31
0.0
  0
LINE
  5
1000190B
102
{ACAD_REACTORS
330
1000188D
102
}
330
F6
100
AcDbEntity
  8
ROGO
 62
     4
100
AcDbLine
 10
-138.6401344947616
 20
229.5228415894632
 30
0.0
 11
-136.8783916131751
 21
229.2976008970725
 31
0.0
  0
LINE
  5
1000190C
102
{ACAD_REACTORS
330
1000188D
102
}
330
F6
100
AcDbEntity
  8
ROGO
 62
     4
100
AcDbLine
 10
-138.284303027956
 20
228.6938645064965
 30
0.0
 11
-137.3583754876489
 21
228.5754836902821
 31
0.0
  0
LINE
  5
1000190D
102
{ACAD_REACTORS
330
1000188D
102
}
330
F6
100
AcDbEntity
  8
ROGO
 62
     4
100
AcDbLine
 10
-138.1353558094733
 20
228.9179498457963
 30
0.0
 11
-137.2094282691665
 21
228.7995690295815
 31
0.0
  0
LINE
  5
1000190E
102
{ACAD_REACTORS
330
1000188D
102
}
330
F6
100
AcDbEntity
  8
ROGO
 62
     4
100
AcDbLine
 10
-137.9900990311818
 20
229.1364830603179
 30
0.0
 11
-137.064171490875
 21
229.0181022441032
 31
0.0
  0
LINE
  5
1000190F
330
F6
100
AcDbEntity
  8
ROGO
 62
     4
100
AcDbLine
 10
-141.1845457556797
 20
229.8481472626838
 30
0.0
 11
-142.4518158224953
 21
227.9415883769268
 31
0.0
  0
LINE
  5
10001910
330
F6
100
AcDbEntity
  8
ROGO
 62
     4
100
AcDbLine
 10
-141.1845457556797
 20
229.8481472626838
 30
0.0
 11
-139.5850669098292
 21
229.6436521990345
 31
0.0
  0
LINE
  5
10001911
102
{ACAD_REACTORS
330
1000188D
102
}
330
F6
100
AcDbEntity
  8
ROGO
 62
     4
100
AcDbLine
 10
-138.284303027956
 20
228.6938645064965
 30
0.0
 11
-138.4295659557213
 21
228.4753220403289
 31
0.0
  0
LINE
  5
10001912
102
{ACAD_REACTORS
330
1000188D
102
}
330
F6
100
AcDbEntity
  8
ROGO
 62
     4
100
AcDbLine
 10
-138.4295659557212
 20
228.475322040329
 30
0.0
 11
-137.5036384154143
 21
228.3569412241145
 31
0.0
  0
LINE
  5
10001913
102
{ACAD_REACTORS
330
1000188D
102
}
330
F6
100
AcDbEntity
  8
ROGO
 62
     4
100
AcDbLine
 10
-137.9900990311818
 20
229.1364830603179
 30
0.0
 11
-138.1353558094733
 21
228.9179498457963
 31
0.0
  0
LINE
  5
10001914
330
F6
100
AcDbEntity
  8
ROGO
 62
     4
100
AcDbLine
 10
-140.1960956938661
 20
228.3979391842517
 30
0.0
 11
-141.080505031065
 21
228.5110118542478
 31
0.0
  0
SPLINE
  5
10001915
330
F6
100
AcDbEntity
  8
ROGO
 62
     4
100
AcDbSpline
210
0.0
220
0.0
230
1.0
 70
     8
 71
     3
 72
    15
 73
    11
 74
     9
 42
0.0000000001
 43
0.0000000001
 44
0.0000000001
 40
0.0
 40
0.0
 40
0.0
 40
0.0
 40
0.1539705029172164
 40
0.2241725832585295
 40
0.3038566179395221
 40
0.3581410872474679
 40
0.443992538466996
 40
0.4954152125467553
 40
0.583639670564419
 40
0.6130478420063012
 40
0.6130478420063012
 40
0.6130478420063012
 40
0.6130478420063012
 10
-140.2142423671457
 20
229.2121626615075
 30
0.0
 10
-140.1568473513033
 20
229.2050916887291
 30
0.0
 10
-140.0732833651905
 20
229.1947967412953
 30
0.0
 10
-140.0408224336691
 20
229.0856495165007
 30
0.0
 10
-140.0697974132277
 20
229.0217522707947
 30
0.0
 10
-140.1042620724652
 20
228.9567527097399
 30
0.0
 10
-140.1556722273326
 20
228.9161631937538
 30
0.0
 10
-140.2224237925415
 20
228.8792721501159
 30
0.0
 10
-140.2807986928798
 20
228.8812365067184
 30
0.0
 10
-140.3195860285357
 20
228.8760924420527
 30
0.0
 10
-140.3292828670914
 20
228.8748064252707
 30
0.0
 11
-140.2142423671457
 21
229.2121626615075
 31
0.0
 11
-140.0701808978381
 21
229.1578192274098
 31
0.0
 11
-140.0500142616051
 21
229.0905760949181
 31
0.0
 11
-140.074106796673
 21
229.0146215352324
 31
0.0
 11
-140.1016594008674
 21
228.9678491330047
 31
0.0
 11
-140.1663961683823
 21
228.9114609905613
 31
0.0
 11
-140.2124630125311
 21
228.8886106671569
 31
0.0
 11
-140.3000778960849
 21
228.8782575433598
 31
0.0
 11
-140.3292828670914
 21
228.8748064252707
 31
0.0
  0
LINE
  5
10001916
330
F6
100
AcDbEntity
  8
ROGO
 62
     4
100
AcDbLine
 10
-140.3292828670913
 20
228.8748064252705
 30
0.0
 11
-140.8179613617953
 21
228.9372844881333
 31
0.0
  0
LINE
  5
10001917
330
F6
100
AcDbEntity
  8
ROGO
 62
     4
100
AcDbLine
 10
-140.2142423671457
 20
229.2121626615075
 30
0.0
 11
-140.6169513879971
 21
229.2636494361308
 31
0.0
  0
LINE
  5
10001918
330
F6
100
AcDbEntity
  8
ROGO
 62
     4
100
AcDbLine
 10
-140.6169513879971
 20
229.2636494361308
 30
0.0
 11
-140.8179613617953
 21
228.9372844881333
 31
0.0
  0
SPLINE
  5
10001919
330
F6
100
AcDbEntity
  8
ROGO
 62
     4
100
AcDbSpline
210
0.0
220
0.0
230
1.0
 70
     8
 71
     3
 72
    18
 73
    14
 74
     0
 42
0.0000000001
 43
0.0000000001
 40
0.1087402787915014
 40
0.1087402787915014
 40
0.1087402787915014
 40
0.1087402787915014
 40
0.5992371417938475
 40
1.083176791562496
 40
1.448211145705696
 40
1.714037220764907
 40
2.164002567013297
 40
2.740236056362883
 40
3.395137510199602
 40
4.071816045172726
 40
4.784906178399433
 40
5.506895915094292
 40
6.060470601257719
 40
6.060470601257719
 40
6.060470601257719
 40
6.060470601257719
 10
-139.5850669098292
 20
229.6436521990345
 30
0.0
 10
-139.5362254543739
 20
229.6183213064755
 30
0.0
 10
-139.4405337720037
 20
229.5657353287887
 30
0.0
 10
-139.3291347934105
 20
229.4593969504568
 30
0.0
 10
-139.2754386922907
 20
229.3462146546318
 30
0.0
 10
-139.2241024498353
 20
229.2348947048276
 30
0.0
 10
-139.2339796532392
 20
229.085866517546
 30
0.0
 10
-139.2726707064909
 20
228.9008089614376
 30
0.0
 10
-139.3930891931737
 20
228.7179547666715
 30
0.0
 10
-139.5681521540316
 20
228.5669396961627
 30
0.0
 10
-139.7758817570941
 20
228.4547134040647
 30
0.0
 10
-139.9902336974021
 20
228.3731760781992
 30
0.0
 10
-140.1337931663369
 20
228.390444823356
 30
0.0
 10
-140.1960956941727
 20
228.3979391842909
 30
0.0
  0
LINE
  5
1000191A
102
{ACAD_REACTORS
330
1000188D
102
}
330
F6
100
AcDbEntity
  8
ROGO
 62
     4
100
AcDbLine
 10
-138.6401344947616
 20
229.5228415894632
 30
0.0
 11
-139.4511518297655
 21
228.3026973226293
 31
0.0
  0
TEXT
  5
1000191B
330
F6
100
AcDbEntity
  8
文字
100
AcDbText
 10
-146.3672694292697
 20
234.4453127790925
 30
0.0
 40
2.0
  1
.2
 50
352.7142000000002
  7
STYLE3
100
AcDbText
  0
TEXT
  5
1000191C
330
F6
100
AcDbEntity
  8
文字
100
AcDbText
 10
-141.0214327211495
 20
236.0155133360497
 30
0.0
 40
2.0
  1
.1
 50
352.7142000000002
  7
STYLE3
100
AcDbText
  0
LINE
  5
1000191D
330
F6
100
AcDbEntity
  8
ROGO
 62
     4
100
AcDbLine
 10
-133.9238040993396
 20
228.919853755704
 30
0.0
 11
-132.6193854876829
 21
228.7530824553471
 31
0.0
  0
LINE
  5
1000191E
330
F6
100
AcDbEntity
  8
ROGO
 62
     4
100
AcDbLine
 10
-136.3680514243712
 20
229.2323533636881
 30
0.0
 11
-135.326129000781
 21
229.0991424788537
 31
0.0
  0
LINE
  5
1000191F
102
{ACAD_REACTORS
330
1000188D
102
}
330
F6
100
AcDbEntity
  8
ROGO
 62
     4
100
AcDbLine
 10
-137.2094282691665
 20
228.7995690295815
 30
0.0
 11
-137.3583754876489
 21
228.5754836902821
 31
0.0
  0
LINE
  5
10001920
330
F6
100
AcDbEntity
  8
ROGO
 62
     4
100
AcDbLine
 10
-135.9422662509549
 20
228.8240501522951
 30
0.0
 11
-135.8015357757259
 21
228.3539842562994
 31
0.0
  0
LINE
  5
10001921
330
F6
100
AcDbEntity
  8
ROGO
 62
     4
100
AcDbLine
 10
-136.3198905838264
 20
228.4202564672452
 30
0.0
 11
-135.801535775726
 21
228.3539842562996
 31
0.0
  0
LINE
  5
10001922
330
F6
100
AcDbEntity
  8
ROGO
 62
     4
100
AcDbLine
 10
-135.9422662509549
 20
228.8240501522951
 30
0.0
 11
-136.3198905838264
 21
228.4202564672451
 31
0.0
  0
LINE
  5
10001923
102
{ACAD_REACTORS
330
1000188D
102
}
330
F6
100
AcDbEntity
  8
ROGO
 62
     4
100
AcDbLine
 10
-136.8783916131754
 20
229.2976008970724
 30
0.0
 11
-137.064171490875
 21
229.0181022441032
 31
0.0
  0
TEXT
  5
10001924
330
F6
100
AcDbEntity
  8
文字
100
AcDbText
 10
-134.6493729344195
 20
236.1310890580238
 30
0.0
 40
2.0
  1
0
 50
352.7142000000002
  7
STYLE3
100
AcDbText
  0
LINE
  5
10001925
330
F6
100
AcDbEntity
  8
目盛
100
AcDbLine
 10
-139.3854582043974
 20
241.9439970047171
 30
0.0
 11
-139.0755477357743
 21
239.9681540197009
 31
0.0
  0
LINE
  5
10001926
330
F6
100
AcDbEntity
  8
目盛
100
AcDbLine
 10
-140.8051639096276
 20
241.6753763922802
 30
0.0
 11
-140.3718007709842
 21
239.7228917213888
 31
0.0
  0
LINE
  5
10001927
330
F6
100
AcDbEntity
  8
目盛
100
AcDbLine
 10
-141.507988560731
 20
241.5077558599536
 30
0.0
 11
-141.0135102350354
 21
239.5698468875257
 31
0.0
  0
LINE
  5
10001928
330
F6
100
AcDbEntity
  8
目盛
100
AcDbLine
 10
-138.6699782283986
 20
242.0447319887139
 30
0.0
 11
-138.4222834098627
 21
240.0601294398721
 31
0.0
  0
LINE
  5
10001929
330
F6
100
AcDbEntity
  8
外形線
  6
Continuous
100
AcDbLine
 10
-135.9258998104404
 20
247.4650159881121
 30
0.0
 11
-136.1628208306762
 21
245.6195959895893
 31
0.0
  0
LINE
  5
1000192A
330
F6
100
AcDbEntity
  8
目盛
100
AcDbLine
 10
-134.3429331347882
 20
242.1742290423834
 30
0.0
 11
-134.4715031070006
 21
240.1783658801788
 31
0.0
  0
LINE
  5
1000192B
330
F6
100
AcDbEntity
  8
目盛
100
AcDbLine
 10
-137.2312937945828
 20
242.1785543440367
 30
0.0
 11
-137.1087019702914
 21
240.182315068645
 31
0.0
  0
LINE
  5
1000192C
330
F6
100
AcDbEntity
  8
目盛
100
AcDbLine
 10
-135.7870455006451
 20
242.2217768884721
 30
0.0
 11
-135.7900404845225
 21
240.2217791309553
 31
0.0
  0
LINE
  5
1000192D
330
F6
100
AcDbEntity
  8
目盛
100
AcDbLine
 10
-135.0646158470896
 20
242.2093459303633
 30
0.0
 11
-135.130430800841
 21
240.2104291257256
 31
0.0
  0
LINE
  5
1000192E
330
F6
100
AcDbEntity
  8
目盛
100
AcDbLine
 10
-137.9516871362645
 20
242.1229434969258
 30
0.0
 11
-137.7664524126964
 21
240.1315399473697
 31
0.0
  0
LINE
  5
1000192F
330
F6
100
AcDbEntity
  8
目盛
100
AcDbLine
 10
-133.6227095774485
 20
242.1164608806608
 30
0.0
 11
-133.8139076850818
 21
240.1256210368668
 31
0.0
  0
LINE
  5
10001930
330
F6
100
AcDbEntity
  8
目盛
100
AcDbLine
 10
-115.6498640613125
 20
230.2719427272892
 30
0.0
 11
-118.2809454205193
 21
228.8306201120381
 31
0.0
  0
TEXT
  5
10001931
330
F6
100
AcDbEntity
  8
文字
100
AcDbText
 10
-121.6129741830008
 20
211.0398900370951
 30
0.0
 40
2.0
  1
.4
 50
352.7142000000002
  7
STYLE3
100
AcDbText
  0
TEXT
  5
10001932
330
F6
100
AcDbEntity
  8
文字
100
AcDbText
 10
-124.7870115206056
 20
206.2979946845722
 30
0.0
 40
2.0
  1
.3
 50
352.7142000000002
  7
STYLE3
100
AcDbText
  0
LINE
  5
10001933
330
F6
100
AcDbEntity
  8
目盛
100
AcDbLine
 10
-113.9578557273523
 20
212.0816631877864
 30
0.0
 11
-115.8590411262984
 21
212.7025448825033
 31
0.0
  0
LINE
  5
10001934
330
F6
100
AcDbEntity
  8
目盛
100
AcDbLine
 10
-114.1929213112546
 20
211.3984331355191
 30
0.0
 11
-116.073666224644
 21
212.0787261391288
 31
0.0
  0
LINE
  5
10001935
330
F6
100
AcDbEntity
  8
目盛
100
AcDbLine
 10
-114.4493316790474
 20
210.722923804463
 30
0.0
 11
-116.3077800387157
 21
211.4619567499036
 31
0.0
  0
LINE
  5
10001936
330
F6
100
AcDbEntity
  8
目盛
100
AcDbLine
 10
-115.3439972202843
 20
208.7493445637771
 30
0.0
 11
-117.1246485763667
 21
209.6599930953645
 31
0.0
  0
LINE
  5
10001937
330
F6
100
AcDbEntity
  8
目盛
100
AcDbLine
 10
-114.7268337846556
 20
210.0558018407715
 30
0.0
 11
-116.5611515264448
 21
210.8528453917505
 31
0.0
  0
LINE
  5
10001938
330
F6
100
AcDbEntity
  8
目盛
100
AcDbLine
 10
-115.0251537670028
 20
209.3977256132812
 30
0.0
 11
-117.7377190776415
 21
210.6791269694224
 31
0.0
  0
LINE
  5
10001939
330
F6
100
AcDbEntity
  8
目盛
100
AcDbLine
 10
-116.4204224177216
 20
206.8687196026905
 30
0.0
 11
-118.1074715827224
 21
207.9429007395896
 31
0.0
  0
LINE
  5
1000193A
330
F6
100
AcDbEntity
  8
目盛
100
AcDbLine
 10
-116.0419759560159
 20
207.4842172945448
 30
0.0
 11
-117.7619335089912
 21
208.5048768930219
 31
0.0
  0
LINE
  5
1000193B
330
F6
100
AcDbEntity
  8
目盛
100
AcDbLine
 10
-115.6830494845054
 20
208.1112985660762
 30
0.0
 11
-117.4342180350031
 21
209.0774293583331
 31
0.0
  0
LINE
  5
1000193C
330
F6
100
AcDbEntity
  8
目盛
100
AcDbLine
 10
-113.7443669086929
 20
212.7719396956895
 30
0.0
 11
-116.6239913747632
 21
213.6132261715165
 31
0.0
  0
LINE
  5
1000193D
330
F6
100
AcDbEntity
  8
目盛
100
AcDbLine
 10
-115.9829697470866
 20
216.6854271409753
 30
0.0
 11
-113.007192036865
 21
216.304970810567
 31
0.0
  0
TEXT
  5
1000193E
330
F6
100
AcDbEntity
  8
文字
100
AcDbText
 10
-119.9227064740674
 20
216.0822456899436
 30
0.0
 40
2.0
  1
.5
 50
352.7142000000002
  7
STYLE3
100
AcDbText
  0
LINE
  5
1000193F
330
F6
100
AcDbEntity
  8
目盛
100
AcDbLine
 10
-112.8690614498788
 20
217.7432479965877
 30
0.0
 11
-114.8649246120833
 21
217.8718179688001
 31
0.0
  0
LINE
  5
10001940
330
F6
100
AcDbEntity
  8
目盛
100
AcDbLine
 10
-113.5526655429648
 20
213.4685814396547
 30
0.0
 11
-115.4890848709879
 21
213.9688615472524
 31
0.0
  0
LINE
  5
10001941
330
F6
100
AcDbEntity
  8
目盛
100
AcDbLine
 10
-113.382940816272
 20
214.1709009183852
 30
0.0
 11
-115.3341188161816
 21
214.6101097669631
 31
0.0
  0
LINE
  5
10001942
330
F6
100
AcDbEntity
  8
目盛
100
AcDbLine
 10
-112.9268296116013
 20
217.0230244392475
 30
0.0
 11
-114.9176694553952
 21
217.2142225468808
 31
0.0
  0
LINE
  5
10001943
330
F6
100
AcDbEntity
  8
目盛
100
AcDbLine
 10
-113.2353602264287
 20
214.8782050273495
 30
0.0
 11
-115.199371321107
 21
215.2559091708003
 31
0.0
  0
LINE
  5
10001944
330
F6
100
AcDbEntity
  8
目盛
100
AcDbLine
 10
-113.1100694176591
 20
215.5897957427846
 30
0.0
 11
-115.0849753652741
 21
215.9056224327191
 31
0.0
  0
TEXT
  5
10001945
330
F6
100
AcDbEntity
  8
文字
100
AcDbText
 10
-121.733466064031
 20
226.8642779805083
 30
0.0
 40
2.0
  1
.7
 50
352.7142000000002
  7
STYLE3
100
AcDbText
  0
LINE
  5
10001946
330
F6
100
AcDbEntity
  8
ROGO
 62
     4
100
AcDbLine
 10
-127.1593408401574
 20
228.055009967161
 30
0.0
 11
-126.4093781997607
 21
227.9591264496764
 31
0.0
  0
LINE
  5
10001947
330
F6
100
AcDbEntity
  8
ROGO
 62
     4
100
AcDbLine
 10
-127.3996921999252
 20
228.0857391429433
 30
0.0
 11
-127.5389059620901
 21
227.8776908511494
 31
0.0
  0
LINE
  5
10001948
330
F6
100
AcDbEntity
  8
ROGO
 62
     4
100
AcDbLine
 10
-127.5389059620901
 20
227.8776908511494
 30
0.0
 11
-127.1593408401574
 21
228.055009967161
 31
0.0
  0
LINE
  5
10001949
330
F6
100
AcDbEntity
  8
ROGO
 62
     4
100
AcDbLine
 10
-128.3419684910614
 20
226.6775524111155
 30
0.0
 11
-128.1449948994995
 21
226.11244617673
 31
0.0
  0
LINE
  5
1000194A
330
F6
100
AcDbEntity
  8
ROGO
 62
     4
100
AcDbLine
 10
-128.3419684910614
 20
226.6775524111155
 30
0.0
 11
-128.6747811143195
 21
226.1801799051259
 31
0.0
  0
LINE
  5
1000194B
330
F6
100
AcDbEntity
  8
ROGO
 62
     4
100
AcDbLine
 10
-128.4224777827762
 20
228.2165033624309
 30
0.0
 11
-128.726090568051
 21
227.7627686140785
 31
0.0
  0
LINE
  5
1000194C
330
F6
100
AcDbEntity
  8
ROGO
 62
     4
100
AcDbLine
 10
-128.1449948994995
 20
226.11244617673
 30
0.0
 11
-127.3950322591032
 21
226.0165626592452
 31
0.0
  0
LINE
  5
1000194D
330
F6
100
AcDbEntity
  8
ROGO
 62
     4
100
AcDbLine
 10
-127.7723599586506
 20
227.0990947577368
 30
0.0
 11
-127.3950322591032
 21
226.0165626592452
 31
0.0
  0
LINE
  5
1000194E
330
F6
100
AcDbEntity
  8
ROGO
 62
     4
100
AcDbLine
 10
-128.1496712492603
 20
228.1816247583281
 30
0.0
 11
-127.3996921999252
 21
228.0857391429433
 31
0.0
  0
LINE
  5
1000194F
330
F6
100
AcDbEntity
  8
ROGO
 62
     4
100
AcDbLine
 10
-127.7723599586506
 20
227.0990947577368
 30
0.0
 11
-126.4093781997607
 21
227.9591264496764
 31
0.0
  0
LINE
  5
10001950
330
F6
100
AcDbEntity
  8
目盛
100
AcDbLine
 10
-113.367914099982
 20
224.2054787714266
 30
0.0
 11
-115.3203987708732
 21
223.7721156327834
 31
0.0
  0
TEXT
  5
10001951
330
F6
100
AcDbEntity
  8
文字
100
AcDbText
 10
-119.7627509284563
 20
221.714065780271
 30
0.0
 40
2.0
  1
.6
 50
352.7142000000002
  7
STYLE3
100
AcDbText
  0
LINE
  5
10001952
330
F6
100
AcDbEntity
  8
目盛
100
AcDbLine
 10
-112.998558503548
 20
222.0702930901981
 30
0.0
 11
-114.9831610523899
 21
221.8225982716619
 31
0.0
  0
LINE
  5
10001953
330
F6
100
AcDbEntity
  8
目盛
100
AcDbLine
 10
-113.099293487545
 20
222.7857730661965
 30
0.0
 11
-115.0751364725612
 21
222.4758625975734
 31
0.0
  0
LINE
  5
10001954
330
F6
100
AcDbEntity
  8
目盛
100
AcDbLine
 10
-112.8215136037901
 20
219.1873603624447
 30
0.0
 11
-114.821511361307
 21
219.1903553463219
 31
0.0
  0
LINE
  5
10001955
330
F6
100
AcDbEntity
  8
目盛
100
AcDbLine
 10
-112.8647361482254
 20
220.631608656382
 30
0.0
 11
-114.8609754236173
 21
220.5090168320907
 31
0.0
  0
LINE
  5
10001956
330
F6
100
AcDbEntity
  8
目盛
100
AcDbLine
 10
-112.8339445618989
 20
218.4649307088887
 30
0.0
 11
-114.8328613665364
 21
218.5307456626401
 31
0.0
  0
LINE
  5
10001957
330
F6
100
AcDbEntity
  8
目盛
100
AcDbLine
 10
-112.8317808434076
 20
219.9098240064061
 30
0.0
 11
-115.8304382745152
 21
219.8200820938787
 31
0.0
  0
LINE
  5
10001958
330
F6
100
AcDbEntity
  8
目盛
100
AcDbLine
 10
-112.9203469953362
 20
221.3520019980635
 30
0.0
 11
-114.9117505448924
 21
221.1667672744955
 31
0.0
  0
LINE
  5
10001959
330
F6
100
AcDbEntity
  8
目盛
100
AcDbLine
 10
-113.2224525340596
 20
223.497735833705
 30
0.0
 11
-116.1701527881253
 21
222.9400054219648
 31
0.0
  0
LINE
  5
1000195A
330
F6
100
AcDbEntity
  8
目盛
100
AcDbLine
 10
-115.3127242530617
 20
229.6328841362749
 30
0.0
 11
-117.0960949975984
 21
228.7275727050363
 31
0.0
  0
LINE
  5
1000195B
330
F6
100
AcDbEntity
  8
目盛
100
AcDbLine
 10
-114.9958241183941
 20
228.9835510648059
 30
0.0
 11
-116.8067513963802
 21
228.1347033789125
 31
0.0
  0
LINE
  5
1000195C
330
F6
100
AcDbEntity
  8
目盛
100
AcDbLine
 10
-114.1695874752317
 20
226.980359995677
 30
0.0
 11
-116.9937483891448
 21
225.9683742584621
 31
0.0
  0
LINE
  5
1000195D
330
F6
100
AcDbEntity
  8
目盛
100
AcDbLine
 10
-114.4239735557466
 20
227.6566342411551
 30
0.0
 11
-116.2846269696149
 21
226.9231706268832
 31
0.0
  0
LINE
  5
1000195E
330
F6
100
AcDbEntity
  8
目盛
100
AcDbLine
 10
-114.6994763994822
 20
228.3245843262279
 30
0.0
 11
-116.5361730443301
 21
227.5330380958629
 31
0.0
  0
LINE
  5
1000195F
330
F6
100
AcDbEntity
  8
目盛
100
AcDbLine
 10
-113.5355346323086
 20
224.9083034225303
 30
0.0
 11
-115.4734436047366
 21
224.4138250968348
 31
0.0
  0
LINE
  5
10001960
330
F6
100
AcDbEntity
  8
目盛
100
AcDbLine
 10
-113.7251487098108
 20
225.605516183937
 30
0.0
 11
-115.6465695015868
 21
225.0504106615973
 31
0.0
  0
LINE
  5
10001961
330
F6
100
AcDbEntity
  8
目盛
100
AcDbLine
 10
-113.9365692062869
 20
226.2964289908281
 30
0.0
 11
-115.8396056070647
 21
225.6812440939765
 31
0.0
  0
LINE
  5
10001962
330
F6
100
AcDbEntity
  8
目盛
100
AcDbLine
 10
-128.6813483259872
 20
241.0854347649098
 30
0.0
 11
-129.3022300207037
 21
239.1842493659638
 31
0.0
  0
LINE
  5
10001963
330
F6
100
AcDbEntity
  8
目盛
100
AcDbLine
 10
-127.3226089426636
 20
240.5939588132145
 30
0.0
 11
-128.0616418881043
 21
238.7355104535463
 31
0.0
  0
LINE
  5
10001964
330
F6
100
AcDbEntity
  8
目盛
100
AcDbLine
 10
-127.9981182737199
 20
240.8503691810073
 30
0.0
 11
-128.6784112773295
 21
238.969624267618
 31
0.0
  0
LINE
  5
10001965
330
F6
100
AcDbEntity
  8
目盛
100
AcDbLine
 10
-120.0518146655657
 20
235.9644849219015
 30
0.0
 11
-122.1087285546526
 21
233.7806568030053
 31
0.0
  0
LINE
  5
10001966
330
F6
100
AcDbEntity
  8
目盛
100
AcDbLine
 10
-121.1342142297568
 20
236.9216330328683
 30
0.0
 11
-122.4113684545809
 21
235.3825173497517
 31
0.0
  0
LINE
  5
10001967
330
F6
100
AcDbEntity
  8
目盛
100
AcDbLine
 10
-120.5854964056324
 20
236.4515608229428
 30
0.0
 11
-121.9103652238585
 21
234.9533209841677
 31
0.0
  0
TEXT
  5
10001968
330
F6
100
AcDbEntity
  8
文字
100
AcDbText
 10
-124.9653424359406
 20
231.3927150215072
 30
0.0
 40
2.0
  1
.8
 50
352.7142000000002
  7
STYLE3
100
AcDbText
  0
LINE
  5
10001969
330
F6
100
AcDbEntity
  8
目盛
100
AcDbLine
 10
-125.349029701978
 20
239.6992932719777
 30
0.0
 11
-126.2596782335652
 21
237.9186419158954
 31
0.0
  0
LINE
  5
1000196A
330
F6
100
AcDbEntity
  8
目盛
100
AcDbLine
 10
-126.6554869789722
 20
240.3164567076065
 30
0.0
 11
-127.4525305299514
 21
238.4821389658173
 31
0.0
  0
LINE
  5
1000196B
330
F6
100
AcDbEntity
  8
目盛
100
AcDbLine
 10
-125.9974107514817
 20
240.0181367252593
 30
0.0
 11
-127.2788121076231
 21
237.3055714146207
 31
0.0
  0
LINE
  5
1000196C
330
F6
100
AcDbEntity
  8
目盛
100
AcDbLine
 10
-124.0839024327455
 20
239.0013145362463
 30
0.0
 11
-125.1045620312225
 21
237.2813569832708
 31
0.0
  0
LINE
  5
1000196D
330
F6
100
AcDbEntity
  8
目盛
100
AcDbLine
 10
-124.7109837042769
 20
239.3602410077569
 30
0.0
 11
-125.6771144965338
 21
237.6090724572589
 31
0.0
  0
LINE
  5
1000196E
330
F6
100
AcDbEntity
  8
目盛
100
AcDbLine
 10
-123.468404740891
 20
238.6228680745404
 30
0.0
 11
-124.5425858777903
 21
236.9358189095394
 31
0.0
  0
LINE
  5
1000196F
330
F6
100
AcDbEntity
  8
目盛
100
AcDbLine
 10
-122.274577752813
 20
237.8089279997035
 30
0.0
 11
-123.4525699321539
 21
236.1926562325147
 31
0.0
  0
LINE
  5
10001970
330
F6
100
AcDbEntity
  8
目盛
100
AcDbLine
 10
-121.6974266196943
 20
237.3742376471584
 30
0.0
 11
-122.9256058540887
 21
235.7957650410603
 31
0.0
  0
LINE
  5
10001971
330
F6
100
AcDbEntity
  8
目盛
100
AcDbLine
 10
-122.8650980506252
 20
238.2252751036059
 30
0.0
 11
-124.5550619329651
 21
235.746561308835
 31
0.0
  0
LINE
  5
10001972
330
F6
100
AcDbEntity
  8
目盛
100
AcDbLine
 10
-119.5336956890018
 20
235.4608860148527
 30
0.0
 11
-120.9500254391089
 21
234.0487918115638
 31
0.0
  0
LINE
  5
10001973
330
F6
100
AcDbEntity
  8
目盛
100
AcDbLine
 10
-116.383512187649
 20
231.5167245353229
 30
0.0
 11
-118.0737709378737
 21
230.4476008954714
 31
0.0
  0
LINE
  5
10001974
330
F6
100
AcDbEntity
  8
目盛
100
AcDbLine
 10
-116.0069108268584
 20
230.9000961641731
 30
0.0
 11
-117.7299175214994
 21
229.8845923826822
 31
0.0
  0
LINE
  5
10001975
330
F6
100
AcDbEntity
  8
目盛
100
AcDbLine
 10
-116.7792964836088
 20
232.121219302982
 30
0.0
 11
-118.4351392080978
 21
230.9995309007252
 31
0.0
  0
LINE
  5
10001976
330
F6
100
AcDbEntity
  8
目盛
100
AcDbLine
 10
-119.0316507968177
 20
234.9412610931181
 30
0.0
 11
-120.491636624506
 21
233.5743516656324
 31
0.0
  0
LINE
  5
10001977
330
F6
100
AcDbEntity
  8
目盛
100
AcDbLine
 10
-117.1938731234215
 20
232.7129839037973
 30
0.0
 11
-118.8136657053179
 21
231.5398377101654
 31
0.0
  0
LINE
  5
10001978
330
F6
100
AcDbEntity
  8
目盛
100
AcDbLine
 10
-118.0777487442346
 20
233.855999743504
 30
0.0
 11
-119.6206825764952
 21
232.5834608681587
 31
0.0
  0
LINE
  5
10001979
330
F6
100
AcDbEntity
  8
目盛
100
AcDbLine
 10
-118.5461754467091
 20
234.4061229637599
 30
0.0
 11
-120.0483765222328
 21
233.0857472866529
 31
0.0
  0
LINE
  5
1000197A
330
F6
100
AcDbEntity
  8
目盛
100
AcDbLine
 10
-117.6268329699954
 20
233.2914343375512
 30
0.0
 11
-120.000048819374
 21
231.4562649905267
 31
0.0
  0
LINE
  5
1000197B
330
F6
100
AcDbEntity
  8
外形線
  6
Continuous
100
AcDbLine
 10
-128.5861405073465
 20
246.5227138217942
 30
0.0
 11
-128.8230615275824
 21
244.6772938232714
 31
0.0
  0
LINE
  5
1000197C
330
F6
100
AcDbEntity
  8
外形線
  6
Continuous
100
AcDbLine
 10
-135.4594288365242
 20
253.4543736189848
 30
0.0
 11
-127.5245539142607
 21
252.4356685743168
 31
0.0
  0
ARC
  5
1000197D
330
F6
100
AcDbEntity
  8
外形線
  6
Continuous
100
AcDbCircle
 10
-131.4722539651521
 20
253.0987592982699
 30
0.0
 40
7.344999999999885
100
AcDbArc
 50
52.43618538337816
 51
112.9322146166212
  0
LINE
  5
1000197E
330
F6
100
AcDbEntity
  8
外形線
  6
Continuous
100
AcDbLine
 10
-134.3341731781466
 20
259.863258054149
 30
0.0
 11
-126.9944138750527
 21
258.9209558878311
 31
0.0
  0
LINE
  5
1000197F
330
F6
100
AcDbEntity
  8
外形線
  6
Continuous
100
AcDbLine
 10
-134.3341731781466
 20
259.863258054149
 30
0.0
 11
-135.1618710269394
 21
253.4161721798098
 31
0.0
  0
LINE
  5
10001980
330
F6
100
AcDbEntity
  8
外形線
  6
Continuous
100
AcDbLine
 10
-126.9944138750527
 20
258.9209558878311
 30
0.0
 11
-127.8221117238455
 21
252.4738700134919
 31
0.0
  0
POINT
  5
10001981
330
F6
100
AcDbEntity
  8
DEFPOINTS
  6
ByBlock
 62
     0
100
AcDbPoint
 10
-130.5369553960162
 20
260.3839663362731
 30
0.0
  0
CIRCLE
  5
10001982
330
F6
100
AcDbEntity
  8
外形線
100
AcDbCircle
 10
-228.4214878152317
 20
165.2218026770306
 30
0.0
 40
9.5
  0
CIRCLE
  5
10001983
330
F6
100
AcDbEntity
  8
外形線
100
AcDbCircle
 10
-228.4214878152317
 20
165.2218026770306
 30
0.0
 40
8.5
  0
POINT
  5
10001984
330
F6
100
AcDbEntity
  8
DEFPOINTS
  6
ByBlock
 62
     0
100
AcDbPoint
 10
-228.4214878152317
 20
165.2218026770306
 30
0.0
  0
POINT
  5
10001985
330
F6
100
AcDbEntity
  8
DEFPOINTS
  6
ByBlock
 62
     0
100
AcDbPoint
 10
-228.4214878152317
 20
165.2218026770306
 30
0.0
  0
LINE
  5
1000198C
330
F6
100
AcDbEntity
  8
中心線
100
AcDbLine
 10
-232.6454411698827
 20
189.0551528485184
 30
0.0
 11
-160.6862937556802
 21
207.1526571002042
 31
0.0
  0
LINE
  5
1000198E
330
F6
100
AcDbEntity
  8
中心線
100
AcDbLine
 10
-163.5341818020578
 20
202.4866149526978
 30
0.0
 11
-165.3523359031865
 21
210.0005451465818
 31
0.0
  0
LINE
  5
1000198F
330
F6
100
AcDbEntity
  8
外形線
100
AcDbLine
 10
-224.703826472653
 20
189.021962904133
 30
0.0
 11
-225.5975258134025
 21
192.7153761613172
 31
0.0
  0
LINE
  5
10001990
330
F6
100
AcDbEntity
  8
外形線
100
AcDbLine
 10
-166.9036452593232
 20
203.6934062527225
 30
0.0
 11
-167.797344600073
 21
207.3868195099067
 31
0.0
  0
LINE
  5
10001991
330
F6
100
AcDbEntity
  8
外形線
100
AcDbLine
 10
-225.5975258134025
 20
192.7153761613172
 30
0.0
 11
-167.7973446000728
 21
207.3868195099066
 31
0.0
  0
LINE
  5
10001992
330
F6
100
AcDbEntity
  8
外形線
100
AcDbLine
 10
-224.703826472653
 20
189.021962904133
 30
0.0
 11
-166.9036452593233
 21
203.6934062527224
 31
0.0
  0
LINE
  5
10001993
330
F6
100
AcDbEntity
  8
中心線
100
AcDbLine
 10
-226.8602935841364
 20
191.8953935291722
 30
0.0
 11
-166.3954644194264
 21
207.2116047257263
 31
0.0
  0
LINE
  5
10001994
330
F6
100
AcDbEntity
  8
中心線
100
AcDbLine
 10
-226.2017782804262
 20
189.1739311291418
 30
0.0
 11
-165.7369491157162
 21
204.4901423256959
 31
0.0
  0
LWPOLYLINE
  5
10001998
330
F6
100
AcDbEntity
  8
C
100
AcDbPolyline
 90
        5
 70
     0
 43
0.8
 10
-414.8199129707227
 20
323.3395696177788
 10
-9.685535654425166
 20
323.3395696177788
 10
-9.685535654425166
 20
40.83956961777886
 10
-414.8199129707227
 20
40.83956961777886
 10
-414.8199129707227
 20
323.3395696177788
  0
POINT
  5
100019DE
330
F6
100
AcDbEntity
  8
DEFPOINTS
  6
ByBlock
 62
     0
100
AcDbPoint
 10
-228.4214878152317
 20
165.2218026770306
 30
0.0
  0
POINT
  5
100019E0
330
F6
100
AcDbEntity
  8
DEFPOINTS
  6
ByBlock
 62
     0
100
AcDbPoint
 10
-228.4214878152317
 20
165.2218026770306
 30
0.0
  0
LINE
  5
100019E1
330
F6
100
AcDbEntity
  8
0
  6
ByBlock
 62
     2
100
AcDbLine
 10
-228.4214878152317
 20
165.2218026770307
 30
0.0
 11
-154.6983737958897
 21
122.9145638249015
 31
0.0
  0
MTEXT
  5
100019E2
330
F6
100
AcDbEntity
  8
0
  6
ByBlock
 62
     6
100
AcDbMText
 10
-165.3634956865076
 20
131.1967269881836
 30
0.0
 40
2.5
 41
0.0
 71
     5
 72
     1
  1
\A1;R85
  7
STYLE3
 11
0.867330753168729
 21
-0.4977322217897548
 31
0.0
 73
     1
 44
1.0
  0
INSERT
  5
100019E3
330
F6
100
AcDbEntity
  8
0
  6
ByBlock
 62
     2
100
AcDbBlockReference
  2
_OPEN
 10
-154.6983737958897
 20
122.9145638249015
 30
0.0
 41
2.5
 42
2.5
 43
2.5
 50
330.1499219253492
  0
POINT
  5
100019E4
330
F6
100
AcDbEntity
  8
DEFPOINTS
  6
ByBlock
 62
     0
100
AcDbPoint
 10
-154.6983737958897
 20
122.9145638249015
 30
0.0
  0
POINT
  5
100019E5
330
F6
100
AcDbEntity
  8
DEFPOINTS
  6
ByBlock
 62
     0
100
AcDbPoint
 10
-228.4214878152316
 20
165.2218026770306
 30
0.0
  0
DIMENSION
  5
100019E6
330
F6
100
AcDbEntity
  8
寸法線
100
AcDbDimension
  2
*D26
 10
-32.11853743652592
 20
150.2218026770306
 30
0.0
 11
-33.99353743652594
 21
165.2218026770306
 31
0.0
 70
    32
 71
     5
 42
30.0
  3
STYLE3
100
AcDbAlignedDimension
 13
-28.42148781523167
 23
180.2218026770306
 33
0.0
 14
-28.42148781523167
 24
150.2218026770306
 34
0.0
 50
90.0
100
AcDbRotatedDimension
  0
DIMENSION
  5
100019E7
330
F6
100
AcDbEntity
  8
寸法線
100
AcDbDimension
  2
*D27
 10
-113.4214878152316
 20
112.8278685888129
 30
0.0
 11
-170.9214878152316
 21
114.7028685888129
 31
0.0
 70
    32
 71
     5
 42
115.0
  3
STYLE3
100
AcDbAlignedDimension
 13
-228.4214878152317
 23
142.7968026770306
 33
0.0
 14
-113.4214878152316
 24
151.5218026770306
 34
0.0
100
AcDbRotatedDimension
  0
DIMENSION
  5
100019E8
330
F6
100
AcDbEntity
  8
寸法線
100
AcDbDimension
  2
*D28
 10
-13.42148781523167
 20
112.8278685888129
 30
0.0
 11
-63.42148781523167
 21
114.7028685888129
 31
0.0
 70
    32
 71
     5
 42
100.0
  3
STYLE3
100
AcDbAlignedDimension
 13
-113.4214878152316
 23
151.5218026770306
 33
0.0
 14
-13.42148781523167
 24
151.5218026770306
 34
0.0
100
AcDbRotatedDimension
1001
ACAD
1000
DSTYLE
1002
{
1070
    75
1070
     1
1070
   279
1070
     1
1002
}
  0
POINT
  5
10001A06
330
F6
100
AcDbEntity
  8
DEFPOINTS
  6
ByBlock
 62
     0
100
AcDbPoint
 10
-228.4214878152317
 20
165.2218026770306
 30
0.0
  0
LINE
  5
10001A12
330
F6
100
AcDbEntity
  8
中心線
 48
0.4
100
AcDbLine
 10
-345.8272884531668
 20
256.8268747193909
 30
0.0
 11
-345.8272884531668
 21
234.2032910574646
 31
0.0
  0
LINE
  5
10001A13
330
F6
100
AcDbEntity
  8
中心線
 48
0.25
100
AcDbLine
 10
-351.8200423104536
 20
251.3085552467299
 30
0.0
 11
-339.6038100372689
 21
251.3085552467299
 31
0.0
  0
ARC
  5
10001A14
330
F6
100
AcDbEntity
  8
外形線
100
AcDbCircle
 10
-345.8272884531668
 20
251.3085552467299
 30
0.0
 40
2.5
100
AcDbArc
 50
0.0
 51
180.0
  0
LINE
  5
10001A15
330
F6
100
AcDbEntity
  8
外形線
100
AcDbLine
 10
-349.8272884531668
 20
245.8085552467299
 30
0.0
 11
-335.5271487592836
 21
245.8085552467299
 31
0.0
  0
LINE
  5
10001A16
330
F6
100
AcDbEntity
  8
外形線
100
AcDbLine
 10
-348.3272884531668
 20
251.3085552467299
 30
0.0
 11
-348.3272884531668
 21
245.8085552467299
 31
0.0
  0
LINE
  5
10001A17
330
F6
100
AcDbEntity
  8
外形線
100
AcDbLine
 10
-343.3272884531668
 20
251.3085552467299
 30
0.0
 11
-343.3272884531668
 21
245.8085552467299
 31
0.0
  0
LINE
  5
10001A18
330
F6
100
AcDbEntity
  8
外形線
100
AcDbLine
 10
-349.8272884531668
 20
245.8085552467299
 30
0.0
 11
-349.8272884531668
 21
236.2059722856677
 31
0.0
  0
SPLINE
  5
10001A19
330
F6
100
AcDbEntity
  8
外形線
100
AcDbSpline
210
0.0
220
0.0
230
1.0
 70
     8
 71
     3
 72
    10
 73
     6
 74
     4
 42
0.0000000001
 43
0.0000000001
 44
0.0000000001
 40
0.0
 40
0.0
 40
0.0
 40
0.0
 40
6.058706403875467
 40
12.8458200542764
 40
23.30864949506514
 40
23.30864949506514
 40
23.30864949506514
 40
23.30864949506514
 10
-349.8272884531668
 20
236.2059722856677
 30
0.0
 10
-347.9110550459262
 20
236.9329854856001
 30
0.0
 10
-343.8482093012205
 20
238.4744169597249
 30
0.0
 10
-334.8054743700077
 20
232.6495081428928
 30
0.0
 10
-335.2546839224266
 20
240.8404177104412
 30
0.0
 10
-335.5271487592836
 20
245.8085552467299
 30
0.0
 11
-349.8272884531668
 21
236.2059722856677
 31
0.0
 11
-343.8737612480845
 21
237.3299994680377
 31
0.0
 11
-337.3370456952161
 21
235.5034558785366
 31
0.0
 11
-335.5271487592836
 21
245.8085552467299
 31
0.0
  0
LINE
  5
10001A1A
330
F6
100
AcDbEntity
  8
0
  6
ByBlock
 62
     2
100
AcDbLine
 10
-348.3272884531668
 20
251.3085552467299
 30
0.0
 11
-348.3272884531668
 21
263.9009713405441
 31
0.0
  0
LINE
  5
10001A1B
330
F6
100
AcDbEntity
  8
0
  6
ByBlock
 62
     2
100
AcDbLine
 10
-343.3272884531668
 20
251.3085552467299
 30
0.0
 11
-343.3272884531668
 21
263.9009713405441
 31
0.0
  0
LINE
  5
10001A1C
330
F6
100
AcDbEntity
  8
0
  6
ByBlock
 62
     2
100
AcDbLine
 10
-350.8272884531668
 20
262.6509713405441
 30
0.0
 11
-353.3272884531668
 21
262.6509713405441
 31
0.0
  0
LINE
  5
10001A1D
330
F6
100
AcDbEntity
  8
0
  6
ByBlock
 62
     2
100
AcDbLine
 10
-340.8272884531668
 20
262.6509713405441
 30
0.0
 11
-338.3272884531668
 21
262.6509713405441
 31
0.0
  0
LINE
  5
10001A1E
330
F6
100
AcDbEntity
  8
0
  6
ByBlock
 62
     2
100
AcDbLine
 10
-348.3272884531668
 20
262.6509713405441
 30
0.0
 11
-343.3272884531668
 21
262.6509713405441
 31
0.0
  0
INSERT
  5
10001A1F
330
F6
100
AcDbEntity
  8
0
  6
ByBlock
 62
     2
100
AcDbBlockReference
  2
_OPEN
 10
-348.3272884531668
 20
262.6509713405441
 30
0.0
 41
2.5
 42
2.5
 43
2.5
  0
INSERT
  5
10001A20
330
F6
100
AcDbEntity
  8
0
  6
ByBlock
 62
     2
100
AcDbBlockReference
  2
_OPEN
 10
-343.3272884531668
 20
262.6509713405441
 30
0.0
 41
2.5
 42
2.5
 43
2.5
 50
180.0
  0
MTEXT
  5
10001A21
330
F6
100
AcDbEntity
  8
0
  6
ByBlock
 62
     6
100
AcDbMText
 10
-347.1311800151852
 20
265.8292030099614
 30
0.0
 40
2.5
 41
0.0
 71
     5
 72
     1
  1
φ2.5
  7
STYLE3
 73
     1
 44
1.0
  0
POINT
  5
10001A22
330
F6
100
AcDbEntity
  8
DEFPOINTS
  6
ByBlock
 62
     0
100
AcDbPoint
 10
-348.3272884531668
 20
251.3085552467299
 30
0.0
  0
POINT
  5
10001A23
330
F6
100
AcDbEntity
  8
DEFPOINTS
  6
ByBlock
 62
     0
100
AcDbPoint
 10
-343.3272884531668
 20
251.3085552467299
 30
0.0
  0
POINT
  5
10001A24
330
F6
100
AcDbEntity
  8
DEFPOINTS
  6
ByBlock
 62
     0
100
AcDbPoint
 10
-343.3272884531668
 20
262.6509713405441
 30
0.0
  0
POINT
  5
10001A28
330
F6
100
AcDbEntity
  8
DEFPOINTS
  6
ByBlock
 62
     0
100
AcDbPoint
 10
-344.0168992457934
 20
253.032646577787
 30
0.0
  0
POINT
  5
10001A29
330
F6
100
AcDbEntity
  8
DEFPOINTS
  6
ByBlock
 62
     0
100
AcDbPoint
 10
-345.8272884531668
 20
251.3085552467299
 30
0.0
  0
MTEXT
  5
10001A2C
330
F6
100
AcDbEntity
  8
0
  6
ByBlock
 62
     6
100
AcDbMText
 10
-341.9863200569797
 20
229.0033749051858
 30
0.0
 40
2.5
 41
0.0
 71
     5
 72
     1
  1
先端測定端子拡大図 S=2/1 
  7
STYLE3
 73
     1
 44
1.0
  0
MTEXT
  5
10001A2D
330
F6
100
AcDbEntity
  8
0
  6
ByBlock
 62
     6
100
AcDbMText
 10
-345.5720226559632
 20
224.4420637297393
 30
0.0
 40
2.5
 41
0.0
 71
     5
 72
     1
  1
(上下共形状寸法は同じ)
  7
STYLE3
 73
     1
 44
1.0
  0
LINE
  5
10001B1D
330
F6
100
AcDbEntity
  8
外形線
100
AcDbLine
 10
-391.3701865972491
 20
160.9718026770306
 30
0.0
 11
-400.347942494896
 21
160.4718026770306
 31
0.0
  0
LINE
  5
10001B20
330
F6
100
AcDbEntity
  8
外形線
100
AcDbLine
 10
-400.347942494896
 20
162.4718026770306
 30
0.0
 11
-250.3446973048221
 21
153.1112048457861
 31
0.0
  0
LINE
  5
10001B22
330
F6
100
AcDbEntity
  8
外形線
100
AcDbLine
 10
-391.3701865972491
 20
160.9718026770306
 30
0.0
 11
-380.8044269789387
 21
161.4758687200529
 31
0.0
  0
LINE
  5
10001B23
330
F6
100
AcDbEntity
  8
外形線
100
AcDbLine
 10
-400.347942494896
 20
167.4718026770306
 30
0.0
 11
-390.347942494896
 21
167.4718026770306
 31
0.0
  0
POINT
  5
10001B24
330
F6
100
AcDbEntity
  8
外形線
100
AcDbPoint
 10
-398.3665888316047
 20
171.4710611254565
 30
0.0
 50
358.0452713883673
  0
POINT
  5
10001B25
330
F6
100
AcDbEntity
  8
外形線
100
AcDbPoint
 10
-398.2916342446124
 20
171.4714136198351
 30
0.0
 50
91.41583453944006
  0
ARC
  5
10001B26
330
F6
100
AcDbEntity
  8
外形線
100
AcDbCircle
 10
-398.347942494896
 20
170.2218026770306
 30
0.0
 40
1.25
100
AcDbArc
 50
0.0000000000001441
 51
180.0000000000001
  0
LINE
  5
10001B27
330
F6
100
AcDbEntity
  8
外形線
100
AcDbLine
 10
-399.597942494896
 20
170.2218026770306
 30
0.0
 11
-399.597942494896
 21
167.4718026770307
 31
0.0
  0
LINE
  5
10001B28
330
F6
100
AcDbEntity
  8
外形線
100
AcDbLine
 10
-397.097942494896
 20
170.2218026770306
 30
0.0
 11
-397.0979424948959
 21
167.4718026770306
 31
0.0
  0
ARC
  5
10001B29
330
F6
100
AcDbEntity
  8
外形線
100
AcDbCircle
 10
-398.3231212585842
 20
152.7218026770306
 30
0.0
 40
1.25
100
AcDbArc
 50
180.0000000000001
 51
0.0000000000001441
  0
LINE
  5
10001B2A
330
F6
100
AcDbEntity
  8
外形線
100
AcDbLine
 10
-399.5731212585841
 20
152.7218026770306
 30
0.0
 11
-399.5731212585841
 21
155.4718026770306
 31
0.0
  0
LINE
  5
10001B2B
330
F6
100
AcDbEntity
  8
外形線
100
AcDbLine
 10
-397.0731212585842
 20
152.7218026770306
 30
0.0
 11
-397.0731212585842
 21
155.4718026770307
 31
0.0
  0
LINE
  5
10001B2C
330
F6
100
AcDbEntity
  8
外形線
100
AcDbLine
 10
-400.347942494896
 20
167.4718026770306
 30
0.0
 11
-400.347942494896
 21
162.4718026770306
 31
0.0
  0
LINE
  5
10001B2D
330
F6
100
AcDbEntity
  8
外形線
100
AcDbLine
 10
-400.347942494896
 20
155.4718026770306
 30
0.0
 11
-400.347942494896
 21
160.4718026770306
 31
0.0
  0
ARC
  5
10001B42
330
F6
100
AcDbEntity
  8
寸法線
100
AcDbCircle
 10
-228.4214878152317
 20
165.2218026770306
 30
0.0
 40
170.0
100
AcDbArc
 50
170.2103724826394
 51
193.4348364930826
  0
LINE
  5
10001BB7
330
F6
100
AcDbEntity
  8
外形線
100
AcDbLine
 10
-232.7016225882346
 20
191.7862151306008
 30
0.0
 11
-237.0239618559998
 21
180.6313998105175
 31
0.0
  0
ARC
  5
10001BBF
330
F6
100
AcDbEntity
  8
外形線
100
AcDbCircle
 10
-201.8054065256281
 20
190.4885210091919
 30
0.0
 40
20.37361909614623
100
AcDbArc
 50
199.8076394017793
 51
251.5000098001138
  0
ARC
  5
10001C19
330
F6
100
AcDbEntity
  8
隠れ線2
100
AcDbCircle
 10
-232.39774713648
 20
259.1376658834676
 30
0.0
 40
80.0
100
AcDbArc
 50
272.4243710037171
 51
279.3565433146538
  0
LINE
  5
10001CCC
330
F6
100
AcDbEntity
  8
外形線
100
AcDbLine
 10
-390.347942494896
 20
167.4718026770306
 30
0.0
 11
-255.8178142717181
 21
167.4718026770307
 31
0.0
  0
ARC
  5
10001CDA
330
F6
100
AcDbEntity
  8
外形線
100
AcDbCircle
 10
-255.8178142717181
 20
187.4718026770306
 30
0.0
 40
20.0
100
AcDbArc
 50
270.0
 51
340.0000000000009
  0
ARC
  5
10001CDD
330
F6
100
AcDbEntity
  8
隠れ線2
100
AcDbCircle
 10
-228.4214878152317
 20
165.2218026770306
 30
0.0
 40
14.0
100
AcDbArc
 50
92.42437100371706
 51
138.9617013714241
  0
ARC
  5
10001CDE
330
F6
100
AcDbEntity
  8
隠れ線2
100
AcDbCircle
 10
-254.0666976472075
 20
187.5449568599396
 30
0.0
 40
20.0
100
AcDbArc
 50
272.7313678120765
 51
318.9617013714242
  0
CIRCLE
  5
10001DEE
330
F6
100
AcDbEntity
  8
外形線
100
AcDbCircle
 10
-228.4214878152317
 20
190.2218026770306
 30
0.0
 40
2.0
  0
CIRCLE
  5
10001DEF
330
F6
100
AcDbEntity
  8
外形線
100
AcDbCircle
 10
-228.4214878152317
 20
190.2218026770306
 30
0.0
 40
1.25
  0
ARC
  5
10001E11
330
F6
100
AcDbEntity
  8
外形線
100
AcDbCircle
 10
-228.4214878152317
 20
190.2218026770306
 30
0.0
 40
4.557075816788049
100
AcDbArc
 50
14.02026133755178
 51
159.922368064474
  0
LINE
  5
10001E16
330
F6
100
AcDbEntity
  8
外形線
100
AcDbLine
 10
-224.423782429015
 20
192.4093336242332
 30
0.0
 11
-220.9736325854296
 21
183.5846478357335
 31
0.0
  0
LINE
  5
10001E30
330
F6
100
AcDbEntity
  8
外形線
100
AcDbLine
 10
-113.4214878152317
 20
153.5218026770306
 30
0.0
 11
-137.08593692133
 21
153.4600693315364
 31
0.0
  0
ARC
  5
10001E40
330
F6
100
AcDbEntity
  8
隠れ線2
100
AcDbCircle
 10
-113.890687556235
 20
189.4218026770307
 30
0.0
 40
12.5
100
AcDbArc
 50
126.350574298719
 51
152.7844587294978
  0
LINE
  5
10001EFB
330
F6
100
AcDbEntity
  8
外形線
100
AcDbLine
 10
-390.347942494896
 20
155.4718026770307
 30
0.0
 11
-400.347942494896
 21
155.4718026770306
 31
0.0
  0
LINE
  5
10001F1A
330
F6
100
AcDbEntity
  8
外形線
100
AcDbLine
 10
-390.347942494896
 20
155.4718026770306
 30
0.0
 11
-258.9047277111264
 21
153.6453733029758
 31
0.0
  0
ARC
  5
10001F56
330
F6
100
AcDbEntity
  8
外形線
100
AcDbCircle
 10
-113.890687556235
 20
189.4218026770307
 30
0.0
 40
12.5
100
AcDbArc
 50
152.7844587294978
 51
269.9999999999999
  0
LINE
  5
10001F5A
330
F6
100
AcDbEntity
  8
外形線
100
AcDbLine
 10
-113.8906875562351
 20
176.9218026770307
 30
0.0
 11
-113.4214878152316
 21
176.9218026770307
 31
0.0
  0
DIMENSION
  5
10001F72
330
F6
100
AcDbEntity
  8
寸法線
100
AcDbDimension
  2
*D29
 10
-409.6752062759783
 20
151.4718026770306
 30
0.0
 11
-411.5502062759784
 21
161.4718026770306
 31
0.0
 70
    32
 71
     5
 42
19.99999999999997
  3
STYLE3
100
AcDbAlignedDimension
 13
-398.347942494896
 23
171.4718026770306
 33
0.0
 14
-398.3231212585842
 24
151.4718026770306
 34
0.0
 50
90.0
100
AcDbRotatedDimension
  0
LINE
  5
10001F9A
330
F6
100
AcDbEntity
  8
寸法線
 62
     2
100
AcDbLine
 10
-398.347942494896
 20
171.4718026770306
 30
0.0
 11
-405.6878053655013
 21
171.4718026770306
 31
0.0
  0
LINE
  5
10001F9B
330
F6
100
AcDbEntity
  8
寸法線
 62
     2
100
AcDbLine
 10
-399.597942494896
 20
167.4718026770306
 30
0.0
 11
-405.6878053655013
 21
167.4718026770306
 31
0.0
  0
LINE
  5
10001F9C
330
F6
100
AcDbEntity
  8
寸法線
 62
     2
100
AcDbLine
 10
-404.4378053655013
 20
173.9718026770306
 30
0.0
 11
-404.4378053655013
 21
175.3319491864065
 31
0.0
  0
LINE
  5
10001F9D
330
F6
100
AcDbEntity
  8
寸法線
 62
     2
100
AcDbLine
 10
-404.4378053655013
 20
164.9718026770306
 30
0.0
 11
-404.4378053655013
 21
163.4946356964019
 31
0.0
  0
LINE
  5
10001F9E
330
F6
100
AcDbEntity
  8
寸法線
 62
     2
100
AcDbLine
 10
-404.4378053655013
 20
171.4718026770306
 30
0.0
 11
-404.4378053655013
 21
167.4718026770306
 31
0.0
  0
INSERT
  5
10001F9F
330
F6
100
AcDbEntity
  8
寸法線
 62
     2
100
AcDbBlockReference
  2
_OPEN
 10
-404.4378053655013
 20
171.4718026770306
 30
0.0
 41
2.5
 42
2.5
 43
2.5
 50
270.0
  0
INSERT
  5
10001FA0
330
F6
100
AcDbEntity
  8
寸法線
 62
     2
100
AcDbBlockReference
  2
_OPEN
 10
-404.4378053655013
 20
167.4718026770306
 30
0.0
 41
2.5
 42
2.5
 43
2.5
 50
90.0
  0
MTEXT
  5
10001FA1
330
F6
100
AcDbEntity
  8
寸法線
 62
     6
100
AcDbMText
 10
-406.3128053655014
 20
169.4718026770306
 30
0.0
 40
2.5
 41
0.0
 71
     5
 72
     1
  1
\A1;4
  7
STYLE3
 11
0.0000000000000001
 21
1.0
 31
0.0
 73
     1
 44
1.0
  0
LINE
  5
10001FA2
330
F6
100
AcDbEntity
  8
寸法線
 62
     2
100
AcDbLine
 10
-399.5731212585841
 20
155.4718026770306
 30
0.0
 11
-405.6761083119767
 21
155.4718026770306
 31
0.0
  0
LINE
  5
10001FA3
330
F6
100
AcDbEntity
  8
寸法線
 62
     2
100
AcDbLine
 10
-398.3231212585842
 20
151.4718026770306
 30
0.0
 11
-405.6761083119767
 21
151.4718026770306
 31
0.0
  0
LINE
  5
10001FA4
330
F6
100
AcDbEntity
  8
寸法線
 62
     2
100
AcDbLine
 10
-404.4261083119768
 20
157.9718026770306
 30
0.0
 11
-404.4261083119768
 21
159.1441571326587
 31
0.0
  0
LINE
  5
10001FA5
330
F6
100
AcDbEntity
  8
寸法線
 62
     2
100
AcDbLine
 10
-404.4261083119768
 20
148.9718026770306
 30
0.0
 11
-404.4261083119768
 21
147.5494441231051
 31
0.0
  0
LINE
  5
10001FA6
330
F6
100
AcDbEntity
  8
寸法線
 62
     2
100
AcDbLine
 10
-404.4261083119768
 20
155.4718026770306
 30
0.0
 11
-404.4261083119768
 21
151.4718026770306
 31
0.0
  0
INSERT
  5
10001FA7
330
F6
100
AcDbEntity
  8
寸法線
 62
     2
100
AcDbBlockReference
  2
_OPEN
 10
-404.4261083119768
 20
155.4718026770306
 30
0.0
 41
2.5
 42
2.5
 43
2.5
 50
270.0
  0
INSERT
  5
10001FA8
330
F6
100
AcDbEntity
  8
寸法線
 62
     2
100
AcDbBlockReference
  2
_OPEN
 10
-404.4261083119768
 20
151.4718026770306
 30
0.0
 41
2.5
 42
2.5
 43
2.5
 50
90.0
  0
MTEXT
  5
10001FA9
330
F6
100
AcDbEntity
  8
寸法線
 62
     6
100
AcDbMText
 10
-406.3011083119768
 20
153.4718026770306
 30
0.0
 40
2.5
 41
0.0
 71
     5
 72
     1
  1
\A1;4
  7
STYLE3
 11
0.0000000000000001
 21
1.0
 31
0.0
 73
     1
 44
1.0
  0
LINE
  5
10001FB5
330
F6
100
AcDbEntity
  8
中心線
100
AcDbLine
 10
-398.347942494896
 20
140.8060742129094
 30
0.0
 11
-398.347942494896
 21
181.9456193155563
 31
0.0
  0
LINE
  5
10001FCE
330
F6
100
AcDbEntity
  8
想像線
 48
0.5
100
AcDbLine
 10
-248.347942494896
 20
144.493924530333
 30
0.0
 11
-248.347942494896
 21
177.3947540051232
 31
0.0
  0
LINE
  5
10001FE3
330
F6
100
AcDbEntity
  8
隠れ線2
100
AcDbLine
 10
-380.8044269789391
 20
161.475868720053
 30
0.0
 11
-253.1136314979919
 21
167.5676781434773
 31
0.0
  0
ARC
  5
10001FE9
330
F6
100
AcDbEntity
  8
外形線
100
AcDbCircle
 10
-232.39774713648
 20
259.1376658834676
 30
0.0
 40
80.0
100
AcDbArc
 50
279.3565433146538
 51
331.3787891329229
  0
LINE
  5
10001FF2
330
F6
100
AcDbEntity
  8
隠れ線2
100
AcDbLine
 10
-240.2545937590867
 20
153.3862260161715
 30
0.0
 11
-228.4214878152317
 21
153.2218026770306
 31
0.0
  0
LINE
  5
10001FF4
330
F6
100
AcDbEntity
  8
隠れ線2
100
AcDbLine
 10
-137.08593692133
 20
153.4600693315365
 30
0.0
 11
-228.4214878152317
 21
153.2218026770306
 31
0.0
  0
LINE
  5
10002064
330
F6
100
AcDbEntity
  8
想像線
 48
0.5
100
AcDbLine
 10
-397.8134933155464
 20
190.0676409312225
 30
0.0
 11
-398.1247428857747
 21
187.5845212914603
 31
0.0
  0
LINE
  5
10002065
330
F6
100
AcDbEntity
  8
想像線
 48
0.5
100
AcDbLine
 10
-395.303484689702
 20
189.9748476970994
 30
0.0
 11
-395.5842740140067
 21
187.3442031323645
 31
0.0
  0
ARC
  5
10002066
330
F6
100
AcDbEntity
  8
想像線
 48
0.5
100
AcDbCircle
 10
-396.553265296826
 20
190.1275773793195
 30
0.0
 40
1.258569260083386
100
AcDbArc
 50
353.00691917848
 51
182.4948174759831
  0
LINE
  5
100020C0
330
F6
100
AcDbEntity
  8
寸法線
 62
     2
100
AcDbLine
 10
-228.4214878152328
 20
165.2218026770306
 30
0.0
 11
-392.0429798365292
 21
129.3852661713292
 31
0.0
  0
MTEXT
  5
100020C1
330
F6
100
AcDbEntity
  8
寸法線
 62
     6
100
AcDbMText
 10
-342.9960237107664
 20
142.7209130551382
 30
0.0
 40
2.5
 41
0.0
 71
     5
 72
     1
  1
\A1;R170
  7
STYLE3
 11
0.9768447284853582
 21
0.2139494716758302
 31
0.0
 73
     1
 44
1.0
  0
INSERT
  5
100020C2
330
F6
100
AcDbEntity
  8
寸法線
 62
     2
100
AcDbBlockReference
  2
_OPEN
 10
-394.4850916577426
 20
128.8503924921396
 30
0.0
 41
2.5
 42
2.5
 43
2.5
 50
192.3539024227904
  0
LINE
  5
100020CA
330
F6
100
AcDbEntity
  8
想像線
 48
0.2
100
AcDbLine
 10
-354.4601241820924
 20
162.732689710375
 30
0.0
 11
-354.4601241820923
 21
154.9234611347626
 31
0.0
  0
LINE
  5
100020CC
330
F6
100
AcDbEntity
  8
想像線
 48
0.2
100
AcDbLine
 10
-351.4601241820924
 20
162.8758122291238
 30
0.0
 11
-351.4601241820924
 21
154.8817755435271
 31
0.0
  0
DIMENSION
  5
100020D4
330
F6
100
AcDbEntity
  8
寸法線
100
AcDbDimension
  2
*D30
 10
-351.4601241820924
 20
147.621516230022
 30
0.0
 11
-352.9601241820924
 21
149.496516230022
 31
0.0
 70
    32
 71
     5
 42
2.999999999999943
  3
STYLE3
100
AcDbAlignedDimension
 13
-354.4601241820923
 23
154.9234611347626
 33
0.0
 14
-351.4601241820924
 24
154.8817755435271
 34
0.0
100
AcDbRotatedDimension
  0
LINE
  5
100020E3
330
F6
100
AcDbEntity
  8
想像線
 48
0.2
100
AcDbLine
 10
-330.9508987442523
 20
167.4718026770306
 30
0.0
 11
-330.9508987442523
 21
158.141244252085
 31
0.0
  0
LINE
  5
100020E4
330
F6
100
AcDbEntity
  8
想像線
 48
0.2
100
AcDbLine
 10
-327.9508987442523
 20
167.4718026770306
 30
0.0
 11
-327.9508987442524
 21
157.9540363456284
 31
0.0
  0
DIMENSION
  5
100020E5
330
F6
100
AcDbEntity
  8
寸法線
100
AcDbDimension
  2
*D31
 10
-327.9508987442523
 20
172.3561307767727
 30
0.0
 11
-329.4508987442523
 21
174.2311307767727
 31
0.0
 70
    32
 71
     5
 42
3.0
  3
STYLE3
100
AcDbAlignedDimension
 13
-330.9508987442523
 23
167.4718026770306
 33
0.0
 14
-327.9508987442523
 24
167.4718026770306
 34
0.0
100
AcDbRotatedDimension
  0
ARC
  5
10002124
330
F6
100
AcDbEntity
  8
隠れ線2
100
AcDbCircle
 10
-232.39774713648
 20
259.1376658834676
 30
0.0
 40
80.0
100
AcDbArc
 50
331.3787891329229
 51
337.5442385763904
  0
ARC
  5
10002192
330
F6
100
AcDbEntity
  8
外形線
100
AcDbCircle
 10
-262.800995001477
 20
-46.50051987922171
 30
0.0
 40
200.0
100
AcDbArc
 50
73.67079691650442
 51
86.42922252790134
  0
LINE
  5
10002194
330
F6
100
AcDbEntity
  8
隠れ線2
100
AcDbLine
 10
-258.9047277111254
 20
153.6453733029758
 30
0.0
 11
-240.2545937590863
 21
153.3862260161714
 31
0.0
  0
DIMENSION
  5
10002221
330
F6
100
AcDbEntity
  8
寸法線
100
AcDbDimension
  2
*D32
 10
-248.347942494896
 20
118.5320383173386
 30
0.0
 11
-323.347942494896
 21
120.4070383173386
 31
0.0
 70
    32
 71
     5
 42
150.0
  3
STYLE3
100
AcDbAlignedDimension
 13
-398.347942494896
 23
140.8060742129094
 33
0.0
 14
-248.347942494896
 24
144.493924530333
 34
0.0
100
AcDbRotatedDimension
  0
DIMENSION
  5
10002306
330
F6
100
AcDbEntity
  8
寸法線
100
AcDbDimension
  2
*D33
 10
-381.5626489081592
 20
151.4718026770306
 30
0.0
 11
-383.4376489081592
 21
171.4241352023742
 31
0.0
 70
    32
  1
40
 71
     5
 42
39.90466505068719
  3
STYLE3
100
AcDbAlignedDimension
 13
-396.3974786475121
 23
191.3764677277178
 33
0.0
 14
-398.3231212585842
 24
151.4718026770306
 34
0.0
 50
90.0
100
AcDbRotatedDimension
  0
LINE
  5
10002321
330
F6
100
AcDbEntity
  8
外形線
 48
0.5
100
AcDbLine
 10
-139.2475081940361
 20
168.9765982826417
 30
0.0
 11
-139.7247996508721
 21
165.2588901675387
 31
0.0
  0
ARC
  5
10002322
330
F6
100
AcDbEntity
  8
外形線
 48
0.5
100
AcDbCircle
 10
-124.8469091716279
 20
163.3488182087861
 30
0.0
 40
15.0
100
AcDbArc
 50
172.6842000000001
 51
262.020512109083
  0
ARC
  5
10002339
330
F6
100
AcDbEntity
  8
中心線
 48
0.3
100
AcDbCircle
 10
-228.4214878152317
 20
165.2218026770306
 30
0.0
 40
30.0
100
AcDbArc
 50
343.7199257121304
 51
6.986286617924058
  0
CIRCLE
  5
1000233D
330
F6
100
AcDbEntity
  8
外形線
100
AcDbCircle
 10
-198.4285915675249
 20
164.5689821241244
 30
0.0
 40
1.5
  0
CIRCLE
  5
10002354
330
F6
100
AcDbEntity
  8
隠れ線2
 48
0.5
100
AcDbCircle
 10
-198.5727322323109
 20
162.7956392862012
 30
0.0
 40
3.279999999999999
  0
LINE
  5
100023CD
330
F6
100
AcDbEntity
  8
中心線
100
AcDbLine
 10
-227.5124107646673
 20
186.4648375800886
 30
0.0
 11
-229.330564865796
 21
193.9787677739726
 31
0.0
  0
LINE
  5
100024E2
330
F6
100
AcDbEntity
  8
外形線
100
AcDbLine
 10
-281.0176246137198
 20
301.3080809780698
 30
0.0
 11
-159.0176246137198
 21
301.3080809780698
 31
0.0
  0
LINE
  5
100024E3
330
F6
100
AcDbEntity
  8
外形線
100
AcDbLine
 10
-281.0176246137198
 20
302.3080809780698
 30
0.0
 11
-159.0176246137198
 21
302.3080809780698
 31
0.0
  0
TEXT
  5
100024E4
330
F6
100
AcDbEntity
  8
文字
100
AcDbText
 10
-280.3969166137198
 20
304.7811939780698
 30
0.0
 40
4.0
  1
Model No.LB-5 Inside Dial Caliper Gauge
  7
STYLE3
100
AcDbText
  0
TEXT
  5
100024E5
330
F6
100
AcDbEntity
  8
C
  6
Continuous
100
AcDbText
 10
-149.910969937205
 20
43.12638839301469
 30
0.0
 40
2.1
  1
3RD Angle Projection
  7
STYLE3
100
AcDbText
  0
TEXT
  5
100024E6
330
F6
100
AcDbEntity
  8
C
  6
Continuous
100
AcDbText
 10
-147.287526937205
 20
46.6226713930147
 30
0.0
 40
3.0
  1
三　　角　　法
  7
STYLE3
100
AcDbText
  0
LINE
  5
100024E7
330
F6
100
AcDbEntity
  8
C
100
AcDbLine
 10
-151.076945937205
 20
61.77323239301469
 30
0.0
 11
-10.28552793720507
 21
61.77323239301469
 31
0.0
  0
LINE
  5
100024E8
330
F6
100
AcDbEntity
  8
C
100
AcDbLine
 10
-151.076945937205
 20
50.9930263930147
 30
0.0
 11
-10.28552793720507
 21
50.9930263930147
 31
0.0
  0
TEXT
  5
100024E9
330
F6
100
AcDbEntity
  8
C
  6
Continuous
100
AcDbText
 10
-149.619477937205
 20
52.8910163930147
 30
0.0
 40
2.1
  1
Design and specifications are subject to change without notice for future improvement.
  7
STYLE3
100
AcDbText
  0
TEXT
  5
100024EA
330
F6
100
AcDbEntity
  8
C
  6
Continuous
100
AcDbText
 10
-149.327983937205
 20
56.8201643930147
 30
0.0
 40
3.5
  1
仕様及び外観は予告なく変更される場合がございますのでご了承下さい。
  7
STYLE3
100
AcDbText
  0
LINE
  5
100024EB
330
F6
100
AcDbEntity
  8
C
100
AcDbLine
 10
-151.076945937205
 20
41.3782483930147
 30
0.0
 11
-151.076945937205
 21
61.77323239301469
 31
0.0
  0
TEXT
  5
100024EC
330
F6
100
AcDbEntity
  8
C
  6
Continuous
100
AcDbText
 10
-77.23793793720506
 20
46.4594733930147
 30
0.0
 40
3.0
  1
日 付
  7
STYLE3
100
AcDbText
  0
TEXT
  5
100024ED
330
F6
100
AcDbEntity
  8
C
  6
Continuous
100
AcDbText
 10
-86.94834893720505
 20
45.16588939301469
 30
0.0
 40
2.399999999999999
  1
1/1
  7
STYLE3
100
AcDbText
  0
TEXT
  5
100024EE
330
F6
100
AcDbEntity
  8
C
  6
Continuous
100
AcDbText
 10
-97.03085293720505
 20
46.33726839301469
 30
0.0
 40
3.0
  1
尺 度
  7
STYLE3
100
AcDbText
  0
LINE
  5
100024EF
330
F6
100
AcDbEntity
  8
C
100
AcDbLine
 10
-49.05417893720505
 20
50.9930263930147
 30
0.0
 11
-49.05417893720505
 21
41.3782483930147
 31
0.0
  0
LINE
  5
100024F0
330
F6
100
AcDbEntity
  8
C
100
AcDbLine
 10
-78.78652793720505
 20
50.9930263930147
 30
0.0
 11
-78.78652793720505
 21
41.3782483930147
 31
0.0
  0
LINE
  5
100024F1
330
F6
100
AcDbEntity
  8
C
100
AcDbLine
 10
-98.31659993720506
 20
50.9930263930147
 30
0.0
 11
-98.31659993720506
 21
41.3782483930147
 31
0.0
  0
LINE
  5
100024F2
330
F6
100
AcDbEntity
  8
C
100
AcDbLine
 10
-115.806217937205
 20
50.9930263930147
 30
0.0
 11
-115.806217937205
 21
41.3782483930147
 31
0.0
  0
TEXT
  5
100024F3
330
F6
100
AcDbEntity
  8
C
  6
Continuous
100
AcDbText
 10
-114.3487489372051
 20
46.6286263930147
 30
0.0
 40
3.0
  1
単位
  7
STYLE3
100
AcDbText
  0
TEXT
  5
100024F4
330
F6
100
AcDbEntity
  8
C
  6
Continuous
100
AcDbText
 10
-47.70521593720505
 20
46.9140283930147
 30
0.0
 40
3.0
  1
株式会社　尾崎製作所
  7
STYLE3
100
AcDbText
  0
TEXT
  5
100024F5
330
F6
100
AcDbEntity
  8
C
  6
Continuous
100
AcDbText
 10
-68.10976993720507
 20
44.8745313930147
 30
0.0
 40
2.1
  1
2010.06.29
  7
STYLE3
100
AcDbText
  0
TEXT
  5
100024F6
330
F6
100
AcDbEntity
  8
C
  6
Continuous
100
AcDbText
 10
-96.56763793720507
 20
43.4177463930147
 30
0.0
 40
2.1
  1
Scale
  7
STYLE3
100
AcDbText
  0
TEXT
  5
100024F7
330
F6
100
AcDbEntity
  8
C
  6
Continuous
100
AcDbText
 10
-114.177027937205
 20
43.1263893930147
 30
0.0
 40
2.1
  1
Unit
  7
STYLE3
100
AcDbText
  0
TEXT
  5
100024F8
330
F6
100
AcDbEntity
  8
C
  6
Continuous
100
AcDbText
 10
-106.306700937205
 20
44.87453239301469
 30
0.0
 40
2.399999999999999
  1
mm
  7
STYLE3
100
AcDbText
  0
TEXT
  5
100024F9
330
F6
100
AcDbEntity
  8
C
  6
Continuous
100
AcDbText
 10
-76.85457693720508
 20
43.1263903930147
 30
0.0
 40
2.1
  1
Date
  7
STYLE3
100
AcDbText
  0
TEXT
  5
100024FA
330
F6
100
AcDbEntity
  8
C
  6
Continuous
100
AcDbText
 10
-46.83073693720507
 20
43.1263893930147
 30
0.0
 40
2.1
  1
OZAKI MFG. CO., LTD.
  7
STYLE3
100
AcDbText
  0
ENDSEC
  0
SECTION
  2
OBJECTS
  0
DICTIONARY
  5
1E5
330
0
100
AcDbDictionary
281
     1
  3
ACAD_COLOR
350
1000168C
  3
ACAD_GROUP
350
1E6
  3
ACAD_LAYOUT
350
1000168F
  3
ACAD_MATERIAL
350
1000168B
  3
ACAD_MLINESTYLE
350
1E7
  3
ACAD_PLOTSETTINGS
350
10001690
  3
ACAD_PLOTSTYLENAME
350
10001689
  3
ACAD_TABLESTYLE
350
1000168D
  3
AcDbVariableDictionary
350
10001698
  3
CONTENTDICTIONARY
350
1E8
  0
DICTIONARY
  5
10001B48
330
F6
100
AcDbDictionary
280
     1
281
     1
  3
ACAD_SORTENTS
360
10001B49
  0
DICTIONARY
  5
1000168C
102
{ACAD_REACTORS
330
1E5
102
}
330
1E5
100
AcDbDictionary
281
     1
  0
DICTIONARY
  5
1E6
102
{ACAD_REACTORS
330
1E5
102
}
330
0
100
AcDbDictionary
281
     1
  0
DICTIONARY
  5
1000168F
102
{ACAD_REACTORS
330
1E5
102
}
330
1E5
100
AcDbDictionary
281
     1
  3
Model
350
10001691
  3
レイアウト1
350
10001692
  0
DICTIONARY
  5
1000168B
102
{ACAD_REACTORS
330
1E5
102
}
330
1E5
100
AcDbDictionary
281
     1
  0
DICTIONARY
  5
1E7
102
{ACAD_REACTORS
330
1E5
102
}
330
0
100
AcDbDictionary
281
     1
  3
STANDARD
350
1E9
  0
DICTIONARY
  5
10001690
102
{ACAD_REACTORS
330
1E5
102
}
330
1E5
100
AcDbDictionary
281
     1
  0
ACDBDICTIONARYWDFLT
  5
10001689
102
{ACAD_REACTORS
330
1E5
102
}
330
1E5
100
AcDbDictionary
281
     1
  3
Normal
350
1000168A
100
AcDbDictionaryWithDefault
340
1000168A
  0
DICTIONARY
  5
1000168D
102
{ACAD_REACTORS
330
1E5
102
}
330
1E5
100
AcDbDictionary
281
     1
  3
Standard
350
1000168E
  0
DICTIONARY
  5
10001698
102
{ACAD_REACTORS
330
1E5
102
}
330
1E5
100
AcDbDictionary
281
     1
  3
CTABLESTYLE
350
10001699
  0
DICTIONARY
  5
1E8
102
{ACAD_REACTORS
330
1E5
102
}
330
0
100
AcDbDictionary
281
     1
  0
SORTENTSTABLE
  5
10001B49
102
{ACAD_REACTORS
330
10001B48
102
}
330
10001B48
100
AcDbSortentsTable
330
F6
331
10001A15
  5
10001A1E
331
100019C6
  5
100019CF
331
10001909
  5
10001912
331
10001893
  5
1000189C
331
1000181D
  5
10001826
331
100017A7
  5
100017B0
331
100017E6
  5
100017EF
331
1000185C
  5
10001865
331
100018D2
  5
100018DB
331
10001948
  5
10001951
331
10001A1D
  5
10001A26
331
1000198F
  5
10001998
331
100019CE
  5
100019D7
331
10001768
  5
10001771
331
10001911
  5
1000191A
331
1000189B
  5
100018A4
331
10001864
  5
1000186D
331
100017AF
  5
100017B8
331
100017EE
  5
100017F7
331
10001825
  5
1000182E
331
100018DA
  5
100018E3
331
10001950
  5
10001959
331
10001B24
  5
10001B50
331
100019D6
  5
100019E0
331
10001997
  5
100019A0
331
10001A25
  5
10001A2E
331
10001FA1
  5
10001FA4
331
100020C0
  5
100020CC
331
10001731
  5
10001741
331
10001770
  5
10001779
331
10001958
  5
10001961
331
100018E2
  5
100018EB
331
1000186C
  5
10001875
331
100017F6
  5
100017FF
331
100017B7
  5
100017C0
331
1000182D
  5
10001836
331
100018A3
  5
100018AC
331
10001919
  5
10001922
331
10001FA9
  5
10002005
331
10001B2C
  5
10001CA6
331
100019DE
  5
100019E8
331
1000199F
  5
100019A8
331
10001A2D
  5
10001B28
331
10001F1A
  5
10001FA6
331
10001778
  5
10001781
331
10001960
  5
10001969
331
100018EA
  5
100018F3
331
10001874
  5
1000187D
331
100017FE
  5
10001807
331
100017BF
  5
100017C8
331
10001835
  5
1000183E
331
100018AB
  5
100018B4
331
10001921
  5
1000192A
331
10001780
  5
10001789
331
10001741
  5
10001749
331
10002109
  5
10002221
331
100019E6
  5
10001A17
331
100019A7
  5
100019B0
331
10001968
  5
10001971
331
100018F2
  5
100018FB
331
1000187C
  5
10001885
331
10001806
  5
1000180F
331
100017C7
  5
100017D0
331
1000183D
  5
10001846
331
100018B3
  5
100018BC
331
10001929
  5
10001932
331
100019AF
  5
100019BA
331
10001F5A
  5
10002006
331
10001788
  5
10001791
331
10001749
  5
10001752
331
100018FA
  5
10001903
331
10001884
  5
1000188D
331
1000180E
  5
10001817
331
100017CF
  5
100017D8
331
10001845
  5
1000184E
331
100018BB
  5
100018C4
331
10001931
  5
1000193A
331
10001970
  5
10001979
331
10001A06
  5
10001A1A
331
100019B7
  5
100019C0
331
10001F72
  5
10002007
331
10001790
  5
10001799
331
10001751
  5
1000175A
331
10001902
  5
1000190B
331
1000188C
  5
10001895
331
10001816
  5
1000181F
331
100017D7
  5
100017E0
331
1000184D
  5
10001856
331
100018C3
  5
100018CC
331
10001939
  5
10001942
331
10001978
  5
10001981
331
100019BF
  5
100019C8
331
10001FE9
  5
10001E16
331
10001798
  5
100017A1
331
10001759
  5
10001762
331
10001855
  5
1000185E
331
100017DF
  5
100017E8
331
100018CB
  5
100018D4
331
10001941
  5
1000194A
331
10001761
  5
1000176A
331
10002221
  5
10002306
331
10001980
  5
1000198C
331
100017A0
  5
100017A9
331
10001A16
  5
10001A1F
331
100019C7
  5
100019D0
331
1000190A
  5
10001913
331
10001894
  5
1000189D
331
1000181E
  5
10001827
331
100017E7
  5
100017F0
331
100017A8
  5
100017B1
331
1000185D
  5
10001866
331
100018D3
  5
100018DC
331
10001949
  5
10001952
331
100019CF
  5
100019D8
331
10001990
  5
10001999
331
10001A1E
  5
10001A27
331
10001B1D
  5
10001B2C
331
10001F9A
  5
10001F9C
331
10001769
  5
10001772
331
10001951
  5
1000195A
331
100018DB
  5
100018E4
331
100017EF
  5
100017F8
331
100017B0
  5
100017B9
331
10001826
  5
1000182F
331
10001865
  5
1000186E
331
1000189C
  5
100018A5
331
10001912
  5
1000191B
331
10001FA2
  5
10001FA9
331
10001B25
  5
10001B57
331
100019D7
  5
100019E1
331
10001998
  5
100019A1
331
10001A26
  5
10001A2F
331
10001EFB
  5
10001FA5
331
100020C1
  5
100020D4
331
10001771
  5
1000177A
331
10001959
  5
10001962
331
1000186D
  5
10001876
331
100017F7
  5
10001800
331
100017B8
  5
100017C1
331
1000182E
  5
10001837
331
100018A4
  5
100018AD
331
100018E3
  5
100018EC
331
1000191A
  5
10001923
331
10001B2D
  5
10001CD1
331
10001A2E
  5
10001B29
331
10001CCC
  5
10001E40
331
10001779
  5
10001782
331
10001961
  5
1000196A
331
10001875
  5
1000187E
331
100017FF
  5
10001808
331
10001836
  5
1000183F
331
100018AC
  5
100018B5
331
100018EB
  5
100018F4
331
10001922
  5
1000192B
331
10001781
  5
1000178A
331
10001742
  5
1000174A
331
10002192
  5
10001743
331
100019A0
  5
100019A9
331
100017C0
  5
100017C9
331
100019E7
  5
10001A18
331
100019A8
  5
100019B1
331
10001969
  5
10001972
331
100018F3
  5
100018FC
331
1000187D
  5
10001886
331
10001807
  5
10001810
331
100017C8
  5
100017D1
331
1000183E
  5
10001847
331
100018B4
  5
100018BD
331
1000192A
  5
10001933
331
100019B0
  5
100019BB
331
10001789
  5
10001792
331
1000174A
  5
10001753
331
100018FB
  5
10001904
331
10001885
  5
1000188E
331
1000180F
  5
10001818
331
100017D0
  5
100017D9
331
10001846
  5
1000184F
331
100018BC
  5
100018C5
331
10001932
  5
1000193B
331
10001971
  5
1000197A
331
100019B8
  5
100019C1
331
10001791
  5
1000179A
331
10001752
  5
1000175B
331
10001979
  5
10001982
331
10001903
  5
1000190C
331
1000188D
  5
10001896
331
10001817
  5
10001820
331
100017D8
  5
100017E1
331
1000184E
  5
10001857
331
100018C4
  5
100018CD
331
1000193A
  5
10001943
331
10001799
  5
100017A2
331
10001713
  5
10001713
331
1000175A
  5
10001763
331
10001942
  5
1000194B
331
10001856
  5
1000185F
331
100018CC
  5
100018D5
331
10001762
  5
1000176B
331
10001981
  5
1000198E
331
100019C0
  5
100019C9
331
10001A17
  5
10001A20
331
100019C8
  5
100019D1
331
10001FF2
  5
10001FA8
331
100017A1
  5
100017AA
331
100017E0
  5
100017E9
331
1000190B
  5
10001914
331
10001895
  5
1000189E
331
1000181F
  5
10001828
331
100017E8
  5
100017F1
331
100019D0
  5
100019D9
331
10001991
  5
1000199A
331
10001A1F
  5
10001A28
331
10001F9B
  5
10001F9D
331
100017A9
  5
100017B2
331
1000185E
  5
10001867
331
100018D4
  5
100018DD
331
1000194A
  5
10001953
331
1000172B
  5
1000172B
331
1000176A
  5
10001773
331
100018DC
  5
100018E5
331
10001866
  5
1000186F
331
100017F0
  5
100017F9
331
10001B26
  5
10001B66
331
100019D8
  5
100019E2
331
10001999
  5
100019A2
331
10001A27
  5
10001A30
331
10001FA3
  5
10001FB5
331
100020C2
  5
100020E4
331
100017B1
  5
100017BA
331
10001827
  5
10001830
331
1000189D
  5
100018A6
331
10001913
  5
1000191C
331
10001952
  5
1000195B
331
10001772
  5
1000177B
331
1000195A
  5
10001963
331
100018E4
  5
100018ED
331
1000186E
  5
10001877
331
100017F8
  5
10001801
331
10001A2F
  5
10001B2A
331
100020CA
  5
100020E5
331
100017B9
  5
100017C2
331
1000182F
  5
10001838
331
100018A5
  5
100018AE
331
1000191B
  5
10001924
331
1000177A
  5
10001783
331
10001962
  5
1000196B
331
100018EC
  5
100018F5
331
10001876
  5
1000187F
331
10001837
  5
10001840
331
100018AD
  5
100018B6
331
10001923
  5
1000192C
331
10001782
  5
1000178B
331
10001743
  5
1000174B
331
100019E0
  5
10001A06
331
100019A1
  5
100019AA
331
10001800
  5
10001809
331
10001CDD
  5
10001EB3
331
100019E8
  5
10001A19
331
100019A9
  5
100019B2
331
100017C1
  5
100017CA
331
1000196A
  5
10001973
331
100018F4
  5
100018FD
331
1000187E
  5
10001887
331
1000183F
  5
10001848
331
10001808
  5
10001811
331
100017C9
  5
100017D2
331
100018B5
  5
100018BE
331
1000192B
  5
10001934
331
1000178A
  5
10001793
331
1000174B
  5
10001754
331
10001972
  5
1000197B
331
100018FC
  5
10001905
331
10001886
  5
1000188F
331
10001810
  5
10001819
331
10001FE3
  5
10001B47
331
100019B9
  5
100019C2
331
100017D1
  5
100017DA
331
10001847
  5
10001850
331
100018BD
  5
100018C6
331
10001933
  5
1000193C
331
10001792
  5
1000179B
331
10001753
  5
1000175C
331
1000197A
  5
10001983
331
10001904
  5
1000190D
331
1000188E
  5
10001897
331
100017D9
  5
100017E2
331
1000184F
  5
10001858
331
100018C5
  5
100018CE
331
1000193B
  5
10001944
331
1000179A
  5
100017A3
331
10001714
  5
10001714
331
1000175B
  5
10001764
331
100018CD
  5
100018D6
331
10001857
  5
10001860
331
10001943
  5
1000194C
331
10001763
  5
1000176C
331
10002321
  5
10002322
331
10002339
  5
10002339
331
10001982
  5
1000198F
331
100019C1
  5
100019CA
331
10001818
  5
10001821
331
10001A18
  5
10001A21
331
100019C9
  5
100019D2
331
100017A2
  5
100017AB
331
100017E1
  5
100017EA
331
1000190C
  5
10001915
331
10001896
  5
1000189F
331
1000185F
  5
10001868
331
10001820
  5
10001829
331
10001F9C
  5
10001F9E
331
100019D1
  5
100019DA
331
10001992
  5
1000199B
331
10001A20
  5
10001A29
331
100017AA
  5
100017B3
331
100017E9
  5
100017F2
331
100018D5
  5
100018DE
331
1000194B
  5
10001954
331
1000172C
  5
10001730
331
1000176B
  5
10001774
331
10001953
  5
1000195C
331
100018DD
  5
100018E6
331
1000189E
  5
100018A7
331
100017F1
  5
100017FA
331
10001FA4
  5
10001FCE
331
10001B27
  5
10001B70
331
100019D9
  5
100019E3
331
1000199A
  5
100019A3
331
10001A28
  5
10001B20
331
100017B2
  5
100017BB
331
10001828
  5
10001831
331
10001867
  5
10001870
331
10001914
  5
1000191D
331
10001773
  5
1000177C
331
1000195B
  5
10001964
331
100018E5
  5
100018EE
331
1000186F
  5
10001878
331
100017F9
  5
10001802
331
100017BA
  5
100017C3
331
10001830
  5
10001839
331
100018A6
  5
100018AF
331
1000191C
  5
10001925
331
1000177B
  5
10001784
331
1000173C
  5
10001744
331
10001963
  5
1000196C
331
100018ED
  5
100018F6
331
10001877
  5
10001880
331
100018AE
  5
100018B7
331
10001924
  5
1000192D
331
10001783
  5
1000178C
331
10001744
  5
1000174C
331
10002104
  5
1000174F
331
10002124
  5
10001E30
331
10002194
  5
10001FA7
331
100019E1
  5
10001A12
331
100019A2
  5
100019AB
331
10001A30
  5
10001B2B
331
10001801
  5
1000180A
331
10001CDE
  5
10001EFA
331
100019AA
  5
100019B3
331
100017C2
  5
100017CB
331
10001838
  5
10001841
331
1000196B
  5
10001974
331
100018F5
  5
100018FE
331
1000187F
  5
10001888
331
10001809
  5
10001812
331
100020E3
  5
10002124
331
100017CA
  5
100017D3
331
10001840
  5
10001849
331
100018B6
  5
100018BF
331
1000192C
  5
10001935
331
1000178B
  5
10001794
331
1000174C
  5
10001755
331
10001973
  5
1000197C
331
100018FD
  5
10001906
331
10001887
  5
10001890
331
10001811
  5
1000181A
331
10001DEE
  5
10001F1A
331
10001BB7
  5
10001CDE
331
100019BA
  5
100019C3
331
100017D2
  5
100017DB
331
10001848
  5
10001851
331
100018BE
  5
100018C7
331
10001934
  5
1000193D
331
10001793
  5
1000179C
331
10001754
  5
1000175D
331
1000197B
  5
10001984
331
10001905
  5
1000190E
331
1000188F
  5
10001898
331
10001E16
  5
10001F5A
331
100017DA
  5
100017E3
331
10001850
  5
10001859
331
100018C6
  5
100018CF
331
1000193C
  5
10001945
331
1000179B
  5
100017A4
331
1000175C
  5
10001765
331
10001944
  5
1000194D
331
100018CE
  5
100018D7
331
10001764
  5
1000176D
331
10002322
  5
1000173D
331
10001983
  5
10001991
331
100019C2
  5
100019CB
331
10001819
  5
10001822
331
10001FF4
  5
10001F9A
331
10001A19
  5
10001A22
331
100019CA
  5
100019D3
331
10001BBF
  5
10001DEE
331
100017A3
  5
100017AC
331
100017E2
  5
100017EB
331
10001858
  5
10001861
331
1000190D
  5
10001916
331
10001860
  5
10001869
331
100017EA
  5
100017F3
331
10001B20
  5
10001B2D
331
100019D2
  5
100019DB
331
10001993
  5
1000199C
331
10001A21
  5
10001A2A
331
10001F9D
  5
10001FA0
331
10002064
  5
100020C1
331
100017AB
  5
100017B4
331
10001821
  5
1000182A
331
10001897
  5
100018A0
331
100018D6
  5
100018DF
331
1000194C
  5
10001955
331
1000172D
  5
10001731
331
1000176C
  5
10001775
331
100018DE
  5
100018E7
331
10001868
  5
10001871
331
100017F2
  5
100017FB
331
10001B28
  5
10001B9B
331
100019DA
  5
100019E4
331
1000199B
  5
100019A4
331
10001A29
  5
10001B22
331
10001FA5
  5
10001FD3
331
100017B3
  5
100017BC
331
10001829
  5
10001832
331
1000189F
  5
100018A8
331
10001915
  5
1000191E
331
10001954
  5
1000195D
331
10001774
  5
1000177D
331
1000195C
  5
10001965
331
100018E6
  5
100018EF
331
10001870
  5
10001879
331
100017FA
  5
10001803
331
100020CC
  5
10002104
331
100017BB
  5
100017C4
331
10001831
  5
1000183A
331
100018A7
  5
100018B0
331
1000191D
  5
10001926
331
1000177C
  5
10001785
331
1000173D
  5
10001745
331
10001964
  5
1000196D
331
100018EE
  5
100018F7
331
100018AF
  5
100018B8
331
10001925
  5
1000192E
331
10001784
  5
1000178D
331
10001745
  5
1000174D
331
100019E2
  5
10001A13
331
100019A3
  5
100019AC
331
10001878
  5
10001881
331
10001802
  5
1000180B
331
100019AB
  5
100019B4
331
10001F56
  5
1000171A
331
10001FB5
  5
10002008
331
100020D4
  5
10002109
331
100017C3
  5
100017CC
331
10001839
  5
10001842
331
1000196C
  5
10001975
331
100018F6
  5
100018FF
331
100018B7
  5
100018C0
331
10001880
  5
10001889
331
1000180A
  5
10001813
331
100019B3
  5
100019BC
331
100020E4
  5
1000212B
331
100017CB
  5
100017D4
331
10001841
  5
1000184A
331
1000192D
  5
10001936
331
1000178C
  5
10001795
331
1000174D
  5
10001757
331
10001974
  5
1000197D
331
100018FE
  5
10001907
331
10001888
  5
10001891
331
10001812
  5
1000181B
331
100019BB
  5
100019C4
331
10001DEF
  5
10001F26
331
100017D3
  5
100017DC
331
10001849
  5
10001852
331
100018BF
  5
100018C8
331
10001935
  5
1000193E
331
10001794
  5
1000179D
331
1000170E
  5
1000170E
331
10001755
  5
1000175E
331
1000197C
  5
10001985
331
10001906
  5
1000190F
331
10001851
  5
1000185A
331
100017DB
  5
100017E4
331
100018C7
  5
100018D0
331
1000193D
  5
10001946
331
1000179C
  5
100017A5
331
1000175D
  5
10001766
331
100018CF
  5
100018D8
331
10001945
  5
1000194E
331
10001765
  5
1000176E
331
10001A12
  5
10001A1B
331
10001984
  5
10001992
331
100019C3
  5
100019CC
331
10001890
  5
10001899
331
1000181A
  5
10001823
331
10001A1A
  5
10001A23
331
1000198C
  5
10001996
331
100019CB
  5
100019D4
331
100017A4
  5
100017AD
331
100017E3
  5
100017EC
331
10001859
  5
10001862
331
1000190E
  5
10001917
331
100018D7
  5
100018E0
331
10001898
  5
100018A1
331
10001822
  5
1000182B
331
100019D3
  5
100019DC
331
10001994
  5
1000199D
331
10001A22
  5
10001A2B
331
10001F9E
  5
10001FA1
331
10002065
  5
100020C2
331
100017AC
  5
100017B5
331
100017EB
  5
100017F4
331
10001861
  5
1000186A
331
1000194D
  5
10001956
331
1000172E
  5
1000173A
331
1000176D
  5
10001776
331
10001955
  5
1000195E
331
10001869
  5
10001872
331
100017F3
  5
100017FC
331
10001B29
  5
10001BBF
331
100019DB
  5
100019E5
331
1000199C
  5
100019A5
331
10001A2A
  5
10001B23
331
10001FA6
  5
10001FE3
331
100017B4
  5
100017BD
331
1000182A
  5
10001833
331
100018A0
  5
100018A9
331
100018DF
  5
100018E8
331
10001916
  5
1000191F
331
10001775
  5
1000177E
331
1000195D
  5
10001966
331
100018E7
  5
100018F0
331
10001871
  5
1000187A
331
100017FB
  5
10001804
331
100017BC
  5
100017C5
331
10001832
  5
1000183B
331
100018A8
  5
100018B1
331
1000191E
  5
10001927
331
1000177D
  5
10001786
331
1000173E
  5
10001746
331
10001965
  5
1000196E
331
100018EF
  5
100018F8
331
10001926
  5
1000192F
331
10001785
  5
1000178E
331
10001746
  5
1000174E
331
100019E3
  5
10001A14
331
100019A4
  5
100019AE
331
10001879
  5
10001882
331
10001803
  5
1000180C
331
100019AC
  5
100019B5
331
100017C4
  5
100017CD
331
1000183A
  5
10001843
331
100018B0
  5
100018B9
331
1000196D
  5
10001976
331
100018F7
  5
10001900
331
10001881
  5
1000188A
331
1000180B
  5
10001814
331
100019B4
  5
100019BD
331
10001FCE
  5
100020C0
331
100020E5
  5
1000212C
331
100017CC
  5
100017D5
331
10001842
  5
1000184B
331
100018B8
  5
100018C1
331
1000192E
  5
10001937
331
1000178D
  5
10001796
331
1000174E
  5
10001758
331
10001975
  5
1000197E
331
100018FF
  5
10001908
331
10001889
  5
10001892
331
10001813
  5
1000181C
331
100019BC
  5
100019C5
331
100017D4
  5
100017DD
331
1000184A
  5
10001853
331
100018C0
  5
100018C9
331
10001936
  5
1000193F
331
10001795
  5
1000179E
331
1000170F
  5
1000170F
331
10001756
  5
1000175F
331
1000197D
  5
10001986
331
10001907
  5
10001910
331
100018C8
  5
100018D1
331
100017DC
  5
100017E5
331
10001852
  5
1000185B
331
1000193E
  5
10001947
331
1000179D
  5
100017A6
331
1000175E
  5
10001767
331
10001946
  5
1000194F
331
10001766
  5
1000176F
331
10002354
  5
10002354
331
10001A13
  5
10001A1C
331
10001985
  5
10001993
331
100019C4
  5
100019CD
331
10001E30
  5
10001F72
331
10001891
  5
1000189A
331
1000181B
  5
10001824
331
10001A1B
  5
10001A24
331
100019CC
  5
100019D5
331
10001C19
  5
10001E11
331
10001E40
  5
10001715
331
100017A5
  5
100017AE
331
100017E4
  5
100017ED
331
1000185A
  5
10001863
331
100018D0
  5
100018D9
331
1000190F
  5
10001918
331
10001899
  5
100018A2
331
10001862
  5
1000186B
331
10001B22
  5
10001B42
331
100019D4
  5
100019DD
331
10001A23
  5
10001A2C
331
10001F9F
  5
10001FA2
331
10002066
  5
100020CA
331
100017AD
  5
100017B6
331
100017EC
  5
100017F5
331
10001823
  5
1000182C
331
100018D8
  5
100018E1
331
1000194E
  5
10001957
331
1000176E
  5
10001777
331
100018E0
  5
100018E9
331
1000186A
  5
10001873
331
100017F4
  5
100017FD
331
10001B2A
  5
10001C4D
331
100019DC
  5
100019E6
331
1000199D
  5
100019A6
331
10001A2B
  5
10001B25
331
10001FA7
  5
10001FE9
331
100017B5
  5
100017BE
331
1000182B
  5
10001834
331
100018A1
  5
100018AA
331
10001917
  5
10001920
331
10001956
  5
1000195F
331
10001776
  5
1000177F
331
1000195E
  5
10001967
331
100018E8
  5
100018F1
331
10001872
  5
1000187B
331
100017FC
  5
10001805
331
100017BD
  5
100017C6
331
10001833
  5
1000183C
331
100018A9
  5
100018B2
331
1000191F
  5
10001928
331
1000177E
  5
10001787
331
1000173F
  5
10001747
331
10001966
  5
1000196F
331
10001927
  5
10001930
331
10001786
  5
1000178F
331
10001747
  5
10001750
331
100019E4
  5
10001A15
331
100019A5
  5
100019AF
331
10001B42
  5
10001CDA
331
1000187A
  5
10001883
331
10001804
  5
1000180D
331
100019AD
  5
100019B6
331
100017C5
  5
100017CE
331
1000183B
  5
10001844
331
100018B1
  5
100018BA
331
100018F0
  5
100018F9
331
1000196E
  5
10001977
331
1000192F
  5
10001938
331
100018F8
  5
10001901
331
10001882
  5
1000188B
331
1000180C
  5
10001815
331
100019B5
  5
100019BE
331
100017CD
  5
100017D6
331
10001843
  5
1000184C
331
100018B9
  5
100018C2
331
1000178E
  5
10001797
331
10001976
  5
1000197F
331
10001900
  5
10001909
331
1000188A
  5
10001893
331
10001814
  5
1000181D
331
100019BD
  5
100019C6
331
10001E11
  5
10001F35
331
100017D5
  5
100017DE
331
1000184B
  5
10001854
331
100018C1
  5
100018CA
331
10001937
  5
10001940
331
10001796
  5
1000179F
331
10001757
  5
10001760
331
1000197E
  5
10001987
331
10001853
  5
1000185C
331
100017DD
  5
100017E6
331
100018C9
  5
100018D2
331
1000193F
  5
10001948
331
1000179E
  5
100017A7
331
1000175F
  5
10001768
331
10001947
  5
10001950
331
10001767
  5
10001770
331
1000233D
  5
1000233D
331
10001A14
  5
10001A1D
331
100019C5
  5
100019CE
331
10001908
  5
10001911
331
10001892
  5
1000189B
331
1000181C
  5
10001825
331
100019CD
  5
100019D6
331
1000198E
  5
10001997
331
10001A1C
  5
10001A25
331
100017A6
  5
100017AF
331
100017E5
  5
100017EE
331
1000185B
  5
10001864
331
100018D1
  5
100018DA
331
1000194F
  5
10001958
331
100018D9
  5
100018E2
331
1000189A
  5
100018A3
331
100017ED
  5
100017F6
331
10001A24
  5
10001A2D
331
100019D5
  5
100019DE
331
10001B23
  5
10001B4D
331
10001FA0
  5
10001FA3
331
100017AE
  5
100017B7
331
10001824
  5
1000182D
331
10001863
  5
1000186C
331
10001910
  5
10001919
331
1000176F
  5
10001778
331
10001957
  5
10001960
331
10001918
  5
10001921
331
100018A2
  5
100018AB
331
1000182C
  5
10001835
331
10001B2B
  5
10001CA3
331
100019DD
  5
100019E7
331
1000199E
  5
100019A7
331
10001A2C
  5
10001B27
331
10001FA8
  5
10001FF2
331
100017B6
  5
100017BF
331
100017F5
  5
100017FE
331
1000186B
  5
10001874
331
100018E1
  5
100018EA
331
10001777
  5
10001780
331
1000195F
  5
10001968
331
10001873
  5
1000187C
331
100017FD
  5
10001806
331
100017BE
  5
100017C7
331
10001834
  5
1000183D
331
100018AA
  5
100018B3
331
100018E9
  5
100018F2
331
10001920
  5
10001929
331
1000177F
  5
10001788
331
10001740
  5
10001748
331
10001967
  5
10001970
331
10001787
  5
10001790
331
100023CD
  5
100023CD
331
10002306
  5
10002321
331
100019E5
  5
10001A16
331
10001CDA
  5
10001DDE
331
100018F1
  5
100018FA
331
1000187B
  5
10001884
331
10001805
  5
1000180E
331
100019AE
  5
100019B7
331
100017C6
  5
100017CF
331
1000183C
  5
10001845
331
100018B2
  5
100018BB
331
10001928
  5
10001931
331
10001748
  5
10001751
331
1000196F
  5
10001978
331
100018F9
  5
10001902
331
10001883
  5
1000188C
331
1000180D
  5
10001816
331
100019B6
  5
100019BF
331
100017CE
  5
100017D7
331
10001844
  5
1000184D
331
100018BA
  5
100018C3
331
10001930
  5
10001939
331
1000178F
  5
10001798
331
10001750
  5
10001759
331
10001977
  5
10001980
331
10001901
  5
1000190A
331
1000188B
  5
10001894
331
10001815
  5
1000181E
331
100019BE
  5
100019C7
331
100017D6
  5
100017DF
331
1000184C
  5
10001855
331
100018C2
  5
100018CB
331
10001938
  5
10001941
331
10001797
  5
100017A0
331
10001711
  5
10001711
331
10001758
  5
10001761
331
1000197F
  5
10001988
331
10001940
  5
10001949
331
100018CA
  5
100018D3
331
100017DE
  5
100017E7
331
10001854
  5
1000185D
331
1000179F
  5
100017A8
331
10001760
  5
10001769
  0
LAYOUT
  5
10001691
102
{ACAD_REACTORS
330
1000168F
102
}
330
1000168F
100
AcDbPlotSettings
  1

  2
A4 EPSON LP-6100.pc3
  4
A4
  6

 40
5.873749732971191
 41
5.873747825622558
 42
5.873748779296875
 43
5.873748779296875
 44
209.9733276367187
 45
297.0106506347656
 46
0.0
 47
25.0
 48
0.0
 49
0.0
140
0.0
141
0.0
142
1.0
143
1.0
 70
 28336
 72
     1
 73
     1
 74
     1
  7
AutoCAD LT 98.ctb
 75
    16
147
1.0
 76
     1
 77
     2
 78
   300
148
415.2696670085001
149
-40.42422184462703
100
AcDbLayout
  1
Model
 70
     1
 71
     0
 10
0.0
 20
0.0
 11
12.0
 21
9.0
 12
0.0
 22
0.0
 32
0.0
 14
0.0
 24
0.0
 34
0.0
 15
0.0
 25
0.0
 35
0.0
146
0.0
 13
0.0
 23
0.0
 33
0.0
 16
1.0
 26
0.0
 36
0.0
 17
0.0
 27
1.0
 37
0.0
 76
     0
330
F6
1001
ACAD_PSEXT
1000
A4 EPSON LP-6100.pc3
1000
EPSON LP-6100
1000
\\SATO-MATE2
1000

1070
     0
  0
LAYOUT
  5
10001692
102
{ACAD_REACTORS
330
1000168F
102
}
330
1000168F
100
AcDbPlotSettings
  1

  2
C:\Documents and Settings\佐藤\Application Data\Autodesk\AutoCAD LT 2005\R10\jpn\plotters\PEACOCK EPSON LP-6100.pc3
  4

  6

 40
0.0
 41
0.0
 42
0.0
 43
0.0
 44
0.0
 45
0.0
 46
0.0
 47
0.0
 48
0.0
 49
0.0
140
0.0
141
0.0
142
1.0
143
1.0
 70
   688
 72
     0
 73
     0
 74
     5
  7
AutoCAD LT 98.ctb
 75
    16
147
1.0
 76
     0
 77
     2
 78
   300
148
0.0
149
0.0
100
AcDbLayout
  1
レイアウト1
 70
     1
 71
     1
 10
0.0
 20
0.0
 11
400.0
 21
257.0
 12
0.0
 22
0.0
 32
0.0
 14
1.000000000000000E+20
 24
1.000000000000000E+20
 34
1.000000000000000E+20
 15
-1.000000000000000E+20
 25
-1.000000000000000E+20
 35
-1.000000000000000E+20
146
0.0
 13
0.0
 23
0.0
 33
0.0
 16
1.0
 26
0.0
 36
0.0
 17
0.0
 27
1.0
 37
0.0
 76
     0
330
F9
  0
MLINESTYLE
  5
1E9
102
{ACAD_REACTORS
330
1E7
102
}
330
0
100
AcDbMlineStyle
  2
STANDARD
 70
     0
  3
 
 62
   256
 51
90.0
 52
90.0
 71
     2
 49
0.5
 62
   256
  6
BYLAYER
 49
-0.5
 62
   256
  6
BYLAYER
  0
ACDBPLACEHOLDER
  5
1000168A
102
{ACAD_REACTORS
330
10001689
102
}
330
10001689
  0
ACAD_PROXY_OBJECT
  5
1000168E
102
{ACAD_REACTORS
330
1000168D
102
}
330
1000168D
100
AcDbProxyObject
 90
      499
 91
      503
 95
  2555929
 70
     0
 93
     1841
310
4214DD185B99185C9928000000000000F83F0000000000003E0FC00000000000004901028000000C1008070000C3001FDFF8000000C1003FBFF000000182007F7FE00000030400FEFFC00000060801FDFF8000000C1003FBFF000000182000000000000000C2020B0000001820100E000186003FBFF000000182007F7FE000
310
00030400FEFFC00000060801FDFF8000000C1003FBFF000000182007F7FE0000003040000000000000012404160000003040201C00030C007F7FE00000030400FEFFC00000060801FDFF8000000C1003FBFF000000182007F7FE00000030400FEFFC000000608000
340
D5
340
D5
340
D5
 94
        0
  0
DICTIONARYVAR
  5
10001699
102
{ACAD_REACTORS
330
10001698
102
}
330
10001698
100
DictionaryVariables
280
     0
  1
STANDARD
  0
ENDSEC
  0
EOF
