  0
SECTION
  2
HEADER
  9
$ACADVER
  1
AC1018
  9
$ACADMAINTVER
 70
     0
  9
$DWGCODEPAGE
  3
ANSI_932
  9
$INSBASE
 10
0.0
 20
0.0
 30
0.0
  9
$EXTMIN
 10
243.2072476647083
 20
175.618488037692
 30
-0.0000304982504531
  9
$EXTMAX
 10
621.5854822430478
 20
458.9554355364
 30
0.000045796857254
  9
$LIMMIN
 10
0.0
 20
0.0
  9
$LIMMAX
 10
420.0
 20
297.0
  9
$ORTHOMODE
 70
     0
  9
$REGENMODE
 70
     1
  9
$FILLMODE
 70
     1
  9
$QTEXTMODE
 70
     0
  9
$MIRRTEXT
 70
     1
  9
$LTSCALE
 40
1.0
  9
$ATTMODE
 70
     1
  9
$TEXTSIZE
 40
3.0
  9
$TRACEWID
 40
1.0
  9
$TEXTSTYLE
  7
STYLE3
  9
$CLAYER
  8
寸法線
  9
$CELTYPE
  6
BYLAYER
  9
$CECOLOR
 62
   256
  9
$CELTSCALE
 40
1.0
  9
$DISPSILH
 70
     0
  9
$DIMSCALE
 40
1.0
  9
$DIMASZ
 40
2.5
  9
$DIMEXO
 40
0.0
  9
$DIMDLI
 40
3.75
  9
$DIMRND
 40
0.0
  9
$DIMDLE
 40
0.0
  9
$DIMEXE
 40
1.25
  9
$DIMTP
 40
0.0
  9
$DIMTM
 40
0.0
  9
$DIMTXT
 40
2.5
  9
$DIMCEN
 40
2.5
  9
$DIMTSZ
 40
0.0
  9
$DIMTOL
 70
     0
  9
$DIMLIM
 70
     0
  9
$DIMTIH
 70
     0
  9
$DIMTOH
 70
     0
  9
$DIMSE1
 70
     0
  9
$DIMSE2
 70
     0
  9
$DIMTAD
 70
     1
  9
$DIMZIN
 70
     8
  9
$DIMBLK
  1

  9
$DIMASO
 70
     1
  9
$DIMSHO
 70
     1
  9
$DIMPOST
  1

  9
$DIMAPOST
  1

  9
$DIMALT
 70
     0
  9
$DIMALTD
 70
     4
  9
$DIMALTF
 40
0.0394
  9
$DIMLFAC
 40
1.0
  9
$DIMTOFL
 70
     1
  9
$DIMTVP
 40
0.0
  9
$DIMTIX
 70
     0
  9
$DIMSOXD
 70
     0
  9
$DIMSAH
 70
     1
  9
$DIMBLK1
  1
OPEN
  9
$DIMBLK2
  1
OPEN
  9
$DIMSTYLE
  2
STYLE3
  9
$DIMCLRD
 70
     2
  9
$DIMCLRE
 70
     2
  9
$DIMCLRT
 70
     6
  9
$DIMTFAC
 40
1.0
  9
$DIMGAP
 40
0.625
  9
$DIMJUST
 70
     0
  9
$DIMSD1
 70
     0
  9
$DIMSD2
 70
     0
  9
$DIMTOLJ
 70
     1
  9
$DIMTZIN
 70
     0
  9
$DIMALTZ
 70
     0
  9
$DIMALTTZ
 70
     0
  9
$DIMUPT
 70
     0
  9
$DIMDEC
 70
     2
  9
$DIMTDEC
 70
     4
  9
$DIMALTU
 70
     8
  9
$DIMALTTD
 70
     4
  9
$DIMTXSTY
  7
STYLE3
  9
$DIMAUNIT
 70
     0
  9
$DIMADEC
 70
     0
  9
$DIMALTRND
 40
0.0
  9
$DIMAZIN
 70
     0
  9
$DIMDSEP
 70
    46
  9
$DIMATFIT
 70
     3
  9
$DIMFRAC
 70
     0
  9
$DIMLDRBLK
  1

  9
$DIMLUNIT
 70
     2
  9
$DIMLWD
 70
    -2
  9
$DIMLWE
 70
    -2
  9
$DIMTMOVE
 70
     0
  9
$LUNITS
 70
     2
  9
$LUPREC
 70
     4
  9
$SKETCHINC
 40
1.0
  9
$FILLETRAD
 40
0.4
  9
$AUNITS
 70
     0
  9
$AUPREC
 70
     0
  9
$MENU
  1
.
  9
$ELEVATION
 40
0.0
  9
$PELEVATION
 40
0.0
  9
$THICKNESS
 40
0.0
  9
$LIMCHECK
 70
     0
  9
$CHAMFERA
 40
0.5
  9
$CHAMFERB
 40
0.5
  9
$CHAMFERC
 40
20.0
  9
$CHAMFERD
 40
0.0
  9
$SKPOLY
 70
     0
  9
$TDCREATE
 40
2450731.487069560
  9
$TDUCREATE
 40
2450731.112069560
  9
$TDUPDATE
 40
2455377.656010370
  9
$TDUUPDATE
 40
2455377.281010370
  9
$TDINDWG
 40
0.7685386227
  9
$TDUSRTIMER
 40
0.7685386227
  9
$USRTIMER
 70
     1
  9
$ANGBASE
 50
0.0
  9
$ANGDIR
 70
     0
  9
$PDMODE
 70
     0
  9
$PDSIZE
 40
0.0
  9
$PLINEWID
 40
0.0
  9
$SPLFRAME
 70
     0
  9
$SPLINETYPE
 70
     6
  9
$SPLINESEGS
 70
     8
  9
$HANDSEED
  5
1928
  9
$SURFTAB1
 70
     6
  9
$SURFTAB2
 70
     6
  9
$SURFTYPE
 70
     6
  9
$SURFU
 70
     6
  9
$SURFV
 70
     6
  9
$UCSBASE
  2

  9
$UCSNAME
  2

  9
$UCSORG
 10
0.0
 20
0.0
 30
0.0
  9
$UCSXDIR
 10
1.0
 20
0.0
 30
0.0
  9
$UCSYDIR
 10
0.0
 20
1.0
 30
0.0
  9
$UCSORTHOREF
  2

  9
$UCSORTHOVIEW
 70
     0
  9
$UCSORGTOP
 10
0.0
 20
0.0
 30
0.0
  9
$UCSORGBOTTOM
 10
0.0
 20
0.0
 30
0.0
  9
$UCSORGLEFT
 10
0.0
 20
0.0
 30
0.0
  9
$UCSORGRIGHT
 10
0.0
 20
0.0
 30
0.0
  9
$UCSORGFRONT
 10
0.0
 20
0.0
 30
0.0
  9
$UCSORGBACK
 10
0.0
 20
0.0
 30
0.0
  9
$PUCSBASE
  2

  9
$PUCSNAME
  2

  9
$PUCSORG
 10
0.0
 20
0.0
 30
0.0
  9
$PUCSXDIR
 10
1.0
 20
0.0
 30
0.0
  9
$PUCSYDIR
 10
0.0
 20
1.0
 30
0.0
  9
$PUCSORTHOREF
  2

  9
$PUCSORTHOVIEW
 70
     0
  9
$PUCSORGTOP
 10
0.0
 20
0.0
 30
0.0
  9
$PUCSORGBOTTOM
 10
0.0
 20
0.0
 30
0.0
  9
$PUCSORGLEFT
 10
0.0
 20
0.0
 30
0.0
  9
$PUCSORGRIGHT
 10
0.0
 20
0.0
 30
0.0
  9
$PUCSORGFRONT
 10
0.0
 20
0.0
 30
0.0
  9
$PUCSORGBACK
 10
0.0
 20
0.0
 30
0.0
  9
$USERI1
 70
     0
  9
$USERI2
 70
     0
  9
$USERI3
 70
     0
  9
$USERI4
 70
     0
  9
$USERI5
 70
     0
  9
$USERR1
 40
0.0
  9
$USERR2
 40
0.0
  9
$USERR3
 40
0.0
  9
$USERR4
 40
0.0
  9
$USERR5
 40
0.0
  9
$WORLDVIEW
 70
     1
  9
$SHADEDGE
 70
     3
  9
$SHADEDIF
 70
    70
  9
$TILEMODE
 70
     1
  9
$MAXACTVP
 70
    48
  9
$PINSBASE
 10
0.0
 20
0.0
 30
0.0
  9
$PLIMCHECK
 70
     0
  9
$PEXTMIN
 10
1.000000000000000E+20
 20
1.000000000000000E+20
 30
1.000000000000000E+20
  9
$PEXTMAX
 10
-1.000000000000000E+20
 20
-1.000000000000000E+20
 30
-1.000000000000000E+20
  9
$PLIMMIN
 10
0.0
 20
0.0
  9
$PLIMMAX
 10
420.0
 20
297.0
  9
$UNITMODE
 70
     0
  9
$VISRETAIN
 70
     1
  9
$PLINEGEN
 70
     0
  9
$PSLTSCALE
 70
     1
  9
$TREEDEPTH
 70
  3020
  9
$CMLSTYLE
  2
STANDARD
  9
$CMLJUST
 70
     0
  9
$CMLSCALE
 40
20.0
  9
$PROXYGRAPHICS
 70
     1
  9
$MEASUREMENT
 70
     1
  9
$CELWEIGHT
370
    -1
  9
$ENDCAPS
280
     0
  9
$JOINSTYLE
280
     0
  9
$LWDISPLAY
290
     0
  9
$INSUNITS
 70
     0
  9
$HYPERLINKBASE
  1

  9
$STYLESHEET
  1

  9
$XEDIT
290
     1
  9
$CEPSNTYPE
380
     0
  9
$PSTYLEMODE
290
     1
  9
$FINGERPRINTGUID
  2
{210A7579-9909-44AC-93ED-0EDF38B01D53}
  9
$VERSIONGUID
  2
{4B34D2B4-F9C2-460F-8D54-51FCB8C06674}
  9
$EXTNAMES
290
     1
  9
$PSVPSCALE
 40
0.0
  9
$OLESTARTUP
290
     0
  9
$SORTENTS
280
    96
  9
$INDEXCTL
280
     0
  9
$HIDETEXT
280
     0
  9
$XCLIPFRAME
290
     0
  9
$HALOGAP
280
     0
  9
$OBSCOLOR
 70
   257
  9
$OBSLTYPE
280
     0
  9
$INTERSECTIONDISPLAY
280
     0
  9
$INTERSECTIONCOLOR
 70
   257
  9
$DIMASSOC
280
     1
  9
$PROJECTNAME
  1

  0
ENDSEC
  0
SECTION
  2
CLASSES
  0
CLASS
  1
HATCH
  2
AcDbHatch
  3
ObjectDBX Classes
 90
        0
 91
       22
280
     0
281
     1
  0
CLASS
  1
LWPOLYLINE
  2
AcDbPolyline
  3
ObjectDBX Classes
 90
        0
 91
        4
280
     0
281
     1
  0
CLASS
  1
IMAGEDEF
  2
AcDbRasterImageDef
  3
ISM
 90
        0
 91
        1
280
     0
281
     0
  0
CLASS
  1
DICTIONARYVAR
  2
AcDbDictionaryVar
  3
ObjectDBX Classes
 90
        0
 91
        2
280
     0
281
     0
  0
CLASS
  1
SORTENTSTABLE
  2
AcDbSortentsTable
  3
ObjectDBX Classes
 90
        0
 91
        2
280
     0
281
     0
  0
CLASS
  1
ACDBDICTIONARYWDFLT
  2
AcDbDictionaryWithDefault
  3
ObjectDBX Classes
 90
        0
 91
        1
280
     0
281
     0
  0
CLASS
  1
TABLESTYLE
  2
AcDbTableStyle
  3
ObjectDBX Classes
 90
     2047
 91
        1
280
     0
281
     0
  0
ENDSEC
  0
SECTION
  2
TABLES
  0
TABLE
  2
VPORT
  5
8
330
0
100
AcDbSymbolTable
 70
     2
  0
VPORT
  5
1927
330
8
100
AcDbSymbolTableRecord
100
AcDbViewportTableRecord
  2
*Active
 70
     0
 10
0.0
 20
0.0
 11
1.0
 21
1.0
 12
432.396364953878
 22
317.286961787046
 13
0.0
 23
0.0
 14
10.0
 24
10.0
 15
10.0
 25
10.0
 16
0.0
 26
0.0
 36
1.0
 17
0.0
 27
0.0
 37
0.0
 40
285.4916010918541
 41
1.530456852791878
 42
50.0
 43
0.0
 44
0.0
 50
0.0
 51
0.0
 71
     0
 72
   100
 73
     1
 74
     1
 75
     0
 76
     0
 77
     0
 78
     0
281
     0
 65
     1
110
0.0
120
0.0
130
0.0
111
1.0
121
0.0
131
0.0
112
0.0
122
1.0
132
0.0
 79
     0
146
0.0
  0
ENDTAB
  0
TABLE
  2
LTYPE
  5
5
330
0
100
AcDbSymbolTable
 70
    14
  0
LTYPE
  5
12
330
5
100
AcDbSymbolTableRecord
100
AcDbLinetypeTableRecord
  2
BYBLOCK
 70
     0
  3

 72
    65
 73
     0
 40
0.0
  0
LTYPE
  5
13
330
5
100
AcDbSymbolTableRecord
100
AcDbLinetypeTableRecord
  2
BYLAYER
 70
     0
  3

 72
    65
 73
     0
 40
0.0
  0
LTYPE
  5
14
330
5
100
AcDbSymbolTableRecord
100
AcDbLinetypeTableRecord
  2
CONTINUOUS
 70
     0
  3
Solid line
 72
    65
 73
     0
 40
0.0
  0
LTYPE
  5
22
330
5
100
AcDbSymbolTableRecord
100
AcDbLinetypeTableRecord
  2
CENTER2
 70
     0
  3
Center (.5x) ___ _ ___ _ ___ _ ___ _ ___ _ ___
 72
    65
 73
     4
 40
28.575
 49
19.05
 74
     0
 49
-3.174999999999999
 74
     0
 49
3.174999999999999
 74
     0
 49
-3.174999999999999
 74
     0
  0
LTYPE
  5
23
330
5
100
AcDbSymbolTableRecord
100
AcDbLinetypeTableRecord
  2
HIDDEN2
 70
     0
  3
Hidden (.5x) _ _ _ _ _ _ _ _ _ _ _ _ _ _ _ _ _
 72
    65
 73
     2
 40
4.762499999999999
 49
3.174999999999999
 74
     0
 49
-1.587499999999999
 74
     0
  0
LTYPE
  5
24
330
5
100
AcDbSymbolTableRecord
100
AcDbLinetypeTableRecord
  2
PHANTOM2
 70
     0
  3
Phantom (.5x) ___ _ _ ___ _ _ ___ _ _ ___ _ _
 72
    65
 73
     6
 40
31.75
 49
15.875
 74
     0
 49
-3.174999999999999
 74
     0
 49
3.174999999999999
 74
     0
 49
-3.174999999999999
 74
     0
 49
3.174999999999999
 74
     0
 49
-3.174999999999999
 74
     0
  0
ENDTAB
  0
TABLE
  2
LAYER
  5
2
330
0
100
AcDbSymbolTable
 70
    20
  0
LAYER
  5
E
330
2
100
AcDbSymbolTableRecord
100
AcDbLayerTableRecord
  2
0
 70
     0
 62
     7
  6
CONTINUOUS
370
    -3
390
1790
  0
LAYER
  5
25
330
2
100
AcDbSymbolTableRecord
100
AcDbLayerTableRecord
  2
外形線
 70
     0
 62
     7
  6
CONTINUOUS
370
    -3
390
1790
  0
LAYER
  5
26
330
2
100
AcDbSymbolTableRecord
100
AcDbLayerTableRecord
  2
寸法線
 70
     0
 62
     2
  6
CONTINUOUS
370
    -3
390
1790
  0
LAYER
  5
27
330
2
100
AcDbSymbolTableRecord
100
AcDbLayerTableRecord
  2
中心線
 70
     0
 62
     4
  6
CENTER2
370
    -3
390
1790
  0
LAYER
  5
29
330
2
100
AcDbSymbolTableRecord
100
AcDbLayerTableRecord
  2
想像線
 70
     0
 62
     1
  6
PHANTOM2
370
    -3
390
1790
  0
LAYER
  5
2A
330
2
100
AcDbSymbolTableRecord
100
AcDbLayerTableRecord
  2
ﾊｯﾁﾝｸ
 70
     0
 62
     6
  6
CONTINUOUS
370
    -3
390
1790
  0
LAYER
  5
2B
330
2
100
AcDbSymbolTableRecord
100
AcDbLayerTableRecord
  2
文字
 70
     0
 62
     6
  6
CONTINUOUS
370
    -3
390
1790
  0
LAYER
  5
2C
330
2
100
AcDbSymbolTableRecord
100
AcDbLayerTableRecord
  2
目盛
 70
     0
 62
    72
  6
CONTINUOUS
370
    -3
390
1790
  0
LAYER
  5
2D
330
2
100
AcDbSymbolTableRecord
100
AcDbLayerTableRecord
  2
針
 70
     0
 62
     5
  6
CONTINUOUS
370
    -3
390
1790
  0
LAYER
  5
53
330
2
100
AcDbSymbolTableRecord
100
AcDbLayerTableRecord
  2
DEFPOINTS
 70
     0
 62
     7
  6
CONTINUOUS
290
     0
370
    -3
390
1790
  0
LAYER
  5
A5
330
2
100
AcDbSymbolTableRecord
100
AcDbLayerTableRecord
  2
C
 70
     0
 62
     7
  6
CONTINUOUS
370
    -3
390
1790
  0
LAYER
  5
348
330
2
100
AcDbSymbolTableRecord
100
AcDbLayerTableRecord
  2
ROGO
 70
     0
 62
     6
  6
CONTINUOUS
370
    -3
390
1790
  0
LAYER
  5
15E7
330
2
100
AcDbSymbolTableRecord
100
AcDbLayerTableRecord
  2
隠れ線2
 70
     0
 62
     1
  6
HIDDEN2
370
    -3
390
1790
  0
ENDTAB
  0
TABLE
  2
STYLE
  5
3
330
0
100
AcDbSymbolTable
 70
     6
  0
STYLE
  5
F
330
3
100
AcDbSymbolTableRecord
100
AcDbTextStyleTableRecord
  2
STANDARD
 70
     0
 40
0.0
 41
1.0
 50
0.0
 71
     0
 42
2.5
  3
txt
  4

  0
STYLE
  5
3F
330
3
100
AcDbSymbolTableRecord
100
AcDbTextStyleTableRecord
  2
STYLE3
 70
     0
 40
0.0
 41
1.0
 50
0.0
 71
     0
 42
3.0
  3
romans.shx
  4
bigfont.shx
  0
ENDTAB
  0
TABLE
  2
VIEW
  5
6
330
0
100
AcDbSymbolTable
 70
     0
  0
ENDTAB
  0
TABLE
  2
UCS
  5
7
330
0
100
AcDbSymbolTable
 70
     0
  0
ENDTAB
  0
TABLE
  2
APPID
  5
9
330
0
100
AcDbSymbolTable
 70
     1
  0
APPID
  5
10
330
9
100
AcDbSymbolTableRecord
100
AcDbRegAppTableRecord
  2
ACAD
 70
     0
  0
ENDTAB
  0
TABLE
  2
DIMSTYLE
  5
A
330
0
100
AcDbSymbolTable
 70
    12
100
AcDbDimStyleTable
 71
     0
  0
DIMSTYLE
105
1D
330
A
100
AcDbSymbolTableRecord
100
AcDbDimStyleTableRecord
  2
STANDARD
 70
     0
 41
2.5
 42
0.625
 43
3.75
 44
1.25
 73
     0
 74
     0
 77
     1
 78
     8
140
2.5
141
2.5
143
0.0394
147
0.625
171
     4
172
     1
273
     8
274
     4
277
     6
340
F
  0
DIMSTYLE
105
8F
102
{ACAD_REACTORS
330
14D0
330
1517
330
1534
330
1600
102
}
330
A
100
AcDbSymbolTableRecord
100
AcDbDimStyleTableRecord
  2
STYLE3
 70
     0
 41
2.5
 42
0.0
 43
3.75
 44
1.25
 73
     0
 74
     0
 77
     1
 78
     8
140
2.5
141
2.5
143
0.0394
147
0.625
171
     4
172
     1
173
     1
176
     2
177
     2
178
     6
271
     1
273
     8
274
     4
340
3F
341
45
343
45
344
45
  0
ENDTAB
  0
TABLE
  2
BLOCK_RECORD
  5
1
330
0
100
AcDbSymbolTable
 70
    17
  0
BLOCK_RECORD
  5
18
102
{ACAD_XDICTIONARY
360
D0C
102
}
330
1
100
AcDbSymbolTableRecord
100
AcDbBlockTableRecord
  2
*MODEL_SPACE
340
1797
  0
BLOCK_RECORD
  5
15
330
1
100
AcDbSymbolTableRecord
100
AcDbBlockTableRecord
  2
*PAPER_SPACE
340
1798
  0
BLOCK_RECORD
  5
45
330
1
100
AcDbSymbolTableRecord
100
AcDbBlockTableRecord
  2
_OPEN
340
0
102
{BLKREFS
331
1523
331
155A
331
155B
331
1624
331
1625
331
1741
331
1742
331
1767
331
1768
331
1694
331
18A8
331
18A9
331
18B1
331
18B2
331
18BA
331
18BB
331
18C3
331
18C4
102
}
  0
BLOCK_RECORD
  5
14C4
330
1
100
AcDbSymbolTableRecord
100
AcDbBlockTableRecord
  2
*D7
340
0
  0
BLOCK_RECORD
  5
150B
330
1
100
AcDbSymbolTableRecord
100
AcDbBlockTableRecord
  2
*D8
340
0
  0
BLOCK_RECORD
  5
1528
330
1
100
AcDbSymbolTableRecord
100
AcDbBlockTableRecord
  2
*D9
340
0
  0
BLOCK_RECORD
  5
15F2
330
1
100
AcDbSymbolTableRecord
100
AcDbBlockTableRecord
  2
*D11
340
0
  0
ENDTAB
  0
ENDSEC
  0
SECTION
  2
BLOCKS
  0
BLOCK
  5
19
330
18
100
AcDbEntity
  8
0
100
AcDbBlockBegin
  2
*MODEL_SPACE
 70
     0
 10
0.0
 20
0.0
 30
0.0
  3
*MODEL_SPACE
  1

  0
ENDBLK
  5
1A
330
18
100
AcDbEntity
  8
0
100
AcDbBlockEnd
  0
BLOCK
  5
16
330
15
100
AcDbEntity
 67
     1
  8
0
100
AcDbBlockBegin
  2
*PAPER_SPACE
 70
     0
 10
0.0
 20
0.0
 30
0.0
  3
*PAPER_SPACE
  1

  0
ENDBLK
  5
17
330
15
100
AcDbEntity
 67
     1
  8
0
100
AcDbBlockEnd
  0
BLOCK
  5
46
330
45
100
AcDbEntity
  8
0
100
AcDbBlockBegin
  2
_OPEN
 70
     0
 10
0.0
 20
0.0
 30
0.0
  3
_OPEN
  1

  0
LINE
  5
47
330
45
100
AcDbEntity
  8
0
  6
ByBlock
 62
     0
100
AcDbLine
 10
-1.0
 20
0.1666666666666666
 30
0.0
 11
0.0
 21
0.0
 31
0.0
  0
LINE
  5
48
330
45
100
AcDbEntity
  8
0
  6
ByBlock
 62
     0
100
AcDbLine
 10
0.0
 20
0.0
 30
0.0
 11
-1.0
 21
-0.1666666666666666
 31
0.0
  0
LINE
  5
49
330
45
100
AcDbEntity
  8
0
  6
ByBlock
 62
     0
100
AcDbLine
 10
0.0
 20
0.0
 30
0.0
 11
-1.0
 21
0.0
 31
0.0
  0
ENDBLK
  5
4A
330
45
100
AcDbEntity
  8
0
100
AcDbBlockEnd
  0
BLOCK
  5
14D1
330
14C4
100
AcDbEntity
  8
0
100
AcDbBlockBegin
  2
*D7
 70
     1
 10
0.0
 20
0.0
 30
0.0
  3
*D7
  1

  0
LINE
  5
18AE
330
14C4
100
AcDbEntity
  8
寸法線
 62
     2
370
    -2
100
AcDbLine
 10
514.8318619278168
 20
412.2539805739986
 30
0.0
 11
547.0478789316461
 21
420.6742870665463
 31
0.0
  0
LINE
  5
18AF
330
14C4
100
AcDbEntity
  8
寸法線
 62
     2
370
    -2
100
AcDbLine
 10
545.2628566395657
 20
295.8252681577929
 30
0.0
 11
577.4788736433951
 21
304.2455746503406
 31
0.0
  0
LINE
  5
18B0
330
14C4
100
AcDbEntity
  8
寸法線
 62
     2
370
    -2
100
AcDbLine
 10
546.4706937571354
 20
417.9394457047257
 30
0.0
 11
575.6373116586451
 21
306.3482276070417
 31
0.0
  0
INSERT
  5
18B1
330
14C4
100
AcDbEntity
  8
寸法線
 62
     2
370
    -2
100
AcDbBlockReference
  2
_OPEN
 10
545.8385053520157
 20
420.3581928639866
 30
0.0
 41
2.5
 42
2.5
 43
2.5
 50
104.6477267692104
  0
INSERT
  5
18B2
330
14C4
100
AcDbEntity
  8
寸法線
 62
     2
370
    -2
100
AcDbBlockReference
  2
_OPEN
 10
576.2695000637647
 20
303.9294804477809
 30
0.0
 41
2.5
 42
2.5
 43
2.5
 50
284.6477267692105
  0
MTEXT
  5
18B3
330
14C4
100
AcDbEntity
  8
寸法線
 62
     6
100
AcDbMText
 10
559.2399423384445
 20
361.6696953520439
 30
0.0
 40
2.5
 41
0.0
 71
     5
 72
     1
  1
\A1;120
  7
STYLE3
 11
-0.2528753620478208
 21
0.9674988637043373
 31
0.0
 73
     1
 44
1.0
  0
POINT
  5
18B4
330
14C4
100
AcDbEntity
  8
DEFPOINTS
 62
     0
100
AcDbPoint
 10
514.8318619278168
 20
412.2539805739986
 30
0.0
  0
POINT
  5
18B5
330
14C4
100
AcDbEntity
  8
DEFPOINTS
 62
     0
100
AcDbPoint
 10
545.2628566395657
 20
295.8252681577929
 30
0.0
  0
POINT
  5
18B6
330
14C4
100
AcDbEntity
  8
DEFPOINTS
 62
     0
100
AcDbPoint
 10
576.2695000637647
 20
303.9294804477809
 30
0.0
  0
ENDBLK
  5
14DB
330
14C4
100
AcDbEntity
  8
0
100
AcDbBlockEnd
  0
BLOCK
  5
150C
330
150B
100
AcDbEntity
  8
0
100
AcDbBlockBegin
  2
*D8
 70
     1
 10
0.0
 20
0.0
 30
0.0
  3
*D8
  1

  0
LINE
  5
18B7
330
150B
100
AcDbEntity
  8
寸法線
 62
     2
370
    -2
100
AcDbLine
 10
544.708451991709
 20
305.7818017407273
 30
0.0
 11
559.0358024893445
 21
305.7818017407273
 31
0.0
  0
LINE
  5
18B8
330
150B
100
AcDbEntity
  8
寸法線
 62
     2
370
    -2
100
AcDbLine
 10
544.9467624370057
 20
295.7846417374233
 30
0.0
 11
559.0358024893445
 21
295.7846417374233
 31
0.0
  0
LINE
  5
18B9
330
150B
100
AcDbEntity
  8
寸法線
 62
     2
370
    -2
100
AcDbLine
 10
557.7858024893445
 20
303.2818017407274
 30
0.0
 11
557.7858024893445
 21
298.2846417374233
 31
0.0
  0
INSERT
  5
18BA
330
150B
100
AcDbEntity
  8
寸法線
 62
     2
370
    -2
100
AcDbBlockReference
  2
_OPEN
 10
557.7858024893445
 20
305.7818017407273
 30
0.0
 41
2.5
 42
2.5
 43
2.5
 50
90.0
  0
INSERT
  5
18BB
330
150B
100
AcDbEntity
  8
寸法線
 62
     2
370
    -2
100
AcDbBlockReference
  2
_OPEN
 10
557.7858024893445
 20
295.7846417374233
 30
0.0
 41
2.5
 42
2.5
 43
2.5
 50
270.0
  0
MTEXT
  5
18BC
330
150B
100
AcDbEntity
  8
寸法線
 62
     6
100
AcDbMText
 10
555.9108024893443
 20
300.7832217390754
 30
0.0
 40
2.5
 41
0.0
 71
     5
 72
     1
  1
\A1;10
  7
STYLE3
 11
0.0000000000000001
 21
1.0
 31
0.0
 73
     1
 44
1.0
  0
POINT
  5
18BD
330
150B
100
AcDbEntity
  8
DEFPOINTS
 62
     0
100
AcDbPoint
 10
544.708451991709
 20
305.7818017407273
 30
0.0
  0
POINT
  5
18BE
330
150B
100
AcDbEntity
  8
DEFPOINTS
 62
     0
100
AcDbPoint
 10
544.9467624370057
 20
295.7846417374233
 30
0.0
  0
POINT
  5
18BF
330
150B
100
AcDbEntity
  8
DEFPOINTS
 62
     0
100
AcDbPoint
 10
557.7858024893445
 20
295.7846417374233
 30
0.0
  0
ENDBLK
  5
1516
330
150B
100
AcDbEntity
  8
0
100
AcDbBlockEnd
  0
BLOCK
  5
1529
330
1528
100
AcDbEntity
  8
0
100
AcDbBlockBegin
  2
*D9
 70
     1
 10
0.0
 20
0.0
 30
0.0
  3
*D9
  1

  0
LINE
  5
18C0
330
1528
100
AcDbEntity
  8
寸法線
 62
     2
370
    -2
100
AcDbLine
 10
324.9467624370057
 20
285.3224485242843
 30
0.0
 11
324.9467624370057
 21
279.9335851660852
 31
0.0
  0
LINE
  5
18C1
330
1528
100
AcDbEntity
  8
寸法線
 62
     2
370
    -2
100
AcDbLine
 10
434.9467624370057
 20
290.7834187944431
 30
0.0
 11
434.9467624370057
 21
279.9335851660852
 31
0.0
  0
LINE
  5
18C2
330
1528
100
AcDbEntity
  8
寸法線
 62
     2
370
    -2
100
AcDbLine
 10
327.4467624370057
 20
281.1835851660852
 30
0.0
 11
432.4467624370057
 21
281.1835851660852
 31
0.0
  0
INSERT
  5
18C3
330
1528
100
AcDbEntity
  8
寸法線
 62
     2
370
    -2
100
AcDbBlockReference
  2
_OPEN
 10
324.9467624370057
 20
281.1835851660852
 30
0.0
 41
2.5
 42
2.5
 43
2.5
 50
180.0
  0
INSERT
  5
18C4
330
1528
100
AcDbEntity
  8
寸法線
 62
     2
370
    -2
100
AcDbBlockReference
  2
_OPEN
 10
434.9467624370057
 20
281.1835851660852
 30
0.0
 41
2.5
 42
2.5
 43
2.5
  0
MTEXT
  5
18C5
330
1528
100
AcDbEntity
  8
寸法線
 62
     6
100
AcDbMText
 10
379.9467624370058
 20
283.0585851660852
 30
0.0
 40
2.5
 41
0.0
 71
     5
 72
     1
  1
\A1;110
  7
STYLE3
 73
     1
 44
1.0
  0
POINT
  5
18C6
330
1528
100
AcDbEntity
  8
DEFPOINTS
 62
     0
100
AcDbPoint
 10
324.9467624370057
 20
285.3224485242843
 30
0.0
  0
POINT
  5
18C7
330
1528
100
AcDbEntity
  8
DEFPOINTS
 62
     0
100
AcDbPoint
 10
434.9467624370057
 20
290.7834187944431
 30
0.0
  0
POINT
  5
18C8
330
1528
100
AcDbEntity
  8
DEFPOINTS
 62
     0
100
AcDbPoint
 10
434.9467624370057
 20
281.1835851660852
 30
0.0
  0
ENDBLK
  5
1533
330
1528
100
AcDbEntity
  8
0
100
AcDbBlockEnd
  0
BLOCK
  5
1612
330
15F2
100
AcDbEntity
  8
0
100
AcDbBlockBegin
  2
*D11
 70
     1
 10
0.0
 20
0.0
 30
0.0
  3
*D11
  1

  0
LINE
  5
18A3
330
15F2
100
AcDbEntity
  8
寸法線
 62
     2
370
    -2
100
AcDbLine
 10
581.7354931316192
 20
271.7765225242584
 30
0.0
 11
581.7354931316192
 21
279.3330721724424
 31
0.0
  0
LINE
  5
18A4
330
15F2
100
AcDbEntity
  8
寸法線
 62
     2
370
    -2
100
AcDbLine
 10
585.7354931316193
 20
269.2672614119707
 30
0.0
 11
585.7354931316193
 21
279.3330721724424
 31
0.0
  0
LINE
  5
18A5
330
15F2
100
AcDbEntity
  8
寸法線
 62
     2
370
    -2
100
AcDbLine
 10
579.2354931316192
 20
278.0830721724424
 30
0.0
 11
576.7354931316192
 21
278.0830721724424
 31
0.0
  0
LINE
  5
18A6
330
15F2
100
AcDbEntity
  8
寸法線
 62
     2
370
    -2
100
AcDbLine
 10
588.2354931316192
 20
278.0830721724424
 30
0.0
 11
590.7354931316192
 21
278.0830721724424
 31
0.0
  0
LINE
  5
18A7
330
15F2
100
AcDbEntity
  8
寸法線
 62
     2
370
    -2
100
AcDbLine
 10
581.7354931316192
 20
278.0830721724424
 30
0.0
 11
585.7354931316193
 21
278.0830721724424
 31
0.0
  0
INSERT
  5
18A8
330
15F2
100
AcDbEntity
  8
寸法線
 62
     2
370
    -2
100
AcDbBlockReference
  2
_OPEN
 10
581.7354931316192
 20
278.0830721724424
 30
0.0
 41
2.5
 42
2.5
 43
2.5
  0
INSERT
  5
18A9
330
15F2
100
AcDbEntity
  8
寸法線
 62
     2
370
    -2
100
AcDbBlockReference
  2
_OPEN
 10
585.7354931316193
 20
278.0830721724424
 30
0.0
 41
2.5
 42
2.5
 43
2.5
 50
180.0
  0
MTEXT
  5
18AA
330
15F2
100
AcDbEntity
  8
寸法線
 62
     6
100
AcDbMText
 10
583.7354931316192
 20
279.9580721724424
 30
0.0
 40
2.5
 41
0.0
 71
     5
 72
     1
  1
\A1;2
  7
STYLE3
 73
     1
 44
1.0
  0
POINT
  5
18AB
330
15F2
100
AcDbEntity
  8
DEFPOINTS
 62
     0
100
AcDbPoint
 10
581.7354931316192
 20
271.7765225242584
 30
0.0
  0
POINT
  5
18AC
330
15F2
100
AcDbEntity
  8
DEFPOINTS
 62
     0
100
AcDbPoint
 10
585.7354931316193
 20
269.2672614119707
 30
0.0
  0
POINT
  5
18AD
330
15F2
100
AcDbEntity
  8
DEFPOINTS
 62
     0
100
AcDbPoint
 10
585.7354931316193
 20
278.0830721724424
 30
0.0
  0
ENDBLK
  5
161E
330
15F2
100
AcDbEntity
  8
0
100
AcDbBlockEnd
  0
ENDSEC
  0
SECTION
  2
ENTITIES
  0
LWPOLYLINE
  5
1A0
330
18
100
AcDbEntity
  8
C
100
AcDbPolyline
 90
        5
 70
     0
 43
0.8
 10
243.6410342841802
 20
458.5261006549212
 10
621.1410342841801
 20
458.5261006549212
 10
621.1410342841801
 20
176.0261006549212
 10
243.6410342841802
 20
176.0261006549212
 10
243.6410342841802
 20
458.5261006549212
  0
MTEXT
  5
C1F
330
18
100
AcDbEntity
  8
DEFPOINTS
  6
Continuous
100
AcDbMText
 10
926.9602912546167
 20
262.1473459985115
 30
0.0
 40
0.5
 41
0.0
 71
     4
 72
     1
  1
\A1;
 73
     1
 44
1.0
  0
LINE
  5
1066
330
18
100
AcDbEntity
  8
中心線
100
AcDbLine
 10
309.3552230997931
 20
300.4846417374233
 30
0.0
 11
534.9467624370057
 21
300.4846417374233
 31
0.0
  0
LINE
  5
1067
330
18
100
AcDbEntity
  8
外形線
100
AcDbLine
 10
494.9467624370057
 20
296.4846417374232
 30
0.0
 11
534.9467624370057
 21
296.4846417374232
 31
0.0
  0
LINE
  5
1068
330
18
100
AcDbEntity
  8
外形線
100
AcDbLine
 10
494.9467624370057
 20
304.4846417374233
 30
0.0
 11
524.9467624370057
 21
304.4846417374233
 31
0.0
  0
LINE
  5
106A
330
18
100
AcDbEntity
  8
外形線
100
AcDbLine
 10
385.9467624370058
 20
323.9846417374232
 30
0.0
 11
385.9467624370058
 21
311.8149640490354
 31
0.0
  0
LINE
  5
106B
330
18
100
AcDbEntity
  8
外形線
100
AcDbLine
 10
379.9467624370058
 20
323.9846417374232
 30
0.0
 11
379.9467624370058
 21
312.1285775190094
 31
0.0
  0
LINE
  5
106C
330
18
100
AcDbEntity
  8
外形線
100
AcDbLine
 10
439.9467624370057
 20
292.4846417374233
 30
0.0
 11
325.364660093331
 21
288.4919205470996
 31
0.0
  0
ARC
  5
106D
330
18
100
AcDbEntity
  8
外形線
100
AcDbCircle
 10
384.9467624370058
 20
300.4846417374233
 30
0.0
 40
4.0
100
AcDbArc
 50
34.19537890398133
 51
162.1963583317807
  0
LINE
  5
106F
330
18
100
AcDbEntity
  8
外形線
100
AcDbLine
 10
378.3945252299651
 20
310.629487370219
 30
0.0
 11
336.1132960359031
 21
312.1028165926983
 31
0.0
  0
ARC
  5
1070
330
18
100
AcDbEntity
  8
外形線
100
AcDbCircle
 10
354.9467624370058
 20
300.4846417374233
 30
0.0
 40
6.0
100
AcDbArc
 50
343.326835902081
 51
213.0649013336806
  0
LINE
  5
1071
330
18
100
AcDbEntity
  8
中心線
100
AcDbLine
 10
324.9467624370057
 20
285.3224485242843
 30
0.0
 11
324.9467624370057
 21
316.7298451362622
 31
0.0
  0
LINE
  5
1074
330
18
100
AcDbEntity
  8
中心線
100
AcDbLine
 10
354.9467624370058
 20
285.3224485242843
 30
0.0
 11
354.9467624370058
 21
316.7298451362622
 31
0.0
  0
ARC
  5
1077
330
18
100
AcDbEntity
  8
外形線
100
AcDbCircle
 10
378.4467624370058
 20
312.1285775190094
 30
0.0
 40
1.5
100
AcDbArc
 50
268.0042821398466
 51
0.0
  0
LINE
  5
1078
330
18
100
AcDbEntity
  8
外形線
100
AcDbLine
 10
494.9467624370057
 20
304.4846417374233
 30
0.0
 11
448.5496747113677
 21
307.8589753901969
 31
0.0
  0
LINE
  5
1079
330
18
100
AcDbEntity
  8
外形線
100
AcDbLine
 10
439.9467624370057
 20
292.4846417374233
 30
0.0
 11
494.9467624370057
 21
296.4846417374232
 31
0.0
  0
LINE
  5
107A
330
18
100
AcDbEntity
  8
外形線
100
AcDbLine
 10
419.0506317933223
 20
309.2127870752226
 30
0.0
 11
406.1364262360406
 21
309.6627947215312
 31
0.0
  0
ARC
  5
107B
330
18
100
AcDbEntity
  8
外形線
100
AcDbCircle
 10
414.9467624370057
 20
300.4846417374233
 30
0.0
 40
3.0
100
AcDbArc
 50
172.1309142701038
 51
24.26082296565855
  0
ARC
  5
107C
330
18
100
AcDbEntity
  8
中心線
100
AcDbCircle
 10
324.9467624370057
 20
300.4846417374233
 30
0.0
 40
75.0
100
AcDbArc
 50
353.4858684025219
 51
12.57745666089334
  0
LINE
  5
107F
330
18
100
AcDbEntity
  8
中心線
100
AcDbLine
 10
389.6522668516579
 20
306.4846417374233
 30
0.0
 11
409.4325518419208
 21
306.4846417374233
 31
0.0
  0
LINE
  5
1081
330
18
100
AcDbEntity
  8
外形線
100
AcDbLine
 10
393.0140732578618
 20
310.1200554606101
 30
0.0
 11
387.3945252299651
 21
310.3158739002449
 31
0.0
  0
ARC
  5
1082
330
18
100
AcDbEntity
  8
外形線
100
AcDbCircle
 10
387.4467624370057
 20
311.8149640490354
 30
0.0
 40
1.5
100
AcDbArc
 50
180.0
 51
268.0042821398467
  0
ARC
  5
1083
330
18
100
AcDbEntity
  8
外形線
100
AcDbCircle
 10
392.9618360508212
 20
308.6209653118196
 30
0.0
 40
1.5
100
AcDbArc
 50
77.94077159314814
 51
88.00428213984675
  0
ARC
  5
1085
330
18
100
AcDbEntity
  8
外形線
100
AcDbCircle
 10
406.0841890289999
 20
308.1637045727407
 30
0.0
 40
1.5
100
AcDbArc
 50
88.00428213984668
 51
115.3756204037477
  0
LINE
  5
1087
330
18
100
AcDbEntity
  8
中心線
100
AcDbLine
 10
434.9467624370057
 20
290.7834187944431
 30
0.0
 11
434.9467624370057
 21
363.7485566764903
 31
0.0
  0
LINE
  5
1088
330
18
100
AcDbEntity
  8
中心線
 48
0.2
100
AcDbLine
 10
424.9467624370057
 20
291.470074732422
 30
0.0
 11
424.9467624370057
 21
300.5165283347838
 31
0.0
  0
LINE
  5
108B
330
18
100
AcDbEntity
  8
中心線
100
AcDbLine
 10
430.8358996859937
 20
295.4846417374233
 30
0.0
 11
438.5259483448892
 21
295.4846417374233
 31
0.0
  0
LINE
  5
108D
330
18
100
AcDbEntity
  8
中心線
 48
0.2
100
AcDbLine
 10
420.2043799157222
 20
295.9846417374233
 30
0.0
 11
429.5873364697468
 21
295.9846417374233
 31
0.0
  0
ARC
  5
1090
330
18
100
AcDbEntity
  8
外形線
100
AcDbCircle
 10
382.9467624370058
 20
323.9846417374232
 30
0.0
 40
3.0
100
AcDbArc
 50
0.0
 51
180.0
  0
LINE
  5
1096
330
18
100
AcDbEntity
  8
外形線
100
AcDbLine
 10
524.9467624370057
 20
304.4846417374233
 30
0.0
 11
534.9467624370057
 21
300.4846417374233
 31
0.0
  0
LINE
  5
1098
330
18
100
AcDbEntity
  8
外形線
100
AcDbLine
 10
534.9467624370057
 20
296.4846417374232
 30
0.0
 11
542.9467624370057
 21
297.7846417374233
 31
0.0
  0
LINE
  5
1099
330
18
100
AcDbEntity
  8
外形線
100
AcDbLine
 10
534.9467624370057
 20
300.4846417374233
 30
0.0
 11
546.9467624370057
 21
300.4846417374233
 31
0.0
  0
LINE
  5
109A
330
18
100
AcDbEntity
  8
外形線
100
AcDbLine
 10
546.9467624370057
 20
297.7846417374233
 30
0.0
 11
546.9467624370058
 21
300.4846417374233
 31
0.0
  0
LINE
  5
109B
330
18
100
AcDbEntity
  8
外形線
100
AcDbLine
 10
542.9467624370057
 20
297.7846417374233
 30
0.0
 11
546.9467624370057
 21
297.7846417374233
 31
0.0
  0
CIRCLE
  5
109D
330
18
100
AcDbEntity
  8
外形線
100
AcDbCircle
 10
434.9467624370057
 20
295.4846417374233
 30
0.0
 40
2.5
  0
LINE
  5
1219
330
18
100
AcDbEntity
  8
目盛
100
AcDbLine
 10
457.5378634337636
 20
326.1669854571842
 30
0.0
 11
455.5734198688282
 21
326.5424338293786
 31
0.0
  0
LINE
  5
121A
330
18
100
AcDbEntity
  8
目盛
100
AcDbLine
 10
457.6623369503506
 20
326.8787195906386
 30
0.0
 11
455.4895428664656
 21
327.2236338829397
 31
0.0
  0
LINE
  5
121B
330
18
100
AcDbEntity
  8
目盛
100
AcDbLine
 10
457.7643929373778
 20
327.5940123339039
 30
0.0
 11
455.7802511547367
 21
327.8453714124708
 31
0.0
  0
LINE
  5
121C
330
18
100
AcDbEntity
  8
目盛
100
AcDbLine
 10
456.8185800317478
 20
323.3696157288735
 30
0.0
 11
453.9657342585205
 21
324.2976625995542
 31
0.0
  0
LINE
  5
121D
330
18
100
AcDbEntity
  8
目盛
100
AcDbLine
 10
457.2221771754073
 20
324.7569983972527
 30
0.0
 11
455.2851845894593
 21
325.2550543398763
 31
0.0
  0
LINE
  5
121E
330
18
100
AcDbEntity
  8
目盛
100
AcDbLine
 10
456.5842992422837
 20
322.6861161716359
 30
0.0
 11
454.7027743026943
 21
323.3642488295304
 31
0.0
  0
LINE
  5
121F
330
18
100
AcDbEntity
  8
目盛
100
AcDbLine
 10
457.0312759778621
 20
324.0601369577742
 30
0.0
 11
455.1108834960484
 21
324.6187895473089
 31
0.0
  0
LINE
  5
1220
330
18
100
AcDbEntity
  8
目盛
100
AcDbLine
 10
457.3910952279491
 20
325.4595123292006
 30
0.0
 11
455.4394141156929
 21
325.8964801038288
 31
0.0
  0
LINE
  5
1221
330
18
100
AcDbEntity
  8
目盛
100
AcDbLine
 10
456.3286648163248
 20
322.0103128176043
 30
0.0
 11
454.4693689572534
 21
322.7472109845451
 31
0.0
  0
LINE
  5
1222
330
18
100
AcDbEntity
  8
目盛
100
AcDbLine
 10
456.0519290341851
 20
321.3428726030981
 30
0.0
 11
454.2166971561694
 21
322.1378090495612
 31
0.0
  0
LINE
  5
1223
330
18
100
AcDbEntity
  8
目盛
100
AcDbLine
 10
457.843930677907
 20
328.3121577794004
 30
0.0
 11
455.8528725700023
 21
328.5010694279241
 31
0.0
  0
LINE
  5
1224
330
18
100
AcDbEntity
  8
目盛
100
AcDbLine
 10
457.6648488230601
 20
334.0747045440849
 30
0.0
 11
455.4918144730897
 21
333.7313072321432
 31
0.0
  0
LINE
  5
1225
330
18
100
AcDbEntity
  8
目盛
100
AcDbLine
 10
457.7664054167178
 20
333.3593407266182
 30
0.0
 11
455.7820886358732
 21
333.1093669014707
 31
0.0
  0
LINE
  5
1226
330
18
100
AcDbEntity
  8
目盛
100
AcDbLine
 10
457.8454417778033
 20
332.6411399283157
 30
0.0
 11
455.8542522699078
 21
332.4536183464987
 31
0.0
  0
LINE
  5
1227
330
18
100
AcDbEntity
  8
目盛
100
AcDbLine
 10
457.9467610357657
 20
330.4766132230271
 30
0.0
 11
454.9467612185361
 21
330.4776604205569
 31
0.0
  0
LINE
  5
1228
330
18
100
AcDbEntity
  8
目盛
100
AcDbLine
 10
457.3945979602572
 20
335.4941008220999
 30
0.0
 11
455.4426122625831
 21
335.0584956843019
 31
0.0
  0
LINE
  5
1229
330
18
100
AcDbEntity
  8
目盛
100
AcDbLine
 10
457.226170396086
 20
336.1967325098876
 30
0.0
 11
455.2888305735574
 21
335.7000289644561
 31
0.0
  0
LINE
  5
122A
330
18
100
AcDbEntity
  8
目盛
100
AcDbLine
 10
457.0357557460846
 20
336.8937270537119
 30
0.0
 11
455.1149737192081
 21
336.3364152870781
 31
0.0
  0
LINE
  5
122B
330
18
100
AcDbEntity
  8
目盛
100
AcDbLine
 10
456.3345758028662
 20
338.9440412094379
 30
0.0
 11
454.4747659449654
 21
338.2084412553496
 31
0.0
  0
LINE
  5
122C
330
18
100
AcDbEntity
  8
目盛
100
AcDbLine
 10
456.0583060493
 20
339.6116744592993
 30
0.0
 11
454.2225196482308
 21
338.8180194400055
 31
0.0
  0
LINE
  5
122D
330
18
100
AcDbEntity
  8
目盛
100
AcDbLine
 10
456.8235419265238
 20
337.5843966041075
 30
0.0
 11
453.9700489496302
 21
336.6583416214966
 31
0.0
  0
LINE
  5
122E
330
18
100
AcDbEntity
  8
目盛
100
AcDbLine
 10
456.5897383668223
 20
338.2680595536132
 30
0.0
 11
454.7077404598816
 21
337.5912406130749
 31
0.0
  0
LINE
  5
122F
330
18
100
AcDbEntity
  8
目盛
100
AcDbLine
 10
457.5408722209269
 20
334.7865254029951
 30
0.0
 11
455.5761670223252
 21
334.4124485625105
 31
0.0
  0
HATCH
  5
1230
330
18
100
AcDbEntity
  8
ﾊｯﾁﾝｸ
  6
Continuous
100
AcDbHatch
 10
0.0
 20
0.0
 30
0.0
210
0.0
220
0.0
230
1.0
  2
SOLID
 70
     1
 71
     0
 91
        1
 92
        1
 93
        3
 72
     1
 10
457.9467610357657
 20
330.4766132230271
 11
436.3608013802984
 21
329.9841481142352
 72
     2
 10
434.9467624370057
 20
330.4846417374232
 40
1.499999999999999
 50
-739.4912206344874
 51
-700.5487793655085
 73
     1
 72
     1
 10
436.3611504461418
 20
330.9841480533118
 11
457.9467610357648
 21
330.4766132230274
 97
        0
 75
     0
 76
     1
 98
        1
 10
449.2817875763837
 20
558.0320724822322
450
        0
451
        0
460
0.0
461
0.0
452
        0
462
0.0
453
        0
470

  0
LINE
  5
1231
330
18
100
AcDbEntity
  8
針
  6
Continuous
100
AcDbLine
 10
457.9467610357648
 20
330.4766132230272
 30
0.0
 11
436.3611504461418
 21
330.9841480533118
 31
0.0
  0
LINE
  5
1232
330
18
100
AcDbEntity
  8
針
  6
Continuous
100
AcDbLine
 10
457.9467610357657
 20
330.4766132230271
 30
0.0
 11
436.3608013802982
 21
329.9841481142354
 31
0.0
  0
CIRCLE
  5
1233
330
18
100
AcDbEntity
  8
外形線
100
AcDbCircle
 10
434.9467624370057
 20
330.4846417374232
 30
0.0
 40
23.0
  0
LINE
  5
1235
102
{ACAD_REACTORS
330
1237
102
}
330
18
100
AcDbEntity
  8
ROGO
 62
     4
100
AcDbLine
 10
430.4161460092148
 20
330.1140962717661
 30
0.0
 11
430.4168345606021
 21
328.7990601099226
 31
0.0
  0
LINE
  5
1236
102
{ACAD_REACTORS
330
1237
102
}
330
18
100
AcDbEntity
  8
ROGO
 62
     4
100
AcDbLine
 10
429.9277017404612
 20
329.864190370486
 30
0.0
 11
429.9281320165964
 21
329.0424235597809
 31
0.0
  0
HATCH
  5
1237
330
18
100
AcDbEntity
  8
ROGO
 62
     4
100
AcDbHatch
 10
0.0
 20
0.0
 30
0.0
210
0.0
220
0.0
230
1.0
  2
SOLID
 70
     1
 71
     1
 91
        1
 92
        5
 93
        8
 72
     1
 10
429.9281320165964
 20
329.042423559781
 11
430.4168345606022
 21
328.7990601099224
 72
     1
 10
430.4168345606022
 20
328.7990601099224
 11
430.4161460092149
 21
330.1140962717665
 72
     4
 94
        3
 73
     0
 74
     0
 95
       26
 96
       22
 40
0.0
 40
0.0
 40
0.0
 40
0.0
 40
0.2382195346593317
 40
0.3976890672663111
 40
0.51267958697899
 40
0.5985392873135357
 40
0.7099038249250787
 40
0.7911890807498291
 40
0.9379713068545566
 40
1.057449928672972
 40
1.138714535893043
 40
1.218398644003623
 40
1.36093802187028
 40
1.461730374800285
 40
1.516014844107856
 40
1.593124329220333
 40
1.648806818593869
 40
1.729472362005876
 40
1.775122082164238
 40
1.874460993765312
 40
1.919820003751158
 40
1.919820003751158
 40
1.919820003751158
 40
1.919820003751158
 10
430.416146009215
 20
330.1140962717663
 10
430.4112797028293
 20
330.1949491256162
 10
430.4031557811267
 20
330.3299267045093
 10
430.3130426874534
 20
330.4780887524278
 10
430.260643153402
 20
330.5866480753883
 10
430.1894471921888
 20
330.6640547423068
 10
430.1159191267603
 20
330.7207829687479
 10
430.0283089192387
 20
330.7923022106527
 10
429.9263034548977
 20
330.8506081066179
 10
429.8138937684922
 20
330.8802680956447
 10
429.7243012146491
 20
330.9065458573516
 10
429.6244671433186
 20
330.926016401998
 10
429.5166248707768
 20
330.9209927784172
 10
429.4164677979629
 20
330.9138271394332
 10
429.3449846136482
 20
330.8820310166432
 10
429.2941006109655
 20
330.8458368464926
 10
429.2380598543793
 20
330.8015208616924
 10
429.2009542583492
 20
330.7530421622859
 10
429.1337099981452
 20
330.7129271806654
 10
429.1251632024341
 20
330.6427644156938
 10
429.1081027649916
 20
330.5981600826799
 10
429.1027547645239
 20
330.5841777920954
 72
     1
 10
429.1027547645235
 20
330.5841777920949
 11
429.1033469699039
 21
329.4531489321301
 72
     1
 10
429.1033469699039
 20
329.4531489321301
 11
429.5920443386831
 21
329.2097880594243
 72
     1
 10
429.5920443386831
 20
329.2097880594243
 11
429.5916046827487
 21
330.0494689651945
 72
     4
 94
        3
 73
     0
 74
     0
 95
       16
 96
       12
 40
0.0
 40
0.0
 40
0.0
 40
0.0
 40
0.0719416665234766
 40
0.144625359076022
 40
0.1879779149913265
 40
0.2295440936105161
 40
0.2751936323959568
 40
0.3070718656054034
 40
0.3373215422375377
 40
0.3986635435213071
 40
0.5242542460841371
 40
0.5242542460841371
 40
0.5242542460841371
 40
0.5242542460841371
 10
429.5916046827486
 20
330.0494689651945
 10
429.5990432122435
 20
330.0748006021436
 10
429.6139969942614
 20
330.1257251534748
 10
429.6866144422233
 20
330.1300244943164
 10
429.7383649458045
 20
330.1242461609619
 10
429.7760528516911
 20
330.0999527410949
 10
429.8034819430728
 20
330.0704710310305
 10
429.8391896828867
 20
330.0595070318048
 10
429.8661660546517
 20
330.0272385230518
 10
429.9115111292196
 20
329.9700165064412
 10
429.9211953790203
 20
329.9067176772143
 10
429.9277017404608
 20
329.864190370486
 72
     1
 10
429.9277017404612
 20
329.8641903704853
 11
429.9281320165964
 21
329.042423559781
 97
        8
330
1235
330
12E7
330
12D8
330
12DB
330
12D9
330
12DA
330
1236
330
1350
 75
     0
 76
     1
 47
0.0514683685270805
 98
        1
 10
430.1240654048521
 20
329.6540263784544
450
        0
451
        0
460
0.0
461
0.0
452
        0
462
0.0
453
        0
470

  0
LINE
  5
1238
102
{ACAD_REACTORS
330
1338
330
12D2
102
}
330
18
100
AcDbEntity
  8
ROGO
 62
     4
100
AcDbLine
 10
428.3599032611219
 20
338.4481140820728
 30
0.0
 11
428.3671756170006
 21
324.5589387189473
 31
0.0
  0
LINE
  5
1239
330
18
100
AcDbEntity
  8
ROGO
 62
     4
100
AcDbLine
 10
428.5661141012933
 20
337.4156333678393
 30
0.0
 11
428.572503607641
 21
325.2125762531441
 31
0.0
  0
HATCH
  5
123A
330
18
100
AcDbEntity
  8
ROGO
 62
     4
100
AcDbHatch
 10
0.0
 20
0.0
 30
0.0
210
0.0
220
0.0
230
1.0
  2
SOLID
 70
     1
 71
     0
 91
        1
 92
        7
 72
     0
 73
     1
 93
        4
 10
428.5661215696164
 20
337.4013699228776
 10
428.3604026701117
 20
337.4943132568811
 10
428.3667797324969
 20
325.315022357809
 10
428.572503607641
 20
325.2125762531439
 97
        0
 75
     0
 76
     1
 47
0.0514683685270805
 98
        1
 10
428.515754852043
 20
329.7051072350517
450
        0
451
        0
460
0.0
461
0.0
452
        0
462
0.0
453
        0
470

  0
CIRCLE
  5
123B
330
18
100
AcDbEntity
  8
外形線
100
AcDbCircle
 10
438.1467624370057
 20
340.5586131489372
 30
0.0
 40
4.75
  0
LINE
  5
123C
330
18
100
AcDbEntity
  8
中心線
 48
0.2
100
AcDbLine
 10
438.1431185692055
 20
347.5178873819043
 30
0.0
 11
438.1507254052976
 21
332.9899019253894
 31
0.0
  0
CIRCLE
  5
123D
330
18
100
AcDbEntity
  8
外形線
100
AcDbCircle
 10
434.9467624370057
 20
330.4846417374232
 30
0.0
 40
15.5
  0
LINE
  5
1240
330
18
100
AcDbEntity
  8
中心線
 48
0.2
100
AcDbLine
 10
446.0099687778562
 20
340.5627303145257
 30
0.0
 11
430.3203769065161
 21
340.5545152626816
 31
0.0
  0
LINE
  5
1241
330
18
100
AcDbEntity
  8
目盛
100
AcDbLine
 10
418.6889844775138
 20
346.7537737308601
 30
0.0
 11
420.244076282335
 21
345.1975958880094
 31
0.0
  0
LINE
  5
1242
330
18
100
AcDbEntity
  8
目盛
100
AcDbLine
 10
419.7426127387396
 20
347.7425046396693
 30
0.0
 11
421.0647127125019
 21
346.2418209090392
 31
0.0
  0
LINE
  5
1243
330
18
100
AcDbEntity
  8
目盛
100
AcDbLine
 10
419.2080324949803
 20
347.2564150429502
 30
0.0
 11
420.5766177073303
 21
345.7979999729044
 31
0.0
  0
TEXT
  5
1244
330
18
100
AcDbEntity
  8
文字
100
AcDbText
 10
419.483896467348
 20
342.9911972544185
 30
0.0
 40
2.0
  1
20
 50
269.9800000000001
  7
STYLE3
100
AcDbText
  0
LINE
  5
1246
330
18
100
AcDbEntity
  8
目盛
100
AcDbLine
 10
415.1537838683559
 20
342.1995040661479
 30
0.0
 11
416.8749124395429
 21
341.1808203853892
 31
0.0
  0
LINE
  5
1247
330
18
100
AcDbEntity
  8
目盛
100
AcDbLine
 10
414.795577790221
 20
341.5720110075062
 30
0.0
 11
416.5478547160283
 21
340.6078919405424
 31
0.0
  0
LINE
  5
124E
330
18
100
AcDbEntity
  8
目盛
100
AcDbLine
 10
418.1859809240681
 20
346.2350767496878
 30
0.0
 11
419.6434401860626
 21
344.8654737051431
 31
0.0
  0
LINE
  5
124F
330
18
100
AcDbEntity
  8
目盛
100
AcDbLine
 10
417.6995182384221
 20
345.7008359907319
 30
0.0
 11
419.1992786035164
 21
344.3776886643573
 31
0.0
  0
LINE
  5
1250
330
18
100
AcDbEntity
  8
目盛
100
AcDbLine
 10
415.5315232267029
 20
342.8154359700231
 30
0.0
 11
417.2198048971638
 21
341.7431929932754
 31
0.0
  0
LINE
  5
1251
330
18
100
AcDbEntity
  8
目盛
100
AcDbLine
 10
416.3440917423688
 20
344.0101969211079
 30
0.0
 11
418.7705270503649
 21
342.2459940710618
 31
0.0
  0
LINE
  5
1252
330
18
100
AcDbEntity
  8
目盛
100
AcDbLine
 10
416.7781189926655
 20
344.587846883504
 30
0.0
 11
418.3580010313038
 21
343.3614812186274
 31
0.0
  0
LINE
  5
1253
330
18
100
AcDbEntity
  8
目盛
100
AcDbLine
 10
415.9284230821202
 20
343.4191988687059
 30
0.0
 11
417.5821917216756
 21
342.2944547703336
 31
0.0
  0
LINE
  5
1254
330
18
100
AcDbEntity
  8
目盛
100
AcDbLine
 10
417.2300765005148
 20
345.151578685121
 30
0.0
 11
418.7706578862965
 21
343.8761928635823
 31
0.0
  0
LINE
  5
1256
330
18
100
AcDbEntity
  8
目盛
100
AcDbLine
 10
412.5024296460621
 20
335.5097711456456
 30
0.0
 11
414.4541107583181
 21
335.0728033710177
 31
0.0
  0
LINE
  5
1257
330
18
100
AcDbEntity
  8
目盛
100
AcDbLine
 10
412.8622488961493
 20
336.9091465170722
 30
0.0
 11
414.7826413779629
 21
336.3504939275375
 31
0.0
  0
LINE
  5
1258
330
18
100
AcDbEntity
  8
目盛
100
AcDbLine
 10
413.0749448422637
 20
337.5996677459726
 30
0.0
 11
415.9277906154909
 21
336.6716208752921
 31
0.0
  0
LINE
  5
1259
330
18
100
AcDbEntity
  8
目盛
100
AcDbLine
 10
413.3092256317275
 20
338.2831673032107
 30
0.0
 11
415.1907505713171
 21
337.605034645316
 31
0.0
  0
LINE
  5
125A
330
18
100
AcDbEntity
  8
目盛
100
AcDbLine
 10
414.1391598733392
 20
340.2848292638176
 30
0.0
 11
415.948516618006
 21
339.432639044131
 31
0.0
  0
LINE
  5
125B
330
18
100
AcDbEntity
  8
目盛
100
AcDbLine
 10
413.841595839826
 20
339.6264108717483
 30
0.0
 11
415.6768277178419
 21
338.8314744252852
 31
0.0
  0
LINE
  5
125C
330
18
100
AcDbEntity
  8
目盛
100
AcDbLine
 10
413.5648600576868
 20
338.958970657242
 30
0.0
 11
415.424155916758
 21
338.2220724903011
 31
0.0
  0
LINE
  5
125D
330
18
100
AcDbEntity
  8
目盛
100
AcDbLine
 10
412.6713476986041
 20
336.2122850775933
 30
0.0
 11
414.6083402845521
 21
335.7142291349699
 31
0.0
  0
LINE
  5
125F
330
18
100
AcDbEntity
  8
目盛
100
AcDbLine
 10
414.4572584984502
 20
340.9335760539898
 30
0.0
 11
416.417124092573
 21
339.9341127715356
 31
0.0
  0
LINE
  5
1260
330
18
100
AcDbEntity
  8
目盛
100
AcDbLine
 10
411.9916449670404
 20
329.0484725481906
 30
0.0
 11
413.9877421383419
 21
329.1733568255152
 31
0.0
  0
LINE
  5
1261
330
18
100
AcDbEntity
  8
目盛
100
AcDbLine
 10
411.957860767411
 20
329.7702188754494
 30
0.0
 11
413.9568956952021
 21
329.8323426025776
 31
0.0
  0
LINE
  5
1262
330
18
100
AcDbEntity
  8
目盛
100
AcDbLine
 10
414.9467636554755
 20
330.4916230542894
 30
0.0
 11
411.9467638382459
 21
330.4926702518192
 31
0.0
  0
LINE
  5
1263
330
18
100
AcDbEntity
  8
目盛
100
AcDbLine
 10
411.958365130874
 20
331.2151137050152
 30
0.0
 11
413.9573562009724
 21
331.1515944034856
 31
0.0
  0
LINE
  5
1264
330
18
100
AcDbEntity
  8
目盛
100
AcDbLine
 10
411.9926531962208
 20
331.9368362705696
 30
0.0
 11
413.9886626954193
 21
331.8105584850786
 31
0.0
  0
LINE
  5
1265
330
18
100
AcDbEntity
  8
目盛
100
AcDbLine
 10
412.1291319366336
 20
333.3752711409423
 30
0.0
 11
414.1132737192748
 21
333.1239120623754
 31
0.0
  0
LINE
  5
1266
330
18
100
AcDbEntity
  8
目盛
100
AcDbLine
 10
412.2311879236607
 20
334.0905638842081
 30
0.0
 11
414.4039820075459
 21
333.7456495919068
 31
0.0
  0
LINE
  5
1267
330
18
100
AcDbEntity
  8
目盛
100
AcDbLine
 10
412.0495941961044
 20
332.657125695446
 30
0.0
 11
414.040652304009
 21
332.4682140469223
 31
0.0
  0
LINE
  5
1268
330
18
100
AcDbEntity
  8
目盛
100
AcDbLine
 10
412.355661440248
 20
334.8022980176622
 30
0.0
 11
414.3201050051833
 21
334.4268496454676
 31
0.0
  0
TEXT
  5
1269
330
18
100
AcDbEntity
  8
文字
100
AcDbText
 10
416.0857940665526
 20
331.4251587484437
 30
0.0
 40
2.0
  1
0
 50
269.9800000000001
  7
STYLE3
100
AcDbText
  0
LINE
  5
126C
330
18
100
AcDbEntity
  8
目盛
100
AcDbLine
 10
428.537677120717
 20
352.5736350465022
 30
0.0
 11
429.0949888873509
 21
350.6528530196258
 31
0.0
  0
TEXT
  5
126D
330
18
100
AcDbEntity
  8
文字
100
AcDbText
 10
428.4939236570361
 20
348.9371075666197
 30
0.0
 40
2.0
  1
40
 50
269.9800000000001
  7
STYLE3
100
AcDbText
  0
LINE
  5
126E
330
18
100
AcDbEntity
  8
目盛
100
AcDbLine
 10
420.8562448327093
 20
348.6631266479712
 30
0.0
 11
422.0815072330829
 21
347.0823888296627
 31
0.0
  0
LINE
  5
126F
330
18
100
AcDbEntity
  8
目盛
100
AcDbLine
 10
420.2921976426319
 20
348.2115628092706
 30
0.0
 11
421.5665076247513
 21
346.6700914117186
 31
0.0
  0
LINE
  5
1270
330
18
100
AcDbEntity
  8
目盛
100
AcDbLine
 10
421.434197662493
 20
349.0967505167797
 30
0.0
 11
423.1967061113425
 21
346.6690841542551
 31
0.0
  0
LINE
  5
1271
330
18
100
AcDbEntity
  8
目盛
100
AcDbLine
 10
427.8470075703215
 20
352.3614212269411
 30
0.0
 11
428.7730625529325
 21
349.5079282500475
 31
0.0
  0
LINE
  5
1272
330
18
100
AcDbEntity
  8
目盛
100
AcDbLine
 10
426.4873629649911
 20
351.8724551032837
 30
0.0
 11
427.2229629190793
 21
350.0126452453829
 31
0.0
  0
LINE
  5
1273
330
18
100
AcDbEntity
  8
目盛
100
AcDbLine
 10
427.163344620816
 20
352.1276176672399
 30
0.0
 11
427.8401635613541
 21
350.2456197602993
 31
0.0
  0
LINE
  5
1274
330
18
100
AcDbEntity
  8
目盛
100
AcDbLine
 10
425.1611037446447
 20
351.2990810514338
 30
0.0
 11
426.0120305874588
 21
349.4891298067371
 31
0.0
  0
LINE
  5
1275
330
18
100
AcDbEntity
  8
目盛
100
AcDbLine
 10
423.8734640485149
 20
350.6435619168239
 30
0.0
 11
424.8363595605574
 21
348.8906123360065
 31
0.0
  0
LINE
  5
1276
330
18
100
AcDbEntity
  8
目盛
100
AcDbLine
 10
422.6295256022158
 20
349.9084847340007
 30
0.0
 11
423.7005896748062
 21
348.2194549082116
 31
0.0
  0
LINE
  5
1277
330
18
100
AcDbEntity
  8
目盛
100
AcDbLine
 10
424.5121350378524
 20
350.9814354145047
 30
0.0
 11
425.5102298325542
 21
349.0208725410447
 31
0.0
  0
LINE
  5
1278
330
18
100
AcDbEntity
  8
目盛
100
AcDbLine
 10
423.2457210677916
 20
350.2857939987425
 30
0.0
 11
424.2632029259842
 21
348.5639546716711
 31
0.0
  0
LINE
  5
1279
330
18
100
AcDbEntity
  8
目盛
100
AcDbLine
 10
422.0254857623179
 20
349.5120064812908
 30
0.0
 11
423.1490750383778
 21
347.8574530253023
 31
0.0
  0
LINE
  5
127A
330
18
100
AcDbEntity
  8
目盛
100
AcDbLine
 10
425.81972971513
 20
351.5961853497178
 30
0.0
 11
426.6133847344234
 21
349.7603989486487
 31
0.0
  0
LINE
  5
127D
330
18
100
AcDbEntity
  8
目盛
100
AcDbLine
 10
435.6772344045977
 20
353.4730390435551
 30
0.0
 11
435.613715103068
 21
351.4740479734566
 31
0.0
  0
LINE
  5
127E
330
18
100
AcDbEntity
  8
目盛
100
AcDbLine
 10
437.8373918405249
 20
353.3022722377952
 30
0.0
 11
437.5860327619579
 21
351.3181304551543
 31
0.0
  0
LINE
  5
127F
330
18
100
AcDbEntity
  8
目盛
100
AcDbLine
 10
436.3989569701523
 20
353.4387509782087
 30
0.0
 11
436.2726791846613
 21
351.4427414790099
 31
0.0
  0
LINE
  5
1280
330
18
100
AcDbEntity
  8
目盛
100
AcDbLine
 10
437.1192463950284
 20
353.3818099783246
 30
0.0
 11
436.9303347465047
 21
351.3907518704201
 31
0.0
  0
LINE
  5
1281
330
18
100
AcDbEntity
  8
目盛
100
AcDbLine
 10
429.2346716645412
 20
352.7640496965033
 30
0.0
 11
429.731375209973
 21
350.8267098739747
 31
0.0
  0
LINE
  5
1282
330
18
100
AcDbEntity
  8
目盛
100
AcDbLine
 10
429.937303352329
 20
352.9324772606748
 30
0.0
 11
430.3729084901272
 21
350.9804915630008
 31
0.0
  0
LINE
  5
1283
330
18
100
AcDbEntity
  8
目盛
100
AcDbLine
 10
430.6448787714339
 20
353.0787515213446
 30
0.0
 11
431.0189556119185
 21
351.1140463227426
 31
0.0
  0
LINE
  5
1284
330
18
100
AcDbEntity
  8
目盛
100
AcDbLine
 10
434.9547909514018
 20
353.4846403361831
 30
0.0
 11
434.953743753872
 21
350.4846405189536
 31
0.0
  0
LINE
  5
1285
330
18
100
AcDbEntity
  8
目盛
100
AcDbLine
 10
434.2323395750319
 20
353.4735434070181
 30
0.0
 11
434.2944633021601
 21
351.4745084792271
 31
0.0
  0
LINE
  5
1286
330
18
100
AcDbEntity
  8
目盛
100
AcDbLine
 10
433.5105932477731
 20
353.4397592073887
 30
0.0
 11
433.6354775250974
 21
351.4436620360872
 31
0.0
  0
LINE
  5
1287
330
18
100
AcDbEntity
  8
目盛
100
AcDbLine
 10
432.7902642461135
 20
353.3833210782212
 30
0.0
 11
432.9777858279302
 21
351.3921315703257
 31
0.0
  0
LINE
  5
1288
330
18
100
AcDbEntity
  8
目盛
100
AcDbLine
 10
432.0720634478107
 20
353.3042847171352
 30
0.0
 11
432.322037272958
 21
351.3199679362906
 31
0.0
  0
LINE
  5
1289
330
18
100
AcDbEntity
  8
目盛
100
AcDbLine
 10
431.3566996303441
 20
353.2027281234777
 30
0.0
 11
431.7000969422855
 21
351.0296937735071
 31
0.0
  0
HATCH
  5
128A
330
18
100
AcDbEntity
  8
ﾊｯﾁﾝｸ
100
AcDbHatch
 10
0.0
 20
0.0
 30
0.0
210
0.0
220
0.0
230
1.0
  2
SOLID
 70
     1
 71
     0
 91
        3
 92
        7
 72
     1
 73
     1
 93
        5
 10
442.8926541120809
 20
340.3610980648189
 42
0.0105298176880202
 10
442.8967617858861
 20
340.5611002430077
 42
0.0
 10
442.3967618544251
 20
340.5608384436319
 42
0.0
 10
439.2967622793663
 20
340.5592152875018
 42
-0.0437283108272093
 10
439.2793421668096
 20
340.3592061389355
 42
0.0
 97
        0
 92
        7
 72
     1
 73
     1
 93
        4
 10
442.8967617858861
 20
340.5611002430074
 42
0.0105298176880232
 10
442.89244467258
 20
340.7610980099877
 42
0.0
 10
439.2791327273088
 20
340.7592060841044
 42
-0.0437283108272093
 10
439.2967622793663
 20
340.5592152875018
 42
0.0
 97
        0
 92
      137
 93
        4
 72
     1
 10
440.9242252187469
 20
341.1535868028135
 11
440.9248360839572
 21
339.9869202960711
 72
     1
 10
440.9248360839572
 20
339.9869202960709
 11
442.4248358783404
 21
339.9877056941985
 72
     1
 10
442.4248358783404
 20
339.9877056941984
 11
442.4242250131301
 21
341.1543722009408
 72
     1
 10
442.4242250131302
 20
341.154372200941
 11
440.924225218747
 21
341.1535868028133
 97
        0
 75
     0
 76
     1
 47
0.0128177587452554
 98
        3
 10
439.8306193158167
 20
340.4107922391025
 10
441.0354485369649
 20
340.4883931788348
 10
440.9840833404619
 20
340.6679634344443
450
        0
451
        0
460
0.0
461
0.0
452
        0
462
0.0
453
        0
470

  0
LINE
  5
128B
330
18
100
AcDbEntity
  8
中心線
 48
0.2
100
AcDbLine
 10
442.89244467258
 20
340.7610980099877
 30
0.0
 11
439.2791327273088
 21
340.7592060841044
 31
0.0
  0
LINE
  5
128C
330
18
100
AcDbEntity
  8
中心線
 48
0.2
100
AcDbLine
 10
442.8926541120809
 20
340.3610980648189
 30
0.0
 11
439.2793421668096
 21
340.3592061389355
 31
0.0
  0
TEXT
  5
128D
330
18
100
AcDbEntity
  8
文字
100
AcDbText
 10
440.4609387102372
 20
342.6645012766561
 30
0.0
 40
0.7
  1
2
 50
270.0300000000002
  7
STYLE3
100
AcDbText
  0
LINE
  5
128E
330
18
100
AcDbEntity
  8
目盛
100
AcDbLine
 10
441.9881307563043
 20
343.3526048159775
 30
0.0
 11
441.5837761963782
 21
343.0585004299733
 31
0.0
  0
TEXT
  5
128F
330
18
100
AcDbEntity
  8
文字
100
AcDbText
 10
436.8177481233486
 20
343.987364526606
 30
0.0
 40
0.7
  1
6
 50
270.0300000000002
  7
STYLE3
100
AcDbText
  0
LINE
  5
1290
330
18
100
AcDbEntity
  8
目盛
100
AcDbLine
 10
436.6765665479097
 20
345.0753624277532
 30
0.0
 11
436.8313240099197
 21
344.5999151352463
 31
0.0
  0
TEXT
  5
1291
330
18
100
AcDbEntity
  8
文字
100
AcDbText
 10
438.9369502231989
 20
343.914390538173
 30
0.0
 40
0.7
  1
4
 50
270.0300000000002
  7
STYLE3
100
AcDbText
  0
LINE
  5
1292
330
18
100
AcDbEntity
  8
目盛
100
AcDbLine
 10
439.6122275920576
 20
345.0768995364218
 30
0.0
 11
439.4579681020521
 21
344.6012904430022
 31
0.0
  0
TEXT
  5
1293
330
18
100
AcDbEntity
  8
文字
100
AcDbText
 10
435.0741447900507
 20
342.8097806611605
 30
0.0
 40
0.7
  1
8
 50
270.0300000000002
  7
STYLE3
100
AcDbText
  0
LINE
  5
1294
330
18
100
AcDbEntity
  8
目盛
100
AcDbLine
 10
434.3024703632761
 20
343.3485806132384
 30
0.0
 11
434.7071326868267
 21
343.0548998275225
 31
0.0
  0
TEXT
  5
1295
330
18
100
AcDbEntity
  8
文字
100
AcDbText
 10
441.2179783498832
 20
340.8951067729755
 30
0.0
 40
0.7
  1
0
 50
270.0300000000002
  7
STYLE3
100
AcDbText
  0
LINE
  5
1296
330
18
100
AcDbEntity
  8
目盛
100
AcDbLine
 10
441.9910545107358
 20
337.7686456846362
 30
0.0
 11
441.5863921871853
 21
338.0623264703519
 31
0.0
  0
TEXT
  5
1297
330
18
100
AcDbEntity
  8
文字
100
AcDbText
 10
440.523210231226
 20
339.0013679844316
 30
0.0
 40
0.7
  1
8
 50
270.0300000000002
  7
STYLE3
100
AcDbText
  0
TEXT
  5
1298
330
18
100
AcDbEntity
  8
文字
100
AcDbText
 10
436.6240900702516
 20
337.6600309444977
 30
0.0
 40
0.7
  1
4
 50
270.0300000000002
  7
STYLE3
100
AcDbText
  0
LINE
  5
1299
330
18
100
AcDbEntity
  8
目盛
100
AcDbLine
 10
434.3053941177076
 20
337.7646214818968
 30
0.0
 11
434.7097486776338
 21
338.0587258679012
 31
0.0
  0
LINE
  5
129A
330
18
100
AcDbEntity
  8
目盛
100
AcDbLine
 10
433.3967630881256
 20
340.5561260548666
 30
0.0
 11
433.8967630195866
 21
340.5563878542425
 31
0.0
  0
TEXT
  5
129B
330
18
100
AcDbEntity
  8
文字
100
AcDbText
 10
435.1684284050498
 20
338.9884801335819
 30
0.0
 40
0.7
  1
2
 50
270.0300000000002
  7
STYLE3
100
AcDbText
  0
TEXT
  5
129C
330
18
100
AcDbEntity
  8
文字
100
AcDbText
 10
434.4930925597082
 20
340.8895155483348
 30
0.0
 40
0.7
  1
0
 50
270.0300000000002
  7
STYLE3
100
AcDbText
  0
LINE
  5
129D
330
18
100
AcDbEntity
  8
目盛
100
AcDbLine
 10
436.6812972819545
 20
336.0403267614525
 30
0.0
 11
436.8355567719597
 21
336.5159358548719
 31
0.0
  0
TEXT
  5
129E
330
18
100
AcDbEntity
  8
文字
100
AcDbText
 10
438.8319814530618
 20
337.6644929602213
 30
0.0
 40
0.7
  1
6
 50
270.0300000000002
  7
STYLE3
100
AcDbText
  0
LINE
  5
129F
330
18
100
AcDbEntity
  8
目盛
100
AcDbLine
 10
439.6169583261023
 20
336.0418638701214
 30
0.0
 11
439.462200864092
 21
336.5173111626282
 31
0.0
  0
CIRCLE
  5
12A0
330
18
100
AcDbEntity
  8
外形線
100
AcDbCircle
 10
438.1467624370057
 20
340.5586131489372
 30
0.0
 40
1.149999999999999
  0
POINT
  5
12A1
330
18
100
AcDbEntity
  8
DEFPOINTS
  6
ByBlock
 62
     0
100
AcDbPoint
 10
434.9467624370057
 20
330.4846417374232
 30
0.0
  0
POINT
  5
12A2
330
18
100
AcDbEntity
  8
DEFPOINTS
  6
ByBlock
 62
     0
100
AcDbPoint
 10
434.9467624370057
 20
330.4846417374232
 30
0.0
  0
LINE
  5
12A3
330
18
100
AcDbEntity
  8
目盛
100
AcDbLine
 10
442.8967617858861
 20
340.5611002430077
 30
0.0
 11
442.3967618544251
 21
340.5608384436319
 31
0.0
  0
CIRCLE
  5
12A4
330
18
100
AcDbEntity
  8
外形線
100
AcDbCircle
 10
434.9467624370057
 20
330.4846417374232
 30
0.0
 40
1.5
  0
LINE
  5
12A5
330
18
100
AcDbEntity
  8
目盛
100
AcDbLine
 10
454.7479146983248
 20
342.1856831066373
 30
0.0
 11
453.0260753712537
 21
341.1682012484446
 31
0.0
  0
TEXT
  5
12A6
330
18
100
AcDbEntity
  8
文字
100
AcDbText
 10
448.3666407039042
 20
342.8417655228733
 30
0.0
 40
2.0
  1
80
 50
269.9800000000001
  7
STYLE3
100
AcDbText
  0
LINE
  5
12A7
330
18
100
AcDbEntity
  8
目盛
100
AcDbLine
 10
455.1056826164064
 20
341.5579401259142
 30
0.0
 11
453.352733035589
 21
340.5950446138713
 31
0.0
  0
LINE
  5
12A8
330
18
100
AcDbEntity
  8
目盛
100
AcDbLine
 10
447.2775566696054
 20
349.8998809477261
 30
0.0
 11
446.2053136928578
 21
348.2115992772651
 31
0.0
  0
LINE
  5
12A9
330
18
100
AcDbEntity
  8
目盛
100
AcDbLine
 10
447.8813195682883
 20
349.5029810923088
 30
0.0
 11
446.7565754699158
 21
347.8492124527535
 31
0.0
  0
LINE
  5
12AA
330
18
100
AcDbEntity
  8
目盛
100
AcDbLine
 10
448.4723176206903
 20
349.0873124320602
 30
0.0
 11
446.7081147706445
 21
346.660877124064
 31
0.0
  0
TEXT
  5
12AB
330
18
100
AcDbEntity
  8
文字
100
AcDbText
 10
439.5759471584227
 20
349.0026647728329
 30
0.0
 40
2.0
  1
60
 50
269.9800000000001
  7
STYLE3
100
AcDbText
  0
LINE
  5
12AC
330
18
100
AcDbEntity
  8
目盛
100
AcDbLine
 10
446.0341317070885
 20
350.6358263842082
 30
0.0
 11
445.0700126401251
 21
348.8835494584008
 31
0.0
  0
LINE
  5
12AD
330
18
100
AcDbEntity
  8
目盛
100
AcDbLine
 10
446.6616247657301
 20
350.2776203060732
 30
0.0
 11
445.6429410849716
 21
348.5564917348861
 31
0.0
  0
LINE
  5
12AE
330
18
100
AcDbEntity
  8
目盛
100
AcDbLine
 10
440.6744057771763
 20
352.760056475825
 30
0.0
 11
440.1763498345525
 21
350.8230638898768
 31
0.0
  0
LINE
  5
12AF
330
18
100
AcDbEntity
  8
目盛
100
AcDbLine
 10
439.971891845228
 20
352.9289745283668
 30
0.0
 11
439.5349240705999
 21
350.9772934161107
 31
0.0
  0
LINE
  5
12B0
330
18
100
AcDbEntity
  8
目盛
100
AcDbLine
 10
439.2644187172447
 20
353.075742734181
 30
0.0
 11
438.8889703450501
 21
351.1112991692456
 31
0.0
  0
LINE
  5
12B1
330
18
100
AcDbEntity
  8
目盛
100
AcDbLine
 10
444.0885315713306
 20
351.5898083346028
 30
0.0
 11
443.2935951248675
 21
349.7545764565872
 31
0.0
  0
LINE
  5
12B2
330
18
100
AcDbEntity
  8
目盛
100
AcDbLine
 10
442.061788445555
 20
352.3564593321655
 30
0.0
 11
441.1337415748748
 21
349.5036135589381
 31
0.0
  0
LINE
  5
12B3
330
18
100
AcDbEntity
  8
目盛
100
AcDbLine
 10
442.745288002793
 20
352.1221785427015
 30
0.0
 11
442.0671553448985
 21
350.2406536031119
 31
0.0
  0
LINE
  5
12B4
330
18
100
AcDbEntity
  8
目盛
100
AcDbLine
 10
441.3712672166544
 20
352.5691552782797
 30
0.0
 11
440.8126146271198
 21
350.648762796466
 31
0.0
  0
LINE
  5
12B5
330
18
100
AcDbEntity
  8
目盛
100
AcDbLine
 10
443.4210913568243
 20
351.866544116742
 30
0.0
 11
442.6841931898836
 21
350.007248257671
 31
0.0
  0
LINE
  5
12B6
330
18
100
AcDbEntity
  8
目盛
100
AcDbLine
 10
444.7469499634002
 20
351.2922443010897
 30
0.0
 11
443.8947597437135
 21
349.4828875564233
 31
0.0
  0
LINE
  5
12B7
330
18
100
AcDbEntity
  8
目盛
100
AcDbLine
 10
445.3956967535722
 20
350.9741456759787
 30
0.0
 11
444.3962334711179
 21
349.014280081856
 31
0.0
  0
LINE
  5
12B8
330
18
100
AcDbEntity
  8
目盛
100
AcDbLine
 10
438.5526845837902
 20
353.2002162507684
 30
0.0
 11
438.2077702914891
 21
351.0274221668831
 31
0.0
  0
LINE
  5
12BA
330
18
100
AcDbEntity
  8
目盛
100
AcDbLine
 10
449.0499675830863
 20
348.6532851817634
 30
0.0
 11
447.8236019182098
 21
347.0734031431251
 31
0.0
  0
LINE
  5
12BB
330
18
100
AcDbEntity
  8
目盛
100
AcDbLine
 10
449.6136993847035
 20
348.201327673914
 30
0.0
 11
448.3383135631645
 21
346.6607462881325
 31
0.0
  0
LINE
  5
12BC
330
18
100
AcDbEntity
  8
目盛
100
AcDbLine
 10
450.1629566903143
 20
347.7318859360071
 30
0.0
 11
448.8398093639396
 21
346.2321255709128
 31
0.0
  0
LINE
  5
12BD
330
18
100
AcDbEntity
  8
目盛
100
AcDbLine
 10
451.7185357425329
 20
346.2233716794484
 30
0.0
 11
450.2601206724871
 21
344.8547864670985
 31
0.0
  0
LINE
  5
12BE
330
18
100
AcDbEntity
  8
目盛
100
AcDbLine
 10
451.2158944304423
 20
346.7424196969151
 30
0.0
 11
449.6597165875917
 21
345.1873278920942
 31
0.0
  0
LINE
  5
12BF
330
18
100
AcDbEntity
  8
目盛
100
AcDbLine
 10
452.6736835088532
 20
345.1392065317971
 30
0.0
 11
451.1322121113011
 21
343.8648965496776
 31
0.0
  0
LINE
  5
12C0
330
18
100
AcDbEntity
  8
目盛
100
AcDbLine
 10
453.1252473475537
 20
344.5751593417195
 30
0.0
 11
451.544509529245
 21
343.3498969413461
 31
0.0
  0
LINE
  5
12C1
330
18
100
AcDbEntity
  8
目盛
100
AcDbLine
 10
452.2046253392518
 20
345.6887914356892
 30
0.0
 11
450.7039416086216
 21
344.3666914619268
 31
0.0
  0
LINE
  5
12C2
330
18
100
AcDbEntity
  8
目盛
100
AcDbLine
 10
450.6971974492703
 20
347.245423250361
 30
0.0
 11
449.3275944047254
 21
345.7879639883664
 31
0.0
  0
LINE
  5
12C3
330
18
100
AcDbEntity
  8
目盛
100
AcDbLine
 10
454.3706054335832
 20
342.8018785722134
 30
0.0
 11
452.6815756077938
 21
341.7308144996229
 31
0.0
  0
LINE
  5
12C4
330
18
100
AcDbEntity
  8
目盛
100
AcDbLine
 10
453.5588712163623
 20
343.9972065119357
 30
0.0
 11
451.1312048538376
 21
342.2346980630862
 31
0.0
  0
LINE
  5
12C5
330
18
100
AcDbEntity
  8
目盛
100
AcDbLine
 10
453.9741271808732
 20
343.4059184121112
 30
0.0
 11
452.3195737248845
 21
342.2823291360513
 31
0.0
  0
LINE
  5
12C6
102
{ACAD_REACTORS
330
12C8
102
}
330
18
100
AcDbEntity
  8
ROGO
 62
     4
100
AcDbLine
 10
429.1001714941478
 20
335.5178603368992
 30
0.0
 11
429.1011014490672
 21
333.7417774318769
 31
0.0
  0
LINE
  5
12C7
102
{ACAD_REACTORS
330
12C8
102
}
330
18
100
AcDbEntity
  8
ROGO
 62
     4
100
AcDbLine
 10
430.4136564435134
 20
334.8688160877495
 30
0.0
 11
429.1001714941478
 21
335.5178603368992
 31
0.0
  0
HATCH
  5
12C8
330
18
100
AcDbEntity
  8
ROGO
 62
     4
100
AcDbHatch
 10
0.0
 20
0.0
 30
0.0
210
0.0
220
0.0
230
1.0
  2
SOLID
 70
     1
 71
     1
 91
        1
 92
        1
 93
       12
 72
     1
 10
430.4136564435134
 20
334.8688160877495
 11
430.4145863984329
 21
333.0927331827272
 72
     1
 10
430.4145863984329
 20
333.0927331827272
 11
430.113706179575
 21
333.2414098583351
 72
     1
 10
430.113706179575
 20
333.2414098583351
 11
430.113217418769
 21
334.1748741525956
 72
     1
 10
430.113217418769
 20
334.1748741525956
 11
429.877966476718
 21
334.2911208375072
 72
     1
 10
429.877966476718
 20
334.2911208375072
 11
429.8784552375241
 21
333.3576565432466
 72
     1
 10
429.8784552375241
 20
333.3576565432466
 11
429.6372274347601
 21
333.4768566286338
 72
     1
 10
429.6372274347601
 20
333.4768566286338
 11
429.6367386739538
 21
334.4103209228944
 72
     1
 10
429.6367386739538
 20
334.4103209228944
 11
429.4014777725087
 21
334.5265725291321
 72
     1
 10
429.4014777725088
 20
334.5265725291321
 11
429.401966533315
 21
333.5931082348713
 72
     1
 10
429.401966533315
 20
333.5931082348713
 11
429.1011014490672
 21
333.7417774318769
 72
     1
 10
429.1011014490672
 20
333.7417774318769
 11
429.1001714941478
 21
335.5178603368992
 72
     1
 10
429.1001714941478
 20
335.5178603368992
 11
430.4136564435134
 21
334.8688160877495
 97
       12
330
12D6
330
12D4
330
12D3
330
12E9
330
12E3
330
12E4
330
12E1
330
12DF
330
12E2
330
12E0
330
12C6
330
12C7
 75
     0
 76
     1
 98
        1
 10
339.5775333249665
 20
407.4713933379907
450
        0
451
        0
460
0.0
461
0.0
452
        0
462
0.0
453
        0
470

  0
LINE
  5
12C9
102
{ACAD_REACTORS
330
12D2
102
}
330
18
100
AcDbEntity
  8
ROGO
 62
     4
100
AcDbLine
 10
430.4123133486761
 20
337.4339380423186
 30
0.0
 11
430.4131576507797
 21
335.8214399503713
 31
0.0
  0
LINE
  5
12CA
102
{ACAD_REACTORS
330
12D2
102
}
330
18
100
AcDbEntity
  8
ROGO
 62
     4
100
AcDbLine
 10
429.0997782675207
 20
336.2688678057297
 30
0.0
 11
429.0993114225443
 21
337.1604759519915
 31
0.0
  0
LINE
  5
12CB
102
{ACAD_REACTORS
330
12D2
102
}
330
18
100
AcDbEntity
  8
ROGO
 62
     4
100
AcDbLine
 10
429.5558037008657
 20
336.4616941338365
 30
0.0
 11
429.5555457466689
 21
336.9543503151485
 31
0.0
  0
LINE
  5
12CC
102
{ACAD_REACTORS
330
12D2
102
}
330
18
100
AcDbEntity
  8
ROGO
 62
     4
100
AcDbLine
 10
429.9050626854184
 20
336.3905484490418
 30
0.0
 11
429.9048501111323
 21
336.7965353924873
 31
0.0
  0
LINE
  5
12CD
102
{ACAD_REACTORS
330
12D2
102
}
330
18
100
AcDbEntity
  8
ROGO
 62
     4
100
AcDbLine
 10
429.0993114225443
 20
337.1604759519915
 30
0.0
 11
428.3604026701116
 21
337.4943132568812
 31
0.0
  0
LINE
  5
12CE
102
{ACAD_REACTORS
330
12D2
102
}
330
18
100
AcDbEntity
  8
ROGO
 62
     4
100
AcDbLine
 10
429.9048501111323
 20
336.7965353924873
 30
0.0
 11
429.5555457466689
 21
336.9543503151485
 31
0.0
  0
SPLINE
  5
12CF
102
{ACAD_REACTORS
330
12D2
102
}
330
18
100
AcDbEntity
  8
ROGO
 62
     4
100
AcDbSpline
210
0.0
220
0.0
230
1.0
 70
     8
 71
     3
 72
    15
 73
    11
 74
     9
 42
0.0000000001
 43
0.0000000001
 44
0.0000000001
 40
0.0
 40
0.0
 40
0.0
 40
0.0
 40
0.1539705029171565
 40
0.2241725832584159
 40
0.3038566179393761
 40
0.3581410872472243
 40
0.4439925384670234
 40
0.4954152125467469
 40
0.5836396705644585
 40
0.613047842006454
 40
0.613047842006454
 40
0.613047842006454
 40
0.613047842006454
 10
429.9050626854184
 20
336.3905484490418
 30
0.0
 10
429.9053578488687
 20
336.3327202606031
 30
0.0
 10
429.9057875906171
 20
336.2485255990161
 30
0.0
 10
429.8016624078466
 20
336.2024303165167
 30
0.0
 10
429.7345957065472
 20
336.2230328655337
 30
0.0
 10
429.6657366178968
 20
336.2489400379754
 30
0.0
 10
429.6189310533198
 20
336.2947630884646
 30
0.0
 10
429.5738403066656
 20
336.3562736170325
 30
0.0
 10
429.568355321476
 20
336.414423446128
 30
0.0
 10
429.5583140259492
 20
336.4522399926747
 30
0.0
 10
429.5558037008658
 20
336.4616941338368
 30
0.0
 11
429.9050626854184
 21
336.3905484490418
 31
0.0
 11
429.8695061595577
 21
336.2407397402253
 31
0.0
 11
429.805378410603
 21
336.2121746584251
 31
0.0
 11
429.7269742708663
 21
336.2263991533261
 31
0.0
 11
429.6770741285691
 21
336.2477715515713
 31
0.0
 11
429.61290156244
 21
336.3048009600634
 31
0.0
 11
429.584371189356
 21
336.3475830733959
 31
0.0
 11
429.5629456310748
 21
336.433166368757
 31
0.0
 11
429.5558037008658
 21
336.4616941338368
 31
0.0
  0
LINE
  5
12D0
102
{ACAD_REACTORS
330
12D2
102
}
330
18
100
AcDbEntity
  8
ROGO
 62
     4
100
AcDbLine
 10
430.4123133486761
 20
337.4339380423186
 30
0.0
 11
428.3599032611219
 21
338.4481140820728
 31
0.0
  0
SPLINE
  5
12D1
102
{ACAD_REACTORS
330
12D2
102
}
330
18
100
AcDbEntity
  8
ROGO
 62
     4
100
AcDbSpline
210
0.0
220
0.0
230
1.0
 70
     8
 71
     3
 72
    18
 73
    14
 74
     0
 42
0.0000000001
 43
0.0000000001
 40
0.1087402787915014
 40
0.1087402787915014
 40
0.1087402787915014
 40
0.1087402787915014
 40
0.5992371417938475
 40
1.083176791562496
 40
1.448211145705696
 40
1.714037220764907
 40
2.164002567013297
 40
2.740236056362883
 40
3.395137510199602
 40
4.071816045172726
 40
4.784906178399433
 40
5.506895915094292
 40
6.060470601257719
 40
6.060470601257719
 40
6.060470601257719
 40
6.060470601257719
 10
430.4131576507797
 20
335.8214399503712
 30
0.0
 10
430.3942523473969
 20
335.7697705068594
 30
0.0
 10
430.3542796528912
 20
335.6681616154273
 30
0.0
 10
430.2629922741366
 20
335.5441285649208
 30
0.0
 10
430.1575689151746
 20
335.4764571621806
 30
0.0
 10
430.0536922415638
 20
335.4113635550177
 30
0.0
 10
429.9046194937006
 20
335.402183380944
 30
0.0
 10
429.7161415771666
 20
335.4169945812194
 30
0.0
 10
429.5194420666247
 20
335.5131484736578
 30
0.0
 10
429.3473641644718
 20
335.6675563341307
 30
0.0
 10
429.2095995663025
 20
335.8593042001361
 30
0.0
 10
429.1014308306569
 20
336.0615283689488
 30
0.0
 10
429.1002784028656
 20
336.2061181424129
 30
0.0
 10
429.0997782675206
 20
336.268867806039
 30
0.0
  0
HATCH
  5
12D2
330
18
100
AcDbEntity
  8
ROGO
 62
     4
100
AcDbHatch
 10
0.0
 20
0.0
 30
0.0
210
0.0
220
0.0
230
1.0
  2
SOLID
 70
     1
 71
     1
 91
        2
 92
        5
 93
        6
 72
     1
 10
428.3599032611219
 20
338.4481140820728
 11
428.3604026701117
 21
337.494313256881
 72
     1
 10
428.3604026701117
 20
337.494313256881
 11
429.0993114225442
 21
337.1604759519915
 72
     1
 10
429.0993114225442
 20
337.1604759519915
 11
429.0997782675205
 21
336.2688678060394
 72
     4
 94
        3
 73
     0
 74
     0
 95
       18
 96
       14
 40
0.108740278791501
 40
0.108740278791501
 40
0.108740278791501
 40
0.108740278791501
 40
0.6623149649549278
 40
1.384304701649787
 40
2.097394834876493
 40
2.774073369849618
 40
3.428974823686337
 40
4.005208313035923
 40
4.455173659284313
 40
4.720999734343524
 40
5.086034088486724
 40
5.569973738255373
 40
6.060470601257719
 40
6.060470601257719
 40
6.060470601257719
 40
6.060470601257719
 10
429.0997782675206
 20
336.268867806039
 10
429.1002784028656
 20
336.2061181424129
 10
429.1014308306569
 20
336.0615283689488
 10
429.2095995663025
 20
335.8593042001361
 10
429.3473641644718
 20
335.6675563341307
 10
429.5194420666247
 20
335.5131484736578
 10
429.7161415771666
 20
335.4169945812194
 10
429.9046194937006
 20
335.402183380944
 10
430.0536922415638
 20
335.4113635550177
 10
430.1575689151746
 20
335.4764571621806
 10
430.2629922741366
 20
335.5441285649208
 10
430.3542796528912
 20
335.6681616154273
 10
430.3942523473969
 20
335.7697705068594
 10
430.4131576507797
 20
335.8214399503712
 72
     1
 10
430.4131576507798
 20
335.8214399503712
 11
430.4123133486761
 21
337.4339380423186
 72
     1
 10
430.4123133486761
 20
337.4339380423186
 11
428.3599032611219
 21
338.4481140820728
 97
        6
330
12D1
330
12C9
330
12D0
330
1238
330
12CD
330
12CA
 92
       20
 93
        4
 72
     1
 10
429.5555457466689
 20
336.9543503151485
 11
429.9048501111323
 21
336.7965353924873
 72
     1
 10
429.9048501111323
 20
336.7965353924873
 11
429.9050626854185
 21
336.3905484490418
 72
     4
 94
        3
 73
     0
 74
     0
 95
       15
 96
       11
 40
0.0
 40
0.0
 40
0.0
 40
0.0
 40
0.1539705029171565
 40
0.2241725832584159
 40
0.3038566179393761
 40
0.3581410872472243
 40
0.4439925384670234
 40
0.4954152125467469
 40
0.5836396705644585
 40
0.613047842006454
 40
0.613047842006454
 40
0.613047842006454
 40
0.613047842006454
 10
429.9050626854184
 20
336.3905484490418
 10
429.9053578488687
 20
336.3327202606031
 10
429.9057875906171
 20
336.2485255990161
 10
429.8016624078466
 20
336.2024303165167
 10
429.7345957065472
 20
336.2230328655337
 10
429.6657366178968
 20
336.2489400379755
 10
429.6189310533198
 20
336.2947630884646
 10
429.5738403066656
 20
336.3562736170326
 10
429.568355321476
 20
336.414423446128
 10
429.5583140259492
 20
336.4522399926747
 10
429.5558037008658
 20
336.4616941338368
 72
     1
 10
429.5558037008657
 20
336.4616941338369
 11
429.5555457466689
 21
336.9543503151485
 97
        4
330
12CE
330
12CC
330
12CF
330
12CB
 75
     0
 76
     1
 47
0.0514683685270805
 98
        2
 10
429.7741291919323
 20
337.4249853353567
 10
429.7741291919323
 20
337.4249853353567
450
        0
451
        0
460
0.0
461
0.0
452
        0
462
0.0
453
        0
470

  0
LINE
  5
12D3
102
{ACAD_REACTORS
330
12C8
102
}
330
18
100
AcDbEntity
  8
ROGO
 62
     4
100
AcDbLine
 10
430.113217418769
 20
334.1748741525956
 30
0.0
 11
430.113706179575
 21
333.2414098583351
 31
0.0
  0
LINE
  5
12D4
102
{ACAD_REACTORS
330
12C8
102
}
330
18
100
AcDbEntity
  8
ROGO
 62
     4
100
AcDbLine
 10
430.4145863984329
 20
333.0927331827272
 30
0.0
 11
430.113706179575
 21
333.2414098583351
 31
0.0
  0
LINE
  5
12D5
102
{ACAD_REACTORS
330
12ED
102
}
330
18
100
AcDbEntity
  8
ROGO
 62
     4
100
AcDbLine
 10
430.414855786988
 20
332.5782389880552
 30
0.0
 11
430.4154057769403
 21
331.5278356492708
 31
0.0
  0
LINE
  5
12D6
102
{ACAD_REACTORS
330
12C8
102
}
330
18
100
AcDbEntity
  8
ROGO
 62
     4
100
AcDbLine
 10
430.4136564435134
 20
334.8688160877495
 30
0.0
 11
430.4145863984329
 21
333.0927331827272
 31
0.0
  0
LINE
  5
12D7
102
{ACAD_REACTORS
330
12ED
102
}
330
18
100
AcDbEntity
  8
ROGO
 62
     4
100
AcDbLine
 10
429.3521395667762
 20
331.7872020947777
 30
0.0
 11
429.1021830851972
 21
331.6760047795642
 31
0.0
  0
LINE
  5
12D8
102
{ACAD_REACTORS
330
1237
102
}
330
18
100
AcDbEntity
  8
ROGO
 62
     4
100
AcDbLine
 10
429.1027547645235
 20
330.5841777920954
 30
0.0
 11
429.1033469699039
 21
329.45314893213
 31
0.0
  0
LINE
  5
12D9
102
{ACAD_REACTORS
330
1237
102
}
330
18
100
AcDbEntity
  8
ROGO
 62
     4
100
AcDbLine
 10
429.5916046827487
 20
330.0494689651945
 30
0.0
 11
429.5920443386831
 21
329.2097880594242
 31
0.0
  0
SPLINE
  5
12DA
102
{ACAD_REACTORS
330
1237
102
}
330
18
100
AcDbEntity
  8
ROGO
 62
     4
100
AcDbSpline
210
0.0
220
0.0
230
1.0
 70
     8
 71
     3
 72
    16
 73
    12
 74
    10
 42
0.0000000001
 43
0.0000000001
 44
0.0000000001
 40
0.0
 40
0.0
 40
0.0
 40
0.0
 40
0.12559070256283
 40
0.1869327038465993
 40
0.2171823804787336
 40
0.2490606136881802
 40
0.294710152473621
 40
0.3362763310928106
 40
0.3796288870081151
 40
0.4523125795606605
 40
0.5242542460841371
 40
0.5242542460841371
 40
0.5242542460841371
 40
0.5242542460841371
 10
429.9277017404608
 20
329.864190370486
 30
0.0
 10
429.9211953790203
 20
329.9067176772143
 30
0.0
 10
429.9115111292196
 20
329.9700165064412
 30
0.0
 10
429.8661660546517
 20
330.0272385230518
 30
0.0
 10
429.8391896828867
 20
330.0595070318048
 30
0.0
 10
429.8034819430728
 20
330.0704710310305
 30
0.0
 10
429.7760528516911
 20
330.0999527410949
 30
0.0
 10
429.7383649458045
 20
330.1242461609618
 30
0.0
 10
429.6866144422233
 20
330.1300244943166
 30
0.0
 10
429.6139969942614
 20
330.1257251534748
 30
0.0
 10
429.5990432122435
 20
330.0748006021436
 30
0.0
 10
429.5916046827486
 20
330.0494689651945
 30
0.0
 11
429.9277017404608
 21
329.864190370486
 31
0.0
 11
429.8949368212602
 21
329.9854318016884
 31
0.0
 11
429.8592759545538
 21
330.0353431601877
 31
0.0
 11
429.8378837768606
 21
330.0567304851698
 31
0.0
 11
429.8093683426198
 21
330.0709815118914
 31
0.0
 11
429.7737186801531
 21
330.0994943503563
 31
0.0
 11
429.7380725201583
 21
330.1208742119702
 31
0.0
 11
429.6953070707801
 21
330.1279847987161
 31
0.0
 11
429.6240446289065
 21
330.1136815284158
 31
0.0
 11
429.5916046827486
 21
330.0494689651945
 31
0.0
  0
LINE
  5
12DB
102
{ACAD_REACTORS
330
1237
102
}
330
18
100
AcDbEntity
  8
ROGO
 62
     4
100
AcDbLine
 10
429.5920443386831
 20
329.2097880594242
 30
0.0
 11
429.1033469699039
 21
329.45314893213
 31
0.0
  0
LINE
  5
12DC
102
{ACAD_REACTORS
330
12ED
102
}
330
18
100
AcDbEntity
  8
ROGO
 62
     4
100
AcDbLine
 10
429.1025664682467
 20
330.9437971578056
 30
0.0
 11
429.1021830851972
 21
331.6760047795642
 31
0.0
  0
LINE
  5
12DD
102
{ACAD_REACTORS
330
12ED
102
}
330
18
100
AcDbEntity
  8
ROGO
 62
     4
100
AcDbLine
 10
429.1012152228002
 20
333.5244856273042
 30
0.0
 11
429.1015960085534
 21
332.797238475302
 31
0.0
  0
LINE
  5
12DE
102
{ACAD_REACTORS
330
12ED
102
}
330
18
100
AcDbEntity
  8
ROGO
 62
     4
100
AcDbLine
 10
429.351705044221
 20
332.6170789698043
 30
0.0
 11
429.1015960085535
 21
332.7972384753021
 31
0.0
  0
LINE
  5
12DF
102
{ACAD_REACTORS
330
12C8
102
}
330
18
100
AcDbEntity
  8
ROGO
 62
     4
100
AcDbLine
 10
429.6367386739538
 20
334.4103209228944
 30
0.0
 11
429.4014777725087
 21
334.5265725291321
 31
0.0
  0
LINE
  5
12E0
102
{ACAD_REACTORS
330
12C8
102
}
330
18
100
AcDbEntity
  8
ROGO
 62
     4
100
AcDbLine
 10
429.401966533315
 20
333.5931082348713
 30
0.0
 11
429.1011014490672
 21
333.7417774318769
 31
0.0
  0
LINE
  5
12E1
102
{ACAD_REACTORS
330
12C8
102
}
330
18
100
AcDbEntity
  8
ROGO
 62
     4
100
AcDbLine
 10
429.6367386739538
 20
334.4103209228944
 30
0.0
 11
429.6372274347601
 21
333.4768566286338
 31
0.0
  0
LINE
  5
12E2
102
{ACAD_REACTORS
330
12C8
102
}
330
18
100
AcDbEntity
  8
ROGO
 62
     4
100
AcDbLine
 10
429.4014777725088
 20
334.5265725291321
 30
0.0
 11
429.401966533315
 21
333.5931082348713
 31
0.0
  0
LINE
  5
12E3
102
{ACAD_REACTORS
330
12C8
102
}
330
18
100
AcDbEntity
  8
ROGO
 62
     4
100
AcDbLine
 10
429.877966476718
 20
334.2911208375072
 30
0.0
 11
429.8784552375241
 21
333.3576565432466
 31
0.0
  0
LINE
  5
12E4
102
{ACAD_REACTORS
330
12C8
102
}
330
18
100
AcDbEntity
  8
ROGO
 62
     4
100
AcDbLine
 10
429.8784552375241
 20
333.3576565432466
 30
0.0
 11
429.6372274347601
 21
333.4768566286338
 31
0.0
  0
LINE
  5
12E5
102
{ACAD_REACTORS
330
12ED
102
}
330
18
100
AcDbEntity
  8
ROGO
 62
     4
100
AcDbLine
 10
429.6155025861362
 20
332.4270593066753
 30
0.0
 11
429.6157762052941
 21
331.9044852562699
 31
0.0
  0
LINE
  5
12E6
102
{ACAD_REACTORS
330
12ED
102
}
330
18
100
AcDbEntity
  8
ROGO
 62
     4
100
AcDbLine
 10
429.351705044221
 20
332.6170789698043
 30
0.0
 11
429.3521395667762
 21
331.7872020947777
 31
0.0
  0
SPLINE
  5
12E7
102
{ACAD_REACTORS
330
1237
102
}
330
18
100
AcDbEntity
  8
ROGO
 62
     4
100
AcDbSpline
210
0.0
220
0.0
230
1.0
 70
     8
 71
     3
 72
    26
 73
    22
 74
    20
 42
0.0000000001
 43
0.0000000001
 44
0.0000000001
 40
0.0
 40
0.0
 40
0.0
 40
0.0
 40
0.2382195346593317
 40
0.3976890672663111
 40
0.51267958697899
 40
0.5985392873135357
 40
0.7099038249250787
 40
0.7911890807498291
 40
0.9379713068545566
 40
1.057449928672972
 40
1.138714535893043
 40
1.218398644003623
 40
1.36093802187028
 40
1.461730374800285
 40
1.516014844107856
 40
1.593124329220333
 40
1.648806818593869
 40
1.729472362005876
 40
1.775122082164238
 40
1.874460993765312
 40
1.919820003751158
 40
1.919820003751158
 40
1.919820003751158
 40
1.919820003751158
 10
430.416146009215
 20
330.1140962717663
 30
0.0
 10
430.4112797028293
 20
330.1949491256161
 30
0.0
 10
430.4031557811267
 20
330.3299267045091
 30
0.0
 10
430.3130426874534
 20
330.4780887524278
 30
0.0
 10
430.260643153402
 20
330.5866480753883
 30
0.0
 10
430.1894471921888
 20
330.6640547423068
 30
0.0
 10
430.1159191267603
 20
330.7207829687479
 30
0.0
 10
430.0283089192387
 20
330.7923022106527
 30
0.0
 10
429.9263034548977
 20
330.8506081066179
 30
0.0
 10
429.8138937684922
 20
330.8802680956447
 30
0.0
 10
429.7243012146491
 20
330.9065458573516
 30
0.0
 10
429.6244671433186
 20
330.926016401998
 30
0.0
 10
429.5166248707768
 20
330.9209927784173
 30
0.0
 10
429.4164677979629
 20
330.9138271394332
 30
0.0
 10
429.3449846136482
 20
330.8820310166432
 30
0.0
 10
429.2941006109655
 20
330.8458368464926
 30
0.0
 10
429.2380598543793
 20
330.8015208616924
 30
0.0
 10
429.2009542583492
 20
330.7530421622859
 30
0.0
 10
429.1337099981452
 20
330.7129271806655
 30
0.0
 10
429.1251632024341
 20
330.6427644156936
 30
0.0
 10
429.1081027649916
 20
330.5981600826799
 30
0.0
 10
429.1027547645239
 20
330.5841777920954
 30
0.0
 11
430.416146009215
 21
330.1140962717663
 31
0.0
 11
430.3793805850752
 21
330.3494616266534
 31
0.0
 11
430.308036210621
 21
330.4920817937534
 31
0.0
 11
430.2509682271629
 21
330.5919119739987
 31
0.0
 11
430.1939186852353
 21
330.6560776806291
 31
0.0
 11
430.1083576762314
 21
330.7273614373741
 31
0.0
 11
430.0441888449199
 21
330.7772578691364
 31
0.0
 11
429.9158658887953
 21
330.8485196459295
 31
0.0
 11
429.8018155890639
 21
330.8841240024439
 31
0.0
 11
429.7234077145092
 21
330.9054814740743
 31
0.0
 11
429.6450035745574
 21
330.9197063791285
 31
0.0
 11
429.5024642162298
 21
330.9196317456884
 31
0.0
 11
429.4026940420981
 21
330.9053135487731
 31
0.0
 11
429.3528163082812
 21
330.8838889069488
 31
0.0
 11
429.2886960287478
 21
330.841058281844
 31
0.0
 11
429.2459527557177
 21
330.8053714182453
 31
0.0
 11
429.1889669367574
 21
330.7482789815188
 31
0.0
 11
429.1533469200608
 21
330.7197288263341
 31
0.0
 11
429.1177607486448
 21
330.6269827010132
 31
0.0
 11
429.1027547645239
 21
330.5841777920954
 31
0.0
  0
LINE
  5
12E8
102
{ACAD_REACTORS
330
12ED
102
}
330
18
100
AcDbEntity
  8
ROGO
 62
     4
100
AcDbLine
 10
430.414855786988
 20
332.5782389880552
 30
0.0
 11
429.1012152228002
 21
333.5244856273042
 31
0.0
  0
LINE
  5
12E9
102
{ACAD_REACTORS
330
12C8
102
}
330
18
100
AcDbEntity
  8
ROGO
 62
     4
100
AcDbLine
 10
430.113217418769
 20
334.1748741525956
 30
0.0
 11
429.877966476718
 21
334.2911208375072
 31
0.0
  0
LINE
  5
12EA
102
{ACAD_REACTORS
330
12ED
102
}
330
18
100
AcDbEntity
  8
ROGO
 62
     4
100
AcDbLine
 10
430.0640951109056
 20
332.1039274085537
 30
0.0
 11
429.6157762052939
 21
331.9044852562699
 31
0.0
  0
LINE
  5
12EB
102
{ACAD_REACTORS
330
12ED
102
}
330
18
100
AcDbEntity
  8
ROGO
 62
     4
100
AcDbLine
 10
430.0640951109056
 20
332.1039274085537
 30
0.0
 11
429.6155025861359
 21
332.4270593066753
 31
0.0
  0
LINE
  5
12EC
102
{ACAD_REACTORS
330
12ED
102
}
330
18
100
AcDbEntity
  8
ROGO
 62
     4
100
AcDbLine
 10
430.4154057769403
 20
331.5278356492708
 30
0.0
 11
429.1025664682467
 21
330.9437971578056
 31
0.0
  0
HATCH
  5
12ED
330
18
100
AcDbEntity
  8
ROGO
 62
     4
100
AcDbHatch
 10
0.0
 20
0.0
 30
0.0
210
0.0
220
0.0
230
1.0
  2
SOLID
 70
     1
 71
     1
 91
        2
 92
        7
 72
     0
 73
     1
 93
        8
 10
430.4154057769403
 20
331.5278356492707
 10
430.4148557869881
 20
332.5782389880552
 10
429.1012152228002
 20
333.5244856273041
 10
429.1015960085534
 20
332.7972384753023
 10
429.351705044221
 20
332.6170789698042
 10
429.3521395667762
 20
331.7872020947776
 10
429.1021830851972
 20
331.6760047795642
 10
429.1025664682467
 20
330.9437971578056
 97
        8
330
12D5
330
12E8
330
12DD
330
12DE
330
12E6
330
12D7
330
12DC
330
12EC
 92
       22
 72
     0
 73
     1
 93
        3
 10
430.0640951109055
 20
332.1039274085537
 10
429.6157762052942
 20
331.90448525627
 10
429.6155025861362
 20
332.4270593066751
 97
        3
330
12E5
330
12EB
330
12EA
 75
     0
 76
     1
 47
0.0128389261915577
 98
        2
 10
430.1003208347574
 20
331.6099255749369
 10
430.1003208347574
 20
331.6099255749369
450
        0
451
        0
460
0.0
461
0.0
452
        0
462
0.0
453
        0
470

  0
LINE
  5
12EF
330
18
100
AcDbEntity
  8
目盛
100
AcDbLine
 10
455.7612017510161
 20
340.2703004297845
 30
0.0
 11
453.9512505063195
 21
339.4193735869702
 31
0.0
  0
LINE
  5
12F0
330
18
100
AcDbEntity
  8
目盛
100
AcDbLine
 10
455.4435561140869
 20
340.9192691365766
 30
0.0
 11
453.4829932406271
 21
339.921174341875
 31
0.0
  0
TEXT
  5
12F1
330
18
100
AcDbEntity
  8
文字
100
AcDbText
 10
451.8685094512348
 20
331.460498896383
 30
0.0
 40
2.0
  1
0
 50
269.9800000000001
  7
STYLE3
100
AcDbText
  0
LINE
  5
12F2
330
18
100
AcDbEntity
  8
目盛
100
AcDbLine
 10
419.1963274247414
 20
313.7238602244855
 30
0.0
 11
420.565930469286
 21
315.1813194864801
 31
0.0
  0
LINE
  5
12F3
330
18
100
AcDbEntity
  8
目盛
100
AcDbLine
 10
419.730568183697
 20
313.2373975388396
 30
0.0
 11
421.0537155100718
 21
314.7371579039341
 31
0.0
  0
TEXT
  5
12F4
330
18
100
AcDbEntity
  8
文字
100
AcDbText
 10
419.6837665326272
 20
321.4006387543642
 30
0.0
 40
2.0
  1
80
 50
269.9800000000001
  7
STYLE3
100
AcDbText
  0
LINE
  5
12F5
330
18
100
AcDbEntity
  8
目盛
100
AcDbLine
 10
418.677630443569
 20
314.2268637779315
 30
0.0
 11
420.2338082864195
 21
315.7819555827525
 31
0.0
  0
LINE
  5
12F6
330
18
100
AcDbEntity
  8
目盛
100
AcDbLine
 10
416.7682775264579
 20
316.3941241331268
 30
0.0
 11
418.3490153447664
 21
317.6193865335005
 31
0.0
  0
LINE
  5
12F7
330
18
100
AcDbEntity
  8
目盛
100
AcDbLine
 10
417.2198413651588
 20
315.8300769430493
 30
0.0
 11
418.7613127627105
 21
317.1043869251687
 31
0.0
  0
LINE
  5
12F8
330
18
100
AcDbEntity
  8
目盛
100
AcDbLine
 10
417.6888995347595
 20
315.2804920391576
 30
0.0
 11
419.1895832653898
 21
316.6025920129195
 31
0.0
  0
LINE
  5
12FE
330
18
100
AcDbEntity
  8
目盛
100
AcDbLine
 10
413.5589490711452
 20
322.0252422654084
 30
0.0
 11
415.4187589290462
 21
322.7608422194969
 31
0.0
  0
LINE
  5
12FF
330
18
100
AcDbEntity
  8
目盛
100
AcDbLine
 10
412.1271194572937
 20
327.6099427482281
 30
0.0
 11
414.1114362381382
 21
327.8599165733755
 31
0.0
  0
LINE
  5
1300
330
18
100
AcDbEntity
  8
目盛
100
AcDbLine
 10
412.6673544779257
 20
324.7725509649585
 30
0.0
 11
414.6046943004543
 21
325.2692545103904
 31
0.0
  0
LINE
  5
1301
330
18
100
AcDbEntity
  8
目盛
100
AcDbLine
 10
412.4989269137542
 20
325.4751826527467
 30
0.0
 11
414.4509126114284
 21
325.9107877905447
 31
0.0
  0
LINE
  5
1302
330
18
100
AcDbEntity
  8
目盛
100
AcDbLine
 10
413.0699829474878
 20
323.3848868707388
 30
0.0
 11
415.9234759243815
 21
324.3109418533497
 31
0.0
  0
LINE
  5
1303
330
18
100
AcDbEntity
  8
目盛
100
AcDbLine
 10
412.8577691279267
 20
324.0755564211346
 30
0.0
 11
414.7785511548031
 21
324.6328681877683
 31
0.0
  0
LINE
  5
1304
330
18
100
AcDbEntity
  8
目盛
100
AcDbLine
 10
413.3037865071891
 20
322.7012239212335
 30
0.0
 11
415.1857844141296
 21
323.3780428617718
 31
0.0
  0
LINE
  5
1305
330
18
100
AcDbEntity
  8
目盛
100
AcDbLine
 10
412.3526526530845
 20
326.1827580718511
 30
0.0
 11
414.3173578516865
 21
326.5568349123358
 31
0.0
  0
LINE
  5
1306
330
18
100
AcDbEntity
  8
目盛
100
AcDbLine
 10
412.2286760509514
 20
326.8945789307617
 30
0.0
 11
414.4017104009218
 21
327.2379762427032
 31
0.0
  0
LINE
  5
1307
330
18
100
AcDbEntity
  8
目盛
100
AcDbLine
 10
412.0480830962079
 20
328.328143546531
 30
0.0
 11
414.0392726041033
 21
328.5156651283478
 31
0.0
  0
LINE
  5
1309
330
18
100
AcDbEntity
  8
目盛
100
AcDbLine
 10
414.787842257605
 20
319.4113433489324
 30
0.0
 11
416.5407918384227
 21
320.3742388609752
 31
0.0
  0
LINE
  5
130A
330
18
100
AcDbEntity
  8
目盛
100
AcDbLine
 10
414.4499687599243
 20
320.0500143382699
 30
0.0
 11
416.4105316333843
 21
321.0481091329716
 31
0.0
  0
LINE
  5
130B
330
18
100
AcDbEntity
  8
目盛
100
AcDbLine
 10
414.1323231229954
 20
320.6989830450623
 30
0.0
 11
415.942274367692
 21
321.5499098878762
 31
0.0
  0
LINE
  5
130C
330
18
100
AcDbEntity
  8
目盛
100
AcDbLine
 10
413.8352188247111
 20
321.3576090155476
 30
0.0
 11
415.6710052257802
 21
322.151264034841
 31
0.0
  0
LINE
  5
130D
330
18
100
AcDbEntity
  8
目盛
100
AcDbLine
 10
415.5229194404284
 20
318.1674049026331
 30
0.0
 11
417.2119492662177
 21
319.2384689752234
 31
0.0
  0
LINE
  5
130E
330
18
100
AcDbEntity
  8
目盛
100
AcDbLine
 10
415.1456101756864
 20
318.7836003682092
 30
0.0
 11
416.8674495027579
 21
319.8010822264017
 31
0.0
  0
LINE
  5
130F
330
18
100
AcDbEntity
  8
目盛
100
AcDbLine
 10
415.9193976931382
 20
317.5633650627355
 30
0.0
 11
417.5739511491267
 21
318.6869543387953
 31
0.0
  0
LINE
  5
1310
330
18
100
AcDbEntity
  8
目盛
100
AcDbLine
 10
416.3346536576494
 20
316.9720769629105
 30
0.0
 11
418.7623200201739
 21
318.7345854117602
 31
0.0
  0
LINE
  5
1311
330
18
100
AcDbEntity
  8
目盛
100
AcDbLine
 10
418.1749891314787
 20
314.7459117953977
 30
0.0
 11
419.6334042015246
 21
316.1144970077477
 31
0.0
  0
TEXT
  5
1313
330
18
100
AcDbEntity
  8
文字
100
AcDbText
 10
424.5610403073694
 20
333.5998545445667
 30
0.0
 40
1.0
  1
0.01mm
 50
270.0300000000002
  7
STYLE3
100
AcDbText
  0
TEXT
  5
1314
330
18
100
AcDbEntity
  8
文字
100
AcDbText
 10
428.7433487742025
 20
315.289295151391
 30
0.0
 40
2.0
  1
60
 50
269.9800000000001
  7
STYLE3
100
AcDbText
  0
LINE
  5
1315
330
18
100
AcDbEntity
  8
目盛
100
AcDbLine
 10
428.5222576573568
 20
308.4001281965669
 30
0.0
 11
429.0809102468913
 21
310.3205206783806
 31
0.0
  0
LINE
  5
1316
330
18
100
AcDbEntity
  8
目盛
100
AcDbLine
 10
427.8317364284564
 20
308.6128241426812
 30
0.0
 11
428.7597832991367
 21
311.4656699159084
 31
0.0
  0
LINE
  5
1317
330
18
100
AcDbEntity
  8
目盛
100
AcDbLine
 10
426.4724335171869
 20
309.1027393581045
 30
0.0
 11
427.2093316841277
 21
310.9620352171755
 31
0.0
  0
LINE
  5
1318
330
18
100
AcDbEntity
  8
目盛
100
AcDbLine
 10
427.1482368712184
 20
308.8471049321451
 30
0.0
 11
427.8263695291131
 21
310.7286298717347
 31
0.0
  0
LINE
  5
1319
330
18
100
AcDbEntity
  8
目盛
100
AcDbLine
 10
424.4978281204393
 20
309.9951377988678
 30
0.0
 11
425.4972914028934
 21
311.9550033929905
 31
0.0
  0
LINE
  5
131A
330
18
100
AcDbEntity
  8
目盛
100
AcDbLine
 10
425.1465749106114
 20
309.6770391737565
 30
0.0
 11
425.9987651302979
 21
311.4863959184232
 31
0.0
  0
LINE
  5
131B
330
18
100
AcDbEntity
  8
目盛
100
AcDbLine
 10
425.8049933026807
 20
309.3794751402437
 30
0.0
 11
426.5999297491438
 21
311.2147070182594
 31
0.0
  0
LINE
  5
131C
330
18
100
AcDbEntity
  8
目盛
100
AcDbLine
 10
420.279825489308
 20
312.7679558009321
 30
0.0
 11
421.5552113108469
 21
314.3085371867137
 31
0.0
  0
LINE
  5
131D
330
18
100
AcDbEntity
  8
目盛
100
AcDbLine
 10
420.8435572909251
 20
312.3159982930831
 30
0.0
 11
422.0699229558016
 21
313.8958803317214
 31
0.0
  0
LINE
  5
131E
330
18
100
AcDbEntity
  8
目盛
100
AcDbLine
 10
421.4212072533212
 20
311.8819710427863
 30
0.0
 11
423.1854101033671
 21
314.3084063507822
 31
0.0
  0
LINE
  5
131F
330
18
100
AcDbEntity
  8
目盛
100
AcDbLine
 10
423.8593931669227
 20
310.3334570906381
 30
0.0
 11
424.8235122338864
 21
312.0857340164456
 31
0.0
  0
LINE
  5
1320
330
18
100
AcDbEntity
  8
目盛
100
AcDbLine
 10
422.615968204406
 20
311.0694025271202
 30
0.0
 11
423.6882111811537
 21
312.7576841975813
 31
0.0
  0
LINE
  5
1321
330
18
100
AcDbEntity
  8
目盛
100
AcDbLine
 10
422.012205305723
 20
311.4663023825378
 30
0.0
 11
423.1369494040953
 21
313.1200710220932
 31
0.0
  0
LINE
  5
1322
330
18
100
AcDbEntity
  8
目盛
100
AcDbLine
 10
423.2319001082811
 20
310.6916631687735
 30
0.0
 11
424.2505837890397
 21
312.4127917399605
 31
0.0
  0
LINE
  5
1324
330
18
100
AcDbEntity
  8
目盛
100
AcDbLine
 10
434.9397811201397
 20
310.4846429558927
 30
0.0
 11
434.9387339226097
 21
307.4846431386632
 31
0.0
  0
LINE
  5
1325
330
18
100
AcDbEntity
  8
目盛
100
AcDbLine
 10
431.3408402902211
 20
307.7690672240785
 30
0.0
 11
431.6857545825221
 21
309.9418613079635
 31
0.0
  0
LINE
  5
1327
330
18
100
AcDbEntity
  8
目盛
100
AcDbLine
 10
437.8214614262009
 20
307.6649987577112
 30
0.0
 11
437.5714876010536
 21
309.6493155385557
 31
0.0
  0
LINE
  5
1328
330
18
100
AcDbEntity
  8
目盛
100
AcDbLine
 10
436.3829316262386
 20
307.5295242674582
 30
0.0
 11
436.258047348914
 21
309.5256214387593
 31
0.0
  0
LINE
  5
1329
330
18
100
AcDbEntity
  8
目盛
100
AcDbLine
 10
435.6611852989795
 20
307.4957400678287
 30
0.0
 11
435.5990615718513
 21
309.4947749956196
 31
0.0
  0
LINE
  5
132A
330
18
100
AcDbEntity
  8
目盛
100
AcDbLine
 10
437.1032606278979
 20
307.5859623966254
 30
0.0
 11
436.9157390460812
 21
309.5771519045209
 31
0.0
  0
LINE
  5
132B
330
18
100
AcDbEntity
  8
目盛
100
AcDbLine
 10
433.4945679038591
 20
307.5305324966381
 30
0.0
 11
433.6208456893504
 21
309.5265419958368
 31
0.0
  0
LINE
  5
132C
330
18
100
AcDbEntity
  8
目盛
100
AcDbLine
 10
434.2162904694137
 20
307.4962444312914
 30
0.0
 11
434.2798097709434
 21
309.49523550139
 31
0.0
  0
LINE
  5
132D
330
18
100
AcDbEntity
  8
目盛
100
AcDbLine
 10
432.056133033487
 20
307.6670112370511
 30
0.0
 11
432.3074921120537
 21
309.6511530196922
 31
0.0
  0
LINE
  5
132E
330
18
100
AcDbEntity
  8
目盛
100
AcDbLine
 10
432.774278478983
 20
307.587473496522
 30
0.0
 11
432.9631901275067
 21
309.5785316044265
 31
0.0
  0
LINE
  5
132F
330
18
100
AcDbEntity
  8
目盛
100
AcDbLine
 10
429.9216330287833
 20
308.0403089464797
 30
0.0
 11
430.3586008034114
 21
309.9919900587358
 31
0.0
  0
LINE
  5
1330
330
18
100
AcDbEntity
  8
目盛
100
AcDbLine
 10
429.2191190968353
 20
308.2092269990216
 30
0.0
 11
429.7171750394588
 21
310.1462195849695
 31
0.0
  0
LINE
  5
1331
330
18
100
AcDbEntity
  8
目盛
100
AcDbLine
 10
430.6291061567669
 20
307.8935407406654
 30
0.0
 11
431.0045545289615
 21
309.8579843056008
 31
0.0
  0
LINE
  5
1332
330
18
100
AcDbEntity
  8
目盛
100
AcDbLine
 10
453.1154058813456
 20
316.3814365913425
 30
0.0
 11
451.5355238427075
 21
317.6078022562192
 31
0.0
  0
LINE
  5
1334
330
18
100
AcDbEntity
  8
目盛
100
AcDbLine
 10
452.6634483734966
 20
315.8177047897253
 30
0.0
 11
451.122866987715
 21
317.0930906112642
 31
0.0
  0
LINE
  5
1335
330
18
100
AcDbEntity
  8
目盛
100
AcDbLine
 10
452.1940066355893
 20
315.2684474841145
 30
0.0
 11
450.694246270495
 21
316.5915948104892
 31
0.0
  0
LINE
  5
1336
102
{ACAD_REACTORS
330
1338
102
}
330
18
100
AcDbEntity
  8
ROGO
 62
     4
100
AcDbLine
 10
430.4197167038668
 20
323.294572445754
 30
0.0
 11
430.420112579709
 21
322.5385053493939
 31
0.0
  0
LINE
  5
1337
102
{ACAD_REACTORS
330
1338
102
}
330
18
100
AcDbEntity
  8
ROGO
 62
     4
100
AcDbLine
 10
429.3935225424222
 20
323.7808767437646
 30
0.0
 11
430.420112579709
 21
322.5385053493939
 31
0.0
  0
HATCH
  5
1338
330
18
100
AcDbEntity
  8
ROGO
 62
     4
100
AcDbHatch
 10
0.0
 20
0.0
 30
0.0
210
0.0
220
0.0
230
1.0
  2
SOLID
 70
     1
 71
     1
 91
        1
 92
        7
 72
     0
 73
     1
 93
       11
 10
428.3667797324969
 20
325.315022357809
 10
428.3671756170006
 20
324.5589387189473
 10
428.9028789323808
 20
324.2921698868007
 10
428.3674552703496
 20
324.0248402138288
 10
428.3678511461916
 20
323.268773117469
 10
429.3935225424222
 20
323.7808767437646
 10
430.4201125797091
 20
322.5385053493937
 10
430.4197167038668
 20
323.2945724457539
 10
430.1955079649453
 20
323.648468181928
 10
430.4195898318178
 20
323.5368801886965
 10
430.419193947314
 20
324.2929638275586
 97
       11
330
1336
330
133A
330
1339
330
133D
330
134C
330
1238
330
1344
330
1343
330
1342
330
1345
330
1337
 75
     0
 76
     1
 47
0.0514683685270805
 98
        1
 10
429.5388640133182
 20
324.3575741431646
450
        0
451
        0
460
0.0
461
0.0
452
        0
462
0.0
453
        0
470

  0
LINE
  5
1339
102
{ACAD_REACTORS
330
1338
102
}
330
18
100
AcDbEntity
  8
ROGO
 62
     4
100
AcDbLine
 10
430.4195898318178
 20
323.5368801886965
 30
0.0
 11
430.1955079649453
 21
323.648468181928
 31
0.0
  0
LINE
  5
133A
102
{ACAD_REACTORS
330
1338
102
}
330
18
100
AcDbEntity
  8
ROGO
 62
     4
100
AcDbLine
 10
430.1955079649453
 20
323.648468181928
 30
0.0
 11
430.4197167038668
 21
323.294572445754
 31
0.0
  0
LINE
  5
133B
102
{ACAD_REACTORS
330
134F
102
}
330
18
100
AcDbEntity
  8
ROGO
 62
     4
100
AcDbLine
 10
430.4183613920654
 20
325.8830270808243
 30
0.0
 11
430.4190499434525
 21
324.5679909189806
 31
0.0
  0
LINE
  5
133C
102
{ACAD_REACTORS
330
1352
102
}
330
18
100
AcDbEntity
  8
ROGO
 62
     4
100
AcDbLine
 10
430.4226936004909
 20
328.0698377577055
 30
0.0
 11
430.423086537176
 21
327.3193840373907
 31
0.0
  0
LINE
  5
133D
102
{ACAD_REACTORS
330
1338
102
}
330
18
100
AcDbEntity
  8
ROGO
 62
     4
100
AcDbLine
 10
430.419193947314
 20
324.2929638275585
 30
0.0
 11
430.4195898318178
 21
323.5368801886965
 31
0.0
  0
ELLIPSE
  5
133E
102
{ACAD_REACTORS
330
1352
102
}
330
18
100
AcDbEntity
  8
ROGO
 62
     4
100
AcDbEllipse
 10
429.7450880001693
 20
327.8970245459394
 30
0.0
 11
0.1568724203442331
 21
-0.1782025952914886
 31
0.0
210
0.0
220
0.0
230
1.0
 40
0.6788083417438788
 41
0.0
 42
6.283185307179586
  0
SPLINE
  5
133F
102
{ACAD_REACTORS
330
1352
102
}
330
18
100
AcDbEntity
  8
ROGO
 62
     4
100
AcDbSpline
210
0.0
220
0.0
230
1.0
 70
     8
 71
     3
 72
     9
 73
     5
 74
     3
 42
0.0000000001
 43
0.0000000001
 44
0.0000000001
 40
0.0
 40
0.0
 40
0.0
 40
0.0
 40
0.1135793343552586
 40
0.2662938392176748
 40
0.2662938392176748
 40
0.2662938392176748
 40
0.2662938392176748
 10
429.1336707093221
 20
327.4529754221104
 30
0.0
 10
429.144852150999
 20
327.4164963033808
 30
0.0
 10
429.1710677389763
 20
327.3309687324287
 30
0.0
 10
429.2264170553989
 20
327.2603210063406
 30
0.0
 10
429.2581588466353
 20
327.2198058650933
 30
0.0
 11
429.1336707093221
 21
327.4529754221104
 31
0.0
 11
429.1725149928417
 21
327.3462449820737
 31
0.0
 11
429.2581588466353
 21
327.2198058650933
 31
0.0
  0
SPLINE
  5
1340
102
{ACAD_REACTORS
330
1352
102
}
330
18
100
AcDbEntity
  8
ROGO
 62
     4
100
AcDbSpline
210
0.0
220
0.0
230
1.0
 70
     8
 71
     3
 72
    11
 73
     7
 74
     0
 42
0.0000000001
 43
0.0000000001
 40
0.1647869275458134
 40
0.1647869275458134
 40
0.1647869275458134
 40
0.1647869275458134
 40
0.2895635144633836
 40
0.5387013147903714
 40
0.7953622617455423
 40
0.8850764140209602
 40
0.8850764140209602
 40
0.8850764140209602
 40
0.8850764140209602
 10
429.1336707093221
 20
327.4529754221104
 30
0.0
 10
429.1297724579914
 20
327.4669519257072
 30
0.0
 10
429.1228221758577
 20
327.5102893039233
 30
0.0
 10
429.1132717178045
 20
327.5829830804182
 30
0.0
 10
429.1033090097174
 20
327.6520744155241
 30
0.0
 10
429.1040670250561
 20
327.6925055127907
 30
0.0
 10
429.1042633575974
 20
327.7029775173452
 30
0.0
  0
LINE
  5
1341
102
{ACAD_REACTORS
330
1352
102
}
330
18
100
AcDbEntity
  8
ROGO
 62
     4
100
AcDbLine
 10
429.1038704209126
 20
328.4534312376601
 30
0.0
 11
429.1042633575974
 21
327.7029775173454
 31
0.0
  0
LINE
  5
1342
102
{ACAD_REACTORS
330
1338
102
}
330
18
100
AcDbEntity
  8
ROGO
 62
     4
100
AcDbLine
 10
428.3674552703496
 20
324.0248402138287
 30
0.0
 11
428.3678511461917
 21
323.2687731174691
 31
0.0
  0
LINE
  5
1343
102
{ACAD_REACTORS
330
1338
102
}
330
18
100
AcDbEntity
  8
ROGO
 62
     4
100
AcDbLine
 10
428.9028789323809
 20
324.2921698868007
 30
0.0
 11
428.3674552703496
 21
324.0248402138287
 31
0.0
  0
LINE
  5
1344
102
{ACAD_REACTORS
330
1338
102
}
330
18
100
AcDbEntity
  8
ROGO
 62
     4
100
AcDbLine
 10
428.9028789323809
 20
324.2921698868007
 30
0.0
 11
428.3671756170006
 21
324.5589387189473
 31
0.0
  0
LINE
  5
1345
102
{ACAD_REACTORS
330
1338
102
}
330
18
100
AcDbEntity
  8
ROGO
 62
     4
100
AcDbLine
 10
429.3935225424222
 20
323.7808767437646
 30
0.0
 11
428.3678511461917
 21
323.2687731174691
 31
0.0
  0
LINE
  5
1346
102
{ACAD_REACTORS
330
134F
102
}
330
18
100
AcDbEntity
  8
ROGO
 62
     4
100
AcDbLine
 10
429.9299171233115
 20
325.6331211795441
 30
0.0
 11
429.9303473994466
 21
324.8113543688389
 31
0.0
  0
LINE
  5
1347
102
{ACAD_REACTORS
330
134F
102
}
330
18
100
AcDbEntity
  8
ROGO
 62
     4
100
AcDbLine
 10
429.5938200655992
 20
325.8183997742525
 30
0.0
 11
429.5942597215335
 21
324.978718868482
 31
0.0
  0
LINE
  5
1348
102
{ACAD_REACTORS
330
134F
102
}
330
18
100
AcDbEntity
  8
ROGO
 62
     4
100
AcDbLine
 10
429.5942597215335
 20
324.978718868482
 30
0.0
 11
429.1055623527541
 21
325.222079741188
 31
0.0
  0
SPLINE
  5
1349
102
{ACAD_REACTORS
330
134F
102
}
330
18
100
AcDbEntity
  8
ROGO
 62
     4
100
AcDbSpline
210
0.0
220
0.0
230
1.0
 70
     8
 71
     3
 72
    16
 73
    12
 74
    10
 42
0.0000000001
 43
0.0000000001
 44
0.0000000001
 40
0.0
 40
0.0
 40
0.0
 40
0.0
 40
0.1255907025629694
 40
0.1869327038470295
 40
0.2171823804792442
 40
0.2490606136883349
 40
0.2947101524739
 40
0.336276331093226
 40
0.3796288870081941
 40
0.452312579560762
 40
0.524254246084136
 40
0.524254246084136
 40
0.524254246084136
 40
0.524254246084136
 10
429.9299171233115
 20
325.633121179544
 30
0.0
 10
429.923410761871
 20
325.6756484862724
 30
0.0
 10
429.91372651207
 20
325.7389473154995
 30
0.0
 10
429.868381437502
 20
325.7961693321099
 30
0.0
 10
429.8414050657369
 20
325.8284378408629
 30
0.0
 10
429.8056973259232
 20
325.839401840089
 30
0.0
 10
429.7782682345413
 20
325.868883550153
 30
0.0
 10
429.7405803286547
 20
325.8931769700197
 30
0.0
 10
429.6888298250736
 20
325.8989553033747
 30
0.0
 10
429.6162123771118
 20
325.8946559625326
 30
0.0
 10
429.601258595094
 20
325.8437314112013
 30
0.0
 10
429.5938200655991
 20
325.8183997742524
 30
0.0
 11
429.9299171233115
 21
325.633121179544
 31
0.0
 11
429.8971522041108
 21
325.7543626107465
 31
0.0
 11
429.861491337404
 21
325.8042739692458
 31
0.0
 11
429.8400991597106
 21
325.825661294228
 31
0.0
 11
429.8115837254704
 21
325.8399123209497
 31
0.0
 11
429.7759340630033
 21
325.8684251594144
 31
0.0
 11
429.7402879030082
 21
325.8898050210281
 31
0.0
 11
429.6975224536303
 21
325.8969156077741
 31
0.0
 11
429.6262600117568
 21
325.8826123374737
 31
0.0
 11
429.5938200655991
 21
325.8183997742524
 31
0.0
  0
LINE
  5
134A
102
{ACAD_REACTORS
330
134F
102
}
330
18
100
AcDbEntity
  8
ROGO
 62
     4
100
AcDbLine
 10
429.1049701473739
 20
326.3531086011534
 30
0.0
 11
429.1055623527543
 21
325.2220797411878
 31
0.0
  0
SPLINE
  5
134B
102
{ACAD_REACTORS
330
1352
102
}
330
18
100
AcDbEntity
  8
ROGO
 62
     4
100
AcDbSpline
210
0.0
220
0.0
230
1.0
 70
     8
 71
     3
 72
    25
 73
    21
 74
     0
 42
0.0000000001
 43
0.0000000001
 40
0.0
 40
0.0
 40
0.0
 40
0.0
 40
0.4087168505087288
 40
0.6887487002771746
 40
0.9415836120477687
 40
1.17452070575514
 40
1.41154617586699
 40
1.599156012919487
 40
1.80099909059943
 40
2.178735911501585
 40
2.521686161369157
 40
2.762704659361267
 40
3.06256558063785
 40
3.222432137207705
 40
3.399493810628493
 40
3.567459719866414
 40
3.743172740007509
 40
3.995988754699505
 40
4.17170091132118
 40
4.337226830236035
 40
4.337226830236035
 40
4.337226830236035
 40
4.337226830236035
 10
430.423086537176
 20
327.3193840373908
 30
0.0
 10
430.4215309194935
 20
327.270163165699
 30
0.0
 10
430.4189094722603
 20
327.1872186740237
 30
0.0
 10
430.3493534187159
 20
327.0981325837279
 30
0.0
 10
430.2916831413987
 20
327.029964157539
 30
0.0
 10
430.2219446686669
 20
326.9815622810664
 30
0.0
 10
430.1578227710128
 20
326.9391351124629
 30
0.0
 10
430.0901159919215
 20
326.9111654966745
 30
0.0
 10
430.0088764021695
 20
326.8731269768375
 30
0.0
 10
429.9001715200421
 20
326.8573415992862
 30
0.0
 10
429.7878009184064
 20
326.8679092069646
 30
0.0
 10
429.688185128934
 20
326.8955871075529
 30
0.0
 10
429.6117581445574
 20
326.9246336931611
 30
0.0
 10
429.545219021663
 20
326.9588808769713
 30
0.0
 10
429.5021251583477
 20
326.9997268659813
 30
0.0
 10
429.4473440939352
 20
327.0280511421059
 30
0.0
 10
429.4025197507574
 20
327.0824900803157
 30
0.0
 10
429.3472248709115
 20
327.1266112938398
 30
0.0
 10
429.2997582961305
 20
327.1766876839048
 30
0.0
 10
429.2704733866708
 20
327.2049196535369
 30
0.0
 10
429.2581588466353
 20
327.2198058650933
 30
0.0
  0
LINE
  5
134C
102
{ACAD_REACTORS
330
1338
102
}
330
18
100
AcDbEntity
  8
ROGO
 62
     4
100
AcDbLine
 10
430.419193947314
 20
324.2929638275585
 30
0.0
 11
428.3667797324969
 21
325.315022357809
 31
0.0
  0
SPLINE
  5
134D
102
{ACAD_REACTORS
330
134F
102
}
330
18
100
AcDbEntity
  8
ROGO
 62
     4
100
AcDbSpline
210
0.0
220
0.0
230
1.0
 70
     8
 71
     3
 72
    26
 73
    22
 74
    20
 42
0.0000000001
 43
0.0000000001
 44
0.0000000001
 40
0.0
 40
0.0
 40
0.0
 40
0.0
 40
0.2382195346592966
 40
0.397689067266022
 40
0.5126795869788277
 40
0.5985392873137605
 40
0.7099038249254345
 40
0.7911890807494969
 40
0.9379713068544672
 40
1.057449928673452
 40
1.138714535893055
 40
1.218398644003259
 40
1.36093802187037
 40
1.461730374800279
 40
1.516014844107716
 40
1.593124329220477
 40
1.64880681859362
 40
1.729472362005224
 40
1.775122082164297
 40
1.874460993765265
 40
1.919820003751116
 40
1.919820003751116
 40
1.919820003751116
 40
1.919820003751116
 10
430.4183613920654
 20
325.8830270808245
 30
0.0
 10
430.4134950856799
 20
325.9638799346744
 30
0.0
 10
430.405371163978
 20
326.0988575135676
 30
0.0
 10
430.3152580703029
 20
326.2470195614853
 30
0.0
 10
430.2628585362525
 20
326.3555788844465
 30
0.0
 10
430.1916625750388
 20
326.4329855513649
 30
0.0
 10
430.1181345096097
 20
326.489713777805
 30
0.0
 10
430.0305243020896
 20
326.5612330197115
 30
0.0
 10
429.9285188377475
 20
326.6195389156755
 30
0.0
 10
429.8161091513425
 20
326.6491989047031
 30
0.0
 10
429.7265165974994
 20
326.6754766664101
 30
0.0
 10
429.6266825261688
 20
326.6949472110559
 30
0.0
 10
429.5188402536271
 20
326.6899235874752
 30
0.0
 10
429.4186831808132
 20
326.6827579484908
 30
0.0
 10
429.3471999964984
 20
326.6509618257015
 30
0.0
 10
429.296315993816
 20
326.6147676555503
 30
0.0
 10
429.2402752372296
 20
326.5704516707505
 30
0.0
 10
429.2031696411997
 20
326.5219729713439
 30
0.0
 10
429.1359253809956
 20
326.4818579897234
 30
0.0
 10
429.1273785852846
 20
326.4116952247515
 30
0.0
 10
429.1103181478415
 20
326.3670908917377
 30
0.0
 10
429.1049701473739
 20
326.3531086011534
 30
0.0
 11
430.4183613920654
 21
325.8830270808245
 31
0.0
 11
430.3815959679259
 21
326.1183924357116
 31
0.0
 11
430.310251593471
 21
326.261012602811
 31
0.0
 11
430.2531836100134
 21
326.3608427830567
 31
0.0
 11
430.1961340680852
 21
326.4250084896872
 31
0.0
 11
430.1105730590809
 21
326.4962922464318
 31
0.0
 11
430.0464042277706
 21
326.5461886781945
 31
0.0
 11
429.9180812716456
 21
326.6174504549874
 31
0.0
 11
429.8040309719137
 21
326.6530548115023
 31
0.0
 11
429.7256230973594
 21
326.6744122831326
 31
0.0
 11
429.6472189574081
 21
326.6886371881866
 31
0.0
 11
429.5046795990799
 21
326.6885625547462
 31
0.0
 11
429.4049094249483
 21
326.6742443578309
 31
0.0
 11
429.3550316911315
 21
326.6528197160069
 31
0.0
 11
429.290911411598
 21
326.6099890909018
 31
0.0
 11
429.2481681385681
 21
326.5743022273034
 31
0.0
 11
429.1911823196081
 21
326.5172097905771
 31
0.0
 11
429.155562302911
 21
326.4886596353918
 31
0.0
 11
429.1199761314951
 21
326.3959135100711
 31
0.0
 11
429.1049701473739
 21
326.3531086011534
 31
0.0
  0
LINE
  5
134E
102
{ACAD_REACTORS
330
134F
102
}
330
18
100
AcDbEntity
  8
ROGO
 62
     4
100
AcDbLine
 10
430.4190499434525
 20
324.5679909189806
 30
0.0
 11
429.9303473994466
 21
324.8113543688389
 31
0.0
  0
HATCH
  5
134F
330
18
100
AcDbEntity
  8
ROGO
 62
     4
100
AcDbHatch
 10
0.0
 20
0.0
 30
0.0
210
0.0
220
0.0
230
1.0
  2
SOLID
 70
     1
 71
     1
 91
        1
 92
        5
 93
        8
 72
     4
 94
        3
 73
     0
 74
     0
 95
       26
 96
       22
 40
0.0
 40
0.0
 40
0.0
 40
0.0
 40
0.2382195346592966
 40
0.397689067266022
 40
0.5126795869788277
 40
0.5985392873137605
 40
0.7099038249254345
 40
0.7911890807494969
 40
0.9379713068544672
 40
1.057449928673452
 40
1.138714535893055
 40
1.218398644003259
 40
1.36093802187037
 40
1.461730374800279
 40
1.516014844107716
 40
1.593124329220477
 40
1.64880681859362
 40
1.729472362005224
 40
1.775122082164297
 40
1.874460993765265
 40
1.919820003751116
 40
1.919820003751116
 40
1.919820003751116
 40
1.919820003751116
 10
430.4183613920654
 20
325.8830270808245
 10
430.4134950856799
 20
325.9638799346744
 10
430.405371163978
 20
326.0988575135676
 10
430.3152580703029
 20
326.2470195614853
 10
430.2628585362525
 20
326.3555788844464
 10
430.1916625750388
 20
326.4329855513649
 10
430.1181345096097
 20
326.489713777805
 10
430.0305243020896
 20
326.5612330197115
 10
429.9285188377475
 20
326.6195389156755
 10
429.8161091513425
 20
326.6491989047032
 10
429.7265165974994
 20
326.67547666641
 10
429.6266825261688
 20
326.694947211056
 10
429.5188402536271
 20
326.6899235874752
 10
429.4186831808132
 20
326.6827579484907
 10
429.3471999964984
 20
326.6509618257015
 10
429.296315993816
 20
326.6147676555503
 10
429.2402752372296
 20
326.5704516707505
 10
429.2031696411997
 20
326.5219729713439
 10
429.1359253809956
 20
326.4818579897234
 10
429.1273785852846
 20
326.4116952247515
 10
429.1103181478415
 20
326.3670908917378
 10
429.1049701473739
 20
326.3531086011534
 72
     1
 10
429.1049701473739
 20
326.3531086011533
 11
429.1055623527543
 21
325.222079741188
 72
     1
 10
429.1055623527543
 20
325.222079741188
 11
429.5942597215335
 21
324.9787188684821
 72
     1
 10
429.5942597215335
 20
324.9787188684821
 11
429.5938200655993
 21
325.8183997742524
 72
     4
 94
        3
 73
     0
 74
     0
 95
       16
 96
       12
 40
0.0
 40
0.0
 40
0.0
 40
0.0
 40
0.0719416665233741
 40
0.1446253590759418
 40
0.1879779149909099
 40
0.229544093610236
 40
0.2751936323958011
 40
0.3070718656048918
 40
0.3373215422371064
 40
0.3986635435211666
 40
0.524254246084136
 40
0.524254246084136
 40
0.524254246084136
 40
0.524254246084136
 10
429.5938200655991
 20
325.8183997742524
 10
429.601258595094
 20
325.8437314112013
 10
429.6162123771118
 20
325.8946559625325
 10
429.6888298250736
 20
325.8989553033747
 10
429.7405803286547
 20
325.8931769700197
 10
429.7782682345413
 20
325.868883550153
 10
429.8056973259232
 20
325.839401840089
 10
429.8414050657369
 20
325.8284378408629
 10
429.868381437502
 20
325.7961693321099
 10
429.91372651207
 20
325.7389473154996
 10
429.923410761871
 20
325.6756484862724
 10
429.9299171233115
 20
325.633121179544
 72
     1
 10
429.9299171233114
 20
325.6331211795441
 11
429.9303473994466
 21
324.811354368839
 72
     1
 10
429.9303473994466
 20
324.811354368839
 11
430.4190499434526
 21
324.5679909189806
 72
     1
 10
430.4190499434526
 20
324.5679909189806
 11
430.4183613920654
 21
325.8830270808248
 97
        8
330
133B
330
134D
330
134A
330
1348
330
1347
330
1349
330
1346
330
134E
 75
     0
 76
     1
 47
0.0514683685270805
 98
        1
 10
430.1780389355283
 20
325.6559837874787
450
        0
451
        0
460
0.0
461
0.0
452
        0
462
0.0
453
        0
470

  0
LINE
  5
1350
102
{ACAD_REACTORS
330
1237
102
}
330
18
100
AcDbEntity
  8
ROGO
 62
     4
100
AcDbLine
 10
430.416834560602
 20
328.7990601099224
 30
0.0
 11
429.9281320165964
 21
329.0424235597809
 31
0.0
  0
SPLINE
  5
1351
102
{ACAD_REACTORS
330
1352
102
}
330
18
100
AcDbEntity
  8
ROGO
 62
     4
100
AcDbSpline
210
0.0
220
0.0
230
1.0
 70
     8
 71
     3
 72
    38
 73
    34
 74
    32
 42
0.0000000001
 43
0.0000000001
 44
0.0000000001
 40
0.0
 40
0.0
 40
0.0
 40
0.0
 40
0.1807680148266165
 40
0.2375392910070272
 40
0.3104865209604333
 40
0.3712759982447149
 40
0.4225667543873763
 40
0.4906925837206031
 40
0.5255021974953161
 40
0.5647069597052528
 40
0.622487401681607
 40
0.687940104467412
 40
0.7303986317547519
 40
0.7765228362184478
 40
0.8277951442288548
 40
0.9056034696997631
 40
0.9795294930262546
 40
1.013897332332652
 40
1.053089255535645
 40
1.099518741889259
 40
1.1325705698204
 40
1.160277520289995
 40
1.19983678629355
 40
1.243305643168892
 40
1.286774258016632
 40
1.32480935651549
 40
1.411916492917505
 40
1.446284332224308
 40
1.515020051661112
 40
1.575779369908508
 40
1.692098529536035
 40
1.835624328518869
 40
2.042896467984053
 40
2.042896467984053
 40
2.042896467984053
 40
2.042896467984053
 10
430.4226936004911
 20
328.0698377577055
 30
0.0
 10
430.4184054323228
 20
328.1300909183112
 30
0.0
 10
430.412770539295
 20
328.2092669443628
 30
0.0
 10
430.3851732748894
 20
328.3097912807585
 30
0.0
 10
430.3523300642288
 20
328.3645788460455
 30
0.0
 10
430.3281799592221
 20
328.4216015102145
 30
0.0
 10
430.2924372033579
 20
328.4702107084005
 30
0.0
 10
430.2740066719057
 20
328.5193871656337
 30
0.0
 10
430.2408015344978
 20
328.5538113975607
 30
0.0
 10
430.220508546696
 20
328.5936641357726
 30
0.0
 10
430.1751170378355
 20
328.6253842730187
 30
0.0
 10
430.1326745843546
 20
328.6608427315954
 30
0.0
 10
430.1016854946251
 20
328.701988559794
 30
0.0
 10
430.0691428317797
 20
328.7357537706846
 30
0.0
 10
430.0189307968824
 20
328.766717996894
 30
0.0
 10
429.9522258277151
 20
328.7850246453367
 30
0.0
 10
429.9100897081965
 20
328.8367044044103
 30
0.0
 10
429.8594579914144
 20
328.8444625692532
 30
0.0
 10
429.8295735615194
 20
328.8730447759164
 30
0.0
 10
429.7910098736885
 20
328.8854599311757
 30
0.0
 10
429.7556822094581
 20
328.8901774124253
 30
0.0
 10
429.7226879562578
 20
328.8958444404945
 30
0.0
 10
429.6879748048561
 20
328.9106953270001
 30
0.0
 10
429.6451070729861
 20
328.9058195682803
 30
0.0
 10
429.6035936407418
 20
328.9071803951265
 30
0.0
 10
429.5475506178333
 20
328.9063374109819
 30
0.0
 10
429.492983890825
 20
328.9092453796561
 30
0.0
 10
429.4336162843014
 20
328.8857965411215
 30
0.0
 10
429.3806946028418
 20
328.8719109818897
 30
0.0
 10
429.3074279422404
 20
328.8339206444058
 30
0.0
 10
429.2229054082236
 20
328.7684100267144
 30
0.0
 10
429.1203346416748
 20
328.6438665576998
 30
0.0
 10
429.1099853774332
 20
328.5241605918693
 30
0.0
 10
429.1038704209123
 20
328.45343123766
 30
0.0
 11
430.4226936004911
 21
328.0698377577055
 31
0.0
 11
430.4008650907479
 21
328.2492829898706
 31
0.0
 11
430.384536070223
 21
328.303655233597
 31
0.0
 11
430.3519003242227
 21
328.3688948415118
 31
0.0
 11
430.324704030462
 21
328.4232613951471
 31
0.0
 11
430.2975131895057
 21
328.4667516220237
 31
0.0
 11
430.2648805328366
 21
328.5265532803707
 31
0.0
 11
430.2431319914245
 21
328.5537325032734
 31
0.0
 11
430.2213803606803
 21
328.5863496757428
 31
0.0
 11
430.1778918202153
 21
328.6243934179774
 31
0.0
 11
430.1289669168418
 21
328.6678722649246
 31
0.0
 11
430.101781770494
 21
328.700486592412
 31
0.0
 11
430.0691633507926
 21
328.7330976478012
 31
0.0
 11
430.0256805049356
 21
328.7602654906469
 31
0.0
 11
429.9550267499223
 21
328.792856630779
 31
0.0
 11
429.8952345730888
 21
328.8363302148776
 31
0.0
 11
429.8626273008002
 21
328.8471890441187
 31
0.0
 11
429.8300145757068
 21
328.8689242001185
 31
0.0
 11
429.7865371826544
 21
328.8852157162059
 31
0.0
 11
429.7539329994733
 21
328.8906370231225
 31
0.0
 11
429.7267620900929
 21
328.8960607476515
 31
0.0
 11
429.6887215442272
 21
328.9069167320371
 31
0.0
 11
429.6452526933105
 21
328.9068939717983
 31
0.0
 11
429.6017840844213
 21
328.9068712116853
 31
0.0
 11
429.5637489911363
 21
328.9068512965556
 31
0.0
 11
429.4768146206617
 21
328.9013678266361
 31
0.0
 11
429.4442187375891
 21
328.8904748570991
 31
0.0
 11
429.3790272139189
 21
328.8686880636669
 31
0.0
 11
429.3247055685376
 21
328.8414694377473
 31
0.0
 11
429.2323718510028
 21
328.7707260175397
 31
0.0
 11
429.1454941859242
 21
328.6564809901463
 31
0.0
 11
429.1038704209123
 21
328.45343123766
 31
0.0
  0
HATCH
  5
1352
330
18
100
AcDbEntity
  8
ROGO
 62
     4
100
AcDbHatch
 10
0.0
 20
0.0
 30
0.0
210
0.0
220
0.0
230
1.0
  2
SOLID
 70
     1
 71
     1
 91
        2
 92
        5
 93
        6
 72
     4
 94
        3
 73
     0
 74
     0
 95
       38
 96
       34
 40
0.0
 40
0.0
 40
0.0
 40
0.0
 40
0.1807680148266165
 40
0.2375392910070272
 40
0.3104865209604333
 40
0.3712759982447149
 40
0.4225667543873763
 40
0.4906925837206031
 40
0.5255021974953161
 40
0.5647069597052528
 40
0.622487401681607
 40
0.687940104467412
 40
0.7303986317547519
 40
0.7765228362184478
 40
0.8277951442288548
 40
0.9056034696997631
 40
0.9795294930262546
 40
1.013897332332652
 40
1.053089255535645
 40
1.099518741889259
 40
1.1325705698204
 40
1.160277520289995
 40
1.19983678629355
 40
1.243305643168892
 40
1.286774258016632
 40
1.32480935651549
 40
1.411916492917505
 40
1.446284332224308
 40
1.515020051661112
 40
1.575779369908508
 40
1.692098529536035
 40
1.835624328518869
 40
2.042896467984053
 40
2.042896467984053
 40
2.042896467984053
 40
2.042896467984053
 10
430.4226936004911
 20
328.0698377577055
 10
430.4184054323228
 20
328.1300909183112
 10
430.412770539295
 20
328.2092669443628
 10
430.3851732748894
 20
328.3097912807585
 10
430.3523300642288
 20
328.3645788460455
 10
430.3281799592221
 20
328.4216015102144
 10
430.2924372033579
 20
328.4702107084005
 10
430.2740066719057
 20
328.5193871656337
 10
430.2408015344978
 20
328.5538113975607
 10
430.220508546696
 20
328.5936641357726
 10
430.1751170378355
 20
328.6253842730187
 10
430.1326745843546
 20
328.6608427315954
 10
430.1016854946251
 20
328.701988559794
 10
430.0691428317797
 20
328.7357537706846
 10
430.0189307968824
 20
328.766717996894
 10
429.9522258277151
 20
328.7850246453368
 10
429.9100897081965
 20
328.8367044044102
 10
429.8594579914144
 20
328.8444625692532
 10
429.8295735615194
 20
328.8730447759164
 10
429.7910098736885
 20
328.8854599311757
 10
429.7556822094581
 20
328.8901774124253
 10
429.7226879562578
 20
328.8958444404946
 10
429.6879748048561
 20
328.9106953270001
 10
429.6451070729861
 20
328.9058195682803
 10
429.6035936407418
 20
328.9071803951265
 10
429.5475506178333
 20
328.9063374109819
 10
429.492983890825
 20
328.9092453796562
 10
429.4336162843014
 20
328.8857965411214
 10
429.3806946028418
 20
328.8719109818895
 10
429.3074279422404
 20
328.8339206444059
 10
429.2229054082236
 20
328.7684100267144
 10
429.1203346416748
 20
328.6438665576999
 10
429.1099853774332
 20
328.5241605918694
 10
429.1038704209123
 20
328.45343123766
 72
     1
 10
429.1038704209126
 20
328.4534312376605
 11
429.1042633575973
 21
327.7029775173458
 72
     4
 94
        3
 73
     0
 74
     0
 95
       11
 96
        7
 40
0.1647869275458135
 40
0.1647869275458135
 40
0.1647869275458135
 40
0.1647869275458135
 40
0.2545010798212315
 40
0.5111620267764023
 40
0.7602998271033902
 40
0.8850764140209603
 40
0.8850764140209603
 40
0.8850764140209603
 40
0.8850764140209603
 10
429.1042633575974
 20
327.7029775173452
 10
429.1040670250561
 20
327.6925055127907
 10
429.1033090097174
 20
327.6520744155241
 10
429.1132717178045
 20
327.5829830804182
 10
429.1228221758577
 20
327.5102893039233
 10
429.1297724579914
 20
327.4669519257072
 10
429.1336707093221
 20
327.4529754221104
 72
     4
 94
        3
 73
     0
 74
     0
 95
        9
 96
        5
 40
0.0
 40
0.0
 40
0.0
 40
0.0
 40
0.1135793343552586
 40
0.2662938392176748
 40
0.2662938392176748
 40
0.2662938392176748
 40
0.2662938392176748
 10
429.1336707093221
 20
327.4529754221104
 10
429.144852150999
 20
327.4164963033808
 10
429.1710677389763
 20
327.3309687324287
 10
429.2264170553989
 20
327.2603210063406
 10
429.2581588466353
 20
327.2198058650933
 72
     4
 94
        3
 73
     0
 74
     0
 95
       25
 96
       21
 40
0.0
 40
0.0
 40
0.0
 40
0.0
 40
0.165525918914855
 40
0.3412380755365305
 40
0.5940540902285263
 40
0.7697671103696209
 40
0.9377330196075423
 40
1.11479469302833
 40
1.274661249598185
 40
1.574522170874768
 40
1.815540668866877
 40
2.15849091873445
 40
2.536227739636605
 40
2.738070817316548
 40
2.925680654369045
 40
3.162706124480894
 40
3.395643218188267
 40
3.648478129958861
 40
3.928509979727306
 40
4.337226830236035
 40
4.337226830236035
 40
4.337226830236035
 40
4.337226830236035
 10
429.2581588466353
 20
327.2198058650933
 10
429.2704733866708
 20
327.2049196535369
 10
429.2997582961305
 20
327.1766876839048
 10
429.3472248709115
 20
327.1266112938398
 10
429.4025197507574
 20
327.0824900803157
 10
429.4473440939352
 20
327.0280511421059
 10
429.5021251583477
 20
326.9997268659813
 10
429.545219021663
 20
326.9588808769713
 10
429.6117581445574
 20
326.9246336931611
 10
429.688185128934
 20
326.8955871075529
 10
429.7878009184064
 20
326.8679092069646
 10
429.9001715200421
 20
326.8573415992862
 10
430.0088764021695
 20
326.8731269768375
 10
430.0901159919215
 20
326.9111654966745
 10
430.1578227710128
 20
326.9391351124629
 10
430.2219446686669
 20
326.9815622810664
 10
430.2916831413987
 20
327.029964157539
 10
430.3493534187159
 20
327.0981325837279
 10
430.4189094722603
 20
327.1872186740237
 10
430.4215309194935
 20
327.270163165699
 10
430.423086537176
 20
327.3193840373908
 72
     1
 10
430.4230865371758
 20
327.3193840373908
 11
430.4226936004909
 21
328.0698377577058
 97
        6
330
134B
330
133C
330
1351
330
1341
330
1340
330
133F
 92
       20
 93
        1
 72
     3
 10
429.7450880001693
 20
327.8970245459394
 11
0.1568724203442331
 21
-0.1782025952914886
 40
0.6788083417438791
 50
0.0
 51
360.0
 73
     1
 97
        1
330
133E
 75
     0
 76
     1
 47
0.088756267210375
 98
        2
 10
430.0586026804715
 20
327.8447574189014
 10
430.0586026804715
 20
327.8447574189014
450
        0
451
        0
460
0.0
461
0.0
452
        0
462
0.0
453
        0
470

  0
LINE
  5
1354
330
18
100
AcDbEntity
  8
目盛
100
AcDbLine
 10
455.7543650006723
 20
320.6844542110286
 30
0.0
 11
453.9450082560055
 21
321.5366444307151
 31
0.0
  0
LINE
  5
1355
330
18
100
AcDbEntity
  8
目盛
100
AcDbLine
 10
455.0979470837906
 20
319.3972724673399
 30
0.0
 11
453.3456701579832
 21
320.3613915343038
 31
0.0
  0
TEXT
  5
1356
330
18
100
AcDbEntity
  8
文字
100
AcDbText
 10
448.3931878691009
 20
321.5300679740162
 30
0.0
 40
2.0
  1
20
 50
269.9800000000001
  7
STYLE3
100
AcDbText
  0
LINE
  5
1357
330
18
100
AcDbEntity
  8
目盛
100
AcDbLine
 10
455.436266375561
 20
320.0357074208566
 30
0.0
 11
453.4764007814384
 21
321.0351707033108
 31
0.0
  0
LINE
  5
1358
330
18
100
AcDbEntity
  8
目盛
100
AcDbLine
 10
454.3620016473087
 20
318.1538475048232
 30
0.0
 11
452.6737199768473
 21
319.2260904815711
 31
0.0
  0
LINE
  5
1359
330
18
100
AcDbEntity
  8
目盛
100
AcDbLine
 10
453.9651017918911
 20
317.5500846061405
 30
0.0
 11
452.3113331523358
 21
318.6748287045128
 31
0.0
  0
LINE
  5
135A
330
18
100
AcDbEntity
  8
目盛
100
AcDbLine
 10
454.7397410056553
 20
318.7697794086985
 30
0.0
 11
453.0186124344684
 21
319.7884630894573
 31
0.0
  0
LINE
  5
135B
330
18
100
AcDbEntity
  8
目盛
100
AcDbLine
 10
453.5494331316426
 20
316.9590865537383
 30
0.0
 11
451.1229978236463
 21
318.7232894037845
 31
0.0
  0
LINE
  5
135C
330
18
100
AcDbEntity
  8
目盛
100
AcDbLine
 10
448.4593272115183
 20
311.8725329580665
 30
0.0
 11
446.6968187626688
 21
314.3001993205913
 31
0.0
  0
LINE
  5
135D
330
18
100
AcDbEntity
  8
目盛
100
AcDbLine
 10
447.2639992717956
 20
311.0607987408456
 30
0.0
 11
446.1929351992052
 21
312.7498285666352
 31
0.0
  0
LINE
  5
135E
330
18
100
AcDbEntity
  8
目盛
100
AcDbLine
 10
447.8680391116934
 20
311.4572769935556
 30
0.0
 11
446.7444498356335
 21
313.1118304495443
 31
0.0
  0
LINE
  5
135F
330
18
100
AcDbEntity
  8
目盛
100
AcDbLine
 10
438.5368252436672
 20
307.766555351369
 30
0.0
 11
438.1934279317255
 21
309.9395897013394
 31
0.0
  0
LINE
  5
1360
330
18
100
AcDbEntity
  8
目盛
100
AcDbLine
 10
441.3558477532943
 20
308.3956484283444
 30
0.0
 11
440.7985359866605
 21
310.3164304552208
 31
0.0
  0
LINE
  5
1361
330
18
100
AcDbEntity
  8
目盛
100
AcDbLine
 10
443.4061619090203
 20
309.0968283715629
 30
0.0
 11
442.6705619549323
 21
310.9566382294639
 31
0.0
  0
LINE
  5
1362
330
18
100
AcDbEntity
  8
目盛
100
AcDbLine
 10
442.04651730369
 20
308.6078622479052
 30
0.0
 11
441.1204623210791
 21
311.4613552247988
 31
0.0
  0
LINE
  5
1363
330
18
100
AcDbEntity
  8
目盛
100
AcDbLine
 10
442.7301802531956
 20
308.8416658076067
 30
0.0
 11
442.0533613126573
 21
310.7236637145473
 31
0.0
  0
LINE
  5
1364
330
18
100
AcDbEntity
  8
目盛
100
AcDbLine
 10
444.0737951588814
 20
309.3730981251288
 30
0.0
 11
443.2801401395876
 21
311.2088845261979
 31
0.0
  0
LINE
  5
1365
330
18
100
AcDbEntity
  8
目盛
100
AcDbLine
 10
445.3813898361586
 20
309.9878480603418
 30
0.0
 11
444.3832950414572
 21
311.9484109338018
 31
0.0
  0
LINE
  5
1366
330
18
100
AcDbEntity
  8
目盛
100
AcDbLine
 10
444.7324211293667
 20
309.6702024234128
 30
0.0
 11
443.8814942865531
 21
311.4801536681094
 31
0.0
  0
LINE
  5
1367
330
18
100
AcDbEntity
  8
目盛
100
AcDbLine
 10
446.0200608254966
 20
310.3257215580225
 30
0.0
 11
445.0571653134537
 21
312.0786711388399
 31
0.0
  0
LINE
  5
1368
330
18
100
AcDbEntity
  8
目盛
100
AcDbLine
 10
446.6478038062196
 20
310.683489476104
 30
0.0
 11
445.6303219480271
 21
312.4053288031753
 31
0.0
  0
TEXT
  5
1369
330
18
100
AcDbEntity
  8
文字
100
AcDbText
 10
439.4501466726954
 20
315.0359633175272
 30
0.0
 40
2.0
  1
40
 50
269.9800000000001
  7
STYLE3
100
AcDbText
  0
LINE
  5
136A
330
18
100
AcDbEntity
  8
目盛
100
AcDbLine
 10
439.2486461025775
 20
307.8905319535021
 30
0.0
 11
438.8745692620932
 21
309.8552371521039
 31
0.0
  0
LINE
  5
136B
330
18
100
AcDbEntity
  8
目盛
100
AcDbLine
 10
439.956221521682
 20
308.0368062141717
 30
0.0
 11
439.5206163838841
 21
309.9887919118459
 31
0.0
  0
LINE
  5
136C
330
18
100
AcDbEntity
  8
目盛
100
AcDbLine
 10
440.65885320947
 20
308.205233778343
 30
0.0
 11
440.1621496640386
 21
310.1425736008716
 31
0.0
  0
LINE
  5
136D
330
18
100
AcDbEntity
  8
目盛
100
AcDbLine
 10
450.6854923790312
 20
313.7128684318962
 30
0.0
 11
449.3169071666812
 21
315.1712835019418
 31
0.0
  0
LINE
  5
136E
330
18
100
AcDbEntity
  8
目盛
100
AcDbLine
 10
449.6013272313795
 20
312.7577206655761
 30
0.0
 11
448.32701724926
 21
314.299192063128
 31
0.0
  0
LINE
  5
136F
330
18
100
AcDbEntity
  8
目盛
100
AcDbLine
 10
449.037280041302
 20
312.3061568268755
 30
0.0
 11
447.8120176409284
 21
313.8868946451839
 31
0.0
  0
LINE
  5
1370
330
18
100
AcDbEntity
  8
目盛
100
AcDbLine
 10
450.1509121352714
 20
313.2267788351771
 30
0.0
 11
448.8288121615092
 21
314.7274625658074
 31
0.0
  0
LINE
  5
1371
330
18
100
AcDbEntity
  8
目盛
100
AcDbLine
 10
451.7075439499432
 20
314.7342067251586
 30
0.0
 11
450.2500846879488
 21
316.1038097697034
 31
0.0
  0
LINE
  5
1372
330
18
100
AcDbEntity
  8
目盛
100
AcDbLine
 10
451.2045403964973
 20
314.2155097439866
 30
0.0
 11
449.6494485916764
 21
315.7716875868369
 31
0.0
  0
LINE
  5
1373
330
18
100
AcDbEntity
  8
目盛
100
AcDbLine
 10
457.9008716777909
 20
329.0324472042767
 30
0.0
 11
455.9048621785921
 21
329.1587249897677
 31
0.0
  0
LINE
  5
1374
330
18
100
AcDbEntity
  8
目盛
100
AcDbLine
 10
457.9351597431373
 20
329.7541697698313
 30
0.0
 11
455.9361686730389
 21
329.8176890713611
 31
0.0
  0
LINE
  5
1375
330
18
100
AcDbEntity
  8
目盛
100
AcDbLine
 10
457.9018799069709
 20
331.9208109266559
 30
0.0
 11
455.9057827356696
 21
331.7959266493312
 31
0.0
  0
LINE
  5
1376
330
18
100
AcDbEntity
  8
目盛
100
AcDbLine
 10
457.9356641066002
 20
331.1990645993972
 30
0.0
 11
455.9366291788093
 21
331.1369408722689
 31
0.0
  0
CIRCLE
  5
1377
330
18
100
AcDbEntity
  8
外形線
100
AcDbCircle
 10
434.9467624370057
 20
330.4846417374232
 30
0.0
 40
26.4
  0
LINE
  5
139B
330
18
100
AcDbEntity
  8
外形線
100
AcDbLine
 10
433.3467624370056
 20
297.9846417374233
 30
0.0
 11
436.5467624370057
 21
297.9846417374233
 31
0.0
  0
LINE
  5
139C
330
18
100
AcDbEntity
  8
外形線
100
AcDbLine
 10
433.3467624370058
 20
359.9846417374232
 30
0.0
 11
436.5467624370058
 21
359.9846417374233
 31
0.0
  0
LINE
  5
139D
330
18
100
AcDbEntity
  8
外形線
100
AcDbLine
 10
432.9467624370057
 20
298.3846417374232
 30
0.0
 11
432.9467624370058
 21
304.1605083233867
 31
0.0
  0
LINE
  5
139E
330
18
100
AcDbEntity
  8
外形線
100
AcDbLine
 10
436.9467624370058
 20
298.3846417374233
 30
0.0
 11
436.9467624370058
 21
304.1605083233867
 31
0.0
  0
LINE
  5
139F
330
18
100
AcDbEntity
  8
外形線
100
AcDbLine
 10
432.9467624370058
 20
356.8087751514599
 30
0.0
 11
432.9467624370058
 21
359.5846417374232
 31
0.0
  0
LINE
  5
13A0
330
18
100
AcDbEntity
  8
外形線
100
AcDbLine
 10
436.9467624370058
 20
356.8087751514599
 30
0.0
 11
436.9467624370058
 21
359.5846417374233
 31
0.0
  0
LINE
  5
13A1
330
18
100
AcDbEntity
  8
外形線
100
AcDbLine
 10
432.9467624370059
 20
359.5846417374233
 30
0.0
 11
436.9467624370058
 21
359.5846417374233
 31
0.0
  0
LINE
  5
13A2
330
18
100
AcDbEntity
  8
外形線
100
AcDbLine
 10
432.9467624370056
 20
298.3846417374232
 30
0.0
 11
436.9467624370058
 21
298.3846417374232
 31
0.0
  0
LINE
  5
13A3
330
18
100
AcDbEntity
  8
外形線
100
AcDbLine
 10
432.9467624370058
 20
359.5846417374232
 30
0.0
 11
433.3467624370058
 21
359.9846417374232
 31
0.0
  0
LINE
  5
13A4
330
18
100
AcDbEntity
  8
外形線
100
AcDbLine
 10
436.5467624370058
 20
359.9846417374233
 30
0.0
 11
436.9467624370058
 21
359.5846417374233
 31
0.0
  0
LINE
  5
13A5
330
18
100
AcDbEntity
  8
外形線
100
AcDbLine
 10
432.9467624370057
 20
298.3846417374232
 30
0.0
 11
433.3467624370056
 21
297.9846417374233
 31
0.0
  0
LINE
  5
13A6
330
18
100
AcDbEntity
  8
外形線
100
AcDbLine
 10
436.9467624370058
 20
298.3846417374233
 30
0.0
 11
436.5467624370057
 21
297.9846417374233
 31
0.0
  0
CIRCLE
  5
13A7
330
18
100
AcDbEntity
  8
外形線
100
AcDbCircle
 10
324.9467624370057
 20
300.4846417374233
 30
0.0
 40
11.5
  0
LINE
  5
13A8
330
18
100
AcDbEntity
  8
中心線
 48
0.1
100
AcDbLine
 10
322.1911007017646
 20
307.9846417374233
 30
0.0
 11
327.7024241722469
 21
307.9846417374233
 31
0.0
  0
LINE
  5
13A9
330
18
100
AcDbEntity
  8
中心線
 48
0.1
100
AcDbLine
 10
322.2412633861139
 20
292.9846417374232
 30
0.0
 11
327.6522614878976
 21
292.9846417374232
 31
0.0
  0
CIRCLE
  5
13AA
330
18
100
AcDbEntity
  8
外形線
100
AcDbCircle
 10
324.9467624370057
 20
307.9846417374233
 30
0.0
 40
1.0
  0
CIRCLE
  5
13AB
330
18
100
AcDbEntity
  8
外形線
100
AcDbCircle
 10
324.9467624370057
 20
292.9846417374232
 30
0.0
 40
1.0
  0
LINE
  5
13BD
330
18
100
AcDbEntity
  8
中心線
100
AcDbLine
 10
406.2281555882982
 20
330.4846417374232
 30
0.0
 11
463.6653692857132
 21
330.4846417374232
 31
0.0
  0
ARC
  5
13C0
330
18
100
AcDbEntity
  8
外形線
100
AcDbCircle
 10
544.9467624370057
 20
297.0346417374233
 30
0.0
 40
1.25
100
AcDbArc
 50
180.0
 51
0.0
  0
LINE
  5
13C1
330
18
100
AcDbEntity
  8
外形線
100
AcDbLine
 10
543.6967624370057
 20
297.0346417374233
 30
0.0
 11
543.6967624370057
 21
297.7846417374233
 31
0.0
  0
LINE
  5
13C2
330
18
100
AcDbEntity
  8
外形線
100
AcDbLine
 10
546.1967624370057
 20
297.0346417374233
 30
0.0
 11
546.1967624370057
 21
297.7846417374233
 31
0.0
  0
LINE
  5
1407
330
18
100
AcDbEntity
  8
外形線
100
AcDbLine
 10
326.6574532087437
 20
288.6072035842064
 30
0.0
 11
430.9369790465268
 21
303.6264375495376
 31
0.0
  0
LINE
  5
1408
330
18
100
AcDbEntity
  8
外形線
100
AcDbLine
 10
320.3924879739827
 20
311.5868299953955
 30
0.0
 11
379.5558633408369
 21
335.8564823664966
 31
0.0
  0
ARC
  5
1409
330
18
100
AcDbEntity
  8
外形線
100
AcDbCircle
 10
324.9467624370057
 20
300.4846417374233
 30
0.0
 40
12.0
100
AcDbArc
 50
112.304131382119
 51
278.195868617881
  0
ARC
  5
140A
330
18
100
AcDbEntity
  8
外形線
100
AcDbCircle
 10
324.9467624370057
 20
300.4846417374233
 30
0.0
 40
72.5
100
AcDbArc
 50
4.909108254834082
 51
26.32984612710909
  0
LINE
  5
140D
330
18
100
AcDbEntity
  8
外形線
100
AcDbLine
 10
336.822554803874
 20
312.7061619235143
 30
0.0
 11
384.6230117708799
 21
332.3145846440838
 31
0.0
  0
LINE
  5
140E
330
18
100
AcDbEntity
  8
外形線
100
AcDbLine
 10
341.3821817917882
 20
295.981643776904
 30
0.0
 11
392.5204761648302
 21
303.3470206484049
 31
0.0
  0
ARC
  5
140F
330
18
100
AcDbEntity
  8
外形線
100
AcDbCircle
 10
324.9467624370057
 20
300.4846417374233
 30
0.0
 40
15.0
100
AcDbArc
 50
349.4596239371869
 51
41.04037606281315
  0
ARC
  5
1410
330
18
100
AcDbEntity
  8
外形線
100
AcDbCircle
 10
341.1683454453209
 20
297.4663235460561
 30
0.0
 40
1.5
100
AcDbArc
 50
169.459623937187
 51
278.1958686178809
  0
ARC
  5
1411
330
18
100
AcDbEntity
  8
外形線
100
AcDbCircle
 10
337.3918391117518
 20
311.3183883912678
 30
0.0
 40
1.5
100
AcDbArc
 50
112.3041313821192
 51
221.0403760628129
  0
ARC
  5
1412
330
18
100
AcDbEntity
  8
外形線
100
AcDbCircle
 10
324.9467624370057
 20
300.4846417374233
 30
0.0
 40
69.0
100
AcDbArc
 50
3.692453406824612
 51
26.80754659317536
  0
ARC
  5
1415
330
18
100
AcDbEntity
  8
外形線
100
AcDbCircle
 10
392.3066398183628
 20
304.831700417557
 30
0.0
 40
1.5
100
AcDbArc
 50
278.1958686178803
 51
3.692453406823413
  0
ARC
  5
1416
330
18
100
AcDbEntity
  8
外形線
100
AcDbCircle
 10
385.1922960787577
 20
330.9268111118373
 30
0.0
 40
1.5
100
AcDbArc
 50
26.80754659317585
 51
112.3041313821196
  0
ARC
  5
141B
330
18
100
AcDbEntity
  8
外形線
100
AcDbCircle
 10
434.9325173534903
 20
299.1503149375455
 30
0.0
 40
6.0
100
AcDbArc
 50
121.3929779240487
 51
131.7531783798016
  0
LINE
  5
141D
330
18
100
AcDbEntity
  8
外形線
100
AcDbLine
 10
397.1941221135564
 20
343.0919452891419
 30
0.0
 11
420.8049232666589
 21
352.7774294697829
 31
0.0
  0
ARC
  5
141E
330
18
100
AcDbEntity
  8
外形線
100
AcDbCircle
 10
324.9467624370057
 20
300.4846417374233
 30
0.0
 40
77.5
100
AcDbArc
 50
4.909108254834082
 51
26.57709539753594
  0
ARC
  5
141F
330
18
100
AcDbEntity
  8
外形線
100
AcDbCircle
 10
324.9467624370057
 20
300.4846417374233
 30
0.0
 40
81.0
100
AcDbArc
 50
4.512512284221186
 51
25.98748771577876
  0
LINE
  5
1421
330
18
100
AcDbEntity
  8
外形線
100
AcDbLine
 10
407.4048633051841
 20
305.4907980687137
 30
0.0
 11
417.3597041770123
 21
306.9245798484104
 31
0.0
  0
ARC
  5
1422
330
18
100
AcDbEntity
  8
外形線
100
AcDbCircle
 10
399.6716403086785
 20
306.9027899955707
 30
0.0
 40
2.5
100
AcDbArc
 50
184.9091082548342
 51
4.909108254834002
  0
ARC
  5
1423
330
18
100
AcDbEntity
  8
外形線
100
AcDbCircle
 10
407.1910269587167
 20
306.9754778378658
 30
0.0
 40
1.5
100
AcDbArc
 50
184.5125122842222
 51
278.1958686178801
  0
ARC
  5
1424
330
18
100
AcDbEntity
  8
外形線
100
AcDbCircle
 10
417.0745890483892
 20
308.9041528739466
 30
0.0
 40
2.0
100
AcDbArc
 50
278.1958686178818
 51
15.69258340961254
  0
LINE
  5
1425
330
18
100
AcDbEntity
  8
外形線
100
AcDbLine
 10
398.5358830487653
 20
338.0218409881383
 30
0.0
 11
407.840963488798
 21
341.838916436664
 31
0.0
  0
ARC
  5
1426
330
18
100
AcDbEntity
  8
外形線
100
AcDbCircle
 10
399.1051673566433
 20
336.6340674558919
 30
0.0
 40
1.5
100
AcDbArc
 50
112.3041313821196
 51
205.9874877157791
  0
ARC
  5
1428
330
18
100
AcDbEntity
  8
外形線
100
AcDbCircle
 10
408.6000092326351
 20
339.9885517270019
 30
0.0
 40
2.0
100
AcDbArc
 50
15.39303162476859
 51
112.3041313821183
  0
ARC
  5
142E
330
18
100
AcDbEntity
  8
中心線
100
AcDbCircle
 10
324.9467624370057
 20
300.4846417374233
 30
0.0
 40
75.0
100
AcDbArc
 50
355.1552927413758
 51
44.83447580807534
  0
LINE
  5
1430
330
18
100
AcDbEntity
  8
中心線
100
AcDbLine
 10
414.9467624370058
 20
295.2740259822377
 30
0.0
 11
414.9467624370057
 21
304.7983593005354
 31
0.0
  0
ARC
  5
1431
330
18
100
AcDbEntity
  8
外形線
100
AcDbCircle
 10
384.9467624370058
 20
300.4846417374233
 30
0.0
 40
4.0
100
AcDbArc
 50
247.6967011757347
 51
308.6950360600273
  0
LINE
  5
1433
330
18
100
AcDbEntity
  8
中心線
100
AcDbLine
 10
385.2997298866656
 20
296.0651957170188
 30
0.0
 11
382.6297721377881
 21
327.74593199636
 31
0.0
  0
CIRCLE
  5
1436
330
18
100
AcDbEntity
  8
外形線
100
AcDbCircle
 10
382.9467624370058
 20
323.9846417374232
 30
0.0
 40
2.0
  0
CIRCLE
  5
1437
330
18
100
AcDbEntity
  8
外形線
100
AcDbCircle
 10
384.9463360313052
 20
300.2584371790293
 30
0.0
 40
2.0
  0
LINE
  5
1438
330
18
100
AcDbEntity
  8
中心線
100
AcDbLine
 10
383.3817443659429
 20
300.9617621950094
 30
0.0
 11
381.517058048522
 21
323.0874439556091
 31
0.0
  0
LINE
  5
1439
330
18
100
AcDbEntity
  8
中心線
100
AcDbLine
 10
386.3800588710631
 20
301.1079534965527
 30
0.0
 11
384.515372553642
 21
323.2336352571523
 31
0.0
  0
LINE
  5
143A
330
18
100
AcDbEntity
  8
外形線
100
AcDbLine
 10
382.8534504256977
 20
302.4672253076352
 30
0.0
 11
381.2473771076964
 21
321.5243003696944
 31
0.0
  0
LINE
  5
143B
330
18
100
AcDbEntity
  8
外形線
100
AcDbLine
 10
386.6400269224044
 20
302.7863466553828
 30
0.0
 11
385.0339536044031
 21
321.843421717442
 31
0.0
  0
LINE
  5
143C
330
18
100
AcDbEntity
  8
中心線
100
AcDbLine
 10
381.1051530931237
 20
299.9347137636318
 30
0.0
 11
388.3185426262672
 21
300.5426366701537
 31
0.0
  0
LINE
  5
143D
330
18
100
AcDbEntity
  8
中心線
100
AcDbLine
 10
378.9943147908171
 20
323.6515412650439
 30
0.0
 11
387.8907984307107
 21
324.4013103115286
 31
0.0
  0
LINE
  5
143E
330
18
100
AcDbEntity
  8
外形線
100
AcDbLine
 10
381.2473771076964
 20
321.5243003696944
 30
0.0
 11
385.033953604403
 21
321.8434217174419
 31
0.0
  0
LINE
  5
143F
330
18
100
AcDbEntity
  8
外形線
100
AcDbLine
 10
382.8534504256978
 20
302.4672253076352
 30
0.0
 11
386.6400269224044
 21
302.7863466553827
 31
0.0
  0
CIRCLE
  5
1445
330
18
100
AcDbEntity
  8
外形線
100
AcDbCircle
 10
424.9467624370057
 20
296.2346417374233
 30
0.0
 40
2.0
  0
CIRCLE
  5
1446
330
18
100
AcDbEntity
  8
外形線
100
AcDbCircle
 10
424.9467624370057
 20
295.9846417374233
 30
0.0
 40
1.75
  0
LINE
  5
1447
330
18
100
AcDbEntity
  8
外形線
100
AcDbLine
 10
425.8718976642466
 20
296.9097769646642
 30
0.0
 11
424.0216272097649
 21
295.0595065101824
 31
0.0
  0
LINE
  5
1448
330
18
100
AcDbEntity
  8
外形線
100
AcDbLine
 10
425.8718976642466
 20
295.0595065101824
 30
0.0
 11
424.0216272097647
 21
296.9097769646641
 31
0.0
  0
LINE
  5
144A
330
18
100
AcDbEntity
  8
中心線
 48
0.2
100
AcDbLine
 10
364.9467624370057
 20
297.2700747324219
 30
0.0
 11
364.9467624370057
 21
306.3165283347838
 31
0.0
  0
LINE
  5
144B
330
18
100
AcDbEntity
  8
中心線
 48
0.2
100
AcDbLine
 10
360.2043799157223
 20
301.7846417374233
 30
0.0
 11
369.5873364697469
 21
301.7846417374233
 31
0.0
  0
CIRCLE
  5
144C
330
18
100
AcDbEntity
  8
外形線
100
AcDbCircle
 10
364.9467624370057
 20
302.0346417374233
 30
0.0
 40
2.0
  0
CIRCLE
  5
144D
330
18
100
AcDbEntity
  8
外形線
100
AcDbCircle
 10
364.9467624370057
 20
301.7846417374233
 30
0.0
 40
1.75
  0
LINE
  5
144E
330
18
100
AcDbEntity
  8
外形線
100
AcDbLine
 10
365.8718976642467
 20
302.7097769646642
 30
0.0
 11
364.0216272097649
 21
300.8595065101824
 31
0.0
  0
LINE
  5
144F
330
18
100
AcDbEntity
  8
外形線
100
AcDbLine
 10
365.8718976642467
 20
300.8595065101824
 30
0.0
 11
364.0216272097648
 21
302.7097769646641
 31
0.0
  0
ARC
  5
1450
330
18
100
AcDbEntity
  8
中心線
100
AcDbCircle
 10
324.9467624370057
 20
300.4846417374233
 30
0.0
 40
220.0
100
AcDbArc
 50
357.4279193864437
 51
38.72167429546025
  0
LINE
  5
1484
330
18
100
AcDbEntity
  8
外形線
100
AcDbLine
 10
475.1977823165059
 20
380.1127211137968
 30
0.0
 11
501.3675441044533
 21
394.7804942222851
 31
0.0
  0
LINE
  5
1485
330
18
100
AcDbEntity
  8
外形線
100
AcDbLine
 10
471.2863761542423
 20
387.0913242572494
 30
0.0
 11
506.1793918715054
 21
406.648355068567
 31
0.0
  0
LINE
  5
1486
330
18
100
AcDbEntity
  8
中心線
100
AcDbLine
 10
309.1337069619374
 20
291.6216527755955
 30
0.0
 11
508.1350949526372
 21
403.1590534968407
 31
0.0
  0
LINE
  5
1488
330
18
100
AcDbEntity
  8
外形線
100
AcDbLine
 10
374.6147888950341
 20
339.5929957228523
 30
0.0
 11
319.4477547284974
 21
311.1505178956095
 31
0.0
  0
LINE
  5
1489
330
18
100
AcDbEntity
  8
外形線
100
AcDbLine
 10
409.5926675372213
 20
337.8419423166254
 30
0.0
 11
399.647176593283
 21
331.8031366706198
 31
0.0
  0
ARC
  5
148A
330
18
100
AcDbEntity
  8
外形線
100
AcDbCircle
 10
377.2862860129005
 20
329.8201879543997
 30
0.0
 40
4.0
100
AcDbArc
 50
209.1483841756418
 51
15.45987858859615
  0
ARC
  5
148C
330
18
100
AcDbEntity
  8
外形線
100
AcDbCircle
 10
351.1165242249531
 20
315.1524148459115
 30
0.0
 40
6.0
100
AcDbArc
 50
321.4888821551921
 51
54.10327199336476
  0
LINE
  5
148F
330
18
100
AcDbEntity
  8
中心線
100
AcDbLine
 10
358.5297112208659
 20
301.9260486935555
 30
0.0
 11
343.1738256397728
 21
329.3235182840571
 31
0.0
  0
LINE
  5
1490
330
18
100
AcDbEntity
  8
外形線
100
AcDbLine
 10
471.2863761542423
 20
387.0913242572494
 30
0.0
 11
421.3527764618737
 21
363.689708463414
 31
0.0
  0
LINE
  5
1491
330
18
100
AcDbEntity
  8
外形線
100
AcDbLine
 10
439.4294368122112
 20
356.5012831510622
 30
0.0
 11
475.1977823165059
 21
380.1127211137968
 31
0.0
  0
LINE
  5
1492
330
18
100
AcDbEntity
  8
外形線
100
AcDbLine
 10
421.3527764618737
 20
363.689708463414
 30
0.0
 11
394.0284663823581
 21
349.6021089518067
 31
0.0
  0
ARC
  5
1493
330
18
100
AcDbEntity
  8
外形線
100
AcDbCircle
 10
403.4560478008478
 20
344.4879610628879
 30
0.0
 40
3.0
100
AcDbArc
 50
43.50620343560664
 51
181.1020593286319
  0
LINE
  5
149B
330
18
100
AcDbEntity
  8
中心線
100
AcDbLine
 10
518.6029996678162
 20
409.026162740236
 30
0.0
 11
521.203311918397
 21
410.4836001602552
 31
0.0
  0
LINE
  5
149D
330
18
100
AcDbEntity
  8
外形線
100
AcDbLine
 10
501.3675441044532
 20
394.780494222285
 30
0.0
 11
508.1350949526372
 21
403.1590534968407
 31
0.0
  0
LINE
  5
14A1
330
18
100
AcDbEntity
  8
外形線
100
AcDbLine
 10
506.1793918715055
 20
406.6483550685671
 30
0.0
 11
513.7935985163259
 21
409.4257382200195
 31
0.0
  0
LINE
  5
14A2
330
18
100
AcDbEntity
  8
外形線
100
AcDbLine
 10
508.1350949526372
 20
403.1590534968407
 30
0.0
 11
518.6029996678162
 21
409.026162740236
 31
0.0
  0
LINE
  5
14A3
330
18
100
AcDbEntity
  8
外形線
100
AcDbLine
 10
513.7935985163259
 20
409.4257382200195
 30
0.0
 11
517.2829000880523
 21
411.3814413011513
 31
0.0
  0
LINE
  5
14A4
330
18
100
AcDbEntity
  8
外形線
100
AcDbLine
 10
517.2829000880523
 20
411.3814413011513
 30
0.0
 11
518.6029996678163
 21
409.0261627402361
 31
0.0
  0
LINE
  5
14B4
330
18
100
AcDbEntity
  8
外形線
100
AcDbLine
 10
396.6205676699167
 20
329.9654090855562
 30
0.0
 11
392.2908766047992
 21
327.3364626618076
 31
0.0
  0
LINE
  5
14B5
330
18
100
AcDbEntity
  8
外形線
100
AcDbLine
 10
389.2551711165037
 20
325.493211730741
 30
0.0
 11
385.9467624370058
 21
323.4843780667556
 31
0.0
  0
LINE
  5
14B6
330
18
100
AcDbEntity
  8
外形線
100
AcDbLine
 10
377.3111276712813
 20
340.9831475955566
 30
0.0
 11
374.6147888950341
 21
339.5929957228523
 31
0.0
  0
LINE
  5
14B7
330
18
100
AcDbEntity
  8
外形線
100
AcDbLine
 10
379.9467624370058
 20
319.8412362570376
 30
0.0
 11
365.5148076087978
 21
311.0782932519367
 31
0.0
  0
ARC
  5
14B8
330
18
100
AcDbEntity
  8
外形線
100
AcDbCircle
 10
351.1165242249531
 20
315.1524148459115
 30
0.0
 40
6.0
100
AcDbArc
 50
170.5049907708731
 51
214.5196821245015
  0
LINE
  5
14B9
330
18
100
AcDbEntity
  8
外形線
100
AcDbLine
 10
357.2156377907804
 20
306.0391178269419
 30
0.0
 11
348.9719298257581
 21
301.0336183011956
 31
0.0
  0
CIRCLE
  5
14BA
330
18
100
AcDbEntity
  8
外形線
100
AcDbCircle
 10
387.2279181417016
 20
342.2704963306636
 30
0.0
 40
10.0
  0
LINE
  5
14BB
330
18
100
AcDbEntity
  8
中心線
 48
0.5
100
AcDbLine
 10
400.4035465173224
 20
342.2704963306636
 30
0.0
 11
374.646494834952
 21
342.2704963306636
 31
0.0
  0
LINE
  5
14BC
330
18
100
AcDbEntity
  8
中心線
 48
0.5
100
AcDbLine
 10
387.2279181417016
 20
329.5351722630445
 30
0.0
 11
387.2279181417016
 21
354.2177322720878
 31
0.0
  0
LINE
  5
14BD
330
18
100
AcDbEntity
  8
中心線
 48
0.1
100
AcDbLine
 10
513.4269041886137
 20
410.0799822647182
 30
0.0
 11
516.91620576034
 21
412.0356853458499
 31
0.0
  0
ARC
  5
14BE
330
18
100
AcDbEntity
  8
外形線
100
AcDbCircle
 10
515.1479561303765
 20
411.0446069943681
 30
0.0
 40
1.25
100
AcDbArc
 50
29.26999999999706
 51
209.2700000000019
  0
LINE
  5
14BF
330
18
100
AcDbEntity
  8
外形線
100
AcDbLine
 10
516.2383628715409
 20
411.6557642072217
 30
0.0
 11
516.6050571992532
 21
411.001520162523
 31
0.0
  0
LINE
  5
14C0
330
18
100
AcDbEntity
  8
外形線
100
AcDbLine
 10
514.0575493892121
 20
410.4334497815144
 30
0.0
 11
514.4242437169242
 21
409.7792057368157
 31
0.0
  0
LINE
  5
14C2
330
18
100
AcDbEntity
  8
中心線
 48
0.1
100
AcDbLine
 10
542.3723962734487
 20
297.0346417374233
 30
0.0
 11
547.568191114001
 21
297.0346417374233
 31
0.0
  0
DIMENSION
  5
14D0
330
18
100
AcDbEntity
  8
寸法線
100
AcDbDimension
  2
*D7
 10
576.2695000637647
 20
303.9294804477809
 30
0.0
 11
559.2399423384447
 21
361.6696953520441
 31
0.0
 70
    32
  1
120
 71
     5
 42
120.3398957704468
 51
255.3522732307895
  3
STYLE3
100
AcDbAlignedDimension
 13
514.8318619278164
 23
412.2539805739984
 33
0.0
 14
545.2628566395653
 24
295.8252681577928
 34
0.0
 50
104.6477267692104
100
AcDbRotatedDimension
1001
ACAD
1000
DSTYLE
1002
{
1070
   271
1070
     2
1002
}
  0
LINE
  5
14DC
330
18
100
AcDbEntity
  8
想像線
 48
0.2
100
AcDbLine
 10
525.5800616610861
 20
304.2313220477911
 30
0.0
 11
534.720914861998
 21
304.6379994019654
 31
0.0
  0
LINE
  5
14DE
330
18
100
AcDbEntity
  8
想像線
 48
0.3
100
AcDbLine
 10
534.7367307363255
 20
300.5686544176953
 30
0.0
 11
534.898699346539
 21
300.6419522704795
 31
0.0
  0
LINE
  5
14DF
330
18
100
AcDbEntity
  8
想像線
 48
0.2
100
AcDbLine
 10
534.7209148619981
 20
304.6379994019654
 30
0.0
 11
542.7707890824457
 21
303.6948530533143
 31
0.0
  0
LINE
  5
14E0
330
18
100
AcDbEntity
  8
想像線
 48
0.3
100
AcDbLine
 10
534.898699346539
 20
300.6419522704795
 30
0.0
 11
546.8868407409967
 21
301.1753057241022
 31
0.0
  0
LINE
  5
14E1
330
18
100
AcDbEntity
  8
想像線
100
AcDbLine
 10
542.7707890824457
 20
303.6948530533143
 30
0.0
 11
546.7668362139315
 21
303.8726375378552
 31
0.0
  0
LINE
  5
14E2
330
18
100
AcDbEntity
  8
想像線
100
AcDbLine
 10
546.7668362139315
 20
303.8726375378552
 30
0.0
 11
546.8868407409968
 21
301.1753057241021
 31
0.0
  0
LINE
  5
14E3
330
18
100
AcDbEntity
  8
中心線
 48
0.1
100
AcDbLine
 10
542.7374544915942
 20
304.4441118904679
 30
0.0
 11
546.73350162308
 21
304.6218963750088
 31
0.0
  0
ARC
  5
14E4
330
18
100
AcDbEntity
  8
想像線
100
AcDbCircle
 10
544.708451991709
 20
304.5318017407274
 30
0.0
 40
1.25
100
AcDbArc
 50
2.54741434489845
 51
182.5474143449032
  0
LINE
  5
14E5
330
18
100
AcDbEntity
  8
想像線
100
AcDbLine
 10
545.9572167202983
 20
304.5873593921463
 30
0.0
 11
545.9905513111498
 21
303.8381005549926
 31
0.0
  0
LINE
  5
14E6
330
18
100
AcDbEntity
  8
想像線
100
AcDbLine
 10
543.4596872631198
 20
304.4762440893082
 30
0.0
 11
543.4930218539712
 21
303.7269852521546
 31
0.0
  0
DIMENSION
  5
1517
330
18
100
AcDbEntity
  8
寸法線
100
AcDbDimension
  2
*D8
 10
557.7858024893445
 20
295.7846417374233
 30
0.0
 11
555.9108024893443
 21
300.7832217390754
 31
0.0
 70
    32
 71
     5
 42
9.997160003304088
  3
STYLE3
100
AcDbAlignedDimension
 13
544.708451991709
 23
305.7818017407273
 33
0.0
 14
544.9467624370057
 24
295.7846417374233
 34
0.0
 50
90.0
100
AcDbRotatedDimension
1001
ACAD
1000
DSTYLE
1002
{
1070
   271
1070
     2
1002
}
  0
LINE
  5
1521
330
18
100
AcDbEntity
  8
0
  6
ByBlock
 62
     2
100
AcDbLine
 10
324.9467624370058
 20
300.4846417374233
 30
0.0
 11
497.7085397912492
 21
436.6953912596354
 31
0.0
  0
MTEXT
  5
1522
330
18
100
AcDbEntity
  8
0
  6
ByBlock
 62
     6
100
AcDbMText
 10
439.6690201624955
 20
393.3229127791826
 30
0.0
 40
2.499999999999999
 41
0.0
 71
     5
 72
     1
  1
\A1;R220
  7
STYLE3
 11
0.7852808061556523
 21
0.6191397705555096
 31
0.0
 73
     1
 44
1.0
  0
INSERT
  5
1523
330
18
100
AcDbEntity
  8
0
  6
ByBlock
 62
     2
100
AcDbBlockReference
  2
_OPEN
 10
497.7085397912492
 20
436.6953912596353
 30
0.0
 41
2.5
 42
2.5
 43
2.5
 50
38.25334313990984
  0
POINT
  5
1524
330
18
100
AcDbEntity
  8
DEFPOINTS
  6
ByBlock
 62
     0
100
AcDbPoint
 10
497.7085397912492
 20
436.6953912596354
 30
0.0
  0
POINT
  5
1525
330
18
100
AcDbEntity
  8
DEFPOINTS
  6
ByBlock
 62
     0
100
AcDbPoint
 10
324.9467624370057
 20
300.4846417374233
 30
0.0
  0
DIMENSION
  5
1534
330
18
100
AcDbEntity
  8
寸法線
100
AcDbDimension
  2
*D9
 10
434.9467624370057
 20
281.1835851660852
 30
0.0
 11
379.9467624370058
 21
283.0585851660852
 31
0.0
 70
    32
 71
     5
 42
110.0
  3
STYLE3
100
AcDbAlignedDimension
 13
324.9467624370057
 23
285.3224485242843
 33
0.0
 14
434.9467624370057
 24
290.7834187944431
 34
0.0
100
AcDbRotatedDimension
1001
ACAD
1000
DSTYLE
1002
{
1070
   271
1070
     2
1002
}
  0
LINE
  5
1535
330
18
100
AcDbEntity
  8
外形線
100
AcDbLine
 10
312.9467624370058
 20
218.9637821567774
 30
0.0
 11
534.0674825933725
 21
218.9637821567774
 31
0.0
  0
LINE
  5
1536
330
18
100
AcDbEntity
  8
中心線
 48
0.7
100
AcDbLine
 10
324.9467624370057
 20
209.2777455614595
 30
0.0
 11
324.9467624370057
 21
233.6809132989153
 31
0.0
  0
LINE
  5
1537
330
18
100
AcDbEntity
  8
外形線
100
AcDbLine
 10
531.5964413457737
 20
261.2672614119706
 30
0.0
 11
561.7354931316192
 21
261.2672614119706
 31
0.0
  0
LINE
  5
1538
330
18
100
AcDbEntity
  8
外形線
100
AcDbLine
 10
534.0337931281932
 20
277.2672614119708
 30
0.0
 11
541.7354931316192
 21
277.2672614119708
 31
0.0
  0
LINE
  5
1539
330
18
100
AcDbEntity
  8
外形線
100
AcDbLine
 10
541.7354931316192
 20
277.2672614119708
 30
0.0
 11
561.7354931316192
 21
269.2672614119707
 31
0.0
  0
LINE
  5
153A
330
18
100
AcDbEntity
  8
外形線
100
AcDbLine
 10
561.7354931316192
 20
261.2672614119706
 30
0.0
 11
577.7354931316192
 21
263.8672614119707
 31
0.0
  0
LINE
  5
153B
330
18
100
AcDbEntity
  8
外形線
100
AcDbLine
 10
561.7354931316192
 20
269.2672614119707
 30
0.0
 11
585.7354931316193
 21
269.2672614119707
 31
0.0
  0
LINE
  5
153C
330
18
100
AcDbEntity
  8
外形線
100
AcDbLine
 10
585.7354931316193
 20
263.8672614119707
 30
0.0
 11
585.7354931316194
 21
269.2672614119707
 31
0.0
  0
LINE
  5
153D
330
18
100
AcDbEntity
  8
外形線
100
AcDbLine
 10
577.7354931316192
 20
263.8672614119707
 30
0.0
 11
585.7354931316193
 21
263.8672614119707
 31
0.0
  0
ARC
  5
153E
330
18
100
AcDbEntity
  8
外形線
100
AcDbCircle
 10
581.7354931316192
 20
262.3672614119707
 30
0.0
 40
2.5
100
AcDbArc
 50
180.0
 51
0.0
  0
LINE
  5
153F
330
18
100
AcDbEntity
  8
外形線
100
AcDbLine
 10
579.2354931316192
 20
262.3672614119707
 30
0.0
 11
579.2354931316192
 21
263.8672614119707
 31
0.0
  0
LINE
  5
1540
330
18
100
AcDbEntity
  8
外形線
100
AcDbLine
 10
584.2354931316192
 20
262.3672614119707
 30
0.0
 11
584.2354931316192
 21
263.8672614119707
 31
0.0
  0
LINE
  5
1541
330
18
100
AcDbEntity
  8
中心線
 48
0.3
100
AcDbLine
 10
576.5867608045052
 20
262.3672614119707
 30
0.0
 11
586.9783504856098
 21
262.3672614119707
 31
0.0
  0
LINE
  5
1544
330
18
100
AcDbEntity
  8
中心線
 48
0.5
100
AcDbLine
 10
581.7354931316192
 20
257.4083600923465
 30
0.0
 11
581.7354931316192
 21
271.7765225242584
 31
0.0
  0
LINE
  5
1545
330
18
100
AcDbEntity
  8
想像線
 48
0.7
100
AcDbLine
 10
534.6921149314978
 20
281.5888160307371
 30
0.0
 11
530.7864760795742
 21
255.9502430182088
 31
0.0
  0
LINE
  5
1555
330
18
100
AcDbEntity
  8
0
  6
ByBlock
 62
     2
100
AcDbLine
 10
585.7354931316193
 20
269.2672614119707
 30
0.0
 11
597.5679438191187
 21
269.2672614119707
 31
0.0
  0
LINE
  5
1556
330
18
100
AcDbEntity
  8
0
  6
ByBlock
 62
     2
100
AcDbLine
 10
585.7354931316193
 20
263.8672614119707
 30
0.0
 11
597.5679438191187
 21
263.8672614119707
 31
0.0
  0
LINE
  5
1557
330
18
100
AcDbEntity
  8
0
  6
ByBlock
 62
     2
100
AcDbLine
 10
596.3179438191188
 20
271.7672614119706
 30
0.0
 11
596.3179438191188
 21
274.2672614119706
 31
0.0
  0
LINE
  5
1558
330
18
100
AcDbEntity
  8
0
  6
ByBlock
 62
     2
100
AcDbLine
 10
596.3179438191188
 20
263.8672614119707
 30
0.0
 11
596.3179438191188
 21
252.2601185548278
 31
0.0
  0
LINE
  5
1559
330
18
100
AcDbEntity
  8
0
  6
ByBlock
 62
     2
100
AcDbLine
 10
596.3179438191188
 20
269.2672614119707
 30
0.0
 11
596.3179438191188
 21
263.8672614119707
 31
0.0
  0
INSERT
  5
155A
330
18
100
AcDbEntity
  8
0
  6
ByBlock
 62
     2
100
AcDbBlockReference
  2
_OPEN
 10
596.3179438191188
 20
269.2672614119707
 30
0.0
 41
2.5
 42
2.5
 43
2.5
 50
270.0
  0
INSERT
  5
155B
330
18
100
AcDbEntity
  8
0
  6
ByBlock
 62
     2
100
AcDbBlockReference
  2
_OPEN
 10
596.3179438191188
 20
259.8672614119707
 30
0.0
 41
2.5
 42
2.5
 43
2.5
 50
90.0
  0
MTEXT
  5
155C
330
18
100
AcDbEntity
  8
0
  6
ByBlock
 62
     6
100
AcDbMText
 10
594.4429438191187
 20
261.8622928416219
 30
0.0
 40
2.5
 41
0.0
 71
     5
 72
     1
  1
2
  7
STYLE3
 11
0.0000000000000001
 21
1.0
 31
0.0
 73
     1
 44
1.0
  0
POINT
  5
155D
330
18
100
AcDbEntity
  8
DEFPOINTS
  6
ByBlock
 62
     0
100
AcDbPoint
 10
585.7354931316193
 20
269.2672614119707
 30
0.0
  0
POINT
  5
155E
330
18
100
AcDbEntity
  8
DEFPOINTS
  6
ByBlock
 62
     0
100
AcDbPoint
 10
585.7354931316193
 20
263.8672614119707
 30
0.0
  0
POINT
  5
155F
330
18
100
AcDbEntity
  8
DEFPOINTS
  6
ByBlock
 62
     0
100
AcDbPoint
 10
596.3179438191188
 20
263.8672614119707
 30
0.0
  0
LINE
  5
1560
330
18
100
AcDbEntity
  8
寸法線
100
AcDbLine
 10
581.7354931316192
 20
259.8672614119707
 30
0.0
 11
598.0566858133788
 21
259.8672614119707
 31
0.0
  0
MTEXT
  5
157D
330
18
100
AcDbEntity
  8
0
  6
ByBlock
 62
     6
100
AcDbMText
 10
599.3275753419754
 20
266.5663166864141
 30
0.0
 40
2.5
 41
0.0
 71
     5
 72
     1
  1
2.7
  7
STYLE3
 11
0.0000000000000001
 21
1.0
 31
0.0
 73
     1
 44
1.0
  0
CIRCLE
  5
157E
102
{ACAD_REACTORS
330
157F
102
}
330
18
100
AcDbEntity
  8
寸法線
100
AcDbCircle
 10
596.3179438191188
 20
263.8672614119707
 30
0.0
 40
0.5
  0
HATCH
  5
157F
330
18
100
AcDbEntity
  8
寸法線
100
AcDbHatch
 10
0.0
 20
0.0
 30
0.0
210
0.0
220
0.0
230
1.0
  2
SOLID
 70
     1
 71
     1
 91
        1
 92
        1
 93
        1
 72
     2
 10
596.3179438191188
 20
263.8672614119707
 40
0.5
 50
0.0
 51
360.0
 73
     1
 97
        1
330
157E
 75
     0
 76
     1
 98
        1
 10
263.8832008317613
 20
-102.4810870932289
450
        0
451
        0
460
0.0
461
0.0
452
        0
462
0.0
453
        0
470

  0
LINE
  5
1588
330
18
100
AcDbEntity
  8
外形線
100
AcDbLine
 10
312.9467624370058
 20
215.9637821567774
 30
0.0
 11
533.8313099927798
 21
215.9637821567774
 31
0.0
  0
LINE
  5
1589
330
18
100
AcDbEntity
  8
外形線
100
AcDbLine
 10
314.4467624370058
 20
212.9637821567774
 30
0.0
 11
335.4467624370057
 21
212.9637821567774
 31
0.0
  0
LINE
  5
158A
330
18
100
AcDbEntity
  8
外形線
100
AcDbLine
 10
313.4467624370058
 20
213.9637821567775
 30
0.0
 11
313.4467624370057
 21
215.9637821567774
 31
0.0
  0
LINE
  5
158B
330
18
100
AcDbEntity
  8
外形線
100
AcDbLine
 10
336.4467624370058
 20
213.9637821567774
 30
0.0
 11
336.4467624370058
 21
215.9637821567774
 31
0.0
  0
LINE
  5
158C
330
18
100
AcDbEntity
  8
外形線
100
AcDbLine
 10
312.9467624370058
 20
215.9637821567774
 30
0.0
 11
312.9467624370058
 21
218.9637821567774
 31
0.0
  0
ARC
  5
158D
330
18
100
AcDbEntity
  8
外形線
100
AcDbCircle
 10
314.4467624370058
 20
213.9637821567775
 30
0.0
 40
1.0
100
AcDbArc
 50
180.0
 51
269.9999999999998
  0
ARC
  5
158E
330
18
100
AcDbEntity
  8
外形線
100
AcDbCircle
 10
335.4467624370057
 20
213.9637821567774
 30
0.0
 40
1.0
100
AcDbArc
 50
269.9999999999998
 51
0.0
  0
LINE
  5
158F
330
18
100
AcDbEntity
  8
外形線
100
AcDbLine
 10
312.9467624370058
 20
219.4637821567774
 30
0.0
 11
534.0674825933724
 21
219.4637821567775
 31
0.0
  0
LINE
  5
1590
330
18
100
AcDbEntity
  8
外形線
100
AcDbLine
 10
312.9467624370058
 20
222.4637821567774
 30
0.0
 11
533.8313099927798
 21
222.4637821567775
 31
0.0
  0
LINE
  5
1591
330
18
100
AcDbEntity
  8
外形線
100
AcDbLine
 10
315.9467624370058
 20
218.9637821567774
 30
0.0
 11
315.9467624370058
 21
219.4637821567774
 31
0.0
  0
LINE
  5
1592
330
18
100
AcDbEntity
  8
外形線
100
AcDbLine
 10
333.9467624370058
 20
218.9637821567774
 30
0.0
 11
333.9467624370058
 21
219.4637821567774
 31
0.0
  0
LINE
  5
1593
330
18
100
AcDbEntity
  8
外形線
100
AcDbLine
 10
312.9467624370058
 20
219.4637821567774
 30
0.0
 11
312.9467624370058
 21
222.4637821567774
 31
0.0
  0
LINE
  5
1594
330
18
100
AcDbEntity
  8
外形線
100
AcDbLine
 10
312.9467624370058
 20
222.9637821567774
 30
0.0
 11
422.9467624370058
 21
222.9637821567774
 31
0.0
  0
LINE
  5
1595
330
18
100
AcDbEntity
  8
外形線
100
AcDbLine
 10
312.9467624370058
 20
225.9637821567774
 30
0.0
 11
423.1967624370057
 21
225.9637821567774
 31
0.0
  0
LINE
  5
1596
330
18
100
AcDbEntity
  8
外形線
100
AcDbLine
 10
312.9467624370058
 20
222.9637821567774
 30
0.0
 11
312.9467624370058
 21
225.9637821567774
 31
0.0
  0
LINE
  5
1597
330
18
100
AcDbEntity
  8
外形線
100
AcDbLine
 10
315.9467624370058
 20
222.4637821567774
 30
0.0
 11
315.9467624370058
 21
222.9637821567774
 31
0.0
  0
LINE
  5
1598
330
18
100
AcDbEntity
  8
外形線
100
AcDbLine
 10
333.9467624370058
 20
222.4637821567774
 30
0.0
 11
333.9467624370058
 21
222.9637821567774
 31
0.0
  0
LINE
  5
159A
330
18
100
AcDbEntity
  8
外形線
100
AcDbLine
 10
335.4467624370057
 20
228.9637821567773
 30
0.0
 11
314.4467624370057
 21
228.9637821567775
 31
0.0
  0
LINE
  5
159B
330
18
100
AcDbEntity
  8
外形線
100
AcDbLine
 10
336.4467624370057
 20
227.9637821567773
 30
0.0
 11
336.4467624370058
 21
225.9637821567774
 31
0.0
  0
LINE
  5
159C
330
18
100
AcDbEntity
  8
外形線
100
AcDbLine
 10
313.4467624370057
 20
227.9637821567774
 30
0.0
 11
313.4467624370057
 21
225.9637821567774
 31
0.0
  0
ARC
  5
159D
330
18
100
AcDbEntity
  8
外形線
100
AcDbCircle
 10
335.4467624370057
 20
227.9637821567774
 30
0.0
 40
1.0
100
AcDbArc
 50
0.0
 51
89.99999999999984
  0
ARC
  5
159E
330
18
100
AcDbEntity
  8
外形線
100
AcDbCircle
 10
314.4467624370057
 20
227.9637821567775
 30
0.0
 40
1.0
100
AcDbArc
 50
89.99999999999984
 51
180.0
  0
ARC
  5
15A1
330
18
100
AcDbEntity
  8
外形線
100
AcDbCircle
 10
324.9467624370057
 20
224.9637821567774
 30
0.0
 40
5.0
100
AcDbArc
 50
53.13010235415507
 51
126.8698976458447
  0
LINE
  5
15A4
330
18
100
AcDbEntity
  8
中心線
100
AcDbLine
 10
322.6467624370057
 20
228.9637821567775
 30
0.0
 11
322.6467624370057
 21
229.403376732862
 31
0.0
  0
LINE
  5
15A5
330
18
100
AcDbEntity
  8
中心線
100
AcDbLine
 10
327.2467624370058
 20
228.9637821567774
 30
0.0
 11
327.2467624370059
 21
229.403376732862
 31
0.0
  0
LINE
  5
15B0
330
18
100
AcDbEntity
  8
中心線
 48
0.2
100
AcDbLine
 10
544.9467624370057
 20
214.4556349686543
 30
0.0
 11
544.9467624370057
 21
223.9719293449006
 31
0.0
  0
LINE
  5
15B1
330
18
100
AcDbEntity
  8
外形線
100
AcDbLine
 10
460.9467624370056
 20
225.9637821567774
 30
0.0
 11
460.9467624370057
 21
222.9637821567774
 31
0.0
  0
LINE
  5
15C7
330
18
100
AcDbEntity
  8
中心線
 48
0.2
100
AcDbLine
 10
540.1886152488826
 20
219.2137821567774
 30
0.0
 11
549.7049096251289
 21
219.2137821567774
 31
0.0
  0
CIRCLE
  5
15CC
330
18
100
AcDbEntity
  8
外形線
100
AcDbCircle
 10
544.9467624370057
 20
219.2137821567774
 30
0.0
 40
1.25
  0
ARC
  5
15D0
330
18
100
AcDbEntity
  8
外形線
100
AcDbCircle
 10
545.4467624370058
 20
219.3012821567775
 30
0.0
 40
1.5
100
AcDbArc
 50
343.4747309424049
 51
100.0499581433793
  0
LINE
  5
15D1
330
18
100
AcDbEntity
  8
外形線
100
AcDbLine
 10
536.0459102582096
 20
216.1538037936279
 30
0.0
 11
544.9467624370057
 21
217.692590904652
 31
0.0
  0
LINE
  5
15D2
330
18
100
AcDbEntity
  8
隠れ線2
 48
0.3
100
AcDbLine
 10
536.3573893789728
 20
219.2137821567774
 30
0.0
 11
544.9467624370057
 21
220.7360437843021
 31
0.0
  0
ARC
  5
15D6
330
18
100
AcDbEntity
  8
外形線
100
AcDbCircle
 10
545.4467624370058
 20
219.1262821567775
 30
0.0
 40
1.5
100
AcDbArc
 50
3.34415220445593
 51
80.1916057627101
  0
LINE
  5
15D7
330
18
100
AcDbEntity
  8
外形線
100
AcDbLine
 10
536.0459102582096
 20
222.273760519927
 30
0.0
 11
544.9467624370057
 21
220.7349734089029
 31
0.0
  0
LINE
  5
15D8
330
18
100
AcDbEntity
  8
外形線
100
AcDbLine
 10
536.3573893789726
 20
219.2137821567774
 30
0.0
 11
544.9467624370057
 21
217.6915205292528
 31
0.0
  0
ARC
  5
15DA
330
18
100
AcDbEntity
  8
外形線
100
AcDbCircle
 10
534.0674825933725
 20
228.9637821567774
 30
0.0
 40
10.0
100
AcDbArc
 50
270.0
 51
280.0499581433794
  0
ARC
  5
15DB
330
18
100
AcDbEntity
  8
外形線
100
AcDbCircle
 10
533.8313099927798
 20
228.9637821567774
 30
0.0
 40
13.0
100
AcDbArc
 50
270.0
 51
279.8083942372888
  0
ARC
  5
15DC
330
18
100
AcDbEntity
  8
外形線
100
AcDbCircle
 10
533.8313099927798
 20
209.4637821567775
 30
0.0
 40
13.0
100
AcDbArc
 50
80.19160576271119
 51
90.0
  0
ARC
  5
15DD
330
18
100
AcDbEntity
  8
外形線
100
AcDbCircle
 10
534.0674825933724
 20
209.4637821567775
 30
0.0
 40
10.0
100
AcDbArc
 50
79.95004185662063
 51
90.0
  0
LINE
  5
15EF
330
18
100
AcDbEntity
  8
外形線
100
AcDbLine
 10
536.3573893789726
 20
219.2137821567774
 30
0.0
 11
535.8112164821578
 21
219.3105781902648
 31
0.0
  0
LINE
  5
15F0
330
18
100
AcDbEntity
  8
外形線
100
AcDbLine
 10
544.9467624370057
 20
220.7349734089029
 30
0.0
 11
545.702293236863
 21
220.6043565832947
 31
0.0
  0
ARC
  5
15F1
330
18
100
AcDbEntity
  8
外形線
100
AcDbCircle
 10
545.4467624370058
 20
219.1262821567775
 30
0.0
 40
1.5
100
AcDbArc
 50
252.0646728967045
 51
3.34415220445593
  0
DIMENSION
  5
1600
330
18
100
AcDbEntity
  8
寸法線
100
AcDbDimension
  2
*D11
 10
585.7354931316193
 20
278.0830721724424
 30
0.0
 11
583.7354931316192
 21
279.9580721724424
 31
0.0
 70
    32
  1
2
 71
     5
 42
4.0
  3
STYLE3
100
AcDbAlignedDimension
 13
581.7354931316192
 23
271.7765225242584
 33
0.0
 14
585.7354931316193
 24
269.2672614119707
 34
0.0
100
AcDbRotatedDimension
1001
ACAD
1000
DSTYLE
1002
{
1070
   271
1070
     2
1002
}
  0
POINT
  5
160F
330
18
100
AcDbEntity
  8
DEFPOINTS
  6
ByBlock
 62
     0
100
AcDbPoint
 10
580.2307169893199
 20
260.3708524454594
 30
0.0
  0
POINT
  5
1610
330
18
100
AcDbEntity
  8
DEFPOINTS
  6
ByBlock
 62
     0
100
AcDbPoint
 10
581.7354931316192
 20
262.3672614119706
 30
0.0
  0
LINE
  5
161F
330
18
100
AcDbEntity
  8
0
  6
ByBlock
 62
     2
100
AcDbLine
 10
579.2354931316192
 20
262.3672614119707
 30
0.0
 11
579.2354931316192
 21
245.9104588768084
 31
0.0
  0
LINE
  5
1620
330
18
100
AcDbEntity
  8
0
  6
ByBlock
 62
     2
100
AcDbLine
 10
584.2354931316192
 20
262.3672614119707
 30
0.0
 11
584.2354931316192
 21
245.9104588768084
 31
0.0
  0
LINE
  5
1621
330
18
100
AcDbEntity
  8
0
  6
ByBlock
 62
     2
100
AcDbLine
 10
576.7354931316192
 20
247.1604588768084
 30
0.0
 11
574.2354931316192
 21
247.1604588768084
 31
0.0
  0
LINE
  5
1622
330
18
100
AcDbEntity
  8
0
  6
ByBlock
 62
     2
100
AcDbLine
 10
586.7354931316192
 20
247.1604588768084
 30
0.0
 11
598.5807312268573
 21
247.1604588768084
 31
0.0
  0
LINE
  5
1623
330
18
100
AcDbEntity
  8
0
  6
ByBlock
 62
     2
100
AcDbLine
 10
579.2354931316192
 20
247.1604588768084
 30
0.0
 11
584.2354931316192
 21
247.1604588768084
 31
0.0
  0
INSERT
  5
1624
330
18
100
AcDbEntity
  8
0
  6
ByBlock
 62
     2
100
AcDbBlockReference
  2
_OPEN
 10
579.2354931316192
 20
247.1604588768084
 30
0.0
 41
2.5
 42
2.5
 43
2.5
  0
INSERT
  5
1625
330
18
100
AcDbEntity
  8
0
  6
ByBlock
 62
     2
100
AcDbBlockReference
  2
_OPEN
 10
584.2354931316192
 20
247.1604588768084
 30
0.0
 41
2.5
 42
2.5
 43
2.5
 50
180.0
  0
MTEXT
  5
1626
330
18
100
AcDbEntity
  8
0
  6
ByBlock
 62
     6
100
AcDbMText
 10
593.9081121792383
 20
249.0354588768084
 30
0.0
 40
2.5
 41
0.0
 71
     5
 72
     1
  1
\A1;φ2.5
  7
STYLE3
 73
     1
 44
1.0
  0
POINT
  5
1627
330
18
100
AcDbEntity
  8
DEFPOINTS
  6
ByBlock
 62
     0
100
AcDbPoint
 10
579.2354931316192
 20
262.3672614119707
 30
0.0
  0
POINT
  5
1628
330
18
100
AcDbEntity
  8
DEFPOINTS
  6
ByBlock
 62
     0
100
AcDbPoint
 10
584.2354931316192
 20
262.3672614119707
 30
0.0
  0
POINT
  5
1629
330
18
100
AcDbEntity
  8
DEFPOINTS
  6
ByBlock
 62
     0
100
AcDbPoint
 10
584.2354931316192
 20
247.1604588768084
 30
0.0
  0
MTEXT
  5
162C
330
18
100
AcDbEntity
  8
0
  6
ByBlock
 62
     6
100
AcDbMText
 10
586.8825876268698
 20
238.368327559728
 30
0.0
 40
3.0
 41
0.0
 71
     5
 72
     1
  1
先端部詳細図 S=2/1
  7
STYLE3
 73
     1
 44
1.0
  0
LINE
  5
162D
330
18
100
AcDbEntity
  8
中心線
 48
0.5
100
AcDbLine
 10
387.2279181417016
 20
212.4336535232312
 30
0.0
 11
387.2279181417016
 21
237.3537805537963
 31
0.0
  0
LINE
  5
162E
330
18
100
AcDbEntity
  8
中心線
 48
0.2
100
AcDbLine
 10
424.9467624370057
 20
218.2210150013156
 30
0.0
 11
424.9467624370057
 21
227.8524883631664
 31
0.0
  0
LINE
  5
162F
330
18
100
AcDbEntity
  8
中心線
 48
0.3
100
AcDbLine
 10
384.9463360313052
 20
232.6433385106799
 30
0.0
 11
384.9463360313052
 21
221.6205587551173
 31
0.0
  0
LINE
  5
1630
330
18
100
AcDbEntity
  8
外形線
100
AcDbLine
 10
382.9467624370058
 20
228.3637821567775
 30
0.0
 11
382.9467624370058
 21
225.9637821567774
 31
0.0
  0
LINE
  5
1632
330
18
100
AcDbEntity
  8
外形線
100
AcDbLine
 10
535.8125505833782
 20
219.1172224677156
 30
0.0
 11
536.3573893789727
 21
219.2137821567774
 31
0.0
  0
LINE
  5
1633
330
18
100
AcDbEntity
  8
外形線
100
AcDbLine
 10
545.1850022385049
 20
220.7782661101367
 30
0.0
 11
544.9437051565617
 21
220.7355019542205
 31
0.0
  0
ARC
  5
1635
330
18
100
AcDbEntity
  8
隠れ線2
100
AcDbCircle
 10
545.4467624370058
 20
219.3012821567775
 30
0.0
 40
1.5
100
AcDbArc
 50
279.8083942372897
 51
343.4747309424049
  0
LINE
  5
1636
330
18
100
AcDbEntity
  8
隠れ線2
100
AcDbLine
 10
545.702293236863
 20
217.8232077302602
 30
0.0
 11
544.9467624370057
 21
217.6915205292528
 31
0.0
  0
LINE
  5
1637
330
18
100
AcDbEntity
  8
外形線
100
AcDbLine
 10
382.9467624370058
 20
228.3637821567775
 30
0.0
 11
386.9463360313052
 21
228.3637821567774
 31
0.0
  0
LINE
  5
1649
330
18
100
AcDbEntity
  8
中心線
 48
0.12
100
AcDbLine
 10
382.9467624370058
 20
232.5656956034422
 30
0.0
 11
382.9467624370058
 21
228.3381015950182
 31
0.0
  0
LINE
  5
164A
330
18
100
AcDbEntity
  8
外形線
100
AcDbLine
 10
386.9463360313052
 20
228.3637821567774
 30
0.0
 11
386.9463360313052
 21
225.9637821567774
 31
0.0
  0
LINE
  5
164B
330
18
100
AcDbEntity
  8
外形線
100
AcDbLine
 10
383.6963360313053
 20
228.9637821567775
 30
0.0
 11
386.1963360313053
 21
228.9637821567774
 31
0.0
  0
LINE
  5
164C
330
18
100
AcDbEntity
  8
外形線
100
AcDbLine
 10
384.1963360313052
 20
230.9637821567775
 30
0.0
 11
385.6963360313053
 21
230.9637821567774
 31
0.0
  0
LINE
  5
164D
330
18
100
AcDbEntity
  8
外形線
100
AcDbLine
 10
383.6963360313053
 20
230.4637821567775
 30
0.0
 11
386.1963360313053
 21
230.4637821567775
 31
0.0
  0
LINE
  5
164E
330
18
100
AcDbEntity
  8
外形線
100
AcDbLine
 10
383.6963360313053
 20
230.4637821567775
 30
0.0
 11
383.6963360313053
 21
228.9637821567774
 31
0.0
  0
LINE
  5
164F
330
18
100
AcDbEntity
  8
外形線
100
AcDbLine
 10
386.1963360313053
 20
230.4637821567774
 30
0.0
 11
386.1963360313053
 21
228.9637821567774
 31
0.0
  0
LINE
  5
1650
330
18
100
AcDbEntity
  8
外形線
100
AcDbLine
 10
384.1963360313053
 20
228.9637821567775
 30
0.0
 11
384.1963360313052
 21
228.3637821567774
 31
0.0
  0
LINE
  5
1651
330
18
100
AcDbEntity
  8
外形線
100
AcDbLine
 10
385.6963360313053
 20
228.9637821567774
 30
0.0
 11
385.6963360313053
 21
228.3637821567774
 31
0.0
  0
LINE
  5
1652
330
18
100
AcDbEntity
  8
外形線
100
AcDbLine
 10
383.6963360313053
 20
230.4637821567775
 30
0.0
 11
384.1963360313052
 21
230.9637821567775
 31
0.0
  0
LINE
  5
1653
330
18
100
AcDbEntity
  8
外形線
100
AcDbLine
 10
385.6963360313053
 20
230.9637821567774
 30
0.0
 11
386.1963360313053
 21
230.4637821567774
 31
0.0
  0
LINE
  5
1654
330
18
100
AcDbEntity
  8
外形線
100
AcDbLine
 10
380.9471888427063
 20
228.3637821567775
 30
0.0
 11
380.9471888427063
 21
225.9637821567774
 31
0.0
  0
LINE
  5
1655
330
18
100
AcDbEntity
  8
外形線
100
AcDbLine
 10
380.9471888427063
 20
228.3637821567775
 30
0.0
 11
384.9467624370058
 21
228.3637821567774
 31
0.0
  0
LINE
  5
1656
330
18
100
AcDbEntity
  8
外形線
100
AcDbLine
 10
384.9467624370058
 20
228.3637821567774
 30
0.0
 11
384.9467624370058
 21
225.9637821567774
 31
0.0
  0
LINE
  5
1657
330
18
100
AcDbEntity
  8
外形線
100
AcDbLine
 10
381.6967624370058
 20
228.9637821567775
 30
0.0
 11
384.1967624370058
 21
228.9637821567774
 31
0.0
  0
LINE
  5
1658
330
18
100
AcDbEntity
  8
外形線
100
AcDbLine
 10
382.1967624370058
 20
230.9637821567775
 30
0.0
 11
383.6967624370057
 21
230.9637821567774
 31
0.0
  0
LINE
  5
1659
330
18
100
AcDbEntity
  8
外形線
100
AcDbLine
 10
381.6967624370058
 20
230.4637821567775
 30
0.0
 11
384.1967624370058
 21
230.4637821567775
 31
0.0
  0
LINE
  5
165A
330
18
100
AcDbEntity
  8
外形線
100
AcDbLine
 10
381.6967624370058
 20
230.4637821567775
 30
0.0
 11
381.6967624370058
 21
228.9637821567774
 31
0.0
  0
LINE
  5
165C
330
18
100
AcDbEntity
  8
外形線
100
AcDbLine
 10
382.1967624370058
 20
228.9637821567775
 30
0.0
 11
382.1967624370058
 21
228.3637821567774
 31
0.0
  0
LINE
  5
165D
330
18
100
AcDbEntity
  8
外形線
100
AcDbLine
 10
383.6967624370057
 20
228.9637821567774
 30
0.0
 11
383.6967624370057
 21
228.3637821567774
 31
0.0
  0
LINE
  5
165E
330
18
100
AcDbEntity
  8
外形線
100
AcDbLine
 10
381.6967624370058
 20
230.4637821567775
 30
0.0
 11
382.1967624370058
 21
230.9637821567775
 31
0.0
  0
LINE
  5
165F
330
18
100
AcDbEntity
  8
外形線
100
AcDbLine
 10
383.6967624370057
 20
230.9637821567774
 30
0.0
 11
383.9465492341555
 21
230.7139953596277
 31
0.0
  0
LINE
  5
1660
330
18
100
AcDbEntity
  8
中心線
 48
0.15
100
AcDbLine
 10
382.9467624370058
 20
225.9637821567774
 30
0.0
 11
382.9467624370058
 21
221.5494789608649
 31
0.0
  0
LINE
  5
1661
330
18
100
AcDbEntity
  8
外形線
100
AcDbLine
 10
386.9463360313052
 20
226.9637821567775
 30
0.0
 11
392.2279181417015
 21
226.9637821567775
 31
0.0
  0
LINE
  5
1662
330
18
100
AcDbEntity
  8
外形線
100
AcDbLine
 10
377.2279181417016
 20
230.9637821567774
 30
0.0
 11
397.2279181417015
 21
230.9637821567775
 31
0.0
  0
LINE
  5
1663
330
18
100
AcDbEntity
  8
外形線
100
AcDbLine
 10
377.2279181417016
 20
234.9637821567774
 30
0.0
 11
397.2279181417015
 21
234.9637821567775
 31
0.0
  0
LINE
  5
1664
330
18
100
AcDbEntity
  8
外形線
100
AcDbLine
 10
377.2279181417016
 20
230.9637821567774
 30
0.0
 11
377.2279181417016
 21
234.9637821567774
 31
0.0
  0
LINE
  5
1665
330
18
100
AcDbEntity
  8
外形線
100
AcDbLine
 10
397.2279181417017
 20
230.9637821567775
 30
0.0
 11
397.2279181417016
 21
234.9637821567775
 31
0.0
  0
LINE
  5
1666
330
18
100
AcDbEntity
  8
外形線
100
AcDbLine
 10
382.2279181417016
 20
228.3637821567774
 30
0.0
 11
382.2279181417016
 21
228.9637821567774
 31
0.0
  0
LINE
  5
1667
330
18
100
AcDbEntity
  8
外形線
100
AcDbLine
 10
392.2279181417016
 20
225.9637821567774
 30
0.0
 11
392.2279181417016
 21
230.9637821567774
 31
0.0
  0
HATCH
  5
1671
330
18
100
AcDbEntity
  8
寸法線
100
AcDbHatch
 10
0.0
 20
0.0
 30
0.0
210
0.0
220
0.0
230
1.0
  2
ANSI37
 70
     0
 71
     0
 91
        2
 92
        1
 93
        4
 72
     1
 10
397.2279181417017
 20
230.9637821567775
 11
397.2279181417016
 21
234.9637821567775
 72
     1
 10
397.2279181417015
 20
234.9637821567775
 11
377.2279181417016
 21
234.9637821567774
 72
     1
 10
377.2279181417016
 20
234.9637821567774
 11
377.2279181417016
 21
230.9637821567774
 72
     1
 10
377.2279181417016
 20
230.9637821567774
 11
397.2279181417015
 21
230.9637821567775
 97
        0
 92
       33
 93
        3
 72
     1
 10
383.6967624370057
 20
230.9637821567774
 11
383.9465492341555
 21
230.7139953596277
 72
     1
 10
382.1967624370058
 20
230.9637821567775
 11
383.6967624370057
 21
230.9637821567774
 72
     1
 10
384.1963360313052
 20
230.9637821567775
 11
385.6963360313053
 21
230.9637821567774
 97
        0
 75
     0
 76
     1
 52
0.0
 41
1.0
 77
     0
 78
     2
 53
45.0
 43
0.0
 44
-18.89329395023128
 45
-2.245064030267287
 46
2.245064030267288
 79
     0
 53
135.0
 43
0.0
 44
-18.89329395023128
 45
-2.245064030267288
 46
-2.245064030267287
 79
     0
 98
        2
 10
392.8883796213336
 20
232.5112244527288
 10
379.1785034754646
 20
232.7117633818629
  0
LINE
  5
1672
330
18
100
AcDbEntity
  8
外形線
100
AcDbLine
 10
432.4717624370058
 20
224.4637821567775
 30
0.0
 11
437.4217624370057
 21
224.4637821567775
 31
0.0
  0
LINE
  5
1673
330
18
100
AcDbEntity
  8
外形線
100
AcDbLine
 10
431.6467624370058
 20
222.4637821567775
 30
0.0
 11
431.6467624370059
 21
223.6742259657278
 31
0.0
  0
LINE
  5
1674
330
18
100
AcDbEntity
  8
外形線
100
AcDbLine
 10
438.2467624370057
 20
222.4637821567775
 30
0.0
 11
438.2467624370057
 21
223.6742259657278
 31
0.0
  0
LINE
  5
1676
330
18
100
AcDbEntity
  8
外形線
100
AcDbLine
 10
433.2967624370057
 20
222.4637821567775
 30
0.0
 11
433.2967624370057
 21
223.6742259657278
 31
0.0
  0
LINE
  5
1677
330
18
100
AcDbEntity
  8
外形線
100
AcDbLine
 10
436.5967624370058
 20
222.4637821567775
 30
0.0
 11
436.5967624370058
 21
223.6742259657278
 31
0.0
  0
ELLIPSE
  5
167E
330
18
100
AcDbEntity
  8
外形線
100
AcDbEllipse
 10
434.9467624370057
 20
223.6742259657278
 30
0.0
 11
-1.649999999999977
 21
0.0
 31
0.0
210
0.0
220
0.0
230
1.0
 40
0.4785189036664644
 41
3.141592653589793
 42
6.283185307179586
  0
ELLIPSE
  5
167F
330
18
100
AcDbEntity
  8
外形線
100
AcDbEllipse
 10
432.4717624370058
 20
223.6742259657278
 30
0.0
 11
-0.8249999999999886
 21
0.0
 31
0.0
210
0.0
220
0.0
230
1.0
 40
0.9570378073329287
 41
3.141592653589793
 42
6.283185307179586
  0
ELLIPSE
  5
1680
330
18
100
AcDbEntity
  8
外形線
100
AcDbEllipse
 10
437.4217624370057
 20
223.6742259657278
 30
0.0
 11
-0.8249999999999886
 21
0.0
 31
0.0
210
0.0
220
0.0
230
1.0
 40
0.9570378073329287
 41
3.141592653589793
 42
6.283185307179586
  0
LINE
  5
16B9
330
18
100
AcDbEntity
  8
外形線
100
AcDbLine
 10
459.4467624370058
 20
225.9637821567774
 30
0.0
 11
437.4467624370057
 21
225.9637821567775
 31
0.0
  0
LINE
  5
16BB
330
18
100
AcDbEntity
  8
外形線
  6
Continuous
100
AcDbLine
 10
459.9467624370058
 20
237.4637821567775
 30
0.0
 11
409.9467624370058
 21
237.4637821567775
 31
0.0
  0
LINE
  5
16BC
330
18
100
AcDbEntity
  8
外形線
  6
Continuous
100
AcDbLine
 10
461.3467624370056
 20
238.9637821567776
 30
0.0
 11
408.5467624370058
 21
238.9637821567776
 31
0.0
  0
LINE
  5
16BD
330
18
100
AcDbEntity
  8
外形線
  6
Continuous
100
AcDbLine
 10
461.3467624370056
 20
242.7637821567775
 30
0.0
 11
408.5467624370058
 21
242.7637821567775
 31
0.0
  0
LINE
  5
16BE
330
18
100
AcDbEntity
  8
外形線
  6
Continuous
100
AcDbLine
 10
459.9467624370058
 20
243.9637821567775
 30
0.0
 11
409.9467624370058
 21
243.9637821567775
 31
0.0
  0
ARC
  5
16BF
330
18
100
AcDbEntity
  8
外形線
  6
Continuous
100
AcDbCircle
 10
434.9467624370057
 20
141.2971154901111
 30
0.0
 40
105.6666666666664
100
AcDbArc
 50
76.31445317473806
 51
103.6855468252619
  0
LINE
  5
16C0
330
18
100
AcDbEntity
  8
外形線
100
AcDbLine
 10
410.4467624370058
 20
237.4637821567775
 30
0.0
 11
410.4467624370058
 21
225.9637821567774
 31
0.0
  0
LINE
  5
16C2
330
18
100
AcDbEntity
  8
外形線
  6
CENTER2
100
AcDbLine
 10
409.9467624370058
 20
237.4637821567775
 30
0.0
 11
409.9467624370058
 21
238.9637821567776
 31
0.0
  0
POINT
  5
16C3
330
18
100
AcDbEntity
  8
DEFPOINTS
  6
ByBlock
 62
     0
100
AcDbPoint
 10
408.5467624370058
 20
242.7637821567775
 30
0.0
  0
POINT
  5
16C4
330
18
100
AcDbEntity
  8
DEFPOINTS
  6
ByBlock
 62
     0
100
AcDbPoint
 10
408.5467624370058
 20
242.7637821567775
 30
0.0
  0
LINE
  5
16C5
330
18
100
AcDbEntity
  8
外形線
  6
Continuous
 62
     4
100
AcDbLine
 10
409.5467624370058
 20
242.7637821567775
 30
0.0
 11
409.5467624370058
 21
238.9637821567776
 31
0.0
  0
LINE
  5
16C6
330
18
100
AcDbEntity
  8
外形線
  6
Continuous
 62
     4
100
AcDbLine
 10
410.5467624370058
 20
242.7637821567775
 30
0.0
 11
410.5467624370058
 21
238.9637821567776
 31
0.0
  0
LINE
  5
16C7
330
18
100
AcDbEntity
  8
外形線
  6
Continuous
100
AcDbLine
 10
408.5467624370058
 20
242.7637821567775
 30
0.0
 11
408.5467624370058
 21
238.9637821567776
 31
0.0
  0
LINE
  5
16C8
330
18
100
AcDbEntity
  8
外形線
  6
Continuous
100
AcDbLine
 10
409.4467624370058
 20
242.7637821567775
 30
0.0
 11
409.9467624370058
 21
243.9637821567775
 31
0.0
  0
LINE
  5
16C9
330
18
100
AcDbEntity
  8
外形線
  6
Continuous
 62
     4
100
AcDbLine
 10
413.5467624370058
 20
242.7637821567775
 30
0.0
 11
413.5467624370058
 21
238.9637821567776
 31
0.0
  0
LINE
  5
16CA
330
18
100
AcDbEntity
  8
外形線
  6
Continuous
 62
     4
100
AcDbLine
 10
411.5467624370058
 20
242.7637821567775
 30
0.0
 11
411.5467624370058
 21
238.9637821567776
 31
0.0
  0
LINE
  5
16CB
330
18
100
AcDbEntity
  8
外形線
  6
Continuous
 62
     4
100
AcDbLine
 10
412.5467624370058
 20
242.7637821567775
 30
0.0
 11
412.5467624370058
 21
238.9637821567776
 31
0.0
  0
POINT
  5
16CC
330
18
100
AcDbEntity
  8
DEFPOINTS
  6
ByBlock
 62
     0
100
AcDbPoint
 10
434.9467624370057
 20
249.6313664999644
 30
0.0
  0
LINE
  5
16CD
330
18
100
AcDbEntity
  8
外形線
  6
Continuous
 62
     4
100
AcDbLine
 10
436.9467624370058
 20
238.9637821567776
 30
0.0
 11
436.9467624370058
 21
242.7637821567775
 31
0.0
  0
LINE
  5
16CE
330
18
100
AcDbEntity
  8
外形線
  6
Continuous
 62
     4
100
AcDbLine
 10
437.9467624370057
 20
238.9637821567776
 30
0.0
 11
437.9467624370057
 21
242.7637821567775
 31
0.0
  0
LINE
  5
16CF
330
18
100
AcDbEntity
  8
外形線
  6
Continuous
 62
     4
100
AcDbLine
 10
435.9467624370057
 20
238.9637821567776
 30
0.0
 11
435.9467624370057
 21
242.7637821567775
 31
0.0
  0
LINE
  5
16D0
330
18
100
AcDbEntity
  8
外形線
  6
Continuous
 62
     4
100
AcDbLine
 10
434.9467624370057
 20
238.9637821567776
 30
0.0
 11
434.9467624370057
 21
242.7637821567775
 31
0.0
  0
LINE
  5
16D1
330
18
100
AcDbEntity
  8
外形線
  6
Continuous
 62
     4
100
AcDbLine
 10
433.9467624370057
 20
238.9637821567776
 30
0.0
 11
433.9467624370057
 21
242.7637821567775
 31
0.0
  0
LINE
  5
16D2
330
18
100
AcDbEntity
  8
外形線
  6
Continuous
 62
     4
100
AcDbLine
 10
432.9467624370058
 20
238.9637821567776
 30
0.0
 11
432.9467624370058
 21
242.7637821567775
 31
0.0
  0
LINE
  5
16D4
330
18
100
AcDbEntity
  8
外形線
100
AcDbLine
 10
459.4467624370058
 20
237.4637821567775
 30
0.0
 11
459.4467624370058
 21
225.9637821567774
 31
0.0
  0
LINE
  5
16D5
330
18
100
AcDbEntity
  8
外形線
  6
CENTER2
100
AcDbLine
 10
459.9467624370058
 20
237.4637821567775
 30
0.0
 11
459.9467624370058
 21
238.9637821567776
 31
0.0
  0
POINT
  5
16D6
330
18
100
AcDbEntity
  8
DEFPOINTS
  6
ByBlock
 62
     0
100
AcDbPoint
 10
461.3467624370056
 20
242.7637821567775
 30
0.0
  0
LINE
  5
16D7
330
18
100
AcDbEntity
  8
外形線
  6
Continuous
100
AcDbLine
 10
461.3467624370056
 20
242.7637821567775
 30
0.0
 11
461.3467624370056
 21
238.9637821567776
 31
0.0
  0
LINE
  5
16D8
330
18
100
AcDbEntity
  8
外形線
  6
Continuous
 62
     4
100
AcDbLine
 10
460.3467624370057
 20
242.7637821567775
 30
0.0
 11
460.3467624370057
 21
238.9637821567776
 31
0.0
  0
LINE
  5
16D9
330
18
100
AcDbEntity
  8
外形線
  6
Continuous
 62
     4
100
AcDbLine
 10
459.3467624370056
 20
242.7637821567775
 30
0.0
 11
459.3467624370056
 21
238.9637821567776
 31
0.0
  0
LINE
  5
16DA
330
18
100
AcDbEntity
  8
外形線
  6
Continuous
 62
     4
100
AcDbLine
 10
458.3467624370056
 20
242.7637821567775
 30
0.0
 11
458.3467624370056
 21
238.9637821567776
 31
0.0
  0
LINE
  5
16DB
330
18
100
AcDbEntity
  8
外形線
  6
Continuous
 62
     4
100
AcDbLine
 10
457.3467624370056
 20
242.7637821567775
 30
0.0
 11
457.3467624370056
 21
238.9637821567776
 31
0.0
  0
LINE
  5
16DC
330
18
100
AcDbEntity
  8
外形線
  6
Continuous
 62
     4
100
AcDbLine
 10
456.3467624370057
 20
242.7637821567775
 30
0.0
 11
456.3467624370057
 21
238.9637821567776
 31
0.0
  0
LINE
  5
16DD
330
18
100
AcDbEntity
  8
外形線
  6
Continuous
100
AcDbLine
 10
460.4467624370058
 20
242.7637821567775
 30
0.0
 11
459.9467624370058
 21
243.9637821567775
 31
0.0
  0
LINE
  5
16E2
330
18
100
AcDbEntity
  8
中心線
 48
0.5
100
AcDbLine
 10
434.9467624370057
 20
249.7159866333559
 30
0.0
 11
434.9467624370057
 21
213.5771603940635
 31
0.0
  0
LINE
  5
16E4
330
18
100
AcDbEntity
  8
中心線
 48
0.5
100
AcDbLine
 10
464.7429927513823
 20
232.4637821567775
 30
0.0
 11
406.9864856010936
 21
232.4637821567774
 31
0.0
  0
ARC
  5
16E5
330
18
100
AcDbEntity
  8
外形線
100
AcDbCircle
 10
434.9467624370057
 20
232.4637821567775
 30
0.0
 40
2.0
100
AcDbArc
 50
28.95502437185996
 51
151.04497562814
  0
LINE
  5
16E6
330
18
100
AcDbEntity
  8
外形線
100
AcDbLine
 10
433.4467624370057
 20
231.4637821567774
 30
0.0
 11
433.4467624370057
 21
229.9637821567774
 31
0.0
  0
LINE
  5
16E7
330
18
100
AcDbEntity
  8
外形線
100
AcDbLine
 10
436.4467624370058
 20
231.4637821567774
 30
0.0
 11
436.4467624370057
 21
229.9637821567774
 31
0.0
  0
ARC
  5
16E8
330
18
100
AcDbEntity
  8
外形線
100
AcDbCircle
 10
433.4467624370057
 20
232.4637821567775
 30
0.0
 40
1.0
100
AcDbArc
 50
90.0
 51
270.0
  0
ARC
  5
16E9
330
18
100
AcDbEntity
  8
外形線
100
AcDbCircle
 10
436.4467624370057
 20
232.4637821567775
 30
0.0
 40
1.0
100
AcDbArc
 50
270.0
 51
90.0
  0
LINE
  5
16EA
330
18
100
AcDbEntity
  8
外形線
100
AcDbLine
 10
433.4467624370057
 20
233.4637821567774
 30
0.0
 11
436.4467624370057
 21
233.4637821567774
 31
0.0
  0
LINE
  5
16EB
330
18
100
AcDbEntity
  8
外形線
100
AcDbLine
 10
436.4467624370057
 20
231.4637821567774
 30
0.0
 11
433.4467624370057
 21
231.4637821567774
 31
0.0
  0
ARC
  5
16EC
330
18
100
AcDbEntity
  8
外形線
100
AcDbCircle
 10
434.9467624370057
 20
232.4637821567775
 30
0.0
 40
2.0
100
AcDbArc
 50
208.9550243718599
 51
221.4096221092756
  0
LINE
  5
16ED
330
18
100
AcDbEntity
  8
外形線
100
AcDbLine
 10
436.9467624370058
 20
229.9637821567774
 30
0.0
 11
432.9467624370057
 21
229.9637821567774
 31
0.0
  0
ARC
  5
16EE
330
18
100
AcDbEntity
  8
外形線
100
AcDbCircle
 10
434.9467624370057
 20
232.4637821567775
 30
0.0
 40
2.0
100
AcDbArc
 50
318.5903778907337
 51
331.04497562814
  0
LINE
  5
16EF
330
18
100
AcDbEntity
  8
外形線
100
AcDbLine
 10
438.2467624370057
 20
222.9637821567774
 30
0.0
 11
460.9467624370057
 21
222.9637821567774
 31
0.0
  0
LINE
  5
16F0
330
18
100
AcDbEntity
  8
外形線
100
AcDbLine
 10
436.9467624370058
 20
225.4637821567775
 30
0.0
 11
432.9467624370057
 21
225.4637821567774
 31
0.0
  0
LINE
  5
16F1
330
18
100
AcDbEntity
  8
外形線
100
AcDbLine
 10
432.4467624370057
 20
229.4637821567774
 30
0.0
 11
432.4467624370057
 21
225.9637821567774
 31
0.0
  0
LINE
  5
16F2
330
18
100
AcDbEntity
  8
外形線
100
AcDbLine
 10
437.4467624370057
 20
229.4637821567774
 30
0.0
 11
437.4467624370057
 21
225.9637821567775
 31
0.0
  0
LINE
  5
16F3
330
18
100
AcDbEntity
  8
外形線
100
AcDbLine
 10
437.4467624370057
 20
225.9637821567774
 30
0.0
 11
460.9467624370057
 21
225.9637821567774
 31
0.0
  0
LINE
  5
16F4
330
18
100
AcDbEntity
  8
外形線
100
AcDbLine
 10
432.4467624370057
 20
225.9637821567775
 30
0.0
 11
426.6967624370058
 21
225.9637821567774
 31
0.0
  0
LINE
  5
16F5
330
18
100
AcDbEntity
  8
外形線
100
AcDbLine
 10
436.9467624370058
 20
229.4637821567774
 30
0.0
 11
436.9467624370057
 21
225.9637821567775
 31
0.0
  0
LINE
  5
16F6
330
18
100
AcDbEntity
  8
外形線
100
AcDbLine
 10
432.9467624370057
 20
229.4637821567774
 30
0.0
 11
432.9467624370057
 21
225.9637821567775
 31
0.0
  0
LINE
  5
16F7
330
18
100
AcDbEntity
  8
外形線
100
AcDbLine
 10
437.4467624370057
 20
229.4637821567774
 30
0.0
 11
436.9467624370058
 21
229.4637821567774
 31
0.0
  0
LINE
  5
16F8
330
18
100
AcDbEntity
  8
外形線
100
AcDbLine
 10
437.4467624370057
 20
225.9637821567775
 30
0.0
 11
436.9467624370058
 21
225.9637821567775
 31
0.0
  0
LINE
  5
16F9
330
18
100
AcDbEntity
  8
外形線
100
AcDbLine
 10
432.4467624370057
 20
229.4637821567774
 30
0.0
 11
432.9467624370057
 21
229.9637821567774
 31
0.0
  0
LINE
  5
16FA
330
18
100
AcDbEntity
  8
外形線
100
AcDbLine
 10
436.9467624370058
 20
229.9637821567774
 30
0.0
 11
437.4467624370057
 21
229.4637821567774
 31
0.0
  0
LINE
  5
16FB
330
18
100
AcDbEntity
  8
外形線
100
AcDbLine
 10
436.9467624370058
 20
225.4637821567775
 30
0.0
 11
437.4467624370057
 21
225.9637821567775
 31
0.0
  0
LINE
  5
16FC
330
18
100
AcDbEntity
  8
外形線
100
AcDbLine
 10
432.4467624370057
 20
225.9637821567774
 30
0.0
 11
432.9467624370057
 21
225.4637821567774
 31
0.0
  0
LINE
  5
16FD
330
18
100
AcDbEntity
  8
外形線
100
AcDbLine
 10
432.9467624370057
 20
229.4637821567774
 30
0.0
 11
433.4467624370057
 21
229.9637821567774
 31
0.0
  0
LINE
  5
16FE
330
18
100
AcDbEntity
  8
外形線
100
AcDbLine
 10
432.9467624370057
 20
225.9637821567775
 30
0.0
 11
433.4467624370057
 21
225.4637821567774
 31
0.0
  0
LINE
  5
16FF
330
18
100
AcDbEntity
  8
外形線
100
AcDbLine
 10
436.4467624370057
 20
229.9637821567774
 30
0.0
 11
436.9467624370058
 21
229.4637821567774
 31
0.0
  0
LINE
  5
1700
330
18
100
AcDbEntity
  8
外形線
100
AcDbLine
 10
436.4467624370058
 20
225.4637821567775
 30
0.0
 11
436.9467624370058
 21
225.9637821567775
 31
0.0
  0
LINE
  5
1701
330
18
100
AcDbEntity
  8
外形線
100
AcDbLine
 10
432.9467624370057
 20
229.4637821567774
 30
0.0
 11
432.4467624370057
 21
229.4637821567774
 31
0.0
  0
LINE
  5
1702
330
18
100
AcDbEntity
  8
外形線
100
AcDbLine
 10
432.9467624370057
 20
225.9637821567775
 30
0.0
 11
432.4467624370057
 21
225.9637821567775
 31
0.0
  0
LINE
  5
1703
330
18
100
AcDbEntity
  8
外形線
100
AcDbLine
 10
433.4467624370057
 20
225.4637821567774
 30
0.0
 11
433.4467624370057
 21
224.4637821567774
 31
0.0
  0
LINE
  5
1704
330
18
100
AcDbEntity
  8
外形線
100
AcDbLine
 10
436.4467624370057
 20
225.4637821567774
 30
0.0
 11
436.4467624370057
 21
224.4637821567774
 31
0.0
  0
LINE
  5
1705
330
18
100
AcDbEntity
  8
中心線
 48
0.5
100
AcDbLine
 10
433.9467624370056
 20
225.4637821567774
 30
0.0
 11
433.9467624370056
 21
224.4637821567774
 31
0.0
  0
LINE
  5
1706
330
18
100
AcDbEntity
  8
中心線
 48
0.5
100
AcDbLine
 10
435.9467624370057
 20
225.4637821567774
 30
0.0
 11
435.9467624370057
 21
224.4637821567774
 31
0.0
  0
LINE
  5
1708
330
18
100
AcDbEntity
  8
外形線
100
AcDbLine
 10
422.9467624370057
 20
225.2637821567774
 30
0.0
 11
426.9467624370057
 21
225.2637821567774
 31
0.0
  0
LINE
  5
1709
330
18
100
AcDbEntity
  8
外形線
100
AcDbLine
 10
422.9467624370057
 20
222.4637821567775
 30
0.0
 11
422.9467624370057
 21
225.2637821567774
 31
0.0
  0
LINE
  5
170A
330
18
100
AcDbEntity
  8
外形線
100
AcDbLine
 10
426.9467624370057
 20
222.4637821567774
 30
0.0
 11
426.9467624370056
 21
225.2637821567774
 31
0.0
  0
LINE
  5
170B
330
18
100
AcDbEntity
  8
外形線
100
AcDbLine
 10
426.9467624370056
 20
222.9637821567774
 30
0.0
 11
431.6467624370059
 21
222.9637821567774
 31
0.0
  0
LINE
  5
170C
330
18
100
AcDbEntity
  8
外形線
100
AcDbLine
 10
423.5967624370058
 20
226.6637821567774
 30
0.0
 11
426.2967624370058
 21
226.6637821567775
 31
0.0
  0
LINE
  5
170D
330
18
100
AcDbEntity
  8
外形線
100
AcDbLine
 10
423.1967624370057
 20
225.2637821567775
 30
0.0
 11
423.1967624370058
 21
226.2637821567774
 31
0.0
  0
LINE
  5
170E
330
18
100
AcDbEntity
  8
外形線
100
AcDbLine
 10
426.6967624370058
 20
225.2637821567775
 30
0.0
 11
426.6967624370058
 21
226.2637821567775
 31
0.0
  0
LINE
  5
170F
330
18
100
AcDbEntity
  8
外形線
100
AcDbLine
 10
426.6967624370058
 20
225.9637821567774
 30
0.0
 11
432.4467624370057
 21
225.9637821567774
 31
0.0
  0
LINE
  5
1710
330
18
100
AcDbEntity
  8
外形線
100
AcDbLine
 10
423.1967624370057
 20
225.9637821567774
 30
0.0
 11
410.4467624370058
 21
225.9637821567774
 31
0.0
  0
ARC
  5
1711
330
18
100
AcDbEntity
  8
外形線
100
AcDbCircle
 10
423.5967624370058
 20
226.2637821567774
 30
0.0
 40
0.4
100
AcDbArc
 50
90.0000000000009
 51
180.0000000000023
  0
ARC
  5
1712
330
18
100
AcDbEntity
  8
外形線
100
AcDbCircle
 10
426.2967624370058
 20
226.2637821567775
 30
0.0
 40
0.4
100
AcDbArc
 50
0.0000000000023282
 51
90.00000000000103
  0
CIRCLE
  5
1716
330
18
100
AcDbEntity
  8
外形線
100
AcDbCircle
 10
324.9467624370057
 20
300.4846417374233
 30
0.0
 40
3.0
  0
CIRCLE
  5
1717
330
18
100
AcDbEntity
  8
寸法線
100
AcDbCircle
 10
324.9467624370057
 20
300.4846417374233
 30
0.0
 40
2.356843988739228
  0
CIRCLE
  5
1718
330
18
100
AcDbEntity
  8
外形線
100
AcDbCircle
 10
387.2279181417016
 20
342.2704963306636
 30
0.0
 40
2.0
  0
CIRCLE
  5
1719
330
18
100
AcDbEntity
  8
寸法線
100
AcDbCircle
 10
387.2279181417016
 20
342.2704963306636
 30
0.0
 40
1.495610951034961
  0
LINE
  5
171A
330
18
100
AcDbEntity
  8
想像線
 48
0.3
100
AcDbLine
 10
470.0005203516204
 20
306.2989138890876
 30
0.0
 11
470.0005203516204
 21
294.6703695857588
 31
0.0
  0
LINE
  5
171B
330
18
100
AcDbEntity
  8
想像線
 48
0.3
100
AcDbLine
 10
473.0005203516205
 20
306.0807320709058
 30
0.0
 11
473.0005203516204
 21
294.8885514039407
 31
0.0
  0
LINE
  5
172B
330
18
100
AcDbEntity
  8
想像線
 48
0.25
100
AcDbLine
 10
454.1989252706707
 20
379.0832102230735
 30
0.0
 11
459.4488281785151
 21
369.7165048962345
 31
0.0
  0
LINE
  5
172C
330
18
100
AcDbEntity
  8
想像線
 48
0.25
100
AcDbLine
 10
456.9225761629816
 20
380.3596619936464
 30
0.0
 11
461.9591296437937
 21
371.3736077473593
 31
0.0
  0
LINE
  5
173C
330
18
100
AcDbEntity
  8
0
  6
ByBlock
 62
     2
100
AcDbLine
 10
459.448828178515
 20
369.7165048962345
 30
0.0
 11
464.5018044536976
 21
360.7011496365357
 31
0.0
  0
LINE
  5
173D
330
18
100
AcDbEntity
  8
0
  6
ByBlock
 62
     2
100
AcDbLine
 10
461.9591296437937
 20
371.3736077473594
 30
0.0
 11
467.1187806324925
 21
362.1679269473846
 31
0.0
  0
LINE
  5
173E
330
18
100
AcDbEntity
  8
0
  6
ByBlock
 62
     2
100
AcDbLine
 10
461.709833758515
 20
360.5692419519927
 30
0.0
 11
459.529020276186
 21
359.3469275262854
 31
0.0
  0
LINE
  5
173F
330
18
100
AcDbEntity
  8
0
  6
ByBlock
 62
     2
100
AcDbLine
 10
468.6884369019678
 20
364.4806481142563
 30
0.0
 11
470.8692503842967
 21
365.7029625399637
 31
0.0
  0
LINE
  5
1740
330
18
100
AcDbEntity
  8
0
  6
ByBlock
 62
     2
100
AcDbLine
 10
463.8906472408439
 20
361.7915563777001
 30
0.0
 11
466.5076234196389
 21
363.258333688549
 31
0.0
  0
INSERT
  5
1741
330
18
100
AcDbEntity
  8
0
  6
ByBlock
 62
     2
100
AcDbBlockReference
  2
_OPEN
 10
463.8906472408439
 20
361.7915563777001
 30
0.0
 41
2.5
 42
2.5
 43
2.5
 50
29.27000000000004
  0
INSERT
  5
1742
330
18
100
AcDbEntity
  8
0
  6
ByBlock
 62
     2
100
AcDbBlockReference
  2
_OPEN
 10
466.5076234196389
 20
363.258333688549
 30
0.0
 41
2.5
 42
2.5
 43
2.5
 50
209.27
  0
MTEXT
  5
1743
330
18
100
AcDbEntity
  8
0
  6
ByBlock
 62
     6
100
AcDbMText
 10
464.3854265343045
 20
364.2521242102482
 30
0.0
 40
2.5
 41
0.0
 71
     5
 72
     1
  1
\A1;3
  7
STYLE3
 11
0.8723253929315784
 21
0.4889257702829412
 31
0.0
 73
     1
 44
1.0
  0
POINT
  5
1744
330
18
100
AcDbEntity
  8
DEFPOINTS
  6
ByBlock
 62
     0
100
AcDbPoint
 10
459.448828178515
 20
369.7165048962345
 30
0.0
 50
150.7299999999999
  0
POINT
  5
1745
330
18
100
AcDbEntity
  8
DEFPOINTS
  6
ByBlock
 62
     0
100
AcDbPoint
 10
461.9591296437937
 20
371.3736077473594
 30
0.0
 50
150.7299999999999
  0
POINT
  5
1746
330
18
100
AcDbEntity
  8
DEFPOINTS
  6
ByBlock
 62
     0
100
AcDbPoint
 10
466.5076234196389
 20
363.258333688549
 30
0.0
 50
150.7299999999999
  0
CIRCLE
  5
1747
330
18
100
AcDbEntity
  8
外形線
100
AcDbCircle
 10
382.9467624370058
 20
323.9846417374232
 30
0.0
 40
1.25
  0
CIRCLE
  5
1748
330
18
100
AcDbEntity
  8
外形線
100
AcDbCircle
 10
384.9463360313052
 20
300.2584371790293
 30
0.0
 40
1.25
  0
LINE
  5
1762
330
18
100
AcDbEntity
  8
0
  6
ByBlock
 62
     2
100
AcDbLine
 10
470.0005203516204
 20
294.6703695857589
 30
0.0
 11
470.0005203516204
 21
280.0106135287558
 31
0.0
  0
LINE
  5
1763
330
18
100
AcDbEntity
  8
0
  6
ByBlock
 62
     2
100
AcDbLine
 10
473.0005203516204
 20
294.8885514039407
 30
0.0
 11
473.0005203516204
 21
280.0106135287558
 31
0.0
  0
LINE
  5
1764
330
18
100
AcDbEntity
  8
0
  6
ByBlock
 62
     2
100
AcDbLine
 10
467.5005203516204
 20
281.2606135287558
 30
0.0
 11
465.0005203516204
 21
281.2606135287558
 31
0.0
  0
LINE
  5
1765
330
18
100
AcDbEntity
  8
0
  6
ByBlock
 62
     2
100
AcDbLine
 10
475.5005203516204
 20
281.2606135287558
 30
0.0
 11
478.0005203516203
 21
281.2606135287558
 31
0.0
  0
LINE
  5
1766
330
18
100
AcDbEntity
  8
0
  6
ByBlock
 62
     2
100
AcDbLine
 10
470.0005203516204
 20
281.2606135287558
 30
0.0
 11
473.0005203516204
 21
281.2606135287558
 31
0.0
  0
INSERT
  5
1767
330
18
100
AcDbEntity
  8
0
  6
ByBlock
 62
     2
100
AcDbBlockReference
  2
_OPEN
 10
470.0005203516204
 20
281.2606135287558
 30
0.0
 41
2.5
 42
2.5
 43
2.5
  0
INSERT
  5
1768
330
18
100
AcDbEntity
  8
0
  6
ByBlock
 62
     2
100
AcDbBlockReference
  2
_OPEN
 10
473.0005203516204
 20
281.2606135287558
 30
0.0
 41
2.5
 42
2.5
 43
2.5
 50
180.0
  0
MTEXT
  5
1769
330
18
100
AcDbEntity
  8
0
  6
ByBlock
 62
     6
100
AcDbMText
 10
471.5005203516204
 20
283.1356135287558
 30
0.0
 40
2.5
 41
0.0
 71
     5
 72
     1
  1
\A1;3
  7
STYLE3
 73
     1
 44
1.0
  0
POINT
  5
176A
330
18
100
AcDbEntity
  8
DEFPOINTS
  6
ByBlock
 62
     0
100
AcDbPoint
 10
470.0005203516204
 20
294.6703695857589
 30
0.0
  0
POINT
  5
176B
330
18
100
AcDbEntity
  8
DEFPOINTS
  6
ByBlock
 62
     0
100
AcDbPoint
 10
473.0005203516204
 20
294.8885514039407
 30
0.0
  0
POINT
  5
176C
330
18
100
AcDbEntity
  8
DEFPOINTS
  6
ByBlock
 62
     0
100
AcDbPoint
 10
473.0005203516204
 20
281.2606135287558
 30
0.0
  0
LINE
  5
190D
330
18
100
AcDbEntity
  8
外形線
100
AcDbLine
 10
312.9367543111948
 20
440.799980338277
 30
0.0
 11
433.9367543111947
 21
440.799980338277
 31
0.0
  0
LINE
  5
190E
330
18
100
AcDbEntity
  8
外形線
100
AcDbLine
 10
312.9367543111948
 20
439.799980338277
 30
0.0
 11
433.9367543111947
 21
439.799980338277
 31
0.0
  0
TEXT
  5
190F
330
18
100
AcDbEntity
  8
文字
100
AcDbText
 10
313.0104173111948
 20
442.807076338277
 30
0.0
 40
4.0
  1
Model No.LH-2 Inside Dial Caliper Gauge
  7
STYLE3
100
AcDbText
  0
LINE
  5
1911
330
18
100
AcDbEntity
  8
外形線
100
AcDbLine
 10
479.6975932842714
 20
197.1272147849506
 30
0.0
 11
620.4890112842714
 21
197.1272147849506
 31
0.0
  0
LINE
  5
1912
330
18
100
AcDbEntity
  8
外形線
100
AcDbLine
 10
479.6975932842714
 20
186.3470087849506
 30
0.0
 11
620.4890112842714
 21
186.3470087849506
 31
0.0
  0
TEXT
  5
1913
330
18
100
AcDbEntity
  8
0
  6
Continuous
100
AcDbText
 10
481.1550602842714
 20
188.2449987849506
 30
0.0
 40
2.1
  1
Design and specifications are subject to change without notice for future improvement.
  7
STYLE3
100
AcDbText
  0
TEXT
  5
1914
330
18
100
AcDbEntity
  8
0
  6
Continuous
100
AcDbText
 10
481.4465542842714
 20
192.1741467849506
 30
0.0
 40
3.5
  1
仕様及び外観は予告なく変更される場合がございますのでご了承下さい。
  7
STYLE3
100
AcDbText
  0
TEXT
  5
1915
330
18
100
AcDbEntity
  8
0
  6
Continuous
100
AcDbText
 10
480.8635692842714
 20
178.4803707849506
 30
0.0
 40
2.1
  1
3RD Angle Projection
  7
STYLE3
100
AcDbText
  0
TEXT
  5
1916
330
18
100
AcDbEntity
  8
0
  6
Continuous
100
AcDbText
 10
483.4870122842715
 20
181.9766537849506
 30
0.0
 40
3.0
  1
三　　角　　法
  7
STYLE3
100
AcDbText
  0
LINE
  5
1917
330
18
100
AcDbEntity
  8
外形線
100
AcDbLine
 10
479.6975932842714
 20
176.7322307849506
 30
0.0
 11
479.6975932842714
 21
197.1272147849506
 31
0.0
  0
LINE
  5
1918
330
18
100
AcDbEntity
  8
外形線
100
AcDbLine
 10
581.7203602842714
 20
186.3470087849506
 30
0.0
 11
581.7203602842714
 21
176.7322307849506
 31
0.0
  0
LINE
  5
1919
330
18
100
AcDbEntity
  8
外形線
100
AcDbLine
 10
551.9880102842714
 20
186.3470087849506
 30
0.0
 11
551.9880102842714
 21
176.7322307849506
 31
0.0
  0
LINE
  5
191A
330
18
100
AcDbEntity
  8
外形線
100
AcDbLine
 10
532.4579382842714
 20
186.3470087849506
 30
0.0
 11
532.4579382842714
 21
176.7322307849506
 31
0.0
  0
LINE
  5
191B
330
18
100
AcDbEntity
  8
外形線
100
AcDbLine
 10
514.9683212842715
 20
186.3470087849506
 30
0.0
 11
514.9683212842715
 21
176.7322307849506
 31
0.0
  0
TEXT
  5
191C
330
18
100
AcDbEntity
  8
0
  6
Continuous
100
AcDbText
 10
516.4257902842714
 20
181.9826087849506
 30
0.0
 40
3.0
  1
単位
  7
STYLE3
100
AcDbText
  0
TEXT
  5
191D
330
18
100
AcDbEntity
  8
0
  6
Continuous
100
AcDbText
 10
516.5975112842715
 20
178.4803717849506
 30
0.0
 40
2.1
  1
Unit
  7
STYLE3
100
AcDbText
  0
TEXT
  5
191E
330
18
100
AcDbEntity
  8
0
  6
Continuous
100
AcDbText
 10
533.7436862842714
 20
181.6912507849506
 30
0.0
 40
3.0
  1
尺 度
  7
STYLE3
100
AcDbText
  0
TEXT
  5
191F
330
18
100
AcDbEntity
  8
0
  6
Continuous
100
AcDbText
 10
524.4678382842714
 20
180.2285147849506
 30
0.0
 40
2.399999999999999
  1
mm
  7
STYLE3
100
AcDbText
  0
TEXT
  5
1920
330
18
100
AcDbEntity
  8
0
  6
Continuous
100
AcDbText
 10
534.2069012842714
 20
178.7717287849506
 30
0.0
 40
2.1
  1
Scale
  7
STYLE3
100
AcDbText
  0
TEXT
  5
1921
330
18
100
AcDbEntity
  8
0
  6
Continuous
100
AcDbText
 10
543.8261902842714
 20
180.5198717849506
 30
0.0
 40
2.399999999999999
  1
1/1
  7
STYLE3
100
AcDbText
  0
TEXT
  5
1922
330
18
100
AcDbEntity
  8
0
  6
Continuous
100
AcDbText
 10
553.9199612842715
 20
178.4803727849506
 30
0.0
 40
2.1
  1
Date
  7
STYLE3
100
AcDbText
  0
TEXT
  5
1923
330
18
100
AcDbEntity
  8
0
  6
Continuous
100
AcDbText
 10
553.5366002842714
 20
181.8134557849506
 30
0.0
 40
3.0
  1
日 付
  7
STYLE3
100
AcDbText
  0
TEXT
  5
1924
330
18
100
AcDbEntity
  8
0
  6
Continuous
100
AcDbText
 10
562.6647692842714
 20
180.2285137849506
 30
0.0
 40
2.1
  1
2010.06.29
  7
STYLE3
100
AcDbText
  0
TEXT
  5
1925
330
18
100
AcDbEntity
  8
0
  6
Continuous
100
AcDbText
 10
583.0693232842715
 20
182.2680107849506
 30
0.0
 40
3.0
  1
株式会社　尾崎製作所
  7
STYLE3
100
AcDbText
  0
TEXT
  5
1926
330
18
100
AcDbEntity
  8
0
  6
Continuous
100
AcDbText
 10
583.9438022842714
 20
178.4803717849506
 30
0.0
 40
2.1
  1
OZAKI MFG. CO., LTD.
  7
STYLE3
100
AcDbText
  0
ENDSEC
  0
SECTION
  2
OBJECTS
  0
DICTIONARY
  5
C
330
0
100
AcDbDictionary
281
     1
  3
ACAD_COLOR
350
1792
  3
ACAD_GROUP
350
D
  3
ACAD_IMAGE_DICT
350
C1B
  3
ACAD_LAYOUT
350
1795
  3
ACAD_MATERIAL
350
1791
  3
ACAD_MLINESTYLE
350
1B
  3
ACAD_PLOTSETTINGS
350
1796
  3
ACAD_PLOTSTYLENAME
350
178F
  3
ACAD_TABLESTYLE
350
1793
  3
ACDBVARIABLEDICTIONARY
350
D0A
  0
DICTIONARY
  5
D0C
330
18
100
AcDbDictionary
280
     1
281
     1
  3
ACAD_SORTENTS
360
D0D
  0
DICTIONARY
  5
1792
102
{ACAD_REACTORS
330
C
102
}
330
C
100
AcDbDictionary
281
     1
  0
DICTIONARY
  5
D
102
{ACAD_REACTORS
330
C
102
}
330
C
100
AcDbDictionary
281
     1
  0
DICTIONARY
  5
C1B
102
{ACAD_REACTORS
330
C
102
}
330
C
100
AcDbDictionary
281
     1
  3
ROGO01
350
C1C
  0
DICTIONARY
  5
1795
102
{ACAD_REACTORS
330
C
102
}
330
C
100
AcDbDictionary
281
     1
  3
Model
350
1797
  3
レイアウト1
350
1798
  0
DICTIONARY
  5
1791
102
{ACAD_REACTORS
330
C
102
}
330
C
100
AcDbDictionary
281
     1
  0
DICTIONARY
  5
1B
102
{ACAD_REACTORS
330
C
102
}
330
C
100
AcDbDictionary
281
     1
  3
STANDARD
350
1C
  0
DICTIONARY
  5
1796
102
{ACAD_REACTORS
330
C
102
}
330
C
100
AcDbDictionary
281
     1
  0
ACDBDICTIONARYWDFLT
  5
178F
102
{ACAD_REACTORS
330
C
102
}
330
C
100
AcDbDictionary
281
     1
  3
Normal
350
1790
100
AcDbDictionaryWithDefault
340
1790
  0
DICTIONARY
  5
1793
102
{ACAD_REACTORS
330
C
102
}
330
C
100
AcDbDictionary
281
     1
  3
Standard
350
1794
  0
DICTIONARY
  5
D0A
102
{ACAD_REACTORS
330
C
102
}
330
C
100
AcDbDictionary
281
     1
  3
CTABLESTYLE
350
1886
  3
SORTENTS
350
D0B
  0
SORTENTSTABLE
  5
D0D
102
{ACAD_REACTORS
330
D0C
102
}
330
D0C
100
AcDbSortentsTable
330
18
  0
IMAGEDEF
  5
C1C
102
{ACAD_REACTORS
330
C1B
102
}
330
C1B
100
AcDbRasterImageDef
 90
        0
  1
D:\ﾃｽﾄ\rogo01.TIF
 10
3388.0
 20
4668.0
 11
0.0635
 21
0.0635
280
     1
281
     5
  0
LAYOUT
  5
1797
102
{ACAD_REACTORS
330
1795
102
}
330
1795
100
AcDbPlotSettings
  1

  2
C:\Documents and Settings\佐藤\Application Data\Autodesk\AutoCAD LT 2005\R10\jpn\plotters\PEACOCK EPSON LP-6100.pc3
  4

  6

 40
0.0
 41
0.0
 42
0.0
 43
0.0
 44
0.0
 45
0.0
 46
0.0
 47
0.0
 48
0.0
 49
0.0
140
0.0
141
0.0
142
1.0
143
1.0
 70
  1712
 72
     0
 73
     0
 74
     0
  7
AutoCAD LT 98.ctb
 75
     0
147
1.0
 76
     0
 77
     2
 78
   300
148
0.0
149
0.0
100
AcDbLayout
  1
Model
 70
     1
 71
     0
 10
0.0
 20
0.0
 11
12.0
 21
9.0
 12
0.0
 22
0.0
 32
0.0
 14
0.0
 24
0.0
 34
0.0
 15
0.0
 25
0.0
 35
0.0
146
0.0
 13
0.0
 23
0.0
 33
0.0
 16
1.0
 26
0.0
 36
0.0
 17
0.0
 27
1.0
 37
0.0
 76
     0
330
18
  0
LAYOUT
  5
1798
102
{ACAD_REACTORS
330
1795
102
}
330
1795
100
AcDbPlotSettings
  1

  2
C:\Documents and Settings\佐藤\Application Data\Autodesk\AutoCAD LT 2005\R10\jpn\plotters\PEACOCK EPSON LP-6100.pc3
  4

  6

 40
0.0
 41
0.0
 42
0.0
 43
0.0
 44
0.0
 45
0.0
 46
0.0
 47
0.0
 48
0.0
 49
0.0
140
0.0
141
0.0
142
1.0
143
1.0
 70
   688
 72
     0
 73
     0
 74
     5
  7
AutoCAD LT 98.ctb
 75
    16
147
1.0
 76
     0
 77
     2
 78
   300
148
0.0
149
0.0
100
AcDbLayout
  1
レイアウト1
 70
     1
 71
     1
 10
0.0
 20
0.0
 11
420.0
 21
297.0
 12
0.0
 22
0.0
 32
0.0
 14
1.000000000000000E+20
 24
1.000000000000000E+20
 34
1.000000000000000E+20
 15
-1.000000000000000E+20
 25
-1.000000000000000E+20
 35
-1.000000000000000E+20
146
0.0
 13
0.0
 23
0.0
 33
0.0
 16
1.0
 26
0.0
 36
0.0
 17
0.0
 27
1.0
 37
0.0
 76
     0
330
15
  0
MLINESTYLE
  5
1C
102
{ACAD_REACTORS
330
1B
102
}
330
1B
100
AcDbMlineStyle
  2
STANDARD
 70
     0
  3

 62
   256
 51
90.0
 52
90.0
 71
     2
 49
0.5
 62
   256
  6
BYLAYER
 49
-0.5
 62
   256
  6
BYLAYER
  0
ACDBPLACEHOLDER
  5
1790
102
{ACAD_REACTORS
330
178F
102
}
330
178F
  0
ACAD_PROXY_OBJECT
  5
1794
102
{ACAD_REACTORS
330
1793
102
}
330
1793
100
AcDbProxyObject
 90
      499
 91
      506
 95
  2555929
 70
     0
 93
     1849
310
4214DD185B99185C992420000000000000F83F0000000000003E0FC00000000000004901028000000C1008070000C3001FDFF8000000C1003FBFF000000182007F7FE00000030400FEFFC00000060801FDFF8000000C1003FBFF000000182000000000000000C2020B0000001820100E000186003FBFF000000182007F7FE0
310
0000030400FEFFC00000060801FDFF8000000C1003FBFF000000182007F7FE0000003040000000000000012404160000003040201C00030C007F7FE00000030400FEFFC00000060801FDFF8000000C1003FBFF000000182007F7FE00000030400FEFFC000000608000
340
F
340
F
340
F
 94
        0
  0
DICTIONARYVAR
  5
1886
102
{ACAD_REACTORS
330
D0A
102
}
330
D0A
100
DictionaryVariables
280
     0
  1
STANDARD
  0
DICTIONARYVAR
  5
D0B
102
{ACAD_REACTORS
330
D0A
102
}
330
D0A
100
DictionaryVariables
280
     0
  1
96
  0
ENDSEC
  0
EOF
